  0
SECTION
  2
HEADER
  9
$ACADVER
  1
AC1015
  9
$ACADMAINTVER
 70
    20
  9
$DWGCODEPAGE
  3
ANSI_932
  9
$INSBASE
 10
0.0
 20
0.0
 30
0.0
  9
$EXTMIN
 10
139.9999999999995
 20
-0.0182460377740923
 30
0.0
  9
$EXTMAX
 10
16308.99050345242
 20
11409.6
 30
0.0
  9
$LIMMIN
 10
0.0
 20
0.0
  9
$LIMMAX
 10
16800.0
 20
11880.0
  9
$ORTHOMODE
 70
     0
  9
$REGENMODE
 70
     1
  9
$FILLMODE
 70
     1
  9
$QTEXTMODE
 70
     0
  9
$MIRRTEXT
 70
     1
  9
$LTSCALE
 40
20.0
  9
$ATTMODE
 70
     1
  9
$TEXTSIZE
 40
4.0
  9
$TRACEWID
 40
1.0
  9
$TEXTSTYLE
  7
STYLE1
  9
$CLAYER
  8
細線
  9
$CELTYPE
  6
BYLAYER
  9
$CECOLOR
 62
   256
  9
$CELTSCALE
 40
50.0
  9
$DISPSILH
 70
     0
  9
$DIMSCALE
 40
40.0
  9
$DIMASZ
 40
2.5
  9
$DIMEXO
 40
0.5
  9
$DIMDLI
 40
7.0
  9
$DIMRND
 40
0.0
  9
$DIMDLE
 40
0.0
  9
$DIMEXE
 40
1.5
  9
$DIMTP
 40
0.0
  9
$DIMTM
 40
0.0
  9
$DIMTXT
 40
3.0
  9
$DIMCEN
 40
0.0
  9
$DIMTSZ
 40
0.0
  9
$DIMTOL
 70
     0
  9
$DIMLIM
 70
     0
  9
$DIMTIH
 70
     0
  9
$DIMTOH
 70
     0
  9
$DIMSE1
 70
     0
  9
$DIMSE2
 70
     0
  9
$DIMTAD
 70
     3
  9
$DIMZIN
 70
     8
  9
$DIMBLK
  1

  9
$DIMASO
 70
     1
  9
$DIMSHO
 70
     1
  9
$DIMPOST
  1

  9
$DIMAPOST
  1

  9
$DIMALT
 70
     0
  9
$DIMALTD
 70
     2
  9
$DIMALTF
 40
0.0394
  9
$DIMLFAC
 40
1.0
  9
$DIMTOFL
 70
     1
  9
$DIMTVP
 40
0.0
  9
$DIMTIX
 70
     1
  9
$DIMSOXD
 70
     0
  9
$DIMSAH
 70
     1
  9
$DIMBLK1
  1
DOTSMALL
  9
$DIMBLK2
  1
DOTSMALL
  9
$DIMSTYLE
  2
INABA_S40G
  9
$DIMCLRD
 70
     0
  9
$DIMCLRE
 70
     0
  9
$DIMCLRT
 70
     7
  9
$DIMTFAC
 40
1.0
  9
$DIMGAP
 40
1.0
  9
$DIMJUST
 70
     0
  9
$DIMSD1
 70
     0
  9
$DIMSD2
 70
     0
  9
$DIMTOLJ
 70
     1
  9
$DIMTZIN
 70
     0
  9
$DIMALTZ
 70
     0
  9
$DIMALTTZ
 70
     0
  9
$DIMUPT
 70
     0
  9
$DIMDEC
 70
     1
  9
$DIMTDEC
 70
     4
  9
$DIMALTU
 70
     2
  9
$DIMALTTD
 70
     2
  9
$DIMTXSTY
  7
STYLE1
  9
$DIMAUNIT
 70
     0
  9
$DIMADEC
 70
     0
  9
$DIMALTRND
 40
0.0
  9
$DIMAZIN
 70
     0
  9
$DIMDSEP
 70
    46
  9
$DIMATFIT
 70
     3
  9
$DIMFRAC
 70
     0
  9
$DIMLDRBLK
  1

  9
$DIMLUNIT
 70
     2
  9
$DIMLWD
 70
    -2
  9
$DIMLWE
 70
    -2
  9
$DIMTMOVE
 70
     0
  9
$LUNITS
 70
     2
  9
$LUPREC
 70
     1
  9
$SKETCHINC
 40
1.0
  9
$FILLETRAD
 40
3.0
  9
$AUNITS
 70
     0
  9
$AUPREC
 70
     0
  9
$MENU
  1
acad
  9
$ELEVATION
 40
0.0
  9
$PELEVATION
 40
0.0
  9
$THICKNESS
 40
0.0
  9
$LIMCHECK
 70
     0
  9
$CHAMFERA
 40
0.0
  9
$CHAMFERB
 40
0.0
  9
$CHAMFERC
 40
0.0
  9
$CHAMFERD
 40
0.0
  9
$SKPOLY
 70
     0
  9
$TDCREATE
 40
2451368.612993866
  9
$TDUCREATE
 40
2451368.237993866
  9
$TDUPDATE
 40
2455827.391396262
  9
$TDUUPDATE
 40
2455827.016396262
  9
$TDINDWG
 40
0.8197232407
  9
$TDUSRTIMER
 40
0.8197232407
  9
$USRTIMER
 70
     1
  9
$ANGBASE
 50
0.0
  9
$ANGDIR
 70
     0
  9
$PDMODE
 70
     3
  9
$PDSIZE
 40
2.0
  9
$PLINEWID
 40
0.0
  9
$SPLFRAME
 70
     0
  9
$SPLINETYPE
 70
     6
  9
$SPLINESEGS
 70
     8
  9
$HANDSEED
  5
2E98F
  9
$SURFTAB1
 70
     6
  9
$SURFTAB2
 70
     6
  9
$SURFTYPE
 70
     6
  9
$SURFU
 70
     6
  9
$SURFV
 70
     6
  9
$UCSBASE
  2

  9
$UCSNAME
  2

  9
$UCSORG
 10
0.0
 20
0.0
 30
0.0
  9
$UCSXDIR
 10
1.0
 20
0.0
 30
0.0
  9
$UCSYDIR
 10
0.0
 20
1.0
 30
0.0
  9
$UCSORTHOREF
  2

  9
$UCSORTHOVIEW
 70
     0
  9
$UCSORGTOP
 10
0.0
 20
0.0
 30
0.0
  9
$UCSORGBOTTOM
 10
0.0
 20
0.0
 30
0.0
  9
$UCSORGLEFT
 10
0.0
 20
0.0
 30
0.0
  9
$UCSORGRIGHT
 10
0.0
 20
0.0
 30
0.0
  9
$UCSORGFRONT
 10
0.0
 20
0.0
 30
0.0
  9
$UCSORGBACK
 10
0.0
 20
0.0
 30
0.0
  9
$PUCSBASE
  2

  9
$PUCSNAME
  2

  9
$PUCSORG
 10
0.0
 20
0.0
 30
0.0
  9
$PUCSXDIR
 10
1.0
 20
0.0
 30
0.0
  9
$PUCSYDIR
 10
0.0
 20
1.0
 30
0.0
  9
$PUCSORTHOREF
  2

  9
$PUCSORTHOVIEW
 70
     0
  9
$PUCSORGTOP
 10
0.0
 20
0.0
 30
0.0
  9
$PUCSORGBOTTOM
 10
0.0
 20
0.0
 30
0.0
  9
$PUCSORGLEFT
 10
0.0
 20
0.0
 30
0.0
  9
$PUCSORGRIGHT
 10
0.0
 20
0.0
 30
0.0
  9
$PUCSORGFRONT
 10
0.0
 20
0.0
 30
0.0
  9
$PUCSORGBACK
 10
0.0
 20
0.0
 30
0.0
  9
$USERI1
 70
     0
  9
$USERI2
 70
     0
  9
$USERI3
 70
     0
  9
$USERI4
 70
     0
  9
$USERI5
 70
     0
  9
$USERR1
 40
0.0
  9
$USERR2
 40
0.0
  9
$USERR3
 40
0.0
  9
$USERR4
 40
0.0
  9
$USERR5
 40
0.0
  9
$WORLDVIEW
 70
     1
  9
$SHADEDGE
 70
     3
  9
$SHADEDIF
 70
    70
  9
$TILEMODE
 70
     1
  9
$MAXACTVP
 70
    16
  9
$PINSBASE
 10
0.0
 20
0.0
 30
0.0
  9
$PLIMCHECK
 70
     0
  9
$PEXTMIN
 10
1.000000000000000E+20
 20
1.000000000000000E+20
 30
1.000000000000000E+20
  9
$PEXTMAX
 10
-1.000000000000000E+20
 20
-1.000000000000000E+20
 30
-1.000000000000000E+20
  9
$PLIMMIN
 10
0.0
 20
0.0
  9
$PLIMMAX
 10
420.0
 20
297.0
  9
$UNITMODE
 70
     0
  9
$VISRETAIN
 70
     0
  9
$PLINEGEN
 70
     0
  9
$PSLTSCALE
 70
     0
  9
$TREEDEPTH
 70
  3020
  9
$CMLSTYLE
  2
STANDARD
  9
$CMLJUST
 70
     0
  9
$CMLSCALE
 40
1.0
  9
$PROXYGRAPHICS
 70
     1
  9
$MEASUREMENT
 70
     1
  9
$CELWEIGHT
370
    -1
  9
$ENDCAPS
280
     0
  9
$JOINSTYLE
280
     0
  9
$LWDISPLAY
290
     0
  9
$INSUNITS
 70
     0
  9
$HYPERLINKBASE
  1

  9
$STYLESHEET
  1
inaba.ctb
  9
$XEDIT
290
     1
  9
$CEPSNTYPE
380
     0
  9
$PSTYLEMODE
290
     1
  9
$FINGERPRINTGUID
  2
{5EAC461A-2277-4BF8-9AB0-99C43BB394F0}
  9
$VERSIONGUID
  2
{7E240C49-3ECE-436B-8BF4-6FC924B8933D}
  9
$EXTNAMES
290
     1
  9
$PSVPSCALE
 40
0.0
  9
$OLESTARTUP
290
     0
  0
ENDSEC
  0
SECTION
  2
CLASSES
  0
CLASS
  1
ACDBDICTIONARYWDFLT
  2
AcDbDictionaryWithDefault
  3
ObjectDBX Classes
 90
        0
280
     0
281
     0
  0
CLASS
  1
DICTIONARYVAR
  2
AcDbDictionaryVar
  3
ObjectDBX Classes
 90
        0
280
     0
281
     0
  0
CLASS
  1
ACDBPLACEHOLDER
  2
AcDbPlaceHolder
  3
ObjectDBX Classes
 90
        0
280
     0
281
     0
  0
CLASS
  1
LAYOUT
  2
AcDbLayout
  3
ObjectDBX Classes
 90
        0
280
     0
281
     0
  0
ENDSEC
  0
SECTION
  2
TABLES
  0
TABLE
  2
VPORT
  5
746D
330
0
100
AcDbSymbolTable
 70
     2
  0
VPORT
  5
2E987
330
746D
100
AcDbSymbolTableRecord
100
AcDbViewportTableRecord
  2
*Active
 70
     0
 10
0.0
 20
0.0
 11
1.0
 21
1.0
 12
8224.401894379875
 22
5855.509668338152
 13
0.0
 23
0.0
 14
10.0
 24
10.0
 15
10.0
 25
10.0
 16
0.0
 26
0.0
 36
1.0
 17
0.0
 27
0.0
 37
0.0
 40
11801.0752809065
 41
1.522222222222222
 42
50.0
 43
0.0
 44
0.0
 50
0.0
 51
0.0
 71
     0
 72
     0
 73
     1
 74
     0
 75
     0
 76
     0
 77
     0
 78
     0
281
     0
 65
     1
110
0.0
120
0.0
130
0.0
111
1.0
121
0.0
131
0.0
112
0.0
122
1.0
132
0.0
 79
     0
146
0.0
  0
ENDTAB
  0
TABLE
  2
LTYPE
  5
746A
330
0
100
AcDbSymbolTable
 70
     5
  0
LTYPE
  5
7477
330
746A
100
AcDbSymbolTableRecord
100
AcDbLinetypeTableRecord
  2
BYBLOCK
 70
     0
  3

 72
    65
 73
     0
 40
0.0
  0
LTYPE
  5
7478
330
746A
100
AcDbSymbolTableRecord
100
AcDbLinetypeTableRecord
  2
BYLAYER
 70
     0
  3

 72
    65
 73
     0
 40
0.0
  0
LTYPE
  5
7479
330
746A
100
AcDbSymbolTableRecord
100
AcDbLinetypeTableRecord
  2
CONTINUOUS
 70
     0
  3
Solid line
 72
    65
 73
     0
 40
0.0
  0
LTYPE
  5
7816
330
746A
100
AcDbSymbolTableRecord
100
AcDbLinetypeTableRecord
  2
CENTER
 70
     0
  3
____ _ ____ _ ____ _ ____ _ ____ _ ____ _ ____ 
 72
    65
 73
     4
 40
2.0
 49
1.25
 74
     0
 49
-0.25
 74
     0
 49
0.25
 74
     0
 49
-0.25
 74
     0
  0
LTYPE
  5
781A
330
746A
100
AcDbSymbolTableRecord
100
AcDbLinetypeTableRecord
  2
HIDDEN
 70
     0
  3
__ __ __ __ __ __ __ __ __ __ __ __ __ __ __ __
 72
    65
 73
     2
 40
0.375
 49
0.25
 74
     0
 49
-0.125
 74
     0
  0
LTYPE
  5
781B
330
746A
100
AcDbSymbolTableRecord
100
AcDbLinetypeTableRecord
  2
PHANTOM
 70
     0
  3
______  __  __  ______  __  __  ______  __  __ 
 72
    65
 73
     6
 40
2.5
 49
1.25
 74
     0
 49
-0.25
 74
     0
 49
0.25
 74
     0
 49
-0.25
 74
     0
 49
0.25
 74
     0
 49
-0.25
 74
     0
  0
LTYPE
  5
12CC3
330
746A
100
AcDbSymbolTableRecord
100
AcDbLinetypeTableRecord
  2
HIDDENX2
 70
     0
  3
Hidden (2x) ____ ____ ____ ____ ____ ____ ____
 72
    65
 73
     2
 40
19.05
 49
12.7
 74
     0
 49
-6.349999999999999
 74
     0
  0
ENDTAB
  0
TABLE
  2
LAYER
  5
7467
102
{ACAD_XDICTIONARY
360
1758F
102
}
330
0
100
AcDbSymbolTable
 70
    12
  0
LAYER
  5
7474
330
7467
100
AcDbSymbolTableRecord
100
AcDbLayerTableRecord
  2
0
 70
     0
 62
     7
  6
CONTINUOUS
370
    -3
390
173D0
  0
LAYER
  5
DEB2
330
7467
100
AcDbSymbolTableRecord
100
AcDbLayerTableRecord
  2
センター
 70
     0
 62
     3
  6
CENTER
370
    -3
390
173D0
  0
LAYER
  5
DEB3
330
7467
100
AcDbSymbolTableRecord
100
AcDbLayerTableRecord
  2
寸法
 70
     0
 62
     4
  6
CONTINUOUS
370
    -3
390
173D0
  0
LAYER
  5
DEB4
330
7467
100
AcDbSymbolTableRecord
100
AcDbLayerTableRecord
  2
部品1
 70
     0
 62
     7
  6
CONTINUOUS
370
    -3
390
173D0
  0
LAYER
  5
DEB5
330
7467
100
AcDbSymbolTableRecord
100
AcDbLayerTableRecord
  2
補助
 70
     0
 62
    -1
  6
CONTINUOUS
370
    -3
390
173D0
  0
LAYER
  5
DEB6
330
7467
100
AcDbSymbolTableRecord
100
AcDbLayerTableRecord
  2
文字
 70
     0
 62
     7
  6
CONTINUOUS
370
    -3
390
173D0
  0
LAYER
  5
F255
330
7467
100
AcDbSymbolTableRecord
100
AcDbLayerTableRecord
  2
DEFPOINTS
 70
     0
 62
     7
  6
CONTINUOUS
290
     0
370
    -3
390
173D0
  0
LAYER
  5
10B54
330
7467
100
AcDbSymbolTableRecord
100
AcDbLayerTableRecord
  2
仕様書枠
 70
     0
 62
   230
  6
CONTINUOUS
370
    -3
390
173D0
  0
LAYER
  5
11729
330
7467
100
AcDbSymbolTableRecord
100
AcDbLayerTableRecord
  2
Ｇ．Ｌ
 70
     0
 62
    30
  6
CONTINUOUS
370
    -3
390
173D0
  0
LAYER
  5
1173F
330
7467
100
AcDbSymbolTableRecord
100
AcDbLayerTableRecord
  2
細線
 70
     0
 62
     5
  6
CONTINUOUS
370
    -3
390
173D0
  0
LAYER
  5
12CC4
330
7467
100
AcDbSymbolTableRecord
100
AcDbLayerTableRecord
  2
想像線
 70
     0
 62
     6
  6
PHANTOM
370
    -3
390
173D0
  0
LAYER
  5
142E2
330
7467
100
AcDbSymbolTableRecord
100
AcDbLayerTableRecord
  2
破線
 70
     0
 62
     2
  6
HIDDEN
370
    -3
390
173D0
  0
ENDTAB
  0
TABLE
  2
STYLE
  5
7468
330
0
100
AcDbSymbolTable
 70
     7
  0
STYLE
  5
7475
330
7468
100
AcDbSymbolTableRecord
100
AcDbTextStyleTableRecord
  2
STANDARD
 70
     0
 40
0.0
 41
1.0
 50
0.0
 71
     0
 42
4.0
  3
txt
  4
C:\AutoCAD LT\bigfont.shx
  0
STYLE
  5
763C
330
7468
100
AcDbSymbolTableRecord
100
AcDbTextStyleTableRecord
  2
MSMINCHO
 70
     0
 40
0.0
 41
1.0
 50
0.0
 71
     0
 42
1.199999999999999
  3
C:\AutoCAD LT\msminch2.TTF
  4

  0
STYLE
  5
F706
330
7468
100
AcDbSymbolTableRecord
100
AcDbTextStyleTableRecord
  2
STYLE1
 70
     0
 40
0.0
 41
1.0
 50
0.0
 71
     0
 42
4.0
  3
isocp.shx
  4
bigfont.shx
  0
STYLE
  5
103BF
330
7468
100
AcDbSymbolTableRecord
100
AcDbTextStyleTableRecord
  2
STYLE2
 70
     0
 40
0.0
 41
1.0
 50
0.0
 71
     0
 42
100.0
  3
MS PGothic.ttf
  4

1001
ACAD
1000
MS PGothic
1071
    32818
  0
STYLE
  5
10BAA
330
7468
100
AcDbSymbolTableRecord
100
AcDbTextStyleTableRecord
  2
STYLE3
 70
     0
 40
0.0
 41
1.0
 50
0.0
 71
     0
 42
100.0
  3

  4

1001
ACAD
1000
DFPGothic-EB
1071
    32818
  0
STYLE
  5
11A15
330
7468
100
AcDbSymbolTableRecord
100
AcDbTextStyleTableRecord
  2
MSGOTHIC
 70
     0
 40
0.0
 41
1.0
 50
0.0
 71
     0
 42
3.5
  3
msgothi2.ttf
  4

  0
STYLE
  5
13E96
330
7468
100
AcDbSymbolTableRecord
100
AcDbTextStyleTableRecord
  2
MSPゴシック
 70
     0
 40
0.0
 41
1.0
 50
0.0
 71
     0
 42
4.0
  3
MS PGothic.ttf
  4

1001
ACAD
1000
MS PGothic
1071
    32818
  0
ENDTAB
  0
TABLE
  2
VIEW
  5
746B
330
0
100
AcDbSymbolTable
 70
     0
  0
ENDTAB
  0
TABLE
  2
UCS
  5
746C
330
0
100
AcDbSymbolTable
 70
     0
  0
ENDTAB
  0
TABLE
  2
APPID
  5
746E
330
0
100
AcDbSymbolTable
 70
     6
  0
APPID
  5
7476
330
746E
100
AcDbSymbolTableRecord
100
AcDbRegAppTableRecord
  2
ACAD
 70
     0
  0
APPID
  5
DEA9
330
746E
100
AcDbSymbolTableRecord
100
AcDbRegAppTableRecord
  2
CONTENTBLOCKICON
 70
     0
  0
APPID
  5
DEAA
330
746E
100
AcDbSymbolTableRecord
100
AcDbRegAppTableRecord
  2
CONTENTBLOCKDESCRIPTION
 70
     0
  0
APPID
  5
E71D
330
746E
100
AcDbSymbolTableRecord
100
AcDbRegAppTableRecord
  2
CONTENTTABDATA
 70
     0
  0
APPID
  5
E71E
330
746E
100
AcDbSymbolTableRecord
100
AcDbRegAppTableRecord
  2
CONTENTCURRENTTAB
 70
     0
  0
APPID
  5
F3BA
330
746E
100
AcDbSymbolTableRecord
100
AcDbRegAppTableRecord
  2
DRAWINGVARIABLESXDATA
 70
     0
  0
ENDTAB
  0
TABLE
  2
DIMSTYLE
  5
746F
330
0
100
AcDbSymbolTable
 70
     6
100
AcDbDimStyleTable
 71
     1
340
F71F
  0
DIMSTYLE
105
7484
330
746F
100
AcDbSymbolTableRecord
100
AcDbDimStyleTableRecord
  2
JIS
 70
     0
 41
2.5
 42
1.0
 43
7.0
 44
1.0
 73
     0
 74
     0
 77
     1
 78
     8
140
2.5
141
0.0
143
0.0394
147
0.0
172
     1
174
     1
175
     1
340
7475
  0
DIMSTYLE
105
F236
330
746F
100
AcDbSymbolTableRecord
100
AcDbDimStyleTableRecord
  2
INABA_S40
 70
     0
 40
40.0
 41
2.5
 42
0.5
 43
7.0
 44
1.5
 73
     0
 74
     0
 77
     3
 78
     8
140
3.0
141
0.0
143
0.0394
147
1.0
172
     1
173
     1
174
     1
175
     1
178
     7
289
     0
340
7475
341
DEAC
343
DEAC
344
DEAC
  0
DIMSTYLE
105
F71F
102
{ACAD_REACTORS
330
2D708
330
2D709
330
2D70A
330
2D70B
330
2D70C
330
2D711
330
2D712
330
2DDD9
330
2DDB1
330
2DD57
330
2DD56
330
2DD52
330
2DD51
330
2DD0F
330
2DD0B
330
2DC95
330
2DC8F
330
2DC8D
330
2DC8C
330
2DC89
330
2DC9C
330
2DD0E
330
2DC9A
330
2DC91
330
2DC90
330
2DCA5
330
2DC8E
330
2E7A4
330
2E7A5
330
2E7AD
330
2E7B4
330
2E7B7
330
2E817
102
}
330
746F
100
AcDbSymbolTableRecord
100
AcDbDimStyleTableRecord
  2
INABA_S40G
 70
     0
 40
40.0
 41
2.5
 42
0.5
 43
7.0
 44
1.5
 73
     0
 74
     0
 77
     3
 78
     8
140
3.0
141
0.0
143
0.0394
147
1.0
172
     1
173
     1
174
     1
178
     7
271
     1
340
F706
341
F770
343
F770
344
F770
  0
DIMSTYLE
105
142E3
330
746F
100
AcDbSymbolTableRecord
100
AcDbDimStyleTableRecord
  2
INABA_S1
 70
     0
 40
0.0
 41
2.5
 42
0.5
 43
7.0
 44
1.5
 73
     0
 74
     0
 77
     3
 78
     8
140
3.0
141
0.0
143
0.0394
146
0.5
147
0.5
172
     1
173
     1
176
   256
177
   256
178
     7
271
     2
272
     2
284
     8
288
     1
340
7475
341
DEAC
343
DEAC
344
DEAC
  0
DIMSTYLE
105
14463
330
746F
100
AcDbSymbolTableRecord
100
AcDbDimStyleTableRecord
  2
INABA_S30G
 70
     0
 40
30.0
 41
2.5
 42
0.5
 43
7.0
 44
1.5
 73
     0
 74
     0
 77
     3
 78
     8
140
3.0
141
0.0
143
0.0394
147
1.0
172
     1
173
     1
174
     1
175
     1
178
     7
271
     1
340
F706
341
F770
343
F770
344
F770
  0
DIMSTYLE
105
1758E
330
746F
100
AcDbSymbolTableRecord
100
AcDbDimStyleTableRecord
  2
INABA_S50G
 70
     0
 41
125.0
 42
25.0
 43
7.0
 44
75.0
 73
     0
 74
     0
 77
     3
 78
     8
140
150.0
141
0.0
143
0.0394
147
25.0
172
     1
173
     1
174
     1
175
     1
178
     7
271
     1
340
F706
341
F770
343
F770
344
F770
  0
ENDTAB
  0
TABLE
  2
BLOCK_RECORD
  5
7466
330
0
100
AcDbSymbolTable
 70
    52
  0
BLOCK_RECORD
  5
747D
330
7466
100
AcDbSymbolTableRecord
100
AcDbBlockTableRecord
  2
*MODEL_SPACE
340
173D5
  0
BLOCK_RECORD
  5
747A
330
7466
100
AcDbSymbolTableRecord
100
AcDbBlockTableRecord
  2
*PAPER_SPACE
340
173D6
  0
BLOCK_RECORD
  5
DEAC
330
7466
100
AcDbSymbolTableRecord
100
AcDbBlockTableRecord
  2
_OPEN
340
0
  0
BLOCK_RECORD
  5
F770
330
7466
100
AcDbSymbolTableRecord
100
AcDbBlockTableRecord
  2
_DOTSMALL
340
0
102
{BLKREFS
331
18C65
331
18C66
331
18C59
331
18C5A
331
18C4D
331
18C4E
331
18C41
331
18C42
331
18C35
331
18C36
331
18C29
331
18C2A
331
18C1D
331
18C1E
331
18C0F
331
18C10
331
18C03
331
18C04
331
18BF5
331
18BF6
331
18BE7
331
18BE8
331
18BD9
331
18BDA
331
18BCD
331
18BCE
331
2E316
331
2E317
331
2E31F
331
2E320
331
2E34D
331
2E34E
331
2E356
331
2E357
331
2E383
331
2E384
331
2E38C
331
2E38D
331
2E396
331
2E397
331
2E3B2
331
2E3B3
331
2E3CF
331
2E3D0
331
2E3E3
331
2E3E4
331
2E3F8
331
2E3F9
331
2E403
331
2E404
331
2E40E
331
2E40F
331
2E44C
331
2E44D
331
2E455
331
2E456
331
2E47A
331
2E47B
331
2E495
331
2E496
331
2E4A7
331
2E4A8
331
2E4B0
331
2E4B1
331
2E4CB
331
2E4CC
331
2E4DD
331
2E4DE
331
2E4E6
331
2E4E7
331
2E4EF
331
2E4F0
331
2E4F8
331
2E4F9
331
2E501
331
2E502
331
2E585
331
2E586
331
2E612
331
2E613
331
2E91D
331
2E91E
331
2E928
331
2E929
331
2E931
331
2E932
331
2E93A
331
2E93B
331
2E943
331
2E944
331
2E94C
331
2E94D
102
}
  0
BLOCK_RECORD
  5
164B4
330
7466
100
AcDbSymbolTableRecord
100
AcDbBlockTableRecord
  2
_DOT
340
0
102
{BLKREFS
331
18C73
331
18C74
102
}
  0
BLOCK_RECORD
  5
18BC8
330
7466
100
AcDbSymbolTableRecord
100
AcDbBlockTableRecord
  2
*D3
340
0
  0
BLOCK_RECORD
  5
18BD4
330
7466
100
AcDbSymbolTableRecord
100
AcDbBlockTableRecord
  2
*D4
340
0
  0
BLOCK_RECORD
  5
18BE0
330
7466
100
AcDbSymbolTableRecord
100
AcDbBlockTableRecord
  2
*D5
340
0
  0
BLOCK_RECORD
  5
18BEE
330
7466
100
AcDbSymbolTableRecord
100
AcDbBlockTableRecord
  2
*D6
340
0
  0
BLOCK_RECORD
  5
18BFC
330
7466
100
AcDbSymbolTableRecord
100
AcDbBlockTableRecord
  2
*D7
340
0
  0
BLOCK_RECORD
  5
18C0A
330
7466
100
AcDbSymbolTableRecord
100
AcDbBlockTableRecord
  2
*D8
340
0
  0
BLOCK_RECORD
  5
18C16
330
7466
100
AcDbSymbolTableRecord
100
AcDbBlockTableRecord
  2
*D9
340
0
  0
BLOCK_RECORD
  5
18C24
330
7466
100
AcDbSymbolTableRecord
100
AcDbBlockTableRecord
  2
*D10
340
0
  0
BLOCK_RECORD
  5
18C30
330
7466
100
AcDbSymbolTableRecord
100
AcDbBlockTableRecord
  2
*D11
340
0
  0
BLOCK_RECORD
  5
18C3C
330
7466
100
AcDbSymbolTableRecord
100
AcDbBlockTableRecord
  2
*D12
340
0
  0
BLOCK_RECORD
  5
18C48
330
7466
100
AcDbSymbolTableRecord
100
AcDbBlockTableRecord
  2
*D13
340
0
  0
BLOCK_RECORD
  5
18C54
330
7466
100
AcDbSymbolTableRecord
100
AcDbBlockTableRecord
  2
*D14
340
0
  0
BLOCK_RECORD
  5
18C60
330
7466
100
AcDbSymbolTableRecord
100
AcDbBlockTableRecord
  2
*D15
340
0
  0
BLOCK_RECORD
  5
18C6C
330
7466
100
AcDbSymbolTableRecord
100
AcDbBlockTableRecord
  2
*D16
340
0
  0
BLOCK_RECORD
  5
18C7A
330
7466
100
AcDbSymbolTableRecord
100
AcDbBlockTableRecord
  2
A$C3B1A506B
340
0
  0
BLOCK_RECORD
  5
1C4CA
330
7466
100
AcDbSymbolTableRecord
100
AcDbBlockTableRecord
  2
_NONE
340
0
  0
BLOCK_RECORD
  5
2D841
330
7466
100
AcDbSymbolTableRecord
100
AcDbBlockTableRecord
  2
*D19
340
0
  0
BLOCK_RECORD
  5
2D84E
330
7466
100
AcDbSymbolTableRecord
100
AcDbBlockTableRecord
  2
*D20
340
0
  0
BLOCK_RECORD
  5
2D85B
330
7466
100
AcDbSymbolTableRecord
100
AcDbBlockTableRecord
  2
*D21
340
0
  0
BLOCK_RECORD
  5
2D868
330
7466
100
AcDbSymbolTableRecord
100
AcDbBlockTableRecord
  2
*D22
340
0
  0
BLOCK_RECORD
  5
2D876
330
7466
100
AcDbSymbolTableRecord
100
AcDbBlockTableRecord
  2
*D23
340
0
  0
BLOCK_RECORD
  5
2D884
330
7466
100
AcDbSymbolTableRecord
100
AcDbBlockTableRecord
  2
*D24
340
0
  0
BLOCK_RECORD
  5
2D892
330
7466
100
AcDbSymbolTableRecord
100
AcDbBlockTableRecord
  2
*D25
340
0
  0
BLOCK_RECORD
  5
2DDE9
330
7466
100
AcDbSymbolTableRecord
100
AcDbBlockTableRecord
  2
*D26
340
0
  0
BLOCK_RECORD
  5
2DDF5
330
7466
100
AcDbSymbolTableRecord
100
AcDbBlockTableRecord
  2
*D27
340
0
  0
BLOCK_RECORD
  5
2DE01
330
7466
100
AcDbSymbolTableRecord
100
AcDbBlockTableRecord
  2
*D28
340
0
  0
BLOCK_RECORD
  5
2DE0C
330
7466
100
AcDbSymbolTableRecord
100
AcDbBlockTableRecord
  2
*D29
340
0
  0
BLOCK_RECORD
  5
2DE18
330
7466
100
AcDbSymbolTableRecord
100
AcDbBlockTableRecord
  2
*D30
340
0
  0
BLOCK_RECORD
  5
2DE24
330
7466
100
AcDbSymbolTableRecord
100
AcDbBlockTableRecord
  2
*D31
340
0
  0
BLOCK_RECORD
  5
2DE30
330
7466
100
AcDbSymbolTableRecord
100
AcDbBlockTableRecord
  2
*D32
340
0
  0
BLOCK_RECORD
  5
2DE3C
330
7466
100
AcDbSymbolTableRecord
100
AcDbBlockTableRecord
  2
*D33
340
0
  0
BLOCK_RECORD
  5
2DE54
330
7466
100
AcDbSymbolTableRecord
100
AcDbBlockTableRecord
  2
*D34
340
0
  0
BLOCK_RECORD
  5
2DE6D
330
7466
100
AcDbSymbolTableRecord
100
AcDbBlockTableRecord
  2
*D35
340
0
  0
BLOCK_RECORD
  5
2DE79
330
7466
100
AcDbSymbolTableRecord
100
AcDbBlockTableRecord
  2
*D36
340
0
  0
BLOCK_RECORD
  5
2DE85
330
7466
100
AcDbSymbolTableRecord
100
AcDbBlockTableRecord
  2
*D37
340
0
  0
BLOCK_RECORD
  5
2DE9B
330
7466
100
AcDbSymbolTableRecord
100
AcDbBlockTableRecord
  2
*D38
340
0
  0
BLOCK_RECORD
  5
2DEA8
330
7466
100
AcDbSymbolTableRecord
100
AcDbBlockTableRecord
  2
*D39
340
0
  0
BLOCK_RECORD
  5
2DECF
330
7466
100
AcDbSymbolTableRecord
100
AcDbBlockTableRecord
  2
*D40
340
0
  0
BLOCK_RECORD
  5
2DEDB
330
7466
100
AcDbSymbolTableRecord
100
AcDbBlockTableRecord
  2
*D41
340
0
  0
BLOCK_RECORD
  5
2DEE7
330
7466
100
AcDbSymbolTableRecord
100
AcDbBlockTableRecord
  2
*D42
340
0
  0
BLOCK_RECORD
  5
2DEF3
330
7466
100
AcDbSymbolTableRecord
100
AcDbBlockTableRecord
  2
*D43
340
0
  0
BLOCK_RECORD
  5
2DEFF
330
7466
100
AcDbSymbolTableRecord
100
AcDbBlockTableRecord
  2
*D44
340
0
  0
BLOCK_RECORD
  5
2DF18
330
7466
100
AcDbSymbolTableRecord
100
AcDbBlockTableRecord
  2
*D45
340
0
  0
BLOCK_RECORD
  5
2E8D0
330
7466
100
AcDbSymbolTableRecord
100
AcDbBlockTableRecord
  2
*D46
340
0
  0
BLOCK_RECORD
  5
2E8DC
330
7466
100
AcDbSymbolTableRecord
100
AcDbBlockTableRecord
  2
*D47
340
0
  0
BLOCK_RECORD
  5
2E8EA
330
7466
100
AcDbSymbolTableRecord
100
AcDbBlockTableRecord
  2
*D48
340
0
  0
BLOCK_RECORD
  5
2E8F6
330
7466
100
AcDbSymbolTableRecord
100
AcDbBlockTableRecord
  2
*D49
340
0
  0
BLOCK_RECORD
  5
2E902
330
7466
100
AcDbSymbolTableRecord
100
AcDbBlockTableRecord
  2
*D50
340
0
  0
BLOCK_RECORD
  5
2E90E
330
7466
100
AcDbSymbolTableRecord
100
AcDbBlockTableRecord
  2
*D51
340
0
  0
ENDTAB
  0
ENDSEC
  0
SECTION
  2
BLOCKS
  0
BLOCK
  5
7489
330
747D
100
AcDbEntity
  8
0
100
AcDbBlockBegin
  2
*MODEL_SPACE
 70
     0
 10
0.0
 20
0.0
 30
0.0
  3
*MODEL_SPACE
  1

  0
ENDBLK
  5
748A
330
747D
100
AcDbEntity
  8
0
100
AcDbBlockEnd
  0
BLOCK
  5
7487
330
747A
100
AcDbEntity
 67
     1
  8
0
100
AcDbBlockBegin
  2
*PAPER_SPACE
 70
     0
 10
0.0
 20
0.0
 30
0.0
  3
*PAPER_SPACE
  1

  0
ENDBLK
  5
7488
330
747A
100
AcDbEntity
 67
     1
  8
0
100
AcDbBlockEnd
  0
BLOCK
  5
DEAD
330
DEAC
100
AcDbEntity
  8
0
100
AcDbBlockBegin
  2
_OPEN
 70
     0
 10
0.0
 20
0.0
 30
0.0
  3
_OPEN
  1

  0
LINE
  5
DEAE
330
DEAC
100
AcDbEntity
  8
0
  6
ByBlock
 62
     0
100
AcDbLine
 10
-1.0
 20
0.1666666666666666
 30
0.0
 11
0.0
 21
0.0
 31
0.0
  0
LINE
  5
DEAF
330
DEAC
100
AcDbEntity
  8
0
  6
ByBlock
 62
     0
100
AcDbLine
 10
0.0
 20
0.0
 30
0.0
 11
-1.0
 21
-0.1666666666666666
 31
0.0
  0
LINE
  5
DEB0
330
DEAC
100
AcDbEntity
  8
0
  6
ByBlock
 62
     0
100
AcDbLine
 10
0.0
 20
0.0
 30
0.0
 11
-1.0
 21
0.0
 31
0.0
  0
ENDBLK
  5
DEB1
330
DEAC
100
AcDbEntity
  8
0
100
AcDbBlockEnd
  0
BLOCK
  5
F771
330
F770
100
AcDbEntity
  8
0
 48
50.0
100
AcDbBlockBegin
  2
_DOTSMALL
 70
     0
 10
0.0
 20
0.0
 30
0.0
  3
_DOTSMALL
  1

  0
LWPOLYLINE
  5
F772
330
F770
100
AcDbEntity
  8
0
  6
ByBlock
 62
     0
 48
50.0
100
AcDbPolyline
 90
        2
 70
     1
 43
0.5
 10
-0.0625
 20
0.0
 42
1.0
 10
0.0625
 20
0.0
 42
1.0
  0
ENDBLK
  5
F776
330
F770
100
AcDbEntity
  8
0
 48
50.0
100
AcDbBlockEnd
  0
BLOCK
  5
164BA
330
164B4
100
AcDbEntity
  8
0
 48
50.0
100
AcDbBlockBegin
  2
_DOT
 70
     0
 10
0.0
 20
0.0
 30
0.0
  3
_DOT
  1

  0
LWPOLYLINE
  5
164B5
330
164B4
100
AcDbEntity
  8
0
  6
ByBlock
 62
     0
 48
50.0
100
AcDbPolyline
 90
        2
 70
     1
 43
0.5
 10
-0.25
 20
0.0
 42
1.0
 10
0.25
 20
0.0
 42
1.0
  0
LINE
  5
164B9
330
164B4
100
AcDbEntity
  8
0
  6
ByBlock
 62
     0
 48
50.0
100
AcDbLine
 10
-0.5
 20
0.0
 30
0.0
 11
-1.0
 21
0.0
 31
0.0
  0
ENDBLK
  5
164BB
330
164B4
100
AcDbEntity
  8
0
 48
50.0
100
AcDbBlockEnd
  0
BLOCK
  5
18BC9
330
18BC8
100
AcDbEntity
  8
0
 48
50.0
100
AcDbBlockBegin
  2
*D3
 70
     1
 10
0.0
 20
0.0
 30
0.0
  3
*D3
  1

  0
LINE
  5
18BCA
330
18BC8
100
AcDbEntity
  8
寸法
 62
     0
 48
50.0
370
    -2
100
AcDbLine
 10
7649.896575106999
 20
9636.123139034717
 30
0.0
 11
8702.429862581047
 21
9636.123139034717
 31
0.0
  0
LINE
  5
18BCB
330
18BC8
100
AcDbEntity
  8
寸法
 62
     0
 48
50.0
370
    -2
100
AcDbLine
 10
7649.896575106973
 20
7846.123139034709
 30
0.0
 11
8702.429862581047
 21
7846.123139034709
 31
0.0
  0
LINE
  5
18BCC
330
18BC8
100
AcDbEntity
  8
寸法
 62
     0
 48
50.0
370
    -2
100
AcDbLine
 10
8642.429862581046
 20
9636.123139034717
 30
0.0
 11
8642.429862581046
 21
7846.123139034709
 31
0.0
  0
INSERT
  5
18BCD
330
18BC8
100
AcDbEntity
  8
寸法
 62
     0
 48
50.0
370
    -2
100
AcDbBlockReference
  2
_DOTSMALL
 10
8642.429862581046
 20
9636.123139034717
 30
0.0
 41
100.0
 42
100.0
 43
100.0
 50
90.0
  0
INSERT
  5
18BCE
330
18BC8
100
AcDbEntity
  8
寸法
 62
     0
 48
50.0
370
    -2
100
AcDbBlockReference
  2
_DOTSMALL
 10
8642.429862581046
 20
7846.123139034709
 30
0.0
 41
100.0
 42
100.0
 43
100.0
 50
270.0
  0
MTEXT
  5
18BCF
330
18BC8
100
AcDbEntity
  8
寸法
 62
     7
 48
50.0
100
AcDbMText
 10
8542.429862581045
 20
8741.123139034712
 30
0.0
 40
120.0
 41
0.0
 71
     5
 72
     1
  1
\A1;1790
  7
STYLE1
 11
0.0000000000000001
 21
1.0
 31
0.0
 73
     1
 44
1.0
1001
ACAD
1000
MTEXTBEGIN
1070
    73
1070
     1
1070
    44
1040
1.0
1070
    74
1070
     0
1000
MTEXTEND
  0
POINT
  5
18BD0
330
18BC8
100
AcDbEntity
  8
DEFPOINTS
 62
     0
 48
50.0
100
AcDbPoint
 10
7629.896575106998
 20
9636.123139034717
 30
0.0
  0
POINT
  5
18BD1
330
18BC8
100
AcDbEntity
  8
DEFPOINTS
 62
     0
 48
50.0
100
AcDbPoint
 10
7629.896575106974
 20
7846.123139034709
 30
0.0
  0
POINT
  5
18BD2
330
18BC8
100
AcDbEntity
  8
DEFPOINTS
 62
     0
 48
50.0
100
AcDbPoint
 10
8642.429862581046
 20
7846.123139034709
 30
0.0
  0
ENDBLK
  5
18BD3
330
18BC8
100
AcDbEntity
  8
0
 48
50.0
100
AcDbBlockEnd
  0
BLOCK
  5
18BD5
330
18BD4
100
AcDbEntity
  8
0
 48
50.0
100
AcDbBlockBegin
  2
*D4
 70
     1
 10
0.0
 20
0.0
 30
0.0
  3
*D4
  1

  0
LINE
  5
18BD6
330
18BD4
100
AcDbEntity
  8
寸法
 62
     0
 48
50.0
370
    -2
100
AcDbLine
 10
4214.896575106998
 20
9656.123139034622
 30
0.0
 11
4214.896575106998
 21
10211.93135865972
 31
0.0
  0
LINE
  5
18BD7
330
18BD4
100
AcDbEntity
  8
寸法
 62
     0
 48
50.0
370
    -2
100
AcDbLine
 10
7574.896575106999
 20
9656.123139034718
 30
0.0
 11
7574.896575106999
 21
10211.93135865972
 31
0.0
  0
LINE
  5
18BD8
330
18BD4
100
AcDbEntity
  8
寸法
 62
     0
 48
50.0
370
    -2
100
AcDbLine
 10
4214.896575106998
 20
10151.93135865972
 30
0.0
 11
7574.896575106999
 21
10151.93135865972
 31
0.0
  0
INSERT
  5
18BD9
330
18BD4
100
AcDbEntity
  8
寸法
 62
     0
 48
50.0
370
    -2
100
AcDbBlockReference
  2
_DOTSMALL
 10
4214.896575106998
 20
10151.93135865972
 30
0.0
 41
100.0
 42
100.0
 43
100.0
 50
180.0
  0
INSERT
  5
18BDA
330
18BD4
100
AcDbEntity
  8
寸法
 62
     0
 48
50.0
370
    -2
100
AcDbBlockReference
  2
_DOTSMALL
 10
7574.896575106999
 20
10151.93135865972
 30
0.0
 41
100.0
 42
100.0
 43
100.0
  0
MTEXT
  5
18BDB
330
18BD4
100
AcDbEntity
  8
寸法
 62
     7
 48
50.0
100
AcDbMText
 10
5894.896575106997
 20
10251.94316968334
 30
0.0
 40
120.0
 41
0.0
 71
     5
 72
     1
  1
\A1;8X420=3360
  7
STYLE1
 73
     1
 44
1.0
1001
ACAD
1000
MTEXTBEGIN
1070
    73
1070
     1
1070
    44
1040
1.0
1070
    74
1070
     0
1000
MTEXTEND
  0
POINT
  5
18BDC
330
18BD4
100
AcDbEntity
  8
DEFPOINTS
 62
     0
 48
50.0
100
AcDbPoint
 10
4214.896575106998
 20
9636.123139034623
 30
0.0
  0
POINT
  5
18BDD
330
18BD4
100
AcDbEntity
  8
DEFPOINTS
 62
     0
 48
50.0
100
AcDbPoint
 10
7574.896575106999
 20
9636.123139034717
 30
0.0
  0
POINT
  5
18BDE
330
18BD4
100
AcDbEntity
  8
DEFPOINTS
 62
     0
 48
50.0
100
AcDbPoint
 10
7574.896575106999
 20
10151.93135865972
 30
0.0
  0
ENDBLK
  5
18BDF
330
18BD4
100
AcDbEntity
  8
0
 48
50.0
100
AcDbBlockEnd
  0
BLOCK
  5
18BE1
330
18BE0
100
AcDbEntity
  8
0
 48
50.0
100
AcDbBlockBegin
  2
*D5
 70
     1
 10
0.0
 20
0.0
 30
0.0
  3
*D5
  1

  0
LINE
  5
18BE2
330
18BE0
100
AcDbEntity
  8
寸法
 62
     0
 48
50.0
370
    -2
100
AcDbLine
 10
7574.896575106999
 20
9656.123139034718
 30
0.0
 11
7574.896575106999
 21
10211.9313586597
 31
0.0
  0
LINE
  5
18BE3
330
18BE0
100
AcDbEntity
  8
寸法
 62
     0
 48
50.0
370
    -2
100
AcDbLine
 10
7629.896575106998
 20
9656.123139034718
 30
0.0
 11
7629.896575106998
 21
10211.9313586597
 31
0.0
  0
LINE
  5
18BE4
330
18BE0
100
AcDbEntity
  8
寸法
 62
     0
 48
50.0
370
    -2
100
AcDbLine
 10
7574.896575106999
 20
10151.9313586597
 30
0.0
 11
7474.896575106999
 21
10151.9313586597
 31
0.0
  0
LINE
  5
18BE5
330
18BE0
100
AcDbEntity
  8
寸法
 62
     0
 48
50.0
370
    -2
100
AcDbLine
 10
7629.896575106998
 20
10151.9313586597
 30
0.0
 11
8046.867137855477
 21
10151.9313586597
 31
0.0
  0
LINE
  5
18BE6
330
18BE0
100
AcDbEntity
  8
寸法
 62
     0
 48
50.0
370
    -2
100
AcDbLine
 10
7574.896575106999
 20
10151.9313586597
 30
0.0
 11
7629.896575106998
 21
10151.9313586597
 31
0.0
  0
INSERT
  5
18BE7
330
18BE0
100
AcDbEntity
  8
寸法
 62
     0
 48
50.0
370
    -2
100
AcDbBlockReference
  2
_DOTSMALL
 10
7574.896575106999
 20
10151.9313586597
 30
0.0
 41
100.0
 42
100.0
 43
100.0
  0
INSERT
  5
18BE8
330
18BE0
100
AcDbEntity
  8
寸法
 62
     0
 48
50.0
370
    -2
100
AcDbBlockReference
  2
_DOTSMALL
 10
7629.896575106998
 20
10151.9313586597
 30
0.0
 41
100.0
 42
100.0
 43
100.0
 50
180.0
  0
MTEXT
  5
18BE9
330
18BE0
100
AcDbEntity
  8
寸法
 62
     7
 48
50.0
100
AcDbMText
 10
7938.381856481237
 20
10251.9313586597
 30
0.0
 40
120.0
 41
0.0
 71
     5
 72
     1
  1
\A1;55
  7
STYLE1
 73
     1
 44
1.0
1001
ACAD
1000
MTEXTBEGIN
1070
    73
1070
     1
1070
    44
1040
1.0
1070
    74
1070
     0
1000
MTEXTEND
  0
POINT
  5
18BEA
330
18BE0
100
AcDbEntity
  8
DEFPOINTS
 62
     0
 48
50.0
100
AcDbPoint
 10
7574.896575106999
 20
9636.123139034717
 30
0.0
  0
POINT
  5
18BEB
330
18BE0
100
AcDbEntity
  8
DEFPOINTS
 62
     0
 48
50.0
100
AcDbPoint
 10
7629.896575106998
 20
9636.123139034717
 30
0.0
  0
POINT
  5
18BEC
330
18BE0
100
AcDbEntity
  8
DEFPOINTS
 62
     0
 48
50.0
100
AcDbPoint
 10
7629.896575106998
 20
10151.9313586597
 30
0.0
  0
ENDBLK
  5
18BED
330
18BE0
100
AcDbEntity
  8
0
 48
50.0
100
AcDbBlockEnd
  0
BLOCK
  5
18BEF
330
18BEE
100
AcDbEntity
  8
0
 48
50.0
100
AcDbBlockBegin
  2
*D6
 70
     1
 10
0.0
 20
0.0
 30
0.0
  3
*D6
  1

  0
LINE
  5
18BF0
330
18BEE
100
AcDbEntity
  8
寸法
 62
     0
 48
50.0
370
    -2
100
AcDbLine
 10
7649.896575106999
 20
9636.123139034717
 30
0.0
 11
8337.32292084141
 21
9636.123139034717
 31
0.0
  0
LINE
  5
18BF1
330
18BEE
100
AcDbEntity
  8
寸法
 62
     0
 48
50.0
370
    -2
100
AcDbLine
 10
7649.896575106999
 20
9581.123139034721
 30
0.0
 11
8337.32292084141
 21
9581.123139034721
 31
0.0
  0
LINE
  5
18BF2
330
18BEE
100
AcDbEntity
  8
寸法
 62
     0
 48
50.0
370
    -2
100
AcDbLine
 10
8277.322920841411
 20
9581.123139034721
 30
0.0
 11
8277.322920841411
 21
9481.123139034719
 31
0.0
  0
LINE
  5
18BF3
330
18BEE
100
AcDbEntity
  8
寸法
 62
     0
 48
50.0
370
    -2
100
AcDbLine
 10
8277.322920841411
 20
9636.123139034717
 30
0.0
 11
8277.322920841411
 21
10053.09370178319
 31
0.0
  0
LINE
  5
18BF4
330
18BEE
100
AcDbEntity
  8
寸法
 62
     0
 48
50.0
370
    -2
100
AcDbLine
 10
8277.322920841411
 20
9581.123139034721
 30
0.0
 11
8277.322920841411
 21
9636.123139034717
 31
0.0
  0
INSERT
  5
18BF5
330
18BEE
100
AcDbEntity
  8
寸法
 62
     0
 48
50.0
370
    -2
100
AcDbBlockReference
  2
_DOTSMALL
 10
8277.322920841411
 20
9581.123139034721
 30
0.0
 41
100.0
 42
100.0
 43
100.0
 50
90.0
  0
INSERT
  5
18BF6
330
18BEE
100
AcDbEntity
  8
寸法
 62
     0
 48
50.0
370
    -2
100
AcDbBlockReference
  2
_DOTSMALL
 10
8277.322920841411
 20
9636.123139034717
 30
0.0
 41
100.0
 42
100.0
 43
100.0
 50
270.0
  0
MTEXT
  5
18BF7
330
18BEE
100
AcDbEntity
  8
寸法
 62
     7
 48
50.0
100
AcDbMText
 10
8177.32292084141
 20
9944.608420408957
 30
0.0
 40
120.0
 41
0.0
 71
     5
 72
     1
  1
\A1;55
  7
STYLE1
 11
0.0000000000000001
 21
1.0
 31
0.0
 73
     1
 44
1.0
1001
ACAD
1000
MTEXTBEGIN
1070
    73
1070
     1
1070
    44
1040
1.0
1070
    74
1070
     0
1000
MTEXTEND
  0
POINT
  5
18BF8
330
18BEE
100
AcDbEntity
  8
DEFPOINTS
 62
     0
 48
50.0
100
AcDbPoint
 10
7629.896575106998
 20
9636.123139034717
 30
0.0
  0
POINT
  5
18BF9
330
18BEE
100
AcDbEntity
  8
DEFPOINTS
 62
     0
 48
50.0
100
AcDbPoint
 10
7629.896575106998
 20
9581.123139034721
 30
0.0
  0
POINT
  5
18BFA
330
18BEE
100
AcDbEntity
  8
DEFPOINTS
 62
     0
 48
50.0
100
AcDbPoint
 10
8277.322920841411
 20
9581.123139034721
 30
0.0
  0
ENDBLK
  5
18BFB
330
18BEE
100
AcDbEntity
  8
0
 48
50.0
100
AcDbBlockEnd
  0
BLOCK
  5
18BFD
330
18BFC
100
AcDbEntity
  8
0
 48
50.0
100
AcDbBlockBegin
  2
*D7
 70
     1
 10
0.0
 20
0.0
 30
0.0
  3
*D7
  1

  0
LINE
  5
18BFE
330
18BFC
100
AcDbEntity
  8
寸法
 62
     0
 48
50.0
370
    -2
100
AcDbLine
 10
4159.896575106963
 20
9656.123139034622
 30
0.0
 11
4159.896575106963
 21
10211.9313586596
 31
0.0
  0
LINE
  5
18BFF
330
18BFC
100
AcDbEntity
  8
寸法
 62
     0
 48
50.0
370
    -2
100
AcDbLine
 10
4214.896575106998
 20
9656.123139034622
 30
0.0
 11
4214.896575106998
 21
10211.9313586596
 31
0.0
  0
LINE
  5
18C00
330
18BFC
100
AcDbEntity
  8
寸法
 62
     0
 48
50.0
370
    -2
100
AcDbLine
 10
4214.896575106998
 20
10151.9313586596
 30
0.0
 11
4314.896575106998
 21
10151.9313586596
 31
0.0
  0
LINE
  5
18C01
330
18BFC
100
AcDbEntity
  8
寸法
 62
     0
 48
50.0
370
    -2
100
AcDbLine
 10
4159.896575106963
 20
10151.9313586596
 30
0.0
 11
3742.926012358486
 21
10151.9313586596
 31
0.0
  0
LINE
  5
18C02
330
18BFC
100
AcDbEntity
  8
寸法
 62
     0
 48
50.0
370
    -2
100
AcDbLine
 10
4214.896575106998
 20
10151.9313586596
 30
0.0
 11
4159.896575106963
 21
10151.9313586596
 31
0.0
  0
INSERT
  5
18C03
330
18BFC
100
AcDbEntity
  8
寸法
 62
     0
 48
50.0
370
    -2
100
AcDbBlockReference
  2
_DOTSMALL
 10
4214.896575106998
 20
10151.9313586596
 30
0.0
 41
100.0
 42
100.0
 43
100.0
 50
180.0
  0
INSERT
  5
18C04
330
18BFC
100
AcDbEntity
  8
寸法
 62
     0
 48
50.0
370
    -2
100
AcDbBlockReference
  2
_DOTSMALL
 10
4159.896575106963
 20
10151.9313586596
 30
0.0
 41
100.0
 42
100.0
 43
100.0
  0
MTEXT
  5
18C05
330
18BFC
100
AcDbEntity
  8
寸法
 62
     7
 48
50.0
100
AcDbMText
 10
3851.411293732725
 20
10251.9313586596
 30
0.0
 40
120.0
 41
0.0
 71
     5
 72
     1
  1
\A1;55
  7
STYLE1
 73
     1
 44
1.0
1001
ACAD
1000
MTEXTBEGIN
1070
    73
1070
     1
1070
    44
1040
1.0
1070
    74
1070
     0
1000
MTEXTEND
  0
POINT
  5
18C06
330
18BFC
100
AcDbEntity
  8
DEFPOINTS
 62
     0
 48
50.0
100
AcDbPoint
 10
4159.896575106963
 20
9636.123139034623
 30
0.0
  0
POINT
  5
18C07
330
18BFC
100
AcDbEntity
  8
DEFPOINTS
 62
     0
 48
50.0
100
AcDbPoint
 10
4214.896575106998
 20
9636.123139034623
 30
0.0
  0
POINT
  5
18C08
330
18BFC
100
AcDbEntity
  8
DEFPOINTS
 62
     0
 48
50.0
100
AcDbPoint
 10
4214.896575106998
 20
10151.9313586596
 30
0.0
  0
ENDBLK
  5
18C09
330
18BFC
100
AcDbEntity
  8
0
 48
50.0
100
AcDbBlockEnd
  0
BLOCK
  5
18C0B
330
18C0A
100
AcDbEntity
  8
0
 48
50.0
100
AcDbBlockBegin
  2
*D8
 70
     1
 10
0.0
 20
0.0
 30
0.0
  3
*D8
  1

  0
LINE
  5
18C0C
330
18C0A
100
AcDbEntity
  8
寸法
 62
     0
 48
50.0
370
    -2
100
AcDbLine
 10
4159.896575106992
 20
7826.123139034546
 30
0.0
 11
4159.896575106992
 21
6804.372203245664
 31
0.0
  0
LINE
  5
18C0D
330
18C0A
100
AcDbEntity
  8
寸法
 62
     0
 48
50.0
370
    -2
100
AcDbLine
 10
7629.896575106974
 20
7826.123139034674
 30
0.0
 11
7629.896575106974
 21
6804.372203245664
 31
0.0
  0
LINE
  5
18C0E
330
18C0A
100
AcDbEntity
  8
寸法
 62
     0
 48
50.0
370
    -2
100
AcDbLine
 10
4159.896575106992
 20
6864.372203245665
 30
0.0
 11
7629.896575106974
 21
6864.372203245665
 31
0.0
  0
INSERT
  5
18C0F
330
18C0A
100
AcDbEntity
  8
寸法
 62
     0
 48
50.0
370
    -2
100
AcDbBlockReference
  2
_DOTSMALL
 10
4159.896575106992
 20
6864.372203245665
 30
0.0
 41
100.0
 42
100.0
 43
100.0
 50
180.0
  0
INSERT
  5
18C10
330
18C0A
100
AcDbEntity
  8
寸法
 62
     0
 48
50.0
370
    -2
100
AcDbBlockReference
  2
_DOTSMALL
 10
7629.896575106974
 20
6864.372203245665
 30
0.0
 41
100.0
 42
100.0
 43
100.0
  0
MTEXT
  5
18C11
330
18C0A
100
AcDbEntity
  8
寸法
 62
     7
 48
50.0
100
AcDbMText
 10
5911.12376113973
 20
6964.372203245665
 30
0.0
 40
120.0
 41
0.0
 71
     5
 72
     1
  1
\A1;3470
  7
STYLE1
 73
     1
 44
1.0
1001
ACAD
1000
MTEXTBEGIN
1070
    73
1070
     1
1070
    44
1040
1.0
1070
    74
1070
     0
1000
MTEXTEND
  0
POINT
  5
18C12
330
18C0A
100
AcDbEntity
  8
DEFPOINTS
 62
     0
 48
50.0
100
AcDbPoint
 10
4159.896575106992
 20
7846.123139034546
 30
0.0
  0
POINT
  5
18C13
330
18C0A
100
AcDbEntity
  8
DEFPOINTS
 62
     0
 48
50.0
100
AcDbPoint
 10
7629.896575106974
 20
7846.123139034673
 30
0.0
  0
POINT
  5
18C14
330
18C0A
100
AcDbEntity
  8
DEFPOINTS
 62
     0
 48
50.0
100
AcDbPoint
 10
7629.896575106974
 20
6864.372203245665
 30
0.0
  0
ENDBLK
  5
18C15
330
18C0A
100
AcDbEntity
  8
0
 48
50.0
100
AcDbBlockEnd
  0
BLOCK
  5
18C17
330
18C16
100
AcDbEntity
  8
0
 48
50.0
100
AcDbBlockBegin
  2
*D9
 70
     1
 10
0.0
 20
0.0
 30
0.0
  3
*D9
  1

  0
LINE
  5
18C18
330
18C16
100
AcDbEntity
  8
寸法
 62
     0
 48
50.0
370
    -2
100
AcDbLine
 10
7649.896575106973
 20
7901.123139034706
 30
0.0
 11
8337.322920841385
 21
7901.123139034706
 31
0.0
  0
LINE
  5
18C19
330
18C16
100
AcDbEntity
  8
寸法
 62
     0
 48
50.0
370
    -2
100
AcDbLine
 10
7649.896575106973
 20
7846.123139034709
 30
0.0
 11
8337.322920841385
 21
7846.123139034709
 31
0.0
  0
LINE
  5
18C1A
330
18C16
100
AcDbEntity
  8
寸法
 62
     0
 48
50.0
370
    -2
100
AcDbLine
 10
8277.322920841385
 20
7901.123139034706
 30
0.0
 11
8277.322920841385
 21
8001.123139034707
 31
0.0
  0
LINE
  5
18C1B
330
18C16
100
AcDbEntity
  8
寸法
 62
     0
 48
50.0
370
    -2
100
AcDbLine
 10
8277.322920841385
 20
7846.123139034709
 30
0.0
 11
8277.322920841385
 21
7429.152576286229
 31
0.0
  0
LINE
  5
18C1C
330
18C16
100
AcDbEntity
  8
寸法
 62
     0
 48
50.0
370
    -2
100
AcDbLine
 10
8277.322920841385
 20
7901.123139034706
 30
0.0
 11
8277.322920841385
 21
7846.123139034709
 31
0.0
  0
INSERT
  5
18C1D
330
18C16
100
AcDbEntity
  8
寸法
 62
     0
 48
50.0
370
    -2
100
AcDbBlockReference
  2
_DOTSMALL
 10
8277.322920841385
 20
7901.123139034706
 30
0.0
 41
100.0
 42
100.0
 43
100.0
 50
270.0
  0
INSERT
  5
18C1E
330
18C16
100
AcDbEntity
  8
寸法
 62
     0
 48
50.0
370
    -2
100
AcDbBlockReference
  2
_DOTSMALL
 10
8277.322920841385
 20
7846.123139034709
 30
0.0
 41
100.0
 42
100.0
 43
100.0
 50
90.0
  0
MTEXT
  5
18C1F
330
18C16
100
AcDbEntity
  8
寸法
 62
     7
 48
50.0
100
AcDbMText
 10
8177.322920841383
 20
7537.637857660469
 30
0.0
 40
120.0
 41
0.0
 71
     5
 72
     1
  1
\A1;55
  7
STYLE1
 11
0.0000000000000001
 21
1.0
 31
0.0
 73
     1
 44
1.0
1001
ACAD
1000
MTEXTBEGIN
1070
    73
1070
     1
1070
    44
1040
1.0
1070
    74
1070
     0
1000
MTEXTEND
  0
POINT
  5
18C20
330
18C16
100
AcDbEntity
  8
DEFPOINTS
 62
     0
 48
50.0
100
AcDbPoint
 10
7629.896575106974
 20
7901.123139034706
 30
0.0
  0
POINT
  5
18C21
330
18C16
100
AcDbEntity
  8
DEFPOINTS
 62
     0
 48
50.0
100
AcDbPoint
 10
7629.896575106974
 20
7846.123139034709
 30
0.0
  0
POINT
  5
18C22
330
18C16
100
AcDbEntity
  8
DEFPOINTS
 62
     0
 48
50.0
100
AcDbPoint
 10
8277.322920841385
 20
7846.123139034709
 30
0.0
  0
ENDBLK
  5
18C23
330
18C16
100
AcDbEntity
  8
0
 48
50.0
100
AcDbBlockEnd
  0
BLOCK
  5
18C25
330
18C24
100
AcDbEntity
  8
0
 48
50.0
100
AcDbBlockBegin
  2
*D10
 70
     1
 10
0.0
 20
0.0
 30
0.0
  3
*D10
  1

  0
LINE
  5
18C26
330
18C24
100
AcDbEntity
  8
寸法
 62
     0
 48
50.0
370
    -2
100
AcDbLine
 10
6533.037591258376
 20
9136.123139034728
 30
0.0
 11
6465.083950562664
 21
8882.516699399049
 31
0.0
  0
LINE
  5
18C27
330
18C24
100
AcDbEntity
  8
寸法
 62
     0
 48
50.0
370
    -2
100
AcDbLine
 10
7596.037591258388
 20
9136.123139034721
 30
0.0
 11
7528.083950562677
 21
8882.516699399049
 31
0.0
  0
LINE
  5
18C28
330
18C24
100
AcDbEntity
  8
寸法
 62
     0
 48
50.0
370
    -2
100
AcDbLine
 10
6481.160902108531
 20
8942.51669939905
 30
0.0
 11
7544.160902108544
 21
8942.51669939905
 31
0.0
  0
INSERT
  5
18C29
330
18C24
100
AcDbEntity
  8
寸法
 62
     0
 48
50.0
370
    -2
100
AcDbBlockReference
  2
_DOTSMALL
 10
6481.160902108531
 20
8942.51669939905
 30
0.0
 41
100.0
 42
100.0
 43
100.0
 50
180.0
  0
INSERT
  5
18C2A
330
18C24
100
AcDbEntity
  8
寸法
 62
     0
 48
50.0
370
    -2
100
AcDbBlockReference
  2
_DOTSMALL
 10
7544.160902108544
 20
8942.51669939905
 30
0.0
 41
100.0
 42
100.0
 43
100.0
  0
MTEXT
  5
18C2B
330
18C24
100
AcDbEntity
  8
寸法
 62
     7
 48
50.0
100
AcDbMText
 10
7061.28653022935
 20
9042.516699399049
 30
0.0
 40
120.0
 41
0.0
 71
     5
 72
     1
  1
\A1;1063
  7
STYLE1
 73
     1
 44
1.0
1001
ACAD
1000
MTEXTBEGIN
1070
    73
1070
     1
1070
    44
1040
1.0
1070
    74
1070
     0
1000
MTEXTEND
  0
POINT
  5
18C2C
330
18C24
100
AcDbEntity
  8
DEFPOINTS
 62
     0
 48
50.0
100
AcDbPoint
 10
6538.396575106998
 20
9156.123139034727
 30
0.0
  0
POINT
  5
18C2D
330
18C24
100
AcDbEntity
  8
DEFPOINTS
 62
     0
 48
50.0
100
AcDbPoint
 10
7601.39657510701
 20
9156.12313903472
 30
0.0
  0
POINT
  5
18C2E
330
18C24
100
AcDbEntity
  8
DEFPOINTS
 62
     0
 48
50.0
100
AcDbPoint
 10
7544.160902108544
 20
8942.51669939905
 30
0.0
  0
ENDBLK
  5
18C2F
330
18C24
100
AcDbEntity
  8
0
 48
50.0
100
AcDbBlockEnd
  0
BLOCK
  5
18C31
330
18C30
100
AcDbEntity
  8
0
 48
50.0
100
AcDbBlockBegin
  2
*D11
 70
     1
 10
0.0
 20
0.0
 30
0.0
  3
*D11
  1

  0
LINE
  5
18C32
330
18C30
100
AcDbEntity
  8
寸法
 62
     0
 48
50.0
370
    -2
100
AcDbLine
 10
7621.396575106999
 20
9600.764155186094
 30
0.0
 11
8016.754300969024
 21
9494.828371819961
 31
0.0
  0
LINE
  5
18C33
330
18C30
100
AcDbEntity
  8
寸法
 62
     0
 48
50.0
370
    -2
100
AcDbLine
 10
7621.396575106999
 20
9150.764155186099
 30
0.0
 11
8016.754300969024
 21
9044.828371819964
 31
0.0
  0
LINE
  5
18C34
330
18C30
100
AcDbEntity
  8
寸法
 62
     0
 48
50.0
370
    -2
100
AcDbLine
 10
7956.754300969024
 20
9510.905323365827
 30
0.0
 11
7956.754300969024
 21
9060.90532336583
 31
0.0
  0
INSERT
  5
18C35
330
18C30
100
AcDbEntity
  8
寸法
 62
     0
 48
50.0
370
    -2
100
AcDbBlockReference
  2
_DOTSMALL
 10
7956.754300969024
 20
9510.905323365827
 30
0.0
 41
100.0
 42
100.0
 43
100.0
 50
90.0
  0
INSERT
  5
18C36
330
18C30
100
AcDbEntity
  8
寸法
 62
     0
 48
50.0
370
    -2
100
AcDbBlockReference
  2
_DOTSMALL
 10
7956.754300969024
 20
9060.90532336583
 30
0.0
 41
100.0
 42
100.0
 43
100.0
 50
270.0
  0
MTEXT
  5
18C37
330
18C30
100
AcDbEntity
  8
寸法
 62
     7
 48
50.0
100
AcDbMText
 10
7856.754300969022
 20
9285.905323365829
 30
0.0
 40
120.0
 41
0.0
 71
     5
 72
     1
  1
\A1;450
  7
STYLE1
 11
0.0000000000000001
 21
1.0
 31
0.0
 73
     1
 44
1.0
1001
ACAD
1000
MTEXTBEGIN
1070
    73
1070
     1
1070
    44
1040
1.0
1070
    74
1070
     0
1000
MTEXTEND
  0
POINT
  5
18C38
330
18C30
100
AcDbEntity
  8
DEFPOINTS
 62
     0
 48
50.0
100
AcDbPoint
 10
7601.396575106999
 20
9606.123139034718
 30
0.0
  0
POINT
  5
18C39
330
18C30
100
AcDbEntity
  8
DEFPOINTS
 62
     0
 48
50.0
100
AcDbPoint
 10
7601.396575106999
 20
9156.12313903472
 30
0.0
  0
POINT
  5
18C3A
330
18C30
100
AcDbEntity
  8
DEFPOINTS
 62
     0
 48
50.0
100
AcDbPoint
 10
7956.754300969024
 20
9060.90532336583
 30
0.0
  0
ENDBLK
  5
18C3B
330
18C30
100
AcDbEntity
  8
0
 48
50.0
100
AcDbBlockEnd
  0
BLOCK
  5
18C3D
330
18C3C
100
AcDbEntity
  8
0
 48
50.0
100
AcDbBlockBegin
  2
*D12
 70
     1
 10
0.0
 20
0.0
 30
0.0
  3
*D12
  1

  0
LINE
  5
18C3E
330
18C3C
100
AcDbEntity
  8
寸法
 62
     0
 48
50.0
370
    -2
100
AcDbLine
 10
7649.896575106999
 20
9581.123139034721
 30
0.0
 11
8337.32292084141
 21
9581.123139034721
 31
0.0
  0
LINE
  5
18C3F
330
18C3C
100
AcDbEntity
  8
寸法
 62
     0
 48
50.0
370
    -2
100
AcDbLine
 10
7649.896575106973
 20
7901.123139034706
 30
0.0
 11
8337.32292084141
 21
7901.123139034706
 31
0.0
  0
LINE
  5
18C40
330
18C3C
100
AcDbEntity
  8
寸法
 62
     0
 48
50.0
370
    -2
100
AcDbLine
 10
8277.322920841411
 20
9581.123139034721
 30
0.0
 11
8277.322920841411
 21
7901.123139034706
 31
0.0
  0
INSERT
  5
18C41
330
18C3C
100
AcDbEntity
  8
寸法
 62
     0
 48
50.0
370
    -2
100
AcDbBlockReference
  2
_DOTSMALL
 10
8277.322920841411
 20
9581.123139034721
 30
0.0
 41
100.0
 42
100.0
 43
100.0
 50
90.0
  0
INSERT
  5
18C42
330
18C3C
100
AcDbEntity
  8
寸法
 62
     0
 48
50.0
370
    -2
100
AcDbBlockReference
  2
_DOTSMALL
 10
8277.322920841411
 20
7901.123139034706
 30
0.0
 41
100.0
 42
100.0
 43
100.0
 50
270.0
  0
MTEXT
  5
18C43
330
18C3C
100
AcDbEntity
  8
寸法
 62
     7
 48
50.0
100
AcDbMText
 10
8177.311109817788
 20
8741.123139034712
 30
0.0
 40
120.0
 41
0.0
 71
     5
 72
     1
  1
\A1;4X420=1680
  7
STYLE1
 11
0.0000000000000001
 21
1.0
 31
0.0
 73
     1
 44
1.0
1001
ACAD
1000
MTEXTBEGIN
1070
    73
1070
     1
1070
    44
1040
1.0
1070
    74
1070
     0
1000
MTEXTEND
  0
POINT
  5
18C44
330
18C3C
100
AcDbEntity
  8
DEFPOINTS
 62
     0
 48
50.0
100
AcDbPoint
 10
7629.896575106998
 20
9581.123139034721
 30
0.0
  0
POINT
  5
18C45
330
18C3C
100
AcDbEntity
  8
DEFPOINTS
 62
     0
 48
50.0
100
AcDbPoint
 10
7629.896575106974
 20
7901.123139034706
 30
0.0
  0
POINT
  5
18C46
330
18C3C
100
AcDbEntity
  8
DEFPOINTS
 62
     0
 48
50.0
100
AcDbPoint
 10
8277.322920841411
 20
7901.123139034706
 30
0.0
  0
ENDBLK
  5
18C47
330
18C3C
100
AcDbEntity
  8
0
 48
50.0
100
AcDbBlockEnd
  0
BLOCK
  5
18C49
330
18C48
100
AcDbEntity
  8
0
 48
50.0
100
AcDbBlockBegin
  2
*D13
 70
     1
 10
0.0
 20
0.0
 30
0.0
  3
*D13
  1

  0
LINE
  5
18C4A
330
18C48
100
AcDbEntity
  8
寸法
 62
     0
 48
50.0
370
    -2
100
AcDbLine
 10
4183.037591258377
 20
9136.123139034619
 30
0.0
 11
4115.083950562663
 21
8882.516699398941
 31
0.0
  0
LINE
  5
18C4B
330
18C48
100
AcDbEntity
  8
寸法
 62
     0
 48
50.0
370
    -2
100
AcDbLine
 10
5246.037591258307
 20
9136.123139034671
 30
0.0
 11
5178.08395056258
 21
8882.516699398941
 31
0.0
  0
LINE
  5
18C4C
330
18C48
100
AcDbEntity
  8
寸法
 62
     0
 48
50.0
370
    -2
100
AcDbLine
 10
4131.160902108532
 20
8942.516699398941
 30
0.0
 11
5194.160902108448
 21
8942.516699398941
 31
0.0
  0
INSERT
  5
18C4D
330
18C48
100
AcDbEntity
  8
寸法
 62
     0
 48
50.0
370
    -2
100
AcDbBlockReference
  2
_DOTSMALL
 10
4131.160902108532
 20
8942.516699398941
 30
0.0
 41
100.0
 42
100.0
 43
100.0
 50
180.0
  0
INSERT
  5
18C4E
330
18C48
100
AcDbEntity
  8
寸法
 62
     0
 48
50.0
370
    -2
100
AcDbBlockReference
  2
_DOTSMALL
 10
5194.160902108448
 20
8942.516699398941
 30
0.0
 41
100.0
 42
100.0
 43
100.0
  0
MTEXT
  5
18C4F
330
18C48
100
AcDbEntity
  8
寸法
 62
     7
 48
50.0
100
AcDbMText
 10
4658.986452655306
 20
9042.516699398941
 30
0.0
 40
120.0
 41
0.0
 71
     5
 72
     1
  1
\A1;1063
  7
STYLE1
 73
     1
 44
1.0
1001
ACAD
1000
MTEXTBEGIN
1070
    73
1070
     1
1070
    44
1040
1.0
1070
    74
1070
     0
1000
MTEXTEND
  0
POINT
  5
18C50
330
18C48
100
AcDbEntity
  8
DEFPOINTS
 62
     0
 48
50.0
100
AcDbPoint
 10
4188.396575106999
 20
9156.123139034617
 30
0.0
  0
POINT
  5
18C51
330
18C48
100
AcDbEntity
  8
DEFPOINTS
 62
     0
 48
50.0
100
AcDbPoint
 10
5251.396575106929
 20
9156.123139034672
 30
0.0
  0
POINT
  5
18C52
330
18C48
100
AcDbEntity
  8
DEFPOINTS
 62
     0
 48
50.0
100
AcDbPoint
 10
5194.160902108448
 20
8942.516699398941
 30
0.0
  0
ENDBLK
  5
18C53
330
18C48
100
AcDbEntity
  8
0
 48
50.0
100
AcDbBlockEnd
  0
BLOCK
  5
18C55
330
18C54
100
AcDbEntity
  8
0
 48
50.0
100
AcDbBlockBegin
  2
*D14
 70
     1
 10
0.0
 20
0.0
 30
0.0
  3
*D14
  1

  0
LINE
  5
18C56
330
18C54
100
AcDbEntity
  8
寸法
 62
     0
 48
50.0
370
    -2
100
AcDbLine
 10
5274.037591258307
 20
9136.123139034669
 30
0.0
 11
5206.08395056258
 21
8882.516699398941
 31
0.0
  0
LINE
  5
18C57
330
18C54
100
AcDbEntity
  8
寸法
 62
     0
 48
50.0
370
    -2
100
AcDbLine
 10
6505.037591258377
 20
9136.123139034662
 30
0.0
 11
6437.083950562653
 21
8882.516699398941
 31
0.0
  0
LINE
  5
18C58
330
18C54
100
AcDbEntity
  8
寸法
 62
     0
 48
50.0
370
    -2
100
AcDbLine
 10
5222.160902108448
 20
8942.516699398941
 30
0.0
 11
6453.16090210852
 21
8942.516699398941
 31
0.0
  0
INSERT
  5
18C59
330
18C54
100
AcDbEntity
  8
寸法
 62
     0
 48
50.0
370
    -2
100
AcDbBlockReference
  2
_DOTSMALL
 10
5222.160902108448
 20
8942.516699398941
 30
0.0
 41
100.0
 42
100.0
 43
100.0
 50
180.0
  0
INSERT
  5
18C5A
330
18C54
100
AcDbEntity
  8
寸法
 62
     0
 48
50.0
370
    -2
100
AcDbBlockReference
  2
_DOTSMALL
 10
6453.16090210852
 20
8942.516699398941
 30
0.0
 41
100.0
 42
100.0
 43
100.0
  0
MTEXT
  5
18C5B
330
18C54
100
AcDbEntity
  8
寸法
 62
     7
 48
50.0
100
AcDbMText
 10
6081.244808320626
 20
9042.528510422561
 30
0.0
 40
120.0
 41
0.0
 71
     5
 72
     1
  1
\A1;1231
  7
STYLE1
 73
     1
 44
1.0
1001
ACAD
1000
MTEXTBEGIN
1070
    73
1070
     1
1070
    44
1040
1.0
1070
    74
1070
     0
1000
MTEXTEND
  0
POINT
  5
18C5C
330
18C54
100
AcDbEntity
  8
DEFPOINTS
 62
     0
 48
50.0
100
AcDbPoint
 10
5279.396575106929
 20
9156.123139034669
 30
0.0
  0
POINT
  5
18C5D
330
18C54
100
AcDbEntity
  8
DEFPOINTS
 62
     0
 48
50.0
100
AcDbPoint
 10
6510.396575106999
 20
9156.123139034662
 30
0.0
  0
POINT
  5
18C5E
330
18C54
100
AcDbEntity
  8
DEFPOINTS
 62
     0
 48
50.0
100
AcDbPoint
 10
6453.16090210852
 20
8942.516699398941
 30
0.0
  0
ENDBLK
  5
18C5F
330
18C54
100
AcDbEntity
  8
0
 48
50.0
100
AcDbBlockEnd
  0
BLOCK
  5
18C61
330
18C60
100
AcDbEntity
  8
0
 48
50.0
100
AcDbBlockBegin
  2
*D15
 70
     1
 10
0.0
 20
0.0
 30
0.0
  3
*D15
  1

  0
LINE
  5
18C62
330
18C60
100
AcDbEntity
  8
寸法
 62
     0
 48
50.0
370
    -2
100
AcDbLine
 10
5065.896575106966
 20
7749.123139034579
 30
0.0
 11
5065.896575106966
 21
7099.952920982538
 31
0.0
  0
LINE
  5
18C63
330
18C60
100
AcDbEntity
  8
寸法
 62
     0
 48
50.0
370
    -2
100
AcDbLine
 10
6331.896575106966
 20
7749.123139034579
 30
0.0
 11
6331.896575106966
 21
7099.952920982538
 31
0.0
  0
LINE
  5
18C64
330
18C60
100
AcDbEntity
  8
寸法
 62
     0
 48
50.0
370
    -2
100
AcDbLine
 10
5065.896575106966
 20
7159.952920982537
 30
0.0
 11
6331.896575106966
 21
7159.952920982537
 31
0.0
  0
INSERT
  5
18C65
330
18C60
100
AcDbEntity
  8
寸法
 62
     0
 48
50.0
370
    -2
100
AcDbBlockReference
  2
_DOTSMALL
 10
5065.896575106966
 20
7159.952920982537
 30
0.0
 41
100.0
 42
100.0
 43
100.0
 50
180.0
  0
INSERT
  5
18C66
330
18C60
100
AcDbEntity
  8
寸法
 62
     0
 48
50.0
370
    -2
100
AcDbBlockReference
  2
_DOTSMALL
 10
6331.896575106966
 20
7159.952920982537
 30
0.0
 41
100.0
 42
100.0
 43
100.0
  0
MTEXT
  5
18C67
330
18C60
100
AcDbEntity
  8
寸法
 62
     7
 48
50.0
100
AcDbMText
 10
5711.986008735934
 20
7359.964732006159
 30
0.0
 40
120.0
 41
0.0
 71
     5
 72
     1
  1
\A1;有効開口部間口\P1266
  7
STYLE1
 73
     1
 44
1.0
1001
ACAD
1000
MTEXTBEGIN
1070
    73
1070
     1
1070
    44
1040
1.0
1070
    74
1070
     0
1000
MTEXTEND
  0
POINT
  5
18C68
330
18C60
100
AcDbEntity
  8
DEFPOINTS
 62
     0
 48
50.0
100
AcDbPoint
 10
5065.896575106966
 20
7769.123139034579
 30
0.0
  0
POINT
  5
18C69
330
18C60
100
AcDbEntity
  8
DEFPOINTS
 62
     0
 48
50.0
100
AcDbPoint
 10
6331.896575106966
 20
7769.123139034579
 30
0.0
  0
POINT
  5
18C6A
330
18C60
100
AcDbEntity
  8
DEFPOINTS
 62
     0
 48
50.0
100
AcDbPoint
 10
6331.896575106966
 20
7159.952920982537
 30
0.0
  0
ENDBLK
  5
18C6B
330
18C60
100
AcDbEntity
  8
0
 48
50.0
100
AcDbBlockEnd
  0
BLOCK
  5
18C6D
330
18C6C
100
AcDbEntity
  8
0
 48
50.0
100
AcDbBlockBegin
  2
*D16
 70
     1
 10
0.0
 20
0.0
 30
0.0
  3
*D16
  1

  0
LINE
  5
18C6E
330
18C6C
100
AcDbEntity
  8
寸法
 62
     0
 48
50.0
370
    -2
100
AcDbLine
 10
7200.896575106966
 20
7846.123139034578
 30
0.0
 11
7457.192158500191
 21
7846.123139034578
 31
0.0
  0
LINE
  5
18C6F
330
18C6C
100
AcDbEntity
  8
寸法
 62
     0
 48
50.0
370
    -2
100
AcDbLine
 10
7199.896575106966
 20
7769.123139034579
 30
0.0
 11
7457.192158500191
 21
7769.123139034579
 31
0.0
  0
LINE
  5
18C70
330
18C6C
100
AcDbEntity
  8
寸法
 62
     0
 48
50.0
370
    -2
100
AcDbLine
 10
7417.192158500192
 20
7866.123139034579
 30
0.0
 11
7417.192158500192
 21
7886.123139034578
 31
0.0
  0
LINE
  5
18C71
330
18C6C
100
AcDbEntity
  8
寸法
 62
     0
 48
50.0
370
    -2
100
AcDbLine
 10
7417.192158500192
 20
7749.123139034579
 30
0.0
 11
7417.192158500192
 21
7533.123139034573
 31
0.0
  0
LINE
  5
18C72
330
18C6C
100
AcDbEntity
  8
寸法
 62
     0
 48
50.0
370
    -2
100
AcDbLine
 10
7417.192158500192
 20
7846.123139034578
 30
0.0
 11
7417.192158500192
 21
7769.123139034579
 31
0.0
  0
INSERT
  5
18C73
330
18C6C
100
AcDbEntity
  8
寸法
 62
     0
 48
50.0
370
    -2
100
AcDbBlockReference
  2
_DOT
 10
7417.192158500192
 20
7846.123139034578
 30
0.0
 41
20.0
 42
20.0
 43
20.0
 50
270.0
  0
INSERT
  5
18C74
330
18C6C
100
AcDbEntity
  8
寸法
 62
     0
 48
50.0
370
    -2
100
AcDbBlockReference
  2
_DOT
 10
7417.192158500192
 20
7769.123139034579
 30
0.0
 41
20.0
 42
20.0
 43
20.0
 50
90.0
  0
MTEXT
  5
18C75
330
18C6C
100
AcDbEntity
  8
寸法
 62
     7
 48
50.0
100
AcDbMText
 10
7325.192158500191
 20
7631.123139034575
 30
0.0
 40
120.0
 41
0.0
 71
     5
 72
     1
  1
\A1;77
  7
STYLE1
 11
0.0000000000000001
 21
1.0
 31
0.0
 73
     1
 44
1.0
1001
ACAD
1000
MTEXTBEGIN
1070
    73
1070
     1
1070
    44
1040
1.0
1070
    74
1070
     0
1000
MTEXTEND
  0
POINT
  5
18C76
330
18C6C
100
AcDbEntity
  8
DEFPOINTS
 62
     0
 48
50.0
100
AcDbPoint
 10
7180.896575106967
 20
7846.123139034578
 30
0.0
  0
POINT
  5
18C77
330
18C6C
100
AcDbEntity
  8
DEFPOINTS
 62
     0
 48
50.0
100
AcDbPoint
 10
7179.896575106965
 20
7769.123139034579
 30
0.0
  0
POINT
  5
18C78
330
18C6C
100
AcDbEntity
  8
DEFPOINTS
 62
     0
 48
50.0
100
AcDbPoint
 10
7417.192158500192
 20
7769.123139034579
 30
0.0
  0
ENDBLK
  5
18C79
330
18C6C
100
AcDbEntity
  8
0
 48
50.0
100
AcDbBlockEnd
  0
BLOCK
  5
18DA0
330
18C7A
100
AcDbEntity
  8
0
 48
50.0
100
AcDbBlockBegin
  2
A$C3B1A506B
 70
     0
 10
0.0
 20
0.0
 30
0.0
  3
A$C3B1A506B
  1

  0
MTEXT
  5
18C7B
330
18C7A
100
AcDbEntity
  8
寸法
 62
     7
 48
50.0
100
AcDbMText
 10
3342.250386887194
 20
2778.329429134012
 30
0.0
 40
96.0
 41
0.0
 71
     5
 72
     1
  1
棚 2段
  7
STYLE1
 73
     1
 44
1.0
1001
ACAD
1000
MTEXTBEGIN
1070
    73
1070
     1
1070
    44
1040
1.0
1070
    74
1070
     0
1000
MTEXTEND
  0
MTEXT
  5
18C7C
330
18C7A
100
AcDbEntity
  8
寸法
 62
     7
 48
50.0
100
AcDbMText
 10
2167.25038688716
 20
2778.329429133986
 30
0.0
 40
96.0
 41
0.0
 71
     5
 72
     1
  1
棚 2段
  7
STYLE1
 73
     1
 44
1.0
1001
ACAD
1000
MTEXTBEGIN
1070
    73
1070
     1
1070
    44
1040
1.0
1070
    74
1070
     0
1000
MTEXTEND
  0
MTEXT
  5
18C7D
330
18C7A
100
AcDbEntity
  8
寸法
 62
     7
 48
50.0
100
AcDbMText
 10
992.2503868871608
 20
2778.329429133935
 30
0.0
 40
96.0
 41
0.0
 71
     5
 72
     1
  1
棚 2段
  7
STYLE1
 73
     1
 44
1.0
1001
ACAD
1000
MTEXTBEGIN
1070
    73
1070
     1
1070
    44
1040
1.0
1070
    74
1070
     0
1000
MTEXTEND
  0
LINE
  5
18C7E
330
18C7A
100
AcDbEntity
  8
細線
 48
50.0
100
AcDbLine
 10
2771.970589276527
 20
1368.994384123192
 30
0.0
 11
3398.970589276523
 21
1368.994384123192
 31
0.0
  0
LINE
  5
18C7F
330
18C7A
100
AcDbEntity
  8
細線
 48
50.0
100
AcDbLine
 10
2117.970593930113
 20
1335.285615569113
 30
0.0
 11
3398.970589276523
 21
1335.285615569113
 31
0.0
  0
LINE
  5
18C80
330
18C7A
100
AcDbEntity
  8
細線
 48
50.0
100
AcDbLine
 10
2076.970593930115
 20
1364.690523565368
 30
0.0
 11
1322.970589276523
 21
1364.690523565367
 31
0.0
  0
LINE
  5
18C81
330
18C7A
100
AcDbEntity
  8
細線
100
AcDbLine
 10
3170.720579860066
 20
1388.494284088199
 30
0.0
 11
3173.052119381877
 21
1393.494286728162
 31
0.0
  0
LINE
  5
18C82
330
18C7A
100
AcDbEntity
  8
細線
100
AcDbLine
 10
3240.720589276525
 20
1388.494269174465
 30
0.0
 11
3238.389042800336
 21
1393.494286728144
 31
0.0
  0
LINE
  5
18C83
330
18C7A
100
AcDbEntity
  8
細線
100
AcDbLine
 10
3238.389042800336
 20
1393.494286728144
 30
0.0
 11
3173.052119381862
 21
1393.494286728133
 31
0.0
  0
LINE
  5
18C84
330
18C7A
100
AcDbEntity
  8
細線
100
AcDbLine
 10
3098.389042800336
 20
1393.494286728144
 30
0.0
 11
3033.052119381862
 21
1393.494286728133
 31
0.0
  0
LINE
  5
18C85
330
18C7A
100
AcDbEntity
  8
細線
100
AcDbLine
 10
3100.720589276523
 20
1388.494269174465
 30
0.0
 11
3098.389042800336
 21
1393.494286728144
 31
0.0
  0
LINE
  5
18C86
330
18C7A
100
AcDbEntity
  8
細線
100
AcDbLine
 10
3030.720579860066
 20
1388.494284088199
 30
0.0
 11
3033.052119381875
 21
1393.494286728162
 31
0.0
  0
LINE
  5
18C87
330
18C7A
100
AcDbEntity
  8
細線
100
AcDbLine
 10
2890.720589276525
 20
1388.494269174465
 30
0.0
 11
2893.052128798336
 21
1393.494271814428
 31
0.0
  0
LINE
  5
18C88
330
18C7A
100
AcDbEntity
  8
細線
100
AcDbLine
 10
2960.720598692984
 20
1388.494254260731
 30
0.0
 11
2958.389052216793
 21
1393.49427181441
 31
0.0
  0
LINE
  5
18C89
330
18C7A
100
AcDbEntity
  8
細線
100
AcDbLine
 10
2958.389052216795
 20
1393.49427181441
 30
0.0
 11
2893.052128798321
 21
1393.494271814399
 31
0.0
  0
LINE
  5
18C8A
330
18C7A
100
AcDbEntity
  8
細線
100
AcDbLine
 10
2667.139038146739
 20
1359.494298590735
 30
0.0
 11
2601.802114728263
 21
1359.494298590724
 31
0.0
  0
LINE
  5
18C8B
330
18C7A
100
AcDbEntity
  8
細線
100
AcDbLine
 10
2669.470584622926
 20
1354.494281037055
 30
0.0
 11
2667.139038146737
 21
1359.494298590735
 31
0.0
  0
LINE
  5
18C8C
330
18C7A
100
AcDbEntity
  8
細線
100
AcDbLine
 10
2599.470575206469
 20
1354.49429595079
 30
0.0
 11
2601.802114728278
 21
1359.494298590752
 31
0.0
  0
LINE
  5
18C8D
330
18C7A
100
AcDbEntity
  8
細線
 48
50.0
100
AcDbLine
 10
2440.853968524536
 20
1372.765132327548
 30
0.0
 11
2446.609486107205
 21
1354.494281037057
 31
0.0
  0
LINE
  5
18C8E
330
18C7A
100
AcDbEntity
  8
細線
 48
50.0
100
AcDbLine
 10
2429.925520044106
 20
1372.765132327546
 30
0.0
 11
2440.853968524536
 21
1372.765132327548
 31
0.0
  0
ARC
  5
18C8F
330
18C7A
100
AcDbEntity
  8
細線
 48
50.0
100
AcDbCircle
 10
2424.471163986787
 20
1374.265132327546
 30
0.0
 40
5.0
100
AcDbArc
 50
204.6243183520723
 51
335.3756816479278
  0
ARC
  5
18C90
330
18C7A
100
AcDbEntity
  8
細線
 48
50.0
100
AcDbCircle
 10
2429.925520044106
 20
1371.765132327546
 30
0.0
 40
1.0
100
AcDbArc
 50
90.0
 51
155.3756816479277
  0
ARC
  5
18C91
330
18C7A
100
AcDbEntity
  8
細線
 48
50.0
100
AcDbCircle
 10
2419.016807929469
 20
1371.765132327546
 30
0.0
 40
1.0
100
AcDbArc
 50
24.62431835207225
 51
90.0
  0
LINE
  5
18C92
330
18C7A
100
AcDbEntity
  8
細線
 48
50.0
100
AcDbLine
 10
2408.088359449037
 20
1372.765132327548
 30
0.0
 11
2419.016807929469
 21
1372.765132327546
 31
0.0
  0
LINE
  5
18C93
330
18C7A
100
AcDbEntity
  8
細線
 48
50.0
100
AcDbLine
 10
2402.33284186637
 20
1354.494281037054
 30
0.0
 11
2408.088359449037
 21
1372.765132327548
 31
0.0
  0
LINE
  5
18C94
330
18C7A
100
AcDbEntity
  8
細線
100
AcDbLine
 10
2458.070304175992
 20
1354.494278397076
 30
0.0
 11
2460.401843697802
 21
1359.494281037039
 31
0.0
  0
LINE
  5
18C95
330
18C7A
100
AcDbEntity
  8
細線
100
AcDbLine
 10
2528.070313592451
 20
1354.494263483342
 30
0.0
 11
2525.738767116262
 21
1359.494281037021
 31
0.0
  0
LINE
  5
18C96
330
18C7A
100
AcDbEntity
  8
細線
100
AcDbLine
 10
2525.738767116262
 20
1359.494281037021
 30
0.0
 11
2460.40184369779
 21
1359.49428103701
 31
0.0
  0
LINE
  5
18C97
330
18C7A
100
AcDbEntity
  8
細線
100
AcDbLine
 10
2387.139046332155
 20
1359.494281037021
 30
0.0
 11
2321.80212291368
 21
1359.49428103701
 31
0.0
  0
LINE
  5
18C98
330
18C7A
100
AcDbEntity
  8
細線
100
AcDbLine
 10
2389.470592808342
 20
1354.494263483342
 30
0.0
 11
2387.139046332153
 21
1359.494281037021
 31
0.0
  0
LINE
  5
18C99
330
18C7A
100
AcDbEntity
  8
細線
100
AcDbLine
 10
2319.470584622926
 20
1354.494281037054
 30
0.0
 11
2321.802122913694
 21
1359.494281037039
 31
0.0
  0
LINE
  5
18C9A
330
18C7A
100
AcDbEntity
  8
細線
100
AcDbLine
 10
2179.47061994182
 20
1354.494289224422
 30
0.0
 11
2181.802158232587
 21
1359.494289224407
 31
0.0
  0
LINE
  5
18C9B
330
18C7A
100
AcDbEntity
  8
細線
100
AcDbLine
 10
2249.470628127236
 20
1354.49427167071
 30
0.0
 11
2247.139081651047
 21
1359.494289224389
 31
0.0
  0
LINE
  5
18C9C
330
18C7A
100
AcDbEntity
  8
細線
100
AcDbLine
 10
2247.139081651047
 20
1359.494289224389
 30
0.0
 11
2181.802158232573
 21
1359.494289224378
 31
0.0
  0
LINE
  5
18C9D
330
18C7A
100
AcDbEntity
  8
細線
100
AcDbLine
 10
1807.970585744697
 20
1320.494460905133
 30
0.0
 11
1810.302124035464
 21
1325.494460905118
 31
0.0
  0
LINE
  5
18C9E
330
18C7A
100
AcDbEntity
  8
細線
100
AcDbLine
 10
1877.970593930113
 20
1320.494443351421
 30
0.0
 11
1875.639047453926
 21
1325.4944609051
 31
0.0
  0
LINE
  5
18C9F
330
18C7A
100
AcDbEntity
  8
細線
100
AcDbLine
 10
1875.639047453926
 20
1325.4944609051
 30
0.0
 11
1810.302124035452
 21
1325.494460905089
 31
0.0
  0
LINE
  5
18CA0
330
18C7A
100
AcDbEntity
  8
細線
100
AcDbLine
 10
2015.639047453926
 20
1325.4944609051
 30
0.0
 11
1950.302124035452
 21
1325.494460905089
 31
0.0
  0
LINE
  5
18CA1
330
18C7A
100
AcDbEntity
  8
細線
100
AcDbLine
 10
2017.970593930113
 20
1320.494443351421
 30
0.0
 11
2015.639047453924
 21
1325.4944609051
 31
0.0
  0
LINE
  5
18CA2
330
18C7A
100
AcDbEntity
  8
細線
100
AcDbLine
 10
1947.970585744697
 20
1320.494460905133
 30
0.0
 11
1950.302124035465
 21
1325.494460905118
 31
0.0
  0
LINE
  5
18CA3
330
18C7A
100
AcDbEntity
  8
細線
100
AcDbLine
 10
1735.639047453926
 20
1325.494460905098
 30
0.0
 11
1670.302124035454
 21
1325.494460905087
 31
0.0
  0
LINE
  5
18CA4
330
18C7A
100
AcDbEntity
  8
細線
100
AcDbLine
 10
1737.970593930113
 20
1320.494443351419
 30
0.0
 11
1735.639047453926
 21
1325.494460905098
 31
0.0
  0
LINE
  5
18CA5
330
18C7A
100
AcDbEntity
  8
細線
100
AcDbLine
 10
1667.970585744697
 20
1320.494460905131
 30
0.0
 11
1670.302124035465
 21
1325.494460905116
 31
0.0
  0
LINE
  5
18CA6
330
18C7A
100
AcDbEntity
  8
細線
100
AcDbLine
 10
1527.970593930113
 20
1320.494460905133
 30
0.0
 11
1530.302132220881
 21
1325.494460905118
 31
0.0
  0
LINE
  5
18CA7
330
18C7A
100
AcDbEntity
  8
細線
100
AcDbLine
 10
1597.970602115529
 20
1320.494443351421
 30
0.0
 11
1595.639055639342
 21
1325.4944609051
 31
0.0
  0
LINE
  5
18CA8
330
18C7A
100
AcDbEntity
  8
細線
100
AcDbLine
 10
1595.639055639342
 20
1325.4944609051
 30
0.0
 11
1530.302132220869
 21
1325.494460905089
 31
0.0
  0
ARC
  5
18CA9
330
18C7A
100
AcDbEntity
  8
部品1
 48
0.01
100
AcDbCircle
 10
1483.470482677778
 20
1319.493338720063
 30
0.0
 40
0.5
100
AcDbArc
 50
270.0
 51
0.0
  0
LINE
  5
18CAA
330
18C7A
100
AcDbEntity
  8
部品1
 48
0.01
100
AcDbLine
 10
1483.970482677778
 20
1320.493338720063
 30
0.0
 11
1483.970482677778
 21
1319.493338720063
 31
0.0
  0
LINE
  5
18CAB
330
18C7A
100
AcDbEntity
  8
部品1
 48
0.01
100
AcDbLine
 10
1483.970482677778
 20
1320.493338720063
 30
0.0
 11
1483.970482677778
 21
1319.493338720063
 31
0.0
  0
LINE
  5
18CAC
330
18C7A
100
AcDbEntity
  8
部品1
 48
0.01
100
AcDbLine
 10
1483.470482677778
 20
1318.993338720063
 30
0.0
 11
1476.857977247713
 21
1318.993338720062
 31
0.0
  0
ARC
  5
18CAD
330
18C7A
100
AcDbEntity
  8
部品1
100
AcDbCircle
 10
1476.926326800494
 20
1319.993338720062
 30
0.0
 40
1.0
100
AcDbArc
 50
160.5287793655865
 51
270.0
  0
ARC
  5
18CAE
330
18C7A
100
AcDbEntity
  8
部品1
100
AcDbCircle
 10
1451.470482677778
 20
1328.993338720062
 30
0.0
 40
26.0
100
AcDbArc
 50
340.5287793655865
 51
0.0
  0
LINE
  5
18CAF
330
18C7A
100
AcDbEntity
  8
部品1
100
AcDbLine
 10
1477.470482677778
 20
1328.993338720062
 30
0.0
 11
1477.470482677778
 21
1333.993338720061
 31
0.0
  0
ARC
  5
18CB0
330
18C7A
100
AcDbEntity
  8
部品1
 48
0.01
100
AcDbCircle
 10
1475.470482677778
 20
1333.993338720061
 30
0.0
 40
2.0
100
AcDbArc
 50
0.0
 51
90.0
  0
ARC
  5
18CB1
330
18C7A
100
AcDbEntity
  8
部品1
100
AcDbCircle
 10
1473.862091052968
 20
1332.993338720062
 30
0.0
 40
3.0
100
AcDbArc
 50
90.0
 51
141.6069559808035
  0
LINE
  5
18CB2
330
18C7A
100
AcDbEntity
  8
部品1
 48
0.01
100
AcDbLine
 10
1475.470482677778
 20
1335.993338720062
 30
0.0
 11
1473.862091052968
 21
1335.993338720062
 31
0.0
  0
ARC
  5
18CB3
330
18C7A
100
AcDbEntity
  8
部品1
100
AcDbCircle
 10
1455.399768463507
 20
1332.293338720065
 30
0.0
 40
3.0
100
AcDbArc
 50
254.0576313943215
 51
270.0
  0
ARC
  5
18CB4
330
18C7A
100
AcDbEntity
  8
部品1
100
AcDbCircle
 10
1462.541196892049
 20
1332.293338720065
 30
0.0
 40
3.0
100
AcDbArc
 50
270.0
 51
285.9423686056786
  0
LINE
  5
18CB5
330
18C7A
100
AcDbEntity
  8
部品1
100
AcDbLine
 10
1462.541196892049
 20
1329.293338720064
 30
0.0
 11
1455.399768463507
 21
1329.293338720064
 31
0.0
  0
ARC
  5
18CB6
330
18C7A
100
AcDbEntity
  8
部品1
100
AcDbCircle
 10
1458.970482677778
 20
1344.793338720065
 30
0.0
 40
16.0
100
AcDbArc
 50
285.9423686056786
 51
321.6069559808035
  0
LINE
  5
18CB7
330
18C7A
100
AcDbEntity
  8
部品1
 48
0.01
100
AcDbLine
 10
1442.470482677778
 20
1335.993338720062
 30
0.0
 11
1444.078874302588
 21
1335.993338720062
 31
0.0
  0
ARC
  5
18CB8
330
18C7A
100
AcDbEntity
  8
部品1
100
AcDbCircle
 10
1444.078874302588
 20
1332.993338720062
 30
0.0
 40
3.0
100
AcDbArc
 50
38.39304401919648
 51
90.0
  0
ARC
  5
18CB9
330
18C7A
100
AcDbEntity
  8
部品1
100
AcDbCircle
 10
1458.970482677778
 20
1344.793338720065
 30
0.0
 40
16.0
100
AcDbArc
 50
218.3930440191965
 51
254.0576313943215
  0
LINE
  5
18CBA
330
18C7A
100
AcDbEntity
  8
部品1
100
AcDbLine
 10
1440.470482677778
 20
1328.993338720062
 30
0.0
 11
1440.470482677778
 21
1333.993338720061
 31
0.0
  0
ARC
  5
18CBB
330
18C7A
100
AcDbEntity
  8
部品1
 48
0.01
100
AcDbCircle
 10
1442.470482677778
 20
1333.993338720061
 30
0.0
 40
2.0
100
AcDbArc
 50
90.0
 51
180.0
  0
ARC
  5
18CBC
330
18C7A
100
AcDbEntity
  8
部品1
100
AcDbCircle
 10
1466.470482677778
 20
1328.993338720062
 30
0.0
 40
26.0
100
AcDbArc
 50
180.0
 51
199.4712206344134
  0
ARC
  5
18CBD
330
18C7A
100
AcDbEntity
  8
部品1
 48
0.01
100
AcDbCircle
 10
1434.470482677778
 20
1319.493338720063
 30
0.0
 40
0.5
100
AcDbArc
 50
180.0
 51
270.0
  0
LINE
  5
18CBE
330
18C7A
100
AcDbEntity
  8
部品1
 48
0.01
100
AcDbLine
 10
1434.470482677778
 20
1318.993338720063
 30
0.0
 11
1441.014638555061
 21
1318.993338720062
 31
0.0
  0
LINE
  5
18CBF
330
18C7A
100
AcDbEntity
  8
部品1
 48
0.01
100
AcDbLine
 10
1433.970482677778
 20
1320.493338720063
 30
0.0
 11
1433.970482677778
 21
1319.493338720063
 31
0.0
  0
ARC
  5
18CC0
330
18C7A
100
AcDbEntity
  8
部品1
100
AcDbCircle
 10
1441.014638555061
 20
1319.993338720062
 30
0.0
 40
1.0
100
AcDbArc
 50
270.0
 51
19.47122063441346
  0
LINE
  5
18CC1
330
18C7A
100
AcDbEntity
  8
細線
100
AcDbLine
 10
1479.470482677785
 20
1338.493338720065
 30
0.0
 11
1438.470482677785
 21
1338.493338720058
 31
0.0
  0
LINE
  5
18CC2
330
18C7A
100
AcDbEntity
  8
細線
100
AcDbLine
 10
1438.470482677785
 20
1338.493338720058
 30
0.0
 11
1438.470482677785
 21
1320.49333872004
 31
0.0
  0
LINE
  5
18CC3
330
18C7A
100
AcDbEntity
  8
細線
100
AcDbLine
 10
1479.470482677785
 20
1338.493338720065
 30
0.0
 11
1479.470482677785
 21
1320.49333872004
 31
0.0
  0
LINE
  5
18CC4
330
18C7A
100
AcDbEntity
  8
細線
100
AcDbLine
 10
1322.970589276523
 20
1324.494269174465
 30
0.0
 11
1322.970589276523
 21
1320.494269174513
 31
0.0
  0
LINE
  5
18CC5
330
18C7A
100
AcDbEntity
  8
寸法
 48
50.0
100
AcDbLine
 10
1746.17359555837
 20
1170.531020743327
 30
0.0
 11
1694.767587648266
 21
1170.531020743327
 31
0.0
  0
LINE
  5
18CC6
330
18C7A
100
AcDbEntity
  8
寸法
 48
50.0
100
AcDbLine
 10
1694.767587648266
 20
1170.531020743327
 30
0.0
 11
1694.767587648266
 21
1201.841179395494
 31
0.0
  0
LINE
  5
18CC7
330
18C7A
100
AcDbEntity
  8
寸法
 48
50.0
100
AcDbLine
 10
1694.767587648266
 20
1201.841179395494
 30
0.0
 11
1665.006255656843
 21
1201.841179395494
 31
0.0
  0
LINE
  5
18CC8
330
18C7A
100
AcDbEntity
  8
寸法
 48
50.0
100
AcDbLine
 10
1665.006255656843
 20
1201.841179395494
 30
0.0
 11
1720.470591603318
 21
1239.420630324105
 31
0.0
  0
LINE
  5
18CC9
330
18C7A
100
AcDbEntity
  8
寸法
 48
50.0
100
AcDbLine
 10
1775.934927549793
 20
1201.841179395494
 30
0.0
 11
1720.470591603318
 21
1239.420630324105
 31
0.0
  0
LINE
  5
18CCA
330
18C7A
100
AcDbEntity
  8
寸法
 48
50.0
100
AcDbLine
 10
1746.17359555837
 20
1201.841179395494
 30
0.0
 11
1775.934927549793
 21
1201.841179395494
 31
0.0
  0
LINE
  5
18CCB
330
18C7A
100
AcDbEntity
  8
寸法
 48
50.0
100
AcDbLine
 10
1746.17359555837
 20
1170.531020743327
 30
0.0
 11
1746.17359555837
 21
1201.841179395494
 31
0.0
  0
LINE
  5
18CCC
330
18C7A
100
AcDbEntity
  8
寸法
 48
50.0
100
AcDbLine
 10
1694.767587648266
 20
1170.531020743327
 30
0.0
 11
1746.17359555837
 21
1170.531020743327
 31
0.0
  0
LINE
  5
18CCD
330
18C7A
100
AcDbEntity
  8
寸法
 48
50.0
100
AcDbLine
 10
2025.339129835225
 20
1227.676611498152
 30
0.0
 11
2025.339129835225
 21
1174.01297691636
 31
0.0
  0
LINE
  5
18CCE
330
18C7A
100
AcDbEntity
  8
寸法
 48
50.0
100
AcDbLine
 10
2114.623348430647
 20
1203.752977228664
 30
0.0
 11
2025.339129835225
 21
1227.676611498152
 31
0.0
  0
LINE
  5
18CCF
330
18C7A
100
AcDbEntity
  8
寸法
 48
50.0
100
AcDbLine
 10
1895.471408254923
 20
1203.752977228664
 30
0.0
 11
2114.623348430647
 21
1203.752977228664
 31
0.0
  0
DIMENSION
  5
18CD0
330
18C7A
100
AcDbEntity
  8
寸法
 48
50.0
100
AcDbDimension
  2
*D15
 10
2588.970589276523
 20
706.3240511224249
 30
0.0
 11
1969.060022905491
 21
706.3240511224249
 31
0.0
 12
-3742.925985830444
 22
-6453.628869860112
 32
0.0
 70
   128
  1
有効開口部間口\P<>
 71
     5
 42
1266.0
  3
INABA_S40G
100
AcDbAlignedDimension
 13
1322.970589276523
 23
1315.494269174465
 33
0.0
 14
2588.970589276523
 24
1315.494269174465
 34
0.0
100
AcDbRotatedDimension
1001
ACAD
1000
DSTYLE
1002
{
1070
   341
1005
0
1002
}
  0
LINE
  5
18CD1
330
18C7A
100
AcDbEntity
  8
部品1
100
AcDbLine
 10
3409.970589276524
 20
1392.494269174465
 30
0.0
 11
3437.970589276523
 21
1392.494269174465
 31
0.0
  0
DIMENSION
  5
18CD2
330
18C7A
100
AcDbEntity
  8
寸法
100
AcDbDimension
  2
*D16
 10
3674.266172669749
 20
1315.494269174465
 30
0.0
 11
3674.266172669748
 21
1177.494269174462
 31
0.0
 12
-3742.925985830444
 22
-6453.628869860112
 32
0.0
 70
   128
 71
     5
 42
77.0
  3
INABA_S40
100
AcDbAlignedDimension
 13
3437.970589276523
 23
1392.494269174465
 33
0.0
 14
3436.970589276523
 24
1315.494269174465
 34
0.0
 50
90.0
100
AcDbRotatedDimension
1001
ACAD
1000
DSTYLE
1002
{
1070
    41
1040
0.5
1070
    44
1040
1.0
1070
   147
1040
0.8
1070
   271
1070
     2
1070
   272
1070
     2
1070
   289
1070
     3
1070
   340
1005
F706
1070
   343
1005
164B4
1070
   344
1005
164B4
1002
}
  0
LINE
  5
18CD3
330
18C7A
100
AcDbEntity
  8
部品1
100
AcDbLine
 10
3437.970589276523
 20
1315.494269174465
 30
0.0
 11
3437.970589276523
 21
1392.494269174465
 31
0.0
  0
LINE
  5
18CD4
330
18C7A
100
AcDbEntity
  8
部品1
100
AcDbLine
 10
3398.970589276523
 20
1388.494269174465
 30
0.0
 11
3409.970589276524
 21
1388.494269174465
 31
0.0
  0
LINE
  5
18CD5
330
18C7A
100
AcDbEntity
  8
部品1
100
AcDbLine
 10
3407.970589276523
 20
1324.494269174465
 30
0.0
 11
3407.970589276523
 21
1315.494269174465
 31
0.0
  0
LINE
  5
18CD6
330
18C7A
100
AcDbEntity
  8
部品1
100
AcDbLine
 10
3398.970589276523
 20
1324.494269174465
 30
0.0
 11
3407.970589276523
 21
1324.494269174465
 31
0.0
  0
LINE
  5
18CD7
330
18C7A
100
AcDbEntity
  8
部品1
100
AcDbLine
 10
3398.970589276523
 20
1388.494269174465
 30
0.0
 11
3398.970589276523
 21
1324.494269174465
 31
0.0
  0
LINE
  5
18CD8
330
18C7A
100
AcDbEntity
  8
部品1
100
AcDbLine
 10
3409.970589276524
 20
1419.494269174465
 30
0.0
 11
3409.970589276524
 21
1388.494269174465
 31
0.0
  0
LINE
  5
18CD9
330
18C7A
100
AcDbEntity
  8
部品1
100
AcDbLine
 10
1322.970589276523
 20
1388.494269174465
 30
0.0
 11
1311.970589276523
 21
1388.494269174465
 31
0.0
  0
LINE
  5
18CDA
330
18C7A
100
AcDbEntity
  8
部品1
100
AcDbLine
 10
1283.970589276523
 20
1392.494269174465
 30
0.0
 11
1311.970589276523
 21
1392.494269174465
 31
0.0
  0
LINE
  5
18CDB
330
18C7A
100
AcDbEntity
  8
部品1
100
AcDbLine
 10
1313.970589276523
 20
1324.494269174465
 30
0.0
 11
1313.970589276523
 21
1315.494269174465
 31
0.0
  0
LINE
  5
18CDC
330
18C7A
100
AcDbEntity
  8
部品1
100
AcDbLine
 10
1322.970589276523
 20
1324.494269174465
 30
0.0
 11
1313.970589276523
 21
1324.494269174465
 31
0.0
  0
LINE
  5
18CDD
330
18C7A
100
AcDbEntity
  8
部品1
100
AcDbLine
 10
1313.970589276523
 20
1315.494269174465
 30
0.0
 11
1283.970589276523
 21
1315.494269174465
 31
0.0
  0
LINE
  5
18CDE
330
18C7A
100
AcDbEntity
  8
部品1
100
AcDbLine
 10
1283.970589276523
 20
1315.494269174465
 30
0.0
 11
1283.970589276523
 21
1392.494269174465
 31
0.0
  0
LINE
  5
18CDF
330
18C7A
100
AcDbEntity
  8
部品1
100
AcDbLine
 10
1322.970589276523
 20
1388.494269174465
 30
0.0
 11
1322.970589276523
 21
1324.494269174465
 31
0.0
  0
LINE
  5
18CE0
330
18C7A
100
AcDbEntity
  8
部品1
100
AcDbLine
 10
1311.970589276523
 20
1419.494269174462
 30
0.0
 11
1311.970589276523
 21
1388.494269174465
 31
0.0
  0
LINE
  5
18CE1
330
18C7A
100
AcDbEntity
  8
部品1
100
AcDbLine
 10
1311.970589276523
 20
1419.494269174462
 30
0.0
 11
3409.970589276524
 21
1419.494269174465
 31
0.0
  0
LINE
  5
18CE2
330
18C7A
100
AcDbEntity
  8
部品1
100
AcDbLine
 10
3407.970589276523
 20
1315.494269174465
 30
0.0
 11
3437.970589276523
 21
1315.494269174465
 31
0.0
  0
LINE
  5
18CE3
330
18C7A
100
AcDbEntity
  8
部品1
100
AcDbLine
 10
1313.970589276523
 20
1315.494269174465
 30
0.0
 11
3410.970589276523
 21
1315.494269174465
 31
0.0
  0
LINE
  5
18CE4
330
18C7A
100
AcDbEntity
  8
細線
  6
Continuous
 62
     5
100
AcDbLine
 10
2689.970589276527
 20
1354.494269174462
 30
0.0
 11
2689.970589276527
 21
1354.494269174462
 31
0.0
  0
LINE
  5
18CE5
330
18C7A
100
AcDbEntity
  8
細線
  6
Continuous
 62
     5
100
AcDbLine
 10
2682.470589276527
 20
1354.494269174462
 30
0.0
 11
2682.470589276527
 21
1354.494269174462
 31
0.0
  0
LINE
  5
18CE6
330
18C7A
100
AcDbEntity
  8
細線
  6
Continuous
 62
     5
100
AcDbLine
 10
2676.470589276527
 20
1354.494269174462
 30
0.0
 11
2676.470589276527
 21
1354.494269174462
 31
0.0
  0
LINE
  5
18CE7
330
18C7A
100
AcDbEntity
  8
細線
  6
Continuous
 62
     5
100
AcDbLine
 10
2743.970589276527
 20
1373.494269174462
 30
0.0
 11
2743.970589276527
 21
1373.494269174462
 31
0.0
  0
LINE
  5
18CE8
330
18C7A
100
AcDbEntity
  8
細線
 48
50.0
100
AcDbLine
 10
1336.970593930116
 20
1341.094443351418
 30
0.0
 11
1336.970593930113
 21
1349.490593759059
 31
0.0
  0
LINE
  5
18CE9
330
18C7A
100
AcDbEntity
  8
細線
 48
50.0
100
AcDbLine
 10
1336.970593930113
 20
1349.490593759059
 30
0.0
 11
1322.970589276523
 21
1349.490593759057
 31
0.0
  0
LINE
  5
18CEA
330
18C7A
100
AcDbEntity
  8
細線
 48
50.0
100
AcDbLine
 10
2087.970593930113
 20
1337.644443351419
 30
0.0
 11
2087.970593930113
 21
1342.494443351421
 31
0.0
  0
LINE
  5
18CEB
330
18C7A
100
AcDbEntity
  8
細線
 48
50.0
100
AcDbLine
 10
2087.970593930113
 20
1342.494443351421
 30
0.0
 11
2102.970593930113
 21
1342.494443351421
 31
0.0
  0
LINE
  5
18CEC
330
18C7A
100
AcDbEntity
  8
細線
 48
50.0
100
AcDbLine
 10
2102.970593930113
 20
1342.494443351421
 30
0.0
 11
2102.970593930115
 21
1349.494443351419
 31
0.0
  0
LINE
  5
18CED
330
18C7A
100
AcDbEntity
  8
細線
 48
50.0
100
AcDbLine
 10
2102.970593930115
 20
1349.494443351419
 30
0.0
 11
2117.970593930113
 21
1349.494443351419
 31
0.0
  0
LINE
  5
18CEE
330
18C7A
100
AcDbEntity
  8
細線
 48
50.0
100
AcDbLine
 10
2117.970593930113
 20
1349.494443351419
 30
0.0
 11
2117.970593930113
 21
1320.494443351421
 31
0.0
  0
LINE
  5
18CEF
330
18C7A
100
AcDbEntity
  8
細線
 48
50.0
100
AcDbLine
 10
1313.970589276523
 20
1320.491777694889
 30
0.0
 11
1527.970593930113
 21
1320.494460905133
 31
0.0
  0
LINE
  5
18CF0
330
18C7A
100
AcDbEntity
  8
細線
 48
50.0
100
AcDbLine
 10
2017.970593930113
 20
1320.494443351421
 30
0.0
 11
2117.970593930113
 21
1320.494443351421
 31
0.0
  0
LINE
  5
18CF1
330
18C7A
100
AcDbEntity
  8
細線
 48
50.0
100
AcDbLine
 10
1737.970593930113
 20
1320.494443351419
 30
0.0
 11
1807.970593930113
 21
1320.494443351423
 31
0.0
  0
LINE
  5
18CF2
330
18C7A
100
AcDbEntity
  8
細線
 48
50.0
100
AcDbLine
 10
1750.832558942642
 20
1320.494443351419
 30
0.0
 11
1756.588076525309
 21
1338.765294641913
 31
0.0
  0
LINE
  5
18CF3
330
18C7A
100
AcDbEntity
  8
細線
 48
50.0
100
AcDbLine
 10
1756.588076525309
 20
1338.765294641913
 30
0.0
 11
1767.516525005743
 21
1338.765294641911
 31
0.0
  0
ARC
  5
18CF4
330
18C7A
100
AcDbEntity
  8
細線
 48
50.0
100
AcDbCircle
 10
1767.516525005743
 20
1337.765294641911
 30
0.0
 40
1.0
100
AcDbArc
 50
24.62431835207225
 51
90.0
  0
ARC
  5
18CF5
330
18C7A
100
AcDbEntity
  8
細線
 48
50.0
100
AcDbCircle
 10
1778.425237120377
 20
1337.765294641911
 30
0.0
 40
1.0
100
AcDbArc
 50
90.0
 51
155.3756816479277
  0
ARC
  5
18CF6
330
18C7A
100
AcDbEntity
  8
細線
 48
50.0
100
AcDbCircle
 10
1772.970881063058
 20
1340.265294641911
 30
0.0
 40
5.0
100
AcDbArc
 50
204.6243183520723
 51
335.3756816479278
  0
LINE
  5
18CF7
330
18C7A
100
AcDbEntity
  8
細線
 48
50.0
100
AcDbLine
 10
1778.425237120377
 20
1338.765294641911
 30
0.0
 11
1789.35368560081
 21
1338.765294641913
 31
0.0
  0
LINE
  5
18CF8
330
18C7A
100
AcDbEntity
  8
細線
 48
50.0
100
AcDbLine
 10
1789.35368560081
 20
1338.765294641913
 30
0.0
 11
1795.109203183478
 21
1320.494443351423
 31
0.0
  0
LINE
  5
18CF9
330
18C7A
100
AcDbEntity
  8
細線
 48
50.0
100
AcDbLine
 10
2087.970593930113
 20
1341.094443351419
 30
0.0
 11
1336.970593930116
 21
1341.094443351418
 31
0.0
  0
LINE
  5
18CFA
330
18C7A
100
AcDbEntity
  8
細線
 48
50.0
100
AcDbLine
 10
1947.970593930113
 20
1320.494443351421
 30
0.0
 11
1877.970593930113
 21
1320.494443351421
 31
0.0
  0
LINE
  5
18CFB
330
18C7A
100
AcDbEntity
  8
細線
100
AcDbLine
 10
1667.970593930113
 20
1320.494443351421
 30
0.0
 11
1597.970602115529
 21
1320.494443351421
 31
0.0
  0
LINE
  5
18CFC
330
18C7A
100
AcDbEntity
  8
細線
 48
50.0
100
AcDbLine
 10
2741.970584622936
 20
1375.094487209288
 30
0.0
 11
2106.970593930113
 21
1375.094487209284
 31
0.0
  0
LINE
  5
18CFD
330
18C7A
100
AcDbEntity
  8
細線
 48
50.0
100
AcDbLine
 10
2106.970593930113
 20
1371.990637616925
 30
0.0
 11
2106.970593930113
 21
1376.490637616925
 31
0.0
  0
LINE
  5
18CFE
330
18C7A
100
AcDbEntity
  8
細線
 48
50.0
100
AcDbLine
 10
2106.970593930113
 20
1376.490637616925
 30
0.0
 11
2091.970593930113
 21
1376.490637616925
 31
0.0
  0
LINE
  5
18CFF
330
18C7A
100
AcDbEntity
  8
細線
 48
50.0
100
AcDbLine
 10
2091.970593930113
 20
1376.490637616925
 30
0.0
 11
2091.970593930113
 21
1383.490637616927
 31
0.0
  0
LINE
  5
18D00
330
18C7A
100
AcDbEntity
  8
細線
 48
50.0
100
AcDbLine
 10
2091.970593930113
 20
1383.490637616927
 30
0.0
 11
2076.970593930115
 21
1383.490637616924
 31
0.0
  0
LINE
  5
18D01
330
18C7A
100
AcDbEntity
  8
細線
 48
50.0
100
AcDbLine
 10
2076.970593930115
 20
1383.490637616924
 30
0.0
 11
2076.970593930115
 21
1345.890409513813
 31
0.0
  0
LINE
  5
18D02
330
18C7A
100
AcDbEntity
  8
細線
 48
50.0
100
AcDbLine
 10
2076.970593930115
 20
1345.890409513813
 30
0.0
 11
2096.970601231289
 21
1345.890451063353
 31
0.0
  0
LINE
  5
18D03
330
18C7A
100
AcDbEntity
  8
細線
 48
50.0
100
AcDbLine
 10
2096.970556362348
 20
1354.493912699161
 30
0.0
 11
2096.970601231289
 21
1345.890451063353
 31
0.0
  0
LINE
  5
18D04
330
18C7A
100
AcDbEntity
  8
細線
 48
50.0
100
AcDbLine
 10
2741.970584622936
 20
1371.644487209287
 30
0.0
 11
2741.970584622936
 21
1376.494487209284
 31
0.0
  0
LINE
  5
18D05
330
18C7A
100
AcDbEntity
  8
細線
 48
50.0
100
AcDbLine
 10
2741.970584622936
 20
1376.494487209284
 30
0.0
 11
2756.970584622934
 21
1376.494487209285
 31
0.0
  0
LINE
  5
18D06
330
18C7A
100
AcDbEntity
  8
細線
 48
50.0
100
AcDbLine
 10
2756.970584622934
 20
1376.494487209285
 30
0.0
 11
2756.970596256909
 21
1383.494487209331
 31
0.0
  0
LINE
  5
18D07
330
18C7A
100
AcDbEntity
  8
細線
 48
50.0
100
AcDbLine
 10
2756.970596256909
 20
1383.494487209331
 30
0.0
 11
2771.970594427439
 21
1383.494487209329
 31
0.0
  0
LINE
  5
18D08
330
18C7A
100
AcDbEntity
  8
細線
 48
50.0
100
AcDbLine
 10
2771.970594427439
 20
1383.494487209329
 30
0.0
 11
2771.970584125617
 21
1354.494281037055
 31
0.0
  0
LINE
  5
18D09
330
18C7A
100
AcDbEntity
  8
細線
 48
50.0
100
AcDbLine
 10
2458.070304175992
 20
1354.494278397076
 30
0.0
 11
2389.470863838818
 21
1354.494283787084
 31
0.0
  0
LINE
  5
18D0A
330
18C7A
100
AcDbEntity
  8
細線
 48
50.0
100
AcDbLine
 10
2096.970556362348
 20
1354.493912699161
 30
0.0
 11
2108.203245717057
 21
1354.494095652309
 31
0.0
  0
ARC
  5
18D0B
330
18C7A
100
AcDbEntity
  8
細線
 48
50.0
100
AcDbCircle
 10
2114.785538024393
 20
1353.294259565922
 30
0.0
 40
1.8
100
AcDbArc
 50
270.0006665777295
 51
345.000555481349
  0
LINE
  5
18D0C
330
18C7A
100
AcDbEntity
  8
細線
 48
50.0
100
AcDbLine
 10
2116.771971470473
 20
1353.753100023201
 30
0.0
 11
2116.524209028273
 21
1352.828402141094
 31
0.0
  0
LINE
  5
18D0D
330
18C7A
100
AcDbEntity
  8
細線
 48
50.0
100
AcDbLine
 10
2114.785558965548
 20
1351.494259566043
 30
0.0
 11
2111.155631546781
 21
1351.494217335563
 31
0.0
  0
ARC
  5
18D0E
330
18C7A
100
AcDbEntity
  8
細線
 48
50.0
100
AcDbCircle
 10
2111.155610605627
 20
1353.29421733544
 30
0.0
 40
1.8
100
AcDbArc
 50
195.0010443049965
 51
270.0006665777295
  0
LINE
  5
18D0F
330
18C7A
100
AcDbEntity
  8
細線
 48
50.0
100
AcDbLine
 10
2109.169183113368
 20
1353.752932303007
 30
0.0
 11
2109.416952609882
 21
1352.828311364425
 31
0.0
  0
ARC
  5
18D10
330
18C7A
100
AcDbEntity
  8
細線
 48
50.0
100
AcDbCircle
 10
2108.203262004622
 20
1353.494095652444
 30
0.0
 40
1.0
100
AcDbArc
 50
15.00104430499651
 51
90.00093320877969
  0
LINE
  5
18D11
330
18C7A
100
AcDbEntity
  8
細線
 48
50.0
100
AcDbLine
 10
2117.737892825577
 20
1354.494290342714
 30
0.0
 11
2118.679652976481
 21
1354.494296916564
 31
0.0
  0
ARC
  5
18D12
330
18C7A
100
AcDbEntity
  8
細線
 48
50.0
100
AcDbCircle
 10
2117.737899805961
 20
1353.49429034274
 30
0.0
 40
1.0
100
AcDbArc
 50
90.0003999466794
 51
165.000555481349
  0
LINE
  5
18D13
330
18C7A
100
AcDbEntity
  8
細線
 48
50.0
100
AcDbLine
 10
2669.470584622926
 20
1354.494281037055
 30
0.0
 11
2771.970584125617
 21
1354.494281037055
 31
0.0
  0
LINE
  5
18D14
330
18C7A
100
AcDbEntity
  8
細線
 48
50.0
100
AcDbLine
 10
2179.47061994182
 20
1354.494289224422
 30
0.0
 11
2118.370558714898
 21
1354.494296916564
 31
0.0
  0
LINE
  5
18D15
330
18C7A
100
AcDbEntity
  8
細線
 48
50.0
100
AcDbLine
 10
2599.470584622926
 20
1354.494281037057
 30
0.0
 11
2529.470584622926
 21
1354.494281037055
 31
0.0
  0
LINE
  5
18D16
330
18C7A
100
AcDbEntity
  8
細線
 48
50.0
100
AcDbLine
 10
2319.470584622926
 20
1354.494281037054
 30
0.0
 11
2249.470567335051
 21
1354.494281037057
 31
0.0
  0
ARC
  5
18D17
330
18C7A
100
AcDbEntity
  8
細線
 48
50.0
100
AcDbCircle
 10
2756.170589276533
 20
1387.694269174466
 30
0.0
 40
0.8
100
AcDbArc
 50
359.9997333689499
 51
89.99986668437072
  0
ARC
  5
18D18
330
18C7A
100
AcDbEntity
  8
細線
 48
50.0
100
AcDbCircle
 10
2763.770596101631
 20
1387.694280343081
 30
0.0
 40
0.8
100
AcDbArc
 50
90.00014387753465
 51
179.9997333689498
  0
LINE
  5
18D19
330
18C7A
100
AcDbEntity
  8
細線
 48
50.0
100
AcDbLine
 10
2756.170591137969
 20
1388.494269174465
 30
0.0
 11
2750.970589276525
 21
1388.494269174465
 31
0.0
  0
ARC
  5
18D1A
330
18C7A
100
AcDbEntity
  8
細線
 48
50.0
100
AcDbCircle
 10
2757.670589276524
 20
1386.194269174464
 30
0.0
 40
0.7
100
AcDbArc
 50
180.0
 51
270.0
  0
ARC
  5
18D1B
330
18C7A
100
AcDbEntity
  8
細線
 48
50.0
100
AcDbCircle
 10
2762.270589276524
 20
1386.194269174464
 30
0.0
 40
0.7
100
AcDbArc
 50
270.0
 51
0.0
  0
LINE
  5
18D1C
330
18C7A
100
AcDbEntity
  8
細線
 48
50.0
100
AcDbLine
 10
2762.970589276525
 20
1386.194269174464
 30
0.0
 11
2762.970596101639
 21
1387.694284065954
 31
0.0
  0
LINE
  5
18D1D
330
18C7A
100
AcDbEntity
  8
細線
 48
50.0
100
AcDbLine
 10
2757.670589276524
 20
1385.494269174465
 30
0.0
 11
2762.270589276524
 21
1385.494269174465
 31
0.0
  0
LINE
  5
18D1E
330
18C7A
100
AcDbEntity
  8
細線
 48
50.0
100
AcDbLine
 10
2756.970589276525
 20
1387.694269174466
 30
0.0
 11
2756.970589276525
 21
1386.194269174464
 31
0.0
  0
LINE
  5
18D1F
330
18C7A
100
AcDbEntity
  8
細線
 48
50.0
100
AcDbLine
 10
3382.570589276527
 20
1418.494269174465
 30
0.0
 11
2745.970589276525
 21
1418.494269174463
 31
0.0
  0
LINE
  5
18D20
330
18C7A
100
AcDbEntity
  8
細線
 48
50.0
100
AcDbLine
 10
3408.470589276525
 20
1413.494269174467
 30
0.0
 11
3392.570589276527
 21
1413.494269174465
 31
0.0
  0
LINE
  5
18D21
330
18C7A
100
AcDbEntity
  8
細線
 48
50.0
100
AcDbLine
 10
3392.570589276526
 20
1413.494269174465
 30
0.0
 11
3382.570589276527
 21
1418.494269174465
 31
0.0
  0
LINE
  5
18D22
330
18C7A
100
AcDbEntity
  8
細線
100
AcDbLine
 10
2993.470589276525
 20
1388.494269174465
 30
0.0
 11
2993.470589276525
 21
1417.794269174464
 31
0.0
  0
LINE
  5
18D23
330
18C7A
100
AcDbEntity
  8
細線
100
AcDbLine
 10
2993.470589276525
 20
1417.794269174464
 30
0.0
 11
3013.470589276525
 21
1417.794269174464
 31
0.0
  0
LINE
  5
18D24
330
18C7A
100
AcDbEntity
  8
細線
100
AcDbLine
 10
3013.470589276525
 20
1388.494269174465
 30
0.0
 11
3013.470589276525
 21
1417.794269174464
 31
0.0
  0
LINE
  5
18D25
330
18C7A
100
AcDbEntity
  8
細線
100
AcDbLine
 10
3170.720589276524
 20
1388.494269174465
 30
0.0
 11
3100.720589276523
 21
1388.494269174465
 31
0.0
  0
LINE
  5
18D26
330
18C7A
100
AcDbEntity
  8
細線
 48
50.0
100
AcDbLine
 10
2890.720589276525
 20
1388.494269174465
 30
0.0
 11
2763.766368849365
 21
1388.494269174465
 31
0.0
  0
LINE
  5
18D27
330
18C7A
100
AcDbEntity
  8
細線
100
AcDbLine
 10
3030.720589276525
 20
1388.494269174465
 30
0.0
 11
2960.720589276525
 21
1388.494269174465
 31
0.0
  0
LINE
  5
18D28
330
18C7A
100
AcDbEntity
  8
細線
 48
50.0
100
AcDbLine
 10
2750.970589276525
 20
1380.494269174465
 30
0.0
 11
2750.970589276525
 21
1388.494269174465
 31
0.0
  0
LINE
  5
18D29
330
18C7A
100
AcDbEntity
  8
細線
 48
50.0
100
AcDbLine
 10
2730.970589276524
 20
1380.494269174467
 30
0.0
 11
2750.970589276525
 21
1380.494269174465
 31
0.0
  0
LINE
  5
18D2A
330
18C7A
100
AcDbEntity
  8
細線
 48
50.0
100
AcDbLine
 10
2745.970589276525
 20
1418.494269174465
 30
0.0
 11
2745.970589276525
 21
1413.494269174465
 31
0.0
  0
LINE
  5
18D2B
330
18C7A
100
AcDbEntity
  8
細線
 48
50.0
100
AcDbLine
 10
2730.970589276525
 20
1418.494269174463
 30
0.0
 11
2745.970589276525
 21
1418.494269174465
 31
0.0
  0
LINE
  5
18D2C
330
18C7A
100
AcDbEntity
  8
細線
 48
50.0
100
AcDbLine
 10
2730.970589276524
 20
1380.494269174467
 30
0.0
 11
2730.970589276525
 21
1418.494269174463
 31
0.0
  0
LINE
  5
18D2D
330
18C7A
100
AcDbEntity
  8
細線
100
AcDbLine
 10
3398.970589276523
 20
1388.494269174465
 30
0.0
 11
3240.720589276525
 21
1388.494269174465
 31
0.0
  0
LINE
  5
18D2E
330
18C7A
100
AcDbEntity
  8
細線
 48
50.0
100
AcDbLine
 10
3408.470589276525
 20
1413.494269174467
 30
0.0
 11
3408.470589276524
 21
1388.494269174465
 31
0.0
  0
TEXT
  5
18D2F
330
18C7A
100
AcDbEntity
  8
部品1
100
AcDbText
 10
1860.154865991392
 20
46.99880823813145
 30
0.0
 40
135.0
  1
平面図
  7
STYLE2
100
AcDbText
  0
LWPOLYLINE
  5
18D30
330
18C7A
100
AcDbEntity
  8
部品1
100
AcDbPolyline
 90
        4
 70
     1
 43
0.0
 10
1770.23525616235
 20
239.8923374566548
 10
1770.23525616235
 20
0.0000159111223184
 10
2533.705922390791
 20
0.0000159111223184
 10
2533.705922390791
 20
239.8923374566548
  0
LINE
  5
18D31
330
18C7A
100
AcDbEntity
  8
部品1
100
AcDbLine
 10
1534.470589276487
 20
3154.494269174626
 30
0.0
 11
2769.470589276552
 21
3154.494269174626
 31
0.0
  0
LINE
  5
18D32
330
18C7A
100
AcDbEntity
  8
部品1
 48
50.0
100
AcDbLine
 10
1311.970589276523
 20
1420.494269174462
 30
0.0
 11
3411.970589276523
 21
1420.494269174465
 31
0.0
  0
LINE
  5
18D33
330
18C7A
100
AcDbEntity
  8
部品1
 48
50.0
100
AcDbLine
 10
471.9705892765232
 20
1392.494269174465
 30
0.0
 11
1311.970589276523
 21
1392.494269174465
 31
0.0
  0
DIMENSION
  5
18D34
330
18C7A
100
AcDbEntity
  8
寸法
100
AcDbDimension
  2
*D14
 10
2710.234916278077
 20
2488.887829538828
 30
0.0
 11
2338.318822490183
 21
2488.887829538828
 31
0.0
 12
-3742.925985830444
 22
-6453.628869860112
 32
0.0
 70
   128
 71
     5
 42
1231.00000000007
  3
INABA_S40G
100
AcDbAlignedDimension
 13
1536.470589276486
 23
2702.494269174557
 33
0.0
 14
2767.470589276556
 24
2702.494269174549
 34
0.0
100
AcDbRotatedDimension
1001
ACAD
1000
DSTYLE
1002
{
1002
}
  0
LINE
  5
18D35
330
18C7A
100
AcDbEntity
  8
部品1
100
AcDbLine
 10
1536.470589276487
 20
2702.494269174557
 30
0.0
 11
2767.470589276554
 21
2702.494269174615
 31
0.0
  0
LINE
  5
18D36
330
18C7A
100
AcDbEntity
  8
部品1
100
AcDbLine
 10
1536.470589276487
 20
3152.494269174557
 30
0.0
 11
2767.470589276556
 21
3152.494269174615
 31
0.0
  0
LINE
  5
18D37
330
18C7A
100
AcDbEntity
  8
細線
 48
50.0
100
AcDbLine
 10
1508.470589276487
 20
3152.494269174558
 30
0.0
 11
445.4705892765559
 21
2702.494269174509
 31
0.0
  0
LINE
  5
18D38
330
18C7A
100
AcDbEntity
  8
細線
 48
50.0
100
AcDbLine
 10
1508.470589276487
 20
2702.494269174558
 30
0.0
 11
445.4705892765542
 21
3152.494269174509
 31
0.0
  0
LINE
  5
18D39
330
18C7A
100
AcDbEntity
  8
部品1
100
AcDbLine
 10
1556.970589276487
 20
3172.494269174611
 30
0.0
 11
1556.970589276487
 21
3154.494269174611
 31
0.0
  0
LINE
  5
18D3A
330
18C7A
100
AcDbEntity
  8
部品1
100
AcDbLine
 10
1556.970589276487
 20
3172.494269174611
 30
0.0
 11
1550.970589276487
 21
3172.494269174611
 31
0.0
  0
LINE
  5
18D3B
330
18C7A
100
AcDbEntity
  8
部品1
100
AcDbLine
 10
1534.470589276487
 20
3146.494269174608
 30
0.0
 11
1509.470589276487
 21
3146.494269174611
 31
0.0
  0
LINE
  5
18D3C
330
18C7A
100
AcDbEntity
  8
部品1
100
AcDbLine
 10
1486.970589276487
 20
3172.494269174611
 30
0.0
 11
1486.970589276487
 21
3154.494269174611
 31
0.0
  0
LINE
  5
18D3D
330
18C7A
100
AcDbEntity
  8
部品1
100
AcDbLine
 10
1492.970589276487
 20
3172.494269174611
 30
0.0
 11
1486.970589276487
 21
3172.494269174611
 31
0.0
  0
LINE
  5
18D3E
330
18C7A
100
AcDbEntity
  8
部品1
100
AcDbLine
 10
1534.470589276487
 20
2702.494269174615
 30
0.0
 11
1509.470589276487
 21
2702.494269174615
 31
0.0
  0
LINE
  5
18D3F
330
18C7A
100
AcDbEntity
  8
部品1
 48
50.0
100
AcDbLine
 10
1536.470589276487
 20
3152.494269174611
 30
0.0
 11
1536.470589276487
 21
2702.494269174615
 31
0.0
  0
LINE
  5
18D40
330
18C7A
100
AcDbEntity
  8
部品1
 48
50.0
100
AcDbLine
 10
1508.470589276487
 20
3152.494269174607
 30
0.0
 11
1508.470589276487
 21
2702.494269174615
 31
0.0
  0
LINE
  5
18D41
330
18C7A
100
AcDbEntity
  8
部品1
 48
50.0
100
AcDbLine
 10
1534.470589276487
 20
3154.494269174618
 30
0.0
 11
1534.470589276487
 21
2702.494269174615
 31
0.0
  0
LINE
  5
18D42
330
18C7A
100
AcDbEntity
  8
部品1
 48
50.0
100
AcDbLine
 10
1509.470589276487
 20
3154.494269174615
 30
0.0
 11
1509.470589276487
 21
2702.494269174615
 31
0.0
  0
LINE
  5
18D43
330
18C7A
100
AcDbEntity
  8
部品1
100
AcDbLine
 10
3411.970589276556
 20
1392.494269174582
 30
0.0
 11
3411.970589276556
 21
1420.494269174596
 31
0.0
  0
LINE
  5
18D44
330
18C7A
100
AcDbEntity
  8
部品1
100
AcDbLine
 10
1311.970589276523
 20
1392.494269174596
 30
0.0
 11
1311.970589276523
 21
1420.494269174596
 31
0.0
  0
LINE
  5
18D45
330
18C7A
100
AcDbEntity
  8
部品1
100
AcDbLine
 10
891.9705892765232
 20
1392.494269174596
 30
0.0
 11
891.9705892765232
 21
1420.494269174596
 31
0.0
  0
LINE
  5
18D46
330
18C7A
100
AcDbEntity
  8
部品1
100
AcDbLine
 10
3411.97058927652
 20
3182.494269174477
 30
0.0
 11
3411.970589276523
 21
3154.494269174477
 31
0.0
  0
LINE
  5
18D47
330
18C7A
100
AcDbEntity
  8
部品1
100
AcDbLine
 10
2571.97058927652
 20
3182.494269174477
 30
0.0
 11
2571.970589276523
 21
3154.494269174477
 31
0.0
  0
LINE
  5
18D48
330
18C7A
100
AcDbEntity
  8
部品1
100
AcDbLine
 10
2991.97058927652
 20
3182.494269174477
 30
0.0
 11
2991.970589276523
 21
3154.494269174477
 31
0.0
  0
LINE
  5
18D49
330
18C7A
100
AcDbEntity
  8
部品1
100
AcDbLine
 10
2151.970589276519
 20
3182.494269174477
 30
0.0
 11
2151.970589276523
 21
3154.494269174477
 31
0.0
  0
LINE
  5
18D4A
330
18C7A
100
AcDbEntity
  8
部品1
100
AcDbLine
 10
1731.970589276519
 20
3182.494269174477
 30
0.0
 11
1731.970589276523
 21
3154.494269174477
 31
0.0
  0
LINE
  5
18D4B
330
18C7A
100
AcDbEntity
  8
部品1
100
AcDbLine
 10
1311.970589276519
 20
3182.494269174477
 30
0.0
 11
1311.970589276523
 21
3154.494269174477
 31
0.0
  0
LINE
  5
18D4C
330
18C7A
100
AcDbEntity
  8
部品1
100
AcDbLine
 10
891.9705892765195
 20
3182.494269174477
 30
0.0
 11
891.9705892765232
 21
3154.494269174477
 31
0.0
  0
LINE
  5
18D4D
330
18C7A
100
AcDbEntity
  8
部品1
100
AcDbLine
 10
471.9705892765232
 20
1392.494269174596
 30
0.0
 11
471.9705892765232
 21
1420.494269174596
 31
0.0
  0
LINE
  5
18D4E
330
18C7A
100
AcDbEntity
  8
部品1
100
AcDbLine
 10
444.9705892765305
 20
1420.494269174558
 30
0.0
 11
3858.970589276556
 21
1420.494269174596
 31
0.0
  0
LINE
  5
18D4F
330
18C7A
100
AcDbEntity
  8
部品1
100
AcDbLine
 10
3831.970589276556
 20
1392.494269174596
 30
0.0
 11
3831.970589276556
 21
1420.494269174596
 31
0.0
  0
LINE
  5
18D50
330
18C7A
100
AcDbEntity
  8
部品1
100
AcDbLine
 10
3858.970589276556
 20
1447.494269174593
 30
0.0
 11
3886.970589276556
 21
1447.494269174593
 31
0.0
  0
LINE
  5
18D51
330
18C7A
100
AcDbEntity
  8
部品1
100
AcDbLine
 10
3858.970589276556
 20
1867.494269174607
 30
0.0
 11
3886.970589276556
 21
1867.494269174607
 31
0.0
  0
LINE
  5
18D52
330
18C7A
100
AcDbEntity
  8
部品1
100
AcDbLine
 10
444.9705892765305
 20
1867.49426917448
 30
0.0
 11
416.9705892765305
 21
1867.49426917448
 31
0.0
  0
LINE
  5
18D53
330
18C7A
100
AcDbEntity
  8
部品1
100
AcDbLine
 10
3830.470589276541
 20
1867.49426917458
 30
0.0
 11
473.4705892765396
 21
1867.49426917448
 31
0.0
  0
LINE
  5
18D54
330
18C7A
100
AcDbEntity
  8
部品1
100
AcDbLine
 10
3830.470589276541
 20
2287.49426917458
 30
0.0
 11
473.4705892765396
 21
2287.49426917448
 31
0.0
  0
LINE
  5
18D55
330
18C7A
100
AcDbEntity
  8
部品1
100
AcDbLine
 10
444.9705892765305
 20
2287.49426917448
 30
0.0
 11
416.9705892765305
 21
2287.49426917448
 31
0.0
  0
LINE
  5
18D56
330
18C7A
100
AcDbEntity
  8
部品1
100
AcDbLine
 10
3858.970589276556
 20
2287.494269174608
 30
0.0
 11
3886.970589276556
 21
2287.494269174608
 31
0.0
  0
LINE
  5
18D57
330
18C7A
100
AcDbEntity
  8
部品1
 48
50.0
100
AcDbLine
 10
2151.970589276551
 20
2702.494269174586
 30
0.0
 11
2151.970589276581
 21
1448.994269174494
 31
0.0
  0
LINE
  5
18D58
330
18C7A
100
AcDbEntity
  8
破線
 48
10.0
100
AcDbLine
 10
2959.470589276535
 20
1472.494269174522
 30
0.0
 11
2176.970589276532
 21
1472.494269174505
 31
0.0
  0
LINE
  5
18D59
330
18C7A
100
AcDbEntity
  8
破線
 48
10.0
100
AcDbLine
 10
3009.47058927653
 20
1448.994269174509
 30
0.0
 11
3009.47058927653
 21
2702.494269174615
 31
0.0
  0
LINE
  5
18D5A
330
18C7A
100
AcDbEntity
  8
破線
 48
10.0
100
AcDbLine
 10
2959.470589276535
 20
1448.994269174505
 30
0.0
 11
2959.470589276531
 21
2702.494269174615
 31
0.0
  0
LINE
  5
18D5B
330
18C7A
100
AcDbEntity
  8
破線
 48
10.0
100
AcDbLine
 10
1344.47058927653
 20
1448.994269174509
 30
0.0
 11
1344.47058927653
 21
2702.494269174615
 31
0.0
  0
LINE
  5
18D5C
330
18C7A
100
AcDbEntity
  8
破線
 48
10.0
100
AcDbLine
 10
1294.470589276534
 20
1448.994269174505
 30
0.0
 11
1294.47058927653
 21
2702.494269174615
 31
0.0
  0
DIMENSION
  5
18D5D
330
18C7A
100
AcDbEntity
  8
寸法
100
AcDbDimension
  2
*D13
 10
1451.234916278005
 20
2488.887829538828
 30
0.0
 11
916.0604668248634
 21
2488.887829538828
 31
0.0
 12
-3742.925985830444
 22
-6453.628869860112
 32
0.0
 70
   128
 71
     5
 42
1062.99999999993
  3
INABA_S40G
100
AcDbAlignedDimension
 13
445.4705892765559
 23
2702.494269174505
 33
0.0
 14
1508.470589276486
 24
2702.494269174558
 34
0.0
100
AcDbRotatedDimension
1001
ACAD
1000
DSTYLE
1002
{
1002
}
  0
LINE
  5
18D5E
330
18C7A
100
AcDbEntity
  8
破線
 48
10.0
100
AcDbLine
 10
1294.470589276534
 20
1472.494269174469
 30
0.0
 11
496.9705892765414
 21
1472.494269174476
 31
0.0
  0
LINE
  5
18D5F
330
18C7A
100
AcDbEntity
  8
部品1
100
AcDbLine
 10
3831.970589276556
 20
3182.494269174604
 30
0.0
 11
3831.970589276556
 21
3154.494269174604
 31
0.0
  0
LINE
  5
18D60
330
18C7A
100
AcDbEntity
  8
部品1
100
AcDbLine
 10
3831.970589276556
 20
3182.494269174626
 30
0.0
 11
3831.970589276556
 21
3154.494269174626
 31
0.0
  0
LINE
  5
18D61
330
18C7A
100
AcDbEntity
  8
部品1
100
AcDbLine
 10
3858.970589276556
 20
3127.494269174607
 30
0.0
 11
3886.970589276556
 21
3127.494269174607
 31
0.0
  0
LINE
  5
18D62
330
18C7A
100
AcDbEntity
  8
部品1
100
AcDbLine
 10
3858.970589276556
 20
2707.494269174608
 30
0.0
 11
3886.970589276556
 21
2707.494269174608
 31
0.0
  0
LINE
  5
18D63
330
18C7A
100
AcDbEntity
  8
部品1
100
AcDbLine
 10
3858.470589276556
 20
3152.494269174604
 30
0.0
 11
3858.470589276556
 21
2702.494269174608
 31
0.0
  0
LINE
  5
18D64
330
18C7A
100
AcDbEntity
  8
部品1
100
AcDbLine
 10
3886.970589276533
 20
1447.494269174593
 30
0.0
 11
3886.970589276531
 21
1392.494269174596
 31
0.0
  0
LINE
  5
18D65
330
18C7A
100
AcDbEntity
  8
部品1
 48
50.0
100
AcDbLine
 10
3830.470589276556
 20
1448.994269174596
 30
0.0
 11
3858.970589276554
 21
1420.494269174596
 31
0.0
  0
LINE
  5
18D66
330
18C7A
100
AcDbEntity
  8
部品1
100
AcDbLine
 10
3886.970589276531
 20
1392.494269174596
 30
0.0
 11
3835.970589276531
 21
1392.494269174596
 31
0.0
  0
LINE
  5
18D67
330
18C7A
100
AcDbEntity
  8
部品1
100
AcDbLine
 10
3858.970589276533
 20
1447.494269174593
 30
0.0
 11
3886.970589276531
 21
1447.494269174593
 31
0.0
  0
LINE
  5
18D68
330
18C7A
100
AcDbEntity
  8
部品1
100
AcDbLine
 10
3886.970589276556
 20
3182.494269174604
 30
0.0
 11
3886.970589276531
 21
1392.494269174596
 31
0.0
  0
DIMENSION
  5
18D69
330
18C7A
100
AcDbEntity
  8
寸法
100
AcDbDimension
  2
*D12
 10
4534.396935010967
 20
1447.494269174593
 30
0.0
 11
4534.396935010965
 21
2287.4942691746
 31
0.0
 12
-3742.925985830444
 22
-6453.628869860112
 32
0.0
 70
   128
  1
4X420=<>
 71
     5
 42
1680.000000000014
  3
INABA_S40G
100
AcDbAlignedDimension
 13
3886.970589276556
 23
3127.494269174607
 33
0.0
 14
3886.970589276531
 24
1447.494269174593
 34
0.0
 50
90.0
100
AcDbRotatedDimension
1001
ACAD
1000
DSTYLE
1002
{
1002
}
  0
LINE
  5
18D6A
330
18C7A
100
AcDbEntity
  8
部品1
100
AcDbLine
 10
3858.970589276556
 20
3154.494269174604
 30
0.0
 11
3858.970589276534
 21
1420.494269174596
 31
0.0
  0
DIMENSION
  5
18D6B
330
18C7A
100
AcDbEntity
  8
寸法
100
AcDbDimension
  2
*D11
 10
4213.82831513858
 20
2607.276453505718
 30
0.0
 11
4113.828315138579
 21
2832.276453505718
 31
0.0
 12
-3742.925985830444
 22
-6453.628869860112
 32
0.0
 71
     5
 42
449.9999999999963
  3
INABA_S40G
100
AcDbAlignedDimension
 13
3858.470589276556
 23
3152.494269174604
 33
0.0
 14
3858.470589276556
 24
2702.494269174608
 34
0.0
 50
90.0
100
AcDbRotatedDimension
1001
ACAD
1000
DSTYLE
1002
{
1002
}
  0
LINE
  5
18D6C
330
18C7A
100
AcDbEntity
  8
部品1
100
AcDbLine
 10
3830.470589276547
 20
2702.494269174608
 30
0.0
 11
3830.470589276556
 21
1448.994269174596
 31
0.0
  0
LINE
  5
18D6D
330
18C7A
100
AcDbEntity
  8
破線
 48
10.0
100
AcDbLine
 10
3806.970589276549
 20
2702.494269174608
 30
0.0
 11
3806.970589276558
 21
1472.494269174593
 31
0.0
  0
LINE
  5
18D6E
330
18C7A
100
AcDbEntity
  8
部品1
100
AcDbLine
 10
2769.470589276556
 20
3146.494269174608
 30
0.0
 11
2794.470589276556
 21
3146.494269174611
 31
0.0
  0
LINE
  5
18D6F
330
18C7A
100
AcDbEntity
  8
部品1
100
AcDbLine
 10
2810.970589276556
 20
3172.494269174611
 30
0.0
 11
2816.970589276556
 21
3172.494269174611
 31
0.0
  0
LINE
  5
18D70
330
18C7A
100
AcDbEntity
  8
部品1
100
AcDbLine
 10
2816.970589276556
 20
3172.494269174611
 30
0.0
 11
2816.970589276556
 21
3154.494269174611
 31
0.0
  0
LINE
  5
18D71
330
18C7A
100
AcDbEntity
  8
部品1
100
AcDbLine
 10
2746.970589276556
 20
3172.494269174611
 30
0.0
 11
2752.970589276556
 21
3172.494269174611
 31
0.0
  0
LINE
  5
18D72
330
18C7A
100
AcDbEntity
  8
部品1
100
AcDbLine
 10
2746.970589276556
 20
3172.494269174611
 30
0.0
 11
2746.970589276556
 21
3154.494269174611
 31
0.0
  0
LINE
  5
18D73
330
18C7A
100
AcDbEntity
  8
部品1
100
AcDbLine
 10
2769.470589276556
 20
2702.494269174615
 30
0.0
 11
2794.470589276556
 21
2702.494269174615
 31
0.0
  0
LINE
  5
18D74
330
18C7A
100
AcDbEntity
  8
部品1
 48
50.0
100
AcDbLine
 10
2794.470589276556
 20
3154.494269174615
 30
0.0
 11
2794.470589276556
 21
2702.494269174615
 31
0.0
  0
LINE
  5
18D75
330
18C7A
100
AcDbEntity
  8
部品1
 48
50.0
100
AcDbLine
 10
2769.470589276554
 20
3154.494269174618
 30
0.0
 11
2769.470589276556
 21
2702.494269174615
 31
0.0
  0
LINE
  5
18D76
330
18C7A
100
AcDbEntity
  8
部品1
 48
50.0
100
AcDbLine
 10
2795.470589276556
 20
3152.494269174607
 30
0.0
 11
2795.470589276556
 21
2702.494269174615
 31
0.0
  0
LINE
  5
18D77
330
18C7A
100
AcDbEntity
  8
部品1
 48
50.0
100
AcDbLine
 10
2767.470589276556
 20
3152.494269174611
 30
0.0
 11
2767.470589276556
 21
2702.494269174615
 31
0.0
  0
LINE
  5
18D78
330
18C7A
100
AcDbEntity
  8
破線
 48
10.0
100
AcDbLine
 10
2176.97058927653
 20
1448.994269174509
 30
0.0
 11
2176.97058927653
 21
2702.494269174588
 31
0.0
  0
LINE
  5
18D79
330
18C7A
100
AcDbEntity
  8
破線
 48
10.0
100
AcDbLine
 10
2126.970589276534
 20
1448.994269174505
 30
0.0
 11
2126.970589276531
 21
2702.494269174586
 31
0.0
  0
LINE
  5
18D7A
330
18C7A
100
AcDbEntity
  8
部品1
100
AcDbLine
 10
2794.470589276556
 20
3154.494269174622
 30
0.0
 11
3858.970589276556
 21
3154.494269174604
 31
0.0
  0
LINE
  5
18D7B
330
18C7A
100
AcDbEntity
  8
細線
 48
50.0
100
AcDbLine
 10
3858.470589276556
 20
2702.494269174608
 30
0.0
 11
2795.470589276556
 21
3152.494269174607
 31
0.0
  0
LINE
  5
18D7C
330
18C7A
100
AcDbEntity
  8
部品1
100
AcDbLine
 10
2795.470589276555
 20
2702.494269174615
 30
0.0
 11
3858.470589276556
 21
2702.494269174608
 31
0.0
  0
LINE
  5
18D7D
330
18C7A
100
AcDbEntity
  8
部品1
100
AcDbLine
 10
2795.470589276556
 20
3152.494269174611
 30
0.0
 11
3858.470589276556
 21
3152.494269174604
 31
0.0
  0
LINE
  5
18D7E
330
18C7A
100
AcDbEntity
  8
細線
 48
50.0
100
AcDbLine
 10
3858.470589276556
 20
3152.494269174604
 30
0.0
 11
2795.470589276555
 21
2702.494269174615
 31
0.0
  0
DIMENSION
  5
18D7F
330
18C7A
100
AcDbEntity
  8
寸法
100
AcDbDimension
  2
*D10
 10
3801.234916278101
 20
2488.887829538937
 30
0.0
 11
3318.360544398907
 21
2488.887829538937
 31
0.0
 12
-3742.925985830444
 22
-6453.628869860112
 32
0.0
 70
   128
 71
     5
 42
1063.000000000012
  3
INABA_S40G
100
AcDbAlignedDimension
 13
2795.470589276555
 23
2702.494269174615
 33
0.0
 14
3858.470589276567
 24
2702.494269174608
 34
0.0
100
AcDbRotatedDimension
1001
ACAD
1000
DSTYLE
1002
{
1002
}
  0
LINE
  5
18D80
330
18C7A
100
AcDbEntity
  8
破線
 48
10.0
100
AcDbLine
 10
3806.970589276556
 20
1472.494269174594
 30
0.0
 11
3009.47058927653
 21
1472.494269174523
 31
0.0
  0
DIMENSION
  5
18D81
330
18C7A
100
AcDbEntity
  8
寸法
100
AcDbDimension
  2
*D9
 10
4534.396935010941
 20
1392.494269174596
 30
0.0
 11
4534.39693501094
 21
1084.008987800356
 31
0.0
 12
-3742.925985830444
 22
-6453.628869860112
 32
0.0
 70
   128
 71
     5
 42
54.99999999999636
  3
INABA_S40G
100
AcDbAlignedDimension
 13
3886.970589276531
 23
1447.494269174593
 33
0.0
 14
3886.970589276531
 24
1392.494269174596
 34
0.0
 50
90.0
100
AcDbRotatedDimension
1001
ACAD
1000
DSTYLE
1002
{
1002
}
  0
LINE
  5
18D82
330
18C7A
100
AcDbEntity
  8
部品1
100
AcDbLine
 10
471.9705892765196
 20
3182.494269174477
 30
0.0
 11
471.9705892765232
 21
3154.494269174477
 31
0.0
  0
LINE
  5
18D83
330
18C7A
100
AcDbEntity
  8
部品1
100
AcDbLine
 10
471.9705892765559
 20
3182.494269174509
 30
0.0
 11
471.9705892765559
 21
3154.494269174509
 31
0.0
  0
LINE
  5
18D84
330
18C7A
100
AcDbEntity
  8
部品1
100
AcDbLine
 10
444.9705892765232
 20
3127.49426917448
 30
0.0
 11
416.9705892765232
 21
3127.49426917448
 31
0.0
  0
LINE
  5
18D85
330
18C7A
100
AcDbEntity
  8
部品1
100
AcDbLine
 10
444.9705892765305
 20
2707.49426917448
 30
0.0
 11
416.9705892765305
 21
2707.49426917448
 31
0.0
  0
LINE
  5
18D86
330
18C7A
100
AcDbEntity
  8
部品1
 48
50.0
100
AcDbLine
 10
445.4705892765542
 20
3152.494269174506
 30
0.0
 11
445.4705892765559
 21
2702.494269174505
 31
0.0
  0
LINE
  5
18D87
330
18C7A
100
AcDbEntity
  8
部品1
 48
50.0
100
AcDbLine
 10
473.470589276545
 20
1448.994269174573
 30
0.0
 11
444.970589276545
 21
1420.494269174574
 31
0.0
  0
LINE
  5
18D88
330
18C7A
100
AcDbEntity
  8
部品1
100
AcDbLine
 10
471.9705892765232
 20
1392.494269174465
 30
0.0
 11
416.9705892765486
 21
1392.494269174465
 31
0.0
  0
LINE
  5
18D89
330
18C7A
100
AcDbEntity
  8
部品1
100
AcDbLine
 10
444.9705892765305
 20
1447.494269174429
 30
0.0
 11
416.9705892765469
 21
1447.494269174429
 31
0.0
  0
LINE
  5
18D8A
330
18C7A
100
AcDbEntity
  8
部品1
100
AcDbLine
 10
444.9705892765305
 20
1447.494269174465
 30
0.0
 11
416.9705892765469
 21
1447.494269174465
 31
0.0
  0
LINE
  5
18D8B
330
18C7A
100
AcDbEntity
  8
部品1
100
AcDbLine
 10
444.9705892765469
 20
1447.49426917448
 30
0.0
 11
416.9705892765469
 21
1447.49426917448
 31
0.0
  0
LINE
  5
18D8C
330
18C7A
100
AcDbEntity
  8
部品1
100
AcDbLine
 10
416.9705892765469
 20
1447.494269174429
 30
0.0
 11
416.9705892765486
 21
1392.494269174433
 31
0.0
  0
LINE
  5
18D8D
330
18C7A
100
AcDbEntity
  8
部品1
100
AcDbLine
 10
416.9705892765196
 20
3182.494269174477
 30
0.0
 11
416.9705892765486
 21
1392.494269174465
 31
0.0
  0
LINE
  5
18D8E
330
18C7A
100
AcDbEntity
  8
部品1
100
AcDbLine
 10
444.9705892765305
 20
1420.494269174556
 30
0.0
 11
444.9705892765559
 21
3154.494269174509
 31
0.0
  0
LINE
  5
18D8F
330
18C7A
100
AcDbEntity
  8
部品1
100
AcDbLine
 10
473.4705892765323
 20
2702.494269174608
 30
0.0
 11
473.470589276545
 21
1448.994269174571
 31
0.0
  0
LINE
  5
18D90
330
18C7A
100
AcDbEntity
  8
破線
 48
10.0
100
AcDbLine
 10
496.9705892765305
 20
2702.494269174608
 30
0.0
 11
496.9705892765451
 21
1472.494269174476
 31
0.0
  0
DIMENSION
  5
18D91
330
18C7A
100
AcDbEntity
  8
寸法
100
AcDbDimension
  2
*D8
 10
3886.970589276531
 20
410.7433333855515
 30
0.0
 11
2168.197775309287
 21
410.7433333855515
 31
0.0
 12
-3742.925985830444
 22
-6453.628869860112
 32
0.0
 70
   128
 71
     5
 42
3469.999999999982
  3
INABA_S40G
100
AcDbAlignedDimension
 13
416.9705892765486
 23
1392.494269174433
 33
0.0
 14
3886.970589276531
 24
1392.49426917456
 34
0.0
100
AcDbRotatedDimension
1001
ACAD
1000
DSTYLE
1002
{
1070
   341
1005
0
1002
}
  0
LINE
  5
18D92
330
18C7A
100
AcDbEntity
  8
部品1
100
AcDbLine
 10
444.9705892765559
 20
3154.494269174624
 30
0.0
 11
1509.470589276487
 21
3154.494269174626
 31
0.0
  0
LINE
  5
18D93
330
18C7A
100
AcDbEntity
  8
部品1
100
AcDbLine
 10
3886.970589276531
 20
1392.494269174596
 30
0.0
 11
3411.970589276556
 21
1392.494269174582
 31
0.0
  0
LINE
  5
18D94
330
18C7A
100
AcDbEntity
  8
部品1
100
AcDbLine
 10
416.9705892765559
 20
3182.494269174509
 30
0.0
 11
3886.970589276556
 21
3182.494269174604
 31
0.0
  0
LINE
  5
18D95
330
18C7A
100
AcDbEntity
  8
部品1
100
AcDbLine
 10
445.4705892765559
 20
2702.494269174509
 30
0.0
 11
1508.470589276487
 21
2702.494269174558
 31
0.0
  0
LINE
  5
18D96
330
18C7A
100
AcDbEntity
  8
細線
 48
50.0
100
AcDbLine
 10
2767.470589276556
 20
3152.494269174611
 30
0.0
 11
1536.470589276487
 21
2702.494269174558
 31
0.0
  0
LINE
  5
18D97
330
18C7A
100
AcDbEntity
  8
部品1
100
AcDbLine
 10
445.4705892765542
 20
3152.494269174509
 30
0.0
 11
1508.470589276485
 21
3152.494269174558
 31
0.0
  0
LINE
  5
18D98
330
18C7A
100
AcDbEntity
  8
細線
 48
50.0
100
AcDbLine
 10
2767.470589276554
 20
2702.494269174615
 30
0.0
 11
1536.470589276485
 21
3152.494269174558
 31
0.0
  0
LINE
  5
18D99
330
18C7A
100
AcDbEntity
  8
破線
 48
10.0
100
AcDbLine
 10
2126.970589276534
 20
1472.494269174502
 30
0.0
 11
1344.47058927653
 21
1472.494269174473
 31
0.0
  0
LINE
  5
18D9A
330
18C7A
100
AcDbEntity
  8
部品1
100
AcDbLine
 10
3830.470589276556
 20
1448.994269174596
 30
0.0
 11
473.4705892764487
 21
1448.994269174476
 31
0.0
  0
DIMENSION
  5
18D9B
330
18C7A
100
AcDbEntity
  8
寸法
100
AcDbDimension
  2
*D7
 10
471.970589276555
 20
3698.302488799491
 30
0.0
 11
108.4853079022819
 21
3698.302488799491
 31
0.0
 12
-3742.925985830444
 22
-6453.628869860112
 32
0.0
 70
   128
 71
     5
 42
55.00000000003456
  3
INABA_S40G
100
AcDbAlignedDimension
 13
416.9705892765205
 23
3182.494269174509
 33
0.0
 14
471.970589276555
 24
3182.494269174509
 34
0.0
100
AcDbRotatedDimension
1001
ACAD
1000
DSTYLE
1002
{
1002
}
  0
DIMENSION
  5
18D9C
330
18C7A
100
AcDbEntity
  8
寸法
100
AcDbDimension
  2
*D6
 10
4534.396935010967
 20
3127.494269174607
 30
0.0
 11
4534.396935010965
 21
3490.979550548844
 31
0.0
 12
-3742.925985830444
 22
-6453.628869860112
 32
0.0
 70
   128
 71
     5
 42
54.99999999999636
  3
INABA_S40G
100
AcDbAlignedDimension
 13
3886.970589276556
 23
3182.494269174604
 33
0.0
 14
3886.970589276556
 24
3127.494269174607
 34
0.0
 50
90.0
100
AcDbRotatedDimension
1001
ACAD
1000
DSTYLE
1002
{
1002
}
  0
DIMENSION
  5
18D9D
330
18C7A
100
AcDbEntity
  8
寸法
100
AcDbDimension
  2
*D5
 10
3886.970589276556
 20
3698.302488799589
 30
0.0
 11
4195.455870650794
 21
3698.302488799589
 31
0.0
 12
-3742.925985830444
 22
-6453.628869860112
 32
0.0
 70
   128
 71
     5
 42
55.0
  3
INABA_S40G
100
AcDbAlignedDimension
 13
3831.970589276556
 23
3182.494269174604
 33
0.0
 14
3886.970589276556
 24
3182.494269174604
 34
0.0
100
AcDbRotatedDimension
1001
ACAD
1000
DSTYLE
1002
{
1002
}
  0
DIMENSION
  5
18D9E
330
18C7A
100
AcDbEntity
  8
寸法
100
AcDbDimension
  2
*D4
 10
3831.970589276556
 20
3698.302488799607
 30
0.0
 11
2151.970589276555
 21
3698.302488799607
 31
0.0
 12
-3742.925985830444
 22
-6453.628869860112
 32
0.0
 70
   128
  1
8X420=<>
 71
     5
 42
3360.000000000001
  3
INABA_S40G
100
AcDbAlignedDimension
 13
471.970589276555
 23
3182.494269174509
 33
0.0
 14
3831.970589276556
 24
3182.494269174604
 34
0.0
100
AcDbRotatedDimension
1001
ACAD
1000
DSTYLE
1002
{
1002
}
  0
DIMENSION
  5
18D9F
330
18C7A
100
AcDbEntity
  8
寸法
100
AcDbDimension
  2
*D3
 10
4899.503876750603
 20
1392.494269174596
 30
0.0
 11
4899.503876750601
 21
2287.4942691746
 31
0.0
 12
-3742.925985830444
 22
-6453.628869860112
 32
0.0
 70
   128
 71
     5
 42
1790.000000000007
  3
INABA_S40G
100
AcDbAlignedDimension
 13
3886.970589276556
 23
3182.494269174604
 33
0.0
 14
3886.970589276531
 24
1392.494269174596
 34
0.0
 50
90.0
100
AcDbRotatedDimension
1001
ACAD
1000
DSTYLE
1002
{
1002
}
  0
ENDBLK
  5
18DA1
330
18C7A
100
AcDbEntity
  8
0
 48
50.0
100
AcDbBlockEnd
  0
BLOCK
  5
1C4CB
330
1C4CA
100
AcDbEntity
  8
0
 48
50.0
100
AcDbBlockBegin
  2
_NONE
 70
     0
 10
0.0
 20
0.0
 30
0.0
  3
_NONE
  1

  0
CIRCLE
  5
1C4CC
330
1C4CA
100
AcDbEntity
  8
0
  6
ByBlock
 62
     0
 48
50.0
100
AcDbCircle
 10
0.0
 20
0.0
 30
0.0
 40
0.25
  0
ENDBLK
  5
1C4CD
330
1C4CA
100
AcDbEntity
  8
0
 48
50.0
100
AcDbBlockEnd
  0
BLOCK
  5
2D84C
330
2D841
100
AcDbEntity
  8
0
 48
50.0
100
AcDbBlockBegin
  2
*D19
 70
     1
 10
0.0
 20
0.0
 30
0.0
  3
*D19
  1

  0
LINE
  5
2E60E
330
2D841
100
AcDbEntity
  8
寸法
 62
     0
 48
50.0
370
    -2
100
AcDbLine
 10
12503.6
 20
7009.428916583236
 30
0.0
 11
12503.6
 21
7164.02752968131
 31
0.0
  0
LINE
  5
2E60F
330
2D841
100
AcDbEntity
  8
寸法
 62
     0
 48
50.0
370
    -2
100
AcDbLine
 10
12383.6
 20
7009.428916583236
 30
0.0
 11
12383.6
 21
7164.02752968131
 31
0.0
  0
LINE
  5
2E610
330
2D841
100
AcDbEntity
  8
寸法
 62
     0
 48
50.0
370
    -2
100
AcDbLine
 10
12383.6
 20
7104.02752968131
 30
0.0
 11
12503.6
 21
7104.02752968131
 31
0.0
  0
LINE
  5
2E611
330
2D841
100
AcDbEntity
  8
寸法
 62
     0
 48
50.0
370
    -2
100
AcDbLine
 10
12503.6
 20
7104.02752968131
 30
0.0
 11
12909.7062992126
 21
7104.02752968131
 31
0.0
  0
INSERT
  5
2E612
330
2D841
100
AcDbEntity
  8
寸法
 62
     0
 48
50.0
370
    -2
100
AcDbBlockReference
  2
_DOTSMALL
 10
12383.6
 20
7104.02752968131
 30
0.0
 41
100.0
 42
100.0
 43
100.0
 50
180.0
  0
INSERT
  5
2E613
330
2D841
100
AcDbEntity
  8
寸法
 62
     0
 48
50.0
370
    -2
100
AcDbBlockReference
  2
_DOTSMALL
 10
12503.6
 20
7104.02752968131
 30
0.0
 41
100.0
 42
100.0
 43
100.0
  0
MTEXT
  5
2E614
330
2D841
100
AcDbEntity
  8
寸法
 62
     7
 48
50.0
100
AcDbMText
 10
12773.65905511811
 20
7204.039340704932
 30
0.0
 40
120.0
 41
0.0
 71
     5
 72
     1
  1
\A1;120
  7
STYLE1
 73
     1
 44
1.0
1001
ACAD
1000
MTEXTBEGIN
1070
    73
1070
     1
1070
    44
1040
1.0
1070
    74
1070
     0
1000
MTEXTEND
  0
POINT
  5
2E615
330
2D841
100
AcDbEntity
  8
DEFPOINTS
 62
     0
 48
50.0
100
AcDbPoint
 10
12503.6
 20
6989.428916583236
 30
0.0
  0
POINT
  5
2E616
330
2D841
100
AcDbEntity
  8
DEFPOINTS
 62
     0
 48
50.0
100
AcDbPoint
 10
12383.6
 20
6989.428916583236
 30
0.0
  0
POINT
  5
2E617
330
2D841
100
AcDbEntity
  8
DEFPOINTS
 62
     0
 48
50.0
100
AcDbPoint
 10
12383.6
 20
7104.02752968131
 30
0.0
  0
ENDBLK
  5
2D84D
330
2D841
100
AcDbEntity
  8
0
 48
50.0
100
AcDbBlockEnd
  0
BLOCK
  5
2D859
330
2D84E
100
AcDbEntity
  8
0
 48
50.0
100
AcDbBlockBegin
  2
*D20
 70
     1
 10
0.0
 20
0.0
 30
0.0
  3
*D20
  1

  0
LINE
  5
2E3DF
330
2D84E
100
AcDbEntity
  8
寸法
 62
     0
 48
50.0
370
    -2
100
AcDbLine
 10
11903.6
 20
7554.428916583187
 30
0.0
 11
11762.81202022565
 21
7554.428916583187
 31
0.0
  0
LINE
  5
2E3E0
330
2D84E
100
AcDbEntity
  8
寸法
 62
     0
 48
50.0
370
    -2
100
AcDbLine
 10
11903.6
 20
7354.428916583201
 30
0.0
 11
11762.81202022565
 21
7354.428916583201
 31
0.0
  0
LINE
  5
2E3E1
330
2D84E
100
AcDbEntity
  8
寸法
 62
     0
 48
50.0
370
    -2
100
AcDbLine
 10
11822.81202022565
 20
7354.428916583201
 30
0.0
 11
11822.81202022565
 21
7554.428916583187
 31
0.0
  0
LINE
  5
2E3E2
330
2D84E
100
AcDbEntity
  8
寸法
 62
     0
 48
50.0
370
    -2
100
AcDbLine
 10
11822.81202022565
 20
7554.428916583187
 30
0.0
 11
11822.81202022565
 21
7990.963365402087
 31
0.0
  0
INSERT
  5
2E3E3
330
2D84E
100
AcDbEntity
  8
寸法
 62
     0
 48
50.0
370
    -2
100
AcDbBlockReference
  2
_DOTSMALL
 10
11822.81202022565
 20
7354.428916583201
 30
0.0
 41
100.0
 42
100.0
 43
100.0
 50
270.0
  0
INSERT
  5
2E3E4
330
2D84E
100
AcDbEntity
  8
寸法
 62
     0
 48
50.0
370
    -2
100
AcDbBlockReference
  2
_DOTSMALL
 10
11822.81202022565
 20
7554.428916583187
 30
0.0
 41
100.0
 42
100.0
 43
100.0
 50
90.0
  0
MTEXT
  5
2E3E5
330
2D84E
100
AcDbEntity
  8
寸法
 62
     7
 48
50.0
100
AcDbMText
 10
11722.80020920203
 20
7841.392499260357
 30
0.0
 40
120.0
 41
0.0
 71
     5
 72
     1
  1
\A1;200
  7
STYLE1
 11
0.0000000000000001
 21
1.0
 31
0.0
 73
     1
 44
1.0
1001
ACAD
1000
MTEXTBEGIN
1070
    73
1070
     1
1070
    44
1040
1.0
1070
    74
1070
     0
1000
MTEXTEND
  0
POINT
  5
2E3E6
330
2D84E
100
AcDbEntity
  8
DEFPOINTS
 62
     0
 48
50.0
100
AcDbPoint
 10
11923.6
 20
7554.428916583187
 30
0.0
  0
POINT
  5
2E3E7
330
2D84E
100
AcDbEntity
  8
DEFPOINTS
 62
     0
 48
50.0
100
AcDbPoint
 10
11923.6
 20
7354.428916583201
 30
0.0
  0
POINT
  5
2E3E8
330
2D84E
100
AcDbEntity
  8
DEFPOINTS
 62
     0
 48
50.0
100
AcDbPoint
 10
11822.81202022565
 20
7354.428916583201
 30
0.0
  0
ENDBLK
  5
2D85A
330
2D84E
100
AcDbEntity
  8
0
 48
50.0
100
AcDbBlockEnd
  0
BLOCK
  5
2D866
330
2D85B
100
AcDbEntity
  8
0
 48
50.0
100
AcDbBlockBegin
  2
*D21
 70
     1
 10
0.0
 20
0.0
 30
0.0
  3
*D21
  1

  0
LINE
  5
2E581
330
2D85B
100
AcDbEntity
  8
寸法
 62
     0
 48
50.0
370
    -2
100
AcDbLine
 10
11911.63847577293
 20
6294.428916583218
 30
0.0
 11
11762.81202022565
 21
6294.428916583218
 31
0.0
  0
LINE
  5
2E582
330
2D85B
100
AcDbEntity
  8
寸法
 62
     0
 48
50.0
370
    -2
100
AcDbLine
 10
11903.6
 20
6014.428916583217
 30
0.0
 11
11762.81202022565
 21
6014.428916583217
 31
0.0
  0
LINE
  5
2E583
330
2D85B
100
AcDbEntity
  8
寸法
 62
     0
 48
50.0
370
    -2
100
AcDbLine
 10
11822.81202022565
 20
6294.428916583218
 30
0.0
 11
11822.81202022565
 21
6014.428916583217
 31
0.0
  0
LINE
  5
2E584
330
2D85B
100
AcDbEntity
  8
寸法
 62
     0
 48
50.0
370
    -2
100
AcDbLine
 10
11822.81202022565
 20
6014.428916583217
 30
0.0
 11
11822.81202022565
 21
5577.894467764311
 31
0.0
  0
INSERT
  5
2E585
330
2D85B
100
AcDbEntity
  8
寸法
 62
     0
 48
50.0
370
    -2
100
AcDbBlockReference
  2
_DOTSMALL
 10
11822.81202022565
 20
6294.428916583218
 30
0.0
 41
100.0
 42
100.0
 43
100.0
 50
90.0
  0
INSERT
  5
2E586
330
2D85B
100
AcDbEntity
  8
寸法
 62
     0
 48
50.0
370
    -2
100
AcDbBlockReference
  2
_DOTSMALL
 10
11822.81202022565
 20
6014.428916583217
 30
0.0
 41
100.0
 42
100.0
 43
100.0
 50
270.0
  0
MTEXT
  5
2E587
330
2D85B
100
AcDbEntity
  8
寸法
 62
     7
 48
50.0
100
AcDbMText
 10
11722.80020920203
 20
5727.465333906046
 30
0.0
 40
120.0
 41
0.0
 71
     5
 72
     1
  1
\A1;280
  7
STYLE1
 11
0.0000000000000001
 21
1.0
 31
0.0
 73
     1
 44
1.0
1001
ACAD
1000
MTEXTBEGIN
1070
    73
1070
     1
1070
    44
1040
1.0
1070
    74
1070
     0
1000
MTEXTEND
  0
POINT
  5
2E588
330
2D85B
100
AcDbEntity
  8
DEFPOINTS
 62
     0
 48
50.0
100
AcDbPoint
 10
11931.63847577293
 20
6294.428916583218
 30
0.0
  0
POINT
  5
2E589
330
2D85B
100
AcDbEntity
  8
DEFPOINTS
 62
     0
 48
50.0
100
AcDbPoint
 10
11923.6
 20
6014.428916583217
 30
0.0
  0
POINT
  5
2E58A
330
2D85B
100
AcDbEntity
  8
DEFPOINTS
 62
     0
 48
50.0
100
AcDbPoint
 10
11822.81202022565
 20
6014.428916583217
 30
0.0
  0
ENDBLK
  5
2D867
330
2D85B
100
AcDbEntity
  8
0
 48
50.0
100
AcDbBlockEnd
  0
BLOCK
  5
2D874
330
2D868
100
AcDbEntity
  8
0
 48
50.0
100
AcDbBlockBegin
  2
*D22
 70
     1
 10
0.0
 20
0.0
 30
0.0
  3
*D22
  1

  0
LINE
  5
2E409
330
2D868
100
AcDbEntity
  8
寸法
 62
     0
 48
50.0
370
    -2
100
AcDbLine
 10
3923.600000000004
 20
6014.428916583181
 30
0.0
 11
3008.721909610676
 21
6014.428916583181
 31
0.0
  0
LINE
  5
2E40A
330
2D868
100
AcDbEntity
  8
寸法
 62
     0
 48
50.0
370
    -2
100
AcDbLine
 10
3300.665006330075
 20
5959.428916583207
 30
0.0
 11
3008.721909610676
 21
5959.428916583207
 31
0.0
  0
LINE
  5
2E40B
330
2D868
100
AcDbEntity
  8
寸法
 62
     0
 48
50.0
370
    -2
100
AcDbLine
 10
3068.721909610677
 20
6014.428916583181
 30
0.0
 11
3068.721909610677
 21
6114.428916583181
 31
0.0
  0
LINE
  5
2E40C
330
2D868
100
AcDbEntity
  8
寸法
 62
     0
 48
50.0
370
    -2
100
AcDbLine
 10
3068.721909610677
 20
5959.428916583207
 30
0.0
 11
3068.721909610677
 21
5859.428916583207
 31
0.0
  0
LINE
  5
2E40D
330
2D868
100
AcDbEntity
  8
寸法
 62
     0
 48
50.0
370
    -2
100
AcDbLine
 10
3068.721909610677
 20
6014.428916583181
 30
0.0
 11
3068.721909610677
 21
5959.428916583207
 31
0.0
  0
INSERT
  5
2E40E
330
2D868
100
AcDbEntity
  8
寸法
 62
     0
 48
50.0
370
    -2
100
AcDbBlockReference
  2
_DOTSMALL
 10
3068.721909610677
 20
6014.428916583181
 30
0.0
 41
100.0
 42
100.0
 43
100.0
 50
270.0
  0
INSERT
  5
2E40F
330
2D868
100
AcDbEntity
  8
寸法
 62
     0
 48
50.0
370
    -2
100
AcDbBlockReference
  2
_DOTSMALL
 10
3068.721909610677
 20
5959.428916583207
 30
0.0
 41
100.0
 42
100.0
 43
100.0
 50
90.0
  0
MTEXT
  5
2E410
330
2D868
100
AcDbEntity
  8
寸法
 62
     7
 48
50.0
100
AcDbMText
 10
2968.721909610676
 20
5986.928916583195
 30
0.0
 40
120.0
 41
0.0
 71
     5
 72
     1
  1
\A1;b
  7
STYLE1
 11
0.0000000000000001
 21
1.0
 31
0.0
 73
     1
 44
1.0
1001
ACAD
1000
MTEXTBEGIN
1070
    73
1070
     1
1070
    44
1040
1.0
1070
    74
1070
     0
1000
MTEXTEND
  0
POINT
  5
2E411
330
2D868
100
AcDbEntity
  8
DEFPOINTS
 62
     0
 48
50.0
100
AcDbPoint
 10
3943.600000000004
 20
6014.428916583181
 30
0.0
  0
POINT
  5
2E412
330
2D868
100
AcDbEntity
  8
DEFPOINTS
 62
     0
 48
50.0
100
AcDbPoint
 10
3320.665006330075
 20
5959.428916583207
 30
0.0
  0
POINT
  5
2E413
330
2D868
100
AcDbEntity
  8
DEFPOINTS
 62
     0
 48
50.0
100
AcDbPoint
 10
3068.721909610677
 20
5959.428916583207
 30
0.0
  0
ENDBLK
  5
2D875
330
2D868
100
AcDbEntity
  8
0
 48
50.0
100
AcDbBlockEnd
  0
BLOCK
  5
2D882
330
2D876
100
AcDbEntity
  8
0
 48
50.0
100
AcDbBlockBegin
  2
*D23
 70
     1
 10
0.0
 20
0.0
 30
0.0
  3
*D23
  1

  0
LINE
  5
2E3FE
330
2D876
100
AcDbEntity
  8
寸法
 62
     0
 48
50.0
370
    -2
100
AcDbLine
 10
3300.665006330075
 20
7629.428916583155
 30
0.0
 11
3008.721909610676
 21
7629.428916583155
 31
0.0
  0
LINE
  5
2E3FF
330
2D876
100
AcDbEntity
  8
寸法
 62
     0
 48
50.0
370
    -2
100
AcDbLine
 10
3923.600000000004
 20
7554.42891658315
 30
0.0
 11
3008.721909610676
 21
7554.42891658315
 31
0.0
  0
LINE
  5
2E400
330
2D876
100
AcDbEntity
  8
寸法
 62
     0
 48
50.0
370
    -2
100
AcDbLine
 10
3068.721909610677
 20
7629.428916583155
 30
0.0
 11
3068.721909610677
 21
7729.428916583156
 31
0.0
  0
LINE
  5
2E401
330
2D876
100
AcDbEntity
  8
寸法
 62
     0
 48
50.0
370
    -2
100
AcDbLine
 10
3068.721909610677
 20
7554.42891658315
 30
0.0
 11
3068.721909610677
 21
7454.42891658315
 31
0.0
  0
LINE
  5
2E402
330
2D876
100
AcDbEntity
  8
寸法
 62
     0
 48
50.0
370
    -2
100
AcDbLine
 10
3068.721909610677
 20
7629.428916583155
 30
0.0
 11
3068.721909610677
 21
7554.42891658315
 31
0.0
  0
INSERT
  5
2E403
330
2D876
100
AcDbEntity
  8
寸法
 62
     0
 48
50.0
370
    -2
100
AcDbBlockReference
  2
_DOTSMALL
 10
3068.721909610677
 20
7629.428916583155
 30
0.0
 41
100.0
 42
100.0
 43
100.0
 50
270.0
  0
INSERT
  5
2E404
330
2D876
100
AcDbEntity
  8
寸法
 62
     0
 48
50.0
370
    -2
100
AcDbBlockReference
  2
_DOTSMALL
 10
3068.721909610677
 20
7554.42891658315
 30
0.0
 41
100.0
 42
100.0
 43
100.0
 50
90.0
  0
MTEXT
  5
2E405
330
2D876
100
AcDbEntity
  8
寸法
 62
     7
 48
50.0
100
AcDbMText
 10
2968.721909610675
 20
7591.928916583154
 30
0.0
 40
120.0
 41
0.0
 71
     5
 72
     1
  1
\A1;c
  7
STYLE1
 11
0.0000000000000001
 21
1.0
 31
0.0
 73
     1
 44
1.0
1001
ACAD
1000
MTEXTBEGIN
1070
    73
1070
     1
1070
    44
1040
1.0
1070
    74
1070
     0
1000
MTEXTEND
  0
POINT
  5
2E406
330
2D876
100
AcDbEntity
  8
DEFPOINTS
 62
     0
 48
50.0
100
AcDbPoint
 10
3320.665006330075
 20
7629.428916583155
 30
0.0
  0
POINT
  5
2E407
330
2D876
100
AcDbEntity
  8
DEFPOINTS
 62
     0
 48
50.0
100
AcDbPoint
 10
3943.600000000004
 20
7554.42891658315
 30
0.0
  0
POINT
  5
2E408
330
2D876
100
AcDbEntity
  8
DEFPOINTS
 62
     0
 48
50.0
100
AcDbPoint
 10
3068.721909610677
 20
7554.42891658315
 30
0.0
  0
ENDBLK
  5
2D883
330
2D876
100
AcDbEntity
  8
0
 48
50.0
100
AcDbBlockEnd
  0
BLOCK
  5
2D890
330
2D884
100
AcDbEntity
  8
0
 48
50.0
100
AcDbBlockBegin
  2
*D24
 70
     1
 10
0.0
 20
0.0
 30
0.0
  3
*D24
  1

  0
LINE
  5
2E3F3
330
2D884
100
AcDbEntity
  8
寸法
 62
     0
 48
50.0
370
    -2
100
AcDbLine
 10
3898.600000000004
 20
8300.695374677063
 30
0.0
 11
3898.600000000004
 21
8572.649238642073
 31
0.0
  0
LINE
  5
2E3F4
330
2D884
100
AcDbEntity
  8
寸法
 62
     0
 48
50.0
370
    -2
100
AcDbLine
 10
3943.600000000004
 20
7574.42891658315
 30
0.0
 11
3943.600000000004
 21
8572.649238642073
 31
0.0
  0
LINE
  5
2E3F5
330
2D884
100
AcDbEntity
  8
寸法
 62
     0
 48
50.0
370
    -2
100
AcDbLine
 10
3943.600000000004
 20
8512.649238642072
 30
0.0
 11
4043.600000000004
 21
8512.649238642072
 31
0.0
  0
LINE
  5
2E3F6
330
2D884
100
AcDbEntity
  8
寸法
 62
     0
 48
50.0
370
    -2
100
AcDbLine
 10
3898.600000000004
 20
8512.649238642072
 30
0.0
 11
3561.250757595086
 21
8512.649238642072
 31
0.0
  0
LINE
  5
2E3F7
330
2D884
100
AcDbEntity
  8
寸法
 62
     0
 48
50.0
370
    -2
100
AcDbLine
 10
3943.600000000004
 20
8512.649238642072
 30
0.0
 11
3898.600000000004
 21
8512.649238642072
 31
0.0
  0
INSERT
  5
2E3F8
330
2D884
100
AcDbEntity
  8
寸法
 62
     0
 48
50.0
370
    -2
100
AcDbBlockReference
  2
_DOTSMALL
 10
3943.600000000004
 20
8512.649238642072
 30
0.0
 41
100.0
 42
100.0
 43
100.0
 50
180.0
  0
INSERT
  5
2E3F9
330
2D884
100
AcDbEntity
  8
寸法
 62
     0
 48
50.0
370
    -2
100
AcDbBlockReference
  2
_DOTSMALL
 10
3898.600000000004
 20
8512.649238642072
 30
0.0
 41
100.0
 42
100.0
 43
100.0
  0
MTEXT
  5
2E3FA
330
2D884
100
AcDbEntity
  8
寸法
 62
     7
 48
50.0
100
AcDbMText
 10
3627.425378797545
 20
8612.649238642072
 30
0.0
 40
120.0
 41
0.0
 71
     5
 72
     1
  1
\A1;a
  7
STYLE1
 73
     1
 44
1.0
1001
ACAD
1000
MTEXTBEGIN
1070
    73
1070
     1
1070
    44
1040
1.0
1070
    74
1070
     0
1000
MTEXTEND
  0
POINT
  5
2E3FB
330
2D884
100
AcDbEntity
  8
DEFPOINTS
 62
     0
 48
50.0
100
AcDbPoint
 10
3898.600000000004
 20
8280.695374677064
 30
0.0
  0
POINT
  5
2E3FC
330
2D884
100
AcDbEntity
  8
DEFPOINTS
 62
     0
 48
50.0
100
AcDbPoint
 10
3943.600000000004
 20
7554.42891658315
 30
0.0
  0
POINT
  5
2E3FD
330
2D884
100
AcDbEntity
  8
DEFPOINTS
 62
     0
 48
50.0
100
AcDbPoint
 10
3943.600000000004
 20
8512.649238642072
 30
0.0
  0
ENDBLK
  5
2D891
330
2D884
100
AcDbEntity
  8
0
 48
50.0
100
AcDbBlockEnd
  0
BLOCK
  5
2D89E
330
2D892
100
AcDbEntity
  8
0
 48
50.0
100
AcDbBlockBegin
  2
*D25
 70
     1
 10
0.0
 20
0.0
 30
0.0
  3
*D25
  1

  0
LINE
  5
2E3CA
330
2D892
100
AcDbEntity
  8
寸法
 62
     0
 48
50.0
370
    -2
100
AcDbLine
 10
12503.6
 20
7574.4289165832
 30
0.0
 11
12503.6
 21
8572.649238642121
 31
0.0
  0
LINE
  5
2E3CB
330
2D892
100
AcDbEntity
  8
寸法
 62
     0
 48
50.0
370
    -2
100
AcDbLine
 10
12548.6
 20
8300.695374677109
 30
0.0
 11
12548.6
 21
8572.649238642121
 31
0.0
  0
LINE
  5
2E3CC
330
2D892
100
AcDbEntity
  8
寸法
 62
     0
 48
50.0
370
    -2
100
AcDbLine
 10
12503.6
 20
8512.649238642122
 30
0.0
 11
12403.6
 21
8512.649238642122
 31
0.0
  0
LINE
  5
2E3CD
330
2D892
100
AcDbEntity
  8
寸法
 62
     0
 48
50.0
370
    -2
100
AcDbLine
 10
12548.6
 20
8512.649238642122
 30
0.0
 11
12885.94924240491
 21
8512.649238642122
 31
0.0
  0
LINE
  5
2E3CE
330
2D892
100
AcDbEntity
  8
寸法
 62
     0
 48
50.0
370
    -2
100
AcDbLine
 10
12503.6
 20
8512.649238642122
 30
0.0
 11
12548.6
 21
8512.649238642122
 31
0.0
  0
INSERT
  5
2E3CF
330
2D892
100
AcDbEntity
  8
寸法
 62
     0
 48
50.0
370
    -2
100
AcDbBlockReference
  2
_DOTSMALL
 10
12503.6
 20
8512.649238642122
 30
0.0
 41
100.0
 42
100.0
 43
100.0
  0
INSERT
  5
2E3D0
330
2D892
100
AcDbEntity
  8
寸法
 62
     0
 48
50.0
370
    -2
100
AcDbBlockReference
  2
_DOTSMALL
 10
12548.6
 20
8512.649238642122
 30
0.0
 41
100.0
 42
100.0
 43
100.0
 50
180.0
  0
MTEXT
  5
2E3D1
330
2D892
100
AcDbEntity
  8
寸法
 62
     7
 48
50.0
100
AcDbMText
 10
12819.77462120245
 20
8612.649238642122
 30
0.0
 40
120.0
 41
0.0
 71
     5
 72
     1
  1
\A1;a
  7
STYLE1
 73
     1
 44
1.0
1001
ACAD
1000
MTEXTBEGIN
1070
    73
1070
     1
1070
    44
1040
1.0
1070
    74
1070
     0
1000
MTEXTEND
  0
POINT
  5
2E3D2
330
2D892
100
AcDbEntity
  8
DEFPOINTS
 62
     0
 48
50.0
100
AcDbPoint
 10
12503.6
 20
7554.4289165832
 30
0.0
  0
POINT
  5
2E3D3
330
2D892
100
AcDbEntity
  8
DEFPOINTS
 62
     0
 48
50.0
100
AcDbPoint
 10
12548.6
 20
8280.69537467711
 30
0.0
  0
POINT
  5
2E3D4
330
2D892
100
AcDbEntity
  8
DEFPOINTS
 62
     0
 48
50.0
100
AcDbPoint
 10
12548.6
 20
8512.649238642122
 30
0.0
  0
ENDBLK
  5
2D89F
330
2D892
100
AcDbEntity
  8
0
 48
50.0
100
AcDbBlockEnd
  0
BLOCK
  5
2DDF3
330
2DDE9
100
AcDbEntity
  8
0
 48
50.0
100
AcDbBlockBegin
  2
*D26
 70
     1
 10
0.0
 20
0.0
 30
0.0
  3
*D26
  1

  0
LINE
  5
2E380
330
2DDE9
100
AcDbEntity
  8
寸法
 62
     0
 48
50.0
370
    -2
100
AcDbLine
 10
3943.600000000001
 20
7574.4289165832
 30
0.0
 11
3943.600000000001
 21
8572.649238642119
 31
0.0
  0
LINE
  5
2E381
330
2DDE9
100
AcDbEntity
  8
寸法
 62
     0
 48
50.0
370
    -2
100
AcDbLine
 10
12503.6
 20
7574.4289165832
 30
0.0
 11
12503.6
 21
8572.649238642119
 31
0.0
  0
LINE
  5
2E382
330
2DDE9
100
AcDbEntity
  8
寸法
 62
     0
 48
50.0
370
    -2
100
AcDbLine
 10
3943.600000000001
 20
8512.649238642117
 30
0.0
 11
12503.6
 21
8512.649238642117
 31
0.0
  0
INSERT
  5
2E383
330
2DDE9
100
AcDbEntity
  8
寸法
 62
     0
 48
50.0
370
    -2
100
AcDbBlockReference
  2
_DOTSMALL
 10
3943.600000000001
 20
8512.649238642117
 30
0.0
 41
100.0
 42
100.0
 43
100.0
 50
180.0
  0
INSERT
  5
2E384
330
2DDE9
100
AcDbEntity
  8
寸法
 62
     0
 48
50.0
370
    -2
100
AcDbBlockReference
  2
_DOTSMALL
 10
12503.6
 20
8512.649238642117
 30
0.0
 41
100.0
 42
100.0
 43
100.0
  0
MTEXT
  5
2E385
330
2DDE9
100
AcDbEntity
  8
寸法
 62
     7
 48
50.0
100
AcDbMText
 10
8223.600000000001
 20
8612.649238642118
 30
0.0
 40
120.0
 41
0.0
 71
     5
 72
     1
  1
\A1;N X 950+10
  7
STYLE1
 73
     1
 44
1.0
1001
ACAD
1000
MTEXTBEGIN
1070
    73
1070
     1
1070
    44
1040
1.0
1070
    74
1070
     0
1000
MTEXTEND
  0
POINT
  5
2E386
330
2DDE9
100
AcDbEntity
  8
DEFPOINTS
 62
     0
 48
50.0
100
AcDbPoint
 10
3943.600000000001
 20
7554.4289165832
 30
0.0
  0
POINT
  5
2E387
330
2DDE9
100
AcDbEntity
  8
DEFPOINTS
 62
     0
 48
50.0
100
AcDbPoint
 10
12503.6
 20
7554.4289165832
 30
0.0
  0
POINT
  5
2E388
330
2DDE9
100
AcDbEntity
  8
DEFPOINTS
 62
     0
 48
50.0
100
AcDbPoint
 10
12503.6
 20
8512.649238642117
 30
0.0
  0
ENDBLK
  5
2DDF4
330
2DDE9
100
AcDbEntity
  8
0
 48
50.0
100
AcDbBlockEnd
  0
BLOCK
  5
2DDFF
330
2DDF5
100
AcDbEntity
  8
0
 48
50.0
100
AcDbBlockBegin
  2
*D27
 70
     1
 10
0.0
 20
0.0
 30
0.0
  3
*D27
  1

  0
LINE
  5
2E4C8
330
2DDF5
100
AcDbEntity
  8
寸法
 62
     0
 48
50.0
370
    -2
100
AcDbLine
 10
7748.600000000007
 20
6891.4289165832
 30
0.0
 11
7748.600000000007
 21
8097.037733253449
 31
0.0
  0
LINE
  5
2E4C9
330
2DDF5
100
AcDbEntity
  8
寸法
 62
     0
 48
50.0
370
    -2
100
AcDbLine
 10
6798.600000000007
 20
6891.4289165832
 30
0.0
 11
6798.600000000007
 21
8097.037733253449
 31
0.0
  0
LINE
  5
2E4CA
330
2DDF5
100
AcDbEntity
  8
寸法
 62
     0
 48
50.0
370
    -2
100
AcDbLine
 10
7748.600000000007
 20
8037.037733253448
 30
0.0
 11
6798.600000000007
 21
8037.037733253448
 31
0.0
  0
INSERT
  5
2E4CB
330
2DDF5
100
AcDbEntity
  8
寸法
 62
     0
 48
50.0
370
    -2
100
AcDbBlockReference
  2
_DOTSMALL
 10
7748.600000000007
 20
8037.037733253448
 30
0.0
 41
100.0
 42
100.0
 43
100.0
  0
INSERT
  5
2E4CC
330
2DDF5
100
AcDbEntity
  8
寸法
 62
     0
 48
50.0
370
    -2
100
AcDbBlockReference
  2
_DOTSMALL
 10
6798.600000000007
 20
8037.037733253448
 30
0.0
 41
100.0
 42
100.0
 43
100.0
 50
180.0
  0
MTEXT
  5
2E4CD
330
2DDF5
100
AcDbEntity
  8
寸法
 62
     7
 48
50.0
100
AcDbMText
 10
7273.600000000008
 20
8137.037733253448
 30
0.0
 40
120.0
 41
0.0
 71
     5
 72
     1
  1
\A1;950
  7
STYLE1
 73
     1
 44
1.0
1001
ACAD
1000
MTEXTBEGIN
1070
    73
1070
     1
1070
    44
1040
1.0
1070
    74
1070
     0
1000
MTEXTEND
  0
POINT
  5
2E4CE
330
2DDF5
100
AcDbEntity
  8
DEFPOINTS
 62
     0
 48
50.0
100
AcDbPoint
 10
7748.600000000007
 20
6871.4289165832
 30
0.0
  0
POINT
  5
2E4CF
330
2DDF5
100
AcDbEntity
  8
DEFPOINTS
 62
     0
 48
50.0
100
AcDbPoint
 10
6798.600000000007
 20
6871.4289165832
 30
0.0
  0
POINT
  5
2E4D0
330
2DDF5
100
AcDbEntity
  8
DEFPOINTS
 62
     0
 48
50.0
100
AcDbPoint
 10
6798.600000000007
 20
8037.037733253448
 30
0.0
  0
ENDBLK
  5
2DE00
330
2DDF5
100
AcDbEntity
  8
0
 48
50.0
100
AcDbBlockEnd
  0
BLOCK
  5
2DE0A
330
2DE01
100
AcDbEntity
  8
0
 48
50.0
100
AcDbBlockBegin
  2
*D28
 70
     1
 10
0.0
 20
0.0
 30
0.0
  3
*D28
  1

  0
LINE
  5
2E4EC
330
2DE01
100
AcDbEntity
  8
寸法
 62
     0
 48
50.0
370
    -2
100
AcDbLine
 10
5848.600000000008
 20
6891.4289165832
 30
0.0
 11
5848.600000000008
 21
8097.037733253449
 31
0.0
  0
LINE
  5
2E4ED
330
2DE01
100
AcDbEntity
  8
寸法
 62
     0
 48
50.0
370
    -2
100
AcDbLine
 10
4898.600000000008
 20
6891.4289165832
 30
0.0
 11
4898.600000000008
 21
8097.037733253449
 31
0.0
  0
LINE
  5
2E4EE
330
2DE01
100
AcDbEntity
  8
寸法
 62
     0
 48
50.0
370
    -2
100
AcDbLine
 10
5848.600000000008
 20
8037.037733253448
 30
0.0
 11
4898.600000000008
 21
8037.037733253448
 31
0.0
  0
INSERT
  5
2E4EF
330
2DE01
100
AcDbEntity
  8
寸法
 62
     0
 48
50.0
370
    -2
100
AcDbBlockReference
  2
_DOTSMALL
 10
5848.600000000008
 20
8037.037733253448
 30
0.0
 41
100.0
 42
100.0
 43
100.0
  0
INSERT
  5
2E4F0
330
2DE01
100
AcDbEntity
  8
寸法
 62
     0
 48
50.0
370
    -2
100
AcDbBlockReference
  2
_DOTSMALL
 10
4898.600000000008
 20
8037.037733253448
 30
0.0
 41
100.0
 42
100.0
 43
100.0
 50
180.0
  0
MTEXT
  5
2E4F1
330
2DE01
100
AcDbEntity
  8
寸法
 62
     7
 48
50.0
100
AcDbMText
 10
5373.600000000007
 20
8137.037733253448
 30
0.0
 40
120.0
 41
0.0
 71
     5
 72
     1
  1
\A1;950
  7
STYLE1
 73
     1
 44
1.0
1001
ACAD
1000
MTEXTBEGIN
1070
    73
1070
     1
1070
    44
1040
1.0
1070
    74
1070
     0
1000
MTEXTEND
  0
POINT
  5
2E4F2
330
2DE01
100
AcDbEntity
  8
DEFPOINTS
 62
     0
 48
50.0
100
AcDbPoint
 10
5848.600000000008
 20
6871.4289165832
 30
0.0
  0
POINT
  5
2E4F3
330
2DE01
100
AcDbEntity
  8
DEFPOINTS
 62
     0
 48
50.0
100
AcDbPoint
 10
4898.600000000008
 20
6871.4289165832
 30
0.0
  0
POINT
  5
2E4F4
330
2DE01
100
AcDbEntity
  8
DEFPOINTS
 62
     0
 48
50.0
100
AcDbPoint
 10
4898.600000000008
 20
8037.037733253448
 30
0.0
  0
ENDBLK
  5
2DE0B
330
2DE01
100
AcDbEntity
  8
0
 48
50.0
100
AcDbBlockEnd
  0
BLOCK
  5
2DE16
330
2DE0C
100
AcDbEntity
  8
0
 48
50.0
100
AcDbBlockBegin
  2
*D29
 70
     1
 10
0.0
 20
0.0
 30
0.0
  3
*D29
  1

  0
LINE
  5
2E4FE
330
2DE0C
100
AcDbEntity
  8
寸法
 62
     0
 48
50.0
370
    -2
100
AcDbLine
 10
4828.600000000008
 20
6821.4289165832
 30
0.0
 11
4366.285990614302
 21
6821.4289165832
 31
0.0
  0
LINE
  5
2E4FF
330
2DE0C
100
AcDbEntity
  8
寸法
 62
     0
 48
50.0
370
    -2
100
AcDbLine
 10
4497.765475140901
 20
7554.4289165832
 30
0.0
 11
4366.285990614302
 21
7554.4289165832
 31
0.0
  0
LINE
  5
2E500
330
2DE0C
100
AcDbEntity
  8
寸法
 62
     0
 48
50.0
370
    -2
100
AcDbLine
 10
4426.285990614302
 20
6821.4289165832
 30
0.0
 11
4426.285990614302
 21
7554.4289165832
 31
0.0
  0
INSERT
  5
2E501
330
2DE0C
100
AcDbEntity
  8
寸法
 62
     0
 48
50.0
370
    -2
100
AcDbBlockReference
  2
_DOTSMALL
 10
4426.285990614302
 20
6821.4289165832
 30
0.0
 41
100.0
 42
100.0
 43
100.0
 50
270.0
  0
INSERT
  5
2E502
330
2DE0C
100
AcDbEntity
  8
寸法
 62
     0
 48
50.0
370
    -2
100
AcDbBlockReference
  2
_DOTSMALL
 10
4426.285990614302
 20
7554.4289165832
 30
0.0
 41
100.0
 42
100.0
 43
100.0
 50
90.0
  0
MTEXT
  5
2E503
330
2DE0C
100
AcDbEntity
  8
寸法
 62
     7
 48
50.0
100
AcDbMText
 10
4326.285990614301
 20
7114.023707277375
 30
0.0
 40
120.0
 41
0.0
 71
     5
 72
     1
  1
\A1;733
  7
STYLE1
 11
0.0000000000000001
 21
1.0
 31
0.0
 73
     1
 44
1.0
1001
ACAD
1000
MTEXTBEGIN
1070
    73
1070
     1
1070
    44
1040
1.0
1070
    74
1070
     0
1000
MTEXTEND
  0
POINT
  5
2E504
330
2DE0C
100
AcDbEntity
  8
DEFPOINTS
 62
     0
 48
50.0
100
AcDbPoint
 10
4848.600000000008
 20
6821.4289165832
 30
0.0
  0
POINT
  5
2E505
330
2DE0C
100
AcDbEntity
  8
DEFPOINTS
 62
     0
 48
50.0
100
AcDbPoint
 10
4517.7654751409
 20
7554.4289165832
 30
0.0
  0
POINT
  5
2E506
330
2DE0C
100
AcDbEntity
  8
DEFPOINTS
 62
     0
 48
50.0
100
AcDbPoint
 10
4426.285990614302
 20
7554.4289165832
 30
0.0
  0
ENDBLK
  5
2DE17
330
2DE0C
100
AcDbEntity
  8
0
 48
50.0
100
AcDbBlockEnd
  0
BLOCK
  5
2DE22
330
2DE18
100
AcDbEntity
  8
0
 48
50.0
100
AcDbBlockBegin
  2
*D30
 70
     1
 10
0.0
 20
0.0
 30
0.0
  3
*D30
  1

  0
LINE
  5
2E4E3
330
2DE18
100
AcDbEntity
  8
寸法
 62
     0
 48
50.0
370
    -2
100
AcDbLine
 10
4898.600000000008
 20
6891.4289165832
 30
0.0
 11
4898.600000000008
 21
8097.037733253449
 31
0.0
  0
LINE
  5
2E4E4
330
2DE18
100
AcDbEntity
  8
寸法
 62
     0
 48
50.0
370
    -2
100
AcDbLine
 10
3943.600000000001
 20
7574.4289165832
 30
0.0
 11
3943.600000000001
 21
8097.037733253449
 31
0.0
  0
LINE
  5
2E4E5
330
2DE18
100
AcDbEntity
  8
寸法
 62
     0
 48
50.0
370
    -2
100
AcDbLine
 10
4898.600000000008
 20
8037.037733253448
 30
0.0
 11
3943.600000000001
 21
8037.037733253448
 31
0.0
  0
INSERT
  5
2E4E6
330
2DE18
100
AcDbEntity
  8
寸法
 62
     0
 48
50.0
370
    -2
100
AcDbBlockReference
  2
_DOTSMALL
 10
4898.600000000008
 20
8037.037733253448
 30
0.0
 41
100.0
 42
100.0
 43
100.0
  0
INSERT
  5
2E4E7
330
2DE18
100
AcDbEntity
  8
寸法
 62
     0
 48
50.0
370
    -2
100
AcDbBlockReference
  2
_DOTSMALL
 10
3943.600000000001
 20
8037.037733253448
 30
0.0
 41
100.0
 42
100.0
 43
100.0
 50
180.0
  0
MTEXT
  5
2E4E8
330
2DE18
100
AcDbEntity
  8
寸法
 62
     7
 48
50.0
100
AcDbMText
 10
4421.100000000004
 20
8137.037733253448
 30
0.0
 40
120.0
 41
0.0
 71
     5
 72
     1
  1
\A1;955
  7
STYLE1
 73
     1
 44
1.0
1001
ACAD
1000
MTEXTBEGIN
1070
    73
1070
     1
1070
    44
1040
1.0
1070
    74
1070
     0
1000
MTEXTEND
  0
POINT
  5
2E4E9
330
2DE18
100
AcDbEntity
  8
DEFPOINTS
 62
     0
 48
50.0
100
AcDbPoint
 10
4898.600000000008
 20
6871.4289165832
 30
0.0
  0
POINT
  5
2E4EA
330
2DE18
100
AcDbEntity
  8
DEFPOINTS
 62
     0
 48
50.0
100
AcDbPoint
 10
3943.600000000001
 20
7554.4289165832
 30
0.0
  0
POINT
  5
2E4EB
330
2DE18
100
AcDbEntity
  8
DEFPOINTS
 62
     0
 48
50.0
100
AcDbPoint
 10
3943.600000000001
 20
8037.037733253448
 30
0.0
  0
ENDBLK
  5
2DE23
330
2DE18
100
AcDbEntity
  8
0
 48
50.0
100
AcDbBlockEnd
  0
BLOCK
  5
2DE2E
330
2DE24
100
AcDbEntity
  8
0
 48
50.0
100
AcDbBlockBegin
  2
*D31
 70
     1
 10
0.0
 20
0.0
 30
0.0
  3
*D31
  1

  0
LINE
  5
2E3AF
330
2DE24
100
AcDbEntity
  8
寸法
 62
     0
 48
50.0
370
    -2
100
AcDbLine
 10
3923.6
 20
7554.4289165832
 30
0.0
 11
3008.721909610674
 21
7554.4289165832
 31
0.0
  0
LINE
  5
2E3B0
330
2DE24
100
AcDbEntity
  8
寸法
 62
     0
 48
50.0
370
    -2
100
AcDbLine
 10
3923.6
 20
6014.4289165832
 30
0.0
 11
3008.721909610674
 21
6014.4289165832
 31
0.0
  0
LINE
  5
2E3B1
330
2DE24
100
AcDbEntity
  8
寸法
 62
     0
 48
50.0
370
    -2
100
AcDbLine
 10
3068.721909610674
 20
7554.4289165832
 30
0.0
 11
3068.721909610674
 21
6014.4289165832
 31
0.0
  0
INSERT
  5
2E3B2
330
2DE24
100
AcDbEntity
  8
寸法
 62
     0
 48
50.0
370
    -2
100
AcDbBlockReference
  2
_DOTSMALL
 10
3068.721909610674
 20
7554.4289165832
 30
0.0
 41
100.0
 42
100.0
 43
100.0
 50
90.0
  0
INSERT
  5
2E3B3
330
2DE24
100
AcDbEntity
  8
寸法
 62
     0
 48
50.0
370
    -2
100
AcDbBlockReference
  2
_DOTSMALL
 10
3068.721909610674
 20
6014.4289165832
 30
0.0
 41
100.0
 42
100.0
 43
100.0
 50
270.0
  0
MTEXT
  5
2E3B4
330
2DE24
100
AcDbEntity
  8
寸法
 62
     7
 48
50.0
100
AcDbMText
 10
2968.721909610673
 20
6821.9289165832
 30
0.0
 40
120.0
 41
0.0
 71
     5
 72
     1
  1
\A1;1540
  7
STYLE1
 11
0.0000000000000001
 21
1.0
 31
0.0
 73
     1
 44
1.0
1001
ACAD
1000
MTEXTBEGIN
1070
    73
1070
     1
1070
    44
1040
1.0
1070
    74
1070
     0
1000
MTEXTEND
  0
POINT
  5
2E3B5
330
2DE24
100
AcDbEntity
  8
DEFPOINTS
 62
     0
 48
50.0
100
AcDbPoint
 10
3943.600000000001
 20
7554.4289165832
 30
0.0
  0
POINT
  5
2E3B6
330
2DE24
100
AcDbEntity
  8
DEFPOINTS
 62
     0
 48
50.0
100
AcDbPoint
 10
3943.600000000001
 20
6014.4289165832
 30
0.0
  0
POINT
  5
2E3B7
330
2DE24
100
AcDbEntity
  8
DEFPOINTS
 62
     0
 48
50.0
100
AcDbPoint
 10
3068.721909610674
 20
6014.4289165832
 30
0.0
  0
ENDBLK
  5
2DE2F
330
2DE24
100
AcDbEntity
  8
0
 48
50.0
100
AcDbBlockEnd
  0
BLOCK
  5
2DE3A
330
2DE30
100
AcDbEntity
  8
0
 48
50.0
100
AcDbBlockBegin
  2
*D32
 70
     1
 10
0.0
 20
0.0
 30
0.0
  3
*D32
  1

  0
LINE
  5
2E452
330
2DE30
100
AcDbEntity
  8
寸法
 62
     0
 48
50.0
370
    -2
100
AcDbLine
 10
3996.6
 20
7431.428916583199
 30
0.0
 11
3260.665006330073
 21
7431.428916583199
 31
0.0
  0
LINE
  5
2E453
330
2DE30
100
AcDbEntity
  8
寸法
 62
     0
 48
50.0
370
    -2
100
AcDbLine
 10
3996.600000000008
 20
6212.428916583203
 30
0.0
 11
3260.665006330072
 21
6212.428916583203
 31
0.0
  0
LINE
  5
2E454
330
2DE30
100
AcDbEntity
  8
寸法
 62
     0
 48
50.0
370
    -2
100
AcDbLine
 10
3320.665006330073
 20
7431.428916583199
 30
0.0
 11
3320.665006330072
 21
6212.428916583203
 31
0.0
  0
INSERT
  5
2E455
330
2DE30
100
AcDbEntity
  8
寸法
 62
     0
 48
50.0
370
    -2
100
AcDbBlockReference
  2
_DOTSMALL
 10
3320.665006330073
 20
7431.428916583199
 30
0.0
 41
100.0
 42
100.0
 43
100.0
 50
90.0
  0
INSERT
  5
2E456
330
2DE30
100
AcDbEntity
  8
寸法
 62
     0
 48
50.0
370
    -2
100
AcDbBlockReference
  2
_DOTSMALL
 10
3320.665006330072
 20
6212.428916583203
 30
0.0
 41
100.0
 42
100.0
 43
100.0
 50
270.0
  0
MTEXT
  5
2E457
330
2DE30
100
AcDbEntity
  8
寸法
 62
     7
 48
50.0
100
AcDbMText
 10
3220.653195306449
 20
6821.9289165832
 30
0.0
 40
120.0
 41
0.0
 71
     5
 72
     1
  1
\A1;1219
  7
STYLE1
 11
0.0000000000000001
 21
1.0
 31
0.0
 73
     1
 44
1.0
1001
ACAD
1000
MTEXTBEGIN
1070
    73
1070
     1
1070
    44
1040
1.0
1070
    74
1070
     0
1000
MTEXTEND
  0
POINT
  5
2E458
330
2DE30
100
AcDbEntity
  8
DEFPOINTS
 62
     0
 48
50.0
100
AcDbPoint
 10
4016.6
 20
7431.428916583199
 30
0.0
  0
POINT
  5
2E459
330
2DE30
100
AcDbEntity
  8
DEFPOINTS
 62
     0
 48
50.0
100
AcDbPoint
 10
4016.600000000007
 20
6212.428916583203
 30
0.0
  0
POINT
  5
2E45A
330
2DE30
100
AcDbEntity
  8
DEFPOINTS
 62
     0
 48
50.0
100
AcDbPoint
 10
3320.665006330072
 20
6212.428916583203
 30
0.0
  0
ENDBLK
  5
2DE3B
330
2DE30
100
AcDbEntity
  8
0
 48
50.0
100
AcDbBlockEnd
  0
BLOCK
  5
2DE45
330
2DE3C
100
AcDbEntity
  8
0
 48
50.0
100
AcDbBlockBegin
  2
*D33
 70
     1
 10
0.0
 20
0.0
 30
0.0
  3
*D33
  1

  0
LINE
  5
2E4DA
330
2DE3C
100
AcDbEntity
  8
寸法
 62
     0
 48
50.0
370
    -2
100
AcDbLine
 10
6798.600000000007
 20
6891.4289165832
 30
0.0
 11
6798.600000000007
 21
8097.037733253449
 31
0.0
  0
LINE
  5
2E4DB
330
2DE3C
100
AcDbEntity
  8
寸法
 62
     0
 48
50.0
370
    -2
100
AcDbLine
 10
5848.600000000008
 20
6891.4289165832
 30
0.0
 11
5848.600000000008
 21
8097.037733253449
 31
0.0
  0
LINE
  5
2E4DC
330
2DE3C
100
AcDbEntity
  8
寸法
 62
     0
 48
50.0
370
    -2
100
AcDbLine
 10
6798.600000000007
 20
8037.037733253448
 30
0.0
 11
5848.600000000008
 21
8037.037733253448
 31
0.0
  0
INSERT
  5
2E4DD
330
2DE3C
100
AcDbEntity
  8
寸法
 62
     0
 48
50.0
370
    -2
100
AcDbBlockReference
  2
_DOTSMALL
 10
6798.600000000007
 20
8037.037733253448
 30
0.0
 41
100.0
 42
100.0
 43
100.0
  0
INSERT
  5
2E4DE
330
2DE3C
100
AcDbEntity
  8
寸法
 62
     0
 48
50.0
370
    -2
100
AcDbBlockReference
  2
_DOTSMALL
 10
5848.600000000008
 20
8037.037733253448
 30
0.0
 41
100.0
 42
100.0
 43
100.0
 50
180.0
  0
MTEXT
  5
2E4DF
330
2DE3C
100
AcDbEntity
  8
寸法
 62
     7
 48
50.0
100
AcDbMText
 10
6323.600000000007
 20
8137.037733253448
 30
0.0
 40
120.0
 41
0.0
 71
     5
 72
     1
  1
\A1;950
  7
STYLE1
 73
     1
 44
1.0
1001
ACAD
1000
MTEXTBEGIN
1070
    73
1070
     1
1070
    44
1040
1.0
1070
    74
1070
     0
1000
MTEXTEND
  0
POINT
  5
2E4E0
330
2DE3C
100
AcDbEntity
  8
DEFPOINTS
 62
     0
 48
50.0
100
AcDbPoint
 10
6798.600000000007
 20
6871.4289165832
 30
0.0
  0
POINT
  5
2E4E1
330
2DE3C
100
AcDbEntity
  8
DEFPOINTS
 62
     0
 48
50.0
100
AcDbPoint
 10
5848.600000000008
 20
6871.4289165832
 30
0.0
  0
POINT
  5
2E4E2
330
2DE3C
100
AcDbEntity
  8
DEFPOINTS
 62
     0
 48
50.0
100
AcDbPoint
 10
5848.600000000008
 20
8037.037733253448
 30
0.0
  0
ENDBLK
  5
2DE46
330
2DE3C
100
AcDbEntity
  8
0
 48
50.0
100
AcDbBlockEnd
  0
BLOCK
  5
2DE5F
330
2DE54
100
AcDbEntity
  8
0
 48
50.0
100
AcDbBlockBegin
  2
*D34
 70
     1
 10
0.0
 20
0.0
 30
0.0
  3
*D34
  1

  0
LINE
  5
2E448
330
2DE54
100
AcDbEntity
  8
寸法
 62
     0
 48
50.0
370
    -2
100
AcDbLine
 10
3996.600000000008
 20
6212.428916583203
 30
0.0
 11
3260.665006330072
 21
6212.428916583203
 31
0.0
  0
LINE
  5
2E449
330
2DE54
100
AcDbEntity
  8
寸法
 62
     0
 48
50.0
370
    -2
100
AcDbLine
 10
3923.6
 20
6014.4289165832
 30
0.0
 11
3260.665006330072
 21
6014.4289165832
 31
0.0
  0
LINE
  5
2E44A
330
2DE54
100
AcDbEntity
  8
寸法
 62
     0
 48
50.0
370
    -2
100
AcDbLine
 10
3320.665006330072
 20
6212.428916583203
 30
0.0
 11
3320.665006330072
 21
6014.4289165832
 31
0.0
  0
LINE
  5
2E44B
330
2DE54
100
AcDbEntity
  8
寸法
 62
     0
 48
50.0
370
    -2
100
AcDbLine
 10
3320.665006330072
 20
6014.4289165832
 30
0.0
 11
3320.665006330072
 21
5542.68830791095
 31
0.0
  0
INSERT
  5
2E44C
330
2DE54
100
AcDbEntity
  8
寸法
 62
     0
 48
50.0
370
    -2
100
AcDbBlockReference
  2
_DOTSMALL
 10
3320.665006330072
 20
6212.428916583203
 30
0.0
 41
100.0
 42
100.0
 43
100.0
 50
90.0
  0
INSERT
  5
2E44D
330
2DE54
100
AcDbEntity
  8
寸法
 62
     0
 48
50.0
370
    -2
100
AcDbBlockReference
  2
_DOTSMALL
 10
3320.665006330072
 20
6014.4289165832
 30
0.0
 41
100.0
 42
100.0
 43
100.0
 50
270.0
  0
MTEXT
  5
2E44E
330
2DE54
100
AcDbEntity
  8
寸法
 62
     7
 48
50.0
100
AcDbMText
 10
3220.665006330071
 20
5678.897967740607
 30
0.0
 40
120.0
 41
0.0
 71
     5
 72
     1
  1
\A1;198
  7
STYLE1
 11
0.0000000000000001
 21
1.0
 31
0.0
 73
     1
 44
1.0
1001
ACAD
1000
MTEXTBEGIN
1070
    73
1070
     1
1070
    44
1040
1.0
1070
    74
1070
     0
1000
MTEXTEND
  0
POINT
  5
2E44F
330
2DE54
100
AcDbEntity
  8
DEFPOINTS
 62
     0
 48
50.0
100
AcDbPoint
 10
4016.600000000007
 20
6212.428916583203
 30
0.0
  0
POINT
  5
2E450
330
2DE54
100
AcDbEntity
  8
DEFPOINTS
 62
     0
 48
50.0
100
AcDbPoint
 10
3943.600000000001
 20
6014.4289165832
 30
0.0
  0
POINT
  5
2E451
330
2DE54
100
AcDbEntity
  8
DEFPOINTS
 62
     0
 48
50.0
100
AcDbPoint
 10
3320.665006330072
 20
6014.4289165832
 30
0.0
  0
ENDBLK
  5
2DE60
330
2DE54
100
AcDbEntity
  8
0
 48
50.0
100
AcDbBlockEnd
  0
BLOCK
  5
2DE77
330
2DE6D
100
AcDbEntity
  8
0
 48
50.0
100
AcDbBlockBegin
  2
*D35
 70
     1
 10
0.0
 20
0.0
 30
0.0
  3
*D35
  1

  0
LINE
  5
2E389
330
2DE6D
100
AcDbEntity
  8
寸法
 62
     0
 48
50.0
370
    -2
100
AcDbLine
 10
3923.600000000004
 20
6014.428916583138
 30
0.0
 11
3770.512673767883
 21
6014.428916583138
 31
0.0
  0
LINE
  5
2E38A
330
2DE6D
100
AcDbEntity
  8
寸法
 62
     0
 48
50.0
370
    -2
100
AcDbLine
 10
4279.325326928808
 20
5294.428916583138
 30
0.0
 11
3770.512673767883
 21
5294.428916583138
 31
0.0
  0
LINE
  5
2E38B
330
2DE6D
100
AcDbEntity
  8
寸法
 62
     0
 48
50.0
370
    -2
100
AcDbLine
 10
3830.512673767883
 20
6014.428916583138
 30
0.0
 11
3830.512673767883
 21
5294.428916583138
 31
0.0
  0
INSERT
  5
2E38C
330
2DE6D
100
AcDbEntity
  8
寸法
 62
     0
 48
50.0
370
    -2
100
AcDbBlockReference
  2
_DOTSMALL
 10
3830.512673767883
 20
6014.428916583138
 30
0.0
 41
100.0
 42
100.0
 43
100.0
 50
90.0
  0
INSERT
  5
2E38D
330
2DE6D
100
AcDbEntity
  8
寸法
 62
     0
 48
50.0
370
    -2
100
AcDbBlockReference
  2
_DOTSMALL
 10
3830.512673767883
 20
5294.428916583138
 30
0.0
 41
100.0
 42
100.0
 43
100.0
 50
270.0
  0
MTEXT
  5
2E38E
330
2DE6D
100
AcDbEntity
  8
寸法
 62
     7
 48
50.0
100
AcDbMText
 10
3730.50086274426
 20
5654.428916583139
 30
0.0
 40
120.0
 41
0.0
 71
     5
 72
     1
  1
\A1;扉の出720
  7
STYLE1
 11
0.0000000000000001
 21
1.0
 31
0.0
 73
     1
 44
1.0
1001
ACAD
1000
MTEXTBEGIN
1070
    73
1070
     1
1070
    44
1040
1.0
1070
    74
1070
     0
1000
MTEXTEND
  0
POINT
  5
2E38F
330
2DE6D
100
AcDbEntity
  8
DEFPOINTS
 62
     0
 48
50.0
100
AcDbPoint
 10
3943.600000000004
 20
6014.428916583138
 30
0.0
  0
POINT
  5
2E390
330
2DE6D
100
AcDbEntity
  8
DEFPOINTS
 62
     0
 48
50.0
100
AcDbPoint
 10
4299.325326928808
 20
5294.428916583138
 30
0.0
  0
POINT
  5
2E391
330
2DE6D
100
AcDbEntity
  8
DEFPOINTS
 62
     0
 48
50.0
100
AcDbPoint
 10
3830.512673767883
 20
5294.428916583138
 30
0.0
  0
ENDBLK
  5
2DE78
330
2DE6D
100
AcDbEntity
  8
0
 48
50.0
100
AcDbBlockEnd
  0
BLOCK
  5
2DE83
330
2DE79
100
AcDbEntity
  8
0
 48
50.0
100
AcDbBlockBegin
  2
*D36
 70
     1
 10
0.0
 20
0.0
 30
0.0
  3
*D36
  1

  0
LINE
  5
2E4F5
330
2DE79
100
AcDbEntity
  8
寸法
 62
     0
 48
50.0
370
    -2
100
AcDbLine
 10
4497.765475140901
 20
6014.42891658321
 30
0.0
 11
4366.285990614301
 21
6014.42891658321
 31
0.0
  0
LINE
  5
2E4F6
330
2DE79
100
AcDbEntity
  8
寸法
 62
     0
 48
50.0
370
    -2
100
AcDbLine
 10
4828.600000000008
 20
6821.4289165832
 30
0.0
 11
4366.285990614302
 21
6821.4289165832
 31
0.0
  0
LINE
  5
2E4F7
330
2DE79
100
AcDbEntity
  8
寸法
 62
     0
 48
50.0
370
    -2
100
AcDbLine
 10
4426.285990614301
 20
6014.42891658321
 30
0.0
 11
4426.285990614302
 21
6821.4289165832
 31
0.0
  0
INSERT
  5
2E4F8
330
2DE79
100
AcDbEntity
  8
寸法
 62
     0
 48
50.0
370
    -2
100
AcDbBlockReference
  2
_DOTSMALL
 10
4426.285990614301
 20
6014.42891658321
 30
0.0
 41
100.0
 42
100.0
 43
100.0
 50
270.0
  0
INSERT
  5
2E4F9
330
2DE79
100
AcDbEntity
  8
寸法
 62
     0
 48
50.0
370
    -2
100
AcDbBlockReference
  2
_DOTSMALL
 10
4426.285990614302
 20
6821.4289165832
 30
0.0
 41
100.0
 42
100.0
 43
100.0
 50
90.0
  0
MTEXT
  5
2E4FA
330
2DE79
100
AcDbEntity
  8
寸法
 62
     7
 48
50.0
100
AcDbMText
 10
4326.285990614301
 20
6499.4289165832
 30
0.0
 40
120.0
 41
0.0
 71
     5
 72
     1
  1
\A1;807
  7
STYLE1
 11
0.0000000000000001
 21
1.0
 31
0.0
 73
     1
 44
1.0
1001
ACAD
1000
MTEXTBEGIN
1070
    73
1070
     1
1070
    44
1040
1.0
1070
    74
1070
     0
1000
MTEXTEND
  0
POINT
  5
2E4FB
330
2DE79
100
AcDbEntity
  8
DEFPOINTS
 62
     0
 48
50.0
100
AcDbPoint
 10
4517.7654751409
 20
6014.42891658321
 30
0.0
  0
POINT
  5
2E4FC
330
2DE79
100
AcDbEntity
  8
DEFPOINTS
 62
     0
 48
50.0
100
AcDbPoint
 10
4848.600000000008
 20
6821.4289165832
 30
0.0
  0
POINT
  5
2E4FD
330
2DE79
100
AcDbEntity
  8
DEFPOINTS
 62
     0
 48
50.0
100
AcDbPoint
 10
4426.285990614302
 20
6821.4289165832
 30
0.0
  0
ENDBLK
  5
2DE84
330
2DE79
100
AcDbEntity
  8
0
 48
50.0
100
AcDbBlockEnd
  0
BLOCK
  5
2DE8F
330
2DE85
100
AcDbEntity
  8
0
 48
50.0
100
AcDbBlockBegin
  2
*D37
 70
     1
 10
0.0
 20
0.0
 30
0.0
  3
*D37
  1

  0
LINE
  5
2E353
330
2DE85
100
AcDbEntity
  8
寸法
 62
     0
 48
50.0
370
    -2
100
AcDbLine
 10
6680.600000000001
 20
7501.4289165832
 30
0.0
 11
6680.600000000001
 21
8340.69537467711
 31
0.0
  0
LINE
  5
2E354
330
2DE85
100
AcDbEntity
  8
寸法
 62
     0
 48
50.0
370
    -2
100
AcDbLine
 10
4066.6
 20
7501.4289165832
 30
0.0
 11
4066.6
 21
8340.69537467711
 31
0.0
  0
LINE
  5
2E355
330
2DE85
100
AcDbEntity
  8
寸法
 62
     0
 48
50.0
370
    -2
100
AcDbLine
 10
6680.600000000001
 20
8280.69537467711
 30
0.0
 11
4066.6
 21
8280.69537467711
 31
0.0
  0
INSERT
  5
2E356
330
2DE85
100
AcDbEntity
  8
寸法
 62
     0
 48
50.0
370
    -2
100
AcDbBlockReference
  2
_DOTSMALL
 10
6680.600000000001
 20
8280.69537467711
 30
0.0
 41
100.0
 42
100.0
 43
100.0
  0
INSERT
  5
2E357
330
2DE85
100
AcDbEntity
  8
寸法
 62
     0
 48
50.0
370
    -2
100
AcDbBlockReference
  2
_DOTSMALL
 10
4066.6
 20
8280.69537467711
 30
0.0
 41
100.0
 42
100.0
 43
100.0
 50
180.0
  0
MTEXT
  5
2E358
330
2DE85
100
AcDbEntity
  8
寸法
 62
     7
 48
50.0
100
AcDbMText
 10
5373.6
 20
8380.707185700734
 30
0.0
 40
120.0
 41
0.0
 71
     5
 72
     1
  1
\A1;2614
  7
STYLE1
 73
     1
 44
1.0
1001
ACAD
1000
MTEXTBEGIN
1070
    73
1070
     1
1070
    44
1040
1.0
1070
    74
1070
     0
1000
MTEXTEND
  0
POINT
  5
2E359
330
2DE85
100
AcDbEntity
  8
DEFPOINTS
 62
     0
 48
50.0
100
AcDbPoint
 10
6680.600000000001
 20
7481.428916583199
 30
0.0
  0
POINT
  5
2E35A
330
2DE85
100
AcDbEntity
  8
DEFPOINTS
 62
     0
 48
50.0
100
AcDbPoint
 10
4066.6
 20
7481.428916583199
 30
0.0
  0
POINT
  5
2E35B
330
2DE85
100
AcDbEntity
  8
DEFPOINTS
 62
     0
 48
50.0
100
AcDbPoint
 10
4066.6
 20
8280.69537467711
 30
0.0
  0
ENDBLK
  5
2DE90
330
2DE85
100
AcDbEntity
  8
0
 48
50.0
100
AcDbBlockEnd
  0
BLOCK
  5
2DEA6
330
2DE9B
100
AcDbEntity
  8
0
 48
50.0
100
AcDbBlockBegin
  2
*D38
 70
     1
 10
0.0
 20
0.0
 30
0.0
  3
*D38
  1

  0
LINE
  5
2E392
330
2DE9B
100
AcDbEntity
  8
寸法
 62
     0
 48
50.0
370
    -2
100
AcDbLine
 10
3923.6
 20
7554.4289165832
 30
0.0
 11
3260.665006330073
 21
7554.4289165832
 31
0.0
  0
LINE
  5
2E393
330
2DE9B
100
AcDbEntity
  8
寸法
 62
     0
 48
50.0
370
    -2
100
AcDbLine
 10
3996.6
 20
7431.428916583199
 30
0.0
 11
3260.665006330073
 21
7431.428916583199
 31
0.0
  0
LINE
  5
2E394
330
2DE9B
100
AcDbEntity
  8
寸法
 62
     0
 48
50.0
370
    -2
100
AcDbLine
 10
3320.665006330073
 20
7431.428916583199
 30
0.0
 11
3320.665006330073
 21
7554.4289165832
 31
0.0
  0
LINE
  5
2E395
330
2DE9B
100
AcDbEntity
  8
寸法
 62
     0
 48
50.0
370
    -2
100
AcDbLine
 10
3320.665006330073
 20
7554.4289165832
 30
0.0
 11
3320.665006330073
 21
7966.020799675238
 31
0.0
  0
INSERT
  5
2E396
330
2DE9B
100
AcDbEntity
  8
寸法
 62
     0
 48
50.0
370
    -2
100
AcDbBlockReference
  2
_DOTSMALL
 10
3320.665006330073
 20
7431.428916583199
 30
0.0
 41
100.0
 42
100.0
 43
100.0
 50
270.0
  0
INSERT
  5
2E397
330
2DE9B
100
AcDbEntity
  8
寸法
 62
     0
 48
50.0
370
    -2
100
AcDbBlockReference
  2
_DOTSMALL
 10
3320.665006330073
 20
7554.4289165832
 30
0.0
 41
100.0
 42
100.0
 43
100.0
 50
90.0
  0
MTEXT
  5
2E398
330
2DE9B
100
AcDbEntity
  8
寸法
 62
     7
 48
50.0
100
AcDbMText
 10
3220.653195306449
 20
7827.535518300999
 30
0.0
 40
120.0
 41
0.0
 71
     5
 72
     1
  1
\A1;123
  7
STYLE1
 11
0.0000000000000001
 21
1.0
 31
0.0
 73
     1
 44
1.0
1001
ACAD
1000
MTEXTBEGIN
1070
    73
1070
     1
1070
    44
1040
1.0
1070
    74
1070
     0
1000
MTEXTEND
  0
POINT
  5
2E399
330
2DE9B
100
AcDbEntity
  8
DEFPOINTS
 62
     0
 48
50.0
100
AcDbPoint
 10
3943.600000000001
 20
7554.4289165832
 30
0.0
  0
POINT
  5
2E39A
330
2DE9B
100
AcDbEntity
  8
DEFPOINTS
 62
     0
 48
50.0
100
AcDbPoint
 10
4016.6
 20
7431.428916583199
 30
0.0
  0
POINT
  5
2E39B
330
2DE9B
100
AcDbEntity
  8
DEFPOINTS
 62
     0
 48
50.0
100
AcDbPoint
 10
3320.665006330073
 20
7431.428916583199
 30
0.0
  0
ENDBLK
  5
2DEA7
330
2DE9B
100
AcDbEntity
  8
0
 48
50.0
100
AcDbBlockEnd
  0
BLOCK
  5
2DEB3
330
2DEA8
100
AcDbEntity
  8
0
 48
50.0
100
AcDbBlockBegin
  2
*D39
 70
     1
 10
0.0
 20
0.0
 30
0.0
  3
*D39
  1

  0
LINE
  5
2E349
330
2DEA8
100
AcDbEntity
  8
寸法
 62
     0
 48
50.0
370
    -2
100
AcDbLine
 10
4066.6
 20
7501.4289165832
 30
0.0
 11
4066.6
 21
8340.69537467711
 31
0.0
  0
LINE
  5
2E34A
330
2DEA8
100
AcDbEntity
  8
寸法
 62
     0
 48
50.0
370
    -2
100
AcDbLine
 10
3943.600000000001
 20
7574.4289165832
 30
0.0
 11
3943.600000000001
 21
8340.69537467711
 31
0.0
  0
LINE
  5
2E34B
330
2DEA8
100
AcDbEntity
  8
寸法
 62
     0
 48
50.0
370
    -2
100
AcDbLine
 10
4066.6
 20
8280.69537467711
 30
0.0
 11
3943.600000000001
 21
8280.69537467711
 31
0.0
  0
LINE
  5
2E34C
330
2DEA8
100
AcDbEntity
  8
寸法
 62
     0
 48
50.0
370
    -2
100
AcDbLine
 10
3943.600000000001
 20
8280.69537467711
 30
0.0
 11
3532.008116907964
 21
8280.69537467711
 31
0.0
  0
INSERT
  5
2E34D
330
2DEA8
100
AcDbEntity
  8
寸法
 62
     0
 48
50.0
370
    -2
100
AcDbBlockReference
  2
_DOTSMALL
 10
4066.6
 20
8280.69537467711
 30
0.0
 41
100.0
 42
100.0
 43
100.0
  0
INSERT
  5
2E34E
330
2DEA8
100
AcDbEntity
  8
寸法
 62
     0
 48
50.0
370
    -2
100
AcDbBlockReference
  2
_DOTSMALL
 10
3943.600000000001
 20
8280.69537467711
 30
0.0
 41
100.0
 42
100.0
 43
100.0
 50
180.0
  0
MTEXT
  5
2E34F
330
2DEA8
100
AcDbEntity
  8
寸法
 62
     7
 48
50.0
100
AcDbMText
 10
3670.493398282202
 20
8380.707185700734
 30
0.0
 40
120.0
 41
0.0
 71
     5
 72
     1
  1
\A1;123
  7
STYLE1
 73
     1
 44
1.0
1001
ACAD
1000
MTEXTBEGIN
1070
    73
1070
     1
1070
    44
1040
1.0
1070
    74
1070
     0
1000
MTEXTEND
  0
POINT
  5
2E350
330
2DEA8
100
AcDbEntity
  8
DEFPOINTS
 62
     0
 48
50.0
100
AcDbPoint
 10
4066.6
 20
7481.428916583199
 30
0.0
  0
POINT
  5
2E351
330
2DEA8
100
AcDbEntity
  8
DEFPOINTS
 62
     0
 48
50.0
100
AcDbPoint
 10
3943.600000000001
 20
7554.4289165832
 30
0.0
  0
POINT
  5
2E352
330
2DEA8
100
AcDbEntity
  8
DEFPOINTS
 62
     0
 48
50.0
100
AcDbPoint
 10
3943.600000000001
 20
8280.69537467711
 30
0.0
  0
ENDBLK
  5
2DEB4
330
2DEA8
100
AcDbEntity
  8
0
 48
50.0
100
AcDbBlockEnd
  0
BLOCK
  5
2DED9
330
2DECF
100
AcDbEntity
  8
0
 48
50.0
100
AcDbBlockBegin
  2
*D40
 70
     1
 10
0.0
 20
0.0
 30
0.0
  3
*D40
  1

  0
LINE
  5
2E492
330
2DECF
100
AcDbEntity
  8
寸法
 62
     0
 48
50.0
370
    -2
100
AcDbLine
 10
11548.60000000001
 20
6891.4289165832
 30
0.0
 11
11548.60000000001
 21
8097.037733253449
 31
0.0
  0
LINE
  5
2E493
330
2DECF
100
AcDbEntity
  8
寸法
 62
     0
 48
50.0
370
    -2
100
AcDbLine
 10
10598.60000000001
 20
6891.4289165832
 30
0.0
 11
10598.60000000001
 21
8097.037733253449
 31
0.0
  0
LINE
  5
2E494
330
2DECF
100
AcDbEntity
  8
寸法
 62
     0
 48
50.0
370
    -2
100
AcDbLine
 10
11548.60000000001
 20
8037.037733253448
 30
0.0
 11
10598.60000000001
 21
8037.037733253448
 31
0.0
  0
INSERT
  5
2E495
330
2DECF
100
AcDbEntity
  8
寸法
 62
     0
 48
50.0
370
    -2
100
AcDbBlockReference
  2
_DOTSMALL
 10
11548.60000000001
 20
8037.037733253448
 30
0.0
 41
100.0
 42
100.0
 43
100.0
  0
INSERT
  5
2E496
330
2DECF
100
AcDbEntity
  8
寸法
 62
     0
 48
50.0
370
    -2
100
AcDbBlockReference
  2
_DOTSMALL
 10
10598.60000000001
 20
8037.037733253448
 30
0.0
 41
100.0
 42
100.0
 43
100.0
 50
180.0
  0
MTEXT
  5
2E497
330
2DECF
100
AcDbEntity
  8
寸法
 62
     7
 48
50.0
100
AcDbMText
 10
11073.60000000001
 20
8137.037733253448
 30
0.0
 40
120.0
 41
0.0
 71
     5
 72
     1
  1
\A1;950
  7
STYLE1
 73
     1
 44
1.0
1001
ACAD
1000
MTEXTBEGIN
1070
    73
1070
     1
1070
    44
1040
1.0
1070
    74
1070
     0
1000
MTEXTEND
  0
POINT
  5
2E498
330
2DECF
100
AcDbEntity
  8
DEFPOINTS
 62
     0
 48
50.0
100
AcDbPoint
 10
11548.60000000001
 20
6871.4289165832
 30
0.0
  0
POINT
  5
2E499
330
2DECF
100
AcDbEntity
  8
DEFPOINTS
 62
     0
 48
50.0
100
AcDbPoint
 10
10598.60000000001
 20
6871.4289165832
 30
0.0
  0
POINT
  5
2E49A
330
2DECF
100
AcDbEntity
  8
DEFPOINTS
 62
     0
 48
50.0
100
AcDbPoint
 10
10598.60000000001
 20
8037.037733253448
 30
0.0
  0
ENDBLK
  5
2DEDA
330
2DECF
100
AcDbEntity
  8
0
 48
50.0
100
AcDbBlockEnd
  0
BLOCK
  5
2DEE5
330
2DEDB
100
AcDbEntity
  8
0
 48
50.0
100
AcDbBlockBegin
  2
*D41
 70
     1
 10
0.0
 20
0.0
 30
0.0
  3
*D41
  1

  0
LINE
  5
2E477
330
2DEDB
100
AcDbEntity
  8
寸法
 62
     0
 48
50.0
370
    -2
100
AcDbLine
 10
12503.6
 20
7574.4289165832
 30
0.0
 11
12503.6
 21
8097.037733253449
 31
0.0
  0
LINE
  5
2E478
330
2DEDB
100
AcDbEntity
  8
寸法
 62
     0
 48
50.0
370
    -2
100
AcDbLine
 10
11548.60000000001
 20
6891.4289165832
 30
0.0
 11
11548.60000000001
 21
8097.037733253449
 31
0.0
  0
LINE
  5
2E479
330
2DEDB
100
AcDbEntity
  8
寸法
 62
     0
 48
50.0
370
    -2
100
AcDbLine
 10
12503.6
 20
8037.037733253448
 30
0.0
 11
11548.60000000001
 21
8037.037733253448
 31
0.0
  0
INSERT
  5
2E47A
330
2DEDB
100
AcDbEntity
  8
寸法
 62
     0
 48
50.0
370
    -2
100
AcDbBlockReference
  2
_DOTSMALL
 10
12503.6
 20
8037.037733253448
 30
0.0
 41
100.0
 42
100.0
 43
100.0
  0
INSERT
  5
2E47B
330
2DEDB
100
AcDbEntity
  8
寸法
 62
     0
 48
50.0
370
    -2
100
AcDbBlockReference
  2
_DOTSMALL
 10
11548.60000000001
 20
8037.037733253448
 30
0.0
 41
100.0
 42
100.0
 43
100.0
 50
180.0
  0
MTEXT
  5
2E47C
330
2DEDB
100
AcDbEntity
  8
寸法
 62
     7
 48
50.0
100
AcDbMText
 10
12026.1
 20
8137.037733253448
 30
0.0
 40
120.0
 41
0.0
 71
     5
 72
     1
  1
\A1;955
  7
STYLE1
 73
     1
 44
1.0
1001
ACAD
1000
MTEXTBEGIN
1070
    73
1070
     1
1070
    44
1040
1.0
1070
    74
1070
     0
1000
MTEXTEND
  0
POINT
  5
2E47D
330
2DEDB
100
AcDbEntity
  8
DEFPOINTS
 62
     0
 48
50.0
100
AcDbPoint
 10
12503.6
 20
7554.4289165832
 30
0.0
  0
POINT
  5
2E47E
330
2DEDB
100
AcDbEntity
  8
DEFPOINTS
 62
     0
 48
50.0
100
AcDbPoint
 10
11548.60000000001
 20
6871.4289165832
 30
0.0
  0
POINT
  5
2E47F
330
2DEDB
100
AcDbEntity
  8
DEFPOINTS
 62
     0
 48
50.0
100
AcDbPoint
 10
11548.60000000001
 20
8037.037733253448
 30
0.0
  0
ENDBLK
  5
2DEE6
330
2DEDB
100
AcDbEntity
  8
0
 48
50.0
100
AcDbBlockEnd
  0
BLOCK
  5
2DEF1
330
2DEE7
100
AcDbEntity
  8
0
 48
50.0
100
AcDbBlockBegin
  2
*D42
 70
     1
 10
0.0
 20
0.0
 30
0.0
  3
*D42
  1

  0
LINE
  5
2E4AD
330
2DEE7
100
AcDbEntity
  8
寸法
 62
     0
 48
50.0
370
    -2
100
AcDbLine
 10
9648.600000000008
 20
6891.4289165832
 30
0.0
 11
9648.600000000008
 21
8097.037733253449
 31
0.0
  0
LINE
  5
2E4AE
330
2DEE7
100
AcDbEntity
  8
寸法
 62
     0
 48
50.0
370
    -2
100
AcDbLine
 10
8698.600000000007
 20
6891.4289165832
 30
0.0
 11
8698.600000000007
 21
8097.037733253449
 31
0.0
  0
LINE
  5
2E4AF
330
2DEE7
100
AcDbEntity
  8
寸法
 62
     0
 48
50.0
370
    -2
100
AcDbLine
 10
9648.600000000008
 20
8037.037733253448
 30
0.0
 11
8698.600000000007
 21
8037.037733253448
 31
0.0
  0
INSERT
  5
2E4B0
330
2DEE7
100
AcDbEntity
  8
寸法
 62
     0
 48
50.0
370
    -2
100
AcDbBlockReference
  2
_DOTSMALL
 10
9648.600000000008
 20
8037.037733253448
 30
0.0
 41
100.0
 42
100.0
 43
100.0
  0
INSERT
  5
2E4B1
330
2DEE7
100
AcDbEntity
  8
寸法
 62
     0
 48
50.0
370
    -2
100
AcDbBlockReference
  2
_DOTSMALL
 10
8698.600000000007
 20
8037.037733253448
 30
0.0
 41
100.0
 42
100.0
 43
100.0
 50
180.0
  0
MTEXT
  5
2E4B2
330
2DEE7
100
AcDbEntity
  8
寸法
 62
     7
 48
50.0
100
AcDbMText
 10
9173.600000000007
 20
8137.037733253448
 30
0.0
 40
120.0
 41
0.0
 71
     5
 72
     1
  1
\A1;950
  7
STYLE1
 73
     1
 44
1.0
1001
ACAD
1000
MTEXTBEGIN
1070
    73
1070
     1
1070
    44
1040
1.0
1070
    74
1070
     0
1000
MTEXTEND
  0
POINT
  5
2E4B3
330
2DEE7
100
AcDbEntity
  8
DEFPOINTS
 62
     0
 48
50.0
100
AcDbPoint
 10
9648.600000000008
 20
6871.4289165832
 30
0.0
  0
POINT
  5
2E4B4
330
2DEE7
100
AcDbEntity
  8
DEFPOINTS
 62
     0
 48
50.0
100
AcDbPoint
 10
8698.600000000007
 20
6871.4289165832
 30
0.0
  0
POINT
  5
2E4B5
330
2DEE7
100
AcDbEntity
  8
DEFPOINTS
 62
     0
 48
50.0
100
AcDbPoint
 10
8698.600000000007
 20
8037.037733253448
 30
0.0
  0
ENDBLK
  5
2DEF2
330
2DEE7
100
AcDbEntity
  8
0
 48
50.0
100
AcDbBlockEnd
  0
BLOCK
  5
2DEFD
330
2DEF3
100
AcDbEntity
  8
0
 48
50.0
100
AcDbBlockBegin
  2
*D43
 70
     1
 10
0.0
 20
0.0
 30
0.0
  3
*D43
  1

  0
LINE
  5
2E4A4
330
2DEF3
100
AcDbEntity
  8
寸法
 62
     0
 48
50.0
370
    -2
100
AcDbLine
 10
10598.60000000001
 20
6891.4289165832
 30
0.0
 11
10598.60000000001
 21
8097.037733253449
 31
0.0
  0
LINE
  5
2E4A5
330
2DEF3
100
AcDbEntity
  8
寸法
 62
     0
 48
50.0
370
    -2
100
AcDbLine
 10
9648.600000000008
 20
6891.4289165832
 30
0.0
 11
9648.600000000008
 21
8097.037733253449
 31
0.0
  0
LINE
  5
2E4A6
330
2DEF3
100
AcDbEntity
  8
寸法
 62
     0
 48
50.0
370
    -2
100
AcDbLine
 10
10598.60000000001
 20
8037.037733253448
 30
0.0
 11
9648.600000000008
 21
8037.037733253448
 31
0.0
  0
INSERT
  5
2E4A7
330
2DEF3
100
AcDbEntity
  8
寸法
 62
     0
 48
50.0
370
    -2
100
AcDbBlockReference
  2
_DOTSMALL
 10
10598.60000000001
 20
8037.037733253448
 30
0.0
 41
100.0
 42
100.0
 43
100.0
  0
INSERT
  5
2E4A8
330
2DEF3
100
AcDbEntity
  8
寸法
 62
     0
 48
50.0
370
    -2
100
AcDbBlockReference
  2
_DOTSMALL
 10
9648.600000000008
 20
8037.037733253448
 30
0.0
 41
100.0
 42
100.0
 43
100.0
 50
180.0
  0
MTEXT
  5
2E4A9
330
2DEF3
100
AcDbEntity
  8
寸法
 62
     7
 48
50.0
100
AcDbMText
 10
10123.60000000001
 20
8137.037733253448
 30
0.0
 40
120.0
 41
0.0
 71
     5
 72
     1
  1
\A1;950
  7
STYLE1
 73
     1
 44
1.0
1001
ACAD
1000
MTEXTBEGIN
1070
    73
1070
     1
1070
    44
1040
1.0
1070
    74
1070
     0
1000
MTEXTEND
  0
POINT
  5
2E4AA
330
2DEF3
100
AcDbEntity
  8
DEFPOINTS
 62
     0
 48
50.0
100
AcDbPoint
 10
10598.60000000001
 20
6871.4289165832
 30
0.0
  0
POINT
  5
2E4AB
330
2DEF3
100
AcDbEntity
  8
DEFPOINTS
 62
     0
 48
50.0
100
AcDbPoint
 10
9648.600000000008
 20
6871.4289165832
 30
0.0
  0
POINT
  5
2E4AC
330
2DEF3
100
AcDbEntity
  8
DEFPOINTS
 62
     0
 48
50.0
100
AcDbPoint
 10
9648.600000000008
 20
8037.037733253448
 30
0.0
  0
ENDBLK
  5
2DEFE
330
2DEF3
100
AcDbEntity
  8
0
 48
50.0
100
AcDbBlockEnd
  0
BLOCK
  5
2DF09
330
2DEFF
100
AcDbEntity
  8
0
 48
50.0
100
AcDbBlockBegin
  2
*D44
 70
     1
 10
0.0
 20
0.0
 30
0.0
  3
*D44
  1

  0
LINE
  5
2E31C
330
2DEFF
100
AcDbEntity
  8
寸法
 62
     0
 48
50.0
370
    -2
100
AcDbLine
 10
12380.6
 20
7501.4289165832
 30
0.0
 11
12380.6
 21
8340.69537467711
 31
0.0
  0
LINE
  5
2E31D
330
2DEFF
100
AcDbEntity
  8
寸法
 62
     0
 48
50.0
370
    -2
100
AcDbLine
 10
9530.600000000001
 20
7501.4289165832
 30
0.0
 11
9530.600000000001
 21
8340.69537467711
 31
0.0
  0
LINE
  5
2E31E
330
2DEFF
100
AcDbEntity
  8
寸法
 62
     0
 48
50.0
370
    -2
100
AcDbLine
 10
12380.6
 20
8280.69537467711
 30
0.0
 11
9530.600000000001
 21
8280.69537467711
 31
0.0
  0
INSERT
  5
2E31F
330
2DEFF
100
AcDbEntity
  8
寸法
 62
     0
 48
50.0
370
    -2
100
AcDbBlockReference
  2
_DOTSMALL
 10
12380.6
 20
8280.69537467711
 30
0.0
 41
100.0
 42
100.0
 43
100.0
  0
INSERT
  5
2E320
330
2DEFF
100
AcDbEntity
  8
寸法
 62
     0
 48
50.0
370
    -2
100
AcDbBlockReference
  2
_DOTSMALL
 10
9530.600000000001
 20
8280.69537467711
 30
0.0
 41
100.0
 42
100.0
 43
100.0
 50
180.0
  0
MTEXT
  5
2E321
330
2DEFF
100
AcDbEntity
  8
寸法
 62
     7
 48
50.0
100
AcDbMText
 10
10955.6
 20
8380.707185700734
 30
0.0
 40
120.0
 41
0.0
 71
     5
 72
     1
  1
\A1;2850
  7
STYLE1
 73
     1
 44
1.0
1001
ACAD
1000
MTEXTBEGIN
1070
    73
1070
     1
1070
    44
1040
1.0
1070
    74
1070
     0
1000
MTEXTEND
  0
POINT
  5
2E322
330
2DEFF
100
AcDbEntity
  8
DEFPOINTS
 62
     0
 48
50.0
100
AcDbPoint
 10
12380.6
 20
7481.428916583199
 30
0.0
  0
POINT
  5
2E323
330
2DEFF
100
AcDbEntity
  8
DEFPOINTS
 62
     0
 48
50.0
100
AcDbPoint
 10
9530.600000000001
 20
7481.428916583199
 30
0.0
  0
POINT
  5
2E324
330
2DEFF
100
AcDbEntity
  8
DEFPOINTS
 62
     0
 48
50.0
100
AcDbPoint
 10
9530.600000000001
 20
8280.69537467711
 30
0.0
  0
ENDBLK
  5
2DF0A
330
2DEFF
100
AcDbEntity
  8
0
 48
50.0
100
AcDbBlockEnd
  0
BLOCK
  5
2DF23
330
2DF18
100
AcDbEntity
  8
0
 48
50.0
100
AcDbBlockBegin
  2
*D45
 70
     1
 10
0.0
 20
0.0
 30
0.0
  3
*D45
  1

  0
LINE
  5
2E312
330
2DF18
100
AcDbEntity
  8
寸法
 62
     0
 48
50.0
370
    -2
100
AcDbLine
 10
12503.6
 20
7574.4289165832
 30
0.0
 11
12503.6
 21
8340.69537467711
 31
0.0
  0
LINE
  5
2E313
330
2DF18
100
AcDbEntity
  8
寸法
 62
     0
 48
50.0
370
    -2
100
AcDbLine
 10
12380.6
 20
7501.4289165832
 30
0.0
 11
12380.6
 21
8340.69537467711
 31
0.0
  0
LINE
  5
2E314
330
2DF18
100
AcDbEntity
  8
寸法
 62
     0
 48
50.0
370
    -2
100
AcDbLine
 10
12380.6
 20
8280.69537467711
 30
0.0
 11
12503.6
 21
8280.69537467711
 31
0.0
  0
LINE
  5
2E315
330
2DF18
100
AcDbEntity
  8
寸法
 62
     0
 48
50.0
370
    -2
100
AcDbLine
 10
12503.6
 20
8280.69537467711
 30
0.0
 11
12915.19188309203
 21
8280.69537467711
 31
0.0
  0
INSERT
  5
2E316
330
2DF18
100
AcDbEntity
  8
寸法
 62
     0
 48
50.0
370
    -2
100
AcDbBlockReference
  2
_DOTSMALL
 10
12380.6
 20
8280.69537467711
 30
0.0
 41
100.0
 42
100.0
 43
100.0
 50
180.0
  0
INSERT
  5
2E317
330
2DF18
100
AcDbEntity
  8
寸法
 62
     0
 48
50.0
370
    -2
100
AcDbBlockReference
  2
_DOTSMALL
 10
12503.6
 20
8280.69537467711
 30
0.0
 41
100.0
 42
100.0
 43
100.0
  0
MTEXT
  5
2E318
330
2DF18
100
AcDbEntity
  8
寸法
 62
     7
 48
50.0
100
AcDbMText
 10
12776.7066017178
 20
8380.707185700734
 30
0.0
 40
120.0
 41
0.0
 71
     5
 72
     1
  1
\A1;123
  7
STYLE1
 73
     1
 44
1.0
1001
ACAD
1000
MTEXTBEGIN
1070
    73
1070
     1
1070
    44
1040
1.0
1070
    74
1070
     0
1000
MTEXTEND
  0
POINT
  5
2E319
330
2DF18
100
AcDbEntity
  8
DEFPOINTS
 62
     0
 48
50.0
100
AcDbPoint
 10
12503.6
 20
7554.4289165832
 30
0.0
  0
POINT
  5
2E31A
330
2DF18
100
AcDbEntity
  8
DEFPOINTS
 62
     0
 48
50.0
100
AcDbPoint
 10
12380.6
 20
7481.428916583199
 30
0.0
  0
POINT
  5
2E31B
330
2DF18
100
AcDbEntity
  8
DEFPOINTS
 62
     0
 48
50.0
100
AcDbPoint
 10
12380.6
 20
8280.69537467711
 30
0.0
  0
ENDBLK
  5
2DF24
330
2DF18
100
AcDbEntity
  8
0
 48
50.0
100
AcDbBlockEnd
  0
BLOCK
  5
2E8DA
330
2E8D0
100
AcDbEntity
  8
0
 48
50.0
100
AcDbBlockBegin
  2
*D46
 70
     1
 10
0.0
 20
0.0
 30
0.0
  3
*D46
  1

  0
LINE
  5
2E91A
330
2E8D0
100
AcDbEntity
  8
寸法
 62
     0
 48
50.0
370
    -2
100
AcDbLine
 10
7377.888063977043
 20
2024.50976271614
 30
0.0
 11
7919.756663745888
 21
2024.509762716139
 31
0.0
  0
LINE
  5
2E91B
330
2E8D0
100
AcDbEntity
  8
寸法
 62
     0
 48
50.0
370
    -2
100
AcDbLine
 10
7377.888063977043
 20
1700.509762716138
 30
0.0
 11
7919.756663745888
 21
1700.509762716138
 31
0.0
  0
LINE
  5
2E91C
330
2E8D0
100
AcDbEntity
  8
寸法
 62
     0
 48
50.0
370
    -2
100
AcDbLine
 10
7859.756663745888
 20
2024.509762716139
 30
0.0
 11
7859.756663745888
 21
1700.509762716138
 31
0.0
  0
INSERT
  5
2E91D
330
2E8D0
100
AcDbEntity
  8
寸法
 62
     0
 48
50.0
370
    -2
100
AcDbBlockReference
  2
_DOTSMALL
 10
7859.756663745888
 20
2024.509762716139
 30
0.0
 41
100.0
 42
100.0
 43
100.0
 50
90.0
  0
INSERT
  5
2E91E
330
2E8D0
100
AcDbEntity
  8
寸法
 62
     0
 48
50.0
370
    -2
100
AcDbBlockReference
  2
_DOTSMALL
 10
7859.756663745888
 20
1700.509762716138
 30
0.0
 41
100.0
 42
100.0
 43
100.0
 50
270.0
  0
MTEXT
  5
2E91F
330
2E8D0
100
AcDbEntity
  8
寸法
 62
     7
 48
50.0
100
AcDbMText
 10
7759.756663745888
 20
1862.50976271614
 30
0.0
 40
120.0
 41
0.0
 71
     5
 72
     1
  1
\A1;180
  7
STYLE1
 11
0.0000000000000001
 21
1.0
 31
0.0
 73
     1
 44
1.0
1001
ACAD
1000
MTEXTBEGIN
1070
    73
1070
     1
1070
    44
1040
1.0
1070
    74
1070
     0
1000
MTEXTEND
  0
POINT
  5
2E920
330
2E8D0
100
AcDbEntity
  8
DEFPOINTS
 62
     0
 48
50.0
100
AcDbPoint
 10
7357.888063977043
 20
2024.50976271614
 30
0.0
  0
POINT
  5
2E921
330
2E8D0
100
AcDbEntity
  8
DEFPOINTS
 62
     0
 48
50.0
100
AcDbPoint
 10
7357.888063977043
 20
1700.509762716138
 30
0.0
  0
POINT
  5
2E922
330
2E8D0
100
AcDbEntity
  8
DEFPOINTS
 62
     0
 48
50.0
100
AcDbPoint
 10
7859.756663745888
 20
1700.509762716138
 30
0.0
  0
ENDBLK
  5
2E8DB
330
2E8D0
100
AcDbEntity
  8
0
 48
50.0
100
AcDbBlockEnd
  0
BLOCK
  5
2E8E8
330
2E8DC
100
AcDbEntity
  8
0
 48
50.0
100
AcDbBlockBegin
  2
*D47
 70
     1
 10
0.0
 20
0.0
 30
0.0
  3
*D47
  1

  0
LINE
  5
2E923
330
2E8DC
100
AcDbEntity
  8
寸法
 62
     0
 48
50.0
370
    -2
100
AcDbLine
 10
7190.688063977046
 20
2077.269762716141
 30
0.0
 11
8195.811329864914
 21
2077.269762716141
 31
0.0
  0
LINE
  5
2E924
330
2E8DC
100
AcDbEntity
  8
寸法
 62
     0
 48
50.0
370
    -2
100
AcDbLine
 10
7377.888063977043
 20
2024.50976271614
 30
0.0
 11
8195.811329864914
 21
2024.509762716139
 31
0.0
  0
LINE
  5
2E925
330
2E8DC
100
AcDbEntity
  8
寸法
 62
     0
 48
50.0
370
    -2
100
AcDbLine
 10
8135.811329864916
 20
2077.269762716141
 30
0.0
 11
8135.811329864916
 21
2177.269762716141
 31
0.0
  0
LINE
  5
2E926
330
2E8DC
100
AcDbEntity
  8
寸法
 62
     0
 48
50.0
370
    -2
100
AcDbLine
 10
8135.811329864916
 20
2024.509762716139
 30
0.0
 11
8135.811329864916
 21
1292.491955873173
 31
0.0
  0
LINE
  5
2E927
330
2E8DC
100
AcDbEntity
  8
寸法
 62
     0
 48
50.0
370
    -2
100
AcDbLine
 10
8135.811329864916
 20
2077.269762716141
 30
0.0
 11
8135.811329864916
 21
2024.509762716139
 31
0.0
  0
INSERT
  5
2E928
330
2E8DC
100
AcDbEntity
  8
寸法
 62
     0
 48
50.0
370
    -2
100
AcDbBlockReference
  2
_DOTSMALL
 10
8135.811329864916
 20
2077.269762716141
 30
0.0
 41
100.0
 42
100.0
 43
100.0
 50
270.0
  0
INSERT
  5
2E929
330
2E8DC
100
AcDbEntity
  8
寸法
 62
     0
 48
50.0
370
    -2
100
AcDbBlockReference
  2
_DOTSMALL
 10
8135.811329864916
 20
2024.509762716139
 30
0.0
 41
100.0
 42
100.0
 43
100.0
 50
90.0
  0
MTEXT
  5
2E92A
330
2E8DC
100
AcDbEntity
  8
寸法
 62
     7
 48
50.0
100
AcDbMText
 10
8035.799518841292
 20
1558.500859294657
 30
0.0
 40
120.0
 41
0.0
 71
     5
 72
     1
  1
\A1;20～25
  7
STYLE1
 11
0.0000000000000001
 21
1.0
 31
0.0
 73
     1
 44
1.0
1001
ACAD
1000
MTEXTBEGIN
1070
    73
1070
     1
1070
    44
1040
1.0
1070
    74
1070
     0
1000
MTEXTEND
  0
POINT
  5
2E92B
330
2E8DC
100
AcDbEntity
  8
DEFPOINTS
 62
     0
 48
50.0
100
AcDbPoint
 10
7170.688063977046
 20
2077.269762716141
 30
0.0
  0
POINT
  5
2E92C
330
2E8DC
100
AcDbEntity
  8
DEFPOINTS
 62
     0
 48
50.0
100
AcDbPoint
 10
7357.888063977043
 20
2024.50976271614
 30
0.0
  0
POINT
  5
2E92D
330
2E8DC
100
AcDbEntity
  8
DEFPOINTS
 62
     0
 48
50.0
100
AcDbPoint
 10
8135.811329864916
 20
2024.509762716139
 30
0.0
  0
ENDBLK
  5
2E8E9
330
2E8DC
100
AcDbEntity
  8
0
 48
50.0
100
AcDbBlockEnd
  0
BLOCK
  5
2E8F4
330
2E8EA
100
AcDbEntity
  8
0
 48
50.0
100
AcDbBlockBegin
  2
*D48
 70
     1
 10
0.0
 20
0.0
 30
0.0
  3
*D48
  1

  0
LINE
  5
2E92E
330
2E8EA
100
AcDbEntity
  8
寸法
 62
     0
 48
50.0
370
    -2
100
AcDbLine
 10
5095.84875079985
 20
1480.509762716139
 30
0.0
 11
4913.428437067391
 21
1480.509762716139
 31
0.0
  0
LINE
  5
2E92F
330
2E8EA
100
AcDbEntity
  8
寸法
 62
     0
 48
50.0
370
    -2
100
AcDbLine
 10
5015.848750799854
 20
1240.509762716139
 30
0.0
 11
4913.428437067391
 21
1240.509762716139
 31
0.0
  0
LINE
  5
2E930
330
2E8EA
100
AcDbEntity
  8
寸法
 62
     0
 48
50.0
370
    -2
100
AcDbLine
 10
4973.428437067391
 20
1480.509762716139
 30
0.0
 11
4973.428437067391
 21
1240.509762716139
 31
0.0
  0
INSERT
  5
2E931
330
2E8EA
100
AcDbEntity
  8
寸法
 62
     0
 48
50.0
370
    -2
100
AcDbBlockReference
  2
_DOTSMALL
 10
4973.428437067391
 20
1480.509762716139
 30
0.0
 41
100.0
 42
100.0
 43
100.0
 50
90.0
  0
INSERT
  5
2E932
330
2E8EA
100
AcDbEntity
  8
寸法
 62
     0
 48
50.0
370
    -2
100
AcDbBlockReference
  2
_DOTSMALL
 10
4973.428437067391
 20
1240.509762716139
 30
0.0
 41
100.0
 42
100.0
 43
100.0
 50
270.0
  0
MTEXT
  5
2E933
330
2E8EA
100
AcDbEntity
  8
寸法
 62
     7
 48
50.0
100
AcDbMText
 10
4873.428437067391
 20
1360.50976271614
 30
0.0
 40
120.0
 41
0.0
 71
     5
 72
     1
  1
\A1;150
  7
STYLE1
 11
0.0000000000000001
 21
1.0
 31
0.0
 73
     1
 44
1.0
1001
ACAD
1000
MTEXTBEGIN
1070
    73
1070
     1
1070
    44
1040
1.0
1070
    74
1070
     0
1000
MTEXTEND
  0
POINT
  5
2E934
330
2E8EA
100
AcDbEntity
  8
DEFPOINTS
 62
     0
 48
50.0
100
AcDbPoint
 10
5115.848750799851
 20
1480.509762716139
 30
0.0
  0
POINT
  5
2E935
330
2E8EA
100
AcDbEntity
  8
DEFPOINTS
 62
     0
 48
50.0
100
AcDbPoint
 10
5035.848750799854
 20
1240.509762716139
 30
0.0
  0
POINT
  5
2E936
330
2E8EA
100
AcDbEntity
  8
DEFPOINTS
 62
     0
 48
50.0
100
AcDbPoint
 10
4973.428437067391
 20
1240.509762716139
 30
0.0
  0
ENDBLK
  5
2E8F5
330
2E8EA
100
AcDbEntity
  8
0
 48
50.0
100
AcDbBlockEnd
  0
BLOCK
  5
2E900
330
2E8F6
100
AcDbEntity
  8
0
 48
50.0
100
AcDbBlockBegin
  2
*D49
 70
     1
 10
0.0
 20
0.0
 30
0.0
  3
*D49
  1

  0
LINE
  5
2E937
330
2E8F6
100
AcDbEntity
  8
寸法
 62
     0
 48
50.0
370
    -2
100
AcDbLine
 10
5223.848750799851
 20
2024.50976271614
 30
0.0
 11
4448.81151223811
 21
2024.50976271614
 31
0.0
  0
LINE
  5
2E938
330
2E8F6
100
AcDbEntity
  8
寸法
 62
     0
 48
50.0
370
    -2
100
AcDbLine
 10
5015.848750799854
 20
1240.509762716139
 30
0.0
 11
4448.81151223811
 21
1240.509762716139
 31
0.0
  0
LINE
  5
2E939
330
2E8F6
100
AcDbEntity
  8
寸法
 62
     0
 48
50.0
370
    -2
100
AcDbLine
 10
4508.81151223811
 20
2024.50976271614
 30
0.0
 11
4508.81151223811
 21
1240.509762716139
 31
0.0
  0
INSERT
  5
2E93A
330
2E8F6
100
AcDbEntity
  8
寸法
 62
     0
 48
50.0
370
    -2
100
AcDbBlockReference
  2
_DOTSMALL
 10
4508.81151223811
 20
2024.50976271614
 30
0.0
 41
100.0
 42
100.0
 43
100.0
 50
90.0
  0
INSERT
  5
2E93B
330
2E8F6
100
AcDbEntity
  8
寸法
 62
     0
 48
50.0
370
    -2
100
AcDbBlockReference
  2
_DOTSMALL
 10
4508.81151223811
 20
1240.509762716139
 30
0.0
 41
100.0
 42
100.0
 43
100.0
 50
270.0
  0
MTEXT
  5
2E93C
330
2E8F6
100
AcDbEntity
  8
寸法
 62
     7
 48
50.0
100
AcDbMText
 10
4408.81151223811
 20
1612.04991237214
 30
0.0
 40
120.0
 41
0.0
 71
     5
 72
     1
  1
\A1;540
  7
STYLE1
 11
0.0000000000000001
 21
1.0
 31
0.0
 73
     1
 44
1.0
1001
ACAD
1000
MTEXTBEGIN
1070
    73
1070
     1
1070
    44
1040
1.0
1070
    74
1070
     0
1000
MTEXTEND
  0
POINT
  5
2E93D
330
2E8F6
100
AcDbEntity
  8
DEFPOINTS
 62
     0
 48
50.0
100
AcDbPoint
 10
5243.848750799851
 20
2024.50976271614
 30
0.0
  0
POINT
  5
2E93E
330
2E8F6
100
AcDbEntity
  8
DEFPOINTS
 62
     0
 48
50.0
100
AcDbPoint
 10
5035.848750799854
 20
1240.509762716139
 30
0.0
  0
POINT
  5
2E93F
330
2E8F6
100
AcDbEntity
  8
DEFPOINTS
 62
     0
 48
50.0
100
AcDbPoint
 10
4508.81151223811
 20
1240.509762716139
 30
0.0
  0
ENDBLK
  5
2E901
330
2E8F6
100
AcDbEntity
  8
0
 48
50.0
100
AcDbBlockEnd
  0
BLOCK
  5
2E90C
330
2E902
100
AcDbEntity
  8
0
 48
50.0
100
AcDbBlockBegin
  2
*D50
 70
     1
 10
0.0
 20
0.0
 30
0.0
  3
*D50
  1

  0
LINE
  5
2E940
330
2E902
100
AcDbEntity
  8
寸法
 62
     0
 48
50.0
370
    -2
100
AcDbLine
 10
5115.848750799851
 20
1092.509762716139
 30
0.0
 11
5115.848750799851
 21
642.0801247109793
 31
0.0
  0
LINE
  5
2E941
330
2E902
100
AcDbEntity
  8
寸法
 62
     0
 48
50.0
370
    -2
100
AcDbLine
 10
5563.84875079985
 20
1092.509762716139
 30
0.0
 11
5563.84875079985
 21
642.0801247109793
 31
0.0
  0
LINE
  5
2E942
330
2E902
100
AcDbEntity
  8
寸法
 62
     0
 48
50.0
370
    -2
100
AcDbLine
 10
5115.848750799851
 20
702.0801247109793
 30
0.0
 11
5563.84875079985
 21
702.0801247109793
 31
0.0
  0
INSERT
  5
2E943
330
2E902
100
AcDbEntity
  8
寸法
 62
     0
 48
50.0
370
    -2
100
AcDbBlockReference
  2
_DOTSMALL
 10
5115.848750799851
 20
702.0801247109793
 30
0.0
 41
100.0
 42
100.0
 43
100.0
 50
180.0
  0
INSERT
  5
2E944
330
2E902
100
AcDbEntity
  8
寸法
 62
     0
 48
50.0
370
    -2
100
AcDbBlockReference
  2
_DOTSMALL
 10
5563.84875079985
 20
702.0801247109793
 30
0.0
 41
100.0
 42
100.0
 43
100.0
  0
MTEXT
  5
2E945
330
2E902
100
AcDbEntity
  8
寸法
 62
     7
 48
50.0
100
AcDbMText
 10
5319.751992121627
 20
802.0801247109794
 30
0.0
 40
120.0
 41
0.0
 71
     5
 72
     1
  1
\A1;300
  7
STYLE1
 73
     1
 44
1.0
1001
ACAD
1000
MTEXTBEGIN
1070
    73
1070
     1
1070
    44
1040
1.0
1070
    74
1070
     0
1000
MTEXTEND
  0
POINT
  5
2E946
330
2E902
100
AcDbEntity
  8
DEFPOINTS
 62
     0
 48
50.0
100
AcDbPoint
 10
5115.848750799851
 20
1112.509762716139
 30
0.0
  0
POINT
  5
2E947
330
2E902
100
AcDbEntity
  8
DEFPOINTS
 62
     0
 48
50.0
100
AcDbPoint
 10
5563.84875079985
 20
1112.509762716139
 30
0.0
  0
POINT
  5
2E948
330
2E902
100
AcDbEntity
  8
DEFPOINTS
 62
     0
 48
50.0
100
AcDbPoint
 10
5563.84875079985
 20
702.0801247109793
 30
0.0
  0
ENDBLK
  5
2E90D
330
2E902
100
AcDbEntity
  8
0
 48
50.0
100
AcDbBlockEnd
  0
BLOCK
  5
2E918
330
2E90E
100
AcDbEntity
  8
0
 48
50.0
100
AcDbBlockBegin
  2
*D51
 70
     1
 10
0.0
 20
0.0
 30
0.0
  3
*D51
  1

  0
LINE
  5
2E949
330
2E90E
100
AcDbEntity
  8
寸法
 62
     0
 48
50.0
370
    -2
100
AcDbLine
 10
5435.848750799851
 20
2044.50976271614
 30
0.0
 11
5435.848750799851
 21
2504.17757063252
 31
0.0
  0
LINE
  5
2E94A
330
2E90E
100
AcDbEntity
  8
寸法
 62
     0
 48
50.0
370
    -2
100
AcDbLine
 10
5243.848750799851
 20
2044.50976271614
 30
0.0
 11
5243.848750799851
 21
2504.17757063252
 31
0.0
  0
LINE
  5
2E94B
330
2E90E
100
AcDbEntity
  8
寸法
 62
     0
 48
50.0
370
    -2
100
AcDbLine
 10
5435.848750799851
 20
2444.17757063252
 30
0.0
 11
5243.848750799851
 21
2444.17757063252
 31
0.0
  0
INSERT
  5
2E94C
330
2E90E
100
AcDbEntity
  8
寸法
 62
     0
 48
50.0
370
    -2
100
AcDbBlockReference
  2
_DOTSMALL
 10
5435.848750799851
 20
2444.17757063252
 30
0.0
 41
100.0
 42
100.0
 43
100.0
  0
INSERT
  5
2E94D
330
2E90E
100
AcDbEntity
  8
寸法
 62
     0
 48
50.0
370
    -2
100
AcDbBlockReference
  2
_DOTSMALL
 10
5243.848750799851
 20
2444.17757063252
 30
0.0
 41
100.0
 42
100.0
 43
100.0
 50
180.0
  0
MTEXT
  5
2E94E
330
2E90E
100
AcDbEntity
  8
寸法
 62
     7
 48
50.0
100
AcDbMText
 10
5339.848750799851
 20
2744.213003703386
 30
0.0
 40
120.0
 41
0.0
 71
     5
 72
     1
  1
\A1;120\P200\P280
  7
STYLE1
 73
     1
 44
1.0
1001
ACAD
1000
MTEXTBEGIN
1070
    73
1070
     1
1070
    44
1040
1.0
1070
    74
1070
     0
1000
MTEXTEND
  0
POINT
  5
2E94F
330
2E90E
100
AcDbEntity
  8
DEFPOINTS
 62
     0
 48
50.0
100
AcDbPoint
 10
5435.848750799851
 20
2024.50976271614
 30
0.0
  0
POINT
  5
2E950
330
2E90E
100
AcDbEntity
  8
DEFPOINTS
 62
     0
 48
50.0
100
AcDbPoint
 10
5243.848750799851
 20
2024.50976271614
 30
0.0
  0
POINT
  5
2E951
330
2E90E
100
AcDbEntity
  8
DEFPOINTS
 62
     0
 48
50.0
100
AcDbPoint
 10
5243.848750799851
 20
2444.17757063252
 30
0.0
  0
ENDBLK
  5
2E919
330
2E90E
100
AcDbEntity
  8
0
 48
50.0
100
AcDbBlockEnd
  0
ENDSEC
  0
SECTION
  2
ENTITIES
  0
MTEXT
  5
763F
330
747D
100
AcDbEntity
  8
0
100
AcDbMText
 10
302.846345836809
 20
280.1983726409901
 30
0.0
 40
3.5
 41
5.323721266742722
 71
     1
 72
     5
  1

  7
MSMINCHO
 73
     1
 44
1.0
1001
ACAD
1000
MTEXTBEGIN
1070
    73
1070
     1
1070
    44
1040
1.0
1070
    74
1070
     0
1000
MTEXTEND
  0
LINE
  5
10B57
330
747D
100
AcDbEntity
  8
補助
  6
PHANTOM
 62
   230
 48
50.0
100
AcDbLine
 10
139.9999999999995
 20
11409.6
 30
0.0
 11
16307.2
 21
11409.6
 31
0.0
  0
LINE
  5
10B59
330
747D
100
AcDbEntity
  8
仕様書枠
  6
Continuous
 48
50.0
100
AcDbLine
 10
13107.2
 20
1200.0
 30
0.0
 11
13107.2
 21
-0.0000000000000729
 31
0.0
  0
LINE
  5
10B5D
330
747D
100
AcDbEntity
  8
仕様書枠
 48
50.0
100
AcDbLine
 10
140.0
 20
0.0
 30
0.0
 11
16307.2
 21
-0.0000000000000909
 31
0.0
  0
LINE
  5
10B5E
330
747D
100
AcDbEntity
  8
補助
  6
PHANTOM
 62
   230
 48
50.0
100
AcDbLine
 10
16307.2
 20
11409.6
 30
0.0
 11
16307.2
 21
1200.0
 31
0.0
  0
LINE
  5
10B6C
330
747D
100
AcDbEntity
  8
仕様書枠
 48
50.0
100
AcDbLine
 10
13107.2
 20
1200.0
 30
0.0
 11
16307.2
 21
1200.0
 31
0.0
  0
TEXT
  5
10B73
330
747D
100
AcDbEntity
  8
文字
 62
     7
 48
50.0
100
AcDbText
 10
13162.9790565769
 20
895.0906074299405
 30
0.0
 40
200.0
  1
基 礎 図
  7
STYLE2
100
AcDbText
  0
LINE
  5
10B7B
330
747D
100
AcDbEntity
  8
仕様書枠
 48
50.0
100
AcDbLine
 10
13107.2
 20
800.0
 30
0.0
 11
14251.2
 21
800.0
 31
0.0
  0
LINE
  5
10B88
330
747D
100
AcDbEntity
  8
仕様書枠
  6
Continuous
 48
50.0
100
AcDbLine
 10
14251.2
 20
1200.0
 30
0.0
 11
14251.2
 21
800.0
 31
0.0
  0
LINE
  5
16462
330
747D
100
AcDbEntity
  8
仕様書枠
 48
50.0
100
AcDbLine
 10
16307.2
 20
1200.0
 30
0.0
 11
16307.2
 21
-0.0000000000000909
 31
0.0
  0
LINE
  5
1903B
330
747D
100
AcDbEntity
  8
補助
  6
PHANTOM
 62
   230
 48
50.0
100
AcDbLine
 10
140.0
 20
0.0
 30
0.0
 11
139.9999999999995
 21
11409.6
 31
0.0
  0
TEXT
  5
1C7A1
330
747D
100
AcDbEntity
  8
文字
 62
     7
 48
50.0
100
AcDbText
 10
13188.16259899338
 20
79.80631269190417
 30
0.0
 40
80.0
  1
※布基礎には換気口を設けてください。
  7
STYLE2
100
AcDbText
  0
TEXT
  5
1C7E7
330
747D
100
AcDbEntity
  8
文字
 62
     7
 48
50.0
100
AcDbText
 10
13188.16259899338
 20
246.7109242801889
 30
0.0
 40
80.0
  1
※寒冷地等は地域の実情に合わせた基礎にして下さい。
  7
STYLE2
100
AcDbText
  0
TEXT
  5
1C7EC
330
747D
100
AcDbEntity
  8
文字
 62
     7
 48
50.0
100
AcDbText
 10
14524.131837222
 20
1031.557706291229
 30
0.0
 40
100.0
  1
      <縮尺> S=1/40
  7
STYLE2
100
AcDbText
  0
TEXT
  5
1C7ED
330
747D
100
AcDbEntity
  8
文字
 62
     7
 48
50.0
100
AcDbText
 10
13201.43669998441
 20
477.2740661031257
 30
0.0
 40
160.0
  1
機種名
  7
STYLE2
100
AcDbText
  0
LINE
  5
1C7EF
330
747D
100
AcDbEntity
  8
文字
 62
     7
 48
50.0
100
AcDbLine
 10
13187.2
 20
400.0
 30
0.0
 11
16227.2
 21
400.0
 31
0.0
  0
TEXT
  5
271E7
330
747D
100
AcDbEntity
  8
部品1
100
AcDbText
 10
7020.398178799904
 20
5222.663665028082
 30
0.0
 40
135.0
  1
9連棟・12連棟・15連棟・18連棟
  7
STYLE2
100
AcDbText
  0
TEXT
  5
27754
330
747D
100
AcDbEntity
  8
文字
 62
     7
 48
50.0
100
AcDbText
 10
14271.39351435261
 20
483.8967129911416
 30
0.0
 40
160.0
  1
ＮＸＮ－１４ＤＬ-Ｎ
  7
STYLE2
100
AcDbText
  0
MTEXT
  5
2CB4C
330
747D
100
AcDbEntity
  8
寸法
 62
     7
 48
50.0
100
AcDbMText
 10
7060.988003405523
 20
8383.443697133497
 30
0.0
 40
120.0
 41
0.0
 71
     5
 72
     1
  1
\A1;2850
  7
STYLE1
 73
     1
 44
1.0
1001
ACAD
1000
MTEXTBEGIN
1070
    73
1070
     1
1070
    44
1040
1.0
1070
    74
1070
     0
1000
MTEXTEND
  0
MTEXT
  5
2CB52
330
747D
100
AcDbEntity
  8
寸法
 62
     7
 48
50.0
100
AcDbMText
 10
7910.726270679171
 20
8135.596478639113
 30
0.0
 40
120.0
 41
0.0
 71
     5
 72
     1
  1
\A1;950
  7
STYLE1
 73
     1
 44
1.0
1001
ACAD
1000
MTEXTBEGIN
1070
    73
1070
     1
1070
    44
1040
1.0
1070
    74
1070
     0
1000
MTEXTEND
  0
MTEXT
  5
2CB53
330
747D
100
AcDbEntity
  8
寸法
 62
     7
 48
50.0
100
AcDbMText
 10
8532.407549112983
 20
8135.596478639113
 30
0.0
 40
120.0
 41
0.0
 71
     5
 72
     1
  1
\A1;950
  7
STYLE1
 73
     1
 44
1.0
1001
ACAD
1000
MTEXTBEGIN
1070
    73
1070
     1
1070
    44
1040
1.0
1070
    74
1070
     0
1000
MTEXTEND
  0
MTEXT
  5
2CB54
330
747D
100
AcDbEntity
  8
寸法
 62
     7
 48
50.0
100
AcDbMText
 10
9135.742779239546
 20
8383.443697133497
 30
0.0
 40
120.0
 41
0.0
 71
     5
 72
     1
  1
\A1;2850
  7
STYLE1
 73
     1
 44
1.0
1001
ACAD
1000
MTEXTBEGIN
1070
    73
1070
     1
1070
    44
1040
1.0
1070
    74
1070
     0
1000
MTEXTEND
  0
DIMENSION
  5
2D708
330
747D
100
AcDbEntity
  8
寸法
 48
50.0
100
AcDbDimension
  2
*D19
 10
12383.6
 20
7104.02752968131
 30
0.0
 11
12773.65905511811
 21
7104.02752968131
 31
0.0
 70
   160
 71
     5
 42
119.9999999999981
  3
INABA_S40G
100
AcDbAlignedDimension
 13
12503.6
 23
6989.428916583236
 33
0.0
 14
12383.6
 24
6989.428916583236
 34
0.0
100
AcDbRotatedDimension
1001
ACAD
1000
DSTYLE
1002
{
1070
   341
1005
0
1002
}
  0
DIMENSION
  5
2D709
330
747D
100
AcDbEntity
  8
寸法
 48
50.0
100
AcDbDimension
  2
*D20
 10
11822.81202022565
 20
7354.428916583201
 30
0.0
 11
11822.81202022565
 21
7841.392499260357
 31
0.0
 70
   160
 71
     5
 42
199.9999999999854
  3
INABA_S40G
100
AcDbAlignedDimension
 13
11923.6
 23
7554.428916583187
 33
0.0
 14
11923.6
 24
7354.428916583201
 34
0.0
 50
90.0
100
AcDbRotatedDimension
1001
ACAD
1000
DSTYLE
1002
{
1070
   341
1005
0
1002
}
  0
DIMENSION
  5
2D70A
330
747D
100
AcDbEntity
  8
寸法
 48
50.0
100
AcDbDimension
  2
*D21
 10
11822.81202022565
 20
6014.428916583217
 30
0.0
 11
11822.81202022565
 21
5727.465333906046
 31
0.0
 70
   160
 71
     5
 42
279.9999999999991
  3
INABA_S40G
100
AcDbAlignedDimension
 13
11931.63847577293
 23
6294.428916583218
 33
0.0
 14
11923.6
 24
6014.428916583217
 34
0.0
 50
90.0
100
AcDbRotatedDimension
1001
ACAD
1000
DSTYLE
1002
{
1070
   341
1005
0
1002
}
  0
DIMENSION
  5
2D70B
330
747D
100
AcDbEntity
  8
寸法
 48
50.0
100
AcDbDimension
  2
*D22
 10
3068.721909610677
 20
5959.428916583207
 30
0.0
 11
2968.721909610676
 21
5986.928916583195
 31
0.0
 70
    32
  1
b
 71
     5
 42
54.99999999997453
  3
INABA_S40G
100
AcDbAlignedDimension
 13
3943.600000000004
 23
6014.428916583181
 33
0.0
 14
3320.665006330075
 24
5959.428916583207
 34
0.0
 50
90.0
100
AcDbRotatedDimension
1001
ACAD
1000
DSTYLE
1002
{
1070
   341
1005
0
1002
}
  0
DIMENSION
  5
2D70C
330
747D
100
AcDbEntity
  8
寸法
 48
50.0
100
AcDbDimension
  2
*D23
 10
3068.721909610677
 20
7554.42891658315
 30
0.0
 11
2968.721909610675
 21
7591.928916583154
 31
0.0
 70
    32
  1
c
 71
     5
 42
75.00000000000546
  3
INABA_S40G
100
AcDbAlignedDimension
 13
3320.665006330075
 23
7629.428916583155
 33
0.0
 14
3943.600000000004
 24
7554.42891658315
 34
0.0
 50
90.0
100
AcDbRotatedDimension
1001
ACAD
1000
DSTYLE
1002
{
1070
   341
1005
0
1002
}
  0
LINE
  5
2D70D
330
747D
100
AcDbEntity
  8
想像線
 48
10.0
100
AcDbLine
 10
12548.6
 20
5959.428916583247
 30
0.0
 11
8146.553359531978
 21
5959.428916583237
 31
0.0
  0
LINE
  5
2D70E
330
747D
100
AcDbEntity
  8
想像線
 48
10.0
100
AcDbLine
 10
12548.6
 20
5959.428916583247
 30
0.0
 11
12548.6
 21
7629.428916583204
 31
0.0
  0
LINE
  5
2D70F
330
747D
100
AcDbEntity
  8
想像線
 48
10.0
100
AcDbLine
 10
3898.600000000004
 20
5959.428916583192
 30
0.0
 11
3898.600000000004
 21
7629.428916583155
 31
0.0
  0
LINE
  5
2D710
330
747D
100
AcDbEntity
  8
想像線
 48
10.0
100
AcDbLine
 10
12548.6
 20
7629.428916583204
 30
0.0
 11
8365.369689049622
 21
7629.42891658321
 31
0.0
  0
DIMENSION
  5
2D711
330
747D
100
AcDbEntity
  8
寸法
 48
50.0
100
AcDbDimension
  2
*D24
 10
3943.600000000004
 20
8512.649238642072
 30
0.0
 11
3627.425378797545
 21
8512.649238642072
 31
0.0
 70
   160
  1
a
 71
     5
 42
45.0
  3
INABA_S40G
100
AcDbAlignedDimension
 13
3898.600000000004
 23
8280.695374677064
 33
0.0
 14
3943.600000000004
 24
7554.42891658315
 34
0.0
100
AcDbRotatedDimension
1001
ACAD
1000
DSTYLE
1002
{
1070
   341
1005
0
1002
}
  0
DIMENSION
  5
2D712
330
747D
100
AcDbEntity
  8
寸法
 48
50.0
100
AcDbDimension
  2
*D25
 10
12548.6
 20
8512.649238642122
 30
0.0
 11
12819.77462120245
 21
8512.649238642122
 31
0.0
 70
   160
  1
a
 71
     5
 42
45.0
  3
INABA_S40G
100
AcDbAlignedDimension
 13
12503.6
 23
7554.4289165832
 33
0.0
 14
12548.6
 24
8280.69537467711
 34
0.0
100
AcDbRotatedDimension
1001
ACAD
1000
DSTYLE
1002
{
1070
   341
1005
0
1002
}
  0
LEADER
  5
2D713
330
747D
100
AcDbEntity
  8
寸法
 48
50.0
100
AcDbLeader
  3
INABA_S50G
 73
     0
 74
     0
 75
     1
 40
120.0
 41
149.591883092037
 76
     3
 10
11636.95401106101
 20
6782.737751071583
 30
0.0
 10
11764.23681392365
 20
6560.019437516757
 30
0.0
 10
11889.23681392365
 20
6560.019437516757
 30
0.0
340
2D714
1001
ACAD
1000
DSTYLE
1002
{
1070
   341
1005
0
1070
    40
1040
1.0
1070
   343
1005
0
1070
   344
1005
0
1002
}
  0
MTEXT
  5
2D714
102
{ACAD_REACTORS
330
2D713
102
}
330
747D
100
AcDbEntity
  8
部品1
 62
     7
 48
50.0
100
AcDbMText
 10
12063.82869701569
 20
6645.019437516757
 30
0.0
 40
120.0
 41
0.0
 71
     6
 72
     1
  1
CB
  7
STYLE1
 73
     1
 44
1.0
1001
ACAD
1000
MTEXTBEGIN
1070
    73
1070
     1
1070
    44
1040
1.0
1070
    74
1070
     0
1000
MTEXTEND
  0
LEADER
  5
2D715
330
747D
100
AcDbEntity
  8
寸法
 48
50.0
100
AcDbLeader
  3
INABA_S50G
 73
     0
 74
     0
 75
     1
 40
120.0
 41
994.3492424049171
 76
     3
 10
12380.680085757
 20
7431.636760941912
 30
0.0
 10
12554.64598830496
 20
7785.041660825709
 30
0.0
 10
12679.64598830496
 20
7785.041660825709
 30
0.0
340
2D716
1001
ACAD
1000
DSTYLE
1002
{
1070
   341
1005
0
1070
    40
1040
1.0
1070
   343
1005
0
1070
   344
1005
0
1002
}
  0
MTEXT
  5
2D716
102
{ACAD_REACTORS
330
2D715
102
}
330
747D
100
AcDbEntity
  8
部品1
 62
     7
 48
50.0
100
AcDbMText
 10
13698.99523070988
 20
7870.04166082571
 30
0.0
 40
120.0
 41
0.0
 71
     6
 72
     1
  1
アンカーボルト
  7
STYLE1
 73
     1
 44
1.0
1001
ACAD
1000
MTEXTBEGIN
1070
    73
1070
     1
1070
    44
1040
1.0
1070
    74
1070
     0
1000
MTEXTEND
  0
LEADER
  5
2D717
330
747D
100
AcDbEntity
  8
寸法
 48
50.0
100
AcDbLeader
  3
INABA_S50G
 73
     0
 74
     0
 75
     1
 40
120.0
 41
672.0
 76
     3
 10
12548.91624874528
 20
6338.625345522956
 30
0.0
 10
12664.85626093732
 20
6079.73600205938
 30
0.0
 10
12789.85626093732
 20
6079.73600205938
 30
0.0
340
2D718
1001
ACAD
1000
DSTYLE
1002
{
1070
   341
1005
0
1070
    40
1040
1.0
1070
   343
1005
0
1070
   344
1005
0
1002
}
  0
MTEXT
  5
2D718
102
{ACAD_REACTORS
330
2D717
102
}
330
747D
100
AcDbEntity
  8
部品1
 62
     7
 48
50.0
100
AcDbMText
 10
13486.85626093732
 20
6164.736002059381
 30
0.0
 40
120.0
 41
0.0
 71
     6
 72
     1
  1
\A1;屋根の外寸
  7
STYLE1
 73
     1
 44
1.0
1001
ACAD
1000
MTEXTBEGIN
1070
    73
1070
     1
1070
    44
1040
1.0
1070
    74
1070
     0
1000
MTEXTEND
  0
TEXT
  5
2D719
330
747D
100
AcDbEntity
  8
部品1
 48
50.0
100
AcDbText
 10
12689.06906494872
 20
5985.425315126306
 30
0.0
 40
80.0
  1
※a,b,cは屋根の出幅です。
  7
STYLE1
100
AcDbText
  0
TEXT
  5
2D71A
330
747D
100
AcDbEntity
  8
部品1
 48
50.0
100
AcDbText
 10
12847.64807370302
 20
5878.580094257552
 30
0.0
 40
80.0
  1
(a=45,b=55,c=75)
  7
STYLE1
100
AcDbText
  0
MTEXT
  5
2D71B
102
{ACAD_REACTORS
330
2D71C
102
}
330
747D
100
AcDbEntity
  8
部品1
 62
     7
 48
50.0
100
AcDbMText
 10
13531.83343157075
 20
6642.36673955072
 30
0.0
 40
120.0
 41
0.0
 71
     6
 72
     1
  1
\A1;床下換気口
  7
STYLE1
 73
     1
 44
1.0
1001
ACAD
1000
MTEXTBEGIN
1070
    73
1070
     1
1070
    44
1040
1.0
1070
    74
1070
     0
1000
MTEXTEND
  0
LEADER
  5
2D71C
330
747D
100
AcDbEntity
  8
寸法
 48
50.0
100
AcDbLeader
  3
INABA_S50G
 73
     0
 74
     0
 75
     1
 40
120.0
 41
720.0000000000001
 76
     3
 10
12505.05985718447
 20
6818.380653118552
 30
0.0
 10
12661.83343157075
 20
6557.36673955072
 30
0.0
 10
12786.83343157075
 20
6557.36673955072
 30
0.0
340
2D71B
1001
ACAD
1000
DSTYLE
1002
{
1070
   341
1005
0
1070
    40
1040
1.0
1070
   343
1005
0
1070
   344
1005
0
1002
}
  0
LINE
  5
2DC81
330
747D
100
AcDbEntity
  8
部品1
 48
50.0
100
AcDbLine
 10
12383.6
 20
7354.428916583201
 30
0.0
 11
8256.082594658236
 21
7354.428916583204
 31
0.0
  0
LINE
  5
2DC82
330
747D
100
AcDbEntity
  8
寸法
 48
50.0
100
AcDbLine
 10
8418.599985198232
 20
8037.037720951516
 30
0.0
 11
8698.599985198233
 21
8037.037720951516
 31
0.0
  0
TEXT
  5
2DC85
330
747D
100
AcDbEntity
  8
寸法
 48
50.0
100
AcDbText
 10
8557.402213926811
 20
6033.110207375937
 30
0.0
 40
120.0
  1
扉面
  7
STYLE1
100
AcDbText
  0
LINE
  5
2DC87
330
747D
100
AcDbEntity
  8
部品1
 48
50.0
100
AcDbLine
 10
12503.6
 20
6014.428916583217
 30
0.0
 11
8153.759885354411
 21
6014.428916583207
 31
0.0
  0
LINE
  5
2DC88
330
747D
100
AcDbEntity
  8
部品1
 48
50.0
100
AcDbLine
 10
12503.6
 20
7554.4289165832
 30
0.0
 11
8276.47747223685
 21
7554.428916583202
 31
0.0
  0
DIMENSION
  5
2DC89
330
747D
100
AcDbEntity
  8
寸法
 48
50.0
100
AcDbDimension
  2
*D26
 10
12503.6
 20
8512.649238642117
 30
0.0
 11
8223.600000000001
 21
8612.649238642118
 31
0.0
 70
    32
  1
N X 950+10
 71
     5
 42
8560.0
  3
INABA_S40G
100
AcDbAlignedDimension
 13
3943.600000000001
 23
7554.4289165832
 33
0.0
 14
12503.6
 24
7554.4289165832
 34
0.0
100
AcDbRotatedDimension
1001
ACAD
1000
DSTYLE
1002
{
1070
   341
1005
0
1002
}
  0
DIMENSION
  5
2DC8C
330
747D
100
AcDbEntity
  8
寸法
 48
50.0
100
AcDbDimension
  2
*D27
 10
6798.600000000007
 20
8037.037733253448
 30
0.0
 11
7273.600000000008
 21
8137.037733253448
 31
0.0
 70
    32
 71
     5
 42
950.0
  3
INABA_S40G
100
AcDbAlignedDimension
 13
7748.600000000007
 23
6871.4289165832
 33
0.0
 14
6798.600000000007
 24
6871.4289165832
 34
0.0
100
AcDbRotatedDimension
1001
ACAD
1000
DSTYLE
1002
{
1070
   341
1005
0
1002
}
  0
DIMENSION
  5
2DC8D
330
747D
100
AcDbEntity
  8
寸法
 48
50.0
100
AcDbDimension
  2
*D28
 10
4898.600000000008
 20
8037.037733253448
 30
0.0
 11
5373.600000000007
 21
8137.037733253448
 31
0.0
 70
    32
 71
     5
 42
950.0
  3
INABA_S40G
100
AcDbAlignedDimension
 13
5848.600000000008
 23
6871.4289165832
 33
0.0
 14
4898.600000000008
 24
6871.4289165832
 34
0.0
100
AcDbRotatedDimension
1001
ACAD
1000
DSTYLE
1002
{
1070
   341
1005
0
1002
}
  0
DIMENSION
  5
2DC8E
330
747D
100
AcDbEntity
  8
寸法
 48
50.0
100
AcDbDimension
  2
*D29
 10
4426.285990614302
 20
7554.4289165832
 30
0.0
 11
4426.2859906143
 21
7114.023707277375
 31
0.0
 70
   160
 71
     5
 42
733.0
  3
INABA_S40G
100
AcDbAlignedDimension
 13
4848.600000000008
 23
6821.4289165832
 33
0.0
 14
4517.7654751409
 24
7554.4289165832
 34
0.0
 50
90.0
100
AcDbRotatedDimension
1001
ACAD
1000
DSTYLE
1002
{
1070
   341
1005
0
1002
}
  0
DIMENSION
  5
2DC8F
330
747D
100
AcDbEntity
  8
寸法
 48
50.0
100
AcDbDimension
  2
*D30
 10
3943.600000000001
 20
8037.037733253448
 30
0.0
 11
4421.100000000004
 21
8137.037733253448
 31
0.0
 70
    32
 71
     5
 42
955.0000000000073
  3
INABA_S40G
100
AcDbAlignedDimension
 13
4898.600000000008
 23
6871.4289165832
 33
0.0
 14
3943.600000000001
 24
7554.4289165832
 34
0.0
100
AcDbRotatedDimension
1001
ACAD
1000
DSTYLE
1002
{
1070
   341
1005
0
1002
}
  0
DIMENSION
  5
2DC90
330
747D
100
AcDbEntity
  8
寸法
 48
50.0
100
AcDbDimension
  2
*D31
 10
3068.721909610674
 20
6014.4289165832
 30
0.0
 11
3068.721909610673
 21
6821.9289165832
 31
0.0
 70
   160
 71
     5
 42
1540.0
  3
INABA_S40G
100
AcDbAlignedDimension
 13
3943.600000000001
 23
7554.4289165832
 33
0.0
 14
3943.600000000001
 24
6014.4289165832
 34
0.0
 50
90.0
100
AcDbRotatedDimension
1001
ACAD
1000
DSTYLE
1002
{
1070
   341
1005
0
1002
}
  0
DIMENSION
  5
2DC91
330
747D
100
AcDbEntity
  8
寸法
 48
50.0
100
AcDbDimension
  2
*D32
 10
3320.665006330072
 20
6212.428916583203
 30
0.0
 11
3320.665006330071
 21
6821.9289165832
 31
0.0
 70
   160
 71
     5
 42
1218.999999999996
  3
INABA_S40G
100
AcDbAlignedDimension
 13
4016.6
 23
7431.428916583199
 33
0.0
 14
4016.600000000007
 24
6212.428916583203
 34
0.0
 50
90.0
100
AcDbRotatedDimension
1001
ACAD
1000
DSTYLE
1002
{
1070
   341
1005
0
1002
}
  0
LINE
  5
2DC94
102
{ACAD_REACTORS
330
2E60D
102
}
330
747D
100
AcDbEntity
  8
部品1
 48
50.0
100
AcDbLine
 10
3943.600000000001
 20
6014.4289165832
 30
0.0
 11
3943.600000000001
 21
7554.4289165832
 31
0.0
  0
DIMENSION
  5
2DC95
330
747D
100
AcDbEntity
  8
寸法
 48
50.0
100
AcDbDimension
  2
*D33
 10
5848.600000000008
 20
8037.037733253448
 30
0.0
 11
6323.600000000007
 21
8137.037733253448
 31
0.0
 70
    32
 71
     5
 42
950.0
  3
INABA_S40G
100
AcDbAlignedDimension
 13
6798.600000000007
 23
6871.4289165832
 33
0.0
 14
5848.600000000008
 24
6871.4289165832
 34
0.0
100
AcDbRotatedDimension
1001
ACAD
1000
DSTYLE
1002
{
1070
   341
1005
0
1002
}
  0
LINE
  5
2DC98
330
747D
100
AcDbEntity
  8
部品1
 48
50.0
100
AcDbLine
 10
8169.601803738407
 20
6014.428916583207
 30
0.0
 11
3943.599999999997
 21
6014.428916583196
 31
0.0
  0
DIMENSION
  5
2DC9A
330
747D
100
AcDbEntity
  8
寸法
 48
50.0
100
AcDbDimension
  2
*D34
 10
3320.665006330072
 20
6014.4289165832
 30
0.0
 11
3320.665006330071
 21
5678.897967740607
 31
0.0
 70
   160
 71
     5
 42
198.0000000000036
  3
INABA_S40G
100
AcDbAlignedDimension
 13
4016.600000000007
 23
6212.428916583203
 33
0.0
 14
3943.600000000001
 24
6014.4289165832
 34
0.0
 50
90.0
100
AcDbRotatedDimension
1001
ACAD
1000
DSTYLE
1002
{
1070
   341
1005
0
1002
}
  0
DIMENSION
  5
2DC9C
330
747D
100
AcDbEntity
  8
寸法
 48
50.0
100
AcDbDimension
  2
*D35
 10
3830.512673767883
 20
5294.428916583138
 30
0.0
 11
3830.512673767882
 21
5654.428916583139
 31
0.0
 70
   160
  1
扉の出<>
 71
     5
 42
720.0
  3
INABA_S40G
100
AcDbAlignedDimension
 13
3943.600000000004
 23
6014.428916583138
 33
0.0
 14
4299.325326928808
 24
5294.428916583138
 34
0.0
 50
90.0
100
AcDbRotatedDimension
1001
ACAD
1000
DSTYLE
1002
{
1070
   341
1005
0
1002
}
  0
LINE
  5
2DC9D
330
747D
100
AcDbEntity
  8
想像線
 48
5.0
100
AcDbLine
 10
4713.600000000004
 20
6014.428916583156
 30
0.0
 11
4713.600000000004
 21
5294.428916583145
 31
0.0
  0
ARC
  5
2DC9E
330
747D
100
AcDbEntity
  8
想像線
 48
5.0
100
AcDbCircle
 10
4713.600000000004
 20
6014.428916583145
 30
0.0
 40
720.0
100
AcDbArc
 50
180.0
 51
270.0
  0
LINE
  5
2DC9F
330
747D
100
AcDbEntity
  8
細線
 48
50.0
100
AcDbLine
 10
4323.6
 20
6192.933515871537
 30
0.0
 11
4425.095400711666
 21
6294.428916583196
 31
0.0
  0
LINE
  5
2DCA0
330
747D
100
AcDbEntity
  8
細線
 48
50.0
100
AcDbLine
 10
4323.6
 20
6237.834796476882
 30
0.0
 11
4380.194120106308
 21
6294.428916583196
 31
0.0
  0
LINE
  5
2DCA1
330
747D
100
AcDbEntity
  8
細線
 48
50.0
100
AcDbLine
 10
4324.700523133077
 20
6014.428916583222
 30
0.0
 11
4523.600000000002
 21
6213.328393450149
 31
0.0
  0
LINE
  5
2DCA2
330
747D
100
AcDbEntity
  8
細線
 48
50.0
100
AcDbLine
 10
4323.600000000002
 20
6058.229674055493
 30
0.0
 11
4523.600000000002
 21
6258.229674055495
 31
0.0
  0
LINE
  5
2DCA3
330
747D
100
AcDbEntity
  8
細線
 48
50.0
100
AcDbLine
 10
4323.6
 20
6103.130954660839
 30
0.0
 11
4514.89796192236
 21
6294.428916583198
 31
0.0
  0
LINE
  5
2DCA4
330
747D
100
AcDbEntity
  8
細線
 48
50.0
100
AcDbLine
 10
4323.600000000002
 20
6148.032235266184
 30
0.0
 11
4469.996681316998
 21
6294.428916583196
 31
0.0
  0
DIMENSION
  5
2DCA5
330
747D
100
AcDbEntity
  8
寸法
 48
50.0
100
AcDbDimension
  2
*D36
 10
4426.285990614302
 20
6821.4289165832
 30
0.0
 11
4426.2859906143
 21
6499.4289165832
 31
0.0
 70
   160
 71
     5
 42
806.999999999989
  3
INABA_S40G
100
AcDbAlignedDimension
 13
4517.7654751409
 23
6014.42891658321
 33
0.0
 14
4848.600000000008
 24
6821.4289165832
 34
0.0
 50
90.0
100
AcDbRotatedDimension
1001
ACAD
1000
DSTYLE
1002
{
1070
   341
1005
0
1002
}
  0
LINE
  5
2DCA6
330
747D
100
AcDbEntity
  8
部品1
 48
50.0
100
AcDbLine
 10
4323.6
 20
6294.428916583196
 30
0.0
 11
4323.6
 21
6014.428916583225
 31
0.0
  0
LINE
  5
2DCA7
330
747D
100
AcDbEntity
  8
センター
 48
2.0
100
AcDbLine
 10
4066.600000000007
 20
6262.428916583203
 30
0.0
 11
4066.600000000007
 21
6162.428916583203
 31
0.0
  0
LINE
  5
2DCA8
330
747D
100
AcDbEntity
  8
センター
 48
2.0
100
AcDbLine
 10
4016.600000000007
 20
6212.428916583203
 30
0.0
 11
4116.600000000008
 21
6212.428916583203
 31
0.0
  0
CIRCLE
  5
2DCA9
330
747D
100
AcDbEntity
  8
部品1
 48
50.0
100
AcDbCircle
 10
4066.599999999993
 20
6212.428916583203
 30
0.0
 40
35.0
  0
LINE
  5
2DCAA
102
{ACAD_REACTORS
330
2E60D
102
}
330
747D
100
AcDbEntity
  8
部品1
 48
50.0
100
AcDbLine
 10
4063.599999999997
 20
6909.42891658322
 30
0.0
 11
3943.599999999993
 21
6909.428916583218
 31
0.0
  0
LINE
  5
2DCAB
102
{ACAD_REACTORS
330
2E60D
102
}
330
747D
100
AcDbEntity
  8
部品1
 48
50.0
100
AcDbLine
 10
4063.599999999999
 20
6709.428916583218
 30
0.0
 11
3943.599999999993
 21
6709.428916583218
 31
0.0
  0
LINE
  5
2DCAD
330
747D
100
AcDbEntity
  8
部品1
 48
50.0
100
AcDbLine
 10
4523.6
 20
6294.428916583196
 30
0.0
 11
4523.6
 21
6014.428916583229
 31
0.0
  0
LINE
  5
2DCAE
330
747D
100
AcDbEntity
  8
細線
 48
50.0
100
AcDbLine
 10
4459.404364949116
 20
6014.428916583225
 30
0.0
 11
4523.600000000006
 21
6078.624551634115
 31
0.0
  0
LINE
  5
2DCAF
330
747D
100
AcDbEntity
  8
細線
 48
50.0
100
AcDbLine
 10
4414.503084343769
 20
6014.428916583224
 30
0.0
 11
4523.600000000002
 21
6123.525832239458
 31
0.0
  0
LINE
  5
2DCB0
330
747D
100
AcDbEntity
  8
細線
 48
50.0
100
AcDbLine
 10
4369.601803738421
 20
6014.428916583224
 30
0.0
 11
4523.600000000002
 21
6168.4271128448
 31
0.0
  0
LINE
  5
2DCB1
330
747D
100
AcDbEntity
  8
細線
 48
50.0
100
AcDbLine
 10
4504.305645554462
 20
6014.428916583227
 30
0.0
 11
4523.600000000006
 21
6033.72327102877
 31
0.0
  0
LINE
  5
2DCB2
330
747D
100
AcDbEntity
  8
部品1
 48
50.0
100
AcDbLine
 10
4998.600000000007
 20
6921.4289165832
 30
0.0
 11
4798.600000000007
 21
6921.4289165832
 31
0.0
  0
LINE
  5
2DCB3
330
747D
100
AcDbEntity
  8
部品1
 48
50.0
100
AcDbLine
 10
4998.600000000007
 20
6721.428916583199
 30
0.0
 11
4798.600000000007
 21
6721.428916583199
 31
0.0
  0
LINE
  5
2DCB4
330
747D
100
AcDbEntity
  8
部品1
 48
50.0
100
AcDbLine
 10
4798.600000000007
 20
6721.428916583199
 30
0.0
 11
4798.600000000007
 21
6921.4289165832
 31
0.0
  0
LINE
  5
2DCB5
330
747D
100
AcDbEntity
  8
センター
 48
2.0
100
AcDbLine
 10
4898.600000000008
 20
6871.4289165832
 30
0.0
 11
4898.600000000008
 21
6771.4289165832
 31
0.0
  0
LINE
  5
2DCB6
330
747D
100
AcDbEntity
  8
センター
 48
2.0
100
AcDbLine
 10
4848.600000000008
 20
6821.4289165832
 30
0.0
 11
4948.600000000007
 21
6821.4289165832
 31
0.0
  0
LINE
  5
2DCB7
330
747D
100
AcDbEntity
  8
部品1
 48
50.0
100
AcDbLine
 10
4998.600000000007
 20
6721.428916583199
 30
0.0
 11
4998.600000000007
 21
6921.4289165832
 31
0.0
  0
LINE
  5
2DCB8
330
747D
100
AcDbEntity
  8
部品1
 48
50.0
100
AcDbLine
 10
6898.600000000008
 20
6721.428916583199
 30
0.0
 11
6698.600000000007
 21
6721.428916583199
 31
0.0
  0
LINE
  5
2DCB9
330
747D
100
AcDbEntity
  8
部品1
 48
50.0
100
AcDbLine
 10
6898.600000000008
 20
6921.4289165832
 30
0.0
 11
6698.600000000007
 21
6921.4289165832
 31
0.0
  0
LINE
  5
2DCBA
330
747D
100
AcDbEntity
  8
センター
 48
2.0
100
AcDbLine
 10
6748.600000000007
 20
6821.4289165832
 30
0.0
 11
6848.600000000008
 21
6821.4289165832
 31
0.0
  0
LINE
  5
2DCC7
330
747D
100
AcDbEntity
  8
部品1
 48
50.0
100
AcDbLine
 10
5948.600000000007
 20
6721.428916583199
 30
0.0
 11
5748.600000000007
 21
6721.428916583199
 31
0.0
  0
LINE
  5
2DCC8
330
747D
100
AcDbEntity
  8
部品1
 48
50.0
100
AcDbLine
 10
5948.600000000007
 20
6921.4289165832
 30
0.0
 11
5748.600000000007
 21
6921.4289165832
 31
0.0
  0
LINE
  5
2DCC9
330
747D
100
AcDbEntity
  8
部品1
 48
50.0
100
AcDbLine
 10
5748.600000000007
 20
6721.428916583199
 30
0.0
 11
5748.600000000007
 21
6921.4289165832
 31
0.0
  0
LINE
  5
2DCCA
330
747D
100
AcDbEntity
  8
部品1
 48
50.0
100
AcDbLine
 10
5948.600000000007
 20
6721.428916583199
 30
0.0
 11
5948.600000000007
 21
6921.4289165832
 31
0.0
  0
LINE
  5
2DCCB
330
747D
100
AcDbEntity
  8
センター
 48
2.0
100
AcDbLine
 10
5798.600000000007
 20
6821.4289165832
 30
0.0
 11
5898.600000000008
 21
6821.4289165832
 31
0.0
  0
LINE
  5
2DCCC
330
747D
100
AcDbEntity
  8
センター
 48
2.0
100
AcDbLine
 10
5848.600000000008
 20
6871.4289165832
 30
0.0
 11
5848.600000000008
 21
6771.4289165832
 31
0.0
  0
CIRCLE
  5
2DCD9
330
747D
100
AcDbEntity
  8
部品1
 48
50.0
100
AcDbCircle
 10
6680.600000000008
 20
6212.428916583203
 30
0.0
 40
35.0
  0
LINE
  5
2DCDA
330
747D
100
AcDbEntity
  8
センター
 48
2.0
100
AcDbLine
 10
6630.600000000008
 20
6212.428916583203
 30
0.0
 11
6730.600000000008
 21
6212.428916583203
 31
0.0
  0
LINE
  5
2DCDB
330
747D
100
AcDbEntity
  8
センター
 48
2.0
100
AcDbLine
 10
6680.600000000008
 20
6262.428916583203
 30
0.0
 11
6680.600000000008
 21
6162.428916583203
 31
0.0
  0
LINE
  5
2DCDC
330
747D
100
AcDbEntity
  8
センター
 48
2.0
100
AcDbLine
 10
6798.600000000007
 20
6871.4289165832
 30
0.0
 11
6798.600000000007
 21
6771.4289165832
 31
0.0
  0
LINE
  5
2DCDD
330
747D
100
AcDbEntity
  8
部品1
 48
50.0
100
AcDbLine
 10
6698.600000000007
 20
6721.428916583199
 30
0.0
 11
6698.600000000007
 21
6921.4289165832
 31
0.0
  0
LINE
  5
2DCEC
330
747D
100
AcDbEntity
  8
部品1
 48
50.0
100
AcDbLine
 10
6898.600000000008
 20
6721.428916583199
 30
0.0
 11
6898.600000000008
 21
6921.4289165832
 31
0.0
  0
LINE
  5
2DCFC
330
747D
100
AcDbEntity
  8
部品1
 48
50.0
100
AcDbLine
 10
7848.600000000008
 20
6921.4289165832
 30
0.0
 11
7648.600000000008
 21
6921.4289165832
 31
0.0
  0
LINE
  5
2DCFD
330
747D
100
AcDbEntity
  8
部品1
 48
50.0
100
AcDbLine
 10
7848.600000000008
 20
6721.428916583199
 30
0.0
 11
7648.600000000008
 21
6721.428916583199
 31
0.0
  0
LINE
  5
2DCFE
330
747D
100
AcDbEntity
  8
部品1
 48
50.0
100
AcDbLine
 10
7648.600000000008
 20
6721.428916583199
 30
0.0
 11
7648.600000000008
 21
6921.4289165832
 31
0.0
  0
LINE
  5
2DCFF
330
747D
100
AcDbEntity
  8
センター
 48
2.0
100
AcDbLine
 10
7748.600000000007
 20
6871.4289165832
 30
0.0
 11
7748.600000000007
 21
6771.4289165832
 31
0.0
  0
LINE
  5
2DD00
330
747D
100
AcDbEntity
  8
センター
 48
2.0
100
AcDbLine
 10
7698.600000000007
 20
6821.4289165832
 30
0.0
 11
7798.600000000007
 21
6821.4289165832
 31
0.0
  0
LINE
  5
2DD01
330
747D
100
AcDbEntity
  8
部品1
 48
50.0
100
AcDbLine
 10
7848.600000000008
 20
6721.428916583199
 30
0.0
 11
7848.600000000008
 21
6921.4289165832
 31
0.0
  0
LINE
  5
2DD09
330
747D
100
AcDbEntity
  8
部品1
 48
50.0
100
AcDbLine
 10
8288.995155783409
 20
7354.428916583204
 30
0.0
 11
4063.599999999994
 21
7354.428916583201
 31
0.0
  0
LINE
  5
2DD0A
330
747D
100
AcDbEntity
  8
部品1
 48
50.0
100
AcDbLine
 10
8315.200704228635
 20
7554.4289165832
 30
0.0
 11
3943.600000000001
 21
7554.4289165832
 31
0.0
  0
DIMENSION
  5
2DD0B
330
747D
100
AcDbEntity
  8
寸法
 48
50.0
100
AcDbDimension
  2
*D37
 10
4066.6
 20
8280.69537467711
 30
0.0
 11
5373.6
 21
8380.707185700734
 31
0.0
 70
    32
 71
     5
 42
2614.0
  3
INABA_S40G
100
AcDbAlignedDimension
 13
6680.600000000001
 23
7481.428916583199
 33
0.0
 14
4066.6
 24
7481.428916583199
 34
0.0
100
AcDbRotatedDimension
1001
ACAD
1000
DSTYLE
1002
{
1070
   341
1005
0
1002
}
  0
DIMENSION
  5
2DD0E
330
747D
100
AcDbEntity
  8
寸法
 48
50.0
100
AcDbDimension
  2
*D38
 10
3320.665006330073
 20
7431.428916583199
 30
0.0
 11
3320.665006330071
 21
7827.535518300999
 31
0.0
 70
   160
 71
     5
 42
123.0
  3
INABA_S40G
100
AcDbAlignedDimension
 13
3943.600000000001
 23
7554.4289165832
 33
0.0
 14
4016.6
 24
7431.428916583199
 34
0.0
 50
90.0
100
AcDbRotatedDimension
1001
ACAD
1000
DSTYLE
1002
{
1070
   341
1005
0
1002
}
  0
DIMENSION
  5
2DD0F
330
747D
100
AcDbEntity
  8
寸法
 48
50.0
100
AcDbDimension
  2
*D39
 10
3943.600000000001
 20
8280.69537467711
 30
0.0
 11
3670.493398282202
 21
8280.69537467711
 31
0.0
 70
   160
 71
     5
 42
123.0
  3
INABA_S40G
100
AcDbAlignedDimension
 13
4066.6
 23
7481.428916583199
 33
0.0
 14
3943.600000000001
 24
7554.4289165832
 34
0.0
100
AcDbRotatedDimension
1001
ACAD
1000
DSTYLE
1002
{
1070
   341
1005
0
1002
}
  0
LINE
  5
2DD11
330
747D
100
AcDbEntity
  8
細線
 48
50.0
100
AcDbLine
 10
4323.600000000009
 20
7356.650163741019
 30
0.0
 11
4521.378752842196
 21
7554.428916583204
 31
0.0
  0
LINE
  5
2DD12
330
747D
100
AcDbEntity
  8
細線
 48
50.0
100
AcDbLine
 10
4323.600000000006
 20
7401.551444346363
 30
0.0
 11
4476.477472236851
 21
7554.428916583204
 31
0.0
  0
LINE
  5
2DD13
330
747D
100
AcDbEntity
  8
細線
 48
50.0
100
AcDbLine
 10
4323.600000000006
 20
7446.452724951704
 30
0.0
 11
4431.576191631505
 21
7554.428916583204
 31
0.0
  0
LINE
  5
2DD14
330
747D
100
AcDbEntity
  8
細線
 48
50.0
100
AcDbLine
 10
4323.600000000002
 20
7491.354005557046
 30
0.0
 11
4386.674911026158
 21
7554.428916583204
 31
0.0
  0
LINE
  5
2DD15
330
747D
100
AcDbEntity
  8
部品1
 48
50.0
100
AcDbLine
 10
4323.6
 20
7554.428916583207
 30
0.0
 11
4323.600000000009
 21
7354.428916583201
 31
0.0
  0
LINE
  5
2DD16
330
747D
100
AcDbEntity
  8
センター
 48
2.0
100
AcDbLine
 10
4066.6
 20
7481.428916583199
 30
0.0
 11
4066.6
 21
7381.4289165832
 31
0.0
  0
CIRCLE
  5
2DD17
330
747D
100
AcDbEntity
  8
部品1
 48
50.0
100
AcDbCircle
 10
4066.6
 20
7431.428916583199
 30
0.0
 40
35.0
  0
LINE
  5
2DD18
330
747D
100
AcDbEntity
  8
センター
 48
2.0
100
AcDbLine
 10
4016.6
 20
7431.428916583199
 30
0.0
 11
4116.6
 21
7431.428916583199
 31
0.0
  0
LINE
  5
2DD19
330
747D
100
AcDbEntity
  8
細線
 48
50.0
100
AcDbLine
 10
4323.600000000002
 20
7536.25528616239
 30
0.0
 11
4341.773630420814
 21
7554.428916583204
 31
0.0
  0
LINE
  5
2DD1A
330
747D
100
AcDbEntity
  8
部品1
 48
50.0
100
AcDbLine
 10
4523.6
 20
7554.428916583207
 30
0.0
 11
4523.600000000009
 21
7354.428916583201
 31
0.0
  0
LINE
  5
2DD1B
330
747D
100
AcDbEntity
  8
細線
 48
50.0
100
AcDbLine
 10
4456.082594658226
 20
7354.428916583199
 30
0.0
 11
4523.600000000006
 21
7421.946321924979
 31
0.0
  0
LINE
  5
2DD1C
330
747D
100
AcDbEntity
  8
細線
 48
50.0
100
AcDbLine
 10
4500.983875263564
 20
7354.428916583201
 30
0.0
 11
4523.600000000006
 21
7377.04504131964
 31
0.0
  0
LINE
  5
2DD1D
330
747D
100
AcDbEntity
  8
細線
 48
50.0
100
AcDbLine
 10
4411.18131405287
 20
7354.428916583201
 30
0.0
 11
4523.600000000002
 21
7466.847602530314
 31
0.0
  0
LINE
  5
2DD1E
330
747D
100
AcDbEntity
  8
細線
 48
50.0
100
AcDbLine
 10
4366.280033447544
 20
7354.428916583201
 30
0.0
 11
4523.600000000002
 21
7511.748883135663
 31
0.0
  0
LINE
  5
2DD1F
330
747D
100
AcDbEntity
  8
寸法
 48
50.0
100
AcDbLine
 10
6680.599985198225
 20
8280.695362375068
 30
0.0
 11
7380.644540020296
 21
8280.695362375068
 31
0.0
  0
LINE
  5
2DD20
330
747D
100
AcDbEntity
  8
細線
 48
50.0
100
AcDbLine
 10
5273.600000000002
 20
7491.354005557046
 30
0.0
 11
5336.674911026159
 21
7554.428916583204
 31
0.0
  0
LINE
  5
2DD21
330
747D
100
AcDbEntity
  8
細線
 48
50.0
100
AcDbLine
 10
5273.600000000006
 20
7446.452724951704
 30
0.0
 11
5381.576191631506
 21
7554.428916583204
 31
0.0
  0
LINE
  5
2DD22
330
747D
100
AcDbEntity
  8
部品1
 48
50.0
100
AcDbLine
 10
5273.6
 20
7554.428916583207
 30
0.0
 11
5273.600000000009
 21
7354.428916583201
 31
0.0
  0
LINE
  5
2DD23
330
747D
100
AcDbEntity
  8
部品1
 48
50.0
100
AcDbLine
 10
5473.600000000001
 20
7554.428916583207
 30
0.0
 11
5473.60000000001
 21
7354.428916583201
 31
0.0
  0
LINE
  5
2DD24
330
747D
100
AcDbEntity
  8
細線
 48
50.0
100
AcDbLine
 10
5273.600000000006
 20
7401.551444346363
 30
0.0
 11
5426.477472236851
 21
7554.428916583204
 31
0.0
  0
LINE
  5
2DD25
330
747D
100
AcDbEntity
  8
細線
 48
50.0
100
AcDbLine
 10
5273.600000000009
 20
7356.650163741019
 30
0.0
 11
5471.378752842196
 21
7554.428916583204
 31
0.0
  0
LINE
  5
2DD26
330
747D
100
AcDbEntity
  8
細線
 48
50.0
100
AcDbLine
 10
5316.280033447544
 20
7354.428916583201
 30
0.0
 11
5473.600000000002
 21
7511.748883135663
 31
0.0
  0
LINE
  5
2DD27
330
747D
100
AcDbEntity
  8
細線
 48
50.0
100
AcDbLine
 10
5361.181314052871
 20
7354.428916583201
 30
0.0
 11
5473.600000000002
 21
7466.847602530314
 31
0.0
  0
LINE
  5
2DD28
330
747D
100
AcDbEntity
  8
細線
 48
50.0
100
AcDbLine
 10
5450.983875263564
 20
7354.428916583201
 30
0.0
 11
5473.600000000006
 21
7377.04504131964
 31
0.0
  0
LINE
  5
2DD29
330
747D
100
AcDbEntity
  8
細線
 48
50.0
100
AcDbLine
 10
5406.082594658226
 20
7354.428916583199
 30
0.0
 11
5473.600000000006
 21
7421.946321924979
 31
0.0
  0
LINE
  5
2DD2A
330
747D
100
AcDbEntity
  8
細線
 48
50.0
100
AcDbLine
 10
5273.600000000002
 20
7536.25528616239
 30
0.0
 11
5291.773630420814
 21
7554.428916583204
 31
0.0
  0
LINE
  5
2DD2B
330
747D
100
AcDbEntity
  8
部品1
 48
50.0
100
AcDbLine
 10
6423.6
 20
7554.428916583207
 30
0.0
 11
6423.600000000007
 21
7354.428916583201
 31
0.0
  0
LINE
  5
2DD2C
330
747D
100
AcDbEntity
  8
細線
 48
50.0
100
AcDbLine
 10
6223.600000000006
 20
7446.452724951704
 30
0.0
 11
6331.576191631506
 21
7554.428916583204
 31
0.0
  0
LINE
  5
2DD2D
330
747D
100
AcDbEntity
  8
細線
 48
50.0
100
AcDbLine
 10
6223.600000000004
 20
7491.354005557046
 30
0.0
 11
6286.67491102616
 21
7554.428916583204
 31
0.0
  0
LINE
  5
2DD2E
330
747D
100
AcDbEntity
  8
部品1
 48
50.0
100
AcDbLine
 10
6223.600000000001
 20
7554.428916583207
 30
0.0
 11
6223.60000000001
 21
7354.428916583201
 31
0.0
  0
LINE
  5
2DD2F
330
747D
100
AcDbEntity
  8
細線
 48
50.0
100
AcDbLine
 10
6223.600000000011
 20
7356.650163741019
 30
0.0
 11
6421.378752842199
 21
7554.428916583204
 31
0.0
  0
LINE
  5
2DD30
330
747D
100
AcDbEntity
  8
細線
 48
50.0
100
AcDbLine
 10
6223.600000000008
 20
7401.551444346363
 30
0.0
 11
6376.477472236851
 21
7554.428916583204
 31
0.0
  0
LINE
  5
2DD32
330
747D
100
AcDbEntity
  8
細線
 48
50.0
100
AcDbLine
 10
6311.18131405287
 20
7354.428916583201
 30
0.0
 11
6423.600000000002
 21
7466.847602530314
 31
0.0
  0
LINE
  5
2DD33
330
747D
100
AcDbEntity
  8
細線
 48
50.0
100
AcDbLine
 10
6266.280033447541
 20
7354.428916583201
 30
0.0
 11
6423.600000000002
 21
7511.748883135663
 31
0.0
  0
LINE
  5
2DD34
330
747D
100
AcDbEntity
  8
細線
 48
50.0
100
AcDbLine
 10
6356.082594658229
 20
7354.428916583199
 30
0.0
 11
6423.600000000004
 21
7421.946321924979
 31
0.0
  0
LINE
  5
2DD35
330
747D
100
AcDbEntity
  8
細線
 48
50.0
100
AcDbLine
 10
6400.983875263564
 20
7354.428916583201
 30
0.0
 11
6423.600000000007
 21
7377.04504131964
 31
0.0
  0
LINE
  5
2DD36
330
747D
100
AcDbEntity
  8
センター
 48
2.0
100
AcDbLine
 10
6630.600000000001
 20
7431.428916583199
 30
0.0
 11
6730.600000000001
 21
7431.428916583199
 31
0.0
  0
CIRCLE
  5
2DD37
330
747D
100
AcDbEntity
  8
部品1
 48
50.0
100
AcDbCircle
 10
6680.600000000001
 20
7431.428916583199
 30
0.0
 40
35.0
  0
LINE
  5
2DD38
330
747D
100
AcDbEntity
  8
センター
 48
2.0
100
AcDbLine
 10
6680.600000000001
 20
7481.428916583199
 30
0.0
 11
6680.600000000001
 21
7381.4289165832
 31
0.0
  0
LINE
  5
2DD39
330
747D
100
AcDbEntity
  8
細線
 48
50.0
100
AcDbLine
 10
6223.600000000002
 20
7536.25528616239
 30
0.0
 11
6241.773630420814
 21
7554.428916583204
 31
0.0
  0
LINE
  5
2DD3B
330
747D
100
AcDbEntity
  8
部品1
 48
50.0
100
AcDbLine
 10
7373.6
 20
7554.428916583207
 30
0.0
 11
7373.600000000007
 21
7354.428916583201
 31
0.0
  0
LINE
  5
2DD3C
330
747D
100
AcDbEntity
  8
部品1
 48
50.0
100
AcDbLine
 10
7173.6
 20
7554.428916583207
 30
0.0
 11
7173.600000000009
 21
7354.428916583201
 31
0.0
  0
LINE
  5
2DD3D
330
747D
100
AcDbEntity
  8
細線
 48
50.0
100
AcDbLine
 10
7173.600000000007
 20
7401.551444346363
 30
0.0
 11
7326.477472236851
 21
7554.428916583204
 31
0.0
  0
LINE
  5
2DD3E
330
747D
100
AcDbEntity
  8
細線
 48
50.0
100
AcDbLine
 10
7173.600000000011
 20
7356.650163741019
 30
0.0
 11
7371.378752842199
 21
7554.428916583204
 31
0.0
  0
LINE
  5
2DD3F
330
747D
100
AcDbEntity
  8
細線
 48
50.0
100
AcDbLine
 10
7173.600000000004
 20
7491.354005557046
 30
0.0
 11
7236.674911026161
 21
7554.428916583204
 31
0.0
  0
LINE
  5
2DD40
330
747D
100
AcDbEntity
  8
細線
 48
50.0
100
AcDbLine
 10
7173.600000000006
 20
7446.452724951704
 30
0.0
 11
7281.576191631505
 21
7554.428916583204
 31
0.0
  0
LINE
  5
2DD41
330
747D
100
AcDbEntity
  8
細線
 48
50.0
100
AcDbLine
 10
7306.082594658228
 20
7354.428916583199
 30
0.0
 11
7373.600000000005
 21
7421.946321924979
 31
0.0
  0
LINE
  5
2DD42
330
747D
100
AcDbEntity
  8
細線
 48
50.0
100
AcDbLine
 10
7350.983875263565
 20
7354.428916583201
 30
0.0
 11
7373.600000000007
 21
7377.04504131964
 31
0.0
  0
LINE
  5
2DD43
330
747D
100
AcDbEntity
  8
細線
 48
50.0
100
AcDbLine
 10
7216.280033447542
 20
7354.428916583201
 30
0.0
 11
7373.600000000002
 21
7511.748883135663
 31
0.0
  0
LINE
  5
2DD44
330
747D
100
AcDbEntity
  8
細線
 48
50.0
100
AcDbLine
 10
7261.181314052871
 20
7354.428916583201
 30
0.0
 11
7373.600000000002
 21
7466.847602530314
 31
0.0
  0
LINE
  5
2DD45
330
747D
100
AcDbEntity
  8
細線
 48
50.0
100
AcDbLine
 10
7173.600000000002
 20
7536.25528616239
 30
0.0
 11
7191.773630420813
 21
7554.428916583204
 31
0.0
  0
LINE
  5
2DD4A
330
747D
100
AcDbEntity
  8
部品1
 48
50.0
100
AcDbLine
 10
8123.600000000001
 20
7554.428916583207
 30
0.0
 11
8123.600000000008
 21
7354.428916583201
 31
0.0
  0
LINE
  5
2DD4E
330
747D
100
AcDbEntity
  8
寸法
 48
50.0
100
AcDbLine
 10
7748.599985198232
 20
8037.037720951401
 30
0.0
 11
8028.599985198232
 21
8037.037720951401
 31
0.0
  0
DIMENSION
  5
2DD51
330
747D
100
AcDbEntity
  8
寸法
 48
50.0
100
AcDbDimension
  2
*D40
 10
10598.60000000001
 20
8037.037733253448
 30
0.0
 11
11073.60000000001
 21
8137.037733253448
 31
0.0
 70
    32
 71
     5
 42
950.0
  3
INABA_S40G
100
AcDbAlignedDimension
 13
11548.60000000001
 23
6871.4289165832
 33
0.0
 14
10598.60000000001
 24
6871.4289165832
 34
0.0
100
AcDbRotatedDimension
1001
ACAD
1000
DSTYLE
1002
{
1070
   341
1005
0
1002
}
  0
DIMENSION
  5
2DD52
330
747D
100
AcDbEntity
  8
寸法
 48
50.0
100
AcDbDimension
  2
*D41
 10
11548.60000000001
 20
8037.037733253448
 30
0.0
 11
12026.1
 21
8137.037733253448
 31
0.0
 70
    32
 71
     5
 42
954.9999999999927
  3
INABA_S40G
100
AcDbAlignedDimension
 13
12503.6
 23
7554.4289165832
 33
0.0
 14
11548.60000000001
 24
6871.4289165832
 34
0.0
100
AcDbRotatedDimension
1001
ACAD
1000
DSTYLE
1002
{
1070
   341
1005
0
1002
}
  0
LINE
  5
2DD55
102
{ACAD_REACTORS
330
2E5FC
102
}
330
747D
100
AcDbEntity
  8
部品1
 48
50.0
100
AcDbLine
 10
12503.6
 20
6014.428916583217
 30
0.0
 11
12503.6
 21
7554.4289165832
 31
0.0
  0
DIMENSION
  5
2DD56
330
747D
100
AcDbEntity
  8
寸法
 48
50.0
100
AcDbDimension
  2
*D42
 10
8698.600000000007
 20
8037.037733253448
 30
0.0
 11
9173.600000000007
 21
8137.037733253448
 31
0.0
 70
    32
 71
     5
 42
950.0
  3
INABA_S40G
100
AcDbAlignedDimension
 13
9648.600000000008
 23
6871.4289165832
 33
0.0
 14
8698.600000000007
 24
6871.4289165832
 34
0.0
100
AcDbRotatedDimension
1001
ACAD
1000
DSTYLE
1002
{
1070
   341
1005
0
1002
}
  0
DIMENSION
  5
2DD57
330
747D
100
AcDbEntity
  8
寸法
 48
50.0
100
AcDbDimension
  2
*D43
 10
9648.600000000008
 20
8037.037733253448
 30
0.0
 11
10123.60000000001
 21
8137.037733253448
 31
0.0
 70
    32
 71
     5
 42
950.0
  3
INABA_S40G
100
AcDbAlignedDimension
 13
10598.60000000001
 23
6871.4289165832
 33
0.0
 14
9648.600000000008
 24
6871.4289165832
 34
0.0
100
AcDbRotatedDimension
1001
ACAD
1000
DSTYLE
1002
{
1070
   341
1005
0
1002
}
  0
LINE
  5
2DD60
330
747D
100
AcDbEntity
  8
細線
 48
50.0
100
AcDbLine
 10
9254.305645554463
 20
6014.428916583227
 30
0.0
 11
9273.600000000007
 21
6033.72327102877
 31
0.0
  0
LINE
  5
2DD61
330
747D
100
AcDbEntity
  8
細線
 48
50.0
100
AcDbLine
 10
9164.503084343769
 20
6014.428916583224
 30
0.0
 11
9273.600000000005
 21
6123.525832239458
 31
0.0
  0
LINE
  5
2DD62
330
747D
100
AcDbEntity
  8
細線
 48
50.0
100
AcDbLine
 10
9119.601803738422
 20
6014.428916583224
 30
0.0
 11
9273.6
 21
6168.4271128448
 31
0.0
  0
LINE
  5
2DD63
330
747D
100
AcDbEntity
  8
細線
 48
50.0
100
AcDbLine
 10
9074.700523133078
 20
6014.428916583222
 30
0.0
 11
9273.6
 21
6213.328393450149
 31
0.0
  0
LINE
  5
2DD64
330
747D
100
AcDbEntity
  8
細線
 48
50.0
100
AcDbLine
 10
9073.6
 20
6058.229674055493
 30
0.0
 11
9273.600000000001
 21
6258.229674055495
 31
0.0
  0
LINE
  5
2DD65
330
747D
100
AcDbEntity
  8
細線
 48
50.0
100
AcDbLine
 10
9209.404364949115
 20
6014.428916583225
 30
0.0
 11
9273.600000000007
 21
6078.624551634115
 31
0.0
  0
LINE
  5
2DD66
330
747D
100
AcDbEntity
  8
部品1
 48
50.0
100
AcDbLine
 10
9073.6
 20
6294.428916583209
 30
0.0
 11
9073.6
 21
6014.428916583225
 31
0.0
  0
LINE
  5
2DD67
330
747D
100
AcDbEntity
  8
細線
 48
50.0
100
AcDbLine
 10
9073.6
 20
6103.130954660839
 30
0.0
 11
9264.897961922372
 21
6294.42891658321
 31
0.0
  0
LINE
  5
2DD68
330
747D
100
AcDbEntity
  8
細線
 48
50.0
100
AcDbLine
 10
9073.600000000002
 20
6148.032235266184
 30
0.0
 11
9219.996681317011
 21
6294.428916583211
 31
0.0
  0
LINE
  5
2DD69
330
747D
100
AcDbEntity
  8
細線
 48
50.0
100
AcDbLine
 10
9073.6
 20
6237.834796476882
 30
0.0
 11
9130.194120106322
 21
6294.428916583209
 31
0.0
  0
LINE
  5
2DD6A
330
747D
100
AcDbEntity
  8
細線
 48
50.0
100
AcDbLine
 10
9073.6
 20
6192.933515871537
 30
0.0
 11
9175.095400711674
 21
6294.428916583208
 31
0.0
  0
LINE
  5
2DD6B
330
747D
100
AcDbEntity
  8
センター
 48
2.0
100
AcDbLine
 10
8648.600000000007
 20
6821.4289165832
 30
0.0
 11
8748.600000000008
 21
6821.4289165832
 31
0.0
  0
LINE
  5
2DD6C
330
747D
100
AcDbEntity
  8
部品1
 48
50.0
100
AcDbLine
 10
8798.600000000007
 20
6721.428916583199
 30
0.0
 11
8598.600000000008
 21
6721.428916583199
 31
0.0
  0
LINE
  5
2DD6D
330
747D
100
AcDbEntity
  8
部品1
 48
50.0
100
AcDbLine
 10
8798.600000000007
 20
6921.4289165832
 30
0.0
 11
8598.600000000008
 21
6921.4289165832
 31
0.0
  0
LINE
  5
2DD6E
330
747D
100
AcDbEntity
  8
部品1
 48
50.0
100
AcDbLine
 10
8598.600000000008
 20
6721.428916583199
 30
0.0
 11
8598.600000000008
 21
6921.4289165832
 31
0.0
  0
LINE
  5
2DD6F
330
747D
100
AcDbEntity
  8
センター
 48
2.0
100
AcDbLine
 10
8698.600000000007
 20
6871.4289165832
 30
0.0
 11
8698.600000000007
 21
6771.4289165832
 31
0.0
  0
LINE
  5
2DD70
330
747D
100
AcDbEntity
  8
部品1
 48
50.0
100
AcDbLine
 10
8798.600000000007
 20
6721.428916583199
 30
0.0
 11
8798.600000000007
 21
6921.4289165832
 31
0.0
  0
LINE
  5
2DD71
330
747D
100
AcDbEntity
  8
部品1
 48
50.0
100
AcDbLine
 10
9273.6
 20
6294.42891658321
 30
0.0
 11
9273.6
 21
6014.428916583229
 31
0.0
  0
LINE
  5
2DD72
330
747D
100
AcDbEntity
  8
センター
 48
2.0
100
AcDbLine
 10
9530.600000000008
 20
6262.428916583203
 30
0.0
 11
9530.600000000008
 21
6162.428916583203
 31
0.0
  0
LINE
  5
2DD73
330
747D
100
AcDbEntity
  8
センター
 48
2.0
100
AcDbLine
 10
9480.600000000007
 20
6212.428916583203
 30
0.0
 11
9580.600000000009
 21
6212.428916583203
 31
0.0
  0
CIRCLE
  5
2DD74
330
747D
100
AcDbEntity
  8
部品1
 48
50.0
100
AcDbCircle
 10
9530.600000000008
 20
6212.428916583203
 30
0.0
 40
35.0
  0
LINE
  5
2DD77
330
747D
100
AcDbEntity
  8
センター
 48
2.0
100
AcDbLine
 10
9598.600000000008
 20
6821.4289165832
 30
0.0
 11
9698.600000000007
 21
6821.4289165832
 31
0.0
  0
LINE
  5
2DD78
330
747D
100
AcDbEntity
  8
部品1
 48
50.0
100
AcDbLine
 10
9748.600000000008
 20
6921.4289165832
 30
0.0
 11
9548.600000000007
 21
6921.4289165832
 31
0.0
  0
LINE
  5
2DD79
330
747D
100
AcDbEntity
  8
部品1
 48
50.0
100
AcDbLine
 10
9748.600000000008
 20
6721.428916583199
 30
0.0
 11
9548.600000000007
 21
6721.428916583199
 31
0.0
  0
LINE
  5
2DD7A
330
747D
100
AcDbEntity
  8
センター
 48
2.0
100
AcDbLine
 10
9648.600000000008
 20
6871.4289165832
 30
0.0
 11
9648.600000000008
 21
6771.4289165832
 31
0.0
  0
LINE
  5
2DD7B
330
747D
100
AcDbEntity
  8
部品1
 48
50.0
100
AcDbLine
 10
9548.600000000007
 20
6721.428916583199
 30
0.0
 11
9548.600000000007
 21
6921.4289165832
 31
0.0
  0
LINE
  5
2DD7C
330
747D
100
AcDbEntity
  8
部品1
 48
50.0
100
AcDbLine
 10
9748.600000000008
 20
6721.428916583199
 30
0.0
 11
9748.600000000008
 21
6921.4289165832
 31
0.0
  0
LINE
  5
2DD81
330
747D
100
AcDbEntity
  8
部品1
 48
50.0
100
AcDbLine
 10
10698.60000000001
 20
6721.428916583199
 30
0.0
 11
10698.60000000001
 21
6921.4289165832
 31
0.0
  0
LINE
  5
2DD82
330
747D
100
AcDbEntity
  8
センター
 48
2.0
100
AcDbLine
 10
10598.60000000001
 20
6871.4289165832
 30
0.0
 11
10598.60000000001
 21
6771.4289165832
 31
0.0
  0
LINE
  5
2DD83
330
747D
100
AcDbEntity
  8
部品1
 48
50.0
100
AcDbLine
 10
10498.60000000001
 20
6721.428916583199
 30
0.0
 11
10498.60000000001
 21
6921.4289165832
 31
0.0
  0
LINE
  5
2DD84
330
747D
100
AcDbEntity
  8
部品1
 48
50.0
100
AcDbLine
 10
10698.60000000001
 20
6721.428916583199
 30
0.0
 11
10498.60000000001
 21
6721.428916583199
 31
0.0
  0
LINE
  5
2DD85
330
747D
100
AcDbEntity
  8
部品1
 48
50.0
100
AcDbLine
 10
10698.60000000001
 20
6921.4289165832
 30
0.0
 11
10498.60000000001
 21
6921.4289165832
 31
0.0
  0
LINE
  5
2DD86
330
747D
100
AcDbEntity
  8
センター
 48
2.0
100
AcDbLine
 10
10548.60000000001
 20
6821.4289165832
 30
0.0
 11
10648.60000000001
 21
6821.4289165832
 31
0.0
  0
LINE
  5
2DD93
330
747D
100
AcDbEntity
  8
センター
 48
2.0
100
AcDbLine
 10
11498.6
 20
6821.4289165832
 30
0.0
 11
11598.60000000001
 21
6821.4289165832
 31
0.0
  0
LINE
  5
2DD94
330
747D
100
AcDbEntity
  8
部品1
 48
50.0
100
AcDbLine
 10
11648.60000000001
 20
6921.4289165832
 30
0.0
 11
11448.60000000001
 21
6921.4289165832
 31
0.0
  0
LINE
  5
2DD95
330
747D
100
AcDbEntity
  8
部品1
 48
50.0
100
AcDbLine
 10
11648.60000000001
 20
6721.428916583199
 30
0.0
 11
11448.60000000001
 21
6721.428916583199
 31
0.0
  0
LINE
  5
2DD96
330
747D
100
AcDbEntity
  8
部品1
 48
50.0
100
AcDbLine
 10
11448.60000000001
 20
6721.428916583199
 30
0.0
 11
11448.60000000001
 21
6921.4289165832
 31
0.0
  0
LINE
  5
2DD97
330
747D
100
AcDbEntity
  8
部品1
 48
50.0
100
AcDbLine
 10
11648.60000000001
 20
6721.428916583199
 30
0.0
 11
11648.60000000001
 21
6921.4289165832
 31
0.0
  0
LINE
  5
2DD98
330
747D
100
AcDbEntity
  8
センター
 48
2.0
100
AcDbLine
 10
11548.60000000001
 20
6871.4289165832
 30
0.0
 11
11548.60000000001
 21
6771.4289165832
 31
0.0
  0
LINE
  5
2DDAB
330
747D
100
AcDbEntity
  8
センター
 48
2.0
100
AcDbLine
 10
12330.60000000001
 20
6212.428916583203
 30
0.0
 11
12430.6
 21
6212.428916583203
 31
0.0
  0
CIRCLE
  5
2DDAC
330
747D
100
AcDbEntity
  8
部品1
 48
50.0
100
AcDbCircle
 10
12380.60000000001
 20
6212.428916583203
 30
0.0
 40
35.0
  0
LINE
  5
2DDAD
330
747D
100
AcDbEntity
  8
センター
 48
2.0
100
AcDbLine
 10
12380.60000000001
 20
6262.428916583203
 30
0.0
 11
12380.60000000001
 21
6162.428916583203
 31
0.0
  0
LINE
  5
2DDAE
102
{ACAD_REACTORS
330
2E5FC
102
}
330
747D
100
AcDbEntity
  8
部品1
 48
50.0
100
AcDbLine
 10
12503.59999999998
 20
6909.428916583216
 30
0.0
 11
12383.6
 21
6909.428916583216
 31
0.0
  0
LINE
  5
2DDAF
102
{ACAD_REACTORS
330
2E5FC
102
}
330
747D
100
AcDbEntity
  8
部品1
 48
50.0
100
AcDbLine
 10
12503.59999999998
 20
6709.428916583217
 30
0.0
 11
12383.6
 21
6709.428916583217
 31
0.0
  0
DIMENSION
  5
2DDB1
330
747D
100
AcDbEntity
  8
寸法
 48
50.0
100
AcDbDimension
  2
*D44
 10
9530.600000000001
 20
8280.69537467711
 30
0.0
 11
10955.6
 21
8380.707185700734
 31
0.0
 70
    32
 71
     5
 42
2850.0
  3
INABA_S40G
100
AcDbAlignedDimension
 13
12380.6
 23
7481.428916583199
 33
0.0
 14
9530.600000000001
 24
7481.428916583199
 34
0.0
100
AcDbRotatedDimension
1001
ACAD
1000
DSTYLE
1002
{
1070
   341
1005
0
1002
}
  0
LINE
  5
2DDB2
330
747D
100
AcDbEntity
  8
細線
 48
50.0
100
AcDbLine
 10
10066.28003344754
 20
7354.428916583201
 30
0.0
 11
10223.6
 21
7511.748883135663
 31
0.0
  0
LINE
  5
2DDB3
330
747D
100
AcDbEntity
  8
細線
 48
50.0
100
AcDbLine
 10
10023.60000000001
 20
7356.650163741019
 30
0.0
 11
10221.3787528422
 21
7554.428916583204
 31
0.0
  0
LINE
  5
2DDB4
330
747D
100
AcDbEntity
  8
細線
 48
50.0
100
AcDbLine
 10
10023.60000000001
 20
7401.551444346363
 30
0.0
 11
10176.47747223685
 21
7554.428916583204
 31
0.0
  0
LINE
  5
2DDB5
330
747D
100
AcDbEntity
  8
細線
 48
50.0
100
AcDbLine
 10
10023.6
 20
7491.354005557046
 30
0.0
 11
10086.67491102616
 21
7554.428916583204
 31
0.0
  0
LINE
  5
2DDB6
330
747D
100
AcDbEntity
  8
細線
 48
50.0
100
AcDbLine
 10
10023.6
 20
7446.452724951704
 30
0.0
 11
10131.5761916315
 21
7554.428916583204
 31
0.0
  0
LINE
  5
2DDB7
330
747D
100
AcDbEntity
  8
細線
 48
50.0
100
AcDbLine
 10
9250.983875263564
 20
7354.428916583201
 30
0.0
 11
9273.600000000007
 21
7377.04504131964
 31
0.0
  0
LINE
  5
2DDB8
330
747D
100
AcDbEntity
  8
細線
 48
50.0
100
AcDbLine
 10
9116.280033447543
 20
7354.428916583201
 30
0.0
 11
9273.600000000001
 21
7511.748883135663
 31
0.0
  0
LINE
  5
2DDB9
330
747D
100
AcDbEntity
  8
細線
 48
50.0
100
AcDbLine
 10
9161.181314052871
 20
7354.428916583201
 30
0.0
 11
9273.600000000001
 21
7466.847602530314
 31
0.0
  0
LINE
  5
2DDBA
330
747D
100
AcDbEntity
  8
細線
 48
50.0
100
AcDbLine
 10
9073.600000000011
 20
7356.650163741019
 30
0.0
 11
9271.378752842199
 21
7554.428916583204
 31
0.0
  0
LINE
  5
2DDBB
330
747D
100
AcDbEntity
  8
細線
 48
50.0
100
AcDbLine
 10
9206.082594658228
 20
7354.428916583199
 30
0.0
 11
9273.600000000005
 21
7421.946321924979
 31
0.0
  0
LINE
  5
2DDBC
330
747D
100
AcDbEntity
  8
細線
 48
50.0
100
AcDbLine
 10
9073.600000000006
 20
7446.452724951704
 30
0.0
 11
9181.576191631505
 21
7554.428916583204
 31
0.0
  0
LINE
  5
2DDBD
330
747D
100
AcDbEntity
  8
細線
 48
50.0
100
AcDbLine
 10
9073.600000000004
 20
7491.354005557046
 30
0.0
 11
9136.67491102616
 21
7554.428916583204
 31
0.0
  0
LINE
  5
2DDBE
330
747D
100
AcDbEntity
  8
部品1
 48
50.0
100
AcDbLine
 10
9073.6
 20
7554.428916583207
 30
0.0
 11
9073.600000000009
 21
7354.428916583201
 31
0.0
  0
LINE
  5
2DDBF
330
747D
100
AcDbEntity
  8
細線
 48
50.0
100
AcDbLine
 10
9073.600000000007
 20
7401.551444346363
 30
0.0
 11
9226.477472236851
 21
7554.428916583204
 31
0.0
  0
LINE
  5
2DDC0
330
747D
100
AcDbEntity
  8
細線
 48
50.0
100
AcDbLine
 10
9073.600000000002
 20
7536.25528616239
 30
0.0
 11
9091.773630420814
 21
7554.428916583204
 31
0.0
  0
LINE
  5
2DDC1
330
747D
100
AcDbEntity
  8
部品1
 48
50.0
100
AcDbLine
 10
10023.6
 20
7554.428916583207
 30
0.0
 11
10023.60000000001
 21
7354.428916583201
 31
0.0
  0
LINE
  5
2DDC2
330
747D
100
AcDbEntity
  8
部品1
 48
50.0
100
AcDbLine
 10
9273.6
 20
7554.428916583207
 30
0.0
 11
9273.600000000007
 21
7354.428916583201
 31
0.0
  0
LINE
  5
2DDC3
330
747D
100
AcDbEntity
  8
センター
 48
2.0
100
AcDbLine
 10
9530.600000000001
 20
7481.428916583199
 30
0.0
 11
9530.600000000001
 21
7381.4289165832
 31
0.0
  0
CIRCLE
  5
2DDC4
330
747D
100
AcDbEntity
  8
部品1
 48
50.0
100
AcDbCircle
 10
9530.600000000001
 20
7431.428916583199
 30
0.0
 40
35.0
  0
LINE
  5
2DDC5
330
747D
100
AcDbEntity
  8
センター
 48
2.0
100
AcDbLine
 10
9480.6
 20
7431.428916583199
 30
0.0
 11
9580.600000000002
 21
7431.428916583199
 31
0.0
  0
LINE
  5
2DDC6
330
747D
100
AcDbEntity
  8
細線
 48
50.0
100
AcDbLine
 10
10023.6
 20
7536.25528616239
 30
0.0
 11
10041.77363042081
 21
7554.428916583204
 31
0.0
  0
LINE
  5
2DDC7
330
747D
100
AcDbEntity
  8
寸法
 48
50.0
100
AcDbLine
 10
8830.555430376156
 20
8280.69536237518
 30
0.0
 11
9530.599985198225
 21
8280.69536237518
 31
0.0
  0
LINE
  5
2DDC9
330
747D
100
AcDbEntity
  8
部品1
 48
50.0
100
AcDbLine
 10
10223.6
 20
7554.428916583207
 30
0.0
 11
10223.60000000001
 21
7354.428916583201
 31
0.0
  0
LINE
  5
2DDCA
330
747D
100
AcDbEntity
  8
細線
 48
50.0
100
AcDbLine
 10
10156.08259465823
 20
7354.428916583199
 30
0.0
 11
10223.6
 21
7421.946321924979
 31
0.0
  0
LINE
  5
2DDCB
330
747D
100
AcDbEntity
  8
細線
 48
50.0
100
AcDbLine
 10
10200.98387526356
 20
7354.428916583201
 30
0.0
 11
10223.60000000001
 21
7377.04504131964
 31
0.0
  0
LINE
  5
2DDCC
330
747D
100
AcDbEntity
  8
細線
 48
50.0
100
AcDbLine
 10
10111.18131405287
 20
7354.428916583201
 30
0.0
 11
10223.6
 21
7466.847602530314
 31
0.0
  0
LINE
  5
2DDCD
330
747D
100
AcDbEntity
  8
細線
 48
50.0
100
AcDbLine
 10
10973.6
 20
7446.452724951704
 30
0.0
 11
11081.5761916315
 21
7554.428916583204
 31
0.0
  0
LINE
  5
2DDCE
330
747D
100
AcDbEntity
  8
細線
 48
50.0
100
AcDbLine
 10
10973.6
 20
7491.354005557046
 30
0.0
 11
11036.67491102616
 21
7554.428916583204
 31
0.0
  0
LINE
  5
2DDCF
330
747D
100
AcDbEntity
  8
細線
 48
50.0
100
AcDbLine
 10
10973.60000000001
 20
7401.551444346363
 30
0.0
 11
11126.47747223685
 21
7554.428916583204
 31
0.0
  0
LINE
  5
2DDD0
330
747D
100
AcDbEntity
  8
細線
 48
50.0
100
AcDbLine
 10
10973.60000000001
 20
7356.650163741019
 30
0.0
 11
11171.3787528422
 21
7554.428916583204
 31
0.0
  0
LINE
  5
2DDD1
330
747D
100
AcDbEntity
  8
部品1
 48
50.0
100
AcDbLine
 10
10973.6
 20
7554.428916583207
 30
0.0
 11
10973.60000000001
 21
7354.428916583201
 31
0.0
  0
LINE
  5
2DDD2
330
747D
100
AcDbEntity
  8
部品1
 48
50.0
100
AcDbLine
 10
11173.6
 20
7554.428916583207
 30
0.0
 11
11173.60000000001
 21
7354.428916583201
 31
0.0
  0
LINE
  5
2DDD3
330
747D
100
AcDbEntity
  8
細線
 48
50.0
100
AcDbLine
 10
11106.08259465823
 20
7354.428916583199
 30
0.0
 11
11173.6
 21
7421.946321924979
 31
0.0
  0
LINE
  5
2DDD4
330
747D
100
AcDbEntity
  8
細線
 48
50.0
100
AcDbLine
 10
11016.28003344754
 20
7354.428916583201
 30
0.0
 11
11173.6
 21
7511.748883135663
 31
0.0
  0
LINE
  5
2DDD5
330
747D
100
AcDbEntity
  8
細線
 48
50.0
100
AcDbLine
 10
11061.18131405287
 20
7354.428916583201
 30
0.0
 11
11173.6
 21
7466.847602530314
 31
0.0
  0
LINE
  5
2DDD6
330
747D
100
AcDbEntity
  8
細線
 48
50.0
100
AcDbLine
 10
11150.98387526356
 20
7354.428916583201
 30
0.0
 11
11173.60000000001
 21
7377.04504131964
 31
0.0
  0
LINE
  5
2DDD7
330
747D
100
AcDbEntity
  8
細線
 48
50.0
100
AcDbLine
 10
10973.6
 20
7536.25528616239
 30
0.0
 11
10991.77363042081
 21
7554.428916583204
 31
0.0
  0
DIMENSION
  5
2DDD9
330
747D
100
AcDbEntity
  8
寸法
 48
50.0
100
AcDbDimension
  2
*D45
 10
12380.6
 20
8280.69537467711
 30
0.0
 11
12776.7066017178
 21
8280.69537467711
 31
0.0
 70
   160
 71
     5
 42
123.0
  3
INABA_S40G
100
AcDbAlignedDimension
 13
12503.6
 23
7554.4289165832
 33
0.0
 14
12380.6
 24
7481.428916583199
 34
0.0
100
AcDbRotatedDimension
1001
ACAD
1000
DSTYLE
1002
{
1070
   341
1005
0
1002
}
  0
LINE
  5
2DDDB
330
747D
100
AcDbEntity
  8
部品1
 48
50.0
100
AcDbLine
 10
12123.6
 20
7554.428916583207
 30
0.0
 11
12123.6
 21
7354.428916583201
 31
0.0
  0
LINE
  5
2DDDC
330
747D
100
AcDbEntity
  8
細線
 48
50.0
100
AcDbLine
 10
11923.6
 20
7491.354005557046
 30
0.0
 11
11986.67491102616
 21
7554.428916583204
 31
0.0
  0
LINE
  5
2DDDD
330
747D
100
AcDbEntity
  8
細線
 48
50.0
100
AcDbLine
 10
11923.6
 20
7446.452724951704
 30
0.0
 11
12031.5761916315
 21
7554.428916583204
 31
0.0
  0
LINE
  5
2DDDE
330
747D
100
AcDbEntity
  8
部品1
 48
50.0
100
AcDbLine
 10
11923.6
 20
7554.428916583207
 30
0.0
 11
11923.60000000001
 21
7354.428916583201
 31
0.0
  0
LINE
  5
2DDDF
330
747D
100
AcDbEntity
  8
細線
 48
50.0
100
AcDbLine
 10
11923.6
 20
7401.551444346363
 30
0.0
 11
12076.47747223685
 21
7554.428916583204
 31
0.0
  0
LINE
  5
2DDE0
330
747D
100
AcDbEntity
  8
細線
 48
50.0
100
AcDbLine
 10
11923.60000000001
 20
7356.650163741019
 30
0.0
 11
12121.3787528422
 21
7554.428916583204
 31
0.0
  0
LINE
  5
2DDE1
330
747D
100
AcDbEntity
  8
細線
 48
50.0
100
AcDbLine
 10
12011.18131405287
 20
7354.428916583201
 30
0.0
 11
12123.6
 21
7466.847602530314
 31
0.0
  0
LINE
  5
2DDE2
330
747D
100
AcDbEntity
  8
細線
 48
50.0
100
AcDbLine
 10
11966.28003344754
 20
7354.428916583201
 30
0.0
 11
12123.6
 21
7511.748883135663
 31
0.0
  0
LINE
  5
2DDE3
330
747D
100
AcDbEntity
  8
細線
 48
50.0
100
AcDbLine
 10
12056.08259465823
 20
7354.428916583199
 30
0.0
 11
12123.6
 21
7421.946321924979
 31
0.0
  0
LINE
  5
2DDE4
330
747D
100
AcDbEntity
  8
細線
 48
50.0
100
AcDbLine
 10
12100.98387526356
 20
7354.428916583201
 30
0.0
 11
12123.6
 21
7377.04504131964
 31
0.0
  0
LINE
  5
2DDE5
330
747D
100
AcDbEntity
  8
センター
 48
2.0
100
AcDbLine
 10
12330.6
 20
7431.428916583199
 30
0.0
 11
12430.6
 21
7431.428916583199
 31
0.0
  0
CIRCLE
  5
2DDE6
330
747D
100
AcDbEntity
  8
部品1
 48
50.0
100
AcDbCircle
 10
12380.6
 20
7431.428916583199
 30
0.0
 40
35.0
  0
LINE
  5
2DDE7
330
747D
100
AcDbEntity
  8
センター
 48
2.0
100
AcDbLine
 10
12380.6
 20
7481.428916583199
 30
0.0
 11
12380.6
 21
7381.4289165832
 31
0.0
  0
LINE
  5
2DDE8
330
747D
100
AcDbEntity
  8
細線
 48
50.0
100
AcDbLine
 10
11923.6
 20
7536.25528616239
 30
0.0
 11
11941.77363042081
 21
7554.428916583204
 31
0.0
  0
LINE
  5
2E42A
330
747D
100
AcDbEntity
  8
想像線
 48
10.0
100
AcDbLine
 10
8325.027784895594
 20
7629.428916583208
 30
0.0
 11
3898.600000000004
 21
7629.428916583217
 31
0.0
  0
LINE
  5
2E42D
330
747D
100
AcDbEntity
  8
想像線
 48
10.0
100
AcDbLine
 10
8106.211455377955
 20
5959.428916583235
 30
0.0
 11
3898.600000000004
 21
5959.428916583227
 31
0.0
  0
TEXT
  5
2E46B
330
747D
100
AcDbEntity
  8
文字
 62
     7
 48
50.0
100
AcDbText
 10
7539.211727743311
 20
4394.00515950107
 30
0.0
 40
200.0
  1
〈参 考 図〉
  7
STYLE2
100
AcDbText
  0
TEXT
  5
2E517
330
747D
100
AcDbEntity
  8
文字
 62
     7
 48
50.0
100
AcDbText
 10
14267.69561199343
 20
838.2527270729188
 30
0.0
 40
100.0
  1
～一般型・多雪地型・豪雪地型～
  7
STYLE2
100
AcDbText
  0
LINE
  5
2E537
330
747D
100
AcDbEntity
  8
部品1
 48
50.0
100
AcDbLine
 10
8225.095400711669
 20
6294.428916583205
 30
0.0
 11
4063.6
 21
6294.428916583196
 31
0.0
  0
LINE
  5
2E538
330
747D
100
AcDbEntity
  8
部品1
 48
50.0
100
AcDbLine
 10
12383.6
 20
6294.428916583219
 30
0.0
 11
8190.447653177731
 21
6294.428916583207
 31
0.0
  0
LINE
  5
2E539
330
747D
100
AcDbEntity
  8
細線
 48
50.0
100
AcDbLine
 10
5454.305645554462
 20
6014.428916583227
 30
0.0
 11
5473.600000000006
 21
6033.72327102877
 31
0.0
  0
LINE
  5
2E53A
330
747D
100
AcDbEntity
  8
細線
 48
50.0
100
AcDbLine
 10
5319.601803738422
 20
6014.428916583224
 30
0.0
 11
5473.600000000002
 21
6168.4271128448
 31
0.0
  0
LINE
  5
2E53B
330
747D
100
AcDbEntity
  8
細線
 48
50.0
100
AcDbLine
 10
5364.503084343769
 20
6014.428916583224
 30
0.0
 11
5473.600000000002
 21
6123.525832239458
 31
0.0
  0
LINE
  5
2E53C
330
747D
100
AcDbEntity
  8
細線
 48
50.0
100
AcDbLine
 10
5409.404364949116
 20
6014.428916583225
 30
0.0
 11
5473.600000000006
 21
6078.624551634115
 31
0.0
  0
LINE
  5
2E53D
330
747D
100
AcDbEntity
  8
部品1
 48
50.0
100
AcDbLine
 10
5473.600000000001
 20
6294.428916583196
 30
0.0
 11
5473.600000000001
 21
6014.428916583229
 31
0.0
  0
LINE
  5
2E53E
330
747D
100
AcDbEntity
  8
部品1
 48
50.0
100
AcDbLine
 10
5273.6
 20
6294.428916583196
 30
0.0
 11
5273.6
 21
6014.428916583225
 31
0.0
  0
LINE
  5
2E53F
330
747D
100
AcDbEntity
  8
細線
 48
50.0
100
AcDbLine
 10
5273.600000000002
 20
6148.032235266184
 30
0.0
 11
5419.996681316998
 21
6294.428916583196
 31
0.0
  0
LINE
  5
2E540
330
747D
100
AcDbEntity
  8
細線
 48
50.0
100
AcDbLine
 10
5273.6
 20
6103.130954660839
 30
0.0
 11
5464.89796192236
 21
6294.428916583198
 31
0.0
  0
LINE
  5
2E541
330
747D
100
AcDbEntity
  8
細線
 48
50.0
100
AcDbLine
 10
5273.600000000002
 20
6058.229674055493
 30
0.0
 11
5473.600000000002
 21
6258.229674055495
 31
0.0
  0
LINE
  5
2E542
330
747D
100
AcDbEntity
  8
細線
 48
50.0
100
AcDbLine
 10
5274.700523133077
 20
6014.428916583222
 30
0.0
 11
5473.600000000002
 21
6213.328393450149
 31
0.0
  0
LINE
  5
2E543
330
747D
100
AcDbEntity
  8
細線
 48
50.0
100
AcDbLine
 10
5273.6
 20
6237.834796476882
 30
0.0
 11
5330.194120106308
 21
6294.428916583196
 31
0.0
  0
LINE
  5
2E544
330
747D
100
AcDbEntity
  8
細線
 48
50.0
100
AcDbLine
 10
5273.6
 20
6192.933515871537
 30
0.0
 11
5375.095400711666
 21
6294.428916583196
 31
0.0
  0
LINE
  5
2E545
330
747D
100
AcDbEntity
  8
細線
 48
50.0
100
AcDbLine
 10
6404.305645554463
 20
6014.428916583227
 30
0.0
 11
6423.600000000006
 21
6033.72327102877
 31
0.0
  0
LINE
  5
2E546
330
747D
100
AcDbEntity
  8
細線
 48
50.0
100
AcDbLine
 10
6269.601803738422
 20
6014.428916583224
 30
0.0
 11
6423.600000000002
 21
6168.4271128448
 31
0.0
  0
LINE
  5
2E547
330
747D
100
AcDbEntity
  8
細線
 48
50.0
100
AcDbLine
 10
6314.503084343769
 20
6014.428916583224
 30
0.0
 11
6423.600000000002
 21
6123.525832239458
 31
0.0
  0
LINE
  5
2E548
330
747D
100
AcDbEntity
  8
細線
 48
50.0
100
AcDbLine
 10
6359.404364949116
 20
6014.428916583225
 30
0.0
 11
6423.600000000006
 21
6078.624551634115
 31
0.0
  0
LINE
  5
2E549
330
747D
100
AcDbEntity
  8
部品1
 48
50.0
100
AcDbLine
 10
6423.6
 20
6294.428916583196
 30
0.0
 11
6423.6
 21
6014.428916583229
 31
0.0
  0
LINE
  5
2E54A
330
747D
100
AcDbEntity
  8
部品1
 48
50.0
100
AcDbLine
 10
6223.600000000001
 20
6294.428916583196
 30
0.0
 11
6223.600000000001
 21
6014.428916583225
 31
0.0
  0
LINE
  5
2E54B
330
747D
100
AcDbEntity
  8
細線
 48
50.0
100
AcDbLine
 10
6223.600000000002
 20
6148.032235266184
 30
0.0
 11
6369.996681316998
 21
6294.428916583196
 31
0.0
  0
LINE
  5
2E54C
330
747D
100
AcDbEntity
  8
細線
 48
50.0
100
AcDbLine
 10
6223.600000000001
 20
6103.130954660839
 30
0.0
 11
6414.89796192236
 21
6294.428916583198
 31
0.0
  0
LINE
  5
2E54D
330
747D
100
AcDbEntity
  8
細線
 48
50.0
100
AcDbLine
 10
6223.600000000002
 20
6058.229674055493
 30
0.0
 11
6423.600000000002
 21
6258.229674055495
 31
0.0
  0
LINE
  5
2E54E
330
747D
100
AcDbEntity
  8
細線
 48
50.0
100
AcDbLine
 10
6224.700523133076
 20
6014.428916583222
 30
0.0
 11
6423.600000000002
 21
6213.328393450149
 31
0.0
  0
LINE
  5
2E54F
330
747D
100
AcDbEntity
  8
細線
 48
50.0
100
AcDbLine
 10
6223.600000000001
 20
6237.834796476882
 30
0.0
 11
6280.194120106308
 21
6294.428916583196
 31
0.0
  0
LINE
  5
2E550
330
747D
100
AcDbEntity
  8
細線
 48
50.0
100
AcDbLine
 10
6223.600000000001
 20
6192.933515871537
 30
0.0
 11
6325.095400711666
 21
6294.428916583196
 31
0.0
  0
LINE
  5
2E551
330
747D
100
AcDbEntity
  8
細線
 48
50.0
100
AcDbLine
 10
7354.305645554463
 20
6014.428916583227
 30
0.0
 11
7373.600000000006
 21
6033.72327102877
 31
0.0
  0
LINE
  5
2E552
330
747D
100
AcDbEntity
  8
細線
 48
50.0
100
AcDbLine
 10
7219.601803738422
 20
6014.428916583224
 30
0.0
 11
7373.600000000002
 21
6168.4271128448
 31
0.0
  0
LINE
  5
2E553
330
747D
100
AcDbEntity
  8
細線
 48
50.0
100
AcDbLine
 10
7264.503084343769
 20
6014.428916583224
 30
0.0
 11
7373.600000000002
 21
6123.525832239458
 31
0.0
  0
LINE
  5
2E554
330
747D
100
AcDbEntity
  8
細線
 48
50.0
100
AcDbLine
 10
7309.404364949116
 20
6014.428916583225
 30
0.0
 11
7373.600000000006
 21
6078.624551634115
 31
0.0
  0
LINE
  5
2E555
330
747D
100
AcDbEntity
  8
部品1
 48
50.0
100
AcDbLine
 10
7373.6
 20
6294.428916583196
 30
0.0
 11
7373.6
 21
6014.428916583229
 31
0.0
  0
LINE
  5
2E556
330
747D
100
AcDbEntity
  8
部品1
 48
50.0
100
AcDbLine
 10
7173.6
 20
6294.428916583196
 30
0.0
 11
7173.6
 21
6014.428916583225
 31
0.0
  0
LINE
  5
2E557
330
747D
100
AcDbEntity
  8
細線
 48
50.0
100
AcDbLine
 10
7173.600000000002
 20
6148.032235266184
 30
0.0
 11
7319.996681316999
 21
6294.428916583196
 31
0.0
  0
LINE
  5
2E558
330
747D
100
AcDbEntity
  8
細線
 48
50.0
100
AcDbLine
 10
7173.6
 20
6103.130954660839
 30
0.0
 11
7364.897961922359
 21
6294.428916583198
 31
0.0
  0
LINE
  5
2E559
330
747D
100
AcDbEntity
  8
細線
 48
50.0
100
AcDbLine
 10
7173.600000000002
 20
6058.229674055493
 30
0.0
 11
7373.600000000002
 21
6258.229674055495
 31
0.0
  0
LINE
  5
2E55A
330
747D
100
AcDbEntity
  8
細線
 48
50.0
100
AcDbLine
 10
7174.700523133077
 20
6014.428916583222
 30
0.0
 11
7373.600000000002
 21
6213.328393450149
 31
0.0
  0
LINE
  5
2E55B
330
747D
100
AcDbEntity
  8
細線
 48
50.0
100
AcDbLine
 10
7173.6
 20
6237.834796476882
 30
0.0
 11
7230.194120106308
 21
6294.428916583196
 31
0.0
  0
LINE
  5
2E55C
330
747D
100
AcDbEntity
  8
細線
 48
50.0
100
AcDbLine
 10
7173.6
 20
6192.933515871537
 30
0.0
 11
7275.095400711666
 21
6294.428916583196
 31
0.0
  0
LINE
  5
2E55D
330
747D
100
AcDbEntity
  8
部品1
 48
50.0
100
AcDbLine
 10
10223.6
 20
6294.42891658321
 30
0.0
 11
10223.6
 21
6014.428916583229
 31
0.0
  0
LINE
  5
2E55E
330
747D
100
AcDbEntity
  8
細線
 48
50.0
100
AcDbLine
 10
10023.6
 20
6192.933515871537
 30
0.0
 11
10125.09540071167
 21
6294.428916583208
 31
0.0
  0
LINE
  5
2E55F
330
747D
100
AcDbEntity
  8
細線
 48
50.0
100
AcDbLine
 10
10023.6
 20
6237.834796476882
 30
0.0
 11
10080.19412010632
 21
6294.428916583209
 31
0.0
  0
LINE
  5
2E560
330
747D
100
AcDbEntity
  8
細線
 48
50.0
100
AcDbLine
 10
10023.6
 20
6148.032235266184
 30
0.0
 11
10169.99668131701
 21
6294.428916583211
 31
0.0
  0
LINE
  5
2E561
330
747D
100
AcDbEntity
  8
細線
 48
50.0
100
AcDbLine
 10
10023.6
 20
6103.130954660839
 30
0.0
 11
10214.89796192237
 21
6294.42891658321
 31
0.0
  0
LINE
  5
2E562
330
747D
100
AcDbEntity
  8
部品1
 48
50.0
100
AcDbLine
 10
10023.6
 20
6294.428916583209
 30
0.0
 11
10023.6
 21
6014.428916583225
 31
0.0
  0
LINE
  5
2E563
330
747D
100
AcDbEntity
  8
細線
 48
50.0
100
AcDbLine
 10
10159.40436494911
 20
6014.428916583225
 30
0.0
 11
10223.6
 21
6078.624551634115
 31
0.0
  0
LINE
  5
2E564
330
747D
100
AcDbEntity
  8
細線
 48
50.0
100
AcDbLine
 10
10023.6
 20
6058.229674055493
 30
0.0
 11
10223.6
 21
6258.229674055495
 31
0.0
  0
LINE
  5
2E565
330
747D
100
AcDbEntity
  8
細線
 48
50.0
100
AcDbLine
 10
10024.70052313307
 20
6014.428916583222
 30
0.0
 11
10223.6
 21
6213.328393450149
 31
0.0
  0
LINE
  5
2E566
330
747D
100
AcDbEntity
  8
細線
 48
50.0
100
AcDbLine
 10
10069.60180373842
 20
6014.428916583224
 30
0.0
 11
10223.6
 21
6168.4271128448
 31
0.0
  0
LINE
  5
2E567
330
747D
100
AcDbEntity
  8
細線
 48
50.0
100
AcDbLine
 10
10114.50308434377
 20
6014.428916583224
 30
0.0
 11
10223.6
 21
6123.525832239458
 31
0.0
  0
LINE
  5
2E568
330
747D
100
AcDbEntity
  8
細線
 48
50.0
100
AcDbLine
 10
10204.30564555446
 20
6014.428916583227
 30
0.0
 11
10223.6
 21
6033.72327102877
 31
0.0
  0
LINE
  5
2E569
330
747D
100
AcDbEntity
  8
部品1
 48
50.0
100
AcDbLine
 10
11173.6
 20
6294.42891658321
 30
0.0
 11
11173.6
 21
6014.428916583229
 31
0.0
  0
LINE
  5
2E56A
330
747D
100
AcDbEntity
  8
細線
 48
50.0
100
AcDbLine
 10
10973.6
 20
6192.933515871537
 30
0.0
 11
11075.09540071167
 21
6294.428916583208
 31
0.0
  0
LINE
  5
2E56B
330
747D
100
AcDbEntity
  8
細線
 48
50.0
100
AcDbLine
 10
10973.6
 20
6237.834796476882
 30
0.0
 11
11030.19412010632
 21
6294.428916583209
 31
0.0
  0
LINE
  5
2E56C
330
747D
100
AcDbEntity
  8
細線
 48
50.0
100
AcDbLine
 10
10973.6
 20
6148.032235266184
 30
0.0
 11
11119.99668131701
 21
6294.428916583211
 31
0.0
  0
LINE
  5
2E56D
330
747D
100
AcDbEntity
  8
細線
 48
50.0
100
AcDbLine
 10
10973.6
 20
6103.130954660839
 30
0.0
 11
11164.89796192237
 21
6294.42891658321
 31
0.0
  0
LINE
  5
2E56E
330
747D
100
AcDbEntity
  8
部品1
 48
50.0
100
AcDbLine
 10
10973.6
 20
6294.428916583209
 30
0.0
 11
10973.6
 21
6014.428916583225
 31
0.0
  0
LINE
  5
2E56F
330
747D
100
AcDbEntity
  8
細線
 48
50.0
100
AcDbLine
 10
11109.40436494911
 20
6014.428916583225
 30
0.0
 11
11173.6
 21
6078.624551634115
 31
0.0
  0
LINE
  5
2E570
330
747D
100
AcDbEntity
  8
細線
 48
50.0
100
AcDbLine
 10
10973.6
 20
6058.229674055493
 30
0.0
 11
11173.6
 21
6258.229674055495
 31
0.0
  0
LINE
  5
2E571
330
747D
100
AcDbEntity
  8
細線
 48
50.0
100
AcDbLine
 10
10974.70052313307
 20
6014.428916583222
 30
0.0
 11
11173.6
 21
6213.328393450149
 31
0.0
  0
LINE
  5
2E572
330
747D
100
AcDbEntity
  8
細線
 48
50.0
100
AcDbLine
 10
11019.60180373842
 20
6014.428916583224
 30
0.0
 11
11173.6
 21
6168.4271128448
 31
0.0
  0
LINE
  5
2E573
330
747D
100
AcDbEntity
  8
細線
 48
50.0
100
AcDbLine
 10
11064.50308434377
 20
6014.428916583224
 30
0.0
 11
11173.6
 21
6123.525832239458
 31
0.0
  0
LINE
  5
2E574
330
747D
100
AcDbEntity
  8
細線
 48
50.0
100
AcDbLine
 10
11154.30564555446
 20
6014.428916583227
 30
0.0
 11
11173.6
 21
6033.72327102877
 31
0.0
  0
LINE
  5
2E575
330
747D
100
AcDbEntity
  8
部品1
 48
50.0
100
AcDbLine
 10
12123.6
 20
6294.42891658321
 30
0.0
 11
12123.6
 21
6014.428916583229
 31
0.0
  0
LINE
  5
2E576
330
747D
100
AcDbEntity
  8
細線
 48
50.0
100
AcDbLine
 10
11923.6
 20
6192.933515871537
 30
0.0
 11
12025.09540071167
 21
6294.428916583208
 31
0.0
  0
LINE
  5
2E577
330
747D
100
AcDbEntity
  8
細線
 48
50.0
100
AcDbLine
 10
11923.6
 20
6237.834796476882
 30
0.0
 11
11980.19412010632
 21
6294.428916583209
 31
0.0
  0
LINE
  5
2E578
330
747D
100
AcDbEntity
  8
細線
 48
50.0
100
AcDbLine
 10
11923.6
 20
6148.032235266184
 30
0.0
 11
12069.99668131701
 21
6294.428916583211
 31
0.0
  0
LINE
  5
2E579
330
747D
100
AcDbEntity
  8
細線
 48
50.0
100
AcDbLine
 10
11923.6
 20
6103.130954660839
 30
0.0
 11
12114.89796192237
 21
6294.42891658321
 31
0.0
  0
LINE
  5
2E57A
330
747D
100
AcDbEntity
  8
部品1
 48
50.0
100
AcDbLine
 10
11923.6
 20
6294.428916583209
 30
0.0
 11
11923.6
 21
6014.428916583225
 31
0.0
  0
LINE
  5
2E57B
330
747D
100
AcDbEntity
  8
細線
 48
50.0
100
AcDbLine
 10
12059.40436494911
 20
6014.428916583225
 30
0.0
 11
12123.6
 21
6078.624551634115
 31
0.0
  0
LINE
  5
2E57C
330
747D
100
AcDbEntity
  8
細線
 48
50.0
100
AcDbLine
 10
11923.6
 20
6058.229674055493
 30
0.0
 11
12123.6
 21
6258.229674055495
 31
0.0
  0
LINE
  5
2E57D
330
747D
100
AcDbEntity
  8
細線
 48
50.0
100
AcDbLine
 10
11924.70052313308
 20
6014.428916583222
 30
0.0
 11
12123.6
 21
6213.328393450149
 31
0.0
  0
LINE
  5
2E57E
330
747D
100
AcDbEntity
  8
細線
 48
50.0
100
AcDbLine
 10
11969.60180373842
 20
6014.428916583224
 30
0.0
 11
12123.6
 21
6168.4271128448
 31
0.0
  0
LINE
  5
2E57F
330
747D
100
AcDbEntity
  8
細線
 48
50.0
100
AcDbLine
 10
12014.50308434377
 20
6014.428916583224
 30
0.0
 11
12123.6
 21
6123.525832239458
 31
0.0
  0
LINE
  5
2E580
330
747D
100
AcDbEntity
  8
細線
 48
50.0
100
AcDbLine
 10
12104.30564555446
 20
6014.428916583227
 30
0.0
 11
12123.6
 21
6033.72327102877
 31
0.0
  0
LINE
  5
2E5B9
330
747D
100
AcDbEntity
  8
部品1
 48
50.0
100
AcDbLine
 10
8323.599999999998
 20
6294.428916583205
 30
0.0
 11
8323.6
 21
6014.428916583224
 31
0.0
  0
LINE
  5
2E5BA
330
747D
100
AcDbEntity
  8
細線
 48
50.0
100
AcDbLine
 10
8123.600000000001
 20
6192.933515871533
 30
0.0
 11
8225.095400711674
 21
6294.428916583203
 31
0.0
  0
LINE
  5
2E5BB
330
747D
100
AcDbEntity
  8
細線
 48
50.0
100
AcDbLine
 10
8123.600000000001
 20
6237.834796476877
 30
0.0
 11
8180.194120106321
 21
6294.428916583204
 31
0.0
  0
LINE
  5
2E5BC
330
747D
100
AcDbEntity
  8
細線
 48
50.0
100
AcDbLine
 10
8123.600000000001
 20
6148.03223526618
 30
0.0
 11
8269.996681317012
 21
6294.428916583206
 31
0.0
  0
LINE
  5
2E5BD
330
747D
100
AcDbEntity
  8
細線
 48
50.0
100
AcDbLine
 10
8123.600000000001
 20
6103.130954660834
 30
0.0
 11
8314.897961922373
 21
6294.428916583205
 31
0.0
  0
LINE
  5
2E5BE
330
747D
100
AcDbEntity
  8
部品1
 48
50.0
100
AcDbLine
 10
8123.600000000001
 20
6294.428916583204
 30
0.0
 11
8123.600000000001
 21
6014.42891658322
 31
0.0
  0
LINE
  5
2E5BF
330
747D
100
AcDbEntity
  8
細線
 48
50.0
100
AcDbLine
 10
8259.404364949116
 20
6014.42891658322
 30
0.0
 11
8323.600000000006
 21
6078.62455163411
 31
0.0
  0
LINE
  5
2E5C0
330
747D
100
AcDbEntity
  8
細線
 48
50.0
100
AcDbLine
 10
8123.600000000001
 20
6058.229674055489
 30
0.0
 11
8323.600000000002
 21
6258.229674055492
 31
0.0
  0
LINE
  5
2E5C1
330
747D
100
AcDbEntity
  8
細線
 48
50.0
100
AcDbLine
 10
8124.700523133077
 20
6014.428916583216
 30
0.0
 11
8323.6
 21
6213.328393450144
 31
0.0
  0
LINE
  5
2E5C2
330
747D
100
AcDbEntity
  8
細線
 48
50.0
100
AcDbLine
 10
8169.601803738421
 20
6014.428916583219
 30
0.0
 11
8323.6
 21
6168.427112844796
 31
0.0
  0
LINE
  5
2E5C3
330
747D
100
AcDbEntity
  8
細線
 48
50.0
100
AcDbLine
 10
8214.503084343769
 20
6014.428916583219
 30
0.0
 11
8323.600000000004
 21
6123.525832239455
 31
0.0
  0
LINE
  5
2E5C4
330
747D
100
AcDbEntity
  8
細線
 48
50.0
100
AcDbLine
 10
8304.305645554462
 20
6014.428916583223
 30
0.0
 11
8323.600000000006
 21
6033.723271028765
 31
0.0
  0
LINE
  5
2E5D6
330
747D
100
AcDbEntity
  8
部品1
 48
50.0
100
AcDbLine
 10
8323.6
 20
7554.428916583207
 30
0.0
 11
8323.600000000007
 21
7354.428916583201
 31
0.0
  0
LINE
  5
2E5D7
330
747D
100
AcDbEntity
  8
細線
 48
50.0
100
AcDbLine
 10
8123.600000000001
 20
7536.25528616239
 30
0.0
 11
8141.773630420813
 21
7554.428916583204
 31
0.0
  0
LINE
  5
2E5D8
330
747D
100
AcDbEntity
  8
細線
 48
50.0
100
AcDbLine
 10
8123.600000000008
 20
7401.551444346363
 30
0.0
 11
8276.477472236852
 21
7554.428916583204
 31
0.0
  0
LINE
  5
2E5DA
330
747D
100
AcDbEntity
  8
細線
 48
50.0
100
AcDbLine
 10
8123.600000000005
 20
7491.354005557046
 30
0.0
 11
8186.674911026161
 21
7554.428916583204
 31
0.0
  0
LINE
  5
2E5DB
330
747D
100
AcDbEntity
  8
細線
 48
50.0
100
AcDbLine
 10
8123.600000000006
 20
7446.452724951704
 30
0.0
 11
8231.576191631505
 21
7554.428916583204
 31
0.0
  0
LINE
  5
2E5DC
330
747D
100
AcDbEntity
  8
細線
 48
50.0
100
AcDbLine
 10
8256.082594658229
 20
7354.428916583199
 30
0.0
 11
8323.600000000004
 21
7421.946321924979
 31
0.0
  0
LINE
  5
2E5DD
330
747D
100
AcDbEntity
  8
細線
 48
50.0
100
AcDbLine
 10
8123.600000000012
 20
7356.650163741019
 30
0.0
 11
8321.378752842198
 21
7554.428916583204
 31
0.0
  0
LINE
  5
2E5DE
330
747D
100
AcDbEntity
  8
細線
 48
50.0
100
AcDbLine
 10
8211.18131405287
 20
7354.428916583201
 30
0.0
 11
8323.600000000002
 21
7466.847602530314
 31
0.0
  0
LINE
  5
2E5DF
330
747D
100
AcDbEntity
  8
細線
 48
50.0
100
AcDbLine
 10
8166.280033447542
 20
7354.428916583201
 30
0.0
 11
8323.600000000002
 21
7511.748883135663
 31
0.0
  0
LINE
  5
2E5E0
330
747D
100
AcDbEntity
  8
細線
 48
50.0
100
AcDbLine
 10
8300.983875263565
 20
7354.428916583201
 30
0.0
 11
8323.600000000007
 21
7377.04504131964
 31
0.0
  0
LINE
  5
2E5E1
330
747D
100
AcDbEntity
  8
部品1
 48
50.0
100
AcDbLine
 10
8434.84406807895
 20
7814.921397954861
 30
0.0
 11
7936.696076967732
 21
5776.086123124074
 31
0.0
  0
SPLINE
  5
2E5E2
330
747D
100
AcDbEntity
  8
部品1
 48
50.0
100
AcDbSpline
210
0.0
220
0.0
230
1.0
 70
     8
 71
     3
 72
    10
 73
     6
 74
     4
 42
0.0000000001
 43
0.0000000001
 44
0.0000000001
 40
0.0
 40
0.0
 40
0.0
 40
0.0
 40
203.1413039717394
 40
420.5363205048489
 40
686.5018404766874
 40
686.5018404766874
 40
686.5018404766874
 40
686.5018404766874
 10
8308.271253306674
 20
6967.822334923242
 30
0.0
 10
8209.438428709557
 20
6944.738939248562
 30
0.0
 10
8004.838026976607
 20
6896.952467014738
 30
0.0
 10
8443.797415444416
 20
6732.236945897351
 30
0.0
 10
8188.760182073531
 20
6691.373438203989
 30
0.0
 10
8048.427851933105
 20
6668.888598729663
 30
0.0
 11
8308.271253306674
 21
6967.822334923242
 31
0.0
 11
8122.258756091119
 21
6886.17835009293
 31
0.0
 11
8298.632534667369
 21
6759.084355568536
 31
0.0
 11
8048.427851933105
 21
6668.888598729663
 31
0.0
  0
LINE
  5
2E5ED
102
{ACAD_REACTORS
330
2E5FC
102
}
330
747D
100
AcDbEntity
  8
部品1
 48
50.0
100
AcDbLine
 10
12383.6
 20
6294.428916583215
 30
0.0
 11
12383.6
 21
7354.428916583199
 31
0.0
  0
LINE
  5
2E5EE
102
{ACAD_REACTORS
330
2E60D
102
}
330
747D
100
AcDbEntity
  8
部品1
 48
50.0
100
AcDbLine
 10
4063.6
 20
6294.428916583196
 30
0.0
 11
4063.599999999995
 21
7354.428916583201
 31
0.0
  0
HATCH
  5
2E5FC
330
747D
100
AcDbEntity
  8
細線
 48
50.0
100
AcDbHatch
 10
0.0
 20
0.0
 30
0.0
210
0.0
220
0.0
230
1.0
  2
LINE
 70
     0
 71
     1
 91
        1
 92
        7
 72
     0
 73
     1
 93
        4
 10
12503.6
 20
6909.42891658322
 10
12383.6
 20
6909.428916583216
 10
12383.6
 20
6709.428916583217
 10
12503.6
 20
6709.428916583217
 97
        4
330
2DDAE
330
2E5ED
330
2DDAF
330
2DD55
 75
     0
 76
     1
 52
45.0
 41
10.0
 77
     0
 78
     1
 53
45.0
 43
0.0
 44
0.0
 45
-22.45064030267288
 46
22.45064030267288
 79
     0
 47
1.717184254726103
 98
        1
 10
12415.61290543075
 20
6815.634505554149
  0
HATCH
  5
2E60D
330
747D
100
AcDbEntity
  8
細線
 48
50.0
100
AcDbHatch
 10
0.0
 20
0.0
 30
0.0
210
0.0
220
0.0
230
1.0
  2
LINE
 70
     0
 71
     1
 91
        1
 92
        7
 72
     0
 73
     1
 93
        4
 10
4063.599999999997
 20
6909.42891658322
 10
3943.600000000001
 20
6909.428916583218
 10
3943.600000000001
 20
6709.428916583218
 10
4063.599999999998
 20
6709.428916583217
 97
        4
330
2DCAA
330
2DC94
330
2DCAB
330
2E5EE
 75
     0
 76
     1
 52
45.0
 41
10.0
 77
     0
 78
     1
 53
45.0
 43
0.0
 44
0.0
 45
-22.45064030267288
 46
22.45064030267288
 79
     0
 47
1.343221664884601
 98
        1
 10
4058.855515267918
 20
6847.976304035586
  0
LINE
  5
2E79B
330
747D
100
AcDbEntity
  8
部品1
100
AcDbLine
 10
10244.16549737684
 20
3423.848429916725
 30
0.0
 11
4173.180311990586
 21
3423.848429916725
 31
0.0
  0
LINE
  5
2E79C
330
747D
100
AcDbEntity
  8
部品1
100
AcDbLine
 10
10244.16549737684
 20
3183.848429916723
 30
0.0
 11
4173.18031199059
 21
3183.848429916723
 31
0.0
  0
LINE
  5
2E79D
330
747D
100
AcDbEntity
  8
部品1
100
AcDbLine
 10
4173.180311990591
 20
459.5414603320778
 30
0.0
 11
10244.16549737684
 21
459.5414603320778
 31
0.0
  0
LEADER
  5
2E79E
330
747D
100
AcDbEntity
  8
寸法
 48
50.0
100
AcDbLeader
  3
INABA_S50G
 73
     0
 74
     0
 75
     1
 40
102.2727272727273
 41
680.0000000000001
 76
     3
 10
7181.288063977046
 20
2423.385043825283
 30
0.0
 10
7215.642035090401
 20
2833.837854931823
 30
0.0
 10
7340.642035090401
 20
2833.837854931823
 30
0.0
340
2E79F
1001
ACAD
1000
DSTYLE
1002
{
1070
   341
1005
0
1070
    40
1040
1.0
1070
   343
1005
0
1070
   344
1005
0
1002
}
  0
MTEXT
  5
2E79F
102
{ACAD_REACTORS
330
2E79E
102
}
330
747D
100
AcDbEntity
  8
部品1
 62
     7
 48
50.0
100
AcDbMText
 10
7365.642035090401
 20
2909.974218568187
 30
0.0
 40
80.0
 41
0.8
 71
     4
 72
     1
  1
\A1;ナット(市販品)
  7
STYLE2
 73
     1
 44
1.0
1001
ACAD
1000
MTEXTBEGIN
1070
    73
1070
     1
1070
    44
1040
1.0
1070
    74
1070
     0
1000
MTEXTEND
  0
LEADER
  5
2E7A0
330
747D
100
AcDbEntity
  8
寸法
 48
50.0
100
AcDbLeader
  3
INABA_S50G
 73
     0
 74
     0
 75
     1
 40
102.2727272727273
 41
906.8181818181818
 76
     3
 10
7205.288063977045
 20
2293.633051160419
 30
0.0
 10
7247.159654345884
 20
2648.868772167036
 30
0.0
 10
7372.159654345884
 20
2648.868772167036
 30
0.0
340
2E7A1
1001
ACAD
1000
DSTYLE
1002
{
1070
   341
1005
0
1070
    40
1040
1.0
1070
   343
1005
0
1070
   344
1005
0
1002
}
  0
MTEXT
  5
2E7A1
102
{ACAD_REACTORS
330
2E7A0
102
}
330
747D
100
AcDbEntity
  8
部品1
 62
     7
 48
50.0
100
AcDbMText
 10
7397.159654345884
 20
2725.0051358034
 30
0.0
 40
80.0
 41
0.8
 71
     4
 72
     1
  1
\A1;ワッシャー(市販品)
  7
STYLE2
 73
     1
 44
1.0
1001
ACAD
1000
MTEXTBEGIN
1070
    73
1070
     1
1070
    44
1040
1.0
1070
    74
1070
     0
1000
MTEXTEND
  0
LWPOLYLINE
  5
2E7A2
330
747D
100
AcDbEntity
  8
部品1
 48
50.0
100
AcDbPolyline
 90
        2
 70
     0
 43
8.0
 10
7357.888063977043
 20
1784.50976271614
 10
7651.590527376429
 20
1784.50976271614
  0
TEXT
  5
2E7A3
330
747D
100
AcDbEntity
  8
部品1
 48
50.0
100
AcDbText
 10
7362.241648261472
 20
2380.38844347834
 30
0.0
 40
80.0
  1
基礎ボルト(市販品)
  7
STYLE2
100
AcDbText
  0
DIMENSION
  5
2E7A4
330
747D
100
AcDbEntity
  8
寸法
 48
50.0
100
AcDbDimension
  2
*D46
 10
7859.756663745888
 20
1700.509762716138
 30
0.0
 11
7759.756663745888
 21
1862.50976271614
 31
0.0
 70
    32
  1
180
 71
     5
 42
324.0000000000009
  3
INABA_S40G
100
AcDbAlignedDimension
 13
7357.888063977043
 23
2024.50976271614
 33
0.0
 14
7357.888063977043
 24
1700.509762716138
 34
0.0
 50
90.0
100
AcDbRotatedDimension
1001
ACAD
1000
DSTYLE
1002
{
1070
   341
1005
0
1002
}
  0
DIMENSION
  5
2E7A5
330
747D
100
AcDbEntity
  8
寸法
 48
50.0
100
AcDbDimension
  2
*D47
 10
8135.811329864916
 20
2024.509762716139
 30
0.0
 11
8135.811329864916
 21
1558.500859294657
 31
0.0
 70
   160
  1
20～25
 71
     5
 42
52.76000000000135
  3
INABA_S40G
100
AcDbAlignedDimension
 13
7170.688063977046
 23
2077.269762716141
 33
0.0
 14
7357.888063977043
 24
2024.50976271614
 34
0.0
 50
90.0
100
AcDbRotatedDimension
1001
ACAD
1000
DSTYLE
1002
{
1070
   341
1005
0
1002
}
  0
MTEXT
  5
2E7A6
102
{ACAD_REACTORS
330
2E7A7
102
}
330
747D
100
AcDbEntity
  8
部品1
 62
     7
 48
50.0
100
AcDbMText
 10
7366.832526396364
 20
2288.893088869369
 30
0.0
 40
80.0
 41
0.8
 71
     4
 72
     1
  1
M10X160
  7
STYLE2
 73
     1
 44
1.0
1001
ACAD
1000
MTEXTBEGIN
1070
    73
1070
     1
1070
    44
1040
1.0
1070
    74
1070
     0
1000
MTEXTEND
  0
LEADER
  5
2E7A7
330
747D
100
AcDbEntity
  8
寸法
 48
50.0
100
AcDbLeader
  3
INABA_S50G
 73
     0
 74
     0
 75
     1
 40
80.0
 41
435.0
 76
     3
 10
7174.288063977044
 20
2073.66976271614
 30
0.0
 10
7216.832526396363
 20
2223.893088869369
 30
0.0
 10
7341.832526396363
 20
2223.893088869369
 30
0.0
340
2E7A6
1001
ACAD
1000
DSTYLE
1002
{
1070
   341
1005
0
1070
    40
1040
1.0
1070
   343
1005
0
1070
   344
1005
0
1002
}
  0
LINE
  5
2E7A8
330
747D
100
AcDbEntity
  8
部品1
100
AcDbLine
 10
4173.180311990588
 20
3423.848429916725
 30
0.0
 11
4173.18031199059
 21
459.5414603320778
 31
0.0
  0
LEADER
  5
2E7A9
330
747D
100
AcDbEntity
  8
寸法
 48
50.0
100
AcDbLeader
  3
INABA_S50G
 73
     0
 75
     1
 40
113.1818181818182
 41
608.6363636363635
 76
     3
 10
7134.024814115095
 20
1974.025436074418
 30
0.0
 10
7000.220985423748
 20
2825.404518430896
 30
0.0
 10
6875.220985423748
 20
2825.404518430896
 30
0.0
340
2E7AA
1001
ACAD
1000
DSTYLE
1002
{
1070
   341
1005
0
1070
    40
1040
1.0
1070
   343
1005
0
1070
   344
1005
0
1002
}
  0
MTEXT
  5
2E7AA
102
{ACAD_REACTORS
330
2E7A9
102
}
330
747D
100
AcDbEntity
  8
寸法
 62
     7
 48
50.0
100
AcDbMText
 10
6850.220985423748
 20
2906.995427521805
 30
0.0
 40
80.0
 41
0.8
 71
     6
 72
     1
  1
\A1;φ70スリーブ
  7
STYLE2
 73
     1
 44
1.0
1001
ACAD
1000
MTEXTBEGIN
1070
    73
1070
     1
1070
    44
1040
1.0
1070
    74
1070
     0
1000
MTEXTEND
  0
LWPOLYLINE
  5
2E7AB
330
747D
100
AcDbEntity
  8
部品1
 48
50.0
100
AcDbPolyline
 90
        2
 70
     0
 43
8.0
 10
4829.708848966895
 20
1784.50976271614
 10
5243.848750799851
 20
1784.50976271614
  0
TEXT
  5
2E7AC
330
747D
100
AcDbEntity
  8
部品1
 48
50.0
100
AcDbText
 10
4829.708848966895
 20
1795.748754999395
 30
0.0
 40
80.0
  1
▽G.L
  7
STYLE2
100
AcDbText
  0
DIMENSION
  5
2E7AD
330
747D
100
AcDbEntity
  8
寸法
 48
50.0
100
AcDbDimension
  2
*D48
 10
4973.428437067391
 20
1240.509762716139
 30
0.0
 11
4973.428437067391
 21
1360.50976271614
 31
0.0
 70
   160
  1
150
 71
     5
 42
240.0
  3
INABA_S40G
100
AcDbAlignedDimension
 13
5115.848750799851
 23
1480.509762716139
 33
0.0
 14
5035.848750799854
 24
1240.509762716139
 34
0.0
 50
90.0
100
AcDbRotatedDimension
1001
ACAD
1000
DSTYLE
1002
{
1070
   341
1005
0
1002
}
  0
LEADER
  5
2E7AE
330
747D
100
AcDbEntity
  8
寸法
 48
50.0
100
AcDbLeader
  3
INABA_S50G
 71
     0
 73
     0
 75
     1
 40
100.0
 41
225.0
 76
     3
 10
5211.751703151993
 20
1360.509762716139
 30
0.0
 10
5089.913724604656
 20
1096.987069097703
 30
0.0
 10
4964.913724604656
 20
1096.987069097703
 30
0.0
1001
ACAD
1000
DSTYLE
1002
{
1070
    40
1040
1.0
1070
   272
1070
     1
1070
   279
1070
     1
1070
   341
1005
0
1002
}
  0
LEADER
  5
2E7AF
330
747D
100
AcDbEntity
  8
寸法
 48
50.0
100
AcDbLeader
  3
INABA_S50G
 71
     0
 73
     0
 75
     1
 40
100.0
 41
222.7272727272727
 76
     3
 10
5339.848750799851
 20
1360.509762716139
 30
0.0
 10
5118.036452162091
 20
916.6709165582597
 30
0.0
 10
4993.036452162091
 20
916.6709165582597
 30
0.0
1001
ACAD
1000
DSTYLE
1002
{
1070
    40
1040
1.0
1070
   272
1070
     1
1070
   279
1070
     1
1070
   341
1005
0
1002
}
  0
MTEXT
  5
2E7B0
102
{ACAD_REACTORS
330
2E7B1
102
}
330
747D
100
AcDbEntity
  8
寸法
 62
     7
 48
50.0
100
AcDbMText
 10
5154.598696577046
 20
1625.810365533596
 30
0.0
 40
80.0
 41
0.8
 71
     6
 72
     1
  1
\A1;D10@300
  7
STYLE2
 73
     1
 44
1.0
1001
ACAD
1000
MTEXTBEGIN
1070
    73
1070
     1
1070
    44
1040
1.0
1070
    74
1070
     0
1000
MTEXTEND
  0
LEADER
  5
2E7B1
330
747D
100
AcDbEntity
  8
寸法
 48
50.0
100
AcDbLeader
  3
INABA_S50G
 71
     0
 73
     0
 75
     1
 40
100.0
 41
540.3409090909091
 76
     3
 10
5347.848750799851
 20
1782.636977413262
 30
0.0
 10
5289.866514271153
 20
1561.166648872458
 30
0.0
 10
5164.866514271153
 20
1561.166648872458
 30
0.0
213
-9.732182305893367
223
-4.643716661138569
233
0.0
1001
ACAD
1000
DSTYLE
1002
{
1070
    40
1040
1.0
1070
   272
1070
     1
1070
   279
1070
     1
1070
   341
1005
0
1002
}
  0
LEADER
  5
2E7B2
330
747D
100
AcDbEntity
  8
寸法
 48
50.0
100
AcDbLeader
  3
INABA_S50G
 71
     0
 73
     0
 75
     1
 40
130.1136363636363
 41
651.1363636363636
 76
     3
 10
5323.84875079985
 20
2024.50976271614
 30
0.0
 10
5211.424170635834
 20
2164.980528172728
 30
0.0
 10
5086.424170635834
 20
2164.980528172728
 30
0.0
1001
ACAD
1000
DSTYLE
1002
{
1070
    40
1040
1.0
1070
   272
1070
     1
1070
   279
1070
     1
1070
   341
1005
0
1002
}
  0
MTEXT
  5
2E7B3
102
{ACAD_REACTORS
330
2E7B2
102
}
330
747D
100
AcDbEntity
  8
寸法
 62
     7
 48
50.0
100
AcDbMText
 10
5023.750271316578
 20
2237.025982718182
 30
0.0
 40
80.0
 41
0.8
 71
     6
 72
     1
  1
\A1;金コテ押エ
  7
STYLE2
 73
     1
 44
1.0
1001
ACAD
1000
MTEXTBEGIN
1070
    73
1070
     1
1070
    44
1040
1.0
1070
    74
1070
     0
1000
MTEXTEND
  0
DIMENSION
  5
2E7B4
330
747D
100
AcDbEntity
  8
寸法
 48
50.0
100
AcDbDimension
  2
*D49
 10
4508.81151223811
 20
1240.509762716139
 30
0.0
 11
4508.81151223811
 21
1612.04991237214
 31
0.0
 70
   160
  1
540
 71
     5
 42
784.0
  3
INABA_S40G
100
AcDbAlignedDimension
 13
5243.848750799851
 23
2024.50976271614
 33
0.0
 14
5035.848750799854
 24
1240.509762716139
 34
0.0
 50
90.0
100
AcDbRotatedDimension
1001
ACAD
1000
DSTYLE
1002
{
1070
   341
1005
0
1002
}
  0
MTEXT
  5
2E7B5
102
{ACAD_REACTORS
330
2E7AF
102
}
330
747D
100
AcDbEntity
  8
寸法
 62
     7
 48
50.0
100
AcDbMText
 10
4973.036452162091
 20
976.6709165582597
 30
0.0
 40
80.0
 41
0.8
 71
     6
 72
     1
  1
D13
  7
STYLE2
 73
     1
 44
1.0
1001
ACAD
1000
MTEXTBEGIN
1070
    73
1070
     1
1070
    44
1040
1.0
1070
    74
1070
     0
1000
MTEXTEND
  0
MTEXT
  5
2E7B6
102
{ACAD_REACTORS
330
2E7AE
102
}
330
747D
100
AcDbEntity
  8
寸法
 62
     7
 48
50.0
100
AcDbMText
 10
4944.913724604656
 20
1156.987069097703
 30
0.0
 40
80.0
 41
0.8
 71
     6
 72
     1
  1
D10
  7
STYLE2
 73
     1
 44
1.0
1001
ACAD
1000
MTEXTBEGIN
1070
    73
1070
     1
1070
    44
1040
1.0
1070
    74
1070
     0
1000
MTEXTEND
  0
DIMENSION
  5
2E7B7
330
747D
100
AcDbEntity
  8
寸法
 48
50.0
100
AcDbDimension
  2
*D50
 10
5563.84875079985
 20
702.0801247109793
 30
0.0
 11
5319.751992121627
 21
702.0801247109793
 31
0.0
 70
   160
  1
300
 71
     5
 42
448.0
  3
INABA_S40G
100
AcDbAlignedDimension
 13
5115.848750799851
 23
1112.509762716139
 33
0.0
 14
5563.84875079985
 24
1112.509762716139
 34
0.0
100
AcDbRotatedDimension
1001
ACAD
1000
DSTYLE
1002
{
1070
   341
1005
0
1002
}
  0
MTEXT
  5
2E7B8
102
{ACAD_REACTORS
330
2E7B9
102
}
330
747D
100
AcDbEntity
  8
寸法
 62
     7
 48
50.0
100
AcDbMText
 10
6876.863991632105
 20
2546.311155614291
 30
0.0
 40
80.0
 41
0.8
 71
     6
 72
     1
  1
\A1;アンカープレート L
  7
STYLE2
 73
     1
 44
1.0
1001
ACAD
1000
MTEXTBEGIN
1070
    73
1070
     1
1070
    44
1040
1.0
1070
    74
1070
     0
1000
MTEXTEND
  0
LEADER
  5
2E7B9
330
747D
100
AcDbEntity
  8
寸法
 48
50.0
100
AcDbLeader
  3
INABA_S50G
 73
     0
 75
     1
 40
106.3636363636363
 41
893.1818181818181
 76
     3
 10
7075.288063977045
 20
2094.069762716141
 30
0.0
 10
7026.863991632104
 20
2468.129337432473
 30
0.0
 10
6901.863991632104
 20
2468.129337432473
 30
0.0
340
2E7B8
1001
ACAD
1000
DSTYLE
1002
{
1070
   341
1005
0
1070
    40
1040
1.0
1070
   343
1005
0
1070
   344
1005
0
1002
}
  0
LINE
  5
2E7BA
330
747D
100
AcDbEntity
  8
細線
 48
50.0
100
AcDbLine
 10
5363.848750799852
 20
1862.88265538397
 30
0.0
 11
5435.848750799852
 21
1934.88265538397
 31
0.0
  0
ARC
  5
2E7BB
330
747D
100
AcDbEntity
  8
部品1
 48
50.0
100
AcDbCircle
 10
5339.848750799852
 20
1884.764192110385
 30
0.0
 40
24.0
100
AcDbArc
 50
0.0
 51
180.0
  0
CIRCLE
  5
2E7BC
330
747D
100
AcDbEntity
  8
部品1
 48
50.0
100
AcDbCircle
 10
5339.848750799852
 20
1884.764192110385
 30
0.0
 40
8.0
  0
LINE
  5
2E7BD
330
747D
100
AcDbEntity
  8
部品1
 48
50.0
100
AcDbLine
 10
5243.848750799852
 20
1480.509762716139
 30
0.0
 11
5243.848750799852
 21
2024.50976271614
 31
0.0
  0
LINE
  5
2E7BE
330
747D
100
AcDbEntity
  8
部品1
 48
50.0
100
AcDbLine
 10
5435.848750799852
 20
2024.50976271614
 30
0.0
 11
5435.848750799852
 21
1480.509762716139
 31
0.0
  0
MTEXT
  5
2E7BF
102
{ACAD_REACTORS
330
2E7C4
102
}
330
747D
100
AcDbEntity
  8
寸法
 62
     7
 48
50.0
100
AcDbMText
 10
5518.734687827246
 20
2047.06566200895
 30
0.0
 40
80.0
 41
0.8
 71
     4
 72
     1
  1
D13
  7
STYLE2
 73
     1
 44
1.0
1001
ACAD
1000
MTEXTBEGIN
1070
    73
1070
     1
1070
    44
1040
1.0
1070
    74
1070
     0
1000
MTEXTEND
  0
LEADER
  5
2E7C0
330
747D
100
AcDbEntity
  8
寸法
 48
50.0
100
AcDbLeader
  3
INABA_S50G
 71
     0
 73
     0
 74
     0
 75
     1
 40
100.0
 41
225.0
 76
     3
 10
5467.751703151994
 20
1360.509762716139
 30
0.0
 10
5522.176410606536
 20
1265.112693773167
 30
0.0
 10
5647.176410606536
 20
1265.112693773167
 30
0.0
1001
ACAD
1000
DSTYLE
1002
{
1070
    40
1040
1.0
1070
   272
1070
     1
1070
   279
1070
     1
1070
   341
1005
0
1002
}
  0
LEADER
  5
2E7C1
330
747D
100
AcDbEntity
  8
寸法
 48
50.0
100
AcDbLeader
  3
INABA_S50G
 71
     0
 73
     0
 74
     0
 75
     1
 40
100.0
 41
540.3409090909091
 76
     3
 10
5413.793919813025
 20
1343.769232302614
 30
0.0
 10
5532.587206661101
 20
1002.138414307716
 30
0.0
 10
5657.587206661101
 20
1002.138414307716
 30
0.0
213
0.0
223
-1.022262676269383
233
0.0
1001
ACAD
1000
DSTYLE
1002
{
1070
    40
1040
1.0
1070
   272
1070
     1
1070
   279
1070
     1
1070
   341
1005
0
1002
}
  0
MTEXT
  5
2E7C2
102
{ACAD_REACTORS
330
2E7C0
102
}
330
747D
100
AcDbEntity
  8
寸法
 62
     7
 48
50.0
100
AcDbMText
 10
5667.176410606536
 20
1325.112693773167
 30
0.0
 40
80.0
 41
0.8
 71
     4
 72
     1
  1
D10
  7
STYLE2
 73
     1
 44
1.0
1001
ACAD
1000
MTEXTBEGIN
1070
    73
1070
     1
1070
    44
1040
1.0
1070
    74
1070
     0
1000
MTEXTEND
  0
LWPOLYLINE
  5
2E7C3
330
747D
100
AcDbEntity
  8
部品1
 48
50.0
100
AcDbPolyline
 90
        2
 70
     0
 43
8.0
 10
5435.848750799851
 20
1784.50976271614
 10
5849.988652632808
 20
1784.50976271614
  0
LEADER
  5
2E7C4
330
747D
100
AcDbEntity
  8
寸法
 48
50.0
100
AcDbLeader
  3
INABA_S50G
 71
     0
 73
     0
 74
     0
 75
     1
 40
100.0
 41
222.7272727272727
 76
     3
 10
5339.848750799851
 20
1884.764192110385
 30
0.0
 10
5393.734687827246
 20
1983.999764963559
 30
0.0
 10
5518.734687827246
 20
1983.999764963559
 30
0.0
1001
ACAD
1000
DSTYLE
1002
{
1070
    40
1040
1.0
1070
   272
1070
     1
1070
   279
1070
     1
1070
   341
1005
0
1002
}
  0
LINE
  5
2E7C5
330
747D
100
AcDbEntity
  8
細線
 48
50.0
100
AcDbLine
 10
5115.848750799845
 20
1399.35650847831
 30
0.0
 11
5197.002005037679
 21
1480.509762716139
 31
0.0
  0
LINE
  5
2E7C6
330
747D
100
AcDbEntity
  8
細線
 48
50.0
100
AcDbLine
 10
5323.714598277256
 20
1418.636977413262
 30
0.0
 11
5347.848750799857
 21
1442.77112993586
 31
0.0
  0
LINE
  5
2E7C7
330
747D
100
AcDbEntity
  8
細線
 48
50.0
100
AcDbLine
 10
5230.646615216924
 20
1352.509762716139
 30
0.0
 11
5347.848750799851
 21
1469.711898299065
 31
0.0
  0
LINE
  5
2E7C8
330
747D
100
AcDbEntity
  8
部品1
 48
50.0
100
AcDbLine
 10
5115.848750799852
 20
1240.509762716139
 30
0.0
 11
5115.848750799852
 21
1480.509762716139
 31
0.0
  0
LINE
  5
2E7C9
330
747D
100
AcDbEntity
  8
細線
 48
50.0
100
AcDbLine
 10
5473.113530485796
 20
1352.509762716139
 30
0.0
 11
5563.848750799852
 21
1443.244983030198
 31
0.0
  0
LINE
  5
2E7CA
330
747D
100
AcDbEntity
  8
細線
 48
50.0
100
AcDbLine
 10
5446.172762122579
 20
1352.509762716139
 30
0.0
 11
5563.848750799852
 21
1470.185751393406
 31
0.0
  0
LINE
  5
2E7CB
330
747D
100
AcDbEntity
  8
部品1
 48
50.0
100
AcDbLine
 10
5563.848750799852
 20
1480.509762716139
 30
0.0
 11
5563.848750799852
 21
1240.509762716139
 31
0.0
  0
LINE
  5
2E7CC
330
747D
100
AcDbEntity
  8
部品1
 48
50.0
100
AcDbLine
 10
5363.848750799856
 20
1360.509762716139
 30
0.0
 11
5363.848750799852
 21
1884.764192110385
 31
0.0
  0
LINE
  5
2E7CD
330
747D
100
AcDbEntity
  8
部品1
 48
50.0
100
AcDbLine
 10
5347.848750799857
 20
1360.509762716139
 30
0.0
 11
5347.848750799844
 21
1884.764192110385
 31
0.0
  0
LINE
  5
2E7CE
330
747D
100
AcDbEntity
  8
細線
 48
50.0
100
AcDbLine
 10
5331.848750799852
 20
1399.830361572651
 30
0.0
 11
5347.848750799857
 21
1415.830361572651
 31
0.0
  0
LINE
  5
2E7CF
330
747D
100
AcDbEntity
  8
細線
 48
50.0
100
AcDbLine
 10
5321.031590295866
 20
1112.509762716139
 30
0.0
 11
5355.329086927048
 21
1240.509762716139
 31
0.0
  0
LINE
  5
2E7D0
330
747D
100
AcDbEntity
  8
部品1
 48
50.0
100
AcDbLine
 10
5643.848750799855
 20
1112.509762716139
 30
0.0
 11
5035.848750799853
 21
1112.509762716139
 31
0.0
  0
LINE
  5
2E7D1
330
747D
100
AcDbEntity
  8
部品1
 48
50.0
100
AcDbLine
 10
5171.848750799852
 20
1336.509762716139
 30
0.0
 11
5507.848750799851
 21
1336.509762716139
 31
0.0
  0
LINE
  5
2E7D2
330
747D
100
AcDbEntity
  8
部品1
 48
50.0
100
AcDbLine
 10
5171.848750799852
 20
1352.509762716139
 30
0.0
 11
5507.848750799851
 21
1352.509762716139
 31
0.0
  0
LINE
  5
2E7D3
330
747D
100
AcDbEntity
  8
部品1
 48
50.0
100
AcDbLine
 10
5643.848750799855
 20
1240.509762716139
 30
0.0
 11
5035.848750799853
 21
1240.509762716139
 31
0.0
  0
CIRCLE
  5
2E7D4
330
747D
100
AcDbEntity
  8
部品1
 48
50.0
100
AcDbCircle
 10
5339.848750799852
 20
1360.509762716139
 30
0.0
 40
8.0
  0
LINE
  5
2E7D5
330
747D
100
AcDbEntity
  8
細線
 48
50.0
100
AcDbLine
 10
5334.172762122585
 20
1240.509762716139
 30
0.0
 11
5430.172762122584
 21
1336.509762716139
 31
0.0
  0
LINE
  5
2E7D6
330
747D
100
AcDbEntity
  8
細線
 48
50.0
100
AcDbLine
 10
5163.255500401367
 20
1112.509762716139
 30
0.0
 11
5197.552997032551
 21
1240.509762716139
 31
0.0
  0
LINE
  5
2E7D7
330
747D
100
AcDbEntity
  8
細線
 48
50.0
100
AcDbLine
 10
5242.143545348613
 20
1112.509762716137
 30
0.0
 11
5276.441041979796
 21
1240.509762716137
 31
0.0
  0
LINE
  5
2E7D8
330
747D
100
AcDbEntity
  8
細線
 48
50.0
100
AcDbLine
 10
5084.36745545411
 20
1112.509762716137
 30
0.0
 11
5118.664952085293
 21
1240.509762716137
 31
0.0
  0
LINE
  5
2E7D9
330
747D
100
AcDbEntity
  8
部品1
 48
50.0
100
AcDbLine
 10
5035.848750799853
 20
1112.509762716139
 30
0.0
 11
5035.848750799853
 21
1240.509762716139
 31
0.0
  0
LINE
  5
2E7DA
330
747D
100
AcDbEntity
  8
細線
 48
50.0
100
AcDbLine
 10
5169.686281019714
 20
1136.509762716139
 30
0.0
 11
5176.117061638062
 21
1112.509762716139
 31
0.0
  0
LINE
  5
2E7DB
330
747D
100
AcDbEntity
  8
細線
 48
50.0
100
AcDbLine
 10
5090.798236072463
 20
1136.509762716139
 30
0.0
 11
5097.229016690809
 21
1112.509762716139
 31
0.0
  0
LINE
  5
2E7DC
330
747D
100
AcDbEntity
  8
細線
 48
50.0
100
AcDbLine
 10
5327.462370914219
 20
1136.509762716139
 30
0.0
 11
5333.893151532564
 21
1112.509762716139
 31
0.0
  0
LINE
  5
2E7DD
330
747D
100
AcDbEntity
  8
細線
 48
50.0
100
AcDbLine
 10
5248.574325966966
 20
1136.509762716139
 30
0.0
 11
5255.005106585312
 21
1112.509762716139
 31
0.0
  0
LINE
  5
2E7DE
330
747D
100
AcDbEntity
  8
細線
 48
50.0
100
AcDbLine
 10
5145.587383580135
 20
1240.509762716139
 30
0.0
 11
5241.587383580135
 21
1336.509762716139
 31
0.0
  0
LINE
  5
2E7DF
330
747D
100
AcDbEntity
  8
細線
 48
50.0
100
AcDbLine
 10
5118.646615216924
 20
1240.509762716139
 30
0.0
 11
5214.646615216924
 21
1336.509762716139
 31
0.0
  0
LINE
  5
2E7E0
330
747D
100
AcDbEntity
  8
部品1
 48
50.0
100
AcDbLine
 10
5171.848750799852
 20
1352.509762716139
 30
0.0
 11
5171.848750799852
 21
1336.509762716139
 31
0.0
  0
LINE
  5
2E7E1
330
747D
100
AcDbEntity
  8
細線
 48
50.0
100
AcDbLine
 10
5112.234171466951
 20
1216.509762716139
 30
0.0
 11
5105.803390848604
 21
1240.509762716139
 31
0.0
  0
LINE
  5
2E7E2
330
747D
100
AcDbEntity
  8
細線
 48
50.0
100
AcDbLine
 10
5035.848750799852
 20
1225.849683681919
 30
0.0
 11
5039.776907138048
 21
1240.509762716139
 31
0.0
  0
LINE
  5
2E7E3
330
747D
100
AcDbEntity
  8
部品1
 48
50.0
100
AcDbLine
 10
5331.848750799852
 20
1418.636977413262
 30
0.0
 11
5315.848750799851
 21
1418.636977413262
 31
0.0
  0
CIRCLE
  5
2E7E4
330
747D
100
AcDbEntity
  8
部品1
 48
50.0
100
AcDbCircle
 10
5211.848750799852
 20
1360.509762716139
 30
0.0
 40
8.0
  0
LINE
  5
2E7E5
330
747D
100
AcDbEntity
  8
細線
 48
50.0
100
AcDbLine
 10
5284.52815194334
 20
1352.509762716139
 30
0.0
 11
5315.848750799851
 21
1383.830361572651
 31
0.0
  0
ARC
  5
2E7E6
330
747D
100
AcDbEntity
  8
部品1
 48
50.0
100
AcDbCircle
 10
5339.848750799852
 20
1360.509762716139
 30
0.0
 40
24.0
100
AcDbArc
 50
180.0
 51
199.4712206344713
  0
LINE
  5
2E7E7
330
747D
100
AcDbEntity
  8
細線
 48
50.0
100
AcDbLine
 10
5191.122216414203
 20
1216.509762716139
 30
0.0
 11
5184.691435795857
 21
1240.509762716139
 31
0.0
  0
LINE
  5
2E7E8
330
747D
100
AcDbEntity
  8
細線
 48
50.0
100
AcDbLine
 10
5270.010261361456
 20
1216.509762716139
 30
0.0
 11
5263.57948074311
 21
1240.509762716139
 31
0.0
  0
LINE
  5
2E7E9
330
747D
100
AcDbEntity
  8
細線
 48
50.0
100
AcDbLine
 10
5172.52815194334
 20
1240.509762716139
 30
0.0
 11
5268.52815194334
 21
1336.509762716139
 31
0.0
  0
LINE
  5
2E7EA
330
747D
100
AcDbEntity
  8
部品1
 48
50.0
100
AcDbLine
 10
5315.848750799851
 20
1418.636977413262
 30
0.0
 11
5315.848750799851
 21
1360.509762716139
 31
0.0
  0
LINE
  5
2E7EB
330
747D
100
AcDbEntity
  8
細線
 48
50.0
100
AcDbLine
 10
5257.587383580135
 20
1352.509762716139
 30
0.0
 11
5315.848750799851
 21
1410.771129935858
 31
0.0
  0
LINE
  5
2E7EC
330
747D
100
AcDbEntity
  8
部品1
 48
50.0
100
AcDbLine
 10
5331.848750799852
 20
1418.636977413262
 30
0.0
 11
5331.848750799852
 21
1360.509762716139
 31
0.0
  0
LINE
  5
2E7ED
330
747D
100
AcDbEntity
  8
部品1
 48
50.0
100
AcDbLine
 10
5643.848750799855
 20
1240.509762716139
 30
0.0
 11
5643.848750799855
 21
1112.509762716139
 31
0.0
  0
LINE
  5
2E7EE
330
747D
100
AcDbEntity
  8
細線
 48
50.0
100
AcDbLine
 10
5557.695725137605
 20
1112.509762716139
 30
0.0
 11
5591.99322176879
 21
1240.509762716137
 31
0.0
  0
LINE
  5
2E7EF
330
747D
100
AcDbEntity
  8
細線
 48
50.0
100
AcDbLine
 10
5399.919635243112
 20
1112.509762716139
 30
0.0
 11
5434.217131874298
 21
1240.509762716137
 31
0.0
  0
LINE
  5
2E7F0
330
747D
100
AcDbEntity
  8
細線
 48
50.0
100
AcDbLine
 10
5478.80768019036
 20
1112.509762716137
 30
0.0
 11
5513.105176821545
 21
1240.509762716137
 31
0.0
  0
LINE
  5
2E7F1
330
747D
100
AcDbEntity
  8
細線
 48
50.0
100
AcDbLine
 10
5485.23846080871
 20
1136.509762716139
 30
0.0
 11
5491.669241427057
 21
1112.509762716139
 31
0.0
  0
LINE
  5
2E7F2
330
747D
100
AcDbEntity
  8
細線
 48
50.0
100
AcDbLine
 10
5406.350415861464
 20
1136.509762716139
 30
0.0
 11
5412.78119647981
 21
1112.509762716139
 31
0.0
  0
LINE
  5
2E7F3
330
747D
100
AcDbEntity
  8
細線
 48
50.0
100
AcDbLine
 10
5564.126505755957
 20
1136.509762716139
 30
0.0
 11
5570.557286374304
 21
1112.509762716139
 31
0.0
  0
LINE
  5
2E7F4
330
747D
100
AcDbEntity
  8
細線
 48
50.0
100
AcDbLine
 10
5643.014550703203
 20
1136.509762716139
 30
0.0
 11
5643.848750799851
 21
1133.396485571775
 31
0.0
  0
LINE
  5
2E7F5
330
747D
100
AcDbEntity
  8
細線
 48
50.0
100
AcDbLine
 10
5636.583770084854
 20
1112.509762716137
 30
0.0
 11
5643.848750799851
 21
1139.623039860527
 31
0.0
  0
LINE
  5
2E7F6
330
747D
100
AcDbEntity
  8
細線
 48
50.0
100
AcDbLine
 10
5500.054298848999
 20
1352.509762716139
 30
0.0
 11
5563.848750799852
 21
1416.30421466699
 31
0.0
  0
CIRCLE
  5
2E7F7
330
747D
100
AcDbEntity
  8
部品1
 48
50.0
100
AcDbCircle
 10
5467.848750799852
 20
1360.509762716139
 30
0.0
 40
8.0
  0
ARC
  5
2E7F8
330
747D
100
AcDbEntity
  8
部品1
 48
50.0
100
AcDbCircle
 10
5339.848750799852
 20
1360.509762716139
 30
0.0
 40
24.0
100
AcDbArc
 50
340.5287793655287
 51
0.0
  0
LINE
  5
2E7F9
330
747D
100
AcDbEntity
  8
細線
 48
50.0
100
AcDbLine
 10
5348.898306308708
 20
1216.509762716139
 30
0.0
 11
5342.46752569036
 21
1240.509762716139
 31
0.0
  0
LINE
  5
2E7FA
330
747D
100
AcDbEntity
  8
細線
 48
50.0
100
AcDbLine
 10
5427.786351255953
 20
1216.509762716139
 30
0.0
 11
5421.355570637608
 21
1240.509762716139
 31
0.0
  0
LINE
  5
2E7FB
330
747D
100
AcDbEntity
  8
細線
 48
50.0
100
AcDbLine
 10
5361.113530485795
 20
1240.509762716139
 30
0.0
 11
5457.113530485795
 21
1336.509762716139
 31
0.0
  0
LINE
  5
2E7FC
330
747D
100
AcDbEntity
  8
細線
 48
50.0
100
AcDbLine
 10
5388.054298848999
 20
1240.509762716139
 30
0.0
 11
5484.055186694136
 21
1336.510650561278
 31
0.0
  0
LINE
  5
2E7FD
330
747D
100
AcDbEntity
  8
部品1
 48
50.0
100
AcDbLine
 10
5507.848750799851
 20
1352.509762716139
 30
0.0
 11
5507.848750799851
 21
1336.509762716139
 31
0.0
  0
LINE
  5
2E7FE
330
747D
100
AcDbEntity
  8
細線
 48
50.0
100
AcDbLine
 10
5585.562441150446
 20
1216.509762716139
 30
0.0
 11
5579.131660532098
 21
1240.509762716139
 31
0.0
  0
LINE
  5
2E7FF
330
747D
100
AcDbEntity
  8
細線
 48
50.0
100
AcDbLine
 10
5549.698909028245
 20
1240.509762716139
 30
0.0
 11
5563.848750799852
 21
1254.659604487746
 31
0.0
  0
LINE
  5
2E800
330
747D
100
AcDbEntity
  8
細線
 48
50.0
100
AcDbLine
 10
5506.674396203198
 20
1216.509762716139
 30
0.0
 11
5500.243615584853
 21
1240.509762716139
 31
0.0
  0
LINE
  5
2E801
330
747D
100
AcDbEntity
  8
細線
 48
50.0
100
AcDbLine
 10
5243.848750799852
 20
1554.297276841517
 30
0.0
 11
5347.848750799857
 21
1658.29727684152
 31
0.0
  0
LINE
  5
2E802
330
747D
100
AcDbEntity
  8
細線
 48
50.0
100
AcDbLine
 10
5243.848750799852
 20
1581.238045204725
 30
0.0
 11
5347.848750799851
 21
1685.238045204726
 31
0.0
  0
LINE
  5
2E803
330
747D
100
AcDbEntity
  8
細線
 48
50.0
100
AcDbLine
 10
5243.848750799852
 20
1527.35650847831
 30
0.0
 11
5347.848750799857
 21
1631.35650847831
 31
0.0
  0
LINE
  5
2E804
330
747D
100
AcDbEntity
  8
細線
 48
50.0
100
AcDbLine
 10
5331.848750799852
 20
1830.88265538397
 30
0.0
 11
5347.848750799851
 21
1846.88265538397
 31
0.0
  0
LINE
  5
2E805
330
747D
100
AcDbEntity
  8
細線
 48
50.0
100
AcDbLine
 10
5331.848750799852
 20
1857.823423747177
 30
0.0
 11
5347.848750799851
 21
1873.823423747177
 31
0.0
  0
LINE
  5
2E806
330
747D
100
AcDbEntity
  8
部品1
 48
50.0
100
AcDbLine
 10
5115.848750799852
 20
1480.509762716139
 30
0.0
 11
5243.848750799852
 21
1480.509762716139
 31
0.0
  0
LINE
  5
2E807
330
747D
100
AcDbEntity
  8
細線
 48
50.0
100
AcDbLine
 10
5115.848750799845
 20
1426.297276841515
 30
0.0
 11
5170.061236674476
 21
1480.509762716139
 31
0.0
  0
LINE
  5
2E808
330
747D
100
AcDbEntity
  8
細線
 48
50.0
100
AcDbLine
 10
5115.848750799845
 20
1453.238045204725
 30
0.0
 11
5143.120468311265
 21
1480.509762716139
 31
0.0
  0
LINE
  5
2E809
330
747D
100
AcDbEntity
  8
部品1
 48
50.0
100
AcDbLine
 10
5331.848750799852
 20
1826.636977413262
 30
0.0
 11
5315.848750799851
 21
1826.636977413265
 31
0.0
  0
LINE
  5
2E80A
330
747D
100
AcDbEntity
  8
細線
 48
50.0
100
AcDbLine
 10
5243.848750799852
 20
1742.88265538397
 30
0.0
 11
5327.603072829145
 21
1826.636977413262
 31
0.0
  0
LINE
  5
2E80B
330
747D
100
AcDbEntity
  8
細線
 48
50.0
100
AcDbLine
 10
5243.848750799852
 20
1769.823423747177
 30
0.0
 11
5315.848750799851
 21
1841.823423747177
 31
0.0
  0
LINE
  5
2E80C
330
747D
100
AcDbEntity
  8
部品1
 48
50.0
100
AcDbLine
 10
5315.848750799851
 20
1826.636977413265
 30
0.0
 11
5315.848750799851
 21
1884.764192110385
 31
0.0
  0
LINE
  5
2E80D
330
747D
100
AcDbEntity
  8
細線
 48
50.0
100
AcDbLine
 10
5243.848750799852
 20
1796.764192110385
 30
0.0
 11
5315.848750799851
 21
1868.764192110385
 31
0.0
  0
LINE
  5
2E80E
330
747D
100
AcDbEntity
  8
部品1
 48
50.0
100
AcDbLine
 10
5331.848750799852
 20
1826.636977413262
 30
0.0
 11
5331.848750799852
 21
1884.764192110385
 31
0.0
  0
LINE
  5
2E80F
330
747D
100
AcDbEntity
  8
細線
 48
50.0
100
AcDbLine
 10
5363.848750799856
 20
1647.35650847831
 30
0.0
 11
5435.848750799845
 21
1719.35650847831
 31
0.0
  0
LINE
  5
2E810
330
747D
100
AcDbEntity
  8
部品1
 48
50.0
100
AcDbLine
 10
5435.848750799852
 20
1480.509762716139
 30
0.0
 11
5563.848750799852
 21
1480.509762716139
 31
0.0
  0
LINE
  5
2E811
330
747D
100
AcDbEntity
  8
細線
 48
50.0
100
AcDbLine
 10
5363.848750799856
 20
1458.77112993586
 30
0.0
 11
5435.848750799845
 21
1530.771129935855
 31
0.0
  0
LINE
  5
2E812
330
747D
100
AcDbEntity
  8
細線
 48
50.0
100
AcDbLine
 10
5363.848750799856
 20
1485.711898299069
 30
0.0
 11
5435.848750799845
 21
1557.711898299065
 31
0.0
  0
LINE
  5
2E813
330
747D
100
AcDbEntity
  8
細線
 48
50.0
100
AcDbLine
 10
5363.848750799856
 20
1431.830361572651
 30
0.0
 11
5435.848750799845
 21
1503.830361572651
 31
0.0
  0
LINE
  5
2E814
330
747D
100
AcDbEntity
  8
細線
 48
50.0
100
AcDbLine
 10
5363.848750799852
 20
1701.238045204726
 30
0.0
 11
5435.848750799852
 21
1773.238045204725
 31
0.0
  0
LINE
  5
2E815
330
747D
100
AcDbEntity
  8
細線
 48
50.0
100
AcDbLine
 10
5363.848750799856
 20
1674.29727684152
 30
0.0
 11
5435.848750799845
 21
1746.297276841515
 31
0.0
  0
MTEXT
  5
2E816
102
{ACAD_REACTORS
330
2E7C1
102
}
330
747D
100
AcDbEntity
  8
寸法
 62
     7
 48
50.0
100
AcDbMText
 10
5677.587206661102
 20
1063.160676983986
 30
0.0
 40
80.0
 41
0.8
 71
     4
 72
     1
  1
\A1;D10@300
  7
STYLE2
 73
     1
 44
1.0
1001
ACAD
1000
MTEXTBEGIN
1070
    73
1070
     1
1070
    44
1040
1.0
1070
    74
1070
     0
1000
MTEXTEND
  0
DIMENSION
  5
2E817
330
747D
100
AcDbEntity
  8
寸法
 48
50.0
100
AcDbDimension
  2
*D51
 10
5243.848750799851
 20
2444.17757063252
 30
0.0
 11
5339.848750799851
 21
2444.17757063252
 31
0.0
 70
   160
  1
120\P200\P280
 71
     5
 42
192.0
  3
INABA_S40G
100
AcDbAlignedDimension
 13
5435.848750799851
 23
2024.50976271614
 33
0.0
 14
5243.848750799851
 24
2024.50976271614
 34
0.0
100
AcDbRotatedDimension
1001
ACAD
1000
DSTYLE
1002
{
1070
   341
1005
0
1002
}
  0
LINE
  5
2E818
330
747D
100
AcDbEntity
  8
部品1
 48
50.0
100
AcDbLine
 10
5243.848750799852
 20
2024.50976271614
 30
0.0
 11
5435.848750799852
 21
2024.50976271614
 31
0.0
  0
LINE
  5
2E819
330
747D
100
AcDbEntity
  8
細線
 48
50.0
100
AcDbLine
 10
5243.848750799852
 20
1985.349570652837
 30
0.0
 11
5283.008942863155
 21
2024.50976271614
 31
0.0
  0
LINE
  5
2E81A
330
747D
100
AcDbEntity
  8
細線
 48
50.0
100
AcDbLine
 10
5243.848750799852
 20
1958.408802289629
 30
0.0
 11
5309.94971122636
 21
2024.50976271614
 31
0.0
  0
LINE
  5
2E81B
330
747D
100
AcDbEntity
  8
細線
 48
50.0
100
AcDbLine
 10
5243.848750799852
 20
2012.290339016045
 30
0.0
 11
5256.068174499946
 21
2024.50976271614
 31
0.0
  0
LINE
  5
2E81C
330
747D
100
AcDbEntity
  8
細線
 48
50.0
100
AcDbLine
 10
5363.401458065838
 20
1889.376131013161
 30
0.0
 11
5435.848750799852
 21
1961.823423747177
 31
0.0
  0
LINE
  5
2E81D
330
747D
100
AcDbEntity
  8
細線
 48
50.0
100
AcDbLine
 10
5352.341173302321
 20
1905.256614612855
 30
0.0
 11
5435.848750799852
 21
1988.764192110385
 31
0.0
  0
LINE
  5
2E81E
330
747D
100
AcDbEntity
  8
細線
 48
50.0
100
AcDbLine
 10
7228.288063977045
 20
1865.638045204728
 30
0.0
 11
7357.888063977043
 21
1995.238045204726
 31
0.0
  0
LINE
  5
2E81F
330
747D
100
AcDbEntity
  8
部品1
100
AcDbLine
 10
7357.888063977043
 20
1480.509762716139
 30
0.0
 11
7357.888063977043
 21
2024.50976271614
 31
0.0
  0
LINE
  5
2E820
330
747D
100
AcDbEntity
  8
部品1
 48
50.0
100
AcDbLine
 10
6943.888063977045
 20
1480.509762716139
 30
0.0
 11
6943.888063977045
 21
2024.50976271614
 31
0.0
  0
LINE
  5
2E821
330
747D
100
AcDbEntity
  8
細線
 48
50.0
100
AcDbLine
 10
6943.888063977045
 20
1796.764192110385
 30
0.0
 11
7102.288063977045
 21
1955.164192110382
 31
0.0
  0
LINE
  5
2E822
330
747D
100
AcDbEntity
  8
細線
 48
50.0
100
AcDbLine
 10
6943.888063977045
 20
1769.823423747177
 30
0.0
 11
7102.288063977045
 21
1928.223423747175
 31
0.0
  0
LINE
  5
2E823
330
747D
100
AcDbEntity
  8
細線
 48
50.0
100
AcDbLine
 10
6943.888063977045
 20
1742.88265538397
 30
0.0
 11
7102.288063977041
 21
1901.282655383962
 31
0.0
  0
TEXT
  5
2E824
330
747D
100
AcDbEntity
  8
部品1
 48
50.0
100
AcDbText
 10
6529.748162144088
 20
1795.748754999395
 30
0.0
 40
80.0
  1
▽G.L
  7
STYLE2
100
AcDbText
  0
LINE
  5
2E825
330
747D
100
AcDbEntity
  8
部品1
100
AcDbLine
 10
7174.288063977044
 20
1799.509762716139
 30
0.0
 11
7174.288063977041
 21
2073.66976271614
 31
0.0
  0
LINE
  5
2E826
330
747D
100
AcDbEntity
  8
部品1
100
AcDbLine
 10
7156.288063977045
 20
1799.509762716139
 30
0.0
 11
7156.288063977041
 21
2073.66976271614
 31
0.0
  0
LINE
  5
2E827
330
747D
100
AcDbEntity
  8
細線
 48
50.0
100
AcDbLine
 10
7228.288063977045
 20
1811.756508478298
 30
0.0
 11
7357.888063977043
 21
1941.356508478289
 31
0.0
  0
LINE
  5
2E828
330
747D
100
AcDbEntity
  8
細線
 48
50.0
100
AcDbLine
 10
7228.288063977045
 20
1838.697276841511
 30
0.0
 11
7357.888063977043
 21
1968.297276841507
 31
0.0
  0
LINE
  5
2E829
330
747D
100
AcDbEntity
  8
部品1
100
AcDbLine
 10
7228.288063977045
 20
1700.509762716139
 30
0.0
 11
7228.288063977045
 21
2024.50976271614
 31
0.0
  0
LINE
  5
2E82A
330
747D
100
AcDbEntity
  8
部品1
100
AcDbLine
 10
7102.288063977038
 20
1700.509762716139
 30
0.0
 11
7102.288063977045
 21
2024.50976271614
 31
0.0
  0
LINE
  5
2E82B
330
747D
100
AcDbEntity
  8
細線
 48
50.0
100
AcDbLine
 10
6943.888063977045
 20
1554.297276841517
 30
0.0
 11
7102.288063977038
 21
1712.697276841506
 31
0.0
  0
LINE
  5
2E82C
330
747D
100
AcDbEntity
  8
細線
 48
50.0
100
AcDbLine
 10
6943.888063977045
 20
1527.35650847831
 30
0.0
 11
7117.04131821488
 21
1700.509762716137
 31
0.0
  0
LINE
  5
2E82D
330
747D
100
AcDbEntity
  8
細線
 48
50.0
100
AcDbLine
 10
6943.888063977045
 20
1581.238045204725
 30
0.0
 11
7102.288063977038
 21
1739.638045204721
 31
0.0
  0
LINE
  5
2E82E
330
747D
100
AcDbEntity
  8
細線
 48
50.0
100
AcDbLine
 10
6872.567465120535
 20
1240.509762716139
 30
0.0
 11
7357.888063977043
 21
1725.830361572647
 31
0.0
  0
LINE
  5
2E82F
330
747D
100
AcDbEntity
  8
細線
 48
50.0
100
AcDbLine
 10
6845.62669675733
 20
1240.509762716139
 30
0.0
 11
7357.888063977047
 21
1752.771129935853
 31
0.0
  0
LINE
  5
2E830
330
747D
100
AcDbEntity
  8
細線
 48
50.0
100
AcDbLine
 10
6818.685928394121
 20
1240.509762716139
 30
0.0
 11
7357.888063977043
 21
1779.711898299065
 31
0.0
  0
LINE
  5
2E831
330
747D
100
AcDbEntity
  8
部品1
 48
50.0
100
AcDbLine
 10
7565.888063977047
 20
1240.509762716139
 30
0.0
 11
6735.888063977047
 21
1240.509762716139
 31
0.0
  0
LINE
  5
2E832
330
747D
100
AcDbEntity
  8
部品1
 48
50.0
100
AcDbLine
 10
7565.888063977047
 20
1112.509762716139
 30
0.0
 11
6735.888063977047
 21
1112.509762716139
 31
0.0
  0
LINE
  5
2E833
330
747D
100
AcDbEntity
  8
細線
 48
50.0
100
AcDbLine
 10
6815.88806397704
 20
1399.35650847831
 30
0.0
 11
6897.041318214874
 21
1480.509762716139
 31
0.0
  0
LINE
  5
2E834
330
747D
100
AcDbEntity
  8
部品1
 48
50.0
100
AcDbLine
 10
6815.888063977045
 20
1240.509762716139
 30
0.0
 11
6815.888063977045
 21
1480.509762716139
 31
0.0
  0
LINE
  5
2E835
330
747D
100
AcDbEntity
  8
細線
 48
50.0
100
AcDbLine
 10
6863.294813578562
 20
1112.509762716139
 30
0.0
 11
6897.592310209745
 21
1240.509762716139
 31
0.0
  0
LINE
  5
2E836
330
747D
100
AcDbEntity
  8
部品1
 48
50.0
100
AcDbLine
 10
6735.888063977047
 20
1112.509762716139
 30
0.0
 11
6735.888063977047
 21
1240.509762716139
 31
0.0
  0
LINE
  5
2E837
330
747D
100
AcDbEntity
  8
細線
 48
50.0
100
AcDbLine
 10
6784.406768631304
 20
1112.509762716137
 30
0.0
 11
6818.704265262486
 21
1240.509762716137
 31
0.0
  0
LINE
  5
2E838
330
747D
100
AcDbEntity
  8
細線
 48
50.0
100
AcDbLine
 10
6942.18285852581
 20
1112.509762716137
 30
0.0
 11
6976.48035515699
 21
1240.509762716137
 31
0.0
  0
LINE
  5
2E839
330
747D
100
AcDbEntity
  8
細線
 48
50.0
100
AcDbLine
 10
6790.837549249657
 20
1136.509762716139
 30
0.0
 11
6797.268329868003
 21
1112.509762716139
 31
0.0
  0
LINE
  5
2E83A
330
747D
100
AcDbEntity
  8
細線
 48
50.0
100
AcDbLine
 10
6948.61363914416
 20
1136.509762716139
 30
0.0
 11
6955.044419762508
 21
1112.509762716139
 31
0.0
  0
LINE
  5
2E83B
330
747D
100
AcDbEntity
  8
細線
 48
50.0
100
AcDbLine
 10
6869.725594196911
 20
1136.509762716139
 30
0.0
 11
6876.156374815256
 21
1112.509762716139
 31
0.0
  0
LINE
  5
2E83C
330
747D
100
AcDbEntity
  8
細線
 48
50.0
100
AcDbLine
 10
6735.888063977045
 20
1225.849683681919
 30
0.0
 11
6739.81622031524
 21
1240.509762716139
 31
0.0
  0
LINE
  5
2E83D
330
747D
100
AcDbEntity
  8
細線
 48
50.0
100
AcDbLine
 10
6812.273484644146
 20
1216.509762716139
 30
0.0
 11
6805.842704025801
 21
1240.509762716139
 31
0.0
  0
LINE
  5
2E83E
330
747D
100
AcDbEntity
  8
細線
 48
50.0
100
AcDbLine
 10
6970.04957453865
 20
1216.509762716139
 30
0.0
 11
6963.618793920303
 21
1240.509762716139
 31
0.0
  0
LINE
  5
2E83F
330
747D
100
AcDbEntity
  8
細線
 48
50.0
100
AcDbLine
 10
6891.161529591399
 20
1216.509762716139
 30
0.0
 11
6884.730748973051
 21
1240.509762716139
 31
0.0
  0
LWPOLYLINE
  5
2E840
330
747D
100
AcDbEntity
  8
部品1
 48
50.0
100
AcDbPolyline
 90
        2
 70
     0
 43
8.0
 10
6529.748162144088
 20
1784.50976271614
 10
6943.888063977045
 20
1784.50976271614
  0
LINE
  5
2E841
330
747D
100
AcDbEntity
  8
細線
 48
50.0
100
AcDbLine
 10
6815.88806397704
 20
1426.297276841515
 30
0.0
 11
6870.100549851669
 21
1480.509762716139
 31
0.0
  0
LINE
  5
2E842
330
747D
100
AcDbEntity
  8
部品1
 48
50.0
100
AcDbLine
 10
6815.888063977045
 20
1480.509762716139
 30
0.0
 11
6943.888063977045
 21
1480.509762716139
 31
0.0
  0
LINE
  5
2E843
330
747D
100
AcDbEntity
  8
細線
 48
50.0
100
AcDbLine
 10
6815.88806397704
 20
1453.238045204725
 30
0.0
 11
6843.159781488459
 21
1480.509762716139
 31
0.0
  0
LINE
  5
2E844
330
747D
100
AcDbEntity
  8
細線
 48
50.0
100
AcDbLine
 10
7061.15284366299
 20
1240.509762716139
 30
0.0
 11
7357.888063977043
 21
1537.244983030192
 31
0.0
  0
LINE
  5
2E845
330
747D
100
AcDbEntity
  8
細線
 48
50.0
100
AcDbLine
 10
7088.093612026193
 20
1240.509762716139
 30
0.0
 11
7357.888063977043
 21
1510.304214666997
 31
0.0
  0
LINE
  5
2E846
330
747D
100
AcDbEntity
  8
細線
 48
50.0
100
AcDbLine
 10
7034.212075299778
 20
1240.509762716139
 30
0.0
 11
7357.888063977043
 21
1564.185751393405
 31
0.0
  0
LINE
  5
2E847
330
747D
100
AcDbEntity
  8
細線
 48
50.0
100
AcDbLine
 10
7249.738222205436
 20
1240.509762716139
 30
0.0
 11
7485.888063977043
 21
1476.659604487748
 31
0.0
  0
LINE
  5
2E848
330
747D
100
AcDbEntity
  8
細線
 48
50.0
100
AcDbLine
 10
7276.678990568649
 20
1240.509762716139
 30
0.0
 11
7485.888063977043
 21
1449.718836124533
 31
0.0
  0
LINE
  5
2E849
330
747D
100
AcDbEntity
  8
部品1
 48
50.0
100
AcDbLine
 10
7485.888063977043
 20
1480.509762716139
 30
0.0
 11
7485.888063977043
 21
1240.509762716139
 31
0.0
  0
LINE
  5
2E84A
330
747D
100
AcDbEntity
  8
細線
 48
50.0
100
AcDbLine
 10
7303.619758931855
 20
1240.509762716139
 30
0.0
 11
7485.888063977043
 21
1422.778067761335
 31
0.0
  0
LINE
  5
2E84B
330
747D
100
AcDbEntity
  8
細線
 48
50.0
100
AcDbLine
 10
7178.846993367556
 20
1112.509762716137
 30
0.0
 11
7213.144489998737
 21
1240.509762716137
 31
0.0
  0
LINE
  5
2E84C
330
747D
100
AcDbEntity
  8
細線
 48
50.0
100
AcDbLine
 10
7021.070903473059
 20
1112.509762716139
 30
0.0
 11
7055.368400104242
 21
1240.509762716139
 31
0.0
  0
LINE
  5
2E84D
330
747D
100
AcDbEntity
  8
細線
 48
50.0
100
AcDbLine
 10
7099.958948420305
 20
1112.509762716139
 30
0.0
 11
7134.256445051491
 21
1240.509762716137
 31
0.0
  0
LINE
  5
2E84E
330
747D
100
AcDbEntity
  8
細線
 48
50.0
100
AcDbLine
 10
7257.735038314797
 20
1112.509762716139
 30
0.0
 11
7292.032534945981
 21
1240.509762716137
 31
0.0
  0
LINE
  5
2E84F
330
747D
100
AcDbEntity
  8
細線
 48
50.0
100
AcDbLine
 10
7106.389729038659
 20
1136.509762716139
 30
0.0
 11
7112.820509657005
 21
1112.509762716139
 31
0.0
  0
LINE
  5
2E850
330
747D
100
AcDbEntity
  8
細線
 48
50.0
100
AcDbLine
 10
7027.501684091411
 20
1136.509762716139
 30
0.0
 11
7033.93246470976
 21
1112.509762716139
 31
0.0
  0
LINE
  5
2E851
330
747D
100
AcDbEntity
  8
細線
 48
50.0
100
AcDbLine
 10
7264.16581893315
 20
1136.509762716139
 30
0.0
 11
7270.596599551495
 21
1112.509762716139
 31
0.0
  0
LINE
  5
2E852
330
747D
100
AcDbEntity
  8
細線
 48
50.0
100
AcDbLine
 10
7185.277773985905
 20
1136.509762716139
 30
0.0
 11
7191.708554604251
 21
1112.509762716139
 31
0.0
  0
LINE
  5
2E853
330
747D
100
AcDbEntity
  8
細線
 48
50.0
100
AcDbLine
 10
7127.825664433149
 20
1216.509762716139
 30
0.0
 11
7121.394883814798
 21
1240.509762716139
 31
0.0
  0
LINE
  5
2E854
330
747D
100
AcDbEntity
  8
細線
 48
50.0
100
AcDbLine
 10
7048.937619485901
 20
1216.509762716139
 30
0.0
 11
7042.506838867554
 21
1240.509762716139
 31
0.0
  0
LINE
  5
2E855
330
747D
100
AcDbEntity
  8
細線
 48
50.0
100
AcDbLine
 10
7206.713709380394
 20
1216.509762716139
 30
0.0
 11
7200.282928762049
 21
1240.509762716139
 31
0.0
  0
LINE
  5
2E856
330
747D
100
AcDbEntity
  8
細線
 48
50.0
100
AcDbLine
 10
7285.60175432764
 20
1216.509762716139
 30
0.0
 11
7279.170973709293
 21
1240.509762716139
 31
0.0
  0
LINE
  5
2E857
330
747D
100
AcDbEntity
  8
部品1
 48
50.0
100
AcDbLine
 10
7565.888063977047
 20
1240.509762716139
 30
0.0
 11
7565.888063977047
 21
1112.509762716139
 31
0.0
  0
LINE
  5
2E858
330
747D
100
AcDbEntity
  8
細線
 48
50.0
100
AcDbLine
 10
7494.399173156541
 20
1112.509762716137
 30
0.0
 11
7528.696669787724
 21
1240.509762716136
 31
0.0
  0
LINE
  5
2E859
330
747D
100
AcDbEntity
  8
細線
 48
50.0
100
AcDbLine
 10
7336.623083262046
 20
1112.509762716137
 30
0.0
 11
7370.92057989322
 21
1240.509762716139
 31
0.0
  0
LINE
  5
2E85A
330
747D
100
AcDbEntity
  8
細線
 48
50.0
100
AcDbLine
 10
7415.511128209295
 20
1112.509762716136
 30
0.0
 11
7449.80862484048
 21
1240.509762716136
 31
0.0
  0
LINE
  5
2E85B
330
747D
100
AcDbEntity
  8
細線
 48
50.0
100
AcDbLine
 10
7343.053863880395
 20
1136.509762716139
 30
0.0
 11
7349.484644498753
 21
1112.509762716139
 31
0.0
  0
LINE
  5
2E85C
330
747D
100
AcDbEntity
  8
細線
 48
50.0
100
AcDbLine
 10
7421.941908827645
 20
1136.509762716137
 30
0.0
 11
7428.37268944599
 21
1112.509762716137
 31
0.0
  0
LINE
  5
2E85D
330
747D
100
AcDbEntity
  8
細線
 48
50.0
100
AcDbLine
 10
7500.829953774889
 20
1136.509762716137
 30
0.0
 11
7507.26073439324
 21
1112.509762716137
 31
0.0
  0
LINE
  5
2E85E
330
747D
100
AcDbEntity
  8
細線
 48
50.0
100
AcDbLine
 10
7364.489799274878
 20
1216.509762716139
 30
0.0
 11
7358.059018656532
 21
1240.509762716139
 31
0.0
  0
LINE
  5
2E85F
330
747D
100
AcDbEntity
  8
細線
 48
50.0
100
AcDbLine
 10
7443.377844222133
 20
1216.509762716137
 30
0.0
 11
7436.947063603787
 21
1240.509762716137
 31
0.0
  0
LINE
  5
2E860
330
747D
100
AcDbEntity
  8
細線
 48
50.0
100
AcDbLine
 10
7522.265889169379
 20
1216.509762716137
 30
0.0
 11
7515.835108551033
 21
1240.509762716137
 31
0.0
  0
LINE
  5
2E861
330
747D
100
AcDbEntity
  8
部品1
100
AcDbLine
 10
7228.288063977045
 20
1700.509762716137
 30
0.0
 11
7102.288063977038
 21
1700.509762716137
 31
0.0
  0
LINE
  5
2E862
330
747D
100
AcDbEntity
  8
部品1
100
AcDbLine
 10
7210.288063977045
 20
1781.509762716139
 30
0.0
 11
7210.288063977045
 21
1799.509762716139
 31
0.0
  0
ARC
  5
2E863
330
747D
100
AcDbEntity
  8
部品1
100
AcDbCircle
 10
7174.288063977044
 20
1799.509762716139
 30
0.0
 40
18.0
100
AcDbArc
 50
180.0
 51
270.0
  0
LINE
  5
2E864
330
747D
100
AcDbEntity
  8
部品1
100
AcDbLine
 10
7174.288063977044
 20
1781.509762716139
 30
0.0
 11
7210.288063977045
 21
1781.509762716139
 31
0.0
  0
LINE
  5
2E865
330
747D
100
AcDbEntity
  8
部品1
100
AcDbLine
 10
7174.288063977044
 20
1799.509762716139
 30
0.0
 11
7210.288063977045
 21
1799.509762716139
 31
0.0
  0
LINE
  5
2E866
330
747D
100
AcDbEntity
  8
部品1
 48
50.0
100
AcDbLine
 10
7357.888063977043
 20
1480.509762716139
 30
0.0
 11
7485.888063977043
 21
1480.509762716139
 31
0.0
  0
LINE
  5
2E867
330
747D
100
AcDbEntity
  8
部品1
100
AcDbLine
 10
6963.688063977045
 20
2114.509762716139
 30
0.0
 11
7001.488063977046
 21
2114.509762716139
 31
0.0
  0
LINE
  5
2E868
330
747D
100
AcDbEntity
  8
細線
 48
50.0
100
AcDbLine
 10
6943.888063977045
 20
1985.349570652837
 30
0.0
 11
6983.048256040352
 21
2024.50976271614
 31
0.0
  0
LINE
  5
2E869
330
747D
100
AcDbEntity
  8
細線
 48
50.0
100
AcDbLine
 10
6943.888063977045
 20
1958.408802289629
 30
0.0
 11
7009.989024403555
 21
2024.50976271614
 31
0.0
  0
LINE
  5
2E86A
330
747D
100
AcDbEntity
  8
部品1
 48
50.0
100
AcDbLine
 10
6943.888063977045
 20
2024.50976271614
 30
0.0
 11
7357.888063977047
 21
2024.50976271614
 31
0.0
  0
LINE
  5
2E86B
330
747D
100
AcDbEntity
  8
部品1
100
AcDbLine
 10
6960.988063977047
 20
2103.709762716139
 30
0.0
 11
6960.988063977047
 21
2111.80976271614
 31
0.0
  0
ARC
  5
2E86C
330
747D
100
AcDbEntity
  8
部品1
100
AcDbCircle
 10
6963.688063977045
 20
2111.80976271614
 30
0.0
 40
2.7
100
AcDbArc
 50
90.0
 51
180.0
  0
ARC
  5
2E86D
330
747D
100
AcDbEntity
  8
部品1
100
AcDbCircle
 10
6952.888063977045
 20
2098.901666418848
 30
0.0
 40
2.7
100
AcDbArc
 50
104.0362434679067
 51
180.0
  0
LINE
  5
2E86E
330
747D
100
AcDbEntity
  8
部品1
100
AcDbLine
 10
6952.233217789447
 20
2101.521051169239
 30
0.0
 11
6960.988063977047
 21
2103.709762716139
 31
0.0
  0
ARC
  5
2E86F
330
747D
100
AcDbEntity
  8
部品1
100
AcDbCircle
 10
6952.888063977045
 20
2036.76976271614
 30
0.0
 40
2.7
100
AcDbArc
 50
180.0
 51
270.0
  0
LINE
  5
2E870
330
747D
100
AcDbEntity
  8
細線
 48
50.0
100
AcDbLine
 10
6943.888063977045
 20
2012.290339016045
 30
0.0
 11
6956.107487677138
 21
2024.50976271614
 31
0.0
  0
LINE
  5
2E871
330
747D
100
AcDbEntity
  8
部品1
100
AcDbLine
 10
6952.888063977045
 20
2034.06976271614
 30
0.0
 11
6964.588063977039
 21
2034.06976271614
 31
0.0
  0
LINE
  5
2E872
330
747D
100
AcDbEntity
  8
部品1
100
AcDbLine
 10
6950.188063977044
 20
2036.76976271614
 30
0.0
 11
6950.188063977044
 21
2098.901666418848
 31
0.0
  0
LINE
  5
2E873
330
747D
100
AcDbEntity
  8
部品1
100
AcDbLine
 10
7108.848063977039
 20
2034.06976271614
 30
0.0
 11
7310.188063977038
 21
2034.06976271614
 31
0.0
  0
LINE
  5
2E874
330
747D
100
AcDbEntity
  8
部品1
100
AcDbLine
 10
7001.488063977046
 20
2114.509762716139
 30
0.0
 11
7001.488063977046
 21
2122.60976271614
 31
0.0
  0
LINE
  5
2E875
330
747D
100
AcDbEntity
  8
部品1
100
AcDbLine
 10
7051.888063977044
 20
2133.409762716136
 30
0.0
 11
7051.888063977044
 21
2082.10976271614
 31
0.0
  0
LINE
  5
2E876
330
747D
100
AcDbEntity
  8
部品1
100
AcDbLine
 10
7075.288063977045
 20
2094.06976271614
 30
0.0
 11
7103.448063977045
 21
2094.06976271614
 31
0.0
  0
ARC
  5
2E877
330
747D
100
AcDbEntity
  8
部品1
100
AcDbCircle
 10
7075.288063977045
 20
2091.36976271614
 30
0.0
 40
2.7
100
AcDbArc
 50
90.0
 51
180.0
  0
ARC
  5
2E878
330
747D
100
AcDbEntity
  8
部品1
100
AcDbCircle
 10
7103.448063977045
 20
2091.36976271614
 30
0.0
 40
2.7
100
AcDbArc
 50
0.0
 51
90.0
  0
LINE
  5
2E879
330
747D
100
AcDbEntity
  8
部品1
100
AcDbLine
 10
7094.188063977046
 20
2079.409762716139
 30
0.0
 11
7094.188063977046
 21
2036.76976271614
 31
0.0
  0
LINE
  5
2E87A
330
747D
100
AcDbEntity
  8
部品1
100
AcDbLine
 10
7079.788063977045
 20
2034.06976271614
 30
0.0
 11
7091.488063977045
 21
2034.06976271614
 31
0.0
  0
ARC
  5
2E87B
330
747D
100
AcDbEntity
  8
部品1
100
AcDbCircle
 10
7108.848063977039
 20
2036.76976271614
 30
0.0
 40
2.7
100
AcDbArc
 50
180.0
 51
270.0
  0
ARC
  5
2E87C
330
747D
100
AcDbEntity
  8
部品1
100
AcDbCircle
 10
7091.488063977045
 20
2036.76976271614
 30
0.0
 40
2.7
100
AcDbArc
 50
270.0
 51
0.0
  0
LINE
  5
2E87D
330
747D
100
AcDbEntity
  8
部品1
100
AcDbLine
 10
7051.888063977044
 20
2082.10976271614
 30
0.0
 11
7091.488063977045
 21
2082.10976271614
 31
0.0
  0
ARC
  5
2E87E
330
747D
100
AcDbEntity
  8
部品1
100
AcDbCircle
 10
7091.488063977045
 20
2079.409762716139
 30
0.0
 40
2.7
100
AcDbArc
 50
0.0
 51
90.0
  0
LINE
  5
2E87F
330
747D
100
AcDbEntity
  8
部品1
100
AcDbLine
 10
7106.148063977045
 20
2091.36976271614
 30
0.0
 11
7106.148063977042
 21
2036.76976271614
 31
0.0
  0
LINE
  5
2E880
330
747D
100
AcDbEntity
  8
部品1
100
AcDbLine
 10
7072.588063977043
 20
2091.36976271614
 30
0.0
 11
7072.588063977043
 21
2074.26976271614
 31
0.0
  0
LINE
  5
2E881
330
747D
100
AcDbEntity
  8
細線
100
AcDbLine
 10
7170.688063977046
 20
2034.06976271614
 30
0.0
 11
7170.688063977046
 21
2077.26976271614
 31
0.0
  0
LINE
  5
2E882
330
747D
100
AcDbEntity
  8
細線
100
AcDbLine
 10
7159.888063977047
 20
2034.06976271614
 30
0.0
 11
7159.888063977042
 21
2077.26976271614
 31
0.0
  0
LINE
  5
2E883
330
747D
100
AcDbEntity
  8
部品1
100
AcDbLine
 10
7156.288063977045
 20
2073.66976271614
 30
0.0
 11
7174.288063977044
 21
2073.66976271614
 31
0.0
  0
LINE
  5
2E884
330
747D
100
AcDbEntity
  8
部品1
100
AcDbLine
 10
7159.888063977042
 20
2077.26976271614
 30
0.0
 11
7170.688063977046
 21
2077.26976271614
 31
0.0
  0
ELLIPSE
  5
2E885
330
747D
100
AcDbEntity
  8
部品1
 48
50.0
100
AcDbEllipse
 10
7165.288063977044
 20
2293.633051160412
 30
0.0
 11
40.0
 21
0.0
 31
0.0
210
0.0
220
0.0
230
1.0
 40
0.4
 41
0.0
 42
6.283185307179586
  0
ELLIPSE
  5
2E886
330
747D
100
AcDbEntity
  8
部品1
 48
50.0
100
AcDbEllipse
 10
7165.288063977044
 20
2284.033051160413
 30
0.0
 11
40.0
 21
0.0
 31
0.0
210
0.0
220
0.0
230
1.0
 40
0.4
 41
3.141592653589793
 42
6.283185307179586
  0
LINE
  5
2E887
330
747D
100
AcDbEntity
  8
部品1
 48
50.0
100
AcDbLine
 10
7125.288063977045
 20
2293.633051160412
 30
0.0
 11
7125.288063977045
 21
2284.033051160411
 31
0.0
  0
ARC
  5
2E888
330
747D
100
AcDbEntity
  8
部品1
100
AcDbCircle
 10
7049.188063977045
 20
2133.409762716136
 30
0.0
 40
2.7
100
AcDbArc
 50
0.0
 51
90.0
  0
ARC
  5
2E889
330
747D
100
AcDbEntity
  8
部品1
100
AcDbCircle
 10
7006.888063977044
 20
2133.409762716139
 30
0.0
 40
2.7
100
AcDbArc
 50
90.0
 51
180.0
  0
LINE
  5
2E88A
330
747D
100
AcDbEntity
  8
部品1
100
AcDbLine
 10
7004.188063977045
 20
2125.30976271614
 30
0.0
 11
7004.188063977045
 21
2125.30976271614
 31
0.0
  0
LINE
  5
2E88B
330
747D
100
AcDbEntity
  8
部品1
100
AcDbLine
 10
7004.188063977045
 20
2125.30976271614
 30
0.0
 11
7004.188063977045
 21
2133.409762716139
 31
0.0
  0
LINE
  5
2E88C
330
747D
100
AcDbEntity
  8
部品1
100
AcDbLine
 10
7006.888063977044
 20
2136.10976271614
 30
0.0
 11
7049.188063977045
 21
2136.109762716136
 31
0.0
  0
ARC
  5
2E88D
330
747D
100
AcDbEntity
  8
部品1
100
AcDbCircle
 10
7004.188063977045
 20
2122.60976271614
 30
0.0
 40
2.7
100
AcDbArc
 50
90.0
 51
180.0
  0
ELLIPSE
  5
2E88E
330
747D
100
AcDbEntity
  8
部品1
 48
50.0
100
AcDbEllipse
 10
7165.288063977044
 20
2293.633051160412
 30
0.0
 11
18.4
 21
0.0
 31
0.0
210
0.0
220
0.0
230
1.0
 40
0.3478260869565217
 41
0.0
 42
6.283185307179586
  0
LINE
  5
2E88F
330
747D
100
AcDbEntity
  8
部品1
 48
50.0
100
AcDbLine
 10
7205.288063977045
 20
2284.033051160411
 30
0.0
 11
7205.288063977045
 21
2293.633051160412
 31
0.0
  0
LINE
  5
2E890
330
747D
100
AcDbEntity
  8
部品1
 48
50.0
100
AcDbLine
 10
7133.288063977045
 20
2415.385043825282
 30
0.0
 11
7149.288063977045
 21
2407.385043825283
 31
0.0
  0
LINE
  5
2E891
330
747D
100
AcDbEntity
  8
部品1
 48
50.0
100
AcDbLine
 10
7133.288063977045
 20
2383.385043825282
 30
0.0
 11
7149.288063977045
 21
2375.385043825282
 31
0.0
  0
LINE
  5
2E892
330
747D
100
AcDbEntity
  8
部品1
 48
50.0
100
AcDbLine
 10
7133.288063977045
 20
2415.385043825282
 30
0.0
 11
7149.288063977045
 21
2423.385043825283
 31
0.0
  0
LINE
  5
2E893
330
747D
100
AcDbEntity
  8
部品1
 48
50.0
100
AcDbLine
 10
7133.288063977045
 20
2383.385043825282
 30
0.0
 11
7133.288063977045
 21
2415.385043825282
 31
0.0
  0
LINE
  5
2E894
330
747D
100
AcDbEntity
  8
部品1
 48
50.0
100
AcDbLine
 10
7149.288063977045
 20
2423.385043825283
 30
0.0
 11
7181.288063977046
 21
2423.385043825283
 31
0.0
  0
ELLIPSE
  5
2E895
330
747D
100
AcDbEntity
  8
細線
 48
50.0
100
AcDbEllipse
 10
7165.288063977044
 20
2415.385043825282
 30
0.0
 11
14.76670786606846
 21
0.0
 31
0.0
210
0.0
220
0.0
230
1.0
 40
0.2071254069489396
 41
0.0
 42
6.283185307179586
  0
LINE
  5
2E896
330
747D
100
AcDbEntity
  8
部品1
 48
50.0
100
AcDbLine
 10
7149.288063977045
 20
2375.385043825282
 30
0.0
 11
7181.288063977046
 21
2375.385043825282
 31
0.0
  0
LINE
  5
2E897
330
747D
100
AcDbEntity
  8
部品1
 48
50.0
100
AcDbLine
 10
7181.288063977046
 20
2375.385043825282
 30
0.0
 11
7197.288063977045
 21
2383.385043825282
 31
0.0
  0
LINE
  5
2E898
330
747D
100
AcDbEntity
  8
部品1
 48
50.0
100
AcDbLine
 10
7149.288063977045
 20
2407.385043825283
 30
0.0
 11
7181.288063977046
 21
2407.385043825283
 31
0.0
  0
LINE
  5
2E899
330
747D
100
AcDbEntity
  8
部品1
 48
50.0
100
AcDbLine
 10
7181.288063977046
 20
2407.385043825283
 30
0.0
 11
7197.288063977045
 21
2415.385043825282
 31
0.0
  0
LINE
  5
2E89A
330
747D
100
AcDbEntity
  8
細線
 48
50.0
100
AcDbLine
 10
7181.288063977046
 20
2375.385043825282
 30
0.0
 11
7181.288063977046
 21
2407.385043825283
 31
0.0
  0
LINE
  5
2E89B
330
747D
100
AcDbEntity
  8
部品1
 48
50.0
100
AcDbLine
 10
7197.288063977045
 20
2383.385043825282
 30
0.0
 11
7197.288063977045
 21
2415.385043825282
 31
0.0
  0
LINE
  5
2E89C
330
747D
100
AcDbEntity
  8
細線
 48
50.0
100
AcDbLine
 10
7149.288063977045
 20
2375.385043825282
 30
0.0
 11
7149.288063977045
 21
2407.385043825283
 31
0.0
  0
LINE
  5
2E89D
330
747D
100
AcDbEntity
  8
部品1
 48
50.0
100
AcDbLine
 10
7181.288063977046
 20
2423.385043825283
 30
0.0
 11
7197.288063977045
 21
2415.385043825282
 31
0.0
  0
TEXT
  5
2E89E
330
747D
100
AcDbEntity
  8
部品1
100
AcDbText
 10
6866.060313168976
 20
3244.296497965297
 30
0.0
 40
120.0
  1
基礎詳細
  7
STYLE2
100
AcDbText
  0
LINE
  5
2E89F
330
747D
100
AcDbEntity
  8
部品1
100
AcDbLine
 10
10244.16549737683
 20
459.5414603320778
 30
0.0
 11
10244.16549737684
 21
3423.848429916725
 31
0.0
  0
LINE
  5
2E8A0
330
747D
100
AcDbEntity
  8
細線
100
AcDbLine
 10
9252.057329956588
 20
1784.509762716139
 30
0.0
 11
9057.423996279801
 21
1979.143096392922
 31
0.0
  0
LINE
  5
2E8A1
330
747D
100
AcDbEntity
  8
部品1
100
AcDbLine
 10
9057.423996279801
 20
2024.50976271614
 30
0.0
 11
9537.423996279802
 21
2024.50976271614
 31
0.0
  0
LINE
  5
2E8A2
330
747D
100
AcDbEntity
  8
細線
 48
50.0
100
AcDbLine
 10
9191.494880723061
 20
1564.810847062789
 30
0.0
 11
9225.792377354245
 21
1692.810847062788
 31
0.0
  0
LINE
  5
2E8A3
330
747D
100
AcDbEntity
  8
部品1
100
AcDbLine
 10
8937.423996279802
 20
1564.810847062786
 30
0.0
 11
9657.423996279803
 21
1564.810847062789
 31
0.0
  0
LINE
  5
2E8A4
330
747D
100
AcDbEntity
  8
部品1
100
AcDbLine
 10
8937.423996279802
 20
1692.810847062789
 30
0.0
 11
9657.423996279803
 21
1692.810847062792
 31
0.0
  0
LINE
  5
2E8A5
330
747D
100
AcDbEntity
  8
細線
100
AcDbLine
 10
9118.342641773045
 20
1692.810847062789
 30
0.0
 11
9210.041557426391
 21
1784.509762716139
 31
0.0
  0
LWPOLYLINE
  5
2E8A6
330
747D
100
AcDbEntity
  8
部品1
 48
50.0
100
AcDbPolyline
 90
        2
 70
     0
 43
12.0
 10
8672.812734179414
 20
1784.509762716139
 10
9873.90503731104
 20
1784.509762716139
  0
LINE
  5
2E8A7
330
747D
100
AcDbEntity
  8
細線
100
AcDbLine
 10
9201.145641711155
 20
1784.509762716139
 30
0.0
 11
9057.423996279801
 21
1928.231408147492
 31
0.0
  0
TEXT
  5
2E8A8
330
747D
100
AcDbEntity
  8
部品1
 48
50.0
100
AcDbText
 10
8293.305909521299
 20
1517.71002207883
 30
0.0
 40
80.0
  1
ボルトの出
 50
90.0
  7
STYLE2
100
AcDbText
  0
LINE
  5
2E8A9
330
747D
100
AcDbEntity
  8
部品1
100
AcDbLine
 10
9057.423996279801
 20
1784.509762716139
 30
0.0
 11
9057.423996279801
 21
2024.50976271614
 31
0.0
  0
LINE
  5
2E8AA
330
747D
100
AcDbEntity
  8
細線
 48
50.0
100
AcDbLine
 10
9033.718790828563
 20
1564.810847062788
 30
0.0
 11
9068.016287459744
 21
1692.810847062788
 31
0.0
  0
LINE
  5
2E8AB
330
747D
100
AcDbEntity
  8
細線
 48
50.0
100
AcDbLine
 10
9112.606835775812
 20
1564.810847062789
 30
0.0
 11
9146.904332406997
 21
1692.810847062789
 31
0.0
  0
LINE
  5
2E8AC
330
747D
100
AcDbEntity
  8
細線
 48
50.0
100
AcDbLine
 10
8954.830745881315
 20
1564.810847062789
 30
0.0
 11
8989.128242512499
 21
1692.810847062789
 31
0.0
  0
LINE
  5
2E8AD
330
747D
100
AcDbEntity
  8
部品1
100
AcDbLine
 10
8937.423996279802
 20
1564.810847062786
 30
0.0
 11
8937.423996279802
 21
1784.509762716139
 31
0.0
  0
LINE
  5
2E8AE
330
747D
100
AcDbEntity
  8
細線
 48
50.0
100
AcDbLine
 10
9040.149571446914
 20
1588.810847062789
 30
0.0
 11
9046.580352065262
 21
1564.810847062789
 31
0.0
  0
LINE
  5
2E8AF
330
747D
100
AcDbEntity
  8
細線
 48
50.0
100
AcDbLine
 10
8961.261526499663
 20
1588.810847062789
 30
0.0
 11
8967.69230711801
 21
1564.810847062789
 31
0.0
  0
LINE
  5
2E8B0
330
747D
100
AcDbEntity
  8
細線
 48
50.0
100
AcDbLine
 10
9119.037616394164
 20
1588.810847062789
 30
0.0
 11
9125.468397012511
 21
1564.810847062789
 31
0.0
  0
LINE
  5
2E8B1
330
747D
100
AcDbEntity
  8
細線
 48
50.0
100
AcDbLine
 10
9197.925661341411
 20
1588.810847062789
 30
0.0
 11
9204.35644195976
 21
1564.810847062789
 31
0.0
  0
LINE
  5
2E8B2
330
747D
100
AcDbEntity
  8
細線
 48
50.0
100
AcDbLine
 10
8982.697461894153
 20
1668.810847062789
 30
0.0
 11
8976.266681275804
 21
1692.810847062789
 31
0.0
  0
LINE
  5
2E8B3
330
747D
100
AcDbEntity
  8
細線
 48
50.0
100
AcDbLine
 10
9140.473551788655
 20
1668.810847062789
 30
0.0
 11
9134.042771170308
 21
1692.810847062789
 31
0.0
  0
LINE
  5
2E8B4
330
747D
100
AcDbEntity
  8
細線
 48
50.0
100
AcDbLine
 10
9061.585506841401
 20
1668.810847062789
 30
0.0
 11
9055.154726223056
 21
1692.810847062789
 31
0.0
  0
LINE
  5
2E8B5
330
747D
100
AcDbEntity
  8
細線
100
AcDbLine
 10
9050.460390779132
 20
1692.810847062789
 30
0.0
 11
9142.15930643248
 21
1784.509762716139
 31
0.0
  0
LINE
  5
2E8B6
330
747D
100
AcDbEntity
  8
細線
100
AcDbLine
 10
9084.401516276088
 20
1692.810847062789
 30
0.0
 11
9176.100431929432
 21
1784.509762716139
 31
0.0
  0
LINE
  5
2E8B7
330
747D
100
AcDbEntity
  8
細線
100
AcDbLine
 10
9472.674645686792
 20
1784.509762716139
 30
0.0
 11
9232.67464568679
 21
2024.50976271614
 31
0.0
  0
LINE
  5
2E8B8
330
747D
100
AcDbEntity
  8
細線
100
AcDbLine
 10
9523.58633393222
 20
1784.509762716141
 30
0.0
 11
9283.586333932225
 21
2024.50976271614
 31
0.0
  0
LINE
  5
2E8B9
330
747D
100
AcDbEntity
  8
部品1
100
AcDbLine
 10
9537.423996279802
 20
2024.50976271614
 30
0.0
 11
9537.423996279802
 21
1784.509762716139
 31
0.0
  0
LINE
  5
2E8BA
330
747D
100
AcDbEntity
  8
細線
 48
50.0
100
AcDbLine
 10
9507.04706051205
 20
1564.810847062787
 30
0.0
 11
9541.344557143235
 21
1692.810847062787
 31
0.0
  0
LINE
  5
2E8BB
330
747D
100
AcDbEntity
  8
細線
100
AcDbLine
 10
9478.342641773044
 20
1692.810847062791
 30
0.0
 11
9570.041557426391
 21
1784.509762716139
 31
0.0
  0
LINE
  5
2E8BC
330
747D
100
AcDbEntity
  8
細線
 48
50.0
100
AcDbLine
 10
9428.1590155648
 20
1564.810847062788
 30
0.0
 11
9462.456512195975
 21
1692.810847062789
 31
0.0
  0
LINE
  5
2E8BD
330
747D
100
AcDbEntity
  8
細線
 48
50.0
100
AcDbLine
 10
9270.382925670309
 20
1564.810847062788
 30
0.0
 11
9304.680422301492
 21
1692.810847062788
 31
0.0
  0
LINE
  5
2E8BE
330
747D
100
AcDbEntity
  8
細線
 48
50.0
100
AcDbLine
 10
9349.270970617551
 20
1564.810847062789
 30
0.0
 11
9383.568467248737
 21
1692.810847062788
 31
0.0
  0
LINE
  5
2E8BF
330
747D
100
AcDbEntity
  8
細線
 48
50.0
100
AcDbLine
 10
9355.701751235905
 20
1588.810847062789
 30
0.0
 11
9362.132531854252
 21
1564.810847062789
 31
0.0
  0
LINE
  5
2E8C0
330
747D
100
AcDbEntity
  8
細線
 48
50.0
100
AcDbLine
 10
9276.81370628866
 20
1588.810847062789
 30
0.0
 11
9283.244486907006
 21
1564.810847062789
 31
0.0
  0
LINE
  5
2E8C1
330
747D
100
AcDbEntity
  8
細線
 48
50.0
100
AcDbLine
 10
9434.589796183152
 20
1588.810847062789
 30
0.0
 11
9441.020576801507
 21
1564.810847062789
 31
0.0
  0
LINE
  5
2E8C2
330
747D
100
AcDbEntity
  8
細線
 48
50.0
100
AcDbLine
 10
9513.4778411304
 20
1588.810847062788
 30
0.0
 11
9519.908621748745
 21
1564.810847062788
 31
0.0
  0
LINE
  5
2E8C3
330
747D
100
AcDbEntity
  8
細線
 48
50.0
100
AcDbLine
 10
9377.137686630396
 20
1668.810847062789
 30
0.0
 11
9370.706906012049
 21
1692.810847062789
 31
0.0
  0
LINE
  5
2E8C4
330
747D
100
AcDbEntity
  8
細線
 48
50.0
100
AcDbLine
 10
9298.249641683149
 20
1668.810847062789
 30
0.0
 11
9291.818861064802
 21
1692.810847062789
 31
0.0
  0
LINE
  5
2E8C5
330
747D
100
AcDbEntity
  8
細線
 48
50.0
100
AcDbLine
 10
9219.3615967359
 20
1668.810847062789
 30
0.0
 11
9212.930816117554
 21
1692.810847062789
 31
0.0
  0
LINE
  5
2E8C6
330
747D
100
AcDbEntity
  8
細線
100
AcDbLine
 10
9444.401516276093
 20
1692.810847062791
 30
0.0
 11
9536.100431929433
 21
1784.509762716139
 31
0.0
  0
LINE
  5
2E8C7
330
747D
100
AcDbEntity
  8
細線
 48
50.0
100
AcDbLine
 10
9456.025731577632
 20
1668.810847062789
 30
0.0
 11
9449.594950959285
 21
1692.810847062789
 31
0.0
  0
LINE
  5
2E8C8
330
747D
100
AcDbEntity
  8
細線
100
AcDbLine
 10
9410.460390779135
 20
1692.810847062791
 30
0.0
 11
9502.15930643248
 21
1784.509762716139
 31
0.0
  0
LINE
  5
2E8C9
330
747D
100
AcDbEntity
  8
細線
 48
50.0
100
AcDbLine
 10
9534.913776524888
 20
1668.810847062788
 30
0.0
 11
9528.482995906543
 21
1692.810847062788
 31
0.0
  0
LINE
  5
2E8CA
330
747D
100
AcDbEntity
  8
細線
 48
50.0
100
AcDbLine
 10
9585.935105459295
 20
1564.810847062788
 30
0.0
 11
9620.232602090482
 21
1692.810847062787
 31
0.0
  0
LINE
  5
2E8CB
330
747D
100
AcDbEntity
  8
部品1
100
AcDbLine
 10
9657.423996279803
 20
1784.509762716139
 30
0.0
 11
9657.423996279806
 21
1564.810847062789
 31
0.0
  0
LINE
  5
2E8CC
330
747D
100
AcDbEntity
  8
細線
 48
50.0
100
AcDbLine
 10
9592.365886077645
 20
1588.810847062788
 30
0.0
 11
9598.796666695994
 21
1564.810847062788
 31
0.0
  0
LINE
  5
2E8CD
330
747D
100
AcDbEntity
  8
細線
 48
50.0
100
AcDbLine
 10
9613.801821472135
 20
1668.810847062788
 30
0.0
 11
9607.371040853788
 21
1692.810847062788
 31
0.0
  0
LEADER
  5
2E8CE
330
747D
100
AcDbEntity
  8
寸法
 48
50.0
100
AcDbLeader
  3
INABA_S50G
 73
     0
 74
     0
 75
     1
 40
120.0
 41
185.591883092037
 76
     3
 10
9468.148407895725
 20
2024.50976271614
 30
0.0
 10
9501.286614529369
 20
2196.656083397277
 30
0.0
 10
9626.286614529369
 20
2196.656083397277
 30
0.0
340
2E8CF
1001
ACAD
1000
DSTYLE
1002
{
1070
    40
1040
1.0
1002
}
  0
MTEXT
  5
2E8CF
102
{ACAD_REACTORS
330
2E8CE
102
}
330
747D
100
AcDbEntity
  8
寸法
 62
     7
 48
50.0
100
AcDbMText
 10
9651.28661452937
 20
2281.656083397277
 30
0.0
 40
120.0
 41
0.8
 71
     4
 72
     1
  1
\A1;C.B
  7
STYLE1
 73
     1
 44
1.0
1001
ACAD
1000
MTEXTBEGIN
1070
    73
1070
     1
1070
    44
1040
1.0
1070
    74
1070
     0
1000
MTEXTEND
  0
TEXT
  5
2E960
330
747D
100
AcDbEntity
  8
文字
 62
     7
 48
50.0
100
AcDbText
 10
16307.78595799787
 20
0.1862994167713623
 30
0.0
 40
1.0
  1
at
  7
STYLE2
100
AcDbText
  0
ENDSEC
  0
SECTION
  2
OBJECTS
  0
DICTIONARY
  5
7471
330
0
100
AcDbDictionary
281
     1
  3
ACAD_COLOR
350
173D2
  3
ACAD_GROUP
350
7472
  3
ACAD_LAYOUT
350
173D3
  3
ACAD_MATERIAL
350
173D1
  3
ACAD_MLINESTYLE
350
7473
  3
ACAD_PLOTSETTINGS
350
173D4
  3
ACAD_PLOTSTYLENAME
350
173CF
  3
ACDBHEADERROUNDTRIPXREC
350
2E988
  3
AcDbVariableDictionary
350
2E43C
  3
CONTENTDICTIONARY
350
E71C
  3
DRAWINGVARIABLESDICT
350
F3B9
  0
DICTIONARY
  5
1758F
330
7467
100
AcDbDictionary
280
     1
281
     1
  3
ACAD_LAYERSTATES
360
17590
  0
DICTIONARY
  5
173D2
102
{ACAD_REACTORS
330
7471
102
}
330
7471
100
AcDbDictionary
281
     1
  0
DICTIONARY
  5
7472
102
{ACAD_REACTORS
330
7471
102
}
330
7471
100
AcDbDictionary
281
     1
  3
*A1
350
1D2A9
  0
DICTIONARY
  5
173D3
102
{ACAD_REACTORS
330
7471
102
}
330
7471
100
AcDbDictionary
281
     1
  3
Model
350
173D5
  3
レイアウト1
350
173D6
  0
DICTIONARY
  5
173D1
102
{ACAD_REACTORS
330
7471
102
}
330
7471
100
AcDbDictionary
281
     1
  0
DICTIONARY
  5
7473
102
{ACAD_REACTORS
330
7471
102
}
330
7471
100
AcDbDictionary
281
     1
  3
STANDARD
350
7480
  0
DICTIONARY
  5
173D4
102
{ACAD_REACTORS
330
7471
102
}
330
7471
100
AcDbDictionary
281
     1
  0
ACDBDICTIONARYWDFLT
  5
173CF
102
{ACAD_REACTORS
330
7471
102
}
330
7471
100
AcDbDictionary
281
     1
  3
Normal
350
173D0
100
AcDbDictionaryWithDefault
340
173D0
  0
DICTIONARY
  5
2E988
102
{ACAD_REACTORS
330
7471
102
}
330
7471
100
AcDbDictionary
281
     1
  3
COLORDICT
350
2E98A
  3
MATERIALDICT
350
2E989
  0
DICTIONARY
  5
2E43C
102
{ACAD_REACTORS
330
7471
102
}
330
7471
100
AcDbDictionary
281
     1
  3
DIMASSOC
350
2E43D
  3
PROJECTNAME
350
2E43E
  0
DICTIONARY
  5
E71C
102
{ACAD_REACTORS
330
7471
102
}
330
7471
100
AcDbDictionary
281
     1
  0
DICTIONARY
  5
F3B9
102
{ACAD_REACTORS
330
7471
102
}
330
7471
100
AcDbDictionary
281
     1
1001
DRAWINGVARIABLESXDATA
1000
POLARMODE
1000
1
  0
DICTIONARY
  5
17590
102
{ACAD_REACTORS
330
1758F
102
}
330
1758F
100
AcDbDictionary
281
     1
  0
GROUP
  5
1D2A9
102
{ACAD_REACTORS
330
7472
102
}
330
7472
100
AcDbGroup
300

 70
     1
 71
     1
  0
LAYOUT
  5
173D5
102
{ACAD_XDICTIONARY
360
2E98B
102
}
102
{ACAD_REACTORS
330
173D3
102
}
330
173D3
100
AcDbPlotSettings
  1

  2
クセロPDF
  4
A3
  6

 40
3.174999952316284
 41
3.174999952316284
 42
3.17498779296875
 43
3.17498779296875
 44
419.9466552734374
 45
296.9259948730469
 46
0.0
 47
0.0
 48
0.0
 49
0.0
140
0.0
141
0.0
142
1.0
143
39.26798922621119
 70
 11952
 72
     1
 73
     0
 74
     1
  7
inaba.ctb
 75
     0
147
0.0254660353052278
148
-139.196816621341
149
0.3807677628210513
100
AcDbLayout
  1
Model
 70
     1
 71
     0
 10
0.0
 20
0.0
 11
12.0
 21
9.0
 12
0.0
 22
0.0
 32
0.0
 14
0.0
 24
0.0
 34
0.0
 15
0.0
 25
0.0
 35
0.0
146
0.0
 13
0.0
 23
0.0
 33
0.0
 16
1.0
 26
0.0
 36
0.0
 17
0.0
 27
1.0
 37
0.0
 76
     0
330
747D
  0
LAYOUT
  5
173D6
102
{ACAD_XDICTIONARY
360
2E98D
102
}
102
{ACAD_REACTORS
330
173D3
102
}
330
173D3
100
AcDbPlotSettings
  1

  2
Microsoft Office Document Image Writer
  4

  6

 40
0.0
 41
0.0
 42
0.0
 43
0.0
 44
0.0
 45
0.0
 46
0.0
 47
0.0
 48
0.0
 49
0.0
140
0.0
141
0.0
142
1.0
143
1.0
 70
   688
 72
     0
 73
     0
 74
     5
  7

 75
    16
147
1.0
148
0.0
149
0.0
100
AcDbLayout
  1
レイアウト1
 70
     0
 71
     1
 10
0.0
 20
0.0
 11
420.0
 21
297.0
 12
0.0
 22
0.0
 32
0.0
 14
1.000000000000000E+20
 24
1.000000000000000E+20
 34
1.000000000000000E+20
 15
-1.000000000000000E+20
 25
-1.000000000000000E+20
 35
-1.000000000000000E+20
146
0.0
 13
0.0
 23
0.0
 33
0.0
 16
1.0
 26
0.0
 36
0.0
 17
0.0
 27
1.0
 37
0.0
 76
     0
330
747A
  0
MLINESTYLE
  5
7480
102
{ACAD_REACTORS
330
7473
102
}
330
7473
100
AcDbMlineStyle
  2
STANDARD
 70
     0
  3

 62
     0
 51
90.0
 52
90.0
 71
     2
 49
0.5
 62
   256
  6
BYLAYER
 49
-0.5
 62
   256
  6
BYLAYER
  0
ACDBPLACEHOLDER
  5
173D0
102
{ACAD_REACTORS
330
173CF
102
}
330
173CF
  0
XRECORD
  5
2E98A
102
{ACAD_REACTORS
330
2E988
102
}
330
2E988
100
AcDbXrecord
280
     1
340
173D2
  0
XRECORD
  5
2E989
102
{ACAD_REACTORS
330
2E988
102
}
330
2E988
100
AcDbXrecord
280
     1
340
173D1
  0
DICTIONARYVAR
  5
2E43D
102
{ACAD_REACTORS
330
2E43C
102
}
330
2E43C
100
DictionaryVariables
280
     0
  1
1
  0
DICTIONARYVAR
  5
2E43E
102
{ACAD_REACTORS
330
2E43C
102
}
330
2E43C
100
DictionaryVariables
280
     0
  1

  0
DICTIONARY
  5
2E98B
330
173D5
100
AcDbDictionary
280
     1
281
     1
  3
ACAD_XREC_ROUNDTRIP
360
2E98C
  0
DICTIONARY
  5
2E98D
330
173D6
100
AcDbDictionary
280
     1
281
     1
  3
ACAD_XREC_ROUNDTRIP
360
2E98E
  0
XRECORD
  5
2E98C
102
{ACAD_REACTORS
330
2E98B
102
}
330
2E98B
100
AcDbXrecord
280
     1
102
SHADEPLOT
 70
     0
102
SHADEPLOTRESLEVEL
 70
     2
102
SHADEPLOTCUSTOMDPI
 70
   150
  0
XRECORD
  5
2E98E
102
{ACAD_REACTORS
330
2E98D
102
}
330
2E98D
100
AcDbXrecord
280
     1
102
SHADEPLOT
 70
     0
102
SHADEPLOTRESLEVEL
 70
     2
102
SHADEPLOTCUSTOMDPI
 70
   300
  0
ENDSEC
  0
EOF
