  0
SECTION
  2
HEADER
  9
$ACADVER
  1
AC1015
  9
$ACADMAINTVER
 70
    20
  9
$DWGCODEPAGE
  3
ANSI_932
  9
$INSBASE
 10
0.0
 20
0.0
 30
0.0
  9
$EXTMIN
 10
139.9999999999995
 20
-0.0182460377740923
 30
0.0
  9
$EXTMAX
 10
16308.99050345242
 20
11409.6
 30
0.0
  9
$LIMMIN
 10
0.0
 20
0.0
  9
$LIMMAX
 10
16800.0
 20
11880.0
  9
$ORTHOMODE
 70
     0
  9
$REGENMODE
 70
     1
  9
$FILLMODE
 70
     1
  9
$QTEXTMODE
 70
     0
  9
$MIRRTEXT
 70
     1
  9
$LTSCALE
 40
20.0
  9
$ATTMODE
 70
     1
  9
$TEXTSIZE
 40
4.0
  9
$TRACEWID
 40
1.0
  9
$TEXTSTYLE
  7
STYLE1
  9
$CLAYER
  8
細線
  9
$CELTYPE
  6
BYLAYER
  9
$CECOLOR
 62
   256
  9
$CELTSCALE
 40
50.0
  9
$DISPSILH
 70
     0
  9
$DIMSCALE
 40
40.0
  9
$DIMASZ
 40
2.5
  9
$DIMEXO
 40
0.5
  9
$DIMDLI
 40
7.0
  9
$DIMRND
 40
0.0
  9
$DIMDLE
 40
0.0
  9
$DIMEXE
 40
1.5
  9
$DIMTP
 40
0.0
  9
$DIMTM
 40
0.0
  9
$DIMTXT
 40
3.0
  9
$DIMCEN
 40
0.0
  9
$DIMTSZ
 40
0.0
  9
$DIMTOL
 70
     0
  9
$DIMLIM
 70
     0
  9
$DIMTIH
 70
     0
  9
$DIMTOH
 70
     0
  9
$DIMSE1
 70
     0
  9
$DIMSE2
 70
     0
  9
$DIMTAD
 70
     3
  9
$DIMZIN
 70
     8
  9
$DIMBLK
  1

  9
$DIMASO
 70
     1
  9
$DIMSHO
 70
     1
  9
$DIMPOST
  1

  9
$DIMAPOST
  1

  9
$DIMALT
 70
     0
  9
$DIMALTD
 70
     2
  9
$DIMALTF
 40
0.0394
  9
$DIMLFAC
 40
1.0
  9
$DIMTOFL
 70
     1
  9
$DIMTVP
 40
0.0
  9
$DIMTIX
 70
     1
  9
$DIMSOXD
 70
     0
  9
$DIMSAH
 70
     1
  9
$DIMBLK1
  1
DOTSMALL
  9
$DIMBLK2
  1
DOTSMALL
  9
$DIMSTYLE
  2
INABA_S40G
  9
$DIMCLRD
 70
     0
  9
$DIMCLRE
 70
     0
  9
$DIMCLRT
 70
     7
  9
$DIMTFAC
 40
1.0
  9
$DIMGAP
 40
1.0
  9
$DIMJUST
 70
     0
  9
$DIMSD1
 70
     0
  9
$DIMSD2
 70
     0
  9
$DIMTOLJ
 70
     1
  9
$DIMTZIN
 70
     0
  9
$DIMALTZ
 70
     0
  9
$DIMALTTZ
 70
     0
  9
$DIMUPT
 70
     0
  9
$DIMDEC
 70
     1
  9
$DIMTDEC
 70
     4
  9
$DIMALTU
 70
     2
  9
$DIMALTTD
 70
     2
  9
$DIMTXSTY
  7
STYLE1
  9
$DIMAUNIT
 70
     0
  9
$DIMADEC
 70
     0
  9
$DIMALTRND
 40
0.0
  9
$DIMAZIN
 70
     0
  9
$DIMDSEP
 70
    46
  9
$DIMATFIT
 70
     3
  9
$DIMFRAC
 70
     0
  9
$DIMLDRBLK
  1

  9
$DIMLUNIT
 70
     2
  9
$DIMLWD
 70
    -2
  9
$DIMLWE
 70
    -2
  9
$DIMTMOVE
 70
     0
  9
$LUNITS
 70
     2
  9
$LUPREC
 70
     1
  9
$SKETCHINC
 40
1.0
  9
$FILLETRAD
 40
3.0
  9
$AUNITS
 70
     0
  9
$AUPREC
 70
     0
  9
$MENU
  1
acad
  9
$ELEVATION
 40
0.0
  9
$PELEVATION
 40
0.0
  9
$THICKNESS
 40
0.0
  9
$LIMCHECK
 70
     0
  9
$CHAMFERA
 40
0.0
  9
$CHAMFERB
 40
0.0
  9
$CHAMFERC
 40
0.0
  9
$CHAMFERD
 40
0.0
  9
$SKPOLY
 70
     0
  9
$TDCREATE
 40
2451368.612993866
  9
$TDUCREATE
 40
2451368.237993866
  9
$TDUPDATE
 40
2455827.391365151
  9
$TDUUPDATE
 40
2455827.016365151
  9
$TDINDWG
 40
0.8372783218
  9
$TDUSRTIMER
 40
0.8372783218
  9
$USRTIMER
 70
     1
  9
$ANGBASE
 50
0.0
  9
$ANGDIR
 70
     0
  9
$PDMODE
 70
     3
  9
$PDSIZE
 40
2.0
  9
$PLINEWID
 40
0.0
  9
$SPLFRAME
 70
     0
  9
$SPLINETYPE
 70
     6
  9
$SPLINESEGS
 70
     8
  9
$HANDSEED
  5
285CE
  9
$SURFTAB1
 70
     6
  9
$SURFTAB2
 70
     6
  9
$SURFTYPE
 70
     6
  9
$SURFU
 70
     6
  9
$SURFV
 70
     6
  9
$UCSBASE
  2

  9
$UCSNAME
  2

  9
$UCSORG
 10
0.0
 20
0.0
 30
0.0
  9
$UCSXDIR
 10
1.0
 20
0.0
 30
0.0
  9
$UCSYDIR
 10
0.0
 20
1.0
 30
0.0
  9
$UCSORTHOREF
  2

  9
$UCSORTHOVIEW
 70
     0
  9
$UCSORGTOP
 10
0.0
 20
0.0
 30
0.0
  9
$UCSORGBOTTOM
 10
0.0
 20
0.0
 30
0.0
  9
$UCSORGLEFT
 10
0.0
 20
0.0
 30
0.0
  9
$UCSORGRIGHT
 10
0.0
 20
0.0
 30
0.0
  9
$UCSORGFRONT
 10
0.0
 20
0.0
 30
0.0
  9
$UCSORGBACK
 10
0.0
 20
0.0
 30
0.0
  9
$PUCSBASE
  2

  9
$PUCSNAME
  2

  9
$PUCSORG
 10
0.0
 20
0.0
 30
0.0
  9
$PUCSXDIR
 10
1.0
 20
0.0
 30
0.0
  9
$PUCSYDIR
 10
0.0
 20
1.0
 30
0.0
  9
$PUCSORTHOREF
  2

  9
$PUCSORTHOVIEW
 70
     0
  9
$PUCSORGTOP
 10
0.0
 20
0.0
 30
0.0
  9
$PUCSORGBOTTOM
 10
0.0
 20
0.0
 30
0.0
  9
$PUCSORGLEFT
 10
0.0
 20
0.0
 30
0.0
  9
$PUCSORGRIGHT
 10
0.0
 20
0.0
 30
0.0
  9
$PUCSORGFRONT
 10
0.0
 20
0.0
 30
0.0
  9
$PUCSORGBACK
 10
0.0
 20
0.0
 30
0.0
  9
$USERI1
 70
     0
  9
$USERI2
 70
     0
  9
$USERI3
 70
     0
  9
$USERI4
 70
     0
  9
$USERI5
 70
     0
  9
$USERR1
 40
0.0
  9
$USERR2
 40
0.0
  9
$USERR3
 40
0.0
  9
$USERR4
 40
0.0
  9
$USERR5
 40
0.0
  9
$WORLDVIEW
 70
     1
  9
$SHADEDGE
 70
     3
  9
$SHADEDIF
 70
    70
  9
$TILEMODE
 70
     1
  9
$MAXACTVP
 70
    16
  9
$PINSBASE
 10
0.0
 20
0.0
 30
0.0
  9
$PLIMCHECK
 70
     0
  9
$PEXTMIN
 10
1.000000000000000E+20
 20
1.000000000000000E+20
 30
1.000000000000000E+20
  9
$PEXTMAX
 10
-1.000000000000000E+20
 20
-1.000000000000000E+20
 30
-1.000000000000000E+20
  9
$PLIMMIN
 10
0.0
 20
0.0
  9
$PLIMMAX
 10
420.0
 20
297.0
  9
$UNITMODE
 70
     0
  9
$VISRETAIN
 70
     0
  9
$PLINEGEN
 70
     0
  9
$PSLTSCALE
 70
     0
  9
$TREEDEPTH
 70
  3020
  9
$CMLSTYLE
  2
STANDARD
  9
$CMLJUST
 70
     0
  9
$CMLSCALE
 40
1.0
  9
$PROXYGRAPHICS
 70
     1
  9
$MEASUREMENT
 70
     1
  9
$CELWEIGHT
370
    -1
  9
$ENDCAPS
280
     0
  9
$JOINSTYLE
280
     0
  9
$LWDISPLAY
290
     0
  9
$INSUNITS
 70
     0
  9
$HYPERLINKBASE
  1

  9
$STYLESHEET
  1

  9
$XEDIT
290
     1
  9
$CEPSNTYPE
380
     0
  9
$PSTYLEMODE
290
     1
  9
$FINGERPRINTGUID
  2
{5EAC461A-2277-4BF8-9AB0-99C43BB394F0}
  9
$VERSIONGUID
  2
{EA2FEDDF-8592-47F9-ABF4-BB9F9AE854BA}
  9
$EXTNAMES
290
     1
  9
$PSVPSCALE
 40
0.0
  9
$OLESTARTUP
290
     0
  0
ENDSEC
  0
SECTION
  2
CLASSES
  0
CLASS
  1
ACDBDICTIONARYWDFLT
  2
AcDbDictionaryWithDefault
  3
ObjectDBX Classes
 90
        0
280
     0
281
     0
  0
CLASS
  1
DICTIONARYVAR
  2
AcDbDictionaryVar
  3
ObjectDBX Classes
 90
        0
280
     0
281
     0
  0
CLASS
  1
ACDBPLACEHOLDER
  2
AcDbPlaceHolder
  3
ObjectDBX Classes
 90
        0
280
     0
281
     0
  0
CLASS
  1
LAYOUT
  2
AcDbLayout
  3
ObjectDBX Classes
 90
        0
280
     0
281
     0
  0
ENDSEC
  0
SECTION
  2
TABLES
  0
TABLE
  2
VPORT
  5
746D
330
0
100
AcDbSymbolTable
 70
     2
  0
VPORT
  5
285C6
330
746D
100
AcDbSymbolTableRecord
100
AcDbViewportTableRecord
  2
*Active
 70
     0
 10
0.0
 20
0.0
 11
1.0
 21
1.0
 12
8224.401894379875
 22
5855.693501556149
 13
0.0
 23
0.0
 14
10.0
 24
10.0
 15
10.0
 25
10.0
 16
0.0
 26
0.0
 36
1.0
 17
0.0
 27
0.0
 37
0.0
 40
11800.71517913436
 41
1.522222222222222
 42
50.0
 43
0.0
 44
0.0
 50
0.0
 51
0.0
 71
     0
 72
     0
 73
     1
 74
     0
 75
     0
 76
     0
 77
     0
 78
     0
281
     0
 65
     1
110
0.0
120
0.0
130
0.0
111
1.0
121
0.0
131
0.0
112
0.0
122
1.0
132
0.0
 79
     0
146
0.0
  0
ENDTAB
  0
TABLE
  2
LTYPE
  5
746A
330
0
100
AcDbSymbolTable
 70
     5
  0
LTYPE
  5
7477
330
746A
100
AcDbSymbolTableRecord
100
AcDbLinetypeTableRecord
  2
BYBLOCK
 70
     0
  3

 72
    65
 73
     0
 40
0.0
  0
LTYPE
  5
7478
330
746A
100
AcDbSymbolTableRecord
100
AcDbLinetypeTableRecord
  2
BYLAYER
 70
     0
  3

 72
    65
 73
     0
 40
0.0
  0
LTYPE
  5
7479
330
746A
100
AcDbSymbolTableRecord
100
AcDbLinetypeTableRecord
  2
CONTINUOUS
 70
     0
  3
Solid line
 72
    65
 73
     0
 40
0.0
  0
LTYPE
  5
7816
330
746A
100
AcDbSymbolTableRecord
100
AcDbLinetypeTableRecord
  2
CENTER
 70
     0
  3
____ _ ____ _ ____ _ ____ _ ____ _ ____ _ ____ 
 72
    65
 73
     4
 40
2.0
 49
1.25
 74
     0
 49
-0.25
 74
     0
 49
0.25
 74
     0
 49
-0.25
 74
     0
  0
LTYPE
  5
781A
330
746A
100
AcDbSymbolTableRecord
100
AcDbLinetypeTableRecord
  2
HIDDEN
 70
     0
  3
__ __ __ __ __ __ __ __ __ __ __ __ __ __ __ __
 72
    65
 73
     2
 40
0.375
 49
0.25
 74
     0
 49
-0.125
 74
     0
  0
LTYPE
  5
781B
330
746A
100
AcDbSymbolTableRecord
100
AcDbLinetypeTableRecord
  2
PHANTOM
 70
     0
  3
______  __  __  ______  __  __  ______  __  __ 
 72
    65
 73
     6
 40
2.5
 49
1.25
 74
     0
 49
-0.25
 74
     0
 49
0.25
 74
     0
 49
-0.25
 74
     0
 49
0.25
 74
     0
 49
-0.25
 74
     0
  0
LTYPE
  5
12CC3
330
746A
100
AcDbSymbolTableRecord
100
AcDbLinetypeTableRecord
  2
HIDDENX2
 70
     0
  3
Hidden (2x) ____ ____ ____ ____ ____ ____ ____
 72
    65
 73
     2
 40
19.05
 49
12.7
 74
     0
 49
-6.349999999999999
 74
     0
  0
ENDTAB
  0
TABLE
  2
LAYER
  5
7467
102
{ACAD_XDICTIONARY
360
1758F
102
}
330
0
100
AcDbSymbolTable
 70
    12
  0
LAYER
  5
7474
330
7467
100
AcDbSymbolTableRecord
100
AcDbLayerTableRecord
  2
0
 70
     0
 62
     7
  6
CONTINUOUS
370
    -3
390
173D0
  0
LAYER
  5
DEB2
330
7467
100
AcDbSymbolTableRecord
100
AcDbLayerTableRecord
  2
センター
 70
     0
 62
     3
  6
CENTER
370
    -3
390
173D0
  0
LAYER
  5
DEB3
330
7467
100
AcDbSymbolTableRecord
100
AcDbLayerTableRecord
  2
寸法
 70
     0
 62
     4
  6
CONTINUOUS
370
    -3
390
173D0
  0
LAYER
  5
DEB4
330
7467
100
AcDbSymbolTableRecord
100
AcDbLayerTableRecord
  2
部品1
 70
     0
 62
     7
  6
CONTINUOUS
370
    -3
390
173D0
  0
LAYER
  5
DEB5
330
7467
100
AcDbSymbolTableRecord
100
AcDbLayerTableRecord
  2
補助
 70
     0
 62
    -1
  6
CONTINUOUS
370
    -3
390
173D0
  0
LAYER
  5
DEB6
330
7467
100
AcDbSymbolTableRecord
100
AcDbLayerTableRecord
  2
文字
 70
     0
 62
     7
  6
CONTINUOUS
370
    -3
390
173D0
  0
LAYER
  5
F255
330
7467
100
AcDbSymbolTableRecord
100
AcDbLayerTableRecord
  2
DEFPOINTS
 70
     0
 62
     7
  6
CONTINUOUS
290
     0
370
    -3
390
173D0
  0
LAYER
  5
10B54
330
7467
100
AcDbSymbolTableRecord
100
AcDbLayerTableRecord
  2
仕様書枠
 70
     0
 62
   230
  6
CONTINUOUS
370
    -3
390
173D0
  0
LAYER
  5
11729
330
7467
100
AcDbSymbolTableRecord
100
AcDbLayerTableRecord
  2
Ｇ．Ｌ
 70
     0
 62
    30
  6
CONTINUOUS
370
    -3
390
173D0
  0
LAYER
  5
1173F
330
7467
100
AcDbSymbolTableRecord
100
AcDbLayerTableRecord
  2
細線
 70
     0
 62
     5
  6
CONTINUOUS
370
    -3
390
173D0
  0
LAYER
  5
12CC4
330
7467
100
AcDbSymbolTableRecord
100
AcDbLayerTableRecord
  2
想像線
 70
     0
 62
     6
  6
PHANTOM
370
    -3
390
173D0
  0
LAYER
  5
142E2
330
7467
100
AcDbSymbolTableRecord
100
AcDbLayerTableRecord
  2
破線
 70
     0
 62
     2
  6
HIDDEN
370
    -3
390
173D0
  0
ENDTAB
  0
TABLE
  2
STYLE
  5
7468
330
0
100
AcDbSymbolTable
 70
     7
  0
STYLE
  5
7475
330
7468
100
AcDbSymbolTableRecord
100
AcDbTextStyleTableRecord
  2
STANDARD
 70
     0
 40
0.0
 41
1.0
 50
0.0
 71
     0
 42
4.0
  3
txt
  4
C:\AutoCAD LT\bigfont.shx
  0
STYLE
  5
763C
330
7468
100
AcDbSymbolTableRecord
100
AcDbTextStyleTableRecord
  2
MSMINCHO
 70
     0
 40
0.0
 41
1.0
 50
0.0
 71
     0
 42
1.199999999999999
  3
C:\AutoCAD LT\msminch2.TTF
  4

  0
STYLE
  5
F706
330
7468
100
AcDbSymbolTableRecord
100
AcDbTextStyleTableRecord
  2
STYLE1
 70
     0
 40
0.0
 41
1.0
 50
0.0
 71
     0
 42
4.0
  3
isocp.shx
  4
bigfont.shx
  0
STYLE
  5
103BF
330
7468
100
AcDbSymbolTableRecord
100
AcDbTextStyleTableRecord
  2
STYLE2
 70
     0
 40
0.0
 41
1.0
 50
0.0
 71
     0
 42
100.0
  3
MS PGothic.ttf
  4

1001
ACAD
1000
MS PGothic
1071
    32818
  0
STYLE
  5
10BAA
330
7468
100
AcDbSymbolTableRecord
100
AcDbTextStyleTableRecord
  2
STYLE3
 70
     0
 40
0.0
 41
1.0
 50
0.0
 71
     0
 42
100.0
  3

  4

1001
ACAD
1000
DFPGothic-EB
1071
    32818
  0
STYLE
  5
11A15
330
7468
100
AcDbSymbolTableRecord
100
AcDbTextStyleTableRecord
  2
MSGOTHIC
 70
     0
 40
0.0
 41
1.0
 50
0.0
 71
     0
 42
3.5
  3
msgothi2.ttf
  4

  0
STYLE
  5
13E96
330
7468
100
AcDbSymbolTableRecord
100
AcDbTextStyleTableRecord
  2
MSPゴシック
 70
     0
 40
0.0
 41
1.0
 50
0.0
 71
     0
 42
4.0
  3
MS PGothic.ttf
  4

1001
ACAD
1000
MS PGothic
1071
    32818
  0
ENDTAB
  0
TABLE
  2
VIEW
  5
746B
330
0
100
AcDbSymbolTable
 70
     0
  0
ENDTAB
  0
TABLE
  2
UCS
  5
746C
330
0
100
AcDbSymbolTable
 70
     0
  0
ENDTAB
  0
TABLE
  2
APPID
  5
746E
330
0
100
AcDbSymbolTable
 70
     6
  0
APPID
  5
7476
330
746E
100
AcDbSymbolTableRecord
100
AcDbRegAppTableRecord
  2
ACAD
 70
     0
  0
APPID
  5
DEA9
330
746E
100
AcDbSymbolTableRecord
100
AcDbRegAppTableRecord
  2
CONTENTBLOCKICON
 70
     0
  0
APPID
  5
DEAA
330
746E
100
AcDbSymbolTableRecord
100
AcDbRegAppTableRecord
  2
CONTENTBLOCKDESCRIPTION
 70
     0
  0
APPID
  5
E71D
330
746E
100
AcDbSymbolTableRecord
100
AcDbRegAppTableRecord
  2
CONTENTTABDATA
 70
     0
  0
APPID
  5
E71E
330
746E
100
AcDbSymbolTableRecord
100
AcDbRegAppTableRecord
  2
CONTENTCURRENTTAB
 70
     0
  0
APPID
  5
F3BA
330
746E
100
AcDbSymbolTableRecord
100
AcDbRegAppTableRecord
  2
DRAWINGVARIABLESXDATA
 70
     0
  0
ENDTAB
  0
TABLE
  2
DIMSTYLE
  5
746F
330
0
100
AcDbSymbolTable
 70
     6
100
AcDbDimStyleTable
 71
     1
340
F71F
  0
DIMSTYLE
105
7484
330
746F
100
AcDbSymbolTableRecord
100
AcDbDimStyleTableRecord
  2
JIS
 70
     0
 41
2.5
 42
1.0
 43
7.0
 44
1.0
 73
     0
 74
     0
 77
     1
 78
     8
140
2.5
141
0.0
143
0.0394
147
0.0
172
     1
174
     1
175
     1
340
7475
  0
DIMSTYLE
105
F236
330
746F
100
AcDbSymbolTableRecord
100
AcDbDimStyleTableRecord
  2
INABA_S40
 70
     0
 40
40.0
 41
2.5
 42
0.5
 43
7.0
 44
1.5
 73
     0
 74
     0
 77
     3
 78
     8
140
3.0
141
0.0
143
0.0394
147
1.0
172
     1
173
     1
174
     1
175
     1
178
     7
289
     0
340
7475
341
DEAC
343
DEAC
344
DEAC
  0
DIMSTYLE
105
F71F
102
{ACAD_REACTORS
330
20DE1
330
20DFB
330
22741
330
2275B
330
23FDA
330
23FD9
330
24043
330
27A54
330
27A23
330
279D1
330
279D0
330
279CF
330
27995
330
27992
330
27938
330
27931
330
27930
330
2792F
330
2792E
330
2792D
330
27928
330
2793C
330
27996
330
2793D
330
27937
330
27936
330
2793A
330
27932
330
283E2
330
283E3
330
283EB
330
283F2
330
283F5
330
28455
102
}
330
746F
100
AcDbSymbolTableRecord
100
AcDbDimStyleTableRecord
  2
INABA_S40G
 70
     0
 40
40.0
 41
2.5
 42
0.5
 43
7.0
 44
1.5
 73
     0
 74
     0
 77
     3
 78
     8
140
3.0
141
0.0
143
0.0394
147
1.0
172
     1
173
     1
174
     1
178
     7
271
     1
340
F706
341
F770
343
F770
344
F770
  0
DIMSTYLE
105
142E3
330
746F
100
AcDbSymbolTableRecord
100
AcDbDimStyleTableRecord
  2
INABA_S1
 70
     0
 40
0.0
 41
2.5
 42
0.5
 43
7.0
 44
1.5
 73
     0
 74
     0
 77
     3
 78
     8
140
3.0
141
0.0
143
0.0394
146
0.5
147
0.5
172
     1
173
     1
176
   256
177
   256
178
     7
271
     2
272
     2
284
     8
288
     1
340
7475
341
DEAC
343
DEAC
344
DEAC
  0
DIMSTYLE
105
14463
330
746F
100
AcDbSymbolTableRecord
100
AcDbDimStyleTableRecord
  2
INABA_S30G
 70
     0
 40
30.0
 41
2.5
 42
0.5
 43
7.0
 44
1.5
 73
     0
 74
     0
 77
     3
 78
     8
140
3.0
141
0.0
143
0.0394
147
1.0
172
     1
173
     1
174
     1
175
     1
178
     7
271
     1
340
F706
341
F770
343
F770
344
F770
  0
DIMSTYLE
105
1758E
330
746F
100
AcDbSymbolTableRecord
100
AcDbDimStyleTableRecord
  2
INABA_S50G
 70
     0
 41
125.0
 42
25.0
 43
7.0
 44
75.0
 73
     0
 74
     0
 77
     3
 78
     8
140
150.0
141
0.0
143
0.0394
147
25.0
172
     1
173
     1
174
     1
175
     1
178
     7
271
     1
340
F706
341
F770
343
F770
344
F770
  0
ENDTAB
  0
TABLE
  2
BLOCK_RECORD
  5
7466
330
0
100
AcDbSymbolTable
 70
    53
  0
BLOCK_RECORD
  5
747D
330
7466
100
AcDbSymbolTableRecord
100
AcDbBlockTableRecord
  2
*MODEL_SPACE
340
173D5
  0
BLOCK_RECORD
  5
747A
330
7466
100
AcDbSymbolTableRecord
100
AcDbBlockTableRecord
  2
*PAPER_SPACE
340
173D6
  0
BLOCK_RECORD
  5
DEAC
330
7466
100
AcDbSymbolTableRecord
100
AcDbBlockTableRecord
  2
_OPEN
340
0
  0
BLOCK_RECORD
  5
F770
330
7466
100
AcDbSymbolTableRecord
100
AcDbBlockTableRecord
  2
_DOTSMALL
340
0
102
{BLKREFS
331
18C65
331
18C66
331
18C59
331
18C5A
331
18C4D
331
18C4E
331
18C41
331
18C42
331
18C35
331
18C36
331
18C29
331
18C2A
331
18C1D
331
18C1E
331
18C0F
331
18C10
331
18C03
331
18C04
331
18BF5
331
18BF6
331
18BE7
331
18BE8
331
18BD9
331
18BDA
331
18BCD
331
18BCE
331
27FAD
331
27FAE
331
27FB6
331
27FB7
331
27FDB
331
27FDC
331
27FE4
331
27FE5
331
28011
331
28012
331
2801A
331
2801B
331
2802C
331
2802D
331
28036
331
28037
331
28049
331
2804A
331
28079
331
2807A
331
28083
331
28084
331
28098
331
28099
331
280A3
331
280A4
331
280AE
331
280AF
331
280D2
331
280D3
331
280DB
331
280DC
331
28100
331
28101
331
2811B
331
2811C
331
2812D
331
2812E
331
2813F
331
28140
331
28151
331
28152
331
28163
331
28164
331
2816C
331
2816D
331
28175
331
28176
331
2817E
331
2817F
331
28187
331
28188
331
28216
331
28217
331
2855B
331
2855C
331
28566
331
28567
331
2856F
331
28570
331
28578
331
28579
331
28581
331
28582
331
2858A
331
2858B
331
285B5
331
285B6
102
}
  0
BLOCK_RECORD
  5
164B4
330
7466
100
AcDbSymbolTableRecord
100
AcDbBlockTableRecord
  2
_DOT
340
0
102
{BLKREFS
331
18C73
331
18C74
102
}
  0
BLOCK_RECORD
  5
18BC8
330
7466
100
AcDbSymbolTableRecord
100
AcDbBlockTableRecord
  2
*D3
340
0
  0
BLOCK_RECORD
  5
18BD4
330
7466
100
AcDbSymbolTableRecord
100
AcDbBlockTableRecord
  2
*D4
340
0
  0
BLOCK_RECORD
  5
18BE0
330
7466
100
AcDbSymbolTableRecord
100
AcDbBlockTableRecord
  2
*D5
340
0
  0
BLOCK_RECORD
  5
18BEE
330
7466
100
AcDbSymbolTableRecord
100
AcDbBlockTableRecord
  2
*D6
340
0
  0
BLOCK_RECORD
  5
18BFC
330
7466
100
AcDbSymbolTableRecord
100
AcDbBlockTableRecord
  2
*D7
340
0
  0
BLOCK_RECORD
  5
18C0A
330
7466
100
AcDbSymbolTableRecord
100
AcDbBlockTableRecord
  2
*D8
340
0
  0
BLOCK_RECORD
  5
18C16
330
7466
100
AcDbSymbolTableRecord
100
AcDbBlockTableRecord
  2
*D9
340
0
  0
BLOCK_RECORD
  5
18C24
330
7466
100
AcDbSymbolTableRecord
100
AcDbBlockTableRecord
  2
*D10
340
0
  0
BLOCK_RECORD
  5
18C30
330
7466
100
AcDbSymbolTableRecord
100
AcDbBlockTableRecord
  2
*D11
340
0
  0
BLOCK_RECORD
  5
18C3C
330
7466
100
AcDbSymbolTableRecord
100
AcDbBlockTableRecord
  2
*D12
340
0
  0
BLOCK_RECORD
  5
18C48
330
7466
100
AcDbSymbolTableRecord
100
AcDbBlockTableRecord
  2
*D13
340
0
  0
BLOCK_RECORD
  5
18C54
330
7466
100
AcDbSymbolTableRecord
100
AcDbBlockTableRecord
  2
*D14
340
0
  0
BLOCK_RECORD
  5
18C60
330
7466
100
AcDbSymbolTableRecord
100
AcDbBlockTableRecord
  2
*D15
340
0
  0
BLOCK_RECORD
  5
18C6C
330
7466
100
AcDbSymbolTableRecord
100
AcDbBlockTableRecord
  2
*D16
340
0
  0
BLOCK_RECORD
  5
18C7A
330
7466
100
AcDbSymbolTableRecord
100
AcDbBlockTableRecord
  2
A$C3B1A506B
340
0
  0
BLOCK_RECORD
  5
1C4CA
330
7466
100
AcDbSymbolTableRecord
100
AcDbBlockTableRecord
  2
_NONE
340
0
  0
BLOCK_RECORD
  5
20DE2
330
7466
100
AcDbSymbolTableRecord
100
AcDbBlockTableRecord
  2
*D19
340
0
  0
BLOCK_RECORD
  5
20DFC
330
7466
100
AcDbSymbolTableRecord
100
AcDbBlockTableRecord
  2
*D20
340
0
  0
BLOCK_RECORD
  5
22742
330
7466
100
AcDbSymbolTableRecord
100
AcDbBlockTableRecord
  2
*D21
340
0
  0
BLOCK_RECORD
  5
2275C
330
7466
100
AcDbSymbolTableRecord
100
AcDbBlockTableRecord
  2
*D22
340
0
  0
BLOCK_RECORD
  5
240C4
330
7466
100
AcDbSymbolTableRecord
100
AcDbBlockTableRecord
  2
*D23
340
0
  0
BLOCK_RECORD
  5
240D1
330
7466
100
AcDbSymbolTableRecord
100
AcDbBlockTableRecord
  2
*D24
340
0
  0
BLOCK_RECORD
  5
240DE
330
7466
100
AcDbSymbolTableRecord
100
AcDbBlockTableRecord
  2
*D25
340
0
  0
BLOCK_RECORD
  5
27A59
330
7466
100
AcDbSymbolTableRecord
100
AcDbBlockTableRecord
  2
*D26
340
0
  0
BLOCK_RECORD
  5
27A65
330
7466
100
AcDbSymbolTableRecord
100
AcDbBlockTableRecord
  2
*D27
340
0
  0
BLOCK_RECORD
  5
27A71
330
7466
100
AcDbSymbolTableRecord
100
AcDbBlockTableRecord
  2
*D28
340
0
  0
BLOCK_RECORD
  5
27A7C
330
7466
100
AcDbSymbolTableRecord
100
AcDbBlockTableRecord
  2
*D29
340
0
  0
BLOCK_RECORD
  5
27A87
330
7466
100
AcDbSymbolTableRecord
100
AcDbBlockTableRecord
  2
*D30
340
0
  0
BLOCK_RECORD
  5
27A92
330
7466
100
AcDbSymbolTableRecord
100
AcDbBlockTableRecord
  2
*D31
340
0
  0
BLOCK_RECORD
  5
27A9E
330
7466
100
AcDbSymbolTableRecord
100
AcDbBlockTableRecord
  2
*D32
340
0
  0
BLOCK_RECORD
  5
27AAA
330
7466
100
AcDbSymbolTableRecord
100
AcDbBlockTableRecord
  2
*D33
340
0
  0
BLOCK_RECORD
  5
27AB6
330
7466
100
AcDbSymbolTableRecord
100
AcDbBlockTableRecord
  2
*D34
340
0
  0
BLOCK_RECORD
  5
27AC2
330
7466
100
AcDbSymbolTableRecord
100
AcDbBlockTableRecord
  2
*D35
340
0
  0
BLOCK_RECORD
  5
27ACE
330
7466
100
AcDbSymbolTableRecord
100
AcDbBlockTableRecord
  2
*D36
340
0
  0
BLOCK_RECORD
  5
27AE6
330
7466
100
AcDbSymbolTableRecord
100
AcDbBlockTableRecord
  2
*D37
340
0
  0
BLOCK_RECORD
  5
27AF2
330
7466
100
AcDbSymbolTableRecord
100
AcDbBlockTableRecord
  2
*D38
340
0
  0
BLOCK_RECORD
  5
27B0C
330
7466
100
AcDbSymbolTableRecord
100
AcDbBlockTableRecord
  2
*D39
340
0
  0
BLOCK_RECORD
  5
27B2E
330
7466
100
AcDbSymbolTableRecord
100
AcDbBlockTableRecord
  2
*D40
340
0
  0
BLOCK_RECORD
  5
27B3B
330
7466
100
AcDbSymbolTableRecord
100
AcDbBlockTableRecord
  2
*D41
340
0
  0
BLOCK_RECORD
  5
27B55
330
7466
100
AcDbSymbolTableRecord
100
AcDbBlockTableRecord
  2
*D42
340
0
  0
BLOCK_RECORD
  5
27B61
330
7466
100
AcDbSymbolTableRecord
100
AcDbBlockTableRecord
  2
*D43
340
0
  0
BLOCK_RECORD
  5
27B6D
330
7466
100
AcDbSymbolTableRecord
100
AcDbBlockTableRecord
  2
*D44
340
0
  0
BLOCK_RECORD
  5
27B79
330
7466
100
AcDbSymbolTableRecord
100
AcDbBlockTableRecord
  2
*D45
340
0
  0
BLOCK_RECORD
  5
27B92
330
7466
100
AcDbSymbolTableRecord
100
AcDbBlockTableRecord
  2
*D46
340
0
  0
BLOCK_RECORD
  5
2850E
330
7466
100
AcDbSymbolTableRecord
100
AcDbBlockTableRecord
  2
*D47
340
0
  0
BLOCK_RECORD
  5
2851A
330
7466
100
AcDbSymbolTableRecord
100
AcDbBlockTableRecord
  2
*D48
340
0
  0
BLOCK_RECORD
  5
28528
330
7466
100
AcDbSymbolTableRecord
100
AcDbBlockTableRecord
  2
*D49
340
0
  0
BLOCK_RECORD
  5
28534
330
7466
100
AcDbSymbolTableRecord
100
AcDbBlockTableRecord
  2
*D50
340
0
  0
BLOCK_RECORD
  5
28540
330
7466
100
AcDbSymbolTableRecord
100
AcDbBlockTableRecord
  2
*D51
340
0
  0
BLOCK_RECORD
  5
2854C
330
7466
100
AcDbSymbolTableRecord
100
AcDbBlockTableRecord
  2
*D52
340
0
  0
ENDTAB
  0
ENDSEC
  0
SECTION
  2
BLOCKS
  0
BLOCK
  5
7489
330
747D
100
AcDbEntity
  8
0
100
AcDbBlockBegin
  2
*MODEL_SPACE
 70
     0
 10
0.0
 20
0.0
 30
0.0
  3
*MODEL_SPACE
  1

  0
ENDBLK
  5
748A
330
747D
100
AcDbEntity
  8
0
100
AcDbBlockEnd
  0
BLOCK
  5
7487
330
747A
100
AcDbEntity
 67
     1
  8
0
100
AcDbBlockBegin
  2
*PAPER_SPACE
 70
     0
 10
0.0
 20
0.0
 30
0.0
  3
*PAPER_SPACE
  1

  0
ENDBLK
  5
7488
330
747A
100
AcDbEntity
 67
     1
  8
0
100
AcDbBlockEnd
  0
BLOCK
  5
DEAD
330
DEAC
100
AcDbEntity
  8
0
100
AcDbBlockBegin
  2
_OPEN
 70
     0
 10
0.0
 20
0.0
 30
0.0
  3
_OPEN
  1

  0
LINE
  5
DEAE
330
DEAC
100
AcDbEntity
  8
0
  6
ByBlock
 62
     0
100
AcDbLine
 10
-1.0
 20
0.1666666666666666
 30
0.0
 11
0.0
 21
0.0
 31
0.0
  0
LINE
  5
DEAF
330
DEAC
100
AcDbEntity
  8
0
  6
ByBlock
 62
     0
100
AcDbLine
 10
0.0
 20
0.0
 30
0.0
 11
-1.0
 21
-0.1666666666666666
 31
0.0
  0
LINE
  5
DEB0
330
DEAC
100
AcDbEntity
  8
0
  6
ByBlock
 62
     0
100
AcDbLine
 10
0.0
 20
0.0
 30
0.0
 11
-1.0
 21
0.0
 31
0.0
  0
ENDBLK
  5
DEB1
330
DEAC
100
AcDbEntity
  8
0
100
AcDbBlockEnd
  0
BLOCK
  5
F771
330
F770
100
AcDbEntity
  8
0
 48
50.0
100
AcDbBlockBegin
  2
_DOTSMALL
 70
     0
 10
0.0
 20
0.0
 30
0.0
  3
_DOTSMALL
  1

  0
LWPOLYLINE
  5
F772
330
F770
100
AcDbEntity
  8
0
  6
ByBlock
 62
     0
 48
50.0
100
AcDbPolyline
 90
        2
 70
     1
 43
0.5
 10
-0.0625
 20
0.0
 42
1.0
 10
0.0625
 20
0.0
 42
1.0
  0
ENDBLK
  5
F776
330
F770
100
AcDbEntity
  8
0
 48
50.0
100
AcDbBlockEnd
  0
BLOCK
  5
164BA
330
164B4
100
AcDbEntity
  8
0
 48
50.0
100
AcDbBlockBegin
  2
_DOT
 70
     0
 10
0.0
 20
0.0
 30
0.0
  3
_DOT
  1

  0
LWPOLYLINE
  5
164B5
330
164B4
100
AcDbEntity
  8
0
  6
ByBlock
 62
     0
 48
50.0
100
AcDbPolyline
 90
        2
 70
     1
 43
0.5
 10
-0.25
 20
0.0
 42
1.0
 10
0.25
 20
0.0
 42
1.0
  0
LINE
  5
164B9
330
164B4
100
AcDbEntity
  8
0
  6
ByBlock
 62
     0
 48
50.0
100
AcDbLine
 10
-0.5
 20
0.0
 30
0.0
 11
-1.0
 21
0.0
 31
0.0
  0
ENDBLK
  5
164BB
330
164B4
100
AcDbEntity
  8
0
 48
50.0
100
AcDbBlockEnd
  0
BLOCK
  5
18BC9
330
18BC8
100
AcDbEntity
  8
0
 48
50.0
100
AcDbBlockBegin
  2
*D3
 70
     1
 10
0.0
 20
0.0
 30
0.0
  3
*D3
  1

  0
LINE
  5
18BCA
330
18BC8
100
AcDbEntity
  8
寸法
 62
     0
 48
50.0
370
    -2
100
AcDbLine
 10
7649.896575106999
 20
9636.123139034717
 30
0.0
 11
8702.429862581047
 21
9636.123139034717
 31
0.0
  0
LINE
  5
18BCB
330
18BC8
100
AcDbEntity
  8
寸法
 62
     0
 48
50.0
370
    -2
100
AcDbLine
 10
7649.896575106973
 20
7846.123139034709
 30
0.0
 11
8702.429862581047
 21
7846.123139034709
 31
0.0
  0
LINE
  5
18BCC
330
18BC8
100
AcDbEntity
  8
寸法
 62
     0
 48
50.0
370
    -2
100
AcDbLine
 10
8642.429862581046
 20
9636.123139034717
 30
0.0
 11
8642.429862581046
 21
7846.123139034709
 31
0.0
  0
INSERT
  5
18BCD
330
18BC8
100
AcDbEntity
  8
寸法
 62
     0
 48
50.0
370
    -2
100
AcDbBlockReference
  2
_DOTSMALL
 10
8642.429862581046
 20
9636.123139034717
 30
0.0
 41
100.0
 42
100.0
 43
100.0
 50
90.0
  0
INSERT
  5
18BCE
330
18BC8
100
AcDbEntity
  8
寸法
 62
     0
 48
50.0
370
    -2
100
AcDbBlockReference
  2
_DOTSMALL
 10
8642.429862581046
 20
7846.123139034709
 30
0.0
 41
100.0
 42
100.0
 43
100.0
 50
270.0
  0
MTEXT
  5
18BCF
330
18BC8
100
AcDbEntity
  8
寸法
 62
     7
 48
50.0
100
AcDbMText
 10
8542.429862581045
 20
8741.123139034712
 30
0.0
 40
120.0
 41
0.0
 71
     5
 72
     1
  1
\A1;1790
  7
STYLE1
 11
0.0000000000000001
 21
1.0
 31
0.0
 73
     1
 44
1.0
1001
ACAD
1000
MTEXTBEGIN
1070
    73
1070
     1
1070
    44
1040
1.0
1070
    74
1070
     0
1000
MTEXTEND
  0
POINT
  5
18BD0
330
18BC8
100
AcDbEntity
  8
DEFPOINTS
 62
     0
 48
50.0
100
AcDbPoint
 10
7629.896575106998
 20
9636.123139034717
 30
0.0
  0
POINT
  5
18BD1
330
18BC8
100
AcDbEntity
  8
DEFPOINTS
 62
     0
 48
50.0
100
AcDbPoint
 10
7629.896575106974
 20
7846.123139034709
 30
0.0
  0
POINT
  5
18BD2
330
18BC8
100
AcDbEntity
  8
DEFPOINTS
 62
     0
 48
50.0
100
AcDbPoint
 10
8642.429862581046
 20
7846.123139034709
 30
0.0
  0
ENDBLK
  5
18BD3
330
18BC8
100
AcDbEntity
  8
0
 48
50.0
100
AcDbBlockEnd
  0
BLOCK
  5
18BD5
330
18BD4
100
AcDbEntity
  8
0
 48
50.0
100
AcDbBlockBegin
  2
*D4
 70
     1
 10
0.0
 20
0.0
 30
0.0
  3
*D4
  1

  0
LINE
  5
18BD6
330
18BD4
100
AcDbEntity
  8
寸法
 62
     0
 48
50.0
370
    -2
100
AcDbLine
 10
4214.896575106998
 20
9656.123139034622
 30
0.0
 11
4214.896575106998
 21
10211.93135865972
 31
0.0
  0
LINE
  5
18BD7
330
18BD4
100
AcDbEntity
  8
寸法
 62
     0
 48
50.0
370
    -2
100
AcDbLine
 10
7574.896575106999
 20
9656.123139034718
 30
0.0
 11
7574.896575106999
 21
10211.93135865972
 31
0.0
  0
LINE
  5
18BD8
330
18BD4
100
AcDbEntity
  8
寸法
 62
     0
 48
50.0
370
    -2
100
AcDbLine
 10
4214.896575106998
 20
10151.93135865972
 30
0.0
 11
7574.896575106999
 21
10151.93135865972
 31
0.0
  0
INSERT
  5
18BD9
330
18BD4
100
AcDbEntity
  8
寸法
 62
     0
 48
50.0
370
    -2
100
AcDbBlockReference
  2
_DOTSMALL
 10
4214.896575106998
 20
10151.93135865972
 30
0.0
 41
100.0
 42
100.0
 43
100.0
 50
180.0
  0
INSERT
  5
18BDA
330
18BD4
100
AcDbEntity
  8
寸法
 62
     0
 48
50.0
370
    -2
100
AcDbBlockReference
  2
_DOTSMALL
 10
7574.896575106999
 20
10151.93135865972
 30
0.0
 41
100.0
 42
100.0
 43
100.0
  0
MTEXT
  5
18BDB
330
18BD4
100
AcDbEntity
  8
寸法
 62
     7
 48
50.0
100
AcDbMText
 10
5894.896575106997
 20
10251.94316968334
 30
0.0
 40
120.0
 41
0.0
 71
     5
 72
     1
  1
\A1;8X420=3360
  7
STYLE1
 73
     1
 44
1.0
1001
ACAD
1000
MTEXTBEGIN
1070
    73
1070
     1
1070
    44
1040
1.0
1070
    74
1070
     0
1000
MTEXTEND
  0
POINT
  5
18BDC
330
18BD4
100
AcDbEntity
  8
DEFPOINTS
 62
     0
 48
50.0
100
AcDbPoint
 10
4214.896575106998
 20
9636.123139034623
 30
0.0
  0
POINT
  5
18BDD
330
18BD4
100
AcDbEntity
  8
DEFPOINTS
 62
     0
 48
50.0
100
AcDbPoint
 10
7574.896575106999
 20
9636.123139034717
 30
0.0
  0
POINT
  5
18BDE
330
18BD4
100
AcDbEntity
  8
DEFPOINTS
 62
     0
 48
50.0
100
AcDbPoint
 10
7574.896575106999
 20
10151.93135865972
 30
0.0
  0
ENDBLK
  5
18BDF
330
18BD4
100
AcDbEntity
  8
0
 48
50.0
100
AcDbBlockEnd
  0
BLOCK
  5
18BE1
330
18BE0
100
AcDbEntity
  8
0
 48
50.0
100
AcDbBlockBegin
  2
*D5
 70
     1
 10
0.0
 20
0.0
 30
0.0
  3
*D5
  1

  0
LINE
  5
18BE2
330
18BE0
100
AcDbEntity
  8
寸法
 62
     0
 48
50.0
370
    -2
100
AcDbLine
 10
7574.896575106999
 20
9656.123139034718
 30
0.0
 11
7574.896575106999
 21
10211.9313586597
 31
0.0
  0
LINE
  5
18BE3
330
18BE0
100
AcDbEntity
  8
寸法
 62
     0
 48
50.0
370
    -2
100
AcDbLine
 10
7629.896575106998
 20
9656.123139034718
 30
0.0
 11
7629.896575106998
 21
10211.9313586597
 31
0.0
  0
LINE
  5
18BE4
330
18BE0
100
AcDbEntity
  8
寸法
 62
     0
 48
50.0
370
    -2
100
AcDbLine
 10
7574.896575106999
 20
10151.9313586597
 30
0.0
 11
7474.896575106999
 21
10151.9313586597
 31
0.0
  0
LINE
  5
18BE5
330
18BE0
100
AcDbEntity
  8
寸法
 62
     0
 48
50.0
370
    -2
100
AcDbLine
 10
7629.896575106998
 20
10151.9313586597
 30
0.0
 11
8046.867137855477
 21
10151.9313586597
 31
0.0
  0
LINE
  5
18BE6
330
18BE0
100
AcDbEntity
  8
寸法
 62
     0
 48
50.0
370
    -2
100
AcDbLine
 10
7574.896575106999
 20
10151.9313586597
 30
0.0
 11
7629.896575106998
 21
10151.9313586597
 31
0.0
  0
INSERT
  5
18BE7
330
18BE0
100
AcDbEntity
  8
寸法
 62
     0
 48
50.0
370
    -2
100
AcDbBlockReference
  2
_DOTSMALL
 10
7574.896575106999
 20
10151.9313586597
 30
0.0
 41
100.0
 42
100.0
 43
100.0
  0
INSERT
  5
18BE8
330
18BE0
100
AcDbEntity
  8
寸法
 62
     0
 48
50.0
370
    -2
100
AcDbBlockReference
  2
_DOTSMALL
 10
7629.896575106998
 20
10151.9313586597
 30
0.0
 41
100.0
 42
100.0
 43
100.0
 50
180.0
  0
MTEXT
  5
18BE9
330
18BE0
100
AcDbEntity
  8
寸法
 62
     7
 48
50.0
100
AcDbMText
 10
7938.381856481237
 20
10251.9313586597
 30
0.0
 40
120.0
 41
0.0
 71
     5
 72
     1
  1
\A1;55
  7
STYLE1
 73
     1
 44
1.0
1001
ACAD
1000
MTEXTBEGIN
1070
    73
1070
     1
1070
    44
1040
1.0
1070
    74
1070
     0
1000
MTEXTEND
  0
POINT
  5
18BEA
330
18BE0
100
AcDbEntity
  8
DEFPOINTS
 62
     0
 48
50.0
100
AcDbPoint
 10
7574.896575106999
 20
9636.123139034717
 30
0.0
  0
POINT
  5
18BEB
330
18BE0
100
AcDbEntity
  8
DEFPOINTS
 62
     0
 48
50.0
100
AcDbPoint
 10
7629.896575106998
 20
9636.123139034717
 30
0.0
  0
POINT
  5
18BEC
330
18BE0
100
AcDbEntity
  8
DEFPOINTS
 62
     0
 48
50.0
100
AcDbPoint
 10
7629.896575106998
 20
10151.9313586597
 30
0.0
  0
ENDBLK
  5
18BED
330
18BE0
100
AcDbEntity
  8
0
 48
50.0
100
AcDbBlockEnd
  0
BLOCK
  5
18BEF
330
18BEE
100
AcDbEntity
  8
0
 48
50.0
100
AcDbBlockBegin
  2
*D6
 70
     1
 10
0.0
 20
0.0
 30
0.0
  3
*D6
  1

  0
LINE
  5
18BF0
330
18BEE
100
AcDbEntity
  8
寸法
 62
     0
 48
50.0
370
    -2
100
AcDbLine
 10
7649.896575106999
 20
9636.123139034717
 30
0.0
 11
8337.32292084141
 21
9636.123139034717
 31
0.0
  0
LINE
  5
18BF1
330
18BEE
100
AcDbEntity
  8
寸法
 62
     0
 48
50.0
370
    -2
100
AcDbLine
 10
7649.896575106999
 20
9581.123139034721
 30
0.0
 11
8337.32292084141
 21
9581.123139034721
 31
0.0
  0
LINE
  5
18BF2
330
18BEE
100
AcDbEntity
  8
寸法
 62
     0
 48
50.0
370
    -2
100
AcDbLine
 10
8277.322920841411
 20
9581.123139034721
 30
0.0
 11
8277.322920841411
 21
9481.123139034719
 31
0.0
  0
LINE
  5
18BF3
330
18BEE
100
AcDbEntity
  8
寸法
 62
     0
 48
50.0
370
    -2
100
AcDbLine
 10
8277.322920841411
 20
9636.123139034717
 30
0.0
 11
8277.322920841411
 21
10053.09370178319
 31
0.0
  0
LINE
  5
18BF4
330
18BEE
100
AcDbEntity
  8
寸法
 62
     0
 48
50.0
370
    -2
100
AcDbLine
 10
8277.322920841411
 20
9581.123139034721
 30
0.0
 11
8277.322920841411
 21
9636.123139034717
 31
0.0
  0
INSERT
  5
18BF5
330
18BEE
100
AcDbEntity
  8
寸法
 62
     0
 48
50.0
370
    -2
100
AcDbBlockReference
  2
_DOTSMALL
 10
8277.322920841411
 20
9581.123139034721
 30
0.0
 41
100.0
 42
100.0
 43
100.0
 50
90.0
  0
INSERT
  5
18BF6
330
18BEE
100
AcDbEntity
  8
寸法
 62
     0
 48
50.0
370
    -2
100
AcDbBlockReference
  2
_DOTSMALL
 10
8277.322920841411
 20
9636.123139034717
 30
0.0
 41
100.0
 42
100.0
 43
100.0
 50
270.0
  0
MTEXT
  5
18BF7
330
18BEE
100
AcDbEntity
  8
寸法
 62
     7
 48
50.0
100
AcDbMText
 10
8177.32292084141
 20
9944.608420408957
 30
0.0
 40
120.0
 41
0.0
 71
     5
 72
     1
  1
\A1;55
  7
STYLE1
 11
0.0000000000000001
 21
1.0
 31
0.0
 73
     1
 44
1.0
1001
ACAD
1000
MTEXTBEGIN
1070
    73
1070
     1
1070
    44
1040
1.0
1070
    74
1070
     0
1000
MTEXTEND
  0
POINT
  5
18BF8
330
18BEE
100
AcDbEntity
  8
DEFPOINTS
 62
     0
 48
50.0
100
AcDbPoint
 10
7629.896575106998
 20
9636.123139034717
 30
0.0
  0
POINT
  5
18BF9
330
18BEE
100
AcDbEntity
  8
DEFPOINTS
 62
     0
 48
50.0
100
AcDbPoint
 10
7629.896575106998
 20
9581.123139034721
 30
0.0
  0
POINT
  5
18BFA
330
18BEE
100
AcDbEntity
  8
DEFPOINTS
 62
     0
 48
50.0
100
AcDbPoint
 10
8277.322920841411
 20
9581.123139034721
 30
0.0
  0
ENDBLK
  5
18BFB
330
18BEE
100
AcDbEntity
  8
0
 48
50.0
100
AcDbBlockEnd
  0
BLOCK
  5
18BFD
330
18BFC
100
AcDbEntity
  8
0
 48
50.0
100
AcDbBlockBegin
  2
*D7
 70
     1
 10
0.0
 20
0.0
 30
0.0
  3
*D7
  1

  0
LINE
  5
18BFE
330
18BFC
100
AcDbEntity
  8
寸法
 62
     0
 48
50.0
370
    -2
100
AcDbLine
 10
4159.896575106963
 20
9656.123139034622
 30
0.0
 11
4159.896575106963
 21
10211.9313586596
 31
0.0
  0
LINE
  5
18BFF
330
18BFC
100
AcDbEntity
  8
寸法
 62
     0
 48
50.0
370
    -2
100
AcDbLine
 10
4214.896575106998
 20
9656.123139034622
 30
0.0
 11
4214.896575106998
 21
10211.9313586596
 31
0.0
  0
LINE
  5
18C00
330
18BFC
100
AcDbEntity
  8
寸法
 62
     0
 48
50.0
370
    -2
100
AcDbLine
 10
4214.896575106998
 20
10151.9313586596
 30
0.0
 11
4314.896575106998
 21
10151.9313586596
 31
0.0
  0
LINE
  5
18C01
330
18BFC
100
AcDbEntity
  8
寸法
 62
     0
 48
50.0
370
    -2
100
AcDbLine
 10
4159.896575106963
 20
10151.9313586596
 30
0.0
 11
3742.926012358486
 21
10151.9313586596
 31
0.0
  0
LINE
  5
18C02
330
18BFC
100
AcDbEntity
  8
寸法
 62
     0
 48
50.0
370
    -2
100
AcDbLine
 10
4214.896575106998
 20
10151.9313586596
 30
0.0
 11
4159.896575106963
 21
10151.9313586596
 31
0.0
  0
INSERT
  5
18C03
330
18BFC
100
AcDbEntity
  8
寸法
 62
     0
 48
50.0
370
    -2
100
AcDbBlockReference
  2
_DOTSMALL
 10
4214.896575106998
 20
10151.9313586596
 30
0.0
 41
100.0
 42
100.0
 43
100.0
 50
180.0
  0
INSERT
  5
18C04
330
18BFC
100
AcDbEntity
  8
寸法
 62
     0
 48
50.0
370
    -2
100
AcDbBlockReference
  2
_DOTSMALL
 10
4159.896575106963
 20
10151.9313586596
 30
0.0
 41
100.0
 42
100.0
 43
100.0
  0
MTEXT
  5
18C05
330
18BFC
100
AcDbEntity
  8
寸法
 62
     7
 48
50.0
100
AcDbMText
 10
3851.411293732725
 20
10251.9313586596
 30
0.0
 40
120.0
 41
0.0
 71
     5
 72
     1
  1
\A1;55
  7
STYLE1
 73
     1
 44
1.0
1001
ACAD
1000
MTEXTBEGIN
1070
    73
1070
     1
1070
    44
1040
1.0
1070
    74
1070
     0
1000
MTEXTEND
  0
POINT
  5
18C06
330
18BFC
100
AcDbEntity
  8
DEFPOINTS
 62
     0
 48
50.0
100
AcDbPoint
 10
4159.896575106963
 20
9636.123139034623
 30
0.0
  0
POINT
  5
18C07
330
18BFC
100
AcDbEntity
  8
DEFPOINTS
 62
     0
 48
50.0
100
AcDbPoint
 10
4214.896575106998
 20
9636.123139034623
 30
0.0
  0
POINT
  5
18C08
330
18BFC
100
AcDbEntity
  8
DEFPOINTS
 62
     0
 48
50.0
100
AcDbPoint
 10
4214.896575106998
 20
10151.9313586596
 30
0.0
  0
ENDBLK
  5
18C09
330
18BFC
100
AcDbEntity
  8
0
 48
50.0
100
AcDbBlockEnd
  0
BLOCK
  5
18C0B
330
18C0A
100
AcDbEntity
  8
0
 48
50.0
100
AcDbBlockBegin
  2
*D8
 70
     1
 10
0.0
 20
0.0
 30
0.0
  3
*D8
  1

  0
LINE
  5
18C0C
330
18C0A
100
AcDbEntity
  8
寸法
 62
     0
 48
50.0
370
    -2
100
AcDbLine
 10
4159.896575106992
 20
7826.123139034546
 30
0.0
 11
4159.896575106992
 21
6804.372203245664
 31
0.0
  0
LINE
  5
18C0D
330
18C0A
100
AcDbEntity
  8
寸法
 62
     0
 48
50.0
370
    -2
100
AcDbLine
 10
7629.896575106974
 20
7826.123139034674
 30
0.0
 11
7629.896575106974
 21
6804.372203245664
 31
0.0
  0
LINE
  5
18C0E
330
18C0A
100
AcDbEntity
  8
寸法
 62
     0
 48
50.0
370
    -2
100
AcDbLine
 10
4159.896575106992
 20
6864.372203245665
 30
0.0
 11
7629.896575106974
 21
6864.372203245665
 31
0.0
  0
INSERT
  5
18C0F
330
18C0A
100
AcDbEntity
  8
寸法
 62
     0
 48
50.0
370
    -2
100
AcDbBlockReference
  2
_DOTSMALL
 10
4159.896575106992
 20
6864.372203245665
 30
0.0
 41
100.0
 42
100.0
 43
100.0
 50
180.0
  0
INSERT
  5
18C10
330
18C0A
100
AcDbEntity
  8
寸法
 62
     0
 48
50.0
370
    -2
100
AcDbBlockReference
  2
_DOTSMALL
 10
7629.896575106974
 20
6864.372203245665
 30
0.0
 41
100.0
 42
100.0
 43
100.0
  0
MTEXT
  5
18C11
330
18C0A
100
AcDbEntity
  8
寸法
 62
     7
 48
50.0
100
AcDbMText
 10
5911.12376113973
 20
6964.372203245665
 30
0.0
 40
120.0
 41
0.0
 71
     5
 72
     1
  1
\A1;3470
  7
STYLE1
 73
     1
 44
1.0
1001
ACAD
1000
MTEXTBEGIN
1070
    73
1070
     1
1070
    44
1040
1.0
1070
    74
1070
     0
1000
MTEXTEND
  0
POINT
  5
18C12
330
18C0A
100
AcDbEntity
  8
DEFPOINTS
 62
     0
 48
50.0
100
AcDbPoint
 10
4159.896575106992
 20
7846.123139034546
 30
0.0
  0
POINT
  5
18C13
330
18C0A
100
AcDbEntity
  8
DEFPOINTS
 62
     0
 48
50.0
100
AcDbPoint
 10
7629.896575106974
 20
7846.123139034673
 30
0.0
  0
POINT
  5
18C14
330
18C0A
100
AcDbEntity
  8
DEFPOINTS
 62
     0
 48
50.0
100
AcDbPoint
 10
7629.896575106974
 20
6864.372203245665
 30
0.0
  0
ENDBLK
  5
18C15
330
18C0A
100
AcDbEntity
  8
0
 48
50.0
100
AcDbBlockEnd
  0
BLOCK
  5
18C17
330
18C16
100
AcDbEntity
  8
0
 48
50.0
100
AcDbBlockBegin
  2
*D9
 70
     1
 10
0.0
 20
0.0
 30
0.0
  3
*D9
  1

  0
LINE
  5
18C18
330
18C16
100
AcDbEntity
  8
寸法
 62
     0
 48
50.0
370
    -2
100
AcDbLine
 10
7649.896575106973
 20
7901.123139034706
 30
0.0
 11
8337.322920841385
 21
7901.123139034706
 31
0.0
  0
LINE
  5
18C19
330
18C16
100
AcDbEntity
  8
寸法
 62
     0
 48
50.0
370
    -2
100
AcDbLine
 10
7649.896575106973
 20
7846.123139034709
 30
0.0
 11
8337.322920841385
 21
7846.123139034709
 31
0.0
  0
LINE
  5
18C1A
330
18C16
100
AcDbEntity
  8
寸法
 62
     0
 48
50.0
370
    -2
100
AcDbLine
 10
8277.322920841385
 20
7901.123139034706
 30
0.0
 11
8277.322920841385
 21
8001.123139034707
 31
0.0
  0
LINE
  5
18C1B
330
18C16
100
AcDbEntity
  8
寸法
 62
     0
 48
50.0
370
    -2
100
AcDbLine
 10
8277.322920841385
 20
7846.123139034709
 30
0.0
 11
8277.322920841385
 21
7429.152576286229
 31
0.0
  0
LINE
  5
18C1C
330
18C16
100
AcDbEntity
  8
寸法
 62
     0
 48
50.0
370
    -2
100
AcDbLine
 10
8277.322920841385
 20
7901.123139034706
 30
0.0
 11
8277.322920841385
 21
7846.123139034709
 31
0.0
  0
INSERT
  5
18C1D
330
18C16
100
AcDbEntity
  8
寸法
 62
     0
 48
50.0
370
    -2
100
AcDbBlockReference
  2
_DOTSMALL
 10
8277.322920841385
 20
7901.123139034706
 30
0.0
 41
100.0
 42
100.0
 43
100.0
 50
270.0
  0
INSERT
  5
18C1E
330
18C16
100
AcDbEntity
  8
寸法
 62
     0
 48
50.0
370
    -2
100
AcDbBlockReference
  2
_DOTSMALL
 10
8277.322920841385
 20
7846.123139034709
 30
0.0
 41
100.0
 42
100.0
 43
100.0
 50
90.0
  0
MTEXT
  5
18C1F
330
18C16
100
AcDbEntity
  8
寸法
 62
     7
 48
50.0
100
AcDbMText
 10
8177.322920841383
 20
7537.637857660469
 30
0.0
 40
120.0
 41
0.0
 71
     5
 72
     1
  1
\A1;55
  7
STYLE1
 11
0.0000000000000001
 21
1.0
 31
0.0
 73
     1
 44
1.0
1001
ACAD
1000
MTEXTBEGIN
1070
    73
1070
     1
1070
    44
1040
1.0
1070
    74
1070
     0
1000
MTEXTEND
  0
POINT
  5
18C20
330
18C16
100
AcDbEntity
  8
DEFPOINTS
 62
     0
 48
50.0
100
AcDbPoint
 10
7629.896575106974
 20
7901.123139034706
 30
0.0
  0
POINT
  5
18C21
330
18C16
100
AcDbEntity
  8
DEFPOINTS
 62
     0
 48
50.0
100
AcDbPoint
 10
7629.896575106974
 20
7846.123139034709
 30
0.0
  0
POINT
  5
18C22
330
18C16
100
AcDbEntity
  8
DEFPOINTS
 62
     0
 48
50.0
100
AcDbPoint
 10
8277.322920841385
 20
7846.123139034709
 30
0.0
  0
ENDBLK
  5
18C23
330
18C16
100
AcDbEntity
  8
0
 48
50.0
100
AcDbBlockEnd
  0
BLOCK
  5
18C25
330
18C24
100
AcDbEntity
  8
0
 48
50.0
100
AcDbBlockBegin
  2
*D10
 70
     1
 10
0.0
 20
0.0
 30
0.0
  3
*D10
  1

  0
LINE
  5
18C26
330
18C24
100
AcDbEntity
  8
寸法
 62
     0
 48
50.0
370
    -2
100
AcDbLine
 10
6533.037591258376
 20
9136.123139034728
 30
0.0
 11
6465.083950562664
 21
8882.516699399049
 31
0.0
  0
LINE
  5
18C27
330
18C24
100
AcDbEntity
  8
寸法
 62
     0
 48
50.0
370
    -2
100
AcDbLine
 10
7596.037591258388
 20
9136.123139034721
 30
0.0
 11
7528.083950562677
 21
8882.516699399049
 31
0.0
  0
LINE
  5
18C28
330
18C24
100
AcDbEntity
  8
寸法
 62
     0
 48
50.0
370
    -2
100
AcDbLine
 10
6481.160902108531
 20
8942.51669939905
 30
0.0
 11
7544.160902108544
 21
8942.51669939905
 31
0.0
  0
INSERT
  5
18C29
330
18C24
100
AcDbEntity
  8
寸法
 62
     0
 48
50.0
370
    -2
100
AcDbBlockReference
  2
_DOTSMALL
 10
6481.160902108531
 20
8942.51669939905
 30
0.0
 41
100.0
 42
100.0
 43
100.0
 50
180.0
  0
INSERT
  5
18C2A
330
18C24
100
AcDbEntity
  8
寸法
 62
     0
 48
50.0
370
    -2
100
AcDbBlockReference
  2
_DOTSMALL
 10
7544.160902108544
 20
8942.51669939905
 30
0.0
 41
100.0
 42
100.0
 43
100.0
  0
MTEXT
  5
18C2B
330
18C24
100
AcDbEntity
  8
寸法
 62
     7
 48
50.0
100
AcDbMText
 10
7061.28653022935
 20
9042.516699399049
 30
0.0
 40
120.0
 41
0.0
 71
     5
 72
     1
  1
\A1;1063
  7
STYLE1
 73
     1
 44
1.0
1001
ACAD
1000
MTEXTBEGIN
1070
    73
1070
     1
1070
    44
1040
1.0
1070
    74
1070
     0
1000
MTEXTEND
  0
POINT
  5
18C2C
330
18C24
100
AcDbEntity
  8
DEFPOINTS
 62
     0
 48
50.0
100
AcDbPoint
 10
6538.396575106998
 20
9156.123139034727
 30
0.0
  0
POINT
  5
18C2D
330
18C24
100
AcDbEntity
  8
DEFPOINTS
 62
     0
 48
50.0
100
AcDbPoint
 10
7601.39657510701
 20
9156.12313903472
 30
0.0
  0
POINT
  5
18C2E
330
18C24
100
AcDbEntity
  8
DEFPOINTS
 62
     0
 48
50.0
100
AcDbPoint
 10
7544.160902108544
 20
8942.51669939905
 30
0.0
  0
ENDBLK
  5
18C2F
330
18C24
100
AcDbEntity
  8
0
 48
50.0
100
AcDbBlockEnd
  0
BLOCK
  5
18C31
330
18C30
100
AcDbEntity
  8
0
 48
50.0
100
AcDbBlockBegin
  2
*D11
 70
     1
 10
0.0
 20
0.0
 30
0.0
  3
*D11
  1

  0
LINE
  5
18C32
330
18C30
100
AcDbEntity
  8
寸法
 62
     0
 48
50.0
370
    -2
100
AcDbLine
 10
7621.396575106999
 20
9600.764155186094
 30
0.0
 11
8016.754300969024
 21
9494.828371819961
 31
0.0
  0
LINE
  5
18C33
330
18C30
100
AcDbEntity
  8
寸法
 62
     0
 48
50.0
370
    -2
100
AcDbLine
 10
7621.396575106999
 20
9150.764155186099
 30
0.0
 11
8016.754300969024
 21
9044.828371819964
 31
0.0
  0
LINE
  5
18C34
330
18C30
100
AcDbEntity
  8
寸法
 62
     0
 48
50.0
370
    -2
100
AcDbLine
 10
7956.754300969024
 20
9510.905323365827
 30
0.0
 11
7956.754300969024
 21
9060.90532336583
 31
0.0
  0
INSERT
  5
18C35
330
18C30
100
AcDbEntity
  8
寸法
 62
     0
 48
50.0
370
    -2
100
AcDbBlockReference
  2
_DOTSMALL
 10
7956.754300969024
 20
9510.905323365827
 30
0.0
 41
100.0
 42
100.0
 43
100.0
 50
90.0
  0
INSERT
  5
18C36
330
18C30
100
AcDbEntity
  8
寸法
 62
     0
 48
50.0
370
    -2
100
AcDbBlockReference
  2
_DOTSMALL
 10
7956.754300969024
 20
9060.90532336583
 30
0.0
 41
100.0
 42
100.0
 43
100.0
 50
270.0
  0
MTEXT
  5
18C37
330
18C30
100
AcDbEntity
  8
寸法
 62
     7
 48
50.0
100
AcDbMText
 10
7856.754300969022
 20
9285.905323365829
 30
0.0
 40
120.0
 41
0.0
 71
     5
 72
     1
  1
\A1;450
  7
STYLE1
 11
0.0000000000000001
 21
1.0
 31
0.0
 73
     1
 44
1.0
1001
ACAD
1000
MTEXTBEGIN
1070
    73
1070
     1
1070
    44
1040
1.0
1070
    74
1070
     0
1000
MTEXTEND
  0
POINT
  5
18C38
330
18C30
100
AcDbEntity
  8
DEFPOINTS
 62
     0
 48
50.0
100
AcDbPoint
 10
7601.396575106999
 20
9606.123139034718
 30
0.0
  0
POINT
  5
18C39
330
18C30
100
AcDbEntity
  8
DEFPOINTS
 62
     0
 48
50.0
100
AcDbPoint
 10
7601.396575106999
 20
9156.12313903472
 30
0.0
  0
POINT
  5
18C3A
330
18C30
100
AcDbEntity
  8
DEFPOINTS
 62
     0
 48
50.0
100
AcDbPoint
 10
7956.754300969024
 20
9060.90532336583
 30
0.0
  0
ENDBLK
  5
18C3B
330
18C30
100
AcDbEntity
  8
0
 48
50.0
100
AcDbBlockEnd
  0
BLOCK
  5
18C3D
330
18C3C
100
AcDbEntity
  8
0
 48
50.0
100
AcDbBlockBegin
  2
*D12
 70
     1
 10
0.0
 20
0.0
 30
0.0
  3
*D12
  1

  0
LINE
  5
18C3E
330
18C3C
100
AcDbEntity
  8
寸法
 62
     0
 48
50.0
370
    -2
100
AcDbLine
 10
7649.896575106999
 20
9581.123139034721
 30
0.0
 11
8337.32292084141
 21
9581.123139034721
 31
0.0
  0
LINE
  5
18C3F
330
18C3C
100
AcDbEntity
  8
寸法
 62
     0
 48
50.0
370
    -2
100
AcDbLine
 10
7649.896575106973
 20
7901.123139034706
 30
0.0
 11
8337.32292084141
 21
7901.123139034706
 31
0.0
  0
LINE
  5
18C40
330
18C3C
100
AcDbEntity
  8
寸法
 62
     0
 48
50.0
370
    -2
100
AcDbLine
 10
8277.322920841411
 20
9581.123139034721
 30
0.0
 11
8277.322920841411
 21
7901.123139034706
 31
0.0
  0
INSERT
  5
18C41
330
18C3C
100
AcDbEntity
  8
寸法
 62
     0
 48
50.0
370
    -2
100
AcDbBlockReference
  2
_DOTSMALL
 10
8277.322920841411
 20
9581.123139034721
 30
0.0
 41
100.0
 42
100.0
 43
100.0
 50
90.0
  0
INSERT
  5
18C42
330
18C3C
100
AcDbEntity
  8
寸法
 62
     0
 48
50.0
370
    -2
100
AcDbBlockReference
  2
_DOTSMALL
 10
8277.322920841411
 20
7901.123139034706
 30
0.0
 41
100.0
 42
100.0
 43
100.0
 50
270.0
  0
MTEXT
  5
18C43
330
18C3C
100
AcDbEntity
  8
寸法
 62
     7
 48
50.0
100
AcDbMText
 10
8177.311109817788
 20
8741.123139034712
 30
0.0
 40
120.0
 41
0.0
 71
     5
 72
     1
  1
\A1;4X420=1680
  7
STYLE1
 11
0.0000000000000001
 21
1.0
 31
0.0
 73
     1
 44
1.0
1001
ACAD
1000
MTEXTBEGIN
1070
    73
1070
     1
1070
    44
1040
1.0
1070
    74
1070
     0
1000
MTEXTEND
  0
POINT
  5
18C44
330
18C3C
100
AcDbEntity
  8
DEFPOINTS
 62
     0
 48
50.0
100
AcDbPoint
 10
7629.896575106998
 20
9581.123139034721
 30
0.0
  0
POINT
  5
18C45
330
18C3C
100
AcDbEntity
  8
DEFPOINTS
 62
     0
 48
50.0
100
AcDbPoint
 10
7629.896575106974
 20
7901.123139034706
 30
0.0
  0
POINT
  5
18C46
330
18C3C
100
AcDbEntity
  8
DEFPOINTS
 62
     0
 48
50.0
100
AcDbPoint
 10
8277.322920841411
 20
7901.123139034706
 30
0.0
  0
ENDBLK
  5
18C47
330
18C3C
100
AcDbEntity
  8
0
 48
50.0
100
AcDbBlockEnd
  0
BLOCK
  5
18C49
330
18C48
100
AcDbEntity
  8
0
 48
50.0
100
AcDbBlockBegin
  2
*D13
 70
     1
 10
0.0
 20
0.0
 30
0.0
  3
*D13
  1

  0
LINE
  5
18C4A
330
18C48
100
AcDbEntity
  8
寸法
 62
     0
 48
50.0
370
    -2
100
AcDbLine
 10
4183.037591258377
 20
9136.123139034619
 30
0.0
 11
4115.083950562663
 21
8882.516699398941
 31
0.0
  0
LINE
  5
18C4B
330
18C48
100
AcDbEntity
  8
寸法
 62
     0
 48
50.0
370
    -2
100
AcDbLine
 10
5246.037591258307
 20
9136.123139034671
 30
0.0
 11
5178.08395056258
 21
8882.516699398941
 31
0.0
  0
LINE
  5
18C4C
330
18C48
100
AcDbEntity
  8
寸法
 62
     0
 48
50.0
370
    -2
100
AcDbLine
 10
4131.160902108532
 20
8942.516699398941
 30
0.0
 11
5194.160902108448
 21
8942.516699398941
 31
0.0
  0
INSERT
  5
18C4D
330
18C48
100
AcDbEntity
  8
寸法
 62
     0
 48
50.0
370
    -2
100
AcDbBlockReference
  2
_DOTSMALL
 10
4131.160902108532
 20
8942.516699398941
 30
0.0
 41
100.0
 42
100.0
 43
100.0
 50
180.0
  0
INSERT
  5
18C4E
330
18C48
100
AcDbEntity
  8
寸法
 62
     0
 48
50.0
370
    -2
100
AcDbBlockReference
  2
_DOTSMALL
 10
5194.160902108448
 20
8942.516699398941
 30
0.0
 41
100.0
 42
100.0
 43
100.0
  0
MTEXT
  5
18C4F
330
18C48
100
AcDbEntity
  8
寸法
 62
     7
 48
50.0
100
AcDbMText
 10
4658.986452655306
 20
9042.516699398941
 30
0.0
 40
120.0
 41
0.0
 71
     5
 72
     1
  1
\A1;1063
  7
STYLE1
 73
     1
 44
1.0
1001
ACAD
1000
MTEXTBEGIN
1070
    73
1070
     1
1070
    44
1040
1.0
1070
    74
1070
     0
1000
MTEXTEND
  0
POINT
  5
18C50
330
18C48
100
AcDbEntity
  8
DEFPOINTS
 62
     0
 48
50.0
100
AcDbPoint
 10
4188.396575106999
 20
9156.123139034617
 30
0.0
  0
POINT
  5
18C51
330
18C48
100
AcDbEntity
  8
DEFPOINTS
 62
     0
 48
50.0
100
AcDbPoint
 10
5251.396575106929
 20
9156.123139034672
 30
0.0
  0
POINT
  5
18C52
330
18C48
100
AcDbEntity
  8
DEFPOINTS
 62
     0
 48
50.0
100
AcDbPoint
 10
5194.160902108448
 20
8942.516699398941
 30
0.0
  0
ENDBLK
  5
18C53
330
18C48
100
AcDbEntity
  8
0
 48
50.0
100
AcDbBlockEnd
  0
BLOCK
  5
18C55
330
18C54
100
AcDbEntity
  8
0
 48
50.0
100
AcDbBlockBegin
  2
*D14
 70
     1
 10
0.0
 20
0.0
 30
0.0
  3
*D14
  1

  0
LINE
  5
18C56
330
18C54
100
AcDbEntity
  8
寸法
 62
     0
 48
50.0
370
    -2
100
AcDbLine
 10
5274.037591258307
 20
9136.123139034669
 30
0.0
 11
5206.08395056258
 21
8882.516699398941
 31
0.0
  0
LINE
  5
18C57
330
18C54
100
AcDbEntity
  8
寸法
 62
     0
 48
50.0
370
    -2
100
AcDbLine
 10
6505.037591258377
 20
9136.123139034662
 30
0.0
 11
6437.083950562653
 21
8882.516699398941
 31
0.0
  0
LINE
  5
18C58
330
18C54
100
AcDbEntity
  8
寸法
 62
     0
 48
50.0
370
    -2
100
AcDbLine
 10
5222.160902108448
 20
8942.516699398941
 30
0.0
 11
6453.16090210852
 21
8942.516699398941
 31
0.0
  0
INSERT
  5
18C59
330
18C54
100
AcDbEntity
  8
寸法
 62
     0
 48
50.0
370
    -2
100
AcDbBlockReference
  2
_DOTSMALL
 10
5222.160902108448
 20
8942.516699398941
 30
0.0
 41
100.0
 42
100.0
 43
100.0
 50
180.0
  0
INSERT
  5
18C5A
330
18C54
100
AcDbEntity
  8
寸法
 62
     0
 48
50.0
370
    -2
100
AcDbBlockReference
  2
_DOTSMALL
 10
6453.16090210852
 20
8942.516699398941
 30
0.0
 41
100.0
 42
100.0
 43
100.0
  0
MTEXT
  5
18C5B
330
18C54
100
AcDbEntity
  8
寸法
 62
     7
 48
50.0
100
AcDbMText
 10
6081.244808320626
 20
9042.528510422561
 30
0.0
 40
120.0
 41
0.0
 71
     5
 72
     1
  1
\A1;1231
  7
STYLE1
 73
     1
 44
1.0
1001
ACAD
1000
MTEXTBEGIN
1070
    73
1070
     1
1070
    44
1040
1.0
1070
    74
1070
     0
1000
MTEXTEND
  0
POINT
  5
18C5C
330
18C54
100
AcDbEntity
  8
DEFPOINTS
 62
     0
 48
50.0
100
AcDbPoint
 10
5279.396575106929
 20
9156.123139034669
 30
0.0
  0
POINT
  5
18C5D
330
18C54
100
AcDbEntity
  8
DEFPOINTS
 62
     0
 48
50.0
100
AcDbPoint
 10
6510.396575106999
 20
9156.123139034662
 30
0.0
  0
POINT
  5
18C5E
330
18C54
100
AcDbEntity
  8
DEFPOINTS
 62
     0
 48
50.0
100
AcDbPoint
 10
6453.16090210852
 20
8942.516699398941
 30
0.0
  0
ENDBLK
  5
18C5F
330
18C54
100
AcDbEntity
  8
0
 48
50.0
100
AcDbBlockEnd
  0
BLOCK
  5
18C61
330
18C60
100
AcDbEntity
  8
0
 48
50.0
100
AcDbBlockBegin
  2
*D15
 70
     1
 10
0.0
 20
0.0
 30
0.0
  3
*D15
  1

  0
LINE
  5
18C62
330
18C60
100
AcDbEntity
  8
寸法
 62
     0
 48
50.0
370
    -2
100
AcDbLine
 10
5065.896575106966
 20
7749.123139034579
 30
0.0
 11
5065.896575106966
 21
7099.952920982538
 31
0.0
  0
LINE
  5
18C63
330
18C60
100
AcDbEntity
  8
寸法
 62
     0
 48
50.0
370
    -2
100
AcDbLine
 10
6331.896575106966
 20
7749.123139034579
 30
0.0
 11
6331.896575106966
 21
7099.952920982538
 31
0.0
  0
LINE
  5
18C64
330
18C60
100
AcDbEntity
  8
寸法
 62
     0
 48
50.0
370
    -2
100
AcDbLine
 10
5065.896575106966
 20
7159.952920982537
 30
0.0
 11
6331.896575106966
 21
7159.952920982537
 31
0.0
  0
INSERT
  5
18C65
330
18C60
100
AcDbEntity
  8
寸法
 62
     0
 48
50.0
370
    -2
100
AcDbBlockReference
  2
_DOTSMALL
 10
5065.896575106966
 20
7159.952920982537
 30
0.0
 41
100.0
 42
100.0
 43
100.0
 50
180.0
  0
INSERT
  5
18C66
330
18C60
100
AcDbEntity
  8
寸法
 62
     0
 48
50.0
370
    -2
100
AcDbBlockReference
  2
_DOTSMALL
 10
6331.896575106966
 20
7159.952920982537
 30
0.0
 41
100.0
 42
100.0
 43
100.0
  0
MTEXT
  5
18C67
330
18C60
100
AcDbEntity
  8
寸法
 62
     7
 48
50.0
100
AcDbMText
 10
5711.986008735934
 20
7359.964732006159
 30
0.0
 40
120.0
 41
0.0
 71
     5
 72
     1
  1
\A1;有効開口部間口\P1266
  7
STYLE1
 73
     1
 44
1.0
1001
ACAD
1000
MTEXTBEGIN
1070
    73
1070
     1
1070
    44
1040
1.0
1070
    74
1070
     0
1000
MTEXTEND
  0
POINT
  5
18C68
330
18C60
100
AcDbEntity
  8
DEFPOINTS
 62
     0
 48
50.0
100
AcDbPoint
 10
5065.896575106966
 20
7769.123139034579
 30
0.0
  0
POINT
  5
18C69
330
18C60
100
AcDbEntity
  8
DEFPOINTS
 62
     0
 48
50.0
100
AcDbPoint
 10
6331.896575106966
 20
7769.123139034579
 30
0.0
  0
POINT
  5
18C6A
330
18C60
100
AcDbEntity
  8
DEFPOINTS
 62
     0
 48
50.0
100
AcDbPoint
 10
6331.896575106966
 20
7159.952920982537
 30
0.0
  0
ENDBLK
  5
18C6B
330
18C60
100
AcDbEntity
  8
0
 48
50.0
100
AcDbBlockEnd
  0
BLOCK
  5
18C6D
330
18C6C
100
AcDbEntity
  8
0
 48
50.0
100
AcDbBlockBegin
  2
*D16
 70
     1
 10
0.0
 20
0.0
 30
0.0
  3
*D16
  1

  0
LINE
  5
18C6E
330
18C6C
100
AcDbEntity
  8
寸法
 62
     0
 48
50.0
370
    -2
100
AcDbLine
 10
7200.896575106966
 20
7846.123139034578
 30
0.0
 11
7457.192158500191
 21
7846.123139034578
 31
0.0
  0
LINE
  5
18C6F
330
18C6C
100
AcDbEntity
  8
寸法
 62
     0
 48
50.0
370
    -2
100
AcDbLine
 10
7199.896575106966
 20
7769.123139034579
 30
0.0
 11
7457.192158500191
 21
7769.123139034579
 31
0.0
  0
LINE
  5
18C70
330
18C6C
100
AcDbEntity
  8
寸法
 62
     0
 48
50.0
370
    -2
100
AcDbLine
 10
7417.192158500192
 20
7866.123139034579
 30
0.0
 11
7417.192158500192
 21
7886.123139034578
 31
0.0
  0
LINE
  5
18C71
330
18C6C
100
AcDbEntity
  8
寸法
 62
     0
 48
50.0
370
    -2
100
AcDbLine
 10
7417.192158500192
 20
7749.123139034579
 30
0.0
 11
7417.192158500192
 21
7533.123139034573
 31
0.0
  0
LINE
  5
18C72
330
18C6C
100
AcDbEntity
  8
寸法
 62
     0
 48
50.0
370
    -2
100
AcDbLine
 10
7417.192158500192
 20
7846.123139034578
 30
0.0
 11
7417.192158500192
 21
7769.123139034579
 31
0.0
  0
INSERT
  5
18C73
330
18C6C
100
AcDbEntity
  8
寸法
 62
     0
 48
50.0
370
    -2
100
AcDbBlockReference
  2
_DOT
 10
7417.192158500192
 20
7846.123139034578
 30
0.0
 41
20.0
 42
20.0
 43
20.0
 50
270.0
  0
INSERT
  5
18C74
330
18C6C
100
AcDbEntity
  8
寸法
 62
     0
 48
50.0
370
    -2
100
AcDbBlockReference
  2
_DOT
 10
7417.192158500192
 20
7769.123139034579
 30
0.0
 41
20.0
 42
20.0
 43
20.0
 50
90.0
  0
MTEXT
  5
18C75
330
18C6C
100
AcDbEntity
  8
寸法
 62
     7
 48
50.0
100
AcDbMText
 10
7325.192158500191
 20
7631.123139034575
 30
0.0
 40
120.0
 41
0.0
 71
     5
 72
     1
  1
\A1;77
  7
STYLE1
 11
0.0000000000000001
 21
1.0
 31
0.0
 73
     1
 44
1.0
1001
ACAD
1000
MTEXTBEGIN
1070
    73
1070
     1
1070
    44
1040
1.0
1070
    74
1070
     0
1000
MTEXTEND
  0
POINT
  5
18C76
330
18C6C
100
AcDbEntity
  8
DEFPOINTS
 62
     0
 48
50.0
100
AcDbPoint
 10
7180.896575106967
 20
7846.123139034578
 30
0.0
  0
POINT
  5
18C77
330
18C6C
100
AcDbEntity
  8
DEFPOINTS
 62
     0
 48
50.0
100
AcDbPoint
 10
7179.896575106965
 20
7769.123139034579
 30
0.0
  0
POINT
  5
18C78
330
18C6C
100
AcDbEntity
  8
DEFPOINTS
 62
     0
 48
50.0
100
AcDbPoint
 10
7417.192158500192
 20
7769.123139034579
 30
0.0
  0
ENDBLK
  5
18C79
330
18C6C
100
AcDbEntity
  8
0
 48
50.0
100
AcDbBlockEnd
  0
BLOCK
  5
18DA0
330
18C7A
100
AcDbEntity
  8
0
 48
50.0
100
AcDbBlockBegin
  2
A$C3B1A506B
 70
     0
 10
0.0
 20
0.0
 30
0.0
  3
A$C3B1A506B
  1

  0
MTEXT
  5
18C7B
330
18C7A
100
AcDbEntity
  8
寸法
 62
     7
 48
50.0
100
AcDbMText
 10
3342.250386887194
 20
2778.329429134012
 30
0.0
 40
96.0
 41
0.0
 71
     5
 72
     1
  1
棚 2段
  7
STYLE1
 73
     1
 44
1.0
1001
ACAD
1000
MTEXTBEGIN
1070
    73
1070
     1
1070
    44
1040
1.0
1070
    74
1070
     0
1000
MTEXTEND
  0
MTEXT
  5
18C7C
330
18C7A
100
AcDbEntity
  8
寸法
 62
     7
 48
50.0
100
AcDbMText
 10
2167.25038688716
 20
2778.329429133986
 30
0.0
 40
96.0
 41
0.0
 71
     5
 72
     1
  1
棚 2段
  7
STYLE1
 73
     1
 44
1.0
1001
ACAD
1000
MTEXTBEGIN
1070
    73
1070
     1
1070
    44
1040
1.0
1070
    74
1070
     0
1000
MTEXTEND
  0
MTEXT
  5
18C7D
330
18C7A
100
AcDbEntity
  8
寸法
 62
     7
 48
50.0
100
AcDbMText
 10
992.2503868871608
 20
2778.329429133935
 30
0.0
 40
96.0
 41
0.0
 71
     5
 72
     1
  1
棚 2段
  7
STYLE1
 73
     1
 44
1.0
1001
ACAD
1000
MTEXTBEGIN
1070
    73
1070
     1
1070
    44
1040
1.0
1070
    74
1070
     0
1000
MTEXTEND
  0
LINE
  5
18C7E
330
18C7A
100
AcDbEntity
  8
細線
 48
50.0
100
AcDbLine
 10
2771.970589276527
 20
1368.994384123192
 30
0.0
 11
3398.970589276523
 21
1368.994384123192
 31
0.0
  0
LINE
  5
18C7F
330
18C7A
100
AcDbEntity
  8
細線
 48
50.0
100
AcDbLine
 10
2117.970593930113
 20
1335.285615569113
 30
0.0
 11
3398.970589276523
 21
1335.285615569113
 31
0.0
  0
LINE
  5
18C80
330
18C7A
100
AcDbEntity
  8
細線
 48
50.0
100
AcDbLine
 10
2076.970593930115
 20
1364.690523565368
 30
0.0
 11
1322.970589276523
 21
1364.690523565367
 31
0.0
  0
LINE
  5
18C81
330
18C7A
100
AcDbEntity
  8
細線
100
AcDbLine
 10
3170.720579860066
 20
1388.494284088199
 30
0.0
 11
3173.052119381877
 21
1393.494286728162
 31
0.0
  0
LINE
  5
18C82
330
18C7A
100
AcDbEntity
  8
細線
100
AcDbLine
 10
3240.720589276525
 20
1388.494269174465
 30
0.0
 11
3238.389042800336
 21
1393.494286728144
 31
0.0
  0
LINE
  5
18C83
330
18C7A
100
AcDbEntity
  8
細線
100
AcDbLine
 10
3238.389042800336
 20
1393.494286728144
 30
0.0
 11
3173.052119381862
 21
1393.494286728133
 31
0.0
  0
LINE
  5
18C84
330
18C7A
100
AcDbEntity
  8
細線
100
AcDbLine
 10
3098.389042800336
 20
1393.494286728144
 30
0.0
 11
3033.052119381862
 21
1393.494286728133
 31
0.0
  0
LINE
  5
18C85
330
18C7A
100
AcDbEntity
  8
細線
100
AcDbLine
 10
3100.720589276523
 20
1388.494269174465
 30
0.0
 11
3098.389042800336
 21
1393.494286728144
 31
0.0
  0
LINE
  5
18C86
330
18C7A
100
AcDbEntity
  8
細線
100
AcDbLine
 10
3030.720579860066
 20
1388.494284088199
 30
0.0
 11
3033.052119381875
 21
1393.494286728162
 31
0.0
  0
LINE
  5
18C87
330
18C7A
100
AcDbEntity
  8
細線
100
AcDbLine
 10
2890.720589276525
 20
1388.494269174465
 30
0.0
 11
2893.052128798336
 21
1393.494271814428
 31
0.0
  0
LINE
  5
18C88
330
18C7A
100
AcDbEntity
  8
細線
100
AcDbLine
 10
2960.720598692984
 20
1388.494254260731
 30
0.0
 11
2958.389052216793
 21
1393.49427181441
 31
0.0
  0
LINE
  5
18C89
330
18C7A
100
AcDbEntity
  8
細線
100
AcDbLine
 10
2958.389052216795
 20
1393.49427181441
 30
0.0
 11
2893.052128798321
 21
1393.494271814399
 31
0.0
  0
LINE
  5
18C8A
330
18C7A
100
AcDbEntity
  8
細線
100
AcDbLine
 10
2667.139038146739
 20
1359.494298590735
 30
0.0
 11
2601.802114728263
 21
1359.494298590724
 31
0.0
  0
LINE
  5
18C8B
330
18C7A
100
AcDbEntity
  8
細線
100
AcDbLine
 10
2669.470584622926
 20
1354.494281037055
 30
0.0
 11
2667.139038146737
 21
1359.494298590735
 31
0.0
  0
LINE
  5
18C8C
330
18C7A
100
AcDbEntity
  8
細線
100
AcDbLine
 10
2599.470575206469
 20
1354.49429595079
 30
0.0
 11
2601.802114728278
 21
1359.494298590752
 31
0.0
  0
LINE
  5
18C8D
330
18C7A
100
AcDbEntity
  8
細線
 48
50.0
100
AcDbLine
 10
2440.853968524536
 20
1372.765132327548
 30
0.0
 11
2446.609486107205
 21
1354.494281037057
 31
0.0
  0
LINE
  5
18C8E
330
18C7A
100
AcDbEntity
  8
細線
 48
50.0
100
AcDbLine
 10
2429.925520044106
 20
1372.765132327546
 30
0.0
 11
2440.853968524536
 21
1372.765132327548
 31
0.0
  0
ARC
  5
18C8F
330
18C7A
100
AcDbEntity
  8
細線
 48
50.0
100
AcDbCircle
 10
2424.471163986787
 20
1374.265132327546
 30
0.0
 40
5.0
100
AcDbArc
 50
204.6243183520723
 51
335.3756816479278
  0
ARC
  5
18C90
330
18C7A
100
AcDbEntity
  8
細線
 48
50.0
100
AcDbCircle
 10
2429.925520044106
 20
1371.765132327546
 30
0.0
 40
1.0
100
AcDbArc
 50
90.0
 51
155.3756816479277
  0
ARC
  5
18C91
330
18C7A
100
AcDbEntity
  8
細線
 48
50.0
100
AcDbCircle
 10
2419.016807929469
 20
1371.765132327546
 30
0.0
 40
1.0
100
AcDbArc
 50
24.62431835207225
 51
90.0
  0
LINE
  5
18C92
330
18C7A
100
AcDbEntity
  8
細線
 48
50.0
100
AcDbLine
 10
2408.088359449037
 20
1372.765132327548
 30
0.0
 11
2419.016807929469
 21
1372.765132327546
 31
0.0
  0
LINE
  5
18C93
330
18C7A
100
AcDbEntity
  8
細線
 48
50.0
100
AcDbLine
 10
2402.33284186637
 20
1354.494281037054
 30
0.0
 11
2408.088359449037
 21
1372.765132327548
 31
0.0
  0
LINE
  5
18C94
330
18C7A
100
AcDbEntity
  8
細線
100
AcDbLine
 10
2458.070304175992
 20
1354.494278397076
 30
0.0
 11
2460.401843697802
 21
1359.494281037039
 31
0.0
  0
LINE
  5
18C95
330
18C7A
100
AcDbEntity
  8
細線
100
AcDbLine
 10
2528.070313592451
 20
1354.494263483342
 30
0.0
 11
2525.738767116262
 21
1359.494281037021
 31
0.0
  0
LINE
  5
18C96
330
18C7A
100
AcDbEntity
  8
細線
100
AcDbLine
 10
2525.738767116262
 20
1359.494281037021
 30
0.0
 11
2460.40184369779
 21
1359.49428103701
 31
0.0
  0
LINE
  5
18C97
330
18C7A
100
AcDbEntity
  8
細線
100
AcDbLine
 10
2387.139046332155
 20
1359.494281037021
 30
0.0
 11
2321.80212291368
 21
1359.49428103701
 31
0.0
  0
LINE
  5
18C98
330
18C7A
100
AcDbEntity
  8
細線
100
AcDbLine
 10
2389.470592808342
 20
1354.494263483342
 30
0.0
 11
2387.139046332153
 21
1359.494281037021
 31
0.0
  0
LINE
  5
18C99
330
18C7A
100
AcDbEntity
  8
細線
100
AcDbLine
 10
2319.470584622926
 20
1354.494281037054
 30
0.0
 11
2321.802122913694
 21
1359.494281037039
 31
0.0
  0
LINE
  5
18C9A
330
18C7A
100
AcDbEntity
  8
細線
100
AcDbLine
 10
2179.47061994182
 20
1354.494289224422
 30
0.0
 11
2181.802158232587
 21
1359.494289224407
 31
0.0
  0
LINE
  5
18C9B
330
18C7A
100
AcDbEntity
  8
細線
100
AcDbLine
 10
2249.470628127236
 20
1354.49427167071
 30
0.0
 11
2247.139081651047
 21
1359.494289224389
 31
0.0
  0
LINE
  5
18C9C
330
18C7A
100
AcDbEntity
  8
細線
100
AcDbLine
 10
2247.139081651047
 20
1359.494289224389
 30
0.0
 11
2181.802158232573
 21
1359.494289224378
 31
0.0
  0
LINE
  5
18C9D
330
18C7A
100
AcDbEntity
  8
細線
100
AcDbLine
 10
1807.970585744697
 20
1320.494460905133
 30
0.0
 11
1810.302124035464
 21
1325.494460905118
 31
0.0
  0
LINE
  5
18C9E
330
18C7A
100
AcDbEntity
  8
細線
100
AcDbLine
 10
1877.970593930113
 20
1320.494443351421
 30
0.0
 11
1875.639047453926
 21
1325.4944609051
 31
0.0
  0
LINE
  5
18C9F
330
18C7A
100
AcDbEntity
  8
細線
100
AcDbLine
 10
1875.639047453926
 20
1325.4944609051
 30
0.0
 11
1810.302124035452
 21
1325.494460905089
 31
0.0
  0
LINE
  5
18CA0
330
18C7A
100
AcDbEntity
  8
細線
100
AcDbLine
 10
2015.639047453926
 20
1325.4944609051
 30
0.0
 11
1950.302124035452
 21
1325.494460905089
 31
0.0
  0
LINE
  5
18CA1
330
18C7A
100
AcDbEntity
  8
細線
100
AcDbLine
 10
2017.970593930113
 20
1320.494443351421
 30
0.0
 11
2015.639047453924
 21
1325.4944609051
 31
0.0
  0
LINE
  5
18CA2
330
18C7A
100
AcDbEntity
  8
細線
100
AcDbLine
 10
1947.970585744697
 20
1320.494460905133
 30
0.0
 11
1950.302124035465
 21
1325.494460905118
 31
0.0
  0
LINE
  5
18CA3
330
18C7A
100
AcDbEntity
  8
細線
100
AcDbLine
 10
1735.639047453926
 20
1325.494460905098
 30
0.0
 11
1670.302124035454
 21
1325.494460905087
 31
0.0
  0
LINE
  5
18CA4
330
18C7A
100
AcDbEntity
  8
細線
100
AcDbLine
 10
1737.970593930113
 20
1320.494443351419
 30
0.0
 11
1735.639047453926
 21
1325.494460905098
 31
0.0
  0
LINE
  5
18CA5
330
18C7A
100
AcDbEntity
  8
細線
100
AcDbLine
 10
1667.970585744697
 20
1320.494460905131
 30
0.0
 11
1670.302124035465
 21
1325.494460905116
 31
0.0
  0
LINE
  5
18CA6
330
18C7A
100
AcDbEntity
  8
細線
100
AcDbLine
 10
1527.970593930113
 20
1320.494460905133
 30
0.0
 11
1530.302132220881
 21
1325.494460905118
 31
0.0
  0
LINE
  5
18CA7
330
18C7A
100
AcDbEntity
  8
細線
100
AcDbLine
 10
1597.970602115529
 20
1320.494443351421
 30
0.0
 11
1595.639055639342
 21
1325.4944609051
 31
0.0
  0
LINE
  5
18CA8
330
18C7A
100
AcDbEntity
  8
細線
100
AcDbLine
 10
1595.639055639342
 20
1325.4944609051
 30
0.0
 11
1530.302132220869
 21
1325.494460905089
 31
0.0
  0
ARC
  5
18CA9
330
18C7A
100
AcDbEntity
  8
部品1
 48
0.01
100
AcDbCircle
 10
1483.470482677778
 20
1319.493338720063
 30
0.0
 40
0.5
100
AcDbArc
 50
270.0
 51
0.0
  0
LINE
  5
18CAA
330
18C7A
100
AcDbEntity
  8
部品1
 48
0.01
100
AcDbLine
 10
1483.970482677778
 20
1320.493338720063
 30
0.0
 11
1483.970482677778
 21
1319.493338720063
 31
0.0
  0
LINE
  5
18CAB
330
18C7A
100
AcDbEntity
  8
部品1
 48
0.01
100
AcDbLine
 10
1483.970482677778
 20
1320.493338720063
 30
0.0
 11
1483.970482677778
 21
1319.493338720063
 31
0.0
  0
LINE
  5
18CAC
330
18C7A
100
AcDbEntity
  8
部品1
 48
0.01
100
AcDbLine
 10
1483.470482677778
 20
1318.993338720063
 30
0.0
 11
1476.857977247713
 21
1318.993338720062
 31
0.0
  0
ARC
  5
18CAD
330
18C7A
100
AcDbEntity
  8
部品1
100
AcDbCircle
 10
1476.926326800494
 20
1319.993338720062
 30
0.0
 40
1.0
100
AcDbArc
 50
160.5287793655865
 51
270.0
  0
ARC
  5
18CAE
330
18C7A
100
AcDbEntity
  8
部品1
100
AcDbCircle
 10
1451.470482677778
 20
1328.993338720062
 30
0.0
 40
26.0
100
AcDbArc
 50
340.5287793655865
 51
0.0
  0
LINE
  5
18CAF
330
18C7A
100
AcDbEntity
  8
部品1
100
AcDbLine
 10
1477.470482677778
 20
1328.993338720062
 30
0.0
 11
1477.470482677778
 21
1333.993338720061
 31
0.0
  0
ARC
  5
18CB0
330
18C7A
100
AcDbEntity
  8
部品1
 48
0.01
100
AcDbCircle
 10
1475.470482677778
 20
1333.993338720061
 30
0.0
 40
2.0
100
AcDbArc
 50
0.0
 51
90.0
  0
ARC
  5
18CB1
330
18C7A
100
AcDbEntity
  8
部品1
100
AcDbCircle
 10
1473.862091052968
 20
1332.993338720062
 30
0.0
 40
3.0
100
AcDbArc
 50
90.0
 51
141.6069559808035
  0
LINE
  5
18CB2
330
18C7A
100
AcDbEntity
  8
部品1
 48
0.01
100
AcDbLine
 10
1475.470482677778
 20
1335.993338720062
 30
0.0
 11
1473.862091052968
 21
1335.993338720062
 31
0.0
  0
ARC
  5
18CB3
330
18C7A
100
AcDbEntity
  8
部品1
100
AcDbCircle
 10
1455.399768463507
 20
1332.293338720065
 30
0.0
 40
3.0
100
AcDbArc
 50
254.0576313943215
 51
270.0
  0
ARC
  5
18CB4
330
18C7A
100
AcDbEntity
  8
部品1
100
AcDbCircle
 10
1462.541196892049
 20
1332.293338720065
 30
0.0
 40
3.0
100
AcDbArc
 50
270.0
 51
285.9423686056786
  0
LINE
  5
18CB5
330
18C7A
100
AcDbEntity
  8
部品1
100
AcDbLine
 10
1462.541196892049
 20
1329.293338720064
 30
0.0
 11
1455.399768463507
 21
1329.293338720064
 31
0.0
  0
ARC
  5
18CB6
330
18C7A
100
AcDbEntity
  8
部品1
100
AcDbCircle
 10
1458.970482677778
 20
1344.793338720065
 30
0.0
 40
16.0
100
AcDbArc
 50
285.9423686056786
 51
321.6069559808035
  0
LINE
  5
18CB7
330
18C7A
100
AcDbEntity
  8
部品1
 48
0.01
100
AcDbLine
 10
1442.470482677778
 20
1335.993338720062
 30
0.0
 11
1444.078874302588
 21
1335.993338720062
 31
0.0
  0
ARC
  5
18CB8
330
18C7A
100
AcDbEntity
  8
部品1
100
AcDbCircle
 10
1444.078874302588
 20
1332.993338720062
 30
0.0
 40
3.0
100
AcDbArc
 50
38.39304401919648
 51
90.0
  0
ARC
  5
18CB9
330
18C7A
100
AcDbEntity
  8
部品1
100
AcDbCircle
 10
1458.970482677778
 20
1344.793338720065
 30
0.0
 40
16.0
100
AcDbArc
 50
218.3930440191965
 51
254.0576313943215
  0
LINE
  5
18CBA
330
18C7A
100
AcDbEntity
  8
部品1
100
AcDbLine
 10
1440.470482677778
 20
1328.993338720062
 30
0.0
 11
1440.470482677778
 21
1333.993338720061
 31
0.0
  0
ARC
  5
18CBB
330
18C7A
100
AcDbEntity
  8
部品1
 48
0.01
100
AcDbCircle
 10
1442.470482677778
 20
1333.993338720061
 30
0.0
 40
2.0
100
AcDbArc
 50
90.0
 51
180.0
  0
ARC
  5
18CBC
330
18C7A
100
AcDbEntity
  8
部品1
100
AcDbCircle
 10
1466.470482677778
 20
1328.993338720062
 30
0.0
 40
26.0
100
AcDbArc
 50
180.0
 51
199.4712206344134
  0
ARC
  5
18CBD
330
18C7A
100
AcDbEntity
  8
部品1
 48
0.01
100
AcDbCircle
 10
1434.470482677778
 20
1319.493338720063
 30
0.0
 40
0.5
100
AcDbArc
 50
180.0
 51
270.0
  0
LINE
  5
18CBE
330
18C7A
100
AcDbEntity
  8
部品1
 48
0.01
100
AcDbLine
 10
1434.470482677778
 20
1318.993338720063
 30
0.0
 11
1441.014638555061
 21
1318.993338720062
 31
0.0
  0
LINE
  5
18CBF
330
18C7A
100
AcDbEntity
  8
部品1
 48
0.01
100
AcDbLine
 10
1433.970482677778
 20
1320.493338720063
 30
0.0
 11
1433.970482677778
 21
1319.493338720063
 31
0.0
  0
ARC
  5
18CC0
330
18C7A
100
AcDbEntity
  8
部品1
100
AcDbCircle
 10
1441.014638555061
 20
1319.993338720062
 30
0.0
 40
1.0
100
AcDbArc
 50
270.0
 51
19.47122063441346
  0
LINE
  5
18CC1
330
18C7A
100
AcDbEntity
  8
細線
100
AcDbLine
 10
1479.470482677785
 20
1338.493338720065
 30
0.0
 11
1438.470482677785
 21
1338.493338720058
 31
0.0
  0
LINE
  5
18CC2
330
18C7A
100
AcDbEntity
  8
細線
100
AcDbLine
 10
1438.470482677785
 20
1338.493338720058
 30
0.0
 11
1438.470482677785
 21
1320.49333872004
 31
0.0
  0
LINE
  5
18CC3
330
18C7A
100
AcDbEntity
  8
細線
100
AcDbLine
 10
1479.470482677785
 20
1338.493338720065
 30
0.0
 11
1479.470482677785
 21
1320.49333872004
 31
0.0
  0
LINE
  5
18CC4
330
18C7A
100
AcDbEntity
  8
細線
100
AcDbLine
 10
1322.970589276523
 20
1324.494269174465
 30
0.0
 11
1322.970589276523
 21
1320.494269174513
 31
0.0
  0
LINE
  5
18CC5
330
18C7A
100
AcDbEntity
  8
寸法
 48
50.0
100
AcDbLine
 10
1746.17359555837
 20
1170.531020743327
 30
0.0
 11
1694.767587648266
 21
1170.531020743327
 31
0.0
  0
LINE
  5
18CC6
330
18C7A
100
AcDbEntity
  8
寸法
 48
50.0
100
AcDbLine
 10
1694.767587648266
 20
1170.531020743327
 30
0.0
 11
1694.767587648266
 21
1201.841179395494
 31
0.0
  0
LINE
  5
18CC7
330
18C7A
100
AcDbEntity
  8
寸法
 48
50.0
100
AcDbLine
 10
1694.767587648266
 20
1201.841179395494
 30
0.0
 11
1665.006255656843
 21
1201.841179395494
 31
0.0
  0
LINE
  5
18CC8
330
18C7A
100
AcDbEntity
  8
寸法
 48
50.0
100
AcDbLine
 10
1665.006255656843
 20
1201.841179395494
 30
0.0
 11
1720.470591603318
 21
1239.420630324105
 31
0.0
  0
LINE
  5
18CC9
330
18C7A
100
AcDbEntity
  8
寸法
 48
50.0
100
AcDbLine
 10
1775.934927549793
 20
1201.841179395494
 30
0.0
 11
1720.470591603318
 21
1239.420630324105
 31
0.0
  0
LINE
  5
18CCA
330
18C7A
100
AcDbEntity
  8
寸法
 48
50.0
100
AcDbLine
 10
1746.17359555837
 20
1201.841179395494
 30
0.0
 11
1775.934927549793
 21
1201.841179395494
 31
0.0
  0
LINE
  5
18CCB
330
18C7A
100
AcDbEntity
  8
寸法
 48
50.0
100
AcDbLine
 10
1746.17359555837
 20
1170.531020743327
 30
0.0
 11
1746.17359555837
 21
1201.841179395494
 31
0.0
  0
LINE
  5
18CCC
330
18C7A
100
AcDbEntity
  8
寸法
 48
50.0
100
AcDbLine
 10
1694.767587648266
 20
1170.531020743327
 30
0.0
 11
1746.17359555837
 21
1170.531020743327
 31
0.0
  0
LINE
  5
18CCD
330
18C7A
100
AcDbEntity
  8
寸法
 48
50.0
100
AcDbLine
 10
2025.339129835225
 20
1227.676611498152
 30
0.0
 11
2025.339129835225
 21
1174.01297691636
 31
0.0
  0
LINE
  5
18CCE
330
18C7A
100
AcDbEntity
  8
寸法
 48
50.0
100
AcDbLine
 10
2114.623348430647
 20
1203.752977228664
 30
0.0
 11
2025.339129835225
 21
1227.676611498152
 31
0.0
  0
LINE
  5
18CCF
330
18C7A
100
AcDbEntity
  8
寸法
 48
50.0
100
AcDbLine
 10
1895.471408254923
 20
1203.752977228664
 30
0.0
 11
2114.623348430647
 21
1203.752977228664
 31
0.0
  0
DIMENSION
  5
18CD0
330
18C7A
100
AcDbEntity
  8
寸法
 48
50.0
100
AcDbDimension
  2
*D15
 10
2588.970589276523
 20
706.3240511224249
 30
0.0
 11
1969.060022905491
 21
706.3240511224249
 31
0.0
 12
-3742.925985830444
 22
-6453.628869860112
 32
0.0
 70
   128
  1
有効開口部間口\P<>
 71
     5
 42
1266.0
  3
INABA_S40G
100
AcDbAlignedDimension
 13
1322.970589276523
 23
1315.494269174465
 33
0.0
 14
2588.970589276523
 24
1315.494269174465
 34
0.0
100
AcDbRotatedDimension
1001
ACAD
1000
DSTYLE
1002
{
1070
   341
1005
0
1002
}
  0
LINE
  5
18CD1
330
18C7A
100
AcDbEntity
  8
部品1
100
AcDbLine
 10
3409.970589276524
 20
1392.494269174465
 30
0.0
 11
3437.970589276523
 21
1392.494269174465
 31
0.0
  0
DIMENSION
  5
18CD2
330
18C7A
100
AcDbEntity
  8
寸法
100
AcDbDimension
  2
*D16
 10
3674.266172669749
 20
1315.494269174465
 30
0.0
 11
3674.266172669748
 21
1177.494269174462
 31
0.0
 12
-3742.925985830444
 22
-6453.628869860112
 32
0.0
 70
   128
 71
     5
 42
77.0
  3
INABA_S40
100
AcDbAlignedDimension
 13
3437.970589276523
 23
1392.494269174465
 33
0.0
 14
3436.970589276523
 24
1315.494269174465
 34
0.0
 50
90.0
100
AcDbRotatedDimension
1001
ACAD
1000
DSTYLE
1002
{
1070
    41
1040
0.5
1070
    44
1040
1.0
1070
   147
1040
0.8
1070
   271
1070
     2
1070
   272
1070
     2
1070
   289
1070
     3
1070
   340
1005
F706
1070
   343
1005
164B4
1070
   344
1005
164B4
1002
}
  0
LINE
  5
18CD3
330
18C7A
100
AcDbEntity
  8
部品1
100
AcDbLine
 10
3437.970589276523
 20
1315.494269174465
 30
0.0
 11
3437.970589276523
 21
1392.494269174465
 31
0.0
  0
LINE
  5
18CD4
330
18C7A
100
AcDbEntity
  8
部品1
100
AcDbLine
 10
3398.970589276523
 20
1388.494269174465
 30
0.0
 11
3409.970589276524
 21
1388.494269174465
 31
0.0
  0
LINE
  5
18CD5
330
18C7A
100
AcDbEntity
  8
部品1
100
AcDbLine
 10
3407.970589276523
 20
1324.494269174465
 30
0.0
 11
3407.970589276523
 21
1315.494269174465
 31
0.0
  0
LINE
  5
18CD6
330
18C7A
100
AcDbEntity
  8
部品1
100
AcDbLine
 10
3398.970589276523
 20
1324.494269174465
 30
0.0
 11
3407.970589276523
 21
1324.494269174465
 31
0.0
  0
LINE
  5
18CD7
330
18C7A
100
AcDbEntity
  8
部品1
100
AcDbLine
 10
3398.970589276523
 20
1388.494269174465
 30
0.0
 11
3398.970589276523
 21
1324.494269174465
 31
0.0
  0
LINE
  5
18CD8
330
18C7A
100
AcDbEntity
  8
部品1
100
AcDbLine
 10
3409.970589276524
 20
1419.494269174465
 30
0.0
 11
3409.970589276524
 21
1388.494269174465
 31
0.0
  0
LINE
  5
18CD9
330
18C7A
100
AcDbEntity
  8
部品1
100
AcDbLine
 10
1322.970589276523
 20
1388.494269174465
 30
0.0
 11
1311.970589276523
 21
1388.494269174465
 31
0.0
  0
LINE
  5
18CDA
330
18C7A
100
AcDbEntity
  8
部品1
100
AcDbLine
 10
1283.970589276523
 20
1392.494269174465
 30
0.0
 11
1311.970589276523
 21
1392.494269174465
 31
0.0
  0
LINE
  5
18CDB
330
18C7A
100
AcDbEntity
  8
部品1
100
AcDbLine
 10
1313.970589276523
 20
1324.494269174465
 30
0.0
 11
1313.970589276523
 21
1315.494269174465
 31
0.0
  0
LINE
  5
18CDC
330
18C7A
100
AcDbEntity
  8
部品1
100
AcDbLine
 10
1322.970589276523
 20
1324.494269174465
 30
0.0
 11
1313.970589276523
 21
1324.494269174465
 31
0.0
  0
LINE
  5
18CDD
330
18C7A
100
AcDbEntity
  8
部品1
100
AcDbLine
 10
1313.970589276523
 20
1315.494269174465
 30
0.0
 11
1283.970589276523
 21
1315.494269174465
 31
0.0
  0
LINE
  5
18CDE
330
18C7A
100
AcDbEntity
  8
部品1
100
AcDbLine
 10
1283.970589276523
 20
1315.494269174465
 30
0.0
 11
1283.970589276523
 21
1392.494269174465
 31
0.0
  0
LINE
  5
18CDF
330
18C7A
100
AcDbEntity
  8
部品1
100
AcDbLine
 10
1322.970589276523
 20
1388.494269174465
 30
0.0
 11
1322.970589276523
 21
1324.494269174465
 31
0.0
  0
LINE
  5
18CE0
330
18C7A
100
AcDbEntity
  8
部品1
100
AcDbLine
 10
1311.970589276523
 20
1419.494269174462
 30
0.0
 11
1311.970589276523
 21
1388.494269174465
 31
0.0
  0
LINE
  5
18CE1
330
18C7A
100
AcDbEntity
  8
部品1
100
AcDbLine
 10
1311.970589276523
 20
1419.494269174462
 30
0.0
 11
3409.970589276524
 21
1419.494269174465
 31
0.0
  0
LINE
  5
18CE2
330
18C7A
100
AcDbEntity
  8
部品1
100
AcDbLine
 10
3407.970589276523
 20
1315.494269174465
 30
0.0
 11
3437.970589276523
 21
1315.494269174465
 31
0.0
  0
LINE
  5
18CE3
330
18C7A
100
AcDbEntity
  8
部品1
100
AcDbLine
 10
1313.970589276523
 20
1315.494269174465
 30
0.0
 11
3410.970589276523
 21
1315.494269174465
 31
0.0
  0
LINE
  5
18CE4
330
18C7A
100
AcDbEntity
  8
細線
  6
Continuous
 62
     5
100
AcDbLine
 10
2689.970589276527
 20
1354.494269174462
 30
0.0
 11
2689.970589276527
 21
1354.494269174462
 31
0.0
  0
LINE
  5
18CE5
330
18C7A
100
AcDbEntity
  8
細線
  6
Continuous
 62
     5
100
AcDbLine
 10
2682.470589276527
 20
1354.494269174462
 30
0.0
 11
2682.470589276527
 21
1354.494269174462
 31
0.0
  0
LINE
  5
18CE6
330
18C7A
100
AcDbEntity
  8
細線
  6
Continuous
 62
     5
100
AcDbLine
 10
2676.470589276527
 20
1354.494269174462
 30
0.0
 11
2676.470589276527
 21
1354.494269174462
 31
0.0
  0
LINE
  5
18CE7
330
18C7A
100
AcDbEntity
  8
細線
  6
Continuous
 62
     5
100
AcDbLine
 10
2743.970589276527
 20
1373.494269174462
 30
0.0
 11
2743.970589276527
 21
1373.494269174462
 31
0.0
  0
LINE
  5
18CE8
330
18C7A
100
AcDbEntity
  8
細線
 48
50.0
100
AcDbLine
 10
1336.970593930116
 20
1341.094443351418
 30
0.0
 11
1336.970593930113
 21
1349.490593759059
 31
0.0
  0
LINE
  5
18CE9
330
18C7A
100
AcDbEntity
  8
細線
 48
50.0
100
AcDbLine
 10
1336.970593930113
 20
1349.490593759059
 30
0.0
 11
1322.970589276523
 21
1349.490593759057
 31
0.0
  0
LINE
  5
18CEA
330
18C7A
100
AcDbEntity
  8
細線
 48
50.0
100
AcDbLine
 10
2087.970593930113
 20
1337.644443351419
 30
0.0
 11
2087.970593930113
 21
1342.494443351421
 31
0.0
  0
LINE
  5
18CEB
330
18C7A
100
AcDbEntity
  8
細線
 48
50.0
100
AcDbLine
 10
2087.970593930113
 20
1342.494443351421
 30
0.0
 11
2102.970593930113
 21
1342.494443351421
 31
0.0
  0
LINE
  5
18CEC
330
18C7A
100
AcDbEntity
  8
細線
 48
50.0
100
AcDbLine
 10
2102.970593930113
 20
1342.494443351421
 30
0.0
 11
2102.970593930115
 21
1349.494443351419
 31
0.0
  0
LINE
  5
18CED
330
18C7A
100
AcDbEntity
  8
細線
 48
50.0
100
AcDbLine
 10
2102.970593930115
 20
1349.494443351419
 30
0.0
 11
2117.970593930113
 21
1349.494443351419
 31
0.0
  0
LINE
  5
18CEE
330
18C7A
100
AcDbEntity
  8
細線
 48
50.0
100
AcDbLine
 10
2117.970593930113
 20
1349.494443351419
 30
0.0
 11
2117.970593930113
 21
1320.494443351421
 31
0.0
  0
LINE
  5
18CEF
330
18C7A
100
AcDbEntity
  8
細線
 48
50.0
100
AcDbLine
 10
1313.970589276523
 20
1320.491777694889
 30
0.0
 11
1527.970593930113
 21
1320.494460905133
 31
0.0
  0
LINE
  5
18CF0
330
18C7A
100
AcDbEntity
  8
細線
 48
50.0
100
AcDbLine
 10
2017.970593930113
 20
1320.494443351421
 30
0.0
 11
2117.970593930113
 21
1320.494443351421
 31
0.0
  0
LINE
  5
18CF1
330
18C7A
100
AcDbEntity
  8
細線
 48
50.0
100
AcDbLine
 10
1737.970593930113
 20
1320.494443351419
 30
0.0
 11
1807.970593930113
 21
1320.494443351423
 31
0.0
  0
LINE
  5
18CF2
330
18C7A
100
AcDbEntity
  8
細線
 48
50.0
100
AcDbLine
 10
1750.832558942642
 20
1320.494443351419
 30
0.0
 11
1756.588076525309
 21
1338.765294641913
 31
0.0
  0
LINE
  5
18CF3
330
18C7A
100
AcDbEntity
  8
細線
 48
50.0
100
AcDbLine
 10
1756.588076525309
 20
1338.765294641913
 30
0.0
 11
1767.516525005743
 21
1338.765294641911
 31
0.0
  0
ARC
  5
18CF4
330
18C7A
100
AcDbEntity
  8
細線
 48
50.0
100
AcDbCircle
 10
1767.516525005743
 20
1337.765294641911
 30
0.0
 40
1.0
100
AcDbArc
 50
24.62431835207225
 51
90.0
  0
ARC
  5
18CF5
330
18C7A
100
AcDbEntity
  8
細線
 48
50.0
100
AcDbCircle
 10
1778.425237120377
 20
1337.765294641911
 30
0.0
 40
1.0
100
AcDbArc
 50
90.0
 51
155.3756816479277
  0
ARC
  5
18CF6
330
18C7A
100
AcDbEntity
  8
細線
 48
50.0
100
AcDbCircle
 10
1772.970881063058
 20
1340.265294641911
 30
0.0
 40
5.0
100
AcDbArc
 50
204.6243183520723
 51
335.3756816479278
  0
LINE
  5
18CF7
330
18C7A
100
AcDbEntity
  8
細線
 48
50.0
100
AcDbLine
 10
1778.425237120377
 20
1338.765294641911
 30
0.0
 11
1789.35368560081
 21
1338.765294641913
 31
0.0
  0
LINE
  5
18CF8
330
18C7A
100
AcDbEntity
  8
細線
 48
50.0
100
AcDbLine
 10
1789.35368560081
 20
1338.765294641913
 30
0.0
 11
1795.109203183478
 21
1320.494443351423
 31
0.0
  0
LINE
  5
18CF9
330
18C7A
100
AcDbEntity
  8
細線
 48
50.0
100
AcDbLine
 10
2087.970593930113
 20
1341.094443351419
 30
0.0
 11
1336.970593930116
 21
1341.094443351418
 31
0.0
  0
LINE
  5
18CFA
330
18C7A
100
AcDbEntity
  8
細線
 48
50.0
100
AcDbLine
 10
1947.970593930113
 20
1320.494443351421
 30
0.0
 11
1877.970593930113
 21
1320.494443351421
 31
0.0
  0
LINE
  5
18CFB
330
18C7A
100
AcDbEntity
  8
細線
100
AcDbLine
 10
1667.970593930113
 20
1320.494443351421
 30
0.0
 11
1597.970602115529
 21
1320.494443351421
 31
0.0
  0
LINE
  5
18CFC
330
18C7A
100
AcDbEntity
  8
細線
 48
50.0
100
AcDbLine
 10
2741.970584622936
 20
1375.094487209288
 30
0.0
 11
2106.970593930113
 21
1375.094487209284
 31
0.0
  0
LINE
  5
18CFD
330
18C7A
100
AcDbEntity
  8
細線
 48
50.0
100
AcDbLine
 10
2106.970593930113
 20
1371.990637616925
 30
0.0
 11
2106.970593930113
 21
1376.490637616925
 31
0.0
  0
LINE
  5
18CFE
330
18C7A
100
AcDbEntity
  8
細線
 48
50.0
100
AcDbLine
 10
2106.970593930113
 20
1376.490637616925
 30
0.0
 11
2091.970593930113
 21
1376.490637616925
 31
0.0
  0
LINE
  5
18CFF
330
18C7A
100
AcDbEntity
  8
細線
 48
50.0
100
AcDbLine
 10
2091.970593930113
 20
1376.490637616925
 30
0.0
 11
2091.970593930113
 21
1383.490637616927
 31
0.0
  0
LINE
  5
18D00
330
18C7A
100
AcDbEntity
  8
細線
 48
50.0
100
AcDbLine
 10
2091.970593930113
 20
1383.490637616927
 30
0.0
 11
2076.970593930115
 21
1383.490637616924
 31
0.0
  0
LINE
  5
18D01
330
18C7A
100
AcDbEntity
  8
細線
 48
50.0
100
AcDbLine
 10
2076.970593930115
 20
1383.490637616924
 30
0.0
 11
2076.970593930115
 21
1345.890409513813
 31
0.0
  0
LINE
  5
18D02
330
18C7A
100
AcDbEntity
  8
細線
 48
50.0
100
AcDbLine
 10
2076.970593930115
 20
1345.890409513813
 30
0.0
 11
2096.970601231289
 21
1345.890451063353
 31
0.0
  0
LINE
  5
18D03
330
18C7A
100
AcDbEntity
  8
細線
 48
50.0
100
AcDbLine
 10
2096.970556362348
 20
1354.493912699161
 30
0.0
 11
2096.970601231289
 21
1345.890451063353
 31
0.0
  0
LINE
  5
18D04
330
18C7A
100
AcDbEntity
  8
細線
 48
50.0
100
AcDbLine
 10
2741.970584622936
 20
1371.644487209287
 30
0.0
 11
2741.970584622936
 21
1376.494487209284
 31
0.0
  0
LINE
  5
18D05
330
18C7A
100
AcDbEntity
  8
細線
 48
50.0
100
AcDbLine
 10
2741.970584622936
 20
1376.494487209284
 30
0.0
 11
2756.970584622934
 21
1376.494487209285
 31
0.0
  0
LINE
  5
18D06
330
18C7A
100
AcDbEntity
  8
細線
 48
50.0
100
AcDbLine
 10
2756.970584622934
 20
1376.494487209285
 30
0.0
 11
2756.970596256909
 21
1383.494487209331
 31
0.0
  0
LINE
  5
18D07
330
18C7A
100
AcDbEntity
  8
細線
 48
50.0
100
AcDbLine
 10
2756.970596256909
 20
1383.494487209331
 30
0.0
 11
2771.970594427439
 21
1383.494487209329
 31
0.0
  0
LINE
  5
18D08
330
18C7A
100
AcDbEntity
  8
細線
 48
50.0
100
AcDbLine
 10
2771.970594427439
 20
1383.494487209329
 30
0.0
 11
2771.970584125617
 21
1354.494281037055
 31
0.0
  0
LINE
  5
18D09
330
18C7A
100
AcDbEntity
  8
細線
 48
50.0
100
AcDbLine
 10
2458.070304175992
 20
1354.494278397076
 30
0.0
 11
2389.470863838818
 21
1354.494283787084
 31
0.0
  0
LINE
  5
18D0A
330
18C7A
100
AcDbEntity
  8
細線
 48
50.0
100
AcDbLine
 10
2096.970556362348
 20
1354.493912699161
 30
0.0
 11
2108.203245717057
 21
1354.494095652309
 31
0.0
  0
ARC
  5
18D0B
330
18C7A
100
AcDbEntity
  8
細線
 48
50.0
100
AcDbCircle
 10
2114.785538024393
 20
1353.294259565922
 30
0.0
 40
1.8
100
AcDbArc
 50
270.0006665777295
 51
345.000555481349
  0
LINE
  5
18D0C
330
18C7A
100
AcDbEntity
  8
細線
 48
50.0
100
AcDbLine
 10
2116.771971470473
 20
1353.753100023201
 30
0.0
 11
2116.524209028273
 21
1352.828402141094
 31
0.0
  0
LINE
  5
18D0D
330
18C7A
100
AcDbEntity
  8
細線
 48
50.0
100
AcDbLine
 10
2114.785558965548
 20
1351.494259566043
 30
0.0
 11
2111.155631546781
 21
1351.494217335563
 31
0.0
  0
ARC
  5
18D0E
330
18C7A
100
AcDbEntity
  8
細線
 48
50.0
100
AcDbCircle
 10
2111.155610605627
 20
1353.29421733544
 30
0.0
 40
1.8
100
AcDbArc
 50
195.0010443049965
 51
270.0006665777295
  0
LINE
  5
18D0F
330
18C7A
100
AcDbEntity
  8
細線
 48
50.0
100
AcDbLine
 10
2109.169183113368
 20
1353.752932303007
 30
0.0
 11
2109.416952609882
 21
1352.828311364425
 31
0.0
  0
ARC
  5
18D10
330
18C7A
100
AcDbEntity
  8
細線
 48
50.0
100
AcDbCircle
 10
2108.203262004622
 20
1353.494095652444
 30
0.0
 40
1.0
100
AcDbArc
 50
15.00104430499651
 51
90.00093320877969
  0
LINE
  5
18D11
330
18C7A
100
AcDbEntity
  8
細線
 48
50.0
100
AcDbLine
 10
2117.737892825577
 20
1354.494290342714
 30
0.0
 11
2118.679652976481
 21
1354.494296916564
 31
0.0
  0
ARC
  5
18D12
330
18C7A
100
AcDbEntity
  8
細線
 48
50.0
100
AcDbCircle
 10
2117.737899805961
 20
1353.49429034274
 30
0.0
 40
1.0
100
AcDbArc
 50
90.0003999466794
 51
165.000555481349
  0
LINE
  5
18D13
330
18C7A
100
AcDbEntity
  8
細線
 48
50.0
100
AcDbLine
 10
2669.470584622926
 20
1354.494281037055
 30
0.0
 11
2771.970584125617
 21
1354.494281037055
 31
0.0
  0
LINE
  5
18D14
330
18C7A
100
AcDbEntity
  8
細線
 48
50.0
100
AcDbLine
 10
2179.47061994182
 20
1354.494289224422
 30
0.0
 11
2118.370558714898
 21
1354.494296916564
 31
0.0
  0
LINE
  5
18D15
330
18C7A
100
AcDbEntity
  8
細線
 48
50.0
100
AcDbLine
 10
2599.470584622926
 20
1354.494281037057
 30
0.0
 11
2529.470584622926
 21
1354.494281037055
 31
0.0
  0
LINE
  5
18D16
330
18C7A
100
AcDbEntity
  8
細線
 48
50.0
100
AcDbLine
 10
2319.470584622926
 20
1354.494281037054
 30
0.0
 11
2249.470567335051
 21
1354.494281037057
 31
0.0
  0
ARC
  5
18D17
330
18C7A
100
AcDbEntity
  8
細線
 48
50.0
100
AcDbCircle
 10
2756.170589276533
 20
1387.694269174466
 30
0.0
 40
0.8
100
AcDbArc
 50
359.9997333689499
 51
89.99986668437072
  0
ARC
  5
18D18
330
18C7A
100
AcDbEntity
  8
細線
 48
50.0
100
AcDbCircle
 10
2763.770596101631
 20
1387.694280343081
 30
0.0
 40
0.8
100
AcDbArc
 50
90.00014387753465
 51
179.9997333689498
  0
LINE
  5
18D19
330
18C7A
100
AcDbEntity
  8
細線
 48
50.0
100
AcDbLine
 10
2756.170591137969
 20
1388.494269174465
 30
0.0
 11
2750.970589276525
 21
1388.494269174465
 31
0.0
  0
ARC
  5
18D1A
330
18C7A
100
AcDbEntity
  8
細線
 48
50.0
100
AcDbCircle
 10
2757.670589276524
 20
1386.194269174464
 30
0.0
 40
0.7
100
AcDbArc
 50
180.0
 51
270.0
  0
ARC
  5
18D1B
330
18C7A
100
AcDbEntity
  8
細線
 48
50.0
100
AcDbCircle
 10
2762.270589276524
 20
1386.194269174464
 30
0.0
 40
0.7
100
AcDbArc
 50
270.0
 51
0.0
  0
LINE
  5
18D1C
330
18C7A
100
AcDbEntity
  8
細線
 48
50.0
100
AcDbLine
 10
2762.970589276525
 20
1386.194269174464
 30
0.0
 11
2762.970596101639
 21
1387.694284065954
 31
0.0
  0
LINE
  5
18D1D
330
18C7A
100
AcDbEntity
  8
細線
 48
50.0
100
AcDbLine
 10
2757.670589276524
 20
1385.494269174465
 30
0.0
 11
2762.270589276524
 21
1385.494269174465
 31
0.0
  0
LINE
  5
18D1E
330
18C7A
100
AcDbEntity
  8
細線
 48
50.0
100
AcDbLine
 10
2756.970589276525
 20
1387.694269174466
 30
0.0
 11
2756.970589276525
 21
1386.194269174464
 31
0.0
  0
LINE
  5
18D1F
330
18C7A
100
AcDbEntity
  8
細線
 48
50.0
100
AcDbLine
 10
3382.570589276527
 20
1418.494269174465
 30
0.0
 11
2745.970589276525
 21
1418.494269174463
 31
0.0
  0
LINE
  5
18D20
330
18C7A
100
AcDbEntity
  8
細線
 48
50.0
100
AcDbLine
 10
3408.470589276525
 20
1413.494269174467
 30
0.0
 11
3392.570589276527
 21
1413.494269174465
 31
0.0
  0
LINE
  5
18D21
330
18C7A
100
AcDbEntity
  8
細線
 48
50.0
100
AcDbLine
 10
3392.570589276526
 20
1413.494269174465
 30
0.0
 11
3382.570589276527
 21
1418.494269174465
 31
0.0
  0
LINE
  5
18D22
330
18C7A
100
AcDbEntity
  8
細線
100
AcDbLine
 10
2993.470589276525
 20
1388.494269174465
 30
0.0
 11
2993.470589276525
 21
1417.794269174464
 31
0.0
  0
LINE
  5
18D23
330
18C7A
100
AcDbEntity
  8
細線
100
AcDbLine
 10
2993.470589276525
 20
1417.794269174464
 30
0.0
 11
3013.470589276525
 21
1417.794269174464
 31
0.0
  0
LINE
  5
18D24
330
18C7A
100
AcDbEntity
  8
細線
100
AcDbLine
 10
3013.470589276525
 20
1388.494269174465
 30
0.0
 11
3013.470589276525
 21
1417.794269174464
 31
0.0
  0
LINE
  5
18D25
330
18C7A
100
AcDbEntity
  8
細線
100
AcDbLine
 10
3170.720589276524
 20
1388.494269174465
 30
0.0
 11
3100.720589276523
 21
1388.494269174465
 31
0.0
  0
LINE
  5
18D26
330
18C7A
100
AcDbEntity
  8
細線
 48
50.0
100
AcDbLine
 10
2890.720589276525
 20
1388.494269174465
 30
0.0
 11
2763.766368849365
 21
1388.494269174465
 31
0.0
  0
LINE
  5
18D27
330
18C7A
100
AcDbEntity
  8
細線
100
AcDbLine
 10
3030.720589276525
 20
1388.494269174465
 30
0.0
 11
2960.720589276525
 21
1388.494269174465
 31
0.0
  0
LINE
  5
18D28
330
18C7A
100
AcDbEntity
  8
細線
 48
50.0
100
AcDbLine
 10
2750.970589276525
 20
1380.494269174465
 30
0.0
 11
2750.970589276525
 21
1388.494269174465
 31
0.0
  0
LINE
  5
18D29
330
18C7A
100
AcDbEntity
  8
細線
 48
50.0
100
AcDbLine
 10
2730.970589276524
 20
1380.494269174467
 30
0.0
 11
2750.970589276525
 21
1380.494269174465
 31
0.0
  0
LINE
  5
18D2A
330
18C7A
100
AcDbEntity
  8
細線
 48
50.0
100
AcDbLine
 10
2745.970589276525
 20
1418.494269174465
 30
0.0
 11
2745.970589276525
 21
1413.494269174465
 31
0.0
  0
LINE
  5
18D2B
330
18C7A
100
AcDbEntity
  8
細線
 48
50.0
100
AcDbLine
 10
2730.970589276525
 20
1418.494269174463
 30
0.0
 11
2745.970589276525
 21
1418.494269174465
 31
0.0
  0
LINE
  5
18D2C
330
18C7A
100
AcDbEntity
  8
細線
 48
50.0
100
AcDbLine
 10
2730.970589276524
 20
1380.494269174467
 30
0.0
 11
2730.970589276525
 21
1418.494269174463
 31
0.0
  0
LINE
  5
18D2D
330
18C7A
100
AcDbEntity
  8
細線
100
AcDbLine
 10
3398.970589276523
 20
1388.494269174465
 30
0.0
 11
3240.720589276525
 21
1388.494269174465
 31
0.0
  0
LINE
  5
18D2E
330
18C7A
100
AcDbEntity
  8
細線
 48
50.0
100
AcDbLine
 10
3408.470589276525
 20
1413.494269174467
 30
0.0
 11
3408.470589276524
 21
1388.494269174465
 31
0.0
  0
TEXT
  5
18D2F
330
18C7A
100
AcDbEntity
  8
部品1
100
AcDbText
 10
1860.154865991392
 20
46.99880823813145
 30
0.0
 40
135.0
  1
平面図
  7
STYLE2
100
AcDbText
  0
LWPOLYLINE
  5
18D30
330
18C7A
100
AcDbEntity
  8
部品1
100
AcDbPolyline
 90
        4
 70
     1
 43
0.0
 10
1770.23525616235
 20
239.8923374566548
 10
1770.23525616235
 20
0.0000159111223184
 10
2533.705922390791
 20
0.0000159111223184
 10
2533.705922390791
 20
239.8923374566548
  0
LINE
  5
18D31
330
18C7A
100
AcDbEntity
  8
部品1
100
AcDbLine
 10
1534.470589276487
 20
3154.494269174626
 30
0.0
 11
2769.470589276552
 21
3154.494269174626
 31
0.0
  0
LINE
  5
18D32
330
18C7A
100
AcDbEntity
  8
部品1
 48
50.0
100
AcDbLine
 10
1311.970589276523
 20
1420.494269174462
 30
0.0
 11
3411.970589276523
 21
1420.494269174465
 31
0.0
  0
LINE
  5
18D33
330
18C7A
100
AcDbEntity
  8
部品1
 48
50.0
100
AcDbLine
 10
471.9705892765232
 20
1392.494269174465
 30
0.0
 11
1311.970589276523
 21
1392.494269174465
 31
0.0
  0
DIMENSION
  5
18D34
330
18C7A
100
AcDbEntity
  8
寸法
100
AcDbDimension
  2
*D14
 10
2710.234916278077
 20
2488.887829538828
 30
0.0
 11
2338.318822490183
 21
2488.887829538828
 31
0.0
 12
-3742.925985830444
 22
-6453.628869860112
 32
0.0
 70
   128
 71
     5
 42
1231.00000000007
  3
INABA_S40G
100
AcDbAlignedDimension
 13
1536.470589276486
 23
2702.494269174557
 33
0.0
 14
2767.470589276556
 24
2702.494269174549
 34
0.0
100
AcDbRotatedDimension
1001
ACAD
1000
DSTYLE
1002
{
1002
}
  0
LINE
  5
18D35
330
18C7A
100
AcDbEntity
  8
部品1
100
AcDbLine
 10
1536.470589276487
 20
2702.494269174557
 30
0.0
 11
2767.470589276554
 21
2702.494269174615
 31
0.0
  0
LINE
  5
18D36
330
18C7A
100
AcDbEntity
  8
部品1
100
AcDbLine
 10
1536.470589276487
 20
3152.494269174557
 30
0.0
 11
2767.470589276556
 21
3152.494269174615
 31
0.0
  0
LINE
  5
18D37
330
18C7A
100
AcDbEntity
  8
細線
 48
50.0
100
AcDbLine
 10
1508.470589276487
 20
3152.494269174558
 30
0.0
 11
445.4705892765559
 21
2702.494269174509
 31
0.0
  0
LINE
  5
18D38
330
18C7A
100
AcDbEntity
  8
細線
 48
50.0
100
AcDbLine
 10
1508.470589276487
 20
2702.494269174558
 30
0.0
 11
445.4705892765542
 21
3152.494269174509
 31
0.0
  0
LINE
  5
18D39
330
18C7A
100
AcDbEntity
  8
部品1
100
AcDbLine
 10
1556.970589276487
 20
3172.494269174611
 30
0.0
 11
1556.970589276487
 21
3154.494269174611
 31
0.0
  0
LINE
  5
18D3A
330
18C7A
100
AcDbEntity
  8
部品1
100
AcDbLine
 10
1556.970589276487
 20
3172.494269174611
 30
0.0
 11
1550.970589276487
 21
3172.494269174611
 31
0.0
  0
LINE
  5
18D3B
330
18C7A
100
AcDbEntity
  8
部品1
100
AcDbLine
 10
1534.470589276487
 20
3146.494269174608
 30
0.0
 11
1509.470589276487
 21
3146.494269174611
 31
0.0
  0
LINE
  5
18D3C
330
18C7A
100
AcDbEntity
  8
部品1
100
AcDbLine
 10
1486.970589276487
 20
3172.494269174611
 30
0.0
 11
1486.970589276487
 21
3154.494269174611
 31
0.0
  0
LINE
  5
18D3D
330
18C7A
100
AcDbEntity
  8
部品1
100
AcDbLine
 10
1492.970589276487
 20
3172.494269174611
 30
0.0
 11
1486.970589276487
 21
3172.494269174611
 31
0.0
  0
LINE
  5
18D3E
330
18C7A
100
AcDbEntity
  8
部品1
100
AcDbLine
 10
1534.470589276487
 20
2702.494269174615
 30
0.0
 11
1509.470589276487
 21
2702.494269174615
 31
0.0
  0
LINE
  5
18D3F
330
18C7A
100
AcDbEntity
  8
部品1
 48
50.0
100
AcDbLine
 10
1536.470589276487
 20
3152.494269174611
 30
0.0
 11
1536.470589276487
 21
2702.494269174615
 31
0.0
  0
LINE
  5
18D40
330
18C7A
100
AcDbEntity
  8
部品1
 48
50.0
100
AcDbLine
 10
1508.470589276487
 20
3152.494269174607
 30
0.0
 11
1508.470589276487
 21
2702.494269174615
 31
0.0
  0
LINE
  5
18D41
330
18C7A
100
AcDbEntity
  8
部品1
 48
50.0
100
AcDbLine
 10
1534.470589276487
 20
3154.494269174618
 30
0.0
 11
1534.470589276487
 21
2702.494269174615
 31
0.0
  0
LINE
  5
18D42
330
18C7A
100
AcDbEntity
  8
部品1
 48
50.0
100
AcDbLine
 10
1509.470589276487
 20
3154.494269174615
 30
0.0
 11
1509.470589276487
 21
2702.494269174615
 31
0.0
  0
LINE
  5
18D43
330
18C7A
100
AcDbEntity
  8
部品1
100
AcDbLine
 10
3411.970589276556
 20
1392.494269174582
 30
0.0
 11
3411.970589276556
 21
1420.494269174596
 31
0.0
  0
LINE
  5
18D44
330
18C7A
100
AcDbEntity
  8
部品1
100
AcDbLine
 10
1311.970589276523
 20
1392.494269174596
 30
0.0
 11
1311.970589276523
 21
1420.494269174596
 31
0.0
  0
LINE
  5
18D45
330
18C7A
100
AcDbEntity
  8
部品1
100
AcDbLine
 10
891.9705892765232
 20
1392.494269174596
 30
0.0
 11
891.9705892765232
 21
1420.494269174596
 31
0.0
  0
LINE
  5
18D46
330
18C7A
100
AcDbEntity
  8
部品1
100
AcDbLine
 10
3411.97058927652
 20
3182.494269174477
 30
0.0
 11
3411.970589276523
 21
3154.494269174477
 31
0.0
  0
LINE
  5
18D47
330
18C7A
100
AcDbEntity
  8
部品1
100
AcDbLine
 10
2571.97058927652
 20
3182.494269174477
 30
0.0
 11
2571.970589276523
 21
3154.494269174477
 31
0.0
  0
LINE
  5
18D48
330
18C7A
100
AcDbEntity
  8
部品1
100
AcDbLine
 10
2991.97058927652
 20
3182.494269174477
 30
0.0
 11
2991.970589276523
 21
3154.494269174477
 31
0.0
  0
LINE
  5
18D49
330
18C7A
100
AcDbEntity
  8
部品1
100
AcDbLine
 10
2151.970589276519
 20
3182.494269174477
 30
0.0
 11
2151.970589276523
 21
3154.494269174477
 31
0.0
  0
LINE
  5
18D4A
330
18C7A
100
AcDbEntity
  8
部品1
100
AcDbLine
 10
1731.970589276519
 20
3182.494269174477
 30
0.0
 11
1731.970589276523
 21
3154.494269174477
 31
0.0
  0
LINE
  5
18D4B
330
18C7A
100
AcDbEntity
  8
部品1
100
AcDbLine
 10
1311.970589276519
 20
3182.494269174477
 30
0.0
 11
1311.970589276523
 21
3154.494269174477
 31
0.0
  0
LINE
  5
18D4C
330
18C7A
100
AcDbEntity
  8
部品1
100
AcDbLine
 10
891.9705892765195
 20
3182.494269174477
 30
0.0
 11
891.9705892765232
 21
3154.494269174477
 31
0.0
  0
LINE
  5
18D4D
330
18C7A
100
AcDbEntity
  8
部品1
100
AcDbLine
 10
471.9705892765232
 20
1392.494269174596
 30
0.0
 11
471.9705892765232
 21
1420.494269174596
 31
0.0
  0
LINE
  5
18D4E
330
18C7A
100
AcDbEntity
  8
部品1
100
AcDbLine
 10
444.9705892765305
 20
1420.494269174558
 30
0.0
 11
3858.970589276556
 21
1420.494269174596
 31
0.0
  0
LINE
  5
18D4F
330
18C7A
100
AcDbEntity
  8
部品1
100
AcDbLine
 10
3831.970589276556
 20
1392.494269174596
 30
0.0
 11
3831.970589276556
 21
1420.494269174596
 31
0.0
  0
LINE
  5
18D50
330
18C7A
100
AcDbEntity
  8
部品1
100
AcDbLine
 10
3858.970589276556
 20
1447.494269174593
 30
0.0
 11
3886.970589276556
 21
1447.494269174593
 31
0.0
  0
LINE
  5
18D51
330
18C7A
100
AcDbEntity
  8
部品1
100
AcDbLine
 10
3858.970589276556
 20
1867.494269174607
 30
0.0
 11
3886.970589276556
 21
1867.494269174607
 31
0.0
  0
LINE
  5
18D52
330
18C7A
100
AcDbEntity
  8
部品1
100
AcDbLine
 10
444.9705892765305
 20
1867.49426917448
 30
0.0
 11
416.9705892765305
 21
1867.49426917448
 31
0.0
  0
LINE
  5
18D53
330
18C7A
100
AcDbEntity
  8
部品1
100
AcDbLine
 10
3830.470589276541
 20
1867.49426917458
 30
0.0
 11
473.4705892765396
 21
1867.49426917448
 31
0.0
  0
LINE
  5
18D54
330
18C7A
100
AcDbEntity
  8
部品1
100
AcDbLine
 10
3830.470589276541
 20
2287.49426917458
 30
0.0
 11
473.4705892765396
 21
2287.49426917448
 31
0.0
  0
LINE
  5
18D55
330
18C7A
100
AcDbEntity
  8
部品1
100
AcDbLine
 10
444.9705892765305
 20
2287.49426917448
 30
0.0
 11
416.9705892765305
 21
2287.49426917448
 31
0.0
  0
LINE
  5
18D56
330
18C7A
100
AcDbEntity
  8
部品1
100
AcDbLine
 10
3858.970589276556
 20
2287.494269174608
 30
0.0
 11
3886.970589276556
 21
2287.494269174608
 31
0.0
  0
LINE
  5
18D57
330
18C7A
100
AcDbEntity
  8
部品1
 48
50.0
100
AcDbLine
 10
2151.970589276551
 20
2702.494269174586
 30
0.0
 11
2151.970589276581
 21
1448.994269174494
 31
0.0
  0
LINE
  5
18D58
330
18C7A
100
AcDbEntity
  8
破線
 48
10.0
100
AcDbLine
 10
2959.470589276535
 20
1472.494269174522
 30
0.0
 11
2176.970589276532
 21
1472.494269174505
 31
0.0
  0
LINE
  5
18D59
330
18C7A
100
AcDbEntity
  8
破線
 48
10.0
100
AcDbLine
 10
3009.47058927653
 20
1448.994269174509
 30
0.0
 11
3009.47058927653
 21
2702.494269174615
 31
0.0
  0
LINE
  5
18D5A
330
18C7A
100
AcDbEntity
  8
破線
 48
10.0
100
AcDbLine
 10
2959.470589276535
 20
1448.994269174505
 30
0.0
 11
2959.470589276531
 21
2702.494269174615
 31
0.0
  0
LINE
  5
18D5B
330
18C7A
100
AcDbEntity
  8
破線
 48
10.0
100
AcDbLine
 10
1344.47058927653
 20
1448.994269174509
 30
0.0
 11
1344.47058927653
 21
2702.494269174615
 31
0.0
  0
LINE
  5
18D5C
330
18C7A
100
AcDbEntity
  8
破線
 48
10.0
100
AcDbLine
 10
1294.470589276534
 20
1448.994269174505
 30
0.0
 11
1294.47058927653
 21
2702.494269174615
 31
0.0
  0
DIMENSION
  5
18D5D
330
18C7A
100
AcDbEntity
  8
寸法
100
AcDbDimension
  2
*D13
 10
1451.234916278005
 20
2488.887829538828
 30
0.0
 11
916.0604668248634
 21
2488.887829538828
 31
0.0
 12
-3742.925985830444
 22
-6453.628869860112
 32
0.0
 70
   128
 71
     5
 42
1062.99999999993
  3
INABA_S40G
100
AcDbAlignedDimension
 13
445.4705892765559
 23
2702.494269174505
 33
0.0
 14
1508.470589276486
 24
2702.494269174558
 34
0.0
100
AcDbRotatedDimension
1001
ACAD
1000
DSTYLE
1002
{
1002
}
  0
LINE
  5
18D5E
330
18C7A
100
AcDbEntity
  8
破線
 48
10.0
100
AcDbLine
 10
1294.470589276534
 20
1472.494269174469
 30
0.0
 11
496.9705892765414
 21
1472.494269174476
 31
0.0
  0
LINE
  5
18D5F
330
18C7A
100
AcDbEntity
  8
部品1
100
AcDbLine
 10
3831.970589276556
 20
3182.494269174604
 30
0.0
 11
3831.970589276556
 21
3154.494269174604
 31
0.0
  0
LINE
  5
18D60
330
18C7A
100
AcDbEntity
  8
部品1
100
AcDbLine
 10
3831.970589276556
 20
3182.494269174626
 30
0.0
 11
3831.970589276556
 21
3154.494269174626
 31
0.0
  0
LINE
  5
18D61
330
18C7A
100
AcDbEntity
  8
部品1
100
AcDbLine
 10
3858.970589276556
 20
3127.494269174607
 30
0.0
 11
3886.970589276556
 21
3127.494269174607
 31
0.0
  0
LINE
  5
18D62
330
18C7A
100
AcDbEntity
  8
部品1
100
AcDbLine
 10
3858.970589276556
 20
2707.494269174608
 30
0.0
 11
3886.970589276556
 21
2707.494269174608
 31
0.0
  0
LINE
  5
18D63
330
18C7A
100
AcDbEntity
  8
部品1
100
AcDbLine
 10
3858.470589276556
 20
3152.494269174604
 30
0.0
 11
3858.470589276556
 21
2702.494269174608
 31
0.0
  0
LINE
  5
18D64
330
18C7A
100
AcDbEntity
  8
部品1
100
AcDbLine
 10
3886.970589276533
 20
1447.494269174593
 30
0.0
 11
3886.970589276531
 21
1392.494269174596
 31
0.0
  0
LINE
  5
18D65
330
18C7A
100
AcDbEntity
  8
部品1
 48
50.0
100
AcDbLine
 10
3830.470589276556
 20
1448.994269174596
 30
0.0
 11
3858.970589276554
 21
1420.494269174596
 31
0.0
  0
LINE
  5
18D66
330
18C7A
100
AcDbEntity
  8
部品1
100
AcDbLine
 10
3886.970589276531
 20
1392.494269174596
 30
0.0
 11
3835.970589276531
 21
1392.494269174596
 31
0.0
  0
LINE
  5
18D67
330
18C7A
100
AcDbEntity
  8
部品1
100
AcDbLine
 10
3858.970589276533
 20
1447.494269174593
 30
0.0
 11
3886.970589276531
 21
1447.494269174593
 31
0.0
  0
LINE
  5
18D68
330
18C7A
100
AcDbEntity
  8
部品1
100
AcDbLine
 10
3886.970589276556
 20
3182.494269174604
 30
0.0
 11
3886.970589276531
 21
1392.494269174596
 31
0.0
  0
DIMENSION
  5
18D69
330
18C7A
100
AcDbEntity
  8
寸法
100
AcDbDimension
  2
*D12
 10
4534.396935010967
 20
1447.494269174593
 30
0.0
 11
4534.396935010965
 21
2287.4942691746
 31
0.0
 12
-3742.925985830444
 22
-6453.628869860112
 32
0.0
 70
   128
  1
4X420=<>
 71
     5
 42
1680.000000000014
  3
INABA_S40G
100
AcDbAlignedDimension
 13
3886.970589276556
 23
3127.494269174607
 33
0.0
 14
3886.970589276531
 24
1447.494269174593
 34
0.0
 50
90.0
100
AcDbRotatedDimension
1001
ACAD
1000
DSTYLE
1002
{
1002
}
  0
LINE
  5
18D6A
330
18C7A
100
AcDbEntity
  8
部品1
100
AcDbLine
 10
3858.970589276556
 20
3154.494269174604
 30
0.0
 11
3858.970589276534
 21
1420.494269174596
 31
0.0
  0
DIMENSION
  5
18D6B
330
18C7A
100
AcDbEntity
  8
寸法
100
AcDbDimension
  2
*D11
 10
4213.82831513858
 20
2607.276453505718
 30
0.0
 11
4113.828315138579
 21
2832.276453505718
 31
0.0
 12
-3742.925985830444
 22
-6453.628869860112
 32
0.0
 71
     5
 42
449.9999999999963
  3
INABA_S40G
100
AcDbAlignedDimension
 13
3858.470589276556
 23
3152.494269174604
 33
0.0
 14
3858.470589276556
 24
2702.494269174608
 34
0.0
 50
90.0
100
AcDbRotatedDimension
1001
ACAD
1000
DSTYLE
1002
{
1002
}
  0
LINE
  5
18D6C
330
18C7A
100
AcDbEntity
  8
部品1
100
AcDbLine
 10
3830.470589276547
 20
2702.494269174608
 30
0.0
 11
3830.470589276556
 21
1448.994269174596
 31
0.0
  0
LINE
  5
18D6D
330
18C7A
100
AcDbEntity
  8
破線
 48
10.0
100
AcDbLine
 10
3806.970589276549
 20
2702.494269174608
 30
0.0
 11
3806.970589276558
 21
1472.494269174593
 31
0.0
  0
LINE
  5
18D6E
330
18C7A
100
AcDbEntity
  8
部品1
100
AcDbLine
 10
2769.470589276556
 20
3146.494269174608
 30
0.0
 11
2794.470589276556
 21
3146.494269174611
 31
0.0
  0
LINE
  5
18D6F
330
18C7A
100
AcDbEntity
  8
部品1
100
AcDbLine
 10
2810.970589276556
 20
3172.494269174611
 30
0.0
 11
2816.970589276556
 21
3172.494269174611
 31
0.0
  0
LINE
  5
18D70
330
18C7A
100
AcDbEntity
  8
部品1
100
AcDbLine
 10
2816.970589276556
 20
3172.494269174611
 30
0.0
 11
2816.970589276556
 21
3154.494269174611
 31
0.0
  0
LINE
  5
18D71
330
18C7A
100
AcDbEntity
  8
部品1
100
AcDbLine
 10
2746.970589276556
 20
3172.494269174611
 30
0.0
 11
2752.970589276556
 21
3172.494269174611
 31
0.0
  0
LINE
  5
18D72
330
18C7A
100
AcDbEntity
  8
部品1
100
AcDbLine
 10
2746.970589276556
 20
3172.494269174611
 30
0.0
 11
2746.970589276556
 21
3154.494269174611
 31
0.0
  0
LINE
  5
18D73
330
18C7A
100
AcDbEntity
  8
部品1
100
AcDbLine
 10
2769.470589276556
 20
2702.494269174615
 30
0.0
 11
2794.470589276556
 21
2702.494269174615
 31
0.0
  0
LINE
  5
18D74
330
18C7A
100
AcDbEntity
  8
部品1
 48
50.0
100
AcDbLine
 10
2794.470589276556
 20
3154.494269174615
 30
0.0
 11
2794.470589276556
 21
2702.494269174615
 31
0.0
  0
LINE
  5
18D75
330
18C7A
100
AcDbEntity
  8
部品1
 48
50.0
100
AcDbLine
 10
2769.470589276554
 20
3154.494269174618
 30
0.0
 11
2769.470589276556
 21
2702.494269174615
 31
0.0
  0
LINE
  5
18D76
330
18C7A
100
AcDbEntity
  8
部品1
 48
50.0
100
AcDbLine
 10
2795.470589276556
 20
3152.494269174607
 30
0.0
 11
2795.470589276556
 21
2702.494269174615
 31
0.0
  0
LINE
  5
18D77
330
18C7A
100
AcDbEntity
  8
部品1
 48
50.0
100
AcDbLine
 10
2767.470589276556
 20
3152.494269174611
 30
0.0
 11
2767.470589276556
 21
2702.494269174615
 31
0.0
  0
LINE
  5
18D78
330
18C7A
100
AcDbEntity
  8
破線
 48
10.0
100
AcDbLine
 10
2176.97058927653
 20
1448.994269174509
 30
0.0
 11
2176.97058927653
 21
2702.494269174588
 31
0.0
  0
LINE
  5
18D79
330
18C7A
100
AcDbEntity
  8
破線
 48
10.0
100
AcDbLine
 10
2126.970589276534
 20
1448.994269174505
 30
0.0
 11
2126.970589276531
 21
2702.494269174586
 31
0.0
  0
LINE
  5
18D7A
330
18C7A
100
AcDbEntity
  8
部品1
100
AcDbLine
 10
2794.470589276556
 20
3154.494269174622
 30
0.0
 11
3858.970589276556
 21
3154.494269174604
 31
0.0
  0
LINE
  5
18D7B
330
18C7A
100
AcDbEntity
  8
細線
 48
50.0
100
AcDbLine
 10
3858.470589276556
 20
2702.494269174608
 30
0.0
 11
2795.470589276556
 21
3152.494269174607
 31
0.0
  0
LINE
  5
18D7C
330
18C7A
100
AcDbEntity
  8
部品1
100
AcDbLine
 10
2795.470589276555
 20
2702.494269174615
 30
0.0
 11
3858.470589276556
 21
2702.494269174608
 31
0.0
  0
LINE
  5
18D7D
330
18C7A
100
AcDbEntity
  8
部品1
100
AcDbLine
 10
2795.470589276556
 20
3152.494269174611
 30
0.0
 11
3858.470589276556
 21
3152.494269174604
 31
0.0
  0
LINE
  5
18D7E
330
18C7A
100
AcDbEntity
  8
細線
 48
50.0
100
AcDbLine
 10
3858.470589276556
 20
3152.494269174604
 30
0.0
 11
2795.470589276555
 21
2702.494269174615
 31
0.0
  0
DIMENSION
  5
18D7F
330
18C7A
100
AcDbEntity
  8
寸法
100
AcDbDimension
  2
*D10
 10
3801.234916278101
 20
2488.887829538937
 30
0.0
 11
3318.360544398907
 21
2488.887829538937
 31
0.0
 12
-3742.925985830444
 22
-6453.628869860112
 32
0.0
 70
   128
 71
     5
 42
1063.000000000012
  3
INABA_S40G
100
AcDbAlignedDimension
 13
2795.470589276555
 23
2702.494269174615
 33
0.0
 14
3858.470589276567
 24
2702.494269174608
 34
0.0
100
AcDbRotatedDimension
1001
ACAD
1000
DSTYLE
1002
{
1002
}
  0
LINE
  5
18D80
330
18C7A
100
AcDbEntity
  8
破線
 48
10.0
100
AcDbLine
 10
3806.970589276556
 20
1472.494269174594
 30
0.0
 11
3009.47058927653
 21
1472.494269174523
 31
0.0
  0
DIMENSION
  5
18D81
330
18C7A
100
AcDbEntity
  8
寸法
100
AcDbDimension
  2
*D9
 10
4534.396935010941
 20
1392.494269174596
 30
0.0
 11
4534.39693501094
 21
1084.008987800356
 31
0.0
 12
-3742.925985830444
 22
-6453.628869860112
 32
0.0
 70
   128
 71
     5
 42
54.99999999999636
  3
INABA_S40G
100
AcDbAlignedDimension
 13
3886.970589276531
 23
1447.494269174593
 33
0.0
 14
3886.970589276531
 24
1392.494269174596
 34
0.0
 50
90.0
100
AcDbRotatedDimension
1001
ACAD
1000
DSTYLE
1002
{
1002
}
  0
LINE
  5
18D82
330
18C7A
100
AcDbEntity
  8
部品1
100
AcDbLine
 10
471.9705892765196
 20
3182.494269174477
 30
0.0
 11
471.9705892765232
 21
3154.494269174477
 31
0.0
  0
LINE
  5
18D83
330
18C7A
100
AcDbEntity
  8
部品1
100
AcDbLine
 10
471.9705892765559
 20
3182.494269174509
 30
0.0
 11
471.9705892765559
 21
3154.494269174509
 31
0.0
  0
LINE
  5
18D84
330
18C7A
100
AcDbEntity
  8
部品1
100
AcDbLine
 10
444.9705892765232
 20
3127.49426917448
 30
0.0
 11
416.9705892765232
 21
3127.49426917448
 31
0.0
  0
LINE
  5
18D85
330
18C7A
100
AcDbEntity
  8
部品1
100
AcDbLine
 10
444.9705892765305
 20
2707.49426917448
 30
0.0
 11
416.9705892765305
 21
2707.49426917448
 31
0.0
  0
LINE
  5
18D86
330
18C7A
100
AcDbEntity
  8
部品1
 48
50.0
100
AcDbLine
 10
445.4705892765542
 20
3152.494269174506
 30
0.0
 11
445.4705892765559
 21
2702.494269174505
 31
0.0
  0
LINE
  5
18D87
330
18C7A
100
AcDbEntity
  8
部品1
 48
50.0
100
AcDbLine
 10
473.470589276545
 20
1448.994269174573
 30
0.0
 11
444.970589276545
 21
1420.494269174574
 31
0.0
  0
LINE
  5
18D88
330
18C7A
100
AcDbEntity
  8
部品1
100
AcDbLine
 10
471.9705892765232
 20
1392.494269174465
 30
0.0
 11
416.9705892765486
 21
1392.494269174465
 31
0.0
  0
LINE
  5
18D89
330
18C7A
100
AcDbEntity
  8
部品1
100
AcDbLine
 10
444.9705892765305
 20
1447.494269174429
 30
0.0
 11
416.9705892765469
 21
1447.494269174429
 31
0.0
  0
LINE
  5
18D8A
330
18C7A
100
AcDbEntity
  8
部品1
100
AcDbLine
 10
444.9705892765305
 20
1447.494269174465
 30
0.0
 11
416.9705892765469
 21
1447.494269174465
 31
0.0
  0
LINE
  5
18D8B
330
18C7A
100
AcDbEntity
  8
部品1
100
AcDbLine
 10
444.9705892765469
 20
1447.49426917448
 30
0.0
 11
416.9705892765469
 21
1447.49426917448
 31
0.0
  0
LINE
  5
18D8C
330
18C7A
100
AcDbEntity
  8
部品1
100
AcDbLine
 10
416.9705892765469
 20
1447.494269174429
 30
0.0
 11
416.9705892765486
 21
1392.494269174433
 31
0.0
  0
LINE
  5
18D8D
330
18C7A
100
AcDbEntity
  8
部品1
100
AcDbLine
 10
416.9705892765196
 20
3182.494269174477
 30
0.0
 11
416.9705892765486
 21
1392.494269174465
 31
0.0
  0
LINE
  5
18D8E
330
18C7A
100
AcDbEntity
  8
部品1
100
AcDbLine
 10
444.9705892765305
 20
1420.494269174556
 30
0.0
 11
444.9705892765559
 21
3154.494269174509
 31
0.0
  0
LINE
  5
18D8F
330
18C7A
100
AcDbEntity
  8
部品1
100
AcDbLine
 10
473.4705892765323
 20
2702.494269174608
 30
0.0
 11
473.470589276545
 21
1448.994269174571
 31
0.0
  0
LINE
  5
18D90
330
18C7A
100
AcDbEntity
  8
破線
 48
10.0
100
AcDbLine
 10
496.9705892765305
 20
2702.494269174608
 30
0.0
 11
496.9705892765451
 21
1472.494269174476
 31
0.0
  0
DIMENSION
  5
18D91
330
18C7A
100
AcDbEntity
  8
寸法
100
AcDbDimension
  2
*D8
 10
3886.970589276531
 20
410.7433333855515
 30
0.0
 11
2168.197775309287
 21
410.7433333855515
 31
0.0
 12
-3742.925985830444
 22
-6453.628869860112
 32
0.0
 70
   128
 71
     5
 42
3469.999999999982
  3
INABA_S40G
100
AcDbAlignedDimension
 13
416.9705892765486
 23
1392.494269174433
 33
0.0
 14
3886.970589276531
 24
1392.49426917456
 34
0.0
100
AcDbRotatedDimension
1001
ACAD
1000
DSTYLE
1002
{
1070
   341
1005
0
1002
}
  0
LINE
  5
18D92
330
18C7A
100
AcDbEntity
  8
部品1
100
AcDbLine
 10
444.9705892765559
 20
3154.494269174624
 30
0.0
 11
1509.470589276487
 21
3154.494269174626
 31
0.0
  0
LINE
  5
18D93
330
18C7A
100
AcDbEntity
  8
部品1
100
AcDbLine
 10
3886.970589276531
 20
1392.494269174596
 30
0.0
 11
3411.970589276556
 21
1392.494269174582
 31
0.0
  0
LINE
  5
18D94
330
18C7A
100
AcDbEntity
  8
部品1
100
AcDbLine
 10
416.9705892765559
 20
3182.494269174509
 30
0.0
 11
3886.970589276556
 21
3182.494269174604
 31
0.0
  0
LINE
  5
18D95
330
18C7A
100
AcDbEntity
  8
部品1
100
AcDbLine
 10
445.4705892765559
 20
2702.494269174509
 30
0.0
 11
1508.470589276487
 21
2702.494269174558
 31
0.0
  0
LINE
  5
18D96
330
18C7A
100
AcDbEntity
  8
細線
 48
50.0
100
AcDbLine
 10
2767.470589276556
 20
3152.494269174611
 30
0.0
 11
1536.470589276487
 21
2702.494269174558
 31
0.0
  0
LINE
  5
18D97
330
18C7A
100
AcDbEntity
  8
部品1
100
AcDbLine
 10
445.4705892765542
 20
3152.494269174509
 30
0.0
 11
1508.470589276485
 21
3152.494269174558
 31
0.0
  0
LINE
  5
18D98
330
18C7A
100
AcDbEntity
  8
細線
 48
50.0
100
AcDbLine
 10
2767.470589276554
 20
2702.494269174615
 30
0.0
 11
1536.470589276485
 21
3152.494269174558
 31
0.0
  0
LINE
  5
18D99
330
18C7A
100
AcDbEntity
  8
破線
 48
10.0
100
AcDbLine
 10
2126.970589276534
 20
1472.494269174502
 30
0.0
 11
1344.47058927653
 21
1472.494269174473
 31
0.0
  0
LINE
  5
18D9A
330
18C7A
100
AcDbEntity
  8
部品1
100
AcDbLine
 10
3830.470589276556
 20
1448.994269174596
 30
0.0
 11
473.4705892764487
 21
1448.994269174476
 31
0.0
  0
DIMENSION
  5
18D9B
330
18C7A
100
AcDbEntity
  8
寸法
100
AcDbDimension
  2
*D7
 10
471.970589276555
 20
3698.302488799491
 30
0.0
 11
108.4853079022819
 21
3698.302488799491
 31
0.0
 12
-3742.925985830444
 22
-6453.628869860112
 32
0.0
 70
   128
 71
     5
 42
55.00000000003456
  3
INABA_S40G
100
AcDbAlignedDimension
 13
416.9705892765205
 23
3182.494269174509
 33
0.0
 14
471.970589276555
 24
3182.494269174509
 34
0.0
100
AcDbRotatedDimension
1001
ACAD
1000
DSTYLE
1002
{
1002
}
  0
DIMENSION
  5
18D9C
330
18C7A
100
AcDbEntity
  8
寸法
100
AcDbDimension
  2
*D6
 10
4534.396935010967
 20
3127.494269174607
 30
0.0
 11
4534.396935010965
 21
3490.979550548844
 31
0.0
 12
-3742.925985830444
 22
-6453.628869860112
 32
0.0
 70
   128
 71
     5
 42
54.99999999999636
  3
INABA_S40G
100
AcDbAlignedDimension
 13
3886.970589276556
 23
3182.494269174604
 33
0.0
 14
3886.970589276556
 24
3127.494269174607
 34
0.0
 50
90.0
100
AcDbRotatedDimension
1001
ACAD
1000
DSTYLE
1002
{
1002
}
  0
DIMENSION
  5
18D9D
330
18C7A
100
AcDbEntity
  8
寸法
100
AcDbDimension
  2
*D5
 10
3886.970589276556
 20
3698.302488799589
 30
0.0
 11
4195.455870650794
 21
3698.302488799589
 31
0.0
 12
-3742.925985830444
 22
-6453.628869860112
 32
0.0
 70
   128
 71
     5
 42
55.0
  3
INABA_S40G
100
AcDbAlignedDimension
 13
3831.970589276556
 23
3182.494269174604
 33
0.0
 14
3886.970589276556
 24
3182.494269174604
 34
0.0
100
AcDbRotatedDimension
1001
ACAD
1000
DSTYLE
1002
{
1002
}
  0
DIMENSION
  5
18D9E
330
18C7A
100
AcDbEntity
  8
寸法
100
AcDbDimension
  2
*D4
 10
3831.970589276556
 20
3698.302488799607
 30
0.0
 11
2151.970589276555
 21
3698.302488799607
 31
0.0
 12
-3742.925985830444
 22
-6453.628869860112
 32
0.0
 70
   128
  1
8X420=<>
 71
     5
 42
3360.000000000001
  3
INABA_S40G
100
AcDbAlignedDimension
 13
471.970589276555
 23
3182.494269174509
 33
0.0
 14
3831.970589276556
 24
3182.494269174604
 34
0.0
100
AcDbRotatedDimension
1001
ACAD
1000
DSTYLE
1002
{
1002
}
  0
DIMENSION
  5
18D9F
330
18C7A
100
AcDbEntity
  8
寸法
100
AcDbDimension
  2
*D3
 10
4899.503876750603
 20
1392.494269174596
 30
0.0
 11
4899.503876750601
 21
2287.4942691746
 31
0.0
 12
-3742.925985830444
 22
-6453.628869860112
 32
0.0
 70
   128
 71
     5
 42
1790.000000000007
  3
INABA_S40G
100
AcDbAlignedDimension
 13
3886.970589276556
 23
3182.494269174604
 33
0.0
 14
3886.970589276531
 24
1392.494269174596
 34
0.0
 50
90.0
100
AcDbRotatedDimension
1001
ACAD
1000
DSTYLE
1002
{
1002
}
  0
ENDBLK
  5
18DA1
330
18C7A
100
AcDbEntity
  8
0
 48
50.0
100
AcDbBlockEnd
  0
BLOCK
  5
1C4CB
330
1C4CA
100
AcDbEntity
  8
0
 48
50.0
100
AcDbBlockBegin
  2
_NONE
 70
     0
 10
0.0
 20
0.0
 30
0.0
  3
_NONE
  1

  0
CIRCLE
  5
1C4CC
330
1C4CA
100
AcDbEntity
  8
0
  6
ByBlock
 62
     0
 48
50.0
100
AcDbCircle
 10
0.0
 20
0.0
 30
0.0
 40
0.25
  0
ENDBLK
  5
1C4CD
330
1C4CA
100
AcDbEntity
  8
0
 48
50.0
100
AcDbBlockEnd
  0
BLOCK
  5
20DEE
330
20DE2
100
AcDbEntity
  8
0
 48
50.0
100
AcDbBlockBegin
  2
*D19
 70
     1
 10
0.0
 20
0.0
 30
0.0
  3
*D19
  1

  0
LINE
  5
28074
330
20DE2
100
AcDbEntity
  8
寸法
 62
     0
 48
50.0
370
    -2
100
AcDbLine
 10
12028.6
 20
7449.395066522727
 30
0.0
 11
12028.6
 21
8447.615388581651
 31
0.0
  0
LINE
  5
28075
330
20DE2
100
AcDbEntity
  8
寸法
 62
     0
 48
50.0
370
    -2
100
AcDbLine
 10
12073.6
 20
8175.661524616639
 30
0.0
 11
12073.6
 21
8447.615388581651
 31
0.0
  0
LINE
  5
28076
330
20DE2
100
AcDbEntity
  8
寸法
 62
     0
 48
50.0
370
    -2
100
AcDbLine
 10
12028.6
 20
8387.615388581648
 30
0.0
 11
11928.6
 21
8387.615388581648
 31
0.0
  0
LINE
  5
28077
330
20DE2
100
AcDbEntity
  8
寸法
 62
     0
 48
50.0
370
    -2
100
AcDbLine
 10
12073.6
 20
8387.615388581648
 30
0.0
 11
12410.94924240492
 21
8387.615388581648
 31
0.0
  0
LINE
  5
28078
330
20DE2
100
AcDbEntity
  8
寸法
 62
     0
 48
50.0
370
    -2
100
AcDbLine
 10
12028.6
 20
8387.615388581648
 30
0.0
 11
12073.6
 21
8387.615388581648
 31
0.0
  0
INSERT
  5
28079
330
20DE2
100
AcDbEntity
  8
寸法
 62
     0
 48
50.0
370
    -2
100
AcDbBlockReference
  2
_DOTSMALL
 10
12028.6
 20
8387.615388581648
 30
0.0
 41
100.0
 42
100.0
 43
100.0
  0
INSERT
  5
2807A
330
20DE2
100
AcDbEntity
  8
寸法
 62
     0
 48
50.0
370
    -2
100
AcDbBlockReference
  2
_DOTSMALL
 10
12073.6
 20
8387.615388581648
 30
0.0
 41
100.0
 42
100.0
 43
100.0
 50
180.0
  0
MTEXT
  5
2807B
330
20DE2
100
AcDbEntity
  8
寸法
 62
     7
 48
50.0
100
AcDbMText
 10
12344.77462120246
 20
8487.61538858165
 30
0.0
 40
120.0
 41
0.0
 71
     5
 72
     1
  1
\A1;a
  7
STYLE1
 73
     1
 44
1.0
1001
ACAD
1000
MTEXTBEGIN
1070
    73
1070
     1
1070
    44
1040
1.0
1070
    74
1070
     0
1000
MTEXTEND
  0
POINT
  5
2807C
330
20DE2
100
AcDbEntity
  8
DEFPOINTS
 62
     0
 48
50.0
100
AcDbPoint
 10
12028.6
 20
7429.395066522727
 30
0.0
  0
POINT
  5
2807D
330
20DE2
100
AcDbEntity
  8
DEFPOINTS
 62
     0
 48
50.0
100
AcDbPoint
 10
12073.6
 20
8155.661524616638
 30
0.0
  0
POINT
  5
2807E
330
20DE2
100
AcDbEntity
  8
DEFPOINTS
 62
     0
 48
50.0
100
AcDbPoint
 10
12073.6
 20
8387.615388581648
 30
0.0
  0
ENDBLK
  5
20DEF
330
20DE2
100
AcDbEntity
  8
0
 48
50.0
100
AcDbBlockEnd
  0
BLOCK
  5
20E08
330
20DFC
100
AcDbEntity
  8
0
 48
50.0
100
AcDbBlockBegin
  2
*D20
 70
     1
 10
0.0
 20
0.0
 30
0.0
  3
*D20
  1

  0
LINE
  5
28093
330
20DFC
100
AcDbEntity
  8
寸法
 62
     0
 48
50.0
370
    -2
100
AcDbLine
 10
4373.6
 20
8175.661524616648
 30
0.0
 11
4373.6
 21
8447.615388581658
 31
0.0
  0
LINE
  5
28094
330
20DFC
100
AcDbEntity
  8
寸法
 62
     0
 48
50.0
370
    -2
100
AcDbLine
 10
4418.599999999996
 20
7449.395066522737
 30
0.0
 11
4418.599999999996
 21
8447.615388581658
 31
0.0
  0
LINE
  5
28095
330
20DFC
100
AcDbEntity
  8
寸法
 62
     0
 48
50.0
370
    -2
100
AcDbLine
 10
4418.599999999996
 20
8387.615388581659
 30
0.0
 11
4518.599999999997
 21
8387.615388581659
 31
0.0
  0
LINE
  5
28096
330
20DFC
100
AcDbEntity
  8
寸法
 62
     0
 48
50.0
370
    -2
100
AcDbLine
 10
4373.6
 20
8387.615388581659
 30
0.0
 11
4036.250757595079
 21
8387.615388581659
 31
0.0
  0
LINE
  5
28097
330
20DFC
100
AcDbEntity
  8
寸法
 62
     0
 48
50.0
370
    -2
100
AcDbLine
 10
4418.599999999996
 20
8387.615388581659
 30
0.0
 11
4373.6
 21
8387.615388581659
 31
0.0
  0
INSERT
  5
28098
330
20DFC
100
AcDbEntity
  8
寸法
 62
     0
 48
50.0
370
    -2
100
AcDbBlockReference
  2
_DOTSMALL
 10
4418.599999999996
 20
8387.615388581659
 30
0.0
 41
100.0
 42
100.0
 43
100.0
 50
180.0
  0
INSERT
  5
28099
330
20DFC
100
AcDbEntity
  8
寸法
 62
     0
 48
50.0
370
    -2
100
AcDbBlockReference
  2
_DOTSMALL
 10
4373.6
 20
8387.615388581659
 30
0.0
 41
100.0
 42
100.0
 43
100.0
  0
MTEXT
  5
2809A
330
20DFC
100
AcDbEntity
  8
寸法
 62
     7
 48
50.0
100
AcDbMText
 10
4102.425378797537
 20
8487.615388581659
 30
0.0
 40
120.0
 41
0.0
 71
     5
 72
     1
  1
\A1;a
  7
STYLE1
 73
     1
 44
1.0
1001
ACAD
1000
MTEXTBEGIN
1070
    73
1070
     1
1070
    44
1040
1.0
1070
    74
1070
     0
1000
MTEXTEND
  0
POINT
  5
2809B
330
20DFC
100
AcDbEntity
  8
DEFPOINTS
 62
     0
 48
50.0
100
AcDbPoint
 10
4373.6
 20
8155.66152461665
 30
0.0
  0
POINT
  5
2809C
330
20DFC
100
AcDbEntity
  8
DEFPOINTS
 62
     0
 48
50.0
100
AcDbPoint
 10
4418.599999999996
 20
7429.395066522737
 30
0.0
  0
POINT
  5
2809D
330
20DFC
100
AcDbEntity
  8
DEFPOINTS
 62
     0
 48
50.0
100
AcDbPoint
 10
4418.599999999996
 20
8387.615388581659
 30
0.0
  0
ENDBLK
  5
20E09
330
20DFC
100
AcDbEntity
  8
0
 48
50.0
100
AcDbBlockEnd
  0
BLOCK
  5
2274E
330
22742
100
AcDbEntity
  8
0
 48
50.0
100
AcDbBlockBegin
  2
*D21
 70
     1
 10
0.0
 20
0.0
 30
0.0
  3
*D21
  1

  0
LINE
  5
2809E
330
22742
100
AcDbEntity
  8
寸法
 62
     0
 48
50.0
370
    -2
100
AcDbLine
 10
3775.665006330068
 20
7504.395066522743
 30
0.0
 11
3483.721909610673
 21
7504.395066522743
 31
0.0
  0
LINE
  5
2809F
330
22742
100
AcDbEntity
  8
寸法
 62
     0
 48
50.0
370
    -2
100
AcDbLine
 10
4398.599999999997
 20
7429.395066522737
 30
0.0
 11
3483.721909610673
 21
7429.395066522737
 31
0.0
  0
LINE
  5
280A0
330
22742
100
AcDbEntity
  8
寸法
 62
     0
 48
50.0
370
    -2
100
AcDbLine
 10
3543.721909610673
 20
7504.395066522743
 30
0.0
 11
3543.721909610673
 21
7604.395066522743
 31
0.0
  0
LINE
  5
280A1
330
22742
100
AcDbEntity
  8
寸法
 62
     0
 48
50.0
370
    -2
100
AcDbLine
 10
3543.721909610673
 20
7429.395066522737
 30
0.0
 11
3543.721909610673
 21
7329.395066522737
 31
0.0
  0
LINE
  5
280A2
330
22742
100
AcDbEntity
  8
寸法
 62
     0
 48
50.0
370
    -2
100
AcDbLine
 10
3543.721909610673
 20
7504.395066522743
 30
0.0
 11
3543.721909610673
 21
7429.395066522737
 31
0.0
  0
INSERT
  5
280A3
330
22742
100
AcDbEntity
  8
寸法
 62
     0
 48
50.0
370
    -2
100
AcDbBlockReference
  2
_DOTSMALL
 10
3543.721909610673
 20
7504.395066522743
 30
0.0
 41
100.0
 42
100.0
 43
100.0
 50
270.0
  0
INSERT
  5
280A4
330
22742
100
AcDbEntity
  8
寸法
 62
     0
 48
50.0
370
    -2
100
AcDbBlockReference
  2
_DOTSMALL
 10
3543.721909610673
 20
7429.395066522737
 30
0.0
 41
100.0
 42
100.0
 43
100.0
 50
90.0
  0
MTEXT
  5
280A5
330
22742
100
AcDbEntity
  8
寸法
 62
     7
 48
50.0
100
AcDbMText
 10
3443.721909610672
 20
7466.89506652274
 30
0.0
 40
120.0
 41
0.0
 71
     5
 72
     1
  1
\A1;c
  7
STYLE1
 11
0.0000000000000001
 21
1.0
 31
0.0
 73
     1
 44
1.0
1001
ACAD
1000
MTEXTBEGIN
1070
    73
1070
     1
1070
    44
1040
1.0
1070
    74
1070
     0
1000
MTEXTEND
  0
POINT
  5
280A6
330
22742
100
AcDbEntity
  8
DEFPOINTS
 62
     0
 48
50.0
100
AcDbPoint
 10
3795.665006330068
 20
7504.395066522743
 30
0.0
  0
POINT
  5
280A7
330
22742
100
AcDbEntity
  8
DEFPOINTS
 62
     0
 48
50.0
100
AcDbPoint
 10
4418.599999999996
 20
7429.395066522737
 30
0.0
  0
POINT
  5
280A8
330
22742
100
AcDbEntity
  8
DEFPOINTS
 62
     0
 48
50.0
100
AcDbPoint
 10
3543.721909610673
 20
7429.395066522737
 30
0.0
  0
ENDBLK
  5
2274F
330
22742
100
AcDbEntity
  8
0
 48
50.0
100
AcDbBlockEnd
  0
BLOCK
  5
22768
330
2275C
100
AcDbEntity
  8
0
 48
50.0
100
AcDbBlockBegin
  2
*D22
 70
     1
 10
0.0
 20
0.0
 30
0.0
  3
*D22
  1

  0
LINE
  5
280A9
330
2275C
100
AcDbEntity
  8
寸法
 62
     0
 48
50.0
370
    -2
100
AcDbLine
 10
4398.599999999997
 20
5889.395066522769
 30
0.0
 11
3483.721909610669
 21
5889.395066522769
 31
0.0
  0
LINE
  5
280AA
330
2275C
100
AcDbEntity
  8
寸法
 62
     0
 48
50.0
370
    -2
100
AcDbLine
 10
3775.665006330068
 20
5834.395066522795
 30
0.0
 11
3483.721909610669
 21
5834.395066522795
 31
0.0
  0
LINE
  5
280AB
330
2275C
100
AcDbEntity
  8
寸法
 62
     0
 48
50.0
370
    -2
100
AcDbLine
 10
3543.72190961067
 20
5889.395066522769
 30
0.0
 11
3543.72190961067
 21
5989.395066522768
 31
0.0
  0
LINE
  5
280AC
330
2275C
100
AcDbEntity
  8
寸法
 62
     0
 48
50.0
370
    -2
100
AcDbLine
 10
3543.72190961067
 20
5834.395066522795
 30
0.0
 11
3543.72190961067
 21
5734.395066522794
 31
0.0
  0
LINE
  5
280AD
330
2275C
100
AcDbEntity
  8
寸法
 62
     0
 48
50.0
370
    -2
100
AcDbLine
 10
3543.72190961067
 20
5889.395066522769
 30
0.0
 11
3543.72190961067
 21
5834.395066522795
 31
0.0
  0
INSERT
  5
280AE
330
2275C
100
AcDbEntity
  8
寸法
 62
     0
 48
50.0
370
    -2
100
AcDbBlockReference
  2
_DOTSMALL
 10
3543.72190961067
 20
5889.395066522769
 30
0.0
 41
100.0
 42
100.0
 43
100.0
 50
270.0
  0
INSERT
  5
280AF
330
2275C
100
AcDbEntity
  8
寸法
 62
     0
 48
50.0
370
    -2
100
AcDbBlockReference
  2
_DOTSMALL
 10
3543.72190961067
 20
5834.395066522795
 30
0.0
 41
100.0
 42
100.0
 43
100.0
 50
90.0
  0
MTEXT
  5
280B0
330
2275C
100
AcDbEntity
  8
寸法
 62
     7
 48
50.0
100
AcDbMText
 10
3443.721909610668
 20
5861.895066522782
 30
0.0
 40
120.0
 41
0.0
 71
     5
 72
     1
  1
\A1;b
  7
STYLE1
 11
0.0000000000000001
 21
1.0
 31
0.0
 73
     1
 44
1.0
1001
ACAD
1000
MTEXTBEGIN
1070
    73
1070
     1
1070
    44
1040
1.0
1070
    74
1070
     0
1000
MTEXTEND
  0
POINT
  5
280B1
330
2275C
100
AcDbEntity
  8
DEFPOINTS
 62
     0
 48
50.0
100
AcDbPoint
 10
4418.599999999996
 20
5889.395066522769
 30
0.0
  0
POINT
  5
280B2
330
2275C
100
AcDbEntity
  8
DEFPOINTS
 62
     0
 48
50.0
100
AcDbPoint
 10
3795.665006330068
 20
5834.395066522795
 30
0.0
  0
POINT
  5
280B3
330
2275C
100
AcDbEntity
  8
DEFPOINTS
 62
     0
 48
50.0
100
AcDbPoint
 10
3543.72190961067
 20
5834.395066522795
 30
0.0
  0
ENDBLK
  5
22769
330
2275C
100
AcDbEntity
  8
0
 48
50.0
100
AcDbBlockEnd
  0
BLOCK
  5
240CF
330
240C4
100
AcDbEntity
  8
0
 48
50.0
100
AcDbBlockBegin
  2
*D23
 70
     1
 10
0.0
 20
0.0
 30
0.0
  3
*D23
  1

  0
LINE
  5
285B1
330
240C4
100
AcDbEntity
  8
寸法
 62
     0
 48
50.0
370
    -2
100
AcDbLine
 10
12028.6
 20
6884.395066522765
 30
0.0
 11
12028.6
 21
7038.993679620839
 31
0.0
  0
LINE
  5
285B2
330
240C4
100
AcDbEntity
  8
寸法
 62
     0
 48
50.0
370
    -2
100
AcDbLine
 10
11908.6
 20
6884.395066522763
 30
0.0
 11
11908.6
 21
7038.993679620839
 31
0.0
  0
LINE
  5
285B3
330
240C4
100
AcDbEntity
  8
寸法
 62
     0
 48
50.0
370
    -2
100
AcDbLine
 10
11908.6
 20
6978.993679620838
 30
0.0
 11
12028.6
 21
6978.993679620838
 31
0.0
  0
LINE
  5
285B4
330
240C4
100
AcDbEntity
  8
寸法
 62
     0
 48
50.0
370
    -2
100
AcDbLine
 10
12028.6
 20
6978.993679620838
 30
0.0
 11
12434.7062992126
 21
6978.993679620838
 31
0.0
  0
INSERT
  5
285B5
330
240C4
100
AcDbEntity
  8
寸法
 62
     0
 48
50.0
370
    -2
100
AcDbBlockReference
  2
_DOTSMALL
 10
11908.6
 20
6978.993679620838
 30
0.0
 41
100.0
 42
100.0
 43
100.0
 50
180.0
  0
INSERT
  5
285B6
330
240C4
100
AcDbEntity
  8
寸法
 62
     0
 48
50.0
370
    -2
100
AcDbBlockReference
  2
_DOTSMALL
 10
12028.6
 20
6978.993679620838
 30
0.0
 41
100.0
 42
100.0
 43
100.0
  0
MTEXT
  5
285B7
330
240C4
100
AcDbEntity
  8
寸法
 62
     7
 48
50.0
100
AcDbMText
 10
12298.65905511811
 20
7079.005490644461
 30
0.0
 40
120.0
 41
0.0
 71
     5
 72
     1
  1
\A1;120
  7
STYLE1
 73
     1
 44
1.0
1001
ACAD
1000
MTEXTBEGIN
1070
    73
1070
     1
1070
    44
1040
1.0
1070
    74
1070
     0
1000
MTEXTEND
  0
POINT
  5
285B8
330
240C4
100
AcDbEntity
  8
DEFPOINTS
 62
     0
 48
50.0
100
AcDbPoint
 10
12028.6
 20
6864.395066522765
 30
0.0
  0
POINT
  5
285B9
330
240C4
100
AcDbEntity
  8
DEFPOINTS
 62
     0
 48
50.0
100
AcDbPoint
 10
11908.6
 20
6864.395066522764
 30
0.0
  0
POINT
  5
285BA
330
240C4
100
AcDbEntity
  8
DEFPOINTS
 62
     0
 48
50.0
100
AcDbPoint
 10
11908.6
 20
6978.993679620838
 30
0.0
  0
ENDBLK
  5
240D0
330
240C4
100
AcDbEntity
  8
0
 48
50.0
100
AcDbBlockEnd
  0
BLOCK
  5
240DC
330
240D1
100
AcDbEntity
  8
0
 48
50.0
100
AcDbBlockBegin
  2
*D24
 70
     1
 10
0.0
 20
0.0
 30
0.0
  3
*D24
  1

  0
LINE
  5
28212
330
240D1
100
AcDbEntity
  8
寸法
 62
     0
 48
50.0
370
    -2
100
AcDbLine
 10
11428.59999999999
 20
6169.395066522746
 30
0.0
 11
11287.81202022566
 21
6169.395066522746
 31
0.0
  0
LINE
  5
28213
330
240D1
100
AcDbEntity
  8
寸法
 62
     0
 48
50.0
370
    -2
100
AcDbLine
 10
11428.6
 20
5889.395066522745
 30
0.0
 11
11287.81202022566
 21
5889.395066522745
 31
0.0
  0
LINE
  5
28214
330
240D1
100
AcDbEntity
  8
寸法
 62
     0
 48
50.0
370
    -2
100
AcDbLine
 10
11347.81202022566
 20
6169.395066522746
 30
0.0
 11
11347.81202022566
 21
5889.395066522745
 31
0.0
  0
LINE
  5
28215
330
240D1
100
AcDbEntity
  8
寸法
 62
     0
 48
50.0
370
    -2
100
AcDbLine
 10
11347.81202022566
 20
5889.395066522745
 30
0.0
 11
11347.81202022566
 21
5452.860617703839
 31
0.0
  0
INSERT
  5
28216
330
240D1
100
AcDbEntity
  8
寸法
 62
     0
 48
50.0
370
    -2
100
AcDbBlockReference
  2
_DOTSMALL
 10
11347.81202022566
 20
6169.395066522746
 30
0.0
 41
100.0
 42
100.0
 43
100.0
 50
90.0
  0
INSERT
  5
28217
330
240D1
100
AcDbEntity
  8
寸法
 62
     0
 48
50.0
370
    -2
100
AcDbBlockReference
  2
_DOTSMALL
 10
11347.81202022566
 20
5889.395066522745
 30
0.0
 41
100.0
 42
100.0
 43
100.0
 50
270.0
  0
MTEXT
  5
28218
330
240D1
100
AcDbEntity
  8
寸法
 62
     7
 48
50.0
100
AcDbMText
 10
11247.80020920203
 20
5602.431483845574
 30
0.0
 40
120.0
 41
0.0
 71
     5
 72
     1
  1
\A1;280
  7
STYLE1
 11
0.0000000000000001
 21
1.0
 31
0.0
 73
     1
 44
1.0
1001
ACAD
1000
MTEXTBEGIN
1070
    73
1070
     1
1070
    44
1040
1.0
1070
    74
1070
     0
1000
MTEXTEND
  0
POINT
  5
28219
330
240D1
100
AcDbEntity
  8
DEFPOINTS
 62
     0
 48
50.0
100
AcDbPoint
 10
11448.59999999999
 20
6169.395066522746
 30
0.0
  0
POINT
  5
2821A
330
240D1
100
AcDbEntity
  8
DEFPOINTS
 62
     0
 48
50.0
100
AcDbPoint
 10
11448.6
 20
5889.395066522745
 30
0.0
  0
POINT
  5
2821B
330
240D1
100
AcDbEntity
  8
DEFPOINTS
 62
     0
 48
50.0
100
AcDbPoint
 10
11347.81202022566
 20
5889.395066522745
 30
0.0
  0
ENDBLK
  5
240DD
330
240D1
100
AcDbEntity
  8
0
 48
50.0
100
AcDbBlockEnd
  0
BLOCK
  5
240E9
330
240DE
100
AcDbEntity
  8
0
 48
50.0
100
AcDbBlockBegin
  2
*D25
 70
     1
 10
0.0
 20
0.0
 30
0.0
  3
*D25
  1

  0
LINE
  5
2807F
330
240DE
100
AcDbEntity
  8
寸法
 62
     0
 48
50.0
370
    -2
100
AcDbLine
 10
11428.6
 20
7429.395066522714
 30
0.0
 11
11287.81202022566
 21
7429.395066522714
 31
0.0
  0
LINE
  5
28080
330
240DE
100
AcDbEntity
  8
寸法
 62
     0
 48
50.0
370
    -2
100
AcDbLine
 10
11428.60000000001
 20
7229.39506652273
 30
0.0
 11
11287.81202022566
 21
7229.39506652273
 31
0.0
  0
LINE
  5
28081
330
240DE
100
AcDbEntity
  8
寸法
 62
     0
 48
50.0
370
    -2
100
AcDbLine
 10
11347.81202022566
 20
7229.39506652273
 30
0.0
 11
11347.81202022566
 21
7429.395066522714
 31
0.0
  0
LINE
  5
28082
330
240DE
100
AcDbEntity
  8
寸法
 62
     0
 48
50.0
370
    -2
100
AcDbLine
 10
11347.81202022566
 20
7429.395066522714
 30
0.0
 11
11347.81202022566
 21
7865.929515341616
 31
0.0
  0
INSERT
  5
28083
330
240DE
100
AcDbEntity
  8
寸法
 62
     0
 48
50.0
370
    -2
100
AcDbBlockReference
  2
_DOTSMALL
 10
11347.81202022566
 20
7229.39506652273
 30
0.0
 41
100.0
 42
100.0
 43
100.0
 50
270.0
  0
INSERT
  5
28084
330
240DE
100
AcDbEntity
  8
寸法
 62
     0
 48
50.0
370
    -2
100
AcDbBlockReference
  2
_DOTSMALL
 10
11347.81202022566
 20
7429.395066522714
 30
0.0
 41
100.0
 42
100.0
 43
100.0
 50
90.0
  0
MTEXT
  5
28085
330
240DE
100
AcDbEntity
  8
寸法
 62
     7
 48
50.0
100
AcDbMText
 10
11247.80020920203
 20
7716.358649199886
 30
0.0
 40
120.0
 41
0.0
 71
     5
 72
     1
  1
\A1;200
  7
STYLE1
 11
0.0000000000000001
 21
1.0
 31
0.0
 73
     1
 44
1.0
1001
ACAD
1000
MTEXTBEGIN
1070
    73
1070
     1
1070
    44
1040
1.0
1070
    74
1070
     0
1000
MTEXTEND
  0
POINT
  5
28086
330
240DE
100
AcDbEntity
  8
DEFPOINTS
 62
     0
 48
50.0
100
AcDbPoint
 10
11448.6
 20
7429.395066522714
 30
0.0
  0
POINT
  5
28087
330
240DE
100
AcDbEntity
  8
DEFPOINTS
 62
     0
 48
50.0
100
AcDbPoint
 10
11448.60000000001
 20
7229.39506652273
 30
0.0
  0
POINT
  5
28088
330
240DE
100
AcDbEntity
  8
DEFPOINTS
 62
     0
 48
50.0
100
AcDbPoint
 10
11347.81202022566
 20
7229.39506652273
 30
0.0
  0
ENDBLK
  5
240EA
330
240DE
100
AcDbEntity
  8
0
 48
50.0
100
AcDbBlockEnd
  0
BLOCK
  5
27A63
330
27A59
100
AcDbEntity
  8
0
 48
50.0
100
AcDbBlockBegin
  2
*D26
 70
     1
 10
0.0
 20
0.0
 30
0.0
  3
*D26
  1

  0
LINE
  5
2813C
330
27A59
100
AcDbEntity
  8
寸法
 62
     0
 48
50.0
370
    -2
100
AcDbLine
 10
9173.600000000007
 20
6766.395066522727
 30
0.0
 11
9173.600000000007
 21
7972.003883192975
 31
0.0
  0
LINE
  5
2813D
330
27A59
100
AcDbEntity
  8
寸法
 62
     0
 48
50.0
370
    -2
100
AcDbLine
 10
8223.600000000008
 20
6766.395066522727
 30
0.0
 11
8223.600000000008
 21
7972.003883192975
 31
0.0
  0
LINE
  5
2813E
330
27A59
100
AcDbEntity
  8
寸法
 62
     0
 48
50.0
370
    -2
100
AcDbLine
 10
9173.600000000007
 20
7912.003883192976
 30
0.0
 11
8223.600000000008
 21
7912.003883192976
 31
0.0
  0
INSERT
  5
2813F
330
27A59
100
AcDbEntity
  8
寸法
 62
     0
 48
50.0
370
    -2
100
AcDbBlockReference
  2
_DOTSMALL
 10
9173.600000000007
 20
7912.003883192976
 30
0.0
 41
100.0
 42
100.0
 43
100.0
  0
INSERT
  5
28140
330
27A59
100
AcDbEntity
  8
寸法
 62
     0
 48
50.0
370
    -2
100
AcDbBlockReference
  2
_DOTSMALL
 10
8223.600000000008
 20
7912.003883192976
 30
0.0
 41
100.0
 42
100.0
 43
100.0
 50
180.0
  0
MTEXT
  5
28141
330
27A59
100
AcDbEntity
  8
寸法
 62
     7
 48
50.0
100
AcDbMText
 10
8698.600000000007
 20
8012.003883192976
 30
0.0
 40
120.0
 41
0.0
 71
     5
 72
     1
  1
\A1;950
  7
STYLE1
 73
     1
 44
1.0
1001
ACAD
1000
MTEXTBEGIN
1070
    73
1070
     1
1070
    44
1040
1.0
1070
    74
1070
     0
1000
MTEXTEND
  0
POINT
  5
28142
330
27A59
100
AcDbEntity
  8
DEFPOINTS
 62
     0
 48
50.0
100
AcDbPoint
 10
9173.600000000007
 20
6746.395066522727
 30
0.0
  0
POINT
  5
28143
330
27A59
100
AcDbEntity
  8
DEFPOINTS
 62
     0
 48
50.0
100
AcDbPoint
 10
8223.600000000008
 20
6746.395066522727
 30
0.0
  0
POINT
  5
28144
330
27A59
100
AcDbEntity
  8
DEFPOINTS
 62
     0
 48
50.0
100
AcDbPoint
 10
8223.600000000008
 20
7912.003883192976
 30
0.0
  0
ENDBLK
  5
27A64
330
27A59
100
AcDbEntity
  8
0
 48
50.0
100
AcDbBlockEnd
  0
BLOCK
  5
27A6F
330
27A65
100
AcDbEntity
  8
0
 48
50.0
100
AcDbBlockBegin
  2
*D27
 70
     1
 10
0.0
 20
0.0
 30
0.0
  3
*D27
  1

  0
LINE
  5
28017
330
27A65
100
AcDbEntity
  8
寸法
 62
     0
 48
50.0
370
    -2
100
AcDbLine
 10
4418.6
 20
7449.395066522727
 30
0.0
 11
4418.6
 21
8447.615388581645
 31
0.0
  0
LINE
  5
28018
330
27A65
100
AcDbEntity
  8
寸法
 62
     0
 48
50.0
370
    -2
100
AcDbLine
 10
12028.6
 20
7449.395066522727
 30
0.0
 11
12028.6
 21
8447.615388581645
 31
0.0
  0
LINE
  5
28019
330
27A65
100
AcDbEntity
  8
寸法
 62
     0
 48
50.0
370
    -2
100
AcDbLine
 10
4418.6
 20
8387.615388581647
 30
0.0
 11
12028.6
 21
8387.615388581647
 31
0.0
  0
INSERT
  5
2801A
330
27A65
100
AcDbEntity
  8
寸法
 62
     0
 48
50.0
370
    -2
100
AcDbBlockReference
  2
_DOTSMALL
 10
4418.6
 20
8387.615388581647
 30
0.0
 41
100.0
 42
100.0
 43
100.0
 50
180.0
  0
INSERT
  5
2801B
330
27A65
100
AcDbEntity
  8
寸法
 62
     0
 48
50.0
370
    -2
100
AcDbBlockReference
  2
_DOTSMALL
 10
12028.6
 20
8387.615388581647
 30
0.0
 41
100.0
 42
100.0
 43
100.0
  0
MTEXT
  5
2801C
330
27A65
100
AcDbEntity
  8
寸法
 62
     7
 48
50.0
100
AcDbMText
 10
8223.600000000001
 20
8487.615388581646
 30
0.0
 40
120.0
 41
0.0
 71
     5
 72
     1
  1
\A1;7610
  7
STYLE1
 73
     1
 44
1.0
1001
ACAD
1000
MTEXTBEGIN
1070
    73
1070
     1
1070
    44
1040
1.0
1070
    74
1070
     0
1000
MTEXTEND
  0
POINT
  5
2801D
330
27A65
100
AcDbEntity
  8
DEFPOINTS
 62
     0
 48
50.0
100
AcDbPoint
 10
4418.6
 20
7429.395066522727
 30
0.0
  0
POINT
  5
2801E
330
27A65
100
AcDbEntity
  8
DEFPOINTS
 62
     0
 48
50.0
100
AcDbPoint
 10
12028.6
 20
7429.395066522727
 30
0.0
  0
POINT
  5
2801F
330
27A65
100
AcDbEntity
  8
DEFPOINTS
 62
     0
 48
50.0
100
AcDbPoint
 10
12028.6
 20
8387.615388581647
 30
0.0
  0
ENDBLK
  5
27A70
330
27A65
100
AcDbEntity
  8
0
 48
50.0
100
AcDbBlockEnd
  0
BLOCK
  5
27A7A
330
27A71
100
AcDbEntity
  8
0
 48
50.0
100
AcDbBlockBegin
  2
*D28
 70
     1
 10
0.0
 20
0.0
 30
0.0
  3
*D28
  1

  0
LINE
  5
2800E
330
27A71
100
AcDbEntity
  8
寸法
 62
     0
 48
50.0
370
    -2
100
AcDbLine
 10
9055.600000000001
 20
7376.395066522729
 30
0.0
 11
9055.600000000001
 21
8215.661524616638
 31
0.0
  0
LINE
  5
2800F
330
27A71
100
AcDbEntity
  8
寸法
 62
     0
 48
50.0
370
    -2
100
AcDbLine
 10
7155.600000000001
 20
7376.395066522729
 30
0.0
 11
7155.600000000001
 21
8215.661524616638
 31
0.0
  0
LINE
  5
28010
330
27A71
100
AcDbEntity
  8
寸法
 62
     0
 48
50.0
370
    -2
100
AcDbLine
 10
9055.600000000001
 20
8155.661524616638
 30
0.0
 11
7155.600000000001
 21
8155.661524616638
 31
0.0
  0
INSERT
  5
28011
330
27A71
100
AcDbEntity
  8
寸法
 62
     0
 48
50.0
370
    -2
100
AcDbBlockReference
  2
_DOTSMALL
 10
9055.600000000001
 20
8155.661524616638
 30
0.0
 41
100.0
 42
100.0
 43
100.0
  0
INSERT
  5
28012
330
27A71
100
AcDbEntity
  8
寸法
 62
     0
 48
50.0
370
    -2
100
AcDbBlockReference
  2
_DOTSMALL
 10
7155.600000000001
 20
8155.661524616638
 30
0.0
 41
100.0
 42
100.0
 43
100.0
 50
180.0
  0
MTEXT
  5
28013
330
27A71
100
AcDbEntity
  8
寸法
 62
     7
 48
50.0
100
AcDbMText
 10
8105.6
 20
8255.661524616639
 30
0.0
 40
120.0
 41
0.0
 71
     5
 72
     1
  1
\A1;1900
  7
STYLE1
 73
     1
 44
1.0
1001
ACAD
1000
MTEXTBEGIN
1070
    73
1070
     1
1070
    44
1040
1.0
1070
    74
1070
     0
1000
MTEXTEND
  0
POINT
  5
28014
330
27A71
100
AcDbEntity
  8
DEFPOINTS
 62
     0
 48
50.0
100
AcDbPoint
 10
9055.600000000001
 20
7356.395066522728
 30
0.0
  0
POINT
  5
28015
330
27A71
100
AcDbEntity
  8
DEFPOINTS
 62
     0
 48
50.0
100
AcDbPoint
 10
7155.600000000001
 20
7356.395066522728
 30
0.0
  0
POINT
  5
28016
330
27A71
100
AcDbEntity
  8
DEFPOINTS
 62
     0
 48
50.0
100
AcDbPoint
 10
7155.600000000001
 20
8155.661524616638
 30
0.0
  0
ENDBLK
  5
27A7B
330
27A71
100
AcDbEntity
  8
0
 48
50.0
100
AcDbBlockEnd
  0
BLOCK
  5
27A85
330
27A7C
100
AcDbEntity
  8
0
 48
50.0
100
AcDbBlockBegin
  2
*D29
 70
     1
 10
0.0
 20
0.0
 30
0.0
  3
*D29
  1

  0
LINE
  5
28172
330
27A7C
100
AcDbEntity
  8
寸法
 62
     0
 48
50.0
370
    -2
100
AcDbLine
 10
6323.600000000007
 20
6766.395066522727
 30
0.0
 11
6323.600000000007
 21
7972.003883192975
 31
0.0
  0
LINE
  5
28173
330
27A7C
100
AcDbEntity
  8
寸法
 62
     0
 48
50.0
370
    -2
100
AcDbLine
 10
5373.600000000007
 20
6766.395066522727
 30
0.0
 11
5373.600000000007
 21
7972.003883192975
 31
0.0
  0
LINE
  5
28174
330
27A7C
100
AcDbEntity
  8
寸法
 62
     0
 48
50.0
370
    -2
100
AcDbLine
 10
6323.600000000007
 20
7912.003883192976
 30
0.0
 11
5373.600000000007
 21
7912.003883192976
 31
0.0
  0
INSERT
  5
28175
330
27A7C
100
AcDbEntity
  8
寸法
 62
     0
 48
50.0
370
    -2
100
AcDbBlockReference
  2
_DOTSMALL
 10
6323.600000000007
 20
7912.003883192976
 30
0.0
 41
100.0
 42
100.0
 43
100.0
  0
INSERT
  5
28176
330
27A7C
100
AcDbEntity
  8
寸法
 62
     0
 48
50.0
370
    -2
100
AcDbBlockReference
  2
_DOTSMALL
 10
5373.600000000007
 20
7912.003883192976
 30
0.0
 41
100.0
 42
100.0
 43
100.0
 50
180.0
  0
MTEXT
  5
28177
330
27A7C
100
AcDbEntity
  8
寸法
 62
     7
 48
50.0
100
AcDbMText
 10
5848.600000000008
 20
8012.003883192976
 30
0.0
 40
120.0
 41
0.0
 71
     5
 72
     1
  1
\A1;950
  7
STYLE1
 73
     1
 44
1.0
1001
ACAD
1000
MTEXTBEGIN
1070
    73
1070
     1
1070
    44
1040
1.0
1070
    74
1070
     0
1000
MTEXTEND
  0
POINT
  5
28178
330
27A7C
100
AcDbEntity
  8
DEFPOINTS
 62
     0
 48
50.0
100
AcDbPoint
 10
6323.600000000007
 20
6746.395066522727
 30
0.0
  0
POINT
  5
28179
330
27A7C
100
AcDbEntity
  8
DEFPOINTS
 62
     0
 48
50.0
100
AcDbPoint
 10
5373.600000000007
 20
6746.395066522727
 30
0.0
  0
POINT
  5
2817A
330
27A7C
100
AcDbEntity
  8
DEFPOINTS
 62
     0
 48
50.0
100
AcDbPoint
 10
5373.600000000007
 20
7912.003883192976
 30
0.0
  0
ENDBLK
  5
27A86
330
27A7C
100
AcDbEntity
  8
0
 48
50.0
100
AcDbBlockEnd
  0
BLOCK
  5
27A90
330
27A87
100
AcDbEntity
  8
0
 48
50.0
100
AcDbBlockBegin
  2
*D30
 70
     1
 10
0.0
 20
0.0
 30
0.0
  3
*D30
  1

  0
LINE
  5
28160
330
27A87
100
AcDbEntity
  8
寸法
 62
     0
 48
50.0
370
    -2
100
AcDbLine
 10
7273.600000000008
 20
6766.395066522727
 30
0.0
 11
7273.600000000008
 21
7972.003883192975
 31
0.0
  0
LINE
  5
28161
330
27A87
100
AcDbEntity
  8
寸法
 62
     0
 48
50.0
370
    -2
100
AcDbLine
 10
6323.600000000007
 20
6766.395066522727
 30
0.0
 11
6323.600000000007
 21
7972.003883192975
 31
0.0
  0
LINE
  5
28162
330
27A87
100
AcDbEntity
  8
寸法
 62
     0
 48
50.0
370
    -2
100
AcDbLine
 10
7273.600000000008
 20
7912.003883192976
 30
0.0
 11
6323.600000000007
 21
7912.003883192976
 31
0.0
  0
INSERT
  5
28163
330
27A87
100
AcDbEntity
  8
寸法
 62
     0
 48
50.0
370
    -2
100
AcDbBlockReference
  2
_DOTSMALL
 10
7273.600000000008
 20
7912.003883192976
 30
0.0
 41
100.0
 42
100.0
 43
100.0
  0
INSERT
  5
28164
330
27A87
100
AcDbEntity
  8
寸法
 62
     0
 48
50.0
370
    -2
100
AcDbBlockReference
  2
_DOTSMALL
 10
6323.600000000007
 20
7912.003883192976
 30
0.0
 41
100.0
 42
100.0
 43
100.0
 50
180.0
  0
MTEXT
  5
28165
330
27A87
100
AcDbEntity
  8
寸法
 62
     7
 48
50.0
100
AcDbMText
 10
6798.600000000007
 20
8012.003883192976
 30
0.0
 40
120.0
 41
0.0
 71
     5
 72
     1
  1
\A1;950
  7
STYLE1
 73
     1
 44
1.0
1001
ACAD
1000
MTEXTBEGIN
1070
    73
1070
     1
1070
    44
1040
1.0
1070
    74
1070
     0
1000
MTEXTEND
  0
POINT
  5
28166
330
27A87
100
AcDbEntity
  8
DEFPOINTS
 62
     0
 48
50.0
100
AcDbPoint
 10
7273.600000000008
 20
6746.395066522727
 30
0.0
  0
POINT
  5
28167
330
27A87
100
AcDbEntity
  8
DEFPOINTS
 62
     0
 48
50.0
100
AcDbPoint
 10
6323.600000000007
 20
6746.395066522727
 30
0.0
  0
POINT
  5
28168
330
27A87
100
AcDbEntity
  8
DEFPOINTS
 62
     0
 48
50.0
100
AcDbPoint
 10
6323.600000000007
 20
7912.003883192976
 30
0.0
  0
ENDBLK
  5
27A91
330
27A87
100
AcDbEntity
  8
0
 48
50.0
100
AcDbBlockEnd
  0
BLOCK
  5
27A9C
330
27A92
100
AcDbEntity
  8
0
 48
50.0
100
AcDbBlockBegin
  2
*D31
 70
     1
 10
0.0
 20
0.0
 30
0.0
  3
*D31
  1

  0
LINE
  5
28169
330
27A92
100
AcDbEntity
  8
寸法
 62
     0
 48
50.0
370
    -2
100
AcDbLine
 10
5373.600000000007
 20
6766.395066522727
 30
0.0
 11
5373.600000000007
 21
7972.003883192975
 31
0.0
  0
LINE
  5
2816A
330
27A92
100
AcDbEntity
  8
寸法
 62
     0
 48
50.0
370
    -2
100
AcDbLine
 10
4418.6
 20
7449.395066522727
 30
0.0
 11
4418.6
 21
7972.003883192975
 31
0.0
  0
LINE
  5
2816B
330
27A92
100
AcDbEntity
  8
寸法
 62
     0
 48
50.0
370
    -2
100
AcDbLine
 10
5373.600000000007
 20
7912.003883192976
 30
0.0
 11
4418.6
 21
7912.003883192976
 31
0.0
  0
INSERT
  5
2816C
330
27A92
100
AcDbEntity
  8
寸法
 62
     0
 48
50.0
370
    -2
100
AcDbBlockReference
  2
_DOTSMALL
 10
5373.600000000007
 20
7912.003883192976
 30
0.0
 41
100.0
 42
100.0
 43
100.0
  0
INSERT
  5
2816D
330
27A92
100
AcDbEntity
  8
寸法
 62
     0
 48
50.0
370
    -2
100
AcDbBlockReference
  2
_DOTSMALL
 10
4418.6
 20
7912.003883192976
 30
0.0
 41
100.0
 42
100.0
 43
100.0
 50
180.0
  0
MTEXT
  5
2816E
330
27A92
100
AcDbEntity
  8
寸法
 62
     7
 48
50.0
100
AcDbMText
 10
4896.100000000004
 20
8012.003883192976
 30
0.0
 40
120.0
 41
0.0
 71
     5
 72
     1
  1
\A1;955
  7
STYLE1
 73
     1
 44
1.0
1001
ACAD
1000
MTEXTBEGIN
1070
    73
1070
     1
1070
    44
1040
1.0
1070
    74
1070
     0
1000
MTEXTEND
  0
POINT
  5
2816F
330
27A92
100
AcDbEntity
  8
DEFPOINTS
 62
     0
 48
50.0
100
AcDbPoint
 10
5373.600000000007
 20
6746.395066522727
 30
0.0
  0
POINT
  5
28170
330
27A92
100
AcDbEntity
  8
DEFPOINTS
 62
     0
 48
50.0
100
AcDbPoint
 10
4418.6
 20
7429.395066522727
 30
0.0
  0
POINT
  5
28171
330
27A92
100
AcDbEntity
  8
DEFPOINTS
 62
     0
 48
50.0
100
AcDbPoint
 10
4418.6
 20
7912.003883192976
 30
0.0
  0
ENDBLK
  5
27A9D
330
27A92
100
AcDbEntity
  8
0
 48
50.0
100
AcDbBlockEnd
  0
BLOCK
  5
27AA8
330
27A9E
100
AcDbEntity
  8
0
 48
50.0
100
AcDbBlockBegin
  2
*D32
 70
     1
 10
0.0
 20
0.0
 30
0.0
  3
*D32
  1

  0
LINE
  5
28184
330
27A9E
100
AcDbEntity
  8
寸法
 62
     0
 48
50.0
370
    -2
100
AcDbLine
 10
5303.600000000008
 20
6696.395066522727
 30
0.0
 11
4841.285990614302
 21
6696.395066522727
 31
0.0
  0
LINE
  5
28185
330
27A9E
100
AcDbEntity
  8
寸法
 62
     0
 48
50.0
370
    -2
100
AcDbLine
 10
4972.765475140901
 20
7429.395066522727
 30
0.0
 11
4841.285990614302
 21
7429.395066522727
 31
0.0
  0
LINE
  5
28186
330
27A9E
100
AcDbEntity
  8
寸法
 62
     0
 48
50.0
370
    -2
100
AcDbLine
 10
4901.285990614302
 20
6696.395066522727
 30
0.0
 11
4901.285990614302
 21
7429.395066522727
 31
0.0
  0
INSERT
  5
28187
330
27A9E
100
AcDbEntity
  8
寸法
 62
     0
 48
50.0
370
    -2
100
AcDbBlockReference
  2
_DOTSMALL
 10
4901.285990614302
 20
6696.395066522727
 30
0.0
 41
100.0
 42
100.0
 43
100.0
 50
270.0
  0
INSERT
  5
28188
330
27A9E
100
AcDbEntity
  8
寸法
 62
     0
 48
50.0
370
    -2
100
AcDbBlockReference
  2
_DOTSMALL
 10
4901.285990614302
 20
7429.395066522727
 30
0.0
 41
100.0
 42
100.0
 43
100.0
 50
90.0
  0
MTEXT
  5
28189
330
27A9E
100
AcDbEntity
  8
寸法
 62
     7
 48
50.0
100
AcDbMText
 10
4801.2859906143
 20
6988.989857216904
 30
0.0
 40
120.0
 41
0.0
 71
     5
 72
     1
  1
\A1;733
  7
STYLE1
 11
0.0000000000000001
 21
1.0
 31
0.0
 73
     1
 44
1.0
1001
ACAD
1000
MTEXTBEGIN
1070
    73
1070
     1
1070
    44
1040
1.0
1070
    74
1070
     0
1000
MTEXTEND
  0
POINT
  5
2818A
330
27A9E
100
AcDbEntity
  8
DEFPOINTS
 62
     0
 48
50.0
100
AcDbPoint
 10
5323.600000000007
 20
6696.395066522727
 30
0.0
  0
POINT
  5
2818B
330
27A9E
100
AcDbEntity
  8
DEFPOINTS
 62
     0
 48
50.0
100
AcDbPoint
 10
4992.765475140901
 20
7429.395066522727
 30
0.0
  0
POINT
  5
2818C
330
27A9E
100
AcDbEntity
  8
DEFPOINTS
 62
     0
 48
50.0
100
AcDbPoint
 10
4901.285990614302
 20
7429.395066522727
 30
0.0
  0
ENDBLK
  5
27AA9
330
27A9E
100
AcDbEntity
  8
0
 48
50.0
100
AcDbBlockEnd
  0
BLOCK
  5
27AB4
330
27AAA
100
AcDbEntity
  8
0
 48
50.0
100
AcDbBlockBegin
  2
*D33
 70
     1
 10
0.0
 20
0.0
 30
0.0
  3
*D33
  1

  0
LINE
  5
280D8
330
27AAA
100
AcDbEntity
  8
寸法
 62
     0
 48
50.0
370
    -2
100
AcDbLine
 10
4471.6
 20
7306.395066522728
 30
0.0
 11
3735.665006330073
 21
7306.395066522728
 31
0.0
  0
LINE
  5
280D9
330
27AAA
100
AcDbEntity
  8
寸法
 62
     0
 48
50.0
370
    -2
100
AcDbLine
 10
4471.600000000008
 20
6087.395066522731
 30
0.0
 11
3735.665006330072
 21
6087.395066522731
 31
0.0
  0
LINE
  5
280DA
330
27AAA
100
AcDbEntity
  8
寸法
 62
     0
 48
50.0
370
    -2
100
AcDbLine
 10
3795.665006330073
 20
7306.395066522728
 30
0.0
 11
3795.665006330072
 21
6087.395066522731
 31
0.0
  0
INSERT
  5
280DB
330
27AAA
100
AcDbEntity
  8
寸法
 62
     0
 48
50.0
370
    -2
100
AcDbBlockReference
  2
_DOTSMALL
 10
3795.665006330073
 20
7306.395066522728
 30
0.0
 41
100.0
 42
100.0
 43
100.0
 50
90.0
  0
INSERT
  5
280DC
330
27AAA
100
AcDbEntity
  8
寸法
 62
     0
 48
50.0
370
    -2
100
AcDbBlockReference
  2
_DOTSMALL
 10
3795.665006330072
 20
6087.395066522731
 30
0.0
 41
100.0
 42
100.0
 43
100.0
 50
270.0
  0
MTEXT
  5
280DD
330
27AAA
100
AcDbEntity
  8
寸法
 62
     7
 48
50.0
100
AcDbMText
 10
3695.653195306449
 20
6696.895066522728
 30
0.0
 40
120.0
 41
0.0
 71
     5
 72
     1
  1
\A1;1219
  7
STYLE1
 11
0.0000000000000001
 21
1.0
 31
0.0
 73
     1
 44
1.0
1001
ACAD
1000
MTEXTBEGIN
1070
    73
1070
     1
1070
    44
1040
1.0
1070
    74
1070
     0
1000
MTEXTEND
  0
POINT
  5
280DE
330
27AAA
100
AcDbEntity
  8
DEFPOINTS
 62
     0
 48
50.0
100
AcDbPoint
 10
4491.6
 20
7306.395066522728
 30
0.0
  0
POINT
  5
280DF
330
27AAA
100
AcDbEntity
  8
DEFPOINTS
 62
     0
 48
50.0
100
AcDbPoint
 10
4491.600000000008
 20
6087.395066522731
 30
0.0
  0
POINT
  5
280E0
330
27AAA
100
AcDbEntity
  8
DEFPOINTS
 62
     0
 48
50.0
100
AcDbPoint
 10
3795.665006330072
 20
6087.395066522731
 30
0.0
  0
ENDBLK
  5
27AB5
330
27AAA
100
AcDbEntity
  8
0
 48
50.0
100
AcDbBlockEnd
  0
BLOCK
  5
27AC0
330
27AB6
100
AcDbEntity
  8
0
 48
50.0
100
AcDbBlockBegin
  2
*D34
 70
     1
 10
0.0
 20
0.0
 30
0.0
  3
*D34
  1

  0
LINE
  5
28046
330
27AB6
100
AcDbEntity
  8
寸法
 62
     0
 48
50.0
370
    -2
100
AcDbLine
 10
4398.6
 20
7429.395066522727
 30
0.0
 11
3483.721909610674
 21
7429.395066522727
 31
0.0
  0
LINE
  5
28047
330
27AB6
100
AcDbEntity
  8
寸法
 62
     0
 48
50.0
370
    -2
100
AcDbLine
 10
4398.6
 20
5889.395066522728
 30
0.0
 11
3483.721909610674
 21
5889.395066522728
 31
0.0
  0
LINE
  5
28048
330
27AB6
100
AcDbEntity
  8
寸法
 62
     0
 48
50.0
370
    -2
100
AcDbLine
 10
3543.721909610674
 20
7429.395066522727
 30
0.0
 11
3543.721909610674
 21
5889.395066522728
 31
0.0
  0
INSERT
  5
28049
330
27AB6
100
AcDbEntity
  8
寸法
 62
     0
 48
50.0
370
    -2
100
AcDbBlockReference
  2
_DOTSMALL
 10
3543.721909610674
 20
7429.395066522727
 30
0.0
 41
100.0
 42
100.0
 43
100.0
 50
90.0
  0
INSERT
  5
2804A
330
27AB6
100
AcDbEntity
  8
寸法
 62
     0
 48
50.0
370
    -2
100
AcDbBlockReference
  2
_DOTSMALL
 10
3543.721909610674
 20
5889.395066522728
 30
0.0
 41
100.0
 42
100.0
 43
100.0
 50
270.0
  0
MTEXT
  5
2804B
330
27AB6
100
AcDbEntity
  8
寸法
 62
     7
 48
50.0
100
AcDbMText
 10
3443.721909610673
 20
6696.895066522728
 30
0.0
 40
120.0
 41
0.0
 71
     5
 72
     1
  1
\A1;1540
  7
STYLE1
 11
0.0000000000000001
 21
1.0
 31
0.0
 73
     1
 44
1.0
1001
ACAD
1000
MTEXTBEGIN
1070
    73
1070
     1
1070
    44
1040
1.0
1070
    74
1070
     0
1000
MTEXTEND
  0
POINT
  5
2804C
330
27AB6
100
AcDbEntity
  8
DEFPOINTS
 62
     0
 48
50.0
100
AcDbPoint
 10
4418.6
 20
7429.395066522727
 30
0.0
  0
POINT
  5
2804D
330
27AB6
100
AcDbEntity
  8
DEFPOINTS
 62
     0
 48
50.0
100
AcDbPoint
 10
4418.6
 20
5889.395066522728
 30
0.0
  0
POINT
  5
2804E
330
27AB6
100
AcDbEntity
  8
DEFPOINTS
 62
     0
 48
50.0
100
AcDbPoint
 10
3543.721909610674
 20
5889.395066522728
 30
0.0
  0
ENDBLK
  5
27AC1
330
27AB6
100
AcDbEntity
  8
0
 48
50.0
100
AcDbBlockEnd
  0
BLOCK
  5
27ACC
330
27AC2
100
AcDbEntity
  8
0
 48
50.0
100
AcDbBlockBegin
  2
*D35
 70
     1
 10
0.0
 20
0.0
 30
0.0
  3
*D35
  1

  0
LINE
  5
2814E
330
27AC2
100
AcDbEntity
  8
寸法
 62
     0
 48
50.0
370
    -2
100
AcDbLine
 10
8223.600000000008
 20
6766.395066522727
 30
0.0
 11
8223.600000000008
 21
7972.003883192975
 31
0.0
  0
LINE
  5
2814F
330
27AC2
100
AcDbEntity
  8
寸法
 62
     0
 48
50.0
370
    -2
100
AcDbLine
 10
7273.600000000008
 20
6766.395066522727
 30
0.0
 11
7273.600000000008
 21
7972.003883192975
 31
0.0
  0
LINE
  5
28150
330
27AC2
100
AcDbEntity
  8
寸法
 62
     0
 48
50.0
370
    -2
100
AcDbLine
 10
8223.600000000008
 20
7912.003883192976
 30
0.0
 11
7273.600000000008
 21
7912.003883192976
 31
0.0
  0
INSERT
  5
28151
330
27AC2
100
AcDbEntity
  8
寸法
 62
     0
 48
50.0
370
    -2
100
AcDbBlockReference
  2
_DOTSMALL
 10
8223.600000000008
 20
7912.003883192976
 30
0.0
 41
100.0
 42
100.0
 43
100.0
  0
INSERT
  5
28152
330
27AC2
100
AcDbEntity
  8
寸法
 62
     0
 48
50.0
370
    -2
100
AcDbBlockReference
  2
_DOTSMALL
 10
7273.600000000008
 20
7912.003883192976
 30
0.0
 41
100.0
 42
100.0
 43
100.0
 50
180.0
  0
MTEXT
  5
28153
330
27AC2
100
AcDbEntity
  8
寸法
 62
     7
 48
50.0
100
AcDbMText
 10
7748.600000000007
 20
8012.003883192976
 30
0.0
 40
120.0
 41
0.0
 71
     5
 72
     1
  1
\A1;950
  7
STYLE1
 73
     1
 44
1.0
1001
ACAD
1000
MTEXTBEGIN
1070
    73
1070
     1
1070
    44
1040
1.0
1070
    74
1070
     0
1000
MTEXTEND
  0
POINT
  5
28154
330
27AC2
100
AcDbEntity
  8
DEFPOINTS
 62
     0
 48
50.0
100
AcDbPoint
 10
8223.600000000008
 20
6746.395066522727
 30
0.0
  0
POINT
  5
28155
330
27AC2
100
AcDbEntity
  8
DEFPOINTS
 62
     0
 48
50.0
100
AcDbPoint
 10
7273.600000000008
 20
6746.395066522727
 30
0.0
  0
POINT
  5
28156
330
27AC2
100
AcDbEntity
  8
DEFPOINTS
 62
     0
 48
50.0
100
AcDbPoint
 10
7273.600000000008
 20
7912.003883192976
 30
0.0
  0
ENDBLK
  5
27ACD
330
27AC2
100
AcDbEntity
  8
0
 48
50.0
100
AcDbBlockEnd
  0
BLOCK
  5
27AD8
330
27ACE
100
AcDbEntity
  8
0
 48
50.0
100
AcDbBlockBegin
  2
*D36
 70
     1
 10
0.0
 20
0.0
 30
0.0
  3
*D36
  1

  0
LINE
  5
2817B
330
27ACE
100
AcDbEntity
  8
寸法
 62
     0
 48
50.0
370
    -2
100
AcDbLine
 10
4972.765475140901
 20
5889.395066522738
 30
0.0
 11
4841.285990614301
 21
5889.395066522738
 31
0.0
  0
LINE
  5
2817C
330
27ACE
100
AcDbEntity
  8
寸法
 62
     0
 48
50.0
370
    -2
100
AcDbLine
 10
5303.600000000008
 20
6696.395066522727
 30
0.0
 11
4841.285990614302
 21
6696.395066522727
 31
0.0
  0
LINE
  5
2817D
330
27ACE
100
AcDbEntity
  8
寸法
 62
     0
 48
50.0
370
    -2
100
AcDbLine
 10
4901.285990614301
 20
5889.395066522738
 30
0.0
 11
4901.285990614302
 21
6696.395066522727
 31
0.0
  0
INSERT
  5
2817E
330
27ACE
100
AcDbEntity
  8
寸法
 62
     0
 48
50.0
370
    -2
100
AcDbBlockReference
  2
_DOTSMALL
 10
4901.285990614301
 20
5889.395066522738
 30
0.0
 41
100.0
 42
100.0
 43
100.0
 50
270.0
  0
INSERT
  5
2817F
330
27ACE
100
AcDbEntity
  8
寸法
 62
     0
 48
50.0
370
    -2
100
AcDbBlockReference
  2
_DOTSMALL
 10
4901.285990614302
 20
6696.395066522727
 30
0.0
 41
100.0
 42
100.0
 43
100.0
 50
90.0
  0
MTEXT
  5
28180
330
27ACE
100
AcDbEntity
  8
寸法
 62
     7
 48
50.0
100
AcDbMText
 10
4801.2859906143
 20
6374.395066522727
 30
0.0
 40
120.0
 41
0.0
 71
     5
 72
     1
  1
\A1;807
  7
STYLE1
 11
0.0000000000000001
 21
1.0
 31
0.0
 73
     1
 44
1.0
1001
ACAD
1000
MTEXTBEGIN
1070
    73
1070
     1
1070
    44
1040
1.0
1070
    74
1070
     0
1000
MTEXTEND
  0
POINT
  5
28181
330
27ACE
100
AcDbEntity
  8
DEFPOINTS
 62
     0
 48
50.0
100
AcDbPoint
 10
4992.765475140901
 20
5889.395066522738
 30
0.0
  0
POINT
  5
28182
330
27ACE
100
AcDbEntity
  8
DEFPOINTS
 62
     0
 48
50.0
100
AcDbPoint
 10
5323.600000000007
 20
6696.395066522727
 30
0.0
  0
POINT
  5
28183
330
27ACE
100
AcDbEntity
  8
DEFPOINTS
 62
     0
 48
50.0
100
AcDbPoint
 10
4901.285990614302
 20
6696.395066522727
 30
0.0
  0
ENDBLK
  5
27AD9
330
27ACE
100
AcDbEntity
  8
0
 48
50.0
100
AcDbBlockEnd
  0
BLOCK
  5
27AF0
330
27AE6
100
AcDbEntity
  8
0
 48
50.0
100
AcDbBlockBegin
  2
*D37
 70
     1
 10
0.0
 20
0.0
 30
0.0
  3
*D37
  1

  0
LINE
  5
28029
330
27AE6
100
AcDbEntity
  8
寸法
 62
     0
 48
50.0
370
    -2
100
AcDbLine
 10
4398.600000000004
 20
5889.395066522691
 30
0.0
 11
4245.512673767881
 21
5889.395066522691
 31
0.0
  0
LINE
  5
2802A
330
27AE6
100
AcDbEntity
  8
寸法
 62
     0
 48
50.0
370
    -2
100
AcDbLine
 10
4754.325326928809
 20
5169.395066522691
 30
0.0
 11
4245.512673767881
 21
5169.395066522691
 31
0.0
  0
LINE
  5
2802B
330
27AE6
100
AcDbEntity
  8
寸法
 62
     0
 48
50.0
370
    -2
100
AcDbLine
 10
4305.512673767881
 20
5889.395066522691
 30
0.0
 11
4305.512673767881
 21
5169.395066522691
 31
0.0
  0
INSERT
  5
2802C
330
27AE6
100
AcDbEntity
  8
寸法
 62
     0
 48
50.0
370
    -2
100
AcDbBlockReference
  2
_DOTSMALL
 10
4305.512673767881
 20
5889.395066522691
 30
0.0
 41
100.0
 42
100.0
 43
100.0
 50
90.0
  0
INSERT
  5
2802D
330
27AE6
100
AcDbEntity
  8
寸法
 62
     0
 48
50.0
370
    -2
100
AcDbBlockReference
  2
_DOTSMALL
 10
4305.512673767881
 20
5169.395066522691
 30
0.0
 41
100.0
 42
100.0
 43
100.0
 50
270.0
  0
MTEXT
  5
2802E
330
27AE6
100
AcDbEntity
  8
寸法
 62
     7
 48
50.0
100
AcDbMText
 10
4205.500862744258
 20
5529.395066522692
 30
0.0
 40
120.0
 41
0.0
 71
     5
 72
     1
  1
\A1;扉の出720
  7
STYLE1
 11
0.0000000000000001
 21
1.0
 31
0.0
 73
     1
 44
1.0
1001
ACAD
1000
MTEXTBEGIN
1070
    73
1070
     1
1070
    44
1040
1.0
1070
    74
1070
     0
1000
MTEXTEND
  0
POINT
  5
2802F
330
27AE6
100
AcDbEntity
  8
DEFPOINTS
 62
     0
 48
50.0
100
AcDbPoint
 10
4418.600000000004
 20
5889.395066522691
 30
0.0
  0
POINT
  5
28030
330
27AE6
100
AcDbEntity
  8
DEFPOINTS
 62
     0
 48
50.0
100
AcDbPoint
 10
4774.325326928809
 20
5169.395066522691
 30
0.0
  0
POINT
  5
28031
330
27AE6
100
AcDbEntity
  8
DEFPOINTS
 62
     0
 48
50.0
100
AcDbPoint
 10
4305.512673767881
 20
5169.395066522691
 30
0.0
  0
ENDBLK
  5
27AF1
330
27AE6
100
AcDbEntity
  8
0
 48
50.0
100
AcDbBlockEnd
  0
BLOCK
  5
27AFD
330
27AF2
100
AcDbEntity
  8
0
 48
50.0
100
AcDbBlockBegin
  2
*D38
 70
     1
 10
0.0
 20
0.0
 30
0.0
  3
*D38
  1

  0
LINE
  5
280CE
330
27AF2
100
AcDbEntity
  8
寸法
 62
     0
 48
50.0
370
    -2
100
AcDbLine
 10
4471.600000000008
 20
6087.395066522731
 30
0.0
 11
3735.665006330072
 21
6087.395066522731
 31
0.0
  0
LINE
  5
280CF
330
27AF2
100
AcDbEntity
  8
寸法
 62
     0
 48
50.0
370
    -2
100
AcDbLine
 10
4398.6
 20
5889.395066522728
 30
0.0
 11
3735.665006330072
 21
5889.395066522728
 31
0.0
  0
LINE
  5
280D0
330
27AF2
100
AcDbEntity
  8
寸法
 62
     0
 48
50.0
370
    -2
100
AcDbLine
 10
3795.665006330072
 20
6087.395066522731
 30
0.0
 11
3795.665006330072
 21
5889.395066522728
 31
0.0
  0
LINE
  5
280D1
330
27AF2
100
AcDbEntity
  8
寸法
 62
     0
 48
50.0
370
    -2
100
AcDbLine
 10
3795.665006330072
 20
5889.395066522728
 30
0.0
 11
3795.665006330072
 21
5417.654457850478
 31
0.0
  0
INSERT
  5
280D2
330
27AF2
100
AcDbEntity
  8
寸法
 62
     0
 48
50.0
370
    -2
100
AcDbBlockReference
  2
_DOTSMALL
 10
3795.665006330072
 20
6087.395066522731
 30
0.0
 41
100.0
 42
100.0
 43
100.0
 50
90.0
  0
INSERT
  5
280D3
330
27AF2
100
AcDbEntity
  8
寸法
 62
     0
 48
50.0
370
    -2
100
AcDbBlockReference
  2
_DOTSMALL
 10
3795.665006330072
 20
5889.395066522728
 30
0.0
 41
100.0
 42
100.0
 43
100.0
 50
270.0
  0
MTEXT
  5
280D4
330
27AF2
100
AcDbEntity
  8
寸法
 62
     7
 48
50.0
100
AcDbMText
 10
3695.665006330071
 20
5553.864117680135
 30
0.0
 40
120.0
 41
0.0
 71
     5
 72
     1
  1
\A1;198
  7
STYLE1
 11
0.0000000000000001
 21
1.0
 31
0.0
 73
     1
 44
1.0
1001
ACAD
1000
MTEXTBEGIN
1070
    73
1070
     1
1070
    44
1040
1.0
1070
    74
1070
     0
1000
MTEXTEND
  0
POINT
  5
280D5
330
27AF2
100
AcDbEntity
  8
DEFPOINTS
 62
     0
 48
50.0
100
AcDbPoint
 10
4491.600000000008
 20
6087.395066522731
 30
0.0
  0
POINT
  5
280D6
330
27AF2
100
AcDbEntity
  8
DEFPOINTS
 62
     0
 48
50.0
100
AcDbPoint
 10
4418.6
 20
5889.395066522728
 30
0.0
  0
POINT
  5
280D7
330
27AF2
100
AcDbEntity
  8
DEFPOINTS
 62
     0
 48
50.0
100
AcDbPoint
 10
3795.665006330072
 20
5889.395066522728
 30
0.0
  0
ENDBLK
  5
27AFE
330
27AF2
100
AcDbEntity
  8
0
 48
50.0
100
AcDbBlockEnd
  0
BLOCK
  5
27B15
330
27B0C
100
AcDbEntity
  8
0
 48
50.0
100
AcDbBlockBegin
  2
*D39
 70
     1
 10
0.0
 20
0.0
 30
0.0
  3
*D39
  1

  0
LINE
  5
27FE1
330
27B0C
100
AcDbEntity
  8
寸法
 62
     0
 48
50.0
370
    -2
100
AcDbLine
 10
7155.600000000001
 20
7376.395066522729
 30
0.0
 11
7155.600000000001
 21
8215.661524616638
 31
0.0
  0
LINE
  5
27FE2
330
27B0C
100
AcDbEntity
  8
寸法
 62
     0
 48
50.0
370
    -2
100
AcDbLine
 10
4541.6
 20
7376.395066522729
 30
0.0
 11
4541.6
 21
8215.661524616638
 31
0.0
  0
LINE
  5
27FE3
330
27B0C
100
AcDbEntity
  8
寸法
 62
     0
 48
50.0
370
    -2
100
AcDbLine
 10
7155.600000000001
 20
8155.661524616638
 30
0.0
 11
4541.6
 21
8155.661524616638
 31
0.0
  0
INSERT
  5
27FE4
330
27B0C
100
AcDbEntity
  8
寸法
 62
     0
 48
50.0
370
    -2
100
AcDbBlockReference
  2
_DOTSMALL
 10
7155.600000000001
 20
8155.661524616638
 30
0.0
 41
100.0
 42
100.0
 43
100.0
  0
INSERT
  5
27FE5
330
27B0C
100
AcDbEntity
  8
寸法
 62
     0
 48
50.0
370
    -2
100
AcDbBlockReference
  2
_DOTSMALL
 10
4541.6
 20
8155.661524616638
 30
0.0
 41
100.0
 42
100.0
 43
100.0
 50
180.0
  0
MTEXT
  5
27FE6
330
27B0C
100
AcDbEntity
  8
寸法
 62
     7
 48
50.0
100
AcDbMText
 10
5848.600000000001
 20
8255.67333564026
 30
0.0
 40
120.0
 41
0.0
 71
     5
 72
     1
  1
\A1;2614
  7
STYLE1
 73
     1
 44
1.0
1001
ACAD
1000
MTEXTBEGIN
1070
    73
1070
     1
1070
    44
1040
1.0
1070
    74
1070
     0
1000
MTEXTEND
  0
POINT
  5
27FE7
330
27B0C
100
AcDbEntity
  8
DEFPOINTS
 62
     0
 48
50.0
100
AcDbPoint
 10
7155.600000000001
 20
7356.395066522728
 30
0.0
  0
POINT
  5
27FE8
330
27B0C
100
AcDbEntity
  8
DEFPOINTS
 62
     0
 48
50.0
100
AcDbPoint
 10
4541.6
 20
7356.395066522728
 30
0.0
  0
POINT
  5
27FE9
330
27B0C
100
AcDbEntity
  8
DEFPOINTS
 62
     0
 48
50.0
100
AcDbPoint
 10
4541.6
 20
8155.661524616638
 30
0.0
  0
ENDBLK
  5
27B16
330
27B0C
100
AcDbEntity
  8
0
 48
50.0
100
AcDbBlockEnd
  0
BLOCK
  5
27B39
330
27B2E
100
AcDbEntity
  8
0
 48
50.0
100
AcDbBlockBegin
  2
*D40
 70
     1
 10
0.0
 20
0.0
 30
0.0
  3
*D40
  1

  0
LINE
  5
27FD7
330
27B2E
100
AcDbEntity
  8
寸法
 62
     0
 48
50.0
370
    -2
100
AcDbLine
 10
4541.6
 20
7376.395066522729
 30
0.0
 11
4541.6
 21
8215.661524616638
 31
0.0
  0
LINE
  5
27FD8
330
27B2E
100
AcDbEntity
  8
寸法
 62
     0
 48
50.0
370
    -2
100
AcDbLine
 10
4418.6
 20
7449.395066522727
 30
0.0
 11
4418.6
 21
8215.661524616638
 31
0.0
  0
LINE
  5
27FD9
330
27B2E
100
AcDbEntity
  8
寸法
 62
     0
 48
50.0
370
    -2
100
AcDbLine
 10
4541.6
 20
8155.661524616638
 30
0.0
 11
4418.6
 21
8155.661524616638
 31
0.0
  0
LINE
  5
27FDA
330
27B2E
100
AcDbEntity
  8
寸法
 62
     0
 48
50.0
370
    -2
100
AcDbLine
 10
4418.6
 20
8155.661524616638
 30
0.0
 11
4007.008116907963
 21
8155.661524616638
 31
0.0
  0
INSERT
  5
27FDB
330
27B2E
100
AcDbEntity
  8
寸法
 62
     0
 48
50.0
370
    -2
100
AcDbBlockReference
  2
_DOTSMALL
 10
4541.6
 20
8155.661524616638
 30
0.0
 41
100.0
 42
100.0
 43
100.0
  0
INSERT
  5
27FDC
330
27B2E
100
AcDbEntity
  8
寸法
 62
     0
 48
50.0
370
    -2
100
AcDbBlockReference
  2
_DOTSMALL
 10
4418.6
 20
8155.661524616638
 30
0.0
 41
100.0
 42
100.0
 43
100.0
 50
180.0
  0
MTEXT
  5
27FDD
330
27B2E
100
AcDbEntity
  8
寸法
 62
     7
 48
50.0
100
AcDbMText
 10
4145.493398282201
 20
8255.67333564026
 30
0.0
 40
120.0
 41
0.0
 71
     5
 72
     1
  1
\A1;123
  7
STYLE1
 73
     1
 44
1.0
1001
ACAD
1000
MTEXTBEGIN
1070
    73
1070
     1
1070
    44
1040
1.0
1070
    74
1070
     0
1000
MTEXTEND
  0
POINT
  5
27FDE
330
27B2E
100
AcDbEntity
  8
DEFPOINTS
 62
     0
 48
50.0
100
AcDbPoint
 10
4541.6
 20
7356.395066522728
 30
0.0
  0
POINT
  5
27FDF
330
27B2E
100
AcDbEntity
  8
DEFPOINTS
 62
     0
 48
50.0
100
AcDbPoint
 10
4418.6
 20
7429.395066522727
 30
0.0
  0
POINT
  5
27FE0
330
27B2E
100
AcDbEntity
  8
DEFPOINTS
 62
     0
 48
50.0
100
AcDbPoint
 10
4418.6
 20
8155.661524616638
 30
0.0
  0
ENDBLK
  5
27B3A
330
27B2E
100
AcDbEntity
  8
0
 48
50.0
100
AcDbBlockEnd
  0
BLOCK
  5
27B46
330
27B3B
100
AcDbEntity
  8
0
 48
50.0
100
AcDbBlockBegin
  2
*D41
 70
     1
 10
0.0
 20
0.0
 30
0.0
  3
*D41
  1

  0
LINE
  5
28032
330
27B3B
100
AcDbEntity
  8
寸法
 62
     0
 48
50.0
370
    -2
100
AcDbLine
 10
4398.6
 20
7429.395066522727
 30
0.0
 11
3735.665006330073
 21
7429.395066522727
 31
0.0
  0
LINE
  5
28033
330
27B3B
100
AcDbEntity
  8
寸法
 62
     0
 48
50.0
370
    -2
100
AcDbLine
 10
4471.6
 20
7306.395066522728
 30
0.0
 11
3735.665006330073
 21
7306.395066522728
 31
0.0
  0
LINE
  5
28034
330
27B3B
100
AcDbEntity
  8
寸法
 62
     0
 48
50.0
370
    -2
100
AcDbLine
 10
3795.665006330073
 20
7306.395066522728
 30
0.0
 11
3795.665006330073
 21
7429.395066522727
 31
0.0
  0
LINE
  5
28035
330
27B3B
100
AcDbEntity
  8
寸法
 62
     0
 48
50.0
370
    -2
100
AcDbLine
 10
3795.665006330073
 20
7429.395066522727
 30
0.0
 11
3795.665006330073
 21
7840.986949614766
 31
0.0
  0
INSERT
  5
28036
330
27B3B
100
AcDbEntity
  8
寸法
 62
     0
 48
50.0
370
    -2
100
AcDbBlockReference
  2
_DOTSMALL
 10
3795.665006330073
 20
7306.395066522728
 30
0.0
 41
100.0
 42
100.0
 43
100.0
 50
270.0
  0
INSERT
  5
28037
330
27B3B
100
AcDbEntity
  8
寸法
 62
     0
 48
50.0
370
    -2
100
AcDbBlockReference
  2
_DOTSMALL
 10
3795.665006330073
 20
7429.395066522727
 30
0.0
 41
100.0
 42
100.0
 43
100.0
 50
90.0
  0
MTEXT
  5
28038
330
27B3B
100
AcDbEntity
  8
寸法
 62
     7
 48
50.0
100
AcDbMText
 10
3695.653195306449
 20
7702.501668240528
 30
0.0
 40
120.0
 41
0.0
 71
     5
 72
     1
  1
\A1;123
  7
STYLE1
 11
0.0000000000000001
 21
1.0
 31
0.0
 73
     1
 44
1.0
1001
ACAD
1000
MTEXTBEGIN
1070
    73
1070
     1
1070
    44
1040
1.0
1070
    74
1070
     0
1000
MTEXTEND
  0
POINT
  5
28039
330
27B3B
100
AcDbEntity
  8
DEFPOINTS
 62
     0
 48
50.0
100
AcDbPoint
 10
4418.6
 20
7429.395066522727
 30
0.0
  0
POINT
  5
2803A
330
27B3B
100
AcDbEntity
  8
DEFPOINTS
 62
     0
 48
50.0
100
AcDbPoint
 10
4491.6
 20
7306.395066522728
 30
0.0
  0
POINT
  5
2803B
330
27B3B
100
AcDbEntity
  8
DEFPOINTS
 62
     0
 48
50.0
100
AcDbPoint
 10
3795.665006330073
 20
7306.395066522728
 30
0.0
  0
ENDBLK
  5
27B47
330
27B3B
100
AcDbEntity
  8
0
 48
50.0
100
AcDbBlockEnd
  0
BLOCK
  5
27B5F
330
27B55
100
AcDbEntity
  8
0
 48
50.0
100
AcDbBlockBegin
  2
*D42
 70
     1
 10
0.0
 20
0.0
 30
0.0
  3
*D42
  1

  0
LINE
  5
28118
330
27B55
100
AcDbEntity
  8
寸法
 62
     0
 48
50.0
370
    -2
100
AcDbLine
 10
11073.60000000001
 20
6766.395066522727
 30
0.0
 11
11073.60000000001
 21
7972.003883192975
 31
0.0
  0
LINE
  5
28119
330
27B55
100
AcDbEntity
  8
寸法
 62
     0
 48
50.0
370
    -2
100
AcDbLine
 10
10123.60000000001
 20
6769.395066522728
 30
0.0
 11
10123.60000000001
 21
7972.003883192975
 31
0.0
  0
LINE
  5
2811A
330
27B55
100
AcDbEntity
  8
寸法
 62
     0
 48
50.0
370
    -2
100
AcDbLine
 10
11073.60000000001
 20
7912.003883192976
 30
0.0
 11
10123.60000000001
 21
7912.003883192976
 31
0.0
  0
INSERT
  5
2811B
330
27B55
100
AcDbEntity
  8
寸法
 62
     0
 48
50.0
370
    -2
100
AcDbBlockReference
  2
_DOTSMALL
 10
11073.60000000001
 20
7912.003883192976
 30
0.0
 41
100.0
 42
100.0
 43
100.0
  0
INSERT
  5
2811C
330
27B55
100
AcDbEntity
  8
寸法
 62
     0
 48
50.0
370
    -2
100
AcDbBlockReference
  2
_DOTSMALL
 10
10123.60000000001
 20
7912.003883192976
 30
0.0
 41
100.0
 42
100.0
 43
100.0
 50
180.0
  0
MTEXT
  5
2811D
330
27B55
100
AcDbEntity
  8
寸法
 62
     7
 48
50.0
100
AcDbMText
 10
10598.60000000001
 20
8012.003883192976
 30
0.0
 40
120.0
 41
0.0
 71
     5
 72
     1
  1
\A1;950
  7
STYLE1
 73
     1
 44
1.0
1001
ACAD
1000
MTEXTBEGIN
1070
    73
1070
     1
1070
    44
1040
1.0
1070
    74
1070
     0
1000
MTEXTEND
  0
POINT
  5
2811E
330
27B55
100
AcDbEntity
  8
DEFPOINTS
 62
     0
 48
50.0
100
AcDbPoint
 10
11073.60000000001
 20
6746.395066522727
 30
0.0
  0
POINT
  5
2811F
330
27B55
100
AcDbEntity
  8
DEFPOINTS
 62
     0
 48
50.0
100
AcDbPoint
 10
10123.60000000001
 20
6749.395066522727
 30
0.0
  0
POINT
  5
28120
330
27B55
100
AcDbEntity
  8
DEFPOINTS
 62
     0
 48
50.0
100
AcDbPoint
 10
10123.60000000001
 20
7912.003883192976
 30
0.0
  0
ENDBLK
  5
27B60
330
27B55
100
AcDbEntity
  8
0
 48
50.0
100
AcDbBlockEnd
  0
BLOCK
  5
27B6B
330
27B61
100
AcDbEntity
  8
0
 48
50.0
100
AcDbBlockBegin
  2
*D43
 70
     1
 10
0.0
 20
0.0
 30
0.0
  3
*D43
  1

  0
LINE
  5
2812A
330
27B61
100
AcDbEntity
  8
寸法
 62
     0
 48
50.0
370
    -2
100
AcDbLine
 10
10123.60000000001
 20
6769.395066522728
 30
0.0
 11
10123.60000000001
 21
7972.003883192975
 31
0.0
  0
LINE
  5
2812B
330
27B61
100
AcDbEntity
  8
寸法
 62
     0
 48
50.0
370
    -2
100
AcDbLine
 10
9173.600000000007
 20
6766.395066522727
 30
0.0
 11
9173.600000000007
 21
7972.003883192975
 31
0.0
  0
LINE
  5
2812C
330
27B61
100
AcDbEntity
  8
寸法
 62
     0
 48
50.0
370
    -2
100
AcDbLine
 10
10123.60000000001
 20
7912.003883192976
 30
0.0
 11
9173.600000000007
 21
7912.003883192976
 31
0.0
  0
INSERT
  5
2812D
330
27B61
100
AcDbEntity
  8
寸法
 62
     0
 48
50.0
370
    -2
100
AcDbBlockReference
  2
_DOTSMALL
 10
10123.60000000001
 20
7912.003883192976
 30
0.0
 41
100.0
 42
100.0
 43
100.0
  0
INSERT
  5
2812E
330
27B61
100
AcDbEntity
  8
寸法
 62
     0
 48
50.0
370
    -2
100
AcDbBlockReference
  2
_DOTSMALL
 10
9173.600000000007
 20
7912.003883192976
 30
0.0
 41
100.0
 42
100.0
 43
100.0
 50
180.0
  0
MTEXT
  5
2812F
330
27B61
100
AcDbEntity
  8
寸法
 62
     7
 48
50.0
100
AcDbMText
 10
9648.600000000008
 20
8012.003883192976
 30
0.0
 40
120.0
 41
0.0
 71
     5
 72
     1
  1
\A1;950
  7
STYLE1
 73
     1
 44
1.0
1001
ACAD
1000
MTEXTBEGIN
1070
    73
1070
     1
1070
    44
1040
1.0
1070
    74
1070
     0
1000
MTEXTEND
  0
POINT
  5
28130
330
27B61
100
AcDbEntity
  8
DEFPOINTS
 62
     0
 48
50.0
100
AcDbPoint
 10
10123.60000000001
 20
6749.395066522727
 30
0.0
  0
POINT
  5
28131
330
27B61
100
AcDbEntity
  8
DEFPOINTS
 62
     0
 48
50.0
100
AcDbPoint
 10
9173.600000000007
 20
6746.395066522727
 30
0.0
  0
POINT
  5
28132
330
27B61
100
AcDbEntity
  8
DEFPOINTS
 62
     0
 48
50.0
100
AcDbPoint
 10
9173.600000000007
 20
7912.003883192976
 30
0.0
  0
ENDBLK
  5
27B6C
330
27B61
100
AcDbEntity
  8
0
 48
50.0
100
AcDbBlockEnd
  0
BLOCK
  5
27B77
330
27B6D
100
AcDbEntity
  8
0
 48
50.0
100
AcDbBlockBegin
  2
*D44
 70
     1
 10
0.0
 20
0.0
 30
0.0
  3
*D44
  1

  0
LINE
  5
280FD
330
27B6D
100
AcDbEntity
  8
寸法
 62
     0
 48
50.0
370
    -2
100
AcDbLine
 10
12028.6
 20
7449.395066522727
 30
0.0
 11
12028.6
 21
7972.003883192975
 31
0.0
  0
LINE
  5
280FE
330
27B6D
100
AcDbEntity
  8
寸法
 62
     0
 48
50.0
370
    -2
100
AcDbLine
 10
11073.60000000001
 20
6766.395066522727
 30
0.0
 11
11073.60000000001
 21
7972.003883192975
 31
0.0
  0
LINE
  5
280FF
330
27B6D
100
AcDbEntity
  8
寸法
 62
     0
 48
50.0
370
    -2
100
AcDbLine
 10
12028.6
 20
7912.003883192976
 30
0.0
 11
11073.60000000001
 21
7912.003883192976
 31
0.0
  0
INSERT
  5
28100
330
27B6D
100
AcDbEntity
  8
寸法
 62
     0
 48
50.0
370
    -2
100
AcDbBlockReference
  2
_DOTSMALL
 10
12028.6
 20
7912.003883192976
 30
0.0
 41
100.0
 42
100.0
 43
100.0
  0
INSERT
  5
28101
330
27B6D
100
AcDbEntity
  8
寸法
 62
     0
 48
50.0
370
    -2
100
AcDbBlockReference
  2
_DOTSMALL
 10
11073.60000000001
 20
7912.003883192976
 30
0.0
 41
100.0
 42
100.0
 43
100.0
 50
180.0
  0
MTEXT
  5
28102
330
27B6D
100
AcDbEntity
  8
寸法
 62
     7
 48
50.0
100
AcDbMText
 10
11551.1
 20
8012.003883192976
 30
0.0
 40
120.0
 41
0.0
 71
     5
 72
     1
  1
\A1;955
  7
STYLE1
 73
     1
 44
1.0
1001
ACAD
1000
MTEXTBEGIN
1070
    73
1070
     1
1070
    44
1040
1.0
1070
    74
1070
     0
1000
MTEXTEND
  0
POINT
  5
28103
330
27B6D
100
AcDbEntity
  8
DEFPOINTS
 62
     0
 48
50.0
100
AcDbPoint
 10
12028.6
 20
7429.395066522727
 30
0.0
  0
POINT
  5
28104
330
27B6D
100
AcDbEntity
  8
DEFPOINTS
 62
     0
 48
50.0
100
AcDbPoint
 10
11073.60000000001
 20
6746.395066522727
 30
0.0
  0
POINT
  5
28105
330
27B6D
100
AcDbEntity
  8
DEFPOINTS
 62
     0
 48
50.0
100
AcDbPoint
 10
11073.60000000001
 20
7912.003883192976
 30
0.0
  0
ENDBLK
  5
27B78
330
27B6D
100
AcDbEntity
  8
0
 48
50.0
100
AcDbBlockEnd
  0
BLOCK
  5
27B83
330
27B79
100
AcDbEntity
  8
0
 48
50.0
100
AcDbBlockBegin
  2
*D45
 70
     1
 10
0.0
 20
0.0
 30
0.0
  3
*D45
  1

  0
LINE
  5
27FB3
330
27B79
100
AcDbEntity
  8
寸法
 62
     0
 48
50.0
370
    -2
100
AcDbLine
 10
11905.6
 20
7376.395066522729
 30
0.0
 11
11905.6
 21
8215.661524616638
 31
0.0
  0
LINE
  5
27FB4
330
27B79
100
AcDbEntity
  8
寸法
 62
     0
 48
50.0
370
    -2
100
AcDbLine
 10
9055.600000000001
 20
7376.395066522729
 30
0.0
 11
9055.600000000001
 21
8215.661524616638
 31
0.0
  0
LINE
  5
27FB5
330
27B79
100
AcDbEntity
  8
寸法
 62
     0
 48
50.0
370
    -2
100
AcDbLine
 10
11905.6
 20
8155.661524616638
 30
0.0
 11
9055.600000000001
 21
8155.661524616638
 31
0.0
  0
INSERT
  5
27FB6
330
27B79
100
AcDbEntity
  8
寸法
 62
     0
 48
50.0
370
    -2
100
AcDbBlockReference
  2
_DOTSMALL
 10
11905.6
 20
8155.661524616638
 30
0.0
 41
100.0
 42
100.0
 43
100.0
  0
INSERT
  5
27FB7
330
27B79
100
AcDbEntity
  8
寸法
 62
     0
 48
50.0
370
    -2
100
AcDbBlockReference
  2
_DOTSMALL
 10
9055.600000000001
 20
8155.661524616638
 30
0.0
 41
100.0
 42
100.0
 43
100.0
 50
180.0
  0
MTEXT
  5
27FB8
330
27B79
100
AcDbEntity
  8
寸法
 62
     7
 48
50.0
100
AcDbMText
 10
10480.6
 20
8255.67333564026
 30
0.0
 40
120.0
 41
0.0
 71
     5
 72
     1
  1
\A1;2850
  7
STYLE1
 73
     1
 44
1.0
1001
ACAD
1000
MTEXTBEGIN
1070
    73
1070
     1
1070
    44
1040
1.0
1070
    74
1070
     0
1000
MTEXTEND
  0
POINT
  5
27FB9
330
27B79
100
AcDbEntity
  8
DEFPOINTS
 62
     0
 48
50.0
100
AcDbPoint
 10
11905.6
 20
7356.395066522728
 30
0.0
  0
POINT
  5
27FBA
330
27B79
100
AcDbEntity
  8
DEFPOINTS
 62
     0
 48
50.0
100
AcDbPoint
 10
9055.600000000001
 20
7356.395066522728
 30
0.0
  0
POINT
  5
27FBB
330
27B79
100
AcDbEntity
  8
DEFPOINTS
 62
     0
 48
50.0
100
AcDbPoint
 10
9055.600000000001
 20
8155.661524616638
 30
0.0
  0
ENDBLK
  5
27B84
330
27B79
100
AcDbEntity
  8
0
 48
50.0
100
AcDbBlockEnd
  0
BLOCK
  5
27B9D
330
27B92
100
AcDbEntity
  8
0
 48
50.0
100
AcDbBlockBegin
  2
*D46
 70
     1
 10
0.0
 20
0.0
 30
0.0
  3
*D46
  1

  0
LINE
  5
27FA9
330
27B92
100
AcDbEntity
  8
寸法
 62
     0
 48
50.0
370
    -2
100
AcDbLine
 10
12028.6
 20
7449.395066522727
 30
0.0
 11
12028.6
 21
8215.661524616638
 31
0.0
  0
LINE
  5
27FAA
330
27B92
100
AcDbEntity
  8
寸法
 62
     0
 48
50.0
370
    -2
100
AcDbLine
 10
11905.6
 20
7376.395066522729
 30
0.0
 11
11905.6
 21
8215.661524616638
 31
0.0
  0
LINE
  5
27FAB
330
27B92
100
AcDbEntity
  8
寸法
 62
     0
 48
50.0
370
    -2
100
AcDbLine
 10
11905.6
 20
8155.661524616638
 30
0.0
 11
12028.6
 21
8155.661524616638
 31
0.0
  0
LINE
  5
27FAC
330
27B92
100
AcDbEntity
  8
寸法
 62
     0
 48
50.0
370
    -2
100
AcDbLine
 10
12028.6
 20
8155.661524616638
 30
0.0
 11
12440.19188309203
 21
8155.661524616638
 31
0.0
  0
INSERT
  5
27FAD
330
27B92
100
AcDbEntity
  8
寸法
 62
     0
 48
50.0
370
    -2
100
AcDbBlockReference
  2
_DOTSMALL
 10
11905.6
 20
8155.661524616638
 30
0.0
 41
100.0
 42
100.0
 43
100.0
 50
180.0
  0
INSERT
  5
27FAE
330
27B92
100
AcDbEntity
  8
寸法
 62
     0
 48
50.0
370
    -2
100
AcDbBlockReference
  2
_DOTSMALL
 10
12028.6
 20
8155.661524616638
 30
0.0
 41
100.0
 42
100.0
 43
100.0
  0
MTEXT
  5
27FAF
330
27B92
100
AcDbEntity
  8
寸法
 62
     7
 48
50.0
100
AcDbMText
 10
12301.7066017178
 20
8255.67333564026
 30
0.0
 40
120.0
 41
0.0
 71
     5
 72
     1
  1
\A1;123
  7
STYLE1
 73
     1
 44
1.0
1001
ACAD
1000
MTEXTBEGIN
1070
    73
1070
     1
1070
    44
1040
1.0
1070
    74
1070
     0
1000
MTEXTEND
  0
POINT
  5
27FB0
330
27B92
100
AcDbEntity
  8
DEFPOINTS
 62
     0
 48
50.0
100
AcDbPoint
 10
12028.6
 20
7429.395066522727
 30
0.0
  0
POINT
  5
27FB1
330
27B92
100
AcDbEntity
  8
DEFPOINTS
 62
     0
 48
50.0
100
AcDbPoint
 10
11905.6
 20
7356.395066522728
 30
0.0
  0
POINT
  5
27FB2
330
27B92
100
AcDbEntity
  8
DEFPOINTS
 62
     0
 48
50.0
100
AcDbPoint
 10
11905.6
 20
8155.661524616638
 30
0.0
  0
ENDBLK
  5
27B9E
330
27B92
100
AcDbEntity
  8
0
 48
50.0
100
AcDbBlockEnd
  0
BLOCK
  5
28518
330
2850E
100
AcDbEntity
  8
0
 48
50.0
100
AcDbBlockBegin
  2
*D47
 70
     1
 10
0.0
 20
0.0
 30
0.0
  3
*D47
  1

  0
LINE
  5
28558
330
2850E
100
AcDbEntity
  8
寸法
 62
     0
 48
50.0
370
    -2
100
AcDbLine
 10
7951.981542959519
 20
2071.387069030852
 30
0.0
 11
8493.850142728362
 21
2071.387069030852
 31
0.0
  0
LINE
  5
28559
330
2850E
100
AcDbEntity
  8
寸法
 62
     0
 48
50.0
370
    -2
100
AcDbLine
 10
7951.981542959519
 20
1747.387069030851
 30
0.0
 11
8493.850142728362
 21
1747.387069030851
 31
0.0
  0
LINE
  5
2855A
330
2850E
100
AcDbEntity
  8
寸法
 62
     0
 48
50.0
370
    -2
100
AcDbLine
 10
8433.850142728363
 20
2071.387069030852
 30
0.0
 11
8433.850142728363
 21
1747.387069030851
 31
0.0
  0
INSERT
  5
2855B
330
2850E
100
AcDbEntity
  8
寸法
 62
     0
 48
50.0
370
    -2
100
AcDbBlockReference
  2
_DOTSMALL
 10
8433.850142728363
 20
2071.387069030852
 30
0.0
 41
100.0
 42
100.0
 43
100.0
 50
90.0
  0
INSERT
  5
2855C
330
2850E
100
AcDbEntity
  8
寸法
 62
     0
 48
50.0
370
    -2
100
AcDbBlockReference
  2
_DOTSMALL
 10
8433.850142728363
 20
1747.387069030851
 30
0.0
 41
100.0
 42
100.0
 43
100.0
 50
270.0
  0
MTEXT
  5
2855D
330
2850E
100
AcDbEntity
  8
寸法
 62
     7
 48
50.0
100
AcDbMText
 10
8333.850142728364
 20
1909.387069030853
 30
0.0
 40
120.0
 41
0.0
 71
     5
 72
     1
  1
\A1;180
  7
STYLE1
 11
0.0000000000000001
 21
1.0
 31
0.0
 73
     1
 44
1.0
1001
ACAD
1000
MTEXTBEGIN
1070
    73
1070
     1
1070
    44
1040
1.0
1070
    74
1070
     0
1000
MTEXTEND
  0
POINT
  5
2855E
330
2850E
100
AcDbEntity
  8
DEFPOINTS
 62
     0
 48
50.0
100
AcDbPoint
 10
7931.981542959518
 20
2071.387069030852
 30
0.0
  0
POINT
  5
2855F
330
2850E
100
AcDbEntity
  8
DEFPOINTS
 62
     0
 48
50.0
100
AcDbPoint
 10
7931.981542959518
 20
1747.387069030851
 30
0.0
  0
POINT
  5
28560
330
2850E
100
AcDbEntity
  8
DEFPOINTS
 62
     0
 48
50.0
100
AcDbPoint
 10
8433.850142728363
 20
1747.387069030851
 30
0.0
  0
ENDBLK
  5
28519
330
2850E
100
AcDbEntity
  8
0
 48
50.0
100
AcDbBlockEnd
  0
BLOCK
  5
28526
330
2851A
100
AcDbEntity
  8
0
 48
50.0
100
AcDbBlockBegin
  2
*D48
 70
     1
 10
0.0
 20
0.0
 30
0.0
  3
*D48
  1

  0
LINE
  5
28561
330
2851A
100
AcDbEntity
  8
寸法
 62
     0
 48
50.0
370
    -2
100
AcDbLine
 10
7764.781542959521
 20
2124.147069030854
 30
0.0
 11
8769.904808847391
 21
2124.147069030854
 31
0.0
  0
LINE
  5
28562
330
2851A
100
AcDbEntity
  8
寸法
 62
     0
 48
50.0
370
    -2
100
AcDbLine
 10
7951.981542959519
 20
2071.387069030852
 30
0.0
 11
8769.904808847391
 21
2071.387069030852
 31
0.0
  0
LINE
  5
28563
330
2851A
100
AcDbEntity
  8
寸法
 62
     0
 48
50.0
370
    -2
100
AcDbLine
 10
8709.90480884739
 20
2124.147069030854
 30
0.0
 11
8709.90480884739
 21
2224.147069030854
 31
0.0
  0
LINE
  5
28564
330
2851A
100
AcDbEntity
  8
寸法
 62
     0
 48
50.0
370
    -2
100
AcDbLine
 10
8709.90480884739
 20
2071.387069030852
 30
0.0
 11
8709.90480884739
 21
1339.369262187885
 31
0.0
  0
LINE
  5
28565
330
2851A
100
AcDbEntity
  8
寸法
 62
     0
 48
50.0
370
    -2
100
AcDbLine
 10
8709.90480884739
 20
2124.147069030854
 30
0.0
 11
8709.90480884739
 21
2071.387069030852
 31
0.0
  0
INSERT
  5
28566
330
2851A
100
AcDbEntity
  8
寸法
 62
     0
 48
50.0
370
    -2
100
AcDbBlockReference
  2
_DOTSMALL
 10
8709.90480884739
 20
2124.147069030854
 30
0.0
 41
100.0
 42
100.0
 43
100.0
 50
270.0
  0
INSERT
  5
28567
330
2851A
100
AcDbEntity
  8
寸法
 62
     0
 48
50.0
370
    -2
100
AcDbBlockReference
  2
_DOTSMALL
 10
8709.90480884739
 20
2071.387069030852
 30
0.0
 41
100.0
 42
100.0
 43
100.0
 50
90.0
  0
MTEXT
  5
28568
330
2851A
100
AcDbEntity
  8
寸法
 62
     7
 48
50.0
100
AcDbMText
 10
8609.892997823768
 20
1605.378165609369
 30
0.0
 40
120.0
 41
0.0
 71
     5
 72
     1
  1
\A1;20～25
  7
STYLE1
 11
0.0000000000000001
 21
1.0
 31
0.0
 73
     1
 44
1.0
1001
ACAD
1000
MTEXTBEGIN
1070
    73
1070
     1
1070
    44
1040
1.0
1070
    74
1070
     0
1000
MTEXTEND
  0
POINT
  5
28569
330
2851A
100
AcDbEntity
  8
DEFPOINTS
 62
     0
 48
50.0
100
AcDbPoint
 10
7744.781542959521
 20
2124.147069030854
 30
0.0
  0
POINT
  5
2856A
330
2851A
100
AcDbEntity
  8
DEFPOINTS
 62
     0
 48
50.0
100
AcDbPoint
 10
7931.981542959518
 20
2071.387069030852
 30
0.0
  0
POINT
  5
2856B
330
2851A
100
AcDbEntity
  8
DEFPOINTS
 62
     0
 48
50.0
100
AcDbPoint
 10
8709.90480884739
 20
2071.387069030852
 30
0.0
  0
ENDBLK
  5
28527
330
2851A
100
AcDbEntity
  8
0
 48
50.0
100
AcDbBlockEnd
  0
BLOCK
  5
28532
330
28528
100
AcDbEntity
  8
0
 48
50.0
100
AcDbBlockBegin
  2
*D49
 70
     1
 10
0.0
 20
0.0
 30
0.0
  3
*D49
  1

  0
LINE
  5
2856C
330
28528
100
AcDbEntity
  8
寸法
 62
     0
 48
50.0
370
    -2
100
AcDbLine
 10
5669.942229782326
 20
1527.387069030852
 30
0.0
 11
5487.521916049867
 21
1527.387069030852
 31
0.0
  0
LINE
  5
2856D
330
28528
100
AcDbEntity
  8
寸法
 62
     0
 48
50.0
370
    -2
100
AcDbLine
 10
5589.942229782329
 20
1287.387069030852
 30
0.0
 11
5487.521916049867
 21
1287.387069030852
 31
0.0
  0
LINE
  5
2856E
330
28528
100
AcDbEntity
  8
寸法
 62
     0
 48
50.0
370
    -2
100
AcDbLine
 10
5547.521916049866
 20
1527.387069030852
 30
0.0
 11
5547.521916049866
 21
1287.387069030852
 31
0.0
  0
INSERT
  5
2856F
330
28528
100
AcDbEntity
  8
寸法
 62
     0
 48
50.0
370
    -2
100
AcDbBlockReference
  2
_DOTSMALL
 10
5547.521916049866
 20
1527.387069030852
 30
0.0
 41
100.0
 42
100.0
 43
100.0
 50
90.0
  0
INSERT
  5
28570
330
28528
100
AcDbEntity
  8
寸法
 62
     0
 48
50.0
370
    -2
100
AcDbBlockReference
  2
_DOTSMALL
 10
5547.521916049866
 20
1287.387069030852
 30
0.0
 41
100.0
 42
100.0
 43
100.0
 50
270.0
  0
MTEXT
  5
28571
330
28528
100
AcDbEntity
  8
寸法
 62
     7
 48
50.0
100
AcDbMText
 10
5447.521916049867
 20
1407.387069030853
 30
0.0
 40
120.0
 41
0.0
 71
     5
 72
     1
  1
\A1;150
  7
STYLE1
 11
0.0000000000000001
 21
1.0
 31
0.0
 73
     1
 44
1.0
1001
ACAD
1000
MTEXTBEGIN
1070
    73
1070
     1
1070
    44
1040
1.0
1070
    74
1070
     0
1000
MTEXTEND
  0
POINT
  5
28572
330
28528
100
AcDbEntity
  8
DEFPOINTS
 62
     0
 48
50.0
100
AcDbPoint
 10
5689.942229782325
 20
1527.387069030852
 30
0.0
  0
POINT
  5
28573
330
28528
100
AcDbEntity
  8
DEFPOINTS
 62
     0
 48
50.0
100
AcDbPoint
 10
5609.94222978233
 20
1287.387069030852
 30
0.0
  0
POINT
  5
28574
330
28528
100
AcDbEntity
  8
DEFPOINTS
 62
     0
 48
50.0
100
AcDbPoint
 10
5547.521916049866
 20
1287.387069030852
 30
0.0
  0
ENDBLK
  5
28533
330
28528
100
AcDbEntity
  8
0
 48
50.0
100
AcDbBlockEnd
  0
BLOCK
  5
2853E
330
28534
100
AcDbEntity
  8
0
 48
50.0
100
AcDbBlockBegin
  2
*D50
 70
     1
 10
0.0
 20
0.0
 30
0.0
  3
*D50
  1

  0
LINE
  5
28575
330
28534
100
AcDbEntity
  8
寸法
 62
     0
 48
50.0
370
    -2
100
AcDbLine
 10
5797.942229782325
 20
2071.387069030852
 30
0.0
 11
5022.904991220586
 21
2071.387069030853
 31
0.0
  0
LINE
  5
28576
330
28534
100
AcDbEntity
  8
寸法
 62
     0
 48
50.0
370
    -2
100
AcDbLine
 10
5589.942229782329
 20
1287.387069030852
 30
0.0
 11
5022.904991220586
 21
1287.387069030852
 31
0.0
  0
LINE
  5
28577
330
28534
100
AcDbEntity
  8
寸法
 62
     0
 48
50.0
370
    -2
100
AcDbLine
 10
5082.904991220587
 20
2071.387069030853
 30
0.0
 11
5082.904991220585
 21
1287.387069030852
 31
0.0
  0
INSERT
  5
28578
330
28534
100
AcDbEntity
  8
寸法
 62
     0
 48
50.0
370
    -2
100
AcDbBlockReference
  2
_DOTSMALL
 10
5082.904991220587
 20
2071.387069030853
 30
0.0
 41
100.0
 42
100.0
 43
100.0
 50
90.0
  0
INSERT
  5
28579
330
28534
100
AcDbEntity
  8
寸法
 62
     0
 48
50.0
370
    -2
100
AcDbBlockReference
  2
_DOTSMALL
 10
5082.904991220585
 20
1287.387069030852
 30
0.0
 41
100.0
 42
100.0
 43
100.0
 50
270.0
  0
MTEXT
  5
2857A
330
28534
100
AcDbEntity
  8
寸法
 62
     7
 48
50.0
100
AcDbMText
 10
4982.904991220586
 20
1658.927218686853
 30
0.0
 40
120.0
 41
0.0
 71
     5
 72
     1
  1
\A1;540
  7
STYLE1
 11
0.0000000000000001
 21
1.0
 31
0.0
 73
     1
 44
1.0
1001
ACAD
1000
MTEXTBEGIN
1070
    73
1070
     1
1070
    44
1040
1.0
1070
    74
1070
     0
1000
MTEXTEND
  0
POINT
  5
2857B
330
28534
100
AcDbEntity
  8
DEFPOINTS
 62
     0
 48
50.0
100
AcDbPoint
 10
5817.942229782326
 20
2071.387069030852
 30
0.0
  0
POINT
  5
2857C
330
28534
100
AcDbEntity
  8
DEFPOINTS
 62
     0
 48
50.0
100
AcDbPoint
 10
5609.94222978233
 20
1287.387069030852
 30
0.0
  0
POINT
  5
2857D
330
28534
100
AcDbEntity
  8
DEFPOINTS
 62
     0
 48
50.0
100
AcDbPoint
 10
5082.904991220585
 20
1287.387069030852
 30
0.0
  0
ENDBLK
  5
2853F
330
28534
100
AcDbEntity
  8
0
 48
50.0
100
AcDbBlockEnd
  0
BLOCK
  5
2854A
330
28540
100
AcDbEntity
  8
0
 48
50.0
100
AcDbBlockBegin
  2
*D51
 70
     1
 10
0.0
 20
0.0
 30
0.0
  3
*D51
  1

  0
LINE
  5
2857E
330
28540
100
AcDbEntity
  8
寸法
 62
     0
 48
50.0
370
    -2
100
AcDbLine
 10
5689.942229782325
 20
1139.387069030852
 30
0.0
 11
5689.942229782325
 21
688.9574310256921
 31
0.0
  0
LINE
  5
2857F
330
28540
100
AcDbEntity
  8
寸法
 62
     0
 48
50.0
370
    -2
100
AcDbLine
 10
6137.942229782326
 20
1139.387069030852
 30
0.0
 11
6137.942229782326
 21
688.9574310256921
 31
0.0
  0
LINE
  5
28580
330
28540
100
AcDbEntity
  8
寸法
 62
     0
 48
50.0
370
    -2
100
AcDbLine
 10
5689.942229782325
 20
748.9574310256921
 30
0.0
 11
6137.942229782326
 21
748.9574310256921
 31
0.0
  0
INSERT
  5
28581
330
28540
100
AcDbEntity
  8
寸法
 62
     0
 48
50.0
370
    -2
100
AcDbBlockReference
  2
_DOTSMALL
 10
5689.942229782325
 20
748.9574310256921
 30
0.0
 41
100.0
 42
100.0
 43
100.0
 50
180.0
  0
INSERT
  5
28582
330
28540
100
AcDbEntity
  8
寸法
 62
     0
 48
50.0
370
    -2
100
AcDbBlockReference
  2
_DOTSMALL
 10
6137.942229782326
 20
748.9574310256921
 30
0.0
 41
100.0
 42
100.0
 43
100.0
  0
MTEXT
  5
28583
330
28540
100
AcDbEntity
  8
寸法
 62
     7
 48
50.0
100
AcDbMText
 10
5893.845471104103
 20
848.9574310256921
 30
0.0
 40
120.0
 41
0.0
 71
     5
 72
     1
  1
\A1;300
  7
STYLE1
 73
     1
 44
1.0
1001
ACAD
1000
MTEXTBEGIN
1070
    73
1070
     1
1070
    44
1040
1.0
1070
    74
1070
     0
1000
MTEXTEND
  0
POINT
  5
28584
330
28540
100
AcDbEntity
  8
DEFPOINTS
 62
     0
 48
50.0
100
AcDbPoint
 10
5689.942229782325
 20
1159.387069030852
 30
0.0
  0
POINT
  5
28585
330
28540
100
AcDbEntity
  8
DEFPOINTS
 62
     0
 48
50.0
100
AcDbPoint
 10
6137.942229782326
 20
1159.387069030852
 30
0.0
  0
POINT
  5
28586
330
28540
100
AcDbEntity
  8
DEFPOINTS
 62
     0
 48
50.0
100
AcDbPoint
 10
6137.942229782326
 20
748.9574310256921
 30
0.0
  0
ENDBLK
  5
2854B
330
28540
100
AcDbEntity
  8
0
 48
50.0
100
AcDbBlockEnd
  0
BLOCK
  5
28556
330
2854C
100
AcDbEntity
  8
0
 48
50.0
100
AcDbBlockBegin
  2
*D52
 70
     1
 10
0.0
 20
0.0
 30
0.0
  3
*D52
  1

  0
LINE
  5
28587
330
2854C
100
AcDbEntity
  8
寸法
 62
     0
 48
50.0
370
    -2
100
AcDbLine
 10
6009.942229782326
 20
2091.387069030853
 30
0.0
 11
6009.942229782326
 21
2551.054876947233
 31
0.0
  0
LINE
  5
28588
330
2854C
100
AcDbEntity
  8
寸法
 62
     0
 48
50.0
370
    -2
100
AcDbLine
 10
5817.942229782326
 20
2091.387069030853
 30
0.0
 11
5817.942229782326
 21
2551.054876947233
 31
0.0
  0
LINE
  5
28589
330
2854C
100
AcDbEntity
  8
寸法
 62
     0
 48
50.0
370
    -2
100
AcDbLine
 10
6009.942229782326
 20
2491.054876947233
 30
0.0
 11
5817.942229782326
 21
2491.054876947233
 31
0.0
  0
INSERT
  5
2858A
330
2854C
100
AcDbEntity
  8
寸法
 62
     0
 48
50.0
370
    -2
100
AcDbBlockReference
  2
_DOTSMALL
 10
6009.942229782326
 20
2491.054876947233
 30
0.0
 41
100.0
 42
100.0
 43
100.0
  0
INSERT
  5
2858B
330
2854C
100
AcDbEntity
  8
寸法
 62
     0
 48
50.0
370
    -2
100
AcDbBlockReference
  2
_DOTSMALL
 10
5817.942229782326
 20
2491.054876947233
 30
0.0
 41
100.0
 42
100.0
 43
100.0
 50
180.0
  0
MTEXT
  5
2858C
330
2854C
100
AcDbEntity
  8
寸法
 62
     7
 48
50.0
100
AcDbMText
 10
5913.942229782326
 20
2791.090310018099
 30
0.0
 40
120.0
 41
0.0
 71
     5
 72
     1
  1
\A1;120\P200\P280
  7
STYLE1
 73
     1
 44
1.0
1001
ACAD
1000
MTEXTBEGIN
1070
    73
1070
     1
1070
    44
1040
1.0
1070
    74
1070
     0
1000
MTEXTEND
  0
POINT
  5
2858D
330
2854C
100
AcDbEntity
  8
DEFPOINTS
 62
     0
 48
50.0
100
AcDbPoint
 10
6009.942229782326
 20
2071.387069030852
 30
0.0
  0
POINT
  5
2858E
330
2854C
100
AcDbEntity
  8
DEFPOINTS
 62
     0
 48
50.0
100
AcDbPoint
 10
5817.942229782326
 20
2071.387069030852
 30
0.0
  0
POINT
  5
2858F
330
2854C
100
AcDbEntity
  8
DEFPOINTS
 62
     0
 48
50.0
100
AcDbPoint
 10
5817.942229782326
 20
2491.054876947233
 30
0.0
  0
ENDBLK
  5
28557
330
2854C
100
AcDbEntity
  8
0
 48
50.0
100
AcDbBlockEnd
  0
ENDSEC
  0
SECTION
  2
ENTITIES
  0
MTEXT
  5
763F
330
747D
100
AcDbEntity
  8
0
100
AcDbMText
 10
302.846345836809
 20
280.1983726409901
 30
0.0
 40
3.5
 41
5.323721266742722
 71
     1
 72
     5
  1

  7
MSMINCHO
 73
     1
 44
1.0
1001
ACAD
1000
MTEXTBEGIN
1070
    73
1070
     1
1070
    44
1040
1.0
1070
    74
1070
     0
1000
MTEXTEND
  0
LINE
  5
10B57
330
747D
100
AcDbEntity
  8
補助
  6
PHANTOM
 62
   230
 48
50.0
100
AcDbLine
 10
139.9999999999995
 20
11409.6
 30
0.0
 11
16307.2
 21
11409.6
 31
0.0
  0
LINE
  5
10B59
330
747D
100
AcDbEntity
  8
仕様書枠
  6
Continuous
 48
50.0
100
AcDbLine
 10
13107.2
 20
1200.0
 30
0.0
 11
13107.2
 21
-0.0000000000000729
 31
0.0
  0
LINE
  5
10B5D
330
747D
100
AcDbEntity
  8
仕様書枠
 48
50.0
100
AcDbLine
 10
140.0
 20
0.0
 30
0.0
 11
16307.2
 21
-0.0000000000000909
 31
0.0
  0
LINE
  5
10B5E
330
747D
100
AcDbEntity
  8
補助
  6
PHANTOM
 62
   230
 48
50.0
100
AcDbLine
 10
16307.2
 20
11409.6
 30
0.0
 11
16307.2
 21
1200.0
 31
0.0
  0
LINE
  5
10B6C
330
747D
100
AcDbEntity
  8
仕様書枠
 48
50.0
100
AcDbLine
 10
13107.2
 20
1200.0
 30
0.0
 11
16307.2
 21
1200.0
 31
0.0
  0
TEXT
  5
10B73
330
747D
100
AcDbEntity
  8
文字
 62
     7
 48
50.0
100
AcDbText
 10
13162.9790565769
 20
895.0906074299405
 30
0.0
 40
200.0
  1
基 礎 図
  7
STYLE2
100
AcDbText
  0
LINE
  5
10B7B
330
747D
100
AcDbEntity
  8
仕様書枠
 48
50.0
100
AcDbLine
 10
13107.2
 20
800.0
 30
0.0
 11
14251.2
 21
800.0
 31
0.0
  0
LINE
  5
10B88
330
747D
100
AcDbEntity
  8
仕様書枠
  6
Continuous
 48
50.0
100
AcDbLine
 10
14251.2
 20
1200.0
 30
0.0
 11
14251.2
 21
800.0
 31
0.0
  0
LINE
  5
16462
330
747D
100
AcDbEntity
  8
仕様書枠
 48
50.0
100
AcDbLine
 10
16307.2
 20
1200.0
 30
0.0
 11
16307.2
 21
-0.0000000000000909
 31
0.0
  0
LINE
  5
1903B
330
747D
100
AcDbEntity
  8
補助
  6
PHANTOM
 62
   230
 48
50.0
100
AcDbLine
 10
140.0
 20
0.0
 30
0.0
 11
139.9999999999995
 21
11409.6
 31
0.0
  0
LEADER
  5
1AC27
330
747D
100
AcDbEntity
  8
寸法
 48
50.0
100
AcDbLeader
  3
INABA_S50G
 73
     0
 74
     0
 75
     1
 40
120.0
 41
720.0000000000001
 76
     3
 10
12030.05985718447
 20
6693.34680305808
 30
0.0
 10
12186.83343157075
 20
6432.332889490247
 30
0.0
 10
12311.83343157076
 20
6432.332889490247
 30
0.0
340
1AC28
1001
ACAD
1000
DSTYLE
1002
{
1070
   341
1005
0
1070
    40
1040
1.0
1070
   343
1005
0
1070
   344
1005
0
1002
}
  0
MTEXT
  5
1AC28
102
{ACAD_REACTORS
330
1AC27
102
}
330
747D
100
AcDbEntity
  8
部品1
 62
     7
 48
50.0
100
AcDbMText
 10
13056.83343157075
 20
6517.332889490247
 30
0.0
 40
120.0
 41
0.0
 71
     6
 72
     1
  1
\A1;床下換気口
  7
STYLE1
 73
     1
 44
1.0
1001
ACAD
1000
MTEXTBEGIN
1070
    73
1070
     1
1070
    44
1040
1.0
1070
    74
1070
     0
1000
MTEXTEND
  0
TEXT
  5
1AC29
330
747D
100
AcDbEntity
  8
部品1
 48
50.0
100
AcDbText
 10
12372.64807370302
 20
5753.546244197079
 30
0.0
 40
80.0
  1
(a=45,b=55,c=75)
  7
STYLE1
100
AcDbText
  0
TEXT
  5
1AC2A
330
747D
100
AcDbEntity
  8
部品1
 48
50.0
100
AcDbText
 10
12214.06906494872
 20
5860.391465065834
 30
0.0
 40
80.0
  1
※a,b,cは屋根の出幅です。
  7
STYLE1
100
AcDbText
  0
MTEXT
  5
1AC2B
102
{ACAD_REACTORS
330
1AC2C
102
}
330
747D
100
AcDbEntity
  8
部品1
 62
     7
 48
50.0
100
AcDbMText
 10
13011.85626093733
 20
6039.702151998909
 30
0.0
 40
120.0
 41
0.0
 71
     6
 72
     1
  1
\A1;屋根の外寸
  7
STYLE1
 73
     1
 44
1.0
1001
ACAD
1000
MTEXTBEGIN
1070
    73
1070
     1
1070
    44
1040
1.0
1070
    74
1070
     0
1000
MTEXTEND
  0
LEADER
  5
1AC2C
330
747D
100
AcDbEntity
  8
寸法
 48
50.0
100
AcDbLeader
  3
INABA_S50G
 73
     0
 74
     0
 75
     1
 40
120.0
 41
672.0
 76
     3
 10
12073.91624874528
 20
6213.591495462484
 30
0.0
 10
12189.85626093733
 20
5954.702151998908
 30
0.0
 10
12314.85626093733
 20
5954.702151998908
 30
0.0
340
1AC2B
1001
ACAD
1000
DSTYLE
1002
{
1070
   341
1005
0
1070
    40
1040
1.0
1070
   343
1005
0
1070
   344
1005
0
1002
}
  0
TEXT
  5
1C7A1
330
747D
100
AcDbEntity
  8
文字
 62
     7
 48
50.0
100
AcDbText
 10
13188.16259899338
 20
79.80631269190417
 30
0.0
 40
80.0
  1
※布基礎には換気口を設けてください。
  7
STYLE2
100
AcDbText
  0
TEXT
  5
1C7E7
330
747D
100
AcDbEntity
  8
文字
 62
     7
 48
50.0
100
AcDbText
 10
13188.16259899338
 20
246.7109242801889
 30
0.0
 40
80.0
  1
※寒冷地等は地域の実情に合わせた基礎にして下さい。
  7
STYLE2
100
AcDbText
  0
TEXT
  5
1C7E8
330
747D
100
AcDbEntity
  8
文字
 62
     7
 48
50.0
100
AcDbText
 10
14325.79230300687
 20
499.5983841039506
 30
0.0
 40
160.0
  1
ＮＸＮ－１４ＤＬ－８
  7
STYLE2
100
AcDbText
  0
TEXT
  5
1C7EC
330
747D
100
AcDbEntity
  8
文字
 62
     7
 48
50.0
100
AcDbText
 10
14524.131837222
 20
1031.557706291229
 30
0.0
 40
100.0
  1
     <縮尺> S=1/40
  7
STYLE2
100
AcDbText
  0
TEXT
  5
1C7ED
330
747D
100
AcDbEntity
  8
文字
 62
     7
 48
50.0
100
AcDbText
 10
13201.43669998441
 20
477.2740661031257
 30
0.0
 40
160.0
  1
機種名
  7
STYLE2
100
AcDbText
  0
LINE
  5
1C7EF
330
747D
100
AcDbEntity
  8
文字
 62
     7
 48
50.0
100
AcDbLine
 10
13187.2
 20
400.0
 30
0.0
 11
16227.2
 21
400.0
 31
0.0
  0
MTEXT
  5
1D2D5
102
{ACAD_REACTORS
330
1D2D6
102
}
330
747D
100
AcDbEntity
  8
部品1
 62
     7
 48
50.0
100
AcDbMText
 10
13223.99523070988
 20
7745.007810765237
 30
0.0
 40
120.0
 41
0.0
 71
     6
 72
     1
  1
アンカーボルト
  7
STYLE1
 73
     1
 44
1.0
1001
ACAD
1000
MTEXTBEGIN
1070
    73
1070
     1
1070
    44
1040
1.0
1070
    74
1070
     0
1000
MTEXTEND
  0
LEADER
  5
1D2D6
330
747D
100
AcDbEntity
  8
寸法
 48
50.0
100
AcDbLeader
  3
INABA_S50G
 73
     0
 74
     0
 75
     1
 40
120.0
 41
994.3492424049171
 76
     3
 10
11905.680085757
 20
7306.602910881439
 30
0.0
 10
12079.64598830496
 20
7660.007810765238
 30
0.0
 10
12204.64598830496
 20
7660.007810765238
 30
0.0
340
1D2D5
1001
ACAD
1000
DSTYLE
1002
{
1070
   341
1005
0
1070
    40
1040
1.0
1070
   343
1005
0
1070
   344
1005
0
1002
}
  0
MTEXT
  5
1D332
102
{ACAD_REACTORS
330
1D333
102
}
330
747D
100
AcDbEntity
  8
部品1
 62
     7
 48
50.0
100
AcDbMText
 10
11588.82869701569
 20
6519.985587456284
 30
0.0
 40
120.0
 41
0.0
 71
     6
 72
     1
  1
CB
  7
STYLE1
 73
     1
 44
1.0
1001
ACAD
1000
MTEXTBEGIN
1070
    73
1070
     1
1070
    44
1040
1.0
1070
    74
1070
     0
1000
MTEXTEND
  0
LEADER
  5
1D333
330
747D
100
AcDbEntity
  8
寸法
 48
50.0
100
AcDbLeader
  3
INABA_S50G
 73
     0
 74
     0
 75
     1
 40
120.0
 41
149.591883092037
 76
     3
 10
11161.95401106101
 20
6657.70390101111
 30
0.0
 10
11289.23681392365
 20
6434.985587456285
 30
0.0
 10
11414.23681392365
 20
6434.985587456285
 30
0.0
340
1D332
1001
ACAD
1000
DSTYLE
1002
{
1070
   341
1005
0
1070
    40
1040
1.0
1070
   343
1005
0
1070
   344
1005
0
1002
}
  0
DIMENSION
  5
20DE1
330
747D
100
AcDbEntity
  8
寸法
 48
50.0
100
AcDbDimension
  2
*D19
 10
12073.6
 20
8387.615388581648
 30
0.0
 11
12344.77462120246
 21
8387.615388581648
 31
0.0
 70
   160
  1
a
 71
     5
 42
45.0
  3
INABA_S40G
100
AcDbAlignedDimension
 13
12028.6
 23
7429.395066522727
 33
0.0
 14
12073.6
 24
8155.661524616638
 34
0.0
100
AcDbRotatedDimension
1001
ACAD
1000
DSTYLE
1002
{
1070
   341
1005
0
1002
}
  0
DIMENSION
  5
20DFB
330
747D
100
AcDbEntity
  8
寸法
 48
50.0
100
AcDbDimension
  2
*D20
 10
4418.599999999996
 20
8387.615388581659
 30
0.0
 11
4102.425378797537
 21
8387.615388581659
 31
0.0
 70
   160
  1
a
 71
     5
 42
44.99999999999636
  3
INABA_S40G
100
AcDbAlignedDimension
 13
4373.6
 23
8155.66152461665
 33
0.0
 14
4418.599999999996
 24
7429.395066522737
 34
0.0
100
AcDbRotatedDimension
1001
ACAD
1000
DSTYLE
1002
{
1070
   341
1005
0
1002
}
  0
LINE
  5
22711
330
747D
100
AcDbEntity
  8
想像線
 48
10.0
100
AcDbLine
 10
12073.6
 20
7504.39506652273
 30
0.0
 11
4373.6
 21
7504.395066522743
 31
0.0
  0
LINE
  5
22712
330
747D
100
AcDbEntity
  8
想像線
 48
10.0
100
AcDbLine
 10
4373.599999999997
 20
5834.395066522779
 30
0.0
 11
4373.6
 21
7504.395066522743
 31
0.0
  0
LINE
  5
22713
330
747D
100
AcDbEntity
  8
想像線
 48
10.0
100
AcDbLine
 10
12073.6
 20
5834.395066522775
 30
0.0
 11
12073.6
 21
7504.39506652273
 31
0.0
  0
LINE
  5
22714
330
747D
100
AcDbEntity
  8
想像線
 48
10.0
100
AcDbLine
 10
12073.6
 20
5834.395066522775
 30
0.0
 11
4373.599999999997
 21
5834.395066522755
 31
0.0
  0
DIMENSION
  5
22741
330
747D
100
AcDbEntity
  8
寸法
 48
50.0
100
AcDbDimension
  2
*D21
 10
3543.721909610673
 20
7429.395066522737
 30
0.0
 11
3443.721909610672
 21
7466.89506652274
 31
0.0
 70
    32
  1
c
 71
     5
 42
75.00000000000636
  3
INABA_S40G
100
AcDbAlignedDimension
 13
3795.665006330068
 23
7504.395066522743
 33
0.0
 14
4418.599999999996
 24
7429.395066522737
 34
0.0
 50
90.0
100
AcDbRotatedDimension
1001
ACAD
1000
DSTYLE
1002
{
1070
   341
1005
0
1002
}
  0
DIMENSION
  5
2275B
330
747D
100
AcDbEntity
  8
寸法
 48
50.0
100
AcDbDimension
  2
*D22
 10
3543.72190961067
 20
5834.395066522795
 30
0.0
 11
3443.721909610668
 21
5861.895066522782
 31
0.0
 70
    32
  1
b
 71
     5
 42
54.99999999997453
  3
INABA_S40G
100
AcDbAlignedDimension
 13
4418.599999999996
 23
5889.395066522769
 33
0.0
 14
3795.665006330068
 24
5834.395066522795
 34
0.0
 50
90.0
100
AcDbRotatedDimension
1001
ACAD
1000
DSTYLE
1002
{
1070
   341
1005
0
1002
}
  0
DIMENSION
  5
23FD9
330
747D
100
AcDbEntity
  8
寸法
 48
50.0
100
AcDbDimension
  2
*D24
 10
11347.81202022566
 20
5889.395066522745
 30
0.0
 11
11347.81202022565
 21
5602.431483845574
 31
0.0
 70
   160
 71
     5
 42
280.0
  3
INABA_S40G
100
AcDbAlignedDimension
 13
11448.59999999999
 23
6169.395066522746
 33
0.0
 14
11448.6
 24
5889.395066522745
 34
0.0
 50
90.0
100
AcDbRotatedDimension
1001
ACAD
1000
DSTYLE
1002
{
1070
   341
1005
0
1002
}
  0
DIMENSION
  5
23FDA
330
747D
100
AcDbEntity
  8
寸法
 48
50.0
100
AcDbDimension
  2
*D25
 10
11347.81202022566
 20
7229.39506652273
 30
0.0
 11
11347.81202022565
 21
7716.358649199886
 31
0.0
 70
   160
 71
     5
 42
199.9999999999854
  3
INABA_S40G
100
AcDbAlignedDimension
 13
11448.6
 23
7429.395066522714
 33
0.0
 14
11448.60000000001
 24
7229.39506652273
 34
0.0
 50
90.0
100
AcDbRotatedDimension
1001
ACAD
1000
DSTYLE
1002
{
1070
   341
1005
0
1002
}
  0
DIMENSION
  5
24043
330
747D
100
AcDbEntity
  8
寸法
 48
50.0
100
AcDbDimension
  2
*D23
 10
11908.6
 20
6978.993679620838
 30
0.0
 11
12298.65905511811
 21
6978.993679620838
 31
0.0
 70
   160
 71
     5
 42
120.0
  3
INABA_S40G
100
AcDbAlignedDimension
 13
12028.6
 23
6864.395066522765
 33
0.0
 14
11908.6
 24
6864.395066522764
 34
0.0
100
AcDbRotatedDimension
1001
ACAD
1000
DSTYLE
1002
{
1070
   341
1005
0
1002
}
  0
LINE
  5
27926
330
747D
100
AcDbEntity
  8
部品1
 48
50.0
100
AcDbLine
 10
11908.6
 20
7229.39506652273
 30
0.0
 11
4538.599999999995
 21
7229.395066522727
 31
0.0
  0
DIMENSION
  5
27928
330
747D
100
AcDbEntity
  8
寸法
 48
50.0
100
AcDbDimension
  2
*D26
 10
8223.600000000008
 20
7912.003883192976
 30
0.0
 11
8698.600000000007
 21
8012.003883192976
 31
0.0
 70
    32
 71
     5
 42
950.0
  3
INABA_S40G
100
AcDbAlignedDimension
 13
9173.600000000007
 23
6746.395066522727
 33
0.0
 14
8223.600000000008
 24
6746.395066522727
 34
0.0
100
AcDbRotatedDimension
1001
ACAD
1000
DSTYLE
1002
{
1070
   341
1005
0
1002
}
  0
LINE
  5
2792A
330
747D
100
AcDbEntity
  8
部品1
 48
50.0
100
AcDbLine
 10
12028.6
 20
5889.395066522745
 30
0.0
 11
4418.599999999996
 21
5889.395066522723
 31
0.0
  0
LINE
  5
2792C
330
747D
100
AcDbEntity
  8
部品1
 48
50.0
100
AcDbLine
 10
12028.6
 20
7429.395066522727
 30
0.0
 11
4418.6
 21
7429.395066522727
 31
0.0
  0
DIMENSION
  5
2792D
330
747D
100
AcDbEntity
  8
寸法
 48
50.0
100
AcDbDimension
  2
*D27
 10
12028.6
 20
8387.615388581647
 30
0.0
 11
8223.600000000001
 21
8487.615388581646
 31
0.0
 70
    32
 71
     5
 42
7610.0
  3
INABA_S40G
100
AcDbAlignedDimension
 13
4418.6
 23
7429.395066522727
 33
0.0
 14
12028.6
 24
7429.395066522727
 34
0.0
100
AcDbRotatedDimension
1001
ACAD
1000
DSTYLE
1002
{
1070
   341
1005
0
1002
}
  0
DIMENSION
  5
2792E
330
747D
100
AcDbEntity
  8
寸法
 48
50.0
100
AcDbDimension
  2
*D28
 10
7155.600000000001
 20
8155.661524616638
 30
0.0
 11
8105.6
 21
8255.661524616639
 31
0.0
 70
    32
 71
     5
 42
1900.0
  3
INABA_S40G
100
AcDbAlignedDimension
 13
9055.600000000001
 23
7356.395066522728
 33
0.0
 14
7155.600000000001
 24
7356.395066522728
 34
0.0
100
AcDbRotatedDimension
1001
ACAD
1000
DSTYLE
1002
{
1070
   341
1005
0
1002
}
  0
DIMENSION
  5
2792F
330
747D
100
AcDbEntity
  8
寸法
 48
50.0
100
AcDbDimension
  2
*D29
 10
5373.600000000007
 20
7912.003883192976
 30
0.0
 11
5848.600000000008
 21
8012.003883192976
 31
0.0
 70
    32
 71
     5
 42
950.0
  3
INABA_S40G
100
AcDbAlignedDimension
 13
6323.600000000007
 23
6746.395066522727
 33
0.0
 14
5373.600000000007
 24
6746.395066522727
 34
0.0
100
AcDbRotatedDimension
1001
ACAD
1000
DSTYLE
1002
{
1070
   341
1005
0
1002
}
  0
DIMENSION
  5
27930
330
747D
100
AcDbEntity
  8
寸法
 48
50.0
100
AcDbDimension
  2
*D30
 10
6323.600000000007
 20
7912.003883192976
 30
0.0
 11
6798.600000000007
 21
8012.003883192976
 31
0.0
 70
    32
 71
     5
 42
950.0
  3
INABA_S40G
100
AcDbAlignedDimension
 13
7273.600000000008
 23
6746.395066522727
 33
0.0
 14
6323.600000000007
 24
6746.395066522727
 34
0.0
100
AcDbRotatedDimension
1001
ACAD
1000
DSTYLE
1002
{
1070
   341
1005
0
1002
}
  0
DIMENSION
  5
27931
330
747D
100
AcDbEntity
  8
寸法
 48
50.0
100
AcDbDimension
  2
*D31
 10
4418.6
 20
7912.003883192976
 30
0.0
 11
4896.100000000004
 21
8012.003883192976
 31
0.0
 70
    32
 71
     5
 42
955.0000000000073
  3
INABA_S40G
100
AcDbAlignedDimension
 13
5373.600000000007
 23
6746.395066522727
 33
0.0
 14
4418.6
 24
7429.395066522727
 34
0.0
100
AcDbRotatedDimension
1001
ACAD
1000
DSTYLE
1002
{
1070
   341
1005
0
1002
}
  0
DIMENSION
  5
27932
330
747D
100
AcDbEntity
  8
寸法
 48
50.0
100
AcDbDimension
  2
*D32
 10
4901.285990614302
 20
7429.395066522727
 30
0.0
 11
4901.285990614301
 21
6988.989857216904
 31
0.0
 70
   160
 71
     5
 42
733.0
  3
INABA_S40G
100
AcDbAlignedDimension
 13
5323.600000000007
 23
6696.395066522727
 33
0.0
 14
4992.765475140901
 24
7429.395066522727
 34
0.0
 50
90.0
100
AcDbRotatedDimension
1001
ACAD
1000
DSTYLE
1002
{
1070
   341
1005
0
1002
}
  0
LINE
  5
27933
102
{ACAD_REACTORS
330
28255
102
}
330
747D
100
AcDbEntity
  8
部品1
 48
50.0
100
AcDbLine
 10
4418.6
 20
5889.395066522728
 30
0.0
 11
4418.6
 21
7429.395066522727
 31
0.0
  0
DIMENSION
  5
27936
330
747D
100
AcDbEntity
  8
寸法
 48
50.0
100
AcDbDimension
  2
*D33
 10
3795.665006330072
 20
6087.395066522731
 30
0.0
 11
3795.665006330072
 21
6696.895066522728
 31
0.0
 70
   160
 71
     5
 42
1218.999999999996
  3
INABA_S40G
100
AcDbAlignedDimension
 13
4491.6
 23
7306.395066522728
 33
0.0
 14
4491.600000000008
 24
6087.395066522731
 34
0.0
 50
90.0
100
AcDbRotatedDimension
1001
ACAD
1000
DSTYLE
1002
{
1070
   341
1005
0
1002
}
  0
DIMENSION
  5
27937
330
747D
100
AcDbEntity
  8
寸法
 48
50.0
100
AcDbDimension
  2
*D34
 10
3543.721909610674
 20
5889.395066522728
 30
0.0
 11
3543.721909610673
 21
6696.895066522728
 31
0.0
 70
   160
 71
     5
 42
1540.0
  3
INABA_S40G
100
AcDbAlignedDimension
 13
4418.6
 23
7429.395066522727
 33
0.0
 14
4418.6
 24
5889.395066522728
 34
0.0
 50
90.0
100
AcDbRotatedDimension
1001
ACAD
1000
DSTYLE
1002
{
1070
   341
1005
0
1002
}
  0
DIMENSION
  5
27938
330
747D
100
AcDbEntity
  8
寸法
 48
50.0
100
AcDbDimension
  2
*D35
 10
7273.600000000008
 20
7912.003883192976
 30
0.0
 11
7748.600000000007
 21
8012.003883192976
 31
0.0
 70
    32
 71
     5
 42
950.0
  3
INABA_S40G
100
AcDbAlignedDimension
 13
8223.600000000008
 23
6746.395066522727
 33
0.0
 14
7273.600000000008
 24
6746.395066522727
 34
0.0
100
AcDbRotatedDimension
1001
ACAD
1000
DSTYLE
1002
{
1070
   341
1005
0
1002
}
  0
ARC
  5
27939
330
747D
100
AcDbEntity
  8
想像線
 48
5.0
100
AcDbCircle
 10
5188.600000000004
 20
5889.395066522698
 30
0.0
 40
720.0
100
AcDbArc
 50
180.0
 51
270.0
  0
DIMENSION
  5
2793A
330
747D
100
AcDbEntity
  8
寸法
 48
50.0
100
AcDbDimension
  2
*D36
 10
4901.285990614302
 20
6696.395066522727
 30
0.0
 11
4901.285990614301
 21
6374.395066522727
 31
0.0
 70
   160
 71
     5
 42
806.999999999989
  3
INABA_S40G
100
AcDbAlignedDimension
 13
4992.765475140901
 23
5889.395066522738
 33
0.0
 14
5323.600000000007
 24
6696.395066522727
 34
0.0
 50
90.0
100
AcDbRotatedDimension
1001
ACAD
1000
DSTYLE
1002
{
1070
   341
1005
0
1002
}
  0
DIMENSION
  5
2793C
330
747D
100
AcDbEntity
  8
寸法
 48
50.0
100
AcDbDimension
  2
*D37
 10
4305.512673767881
 20
5169.395066522691
 30
0.0
 11
4305.51267376788
 21
5529.395066522692
 31
0.0
 70
   160
  1
扉の出<>
 71
     5
 42
720.0
  3
INABA_S40G
100
AcDbAlignedDimension
 13
4418.600000000004
 23
5889.395066522691
 33
0.0
 14
4774.325326928809
 24
5169.395066522691
 34
0.0
 50
90.0
100
AcDbRotatedDimension
1001
ACAD
1000
DSTYLE
1002
{
1070
   341
1005
0
1002
}
  0
DIMENSION
  5
2793D
330
747D
100
AcDbEntity
  8
寸法
 48
50.0
100
AcDbDimension
  2
*D38
 10
3795.665006330072
 20
5889.395066522728
 30
0.0
 11
3795.665006330072
 21
5553.864117680135
 31
0.0
 70
   160
 71
     5
 42
198.0000000000036
  3
INABA_S40G
100
AcDbAlignedDimension
 13
4491.600000000008
 23
6087.395066522731
 33
0.0
 14
4418.6
 24
5889.395066522728
 34
0.0
 50
90.0
100
AcDbRotatedDimension
1001
ACAD
1000
DSTYLE
1002
{
1070
   341
1005
0
1002
}
  0
CIRCLE
  5
2793E
330
747D
100
AcDbEntity
  8
部品1
 48
50.0
100
AcDbCircle
 10
4541.599999999993
 20
6087.395066522731
 30
0.0
 40
35.0
  0
LINE
  5
2793F
330
747D
100
AcDbEntity
  8
センター
 48
2.0
100
AcDbLine
 10
4491.600000000008
 20
6087.395066522731
 30
0.0
 11
4591.600000000007
 21
6087.395066522731
 31
0.0
  0
LINE
  5
27940
330
747D
100
AcDbEntity
  8
センター
 48
2.0
100
AcDbLine
 10
4541.600000000007
 20
6137.395066522731
 30
0.0
 11
4541.600000000007
 21
6037.395066522731
 31
0.0
  0
LINE
  5
27941
330
747D
100
AcDbEntity
  8
部品1
 48
50.0
100
AcDbLine
 10
4998.59999999999
 20
6169.39506652273
 30
0.0
 11
4998.599999999997
 21
5889.395066522749
 31
0.0
  0
LINE
  5
27942
330
747D
100
AcDbEntity
  8
細線
 48
50.0
100
AcDbLine
 10
4934.404364949108
 20
5889.395066522749
 30
0.0
 11
4998.6
 21
5953.590701573638
 31
0.0
  0
LINE
  5
27943
330
747D
100
AcDbEntity
  8
部品1
 48
50.0
100
AcDbLine
 10
4798.599999999989
 20
6169.395066522728
 30
0.0
 11
4798.599999999996
 21
5889.395066522745
 31
0.0
  0
LINE
  5
27944
330
747D
100
AcDbEntity
  8
細線
 48
50.0
100
AcDbLine
 10
4889.503084343764
 20
5889.395066522748
 30
0.0
 11
4998.599999999999
 21
5998.491982178984
 31
0.0
  0
LINE
  5
27945
330
747D
100
AcDbEntity
  8
細線
 48
50.0
100
AcDbLine
 10
4798.599999999996
 20
5933.195823995018
 30
0.0
 11
4998.599999999991
 21
6133.195823995013
 31
0.0
  0
LINE
  5
27946
330
747D
100
AcDbEntity
  8
細線
 48
50.0
100
AcDbLine
 10
4844.601803738415
 20
5889.395066522748
 30
0.0
 11
4998.599999999993
 21
6043.393262784324
 31
0.0
  0
LINE
  5
27947
330
747D
100
AcDbEntity
  8
細線
 48
50.0
100
AcDbLine
 10
4799.700523133069
 20
5889.395066522745
 30
0.0
 11
4998.599999999991
 21
6088.294543389669
 31
0.0
  0
LINE
  5
27948
330
747D
100
AcDbEntity
  8
細線
 48
50.0
100
AcDbLine
 10
4979.305645554456
 20
5889.395066522749
 30
0.0
 11
4998.6
 21
5908.689420968294
 31
0.0
  0
LINE
  5
27949
330
747D
100
AcDbEntity
  8
細線
 48
50.0
100
AcDbLine
 10
4798.599999999995
 20
5978.097104600365
 30
0.0
 11
4989.897961922359
 21
6169.395066522728
 31
0.0
  0
LINE
  5
2794A
330
747D
100
AcDbEntity
  8
細線
 48
50.0
100
AcDbLine
 10
4798.599999999991
 20
6112.800946416401
 30
0.0
 11
4855.194120106324
 21
6169.395066522728
 31
0.0
  0
LINE
  5
2794B
330
747D
100
AcDbEntity
  8
細線
 48
50.0
100
AcDbLine
 10
4798.599999999993
 20
6067.899665811058
 30
0.0
 11
4900.095400711665
 21
6169.395066522728
 31
0.0
  0
LINE
  5
2794C
330
747D
100
AcDbEntity
  8
細線
 48
50.0
100
AcDbLine
 10
4798.599999999993
 20
6022.998385205709
 30
0.0
 11
4944.996681317012
 21
6169.395066522728
 31
0.0
  0
LINE
  5
2794D
102
{ACAD_REACTORS
330
28255
102
}
330
747D
100
AcDbEntity
  8
部品1
 48
50.0
100
AcDbLine
 10
4538.599999999999
 20
6784.395066522748
 30
0.0
 11
4418.599999999989
 21
6784.395066522745
 31
0.0
  0
LINE
  5
2794E
102
{ACAD_REACTORS
330
28255
102
}
330
747D
100
AcDbEntity
  8
部品1
 48
50.0
100
AcDbLine
 10
4538.599999999999
 20
6584.395066522748
 30
0.0
 11
4418.599999999989
 21
6584.395066522745
 31
0.0
  0
LINE
  5
27957
330
747D
100
AcDbEntity
  8
想像線
 48
5.0
100
AcDbLine
 10
5188.600000000004
 20
5889.395066522709
 30
0.0
 11
5188.600000000004
 21
5169.395066522699
 31
0.0
  0
LINE
  5
27964
330
747D
100
AcDbEntity
  8
センター
 48
2.0
100
AcDbLine
 10
5323.600000000007
 20
6696.395066522727
 30
0.0
 11
5423.600000000007
 21
6696.395066522727
 31
0.0
  0
LINE
  5
27965
330
747D
100
AcDbEntity
  8
部品1
 48
50.0
100
AcDbLine
 10
5473.600000000008
 20
6596.395066522728
 30
0.0
 11
5273.600000000008
 21
6596.395066522728
 31
0.0
  0
LINE
  5
27966
330
747D
100
AcDbEntity
  8
部品1
 48
50.0
100
AcDbLine
 10
5473.600000000008
 20
6796.395066522727
 30
0.0
 11
5273.600000000008
 21
6796.395066522727
 31
0.0
  0
LINE
  5
27967
330
747D
100
AcDbEntity
  8
部品1
 48
50.0
100
AcDbLine
 10
5273.600000000008
 20
6596.395066522728
 30
0.0
 11
5273.600000000008
 21
6796.395066522727
 31
0.0
  0
LINE
  5
27968
330
747D
100
AcDbEntity
  8
部品1
 48
50.0
100
AcDbLine
 10
5473.600000000008
 20
6596.395066522728
 30
0.0
 11
5473.600000000008
 21
6796.395066522727
 31
0.0
  0
LINE
  5
27969
330
747D
100
AcDbEntity
  8
センター
 48
2.0
100
AcDbLine
 10
5373.600000000007
 20
6746.395066522727
 30
0.0
 11
5373.600000000007
 21
6646.395066522727
 31
0.0
  0
LINE
  5
2796D
330
747D
100
AcDbEntity
  8
部品1
 48
50.0
100
AcDbLine
 10
6423.600000000007
 20
6796.395066522727
 30
0.0
 11
6223.600000000008
 21
6796.395066522727
 31
0.0
  0
LINE
  5
2796E
330
747D
100
AcDbEntity
  8
部品1
 48
50.0
100
AcDbLine
 10
6423.600000000007
 20
6596.395066522728
 30
0.0
 11
6223.600000000008
 21
6596.395066522728
 31
0.0
  0
LINE
  5
2796F
330
747D
100
AcDbEntity
  8
部品1
 48
50.0
100
AcDbLine
 10
6223.600000000008
 20
6596.395066522728
 30
0.0
 11
6223.600000000008
 21
6796.395066522727
 31
0.0
  0
LINE
  5
27970
330
747D
100
AcDbEntity
  8
センター
 48
2.0
100
AcDbLine
 10
6323.600000000007
 20
6746.395066522727
 30
0.0
 11
6323.600000000007
 21
6646.395066522727
 31
0.0
  0
LINE
  5
27971
330
747D
100
AcDbEntity
  8
センター
 48
2.0
100
AcDbLine
 10
6273.600000000008
 20
6696.395066522727
 30
0.0
 11
6373.600000000007
 21
6696.395066522727
 31
0.0
  0
LINE
  5
27972
330
747D
100
AcDbEntity
  8
部品1
 48
50.0
100
AcDbLine
 10
6423.600000000007
 20
6596.395066522728
 30
0.0
 11
6423.600000000007
 21
6796.395066522727
 31
0.0
  0
CIRCLE
  5
27976
330
747D
100
AcDbEntity
  8
部品1
 48
50.0
100
AcDbCircle
 10
7155.600000000008
 20
6087.395066522731
 30
0.0
 40
35.0
  0
LINE
  5
27977
330
747D
100
AcDbEntity
  8
センター
 48
2.0
100
AcDbLine
 10
7105.600000000008
 20
6087.395066522731
 30
0.0
 11
7205.600000000008
 21
6087.395066522731
 31
0.0
  0
LINE
  5
27978
330
747D
100
AcDbEntity
  8
センター
 48
2.0
100
AcDbLine
 10
7155.600000000008
 20
6137.395066522731
 30
0.0
 11
7155.600000000008
 21
6037.395066522731
 31
0.0
  0
LINE
  5
27979
330
747D
100
AcDbEntity
  8
部品1
 48
50.0
100
AcDbLine
 10
7373.600000000007
 20
6596.395066522728
 30
0.0
 11
7173.600000000007
 21
6596.395066522728
 31
0.0
  0
LINE
  5
2797A
330
747D
100
AcDbEntity
  8
部品1
 48
50.0
100
AcDbLine
 10
7373.600000000007
 20
6796.395066522727
 30
0.0
 11
7173.600000000007
 21
6796.395066522727
 31
0.0
  0
LINE
  5
2797B
330
747D
100
AcDbEntity
  8
部品1
 48
50.0
100
AcDbLine
 10
7173.600000000007
 20
6596.395066522728
 30
0.0
 11
7173.600000000007
 21
6796.395066522727
 31
0.0
  0
LINE
  5
2797C
330
747D
100
AcDbEntity
  8
部品1
 48
50.0
100
AcDbLine
 10
7373.600000000007
 20
6596.395066522728
 30
0.0
 11
7373.600000000007
 21
6796.395066522727
 31
0.0
  0
LINE
  5
2797D
330
747D
100
AcDbEntity
  8
センター
 48
2.0
100
AcDbLine
 10
7273.600000000008
 20
6746.395066522727
 30
0.0
 11
7273.600000000008
 21
6646.395066522727
 31
0.0
  0
LINE
  5
2797E
330
747D
100
AcDbEntity
  8
センター
 48
2.0
100
AcDbLine
 10
7223.600000000008
 20
6696.395066522727
 30
0.0
 11
7323.600000000007
 21
6696.395066522727
 31
0.0
  0
TEXT
  5
2798B
330
747D
100
AcDbEntity
  8
寸法
 48
50.0
100
AcDbText
 10
8096.710421179466
 20
5908.076357315465
 30
0.0
 40
120.0
  1
扉面
  7
STYLE1
100
AcDbText
  0
LINE
  5
2798C
330
747D
100
AcDbEntity
  8
センター
 48
2.0
100
AcDbLine
 10
8173.600000000007
 20
6696.395066522727
 30
0.0
 11
8273.600000000007
 21
6696.395066522727
 31
0.0
  0
LINE
  5
2798D
330
747D
100
AcDbEntity
  8
部品1
 48
50.0
100
AcDbLine
 10
8323.600000000007
 20
6796.395066522727
 30
0.0
 11
8123.600000000008
 21
6796.395066522727
 31
0.0
  0
LINE
  5
2798E
330
747D
100
AcDbEntity
  8
部品1
 48
50.0
100
AcDbLine
 10
8323.600000000007
 20
6596.395066522728
 30
0.0
 11
8123.600000000008
 21
6596.395066522728
 31
0.0
  0
LINE
  5
2798F
330
747D
100
AcDbEntity
  8
センター
 48
2.0
100
AcDbLine
 10
8223.600000000008
 20
6746.395066522727
 30
0.0
 11
8223.600000000008
 21
6646.395066522727
 31
0.0
  0
LINE
  5
27990
330
747D
100
AcDbEntity
  8
部品1
 48
50.0
100
AcDbLine
 10
8123.600000000008
 20
6596.395066522728
 30
0.0
 11
8123.600000000008
 21
6796.395066522727
 31
0.0
  0
LINE
  5
27991
330
747D
100
AcDbEntity
  8
部品1
 48
50.0
100
AcDbLine
 10
8323.600000000007
 20
6596.395066522728
 30
0.0
 11
8323.600000000007
 21
6796.395066522727
 31
0.0
  0
DIMENSION
  5
27992
330
747D
100
AcDbEntity
  8
寸法
 48
50.0
100
AcDbDimension
  2
*D39
 10
4541.6
 20
8155.661524616638
 30
0.0
 11
5848.600000000001
 21
8255.67333564026
 31
0.0
 70
    32
 71
     5
 42
2614.0
  3
INABA_S40G
100
AcDbAlignedDimension
 13
7155.600000000001
 23
7356.395066522728
 33
0.0
 14
4541.6
 24
7356.395066522728
 34
0.0
100
AcDbRotatedDimension
1001
ACAD
1000
DSTYLE
1002
{
1070
   341
1005
0
1002
}
  0
DIMENSION
  5
27995
330
747D
100
AcDbEntity
  8
寸法
 48
50.0
100
AcDbDimension
  2
*D40
 10
4418.6
 20
8155.661524616638
 30
0.0
 11
4145.493398282201
 21
8155.661524616638
 31
0.0
 70
   160
 71
     5
 42
123.0
  3
INABA_S40G
100
AcDbAlignedDimension
 13
4541.6
 23
7356.395066522728
 33
0.0
 14
4418.6
 24
7429.395066522727
 34
0.0
100
AcDbRotatedDimension
1001
ACAD
1000
DSTYLE
1002
{
1070
   341
1005
0
1002
}
  0
DIMENSION
  5
27996
330
747D
100
AcDbEntity
  8
寸法
 48
50.0
100
AcDbDimension
  2
*D41
 10
3795.665006330073
 20
7306.395066522728
 30
0.0
 11
3795.665006330072
 21
7702.501668240528
 31
0.0
 70
   160
 71
     5
 42
123.0
  3
INABA_S40G
100
AcDbAlignedDimension
 13
4418.6
 23
7429.395066522727
 33
0.0
 14
4491.6
 24
7306.395066522728
 34
0.0
 50
90.0
100
AcDbRotatedDimension
1001
ACAD
1000
DSTYLE
1002
{
1070
   341
1005
0
1002
}
  0
LINE
  5
27997
330
747D
100
AcDbEntity
  8
細線
 48
50.0
100
AcDbLine
 10
4798.599999999996
 20
7366.320155496571
 30
0.0
 11
4861.674911026157
 21
7429.395066522727
 31
0.0
  0
LINE
  5
27998
330
747D
100
AcDbEntity
  8
部品1
 48
50.0
100
AcDbLine
 10
4798.599999999995
 20
7429.395066522727
 30
0.0
 11
4798.600000000003
 21
7229.395066522727
 31
0.0
  0
LINE
  5
27999
330
747D
100
AcDbEntity
  8
部品1
 48
50.0
100
AcDbLine
 10
4998.599999999995
 20
7429.395066522727
 30
0.0
 11
4998.600000000003
 21
7229.395066522727
 31
0.0
  0
LINE
  5
2799A
330
747D
100
AcDbEntity
  8
細線
 48
50.0
100
AcDbLine
 10
4798.600000000003
 20
7231.616313680537
 30
0.0
 11
4996.378752842194
 21
7429.395066522727
 31
0.0
  0
LINE
  5
2799B
330
747D
100
AcDbEntity
  8
細線
 48
50.0
100
AcDbLine
 10
4798.6
 20
7276.517594285877
 30
0.0
 11
4951.477472236848
 21
7429.395066522727
 31
0.0
  0
LINE
  5
2799C
330
747D
100
AcDbEntity
  8
細線
 48
50.0
100
AcDbLine
 10
4798.599999999999
 20
7321.418874891223
 30
0.0
 11
4906.576191631502
 21
7429.395066522727
 31
0.0
  0
LINE
  5
2799D
330
747D
100
AcDbEntity
  8
センター
 48
2.0
100
AcDbLine
 10
4491.6
 20
7306.395066522728
 30
0.0
 11
4591.6
 21
7306.395066522728
 31
0.0
  0
CIRCLE
  5
2799E
330
747D
100
AcDbEntity
  8
部品1
 48
50.0
100
AcDbCircle
 10
4541.6
 20
7306.395066522728
 30
0.0
 40
35.0
  0
LINE
  5
2799F
330
747D
100
AcDbEntity
  8
センター
 48
2.0
100
AcDbLine
 10
4541.6
 20
7356.395066522728
 30
0.0
 11
4541.6
 21
7256.395066522728
 31
0.0
  0
LINE
  5
279A0
330
747D
100
AcDbEntity
  8
細線
 48
50.0
100
AcDbLine
 10
4931.082594658235
 20
7229.395066522726
 30
0.0
 11
4998.6
 21
7296.912471864491
 31
0.0
  0
LINE
  5
279A1
330
747D
100
AcDbEntity
  8
細線
 48
50.0
100
AcDbLine
 10
4886.181314052898
 20
7229.395066522726
 30
0.0
 11
4998.6
 21
7341.813752469843
 31
0.0
  0
LINE
  5
279A2
330
747D
100
AcDbEntity
  8
細線
 48
50.0
100
AcDbLine
 10
4841.280033447538
 20
7229.395066522724
 30
0.0
 11
4998.599999999997
 21
7386.715033075185
 31
0.0
  0
LINE
  5
279A3
330
747D
100
AcDbEntity
  8
細線
 48
50.0
100
AcDbLine
 10
4975.98387526359
 20
7229.395066522724
 30
0.0
 11
4998.600000000003
 21
7252.01119125914
 31
0.0
  0
LINE
  5
279A4
330
747D
100
AcDbEntity
  8
細線
 48
50.0
100
AcDbLine
 10
4798.599999999996
 20
7411.221436101914
 30
0.0
 11
4816.773630420811
 21
7429.395066522727
 31
0.0
  0
LINE
  5
279A5
330
747D
100
AcDbEntity
  8
細線
 48
50.0
100
AcDbLine
 10
6786.181314052898
 20
7229.395066522726
 30
0.0
 11
6898.6
 21
7341.813752469843
 31
0.0
  0
LINE
  5
279A6
330
747D
100
AcDbEntity
  8
細線
 48
50.0
100
AcDbLine
 10
6741.280033447537
 20
7229.395066522724
 30
0.0
 11
6898.599999999998
 21
7386.715033075185
 31
0.0
  0
LINE
  5
279A7
330
747D
100
AcDbEntity
  8
細線
 48
50.0
100
AcDbLine
 10
6698.600000000002
 20
7231.616313680537
 30
0.0
 11
6896.378752842195
 21
7429.395066522727
 31
0.0
  0
LINE
  5
279A8
330
747D
100
AcDbEntity
  8
細線
 48
50.0
100
AcDbLine
 10
6698.6
 20
7276.517594285877
 30
0.0
 11
6851.477472236847
 21
7429.395066522727
 31
0.0
  0
LINE
  5
279A9
330
747D
100
AcDbEntity
  8
細線
 48
50.0
100
AcDbLine
 10
6698.599999999998
 20
7321.418874891223
 30
0.0
 11
6806.576191631503
 21
7429.395066522727
 31
0.0
  0
LINE
  5
279AB
330
747D
100
AcDbEntity
  8
細線
 48
50.0
100
AcDbLine
 10
5748.599999999997
 20
7366.320155496571
 30
0.0
 11
5811.674911026157
 21
7429.395066522727
 31
0.0
  0
LINE
  5
279AC
330
747D
100
AcDbEntity
  8
細線
 48
50.0
100
AcDbLine
 10
5748.599999999999
 20
7321.418874891223
 30
0.0
 11
5856.576191631503
 21
7429.395066522727
 31
0.0
  0
LINE
  5
279AD
330
747D
100
AcDbEntity
  8
細線
 48
50.0
100
AcDbLine
 10
5748.6
 20
7276.517594285877
 30
0.0
 11
5901.477472236848
 21
7429.395066522727
 31
0.0
  0
LINE
  5
279AE
330
747D
100
AcDbEntity
  8
細線
 48
50.0
100
AcDbLine
 10
5748.600000000003
 20
7231.616313680537
 30
0.0
 11
5946.378752842194
 21
7429.395066522727
 31
0.0
  0
LINE
  5
279AF
330
747D
100
AcDbEntity
  8
部品1
 48
50.0
100
AcDbLine
 10
5948.599999999995
 20
7429.395066522727
 30
0.0
 11
5948.600000000002
 21
7229.395066522727
 31
0.0
  0
LINE
  5
279B0
330
747D
100
AcDbEntity
  8
部品1
 48
50.0
100
AcDbLine
 10
5748.599999999995
 20
7429.395066522727
 30
0.0
 11
5748.600000000003
 21
7229.395066522727
 31
0.0
  0
LINE
  5
279B1
330
747D
100
AcDbEntity
  8
細線
 48
50.0
100
AcDbLine
 10
5881.082594658235
 20
7229.395066522726
 30
0.0
 11
5948.6
 21
7296.912471864491
 31
0.0
  0
LINE
  5
279B2
330
747D
100
AcDbEntity
  8
細線
 48
50.0
100
AcDbLine
 10
5925.98387526359
 20
7229.395066522724
 30
0.0
 11
5948.6
 21
7252.01119125914
 31
0.0
  0
LINE
  5
279B3
330
747D
100
AcDbEntity
  8
細線
 48
50.0
100
AcDbLine
 10
5791.280033447538
 20
7229.395066522724
 30
0.0
 11
5948.599999999997
 21
7386.715033075185
 31
0.0
  0
LINE
  5
279B4
330
747D
100
AcDbEntity
  8
細線
 48
50.0
100
AcDbLine
 10
5836.181314052897
 20
7229.395066522726
 30
0.0
 11
5948.6
 21
7341.813752469843
 31
0.0
  0
LINE
  5
279B5
330
747D
100
AcDbEntity
  8
細線
 48
50.0
100
AcDbLine
 10
5748.599999999997
 20
7411.221436101914
 30
0.0
 11
5766.773630420811
 21
7429.395066522727
 31
0.0
  0
LINE
  5
279B6
330
747D
100
AcDbEntity
  8
細線
 48
50.0
100
AcDbLine
 10
6698.599999999996
 20
7366.320155496571
 30
0.0
 11
6761.674911026156
 21
7429.395066522727
 31
0.0
  0
LINE
  5
279B7
330
747D
100
AcDbEntity
  8
部品1
 48
50.0
100
AcDbLine
 10
6698.599999999995
 20
7429.395066522727
 30
0.0
 11
6698.600000000002
 21
7229.395066522727
 31
0.0
  0
LINE
  5
279B8
330
747D
100
AcDbEntity
  8
細線
 48
50.0
100
AcDbLine
 10
6698.599999999996
 20
7411.221436101914
 30
0.0
 11
6716.77363042081
 21
7429.395066522727
 31
0.0
  0
LINE
  5
279B9
330
747D
100
AcDbEntity
  8
部品1
 48
50.0
100
AcDbLine
 10
6898.599999999994
 20
7429.395066522727
 30
0.0
 11
6898.600000000001
 21
7229.395066522727
 31
0.0
  0
LINE
  5
279BA
330
747D
100
AcDbEntity
  8
細線
 48
50.0
100
AcDbLine
 10
6875.98387526359
 20
7229.395066522724
 30
0.0
 11
6898.6
 21
7252.01119125914
 31
0.0
  0
LINE
  5
279BB
330
747D
100
AcDbEntity
  8
細線
 48
50.0
100
AcDbLine
 10
6831.082594658235
 20
7229.395066522726
 30
0.0
 11
6898.6
 21
7296.912471864491
 31
0.0
  0
LINE
  5
279BC
330
747D
100
AcDbEntity
  8
センター
 48
2.0
100
AcDbLine
 10
7105.600000000001
 20
7306.395066522728
 30
0.0
 11
7205.600000000001
 21
7306.395066522728
 31
0.0
  0
CIRCLE
  5
279BD
330
747D
100
AcDbEntity
  8
部品1
 48
50.0
100
AcDbCircle
 10
7155.600000000001
 20
7306.395066522728
 30
0.0
 40
35.0
  0
LINE
  5
279BE
330
747D
100
AcDbEntity
  8
センター
 48
2.0
100
AcDbLine
 10
7155.600000000001
 20
7356.395066522728
 30
0.0
 11
7155.600000000001
 21
7256.395066522728
 31
0.0
  0
LINE
  5
279BF
330
747D
100
AcDbEntity
  8
細線
 48
50.0
100
AcDbLine
 10
7648.599999999998
 20
7366.320155496571
 30
0.0
 11
7711.674911026157
 21
7429.395066522727
 31
0.0
  0
LINE
  5
279C0
330
747D
100
AcDbEntity
  8
部品1
 48
50.0
100
AcDbLine
 10
7648.599999999994
 20
7429.395066522727
 30
0.0
 11
7648.600000000001
 21
7229.395066522727
 31
0.0
  0
LINE
  5
279C1
330
747D
100
AcDbEntity
  8
部品1
 48
50.0
100
AcDbLine
 10
7848.599999999994
 20
7429.395066522727
 30
0.0
 11
7848.600000000002
 21
7229.395066522727
 31
0.0
  0
LINE
  5
279C2
330
747D
100
AcDbEntity
  8
細線
 48
50.0
100
AcDbLine
 10
7648.600000000001
 20
7231.616313680537
 30
0.0
 11
7846.378752842195
 21
7429.395066522727
 31
0.0
  0
LINE
  5
279C3
330
747D
100
AcDbEntity
  8
細線
 48
50.0
100
AcDbLine
 10
7648.6
 20
7276.517594285877
 30
0.0
 11
7801.477472236847
 21
7429.395066522727
 31
0.0
  0
LINE
  5
279C4
330
747D
100
AcDbEntity
  8
細線
 48
50.0
100
AcDbLine
 10
7648.599999999999
 20
7321.418874891223
 30
0.0
 11
7756.576191631502
 21
7429.395066522727
 31
0.0
  0
LINE
  5
279C5
330
747D
100
AcDbEntity
  8
細線
 48
50.0
100
AcDbLine
 10
7825.98387526359
 20
7229.395066522724
 30
0.0
 11
7848.600000000001
 21
7252.01119125914
 31
0.0
  0
LINE
  5
279C6
330
747D
100
AcDbEntity
  8
細線
 48
50.0
100
AcDbLine
 10
7781.082594658236
 20
7229.395066522726
 30
0.0
 11
7848.600000000001
 21
7296.912471864491
 31
0.0
  0
LINE
  5
279C7
330
747D
100
AcDbEntity
  8
細線
 48
50.0
100
AcDbLine
 10
7736.181314052898
 20
7229.395066522726
 30
0.0
 11
7848.600000000001
 21
7341.813752469843
 31
0.0
  0
LINE
  5
279C8
330
747D
100
AcDbEntity
  8
細線
 48
50.0
100
AcDbLine
 10
7691.280033447537
 20
7229.395066522724
 30
0.0
 11
7848.599999999997
 21
7386.715033075185
 31
0.0
  0
LINE
  5
279C9
330
747D
100
AcDbEntity
  8
細線
 48
50.0
100
AcDbLine
 10
7648.599999999998
 20
7411.221436101914
 30
0.0
 11
7666.77363042081
 21
7429.395066522727
 31
0.0
  0
LINE
  5
279CC
102
{ACAD_REACTORS
330
28240
102
}
330
747D
100
AcDbEntity
  8
部品1
 48
50.0
100
AcDbLine
 10
12028.6
 20
5889.395066522745
 30
0.0
 11
12028.6
 21
7429.395066522727
 31
0.0
  0
DIMENSION
  5
279CF
330
747D
100
AcDbEntity
  8
寸法
 48
50.0
100
AcDbDimension
  2
*D42
 10
10123.60000000001
 20
7912.003883192976
 30
0.0
 11
10598.60000000001
 21
8012.003883192976
 31
0.0
 70
    32
 71
     5
 42
950.0
  3
INABA_S40G
100
AcDbAlignedDimension
 13
11073.60000000001
 23
6746.395066522727
 33
0.0
 14
10123.60000000001
 24
6749.395066522727
 34
0.0
100
AcDbRotatedDimension
1001
ACAD
1000
DSTYLE
1002
{
1070
   341
1005
0
1002
}
  0
DIMENSION
  5
279D0
330
747D
100
AcDbEntity
  8
寸法
 48
50.0
100
AcDbDimension
  2
*D43
 10
9173.600000000007
 20
7912.003883192976
 30
0.0
 11
9648.600000000008
 21
8012.003883192976
 31
0.0
 70
    32
 71
     5
 42
950.0
  3
INABA_S40G
100
AcDbAlignedDimension
 13
10123.60000000001
 23
6749.395066522727
 33
0.0
 14
9173.600000000007
 24
6746.395066522727
 34
0.0
100
AcDbRotatedDimension
1001
ACAD
1000
DSTYLE
1002
{
1070
   341
1005
0
1002
}
  0
DIMENSION
  5
279D1
330
747D
100
AcDbEntity
  8
寸法
 48
50.0
100
AcDbDimension
  2
*D44
 10
11073.60000000001
 20
7912.003883192976
 30
0.0
 11
11551.1
 21
8012.003883192976
 31
0.0
 70
    32
 71
     5
 42
954.9999999999927
  3
INABA_S40G
100
AcDbAlignedDimension
 13
12028.6
 23
7429.395066522727
 33
0.0
 14
11073.60000000001
 24
6746.395066522727
 34
0.0
100
AcDbRotatedDimension
1001
ACAD
1000
DSTYLE
1002
{
1070
   341
1005
0
1002
}
  0
LINE
  5
279D2
330
747D
100
AcDbEntity
  8
センター
 48
2.0
100
AcDbLine
 10
10073.60000000001
 20
6696.395066522727
 30
0.0
 11
10173.6
 21
6696.395066522727
 31
0.0
  0
LINE
  5
279D3
330
747D
100
AcDbEntity
  8
部品1
 48
50.0
100
AcDbLine
 10
10223.60000000001
 20
6596.395066522728
 30
0.0
 11
10023.60000000001
 21
6596.395066522728
 31
0.0
  0
LINE
  5
279D4
330
747D
100
AcDbEntity
  8
部品1
 48
50.0
100
AcDbLine
 10
10223.60000000001
 20
6796.395066522727
 30
0.0
 11
10023.60000000001
 21
6796.395066522727
 31
0.0
  0
LINE
  5
279D5
330
747D
100
AcDbEntity
  8
部品1
 48
50.0
100
AcDbLine
 10
9273.600000000007
 20
6796.395066522727
 30
0.0
 11
9073.600000000007
 21
6796.395066522727
 31
0.0
  0
LINE
  5
279D6
330
747D
100
AcDbEntity
  8
部品1
 48
50.0
100
AcDbLine
 10
9273.600000000007
 20
6596.395066522728
 30
0.0
 11
9073.600000000007
 21
6596.395066522728
 31
0.0
  0
LINE
  5
279E3
330
747D
100
AcDbEntity
  8
センター
 48
2.0
100
AcDbLine
 10
9005.600000000008
 20
6087.395066522731
 30
0.0
 11
9105.600000000007
 21
6087.395066522731
 31
0.0
  0
CIRCLE
  5
279E4
330
747D
100
AcDbEntity
  8
部品1
 48
50.0
100
AcDbCircle
 10
9055.600000000008
 20
6087.395066522731
 30
0.0
 40
35.0
  0
LINE
  5
279E5
330
747D
100
AcDbEntity
  8
センター
 48
2.0
100
AcDbLine
 10
9055.600000000008
 20
6137.395066522731
 30
0.0
 11
9055.600000000008
 21
6037.395066522731
 31
0.0
  0
LINE
  5
279E6
330
747D
100
AcDbEntity
  8
センター
 48
2.0
100
AcDbLine
 10
9173.600000000007
 20
6746.395066522727
 30
0.0
 11
9173.600000000007
 21
6646.395066522727
 31
0.0
  0
LINE
  5
279E7
330
747D
100
AcDbEntity
  8
部品1
 48
50.0
100
AcDbLine
 10
9073.600000000007
 20
6596.395066522728
 30
0.0
 11
9073.600000000007
 21
6796.395066522727
 31
0.0
  0
LINE
  5
279E8
330
747D
100
AcDbEntity
  8
センター
 48
2.0
100
AcDbLine
 10
9123.600000000008
 20
6696.395066522727
 30
0.0
 11
9223.600000000008
 21
6696.395066522727
 31
0.0
  0
LINE
  5
279F5
330
747D
100
AcDbEntity
  8
部品1
 48
50.0
100
AcDbLine
 10
9273.600000000007
 20
6596.395066522728
 30
0.0
 11
9273.600000000007
 21
6796.395066522727
 31
0.0
  0
LINE
  5
279F6
330
747D
100
AcDbEntity
  8
部品1
 48
50.0
100
AcDbLine
 10
10023.60000000001
 20
6596.395066522728
 30
0.0
 11
10023.60000000001
 21
6796.395066522727
 31
0.0
  0
LINE
  5
27A03
330
747D
100
AcDbEntity
  8
部品1
 48
50.0
100
AcDbLine
 10
10223.60000000001
 20
6596.395066522728
 30
0.0
 11
10223.60000000001
 21
6796.395066522727
 31
0.0
  0
LINE
  5
27A04
330
747D
100
AcDbEntity
  8
センター
 48
2.0
100
AcDbLine
 10
10123.60000000001
 20
6746.395066522727
 30
0.0
 11
10123.60000000001
 21
6646.395066522727
 31
0.0
  0
LINE
  5
27A11
330
747D
100
AcDbEntity
  8
センター
 48
2.0
100
AcDbLine
 10
11023.60000000001
 20
6696.395066522727
 30
0.0
 11
11123.60000000001
 21
6696.395066522727
 31
0.0
  0
LINE
  5
27A12
330
747D
100
AcDbEntity
  8
部品1
 48
50.0
100
AcDbLine
 10
11173.60000000001
 20
6796.395066522727
 30
0.0
 11
10973.60000000001
 21
6796.395066522727
 31
0.0
  0
LINE
  5
27A13
330
747D
100
AcDbEntity
  8
部品1
 48
50.0
100
AcDbLine
 10
11173.60000000001
 20
6596.395066522728
 30
0.0
 11
10973.60000000001
 21
6596.395066522728
 31
0.0
  0
LINE
  5
27A14
330
747D
100
AcDbEntity
  8
センター
 48
2.0
100
AcDbLine
 10
11073.60000000001
 20
6746.395066522727
 30
0.0
 11
11073.60000000001
 21
6646.395066522727
 31
0.0
  0
LINE
  5
27A15
330
747D
100
AcDbEntity
  8
部品1
 48
50.0
100
AcDbLine
 10
10973.60000000001
 20
6596.395066522728
 30
0.0
 11
10973.60000000001
 21
6796.395066522727
 31
0.0
  0
LINE
  5
27A16
330
747D
100
AcDbEntity
  8
部品1
 48
50.0
100
AcDbLine
 10
11173.60000000001
 20
6596.395066522728
 30
0.0
 11
11173.60000000001
 21
6796.395066522727
 31
0.0
  0
LINE
  5
27A1D
330
747D
100
AcDbEntity
  8
センター
 48
2.0
100
AcDbLine
 10
11855.60000000001
 20
6087.395066522731
 30
0.0
 11
11955.60000000001
 21
6087.395066522731
 31
0.0
  0
CIRCLE
  5
27A1E
330
747D
100
AcDbEntity
  8
部品1
 48
50.0
100
AcDbCircle
 10
11905.6
 20
6087.395066522731
 30
0.0
 40
35.0
  0
LINE
  5
27A1F
330
747D
100
AcDbEntity
  8
センター
 48
2.0
100
AcDbLine
 10
11905.6
 20
6137.395066522731
 30
0.0
 11
11905.6
 21
6037.395066522731
 31
0.0
  0
LINE
  5
27A20
102
{ACAD_REACTORS
330
28240
102
}
330
747D
100
AcDbEntity
  8
部品1
 48
50.0
100
AcDbLine
 10
12028.59999999998
 20
6784.395066522749
 30
0.0
 11
11908.6
 21
6784.395066522749
 31
0.0
  0
LINE
  5
27A21
102
{ACAD_REACTORS
330
28240
102
}
330
747D
100
AcDbEntity
  8
部品1
 48
50.0
100
AcDbLine
 10
12028.59999999998
 20
6584.395066522749
 30
0.0
 11
11908.6
 21
6584.395066522749
 31
0.0
  0
DIMENSION
  5
27A23
330
747D
100
AcDbEntity
  8
寸法
 48
50.0
100
AcDbDimension
  2
*D45
 10
9055.600000000001
 20
8155.661524616638
 30
0.0
 11
10480.6
 21
8255.67333564026
 31
0.0
 70
    32
 71
     5
 42
2850.0
  3
INABA_S40G
100
AcDbAlignedDimension
 13
11905.6
 23
7356.395066522728
 33
0.0
 14
9055.600000000001
 24
7356.395066522728
 34
0.0
100
AcDbRotatedDimension
1001
ACAD
1000
DSTYLE
1002
{
1070
   341
1005
0
1002
}
  0
LINE
  5
27A24
330
747D
100
AcDbEntity
  8
細線
 48
50.0
100
AcDbLine
 10
8598.599999999997
 20
7366.320155496571
 30
0.0
 11
8661.674911026159
 21
7429.395066522727
 31
0.0
  0
LINE
  5
27A25
330
747D
100
AcDbEntity
  8
細線
 48
50.0
100
AcDbLine
 10
8598.599999999999
 20
7321.418874891223
 30
0.0
 11
8706.576191631503
 21
7429.395066522727
 31
0.0
  0
LINE
  5
27A26
330
747D
100
AcDbEntity
  8
細線
 48
50.0
100
AcDbLine
 10
8598.600000000001
 20
7276.517594285877
 30
0.0
 11
8751.477472236848
 21
7429.395066522727
 31
0.0
  0
LINE
  5
27A27
330
747D
100
AcDbEntity
  8
細線
 48
50.0
100
AcDbLine
 10
8598.600000000002
 20
7231.616313680537
 30
0.0
 11
8796.378752842194
 21
7429.395066522727
 31
0.0
  0
LINE
  5
27A28
330
747D
100
AcDbEntity
  8
部品1
 48
50.0
100
AcDbLine
 10
8798.599999999995
 20
7429.395066522727
 30
0.0
 11
8798.600000000002
 21
7229.395066522727
 31
0.0
  0
LINE
  5
27A29
330
747D
100
AcDbEntity
  8
部品1
 48
50.0
100
AcDbLine
 10
8598.599999999995
 20
7429.395066522727
 30
0.0
 11
8598.600000000002
 21
7229.395066522727
 31
0.0
  0
LINE
  5
27A2A
330
747D
100
AcDbEntity
  8
細線
 48
50.0
100
AcDbLine
 10
8641.280033447538
 20
7229.395066522724
 30
0.0
 11
8798.599999999998
 21
7386.715033075185
 31
0.0
  0
LINE
  5
27A2B
330
747D
100
AcDbEntity
  8
細線
 48
50.0
100
AcDbLine
 10
8731.082594658236
 20
7229.395066522726
 30
0.0
 11
8798.6
 21
7296.912471864491
 31
0.0
  0
LINE
  5
27A2C
330
747D
100
AcDbEntity
  8
細線
 48
50.0
100
AcDbLine
 10
8775.983875263589
 20
7229.395066522724
 30
0.0
 11
8798.6
 21
7252.01119125914
 31
0.0
  0
LINE
  5
27A2D
330
747D
100
AcDbEntity
  8
細線
 48
50.0
100
AcDbLine
 10
8686.181314052898
 20
7229.395066522726
 30
0.0
 11
8798.6
 21
7341.813752469843
 31
0.0
  0
CIRCLE
  5
27A2E
330
747D
100
AcDbEntity
  8
部品1
 48
50.0
100
AcDbCircle
 10
9055.600000000001
 20
7306.395066522728
 30
0.0
 40
35.0
  0
LINE
  5
27A2F
330
747D
100
AcDbEntity
  8
センター
 48
2.0
100
AcDbLine
 10
9005.600000000001
 20
7306.395066522728
 30
0.0
 11
9105.6
 21
7306.395066522728
 31
0.0
  0
LINE
  5
27A30
330
747D
100
AcDbEntity
  8
センター
 48
2.0
100
AcDbLine
 10
9055.600000000001
 20
7356.395066522728
 30
0.0
 11
9055.600000000001
 21
7256.395066522728
 31
0.0
  0
LINE
  5
27A31
330
747D
100
AcDbEntity
  8
細線
 48
50.0
100
AcDbLine
 10
8598.599999999997
 20
7411.221436101914
 30
0.0
 11
8616.77363042081
 21
7429.395066522727
 31
0.0
  0
LINE
  5
27A32
330
747D
100
AcDbEntity
  8
細線
 48
50.0
100
AcDbLine
 10
9548.599999999998
 20
7366.320155496641
 30
0.0
 11
9611.674911026158
 21
7429.395066522797
 31
0.0
  0
LINE
  5
27A33
330
747D
100
AcDbEntity
  8
細線
 48
50.0
100
AcDbLine
 10
9548.6
 20
7321.418874891293
 30
0.0
 11
9656.576191631504
 21
7429.395066522797
 31
0.0
  0
LINE
  5
27A34
330
747D
100
AcDbEntity
  8
細線
 48
50.0
100
AcDbLine
 10
9548.6
 20
7276.517594285945
 30
0.0
 11
9701.477472236847
 21
7429.395066522797
 31
0.0
  0
LINE
  5
27A35
330
747D
100
AcDbEntity
  8
細線
 48
50.0
100
AcDbLine
 10
9548.600000000005
 20
7231.616313680607
 30
0.0
 11
9746.378752842195
 21
7429.395066522797
 31
0.0
  0
LINE
  5
27A36
330
747D
100
AcDbEntity
  8
部品1
 48
50.0
100
AcDbLine
 10
9748.599999999997
 20
7429.395066522797
 30
0.0
 11
9748.600000000005
 21
7229.395066522797
 31
0.0
  0
LINE
  5
27A37
330
747D
100
AcDbEntity
  8
部品1
 48
50.0
100
AcDbLine
 10
9548.599999999998
 20
7429.395066522797
 30
0.0
 11
9548.600000000005
 21
7229.395066522797
 31
0.0
  0
LINE
  5
27A38
330
747D
100
AcDbEntity
  8
細線
 48
50.0
100
AcDbLine
 10
9591.280033447537
 20
7229.395066522794
 30
0.0
 11
9748.599999999997
 21
7386.715033075254
 31
0.0
  0
LINE
  5
27A39
330
747D
100
AcDbEntity
  8
細線
 48
50.0
100
AcDbLine
 10
9636.181314052899
 20
7229.395066522795
 30
0.0
 11
9748.600000000001
 21
7341.813752469912
 31
0.0
  0
LINE
  5
27A3A
330
747D
100
AcDbEntity
  8
細線
 48
50.0
100
AcDbLine
 10
9681.082594658235
 20
7229.395066522795
 30
0.0
 11
9748.600000000001
 21
7296.91247186456
 31
0.0
  0
LINE
  5
27A3B
330
747D
100
AcDbEntity
  8
細線
 48
50.0
100
AcDbLine
 10
9725.98387526359
 20
7229.395066522794
 30
0.0
 11
9748.600000000005
 21
7252.01119125921
 31
0.0
  0
LINE
  5
27A3C
330
747D
100
AcDbEntity
  8
細線
 48
50.0
100
AcDbLine
 10
9548.599999999998
 20
7411.221436101984
 30
0.0
 11
9566.77363042081
 21
7429.395066522797
 31
0.0
  0
LINE
  5
27A3D
330
747D
100
AcDbEntity
  8
細線
 48
50.0
100
AcDbLine
 10
10498.6
 20
7366.320155496641
 30
0.0
 11
10561.67491102615
 21
7429.395066522797
 31
0.0
  0
LINE
  5
27A3E
330
747D
100
AcDbEntity
  8
部品1
 48
50.0
100
AcDbLine
 10
10498.6
 20
7429.395066522797
 30
0.0
 11
10498.6
 21
7229.395066522797
 31
0.0
  0
LINE
  5
27A3F
330
747D
100
AcDbEntity
  8
部品1
 48
50.0
100
AcDbLine
 10
10698.6
 20
7429.395066522797
 30
0.0
 11
10698.6
 21
7229.395066522797
 31
0.0
  0
LINE
  5
27A40
330
747D
100
AcDbEntity
  8
細線
 48
50.0
100
AcDbLine
 10
10498.6
 20
7231.616313680607
 30
0.0
 11
10696.37875284219
 21
7429.395066522797
 31
0.0
  0
LINE
  5
27A41
330
747D
100
AcDbEntity
  8
細線
 48
50.0
100
AcDbLine
 10
10498.6
 20
7276.517594285945
 30
0.0
 11
10651.47747223684
 21
7429.395066522797
 31
0.0
  0
LINE
  5
27A42
330
747D
100
AcDbEntity
  8
細線
 48
50.0
100
AcDbLine
 10
10498.6
 20
7321.418874891293
 30
0.0
 11
10606.5761916315
 21
7429.395066522797
 31
0.0
  0
LINE
  5
27A43
330
747D
100
AcDbEntity
  8
細線
 48
50.0
100
AcDbLine
 10
10675.98387526359
 20
7229.395066522794
 30
0.0
 11
10698.6
 21
7252.01119125921
 31
0.0
  0
LINE
  5
27A44
330
747D
100
AcDbEntity
  8
細線
 48
50.0
100
AcDbLine
 10
10631.08259465823
 20
7229.395066522795
 30
0.0
 11
10698.6
 21
7296.91247186456
 31
0.0
  0
LINE
  5
27A45
330
747D
100
AcDbEntity
  8
細線
 48
50.0
100
AcDbLine
 10
10586.1813140529
 20
7229.395066522795
 30
0.0
 11
10698.6
 21
7341.813752469912
 31
0.0
  0
LINE
  5
27A46
330
747D
100
AcDbEntity
  8
細線
 48
50.0
100
AcDbLine
 10
10541.28003344753
 20
7229.395066522794
 30
0.0
 11
10698.6
 21
7386.715033075254
 31
0.0
  0
LINE
  5
27A47
330
747D
100
AcDbEntity
  8
細線
 48
50.0
100
AcDbLine
 10
10498.6
 20
7411.221436101984
 30
0.0
 11
10516.77363042081
 21
7429.395066522797
 31
0.0
  0
LINE
  5
27A48
330
747D
100
AcDbEntity
  8
細線
 48
50.0
100
AcDbLine
 10
11448.59999999999
 20
7366.320155496641
 30
0.0
 11
11511.67491102615
 21
7429.395066522797
 31
0.0
  0
LINE
  5
27A49
330
747D
100
AcDbEntity
  8
細線
 48
50.0
100
AcDbLine
 10
11448.6
 20
7321.418874891293
 30
0.0
 11
11556.5761916315
 21
7429.395066522797
 31
0.0
  0
LINE
  5
27A4A
330
747D
100
AcDbEntity
  8
細線
 48
50.0
100
AcDbLine
 10
11448.6
 20
7276.517594285945
 30
0.0
 11
11601.47747223684
 21
7429.395066522797
 31
0.0
  0
LINE
  5
27A4B
330
747D
100
AcDbEntity
  8
細線
 48
50.0
100
AcDbLine
 10
11448.6
 20
7231.616313680607
 30
0.0
 11
11646.37875284219
 21
7429.395066522797
 31
0.0
  0
LINE
  5
27A4C
330
747D
100
AcDbEntity
  8
部品1
 48
50.0
100
AcDbLine
 10
11648.6
 20
7429.395066522797
 30
0.0
 11
11648.6
 21
7229.395066522797
 31
0.0
  0
LINE
  5
27A4D
330
747D
100
AcDbEntity
  8
部品1
 48
50.0
100
AcDbLine
 10
11448.59999999999
 20
7429.395066522797
 30
0.0
 11
11448.6
 21
7229.395066522797
 31
0.0
  0
LINE
  5
27A4E
330
747D
100
AcDbEntity
  8
細線
 48
50.0
100
AcDbLine
 10
11491.28003344753
 20
7229.395066522794
 30
0.0
 11
11648.6
 21
7386.715033075254
 31
0.0
  0
LINE
  5
27A4F
330
747D
100
AcDbEntity
  8
細線
 48
50.0
100
AcDbLine
 10
11581.08259465823
 20
7229.395066522795
 30
0.0
 11
11648.6
 21
7296.91247186456
 31
0.0
  0
LINE
  5
27A50
330
747D
100
AcDbEntity
  8
細線
 48
50.0
100
AcDbLine
 10
11625.98387526359
 20
7229.395066522794
 30
0.0
 11
11648.6
 21
7252.01119125921
 31
0.0
  0
LINE
  5
27A51
330
747D
100
AcDbEntity
  8
細線
 48
50.0
100
AcDbLine
 10
11536.1813140529
 20
7229.395066522795
 30
0.0
 11
11648.6
 21
7341.813752469912
 31
0.0
  0
LINE
  5
27A52
330
747D
100
AcDbEntity
  8
細線
 48
50.0
100
AcDbLine
 10
11448.59999999999
 20
7411.221436101984
 30
0.0
 11
11466.77363042081
 21
7429.395066522797
 31
0.0
  0
DIMENSION
  5
27A54
330
747D
100
AcDbEntity
  8
寸法
 48
50.0
100
AcDbDimension
  2
*D46
 10
11905.6
 20
8155.661524616638
 30
0.0
 11
12301.7066017178
 21
8155.661524616638
 31
0.0
 70
   160
 71
     5
 42
123.0
  3
INABA_S40G
100
AcDbAlignedDimension
 13
12028.6
 23
7429.395066522727
 33
0.0
 14
11905.6
 24
7356.395066522728
 34
0.0
100
AcDbRotatedDimension
1001
ACAD
1000
DSTYLE
1002
{
1070
   341
1005
0
1002
}
  0
CIRCLE
  5
27A56
330
747D
100
AcDbEntity
  8
部品1
 48
50.0
100
AcDbCircle
 10
11905.6
 20
7306.395066522728
 30
0.0
 40
35.0
  0
LINE
  5
27A57
330
747D
100
AcDbEntity
  8
センター
 48
2.0
100
AcDbLine
 10
11855.6
 20
7306.395066522728
 30
0.0
 11
11955.6
 21
7306.395066522728
 31
0.0
  0
LINE
  5
27A58
330
747D
100
AcDbEntity
  8
センター
 48
2.0
100
AcDbLine
 10
11905.6
 20
7356.395066522728
 30
0.0
 11
11905.6
 21
7256.395066522728
 31
0.0
  0
TEXT
  5
280F1
330
747D
100
AcDbEntity
  8
文字
 62
     7
 48
50.0
100
AcDbText
 10
7442.340461600962
 20
4697.669982799108
 30
0.0
 40
200.0
  1
〈参 考 図〉
  7
STYLE2
100
AcDbText
  0
TEXT
  5
2819D
330
747D
100
AcDbEntity
  8
文字
 62
     7
 48
50.0
100
AcDbText
 10
14267.69561199343
 20
838.2527270729188
 30
0.0
 40
100.0
  1
～一般型・多雪地型・豪雪地型～
  7
STYLE2
100
AcDbText
  0
LINE
  5
281BD
330
747D
100
AcDbEntity
  8
部品1
 48
50.0
100
AcDbLine
 10
11908.6
 20
6169.395066522747
 30
0.0
 11
4538.600000000001
 21
6169.395066522728
 31
0.0
  0
LINE
  5
281BE
330
747D
100
AcDbEntity
  8
細線
 48
50.0
100
AcDbLine
 10
5748.599999999993
 20
6022.998385205709
 30
0.0
 11
5894.996681317012
 21
6169.395066522728
 31
0.0
  0
LINE
  5
281BF
330
747D
100
AcDbEntity
  8
細線
 48
50.0
100
AcDbLine
 10
5748.599999999993
 20
6067.899665811058
 30
0.0
 11
5850.095400711665
 21
6169.395066522728
 31
0.0
  0
LINE
  5
281C0
330
747D
100
AcDbEntity
  8
細線
 48
50.0
100
AcDbLine
 10
5748.599999999991
 20
6112.800946416401
 30
0.0
 11
5805.194120106324
 21
6169.395066522728
 31
0.0
  0
LINE
  5
281C1
330
747D
100
AcDbEntity
  8
細線
 48
50.0
100
AcDbLine
 10
5748.599999999995
 20
5978.097104600365
 30
0.0
 11
5939.897961922359
 21
6169.395066522728
 31
0.0
  0
LINE
  5
281C2
330
747D
100
AcDbEntity
  8
細線
 48
50.0
100
AcDbLine
 10
5929.305645554456
 20
5889.395066522749
 30
0.0
 11
5948.6
 21
5908.689420968294
 31
0.0
  0
LINE
  5
281C3
330
747D
100
AcDbEntity
  8
細線
 48
50.0
100
AcDbLine
 10
5749.70052313307
 20
5889.395066522745
 30
0.0
 11
5948.599999999991
 21
6088.294543389669
 31
0.0
  0
LINE
  5
281C4
330
747D
100
AcDbEntity
  8
細線
 48
50.0
100
AcDbLine
 10
5794.601803738415
 20
5889.395066522748
 30
0.0
 11
5948.599999999993
 21
6043.393262784324
 31
0.0
  0
LINE
  5
281C5
330
747D
100
AcDbEntity
  8
細線
 48
50.0
100
AcDbLine
 10
5748.599999999997
 20
5933.195823995018
 30
0.0
 11
5948.599999999991
 21
6133.195823995013
 31
0.0
  0
LINE
  5
281C6
330
747D
100
AcDbEntity
  8
細線
 48
50.0
100
AcDbLine
 10
5839.503084343764
 20
5889.395066522748
 30
0.0
 11
5948.599999999998
 21
5998.491982178984
 31
0.0
  0
LINE
  5
281C7
330
747D
100
AcDbEntity
  8
部品1
 48
50.0
100
AcDbLine
 10
5748.599999999989
 20
6169.395066522728
 30
0.0
 11
5748.599999999997
 21
5889.395066522745
 31
0.0
  0
LINE
  5
281C8
330
747D
100
AcDbEntity
  8
細線
 48
50.0
100
AcDbLine
 10
5884.404364949109
 20
5889.395066522749
 30
0.0
 11
5948.6
 21
5953.590701573638
 31
0.0
  0
LINE
  5
281C9
330
747D
100
AcDbEntity
  8
部品1
 48
50.0
100
AcDbLine
 10
5948.599999999991
 20
6169.39506652273
 30
0.0
 11
5948.599999999997
 21
5889.395066522749
 31
0.0
  0
LINE
  5
281CA
330
747D
100
AcDbEntity
  8
細線
 48
50.0
100
AcDbLine
 10
6698.599999999993
 20
6022.998385205709
 30
0.0
 11
6844.996681317012
 21
6169.395066522728
 31
0.0
  0
LINE
  5
281CB
330
747D
100
AcDbEntity
  8
細線
 48
50.0
100
AcDbLine
 10
6698.599999999993
 20
6067.899665811058
 30
0.0
 11
6800.095400711665
 21
6169.395066522728
 31
0.0
  0
LINE
  5
281CC
330
747D
100
AcDbEntity
  8
細線
 48
50.0
100
AcDbLine
 10
6698.599999999991
 20
6112.800946416401
 30
0.0
 11
6755.194120106324
 21
6169.395066522728
 31
0.0
  0
LINE
  5
281CD
330
747D
100
AcDbEntity
  8
細線
 48
50.0
100
AcDbLine
 10
6698.599999999995
 20
5978.097104600365
 30
0.0
 11
6889.897961922359
 21
6169.395066522728
 31
0.0
  0
LINE
  5
281CE
330
747D
100
AcDbEntity
  8
細線
 48
50.0
100
AcDbLine
 10
6879.305645554456
 20
5889.395066522749
 30
0.0
 11
6898.6
 21
5908.689420968294
 31
0.0
  0
LINE
  5
281CF
330
747D
100
AcDbEntity
  8
細線
 48
50.0
100
AcDbLine
 10
6699.700523133069
 20
5889.395066522745
 30
0.0
 11
6898.599999999992
 21
6088.294543389669
 31
0.0
  0
LINE
  5
281D0
330
747D
100
AcDbEntity
  8
細線
 48
50.0
100
AcDbLine
 10
6744.601803738415
 20
5889.395066522748
 30
0.0
 11
6898.599999999993
 21
6043.393262784324
 31
0.0
  0
LINE
  5
281D1
330
747D
100
AcDbEntity
  8
細線
 48
50.0
100
AcDbLine
 10
6698.599999999996
 20
5933.195823995018
 30
0.0
 11
6898.599999999992
 21
6133.195823995013
 31
0.0
  0
LINE
  5
281D2
330
747D
100
AcDbEntity
  8
細線
 48
50.0
100
AcDbLine
 10
6789.503084343763
 20
5889.395066522748
 30
0.0
 11
6898.599999999999
 21
5998.491982178984
 31
0.0
  0
LINE
  5
281D3
330
747D
100
AcDbEntity
  8
部品1
 48
50.0
100
AcDbLine
 10
6698.599999999989
 20
6169.395066522728
 30
0.0
 11
6698.599999999996
 21
5889.395066522745
 31
0.0
  0
LINE
  5
281D4
330
747D
100
AcDbEntity
  8
細線
 48
50.0
100
AcDbLine
 10
6834.404364949108
 20
5889.395066522749
 30
0.0
 11
6898.6
 21
5953.590701573638
 31
0.0
  0
LINE
  5
281D5
330
747D
100
AcDbEntity
  8
部品1
 48
50.0
100
AcDbLine
 10
6898.599999999991
 20
6169.39506652273
 30
0.0
 11
6898.599999999998
 21
5889.395066522749
 31
0.0
  0
LINE
  5
281D6
330
747D
100
AcDbEntity
  8
細線
 48
50.0
100
AcDbLine
 10
7648.599999999993
 20
6022.998385205709
 30
0.0
 11
7794.996681317012
 21
6169.395066522728
 31
0.0
  0
LINE
  5
281D7
330
747D
100
AcDbEntity
  8
細線
 48
50.0
100
AcDbLine
 10
7648.599999999993
 20
6067.899665811058
 30
0.0
 11
7750.095400711664
 21
6169.395066522728
 31
0.0
  0
LINE
  5
281D8
330
747D
100
AcDbEntity
  8
細線
 48
50.0
100
AcDbLine
 10
7648.599999999992
 20
6112.800946416401
 30
0.0
 11
7705.194120106324
 21
6169.395066522728
 31
0.0
  0
LINE
  5
281D9
330
747D
100
AcDbEntity
  8
細線
 48
50.0
100
AcDbLine
 10
7648.599999999994
 20
5978.097104600365
 30
0.0
 11
7839.89796192236
 21
6169.395066522728
 31
0.0
  0
LINE
  5
281DA
330
747D
100
AcDbEntity
  8
細線
 48
50.0
100
AcDbLine
 10
7829.305645554455
 20
5889.395066522749
 30
0.0
 11
7848.600000000001
 21
5908.689420968294
 31
0.0
  0
LINE
  5
281DB
330
747D
100
AcDbEntity
  8
細線
 48
50.0
100
AcDbLine
 10
7649.70052313307
 20
5889.395066522745
 30
0.0
 11
7848.599999999992
 21
6088.294543389669
 31
0.0
  0
LINE
  5
281DC
330
747D
100
AcDbEntity
  8
細線
 48
50.0
100
AcDbLine
 10
7694.601803738414
 20
5889.395066522748
 30
0.0
 11
7848.599999999994
 21
6043.393262784324
 31
0.0
  0
LINE
  5
281DD
330
747D
100
AcDbEntity
  8
細線
 48
50.0
100
AcDbLine
 10
7648.599999999998
 20
5933.195823995018
 30
0.0
 11
7848.599999999992
 21
6133.195823995013
 31
0.0
  0
LINE
  5
281DE
330
747D
100
AcDbEntity
  8
細線
 48
50.0
100
AcDbLine
 10
7739.503084343763
 20
5889.395066522748
 30
0.0
 11
7848.599999999999
 21
5998.491982178984
 31
0.0
  0
LINE
  5
281DF
330
747D
100
AcDbEntity
  8
部品1
 48
50.0
100
AcDbLine
 10
7648.599999999989
 20
6169.395066522728
 30
0.0
 11
7648.599999999998
 21
5889.395066522745
 31
0.0
  0
LINE
  5
281E0
330
747D
100
AcDbEntity
  8
細線
 48
50.0
100
AcDbLine
 10
7784.404364949108
 20
5889.395066522749
 30
0.0
 11
7848.600000000001
 21
5953.590701573638
 31
0.0
  0
LINE
  5
281E1
330
747D
100
AcDbEntity
  8
部品1
 48
50.0
100
AcDbLine
 10
7848.59999999999
 20
6169.39506652273
 30
0.0
 11
7848.599999999997
 21
5889.395066522749
 31
0.0
  0
LINE
  5
281E2
330
747D
100
AcDbEntity
  8
細線
 48
50.0
100
AcDbLine
 10
8598.599999999994
 20
6022.998385205709
 30
0.0
 11
8744.996681317012
 21
6169.395066522728
 31
0.0
  0
LINE
  5
281E3
330
747D
100
AcDbEntity
  8
細線
 48
50.0
100
AcDbLine
 10
8598.599999999994
 20
6067.899665811058
 30
0.0
 11
8700.095400711663
 21
6169.395066522728
 31
0.0
  0
LINE
  5
281E4
330
747D
100
AcDbEntity
  8
細線
 48
50.0
100
AcDbLine
 10
8598.599999999992
 20
6112.800946416401
 30
0.0
 11
8655.194120106324
 21
6169.395066522728
 31
0.0
  0
LINE
  5
281E5
330
747D
100
AcDbEntity
  8
細線
 48
50.0
100
AcDbLine
 10
8598.599999999995
 20
5978.097104600365
 30
0.0
 11
8789.89796192236
 21
6169.395066522728
 31
0.0
  0
LINE
  5
281E6
330
747D
100
AcDbEntity
  8
細線
 48
50.0
100
AcDbLine
 10
8779.305645554456
 20
5889.395066522749
 30
0.0
 11
8798.6
 21
5908.689420968294
 31
0.0
  0
LINE
  5
281E7
330
747D
100
AcDbEntity
  8
細線
 48
50.0
100
AcDbLine
 10
8599.700523133071
 20
5889.395066522745
 30
0.0
 11
8798.599999999991
 21
6088.294543389669
 31
0.0
  0
LINE
  5
281E8
330
747D
100
AcDbEntity
  8
細線
 48
50.0
100
AcDbLine
 10
8644.601803738416
 20
5889.395066522748
 30
0.0
 11
8798.599999999993
 21
6043.393262784324
 31
0.0
  0
LINE
  5
281E9
330
747D
100
AcDbEntity
  8
細線
 48
50.0
100
AcDbLine
 10
8598.599999999997
 20
5933.195823995018
 30
0.0
 11
8798.599999999991
 21
6133.195823995013
 31
0.0
  0
LINE
  5
281EA
330
747D
100
AcDbEntity
  8
細線
 48
50.0
100
AcDbLine
 10
8689.503084343764
 20
5889.395066522748
 30
0.0
 11
8798.599999999998
 21
5998.491982178984
 31
0.0
  0
LINE
  5
281EB
330
747D
100
AcDbEntity
  8
部品1
 48
50.0
100
AcDbLine
 10
8598.599999999988
 20
6169.395066522728
 30
0.0
 11
8598.599999999997
 21
5889.395066522745
 31
0.0
  0
LINE
  5
281EC
330
747D
100
AcDbEntity
  8
細線
 48
50.0
100
AcDbLine
 10
8734.404364949108
 20
5889.395066522749
 30
0.0
 11
8798.6
 21
5953.590701573638
 31
0.0
  0
LINE
  5
281ED
330
747D
100
AcDbEntity
  8
部品1
 48
50.0
100
AcDbLine
 10
8798.599999999991
 20
6169.39506652273
 30
0.0
 11
8798.599999999998
 21
5889.395066522749
 31
0.0
  0
LINE
  5
281EE
330
747D
100
AcDbEntity
  8
細線
 48
50.0
100
AcDbLine
 10
9548.599999999993
 20
6022.998385205709
 30
0.0
 11
9694.996681317013
 21
6169.395066522728
 31
0.0
  0
LINE
  5
281EF
330
747D
100
AcDbEntity
  8
細線
 48
50.0
100
AcDbLine
 10
9548.599999999993
 20
6067.899665811058
 30
0.0
 11
9650.095400711663
 21
6169.395066522728
 31
0.0
  0
LINE
  5
281F0
330
747D
100
AcDbEntity
  8
細線
 48
50.0
100
AcDbLine
 10
9548.599999999991
 20
6112.800946416401
 30
0.0
 11
9605.194120106325
 21
6169.395066522728
 31
0.0
  0
LINE
  5
281F1
330
747D
100
AcDbEntity
  8
細線
 48
50.0
100
AcDbLine
 10
9548.599999999995
 20
5978.097104600365
 30
0.0
 11
9739.897961922359
 21
6169.395066522728
 31
0.0
  0
LINE
  5
281F2
330
747D
100
AcDbEntity
  8
細線
 48
50.0
100
AcDbLine
 10
9729.305645554456
 20
5889.395066522749
 30
0.0
 11
9748.600000000001
 21
5908.689420968294
 31
0.0
  0
LINE
  5
281F3
330
747D
100
AcDbEntity
  8
細線
 48
50.0
100
AcDbLine
 10
9549.70052313307
 20
5889.395066522745
 30
0.0
 11
9748.599999999992
 21
6088.294543389669
 31
0.0
  0
LINE
  5
281F4
330
747D
100
AcDbEntity
  8
細線
 48
50.0
100
AcDbLine
 10
9594.601803738415
 20
5889.395066522748
 30
0.0
 11
9748.599999999994
 21
6043.393262784324
 31
0.0
  0
LINE
  5
281F5
330
747D
100
AcDbEntity
  8
細線
 48
50.0
100
AcDbLine
 10
9548.599999999998
 20
5933.195823995018
 30
0.0
 11
9748.599999999992
 21
6133.195823995013
 31
0.0
  0
LINE
  5
281F6
330
747D
100
AcDbEntity
  8
細線
 48
50.0
100
AcDbLine
 10
9639.503084343765
 20
5889.395066522748
 30
0.0
 11
9748.599999999999
 21
5998.491982178984
 31
0.0
  0
LINE
  5
281F7
330
747D
100
AcDbEntity
  8
部品1
 48
50.0
100
AcDbLine
 10
9548.599999999989
 20
6169.395066522728
 30
0.0
 11
9548.599999999998
 21
5889.395066522745
 31
0.0
  0
LINE
  5
281F8
330
747D
100
AcDbEntity
  8
細線
 48
50.0
100
AcDbLine
 10
9684.404364949109
 20
5889.395066522749
 30
0.0
 11
9748.600000000001
 21
5953.590701573638
 31
0.0
  0
LINE
  5
281F9
330
747D
100
AcDbEntity
  8
部品1
 48
50.0
100
AcDbLine
 10
9748.599999999992
 20
6169.39506652273
 30
0.0
 11
9748.599999999997
 21
5889.395066522749
 31
0.0
  0
LINE
  5
281FA
330
747D
100
AcDbEntity
  8
細線
 48
50.0
100
AcDbLine
 10
10498.59999999999
 20
6022.998385205709
 30
0.0
 11
10644.99668131701
 21
6169.395066522728
 31
0.0
  0
LINE
  5
281FB
330
747D
100
AcDbEntity
  8
細線
 48
50.0
100
AcDbLine
 10
10498.59999999999
 20
6067.899665811058
 30
0.0
 11
10600.09540071166
 21
6169.395066522728
 31
0.0
  0
LINE
  5
281FC
330
747D
100
AcDbEntity
  8
細線
 48
50.0
100
AcDbLine
 10
10498.59999999999
 20
6112.800946416401
 30
0.0
 11
10555.19412010632
 21
6169.395066522728
 31
0.0
  0
LINE
  5
281FD
330
747D
100
AcDbEntity
  8
細線
 48
50.0
100
AcDbLine
 10
10498.59999999999
 20
5978.097104600365
 30
0.0
 11
10689.89796192236
 21
6169.395066522728
 31
0.0
  0
LINE
  5
281FE
330
747D
100
AcDbEntity
  8
細線
 48
50.0
100
AcDbLine
 10
10679.30564555445
 20
5889.395066522749
 30
0.0
 11
10698.6
 21
5908.689420968294
 31
0.0
  0
LINE
  5
281FF
330
747D
100
AcDbEntity
  8
細線
 48
50.0
100
AcDbLine
 10
10499.70052313307
 20
5889.395066522745
 30
0.0
 11
10698.59999999999
 21
6088.294543389669
 31
0.0
  0
LINE
  5
28200
330
747D
100
AcDbEntity
  8
細線
 48
50.0
100
AcDbLine
 10
10544.60180373841
 20
5889.395066522748
 30
0.0
 11
10698.59999999999
 21
6043.393262784324
 31
0.0
  0
LINE
  5
28201
330
747D
100
AcDbEntity
  8
細線
 48
50.0
100
AcDbLine
 10
10498.6
 20
5933.195823995018
 30
0.0
 11
10698.59999999999
 21
6133.195823995013
 31
0.0
  0
LINE
  5
28202
330
747D
100
AcDbEntity
  8
細線
 48
50.0
100
AcDbLine
 10
10589.50308434376
 20
5889.395066522748
 30
0.0
 11
10698.6
 21
5998.491982178984
 31
0.0
  0
LINE
  5
28203
330
747D
100
AcDbEntity
  8
部品1
 48
50.0
100
AcDbLine
 10
10498.59999999999
 20
6169.395066522728
 30
0.0
 11
10498.6
 21
5889.395066522745
 31
0.0
  0
LINE
  5
28204
330
747D
100
AcDbEntity
  8
細線
 48
50.0
100
AcDbLine
 10
10634.40436494911
 20
5889.395066522749
 30
0.0
 11
10698.6
 21
5953.590701573638
 31
0.0
  0
LINE
  5
28205
330
747D
100
AcDbEntity
  8
部品1
 48
50.0
100
AcDbLine
 10
10698.59999999999
 20
6169.39506652273
 30
0.0
 11
10698.6
 21
5889.395066522749
 31
0.0
  0
LINE
  5
28206
330
747D
100
AcDbEntity
  8
細線
 48
50.0
100
AcDbLine
 10
11448.59999999999
 20
6022.998385205709
 30
0.0
 11
11594.99668131701
 21
6169.395066522728
 31
0.0
  0
LINE
  5
28207
330
747D
100
AcDbEntity
  8
細線
 48
50.0
100
AcDbLine
 10
11448.59999999999
 20
6067.899665811058
 30
0.0
 11
11550.09540071166
 21
6169.395066522728
 31
0.0
  0
LINE
  5
28208
330
747D
100
AcDbEntity
  8
細線
 48
50.0
100
AcDbLine
 10
11448.59999999999
 20
6112.800946416401
 30
0.0
 11
11505.19412010632
 21
6169.395066522728
 31
0.0
  0
LINE
  5
28209
330
747D
100
AcDbEntity
  8
細線
 48
50.0
100
AcDbLine
 10
11448.59999999999
 20
5978.097104600365
 30
0.0
 11
11639.89796192236
 21
6169.395066522728
 31
0.0
  0
LINE
  5
2820A
330
747D
100
AcDbEntity
  8
細線
 48
50.0
100
AcDbLine
 10
11629.30564555445
 20
5889.395066522749
 30
0.0
 11
11648.6
 21
5908.689420968294
 31
0.0
  0
LINE
  5
2820B
330
747D
100
AcDbEntity
  8
細線
 48
50.0
100
AcDbLine
 10
11449.70052313307
 20
5889.395066522745
 30
0.0
 11
11648.59999999999
 21
6088.294543389669
 31
0.0
  0
LINE
  5
2820C
330
747D
100
AcDbEntity
  8
細線
 48
50.0
100
AcDbLine
 10
11494.60180373841
 20
5889.395066522748
 30
0.0
 11
11648.59999999999
 21
6043.393262784324
 31
0.0
  0
LINE
  5
2820D
330
747D
100
AcDbEntity
  8
細線
 48
50.0
100
AcDbLine
 10
11448.59999999999
 20
5933.195823995018
 30
0.0
 11
11648.59999999999
 21
6133.195823995013
 31
0.0
  0
LINE
  5
2820E
330
747D
100
AcDbEntity
  8
細線
 48
50.0
100
AcDbLine
 10
11539.50308434376
 20
5889.395066522748
 30
0.0
 11
11648.6
 21
5998.491982178984
 31
0.0
  0
LINE
  5
2820F
330
747D
100
AcDbEntity
  8
部品1
 48
50.0
100
AcDbLine
 10
11448.59999999999
 20
6169.395066522728
 30
0.0
 11
11448.59999999999
 21
5889.395066522745
 31
0.0
  0
LINE
  5
28210
330
747D
100
AcDbEntity
  8
細線
 48
50.0
100
AcDbLine
 10
11584.40436494911
 20
5889.395066522749
 30
0.0
 11
11648.6
 21
5953.590701573638
 31
0.0
  0
LINE
  5
28211
330
747D
100
AcDbEntity
  8
部品1
 48
50.0
100
AcDbLine
 10
11648.59999999999
 20
6169.39506652273
 30
0.0
 11
11648.6
 21
5889.395066522749
 31
0.0
  0
LINE
  5
2822F
102
{ACAD_REACTORS
330
28240
102
}
330
747D
100
AcDbEntity
  8
部品1
 48
50.0
100
AcDbLine
 10
11908.6
 20
6169.395066522747
 30
0.0
 11
11908.6
 21
7229.39506652273
 31
0.0
  0
LINE
  5
28230
102
{ACAD_REACTORS
330
28255
102
}
330
747D
100
AcDbEntity
  8
部品1
 48
50.0
100
AcDbLine
 10
4538.6
 20
6169.395066522728
 30
0.0
 11
4538.599999999997
 21
7229.39506652273
 31
0.0
  0
HATCH
  5
28240
330
747D
100
AcDbEntity
  8
細線
 48
50.0
100
AcDbHatch
 10
0.0
 20
0.0
 30
0.0
210
0.0
220
0.0
230
1.0
  2
LINE
 70
     0
 71
     1
 91
        1
 92
        7
 72
     0
 73
     1
 93
        4
 10
12028.6
 20
6784.395066522749
 10
11908.6
 20
6784.395066522751
 10
11908.6
 20
6584.395066522749
 10
12028.6
 20
6584.395066522748
 97
        4
330
27A20
330
2822F
330
27A21
330
279CC
 75
     0
 76
     1
 52
45.0
 41
10.0
 77
     0
 78
     1
 53
45.0
 43
0.0
 44
0.0
 45
-22.45064030267288
 46
22.45064030267288
 79
     0
 47
2.353070681100019
 98
        1
 10
11970.37505853062
 20
6705.878780809223
  0
HATCH
  5
28255
330
747D
100
AcDbEntity
  8
細線
 48
50.0
100
AcDbHatch
 10
0.0
 20
0.0
 30
0.0
210
0.0
220
0.0
230
1.0
  2
LINE
 70
     0
 71
     1
 91
        1
 92
        7
 72
     0
 73
     1
 93
        4
 10
4538.599999999997
 20
6784.395066522747
 10
4418.6
 20
6784.395066522745
 10
4418.6
 20
6584.395066522747
 10
4538.599999999997
 20
6584.395066522747
 97
        4
330
2794D
330
27933
330
2794E
330
28230
 75
     0
 76
     1
 52
45.0
 41
10.0
 77
     0
 78
     1
 53
45.0
 43
0.0
 44
0.0
 45
-22.45064030267288
 46
22.45064030267288
 79
     0
 47
2.964274304072844
 98
        1
 10
4514.288107312706
 20
6731.295510676381
  0
LINE
  5
283D9
330
747D
100
AcDbEntity
  8
部品1
100
AcDbLine
 10
10818.25897635932
 20
3470.725736231438
 30
0.0
 11
4747.273790973061
 21
3470.725736231438
 31
0.0
  0
LINE
  5
283DA
330
747D
100
AcDbEntity
  8
部品1
100
AcDbLine
 10
10818.25897635931
 20
3230.725736231436
 30
0.0
 11
4747.273790973064
 21
3230.725736231436
 31
0.0
  0
LINE
  5
283DB
330
747D
100
AcDbEntity
  8
部品1
100
AcDbLine
 10
4747.273790973067
 20
506.4187666467906
 30
0.0
 11
10818.25897635931
 21
506.4187666467906
 31
0.0
  0
LEADER
  5
283DC
330
747D
100
AcDbEntity
  8
寸法
 48
50.0
100
AcDbLeader
  3
INABA_S50G
 73
     0
 74
     0
 75
     1
 40
102.2727272727273
 41
680.0000000000001
 76
     3
 10
7755.38154295952
 20
2470.262350139995
 30
0.0
 10
7789.735514072877
 20
2880.715161246536
 30
0.0
 10
7914.735514072877
 20
2880.715161246536
 30
0.0
340
283DD
1001
ACAD
1000
DSTYLE
1002
{
1070
   341
1005
0
1070
    40
1040
1.0
1070
   343
1005
0
1070
   344
1005
0
1002
}
  0
MTEXT
  5
283DD
102
{ACAD_REACTORS
330
283DC
102
}
330
747D
100
AcDbEntity
  8
部品1
 62
     7
 48
50.0
100
AcDbMText
 10
7939.735514072876
 20
2956.8515248829
 30
0.0
 40
80.0
 41
0.8
 71
     4
 72
     1
  1
\A1;ナット(市販品)
  7
STYLE2
 73
     1
 44
1.0
1001
ACAD
1000
MTEXTBEGIN
1070
    73
1070
     1
1070
    44
1040
1.0
1070
    74
1070
     0
1000
MTEXTEND
  0
LEADER
  5
283DE
330
747D
100
AcDbEntity
  8
寸法
 48
50.0
100
AcDbLeader
  3
INABA_S50G
 73
     0
 74
     0
 75
     1
 40
102.2727272727273
 41
906.8181818181818
 76
     3
 10
7779.381542959519
 20
2340.510357475132
 30
0.0
 10
7821.253133328359
 20
2695.746078481749
 30
0.0
 10
7946.253133328359
 20
2695.746078481749
 30
0.0
340
283DF
1001
ACAD
1000
DSTYLE
1002
{
1070
   341
1005
0
1070
    40
1040
1.0
1070
   343
1005
0
1070
   344
1005
0
1002
}
  0
MTEXT
  5
283DF
102
{ACAD_REACTORS
330
283DE
102
}
330
747D
100
AcDbEntity
  8
部品1
 62
     7
 48
50.0
100
AcDbMText
 10
7971.253133328359
 20
2771.882442118112
 30
0.0
 40
80.0
 41
0.8
 71
     4
 72
     1
  1
\A1;ワッシャー(市販品)
  7
STYLE2
 73
     1
 44
1.0
1001
ACAD
1000
MTEXTBEGIN
1070
    73
1070
     1
1070
    44
1040
1.0
1070
    74
1070
     0
1000
MTEXTEND
  0
LWPOLYLINE
  5
283E0
330
747D
100
AcDbEntity
  8
部品1
 48
50.0
100
AcDbPolyline
 90
        2
 70
     0
 43
8.0
 10
7931.981542959518
 20
1831.387069030853
 10
8225.684006358903
 20
1831.387069030853
  0
TEXT
  5
283E1
330
747D
100
AcDbEntity
  8
部品1
 48
50.0
100
AcDbText
 10
7936.335127243947
 20
2427.265749793053
 30
0.0
 40
80.0
  1
基礎ボルト(市販品)
  7
STYLE2
100
AcDbText
  0
DIMENSION
  5
283E2
330
747D
100
AcDbEntity
  8
寸法
 48
50.0
100
AcDbDimension
  2
*D47
 10
8433.850142728363
 20
1747.387069030851
 30
0.0
 11
8333.850142728364
 21
1909.387069030853
 31
0.0
 70
    32
  1
180
 71
     5
 42
324.0000000000009
  3
INABA_S40G
100
AcDbAlignedDimension
 13
7931.981542959518
 23
2071.387069030852
 33
0.0
 14
7931.981542959518
 24
1747.387069030851
 34
0.0
 50
90.0
100
AcDbRotatedDimension
1001
ACAD
1000
DSTYLE
1002
{
1070
   341
1005
0
1002
}
  0
DIMENSION
  5
283E3
330
747D
100
AcDbEntity
  8
寸法
 48
50.0
100
AcDbDimension
  2
*D48
 10
8709.90480884739
 20
2071.387069030852
 30
0.0
 11
8709.90480884739
 21
1605.378165609369
 31
0.0
 70
   160
  1
20～25
 71
     5
 42
52.76000000000113
  3
INABA_S40G
100
AcDbAlignedDimension
 13
7744.781542959521
 23
2124.147069030854
 33
0.0
 14
7931.981542959518
 24
2071.387069030852
 34
0.0
 50
90.0
100
AcDbRotatedDimension
1001
ACAD
1000
DSTYLE
1002
{
1070
   341
1005
0
1002
}
  0
MTEXT
  5
283E4
102
{ACAD_REACTORS
330
283E5
102
}
330
747D
100
AcDbEntity
  8
部品1
 62
     7
 48
50.0
100
AcDbMText
 10
7940.926005378838
 20
2335.770395184082
 30
0.0
 40
80.0
 41
0.8
 71
     4
 72
     1
  1
M10X160
  7
STYLE2
 73
     1
 44
1.0
1001
ACAD
1000
MTEXTBEGIN
1070
    73
1070
     1
1070
    44
1040
1.0
1070
    74
1070
     0
1000
MTEXTEND
  0
LEADER
  5
283E5
330
747D
100
AcDbEntity
  8
寸法
 48
50.0
100
AcDbLeader
  3
INABA_S50G
 73
     0
 74
     0
 75
     1
 40
80.0
 41
435.0
 76
     3
 10
7748.38154295952
 20
2120.547069030853
 30
0.0
 10
7790.926005378839
 20
2270.770395184082
 30
0.0
 10
7915.926005378839
 20
2270.770395184082
 30
0.0
340
283E4
1001
ACAD
1000
DSTYLE
1002
{
1070
   341
1005
0
1070
    40
1040
1.0
1070
   343
1005
0
1070
   344
1005
0
1002
}
  0
LINE
  5
283E6
330
747D
100
AcDbEntity
  8
部品1
100
AcDbLine
 10
4747.273790973063
 20
3470.725736231438
 30
0.0
 11
4747.273790973064
 21
506.4187666467906
 31
0.0
  0
LEADER
  5
283E7
330
747D
100
AcDbEntity
  8
寸法
 48
50.0
100
AcDbLeader
  3
INABA_S50G
 73
     0
 75
     1
 40
113.1818181818182
 41
608.6363636363635
 76
     3
 10
7708.11829309757
 20
2020.902742389131
 30
0.0
 10
7574.314464406223
 20
2872.281824745609
 30
0.0
 10
7449.314464406223
 20
2872.281824745609
 30
0.0
340
283E8
1001
ACAD
1000
DSTYLE
1002
{
1070
   341
1005
0
1070
    40
1040
1.0
1070
   343
1005
0
1070
   344
1005
0
1002
}
  0
MTEXT
  5
283E8
102
{ACAD_REACTORS
330
283E7
102
}
330
747D
100
AcDbEntity
  8
寸法
 62
     7
 48
50.0
100
AcDbMText
 10
7424.314464406222
 20
2953.872733836518
 30
0.0
 40
80.0
 41
0.8
 71
     6
 72
     1
  1
\A1;φ70スリーブ
  7
STYLE2
 73
     1
 44
1.0
1001
ACAD
1000
MTEXTBEGIN
1070
    73
1070
     1
1070
    44
1040
1.0
1070
    74
1070
     0
1000
MTEXTEND
  0
LWPOLYLINE
  5
283E9
330
747D
100
AcDbEntity
  8
部品1
 48
50.0
100
AcDbPolyline
 90
        2
 70
     0
 43
8.0
 10
5403.802327949369
 20
1831.387069030853
 10
5817.942229782326
 20
1831.387069030853
  0
TEXT
  5
283EA
330
747D
100
AcDbEntity
  8
部品1
 48
50.0
100
AcDbText
 10
5403.802327949369
 20
1842.626061314107
 30
0.0
 40
80.0
  1
▽G.L
  7
STYLE2
100
AcDbText
  0
DIMENSION
  5
283EB
330
747D
100
AcDbEntity
  8
寸法
 48
50.0
100
AcDbDimension
  2
*D49
 10
5547.521916049866
 20
1287.387069030852
 30
0.0
 11
5547.521916049866
 21
1407.387069030853
 31
0.0
 70
   160
  1
150
 71
     5
 42
240.0000000000002
  3
INABA_S40G
100
AcDbAlignedDimension
 13
5689.942229782325
 23
1527.387069030852
 33
0.0
 14
5609.94222978233
 24
1287.387069030852
 34
0.0
 50
90.0
100
AcDbRotatedDimension
1001
ACAD
1000
DSTYLE
1002
{
1070
   341
1005
0
1002
}
  0
LEADER
  5
283EC
330
747D
100
AcDbEntity
  8
寸法
 48
50.0
100
AcDbLeader
  3
INABA_S50G
 71
     0
 73
     0
 75
     1
 40
100.0
 41
225.0
 76
     3
 10
5785.845182134469
 20
1407.387069030852
 30
0.0
 10
5664.007203587132
 20
1143.864375412416
 30
0.0
 10
5539.007203587132
 20
1143.864375412416
 30
0.0
1001
ACAD
1000
DSTYLE
1002
{
1070
    40
1040
1.0
1070
   272
1070
     1
1070
   279
1070
     1
1070
   341
1005
0
1002
}
  0
LEADER
  5
283ED
330
747D
100
AcDbEntity
  8
寸法
 48
50.0
100
AcDbLeader
  3
INABA_S50G
 71
     0
 73
     0
 75
     1
 40
100.0
 41
222.7272727272727
 76
     3
 10
5913.942229782326
 20
1407.387069030852
 30
0.0
 10
5692.129931144567
 20
963.5482228729724
 30
0.0
 10
5567.129931144567
 20
963.5482228729724
 30
0.0
1001
ACAD
1000
DSTYLE
1002
{
1070
    40
1040
1.0
1070
   272
1070
     1
1070
   279
1070
     1
1070
   341
1005
0
1002
}
  0
MTEXT
  5
283EE
102
{ACAD_REACTORS
330
283EF
102
}
330
747D
100
AcDbEntity
  8
寸法
 62
     7
 48
50.0
100
AcDbMText
 10
5728.692175559522
 20
1672.687671848309
 30
0.0
 40
80.0
 41
0.8
 71
     6
 72
     1
  1
\A1;D10@300
  7
STYLE2
 73
     1
 44
1.0
1001
ACAD
1000
MTEXTBEGIN
1070
    73
1070
     1
1070
    44
1040
1.0
1070
    74
1070
     0
1000
MTEXTEND
  0
LEADER
  5
283EF
330
747D
100
AcDbEntity
  8
寸法
 48
50.0
100
AcDbLeader
  3
INABA_S50G
 71
     0
 73
     0
 75
     1
 40
100.0
 41
540.3409090909091
 76
     3
 10
5921.942229782326
 20
1829.514283727975
 30
0.0
 10
5863.959993253628
 20
1608.04395518717
 30
0.0
 10
5738.959993253628
 20
1608.04395518717
 30
0.0
213
-9.732182305893367
223
-4.643716661138569
233
0.0
1001
ACAD
1000
DSTYLE
1002
{
1070
    40
1040
1.0
1070
   272
1070
     1
1070
   279
1070
     1
1070
   341
1005
0
1002
}
  0
LEADER
  5
283F0
330
747D
100
AcDbEntity
  8
寸法
 48
50.0
100
AcDbLeader
  3
INABA_S50G
 71
     0
 73
     0
 75
     1
 40
130.1136363636363
 41
651.1363636363636
 76
     3
 10
5897.942229782326
 20
2071.387069030852
 30
0.0
 10
5785.517649618309
 20
2211.857834487441
 30
0.0
 10
5660.517649618309
 20
2211.857834487441
 30
0.0
1001
ACAD
1000
DSTYLE
1002
{
1070
    40
1040
1.0
1070
   272
1070
     1
1070
   279
1070
     1
1070
   341
1005
0
1002
}
  0
MTEXT
  5
283F1
102
{ACAD_REACTORS
330
283F0
102
}
330
747D
100
AcDbEntity
  8
寸法
 62
     7
 48
50.0
100
AcDbMText
 10
5597.843750299053
 20
2283.903289032894
 30
0.0
 40
80.0
 41
0.8
 71
     6
 72
     1
  1
\A1;金コテ押エ
  7
STYLE2
 73
     1
 44
1.0
1001
ACAD
1000
MTEXTBEGIN
1070
    73
1070
     1
1070
    44
1040
1.0
1070
    74
1070
     0
1000
MTEXTEND
  0
DIMENSION
  5
283F2
330
747D
100
AcDbEntity
  8
寸法
 48
50.0
100
AcDbDimension
  2
*D50
 10
5082.904991220585
 20
1287.387069030852
 30
0.0
 11
5082.904991220585
 21
1658.927218686853
 31
0.0
 70
   160
  1
540
 71
     5
 42
784.0000000000002
  3
INABA_S40G
100
AcDbAlignedDimension
 13
5817.942229782326
 23
2071.387069030852
 33
0.0
 14
5609.94222978233
 24
1287.387069030852
 34
0.0
 50
90.0
100
AcDbRotatedDimension
1001
ACAD
1000
DSTYLE
1002
{
1070
   341
1005
0
1002
}
  0
MTEXT
  5
283F3
102
{ACAD_REACTORS
330
283ED
102
}
330
747D
100
AcDbEntity
  8
寸法
 62
     7
 48
50.0
100
AcDbMText
 10
5547.129931144566
 20
1023.548222872972
 30
0.0
 40
80.0
 41
0.8
 71
     6
 72
     1
  1
D13
  7
STYLE2
 73
     1
 44
1.0
1001
ACAD
1000
MTEXTBEGIN
1070
    73
1070
     1
1070
    44
1040
1.0
1070
    74
1070
     0
1000
MTEXTEND
  0
MTEXT
  5
283F4
102
{ACAD_REACTORS
330
283EC
102
}
330
747D
100
AcDbEntity
  8
寸法
 62
     7
 48
50.0
100
AcDbMText
 10
5519.007203587132
 20
1203.864375412416
 30
0.0
 40
80.0
 41
0.8
 71
     6
 72
     1
  1
D10
  7
STYLE2
 73
     1
 44
1.0
1001
ACAD
1000
MTEXTBEGIN
1070
    73
1070
     1
1070
    44
1040
1.0
1070
    74
1070
     0
1000
MTEXTEND
  0
DIMENSION
  5
283F5
330
747D
100
AcDbEntity
  8
寸法
 48
50.0
100
AcDbDimension
  2
*D51
 10
6137.942229782326
 20
748.9574310256921
 30
0.0
 11
5893.845471104103
 21
748.9574310256921
 31
0.0
 70
   160
  1
300
 71
     5
 42
448.0
  3
INABA_S40G
100
AcDbAlignedDimension
 13
5689.942229782325
 23
1159.387069030852
 33
0.0
 14
6137.942229782326
 24
1159.387069030852
 34
0.0
100
AcDbRotatedDimension
1001
ACAD
1000
DSTYLE
1002
{
1070
   341
1005
0
1002
}
  0
MTEXT
  5
283F6
102
{ACAD_REACTORS
330
283F7
102
}
330
747D
100
AcDbEntity
  8
寸法
 62
     7
 48
50.0
100
AcDbMText
 10
7450.957470614581
 20
2593.188461929004
 30
0.0
 40
80.0
 41
0.8
 71
     6
 72
     1
  1
\A1;アンカープレート L
  7
STYLE2
 73
     1
 44
1.0
1001
ACAD
1000
MTEXTBEGIN
1070
    73
1070
     1
1070
    44
1040
1.0
1070
    74
1070
     0
1000
MTEXTEND
  0
LEADER
  5
283F7
330
747D
100
AcDbEntity
  8
寸法
 48
50.0
100
AcDbLeader
  3
INABA_S50G
 73
     0
 75
     1
 40
106.3636363636363
 41
893.1818181818181
 76
     3
 10
7649.38154295952
 20
2140.947069030854
 30
0.0
 10
7600.957470614581
 20
2515.006643747186
 30
0.0
 10
7475.957470614581
 20
2515.006643747186
 30
0.0
340
283F6
1001
ACAD
1000
DSTYLE
1002
{
1070
   341
1005
0
1070
    40
1040
1.0
1070
   343
1005
0
1070
   344
1005
0
1002
}
  0
LINE
  5
283F8
330
747D
100
AcDbEntity
  8
細線
 48
50.0
100
AcDbLine
 10
5937.942229782326
 20
1909.759961698682
 30
0.0
 11
6009.942229782327
 21
1981.759961698682
 31
0.0
  0
ARC
  5
283F9
330
747D
100
AcDbEntity
  8
部品1
 48
50.0
100
AcDbCircle
 10
5913.942229782326
 20
1931.641498425098
 30
0.0
 40
24.0
100
AcDbArc
 50
0.0
 51
180.0
  0
CIRCLE
  5
283FA
330
747D
100
AcDbEntity
  8
部品1
 48
50.0
100
AcDbCircle
 10
5913.942229782326
 20
1931.641498425098
 30
0.0
 40
8.0
  0
LINE
  5
283FB
330
747D
100
AcDbEntity
  8
部品1
 48
50.0
100
AcDbLine
 10
5817.942229782326
 20
1527.387069030852
 30
0.0
 11
5817.942229782326
 21
2071.387069030852
 31
0.0
  0
LINE
  5
283FC
330
747D
100
AcDbEntity
  8
部品1
 48
50.0
100
AcDbLine
 10
6009.942229782327
 20
2071.387069030852
 30
0.0
 11
6009.942229782327
 21
1527.387069030852
 31
0.0
  0
MTEXT
  5
283FD
102
{ACAD_REACTORS
330
28402
102
}
330
747D
100
AcDbEntity
  8
寸法
 62
     7
 48
50.0
100
AcDbMText
 10
6092.82816680972
 20
2093.942968323663
 30
0.0
 40
80.0
 41
0.8
 71
     4
 72
     1
  1
D13
  7
STYLE2
 73
     1
 44
1.0
1001
ACAD
1000
MTEXTBEGIN
1070
    73
1070
     1
1070
    44
1040
1.0
1070
    74
1070
     0
1000
MTEXTEND
  0
LEADER
  5
283FE
330
747D
100
AcDbEntity
  8
寸法
 48
50.0
100
AcDbLeader
  3
INABA_S50G
 71
     0
 73
     0
 74
     0
 75
     1
 40
100.0
 41
225.0
 76
     3
 10
6041.845182134469
 20
1407.387069030852
 30
0.0
 10
6096.26988958901
 20
1311.990000087879
 30
0.0
 10
6221.26988958901
 20
1311.990000087879
 30
0.0
1001
ACAD
1000
DSTYLE
1002
{
1070
    40
1040
1.0
1070
   272
1070
     1
1070
   279
1070
     1
1070
   341
1005
0
1002
}
  0
LEADER
  5
283FF
330
747D
100
AcDbEntity
  8
寸法
 48
50.0
100
AcDbLeader
  3
INABA_S50G
 71
     0
 73
     0
 74
     0
 75
     1
 40
100.0
 41
540.3409090909091
 76
     3
 10
5987.8873987955
 20
1390.646538617327
 30
0.0
 10
6106.680685643577
 20
1049.015720622429
 30
0.0
 10
6231.680685643577
 20
1049.015720622429
 30
0.0
213
0.0
223
-1.022262676269383
233
0.0
1001
ACAD
1000
DSTYLE
1002
{
1070
    40
1040
1.0
1070
   272
1070
     1
1070
   279
1070
     1
1070
   341
1005
0
1002
}
  0
MTEXT
  5
28400
102
{ACAD_REACTORS
330
283FE
102
}
330
747D
100
AcDbEntity
  8
寸法
 62
     7
 48
50.0
100
AcDbMText
 10
6241.269889589011
 20
1371.990000087879
 30
0.0
 40
80.0
 41
0.8
 71
     4
 72
     1
  1
D10
  7
STYLE2
 73
     1
 44
1.0
1001
ACAD
1000
MTEXTBEGIN
1070
    73
1070
     1
1070
    44
1040
1.0
1070
    74
1070
     0
1000
MTEXTEND
  0
LWPOLYLINE
  5
28401
330
747D
100
AcDbEntity
  8
部品1
 48
50.0
100
AcDbPolyline
 90
        2
 70
     0
 43
8.0
 10
6009.942229782326
 20
1831.387069030853
 10
6424.082131615283
 20
1831.387069030853
  0
LEADER
  5
28402
330
747D
100
AcDbEntity
  8
寸法
 48
50.0
100
AcDbLeader
  3
INABA_S50G
 71
     0
 73
     0
 74
     0
 75
     1
 40
100.0
 41
222.7272727272727
 76
     3
 10
5913.942229782326
 20
1931.641498425098
 30
0.0
 10
5967.82816680972
 20
2030.877071278272
 30
0.0
 10
6092.82816680972
 20
2030.877071278272
 30
0.0
1001
ACAD
1000
DSTYLE
1002
{
1070
    40
1040
1.0
1070
   272
1070
     1
1070
   279
1070
     1
1070
   341
1005
0
1002
}
  0
LINE
  5
28403
330
747D
100
AcDbEntity
  8
細線
 48
50.0
100
AcDbLine
 10
5689.942229782319
 20
1446.233814793023
 30
0.0
 11
5771.095484020155
 21
1527.387069030852
 31
0.0
  0
LINE
  5
28404
330
747D
100
AcDbEntity
  8
細線
 48
50.0
100
AcDbLine
 10
5897.808077259731
 20
1465.514283727974
 30
0.0
 11
5921.942229782332
 21
1489.648436250573
 31
0.0
  0
LINE
  5
28405
330
747D
100
AcDbEntity
  8
細線
 48
50.0
100
AcDbLine
 10
5804.740094199399
 20
1399.387069030852
 30
0.0
 11
5921.942229782326
 21
1516.589204613778
 31
0.0
  0
LINE
  5
28406
330
747D
100
AcDbEntity
  8
部品1
 48
50.0
100
AcDbLine
 10
5689.942229782326
 20
1287.387069030852
 30
0.0
 11
5689.942229782326
 21
1527.387069030852
 31
0.0
  0
LINE
  5
28407
330
747D
100
AcDbEntity
  8
細線
 48
50.0
100
AcDbLine
 10
6047.20700946827
 20
1399.387069030852
 30
0.0
 11
6137.942229782327
 21
1490.122289344911
 31
0.0
  0
LINE
  5
28408
330
747D
100
AcDbEntity
  8
細線
 48
50.0
100
AcDbLine
 10
6020.266241105054
 20
1399.387069030852
 30
0.0
 11
6137.942229782327
 21
1517.063057708118
 31
0.0
  0
LINE
  5
28409
330
747D
100
AcDbEntity
  8
部品1
 48
50.0
100
AcDbLine
 10
6137.942229782327
 20
1527.387069030852
 30
0.0
 11
6137.942229782327
 21
1287.387069030852
 31
0.0
  0
LINE
  5
2840A
330
747D
100
AcDbEntity
  8
部品1
 48
50.0
100
AcDbLine
 10
5937.942229782333
 20
1407.387069030852
 30
0.0
 11
5937.942229782326
 21
1931.641498425098
 31
0.0
  0
LINE
  5
2840B
330
747D
100
AcDbEntity
  8
部品1
 48
50.0
100
AcDbLine
 10
5921.942229782332
 20
1407.387069030852
 30
0.0
 11
5921.942229782319
 21
1931.641498425098
 31
0.0
  0
LINE
  5
2840C
330
747D
100
AcDbEntity
  8
細線
 48
50.0
100
AcDbLine
 10
5905.942229782326
 20
1446.707667887364
 30
0.0
 11
5921.942229782332
 21
1462.707667887364
 31
0.0
  0
LINE
  5
2840D
330
747D
100
AcDbEntity
  8
細線
 48
50.0
100
AcDbLine
 10
5895.12506927834
 20
1159.387069030852
 30
0.0
 11
5929.422565909524
 21
1287.387069030852
 31
0.0
  0
LINE
  5
2840E
330
747D
100
AcDbEntity
  8
部品1
 48
50.0
100
AcDbLine
 10
6217.94222978233
 20
1159.387069030852
 30
0.0
 11
5609.942229782329
 21
1159.387069030852
 31
0.0
  0
LINE
  5
2840F
330
747D
100
AcDbEntity
  8
部品1
 48
50.0
100
AcDbLine
 10
5745.942229782326
 20
1383.387069030852
 30
0.0
 11
6081.942229782327
 21
1383.387069030852
 31
0.0
  0
LINE
  5
28410
330
747D
100
AcDbEntity
  8
部品1
 48
50.0
100
AcDbLine
 10
5745.942229782326
 20
1399.387069030852
 30
0.0
 11
6081.942229782327
 21
1399.387069030852
 31
0.0
  0
LINE
  5
28411
330
747D
100
AcDbEntity
  8
部品1
 48
50.0
100
AcDbLine
 10
6217.94222978233
 20
1287.387069030852
 30
0.0
 11
5609.942229782329
 21
1287.387069030852
 31
0.0
  0
CIRCLE
  5
28412
330
747D
100
AcDbEntity
  8
部品1
 48
50.0
100
AcDbCircle
 10
5913.942229782326
 20
1407.387069030852
 30
0.0
 40
8.0
  0
LINE
  5
28413
330
747D
100
AcDbEntity
  8
細線
 48
50.0
100
AcDbLine
 10
5908.26624110506
 20
1287.387069030852
 30
0.0
 11
6004.26624110506
 21
1383.387069030852
 31
0.0
  0
LINE
  5
28414
330
747D
100
AcDbEntity
  8
細線
 48
50.0
100
AcDbLine
 10
5737.348979383842
 20
1159.387069030852
 30
0.0
 11
5771.646476015026
 21
1287.387069030852
 31
0.0
  0
LINE
  5
28415
330
747D
100
AcDbEntity
  8
細線
 48
50.0
100
AcDbLine
 10
5816.237024331088
 20
1159.38706903085
 30
0.0
 11
5850.534520962271
 21
1287.38706903085
 31
0.0
  0
LINE
  5
28416
330
747D
100
AcDbEntity
  8
細線
 48
50.0
100
AcDbLine
 10
5658.460934436584
 20
1159.38706903085
 30
0.0
 11
5692.758431067767
 21
1287.38706903085
 31
0.0
  0
LINE
  5
28417
330
747D
100
AcDbEntity
  8
部品1
 48
50.0
100
AcDbLine
 10
5609.942229782329
 20
1159.387069030852
 30
0.0
 11
5609.942229782329
 21
1287.387069030852
 31
0.0
  0
LINE
  5
28418
330
747D
100
AcDbEntity
  8
細線
 48
50.0
100
AcDbLine
 10
5743.779760002189
 20
1183.387069030852
 30
0.0
 11
5750.210540620536
 21
1159.387069030852
 31
0.0
  0
LINE
  5
28419
330
747D
100
AcDbEntity
  8
細線
 48
50.0
100
AcDbLine
 10
5664.891715054938
 20
1183.387069030852
 30
0.0
 11
5671.322495673283
 21
1159.387069030852
 31
0.0
  0
LINE
  5
2841A
330
747D
100
AcDbEntity
  8
細線
 48
50.0
100
AcDbLine
 10
5901.555849896694
 20
1183.387069030852
 30
0.0
 11
5907.98663051504
 21
1159.387069030852
 31
0.0
  0
LINE
  5
2841B
330
747D
100
AcDbEntity
  8
細線
 48
50.0
100
AcDbLine
 10
5822.667804949441
 20
1183.387069030852
 30
0.0
 11
5829.098585567788
 21
1159.387069030852
 31
0.0
  0
LINE
  5
2841C
330
747D
100
AcDbEntity
  8
細線
 48
50.0
100
AcDbLine
 10
5719.68086256261
 20
1287.387069030852
 30
0.0
 11
5815.68086256261
 21
1383.387069030852
 31
0.0
  0
LINE
  5
2841D
330
747D
100
AcDbEntity
  8
細線
 48
50.0
100
AcDbLine
 10
5692.740094199399
 20
1287.387069030852
 30
0.0
 11
5788.7400941994
 21
1383.387069030852
 31
0.0
  0
LINE
  5
2841E
330
747D
100
AcDbEntity
  8
部品1
 48
50.0
100
AcDbLine
 10
5745.942229782326
 20
1399.387069030852
 30
0.0
 11
5745.942229782326
 21
1383.387069030852
 31
0.0
  0
LINE
  5
2841F
330
747D
100
AcDbEntity
  8
細線
 48
50.0
100
AcDbLine
 10
5686.327650449428
 20
1263.387069030852
 30
0.0
 11
5679.896869831079
 21
1287.387069030852
 31
0.0
  0
LINE
  5
28420
330
747D
100
AcDbEntity
  8
細線
 48
50.0
100
AcDbLine
 10
5609.942229782326
 20
1272.726989996632
 30
0.0
 11
5613.870386120522
 21
1287.387069030852
 31
0.0
  0
LINE
  5
28421
330
747D
100
AcDbEntity
  8
部品1
 48
50.0
100
AcDbLine
 10
5905.942229782326
 20
1465.514283727974
 30
0.0
 11
5889.942229782326
 21
1465.514283727974
 31
0.0
  0
CIRCLE
  5
28422
330
747D
100
AcDbEntity
  8
部品1
 48
50.0
100
AcDbCircle
 10
5785.942229782326
 20
1407.387069030852
 30
0.0
 40
8.0
  0
LINE
  5
28423
330
747D
100
AcDbEntity
  8
細線
 48
50.0
100
AcDbLine
 10
5858.621630925815
 20
1399.387069030852
 30
0.0
 11
5889.942229782326
 21
1430.707667887364
 31
0.0
  0
ARC
  5
28424
330
747D
100
AcDbEntity
  8
部品1
 48
50.0
100
AcDbCircle
 10
5913.942229782326
 20
1407.387069030852
 30
0.0
 40
24.0
100
AcDbArc
 50
180.0
 51
199.4712206344713
  0
LINE
  5
28425
330
747D
100
AcDbEntity
  8
細線
 48
50.0
100
AcDbLine
 10
5765.215695396678
 20
1263.387069030852
 30
0.0
 11
5758.784914778331
 21
1287.387069030852
 31
0.0
  0
LINE
  5
28426
330
747D
100
AcDbEntity
  8
細線
 48
50.0
100
AcDbLine
 10
5844.10374034393
 20
1263.387069030852
 30
0.0
 11
5837.672959725584
 21
1287.387069030852
 31
0.0
  0
LINE
  5
28427
330
747D
100
AcDbEntity
  8
細線
 48
50.0
100
AcDbLine
 10
5746.621630925815
 20
1287.387069030852
 30
0.0
 11
5842.621630925815
 21
1383.387069030852
 31
0.0
  0
LINE
  5
28428
330
747D
100
AcDbEntity
  8
部品1
 48
50.0
100
AcDbLine
 10
5889.942229782326
 20
1465.514283727974
 30
0.0
 11
5889.942229782326
 21
1407.387069030852
 31
0.0
  0
LINE
  5
28429
330
747D
100
AcDbEntity
  8
細線
 48
50.0
100
AcDbLine
 10
5831.68086256261
 20
1399.387069030852
 30
0.0
 11
5889.942229782326
 21
1457.648436250571
 31
0.0
  0
LINE
  5
2842A
330
747D
100
AcDbEntity
  8
部品1
 48
50.0
100
AcDbLine
 10
5905.942229782326
 20
1465.514283727974
 30
0.0
 11
5905.942229782326
 21
1407.387069030852
 31
0.0
  0
LINE
  5
2842B
330
747D
100
AcDbEntity
  8
部品1
 48
50.0
100
AcDbLine
 10
6217.94222978233
 20
1287.387069030852
 30
0.0
 11
6217.94222978233
 21
1159.387069030852
 31
0.0
  0
LINE
  5
2842C
330
747D
100
AcDbEntity
  8
細線
 48
50.0
100
AcDbLine
 10
6131.789204120081
 20
1159.387069030852
 30
0.0
 11
6166.086700751265
 21
1287.38706903085
 31
0.0
  0
LINE
  5
2842D
330
747D
100
AcDbEntity
  8
細線
 48
50.0
100
AcDbLine
 10
5974.013114225586
 20
1159.387069030852
 30
0.0
 11
6008.310610856772
 21
1287.38706903085
 31
0.0
  0
LINE
  5
2842E
330
747D
100
AcDbEntity
  8
細線
 48
50.0
100
AcDbLine
 10
6052.901159172835
 20
1159.38706903085
 30
0.0
 11
6087.198655804019
 21
1287.38706903085
 31
0.0
  0
LINE
  5
2842F
330
747D
100
AcDbEntity
  8
細線
 48
50.0
100
AcDbLine
 10
6059.331939791185
 20
1183.387069030852
 30
0.0
 11
6065.762720409533
 21
1159.387069030852
 31
0.0
  0
LINE
  5
28430
330
747D
100
AcDbEntity
  8
細線
 48
50.0
100
AcDbLine
 10
5980.443894843939
 20
1183.387069030852
 30
0.0
 11
5986.874675462285
 21
1159.387069030852
 31
0.0
  0
LINE
  5
28431
330
747D
100
AcDbEntity
  8
細線
 48
50.0
100
AcDbLine
 10
6138.219984738432
 20
1183.387069030852
 30
0.0
 11
6144.65076535678
 21
1159.387069030852
 31
0.0
  0
LINE
  5
28432
330
747D
100
AcDbEntity
  8
細線
 48
50.0
100
AcDbLine
 10
6217.108029685679
 20
1183.387069030852
 30
0.0
 11
6217.942229782327
 21
1180.273791886488
 31
0.0
  0
LINE
  5
28433
330
747D
100
AcDbEntity
  8
細線
 48
50.0
100
AcDbLine
 10
6210.677249067329
 20
1159.38706903085
 30
0.0
 11
6217.942229782327
 21
1186.50034617524
 31
0.0
  0
LINE
  5
28434
330
747D
100
AcDbEntity
  8
細線
 48
50.0
100
AcDbLine
 10
6074.147777831473
 20
1399.387069030852
 30
0.0
 11
6137.942229782327
 21
1463.181520981703
 31
0.0
  0
CIRCLE
  5
28435
330
747D
100
AcDbEntity
  8
部品1
 48
50.0
100
AcDbCircle
 10
6041.942229782327
 20
1407.387069030852
 30
0.0
 40
8.0
  0
ARC
  5
28436
330
747D
100
AcDbEntity
  8
部品1
 48
50.0
100
AcDbCircle
 10
5913.942229782326
 20
1407.387069030852
 30
0.0
 40
24.0
100
AcDbArc
 50
340.5287793655287
 51
0.0
  0
LINE
  5
28437
330
747D
100
AcDbEntity
  8
細線
 48
50.0
100
AcDbLine
 10
5922.991785291183
 20
1263.387069030852
 30
0.0
 11
5916.561004672836
 21
1287.387069030852
 31
0.0
  0
LINE
  5
28438
330
747D
100
AcDbEntity
  8
細線
 48
50.0
100
AcDbLine
 10
6001.879830238428
 20
1263.387069030852
 30
0.0
 11
5995.449049620082
 21
1287.387069030852
 31
0.0
  0
LINE
  5
28439
330
747D
100
AcDbEntity
  8
細線
 48
50.0
100
AcDbLine
 10
5935.20700946827
 20
1287.387069030852
 30
0.0
 11
6031.20700946827
 21
1383.387069030852
 31
0.0
  0
LINE
  5
2843A
330
747D
100
AcDbEntity
  8
細線
 48
50.0
100
AcDbLine
 10
5962.147777831474
 20
1287.387069030852
 30
0.0
 11
6058.148665676611
 21
1383.387956875991
 31
0.0
  0
LINE
  5
2843B
330
747D
100
AcDbEntity
  8
部品1
 48
50.0
100
AcDbLine
 10
6081.942229782327
 20
1399.387069030852
 30
0.0
 11
6081.942229782327
 21
1383.387069030852
 31
0.0
  0
LINE
  5
2843C
330
747D
100
AcDbEntity
  8
細線
 48
50.0
100
AcDbLine
 10
6159.655920132921
 20
1263.387069030852
 30
0.0
 11
6153.225139514574
 21
1287.387069030852
 31
0.0
  0
LINE
  5
2843D
330
747D
100
AcDbEntity
  8
細線
 48
50.0
100
AcDbLine
 10
6123.79238801072
 20
1287.387069030852
 30
0.0
 11
6137.942229782327
 21
1301.536910802459
 31
0.0
  0
LINE
  5
2843E
330
747D
100
AcDbEntity
  8
細線
 48
50.0
100
AcDbLine
 10
6080.767875185674
 20
1263.387069030852
 30
0.0
 11
6074.337094567328
 21
1287.387069030852
 31
0.0
  0
LINE
  5
2843F
330
747D
100
AcDbEntity
  8
細線
 48
50.0
100
AcDbLine
 10
5817.942229782326
 20
1601.17458315623
 30
0.0
 11
5921.942229782332
 21
1705.174583156233
 31
0.0
  0
LINE
  5
28440
330
747D
100
AcDbEntity
  8
細線
 48
50.0
100
AcDbLine
 10
5817.942229782326
 20
1628.115351519438
 30
0.0
 11
5921.942229782326
 21
1732.115351519438
 31
0.0
  0
LINE
  5
28441
330
747D
100
AcDbEntity
  8
細線
 48
50.0
100
AcDbLine
 10
5817.942229782326
 20
1574.233814793023
 30
0.0
 11
5921.942229782332
 21
1678.233814793023
 31
0.0
  0
LINE
  5
28442
330
747D
100
AcDbEntity
  8
細線
 48
50.0
100
AcDbLine
 10
5905.942229782326
 20
1877.759961698682
 30
0.0
 11
5921.942229782326
 21
1893.759961698682
 31
0.0
  0
LINE
  5
28443
330
747D
100
AcDbEntity
  8
細線
 48
50.0
100
AcDbLine
 10
5905.942229782326
 20
1904.70073006189
 30
0.0
 11
5921.942229782326
 21
1920.70073006189
 31
0.0
  0
LINE
  5
28444
330
747D
100
AcDbEntity
  8
部品1
 48
50.0
100
AcDbLine
 10
5689.942229782326
 20
1527.387069030852
 30
0.0
 11
5817.942229782326
 21
1527.387069030852
 31
0.0
  0
LINE
  5
28445
330
747D
100
AcDbEntity
  8
細線
 48
50.0
100
AcDbLine
 10
5689.942229782319
 20
1473.174583156227
 30
0.0
 11
5744.154715656951
 21
1527.387069030852
 31
0.0
  0
LINE
  5
28446
330
747D
100
AcDbEntity
  8
細線
 48
50.0
100
AcDbLine
 10
5689.942229782319
 20
1500.115351519438
 30
0.0
 11
5717.213947293741
 21
1527.387069030852
 31
0.0
  0
LINE
  5
28447
330
747D
100
AcDbEntity
  8
部品1
 48
50.0
100
AcDbLine
 10
5905.942229782326
 20
1873.514283727974
 30
0.0
 11
5889.942229782326
 21
1873.514283727978
 31
0.0
  0
LINE
  5
28448
330
747D
100
AcDbEntity
  8
細線
 48
50.0
100
AcDbLine
 10
5817.942229782326
 20
1789.759961698683
 30
0.0
 11
5901.69655181162
 21
1873.514283727974
 31
0.0
  0
LINE
  5
28449
330
747D
100
AcDbEntity
  8
細線
 48
50.0
100
AcDbLine
 10
5817.942229782326
 20
1816.70073006189
 30
0.0
 11
5889.942229782326
 21
1888.70073006189
 31
0.0
  0
LINE
  5
2844A
330
747D
100
AcDbEntity
  8
部品1
 48
50.0
100
AcDbLine
 10
5889.942229782326
 20
1873.514283727978
 30
0.0
 11
5889.942229782326
 21
1931.641498425098
 31
0.0
  0
LINE
  5
2844B
330
747D
100
AcDbEntity
  8
細線
 48
50.0
100
AcDbLine
 10
5817.942229782326
 20
1843.641498425098
 30
0.0
 11
5889.942229782326
 21
1915.641498425098
 31
0.0
  0
LINE
  5
2844C
330
747D
100
AcDbEntity
  8
部品1
 48
50.0
100
AcDbLine
 10
5905.942229782326
 20
1873.514283727974
 30
0.0
 11
5905.942229782326
 21
1931.641498425098
 31
0.0
  0
LINE
  5
2844D
330
747D
100
AcDbEntity
  8
細線
 48
50.0
100
AcDbLine
 10
5937.942229782333
 20
1694.233814793023
 30
0.0
 11
6009.942229782319
 21
1766.233814793023
 31
0.0
  0
LINE
  5
2844E
330
747D
100
AcDbEntity
  8
部品1
 48
50.0
100
AcDbLine
 10
6009.942229782327
 20
1527.387069030852
 30
0.0
 11
6137.942229782327
 21
1527.387069030852
 31
0.0
  0
LINE
  5
2844F
330
747D
100
AcDbEntity
  8
細線
 48
50.0
100
AcDbLine
 10
5937.942229782333
 20
1505.648436250573
 30
0.0
 11
6009.942229782319
 21
1577.648436250568
 31
0.0
  0
LINE
  5
28450
330
747D
100
AcDbEntity
  8
細線
 48
50.0
100
AcDbLine
 10
5937.942229782333
 20
1532.589204613781
 30
0.0
 11
6009.942229782319
 21
1604.589204613778
 31
0.0
  0
LINE
  5
28451
330
747D
100
AcDbEntity
  8
細線
 48
50.0
100
AcDbLine
 10
5937.942229782333
 20
1478.707667887364
 30
0.0
 11
6009.942229782319
 21
1550.707667887363
 31
0.0
  0
LINE
  5
28452
330
747D
100
AcDbEntity
  8
細線
 48
50.0
100
AcDbLine
 10
5937.942229782326
 20
1748.115351519438
 30
0.0
 11
6009.942229782327
 21
1820.115351519438
 31
0.0
  0
LINE
  5
28453
330
747D
100
AcDbEntity
  8
細線
 48
50.0
100
AcDbLine
 10
5937.942229782333
 20
1721.174583156233
 30
0.0
 11
6009.942229782319
 21
1793.174583156227
 31
0.0
  0
MTEXT
  5
28454
102
{ACAD_REACTORS
330
283FF
102
}
330
747D
100
AcDbEntity
  8
寸法
 62
     7
 48
50.0
100
AcDbMText
 10
6251.680685643577
 20
1110.037983298699
 30
0.0
 40
80.0
 41
0.8
 71
     4
 72
     1
  1
\A1;D10@300
  7
STYLE2
 73
     1
 44
1.0
1001
ACAD
1000
MTEXTBEGIN
1070
    73
1070
     1
1070
    44
1040
1.0
1070
    74
1070
     0
1000
MTEXTEND
  0
DIMENSION
  5
28455
330
747D
100
AcDbEntity
  8
寸法
 48
50.0
100
AcDbDimension
  2
*D52
 10
5817.942229782326
 20
2491.054876947233
 30
0.0
 11
5913.942229782326
 21
2491.054876947233
 31
0.0
 70
   160
  1
120\P200\P280
 71
     5
 42
192.0
  3
INABA_S40G
100
AcDbAlignedDimension
 13
6009.942229782326
 23
2071.387069030852
 33
0.0
 14
5817.942229782326
 24
2071.387069030852
 34
0.0
100
AcDbRotatedDimension
1001
ACAD
1000
DSTYLE
1002
{
1070
   341
1005
0
1002
}
  0
LINE
  5
28456
330
747D
100
AcDbEntity
  8
部品1
 48
50.0
100
AcDbLine
 10
5817.942229782326
 20
2071.387069030852
 30
0.0
 11
6009.942229782327
 21
2071.387069030852
 31
0.0
  0
LINE
  5
28457
330
747D
100
AcDbEntity
  8
細線
 48
50.0
100
AcDbLine
 10
5817.942229782326
 20
2032.22687696755
 30
0.0
 11
5857.102421845631
 21
2071.387069030852
 31
0.0
  0
LINE
  5
28458
330
747D
100
AcDbEntity
  8
細線
 48
50.0
100
AcDbLine
 10
5817.942229782326
 20
2005.286108604342
 30
0.0
 11
5884.043190208836
 21
2071.387069030852
 31
0.0
  0
LINE
  5
28459
330
747D
100
AcDbEntity
  8
細線
 48
50.0
100
AcDbLine
 10
5817.942229782326
 20
2059.167645330758
 30
0.0
 11
5830.161653482422
 21
2071.387069030852
 31
0.0
  0
LINE
  5
2845A
330
747D
100
AcDbEntity
  8
細線
 48
50.0
100
AcDbLine
 10
5937.494937048313
 20
1936.253437327874
 30
0.0
 11
6009.942229782327
 21
2008.70073006189
 31
0.0
  0
LINE
  5
2845B
330
747D
100
AcDbEntity
  8
細線
 48
50.0
100
AcDbLine
 10
5926.434652284797
 20
1952.133920927568
 30
0.0
 11
6009.942229782327
 21
2035.641498425098
 31
0.0
  0
LINE
  5
2845C
330
747D
100
AcDbEntity
  8
細線
 48
50.0
100
AcDbLine
 10
7802.38154295952
 20
1912.51535151944
 30
0.0
 11
7931.981542959518
 21
2042.115351519439
 31
0.0
  0
LINE
  5
2845D
330
747D
100
AcDbEntity
  8
部品1
100
AcDbLine
 10
7931.981542959518
 20
1527.387069030852
 30
0.0
 11
7931.981542959518
 21
2071.387069030852
 31
0.0
  0
LINE
  5
2845E
330
747D
100
AcDbEntity
  8
部品1
 48
50.0
100
AcDbLine
 10
7517.981542959519
 20
1527.387069030852
 30
0.0
 11
7517.981542959519
 21
2071.387069030852
 31
0.0
  0
LINE
  5
2845F
330
747D
100
AcDbEntity
  8
細線
 48
50.0
100
AcDbLine
 10
7517.981542959519
 20
1843.641498425098
 30
0.0
 11
7676.38154295952
 21
2002.041498425095
 31
0.0
  0
LINE
  5
28460
330
747D
100
AcDbEntity
  8
細線
 48
50.0
100
AcDbLine
 10
7517.981542959519
 20
1816.70073006189
 30
0.0
 11
7676.38154295952
 21
1975.100730061887
 31
0.0
  0
LINE
  5
28461
330
747D
100
AcDbEntity
  8
細線
 48
50.0
100
AcDbLine
 10
7517.981542959519
 20
1789.759961698683
 30
0.0
 11
7676.381542959517
 21
1948.159961698675
 31
0.0
  0
TEXT
  5
28462
330
747D
100
AcDbEntity
  8
部品1
 48
50.0
100
AcDbText
 10
7103.841641126563
 20
1842.626061314107
 30
0.0
 40
80.0
  1
▽G.L
  7
STYLE2
100
AcDbText
  0
LINE
  5
28463
330
747D
100
AcDbEntity
  8
部品1
100
AcDbLine
 10
7748.38154295952
 20
1846.387069030852
 30
0.0
 11
7748.381542959517
 21
2120.547069030853
 31
0.0
  0
LINE
  5
28464
330
747D
100
AcDbEntity
  8
部品1
100
AcDbLine
 10
7730.38154295952
 20
1846.387069030852
 30
0.0
 11
7730.381542959516
 21
2120.547069030853
 31
0.0
  0
LINE
  5
28465
330
747D
100
AcDbEntity
  8
細線
 48
50.0
100
AcDbLine
 10
7802.38154295952
 20
1858.633814793011
 30
0.0
 11
7931.981542959518
 21
1988.233814793002
 31
0.0
  0
LINE
  5
28466
330
747D
100
AcDbEntity
  8
細線
 48
50.0
100
AcDbLine
 10
7802.38154295952
 20
1885.574583156223
 30
0.0
 11
7931.981542959518
 21
2015.17458315622
 31
0.0
  0
LINE
  5
28467
330
747D
100
AcDbEntity
  8
部品1
100
AcDbLine
 10
7802.38154295952
 20
1747.387069030852
 30
0.0
 11
7802.38154295952
 21
2071.387069030852
 31
0.0
  0
LINE
  5
28468
330
747D
100
AcDbEntity
  8
部品1
100
AcDbLine
 10
7676.381542959513
 20
1747.387069030852
 30
0.0
 11
7676.38154295952
 21
2071.387069030852
 31
0.0
  0
LINE
  5
28469
330
747D
100
AcDbEntity
  8
細線
 48
50.0
100
AcDbLine
 10
7517.981542959519
 20
1601.17458315623
 30
0.0
 11
7676.381542959513
 21
1759.574583156219
 31
0.0
  0
LINE
  5
2846A
330
747D
100
AcDbEntity
  8
細線
 48
50.0
100
AcDbLine
 10
7517.981542959519
 20
1574.233814793023
 30
0.0
 11
7691.134797197356
 21
1747.38706903085
 31
0.0
  0
LINE
  5
2846B
330
747D
100
AcDbEntity
  8
細線
 48
50.0
100
AcDbLine
 10
7517.981542959519
 20
1628.115351519438
 30
0.0
 11
7676.381542959513
 21
1786.515351519433
 31
0.0
  0
LINE
  5
2846C
330
747D
100
AcDbEntity
  8
細線
 48
50.0
100
AcDbLine
 10
7446.66094410301
 20
1287.387069030852
 30
0.0
 11
7931.981542959518
 21
1772.70766788736
 31
0.0
  0
LINE
  5
2846D
330
747D
100
AcDbEntity
  8
細線
 48
50.0
100
AcDbLine
 10
7419.720175739804
 20
1287.387069030852
 30
0.0
 11
7931.981542959523
 21
1799.648436250566
 31
0.0
  0
LINE
  5
2846E
330
747D
100
AcDbEntity
  8
細線
 48
50.0
100
AcDbLine
 10
7392.779407376595
 20
1287.387069030852
 30
0.0
 11
7931.981542959518
 21
1826.589204613778
 31
0.0
  0
LINE
  5
2846F
330
747D
100
AcDbEntity
  8
部品1
 48
50.0
100
AcDbLine
 10
8139.981542959523
 20
1287.387069030852
 30
0.0
 11
7309.981542959523
 21
1287.387069030852
 31
0.0
  0
LINE
  5
28470
330
747D
100
AcDbEntity
  8
部品1
 48
50.0
100
AcDbLine
 10
8139.981542959523
 20
1159.387069030852
 30
0.0
 11
7309.981542959523
 21
1159.387069030852
 31
0.0
  0
LINE
  5
28471
330
747D
100
AcDbEntity
  8
細線
 48
50.0
100
AcDbLine
 10
7389.981542959515
 20
1446.233814793023
 30
0.0
 11
7471.13479719735
 21
1527.387069030852
 31
0.0
  0
LINE
  5
28472
330
747D
100
AcDbEntity
  8
部品1
 48
50.0
100
AcDbLine
 10
7389.981542959519
 20
1287.387069030852
 30
0.0
 11
7389.981542959519
 21
1527.387069030852
 31
0.0
  0
LINE
  5
28473
330
747D
100
AcDbEntity
  8
細線
 48
50.0
100
AcDbLine
 10
7437.388292561037
 20
1159.387069030852
 30
0.0
 11
7471.68578919222
 21
1287.387069030852
 31
0.0
  0
LINE
  5
28474
330
747D
100
AcDbEntity
  8
部品1
 48
50.0
100
AcDbLine
 10
7309.981542959523
 20
1159.387069030852
 30
0.0
 11
7309.981542959523
 21
1287.387069030852
 31
0.0
  0
LINE
  5
28475
330
747D
100
AcDbEntity
  8
細線
 48
50.0
100
AcDbLine
 10
7358.500247613779
 20
1159.38706903085
 30
0.0
 11
7392.797744244962
 21
1287.38706903085
 31
0.0
  0
LINE
  5
28476
330
747D
100
AcDbEntity
  8
細線
 48
50.0
100
AcDbLine
 10
7516.276337508284
 20
1159.38706903085
 30
0.0
 11
7550.573834139466
 21
1287.38706903085
 31
0.0
  0
LINE
  5
28477
330
747D
100
AcDbEntity
  8
細線
 48
50.0
100
AcDbLine
 10
7364.931028232132
 20
1183.387069030852
 30
0.0
 11
7371.361808850479
 21
1159.387069030852
 31
0.0
  0
LINE
  5
28478
330
747D
100
AcDbEntity
  8
細線
 48
50.0
100
AcDbLine
 10
7522.707118126636
 20
1183.387069030852
 30
0.0
 11
7529.137898744983
 21
1159.387069030852
 31
0.0
  0
LINE
  5
28479
330
747D
100
AcDbEntity
  8
細線
 48
50.0
100
AcDbLine
 10
7443.819073179385
 20
1183.387069030852
 30
0.0
 11
7450.24985379773
 21
1159.387069030852
 31
0.0
  0
LINE
  5
2847A
330
747D
100
AcDbEntity
  8
細線
 48
50.0
100
AcDbLine
 10
7309.981542959519
 20
1272.726989996632
 30
0.0
 11
7313.909699297714
 21
1287.387069030852
 31
0.0
  0
LINE
  5
2847B
330
747D
100
AcDbEntity
  8
細線
 48
50.0
100
AcDbLine
 10
7386.36696362662
 20
1263.387069030852
 30
0.0
 11
7379.936183008275
 21
1287.387069030852
 31
0.0
  0
LINE
  5
2847C
330
747D
100
AcDbEntity
  8
細線
 48
50.0
100
AcDbLine
 10
7544.143053521125
 20
1263.387069030852
 30
0.0
 11
7537.712272902777
 21
1287.387069030852
 31
0.0
  0
LINE
  5
2847D
330
747D
100
AcDbEntity
  8
細線
 48
50.0
100
AcDbLine
 10
7465.255008573874
 20
1263.387069030852
 30
0.0
 11
7458.824227955526
 21
1287.387069030852
 31
0.0
  0
LWPOLYLINE
  5
2847E
330
747D
100
AcDbEntity
  8
部品1
 48
50.0
100
AcDbPolyline
 90
        2
 70
     0
 43
8.0
 10
7103.841641126563
 20
1831.387069030853
 10
7517.981542959519
 20
1831.387069030853
  0
LINE
  5
2847F
330
747D
100
AcDbEntity
  8
細線
 48
50.0
100
AcDbLine
 10
7389.981542959515
 20
1473.174583156227
 30
0.0
 11
7444.194028834144
 21
1527.387069030852
 31
0.0
  0
LINE
  5
28480
330
747D
100
AcDbEntity
  8
部品1
 48
50.0
100
AcDbLine
 10
7389.981542959519
 20
1527.387069030852
 30
0.0
 11
7517.981542959519
 21
1527.387069030852
 31
0.0
  0
LINE
  5
28481
330
747D
100
AcDbEntity
  8
細線
 48
50.0
100
AcDbLine
 10
7389.981542959515
 20
1500.115351519438
 30
0.0
 11
7417.253260470935
 21
1527.387069030852
 31
0.0
  0
LINE
  5
28482
330
747D
100
AcDbEntity
  8
細線
 48
50.0
100
AcDbLine
 10
7635.246322645464
 20
1287.387069030852
 30
0.0
 11
7931.981542959518
 21
1584.122289344905
 31
0.0
  0
LINE
  5
28483
330
747D
100
AcDbEntity
  8
細線
 48
50.0
100
AcDbLine
 10
7662.18709100867
 20
1287.387069030852
 30
0.0
 11
7931.981542959518
 21
1557.181520981709
 31
0.0
  0
LINE
  5
28484
330
747D
100
AcDbEntity
  8
細線
 48
50.0
100
AcDbLine
 10
7608.305554282253
 20
1287.387069030852
 30
0.0
 11
7931.981542959518
 21
1611.063057708118
 31
0.0
  0
LINE
  5
28485
330
747D
100
AcDbEntity
  8
細線
 48
50.0
100
AcDbLine
 10
7823.831701187912
 20
1287.387069030852
 30
0.0
 11
8059.981542959517
 21
1523.536910802461
 31
0.0
  0
LINE
  5
28486
330
747D
100
AcDbEntity
  8
細線
 48
50.0
100
AcDbLine
 10
7850.772469551124
 20
1287.387069030852
 30
0.0
 11
8059.981542959517
 21
1496.596142439245
 31
0.0
  0
LINE
  5
28487
330
747D
100
AcDbEntity
  8
部品1
 48
50.0
100
AcDbLine
 10
8059.981542959517
 20
1527.387069030852
 30
0.0
 11
8059.981542959517
 21
1287.387069030852
 31
0.0
  0
LINE
  5
28488
330
747D
100
AcDbEntity
  8
細線
 48
50.0
100
AcDbLine
 10
7877.713237914329
 20
1287.387069030852
 30
0.0
 11
8059.981542959517
 21
1469.655374076048
 31
0.0
  0
LINE
  5
28489
330
747D
100
AcDbEntity
  8
細線
 48
50.0
100
AcDbLine
 10
7752.94047235003
 20
1159.38706903085
 30
0.0
 11
7787.237968981212
 21
1287.38706903085
 31
0.0
  0
LINE
  5
2848A
330
747D
100
AcDbEntity
  8
細線
 48
50.0
100
AcDbLine
 10
7595.164382455535
 20
1159.387069030852
 30
0.0
 11
7629.461879086718
 21
1287.387069030852
 31
0.0
  0
LINE
  5
2848B
330
747D
100
AcDbEntity
  8
細線
 48
50.0
100
AcDbLine
 10
7674.052427402782
 20
1159.387069030852
 30
0.0
 11
7708.349924033966
 21
1287.38706903085
 31
0.0
  0
LINE
  5
2848C
330
747D
100
AcDbEntity
  8
細線
 48
50.0
100
AcDbLine
 10
7831.828517297272
 20
1159.387069030852
 30
0.0
 11
7866.126013928457
 21
1287.38706903085
 31
0.0
  0
LINE
  5
2848D
330
747D
100
AcDbEntity
  8
細線
 48
50.0
100
AcDbLine
 10
7680.483208021134
 20
1183.387069030852
 30
0.0
 11
7686.913988639481
 21
1159.387069030852
 31
0.0
  0
LINE
  5
2848E
330
747D
100
AcDbEntity
  8
細線
 48
50.0
100
AcDbLine
 10
7601.595163073887
 20
1183.387069030852
 30
0.0
 11
7608.025943692235
 21
1159.387069030852
 31
0.0
  0
LINE
  5
2848F
330
747D
100
AcDbEntity
  8
細線
 48
50.0
100
AcDbLine
 10
7838.259297915626
 20
1183.387069030852
 30
0.0
 11
7844.690078533971
 21
1159.387069030852
 31
0.0
  0
LINE
  5
28490
330
747D
100
AcDbEntity
  8
細線
 48
50.0
100
AcDbLine
 10
7759.37125296838
 20
1183.387069030852
 30
0.0
 11
7765.802033586727
 21
1159.387069030852
 31
0.0
  0
LINE
  5
28491
330
747D
100
AcDbEntity
  8
細線
 48
50.0
100
AcDbLine
 10
7701.919143415624
 20
1263.387069030852
 30
0.0
 11
7695.488362797274
 21
1287.387069030852
 31
0.0
  0
LINE
  5
28492
330
747D
100
AcDbEntity
  8
細線
 48
50.0
100
AcDbLine
 10
7623.031098468375
 20
1263.387069030852
 30
0.0
 11
7616.60031785003
 21
1287.387069030852
 31
0.0
  0
LINE
  5
28493
330
747D
100
AcDbEntity
  8
細線
 48
50.0
100
AcDbLine
 10
7780.80718836287
 20
1263.387069030852
 30
0.0
 11
7774.376407744523
 21
1287.387069030852
 31
0.0
  0
LINE
  5
28494
330
747D
100
AcDbEntity
  8
細線
 48
50.0
100
AcDbLine
 10
7859.695233310114
 20
1263.387069030852
 30
0.0
 11
7853.264452691767
 21
1287.387069030852
 31
0.0
  0
LINE
  5
28495
330
747D
100
AcDbEntity
  8
部品1
 48
50.0
100
AcDbLine
 10
8139.981542959523
 20
1287.387069030852
 30
0.0
 11
8139.981542959523
 21
1159.387069030852
 31
0.0
  0
LINE
  5
28496
330
747D
100
AcDbEntity
  8
細線
 48
50.0
100
AcDbLine
 10
8068.492652139015
 20
1159.38706903085
 30
0.0
 11
8102.790148770202
 21
1287.387069030849
 31
0.0
  0
LINE
  5
28497
330
747D
100
AcDbEntity
  8
細線
 48
50.0
100
AcDbLine
 10
7910.716562244521
 20
1159.38706903085
 30
0.0
 11
7945.014058875695
 21
1287.387069030852
 31
0.0
  0
LINE
  5
28498
330
747D
100
AcDbEntity
  8
細線
 48
50.0
100
AcDbLine
 10
7989.604607191769
 20
1159.387069030849
 30
0.0
 11
8023.902103822955
 21
1287.387069030849
 31
0.0
  0
LINE
  5
28499
330
747D
100
AcDbEntity
  8
細線
 48
50.0
100
AcDbLine
 10
7917.14734286287
 20
1183.387069030852
 30
0.0
 11
7923.578123481227
 21
1159.387069030852
 31
0.0
  0
LINE
  5
2849A
330
747D
100
AcDbEntity
  8
細線
 48
50.0
100
AcDbLine
 10
7996.03538781012
 20
1183.38706903085
 30
0.0
 11
8002.466168428465
 21
1159.38706903085
 31
0.0
  0
LINE
  5
2849B
330
747D
100
AcDbEntity
  8
細線
 48
50.0
100
AcDbLine
 10
8074.923432757364
 20
1183.38706903085
 30
0.0
 11
8081.354213375716
 21
1159.38706903085
 31
0.0
  0
LINE
  5
2849C
330
747D
100
AcDbEntity
  8
細線
 48
50.0
100
AcDbLine
 10
7938.583278257353
 20
1263.387069030852
 30
0.0
 11
7932.152497639006
 21
1287.387069030852
 31
0.0
  0
LINE
  5
2849D
330
747D
100
AcDbEntity
  8
細線
 48
50.0
100
AcDbLine
 10
8017.471323204608
 20
1263.38706903085
 30
0.0
 11
8011.040542586263
 21
1287.38706903085
 31
0.0
  0
LINE
  5
2849E
330
747D
100
AcDbEntity
  8
細線
 48
50.0
100
AcDbLine
 10
8096.359368151855
 20
1263.38706903085
 30
0.0
 11
8089.928587533508
 21
1287.38706903085
 31
0.0
  0
LINE
  5
2849F
330
747D
100
AcDbEntity
  8
部品1
100
AcDbLine
 10
7802.38154295952
 20
1747.38706903085
 30
0.0
 11
7676.381542959513
 21
1747.38706903085
 31
0.0
  0
LINE
  5
284A0
330
747D
100
AcDbEntity
  8
部品1
100
AcDbLine
 10
7784.381542959519
 20
1828.387069030852
 30
0.0
 11
7784.381542959519
 21
1846.387069030852
 31
0.0
  0
ARC
  5
284A1
330
747D
100
AcDbEntity
  8
部品1
100
AcDbCircle
 10
7748.38154295952
 20
1846.387069030852
 30
0.0
 40
18.0
100
AcDbArc
 50
180.0
 51
270.0
  0
LINE
  5
284A2
330
747D
100
AcDbEntity
  8
部品1
100
AcDbLine
 10
7748.38154295952
 20
1828.387069030852
 30
0.0
 11
7784.381542959519
 21
1828.387069030852
 31
0.0
  0
LINE
  5
284A3
330
747D
100
AcDbEntity
  8
部品1
100
AcDbLine
 10
7748.38154295952
 20
1846.387069030852
 30
0.0
 11
7784.381542959519
 21
1846.387069030852
 31
0.0
  0
LINE
  5
284A4
330
747D
100
AcDbEntity
  8
部品1
 48
50.0
100
AcDbLine
 10
7931.981542959518
 20
1527.387069030852
 30
0.0
 11
8059.981542959517
 21
1527.387069030852
 31
0.0
  0
LINE
  5
284A5
330
747D
100
AcDbEntity
  8
部品1
100
AcDbLine
 10
7537.78154295952
 20
2161.387069030852
 30
0.0
 11
7575.581542959522
 21
2161.387069030852
 31
0.0
  0
LINE
  5
284A6
330
747D
100
AcDbEntity
  8
細線
 48
50.0
100
AcDbLine
 10
7517.981542959519
 20
2032.22687696755
 30
0.0
 11
7557.141735022828
 21
2071.387069030852
 31
0.0
  0
LINE
  5
284A7
330
747D
100
AcDbEntity
  8
細線
 48
50.0
100
AcDbLine
 10
7517.981542959519
 20
2005.286108604342
 30
0.0
 11
7584.08250338603
 21
2071.387069030852
 31
0.0
  0
LINE
  5
284A8
330
747D
100
AcDbEntity
  8
部品1
 48
50.0
100
AcDbLine
 10
7517.981542959519
 20
2071.387069030852
 30
0.0
 11
7931.981542959523
 21
2071.387069030852
 31
0.0
  0
LINE
  5
284A9
330
747D
100
AcDbEntity
  8
部品1
100
AcDbLine
 10
7535.081542959521
 20
2150.587069030852
 30
0.0
 11
7535.081542959521
 21
2158.687069030853
 31
0.0
  0
ARC
  5
284AA
330
747D
100
AcDbEntity
  8
部品1
100
AcDbCircle
 10
7537.78154295952
 20
2158.687069030853
 30
0.0
 40
2.7
100
AcDbArc
 50
90.0
 51
180.0
  0
ARC
  5
284AB
330
747D
100
AcDbEntity
  8
部品1
100
AcDbCircle
 10
7526.98154295952
 20
2145.778972733561
 30
0.0
 40
2.7
100
AcDbArc
 50
104.0362434679067
 51
180.0
  0
LINE
  5
284AC
330
747D
100
AcDbEntity
  8
部品1
100
AcDbLine
 10
7526.326696771922
 20
2148.398357483952
 30
0.0
 11
7535.081542959521
 21
2150.587069030852
 31
0.0
  0
ARC
  5
284AD
330
747D
100
AcDbEntity
  8
部品1
100
AcDbCircle
 10
7526.98154295952
 20
2083.647069030853
 30
0.0
 40
2.7
100
AcDbArc
 50
180.0
 51
270.0
  0
LINE
  5
284AE
330
747D
100
AcDbEntity
  8
細線
 48
50.0
100
AcDbLine
 10
7517.981542959519
 20
2059.167645330758
 30
0.0
 11
7530.200966659615
 21
2071.387069030852
 31
0.0
  0
LINE
  5
284AF
330
747D
100
AcDbEntity
  8
部品1
100
AcDbLine
 10
7526.98154295952
 20
2080.947069030853
 30
0.0
 11
7538.681542959515
 21
2080.947069030853
 31
0.0
  0
LINE
  5
284B0
330
747D
100
AcDbEntity
  8
部品1
100
AcDbLine
 10
7524.281542959521
 20
2083.647069030853
 30
0.0
 11
7524.281542959521
 21
2145.778972733561
 31
0.0
  0
LINE
  5
284B1
330
747D
100
AcDbEntity
  8
部品1
100
AcDbLine
 10
7682.941542959515
 20
2080.947069030853
 30
0.0
 11
7884.281542959513
 21
2080.947069030853
 31
0.0
  0
LINE
  5
284B2
330
747D
100
AcDbEntity
  8
部品1
100
AcDbLine
 10
7575.581542959522
 20
2161.387069030852
 30
0.0
 11
7575.581542959522
 21
2169.487069030853
 31
0.0
  0
LINE
  5
284B3
330
747D
100
AcDbEntity
  8
部品1
100
AcDbLine
 10
7625.981542959519
 20
2180.287069030849
 30
0.0
 11
7625.981542959519
 21
2128.987069030852
 31
0.0
  0
LINE
  5
284B4
330
747D
100
AcDbEntity
  8
部品1
100
AcDbLine
 10
7649.38154295952
 20
2140.947069030853
 30
0.0
 11
7677.54154295952
 21
2140.947069030853
 31
0.0
  0
ARC
  5
284B5
330
747D
100
AcDbEntity
  8
部品1
100
AcDbCircle
 10
7649.38154295952
 20
2138.247069030853
 30
0.0
 40
2.7
100
AcDbArc
 50
90.0
 51
180.0
  0
ARC
  5
284B6
330
747D
100
AcDbEntity
  8
部品1
100
AcDbCircle
 10
7677.54154295952
 20
2138.247069030853
 30
0.0
 40
2.7
100
AcDbArc
 50
0.0
 51
90.0
  0
LINE
  5
284B7
330
747D
100
AcDbEntity
  8
部品1
100
AcDbLine
 10
7668.281542959521
 20
2126.287069030852
 30
0.0
 11
7668.281542959521
 21
2083.647069030853
 31
0.0
  0
LINE
  5
284B8
330
747D
100
AcDbEntity
  8
部品1
100
AcDbLine
 10
7653.881542959521
 20
2080.947069030853
 30
0.0
 11
7665.581542959521
 21
2080.947069030853
 31
0.0
  0
ARC
  5
284B9
330
747D
100
AcDbEntity
  8
部品1
100
AcDbCircle
 10
7682.941542959515
 20
2083.647069030853
 30
0.0
 40
2.7
100
AcDbArc
 50
180.0
 51
270.0
  0
ARC
  5
284BA
330
747D
100
AcDbEntity
  8
部品1
100
AcDbCircle
 10
7665.581542959521
 20
2083.647069030853
 30
0.0
 40
2.7
100
AcDbArc
 50
270.0
 51
0.0
  0
LINE
  5
284BB
330
747D
100
AcDbEntity
  8
部品1
100
AcDbLine
 10
7625.981542959519
 20
2128.987069030852
 30
0.0
 11
7665.581542959521
 21
2128.987069030852
 31
0.0
  0
ARC
  5
284BC
330
747D
100
AcDbEntity
  8
部品1
100
AcDbCircle
 10
7665.581542959521
 20
2126.287069030852
 30
0.0
 40
2.7
100
AcDbArc
 50
0.0
 51
90.0
  0
LINE
  5
284BD
330
747D
100
AcDbEntity
  8
部品1
100
AcDbLine
 10
7680.24154295952
 20
2138.247069030853
 30
0.0
 11
7680.241542959517
 21
2083.647069030853
 31
0.0
  0
LINE
  5
284BE
330
747D
100
AcDbEntity
  8
部品1
100
AcDbLine
 10
7646.681542959519
 20
2138.247069030853
 30
0.0
 11
7646.681542959519
 21
2121.147069030852
 31
0.0
  0
LINE
  5
284BF
330
747D
100
AcDbEntity
  8
細線
100
AcDbLine
 10
7744.781542959521
 20
2080.947069030853
 30
0.0
 11
7744.781542959521
 21
2124.147069030852
 31
0.0
  0
LINE
  5
284C0
330
747D
100
AcDbEntity
  8
細線
100
AcDbLine
 10
7733.981542959522
 20
2080.947069030853
 30
0.0
 11
7733.981542959519
 21
2124.147069030852
 31
0.0
  0
LINE
  5
284C1
330
747D
100
AcDbEntity
  8
部品1
100
AcDbLine
 10
7730.38154295952
 20
2120.547069030853
 30
0.0
 11
7748.38154295952
 21
2120.547069030853
 31
0.0
  0
LINE
  5
284C2
330
747D
100
AcDbEntity
  8
部品1
100
AcDbLine
 10
7733.981542959519
 20
2124.147069030852
 30
0.0
 11
7744.781542959521
 21
2124.147069030852
 31
0.0
  0
ELLIPSE
  5
284C3
330
747D
100
AcDbEntity
  8
部品1
 48
50.0
100
AcDbEllipse
 10
7739.381542959519
 20
2340.510357475125
 30
0.0
 11
40.0
 21
0.0
 31
0.0
210
0.0
220
0.0
230
1.0
 40
0.4
 41
0.0
 42
6.283185307179586
  0
ELLIPSE
  5
284C4
330
747D
100
AcDbEntity
  8
部品1
 48
50.0
100
AcDbEllipse
 10
7739.381542959519
 20
2330.910357475125
 30
0.0
 11
40.0
 21
0.0
 31
0.0
210
0.0
220
0.0
230
1.0
 40
0.4
 41
3.141592653589793
 42
6.283185307179586
  0
LINE
  5
284C5
330
747D
100
AcDbEntity
  8
部品1
 48
50.0
100
AcDbLine
 10
7699.38154295952
 20
2340.510357475125
 30
0.0
 11
7699.38154295952
 21
2330.910357475124
 31
0.0
  0
ARC
  5
284C6
330
747D
100
AcDbEntity
  8
部品1
100
AcDbCircle
 10
7623.281542959521
 20
2180.287069030849
 30
0.0
 40
2.7
100
AcDbArc
 50
0.0
 51
90.0
  0
ARC
  5
284C7
330
747D
100
AcDbEntity
  8
部品1
100
AcDbCircle
 10
7580.981542959519
 20
2180.287069030852
 30
0.0
 40
2.7
100
AcDbArc
 50
90.0
 51
180.0
  0
LINE
  5
284C8
330
747D
100
AcDbEntity
  8
部品1
100
AcDbLine
 10
7578.28154295952
 20
2172.187069030853
 30
0.0
 11
7578.28154295952
 21
2172.187069030853
 31
0.0
  0
LINE
  5
284C9
330
747D
100
AcDbEntity
  8
部品1
100
AcDbLine
 10
7578.28154295952
 20
2172.187069030853
 30
0.0
 11
7578.28154295952
 21
2180.287069030852
 31
0.0
  0
LINE
  5
284CA
330
747D
100
AcDbEntity
  8
部品1
100
AcDbLine
 10
7580.981542959519
 20
2182.987069030852
 30
0.0
 11
7623.281542959521
 21
2182.987069030849
 31
0.0
  0
ARC
  5
284CB
330
747D
100
AcDbEntity
  8
部品1
100
AcDbCircle
 10
7578.28154295952
 20
2169.487069030853
 30
0.0
 40
2.7
100
AcDbArc
 50
90.0
 51
180.0
  0
ELLIPSE
  5
284CC
330
747D
100
AcDbEntity
  8
部品1
 48
50.0
100
AcDbEllipse
 10
7739.381542959519
 20
2340.510357475125
 30
0.0
 11
18.4
 21
0.0
 31
0.0
210
0.0
220
0.0
230
1.0
 40
0.3478260869565217
 41
0.0
 42
6.283185307179586
  0
LINE
  5
284CD
330
747D
100
AcDbEntity
  8
部品1
 48
50.0
100
AcDbLine
 10
7779.381542959519
 20
2330.910357475124
 30
0.0
 11
7779.381542959519
 21
2340.510357475125
 31
0.0
  0
LINE
  5
284CE
330
747D
100
AcDbEntity
  8
部品1
 48
50.0
100
AcDbLine
 10
7707.38154295952
 20
2462.262350139995
 30
0.0
 11
7723.381542959519
 21
2454.262350139995
 31
0.0
  0
LINE
  5
284CF
330
747D
100
AcDbEntity
  8
部品1
 48
50.0
100
AcDbLine
 10
7707.38154295952
 20
2430.262350139995
 30
0.0
 11
7723.381542959519
 21
2422.262350139995
 31
0.0
  0
LINE
  5
284D0
330
747D
100
AcDbEntity
  8
部品1
 48
50.0
100
AcDbLine
 10
7707.38154295952
 20
2462.262350139995
 30
0.0
 11
7723.381542959519
 21
2470.262350139995
 31
0.0
  0
LINE
  5
284D1
330
747D
100
AcDbEntity
  8
部品1
 48
50.0
100
AcDbLine
 10
7707.38154295952
 20
2430.262350139995
 30
0.0
 11
7707.38154295952
 21
2462.262350139995
 31
0.0
  0
LINE
  5
284D2
330
747D
100
AcDbEntity
  8
部品1
 48
50.0
100
AcDbLine
 10
7723.381542959519
 20
2470.262350139995
 30
0.0
 11
7755.38154295952
 21
2470.262350139995
 31
0.0
  0
ELLIPSE
  5
284D3
330
747D
100
AcDbEntity
  8
細線
 48
50.0
100
AcDbEllipse
 10
7739.381542959519
 20
2462.262350139995
 30
0.0
 11
14.76670786606846
 21
0.0
 31
0.0
210
0.0
220
0.0
230
1.0
 40
0.2071254069489396
 41
0.0
 42
6.283185307179586
  0
LINE
  5
284D4
330
747D
100
AcDbEntity
  8
部品1
 48
50.0
100
AcDbLine
 10
7723.381542959519
 20
2422.262350139995
 30
0.0
 11
7755.38154295952
 21
2422.262350139995
 31
0.0
  0
LINE
  5
284D5
330
747D
100
AcDbEntity
  8
部品1
 48
50.0
100
AcDbLine
 10
7755.38154295952
 20
2422.262350139995
 30
0.0
 11
7771.38154295952
 21
2430.262350139995
 31
0.0
  0
LINE
  5
284D6
330
747D
100
AcDbEntity
  8
部品1
 48
50.0
100
AcDbLine
 10
7723.381542959519
 20
2454.262350139995
 30
0.0
 11
7755.38154295952
 21
2454.262350139995
 31
0.0
  0
LINE
  5
284D7
330
747D
100
AcDbEntity
  8
部品1
 48
50.0
100
AcDbLine
 10
7755.38154295952
 20
2454.262350139995
 30
0.0
 11
7771.38154295952
 21
2462.262350139995
 31
0.0
  0
LINE
  5
284D8
330
747D
100
AcDbEntity
  8
細線
 48
50.0
100
AcDbLine
 10
7755.38154295952
 20
2422.262350139995
 30
0.0
 11
7755.38154295952
 21
2454.262350139995
 31
0.0
  0
LINE
  5
284D9
330
747D
100
AcDbEntity
  8
部品1
 48
50.0
100
AcDbLine
 10
7771.38154295952
 20
2430.262350139995
 30
0.0
 11
7771.38154295952
 21
2462.262350139995
 31
0.0
  0
LINE
  5
284DA
330
747D
100
AcDbEntity
  8
細線
 48
50.0
100
AcDbLine
 10
7723.381542959519
 20
2422.262350139995
 30
0.0
 11
7723.381542959519
 21
2454.262350139995
 31
0.0
  0
LINE
  5
284DB
330
747D
100
AcDbEntity
  8
部品1
 48
50.0
100
AcDbLine
 10
7755.38154295952
 20
2470.262350139995
 30
0.0
 11
7771.38154295952
 21
2462.262350139995
 31
0.0
  0
TEXT
  5
284DC
330
747D
100
AcDbEntity
  8
部品1
100
AcDbText
 10
7440.153792151452
 20
3291.17380428001
 30
0.0
 40
120.0
  1
基礎詳細
  7
STYLE2
100
AcDbText
  0
LINE
  5
284DD
330
747D
100
AcDbEntity
  8
部品1
100
AcDbLine
 10
10818.25897635931
 20
506.4187666467906
 30
0.0
 11
10818.25897635932
 21
3470.725736231438
 31
0.0
  0
LINE
  5
284DE
330
747D
100
AcDbEntity
  8
細線
100
AcDbLine
 10
9826.150808939063
 20
1831.387069030852
 30
0.0
 11
9631.517475262278
 21
2026.020402707635
 31
0.0
  0
LINE
  5
284DF
330
747D
100
AcDbEntity
  8
部品1
100
AcDbLine
 10
9631.517475262278
 20
2071.387069030852
 30
0.0
 11
10111.51747526227
 21
2071.387069030852
 31
0.0
  0
LINE
  5
284E0
330
747D
100
AcDbEntity
  8
細線
 48
50.0
100
AcDbLine
 10
9765.588359705537
 20
1611.688153377502
 30
0.0
 11
9799.885856336722
 21
1739.688153377501
 31
0.0
  0
LINE
  5
284E1
330
747D
100
AcDbEntity
  8
部品1
100
AcDbLine
 10
9511.517475262278
 20
1611.688153377498
 30
0.0
 11
10231.51747526227
 21
1611.688153377502
 31
0.0
  0
LINE
  5
284E2
330
747D
100
AcDbEntity
  8
部品1
100
AcDbLine
 10
9511.517475262278
 20
1739.688153377502
 30
0.0
 11
10231.51747526227
 21
1739.688153377505
 31
0.0
  0
LINE
  5
284E3
330
747D
100
AcDbEntity
  8
細線
100
AcDbLine
 10
9692.43612075552
 20
1739.688153377502
 30
0.0
 11
9784.135036408866
 21
1831.387069030852
 31
0.0
  0
LWPOLYLINE
  5
284E4
330
747D
100
AcDbEntity
  8
部品1
 48
50.0
100
AcDbPolyline
 90
        2
 70
     0
 43
12.0
 10
9246.906213161889
 20
1831.387069030852
 10
10447.99851629351
 20
1831.387069030852
  0
LINE
  5
284E5
330
747D
100
AcDbEntity
  8
細線
100
AcDbLine
 10
9775.23912069363
 20
1831.387069030852
 30
0.0
 11
9631.517475262278
 21
1975.108714462205
 31
0.0
  0
TEXT
  5
284E6
330
747D
100
AcDbEntity
  8
部品1
 48
50.0
100
AcDbText
 10
8867.399388503775
 20
1564.587328393543
 30
0.0
 40
80.0
  1
ボルトの出
 50
90.0
  7
STYLE2
100
AcDbText
  0
LINE
  5
284E7
330
747D
100
AcDbEntity
  8
部品1
100
AcDbLine
 10
9631.517475262278
 20
1831.387069030852
 30
0.0
 11
9631.517475262278
 21
2071.387069030852
 31
0.0
  0
LINE
  5
284E8
330
747D
100
AcDbEntity
  8
細線
 48
50.0
100
AcDbLine
 10
9607.81226981104
 20
1611.688153377501
 30
0.0
 11
9642.109766442219
 21
1739.688153377501
 31
0.0
  0
LINE
  5
284E9
330
747D
100
AcDbEntity
  8
細線
 48
50.0
100
AcDbLine
 10
9686.700314758288
 20
1611.688153377502
 30
0.0
 11
9720.997811389473
 21
1739.688153377502
 31
0.0
  0
LINE
  5
284EA
330
747D
100
AcDbEntity
  8
細線
 48
50.0
100
AcDbLine
 10
9528.924224863789
 20
1611.688153377502
 30
0.0
 11
9563.221721494974
 21
1739.688153377502
 31
0.0
  0
LINE
  5
284EB
330
747D
100
AcDbEntity
  8
部品1
100
AcDbLine
 10
9511.517475262278
 20
1611.688153377498
 30
0.0
 11
9511.517475262278
 21
1831.387069030852
 31
0.0
  0
LINE
  5
284EC
330
747D
100
AcDbEntity
  8
細線
 48
50.0
100
AcDbLine
 10
9614.243050429388
 20
1635.688153377502
 30
0.0
 11
9620.673831047739
 21
1611.688153377502
 31
0.0
  0
LINE
  5
284ED
330
747D
100
AcDbEntity
  8
細線
 48
50.0
100
AcDbLine
 10
9535.35500548214
 20
1635.688153377502
 30
0.0
 11
9541.785786100485
 21
1611.688153377502
 31
0.0
  0
LINE
  5
284EE
330
747D
100
AcDbEntity
  8
細線
 48
50.0
100
AcDbLine
 10
9693.131095376642
 20
1635.688153377502
 30
0.0
 11
9699.561875994987
 21
1611.688153377502
 31
0.0
  0
LINE
  5
284EF
330
747D
100
AcDbEntity
  8
細線
 48
50.0
100
AcDbLine
 10
9772.019140323886
 20
1635.688153377502
 30
0.0
 11
9778.449920942236
 21
1611.688153377502
 31
0.0
  0
LINE
  5
284F0
330
747D
100
AcDbEntity
  8
細線
 48
50.0
100
AcDbLine
 10
9556.790940876629
 20
1715.688153377502
 30
0.0
 11
9550.360160258279
 21
1739.688153377502
 31
0.0
  0
LINE
  5
284F1
330
747D
100
AcDbEntity
  8
細線
 48
50.0
100
AcDbLine
 10
9714.56703077113
 20
1715.688153377502
 30
0.0
 11
9708.136250152783
 21
1739.688153377502
 31
0.0
  0
LINE
  5
284F2
330
747D
100
AcDbEntity
  8
細線
 48
50.0
100
AcDbLine
 10
9635.678985823878
 20
1715.688153377502
 30
0.0
 11
9629.248205205533
 21
1739.688153377502
 31
0.0
  0
LINE
  5
284F3
330
747D
100
AcDbEntity
  8
細線
100
AcDbLine
 10
9624.553869761607
 20
1739.688153377502
 30
0.0
 11
9716.252785414956
 21
1831.387069030852
 31
0.0
  0
LINE
  5
284F4
330
747D
100
AcDbEntity
  8
細線
100
AcDbLine
 10
9658.494995258564
 20
1739.688153377502
 30
0.0
 11
9750.19391091191
 21
1831.387069030852
 31
0.0
  0
LINE
  5
284F5
330
747D
100
AcDbEntity
  8
細線
100
AcDbLine
 10
10046.76812466926
 20
1831.387069030852
 30
0.0
 11
9806.768124669268
 21
2071.387069030852
 31
0.0
  0
LINE
  5
284F6
330
747D
100
AcDbEntity
  8
細線
100
AcDbLine
 10
10097.67981291469
 20
1831.387069030854
 30
0.0
 11
9857.6798129147
 21
2071.387069030852
 31
0.0
  0
LINE
  5
284F7
330
747D
100
AcDbEntity
  8
部品1
100
AcDbLine
 10
10111.51747526227
 20
2071.387069030852
 30
0.0
 11
10111.51747526227
 21
1831.387069030852
 31
0.0
  0
LINE
  5
284F8
330
747D
100
AcDbEntity
  8
細線
 48
50.0
100
AcDbLine
 10
10081.14053949452
 20
1611.688153377499
 30
0.0
 11
10115.43803612571
 21
1739.688153377499
 31
0.0
  0
LINE
  5
284F9
330
747D
100
AcDbEntity
  8
細線
100
AcDbLine
 10
10052.43612075552
 20
1739.688153377504
 30
0.0
 11
10144.13503640886
 21
1831.387069030852
 31
0.0
  0
LINE
  5
284FA
330
747D
100
AcDbEntity
  8
細線
 48
50.0
100
AcDbLine
 10
10002.25249454727
 20
1611.688153377501
 30
0.0
 11
10036.54999117845
 21
1739.688153377502
 31
0.0
  0
LINE
  5
284FB
330
747D
100
AcDbEntity
  8
細線
 48
50.0
100
AcDbLine
 10
9844.476404652786
 20
1611.688153377501
 30
0.0
 11
9878.773901283967
 21
1739.688153377501
 31
0.0
  0
LINE
  5
284FC
330
747D
100
AcDbEntity
  8
細線
 48
50.0
100
AcDbLine
 10
9923.364449600027
 20
1611.688153377502
 30
0.0
 11
9957.661946231212
 21
1739.688153377501
 31
0.0
  0
LINE
  5
284FD
330
747D
100
AcDbEntity
  8
細線
 48
50.0
100
AcDbLine
 10
9929.795230218381
 20
1635.688153377502
 30
0.0
 11
9936.226010836726
 21
1611.688153377502
 31
0.0
  0
LINE
  5
284FE
330
747D
100
AcDbEntity
  8
細線
 48
50.0
100
AcDbLine
 10
9850.907185271136
 20
1635.688153377502
 30
0.0
 11
9857.337965889481
 21
1611.688153377502
 31
0.0
  0
LINE
  5
284FF
330
747D
100
AcDbEntity
  8
細線
 48
50.0
100
AcDbLine
 10
10008.68327516562
 20
1635.688153377502
 30
0.0
 11
10015.11405578398
 21
1611.688153377502
 31
0.0
  0
LINE
  5
28500
330
747D
100
AcDbEntity
  8
細線
 48
50.0
100
AcDbLine
 10
10087.57132011287
 20
1635.688153377501
 30
0.0
 11
10094.00210073122
 21
1611.688153377501
 31
0.0
  0
LINE
  5
28501
330
747D
100
AcDbEntity
  8
細線
 48
50.0
100
AcDbLine
 10
9951.23116561287
 20
1715.688153377502
 30
0.0
 11
9944.800384994524
 21
1739.688153377502
 31
0.0
  0
LINE
  5
28502
330
747D
100
AcDbEntity
  8
細線
 48
50.0
100
AcDbLine
 10
9872.343120665625
 20
1715.688153377502
 30
0.0
 11
9865.912340047279
 21
1739.688153377502
 31
0.0
  0
LINE
  5
28503
330
747D
100
AcDbEntity
  8
細線
 48
50.0
100
AcDbLine
 10
9793.455075718377
 20
1715.688153377502
 30
0.0
 11
9787.02429510003
 21
1739.688153377502
 31
0.0
  0
LINE
  5
28504
330
747D
100
AcDbEntity
  8
細線
100
AcDbLine
 10
10018.49499525856
 20
1739.688153377504
 30
0.0
 11
10110.19391091191
 21
1831.387069030852
 31
0.0
  0
LINE
  5
28505
330
747D
100
AcDbEntity
  8
細線
 48
50.0
100
AcDbLine
 10
10030.11921056011
 20
1715.688153377502
 30
0.0
 11
10023.68842994176
 21
1739.688153377502
 31
0.0
  0
LINE
  5
28506
330
747D
100
AcDbEntity
  8
細線
100
AcDbLine
 10
9984.553869761612
 20
1739.688153377504
 30
0.0
 11
10076.25278541495
 21
1831.387069030852
 31
0.0
  0
LINE
  5
28507
330
747D
100
AcDbEntity
  8
細線
 48
50.0
100
AcDbLine
 10
10109.00725550736
 20
1715.688153377501
 30
0.0
 11
10102.57647488902
 21
1739.688153377501
 31
0.0
  0
LINE
  5
28508
330
747D
100
AcDbEntity
  8
細線
 48
50.0
100
AcDbLine
 10
10160.02858444177
 20
1611.688153377501
 30
0.0
 11
10194.32608107295
 21
1739.688153377499
 31
0.0
  0
LINE
  5
28509
330
747D
100
AcDbEntity
  8
部品1
100
AcDbLine
 10
10231.51747526227
 20
1831.387069030852
 30
0.0
 11
10231.51747526228
 21
1611.688153377502
 31
0.0
  0
LINE
  5
2850A
330
747D
100
AcDbEntity
  8
細線
 48
50.0
100
AcDbLine
 10
10166.45936506012
 20
1635.688153377501
 30
0.0
 11
10172.89014567847
 21
1611.688153377501
 31
0.0
  0
LINE
  5
2850B
330
747D
100
AcDbEntity
  8
細線
 48
50.0
100
AcDbLine
 10
10187.89530045461
 20
1715.688153377501
 30
0.0
 11
10181.46451983626
 21
1739.688153377501
 31
0.0
  0
LEADER
  5
2850C
330
747D
100
AcDbEntity
  8
寸法
 48
50.0
100
AcDbLeader
  3
INABA_S50G
 73
     0
 74
     0
 75
     1
 40
120.0
 41
185.591883092037
 76
     3
 10
10042.2418868782
 20
2071.387069030852
 30
0.0
 10
10075.38009351184
 20
2243.53338971199
 30
0.0
 10
10200.38009351184
 20
2243.53338971199
 30
0.0
340
2850D
1001
ACAD
1000
DSTYLE
1002
{
1070
    40
1040
1.0
1002
}
  0
MTEXT
  5
2850D
102
{ACAD_REACTORS
330
2850C
102
}
330
747D
100
AcDbEntity
  8
寸法
 62
     7
 48
50.0
100
AcDbMText
 10
10225.38009351184
 20
2328.53338971199
 30
0.0
 40
120.0
 41
0.8
 71
     4
 72
     1
  1
\A1;C.B
  7
STYLE1
 73
     1
 44
1.0
1001
ACAD
1000
MTEXTBEGIN
1070
    73
1070
     1
1070
    44
1040
1.0
1070
    74
1070
     0
1000
MTEXTEND
  0
TEXT
  5
2859E
330
747D
100
AcDbEntity
  8
文字
 62
     7
 48
50.0
100
AcDbText
 10
16307.78595799787
 20
0.1862994167713623
 30
0.0
 40
1.0
  1
at
  7
STYLE2
100
AcDbText
  0
ENDSEC
  0
SECTION
  2
OBJECTS
  0
DICTIONARY
  5
7471
330
0
100
AcDbDictionary
281
     1
  3
ACAD_COLOR
350
173D2
  3
ACAD_GROUP
350
7472
  3
ACAD_LAYOUT
350
173D3
  3
ACAD_MATERIAL
350
173D1
  3
ACAD_MLINESTYLE
350
7473
  3
ACAD_PLOTSETTINGS
350
173D4
  3
ACAD_PLOTSTYLENAME
350
173CF
  3
ACDBHEADERROUNDTRIPXREC
350
285C7
  3
AcDbVariableDictionary
350
280C2
  3
CONTENTDICTIONARY
350
E71C
  3
DRAWINGVARIABLESDICT
350
F3B9
  0
DICTIONARY
  5
1758F
330
7467
100
AcDbDictionary
280
     1
281
     1
  3
ACAD_LAYERSTATES
360
17590
  0
DICTIONARY
  5
173D2
102
{ACAD_REACTORS
330
7471
102
}
330
7471
100
AcDbDictionary
281
     1
  0
DICTIONARY
  5
7472
102
{ACAD_REACTORS
330
7471
102
}
330
7471
100
AcDbDictionary
281
     1
  3
*A1
350
1D2A9
  0
DICTIONARY
  5
173D3
102
{ACAD_REACTORS
330
7471
102
}
330
7471
100
AcDbDictionary
281
     1
  3
Model
350
173D5
  3
レイアウト1
350
173D6
  0
DICTIONARY
  5
173D1
102
{ACAD_REACTORS
330
7471
102
}
330
7471
100
AcDbDictionary
281
     1
  0
DICTIONARY
  5
7473
102
{ACAD_REACTORS
330
7471
102
}
330
7471
100
AcDbDictionary
281
     1
  3
STANDARD
350
7480
  0
DICTIONARY
  5
173D4
102
{ACAD_REACTORS
330
7471
102
}
330
7471
100
AcDbDictionary
281
     1
  0
ACDBDICTIONARYWDFLT
  5
173CF
102
{ACAD_REACTORS
330
7471
102
}
330
7471
100
AcDbDictionary
281
     1
  3
Normal
350
173D0
100
AcDbDictionaryWithDefault
340
173D0
  0
DICTIONARY
  5
285C7
102
{ACAD_REACTORS
330
7471
102
}
330
7471
100
AcDbDictionary
281
     1
  3
COLORDICT
350
285C9
  3
MATERIALDICT
350
285C8
  0
DICTIONARY
  5
280C2
102
{ACAD_REACTORS
330
7471
102
}
330
7471
100
AcDbDictionary
281
     1
  3
DIMASSOC
350
280C3
  3
PROJECTNAME
350
280C4
  0
DICTIONARY
  5
E71C
102
{ACAD_REACTORS
330
7471
102
}
330
7471
100
AcDbDictionary
281
     1
  0
DICTIONARY
  5
F3B9
102
{ACAD_REACTORS
330
7471
102
}
330
7471
100
AcDbDictionary
281
     1
1001
DRAWINGVARIABLESXDATA
1000
POLARMODE
1000
1
  0
DICTIONARY
  5
17590
102
{ACAD_REACTORS
330
1758F
102
}
330
1758F
100
AcDbDictionary
281
     1
  0
GROUP
  5
1D2A9
102
{ACAD_REACTORS
330
7472
102
}
330
7472
100
AcDbGroup
300

 70
     1
 71
     1
  0
LAYOUT
  5
173D5
102
{ACAD_XDICTIONARY
360
285CA
102
}
102
{ACAD_REACTORS
330
173D3
102
}
330
173D3
100
AcDbPlotSettings
  1

  2
Microsoft Office Document Image Writer
  4

  6

 40
0.0
 41
0.0
 42
0.0
 43
0.0
 44
0.0
 45
0.0
 46
0.0
 47
0.0
 48
0.0
 49
0.0
140
0.0
141
0.0
142
1.0
143
1.0
 70
  1712
 72
     0
 73
     0
 74
     0
  7

 75
     0
147
1.0
148
0.0
149
0.0
100
AcDbLayout
  1
Model
 70
     1
 71
     0
 10
0.0
 20
0.0
 11
12.0
 21
9.0
 12
0.0
 22
0.0
 32
0.0
 14
0.0
 24
0.0
 34
0.0
 15
0.0
 25
0.0
 35
0.0
146
0.0
 13
0.0
 23
0.0
 33
0.0
 16
1.0
 26
0.0
 36
0.0
 17
0.0
 27
1.0
 37
0.0
 76
     0
330
747D
  0
LAYOUT
  5
173D6
102
{ACAD_XDICTIONARY
360
285CC
102
}
102
{ACAD_REACTORS
330
173D3
102
}
330
173D3
100
AcDbPlotSettings
  1

  2
Microsoft Office Document Image Writer
  4

  6

 40
0.0
 41
0.0
 42
0.0
 43
0.0
 44
0.0
 45
0.0
 46
0.0
 47
0.0
 48
0.0
 49
0.0
140
0.0
141
0.0
142
1.0
143
1.0
 70
   688
 72
     0
 73
     0
 74
     5
  7

 75
    16
147
1.0
148
0.0
149
0.0
100
AcDbLayout
  1
レイアウト1
 70
     0
 71
     1
 10
0.0
 20
0.0
 11
420.0
 21
297.0
 12
0.0
 22
0.0
 32
0.0
 14
1.000000000000000E+20
 24
1.000000000000000E+20
 34
1.000000000000000E+20
 15
-1.000000000000000E+20
 25
-1.000000000000000E+20
 35
-1.000000000000000E+20
146
0.0
 13
0.0
 23
0.0
 33
0.0
 16
1.0
 26
0.0
 36
0.0
 17
0.0
 27
1.0
 37
0.0
 76
     0
330
747A
  0
MLINESTYLE
  5
7480
102
{ACAD_REACTORS
330
7473
102
}
330
7473
100
AcDbMlineStyle
  2
STANDARD
 70
     0
  3

 62
     0
 51
90.0
 52
90.0
 71
     2
 49
0.5
 62
   256
  6
BYLAYER
 49
-0.5
 62
   256
  6
BYLAYER
  0
ACDBPLACEHOLDER
  5
173D0
102
{ACAD_REACTORS
330
173CF
102
}
330
173CF
  0
XRECORD
  5
285C9
102
{ACAD_REACTORS
330
285C7
102
}
330
285C7
100
AcDbXrecord
280
     1
340
173D2
  0
XRECORD
  5
285C8
102
{ACAD_REACTORS
330
285C7
102
}
330
285C7
100
AcDbXrecord
280
     1
340
173D1
  0
DICTIONARYVAR
  5
280C3
102
{ACAD_REACTORS
330
280C2
102
}
330
280C2
100
DictionaryVariables
280
     0
  1
1
  0
DICTIONARYVAR
  5
280C4
102
{ACAD_REACTORS
330
280C2
102
}
330
280C2
100
DictionaryVariables
280
     0
  1

  0
DICTIONARY
  5
285CA
330
173D5
100
AcDbDictionary
280
     1
281
     1
  3
ACAD_XREC_ROUNDTRIP
360
285CB
  0
DICTIONARY
  5
285CC
330
173D6
100
AcDbDictionary
280
     1
281
     1
  3
ACAD_XREC_ROUNDTRIP
360
285CD
  0
XRECORD
  5
285CB
102
{ACAD_REACTORS
330
285CA
102
}
330
285CA
100
AcDbXrecord
280
     1
102
SHADEPLOT
 70
     0
102
SHADEPLOTRESLEVEL
 70
     2
102
SHADEPLOTCUSTOMDPI
 70
   300
  0
XRECORD
  5
285CD
102
{ACAD_REACTORS
330
285CC
102
}
330
285CC
100
AcDbXrecord
280
     1
102
SHADEPLOT
 70
     0
102
SHADEPLOTRESLEVEL
 70
     2
102
SHADEPLOTCUSTOMDPI
 70
   300
  0
ENDSEC
  0
EOF
