  0
SECTION
  2
HEADER
  9
$ACADVER
  1
AC1015
  9
$ACADMAINTVER
 70
    20
  9
$DWGCODEPAGE
  3
ANSI_932
  9
$INSBASE
 10
0.0
 20
0.0
 30
0.0
  9
$EXTMIN
 10
139.9999999999995
 20
-0.0182460377740923
 30
0.0
  9
$EXTMAX
 10
16308.99050345242
 20
11409.6
 30
0.0
  9
$LIMMIN
 10
0.0
 20
0.0
  9
$LIMMAX
 10
16800.0
 20
11880.0
  9
$ORTHOMODE
 70
     0
  9
$REGENMODE
 70
     1
  9
$FILLMODE
 70
     1
  9
$QTEXTMODE
 70
     0
  9
$MIRRTEXT
 70
     1
  9
$LTSCALE
 40
20.0
  9
$ATTMODE
 70
     1
  9
$TEXTSIZE
 40
4.0
  9
$TRACEWID
 40
1.0
  9
$TEXTSTYLE
  7
STYLE1
  9
$CLAYER
  8
寸法
  9
$CELTYPE
  6
BYLAYER
  9
$CECOLOR
 62
   256
  9
$CELTSCALE
 40
50.0
  9
$DISPSILH
 70
     0
  9
$DIMSCALE
 40
40.0
  9
$DIMASZ
 40
2.5
  9
$DIMEXO
 40
0.5
  9
$DIMDLI
 40
7.0
  9
$DIMRND
 40
0.0
  9
$DIMDLE
 40
0.0
  9
$DIMEXE
 40
1.5
  9
$DIMTP
 40
0.0
  9
$DIMTM
 40
0.0
  9
$DIMTXT
 40
3.0
  9
$DIMCEN
 40
0.0
  9
$DIMTSZ
 40
0.0
  9
$DIMTOL
 70
     0
  9
$DIMLIM
 70
     0
  9
$DIMTIH
 70
     0
  9
$DIMTOH
 70
     0
  9
$DIMSE1
 70
     0
  9
$DIMSE2
 70
     0
  9
$DIMTAD
 70
     3
  9
$DIMZIN
 70
     8
  9
$DIMBLK
  1

  9
$DIMASO
 70
     1
  9
$DIMSHO
 70
     1
  9
$DIMPOST
  1

  9
$DIMAPOST
  1

  9
$DIMALT
 70
     0
  9
$DIMALTD
 70
     2
  9
$DIMALTF
 40
0.0394
  9
$DIMLFAC
 40
1.0
  9
$DIMTOFL
 70
     1
  9
$DIMTVP
 40
0.0
  9
$DIMTIX
 70
     1
  9
$DIMSOXD
 70
     0
  9
$DIMSAH
 70
     1
  9
$DIMBLK1
  1
DOTSMALL
  9
$DIMBLK2
  1
DOTSMALL
  9
$DIMSTYLE
  2
INABA_S40G
  9
$DIMCLRD
 70
     0
  9
$DIMCLRE
 70
     0
  9
$DIMCLRT
 70
     7
  9
$DIMTFAC
 40
1.0
  9
$DIMGAP
 40
1.0
  9
$DIMJUST
 70
     0
  9
$DIMSD1
 70
     0
  9
$DIMSD2
 70
     0
  9
$DIMTOLJ
 70
     1
  9
$DIMTZIN
 70
     0
  9
$DIMALTZ
 70
     0
  9
$DIMALTTZ
 70
     0
  9
$DIMUPT
 70
     0
  9
$DIMDEC
 70
     1
  9
$DIMTDEC
 70
     4
  9
$DIMALTU
 70
     2
  9
$DIMALTTD
 70
     2
  9
$DIMTXSTY
  7
STYLE1
  9
$DIMAUNIT
 70
     0
  9
$DIMADEC
 70
     0
  9
$DIMALTRND
 40
0.0
  9
$DIMAZIN
 70
     0
  9
$DIMDSEP
 70
    46
  9
$DIMATFIT
 70
     3
  9
$DIMFRAC
 70
     0
  9
$DIMLDRBLK
  1

  9
$DIMLUNIT
 70
     2
  9
$DIMLWD
 70
    -2
  9
$DIMLWE
 70
    -2
  9
$DIMTMOVE
 70
     0
  9
$LUNITS
 70
     2
  9
$LUPREC
 70
     1
  9
$SKETCHINC
 40
1.0
  9
$FILLETRAD
 40
3.0
  9
$AUNITS
 70
     0
  9
$AUPREC
 70
     0
  9
$MENU
  1
acad
  9
$ELEVATION
 40
0.0
  9
$PELEVATION
 40
0.0
  9
$THICKNESS
 40
0.0
  9
$LIMCHECK
 70
     0
  9
$CHAMFERA
 40
0.0
  9
$CHAMFERB
 40
0.0
  9
$CHAMFERC
 40
0.0
  9
$CHAMFERD
 40
0.0
  9
$SKPOLY
 70
     0
  9
$TDCREATE
 40
2451368.612993866
  9
$TDUCREATE
 40
2451368.237993866
  9
$TDUPDATE
 40
2455827.391334224
  9
$TDUUPDATE
 40
2455827.016334225
  9
$TDINDWG
 40
0.8371994907
  9
$TDUSRTIMER
 40
0.8371994907
  9
$USRTIMER
 70
     1
  9
$ANGBASE
 50
0.0
  9
$ANGDIR
 70
     0
  9
$PDMODE
 70
     3
  9
$PDSIZE
 40
2.0
  9
$PLINEWID
 40
0.0
  9
$SPLFRAME
 70
     0
  9
$SPLINETYPE
 70
     6
  9
$SPLINESEGS
 70
     8
  9
$HANDSEED
  5
27CB8
  9
$SURFTAB1
 70
     6
  9
$SURFTAB2
 70
     6
  9
$SURFTYPE
 70
     6
  9
$SURFU
 70
     6
  9
$SURFV
 70
     6
  9
$UCSBASE
  2

  9
$UCSNAME
  2

  9
$UCSORG
 10
0.0
 20
0.0
 30
0.0
  9
$UCSXDIR
 10
1.0
 20
0.0
 30
0.0
  9
$UCSYDIR
 10
0.0
 20
1.0
 30
0.0
  9
$UCSORTHOREF
  2

  9
$UCSORTHOVIEW
 70
     0
  9
$UCSORGTOP
 10
0.0
 20
0.0
 30
0.0
  9
$UCSORGBOTTOM
 10
0.0
 20
0.0
 30
0.0
  9
$UCSORGLEFT
 10
0.0
 20
0.0
 30
0.0
  9
$UCSORGRIGHT
 10
0.0
 20
0.0
 30
0.0
  9
$UCSORGFRONT
 10
0.0
 20
0.0
 30
0.0
  9
$UCSORGBACK
 10
0.0
 20
0.0
 30
0.0
  9
$PUCSBASE
  2

  9
$PUCSNAME
  2

  9
$PUCSORG
 10
0.0
 20
0.0
 30
0.0
  9
$PUCSXDIR
 10
1.0
 20
0.0
 30
0.0
  9
$PUCSYDIR
 10
0.0
 20
1.0
 30
0.0
  9
$PUCSORTHOREF
  2

  9
$PUCSORTHOVIEW
 70
     0
  9
$PUCSORGTOP
 10
0.0
 20
0.0
 30
0.0
  9
$PUCSORGBOTTOM
 10
0.0
 20
0.0
 30
0.0
  9
$PUCSORGLEFT
 10
0.0
 20
0.0
 30
0.0
  9
$PUCSORGRIGHT
 10
0.0
 20
0.0
 30
0.0
  9
$PUCSORGFRONT
 10
0.0
 20
0.0
 30
0.0
  9
$PUCSORGBACK
 10
0.0
 20
0.0
 30
0.0
  9
$USERI1
 70
     0
  9
$USERI2
 70
     0
  9
$USERI3
 70
     0
  9
$USERI4
 70
     0
  9
$USERI5
 70
     0
  9
$USERR1
 40
0.0
  9
$USERR2
 40
0.0
  9
$USERR3
 40
0.0
  9
$USERR4
 40
0.0
  9
$USERR5
 40
0.0
  9
$WORLDVIEW
 70
     1
  9
$SHADEDGE
 70
     3
  9
$SHADEDIF
 70
    70
  9
$TILEMODE
 70
     1
  9
$MAXACTVP
 70
    16
  9
$PINSBASE
 10
0.0
 20
0.0
 30
0.0
  9
$PLIMCHECK
 70
     0
  9
$PEXTMIN
 10
1.000000000000000E+20
 20
1.000000000000000E+20
 30
1.000000000000000E+20
  9
$PEXTMAX
 10
-1.000000000000000E+20
 20
-1.000000000000000E+20
 30
-1.000000000000000E+20
  9
$PLIMMIN
 10
0.0
 20
0.0
  9
$PLIMMAX
 10
420.0
 20
297.0
  9
$UNITMODE
 70
     0
  9
$VISRETAIN
 70
     0
  9
$PLINEGEN
 70
     0
  9
$PSLTSCALE
 70
     0
  9
$TREEDEPTH
 70
  3020
  9
$CMLSTYLE
  2
STANDARD
  9
$CMLJUST
 70
     0
  9
$CMLSCALE
 40
1.0
  9
$PROXYGRAPHICS
 70
     1
  9
$MEASUREMENT
 70
     1
  9
$CELWEIGHT
370
    -1
  9
$ENDCAPS
280
     0
  9
$JOINSTYLE
280
     0
  9
$LWDISPLAY
290
     0
  9
$INSUNITS
 70
     0
  9
$HYPERLINKBASE
  1

  9
$STYLESHEET
  1

  9
$XEDIT
290
     1
  9
$CEPSNTYPE
380
     0
  9
$PSTYLEMODE
290
     1
  9
$FINGERPRINTGUID
  2
{5EAC461A-2277-4BF8-9AB0-99C43BB394F0}
  9
$VERSIONGUID
  2
{AF3CDB35-38FD-4FA7-909C-17219090566D}
  9
$EXTNAMES
290
     1
  9
$PSVPSCALE
 40
0.0
  9
$OLESTARTUP
290
     0
  0
ENDSEC
  0
SECTION
  2
CLASSES
  0
CLASS
  1
ACDBDICTIONARYWDFLT
  2
AcDbDictionaryWithDefault
  3
ObjectDBX Classes
 90
        0
280
     0
281
     0
  0
CLASS
  1
DICTIONARYVAR
  2
AcDbDictionaryVar
  3
ObjectDBX Classes
 90
        0
280
     0
281
     0
  0
CLASS
  1
ACDBPLACEHOLDER
  2
AcDbPlaceHolder
  3
ObjectDBX Classes
 90
        0
280
     0
281
     0
  0
CLASS
  1
LAYOUT
  2
AcDbLayout
  3
ObjectDBX Classes
 90
        0
280
     0
281
     0
  0
ENDSEC
  0
SECTION
  2
TABLES
  0
TABLE
  2
VPORT
  5
746D
330
0
100
AcDbSymbolTable
 70
     2
  0
VPORT
  5
27CB0
330
746D
100
AcDbSymbolTableRecord
100
AcDbViewportTableRecord
  2
*Active
 70
     0
 10
0.0
 20
0.0
 11
1.0
 21
1.0
 12
8224.401894379875
 22
5855.693501556149
 13
0.0
 23
0.0
 14
10.0
 24
10.0
 15
10.0
 25
10.0
 16
0.0
 26
0.0
 36
1.0
 17
0.0
 27
0.0
 37
0.0
 40
11800.71517913436
 41
1.522222222222222
 42
50.0
 43
0.0
 44
0.0
 50
0.0
 51
0.0
 71
     0
 72
     0
 73
     1
 74
     0
 75
     0
 76
     0
 77
     0
 78
     0
281
     0
 65
     1
110
0.0
120
0.0
130
0.0
111
1.0
121
0.0
131
0.0
112
0.0
122
1.0
132
0.0
 79
     0
146
0.0
  0
ENDTAB
  0
TABLE
  2
LTYPE
  5
746A
330
0
100
AcDbSymbolTable
 70
     5
  0
LTYPE
  5
7477
330
746A
100
AcDbSymbolTableRecord
100
AcDbLinetypeTableRecord
  2
BYBLOCK
 70
     0
  3

 72
    65
 73
     0
 40
0.0
  0
LTYPE
  5
7478
330
746A
100
AcDbSymbolTableRecord
100
AcDbLinetypeTableRecord
  2
BYLAYER
 70
     0
  3

 72
    65
 73
     0
 40
0.0
  0
LTYPE
  5
7479
330
746A
100
AcDbSymbolTableRecord
100
AcDbLinetypeTableRecord
  2
CONTINUOUS
 70
     0
  3
Solid line
 72
    65
 73
     0
 40
0.0
  0
LTYPE
  5
7816
330
746A
100
AcDbSymbolTableRecord
100
AcDbLinetypeTableRecord
  2
CENTER
 70
     0
  3
____ _ ____ _ ____ _ ____ _ ____ _ ____ _ ____ 
 72
    65
 73
     4
 40
2.0
 49
1.25
 74
     0
 49
-0.25
 74
     0
 49
0.25
 74
     0
 49
-0.25
 74
     0
  0
LTYPE
  5
781A
330
746A
100
AcDbSymbolTableRecord
100
AcDbLinetypeTableRecord
  2
HIDDEN
 70
     0
  3
__ __ __ __ __ __ __ __ __ __ __ __ __ __ __ __
 72
    65
 73
     2
 40
0.375
 49
0.25
 74
     0
 49
-0.125
 74
     0
  0
LTYPE
  5
781B
330
746A
100
AcDbSymbolTableRecord
100
AcDbLinetypeTableRecord
  2
PHANTOM
 70
     0
  3
______  __  __  ______  __  __  ______  __  __ 
 72
    65
 73
     6
 40
2.5
 49
1.25
 74
     0
 49
-0.25
 74
     0
 49
0.25
 74
     0
 49
-0.25
 74
     0
 49
0.25
 74
     0
 49
-0.25
 74
     0
  0
LTYPE
  5
12CC3
330
746A
100
AcDbSymbolTableRecord
100
AcDbLinetypeTableRecord
  2
HIDDENX2
 70
     0
  3
Hidden (2x) ____ ____ ____ ____ ____ ____ ____
 72
    65
 73
     2
 40
19.05
 49
12.7
 74
     0
 49
-6.349999999999999
 74
     0
  0
ENDTAB
  0
TABLE
  2
LAYER
  5
7467
102
{ACAD_XDICTIONARY
360
1758F
102
}
330
0
100
AcDbSymbolTable
 70
    12
  0
LAYER
  5
7474
330
7467
100
AcDbSymbolTableRecord
100
AcDbLayerTableRecord
  2
0
 70
     0
 62
     7
  6
CONTINUOUS
370
    -3
390
173D0
  0
LAYER
  5
DEB2
330
7467
100
AcDbSymbolTableRecord
100
AcDbLayerTableRecord
  2
センター
 70
     0
 62
     3
  6
CENTER
370
    -3
390
173D0
  0
LAYER
  5
DEB3
330
7467
100
AcDbSymbolTableRecord
100
AcDbLayerTableRecord
  2
寸法
 70
     0
 62
     4
  6
CONTINUOUS
370
    -3
390
173D0
  0
LAYER
  5
DEB4
330
7467
100
AcDbSymbolTableRecord
100
AcDbLayerTableRecord
  2
部品1
 70
     0
 62
     7
  6
CONTINUOUS
370
    -3
390
173D0
  0
LAYER
  5
DEB5
330
7467
100
AcDbSymbolTableRecord
100
AcDbLayerTableRecord
  2
補助
 70
     0
 62
    -1
  6
CONTINUOUS
370
    -3
390
173D0
  0
LAYER
  5
DEB6
330
7467
100
AcDbSymbolTableRecord
100
AcDbLayerTableRecord
  2
文字
 70
     0
 62
     7
  6
CONTINUOUS
370
    -3
390
173D0
  0
LAYER
  5
F255
330
7467
100
AcDbSymbolTableRecord
100
AcDbLayerTableRecord
  2
DEFPOINTS
 70
     0
 62
     7
  6
CONTINUOUS
290
     0
370
    -3
390
173D0
  0
LAYER
  5
10B54
330
7467
100
AcDbSymbolTableRecord
100
AcDbLayerTableRecord
  2
仕様書枠
 70
     0
 62
   230
  6
CONTINUOUS
370
    -3
390
173D0
  0
LAYER
  5
11729
330
7467
100
AcDbSymbolTableRecord
100
AcDbLayerTableRecord
  2
Ｇ．Ｌ
 70
     0
 62
    30
  6
CONTINUOUS
370
    -3
390
173D0
  0
LAYER
  5
1173F
330
7467
100
AcDbSymbolTableRecord
100
AcDbLayerTableRecord
  2
細線
 70
     0
 62
     5
  6
CONTINUOUS
370
    -3
390
173D0
  0
LAYER
  5
12CC4
330
7467
100
AcDbSymbolTableRecord
100
AcDbLayerTableRecord
  2
想像線
 70
     0
 62
     6
  6
PHANTOM
370
    -3
390
173D0
  0
LAYER
  5
142E2
330
7467
100
AcDbSymbolTableRecord
100
AcDbLayerTableRecord
  2
破線
 70
     0
 62
     2
  6
HIDDEN
370
    -3
390
173D0
  0
ENDTAB
  0
TABLE
  2
STYLE
  5
7468
330
0
100
AcDbSymbolTable
 70
     7
  0
STYLE
  5
7475
330
7468
100
AcDbSymbolTableRecord
100
AcDbTextStyleTableRecord
  2
STANDARD
 70
     0
 40
0.0
 41
1.0
 50
0.0
 71
     0
 42
4.0
  3
txt
  4
C:\AutoCAD LT\bigfont.shx
  0
STYLE
  5
763C
330
7468
100
AcDbSymbolTableRecord
100
AcDbTextStyleTableRecord
  2
MSMINCHO
 70
     0
 40
0.0
 41
1.0
 50
0.0
 71
     0
 42
1.199999999999999
  3
C:\AutoCAD LT\msminch2.TTF
  4

  0
STYLE
  5
F706
330
7468
100
AcDbSymbolTableRecord
100
AcDbTextStyleTableRecord
  2
STYLE1
 70
     0
 40
0.0
 41
1.0
 50
0.0
 71
     0
 42
4.0
  3
isocp.shx
  4
bigfont.shx
  0
STYLE
  5
103BF
330
7468
100
AcDbSymbolTableRecord
100
AcDbTextStyleTableRecord
  2
STYLE2
 70
     0
 40
0.0
 41
1.0
 50
0.0
 71
     0
 42
100.0
  3
MS PGothic.ttf
  4

1001
ACAD
1000
MS PGothic
1071
    32818
  0
STYLE
  5
10BAA
330
7468
100
AcDbSymbolTableRecord
100
AcDbTextStyleTableRecord
  2
STYLE3
 70
     0
 40
0.0
 41
1.0
 50
0.0
 71
     0
 42
100.0
  3

  4

1001
ACAD
1000
DFPGothic-EB
1071
    32818
  0
STYLE
  5
11A15
330
7468
100
AcDbSymbolTableRecord
100
AcDbTextStyleTableRecord
  2
MSGOTHIC
 70
     0
 40
0.0
 41
1.0
 50
0.0
 71
     0
 42
3.5
  3
msgothi2.ttf
  4

  0
STYLE
  5
13E96
330
7468
100
AcDbSymbolTableRecord
100
AcDbTextStyleTableRecord
  2
MSPゴシック
 70
     0
 40
0.0
 41
1.0
 50
0.0
 71
     0
 42
4.0
  3
MS PGothic.ttf
  4

1001
ACAD
1000
MS PGothic
1071
    32818
  0
ENDTAB
  0
TABLE
  2
VIEW
  5
746B
330
0
100
AcDbSymbolTable
 70
     0
  0
ENDTAB
  0
TABLE
  2
UCS
  5
746C
330
0
100
AcDbSymbolTable
 70
     0
  0
ENDTAB
  0
TABLE
  2
APPID
  5
746E
330
0
100
AcDbSymbolTable
 70
     6
  0
APPID
  5
7476
330
746E
100
AcDbSymbolTableRecord
100
AcDbRegAppTableRecord
  2
ACAD
 70
     0
  0
APPID
  5
DEA9
330
746E
100
AcDbSymbolTableRecord
100
AcDbRegAppTableRecord
  2
CONTENTBLOCKICON
 70
     0
  0
APPID
  5
DEAA
330
746E
100
AcDbSymbolTableRecord
100
AcDbRegAppTableRecord
  2
CONTENTBLOCKDESCRIPTION
 70
     0
  0
APPID
  5
E71D
330
746E
100
AcDbSymbolTableRecord
100
AcDbRegAppTableRecord
  2
CONTENTTABDATA
 70
     0
  0
APPID
  5
E71E
330
746E
100
AcDbSymbolTableRecord
100
AcDbRegAppTableRecord
  2
CONTENTCURRENTTAB
 70
     0
  0
APPID
  5
F3BA
330
746E
100
AcDbSymbolTableRecord
100
AcDbRegAppTableRecord
  2
DRAWINGVARIABLESXDATA
 70
     0
  0
ENDTAB
  0
TABLE
  2
DIMSTYLE
  5
746F
330
0
100
AcDbSymbolTable
 70
     6
100
AcDbDimStyleTable
 71
     1
340
F71F
  0
DIMSTYLE
105
7484
330
746F
100
AcDbSymbolTableRecord
100
AcDbDimStyleTableRecord
  2
JIS
 70
     0
 41
2.5
 42
1.0
 43
7.0
 44
1.0
 73
     0
 74
     0
 77
     1
 78
     8
140
2.5
141
0.0
143
0.0394
147
0.0
172
     1
174
     1
175
     1
340
7475
  0
DIMSTYLE
105
F236
330
746F
100
AcDbSymbolTableRecord
100
AcDbDimStyleTableRecord
  2
INABA_S40
 70
     0
 40
40.0
 41
2.5
 42
0.5
 43
7.0
 44
1.5
 73
     0
 74
     0
 77
     3
 78
     8
140
3.0
141
0.0
143
0.0394
147
1.0
172
     1
173
     1
174
     1
175
     1
178
     7
289
     0
340
7475
341
DEAC
343
DEAC
344
DEAC
  0
DIMSTYLE
105
F71F
102
{ACAD_REACTORS
330
20DE1
330
23FDA
330
23FD9
330
27102
330
270B4
330
270B0
330
270AD
330
27076
330
27075
330
2701C
330
2701A
330
27019
330
27014
330
27013
330
27012
330
20DFB
330
270FC
330
27079
330
27024
330
27020
330
2701F
330
2275B
330
22741
330
27023
330
27031
330
2701B
330
27AB3
330
27AB4
330
27ABC
330
27AC3
330
27AC6
330
27B26
330
27C82
102
}
330
746F
100
AcDbSymbolTableRecord
100
AcDbDimStyleTableRecord
  2
INABA_S40G
 70
     0
 40
40.0
 41
2.5
 42
0.5
 43
7.0
 44
1.5
 73
     0
 74
     0
 77
     3
 78
     8
140
3.0
141
0.0
143
0.0394
147
1.0
172
     1
173
     1
174
     1
178
     7
271
     1
340
F706
341
F770
343
F770
344
F770
  0
DIMSTYLE
105
142E3
330
746F
100
AcDbSymbolTableRecord
100
AcDbDimStyleTableRecord
  2
INABA_S1
 70
     0
 40
0.0
 41
2.5
 42
0.5
 43
7.0
 44
1.5
 73
     0
 74
     0
 77
     3
 78
     8
140
3.0
141
0.0
143
0.0394
146
0.5
147
0.5
172
     1
173
     1
176
   256
177
   256
178
     7
271
     2
272
     2
284
     8
288
     1
340
7475
341
DEAC
343
DEAC
344
DEAC
  0
DIMSTYLE
105
14463
330
746F
100
AcDbSymbolTableRecord
100
AcDbDimStyleTableRecord
  2
INABA_S30G
 70
     0
 40
30.0
 41
2.5
 42
0.5
 43
7.0
 44
1.5
 73
     0
 74
     0
 77
     3
 78
     8
140
3.0
141
0.0
143
0.0394
147
1.0
172
     1
173
     1
174
     1
175
     1
178
     7
271
     1
340
F706
341
F770
343
F770
344
F770
  0
DIMSTYLE
105
1758E
330
746F
100
AcDbSymbolTableRecord
100
AcDbDimStyleTableRecord
  2
INABA_S50G
 70
     0
 41
125.0
 42
25.0
 43
7.0
 44
75.0
 73
     0
 74
     0
 77
     3
 78
     8
140
150.0
141
0.0
143
0.0394
147
25.0
172
     1
173
     1
174
     1
175
     1
178
     7
271
     1
340
F706
341
F770
343
F770
344
F770
  0
ENDTAB
  0
TABLE
  2
BLOCK_RECORD
  5
7466
330
0
100
AcDbSymbolTable
 70
    52
  0
BLOCK_RECORD
  5
747D
330
7466
100
AcDbSymbolTableRecord
100
AcDbBlockTableRecord
  2
*MODEL_SPACE
340
173D5
  0
BLOCK_RECORD
  5
747A
330
7466
100
AcDbSymbolTableRecord
100
AcDbBlockTableRecord
  2
*PAPER_SPACE
340
173D6
  0
BLOCK_RECORD
  5
DEAC
330
7466
100
AcDbSymbolTableRecord
100
AcDbBlockTableRecord
  2
_OPEN
340
0
  0
BLOCK_RECORD
  5
F770
330
7466
100
AcDbSymbolTableRecord
100
AcDbBlockTableRecord
  2
_DOTSMALL
340
0
102
{BLKREFS
331
18C65
331
18C66
331
18C59
331
18C5A
331
18C4D
331
18C4E
331
18C41
331
18C42
331
18C35
331
18C36
331
18C29
331
18C2A
331
18C1D
331
18C1E
331
18C0F
331
18C10
331
18C03
331
18C04
331
18BF5
331
18BF6
331
18BE7
331
18BE8
331
18BD9
331
18BDA
331
18BCD
331
18BCE
331
27652
331
27653
331
27666
331
27667
331
276A4
331
276A5
331
276C9
331
276CA
331
276D2
331
276D3
331
276F6
331
276F7
331
276FF
331
27700
331
27713
331
27714
331
2771D
331
2771E
331
27727
331
27728
331
27743
331
27744
331
2774E
331
2774F
331
27759
331
2775A
331
27762
331
27763
331
27798
331
27799
331
277A1
331
277A2
331
277C6
331
277C7
331
277E1
331
277E2
331
27817
331
27818
331
27829
331
2782A
331
2783B
331
2783C
331
27844
331
27845
331
2784D
331
2784E
331
27856
331
27857
331
2785F
331
27860
331
278E2
331
278E3
331
27C2C
331
27C2D
331
27C37
331
27C38
331
27C40
331
27C41
331
27C49
331
27C4A
331
27C52
331
27C53
331
27C5B
331
27C5C
331
27CA0
331
27CA1
102
}
  0
BLOCK_RECORD
  5
164B4
330
7466
100
AcDbSymbolTableRecord
100
AcDbBlockTableRecord
  2
_DOT
340
0
102
{BLKREFS
331
18C73
331
18C74
102
}
  0
BLOCK_RECORD
  5
18BC8
330
7466
100
AcDbSymbolTableRecord
100
AcDbBlockTableRecord
  2
*D3
340
0
  0
BLOCK_RECORD
  5
18BD4
330
7466
100
AcDbSymbolTableRecord
100
AcDbBlockTableRecord
  2
*D4
340
0
  0
BLOCK_RECORD
  5
18BE0
330
7466
100
AcDbSymbolTableRecord
100
AcDbBlockTableRecord
  2
*D5
340
0
  0
BLOCK_RECORD
  5
18BEE
330
7466
100
AcDbSymbolTableRecord
100
AcDbBlockTableRecord
  2
*D6
340
0
  0
BLOCK_RECORD
  5
18BFC
330
7466
100
AcDbSymbolTableRecord
100
AcDbBlockTableRecord
  2
*D7
340
0
  0
BLOCK_RECORD
  5
18C0A
330
7466
100
AcDbSymbolTableRecord
100
AcDbBlockTableRecord
  2
*D8
340
0
  0
BLOCK_RECORD
  5
18C16
330
7466
100
AcDbSymbolTableRecord
100
AcDbBlockTableRecord
  2
*D9
340
0
  0
BLOCK_RECORD
  5
18C24
330
7466
100
AcDbSymbolTableRecord
100
AcDbBlockTableRecord
  2
*D10
340
0
  0
BLOCK_RECORD
  5
18C30
330
7466
100
AcDbSymbolTableRecord
100
AcDbBlockTableRecord
  2
*D11
340
0
  0
BLOCK_RECORD
  5
18C3C
330
7466
100
AcDbSymbolTableRecord
100
AcDbBlockTableRecord
  2
*D12
340
0
  0
BLOCK_RECORD
  5
18C48
330
7466
100
AcDbSymbolTableRecord
100
AcDbBlockTableRecord
  2
*D13
340
0
  0
BLOCK_RECORD
  5
18C54
330
7466
100
AcDbSymbolTableRecord
100
AcDbBlockTableRecord
  2
*D14
340
0
  0
BLOCK_RECORD
  5
18C60
330
7466
100
AcDbSymbolTableRecord
100
AcDbBlockTableRecord
  2
*D15
340
0
  0
BLOCK_RECORD
  5
18C6C
330
7466
100
AcDbSymbolTableRecord
100
AcDbBlockTableRecord
  2
*D16
340
0
  0
BLOCK_RECORD
  5
18C7A
330
7466
100
AcDbSymbolTableRecord
100
AcDbBlockTableRecord
  2
A$C3B1A506B
340
0
  0
BLOCK_RECORD
  5
1C4CA
330
7466
100
AcDbSymbolTableRecord
100
AcDbBlockTableRecord
  2
_NONE
340
0
  0
BLOCK_RECORD
  5
20DE2
330
7466
100
AcDbSymbolTableRecord
100
AcDbBlockTableRecord
  2
*D19
340
0
  0
BLOCK_RECORD
  5
20DFC
330
7466
100
AcDbSymbolTableRecord
100
AcDbBlockTableRecord
  2
*D20
340
0
  0
BLOCK_RECORD
  5
22742
330
7466
100
AcDbSymbolTableRecord
100
AcDbBlockTableRecord
  2
*D21
340
0
  0
BLOCK_RECORD
  5
2275C
330
7466
100
AcDbSymbolTableRecord
100
AcDbBlockTableRecord
  2
*D22
340
0
  0
BLOCK_RECORD
  5
240D1
330
7466
100
AcDbSymbolTableRecord
100
AcDbBlockTableRecord
  2
*D23
340
0
  0
BLOCK_RECORD
  5
240DE
330
7466
100
AcDbSymbolTableRecord
100
AcDbBlockTableRecord
  2
*D24
340
0
  0
BLOCK_RECORD
  5
27132
330
7466
100
AcDbSymbolTableRecord
100
AcDbBlockTableRecord
  2
*D25
340
0
  0
BLOCK_RECORD
  5
2713E
330
7466
100
AcDbSymbolTableRecord
100
AcDbBlockTableRecord
  2
*D26
340
0
  0
BLOCK_RECORD
  5
27149
330
7466
100
AcDbSymbolTableRecord
100
AcDbBlockTableRecord
  2
*D27
340
0
  0
BLOCK_RECORD
  5
2716D
330
7466
100
AcDbSymbolTableRecord
100
AcDbBlockTableRecord
  2
*D28
340
0
  0
BLOCK_RECORD
  5
27187
330
7466
100
AcDbSymbolTableRecord
100
AcDbBlockTableRecord
  2
*D29
340
0
  0
BLOCK_RECORD
  5
27193
330
7466
100
AcDbSymbolTableRecord
100
AcDbBlockTableRecord
  2
*D30
340
0
  0
BLOCK_RECORD
  5
2719F
330
7466
100
AcDbSymbolTableRecord
100
AcDbBlockTableRecord
  2
*D31
340
0
  0
BLOCK_RECORD
  5
271C5
330
7466
100
AcDbSymbolTableRecord
100
AcDbBlockTableRecord
  2
*D32
340
0
  0
BLOCK_RECORD
  5
271D2
330
7466
100
AcDbSymbolTableRecord
100
AcDbBlockTableRecord
  2
*D33
340
0
  0
BLOCK_RECORD
  5
271DE
330
7466
100
AcDbSymbolTableRecord
100
AcDbBlockTableRecord
  2
*D34
340
0
  0
BLOCK_RECORD
  5
271EA
330
7466
100
AcDbSymbolTableRecord
100
AcDbBlockTableRecord
  2
*D35
340
0
  0
BLOCK_RECORD
  5
271F5
330
7466
100
AcDbSymbolTableRecord
100
AcDbBlockTableRecord
  2
*D36
340
0
  0
BLOCK_RECORD
  5
27201
330
7466
100
AcDbSymbolTableRecord
100
AcDbBlockTableRecord
  2
*D37
340
0
  0
BLOCK_RECORD
  5
2720D
330
7466
100
AcDbSymbolTableRecord
100
AcDbBlockTableRecord
  2
*D38
340
0
  0
BLOCK_RECORD
  5
27218
330
7466
100
AcDbSymbolTableRecord
100
AcDbBlockTableRecord
  2
*D39
340
0
  0
BLOCK_RECORD
  5
27224
330
7466
100
AcDbSymbolTableRecord
100
AcDbBlockTableRecord
  2
*D40
340
0
  0
BLOCK_RECORD
  5
27230
330
7466
100
AcDbSymbolTableRecord
100
AcDbBlockTableRecord
  2
*D41
340
0
  0
BLOCK_RECORD
  5
2723C
330
7466
100
AcDbSymbolTableRecord
100
AcDbBlockTableRecord
  2
*D42
340
0
  0
BLOCK_RECORD
  5
27248
330
7466
100
AcDbSymbolTableRecord
100
AcDbBlockTableRecord
  2
*D43
340
0
  0
BLOCK_RECORD
  5
27254
330
7466
100
AcDbSymbolTableRecord
100
AcDbBlockTableRecord
  2
*D44
340
0
  0
BLOCK_RECORD
  5
27BDF
330
7466
100
AcDbSymbolTableRecord
100
AcDbBlockTableRecord
  2
*D45
340
0
  0
BLOCK_RECORD
  5
27BEB
330
7466
100
AcDbSymbolTableRecord
100
AcDbBlockTableRecord
  2
*D46
340
0
  0
BLOCK_RECORD
  5
27BF9
330
7466
100
AcDbSymbolTableRecord
100
AcDbBlockTableRecord
  2
*D47
340
0
  0
BLOCK_RECORD
  5
27C05
330
7466
100
AcDbSymbolTableRecord
100
AcDbBlockTableRecord
  2
*D48
340
0
  0
BLOCK_RECORD
  5
27C11
330
7466
100
AcDbSymbolTableRecord
100
AcDbBlockTableRecord
  2
*D49
340
0
  0
BLOCK_RECORD
  5
27C1D
330
7466
100
AcDbSymbolTableRecord
100
AcDbBlockTableRecord
  2
*D50
340
0
  0
BLOCK_RECORD
  5
27C83
330
7466
100
AcDbSymbolTableRecord
100
AcDbBlockTableRecord
  2
*D51
340
0
  0
ENDTAB
  0
ENDSEC
  0
SECTION
  2
BLOCKS
  0
BLOCK
  5
7489
330
747D
100
AcDbEntity
  8
0
100
AcDbBlockBegin
  2
*MODEL_SPACE
 70
     0
 10
0.0
 20
0.0
 30
0.0
  3
*MODEL_SPACE
  1

  0
ENDBLK
  5
748A
330
747D
100
AcDbEntity
  8
0
100
AcDbBlockEnd
  0
BLOCK
  5
7487
330
747A
100
AcDbEntity
 67
     1
  8
0
100
AcDbBlockBegin
  2
*PAPER_SPACE
 70
     0
 10
0.0
 20
0.0
 30
0.0
  3
*PAPER_SPACE
  1

  0
ENDBLK
  5
7488
330
747A
100
AcDbEntity
 67
     1
  8
0
100
AcDbBlockEnd
  0
BLOCK
  5
DEAD
330
DEAC
100
AcDbEntity
  8
0
100
AcDbBlockBegin
  2
_OPEN
 70
     0
 10
0.0
 20
0.0
 30
0.0
  3
_OPEN
  1

  0
LINE
  5
DEAE
330
DEAC
100
AcDbEntity
  8
0
  6
ByBlock
 62
     0
100
AcDbLine
 10
-1.0
 20
0.1666666666666666
 30
0.0
 11
0.0
 21
0.0
 31
0.0
  0
LINE
  5
DEAF
330
DEAC
100
AcDbEntity
  8
0
  6
ByBlock
 62
     0
100
AcDbLine
 10
0.0
 20
0.0
 30
0.0
 11
-1.0
 21
-0.1666666666666666
 31
0.0
  0
LINE
  5
DEB0
330
DEAC
100
AcDbEntity
  8
0
  6
ByBlock
 62
     0
100
AcDbLine
 10
0.0
 20
0.0
 30
0.0
 11
-1.0
 21
0.0
 31
0.0
  0
ENDBLK
  5
DEB1
330
DEAC
100
AcDbEntity
  8
0
100
AcDbBlockEnd
  0
BLOCK
  5
F771
330
F770
100
AcDbEntity
  8
0
 48
50.0
100
AcDbBlockBegin
  2
_DOTSMALL
 70
     0
 10
0.0
 20
0.0
 30
0.0
  3
_DOTSMALL
  1

  0
LWPOLYLINE
  5
F772
330
F770
100
AcDbEntity
  8
0
  6
ByBlock
 62
     0
 48
50.0
100
AcDbPolyline
 90
        2
 70
     1
 43
0.5
 10
-0.0625
 20
0.0
 42
1.0
 10
0.0625
 20
0.0
 42
1.0
  0
ENDBLK
  5
F776
330
F770
100
AcDbEntity
  8
0
 48
50.0
100
AcDbBlockEnd
  0
BLOCK
  5
164BA
330
164B4
100
AcDbEntity
  8
0
 48
50.0
100
AcDbBlockBegin
  2
_DOT
 70
     0
 10
0.0
 20
0.0
 30
0.0
  3
_DOT
  1

  0
LWPOLYLINE
  5
164B5
330
164B4
100
AcDbEntity
  8
0
  6
ByBlock
 62
     0
 48
50.0
100
AcDbPolyline
 90
        2
 70
     1
 43
0.5
 10
-0.25
 20
0.0
 42
1.0
 10
0.25
 20
0.0
 42
1.0
  0
LINE
  5
164B9
330
164B4
100
AcDbEntity
  8
0
  6
ByBlock
 62
     0
 48
50.0
100
AcDbLine
 10
-0.5
 20
0.0
 30
0.0
 11
-1.0
 21
0.0
 31
0.0
  0
ENDBLK
  5
164BB
330
164B4
100
AcDbEntity
  8
0
 48
50.0
100
AcDbBlockEnd
  0
BLOCK
  5
18BC9
330
18BC8
100
AcDbEntity
  8
0
 48
50.0
100
AcDbBlockBegin
  2
*D3
 70
     1
 10
0.0
 20
0.0
 30
0.0
  3
*D3
  1

  0
LINE
  5
18BCA
330
18BC8
100
AcDbEntity
  8
寸法
 62
     0
 48
50.0
370
    -2
100
AcDbLine
 10
7649.896575106999
 20
9636.123139034717
 30
0.0
 11
8702.429862581047
 21
9636.123139034717
 31
0.0
  0
LINE
  5
18BCB
330
18BC8
100
AcDbEntity
  8
寸法
 62
     0
 48
50.0
370
    -2
100
AcDbLine
 10
7649.896575106973
 20
7846.123139034709
 30
0.0
 11
8702.429862581047
 21
7846.123139034709
 31
0.0
  0
LINE
  5
18BCC
330
18BC8
100
AcDbEntity
  8
寸法
 62
     0
 48
50.0
370
    -2
100
AcDbLine
 10
8642.429862581046
 20
9636.123139034717
 30
0.0
 11
8642.429862581046
 21
7846.123139034709
 31
0.0
  0
INSERT
  5
18BCD
330
18BC8
100
AcDbEntity
  8
寸法
 62
     0
 48
50.0
370
    -2
100
AcDbBlockReference
  2
_DOTSMALL
 10
8642.429862581046
 20
9636.123139034717
 30
0.0
 41
100.0
 42
100.0
 43
100.0
 50
90.0
  0
INSERT
  5
18BCE
330
18BC8
100
AcDbEntity
  8
寸法
 62
     0
 48
50.0
370
    -2
100
AcDbBlockReference
  2
_DOTSMALL
 10
8642.429862581046
 20
7846.123139034709
 30
0.0
 41
100.0
 42
100.0
 43
100.0
 50
270.0
  0
MTEXT
  5
18BCF
330
18BC8
100
AcDbEntity
  8
寸法
 62
     7
 48
50.0
100
AcDbMText
 10
8542.429862581045
 20
8741.123139034712
 30
0.0
 40
120.0
 41
0.0
 71
     5
 72
     1
  1
\A1;1790
  7
STYLE1
 11
0.0000000000000001
 21
1.0
 31
0.0
 73
     1
 44
1.0
1001
ACAD
1000
MTEXTBEGIN
1070
    73
1070
     1
1070
    44
1040
1.0
1070
    74
1070
     0
1000
MTEXTEND
  0
POINT
  5
18BD0
330
18BC8
100
AcDbEntity
  8
DEFPOINTS
 62
     0
 48
50.0
100
AcDbPoint
 10
7629.896575106998
 20
9636.123139034717
 30
0.0
  0
POINT
  5
18BD1
330
18BC8
100
AcDbEntity
  8
DEFPOINTS
 62
     0
 48
50.0
100
AcDbPoint
 10
7629.896575106974
 20
7846.123139034709
 30
0.0
  0
POINT
  5
18BD2
330
18BC8
100
AcDbEntity
  8
DEFPOINTS
 62
     0
 48
50.0
100
AcDbPoint
 10
8642.429862581046
 20
7846.123139034709
 30
0.0
  0
ENDBLK
  5
18BD3
330
18BC8
100
AcDbEntity
  8
0
 48
50.0
100
AcDbBlockEnd
  0
BLOCK
  5
18BD5
330
18BD4
100
AcDbEntity
  8
0
 48
50.0
100
AcDbBlockBegin
  2
*D4
 70
     1
 10
0.0
 20
0.0
 30
0.0
  3
*D4
  1

  0
LINE
  5
18BD6
330
18BD4
100
AcDbEntity
  8
寸法
 62
     0
 48
50.0
370
    -2
100
AcDbLine
 10
4214.896575106998
 20
9656.123139034622
 30
0.0
 11
4214.896575106998
 21
10211.93135865972
 31
0.0
  0
LINE
  5
18BD7
330
18BD4
100
AcDbEntity
  8
寸法
 62
     0
 48
50.0
370
    -2
100
AcDbLine
 10
7574.896575106999
 20
9656.123139034718
 30
0.0
 11
7574.896575106999
 21
10211.93135865972
 31
0.0
  0
LINE
  5
18BD8
330
18BD4
100
AcDbEntity
  8
寸法
 62
     0
 48
50.0
370
    -2
100
AcDbLine
 10
4214.896575106998
 20
10151.93135865972
 30
0.0
 11
7574.896575106999
 21
10151.93135865972
 31
0.0
  0
INSERT
  5
18BD9
330
18BD4
100
AcDbEntity
  8
寸法
 62
     0
 48
50.0
370
    -2
100
AcDbBlockReference
  2
_DOTSMALL
 10
4214.896575106998
 20
10151.93135865972
 30
0.0
 41
100.0
 42
100.0
 43
100.0
 50
180.0
  0
INSERT
  5
18BDA
330
18BD4
100
AcDbEntity
  8
寸法
 62
     0
 48
50.0
370
    -2
100
AcDbBlockReference
  2
_DOTSMALL
 10
7574.896575106999
 20
10151.93135865972
 30
0.0
 41
100.0
 42
100.0
 43
100.0
  0
MTEXT
  5
18BDB
330
18BD4
100
AcDbEntity
  8
寸法
 62
     7
 48
50.0
100
AcDbMText
 10
5894.896575106997
 20
10251.94316968334
 30
0.0
 40
120.0
 41
0.0
 71
     5
 72
     1
  1
\A1;8X420=3360
  7
STYLE1
 73
     1
 44
1.0
1001
ACAD
1000
MTEXTBEGIN
1070
    73
1070
     1
1070
    44
1040
1.0
1070
    74
1070
     0
1000
MTEXTEND
  0
POINT
  5
18BDC
330
18BD4
100
AcDbEntity
  8
DEFPOINTS
 62
     0
 48
50.0
100
AcDbPoint
 10
4214.896575106998
 20
9636.123139034623
 30
0.0
  0
POINT
  5
18BDD
330
18BD4
100
AcDbEntity
  8
DEFPOINTS
 62
     0
 48
50.0
100
AcDbPoint
 10
7574.896575106999
 20
9636.123139034717
 30
0.0
  0
POINT
  5
18BDE
330
18BD4
100
AcDbEntity
  8
DEFPOINTS
 62
     0
 48
50.0
100
AcDbPoint
 10
7574.896575106999
 20
10151.93135865972
 30
0.0
  0
ENDBLK
  5
18BDF
330
18BD4
100
AcDbEntity
  8
0
 48
50.0
100
AcDbBlockEnd
  0
BLOCK
  5
18BE1
330
18BE0
100
AcDbEntity
  8
0
 48
50.0
100
AcDbBlockBegin
  2
*D5
 70
     1
 10
0.0
 20
0.0
 30
0.0
  3
*D5
  1

  0
LINE
  5
18BE2
330
18BE0
100
AcDbEntity
  8
寸法
 62
     0
 48
50.0
370
    -2
100
AcDbLine
 10
7574.896575106999
 20
9656.123139034718
 30
0.0
 11
7574.896575106999
 21
10211.9313586597
 31
0.0
  0
LINE
  5
18BE3
330
18BE0
100
AcDbEntity
  8
寸法
 62
     0
 48
50.0
370
    -2
100
AcDbLine
 10
7629.896575106998
 20
9656.123139034718
 30
0.0
 11
7629.896575106998
 21
10211.9313586597
 31
0.0
  0
LINE
  5
18BE4
330
18BE0
100
AcDbEntity
  8
寸法
 62
     0
 48
50.0
370
    -2
100
AcDbLine
 10
7574.896575106999
 20
10151.9313586597
 30
0.0
 11
7474.896575106999
 21
10151.9313586597
 31
0.0
  0
LINE
  5
18BE5
330
18BE0
100
AcDbEntity
  8
寸法
 62
     0
 48
50.0
370
    -2
100
AcDbLine
 10
7629.896575106998
 20
10151.9313586597
 30
0.0
 11
8046.867137855477
 21
10151.9313586597
 31
0.0
  0
LINE
  5
18BE6
330
18BE0
100
AcDbEntity
  8
寸法
 62
     0
 48
50.0
370
    -2
100
AcDbLine
 10
7574.896575106999
 20
10151.9313586597
 30
0.0
 11
7629.896575106998
 21
10151.9313586597
 31
0.0
  0
INSERT
  5
18BE7
330
18BE0
100
AcDbEntity
  8
寸法
 62
     0
 48
50.0
370
    -2
100
AcDbBlockReference
  2
_DOTSMALL
 10
7574.896575106999
 20
10151.9313586597
 30
0.0
 41
100.0
 42
100.0
 43
100.0
  0
INSERT
  5
18BE8
330
18BE0
100
AcDbEntity
  8
寸法
 62
     0
 48
50.0
370
    -2
100
AcDbBlockReference
  2
_DOTSMALL
 10
7629.896575106998
 20
10151.9313586597
 30
0.0
 41
100.0
 42
100.0
 43
100.0
 50
180.0
  0
MTEXT
  5
18BE9
330
18BE0
100
AcDbEntity
  8
寸法
 62
     7
 48
50.0
100
AcDbMText
 10
7938.381856481237
 20
10251.9313586597
 30
0.0
 40
120.0
 41
0.0
 71
     5
 72
     1
  1
\A1;55
  7
STYLE1
 73
     1
 44
1.0
1001
ACAD
1000
MTEXTBEGIN
1070
    73
1070
     1
1070
    44
1040
1.0
1070
    74
1070
     0
1000
MTEXTEND
  0
POINT
  5
18BEA
330
18BE0
100
AcDbEntity
  8
DEFPOINTS
 62
     0
 48
50.0
100
AcDbPoint
 10
7574.896575106999
 20
9636.123139034717
 30
0.0
  0
POINT
  5
18BEB
330
18BE0
100
AcDbEntity
  8
DEFPOINTS
 62
     0
 48
50.0
100
AcDbPoint
 10
7629.896575106998
 20
9636.123139034717
 30
0.0
  0
POINT
  5
18BEC
330
18BE0
100
AcDbEntity
  8
DEFPOINTS
 62
     0
 48
50.0
100
AcDbPoint
 10
7629.896575106998
 20
10151.9313586597
 30
0.0
  0
ENDBLK
  5
18BED
330
18BE0
100
AcDbEntity
  8
0
 48
50.0
100
AcDbBlockEnd
  0
BLOCK
  5
18BEF
330
18BEE
100
AcDbEntity
  8
0
 48
50.0
100
AcDbBlockBegin
  2
*D6
 70
     1
 10
0.0
 20
0.0
 30
0.0
  3
*D6
  1

  0
LINE
  5
18BF0
330
18BEE
100
AcDbEntity
  8
寸法
 62
     0
 48
50.0
370
    -2
100
AcDbLine
 10
7649.896575106999
 20
9636.123139034717
 30
0.0
 11
8337.32292084141
 21
9636.123139034717
 31
0.0
  0
LINE
  5
18BF1
330
18BEE
100
AcDbEntity
  8
寸法
 62
     0
 48
50.0
370
    -2
100
AcDbLine
 10
7649.896575106999
 20
9581.123139034721
 30
0.0
 11
8337.32292084141
 21
9581.123139034721
 31
0.0
  0
LINE
  5
18BF2
330
18BEE
100
AcDbEntity
  8
寸法
 62
     0
 48
50.0
370
    -2
100
AcDbLine
 10
8277.322920841411
 20
9581.123139034721
 30
0.0
 11
8277.322920841411
 21
9481.123139034719
 31
0.0
  0
LINE
  5
18BF3
330
18BEE
100
AcDbEntity
  8
寸法
 62
     0
 48
50.0
370
    -2
100
AcDbLine
 10
8277.322920841411
 20
9636.123139034717
 30
0.0
 11
8277.322920841411
 21
10053.09370178319
 31
0.0
  0
LINE
  5
18BF4
330
18BEE
100
AcDbEntity
  8
寸法
 62
     0
 48
50.0
370
    -2
100
AcDbLine
 10
8277.322920841411
 20
9581.123139034721
 30
0.0
 11
8277.322920841411
 21
9636.123139034717
 31
0.0
  0
INSERT
  5
18BF5
330
18BEE
100
AcDbEntity
  8
寸法
 62
     0
 48
50.0
370
    -2
100
AcDbBlockReference
  2
_DOTSMALL
 10
8277.322920841411
 20
9581.123139034721
 30
0.0
 41
100.0
 42
100.0
 43
100.0
 50
90.0
  0
INSERT
  5
18BF6
330
18BEE
100
AcDbEntity
  8
寸法
 62
     0
 48
50.0
370
    -2
100
AcDbBlockReference
  2
_DOTSMALL
 10
8277.322920841411
 20
9636.123139034717
 30
0.0
 41
100.0
 42
100.0
 43
100.0
 50
270.0
  0
MTEXT
  5
18BF7
330
18BEE
100
AcDbEntity
  8
寸法
 62
     7
 48
50.0
100
AcDbMText
 10
8177.32292084141
 20
9944.608420408957
 30
0.0
 40
120.0
 41
0.0
 71
     5
 72
     1
  1
\A1;55
  7
STYLE1
 11
0.0000000000000001
 21
1.0
 31
0.0
 73
     1
 44
1.0
1001
ACAD
1000
MTEXTBEGIN
1070
    73
1070
     1
1070
    44
1040
1.0
1070
    74
1070
     0
1000
MTEXTEND
  0
POINT
  5
18BF8
330
18BEE
100
AcDbEntity
  8
DEFPOINTS
 62
     0
 48
50.0
100
AcDbPoint
 10
7629.896575106998
 20
9636.123139034717
 30
0.0
  0
POINT
  5
18BF9
330
18BEE
100
AcDbEntity
  8
DEFPOINTS
 62
     0
 48
50.0
100
AcDbPoint
 10
7629.896575106998
 20
9581.123139034721
 30
0.0
  0
POINT
  5
18BFA
330
18BEE
100
AcDbEntity
  8
DEFPOINTS
 62
     0
 48
50.0
100
AcDbPoint
 10
8277.322920841411
 20
9581.123139034721
 30
0.0
  0
ENDBLK
  5
18BFB
330
18BEE
100
AcDbEntity
  8
0
 48
50.0
100
AcDbBlockEnd
  0
BLOCK
  5
18BFD
330
18BFC
100
AcDbEntity
  8
0
 48
50.0
100
AcDbBlockBegin
  2
*D7
 70
     1
 10
0.0
 20
0.0
 30
0.0
  3
*D7
  1

  0
LINE
  5
18BFE
330
18BFC
100
AcDbEntity
  8
寸法
 62
     0
 48
50.0
370
    -2
100
AcDbLine
 10
4159.896575106963
 20
9656.123139034622
 30
0.0
 11
4159.896575106963
 21
10211.9313586596
 31
0.0
  0
LINE
  5
18BFF
330
18BFC
100
AcDbEntity
  8
寸法
 62
     0
 48
50.0
370
    -2
100
AcDbLine
 10
4214.896575106998
 20
9656.123139034622
 30
0.0
 11
4214.896575106998
 21
10211.9313586596
 31
0.0
  0
LINE
  5
18C00
330
18BFC
100
AcDbEntity
  8
寸法
 62
     0
 48
50.0
370
    -2
100
AcDbLine
 10
4214.896575106998
 20
10151.9313586596
 30
0.0
 11
4314.896575106998
 21
10151.9313586596
 31
0.0
  0
LINE
  5
18C01
330
18BFC
100
AcDbEntity
  8
寸法
 62
     0
 48
50.0
370
    -2
100
AcDbLine
 10
4159.896575106963
 20
10151.9313586596
 30
0.0
 11
3742.926012358486
 21
10151.9313586596
 31
0.0
  0
LINE
  5
18C02
330
18BFC
100
AcDbEntity
  8
寸法
 62
     0
 48
50.0
370
    -2
100
AcDbLine
 10
4214.896575106998
 20
10151.9313586596
 30
0.0
 11
4159.896575106963
 21
10151.9313586596
 31
0.0
  0
INSERT
  5
18C03
330
18BFC
100
AcDbEntity
  8
寸法
 62
     0
 48
50.0
370
    -2
100
AcDbBlockReference
  2
_DOTSMALL
 10
4214.896575106998
 20
10151.9313586596
 30
0.0
 41
100.0
 42
100.0
 43
100.0
 50
180.0
  0
INSERT
  5
18C04
330
18BFC
100
AcDbEntity
  8
寸法
 62
     0
 48
50.0
370
    -2
100
AcDbBlockReference
  2
_DOTSMALL
 10
4159.896575106963
 20
10151.9313586596
 30
0.0
 41
100.0
 42
100.0
 43
100.0
  0
MTEXT
  5
18C05
330
18BFC
100
AcDbEntity
  8
寸法
 62
     7
 48
50.0
100
AcDbMText
 10
3851.411293732725
 20
10251.9313586596
 30
0.0
 40
120.0
 41
0.0
 71
     5
 72
     1
  1
\A1;55
  7
STYLE1
 73
     1
 44
1.0
1001
ACAD
1000
MTEXTBEGIN
1070
    73
1070
     1
1070
    44
1040
1.0
1070
    74
1070
     0
1000
MTEXTEND
  0
POINT
  5
18C06
330
18BFC
100
AcDbEntity
  8
DEFPOINTS
 62
     0
 48
50.0
100
AcDbPoint
 10
4159.896575106963
 20
9636.123139034623
 30
0.0
  0
POINT
  5
18C07
330
18BFC
100
AcDbEntity
  8
DEFPOINTS
 62
     0
 48
50.0
100
AcDbPoint
 10
4214.896575106998
 20
9636.123139034623
 30
0.0
  0
POINT
  5
18C08
330
18BFC
100
AcDbEntity
  8
DEFPOINTS
 62
     0
 48
50.0
100
AcDbPoint
 10
4214.896575106998
 20
10151.9313586596
 30
0.0
  0
ENDBLK
  5
18C09
330
18BFC
100
AcDbEntity
  8
0
 48
50.0
100
AcDbBlockEnd
  0
BLOCK
  5
18C0B
330
18C0A
100
AcDbEntity
  8
0
 48
50.0
100
AcDbBlockBegin
  2
*D8
 70
     1
 10
0.0
 20
0.0
 30
0.0
  3
*D8
  1

  0
LINE
  5
18C0C
330
18C0A
100
AcDbEntity
  8
寸法
 62
     0
 48
50.0
370
    -2
100
AcDbLine
 10
4159.896575106992
 20
7826.123139034546
 30
0.0
 11
4159.896575106992
 21
6804.372203245664
 31
0.0
  0
LINE
  5
18C0D
330
18C0A
100
AcDbEntity
  8
寸法
 62
     0
 48
50.0
370
    -2
100
AcDbLine
 10
7629.896575106974
 20
7826.123139034674
 30
0.0
 11
7629.896575106974
 21
6804.372203245664
 31
0.0
  0
LINE
  5
18C0E
330
18C0A
100
AcDbEntity
  8
寸法
 62
     0
 48
50.0
370
    -2
100
AcDbLine
 10
4159.896575106992
 20
6864.372203245665
 30
0.0
 11
7629.896575106974
 21
6864.372203245665
 31
0.0
  0
INSERT
  5
18C0F
330
18C0A
100
AcDbEntity
  8
寸法
 62
     0
 48
50.0
370
    -2
100
AcDbBlockReference
  2
_DOTSMALL
 10
4159.896575106992
 20
6864.372203245665
 30
0.0
 41
100.0
 42
100.0
 43
100.0
 50
180.0
  0
INSERT
  5
18C10
330
18C0A
100
AcDbEntity
  8
寸法
 62
     0
 48
50.0
370
    -2
100
AcDbBlockReference
  2
_DOTSMALL
 10
7629.896575106974
 20
6864.372203245665
 30
0.0
 41
100.0
 42
100.0
 43
100.0
  0
MTEXT
  5
18C11
330
18C0A
100
AcDbEntity
  8
寸法
 62
     7
 48
50.0
100
AcDbMText
 10
5911.12376113973
 20
6964.372203245665
 30
0.0
 40
120.0
 41
0.0
 71
     5
 72
     1
  1
\A1;3470
  7
STYLE1
 73
     1
 44
1.0
1001
ACAD
1000
MTEXTBEGIN
1070
    73
1070
     1
1070
    44
1040
1.0
1070
    74
1070
     0
1000
MTEXTEND
  0
POINT
  5
18C12
330
18C0A
100
AcDbEntity
  8
DEFPOINTS
 62
     0
 48
50.0
100
AcDbPoint
 10
4159.896575106992
 20
7846.123139034546
 30
0.0
  0
POINT
  5
18C13
330
18C0A
100
AcDbEntity
  8
DEFPOINTS
 62
     0
 48
50.0
100
AcDbPoint
 10
7629.896575106974
 20
7846.123139034673
 30
0.0
  0
POINT
  5
18C14
330
18C0A
100
AcDbEntity
  8
DEFPOINTS
 62
     0
 48
50.0
100
AcDbPoint
 10
7629.896575106974
 20
6864.372203245665
 30
0.0
  0
ENDBLK
  5
18C15
330
18C0A
100
AcDbEntity
  8
0
 48
50.0
100
AcDbBlockEnd
  0
BLOCK
  5
18C17
330
18C16
100
AcDbEntity
  8
0
 48
50.0
100
AcDbBlockBegin
  2
*D9
 70
     1
 10
0.0
 20
0.0
 30
0.0
  3
*D9
  1

  0
LINE
  5
18C18
330
18C16
100
AcDbEntity
  8
寸法
 62
     0
 48
50.0
370
    -2
100
AcDbLine
 10
7649.896575106973
 20
7901.123139034706
 30
0.0
 11
8337.322920841385
 21
7901.123139034706
 31
0.0
  0
LINE
  5
18C19
330
18C16
100
AcDbEntity
  8
寸法
 62
     0
 48
50.0
370
    -2
100
AcDbLine
 10
7649.896575106973
 20
7846.123139034709
 30
0.0
 11
8337.322920841385
 21
7846.123139034709
 31
0.0
  0
LINE
  5
18C1A
330
18C16
100
AcDbEntity
  8
寸法
 62
     0
 48
50.0
370
    -2
100
AcDbLine
 10
8277.322920841385
 20
7901.123139034706
 30
0.0
 11
8277.322920841385
 21
8001.123139034707
 31
0.0
  0
LINE
  5
18C1B
330
18C16
100
AcDbEntity
  8
寸法
 62
     0
 48
50.0
370
    -2
100
AcDbLine
 10
8277.322920841385
 20
7846.123139034709
 30
0.0
 11
8277.322920841385
 21
7429.152576286229
 31
0.0
  0
LINE
  5
18C1C
330
18C16
100
AcDbEntity
  8
寸法
 62
     0
 48
50.0
370
    -2
100
AcDbLine
 10
8277.322920841385
 20
7901.123139034706
 30
0.0
 11
8277.322920841385
 21
7846.123139034709
 31
0.0
  0
INSERT
  5
18C1D
330
18C16
100
AcDbEntity
  8
寸法
 62
     0
 48
50.0
370
    -2
100
AcDbBlockReference
  2
_DOTSMALL
 10
8277.322920841385
 20
7901.123139034706
 30
0.0
 41
100.0
 42
100.0
 43
100.0
 50
270.0
  0
INSERT
  5
18C1E
330
18C16
100
AcDbEntity
  8
寸法
 62
     0
 48
50.0
370
    -2
100
AcDbBlockReference
  2
_DOTSMALL
 10
8277.322920841385
 20
7846.123139034709
 30
0.0
 41
100.0
 42
100.0
 43
100.0
 50
90.0
  0
MTEXT
  5
18C1F
330
18C16
100
AcDbEntity
  8
寸法
 62
     7
 48
50.0
100
AcDbMText
 10
8177.322920841383
 20
7537.637857660469
 30
0.0
 40
120.0
 41
0.0
 71
     5
 72
     1
  1
\A1;55
  7
STYLE1
 11
0.0000000000000001
 21
1.0
 31
0.0
 73
     1
 44
1.0
1001
ACAD
1000
MTEXTBEGIN
1070
    73
1070
     1
1070
    44
1040
1.0
1070
    74
1070
     0
1000
MTEXTEND
  0
POINT
  5
18C20
330
18C16
100
AcDbEntity
  8
DEFPOINTS
 62
     0
 48
50.0
100
AcDbPoint
 10
7629.896575106974
 20
7901.123139034706
 30
0.0
  0
POINT
  5
18C21
330
18C16
100
AcDbEntity
  8
DEFPOINTS
 62
     0
 48
50.0
100
AcDbPoint
 10
7629.896575106974
 20
7846.123139034709
 30
0.0
  0
POINT
  5
18C22
330
18C16
100
AcDbEntity
  8
DEFPOINTS
 62
     0
 48
50.0
100
AcDbPoint
 10
8277.322920841385
 20
7846.123139034709
 30
0.0
  0
ENDBLK
  5
18C23
330
18C16
100
AcDbEntity
  8
0
 48
50.0
100
AcDbBlockEnd
  0
BLOCK
  5
18C25
330
18C24
100
AcDbEntity
  8
0
 48
50.0
100
AcDbBlockBegin
  2
*D10
 70
     1
 10
0.0
 20
0.0
 30
0.0
  3
*D10
  1

  0
LINE
  5
18C26
330
18C24
100
AcDbEntity
  8
寸法
 62
     0
 48
50.0
370
    -2
100
AcDbLine
 10
6533.037591258376
 20
9136.123139034728
 30
0.0
 11
6465.083950562664
 21
8882.516699399049
 31
0.0
  0
LINE
  5
18C27
330
18C24
100
AcDbEntity
  8
寸法
 62
     0
 48
50.0
370
    -2
100
AcDbLine
 10
7596.037591258388
 20
9136.123139034721
 30
0.0
 11
7528.083950562677
 21
8882.516699399049
 31
0.0
  0
LINE
  5
18C28
330
18C24
100
AcDbEntity
  8
寸法
 62
     0
 48
50.0
370
    -2
100
AcDbLine
 10
6481.160902108531
 20
8942.51669939905
 30
0.0
 11
7544.160902108544
 21
8942.51669939905
 31
0.0
  0
INSERT
  5
18C29
330
18C24
100
AcDbEntity
  8
寸法
 62
     0
 48
50.0
370
    -2
100
AcDbBlockReference
  2
_DOTSMALL
 10
6481.160902108531
 20
8942.51669939905
 30
0.0
 41
100.0
 42
100.0
 43
100.0
 50
180.0
  0
INSERT
  5
18C2A
330
18C24
100
AcDbEntity
  8
寸法
 62
     0
 48
50.0
370
    -2
100
AcDbBlockReference
  2
_DOTSMALL
 10
7544.160902108544
 20
8942.51669939905
 30
0.0
 41
100.0
 42
100.0
 43
100.0
  0
MTEXT
  5
18C2B
330
18C24
100
AcDbEntity
  8
寸法
 62
     7
 48
50.0
100
AcDbMText
 10
7061.28653022935
 20
9042.516699399049
 30
0.0
 40
120.0
 41
0.0
 71
     5
 72
     1
  1
\A1;1063
  7
STYLE1
 73
     1
 44
1.0
1001
ACAD
1000
MTEXTBEGIN
1070
    73
1070
     1
1070
    44
1040
1.0
1070
    74
1070
     0
1000
MTEXTEND
  0
POINT
  5
18C2C
330
18C24
100
AcDbEntity
  8
DEFPOINTS
 62
     0
 48
50.0
100
AcDbPoint
 10
6538.396575106998
 20
9156.123139034727
 30
0.0
  0
POINT
  5
18C2D
330
18C24
100
AcDbEntity
  8
DEFPOINTS
 62
     0
 48
50.0
100
AcDbPoint
 10
7601.39657510701
 20
9156.12313903472
 30
0.0
  0
POINT
  5
18C2E
330
18C24
100
AcDbEntity
  8
DEFPOINTS
 62
     0
 48
50.0
100
AcDbPoint
 10
7544.160902108544
 20
8942.51669939905
 30
0.0
  0
ENDBLK
  5
18C2F
330
18C24
100
AcDbEntity
  8
0
 48
50.0
100
AcDbBlockEnd
  0
BLOCK
  5
18C31
330
18C30
100
AcDbEntity
  8
0
 48
50.0
100
AcDbBlockBegin
  2
*D11
 70
     1
 10
0.0
 20
0.0
 30
0.0
  3
*D11
  1

  0
LINE
  5
18C32
330
18C30
100
AcDbEntity
  8
寸法
 62
     0
 48
50.0
370
    -2
100
AcDbLine
 10
7621.396575106999
 20
9600.764155186094
 30
0.0
 11
8016.754300969024
 21
9494.828371819961
 31
0.0
  0
LINE
  5
18C33
330
18C30
100
AcDbEntity
  8
寸法
 62
     0
 48
50.0
370
    -2
100
AcDbLine
 10
7621.396575106999
 20
9150.764155186099
 30
0.0
 11
8016.754300969024
 21
9044.828371819964
 31
0.0
  0
LINE
  5
18C34
330
18C30
100
AcDbEntity
  8
寸法
 62
     0
 48
50.0
370
    -2
100
AcDbLine
 10
7956.754300969024
 20
9510.905323365827
 30
0.0
 11
7956.754300969024
 21
9060.90532336583
 31
0.0
  0
INSERT
  5
18C35
330
18C30
100
AcDbEntity
  8
寸法
 62
     0
 48
50.0
370
    -2
100
AcDbBlockReference
  2
_DOTSMALL
 10
7956.754300969024
 20
9510.905323365827
 30
0.0
 41
100.0
 42
100.0
 43
100.0
 50
90.0
  0
INSERT
  5
18C36
330
18C30
100
AcDbEntity
  8
寸法
 62
     0
 48
50.0
370
    -2
100
AcDbBlockReference
  2
_DOTSMALL
 10
7956.754300969024
 20
9060.90532336583
 30
0.0
 41
100.0
 42
100.0
 43
100.0
 50
270.0
  0
MTEXT
  5
18C37
330
18C30
100
AcDbEntity
  8
寸法
 62
     7
 48
50.0
100
AcDbMText
 10
7856.754300969022
 20
9285.905323365829
 30
0.0
 40
120.0
 41
0.0
 71
     5
 72
     1
  1
\A1;450
  7
STYLE1
 11
0.0000000000000001
 21
1.0
 31
0.0
 73
     1
 44
1.0
1001
ACAD
1000
MTEXTBEGIN
1070
    73
1070
     1
1070
    44
1040
1.0
1070
    74
1070
     0
1000
MTEXTEND
  0
POINT
  5
18C38
330
18C30
100
AcDbEntity
  8
DEFPOINTS
 62
     0
 48
50.0
100
AcDbPoint
 10
7601.396575106999
 20
9606.123139034718
 30
0.0
  0
POINT
  5
18C39
330
18C30
100
AcDbEntity
  8
DEFPOINTS
 62
     0
 48
50.0
100
AcDbPoint
 10
7601.396575106999
 20
9156.12313903472
 30
0.0
  0
POINT
  5
18C3A
330
18C30
100
AcDbEntity
  8
DEFPOINTS
 62
     0
 48
50.0
100
AcDbPoint
 10
7956.754300969024
 20
9060.90532336583
 30
0.0
  0
ENDBLK
  5
18C3B
330
18C30
100
AcDbEntity
  8
0
 48
50.0
100
AcDbBlockEnd
  0
BLOCK
  5
18C3D
330
18C3C
100
AcDbEntity
  8
0
 48
50.0
100
AcDbBlockBegin
  2
*D12
 70
     1
 10
0.0
 20
0.0
 30
0.0
  3
*D12
  1

  0
LINE
  5
18C3E
330
18C3C
100
AcDbEntity
  8
寸法
 62
     0
 48
50.0
370
    -2
100
AcDbLine
 10
7649.896575106999
 20
9581.123139034721
 30
0.0
 11
8337.32292084141
 21
9581.123139034721
 31
0.0
  0
LINE
  5
18C3F
330
18C3C
100
AcDbEntity
  8
寸法
 62
     0
 48
50.0
370
    -2
100
AcDbLine
 10
7649.896575106973
 20
7901.123139034706
 30
0.0
 11
8337.32292084141
 21
7901.123139034706
 31
0.0
  0
LINE
  5
18C40
330
18C3C
100
AcDbEntity
  8
寸法
 62
     0
 48
50.0
370
    -2
100
AcDbLine
 10
8277.322920841411
 20
9581.123139034721
 30
0.0
 11
8277.322920841411
 21
7901.123139034706
 31
0.0
  0
INSERT
  5
18C41
330
18C3C
100
AcDbEntity
  8
寸法
 62
     0
 48
50.0
370
    -2
100
AcDbBlockReference
  2
_DOTSMALL
 10
8277.322920841411
 20
9581.123139034721
 30
0.0
 41
100.0
 42
100.0
 43
100.0
 50
90.0
  0
INSERT
  5
18C42
330
18C3C
100
AcDbEntity
  8
寸法
 62
     0
 48
50.0
370
    -2
100
AcDbBlockReference
  2
_DOTSMALL
 10
8277.322920841411
 20
7901.123139034706
 30
0.0
 41
100.0
 42
100.0
 43
100.0
 50
270.0
  0
MTEXT
  5
18C43
330
18C3C
100
AcDbEntity
  8
寸法
 62
     7
 48
50.0
100
AcDbMText
 10
8177.311109817788
 20
8741.123139034712
 30
0.0
 40
120.0
 41
0.0
 71
     5
 72
     1
  1
\A1;4X420=1680
  7
STYLE1
 11
0.0000000000000001
 21
1.0
 31
0.0
 73
     1
 44
1.0
1001
ACAD
1000
MTEXTBEGIN
1070
    73
1070
     1
1070
    44
1040
1.0
1070
    74
1070
     0
1000
MTEXTEND
  0
POINT
  5
18C44
330
18C3C
100
AcDbEntity
  8
DEFPOINTS
 62
     0
 48
50.0
100
AcDbPoint
 10
7629.896575106998
 20
9581.123139034721
 30
0.0
  0
POINT
  5
18C45
330
18C3C
100
AcDbEntity
  8
DEFPOINTS
 62
     0
 48
50.0
100
AcDbPoint
 10
7629.896575106974
 20
7901.123139034706
 30
0.0
  0
POINT
  5
18C46
330
18C3C
100
AcDbEntity
  8
DEFPOINTS
 62
     0
 48
50.0
100
AcDbPoint
 10
8277.322920841411
 20
7901.123139034706
 30
0.0
  0
ENDBLK
  5
18C47
330
18C3C
100
AcDbEntity
  8
0
 48
50.0
100
AcDbBlockEnd
  0
BLOCK
  5
18C49
330
18C48
100
AcDbEntity
  8
0
 48
50.0
100
AcDbBlockBegin
  2
*D13
 70
     1
 10
0.0
 20
0.0
 30
0.0
  3
*D13
  1

  0
LINE
  5
18C4A
330
18C48
100
AcDbEntity
  8
寸法
 62
     0
 48
50.0
370
    -2
100
AcDbLine
 10
4183.037591258377
 20
9136.123139034619
 30
0.0
 11
4115.083950562663
 21
8882.516699398941
 31
0.0
  0
LINE
  5
18C4B
330
18C48
100
AcDbEntity
  8
寸法
 62
     0
 48
50.0
370
    -2
100
AcDbLine
 10
5246.037591258307
 20
9136.123139034671
 30
0.0
 11
5178.08395056258
 21
8882.516699398941
 31
0.0
  0
LINE
  5
18C4C
330
18C48
100
AcDbEntity
  8
寸法
 62
     0
 48
50.0
370
    -2
100
AcDbLine
 10
4131.160902108532
 20
8942.516699398941
 30
0.0
 11
5194.160902108448
 21
8942.516699398941
 31
0.0
  0
INSERT
  5
18C4D
330
18C48
100
AcDbEntity
  8
寸法
 62
     0
 48
50.0
370
    -2
100
AcDbBlockReference
  2
_DOTSMALL
 10
4131.160902108532
 20
8942.516699398941
 30
0.0
 41
100.0
 42
100.0
 43
100.0
 50
180.0
  0
INSERT
  5
18C4E
330
18C48
100
AcDbEntity
  8
寸法
 62
     0
 48
50.0
370
    -2
100
AcDbBlockReference
  2
_DOTSMALL
 10
5194.160902108448
 20
8942.516699398941
 30
0.0
 41
100.0
 42
100.0
 43
100.0
  0
MTEXT
  5
18C4F
330
18C48
100
AcDbEntity
  8
寸法
 62
     7
 48
50.0
100
AcDbMText
 10
4658.986452655306
 20
9042.516699398941
 30
0.0
 40
120.0
 41
0.0
 71
     5
 72
     1
  1
\A1;1063
  7
STYLE1
 73
     1
 44
1.0
1001
ACAD
1000
MTEXTBEGIN
1070
    73
1070
     1
1070
    44
1040
1.0
1070
    74
1070
     0
1000
MTEXTEND
  0
POINT
  5
18C50
330
18C48
100
AcDbEntity
  8
DEFPOINTS
 62
     0
 48
50.0
100
AcDbPoint
 10
4188.396575106999
 20
9156.123139034617
 30
0.0
  0
POINT
  5
18C51
330
18C48
100
AcDbEntity
  8
DEFPOINTS
 62
     0
 48
50.0
100
AcDbPoint
 10
5251.396575106929
 20
9156.123139034672
 30
0.0
  0
POINT
  5
18C52
330
18C48
100
AcDbEntity
  8
DEFPOINTS
 62
     0
 48
50.0
100
AcDbPoint
 10
5194.160902108448
 20
8942.516699398941
 30
0.0
  0
ENDBLK
  5
18C53
330
18C48
100
AcDbEntity
  8
0
 48
50.0
100
AcDbBlockEnd
  0
BLOCK
  5
18C55
330
18C54
100
AcDbEntity
  8
0
 48
50.0
100
AcDbBlockBegin
  2
*D14
 70
     1
 10
0.0
 20
0.0
 30
0.0
  3
*D14
  1

  0
LINE
  5
18C56
330
18C54
100
AcDbEntity
  8
寸法
 62
     0
 48
50.0
370
    -2
100
AcDbLine
 10
5274.037591258307
 20
9136.123139034669
 30
0.0
 11
5206.08395056258
 21
8882.516699398941
 31
0.0
  0
LINE
  5
18C57
330
18C54
100
AcDbEntity
  8
寸法
 62
     0
 48
50.0
370
    -2
100
AcDbLine
 10
6505.037591258377
 20
9136.123139034662
 30
0.0
 11
6437.083950562653
 21
8882.516699398941
 31
0.0
  0
LINE
  5
18C58
330
18C54
100
AcDbEntity
  8
寸法
 62
     0
 48
50.0
370
    -2
100
AcDbLine
 10
5222.160902108448
 20
8942.516699398941
 30
0.0
 11
6453.16090210852
 21
8942.516699398941
 31
0.0
  0
INSERT
  5
18C59
330
18C54
100
AcDbEntity
  8
寸法
 62
     0
 48
50.0
370
    -2
100
AcDbBlockReference
  2
_DOTSMALL
 10
5222.160902108448
 20
8942.516699398941
 30
0.0
 41
100.0
 42
100.0
 43
100.0
 50
180.0
  0
INSERT
  5
18C5A
330
18C54
100
AcDbEntity
  8
寸法
 62
     0
 48
50.0
370
    -2
100
AcDbBlockReference
  2
_DOTSMALL
 10
6453.16090210852
 20
8942.516699398941
 30
0.0
 41
100.0
 42
100.0
 43
100.0
  0
MTEXT
  5
18C5B
330
18C54
100
AcDbEntity
  8
寸法
 62
     7
 48
50.0
100
AcDbMText
 10
6081.244808320626
 20
9042.528510422561
 30
0.0
 40
120.0
 41
0.0
 71
     5
 72
     1
  1
\A1;1231
  7
STYLE1
 73
     1
 44
1.0
1001
ACAD
1000
MTEXTBEGIN
1070
    73
1070
     1
1070
    44
1040
1.0
1070
    74
1070
     0
1000
MTEXTEND
  0
POINT
  5
18C5C
330
18C54
100
AcDbEntity
  8
DEFPOINTS
 62
     0
 48
50.0
100
AcDbPoint
 10
5279.396575106929
 20
9156.123139034669
 30
0.0
  0
POINT
  5
18C5D
330
18C54
100
AcDbEntity
  8
DEFPOINTS
 62
     0
 48
50.0
100
AcDbPoint
 10
6510.396575106999
 20
9156.123139034662
 30
0.0
  0
POINT
  5
18C5E
330
18C54
100
AcDbEntity
  8
DEFPOINTS
 62
     0
 48
50.0
100
AcDbPoint
 10
6453.16090210852
 20
8942.516699398941
 30
0.0
  0
ENDBLK
  5
18C5F
330
18C54
100
AcDbEntity
  8
0
 48
50.0
100
AcDbBlockEnd
  0
BLOCK
  5
18C61
330
18C60
100
AcDbEntity
  8
0
 48
50.0
100
AcDbBlockBegin
  2
*D15
 70
     1
 10
0.0
 20
0.0
 30
0.0
  3
*D15
  1

  0
LINE
  5
18C62
330
18C60
100
AcDbEntity
  8
寸法
 62
     0
 48
50.0
370
    -2
100
AcDbLine
 10
5065.896575106966
 20
7749.123139034579
 30
0.0
 11
5065.896575106966
 21
7099.952920982538
 31
0.0
  0
LINE
  5
18C63
330
18C60
100
AcDbEntity
  8
寸法
 62
     0
 48
50.0
370
    -2
100
AcDbLine
 10
6331.896575106966
 20
7749.123139034579
 30
0.0
 11
6331.896575106966
 21
7099.952920982538
 31
0.0
  0
LINE
  5
18C64
330
18C60
100
AcDbEntity
  8
寸法
 62
     0
 48
50.0
370
    -2
100
AcDbLine
 10
5065.896575106966
 20
7159.952920982537
 30
0.0
 11
6331.896575106966
 21
7159.952920982537
 31
0.0
  0
INSERT
  5
18C65
330
18C60
100
AcDbEntity
  8
寸法
 62
     0
 48
50.0
370
    -2
100
AcDbBlockReference
  2
_DOTSMALL
 10
5065.896575106966
 20
7159.952920982537
 30
0.0
 41
100.0
 42
100.0
 43
100.0
 50
180.0
  0
INSERT
  5
18C66
330
18C60
100
AcDbEntity
  8
寸法
 62
     0
 48
50.0
370
    -2
100
AcDbBlockReference
  2
_DOTSMALL
 10
6331.896575106966
 20
7159.952920982537
 30
0.0
 41
100.0
 42
100.0
 43
100.0
  0
MTEXT
  5
18C67
330
18C60
100
AcDbEntity
  8
寸法
 62
     7
 48
50.0
100
AcDbMText
 10
5711.986008735934
 20
7359.964732006159
 30
0.0
 40
120.0
 41
0.0
 71
     5
 72
     1
  1
\A1;有効開口部間口\P1266
  7
STYLE1
 73
     1
 44
1.0
1001
ACAD
1000
MTEXTBEGIN
1070
    73
1070
     1
1070
    44
1040
1.0
1070
    74
1070
     0
1000
MTEXTEND
  0
POINT
  5
18C68
330
18C60
100
AcDbEntity
  8
DEFPOINTS
 62
     0
 48
50.0
100
AcDbPoint
 10
5065.896575106966
 20
7769.123139034579
 30
0.0
  0
POINT
  5
18C69
330
18C60
100
AcDbEntity
  8
DEFPOINTS
 62
     0
 48
50.0
100
AcDbPoint
 10
6331.896575106966
 20
7769.123139034579
 30
0.0
  0
POINT
  5
18C6A
330
18C60
100
AcDbEntity
  8
DEFPOINTS
 62
     0
 48
50.0
100
AcDbPoint
 10
6331.896575106966
 20
7159.952920982537
 30
0.0
  0
ENDBLK
  5
18C6B
330
18C60
100
AcDbEntity
  8
0
 48
50.0
100
AcDbBlockEnd
  0
BLOCK
  5
18C6D
330
18C6C
100
AcDbEntity
  8
0
 48
50.0
100
AcDbBlockBegin
  2
*D16
 70
     1
 10
0.0
 20
0.0
 30
0.0
  3
*D16
  1

  0
LINE
  5
18C6E
330
18C6C
100
AcDbEntity
  8
寸法
 62
     0
 48
50.0
370
    -2
100
AcDbLine
 10
7200.896575106966
 20
7846.123139034578
 30
0.0
 11
7457.192158500191
 21
7846.123139034578
 31
0.0
  0
LINE
  5
18C6F
330
18C6C
100
AcDbEntity
  8
寸法
 62
     0
 48
50.0
370
    -2
100
AcDbLine
 10
7199.896575106966
 20
7769.123139034579
 30
0.0
 11
7457.192158500191
 21
7769.123139034579
 31
0.0
  0
LINE
  5
18C70
330
18C6C
100
AcDbEntity
  8
寸法
 62
     0
 48
50.0
370
    -2
100
AcDbLine
 10
7417.192158500192
 20
7866.123139034579
 30
0.0
 11
7417.192158500192
 21
7886.123139034578
 31
0.0
  0
LINE
  5
18C71
330
18C6C
100
AcDbEntity
  8
寸法
 62
     0
 48
50.0
370
    -2
100
AcDbLine
 10
7417.192158500192
 20
7749.123139034579
 30
0.0
 11
7417.192158500192
 21
7533.123139034573
 31
0.0
  0
LINE
  5
18C72
330
18C6C
100
AcDbEntity
  8
寸法
 62
     0
 48
50.0
370
    -2
100
AcDbLine
 10
7417.192158500192
 20
7846.123139034578
 30
0.0
 11
7417.192158500192
 21
7769.123139034579
 31
0.0
  0
INSERT
  5
18C73
330
18C6C
100
AcDbEntity
  8
寸法
 62
     0
 48
50.0
370
    -2
100
AcDbBlockReference
  2
_DOT
 10
7417.192158500192
 20
7846.123139034578
 30
0.0
 41
20.0
 42
20.0
 43
20.0
 50
270.0
  0
INSERT
  5
18C74
330
18C6C
100
AcDbEntity
  8
寸法
 62
     0
 48
50.0
370
    -2
100
AcDbBlockReference
  2
_DOT
 10
7417.192158500192
 20
7769.123139034579
 30
0.0
 41
20.0
 42
20.0
 43
20.0
 50
90.0
  0
MTEXT
  5
18C75
330
18C6C
100
AcDbEntity
  8
寸法
 62
     7
 48
50.0
100
AcDbMText
 10
7325.192158500191
 20
7631.123139034575
 30
0.0
 40
120.0
 41
0.0
 71
     5
 72
     1
  1
\A1;77
  7
STYLE1
 11
0.0000000000000001
 21
1.0
 31
0.0
 73
     1
 44
1.0
1001
ACAD
1000
MTEXTBEGIN
1070
    73
1070
     1
1070
    44
1040
1.0
1070
    74
1070
     0
1000
MTEXTEND
  0
POINT
  5
18C76
330
18C6C
100
AcDbEntity
  8
DEFPOINTS
 62
     0
 48
50.0
100
AcDbPoint
 10
7180.896575106967
 20
7846.123139034578
 30
0.0
  0
POINT
  5
18C77
330
18C6C
100
AcDbEntity
  8
DEFPOINTS
 62
     0
 48
50.0
100
AcDbPoint
 10
7179.896575106965
 20
7769.123139034579
 30
0.0
  0
POINT
  5
18C78
330
18C6C
100
AcDbEntity
  8
DEFPOINTS
 62
     0
 48
50.0
100
AcDbPoint
 10
7417.192158500192
 20
7769.123139034579
 30
0.0
  0
ENDBLK
  5
18C79
330
18C6C
100
AcDbEntity
  8
0
 48
50.0
100
AcDbBlockEnd
  0
BLOCK
  5
18DA0
330
18C7A
100
AcDbEntity
  8
0
 48
50.0
100
AcDbBlockBegin
  2
A$C3B1A506B
 70
     0
 10
0.0
 20
0.0
 30
0.0
  3
A$C3B1A506B
  1

  0
MTEXT
  5
18C7B
330
18C7A
100
AcDbEntity
  8
寸法
 62
     7
 48
50.0
100
AcDbMText
 10
3342.250386887194
 20
2778.329429134012
 30
0.0
 40
96.0
 41
0.0
 71
     5
 72
     1
  1
棚 2段
  7
STYLE1
 73
     1
 44
1.0
1001
ACAD
1000
MTEXTBEGIN
1070
    73
1070
     1
1070
    44
1040
1.0
1070
    74
1070
     0
1000
MTEXTEND
  0
MTEXT
  5
18C7C
330
18C7A
100
AcDbEntity
  8
寸法
 62
     7
 48
50.0
100
AcDbMText
 10
2167.25038688716
 20
2778.329429133986
 30
0.0
 40
96.0
 41
0.0
 71
     5
 72
     1
  1
棚 2段
  7
STYLE1
 73
     1
 44
1.0
1001
ACAD
1000
MTEXTBEGIN
1070
    73
1070
     1
1070
    44
1040
1.0
1070
    74
1070
     0
1000
MTEXTEND
  0
MTEXT
  5
18C7D
330
18C7A
100
AcDbEntity
  8
寸法
 62
     7
 48
50.0
100
AcDbMText
 10
992.2503868871608
 20
2778.329429133935
 30
0.0
 40
96.0
 41
0.0
 71
     5
 72
     1
  1
棚 2段
  7
STYLE1
 73
     1
 44
1.0
1001
ACAD
1000
MTEXTBEGIN
1070
    73
1070
     1
1070
    44
1040
1.0
1070
    74
1070
     0
1000
MTEXTEND
  0
LINE
  5
18C7E
330
18C7A
100
AcDbEntity
  8
細線
 48
50.0
100
AcDbLine
 10
2771.970589276527
 20
1368.994384123192
 30
0.0
 11
3398.970589276523
 21
1368.994384123192
 31
0.0
  0
LINE
  5
18C7F
330
18C7A
100
AcDbEntity
  8
細線
 48
50.0
100
AcDbLine
 10
2117.970593930113
 20
1335.285615569113
 30
0.0
 11
3398.970589276523
 21
1335.285615569113
 31
0.0
  0
LINE
  5
18C80
330
18C7A
100
AcDbEntity
  8
細線
 48
50.0
100
AcDbLine
 10
2076.970593930115
 20
1364.690523565368
 30
0.0
 11
1322.970589276523
 21
1364.690523565367
 31
0.0
  0
LINE
  5
18C81
330
18C7A
100
AcDbEntity
  8
細線
100
AcDbLine
 10
3170.720579860066
 20
1388.494284088199
 30
0.0
 11
3173.052119381877
 21
1393.494286728162
 31
0.0
  0
LINE
  5
18C82
330
18C7A
100
AcDbEntity
  8
細線
100
AcDbLine
 10
3240.720589276525
 20
1388.494269174465
 30
0.0
 11
3238.389042800336
 21
1393.494286728144
 31
0.0
  0
LINE
  5
18C83
330
18C7A
100
AcDbEntity
  8
細線
100
AcDbLine
 10
3238.389042800336
 20
1393.494286728144
 30
0.0
 11
3173.052119381862
 21
1393.494286728133
 31
0.0
  0
LINE
  5
18C84
330
18C7A
100
AcDbEntity
  8
細線
100
AcDbLine
 10
3098.389042800336
 20
1393.494286728144
 30
0.0
 11
3033.052119381862
 21
1393.494286728133
 31
0.0
  0
LINE
  5
18C85
330
18C7A
100
AcDbEntity
  8
細線
100
AcDbLine
 10
3100.720589276523
 20
1388.494269174465
 30
0.0
 11
3098.389042800336
 21
1393.494286728144
 31
0.0
  0
LINE
  5
18C86
330
18C7A
100
AcDbEntity
  8
細線
100
AcDbLine
 10
3030.720579860066
 20
1388.494284088199
 30
0.0
 11
3033.052119381875
 21
1393.494286728162
 31
0.0
  0
LINE
  5
18C87
330
18C7A
100
AcDbEntity
  8
細線
100
AcDbLine
 10
2890.720589276525
 20
1388.494269174465
 30
0.0
 11
2893.052128798336
 21
1393.494271814428
 31
0.0
  0
LINE
  5
18C88
330
18C7A
100
AcDbEntity
  8
細線
100
AcDbLine
 10
2960.720598692984
 20
1388.494254260731
 30
0.0
 11
2958.389052216793
 21
1393.49427181441
 31
0.0
  0
LINE
  5
18C89
330
18C7A
100
AcDbEntity
  8
細線
100
AcDbLine
 10
2958.389052216795
 20
1393.49427181441
 30
0.0
 11
2893.052128798321
 21
1393.494271814399
 31
0.0
  0
LINE
  5
18C8A
330
18C7A
100
AcDbEntity
  8
細線
100
AcDbLine
 10
2667.139038146739
 20
1359.494298590735
 30
0.0
 11
2601.802114728263
 21
1359.494298590724
 31
0.0
  0
LINE
  5
18C8B
330
18C7A
100
AcDbEntity
  8
細線
100
AcDbLine
 10
2669.470584622926
 20
1354.494281037055
 30
0.0
 11
2667.139038146737
 21
1359.494298590735
 31
0.0
  0
LINE
  5
18C8C
330
18C7A
100
AcDbEntity
  8
細線
100
AcDbLine
 10
2599.470575206469
 20
1354.49429595079
 30
0.0
 11
2601.802114728278
 21
1359.494298590752
 31
0.0
  0
LINE
  5
18C8D
330
18C7A
100
AcDbEntity
  8
細線
 48
50.0
100
AcDbLine
 10
2440.853968524536
 20
1372.765132327548
 30
0.0
 11
2446.609486107205
 21
1354.494281037057
 31
0.0
  0
LINE
  5
18C8E
330
18C7A
100
AcDbEntity
  8
細線
 48
50.0
100
AcDbLine
 10
2429.925520044106
 20
1372.765132327546
 30
0.0
 11
2440.853968524536
 21
1372.765132327548
 31
0.0
  0
ARC
  5
18C8F
330
18C7A
100
AcDbEntity
  8
細線
 48
50.0
100
AcDbCircle
 10
2424.471163986787
 20
1374.265132327546
 30
0.0
 40
5.0
100
AcDbArc
 50
204.6243183520723
 51
335.3756816479278
  0
ARC
  5
18C90
330
18C7A
100
AcDbEntity
  8
細線
 48
50.0
100
AcDbCircle
 10
2429.925520044106
 20
1371.765132327546
 30
0.0
 40
1.0
100
AcDbArc
 50
90.0
 51
155.3756816479277
  0
ARC
  5
18C91
330
18C7A
100
AcDbEntity
  8
細線
 48
50.0
100
AcDbCircle
 10
2419.016807929469
 20
1371.765132327546
 30
0.0
 40
1.0
100
AcDbArc
 50
24.62431835207225
 51
90.0
  0
LINE
  5
18C92
330
18C7A
100
AcDbEntity
  8
細線
 48
50.0
100
AcDbLine
 10
2408.088359449037
 20
1372.765132327548
 30
0.0
 11
2419.016807929469
 21
1372.765132327546
 31
0.0
  0
LINE
  5
18C93
330
18C7A
100
AcDbEntity
  8
細線
 48
50.0
100
AcDbLine
 10
2402.33284186637
 20
1354.494281037054
 30
0.0
 11
2408.088359449037
 21
1372.765132327548
 31
0.0
  0
LINE
  5
18C94
330
18C7A
100
AcDbEntity
  8
細線
100
AcDbLine
 10
2458.070304175992
 20
1354.494278397076
 30
0.0
 11
2460.401843697802
 21
1359.494281037039
 31
0.0
  0
LINE
  5
18C95
330
18C7A
100
AcDbEntity
  8
細線
100
AcDbLine
 10
2528.070313592451
 20
1354.494263483342
 30
0.0
 11
2525.738767116262
 21
1359.494281037021
 31
0.0
  0
LINE
  5
18C96
330
18C7A
100
AcDbEntity
  8
細線
100
AcDbLine
 10
2525.738767116262
 20
1359.494281037021
 30
0.0
 11
2460.40184369779
 21
1359.49428103701
 31
0.0
  0
LINE
  5
18C97
330
18C7A
100
AcDbEntity
  8
細線
100
AcDbLine
 10
2387.139046332155
 20
1359.494281037021
 30
0.0
 11
2321.80212291368
 21
1359.49428103701
 31
0.0
  0
LINE
  5
18C98
330
18C7A
100
AcDbEntity
  8
細線
100
AcDbLine
 10
2389.470592808342
 20
1354.494263483342
 30
0.0
 11
2387.139046332153
 21
1359.494281037021
 31
0.0
  0
LINE
  5
18C99
330
18C7A
100
AcDbEntity
  8
細線
100
AcDbLine
 10
2319.470584622926
 20
1354.494281037054
 30
0.0
 11
2321.802122913694
 21
1359.494281037039
 31
0.0
  0
LINE
  5
18C9A
330
18C7A
100
AcDbEntity
  8
細線
100
AcDbLine
 10
2179.47061994182
 20
1354.494289224422
 30
0.0
 11
2181.802158232587
 21
1359.494289224407
 31
0.0
  0
LINE
  5
18C9B
330
18C7A
100
AcDbEntity
  8
細線
100
AcDbLine
 10
2249.470628127236
 20
1354.49427167071
 30
0.0
 11
2247.139081651047
 21
1359.494289224389
 31
0.0
  0
LINE
  5
18C9C
330
18C7A
100
AcDbEntity
  8
細線
100
AcDbLine
 10
2247.139081651047
 20
1359.494289224389
 30
0.0
 11
2181.802158232573
 21
1359.494289224378
 31
0.0
  0
LINE
  5
18C9D
330
18C7A
100
AcDbEntity
  8
細線
100
AcDbLine
 10
1807.970585744697
 20
1320.494460905133
 30
0.0
 11
1810.302124035464
 21
1325.494460905118
 31
0.0
  0
LINE
  5
18C9E
330
18C7A
100
AcDbEntity
  8
細線
100
AcDbLine
 10
1877.970593930113
 20
1320.494443351421
 30
0.0
 11
1875.639047453926
 21
1325.4944609051
 31
0.0
  0
LINE
  5
18C9F
330
18C7A
100
AcDbEntity
  8
細線
100
AcDbLine
 10
1875.639047453926
 20
1325.4944609051
 30
0.0
 11
1810.302124035452
 21
1325.494460905089
 31
0.0
  0
LINE
  5
18CA0
330
18C7A
100
AcDbEntity
  8
細線
100
AcDbLine
 10
2015.639047453926
 20
1325.4944609051
 30
0.0
 11
1950.302124035452
 21
1325.494460905089
 31
0.0
  0
LINE
  5
18CA1
330
18C7A
100
AcDbEntity
  8
細線
100
AcDbLine
 10
2017.970593930113
 20
1320.494443351421
 30
0.0
 11
2015.639047453924
 21
1325.4944609051
 31
0.0
  0
LINE
  5
18CA2
330
18C7A
100
AcDbEntity
  8
細線
100
AcDbLine
 10
1947.970585744697
 20
1320.494460905133
 30
0.0
 11
1950.302124035465
 21
1325.494460905118
 31
0.0
  0
LINE
  5
18CA3
330
18C7A
100
AcDbEntity
  8
細線
100
AcDbLine
 10
1735.639047453926
 20
1325.494460905098
 30
0.0
 11
1670.302124035454
 21
1325.494460905087
 31
0.0
  0
LINE
  5
18CA4
330
18C7A
100
AcDbEntity
  8
細線
100
AcDbLine
 10
1737.970593930113
 20
1320.494443351419
 30
0.0
 11
1735.639047453926
 21
1325.494460905098
 31
0.0
  0
LINE
  5
18CA5
330
18C7A
100
AcDbEntity
  8
細線
100
AcDbLine
 10
1667.970585744697
 20
1320.494460905131
 30
0.0
 11
1670.302124035465
 21
1325.494460905116
 31
0.0
  0
LINE
  5
18CA6
330
18C7A
100
AcDbEntity
  8
細線
100
AcDbLine
 10
1527.970593930113
 20
1320.494460905133
 30
0.0
 11
1530.302132220881
 21
1325.494460905118
 31
0.0
  0
LINE
  5
18CA7
330
18C7A
100
AcDbEntity
  8
細線
100
AcDbLine
 10
1597.970602115529
 20
1320.494443351421
 30
0.0
 11
1595.639055639342
 21
1325.4944609051
 31
0.0
  0
LINE
  5
18CA8
330
18C7A
100
AcDbEntity
  8
細線
100
AcDbLine
 10
1595.639055639342
 20
1325.4944609051
 30
0.0
 11
1530.302132220869
 21
1325.494460905089
 31
0.0
  0
ARC
  5
18CA9
330
18C7A
100
AcDbEntity
  8
部品1
 48
0.01
100
AcDbCircle
 10
1483.470482677778
 20
1319.493338720063
 30
0.0
 40
0.5
100
AcDbArc
 50
270.0
 51
0.0
  0
LINE
  5
18CAA
330
18C7A
100
AcDbEntity
  8
部品1
 48
0.01
100
AcDbLine
 10
1483.970482677778
 20
1320.493338720063
 30
0.0
 11
1483.970482677778
 21
1319.493338720063
 31
0.0
  0
LINE
  5
18CAB
330
18C7A
100
AcDbEntity
  8
部品1
 48
0.01
100
AcDbLine
 10
1483.970482677778
 20
1320.493338720063
 30
0.0
 11
1483.970482677778
 21
1319.493338720063
 31
0.0
  0
LINE
  5
18CAC
330
18C7A
100
AcDbEntity
  8
部品1
 48
0.01
100
AcDbLine
 10
1483.470482677778
 20
1318.993338720063
 30
0.0
 11
1476.857977247713
 21
1318.993338720062
 31
0.0
  0
ARC
  5
18CAD
330
18C7A
100
AcDbEntity
  8
部品1
100
AcDbCircle
 10
1476.926326800494
 20
1319.993338720062
 30
0.0
 40
1.0
100
AcDbArc
 50
160.5287793655865
 51
270.0
  0
ARC
  5
18CAE
330
18C7A
100
AcDbEntity
  8
部品1
100
AcDbCircle
 10
1451.470482677778
 20
1328.993338720062
 30
0.0
 40
26.0
100
AcDbArc
 50
340.5287793655865
 51
0.0
  0
LINE
  5
18CAF
330
18C7A
100
AcDbEntity
  8
部品1
100
AcDbLine
 10
1477.470482677778
 20
1328.993338720062
 30
0.0
 11
1477.470482677778
 21
1333.993338720061
 31
0.0
  0
ARC
  5
18CB0
330
18C7A
100
AcDbEntity
  8
部品1
 48
0.01
100
AcDbCircle
 10
1475.470482677778
 20
1333.993338720061
 30
0.0
 40
2.0
100
AcDbArc
 50
0.0
 51
90.0
  0
ARC
  5
18CB1
330
18C7A
100
AcDbEntity
  8
部品1
100
AcDbCircle
 10
1473.862091052968
 20
1332.993338720062
 30
0.0
 40
3.0
100
AcDbArc
 50
90.0
 51
141.6069559808035
  0
LINE
  5
18CB2
330
18C7A
100
AcDbEntity
  8
部品1
 48
0.01
100
AcDbLine
 10
1475.470482677778
 20
1335.993338720062
 30
0.0
 11
1473.862091052968
 21
1335.993338720062
 31
0.0
  0
ARC
  5
18CB3
330
18C7A
100
AcDbEntity
  8
部品1
100
AcDbCircle
 10
1455.399768463507
 20
1332.293338720065
 30
0.0
 40
3.0
100
AcDbArc
 50
254.0576313943215
 51
270.0
  0
ARC
  5
18CB4
330
18C7A
100
AcDbEntity
  8
部品1
100
AcDbCircle
 10
1462.541196892049
 20
1332.293338720065
 30
0.0
 40
3.0
100
AcDbArc
 50
270.0
 51
285.9423686056786
  0
LINE
  5
18CB5
330
18C7A
100
AcDbEntity
  8
部品1
100
AcDbLine
 10
1462.541196892049
 20
1329.293338720064
 30
0.0
 11
1455.399768463507
 21
1329.293338720064
 31
0.0
  0
ARC
  5
18CB6
330
18C7A
100
AcDbEntity
  8
部品1
100
AcDbCircle
 10
1458.970482677778
 20
1344.793338720065
 30
0.0
 40
16.0
100
AcDbArc
 50
285.9423686056786
 51
321.6069559808035
  0
LINE
  5
18CB7
330
18C7A
100
AcDbEntity
  8
部品1
 48
0.01
100
AcDbLine
 10
1442.470482677778
 20
1335.993338720062
 30
0.0
 11
1444.078874302588
 21
1335.993338720062
 31
0.0
  0
ARC
  5
18CB8
330
18C7A
100
AcDbEntity
  8
部品1
100
AcDbCircle
 10
1444.078874302588
 20
1332.993338720062
 30
0.0
 40
3.0
100
AcDbArc
 50
38.39304401919648
 51
90.0
  0
ARC
  5
18CB9
330
18C7A
100
AcDbEntity
  8
部品1
100
AcDbCircle
 10
1458.970482677778
 20
1344.793338720065
 30
0.0
 40
16.0
100
AcDbArc
 50
218.3930440191965
 51
254.0576313943215
  0
LINE
  5
18CBA
330
18C7A
100
AcDbEntity
  8
部品1
100
AcDbLine
 10
1440.470482677778
 20
1328.993338720062
 30
0.0
 11
1440.470482677778
 21
1333.993338720061
 31
0.0
  0
ARC
  5
18CBB
330
18C7A
100
AcDbEntity
  8
部品1
 48
0.01
100
AcDbCircle
 10
1442.470482677778
 20
1333.993338720061
 30
0.0
 40
2.0
100
AcDbArc
 50
90.0
 51
180.0
  0
ARC
  5
18CBC
330
18C7A
100
AcDbEntity
  8
部品1
100
AcDbCircle
 10
1466.470482677778
 20
1328.993338720062
 30
0.0
 40
26.0
100
AcDbArc
 50
180.0
 51
199.4712206344134
  0
ARC
  5
18CBD
330
18C7A
100
AcDbEntity
  8
部品1
 48
0.01
100
AcDbCircle
 10
1434.470482677778
 20
1319.493338720063
 30
0.0
 40
0.5
100
AcDbArc
 50
180.0
 51
270.0
  0
LINE
  5
18CBE
330
18C7A
100
AcDbEntity
  8
部品1
 48
0.01
100
AcDbLine
 10
1434.470482677778
 20
1318.993338720063
 30
0.0
 11
1441.014638555061
 21
1318.993338720062
 31
0.0
  0
LINE
  5
18CBF
330
18C7A
100
AcDbEntity
  8
部品1
 48
0.01
100
AcDbLine
 10
1433.970482677778
 20
1320.493338720063
 30
0.0
 11
1433.970482677778
 21
1319.493338720063
 31
0.0
  0
ARC
  5
18CC0
330
18C7A
100
AcDbEntity
  8
部品1
100
AcDbCircle
 10
1441.014638555061
 20
1319.993338720062
 30
0.0
 40
1.0
100
AcDbArc
 50
270.0
 51
19.47122063441346
  0
LINE
  5
18CC1
330
18C7A
100
AcDbEntity
  8
細線
100
AcDbLine
 10
1479.470482677785
 20
1338.493338720065
 30
0.0
 11
1438.470482677785
 21
1338.493338720058
 31
0.0
  0
LINE
  5
18CC2
330
18C7A
100
AcDbEntity
  8
細線
100
AcDbLine
 10
1438.470482677785
 20
1338.493338720058
 30
0.0
 11
1438.470482677785
 21
1320.49333872004
 31
0.0
  0
LINE
  5
18CC3
330
18C7A
100
AcDbEntity
  8
細線
100
AcDbLine
 10
1479.470482677785
 20
1338.493338720065
 30
0.0
 11
1479.470482677785
 21
1320.49333872004
 31
0.0
  0
LINE
  5
18CC4
330
18C7A
100
AcDbEntity
  8
細線
100
AcDbLine
 10
1322.970589276523
 20
1324.494269174465
 30
0.0
 11
1322.970589276523
 21
1320.494269174513
 31
0.0
  0
LINE
  5
18CC5
330
18C7A
100
AcDbEntity
  8
寸法
 48
50.0
100
AcDbLine
 10
1746.17359555837
 20
1170.531020743327
 30
0.0
 11
1694.767587648266
 21
1170.531020743327
 31
0.0
  0
LINE
  5
18CC6
330
18C7A
100
AcDbEntity
  8
寸法
 48
50.0
100
AcDbLine
 10
1694.767587648266
 20
1170.531020743327
 30
0.0
 11
1694.767587648266
 21
1201.841179395494
 31
0.0
  0
LINE
  5
18CC7
330
18C7A
100
AcDbEntity
  8
寸法
 48
50.0
100
AcDbLine
 10
1694.767587648266
 20
1201.841179395494
 30
0.0
 11
1665.006255656843
 21
1201.841179395494
 31
0.0
  0
LINE
  5
18CC8
330
18C7A
100
AcDbEntity
  8
寸法
 48
50.0
100
AcDbLine
 10
1665.006255656843
 20
1201.841179395494
 30
0.0
 11
1720.470591603318
 21
1239.420630324105
 31
0.0
  0
LINE
  5
18CC9
330
18C7A
100
AcDbEntity
  8
寸法
 48
50.0
100
AcDbLine
 10
1775.934927549793
 20
1201.841179395494
 30
0.0
 11
1720.470591603318
 21
1239.420630324105
 31
0.0
  0
LINE
  5
18CCA
330
18C7A
100
AcDbEntity
  8
寸法
 48
50.0
100
AcDbLine
 10
1746.17359555837
 20
1201.841179395494
 30
0.0
 11
1775.934927549793
 21
1201.841179395494
 31
0.0
  0
LINE
  5
18CCB
330
18C7A
100
AcDbEntity
  8
寸法
 48
50.0
100
AcDbLine
 10
1746.17359555837
 20
1170.531020743327
 30
0.0
 11
1746.17359555837
 21
1201.841179395494
 31
0.0
  0
LINE
  5
18CCC
330
18C7A
100
AcDbEntity
  8
寸法
 48
50.0
100
AcDbLine
 10
1694.767587648266
 20
1170.531020743327
 30
0.0
 11
1746.17359555837
 21
1170.531020743327
 31
0.0
  0
LINE
  5
18CCD
330
18C7A
100
AcDbEntity
  8
寸法
 48
50.0
100
AcDbLine
 10
2025.339129835225
 20
1227.676611498152
 30
0.0
 11
2025.339129835225
 21
1174.01297691636
 31
0.0
  0
LINE
  5
18CCE
330
18C7A
100
AcDbEntity
  8
寸法
 48
50.0
100
AcDbLine
 10
2114.623348430647
 20
1203.752977228664
 30
0.0
 11
2025.339129835225
 21
1227.676611498152
 31
0.0
  0
LINE
  5
18CCF
330
18C7A
100
AcDbEntity
  8
寸法
 48
50.0
100
AcDbLine
 10
1895.471408254923
 20
1203.752977228664
 30
0.0
 11
2114.623348430647
 21
1203.752977228664
 31
0.0
  0
DIMENSION
  5
18CD0
330
18C7A
100
AcDbEntity
  8
寸法
 48
50.0
100
AcDbDimension
  2
*D15
 10
2588.970589276523
 20
706.3240511224249
 30
0.0
 11
1969.060022905491
 21
706.3240511224249
 31
0.0
 12
-3742.925985830444
 22
-6453.628869860112
 32
0.0
 70
   128
  1
有効開口部間口\P<>
 71
     5
 42
1266.0
  3
INABA_S40G
100
AcDbAlignedDimension
 13
1322.970589276523
 23
1315.494269174465
 33
0.0
 14
2588.970589276523
 24
1315.494269174465
 34
0.0
100
AcDbRotatedDimension
1001
ACAD
1000
DSTYLE
1002
{
1070
   341
1005
0
1002
}
  0
LINE
  5
18CD1
330
18C7A
100
AcDbEntity
  8
部品1
100
AcDbLine
 10
3409.970589276524
 20
1392.494269174465
 30
0.0
 11
3437.970589276523
 21
1392.494269174465
 31
0.0
  0
DIMENSION
  5
18CD2
330
18C7A
100
AcDbEntity
  8
寸法
100
AcDbDimension
  2
*D16
 10
3674.266172669749
 20
1315.494269174465
 30
0.0
 11
3674.266172669748
 21
1177.494269174462
 31
0.0
 12
-3742.925985830444
 22
-6453.628869860112
 32
0.0
 70
   128
 71
     5
 42
77.0
  3
INABA_S40
100
AcDbAlignedDimension
 13
3437.970589276523
 23
1392.494269174465
 33
0.0
 14
3436.970589276523
 24
1315.494269174465
 34
0.0
 50
90.0
100
AcDbRotatedDimension
1001
ACAD
1000
DSTYLE
1002
{
1070
    41
1040
0.5
1070
    44
1040
1.0
1070
   147
1040
0.8
1070
   271
1070
     2
1070
   272
1070
     2
1070
   289
1070
     3
1070
   340
1005
F706
1070
   343
1005
164B4
1070
   344
1005
164B4
1002
}
  0
LINE
  5
18CD3
330
18C7A
100
AcDbEntity
  8
部品1
100
AcDbLine
 10
3437.970589276523
 20
1315.494269174465
 30
0.0
 11
3437.970589276523
 21
1392.494269174465
 31
0.0
  0
LINE
  5
18CD4
330
18C7A
100
AcDbEntity
  8
部品1
100
AcDbLine
 10
3398.970589276523
 20
1388.494269174465
 30
0.0
 11
3409.970589276524
 21
1388.494269174465
 31
0.0
  0
LINE
  5
18CD5
330
18C7A
100
AcDbEntity
  8
部品1
100
AcDbLine
 10
3407.970589276523
 20
1324.494269174465
 30
0.0
 11
3407.970589276523
 21
1315.494269174465
 31
0.0
  0
LINE
  5
18CD6
330
18C7A
100
AcDbEntity
  8
部品1
100
AcDbLine
 10
3398.970589276523
 20
1324.494269174465
 30
0.0
 11
3407.970589276523
 21
1324.494269174465
 31
0.0
  0
LINE
  5
18CD7
330
18C7A
100
AcDbEntity
  8
部品1
100
AcDbLine
 10
3398.970589276523
 20
1388.494269174465
 30
0.0
 11
3398.970589276523
 21
1324.494269174465
 31
0.0
  0
LINE
  5
18CD8
330
18C7A
100
AcDbEntity
  8
部品1
100
AcDbLine
 10
3409.970589276524
 20
1419.494269174465
 30
0.0
 11
3409.970589276524
 21
1388.494269174465
 31
0.0
  0
LINE
  5
18CD9
330
18C7A
100
AcDbEntity
  8
部品1
100
AcDbLine
 10
1322.970589276523
 20
1388.494269174465
 30
0.0
 11
1311.970589276523
 21
1388.494269174465
 31
0.0
  0
LINE
  5
18CDA
330
18C7A
100
AcDbEntity
  8
部品1
100
AcDbLine
 10
1283.970589276523
 20
1392.494269174465
 30
0.0
 11
1311.970589276523
 21
1392.494269174465
 31
0.0
  0
LINE
  5
18CDB
330
18C7A
100
AcDbEntity
  8
部品1
100
AcDbLine
 10
1313.970589276523
 20
1324.494269174465
 30
0.0
 11
1313.970589276523
 21
1315.494269174465
 31
0.0
  0
LINE
  5
18CDC
330
18C7A
100
AcDbEntity
  8
部品1
100
AcDbLine
 10
1322.970589276523
 20
1324.494269174465
 30
0.0
 11
1313.970589276523
 21
1324.494269174465
 31
0.0
  0
LINE
  5
18CDD
330
18C7A
100
AcDbEntity
  8
部品1
100
AcDbLine
 10
1313.970589276523
 20
1315.494269174465
 30
0.0
 11
1283.970589276523
 21
1315.494269174465
 31
0.0
  0
LINE
  5
18CDE
330
18C7A
100
AcDbEntity
  8
部品1
100
AcDbLine
 10
1283.970589276523
 20
1315.494269174465
 30
0.0
 11
1283.970589276523
 21
1392.494269174465
 31
0.0
  0
LINE
  5
18CDF
330
18C7A
100
AcDbEntity
  8
部品1
100
AcDbLine
 10
1322.970589276523
 20
1388.494269174465
 30
0.0
 11
1322.970589276523
 21
1324.494269174465
 31
0.0
  0
LINE
  5
18CE0
330
18C7A
100
AcDbEntity
  8
部品1
100
AcDbLine
 10
1311.970589276523
 20
1419.494269174462
 30
0.0
 11
1311.970589276523
 21
1388.494269174465
 31
0.0
  0
LINE
  5
18CE1
330
18C7A
100
AcDbEntity
  8
部品1
100
AcDbLine
 10
1311.970589276523
 20
1419.494269174462
 30
0.0
 11
3409.970589276524
 21
1419.494269174465
 31
0.0
  0
LINE
  5
18CE2
330
18C7A
100
AcDbEntity
  8
部品1
100
AcDbLine
 10
3407.970589276523
 20
1315.494269174465
 30
0.0
 11
3437.970589276523
 21
1315.494269174465
 31
0.0
  0
LINE
  5
18CE3
330
18C7A
100
AcDbEntity
  8
部品1
100
AcDbLine
 10
1313.970589276523
 20
1315.494269174465
 30
0.0
 11
3410.970589276523
 21
1315.494269174465
 31
0.0
  0
LINE
  5
18CE4
330
18C7A
100
AcDbEntity
  8
細線
  6
Continuous
 62
     5
100
AcDbLine
 10
2689.970589276527
 20
1354.494269174462
 30
0.0
 11
2689.970589276527
 21
1354.494269174462
 31
0.0
  0
LINE
  5
18CE5
330
18C7A
100
AcDbEntity
  8
細線
  6
Continuous
 62
     5
100
AcDbLine
 10
2682.470589276527
 20
1354.494269174462
 30
0.0
 11
2682.470589276527
 21
1354.494269174462
 31
0.0
  0
LINE
  5
18CE6
330
18C7A
100
AcDbEntity
  8
細線
  6
Continuous
 62
     5
100
AcDbLine
 10
2676.470589276527
 20
1354.494269174462
 30
0.0
 11
2676.470589276527
 21
1354.494269174462
 31
0.0
  0
LINE
  5
18CE7
330
18C7A
100
AcDbEntity
  8
細線
  6
Continuous
 62
     5
100
AcDbLine
 10
2743.970589276527
 20
1373.494269174462
 30
0.0
 11
2743.970589276527
 21
1373.494269174462
 31
0.0
  0
LINE
  5
18CE8
330
18C7A
100
AcDbEntity
  8
細線
 48
50.0
100
AcDbLine
 10
1336.970593930116
 20
1341.094443351418
 30
0.0
 11
1336.970593930113
 21
1349.490593759059
 31
0.0
  0
LINE
  5
18CE9
330
18C7A
100
AcDbEntity
  8
細線
 48
50.0
100
AcDbLine
 10
1336.970593930113
 20
1349.490593759059
 30
0.0
 11
1322.970589276523
 21
1349.490593759057
 31
0.0
  0
LINE
  5
18CEA
330
18C7A
100
AcDbEntity
  8
細線
 48
50.0
100
AcDbLine
 10
2087.970593930113
 20
1337.644443351419
 30
0.0
 11
2087.970593930113
 21
1342.494443351421
 31
0.0
  0
LINE
  5
18CEB
330
18C7A
100
AcDbEntity
  8
細線
 48
50.0
100
AcDbLine
 10
2087.970593930113
 20
1342.494443351421
 30
0.0
 11
2102.970593930113
 21
1342.494443351421
 31
0.0
  0
LINE
  5
18CEC
330
18C7A
100
AcDbEntity
  8
細線
 48
50.0
100
AcDbLine
 10
2102.970593930113
 20
1342.494443351421
 30
0.0
 11
2102.970593930115
 21
1349.494443351419
 31
0.0
  0
LINE
  5
18CED
330
18C7A
100
AcDbEntity
  8
細線
 48
50.0
100
AcDbLine
 10
2102.970593930115
 20
1349.494443351419
 30
0.0
 11
2117.970593930113
 21
1349.494443351419
 31
0.0
  0
LINE
  5
18CEE
330
18C7A
100
AcDbEntity
  8
細線
 48
50.0
100
AcDbLine
 10
2117.970593930113
 20
1349.494443351419
 30
0.0
 11
2117.970593930113
 21
1320.494443351421
 31
0.0
  0
LINE
  5
18CEF
330
18C7A
100
AcDbEntity
  8
細線
 48
50.0
100
AcDbLine
 10
1313.970589276523
 20
1320.491777694889
 30
0.0
 11
1527.970593930113
 21
1320.494460905133
 31
0.0
  0
LINE
  5
18CF0
330
18C7A
100
AcDbEntity
  8
細線
 48
50.0
100
AcDbLine
 10
2017.970593930113
 20
1320.494443351421
 30
0.0
 11
2117.970593930113
 21
1320.494443351421
 31
0.0
  0
LINE
  5
18CF1
330
18C7A
100
AcDbEntity
  8
細線
 48
50.0
100
AcDbLine
 10
1737.970593930113
 20
1320.494443351419
 30
0.0
 11
1807.970593930113
 21
1320.494443351423
 31
0.0
  0
LINE
  5
18CF2
330
18C7A
100
AcDbEntity
  8
細線
 48
50.0
100
AcDbLine
 10
1750.832558942642
 20
1320.494443351419
 30
0.0
 11
1756.588076525309
 21
1338.765294641913
 31
0.0
  0
LINE
  5
18CF3
330
18C7A
100
AcDbEntity
  8
細線
 48
50.0
100
AcDbLine
 10
1756.588076525309
 20
1338.765294641913
 30
0.0
 11
1767.516525005743
 21
1338.765294641911
 31
0.0
  0
ARC
  5
18CF4
330
18C7A
100
AcDbEntity
  8
細線
 48
50.0
100
AcDbCircle
 10
1767.516525005743
 20
1337.765294641911
 30
0.0
 40
1.0
100
AcDbArc
 50
24.62431835207225
 51
90.0
  0
ARC
  5
18CF5
330
18C7A
100
AcDbEntity
  8
細線
 48
50.0
100
AcDbCircle
 10
1778.425237120377
 20
1337.765294641911
 30
0.0
 40
1.0
100
AcDbArc
 50
90.0
 51
155.3756816479277
  0
ARC
  5
18CF6
330
18C7A
100
AcDbEntity
  8
細線
 48
50.0
100
AcDbCircle
 10
1772.970881063058
 20
1340.265294641911
 30
0.0
 40
5.0
100
AcDbArc
 50
204.6243183520723
 51
335.3756816479278
  0
LINE
  5
18CF7
330
18C7A
100
AcDbEntity
  8
細線
 48
50.0
100
AcDbLine
 10
1778.425237120377
 20
1338.765294641911
 30
0.0
 11
1789.35368560081
 21
1338.765294641913
 31
0.0
  0
LINE
  5
18CF8
330
18C7A
100
AcDbEntity
  8
細線
 48
50.0
100
AcDbLine
 10
1789.35368560081
 20
1338.765294641913
 30
0.0
 11
1795.109203183478
 21
1320.494443351423
 31
0.0
  0
LINE
  5
18CF9
330
18C7A
100
AcDbEntity
  8
細線
 48
50.0
100
AcDbLine
 10
2087.970593930113
 20
1341.094443351419
 30
0.0
 11
1336.970593930116
 21
1341.094443351418
 31
0.0
  0
LINE
  5
18CFA
330
18C7A
100
AcDbEntity
  8
細線
 48
50.0
100
AcDbLine
 10
1947.970593930113
 20
1320.494443351421
 30
0.0
 11
1877.970593930113
 21
1320.494443351421
 31
0.0
  0
LINE
  5
18CFB
330
18C7A
100
AcDbEntity
  8
細線
100
AcDbLine
 10
1667.970593930113
 20
1320.494443351421
 30
0.0
 11
1597.970602115529
 21
1320.494443351421
 31
0.0
  0
LINE
  5
18CFC
330
18C7A
100
AcDbEntity
  8
細線
 48
50.0
100
AcDbLine
 10
2741.970584622936
 20
1375.094487209288
 30
0.0
 11
2106.970593930113
 21
1375.094487209284
 31
0.0
  0
LINE
  5
18CFD
330
18C7A
100
AcDbEntity
  8
細線
 48
50.0
100
AcDbLine
 10
2106.970593930113
 20
1371.990637616925
 30
0.0
 11
2106.970593930113
 21
1376.490637616925
 31
0.0
  0
LINE
  5
18CFE
330
18C7A
100
AcDbEntity
  8
細線
 48
50.0
100
AcDbLine
 10
2106.970593930113
 20
1376.490637616925
 30
0.0
 11
2091.970593930113
 21
1376.490637616925
 31
0.0
  0
LINE
  5
18CFF
330
18C7A
100
AcDbEntity
  8
細線
 48
50.0
100
AcDbLine
 10
2091.970593930113
 20
1376.490637616925
 30
0.0
 11
2091.970593930113
 21
1383.490637616927
 31
0.0
  0
LINE
  5
18D00
330
18C7A
100
AcDbEntity
  8
細線
 48
50.0
100
AcDbLine
 10
2091.970593930113
 20
1383.490637616927
 30
0.0
 11
2076.970593930115
 21
1383.490637616924
 31
0.0
  0
LINE
  5
18D01
330
18C7A
100
AcDbEntity
  8
細線
 48
50.0
100
AcDbLine
 10
2076.970593930115
 20
1383.490637616924
 30
0.0
 11
2076.970593930115
 21
1345.890409513813
 31
0.0
  0
LINE
  5
18D02
330
18C7A
100
AcDbEntity
  8
細線
 48
50.0
100
AcDbLine
 10
2076.970593930115
 20
1345.890409513813
 30
0.0
 11
2096.970601231289
 21
1345.890451063353
 31
0.0
  0
LINE
  5
18D03
330
18C7A
100
AcDbEntity
  8
細線
 48
50.0
100
AcDbLine
 10
2096.970556362348
 20
1354.493912699161
 30
0.0
 11
2096.970601231289
 21
1345.890451063353
 31
0.0
  0
LINE
  5
18D04
330
18C7A
100
AcDbEntity
  8
細線
 48
50.0
100
AcDbLine
 10
2741.970584622936
 20
1371.644487209287
 30
0.0
 11
2741.970584622936
 21
1376.494487209284
 31
0.0
  0
LINE
  5
18D05
330
18C7A
100
AcDbEntity
  8
細線
 48
50.0
100
AcDbLine
 10
2741.970584622936
 20
1376.494487209284
 30
0.0
 11
2756.970584622934
 21
1376.494487209285
 31
0.0
  0
LINE
  5
18D06
330
18C7A
100
AcDbEntity
  8
細線
 48
50.0
100
AcDbLine
 10
2756.970584622934
 20
1376.494487209285
 30
0.0
 11
2756.970596256909
 21
1383.494487209331
 31
0.0
  0
LINE
  5
18D07
330
18C7A
100
AcDbEntity
  8
細線
 48
50.0
100
AcDbLine
 10
2756.970596256909
 20
1383.494487209331
 30
0.0
 11
2771.970594427439
 21
1383.494487209329
 31
0.0
  0
LINE
  5
18D08
330
18C7A
100
AcDbEntity
  8
細線
 48
50.0
100
AcDbLine
 10
2771.970594427439
 20
1383.494487209329
 30
0.0
 11
2771.970584125617
 21
1354.494281037055
 31
0.0
  0
LINE
  5
18D09
330
18C7A
100
AcDbEntity
  8
細線
 48
50.0
100
AcDbLine
 10
2458.070304175992
 20
1354.494278397076
 30
0.0
 11
2389.470863838818
 21
1354.494283787084
 31
0.0
  0
LINE
  5
18D0A
330
18C7A
100
AcDbEntity
  8
細線
 48
50.0
100
AcDbLine
 10
2096.970556362348
 20
1354.493912699161
 30
0.0
 11
2108.203245717057
 21
1354.494095652309
 31
0.0
  0
ARC
  5
18D0B
330
18C7A
100
AcDbEntity
  8
細線
 48
50.0
100
AcDbCircle
 10
2114.785538024393
 20
1353.294259565922
 30
0.0
 40
1.8
100
AcDbArc
 50
270.0006665777295
 51
345.000555481349
  0
LINE
  5
18D0C
330
18C7A
100
AcDbEntity
  8
細線
 48
50.0
100
AcDbLine
 10
2116.771971470473
 20
1353.753100023201
 30
0.0
 11
2116.524209028273
 21
1352.828402141094
 31
0.0
  0
LINE
  5
18D0D
330
18C7A
100
AcDbEntity
  8
細線
 48
50.0
100
AcDbLine
 10
2114.785558965548
 20
1351.494259566043
 30
0.0
 11
2111.155631546781
 21
1351.494217335563
 31
0.0
  0
ARC
  5
18D0E
330
18C7A
100
AcDbEntity
  8
細線
 48
50.0
100
AcDbCircle
 10
2111.155610605627
 20
1353.29421733544
 30
0.0
 40
1.8
100
AcDbArc
 50
195.0010443049965
 51
270.0006665777295
  0
LINE
  5
18D0F
330
18C7A
100
AcDbEntity
  8
細線
 48
50.0
100
AcDbLine
 10
2109.169183113368
 20
1353.752932303007
 30
0.0
 11
2109.416952609882
 21
1352.828311364425
 31
0.0
  0
ARC
  5
18D10
330
18C7A
100
AcDbEntity
  8
細線
 48
50.0
100
AcDbCircle
 10
2108.203262004622
 20
1353.494095652444
 30
0.0
 40
1.0
100
AcDbArc
 50
15.00104430499651
 51
90.00093320877969
  0
LINE
  5
18D11
330
18C7A
100
AcDbEntity
  8
細線
 48
50.0
100
AcDbLine
 10
2117.737892825577
 20
1354.494290342714
 30
0.0
 11
2118.679652976481
 21
1354.494296916564
 31
0.0
  0
ARC
  5
18D12
330
18C7A
100
AcDbEntity
  8
細線
 48
50.0
100
AcDbCircle
 10
2117.737899805961
 20
1353.49429034274
 30
0.0
 40
1.0
100
AcDbArc
 50
90.0003999466794
 51
165.000555481349
  0
LINE
  5
18D13
330
18C7A
100
AcDbEntity
  8
細線
 48
50.0
100
AcDbLine
 10
2669.470584622926
 20
1354.494281037055
 30
0.0
 11
2771.970584125617
 21
1354.494281037055
 31
0.0
  0
LINE
  5
18D14
330
18C7A
100
AcDbEntity
  8
細線
 48
50.0
100
AcDbLine
 10
2179.47061994182
 20
1354.494289224422
 30
0.0
 11
2118.370558714898
 21
1354.494296916564
 31
0.0
  0
LINE
  5
18D15
330
18C7A
100
AcDbEntity
  8
細線
 48
50.0
100
AcDbLine
 10
2599.470584622926
 20
1354.494281037057
 30
0.0
 11
2529.470584622926
 21
1354.494281037055
 31
0.0
  0
LINE
  5
18D16
330
18C7A
100
AcDbEntity
  8
細線
 48
50.0
100
AcDbLine
 10
2319.470584622926
 20
1354.494281037054
 30
0.0
 11
2249.470567335051
 21
1354.494281037057
 31
0.0
  0
ARC
  5
18D17
330
18C7A
100
AcDbEntity
  8
細線
 48
50.0
100
AcDbCircle
 10
2756.170589276533
 20
1387.694269174466
 30
0.0
 40
0.8
100
AcDbArc
 50
359.9997333689499
 51
89.99986668437072
  0
ARC
  5
18D18
330
18C7A
100
AcDbEntity
  8
細線
 48
50.0
100
AcDbCircle
 10
2763.770596101631
 20
1387.694280343081
 30
0.0
 40
0.8
100
AcDbArc
 50
90.00014387753465
 51
179.9997333689498
  0
LINE
  5
18D19
330
18C7A
100
AcDbEntity
  8
細線
 48
50.0
100
AcDbLine
 10
2756.170591137969
 20
1388.494269174465
 30
0.0
 11
2750.970589276525
 21
1388.494269174465
 31
0.0
  0
ARC
  5
18D1A
330
18C7A
100
AcDbEntity
  8
細線
 48
50.0
100
AcDbCircle
 10
2757.670589276524
 20
1386.194269174464
 30
0.0
 40
0.7
100
AcDbArc
 50
180.0
 51
270.0
  0
ARC
  5
18D1B
330
18C7A
100
AcDbEntity
  8
細線
 48
50.0
100
AcDbCircle
 10
2762.270589276524
 20
1386.194269174464
 30
0.0
 40
0.7
100
AcDbArc
 50
270.0
 51
0.0
  0
LINE
  5
18D1C
330
18C7A
100
AcDbEntity
  8
細線
 48
50.0
100
AcDbLine
 10
2762.970589276525
 20
1386.194269174464
 30
0.0
 11
2762.970596101639
 21
1387.694284065954
 31
0.0
  0
LINE
  5
18D1D
330
18C7A
100
AcDbEntity
  8
細線
 48
50.0
100
AcDbLine
 10
2757.670589276524
 20
1385.494269174465
 30
0.0
 11
2762.270589276524
 21
1385.494269174465
 31
0.0
  0
LINE
  5
18D1E
330
18C7A
100
AcDbEntity
  8
細線
 48
50.0
100
AcDbLine
 10
2756.970589276525
 20
1387.694269174466
 30
0.0
 11
2756.970589276525
 21
1386.194269174464
 31
0.0
  0
LINE
  5
18D1F
330
18C7A
100
AcDbEntity
  8
細線
 48
50.0
100
AcDbLine
 10
3382.570589276527
 20
1418.494269174465
 30
0.0
 11
2745.970589276525
 21
1418.494269174463
 31
0.0
  0
LINE
  5
18D20
330
18C7A
100
AcDbEntity
  8
細線
 48
50.0
100
AcDbLine
 10
3408.470589276525
 20
1413.494269174467
 30
0.0
 11
3392.570589276527
 21
1413.494269174465
 31
0.0
  0
LINE
  5
18D21
330
18C7A
100
AcDbEntity
  8
細線
 48
50.0
100
AcDbLine
 10
3392.570589276526
 20
1413.494269174465
 30
0.0
 11
3382.570589276527
 21
1418.494269174465
 31
0.0
  0
LINE
  5
18D22
330
18C7A
100
AcDbEntity
  8
細線
100
AcDbLine
 10
2993.470589276525
 20
1388.494269174465
 30
0.0
 11
2993.470589276525
 21
1417.794269174464
 31
0.0
  0
LINE
  5
18D23
330
18C7A
100
AcDbEntity
  8
細線
100
AcDbLine
 10
2993.470589276525
 20
1417.794269174464
 30
0.0
 11
3013.470589276525
 21
1417.794269174464
 31
0.0
  0
LINE
  5
18D24
330
18C7A
100
AcDbEntity
  8
細線
100
AcDbLine
 10
3013.470589276525
 20
1388.494269174465
 30
0.0
 11
3013.470589276525
 21
1417.794269174464
 31
0.0
  0
LINE
  5
18D25
330
18C7A
100
AcDbEntity
  8
細線
100
AcDbLine
 10
3170.720589276524
 20
1388.494269174465
 30
0.0
 11
3100.720589276523
 21
1388.494269174465
 31
0.0
  0
LINE
  5
18D26
330
18C7A
100
AcDbEntity
  8
細線
 48
50.0
100
AcDbLine
 10
2890.720589276525
 20
1388.494269174465
 30
0.0
 11
2763.766368849365
 21
1388.494269174465
 31
0.0
  0
LINE
  5
18D27
330
18C7A
100
AcDbEntity
  8
細線
100
AcDbLine
 10
3030.720589276525
 20
1388.494269174465
 30
0.0
 11
2960.720589276525
 21
1388.494269174465
 31
0.0
  0
LINE
  5
18D28
330
18C7A
100
AcDbEntity
  8
細線
 48
50.0
100
AcDbLine
 10
2750.970589276525
 20
1380.494269174465
 30
0.0
 11
2750.970589276525
 21
1388.494269174465
 31
0.0
  0
LINE
  5
18D29
330
18C7A
100
AcDbEntity
  8
細線
 48
50.0
100
AcDbLine
 10
2730.970589276524
 20
1380.494269174467
 30
0.0
 11
2750.970589276525
 21
1380.494269174465
 31
0.0
  0
LINE
  5
18D2A
330
18C7A
100
AcDbEntity
  8
細線
 48
50.0
100
AcDbLine
 10
2745.970589276525
 20
1418.494269174465
 30
0.0
 11
2745.970589276525
 21
1413.494269174465
 31
0.0
  0
LINE
  5
18D2B
330
18C7A
100
AcDbEntity
  8
細線
 48
50.0
100
AcDbLine
 10
2730.970589276525
 20
1418.494269174463
 30
0.0
 11
2745.970589276525
 21
1418.494269174465
 31
0.0
  0
LINE
  5
18D2C
330
18C7A
100
AcDbEntity
  8
細線
 48
50.0
100
AcDbLine
 10
2730.970589276524
 20
1380.494269174467
 30
0.0
 11
2730.970589276525
 21
1418.494269174463
 31
0.0
  0
LINE
  5
18D2D
330
18C7A
100
AcDbEntity
  8
細線
100
AcDbLine
 10
3398.970589276523
 20
1388.494269174465
 30
0.0
 11
3240.720589276525
 21
1388.494269174465
 31
0.0
  0
LINE
  5
18D2E
330
18C7A
100
AcDbEntity
  8
細線
 48
50.0
100
AcDbLine
 10
3408.470589276525
 20
1413.494269174467
 30
0.0
 11
3408.470589276524
 21
1388.494269174465
 31
0.0
  0
TEXT
  5
18D2F
330
18C7A
100
AcDbEntity
  8
部品1
100
AcDbText
 10
1860.154865991392
 20
46.99880823813145
 30
0.0
 40
135.0
  1
平面図
  7
STYLE2
100
AcDbText
  0
LWPOLYLINE
  5
18D30
330
18C7A
100
AcDbEntity
  8
部品1
100
AcDbPolyline
 90
        4
 70
     1
 43
0.0
 10
1770.23525616235
 20
239.8923374566548
 10
1770.23525616235
 20
0.0000159111223184
 10
2533.705922390791
 20
0.0000159111223184
 10
2533.705922390791
 20
239.8923374566548
  0
LINE
  5
18D31
330
18C7A
100
AcDbEntity
  8
部品1
100
AcDbLine
 10
1534.470589276487
 20
3154.494269174626
 30
0.0
 11
2769.470589276552
 21
3154.494269174626
 31
0.0
  0
LINE
  5
18D32
330
18C7A
100
AcDbEntity
  8
部品1
 48
50.0
100
AcDbLine
 10
1311.970589276523
 20
1420.494269174462
 30
0.0
 11
3411.970589276523
 21
1420.494269174465
 31
0.0
  0
LINE
  5
18D33
330
18C7A
100
AcDbEntity
  8
部品1
 48
50.0
100
AcDbLine
 10
471.9705892765232
 20
1392.494269174465
 30
0.0
 11
1311.970589276523
 21
1392.494269174465
 31
0.0
  0
DIMENSION
  5
18D34
330
18C7A
100
AcDbEntity
  8
寸法
100
AcDbDimension
  2
*D14
 10
2710.234916278077
 20
2488.887829538828
 30
0.0
 11
2338.318822490183
 21
2488.887829538828
 31
0.0
 12
-3742.925985830444
 22
-6453.628869860112
 32
0.0
 70
   128
 71
     5
 42
1231.00000000007
  3
INABA_S40G
100
AcDbAlignedDimension
 13
1536.470589276486
 23
2702.494269174557
 33
0.0
 14
2767.470589276556
 24
2702.494269174549
 34
0.0
100
AcDbRotatedDimension
1001
ACAD
1000
DSTYLE
1002
{
1002
}
  0
LINE
  5
18D35
330
18C7A
100
AcDbEntity
  8
部品1
100
AcDbLine
 10
1536.470589276487
 20
2702.494269174557
 30
0.0
 11
2767.470589276554
 21
2702.494269174615
 31
0.0
  0
LINE
  5
18D36
330
18C7A
100
AcDbEntity
  8
部品1
100
AcDbLine
 10
1536.470589276487
 20
3152.494269174557
 30
0.0
 11
2767.470589276556
 21
3152.494269174615
 31
0.0
  0
LINE
  5
18D37
330
18C7A
100
AcDbEntity
  8
細線
 48
50.0
100
AcDbLine
 10
1508.470589276487
 20
3152.494269174558
 30
0.0
 11
445.4705892765559
 21
2702.494269174509
 31
0.0
  0
LINE
  5
18D38
330
18C7A
100
AcDbEntity
  8
細線
 48
50.0
100
AcDbLine
 10
1508.470589276487
 20
2702.494269174558
 30
0.0
 11
445.4705892765542
 21
3152.494269174509
 31
0.0
  0
LINE
  5
18D39
330
18C7A
100
AcDbEntity
  8
部品1
100
AcDbLine
 10
1556.970589276487
 20
3172.494269174611
 30
0.0
 11
1556.970589276487
 21
3154.494269174611
 31
0.0
  0
LINE
  5
18D3A
330
18C7A
100
AcDbEntity
  8
部品1
100
AcDbLine
 10
1556.970589276487
 20
3172.494269174611
 30
0.0
 11
1550.970589276487
 21
3172.494269174611
 31
0.0
  0
LINE
  5
18D3B
330
18C7A
100
AcDbEntity
  8
部品1
100
AcDbLine
 10
1534.470589276487
 20
3146.494269174608
 30
0.0
 11
1509.470589276487
 21
3146.494269174611
 31
0.0
  0
LINE
  5
18D3C
330
18C7A
100
AcDbEntity
  8
部品1
100
AcDbLine
 10
1486.970589276487
 20
3172.494269174611
 30
0.0
 11
1486.970589276487
 21
3154.494269174611
 31
0.0
  0
LINE
  5
18D3D
330
18C7A
100
AcDbEntity
  8
部品1
100
AcDbLine
 10
1492.970589276487
 20
3172.494269174611
 30
0.0
 11
1486.970589276487
 21
3172.494269174611
 31
0.0
  0
LINE
  5
18D3E
330
18C7A
100
AcDbEntity
  8
部品1
100
AcDbLine
 10
1534.470589276487
 20
2702.494269174615
 30
0.0
 11
1509.470589276487
 21
2702.494269174615
 31
0.0
  0
LINE
  5
18D3F
330
18C7A
100
AcDbEntity
  8
部品1
 48
50.0
100
AcDbLine
 10
1536.470589276487
 20
3152.494269174611
 30
0.0
 11
1536.470589276487
 21
2702.494269174615
 31
0.0
  0
LINE
  5
18D40
330
18C7A
100
AcDbEntity
  8
部品1
 48
50.0
100
AcDbLine
 10
1508.470589276487
 20
3152.494269174607
 30
0.0
 11
1508.470589276487
 21
2702.494269174615
 31
0.0
  0
LINE
  5
18D41
330
18C7A
100
AcDbEntity
  8
部品1
 48
50.0
100
AcDbLine
 10
1534.470589276487
 20
3154.494269174618
 30
0.0
 11
1534.470589276487
 21
2702.494269174615
 31
0.0
  0
LINE
  5
18D42
330
18C7A
100
AcDbEntity
  8
部品1
 48
50.0
100
AcDbLine
 10
1509.470589276487
 20
3154.494269174615
 30
0.0
 11
1509.470589276487
 21
2702.494269174615
 31
0.0
  0
LINE
  5
18D43
330
18C7A
100
AcDbEntity
  8
部品1
100
AcDbLine
 10
3411.970589276556
 20
1392.494269174582
 30
0.0
 11
3411.970589276556
 21
1420.494269174596
 31
0.0
  0
LINE
  5
18D44
330
18C7A
100
AcDbEntity
  8
部品1
100
AcDbLine
 10
1311.970589276523
 20
1392.494269174596
 30
0.0
 11
1311.970589276523
 21
1420.494269174596
 31
0.0
  0
LINE
  5
18D45
330
18C7A
100
AcDbEntity
  8
部品1
100
AcDbLine
 10
891.9705892765232
 20
1392.494269174596
 30
0.0
 11
891.9705892765232
 21
1420.494269174596
 31
0.0
  0
LINE
  5
18D46
330
18C7A
100
AcDbEntity
  8
部品1
100
AcDbLine
 10
3411.97058927652
 20
3182.494269174477
 30
0.0
 11
3411.970589276523
 21
3154.494269174477
 31
0.0
  0
LINE
  5
18D47
330
18C7A
100
AcDbEntity
  8
部品1
100
AcDbLine
 10
2571.97058927652
 20
3182.494269174477
 30
0.0
 11
2571.970589276523
 21
3154.494269174477
 31
0.0
  0
LINE
  5
18D48
330
18C7A
100
AcDbEntity
  8
部品1
100
AcDbLine
 10
2991.97058927652
 20
3182.494269174477
 30
0.0
 11
2991.970589276523
 21
3154.494269174477
 31
0.0
  0
LINE
  5
18D49
330
18C7A
100
AcDbEntity
  8
部品1
100
AcDbLine
 10
2151.970589276519
 20
3182.494269174477
 30
0.0
 11
2151.970589276523
 21
3154.494269174477
 31
0.0
  0
LINE
  5
18D4A
330
18C7A
100
AcDbEntity
  8
部品1
100
AcDbLine
 10
1731.970589276519
 20
3182.494269174477
 30
0.0
 11
1731.970589276523
 21
3154.494269174477
 31
0.0
  0
LINE
  5
18D4B
330
18C7A
100
AcDbEntity
  8
部品1
100
AcDbLine
 10
1311.970589276519
 20
3182.494269174477
 30
0.0
 11
1311.970589276523
 21
3154.494269174477
 31
0.0
  0
LINE
  5
18D4C
330
18C7A
100
AcDbEntity
  8
部品1
100
AcDbLine
 10
891.9705892765195
 20
3182.494269174477
 30
0.0
 11
891.9705892765232
 21
3154.494269174477
 31
0.0
  0
LINE
  5
18D4D
330
18C7A
100
AcDbEntity
  8
部品1
100
AcDbLine
 10
471.9705892765232
 20
1392.494269174596
 30
0.0
 11
471.9705892765232
 21
1420.494269174596
 31
0.0
  0
LINE
  5
18D4E
330
18C7A
100
AcDbEntity
  8
部品1
100
AcDbLine
 10
444.9705892765305
 20
1420.494269174558
 30
0.0
 11
3858.970589276556
 21
1420.494269174596
 31
0.0
  0
LINE
  5
18D4F
330
18C7A
100
AcDbEntity
  8
部品1
100
AcDbLine
 10
3831.970589276556
 20
1392.494269174596
 30
0.0
 11
3831.970589276556
 21
1420.494269174596
 31
0.0
  0
LINE
  5
18D50
330
18C7A
100
AcDbEntity
  8
部品1
100
AcDbLine
 10
3858.970589276556
 20
1447.494269174593
 30
0.0
 11
3886.970589276556
 21
1447.494269174593
 31
0.0
  0
LINE
  5
18D51
330
18C7A
100
AcDbEntity
  8
部品1
100
AcDbLine
 10
3858.970589276556
 20
1867.494269174607
 30
0.0
 11
3886.970589276556
 21
1867.494269174607
 31
0.0
  0
LINE
  5
18D52
330
18C7A
100
AcDbEntity
  8
部品1
100
AcDbLine
 10
444.9705892765305
 20
1867.49426917448
 30
0.0
 11
416.9705892765305
 21
1867.49426917448
 31
0.0
  0
LINE
  5
18D53
330
18C7A
100
AcDbEntity
  8
部品1
100
AcDbLine
 10
3830.470589276541
 20
1867.49426917458
 30
0.0
 11
473.4705892765396
 21
1867.49426917448
 31
0.0
  0
LINE
  5
18D54
330
18C7A
100
AcDbEntity
  8
部品1
100
AcDbLine
 10
3830.470589276541
 20
2287.49426917458
 30
0.0
 11
473.4705892765396
 21
2287.49426917448
 31
0.0
  0
LINE
  5
18D55
330
18C7A
100
AcDbEntity
  8
部品1
100
AcDbLine
 10
444.9705892765305
 20
2287.49426917448
 30
0.0
 11
416.9705892765305
 21
2287.49426917448
 31
0.0
  0
LINE
  5
18D56
330
18C7A
100
AcDbEntity
  8
部品1
100
AcDbLine
 10
3858.970589276556
 20
2287.494269174608
 30
0.0
 11
3886.970589276556
 21
2287.494269174608
 31
0.0
  0
LINE
  5
18D57
330
18C7A
100
AcDbEntity
  8
部品1
 48
50.0
100
AcDbLine
 10
2151.970589276551
 20
2702.494269174586
 30
0.0
 11
2151.970589276581
 21
1448.994269174494
 31
0.0
  0
LINE
  5
18D58
330
18C7A
100
AcDbEntity
  8
破線
 48
10.0
100
AcDbLine
 10
2959.470589276535
 20
1472.494269174522
 30
0.0
 11
2176.970589276532
 21
1472.494269174505
 31
0.0
  0
LINE
  5
18D59
330
18C7A
100
AcDbEntity
  8
破線
 48
10.0
100
AcDbLine
 10
3009.47058927653
 20
1448.994269174509
 30
0.0
 11
3009.47058927653
 21
2702.494269174615
 31
0.0
  0
LINE
  5
18D5A
330
18C7A
100
AcDbEntity
  8
破線
 48
10.0
100
AcDbLine
 10
2959.470589276535
 20
1448.994269174505
 30
0.0
 11
2959.470589276531
 21
2702.494269174615
 31
0.0
  0
LINE
  5
18D5B
330
18C7A
100
AcDbEntity
  8
破線
 48
10.0
100
AcDbLine
 10
1344.47058927653
 20
1448.994269174509
 30
0.0
 11
1344.47058927653
 21
2702.494269174615
 31
0.0
  0
LINE
  5
18D5C
330
18C7A
100
AcDbEntity
  8
破線
 48
10.0
100
AcDbLine
 10
1294.470589276534
 20
1448.994269174505
 30
0.0
 11
1294.47058927653
 21
2702.494269174615
 31
0.0
  0
DIMENSION
  5
18D5D
330
18C7A
100
AcDbEntity
  8
寸法
100
AcDbDimension
  2
*D13
 10
1451.234916278005
 20
2488.887829538828
 30
0.0
 11
916.0604668248634
 21
2488.887829538828
 31
0.0
 12
-3742.925985830444
 22
-6453.628869860112
 32
0.0
 70
   128
 71
     5
 42
1062.99999999993
  3
INABA_S40G
100
AcDbAlignedDimension
 13
445.4705892765559
 23
2702.494269174505
 33
0.0
 14
1508.470589276486
 24
2702.494269174558
 34
0.0
100
AcDbRotatedDimension
1001
ACAD
1000
DSTYLE
1002
{
1002
}
  0
LINE
  5
18D5E
330
18C7A
100
AcDbEntity
  8
破線
 48
10.0
100
AcDbLine
 10
1294.470589276534
 20
1472.494269174469
 30
0.0
 11
496.9705892765414
 21
1472.494269174476
 31
0.0
  0
LINE
  5
18D5F
330
18C7A
100
AcDbEntity
  8
部品1
100
AcDbLine
 10
3831.970589276556
 20
3182.494269174604
 30
0.0
 11
3831.970589276556
 21
3154.494269174604
 31
0.0
  0
LINE
  5
18D60
330
18C7A
100
AcDbEntity
  8
部品1
100
AcDbLine
 10
3831.970589276556
 20
3182.494269174626
 30
0.0
 11
3831.970589276556
 21
3154.494269174626
 31
0.0
  0
LINE
  5
18D61
330
18C7A
100
AcDbEntity
  8
部品1
100
AcDbLine
 10
3858.970589276556
 20
3127.494269174607
 30
0.0
 11
3886.970589276556
 21
3127.494269174607
 31
0.0
  0
LINE
  5
18D62
330
18C7A
100
AcDbEntity
  8
部品1
100
AcDbLine
 10
3858.970589276556
 20
2707.494269174608
 30
0.0
 11
3886.970589276556
 21
2707.494269174608
 31
0.0
  0
LINE
  5
18D63
330
18C7A
100
AcDbEntity
  8
部品1
100
AcDbLine
 10
3858.470589276556
 20
3152.494269174604
 30
0.0
 11
3858.470589276556
 21
2702.494269174608
 31
0.0
  0
LINE
  5
18D64
330
18C7A
100
AcDbEntity
  8
部品1
100
AcDbLine
 10
3886.970589276533
 20
1447.494269174593
 30
0.0
 11
3886.970589276531
 21
1392.494269174596
 31
0.0
  0
LINE
  5
18D65
330
18C7A
100
AcDbEntity
  8
部品1
 48
50.0
100
AcDbLine
 10
3830.470589276556
 20
1448.994269174596
 30
0.0
 11
3858.970589276554
 21
1420.494269174596
 31
0.0
  0
LINE
  5
18D66
330
18C7A
100
AcDbEntity
  8
部品1
100
AcDbLine
 10
3886.970589276531
 20
1392.494269174596
 30
0.0
 11
3835.970589276531
 21
1392.494269174596
 31
0.0
  0
LINE
  5
18D67
330
18C7A
100
AcDbEntity
  8
部品1
100
AcDbLine
 10
3858.970589276533
 20
1447.494269174593
 30
0.0
 11
3886.970589276531
 21
1447.494269174593
 31
0.0
  0
LINE
  5
18D68
330
18C7A
100
AcDbEntity
  8
部品1
100
AcDbLine
 10
3886.970589276556
 20
3182.494269174604
 30
0.0
 11
3886.970589276531
 21
1392.494269174596
 31
0.0
  0
DIMENSION
  5
18D69
330
18C7A
100
AcDbEntity
  8
寸法
100
AcDbDimension
  2
*D12
 10
4534.396935010967
 20
1447.494269174593
 30
0.0
 11
4534.396935010965
 21
2287.4942691746
 31
0.0
 12
-3742.925985830444
 22
-6453.628869860112
 32
0.0
 70
   128
  1
4X420=<>
 71
     5
 42
1680.000000000014
  3
INABA_S40G
100
AcDbAlignedDimension
 13
3886.970589276556
 23
3127.494269174607
 33
0.0
 14
3886.970589276531
 24
1447.494269174593
 34
0.0
 50
90.0
100
AcDbRotatedDimension
1001
ACAD
1000
DSTYLE
1002
{
1002
}
  0
LINE
  5
18D6A
330
18C7A
100
AcDbEntity
  8
部品1
100
AcDbLine
 10
3858.970589276556
 20
3154.494269174604
 30
0.0
 11
3858.970589276534
 21
1420.494269174596
 31
0.0
  0
DIMENSION
  5
18D6B
330
18C7A
100
AcDbEntity
  8
寸法
100
AcDbDimension
  2
*D11
 10
4213.82831513858
 20
2607.276453505718
 30
0.0
 11
4113.828315138579
 21
2832.276453505718
 31
0.0
 12
-3742.925985830444
 22
-6453.628869860112
 32
0.0
 71
     5
 42
449.9999999999963
  3
INABA_S40G
100
AcDbAlignedDimension
 13
3858.470589276556
 23
3152.494269174604
 33
0.0
 14
3858.470589276556
 24
2702.494269174608
 34
0.0
 50
90.0
100
AcDbRotatedDimension
1001
ACAD
1000
DSTYLE
1002
{
1002
}
  0
LINE
  5
18D6C
330
18C7A
100
AcDbEntity
  8
部品1
100
AcDbLine
 10
3830.470589276547
 20
2702.494269174608
 30
0.0
 11
3830.470589276556
 21
1448.994269174596
 31
0.0
  0
LINE
  5
18D6D
330
18C7A
100
AcDbEntity
  8
破線
 48
10.0
100
AcDbLine
 10
3806.970589276549
 20
2702.494269174608
 30
0.0
 11
3806.970589276558
 21
1472.494269174593
 31
0.0
  0
LINE
  5
18D6E
330
18C7A
100
AcDbEntity
  8
部品1
100
AcDbLine
 10
2769.470589276556
 20
3146.494269174608
 30
0.0
 11
2794.470589276556
 21
3146.494269174611
 31
0.0
  0
LINE
  5
18D6F
330
18C7A
100
AcDbEntity
  8
部品1
100
AcDbLine
 10
2810.970589276556
 20
3172.494269174611
 30
0.0
 11
2816.970589276556
 21
3172.494269174611
 31
0.0
  0
LINE
  5
18D70
330
18C7A
100
AcDbEntity
  8
部品1
100
AcDbLine
 10
2816.970589276556
 20
3172.494269174611
 30
0.0
 11
2816.970589276556
 21
3154.494269174611
 31
0.0
  0
LINE
  5
18D71
330
18C7A
100
AcDbEntity
  8
部品1
100
AcDbLine
 10
2746.970589276556
 20
3172.494269174611
 30
0.0
 11
2752.970589276556
 21
3172.494269174611
 31
0.0
  0
LINE
  5
18D72
330
18C7A
100
AcDbEntity
  8
部品1
100
AcDbLine
 10
2746.970589276556
 20
3172.494269174611
 30
0.0
 11
2746.970589276556
 21
3154.494269174611
 31
0.0
  0
LINE
  5
18D73
330
18C7A
100
AcDbEntity
  8
部品1
100
AcDbLine
 10
2769.470589276556
 20
2702.494269174615
 30
0.0
 11
2794.470589276556
 21
2702.494269174615
 31
0.0
  0
LINE
  5
18D74
330
18C7A
100
AcDbEntity
  8
部品1
 48
50.0
100
AcDbLine
 10
2794.470589276556
 20
3154.494269174615
 30
0.0
 11
2794.470589276556
 21
2702.494269174615
 31
0.0
  0
LINE
  5
18D75
330
18C7A
100
AcDbEntity
  8
部品1
 48
50.0
100
AcDbLine
 10
2769.470589276554
 20
3154.494269174618
 30
0.0
 11
2769.470589276556
 21
2702.494269174615
 31
0.0
  0
LINE
  5
18D76
330
18C7A
100
AcDbEntity
  8
部品1
 48
50.0
100
AcDbLine
 10
2795.470589276556
 20
3152.494269174607
 30
0.0
 11
2795.470589276556
 21
2702.494269174615
 31
0.0
  0
LINE
  5
18D77
330
18C7A
100
AcDbEntity
  8
部品1
 48
50.0
100
AcDbLine
 10
2767.470589276556
 20
3152.494269174611
 30
0.0
 11
2767.470589276556
 21
2702.494269174615
 31
0.0
  0
LINE
  5
18D78
330
18C7A
100
AcDbEntity
  8
破線
 48
10.0
100
AcDbLine
 10
2176.97058927653
 20
1448.994269174509
 30
0.0
 11
2176.97058927653
 21
2702.494269174588
 31
0.0
  0
LINE
  5
18D79
330
18C7A
100
AcDbEntity
  8
破線
 48
10.0
100
AcDbLine
 10
2126.970589276534
 20
1448.994269174505
 30
0.0
 11
2126.970589276531
 21
2702.494269174586
 31
0.0
  0
LINE
  5
18D7A
330
18C7A
100
AcDbEntity
  8
部品1
100
AcDbLine
 10
2794.470589276556
 20
3154.494269174622
 30
0.0
 11
3858.970589276556
 21
3154.494269174604
 31
0.0
  0
LINE
  5
18D7B
330
18C7A
100
AcDbEntity
  8
細線
 48
50.0
100
AcDbLine
 10
3858.470589276556
 20
2702.494269174608
 30
0.0
 11
2795.470589276556
 21
3152.494269174607
 31
0.0
  0
LINE
  5
18D7C
330
18C7A
100
AcDbEntity
  8
部品1
100
AcDbLine
 10
2795.470589276555
 20
2702.494269174615
 30
0.0
 11
3858.470589276556
 21
2702.494269174608
 31
0.0
  0
LINE
  5
18D7D
330
18C7A
100
AcDbEntity
  8
部品1
100
AcDbLine
 10
2795.470589276556
 20
3152.494269174611
 30
0.0
 11
3858.470589276556
 21
3152.494269174604
 31
0.0
  0
LINE
  5
18D7E
330
18C7A
100
AcDbEntity
  8
細線
 48
50.0
100
AcDbLine
 10
3858.470589276556
 20
3152.494269174604
 30
0.0
 11
2795.470589276555
 21
2702.494269174615
 31
0.0
  0
DIMENSION
  5
18D7F
330
18C7A
100
AcDbEntity
  8
寸法
100
AcDbDimension
  2
*D10
 10
3801.234916278101
 20
2488.887829538937
 30
0.0
 11
3318.360544398907
 21
2488.887829538937
 31
0.0
 12
-3742.925985830444
 22
-6453.628869860112
 32
0.0
 70
   128
 71
     5
 42
1063.000000000012
  3
INABA_S40G
100
AcDbAlignedDimension
 13
2795.470589276555
 23
2702.494269174615
 33
0.0
 14
3858.470589276567
 24
2702.494269174608
 34
0.0
100
AcDbRotatedDimension
1001
ACAD
1000
DSTYLE
1002
{
1002
}
  0
LINE
  5
18D80
330
18C7A
100
AcDbEntity
  8
破線
 48
10.0
100
AcDbLine
 10
3806.970589276556
 20
1472.494269174594
 30
0.0
 11
3009.47058927653
 21
1472.494269174523
 31
0.0
  0
DIMENSION
  5
18D81
330
18C7A
100
AcDbEntity
  8
寸法
100
AcDbDimension
  2
*D9
 10
4534.396935010941
 20
1392.494269174596
 30
0.0
 11
4534.39693501094
 21
1084.008987800356
 31
0.0
 12
-3742.925985830444
 22
-6453.628869860112
 32
0.0
 70
   128
 71
     5
 42
54.99999999999636
  3
INABA_S40G
100
AcDbAlignedDimension
 13
3886.970589276531
 23
1447.494269174593
 33
0.0
 14
3886.970589276531
 24
1392.494269174596
 34
0.0
 50
90.0
100
AcDbRotatedDimension
1001
ACAD
1000
DSTYLE
1002
{
1002
}
  0
LINE
  5
18D82
330
18C7A
100
AcDbEntity
  8
部品1
100
AcDbLine
 10
471.9705892765196
 20
3182.494269174477
 30
0.0
 11
471.9705892765232
 21
3154.494269174477
 31
0.0
  0
LINE
  5
18D83
330
18C7A
100
AcDbEntity
  8
部品1
100
AcDbLine
 10
471.9705892765559
 20
3182.494269174509
 30
0.0
 11
471.9705892765559
 21
3154.494269174509
 31
0.0
  0
LINE
  5
18D84
330
18C7A
100
AcDbEntity
  8
部品1
100
AcDbLine
 10
444.9705892765232
 20
3127.49426917448
 30
0.0
 11
416.9705892765232
 21
3127.49426917448
 31
0.0
  0
LINE
  5
18D85
330
18C7A
100
AcDbEntity
  8
部品1
100
AcDbLine
 10
444.9705892765305
 20
2707.49426917448
 30
0.0
 11
416.9705892765305
 21
2707.49426917448
 31
0.0
  0
LINE
  5
18D86
330
18C7A
100
AcDbEntity
  8
部品1
 48
50.0
100
AcDbLine
 10
445.4705892765542
 20
3152.494269174506
 30
0.0
 11
445.4705892765559
 21
2702.494269174505
 31
0.0
  0
LINE
  5
18D87
330
18C7A
100
AcDbEntity
  8
部品1
 48
50.0
100
AcDbLine
 10
473.470589276545
 20
1448.994269174573
 30
0.0
 11
444.970589276545
 21
1420.494269174574
 31
0.0
  0
LINE
  5
18D88
330
18C7A
100
AcDbEntity
  8
部品1
100
AcDbLine
 10
471.9705892765232
 20
1392.494269174465
 30
0.0
 11
416.9705892765486
 21
1392.494269174465
 31
0.0
  0
LINE
  5
18D89
330
18C7A
100
AcDbEntity
  8
部品1
100
AcDbLine
 10
444.9705892765305
 20
1447.494269174429
 30
0.0
 11
416.9705892765469
 21
1447.494269174429
 31
0.0
  0
LINE
  5
18D8A
330
18C7A
100
AcDbEntity
  8
部品1
100
AcDbLine
 10
444.9705892765305
 20
1447.494269174465
 30
0.0
 11
416.9705892765469
 21
1447.494269174465
 31
0.0
  0
LINE
  5
18D8B
330
18C7A
100
AcDbEntity
  8
部品1
100
AcDbLine
 10
444.9705892765469
 20
1447.49426917448
 30
0.0
 11
416.9705892765469
 21
1447.49426917448
 31
0.0
  0
LINE
  5
18D8C
330
18C7A
100
AcDbEntity
  8
部品1
100
AcDbLine
 10
416.9705892765469
 20
1447.494269174429
 30
0.0
 11
416.9705892765486
 21
1392.494269174433
 31
0.0
  0
LINE
  5
18D8D
330
18C7A
100
AcDbEntity
  8
部品1
100
AcDbLine
 10
416.9705892765196
 20
3182.494269174477
 30
0.0
 11
416.9705892765486
 21
1392.494269174465
 31
0.0
  0
LINE
  5
18D8E
330
18C7A
100
AcDbEntity
  8
部品1
100
AcDbLine
 10
444.9705892765305
 20
1420.494269174556
 30
0.0
 11
444.9705892765559
 21
3154.494269174509
 31
0.0
  0
LINE
  5
18D8F
330
18C7A
100
AcDbEntity
  8
部品1
100
AcDbLine
 10
473.4705892765323
 20
2702.494269174608
 30
0.0
 11
473.470589276545
 21
1448.994269174571
 31
0.0
  0
LINE
  5
18D90
330
18C7A
100
AcDbEntity
  8
破線
 48
10.0
100
AcDbLine
 10
496.9705892765305
 20
2702.494269174608
 30
0.0
 11
496.9705892765451
 21
1472.494269174476
 31
0.0
  0
DIMENSION
  5
18D91
330
18C7A
100
AcDbEntity
  8
寸法
100
AcDbDimension
  2
*D8
 10
3886.970589276531
 20
410.7433333855515
 30
0.0
 11
2168.197775309287
 21
410.7433333855515
 31
0.0
 12
-3742.925985830444
 22
-6453.628869860112
 32
0.0
 70
   128
 71
     5
 42
3469.999999999982
  3
INABA_S40G
100
AcDbAlignedDimension
 13
416.9705892765486
 23
1392.494269174433
 33
0.0
 14
3886.970589276531
 24
1392.49426917456
 34
0.0
100
AcDbRotatedDimension
1001
ACAD
1000
DSTYLE
1002
{
1070
   341
1005
0
1002
}
  0
LINE
  5
18D92
330
18C7A
100
AcDbEntity
  8
部品1
100
AcDbLine
 10
444.9705892765559
 20
3154.494269174624
 30
0.0
 11
1509.470589276487
 21
3154.494269174626
 31
0.0
  0
LINE
  5
18D93
330
18C7A
100
AcDbEntity
  8
部品1
100
AcDbLine
 10
3886.970589276531
 20
1392.494269174596
 30
0.0
 11
3411.970589276556
 21
1392.494269174582
 31
0.0
  0
LINE
  5
18D94
330
18C7A
100
AcDbEntity
  8
部品1
100
AcDbLine
 10
416.9705892765559
 20
3182.494269174509
 30
0.0
 11
3886.970589276556
 21
3182.494269174604
 31
0.0
  0
LINE
  5
18D95
330
18C7A
100
AcDbEntity
  8
部品1
100
AcDbLine
 10
445.4705892765559
 20
2702.494269174509
 30
0.0
 11
1508.470589276487
 21
2702.494269174558
 31
0.0
  0
LINE
  5
18D96
330
18C7A
100
AcDbEntity
  8
細線
 48
50.0
100
AcDbLine
 10
2767.470589276556
 20
3152.494269174611
 30
0.0
 11
1536.470589276487
 21
2702.494269174558
 31
0.0
  0
LINE
  5
18D97
330
18C7A
100
AcDbEntity
  8
部品1
100
AcDbLine
 10
445.4705892765542
 20
3152.494269174509
 30
0.0
 11
1508.470589276485
 21
3152.494269174558
 31
0.0
  0
LINE
  5
18D98
330
18C7A
100
AcDbEntity
  8
細線
 48
50.0
100
AcDbLine
 10
2767.470589276554
 20
2702.494269174615
 30
0.0
 11
1536.470589276485
 21
3152.494269174558
 31
0.0
  0
LINE
  5
18D99
330
18C7A
100
AcDbEntity
  8
破線
 48
10.0
100
AcDbLine
 10
2126.970589276534
 20
1472.494269174502
 30
0.0
 11
1344.47058927653
 21
1472.494269174473
 31
0.0
  0
LINE
  5
18D9A
330
18C7A
100
AcDbEntity
  8
部品1
100
AcDbLine
 10
3830.470589276556
 20
1448.994269174596
 30
0.0
 11
473.4705892764487
 21
1448.994269174476
 31
0.0
  0
DIMENSION
  5
18D9B
330
18C7A
100
AcDbEntity
  8
寸法
100
AcDbDimension
  2
*D7
 10
471.970589276555
 20
3698.302488799491
 30
0.0
 11
108.4853079022819
 21
3698.302488799491
 31
0.0
 12
-3742.925985830444
 22
-6453.628869860112
 32
0.0
 70
   128
 71
     5
 42
55.00000000003456
  3
INABA_S40G
100
AcDbAlignedDimension
 13
416.9705892765205
 23
3182.494269174509
 33
0.0
 14
471.970589276555
 24
3182.494269174509
 34
0.0
100
AcDbRotatedDimension
1001
ACAD
1000
DSTYLE
1002
{
1002
}
  0
DIMENSION
  5
18D9C
330
18C7A
100
AcDbEntity
  8
寸法
100
AcDbDimension
  2
*D6
 10
4534.396935010967
 20
3127.494269174607
 30
0.0
 11
4534.396935010965
 21
3490.979550548844
 31
0.0
 12
-3742.925985830444
 22
-6453.628869860112
 32
0.0
 70
   128
 71
     5
 42
54.99999999999636
  3
INABA_S40G
100
AcDbAlignedDimension
 13
3886.970589276556
 23
3182.494269174604
 33
0.0
 14
3886.970589276556
 24
3127.494269174607
 34
0.0
 50
90.0
100
AcDbRotatedDimension
1001
ACAD
1000
DSTYLE
1002
{
1002
}
  0
DIMENSION
  5
18D9D
330
18C7A
100
AcDbEntity
  8
寸法
100
AcDbDimension
  2
*D5
 10
3886.970589276556
 20
3698.302488799589
 30
0.0
 11
4195.455870650794
 21
3698.302488799589
 31
0.0
 12
-3742.925985830444
 22
-6453.628869860112
 32
0.0
 70
   128
 71
     5
 42
55.0
  3
INABA_S40G
100
AcDbAlignedDimension
 13
3831.970589276556
 23
3182.494269174604
 33
0.0
 14
3886.970589276556
 24
3182.494269174604
 34
0.0
100
AcDbRotatedDimension
1001
ACAD
1000
DSTYLE
1002
{
1002
}
  0
DIMENSION
  5
18D9E
330
18C7A
100
AcDbEntity
  8
寸法
100
AcDbDimension
  2
*D4
 10
3831.970589276556
 20
3698.302488799607
 30
0.0
 11
2151.970589276555
 21
3698.302488799607
 31
0.0
 12
-3742.925985830444
 22
-6453.628869860112
 32
0.0
 70
   128
  1
8X420=<>
 71
     5
 42
3360.000000000001
  3
INABA_S40G
100
AcDbAlignedDimension
 13
471.970589276555
 23
3182.494269174509
 33
0.0
 14
3831.970589276556
 24
3182.494269174604
 34
0.0
100
AcDbRotatedDimension
1001
ACAD
1000
DSTYLE
1002
{
1002
}
  0
DIMENSION
  5
18D9F
330
18C7A
100
AcDbEntity
  8
寸法
100
AcDbDimension
  2
*D3
 10
4899.503876750603
 20
1392.494269174596
 30
0.0
 11
4899.503876750601
 21
2287.4942691746
 31
0.0
 12
-3742.925985830444
 22
-6453.628869860112
 32
0.0
 70
   128
 71
     5
 42
1790.000000000007
  3
INABA_S40G
100
AcDbAlignedDimension
 13
3886.970589276556
 23
3182.494269174604
 33
0.0
 14
3886.970589276531
 24
1392.494269174596
 34
0.0
 50
90.0
100
AcDbRotatedDimension
1001
ACAD
1000
DSTYLE
1002
{
1002
}
  0
ENDBLK
  5
18DA1
330
18C7A
100
AcDbEntity
  8
0
 48
50.0
100
AcDbBlockEnd
  0
BLOCK
  5
1C4CB
330
1C4CA
100
AcDbEntity
  8
0
 48
50.0
100
AcDbBlockBegin
  2
_NONE
 70
     0
 10
0.0
 20
0.0
 30
0.0
  3
_NONE
  1

  0
CIRCLE
  5
1C4CC
330
1C4CA
100
AcDbEntity
  8
0
  6
ByBlock
 62
     0
 48
50.0
100
AcDbCircle
 10
0.0
 20
0.0
 30
0.0
 40
0.25
  0
ENDBLK
  5
1C4CD
330
1C4CA
100
AcDbEntity
  8
0
 48
50.0
100
AcDbBlockEnd
  0
BLOCK
  5
20DEE
330
20DE2
100
AcDbEntity
  8
0
 48
50.0
100
AcDbBlockBegin
  2
*D19
 70
     1
 10
0.0
 20
0.0
 30
0.0
  3
*D19
  1

  0
LINE
  5
2764D
330
20DE2
100
AcDbEntity
  8
寸法
 62
     0
 48
50.0
370
    -2
100
AcDbLine
 10
11553.6
 20
7543.830393514248
 30
0.0
 11
11553.6
 21
8542.05071557317
 31
0.0
  0
LINE
  5
2764E
330
20DE2
100
AcDbEntity
  8
寸法
 62
     0
 48
50.0
370
    -2
100
AcDbLine
 10
11598.6
 20
8270.09685160816
 30
0.0
 11
11598.6
 21
8542.05071557317
 31
0.0
  0
LINE
  5
2764F
330
20DE2
100
AcDbEntity
  8
寸法
 62
     0
 48
50.0
370
    -2
100
AcDbLine
 10
11553.6
 20
8482.050715573171
 30
0.0
 11
11453.6
 21
8482.050715573171
 31
0.0
  0
LINE
  5
27650
330
20DE2
100
AcDbEntity
  8
寸法
 62
     0
 48
50.0
370
    -2
100
AcDbLine
 10
11598.6
 20
8482.050715573171
 30
0.0
 11
11935.94924240491
 21
8482.050715573171
 31
0.0
  0
LINE
  5
27651
330
20DE2
100
AcDbEntity
  8
寸法
 62
     0
 48
50.0
370
    -2
100
AcDbLine
 10
11553.6
 20
8482.050715573171
 30
0.0
 11
11598.6
 21
8482.050715573171
 31
0.0
  0
INSERT
  5
27652
330
20DE2
100
AcDbEntity
  8
寸法
 62
     0
 48
50.0
370
    -2
100
AcDbBlockReference
  2
_DOTSMALL
 10
11553.6
 20
8482.050715573171
 30
0.0
 41
100.0
 42
100.0
 43
100.0
  0
INSERT
  5
27653
330
20DE2
100
AcDbEntity
  8
寸法
 62
     0
 48
50.0
370
    -2
100
AcDbBlockReference
  2
_DOTSMALL
 10
11598.6
 20
8482.050715573171
 30
0.0
 41
100.0
 42
100.0
 43
100.0
 50
180.0
  0
MTEXT
  5
27654
330
20DE2
100
AcDbEntity
  8
寸法
 62
     7
 48
50.0
100
AcDbMText
 10
11869.77462120246
 20
8582.050715573171
 30
0.0
 40
120.0
 41
0.0
 71
     5
 72
     1
  1
\A1;a
  7
STYLE1
 73
     1
 44
1.0
1001
ACAD
1000
MTEXTBEGIN
1070
    73
1070
     1
1070
    44
1040
1.0
1070
    74
1070
     0
1000
MTEXTEND
  0
POINT
  5
27655
330
20DE2
100
AcDbEntity
  8
DEFPOINTS
 62
     0
 48
50.0
100
AcDbPoint
 10
11553.6
 20
7523.830393514248
 30
0.0
  0
POINT
  5
27656
330
20DE2
100
AcDbEntity
  8
DEFPOINTS
 62
     0
 48
50.0
100
AcDbPoint
 10
11598.6
 20
8250.09685160816
 30
0.0
  0
POINT
  5
27657
330
20DE2
100
AcDbEntity
  8
DEFPOINTS
 62
     0
 48
50.0
100
AcDbPoint
 10
11598.6
 20
8482.050715573171
 30
0.0
  0
ENDBLK
  5
20DEF
330
20DE2
100
AcDbEntity
  8
0
 48
50.0
100
AcDbBlockEnd
  0
BLOCK
  5
20E08
330
20DFC
100
AcDbEntity
  8
0
 48
50.0
100
AcDbBlockBegin
  2
*D20
 70
     1
 10
0.0
 20
0.0
 30
0.0
  3
*D20
  1

  0
LINE
  5
2770E
330
20DFC
100
AcDbEntity
  8
寸法
 62
     0
 48
50.0
370
    -2
100
AcDbLine
 10
4848.599999999999
 20
8270.096851608171
 30
0.0
 11
4848.599999999999
 21
8542.05071557318
 31
0.0
  0
LINE
  5
2770F
330
20DFC
100
AcDbEntity
  8
寸法
 62
     0
 48
50.0
370
    -2
100
AcDbLine
 10
4893.599999999995
 20
7543.830393514257
 30
0.0
 11
4893.599999999995
 21
8542.05071557318
 31
0.0
  0
LINE
  5
27710
330
20DFC
100
AcDbEntity
  8
寸法
 62
     0
 48
50.0
370
    -2
100
AcDbLine
 10
4893.599999999995
 20
8482.050715573178
 30
0.0
 11
4993.599999999995
 21
8482.050715573178
 31
0.0
  0
LINE
  5
27711
330
20DFC
100
AcDbEntity
  8
寸法
 62
     0
 48
50.0
370
    -2
100
AcDbLine
 10
4848.599999999999
 20
8482.050715573178
 30
0.0
 11
4511.250757595077
 21
8482.050715573178
 31
0.0
  0
LINE
  5
27712
330
20DFC
100
AcDbEntity
  8
寸法
 62
     0
 48
50.0
370
    -2
100
AcDbLine
 10
4893.599999999995
 20
8482.050715573178
 30
0.0
 11
4848.599999999999
 21
8482.050715573178
 31
0.0
  0
INSERT
  5
27713
330
20DFC
100
AcDbEntity
  8
寸法
 62
     0
 48
50.0
370
    -2
100
AcDbBlockReference
  2
_DOTSMALL
 10
4893.599999999995
 20
8482.050715573178
 30
0.0
 41
100.0
 42
100.0
 43
100.0
 50
180.0
  0
INSERT
  5
27714
330
20DFC
100
AcDbEntity
  8
寸法
 62
     0
 48
50.0
370
    -2
100
AcDbBlockReference
  2
_DOTSMALL
 10
4848.599999999999
 20
8482.050715573178
 30
0.0
 41
100.0
 42
100.0
 43
100.0
  0
MTEXT
  5
27715
330
20DFC
100
AcDbEntity
  8
寸法
 62
     7
 48
50.0
100
AcDbMText
 10
4577.425378797536
 20
8582.050715573179
 30
0.0
 40
120.0
 41
0.0
 71
     5
 72
     1
  1
\A1;a
  7
STYLE1
 73
     1
 44
1.0
1001
ACAD
1000
MTEXTBEGIN
1070
    73
1070
     1
1070
    44
1040
1.0
1070
    74
1070
     0
1000
MTEXTEND
  0
POINT
  5
27716
330
20DFC
100
AcDbEntity
  8
DEFPOINTS
 62
     0
 48
50.0
100
AcDbPoint
 10
4848.599999999999
 20
8250.096851608169
 30
0.0
  0
POINT
  5
27717
330
20DFC
100
AcDbEntity
  8
DEFPOINTS
 62
     0
 48
50.0
100
AcDbPoint
 10
4893.599999999995
 20
7523.830393514258
 30
0.0
  0
POINT
  5
27718
330
20DFC
100
AcDbEntity
  8
DEFPOINTS
 62
     0
 48
50.0
100
AcDbPoint
 10
4893.599999999995
 20
8482.050715573178
 30
0.0
  0
ENDBLK
  5
20E09
330
20DFC
100
AcDbEntity
  8
0
 48
50.0
100
AcDbBlockEnd
  0
BLOCK
  5
2274E
330
22742
100
AcDbEntity
  8
0
 48
50.0
100
AcDbBlockBegin
  2
*D21
 70
     1
 10
0.0
 20
0.0
 30
0.0
  3
*D21
  1

  0
LINE
  5
27754
330
22742
100
AcDbEntity
  8
寸法
 62
     0
 48
50.0
370
    -2
100
AcDbLine
 10
4250.665006330065
 20
7598.830393514264
 30
0.0
 11
3958.721909610671
 21
7598.830393514264
 31
0.0
  0
LINE
  5
27755
330
22742
100
AcDbEntity
  8
寸法
 62
     0
 48
50.0
370
    -2
100
AcDbLine
 10
4873.599999999995
 20
7523.830393514258
 30
0.0
 11
3958.721909610671
 21
7523.830393514258
 31
0.0
  0
LINE
  5
27756
330
22742
100
AcDbEntity
  8
寸法
 62
     0
 48
50.0
370
    -2
100
AcDbLine
 10
4018.721909610671
 20
7598.830393514264
 30
0.0
 11
4018.721909610671
 21
7698.830393514263
 31
0.0
  0
LINE
  5
27757
330
22742
100
AcDbEntity
  8
寸法
 62
     0
 48
50.0
370
    -2
100
AcDbLine
 10
4018.721909610671
 20
7523.830393514258
 30
0.0
 11
4018.721909610671
 21
7423.830393514258
 31
0.0
  0
LINE
  5
27758
330
22742
100
AcDbEntity
  8
寸法
 62
     0
 48
50.0
370
    -2
100
AcDbLine
 10
4018.721909610671
 20
7598.830393514264
 30
0.0
 11
4018.721909610671
 21
7523.830393514258
 31
0.0
  0
INSERT
  5
27759
330
22742
100
AcDbEntity
  8
寸法
 62
     0
 48
50.0
370
    -2
100
AcDbBlockReference
  2
_DOTSMALL
 10
4018.721909610671
 20
7598.830393514264
 30
0.0
 41
100.0
 42
100.0
 43
100.0
 50
270.0
  0
INSERT
  5
2775A
330
22742
100
AcDbEntity
  8
寸法
 62
     0
 48
50.0
370
    -2
100
AcDbBlockReference
  2
_DOTSMALL
 10
4018.721909610671
 20
7523.830393514258
 30
0.0
 41
100.0
 42
100.0
 43
100.0
 50
90.0
  0
MTEXT
  5
2775B
330
22742
100
AcDbEntity
  8
寸法
 62
     7
 48
50.0
100
AcDbMText
 10
3918.72190961067
 20
7561.330393514261
 30
0.0
 40
120.0
 41
0.0
 71
     5
 72
     1
  1
\A1;c
  7
STYLE1
 11
0.0000000000000001
 21
1.0
 31
0.0
 73
     1
 44
1.0
1001
ACAD
1000
MTEXTBEGIN
1070
    73
1070
     1
1070
    44
1040
1.0
1070
    74
1070
     0
1000
MTEXTEND
  0
POINT
  5
2775C
330
22742
100
AcDbEntity
  8
DEFPOINTS
 62
     0
 48
50.0
100
AcDbPoint
 10
4270.665006330065
 20
7598.830393514264
 30
0.0
  0
POINT
  5
2775D
330
22742
100
AcDbEntity
  8
DEFPOINTS
 62
     0
 48
50.0
100
AcDbPoint
 10
4893.599999999995
 20
7523.830393514258
 30
0.0
  0
POINT
  5
2775E
330
22742
100
AcDbEntity
  8
DEFPOINTS
 62
     0
 48
50.0
100
AcDbPoint
 10
4018.721909610671
 20
7523.830393514258
 30
0.0
  0
ENDBLK
  5
2274F
330
22742
100
AcDbEntity
  8
0
 48
50.0
100
AcDbBlockEnd
  0
BLOCK
  5
22768
330
2275C
100
AcDbEntity
  8
0
 48
50.0
100
AcDbBlockBegin
  2
*D22
 70
     1
 10
0.0
 20
0.0
 30
0.0
  3
*D22
  1

  0
LINE
  5
27749
330
2275C
100
AcDbEntity
  8
寸法
 62
     0
 48
50.0
370
    -2
100
AcDbLine
 10
4873.599999999995
 20
5983.830393514289
 30
0.0
 11
3958.721909610667
 21
5983.830393514289
 31
0.0
  0
LINE
  5
2774A
330
2275C
100
AcDbEntity
  8
寸法
 62
     0
 48
50.0
370
    -2
100
AcDbLine
 10
4250.665006330065
 20
5928.830393514314
 30
0.0
 11
3958.721909610667
 21
5928.830393514314
 31
0.0
  0
LINE
  5
2774B
330
2275C
100
AcDbEntity
  8
寸法
 62
     0
 48
50.0
370
    -2
100
AcDbLine
 10
4018.721909610667
 20
5983.830393514289
 30
0.0
 11
4018.721909610667
 21
6083.83039351429
 31
0.0
  0
LINE
  5
2774C
330
2275C
100
AcDbEntity
  8
寸法
 62
     0
 48
50.0
370
    -2
100
AcDbLine
 10
4018.721909610667
 20
5928.830393514314
 30
0.0
 11
4018.721909610667
 21
5828.830393514315
 31
0.0
  0
LINE
  5
2774D
330
2275C
100
AcDbEntity
  8
寸法
 62
     0
 48
50.0
370
    -2
100
AcDbLine
 10
4018.721909610667
 20
5983.830393514289
 30
0.0
 11
4018.721909610667
 21
5928.830393514314
 31
0.0
  0
INSERT
  5
2774E
330
2275C
100
AcDbEntity
  8
寸法
 62
     0
 48
50.0
370
    -2
100
AcDbBlockReference
  2
_DOTSMALL
 10
4018.721909610667
 20
5983.830393514289
 30
0.0
 41
100.0
 42
100.0
 43
100.0
 50
270.0
  0
INSERT
  5
2774F
330
2275C
100
AcDbEntity
  8
寸法
 62
     0
 48
50.0
370
    -2
100
AcDbBlockReference
  2
_DOTSMALL
 10
4018.721909610667
 20
5928.830393514314
 30
0.0
 41
100.0
 42
100.0
 43
100.0
 50
90.0
  0
MTEXT
  5
27750
330
2275C
100
AcDbEntity
  8
寸法
 62
     7
 48
50.0
100
AcDbMText
 10
3918.721909610667
 20
5956.330393514303
 30
0.0
 40
120.0
 41
0.0
 71
     5
 72
     1
  1
\A1;b
  7
STYLE1
 11
0.0000000000000001
 21
1.0
 31
0.0
 73
     1
 44
1.0
1001
ACAD
1000
MTEXTBEGIN
1070
    73
1070
     1
1070
    44
1040
1.0
1070
    74
1070
     0
1000
MTEXTEND
  0
POINT
  5
27751
330
2275C
100
AcDbEntity
  8
DEFPOINTS
 62
     0
 48
50.0
100
AcDbPoint
 10
4893.599999999995
 20
5983.830393514289
 30
0.0
  0
POINT
  5
27752
330
2275C
100
AcDbEntity
  8
DEFPOINTS
 62
     0
 48
50.0
100
AcDbPoint
 10
4270.665006330065
 20
5928.830393514314
 30
0.0
  0
POINT
  5
27753
330
2275C
100
AcDbEntity
  8
DEFPOINTS
 62
     0
 48
50.0
100
AcDbPoint
 10
4018.721909610667
 20
5928.830393514314
 30
0.0
  0
ENDBLK
  5
22769
330
2275C
100
AcDbEntity
  8
0
 48
50.0
100
AcDbBlockEnd
  0
BLOCK
  5
240DC
330
240D1
100
AcDbEntity
  8
0
 48
50.0
100
AcDbBlockBegin
  2
*D23
 70
     1
 10
0.0
 20
0.0
 30
0.0
  3
*D23
  1

  0
LINE
  5
278DE
330
240D1
100
AcDbEntity
  8
寸法
 62
     0
 48
50.0
370
    -2
100
AcDbLine
 10
10953.59999999999
 20
6263.830393514243
 30
0.0
 11
10812.81202022565
 21
6263.830393514243
 31
0.0
  0
LINE
  5
278DF
330
240D1
100
AcDbEntity
  8
寸法
 62
     0
 48
50.0
370
    -2
100
AcDbLine
 10
10953.6
 20
5983.830393514267
 30
0.0
 11
10812.81202022565
 21
5983.830393514267
 31
0.0
  0
LINE
  5
278E0
330
240D1
100
AcDbEntity
  8
寸法
 62
     0
 48
50.0
370
    -2
100
AcDbLine
 10
10872.81202022565
 20
6263.830393514243
 30
0.0
 11
10872.81202022565
 21
5983.830393514267
 31
0.0
  0
LINE
  5
278E1
330
240D1
100
AcDbEntity
  8
寸法
 62
     0
 48
50.0
370
    -2
100
AcDbLine
 10
10872.81202022565
 20
5983.830393514267
 30
0.0
 11
10872.81202022565
 21
5547.29594469536
 31
0.0
  0
INSERT
  5
278E2
330
240D1
100
AcDbEntity
  8
寸法
 62
     0
 48
50.0
370
    -2
100
AcDbBlockReference
  2
_DOTSMALL
 10
10872.81202022565
 20
6263.830393514243
 30
0.0
 41
100.0
 42
100.0
 43
100.0
 50
90.0
  0
INSERT
  5
278E3
330
240D1
100
AcDbEntity
  8
寸法
 62
     0
 48
50.0
370
    -2
100
AcDbBlockReference
  2
_DOTSMALL
 10
10872.81202022565
 20
5983.830393514267
 30
0.0
 41
100.0
 42
100.0
 43
100.0
 50
270.0
  0
MTEXT
  5
278E4
330
240D1
100
AcDbEntity
  8
寸法
 62
     7
 48
50.0
100
AcDbMText
 10
10772.80020920203
 20
5696.866810837095
 30
0.0
 40
120.0
 41
0.0
 71
     5
 72
     1
  1
\A1;280
  7
STYLE1
 11
0.0000000000000001
 21
1.0
 31
0.0
 73
     1
 44
1.0
1001
ACAD
1000
MTEXTBEGIN
1070
    73
1070
     1
1070
    44
1040
1.0
1070
    74
1070
     0
1000
MTEXTEND
  0
POINT
  5
278E5
330
240D1
100
AcDbEntity
  8
DEFPOINTS
 62
     0
 48
50.0
100
AcDbPoint
 10
10973.59999999999
 20
6263.830393514243
 30
0.0
  0
POINT
  5
278E6
330
240D1
100
AcDbEntity
  8
DEFPOINTS
 62
     0
 48
50.0
100
AcDbPoint
 10
10973.6
 20
5983.830393514267
 30
0.0
  0
POINT
  5
278E7
330
240D1
100
AcDbEntity
  8
DEFPOINTS
 62
     0
 48
50.0
100
AcDbPoint
 10
10872.81202022565
 20
5983.830393514267
 30
0.0
  0
ENDBLK
  5
240DD
330
240D1
100
AcDbEntity
  8
0
 48
50.0
100
AcDbBlockEnd
  0
BLOCK
  5
240E9
330
240DE
100
AcDbEntity
  8
0
 48
50.0
100
AcDbBlockBegin
  2
*D24
 70
     1
 10
0.0
 20
0.0
 30
0.0
  3
*D24
  1

  0
LINE
  5
27662
330
240DE
100
AcDbEntity
  8
寸法
 62
     0
 48
50.0
370
    -2
100
AcDbLine
 10
10953.6
 20
7523.830393514235
 30
0.0
 11
10812.81202022565
 21
7523.830393514235
 31
0.0
  0
LINE
  5
27663
330
240DE
100
AcDbEntity
  8
寸法
 62
     0
 48
50.0
370
    -2
100
AcDbLine
 10
10953.6
 20
7323.830393514251
 30
0.0
 11
10812.81202022565
 21
7323.830393514251
 31
0.0
  0
LINE
  5
27664
330
240DE
100
AcDbEntity
  8
寸法
 62
     0
 48
50.0
370
    -2
100
AcDbLine
 10
10872.81202022565
 20
7323.830393514251
 30
0.0
 11
10872.81202022565
 21
7523.830393514235
 31
0.0
  0
LINE
  5
27665
330
240DE
100
AcDbEntity
  8
寸法
 62
     0
 48
50.0
370
    -2
100
AcDbLine
 10
10872.81202022565
 20
7523.830393514235
 30
0.0
 11
10872.81202022565
 21
7960.364842333136
 31
0.0
  0
INSERT
  5
27666
330
240DE
100
AcDbEntity
  8
寸法
 62
     0
 48
50.0
370
    -2
100
AcDbBlockReference
  2
_DOTSMALL
 10
10872.81202022565
 20
7323.830393514251
 30
0.0
 41
100.0
 42
100.0
 43
100.0
 50
270.0
  0
INSERT
  5
27667
330
240DE
100
AcDbEntity
  8
寸法
 62
     0
 48
50.0
370
    -2
100
AcDbBlockReference
  2
_DOTSMALL
 10
10872.81202022565
 20
7523.830393514235
 30
0.0
 41
100.0
 42
100.0
 43
100.0
 50
90.0
  0
MTEXT
  5
27668
330
240DE
100
AcDbEntity
  8
寸法
 62
     7
 48
50.0
100
AcDbMText
 10
10772.80020920203
 20
7810.793976191405
 30
0.0
 40
120.0
 41
0.0
 71
     5
 72
     1
  1
\A1;200
  7
STYLE1
 11
0.0000000000000001
 21
1.0
 31
0.0
 73
     1
 44
1.0
1001
ACAD
1000
MTEXTBEGIN
1070
    73
1070
     1
1070
    44
1040
1.0
1070
    74
1070
     0
1000
MTEXTEND
  0
POINT
  5
27669
330
240DE
100
AcDbEntity
  8
DEFPOINTS
 62
     0
 48
50.0
100
AcDbPoint
 10
10973.6
 20
7523.830393514235
 30
0.0
  0
POINT
  5
2766A
330
240DE
100
AcDbEntity
  8
DEFPOINTS
 62
     0
 48
50.0
100
AcDbPoint
 10
10973.6
 20
7323.830393514251
 30
0.0
  0
POINT
  5
2766B
330
240DE
100
AcDbEntity
  8
DEFPOINTS
 62
     0
 48
50.0
100
AcDbPoint
 10
10872.81202022565
 20
7323.830393514251
 30
0.0
  0
ENDBLK
  5
240EA
330
240DE
100
AcDbEntity
  8
0
 48
50.0
100
AcDbBlockEnd
  0
BLOCK
  5
2713C
330
27132
100
AcDbEntity
  8
0
 48
50.0
100
AcDbBlockBegin
  2
*D25
 70
     1
 10
0.0
 20
0.0
 30
0.0
  3
*D25
  1

  0
LINE
  5
27853
330
27132
100
AcDbEntity
  8
寸法
 62
     0
 48
50.0
370
    -2
100
AcDbLine
 10
5447.765475140899
 20
5983.83039351426
 30
0.0
 11
5316.2859906143
 21
5983.83039351426
 31
0.0
  0
LINE
  5
27854
330
27132
100
AcDbEntity
  8
寸法
 62
     0
 48
50.0
370
    -2
100
AcDbLine
 10
5778.600000000006
 20
6790.830393514248
 30
0.0
 11
5316.2859906143
 21
6790.830393514248
 31
0.0
  0
LINE
  5
27855
330
27132
100
AcDbEntity
  8
寸法
 62
     0
 48
50.0
370
    -2
100
AcDbLine
 10
5376.285990614299
 20
5983.83039351426
 30
0.0
 11
5376.285990614301
 21
6790.830393514248
 31
0.0
  0
INSERT
  5
27856
330
27132
100
AcDbEntity
  8
寸法
 62
     0
 48
50.0
370
    -2
100
AcDbBlockReference
  2
_DOTSMALL
 10
5376.285990614299
 20
5983.83039351426
 30
0.0
 41
100.0
 42
100.0
 43
100.0
 50
270.0
  0
INSERT
  5
27857
330
27132
100
AcDbEntity
  8
寸法
 62
     0
 48
50.0
370
    -2
100
AcDbBlockReference
  2
_DOTSMALL
 10
5376.285990614301
 20
6790.830393514248
 30
0.0
 41
100.0
 42
100.0
 43
100.0
 50
90.0
  0
MTEXT
  5
27858
330
27132
100
AcDbEntity
  8
寸法
 62
     7
 48
50.0
100
AcDbMText
 10
5276.285990614298
 20
6468.830393514249
 30
0.0
 40
120.0
 41
0.0
 71
     5
 72
     1
  1
\A1;807
  7
STYLE1
 11
0.0000000000000001
 21
1.0
 31
0.0
 73
     1
 44
1.0
1001
ACAD
1000
MTEXTBEGIN
1070
    73
1070
     1
1070
    44
1040
1.0
1070
    74
1070
     0
1000
MTEXTEND
  0
POINT
  5
27859
330
27132
100
AcDbEntity
  8
DEFPOINTS
 62
     0
 48
50.0
100
AcDbPoint
 10
5467.765475140899
 20
5983.83039351426
 30
0.0
  0
POINT
  5
2785A
330
27132
100
AcDbEntity
  8
DEFPOINTS
 62
     0
 48
50.0
100
AcDbPoint
 10
5798.600000000006
 20
6790.830393514248
 30
0.0
  0
POINT
  5
2785B
330
27132
100
AcDbEntity
  8
DEFPOINTS
 62
     0
 48
50.0
100
AcDbPoint
 10
5376.285990614301
 20
6790.830393514248
 30
0.0
  0
ENDBLK
  5
2713D
330
27132
100
AcDbEntity
  8
0
 48
50.0
100
AcDbBlockEnd
  0
BLOCK
  5
27147
330
2713E
100
AcDbEntity
  8
0
 48
50.0
100
AcDbBlockBegin
  2
*D26
 70
     1
 10
0.0
 20
0.0
 30
0.0
  3
*D26
  1

  0
LINE
  5
276CF
330
2713E
100
AcDbEntity
  8
寸法
 62
     0
 48
50.0
370
    -2
100
AcDbLine
 10
6680.599999999998
 20
7470.830393514248
 30
0.0
 11
6680.599999999998
 21
8310.096851608159
 31
0.0
  0
LINE
  5
276D0
330
2713E
100
AcDbEntity
  8
寸法
 62
     0
 48
50.0
370
    -2
100
AcDbLine
 10
5016.599999999999
 20
7470.830393514248
 30
0.0
 11
5016.599999999999
 21
8310.096851608159
 31
0.0
  0
LINE
  5
276D1
330
2713E
100
AcDbEntity
  8
寸法
 62
     0
 48
50.0
370
    -2
100
AcDbLine
 10
6680.599999999998
 20
8250.09685160816
 30
0.0
 11
5016.599999999999
 21
8250.09685160816
 31
0.0
  0
INSERT
  5
276D2
330
2713E
100
AcDbEntity
  8
寸法
 62
     0
 48
50.0
370
    -2
100
AcDbBlockReference
  2
_DOTSMALL
 10
6680.599999999998
 20
8250.09685160816
 30
0.0
 41
100.0
 42
100.0
 43
100.0
  0
INSERT
  5
276D3
330
2713E
100
AcDbEntity
  8
寸法
 62
     0
 48
50.0
370
    -2
100
AcDbBlockReference
  2
_DOTSMALL
 10
5016.599999999999
 20
8250.09685160816
 30
0.0
 41
100.0
 42
100.0
 43
100.0
 50
180.0
  0
MTEXT
  5
276D4
330
2713E
100
AcDbEntity
  8
寸法
 62
     7
 48
50.0
100
AcDbMText
 10
5848.599999999999
 20
8350.09685160816
 30
0.0
 40
120.0
 41
0.0
 71
     5
 72
     1
  1
\A1;1664
  7
STYLE1
 73
     1
 44
1.0
1001
ACAD
1000
MTEXTBEGIN
1070
    73
1070
     1
1070
    44
1040
1.0
1070
    74
1070
     0
1000
MTEXTEND
  0
POINT
  5
276D5
330
2713E
100
AcDbEntity
  8
DEFPOINTS
 62
     0
 48
50.0
100
AcDbPoint
 10
6680.599999999998
 20
7450.830393514249
 30
0.0
  0
POINT
  5
276D6
330
2713E
100
AcDbEntity
  8
DEFPOINTS
 62
     0
 48
50.0
100
AcDbPoint
 10
5016.599999999999
 20
7450.830393514249
 30
0.0
  0
POINT
  5
276D7
330
2713E
100
AcDbEntity
  8
DEFPOINTS
 62
     0
 48
50.0
100
AcDbPoint
 10
5016.599999999999
 20
8250.09685160816
 30
0.0
  0
ENDBLK
  5
27148
330
2713E
100
AcDbEntity
  8
0
 48
50.0
100
AcDbBlockEnd
  0
BLOCK
  5
27154
330
27149
100
AcDbEntity
  8
0
 48
50.0
100
AcDbBlockBegin
  2
*D27
 70
     1
 10
0.0
 20
0.0
 30
0.0
  3
*D27
  1

  0
LINE
  5
276C5
330
27149
100
AcDbEntity
  8
寸法
 62
     0
 48
50.0
370
    -2
100
AcDbLine
 10
5016.599999999999
 20
7470.830393514248
 30
0.0
 11
5016.599999999999
 21
8310.096851608159
 31
0.0
  0
LINE
  5
276C6
330
27149
100
AcDbEntity
  8
寸法
 62
     0
 48
50.0
370
    -2
100
AcDbLine
 10
4893.599999999999
 20
7543.830393514248
 30
0.0
 11
4893.599999999999
 21
8310.096851608159
 31
0.0
  0
LINE
  5
276C7
330
27149
100
AcDbEntity
  8
寸法
 62
     0
 48
50.0
370
    -2
100
AcDbLine
 10
5016.599999999999
 20
8250.09685160816
 30
0.0
 11
4893.599999999999
 21
8250.09685160816
 31
0.0
  0
LINE
  5
276C8
330
27149
100
AcDbEntity
  8
寸法
 62
     0
 48
50.0
370
    -2
100
AcDbLine
 10
4893.599999999999
 20
8250.09685160816
 30
0.0
 11
4482.008116907961
 21
8250.09685160816
 31
0.0
  0
INSERT
  5
276C9
330
27149
100
AcDbEntity
  8
寸法
 62
     0
 48
50.0
370
    -2
100
AcDbBlockReference
  2
_DOTSMALL
 10
5016.599999999999
 20
8250.09685160816
 30
0.0
 41
100.0
 42
100.0
 43
100.0
  0
INSERT
  5
276CA
330
27149
100
AcDbEntity
  8
寸法
 62
     0
 48
50.0
370
    -2
100
AcDbBlockReference
  2
_DOTSMALL
 10
4893.599999999999
 20
8250.09685160816
 30
0.0
 41
100.0
 42
100.0
 43
100.0
 50
180.0
  0
MTEXT
  5
276CB
330
27149
100
AcDbEntity
  8
寸法
 62
     7
 48
50.0
100
AcDbMText
 10
4620.4933982822
 20
8350.108662631781
 30
0.0
 40
120.0
 41
0.0
 71
     5
 72
     1
  1
\A1;123
  7
STYLE1
 73
     1
 44
1.0
1001
ACAD
1000
MTEXTBEGIN
1070
    73
1070
     1
1070
    44
1040
1.0
1070
    74
1070
     0
1000
MTEXTEND
  0
POINT
  5
276CC
330
27149
100
AcDbEntity
  8
DEFPOINTS
 62
     0
 48
50.0
100
AcDbPoint
 10
5016.599999999999
 20
7450.830393514249
 30
0.0
  0
POINT
  5
276CD
330
27149
100
AcDbEntity
  8
DEFPOINTS
 62
     0
 48
50.0
100
AcDbPoint
 10
4893.599999999999
 20
7523.830393514248
 30
0.0
  0
POINT
  5
276CE
330
27149
100
AcDbEntity
  8
DEFPOINTS
 62
     0
 48
50.0
100
AcDbPoint
 10
4893.599999999999
 20
8250.09685160816
 30
0.0
  0
ENDBLK
  5
27155
330
27149
100
AcDbEntity
  8
0
 48
50.0
100
AcDbBlockEnd
  0
BLOCK
  5
27178
330
2716D
100
AcDbEntity
  8
0
 48
50.0
100
AcDbBlockBegin
  2
*D28
 70
     1
 10
0.0
 20
0.0
 30
0.0
  3
*D28
  1

  0
LINE
  5
27723
330
2716D
100
AcDbEntity
  8
寸法
 62
     0
 48
50.0
370
    -2
100
AcDbLine
 10
4873.599999999999
 20
7523.830393514248
 30
0.0
 11
4210.66500633007
 21
7523.830393514248
 31
0.0
  0
LINE
  5
27724
330
2716D
100
AcDbEntity
  8
寸法
 62
     0
 48
50.0
370
    -2
100
AcDbLine
 10
4946.599999999999
 20
7400.830393514249
 30
0.0
 11
4210.66500633007
 21
7400.830393514249
 31
0.0
  0
LINE
  5
27725
330
2716D
100
AcDbEntity
  8
寸法
 62
     0
 48
50.0
370
    -2
100
AcDbLine
 10
4270.66500633007
 20
7400.830393514249
 30
0.0
 11
4270.66500633007
 21
7523.830393514248
 31
0.0
  0
LINE
  5
27726
330
2716D
100
AcDbEntity
  8
寸法
 62
     0
 48
50.0
370
    -2
100
AcDbLine
 10
4270.66500633007
 20
7523.830393514248
 30
0.0
 11
4270.66500633007
 21
7935.422276606288
 31
0.0
  0
INSERT
  5
27727
330
2716D
100
AcDbEntity
  8
寸法
 62
     0
 48
50.0
370
    -2
100
AcDbBlockReference
  2
_DOTSMALL
 10
4270.66500633007
 20
7400.830393514249
 30
0.0
 41
100.0
 42
100.0
 43
100.0
 50
270.0
  0
INSERT
  5
27728
330
2716D
100
AcDbEntity
  8
寸法
 62
     0
 48
50.0
370
    -2
100
AcDbBlockReference
  2
_DOTSMALL
 10
4270.66500633007
 20
7523.830393514248
 30
0.0
 41
100.0
 42
100.0
 43
100.0
 50
90.0
  0
MTEXT
  5
27729
330
2716D
100
AcDbEntity
  8
寸法
 62
     7
 48
50.0
100
AcDbMText
 10
4170.653195306448
 20
7796.936995232049
 30
0.0
 40
120.0
 41
0.0
 71
     5
 72
     1
  1
\A1;123
  7
STYLE1
 11
0.0000000000000001
 21
1.0
 31
0.0
 73
     1
 44
1.0
1001
ACAD
1000
MTEXTBEGIN
1070
    73
1070
     1
1070
    44
1040
1.0
1070
    74
1070
     0
1000
MTEXTEND
  0
POINT
  5
2772A
330
2716D
100
AcDbEntity
  8
DEFPOINTS
 62
     0
 48
50.0
100
AcDbPoint
 10
4893.599999999999
 20
7523.830393514248
 30
0.0
  0
POINT
  5
2772B
330
2716D
100
AcDbEntity
  8
DEFPOINTS
 62
     0
 48
50.0
100
AcDbPoint
 10
4966.599999999999
 20
7400.830393514249
 30
0.0
  0
POINT
  5
2772C
330
2716D
100
AcDbEntity
  8
DEFPOINTS
 62
     0
 48
50.0
100
AcDbPoint
 10
4270.66500633007
 20
7400.830393514249
 30
0.0
  0
ENDBLK
  5
27179
330
2716D
100
AcDbEntity
  8
0
 48
50.0
100
AcDbBlockEnd
  0
BLOCK
  5
27191
330
27187
100
AcDbEntity
  8
0
 48
50.0
100
AcDbBlockBegin
  2
*D29
 70
     1
 10
0.0
 20
0.0
 30
0.0
  3
*D29
  1

  0
LINE
  5
277DE
330
27187
100
AcDbEntity
  8
寸法
 62
     0
 48
50.0
370
    -2
100
AcDbLine
 10
10598.6
 20
6860.830393514248
 30
0.0
 11
10598.6
 21
8066.439210184496
 31
0.0
  0
LINE
  5
277DF
330
27187
100
AcDbEntity
  8
寸法
 62
     0
 48
50.0
370
    -2
100
AcDbLine
 10
9648.600000000007
 20
6860.830393514248
 30
0.0
 11
9648.600000000007
 21
8066.439210184496
 31
0.0
  0
LINE
  5
277E0
330
27187
100
AcDbEntity
  8
寸法
 62
     0
 48
50.0
370
    -2
100
AcDbLine
 10
10598.6
 20
8006.439210184497
 30
0.0
 11
9648.600000000007
 21
8006.439210184497
 31
0.0
  0
INSERT
  5
277E1
330
27187
100
AcDbEntity
  8
寸法
 62
     0
 48
50.0
370
    -2
100
AcDbBlockReference
  2
_DOTSMALL
 10
10598.6
 20
8006.439210184497
 30
0.0
 41
100.0
 42
100.0
 43
100.0
  0
INSERT
  5
277E2
330
27187
100
AcDbEntity
  8
寸法
 62
     0
 48
50.0
370
    -2
100
AcDbBlockReference
  2
_DOTSMALL
 10
9648.600000000007
 20
8006.439210184497
 30
0.0
 41
100.0
 42
100.0
 43
100.0
 50
180.0
  0
MTEXT
  5
277E3
330
27187
100
AcDbEntity
  8
寸法
 62
     7
 48
50.0
100
AcDbMText
 10
10123.6
 20
8106.439210184497
 30
0.0
 40
120.0
 41
0.0
 71
     5
 72
     1
  1
\A1;950
  7
STYLE1
 73
     1
 44
1.0
1001
ACAD
1000
MTEXTBEGIN
1070
    73
1070
     1
1070
    44
1040
1.0
1070
    74
1070
     0
1000
MTEXTEND
  0
POINT
  5
277E4
330
27187
100
AcDbEntity
  8
DEFPOINTS
 62
     0
 48
50.0
100
AcDbPoint
 10
10598.6
 20
6840.830393514249
 30
0.0
  0
POINT
  5
277E5
330
27187
100
AcDbEntity
  8
DEFPOINTS
 62
     0
 48
50.0
100
AcDbPoint
 10
9648.600000000007
 20
6840.830393514249
 30
0.0
  0
POINT
  5
277E6
330
27187
100
AcDbEntity
  8
DEFPOINTS
 62
     0
 48
50.0
100
AcDbPoint
 10
9648.600000000007
 20
8006.439210184497
 30
0.0
  0
ENDBLK
  5
27192
330
27187
100
AcDbEntity
  8
0
 48
50.0
100
AcDbBlockEnd
  0
BLOCK
  5
2719D
330
27193
100
AcDbEntity
  8
0
 48
50.0
100
AcDbBlockBegin
  2
*D30
 70
     1
 10
0.0
 20
0.0
 30
0.0
  3
*D30
  1

  0
LINE
  5
277C3
330
27193
100
AcDbEntity
  8
寸法
 62
     0
 48
50.0
370
    -2
100
AcDbLine
 10
11553.6
 20
7543.830393514248
 30
0.0
 11
11553.6
 21
8066.439210184496
 31
0.0
  0
LINE
  5
277C4
330
27193
100
AcDbEntity
  8
寸法
 62
     0
 48
50.0
370
    -2
100
AcDbLine
 10
10598.6
 20
6860.830393514248
 30
0.0
 11
10598.6
 21
8066.439210184496
 31
0.0
  0
LINE
  5
277C5
330
27193
100
AcDbEntity
  8
寸法
 62
     0
 48
50.0
370
    -2
100
AcDbLine
 10
11553.6
 20
8006.439210184497
 30
0.0
 11
10598.6
 21
8006.439210184497
 31
0.0
  0
INSERT
  5
277C6
330
27193
100
AcDbEntity
  8
寸法
 62
     0
 48
50.0
370
    -2
100
AcDbBlockReference
  2
_DOTSMALL
 10
11553.6
 20
8006.439210184497
 30
0.0
 41
100.0
 42
100.0
 43
100.0
  0
INSERT
  5
277C7
330
27193
100
AcDbEntity
  8
寸法
 62
     0
 48
50.0
370
    -2
100
AcDbBlockReference
  2
_DOTSMALL
 10
10598.6
 20
8006.439210184497
 30
0.0
 41
100.0
 42
100.0
 43
100.0
 50
180.0
  0
MTEXT
  5
277C8
330
27193
100
AcDbEntity
  8
寸法
 62
     7
 48
50.0
100
AcDbMText
 10
11076.1
 20
8106.439210184497
 30
0.0
 40
120.0
 41
0.0
 71
     5
 72
     1
  1
\A1;955
  7
STYLE1
 73
     1
 44
1.0
1001
ACAD
1000
MTEXTBEGIN
1070
    73
1070
     1
1070
    44
1040
1.0
1070
    74
1070
     0
1000
MTEXTEND
  0
POINT
  5
277C9
330
27193
100
AcDbEntity
  8
DEFPOINTS
 62
     0
 48
50.0
100
AcDbPoint
 10
11553.6
 20
7523.830393514248
 30
0.0
  0
POINT
  5
277CA
330
27193
100
AcDbEntity
  8
DEFPOINTS
 62
     0
 48
50.0
100
AcDbPoint
 10
10598.6
 20
6840.830393514249
 30
0.0
  0
POINT
  5
277CB
330
27193
100
AcDbEntity
  8
DEFPOINTS
 62
     0
 48
50.0
100
AcDbPoint
 10
10598.6
 20
8006.439210184497
 30
0.0
  0
ENDBLK
  5
2719E
330
27193
100
AcDbEntity
  8
0
 48
50.0
100
AcDbBlockEnd
  0
BLOCK
  5
271A9
330
2719F
100
AcDbEntity
  8
0
 48
50.0
100
AcDbBlockBegin
  2
*D31
 70
     1
 10
0.0
 20
0.0
 30
0.0
  3
*D31
  1

  0
LINE
  5
27814
330
2719F
100
AcDbEntity
  8
寸法
 62
     0
 48
50.0
370
    -2
100
AcDbLine
 10
9648.600000000007
 20
6860.830393514248
 30
0.0
 11
9648.600000000007
 21
8066.439210184496
 31
0.0
  0
LINE
  5
27815
330
2719F
100
AcDbEntity
  8
寸法
 62
     0
 48
50.0
370
    -2
100
AcDbLine
 10
8698.600000000006
 20
6860.830393514248
 30
0.0
 11
8698.600000000006
 21
8066.439210184496
 31
0.0
  0
LINE
  5
27816
330
2719F
100
AcDbEntity
  8
寸法
 62
     0
 48
50.0
370
    -2
100
AcDbLine
 10
9648.600000000007
 20
8006.439210184497
 30
0.0
 11
8698.600000000006
 21
8006.439210184497
 31
0.0
  0
INSERT
  5
27817
330
2719F
100
AcDbEntity
  8
寸法
 62
     0
 48
50.0
370
    -2
100
AcDbBlockReference
  2
_DOTSMALL
 10
9648.600000000007
 20
8006.439210184497
 30
0.0
 41
100.0
 42
100.0
 43
100.0
  0
INSERT
  5
27818
330
2719F
100
AcDbEntity
  8
寸法
 62
     0
 48
50.0
370
    -2
100
AcDbBlockReference
  2
_DOTSMALL
 10
8698.600000000006
 20
8006.439210184497
 30
0.0
 41
100.0
 42
100.0
 43
100.0
 50
180.0
  0
MTEXT
  5
27819
330
2719F
100
AcDbEntity
  8
寸法
 62
     7
 48
50.0
100
AcDbMText
 10
9173.600000000005
 20
8106.439210184497
 30
0.0
 40
120.0
 41
0.0
 71
     5
 72
     1
  1
\A1;950
  7
STYLE1
 73
     1
 44
1.0
1001
ACAD
1000
MTEXTBEGIN
1070
    73
1070
     1
1070
    44
1040
1.0
1070
    74
1070
     0
1000
MTEXTEND
  0
POINT
  5
2781A
330
2719F
100
AcDbEntity
  8
DEFPOINTS
 62
     0
 48
50.0
100
AcDbPoint
 10
9648.600000000007
 20
6840.830393514249
 30
0.0
  0
POINT
  5
2781B
330
2719F
100
AcDbEntity
  8
DEFPOINTS
 62
     0
 48
50.0
100
AcDbPoint
 10
8698.600000000006
 20
6840.830393514249
 30
0.0
  0
POINT
  5
2781C
330
2719F
100
AcDbEntity
  8
DEFPOINTS
 62
     0
 48
50.0
100
AcDbPoint
 10
8698.600000000006
 20
8006.439210184497
 30
0.0
  0
ENDBLK
  5
271AA
330
2719F
100
AcDbEntity
  8
0
 48
50.0
100
AcDbBlockEnd
  0
BLOCK
  5
271D0
330
271C5
100
AcDbEntity
  8
0
 48
50.0
100
AcDbBlockBegin
  2
*D32
 70
     1
 10
0.0
 20
0.0
 30
0.0
  3
*D32
  1

  0
LINE
  5
27719
330
271C5
100
AcDbEntity
  8
寸法
 62
     0
 48
50.0
370
    -2
100
AcDbLine
 10
11553.6
 20
7543.830393514248
 30
0.0
 11
11553.6
 21
8310.096851608159
 31
0.0
  0
LINE
  5
2771A
330
271C5
100
AcDbEntity
  8
寸法
 62
     0
 48
50.0
370
    -2
100
AcDbLine
 10
11430.6
 20
7470.830393514248
 30
0.0
 11
11430.6
 21
8310.096851608159
 31
0.0
  0
LINE
  5
2771B
330
271C5
100
AcDbEntity
  8
寸法
 62
     0
 48
50.0
370
    -2
100
AcDbLine
 10
11430.6
 20
8250.09685160816
 30
0.0
 11
11553.6
 21
8250.09685160816
 31
0.0
  0
LINE
  5
2771C
330
271C5
100
AcDbEntity
  8
寸法
 62
     0
 48
50.0
370
    -2
100
AcDbLine
 10
11553.6
 20
8250.09685160816
 30
0.0
 11
11965.19188309203
 21
8250.09685160816
 31
0.0
  0
INSERT
  5
2771D
330
271C5
100
AcDbEntity
  8
寸法
 62
     0
 48
50.0
370
    -2
100
AcDbBlockReference
  2
_DOTSMALL
 10
11430.6
 20
8250.09685160816
 30
0.0
 41
100.0
 42
100.0
 43
100.0
 50
180.0
  0
INSERT
  5
2771E
330
271C5
100
AcDbEntity
  8
寸法
 62
     0
 48
50.0
370
    -2
100
AcDbBlockReference
  2
_DOTSMALL
 10
11553.6
 20
8250.09685160816
 30
0.0
 41
100.0
 42
100.0
 43
100.0
  0
MTEXT
  5
2771F
330
271C5
100
AcDbEntity
  8
寸法
 62
     7
 48
50.0
100
AcDbMText
 10
11826.7066017178
 20
8350.108662631781
 30
0.0
 40
120.0
 41
0.0
 71
     5
 72
     1
  1
\A1;123
  7
STYLE1
 73
     1
 44
1.0
1001
ACAD
1000
MTEXTBEGIN
1070
    73
1070
     1
1070
    44
1040
1.0
1070
    74
1070
     0
1000
MTEXTEND
  0
POINT
  5
27720
330
271C5
100
AcDbEntity
  8
DEFPOINTS
 62
     0
 48
50.0
100
AcDbPoint
 10
11553.6
 20
7523.830393514248
 30
0.0
  0
POINT
  5
27721
330
271C5
100
AcDbEntity
  8
DEFPOINTS
 62
     0
 48
50.0
100
AcDbPoint
 10
11430.6
 20
7450.830393514249
 30
0.0
  0
POINT
  5
27722
330
271C5
100
AcDbEntity
  8
DEFPOINTS
 62
     0
 48
50.0
100
AcDbPoint
 10
11430.6
 20
8250.09685160816
 30
0.0
  0
ENDBLK
  5
271D1
330
271C5
100
AcDbEntity
  8
0
 48
50.0
100
AcDbBlockEnd
  0
BLOCK
  5
271DC
330
271D2
100
AcDbEntity
  8
0
 48
50.0
100
AcDbBlockBegin
  2
*D33
 70
     1
 10
0.0
 20
0.0
 30
0.0
  3
*D33
  1

  0
LINE
  5
276A1
330
271D2
100
AcDbEntity
  8
寸法
 62
     0
 48
50.0
370
    -2
100
AcDbLine
 10
11430.6
 20
7470.830393514248
 30
0.0
 11
11430.6
 21
8310.096851608159
 31
0.0
  0
LINE
  5
276A2
330
271D2
100
AcDbEntity
  8
寸法
 62
     0
 48
50.0
370
    -2
100
AcDbLine
 10
8580.599999999998
 20
7470.830393514248
 30
0.0
 11
8580.599999999998
 21
8310.096851608159
 31
0.0
  0
LINE
  5
276A3
330
271D2
100
AcDbEntity
  8
寸法
 62
     0
 48
50.0
370
    -2
100
AcDbLine
 10
11430.6
 20
8250.09685160816
 30
0.0
 11
8580.599999999998
 21
8250.09685160816
 31
0.0
  0
INSERT
  5
276A4
330
271D2
100
AcDbEntity
  8
寸法
 62
     0
 48
50.0
370
    -2
100
AcDbBlockReference
  2
_DOTSMALL
 10
11430.6
 20
8250.09685160816
 30
0.0
 41
100.0
 42
100.0
 43
100.0
  0
INSERT
  5
276A5
330
271D2
100
AcDbEntity
  8
寸法
 62
     0
 48
50.0
370
    -2
100
AcDbBlockReference
  2
_DOTSMALL
 10
8580.599999999998
 20
8250.09685160816
 30
0.0
 41
100.0
 42
100.0
 43
100.0
 50
180.0
  0
MTEXT
  5
276A6
330
271D2
100
AcDbEntity
  8
寸法
 62
     7
 48
50.0
100
AcDbMText
 10
10005.6
 20
8350.108662631781
 30
0.0
 40
120.0
 41
0.0
 71
     5
 72
     1
  1
\A1;2850
  7
STYLE1
 73
     1
 44
1.0
1001
ACAD
1000
MTEXTBEGIN
1070
    73
1070
     1
1070
    44
1040
1.0
1070
    74
1070
     0
1000
MTEXTEND
  0
POINT
  5
276A7
330
271D2
100
AcDbEntity
  8
DEFPOINTS
 62
     0
 48
50.0
100
AcDbPoint
 10
11430.6
 20
7450.830393514249
 30
0.0
  0
POINT
  5
276A8
330
271D2
100
AcDbEntity
  8
DEFPOINTS
 62
     0
 48
50.0
100
AcDbPoint
 10
8580.599999999998
 20
7450.830393514249
 30
0.0
  0
POINT
  5
276A9
330
271D2
100
AcDbEntity
  8
DEFPOINTS
 62
     0
 48
50.0
100
AcDbPoint
 10
8580.599999999998
 20
8250.09685160816
 30
0.0
  0
ENDBLK
  5
271DD
330
271D2
100
AcDbEntity
  8
0
 48
50.0
100
AcDbBlockEnd
  0
BLOCK
  5
271E8
330
271DE
100
AcDbEntity
  8
0
 48
50.0
100
AcDbBlockBegin
  2
*D34
 70
     1
 10
0.0
 20
0.0
 30
0.0
  3
*D34
  1

  0
LINE
  5
27826
330
271DE
100
AcDbEntity
  8
寸法
 62
     0
 48
50.0
370
    -2
100
AcDbLine
 10
8698.600000000006
 20
6860.830393514248
 30
0.0
 11
8698.600000000006
 21
8066.439210184496
 31
0.0
  0
LINE
  5
27827
330
271DE
100
AcDbEntity
  8
寸法
 62
     0
 48
50.0
370
    -2
100
AcDbLine
 10
7748.600000000006
 20
6860.830393514248
 30
0.0
 11
7748.600000000006
 21
8066.439210184496
 31
0.0
  0
LINE
  5
27828
330
271DE
100
AcDbEntity
  8
寸法
 62
     0
 48
50.0
370
    -2
100
AcDbLine
 10
8698.600000000006
 20
8006.439210184497
 30
0.0
 11
7748.600000000006
 21
8006.439210184497
 31
0.0
  0
INSERT
  5
27829
330
271DE
100
AcDbEntity
  8
寸法
 62
     0
 48
50.0
370
    -2
100
AcDbBlockReference
  2
_DOTSMALL
 10
8698.600000000006
 20
8006.439210184497
 30
0.0
 41
100.0
 42
100.0
 43
100.0
  0
INSERT
  5
2782A
330
271DE
100
AcDbEntity
  8
寸法
 62
     0
 48
50.0
370
    -2
100
AcDbBlockReference
  2
_DOTSMALL
 10
7748.600000000006
 20
8006.439210184497
 30
0.0
 41
100.0
 42
100.0
 43
100.0
 50
180.0
  0
MTEXT
  5
2782B
330
271DE
100
AcDbEntity
  8
寸法
 62
     7
 48
50.0
100
AcDbMText
 10
8223.600000000006
 20
8106.439210184497
 30
0.0
 40
120.0
 41
0.0
 71
     5
 72
     1
  1
\A1;950
  7
STYLE1
 73
     1
 44
1.0
1001
ACAD
1000
MTEXTBEGIN
1070
    73
1070
     1
1070
    44
1040
1.0
1070
    74
1070
     0
1000
MTEXTEND
  0
POINT
  5
2782C
330
271DE
100
AcDbEntity
  8
DEFPOINTS
 62
     0
 48
50.0
100
AcDbPoint
 10
8698.600000000006
 20
6840.830393514249
 30
0.0
  0
POINT
  5
2782D
330
271DE
100
AcDbEntity
  8
DEFPOINTS
 62
     0
 48
50.0
100
AcDbPoint
 10
7748.600000000006
 20
6840.830393514249
 30
0.0
  0
POINT
  5
2782E
330
271DE
100
AcDbEntity
  8
DEFPOINTS
 62
     0
 48
50.0
100
AcDbPoint
 10
7748.600000000006
 20
8006.439210184497
 30
0.0
  0
ENDBLK
  5
271E9
330
271DE
100
AcDbEntity
  8
0
 48
50.0
100
AcDbBlockEnd
  0
BLOCK
  5
271F3
330
271EA
100
AcDbEntity
  8
0
 48
50.0
100
AcDbBlockBegin
  2
*D35
 70
     1
 10
0.0
 20
0.0
 30
0.0
  3
*D35
  1

  0
LINE
  5
276FC
330
271EA
100
AcDbEntity
  8
寸法
 62
     0
 48
50.0
370
    -2
100
AcDbLine
 10
8580.599999999998
 20
7470.830393514248
 30
0.0
 11
8580.599999999998
 21
8310.096851608159
 31
0.0
  0
LINE
  5
276FD
330
271EA
100
AcDbEntity
  8
寸法
 62
     0
 48
50.0
370
    -2
100
AcDbLine
 10
6680.599999999998
 20
7470.830393514248
 30
0.0
 11
6680.599999999998
 21
8310.096851608159
 31
0.0
  0
LINE
  5
276FE
330
271EA
100
AcDbEntity
  8
寸法
 62
     0
 48
50.0
370
    -2
100
AcDbLine
 10
8580.599999999998
 20
8250.09685160816
 30
0.0
 11
6680.599999999998
 21
8250.09685160816
 31
0.0
  0
INSERT
  5
276FF
330
271EA
100
AcDbEntity
  8
寸法
 62
     0
 48
50.0
370
    -2
100
AcDbBlockReference
  2
_DOTSMALL
 10
8580.599999999998
 20
8250.09685160816
 30
0.0
 41
100.0
 42
100.0
 43
100.0
  0
INSERT
  5
27700
330
271EA
100
AcDbEntity
  8
寸法
 62
     0
 48
50.0
370
    -2
100
AcDbBlockReference
  2
_DOTSMALL
 10
6680.599999999998
 20
8250.09685160816
 30
0.0
 41
100.0
 42
100.0
 43
100.0
 50
180.0
  0
MTEXT
  5
27701
330
271EA
100
AcDbEntity
  8
寸法
 62
     7
 48
50.0
100
AcDbMText
 10
7630.599999999998
 20
8350.09685160816
 30
0.0
 40
120.0
 41
0.0
 71
     5
 72
     1
  1
\A1;1900
  7
STYLE1
 73
     1
 44
1.0
1001
ACAD
1000
MTEXTBEGIN
1070
    73
1070
     1
1070
    44
1040
1.0
1070
    74
1070
     0
1000
MTEXTEND
  0
POINT
  5
27702
330
271EA
100
AcDbEntity
  8
DEFPOINTS
 62
     0
 48
50.0
100
AcDbPoint
 10
8580.599999999998
 20
7450.830393514249
 30
0.0
  0
POINT
  5
27703
330
271EA
100
AcDbEntity
  8
DEFPOINTS
 62
     0
 48
50.0
100
AcDbPoint
 10
6680.599999999998
 20
7450.830393514249
 30
0.0
  0
POINT
  5
27704
330
271EA
100
AcDbEntity
  8
DEFPOINTS
 62
     0
 48
50.0
100
AcDbPoint
 10
6680.599999999998
 20
8250.09685160816
 30
0.0
  0
ENDBLK
  5
271F4
330
271EA
100
AcDbEntity
  8
0
 48
50.0
100
AcDbBlockEnd
  0
BLOCK
  5
271FF
330
271F5
100
AcDbEntity
  8
0
 48
50.0
100
AcDbBlockBegin
  2
*D36
 70
     1
 10
0.0
 20
0.0
 30
0.0
  3
*D36
  1

  0
LINE
  5
276F3
330
271F5
100
AcDbEntity
  8
寸法
 62
     0
 48
50.0
370
    -2
100
AcDbLine
 10
4893.599999999999
 20
7543.830393514248
 30
0.0
 11
4893.599999999999
 21
8542.050715573166
 31
0.0
  0
LINE
  5
276F4
330
271F5
100
AcDbEntity
  8
寸法
 62
     0
 48
50.0
370
    -2
100
AcDbLine
 10
11553.6
 20
7543.830393514248
 30
0.0
 11
11553.6
 21
8542.050715573166
 31
0.0
  0
LINE
  5
276F5
330
271F5
100
AcDbEntity
  8
寸法
 62
     0
 48
50.0
370
    -2
100
AcDbLine
 10
4893.599999999999
 20
8482.050715573166
 30
0.0
 11
11553.6
 21
8482.050715573166
 31
0.0
  0
INSERT
  5
276F6
330
271F5
100
AcDbEntity
  8
寸法
 62
     0
 48
50.0
370
    -2
100
AcDbBlockReference
  2
_DOTSMALL
 10
4893.599999999999
 20
8482.050715573166
 30
0.0
 41
100.0
 42
100.0
 43
100.0
 50
180.0
  0
INSERT
  5
276F7
330
271F5
100
AcDbEntity
  8
寸法
 62
     0
 48
50.0
370
    -2
100
AcDbBlockReference
  2
_DOTSMALL
 10
11553.6
 20
8482.050715573166
 30
0.0
 41
100.0
 42
100.0
 43
100.0
  0
MTEXT
  5
276F8
330
271F5
100
AcDbEntity
  8
寸法
 62
     7
 48
50.0
100
AcDbMText
 10
8223.599999999999
 20
8582.050715573165
 30
0.0
 40
120.0
 41
0.0
 71
     5
 72
     1
  1
\A1;6660
  7
STYLE1
 73
     1
 44
1.0
1001
ACAD
1000
MTEXTBEGIN
1070
    73
1070
     1
1070
    44
1040
1.0
1070
    74
1070
     0
1000
MTEXTEND
  0
POINT
  5
276F9
330
271F5
100
AcDbEntity
  8
DEFPOINTS
 62
     0
 48
50.0
100
AcDbPoint
 10
4893.599999999999
 20
7523.830393514248
 30
0.0
  0
POINT
  5
276FA
330
271F5
100
AcDbEntity
  8
DEFPOINTS
 62
     0
 48
50.0
100
AcDbPoint
 10
11553.6
 20
7523.830393514248
 30
0.0
  0
POINT
  5
276FB
330
271F5
100
AcDbEntity
  8
DEFPOINTS
 62
     0
 48
50.0
100
AcDbPoint
 10
11553.6
 20
8482.050715573166
 30
0.0
  0
ENDBLK
  5
27200
330
271F5
100
AcDbEntity
  8
0
 48
50.0
100
AcDbBlockEnd
  0
BLOCK
  5
2720B
330
27201
100
AcDbEntity
  8
0
 48
50.0
100
AcDbBlockBegin
  2
*D37
 70
     1
 10
0.0
 20
0.0
 30
0.0
  3
*D37
  1

  0
LINE
  5
27838
330
27201
100
AcDbEntity
  8
寸法
 62
     0
 48
50.0
370
    -2
100
AcDbLine
 10
7748.600000000006
 20
6860.830393514248
 30
0.0
 11
7748.600000000006
 21
8066.439210184496
 31
0.0
  0
LINE
  5
27839
330
27201
100
AcDbEntity
  8
寸法
 62
     0
 48
50.0
370
    -2
100
AcDbLine
 10
6798.600000000006
 20
6860.830393514248
 30
0.0
 11
6798.600000000006
 21
8066.439210184496
 31
0.0
  0
LINE
  5
2783A
330
27201
100
AcDbEntity
  8
寸法
 62
     0
 48
50.0
370
    -2
100
AcDbLine
 10
7748.600000000006
 20
8006.439210184497
 30
0.0
 11
6798.600000000006
 21
8006.439210184497
 31
0.0
  0
INSERT
  5
2783B
330
27201
100
AcDbEntity
  8
寸法
 62
     0
 48
50.0
370
    -2
100
AcDbBlockReference
  2
_DOTSMALL
 10
7748.600000000006
 20
8006.439210184497
 30
0.0
 41
100.0
 42
100.0
 43
100.0
  0
INSERT
  5
2783C
330
27201
100
AcDbEntity
  8
寸法
 62
     0
 48
50.0
370
    -2
100
AcDbBlockReference
  2
_DOTSMALL
 10
6798.600000000006
 20
8006.439210184497
 30
0.0
 41
100.0
 42
100.0
 43
100.0
 50
180.0
  0
MTEXT
  5
2783D
330
27201
100
AcDbEntity
  8
寸法
 62
     7
 48
50.0
100
AcDbMText
 10
7273.600000000006
 20
8106.439210184497
 30
0.0
 40
120.0
 41
0.0
 71
     5
 72
     1
  1
\A1;950
  7
STYLE1
 73
     1
 44
1.0
1001
ACAD
1000
MTEXTBEGIN
1070
    73
1070
     1
1070
    44
1040
1.0
1070
    74
1070
     0
1000
MTEXTEND
  0
POINT
  5
2783E
330
27201
100
AcDbEntity
  8
DEFPOINTS
 62
     0
 48
50.0
100
AcDbPoint
 10
7748.600000000006
 20
6840.830393514249
 30
0.0
  0
POINT
  5
2783F
330
27201
100
AcDbEntity
  8
DEFPOINTS
 62
     0
 48
50.0
100
AcDbPoint
 10
6798.600000000006
 20
6840.830393514249
 30
0.0
  0
POINT
  5
27840
330
27201
100
AcDbEntity
  8
DEFPOINTS
 62
     0
 48
50.0
100
AcDbPoint
 10
6798.600000000006
 20
8006.439210184497
 30
0.0
  0
ENDBLK
  5
2720C
330
27201
100
AcDbEntity
  8
0
 48
50.0
100
AcDbBlockEnd
  0
BLOCK
  5
27216
330
2720D
100
AcDbEntity
  8
0
 48
50.0
100
AcDbBlockBegin
  2
*D38
 70
     1
 10
0.0
 20
0.0
 30
0.0
  3
*D38
  1

  0
LINE
  5
2784A
330
2720D
100
AcDbEntity
  8
寸法
 62
     0
 48
50.0
370
    -2
100
AcDbLine
 10
6798.600000000006
 20
6860.830393514248
 30
0.0
 11
6798.600000000006
 21
8066.439210184496
 31
0.0
  0
LINE
  5
2784B
330
2720D
100
AcDbEntity
  8
寸法
 62
     0
 48
50.0
370
    -2
100
AcDbLine
 10
5848.600000000006
 20
6860.830393514248
 30
0.0
 11
5848.600000000006
 21
8066.439210184496
 31
0.0
  0
LINE
  5
2784C
330
2720D
100
AcDbEntity
  8
寸法
 62
     0
 48
50.0
370
    -2
100
AcDbLine
 10
6798.600000000006
 20
8006.439210184497
 30
0.0
 11
5848.600000000006
 21
8006.439210184497
 31
0.0
  0
INSERT
  5
2784D
330
2720D
100
AcDbEntity
  8
寸法
 62
     0
 48
50.0
370
    -2
100
AcDbBlockReference
  2
_DOTSMALL
 10
6798.600000000006
 20
8006.439210184497
 30
0.0
 41
100.0
 42
100.0
 43
100.0
  0
INSERT
  5
2784E
330
2720D
100
AcDbEntity
  8
寸法
 62
     0
 48
50.0
370
    -2
100
AcDbBlockReference
  2
_DOTSMALL
 10
5848.600000000006
 20
8006.439210184497
 30
0.0
 41
100.0
 42
100.0
 43
100.0
 50
180.0
  0
MTEXT
  5
2784F
330
2720D
100
AcDbEntity
  8
寸法
 62
     7
 48
50.0
100
AcDbMText
 10
6323.600000000006
 20
8106.439210184497
 30
0.0
 40
120.0
 41
0.0
 71
     5
 72
     1
  1
\A1;950
  7
STYLE1
 73
     1
 44
1.0
1001
ACAD
1000
MTEXTBEGIN
1070
    73
1070
     1
1070
    44
1040
1.0
1070
    74
1070
     0
1000
MTEXTEND
  0
POINT
  5
27850
330
2720D
100
AcDbEntity
  8
DEFPOINTS
 62
     0
 48
50.0
100
AcDbPoint
 10
6798.600000000006
 20
6840.830393514249
 30
0.0
  0
POINT
  5
27851
330
2720D
100
AcDbEntity
  8
DEFPOINTS
 62
     0
 48
50.0
100
AcDbPoint
 10
5848.600000000006
 20
6840.830393514249
 30
0.0
  0
POINT
  5
27852
330
2720D
100
AcDbEntity
  8
DEFPOINTS
 62
     0
 48
50.0
100
AcDbPoint
 10
5848.600000000006
 20
8006.439210184497
 30
0.0
  0
ENDBLK
  5
27217
330
2720D
100
AcDbEntity
  8
0
 48
50.0
100
AcDbBlockEnd
  0
BLOCK
  5
27222
330
27218
100
AcDbEntity
  8
0
 48
50.0
100
AcDbBlockBegin
  2
*D39
 70
     1
 10
0.0
 20
0.0
 30
0.0
  3
*D39
  1

  0
LINE
  5
2785C
330
27218
100
AcDbEntity
  8
寸法
 62
     0
 48
50.0
370
    -2
100
AcDbLine
 10
5778.600000000006
 20
6790.830393514248
 30
0.0
 11
5316.2859906143
 21
6790.830393514248
 31
0.0
  0
LINE
  5
2785D
330
27218
100
AcDbEntity
  8
寸法
 62
     0
 48
50.0
370
    -2
100
AcDbLine
 10
5447.765475140899
 20
7523.830393514248
 30
0.0
 11
5316.2859906143
 21
7523.830393514248
 31
0.0
  0
LINE
  5
2785E
330
27218
100
AcDbEntity
  8
寸法
 62
     0
 48
50.0
370
    -2
100
AcDbLine
 10
5376.285990614301
 20
6790.830393514248
 30
0.0
 11
5376.285990614301
 21
7523.830393514248
 31
0.0
  0
INSERT
  5
2785F
330
27218
100
AcDbEntity
  8
寸法
 62
     0
 48
50.0
370
    -2
100
AcDbBlockReference
  2
_DOTSMALL
 10
5376.285990614301
 20
6790.830393514248
 30
0.0
 41
100.0
 42
100.0
 43
100.0
 50
270.0
  0
INSERT
  5
27860
330
27218
100
AcDbEntity
  8
寸法
 62
     0
 48
50.0
370
    -2
100
AcDbBlockReference
  2
_DOTSMALL
 10
5376.285990614301
 20
7523.830393514248
 30
0.0
 41
100.0
 42
100.0
 43
100.0
 50
90.0
  0
MTEXT
  5
27861
330
27218
100
AcDbEntity
  8
寸法
 62
     7
 48
50.0
100
AcDbMText
 10
5276.285990614298
 20
7083.425184208426
 30
0.0
 40
120.0
 41
0.0
 71
     5
 72
     1
  1
\A1;733
  7
STYLE1
 11
0.0000000000000001
 21
1.0
 31
0.0
 73
     1
 44
1.0
1001
ACAD
1000
MTEXTBEGIN
1070
    73
1070
     1
1070
    44
1040
1.0
1070
    74
1070
     0
1000
MTEXTEND
  0
POINT
  5
27862
330
27218
100
AcDbEntity
  8
DEFPOINTS
 62
     0
 48
50.0
100
AcDbPoint
 10
5798.600000000006
 20
6790.830393514248
 30
0.0
  0
POINT
  5
27863
330
27218
100
AcDbEntity
  8
DEFPOINTS
 62
     0
 48
50.0
100
AcDbPoint
 10
5467.765475140899
 20
7523.830393514248
 30
0.0
  0
POINT
  5
27864
330
27218
100
AcDbEntity
  8
DEFPOINTS
 62
     0
 48
50.0
100
AcDbPoint
 10
5376.285990614301
 20
7523.830393514248
 30
0.0
  0
ENDBLK
  5
27223
330
27218
100
AcDbEntity
  8
0
 48
50.0
100
AcDbBlockEnd
  0
BLOCK
  5
2722E
330
27224
100
AcDbEntity
  8
0
 48
50.0
100
AcDbBlockBegin
  2
*D40
 70
     1
 10
0.0
 20
0.0
 30
0.0
  3
*D40
  1

  0
LINE
  5
27841
330
27224
100
AcDbEntity
  8
寸法
 62
     0
 48
50.0
370
    -2
100
AcDbLine
 10
5848.600000000006
 20
6860.830393514248
 30
0.0
 11
5848.600000000006
 21
8066.439210184496
 31
0.0
  0
LINE
  5
27842
330
27224
100
AcDbEntity
  8
寸法
 62
     0
 48
50.0
370
    -2
100
AcDbLine
 10
4893.599999999999
 20
7543.830393514248
 30
0.0
 11
4893.599999999999
 21
8066.439210184496
 31
0.0
  0
LINE
  5
27843
330
27224
100
AcDbEntity
  8
寸法
 62
     0
 48
50.0
370
    -2
100
AcDbLine
 10
5848.600000000006
 20
8006.439210184497
 30
0.0
 11
4893.599999999999
 21
8006.439210184497
 31
0.0
  0
INSERT
  5
27844
330
27224
100
AcDbEntity
  8
寸法
 62
     0
 48
50.0
370
    -2
100
AcDbBlockReference
  2
_DOTSMALL
 10
5848.600000000006
 20
8006.439210184497
 30
0.0
 41
100.0
 42
100.0
 43
100.0
  0
INSERT
  5
27845
330
27224
100
AcDbEntity
  8
寸法
 62
     0
 48
50.0
370
    -2
100
AcDbBlockReference
  2
_DOTSMALL
 10
4893.599999999999
 20
8006.439210184497
 30
0.0
 41
100.0
 42
100.0
 43
100.0
 50
180.0
  0
MTEXT
  5
27846
330
27224
100
AcDbEntity
  8
寸法
 62
     7
 48
50.0
100
AcDbMText
 10
5371.100000000001
 20
8106.439210184497
 30
0.0
 40
120.0
 41
0.0
 71
     5
 72
     1
  1
\A1;955
  7
STYLE1
 73
     1
 44
1.0
1001
ACAD
1000
MTEXTBEGIN
1070
    73
1070
     1
1070
    44
1040
1.0
1070
    74
1070
     0
1000
MTEXTEND
  0
POINT
  5
27847
330
27224
100
AcDbEntity
  8
DEFPOINTS
 62
     0
 48
50.0
100
AcDbPoint
 10
5848.600000000006
 20
6840.830393514249
 30
0.0
  0
POINT
  5
27848
330
27224
100
AcDbEntity
  8
DEFPOINTS
 62
     0
 48
50.0
100
AcDbPoint
 10
4893.599999999999
 20
7523.830393514248
 30
0.0
  0
POINT
  5
27849
330
27224
100
AcDbEntity
  8
DEFPOINTS
 62
     0
 48
50.0
100
AcDbPoint
 10
4893.599999999999
 20
8006.439210184497
 30
0.0
  0
ENDBLK
  5
2722F
330
27224
100
AcDbEntity
  8
0
 48
50.0
100
AcDbBlockEnd
  0
BLOCK
  5
2723A
330
27230
100
AcDbEntity
  8
0
 48
50.0
100
AcDbBlockBegin
  2
*D41
 70
     1
 10
0.0
 20
0.0
 30
0.0
  3
*D41
  1

  0
LINE
  5
27740
330
27230
100
AcDbEntity
  8
寸法
 62
     0
 48
50.0
370
    -2
100
AcDbLine
 10
4873.599999999999
 20
7523.830393514248
 30
0.0
 11
3958.721909610672
 21
7523.830393514248
 31
0.0
  0
LINE
  5
27741
330
27230
100
AcDbEntity
  8
寸法
 62
     0
 48
50.0
370
    -2
100
AcDbLine
 10
4873.599999999999
 20
5983.830393514248
 30
0.0
 11
3958.721909610672
 21
5983.830393514248
 31
0.0
  0
LINE
  5
27742
330
27230
100
AcDbEntity
  8
寸法
 62
     0
 48
50.0
370
    -2
100
AcDbLine
 10
4018.721909610672
 20
7523.830393514248
 30
0.0
 11
4018.721909610672
 21
5983.830393514248
 31
0.0
  0
INSERT
  5
27743
330
27230
100
AcDbEntity
  8
寸法
 62
     0
 48
50.0
370
    -2
100
AcDbBlockReference
  2
_DOTSMALL
 10
4018.721909610672
 20
7523.830393514248
 30
0.0
 41
100.0
 42
100.0
 43
100.0
 50
90.0
  0
INSERT
  5
27744
330
27230
100
AcDbEntity
  8
寸法
 62
     0
 48
50.0
370
    -2
100
AcDbBlockReference
  2
_DOTSMALL
 10
4018.721909610672
 20
5983.830393514248
 30
0.0
 41
100.0
 42
100.0
 43
100.0
 50
270.0
  0
MTEXT
  5
27745
330
27230
100
AcDbEntity
  8
寸法
 62
     7
 48
50.0
100
AcDbMText
 10
3918.721909610671
 20
6791.330393514248
 30
0.0
 40
120.0
 41
0.0
 71
     5
 72
     1
  1
\A1;1540
  7
STYLE1
 11
0.0000000000000001
 21
1.0
 31
0.0
 73
     1
 44
1.0
1001
ACAD
1000
MTEXTBEGIN
1070
    73
1070
     1
1070
    44
1040
1.0
1070
    74
1070
     0
1000
MTEXTEND
  0
POINT
  5
27746
330
27230
100
AcDbEntity
  8
DEFPOINTS
 62
     0
 48
50.0
100
AcDbPoint
 10
4893.599999999999
 20
7523.830393514248
 30
0.0
  0
POINT
  5
27747
330
27230
100
AcDbEntity
  8
DEFPOINTS
 62
     0
 48
50.0
100
AcDbPoint
 10
4893.599999999999
 20
5983.830393514248
 30
0.0
  0
POINT
  5
27748
330
27230
100
AcDbEntity
  8
DEFPOINTS
 62
     0
 48
50.0
100
AcDbPoint
 10
4018.721909610672
 20
5983.830393514248
 30
0.0
  0
ENDBLK
  5
2723B
330
27230
100
AcDbEntity
  8
0
 48
50.0
100
AcDbBlockEnd
  0
BLOCK
  5
27246
330
2723C
100
AcDbEntity
  8
0
 48
50.0
100
AcDbBlockBegin
  2
*D42
 70
     1
 10
0.0
 20
0.0
 30
0.0
  3
*D42
  1

  0
LINE
  5
2779E
330
2723C
100
AcDbEntity
  8
寸法
 62
     0
 48
50.0
370
    -2
100
AcDbLine
 10
4946.599999999999
 20
7400.830393514249
 30
0.0
 11
4210.665006330071
 21
7400.830393514249
 31
0.0
  0
LINE
  5
2779F
330
2723C
100
AcDbEntity
  8
寸法
 62
     0
 48
50.0
370
    -2
100
AcDbLine
 10
4946.600000000006
 20
6181.830393514252
 30
0.0
 11
4210.665006330071
 21
6181.830393514252
 31
0.0
  0
LINE
  5
277A0
330
2723C
100
AcDbEntity
  8
寸法
 62
     0
 48
50.0
370
    -2
100
AcDbLine
 10
4270.665006330071
 20
7400.830393514249
 30
0.0
 11
4270.665006330071
 21
6181.830393514252
 31
0.0
  0
INSERT
  5
277A1
330
2723C
100
AcDbEntity
  8
寸法
 62
     0
 48
50.0
370
    -2
100
AcDbBlockReference
  2
_DOTSMALL
 10
4270.665006330071
 20
7400.830393514249
 30
0.0
 41
100.0
 42
100.0
 43
100.0
 50
90.0
  0
INSERT
  5
277A2
330
2723C
100
AcDbEntity
  8
寸法
 62
     0
 48
50.0
370
    -2
100
AcDbBlockReference
  2
_DOTSMALL
 10
4270.665006330071
 20
6181.830393514252
 30
0.0
 41
100.0
 42
100.0
 43
100.0
 50
270.0
  0
MTEXT
  5
277A3
330
2723C
100
AcDbEntity
  8
寸法
 62
     7
 48
50.0
100
AcDbMText
 10
4170.653195306448
 20
6791.330393514248
 30
0.0
 40
120.0
 41
0.0
 71
     5
 72
     1
  1
\A1;1219
  7
STYLE1
 11
0.0000000000000001
 21
1.0
 31
0.0
 73
     1
 44
1.0
1001
ACAD
1000
MTEXTBEGIN
1070
    73
1070
     1
1070
    44
1040
1.0
1070
    74
1070
     0
1000
MTEXTEND
  0
POINT
  5
277A4
330
2723C
100
AcDbEntity
  8
DEFPOINTS
 62
     0
 48
50.0
100
AcDbPoint
 10
4966.599999999999
 20
7400.830393514249
 30
0.0
  0
POINT
  5
277A5
330
2723C
100
AcDbEntity
  8
DEFPOINTS
 62
     0
 48
50.0
100
AcDbPoint
 10
4966.600000000006
 20
6181.830393514252
 30
0.0
  0
POINT
  5
277A6
330
2723C
100
AcDbEntity
  8
DEFPOINTS
 62
     0
 48
50.0
100
AcDbPoint
 10
4270.665006330071
 20
6181.830393514252
 30
0.0
  0
ENDBLK
  5
27247
330
2723C
100
AcDbEntity
  8
0
 48
50.0
100
AcDbBlockEnd
  0
BLOCK
  5
27252
330
27248
100
AcDbEntity
  8
0
 48
50.0
100
AcDbBlockBegin
  2
*D43
 70
     1
 10
0.0
 20
0.0
 30
0.0
  3
*D43
  1

  0
LINE
  5
2775F
330
27248
100
AcDbEntity
  8
寸法
 62
     0
 48
50.0
370
    -2
100
AcDbLine
 10
4873.600000000003
 20
5983.830393514245
 30
0.0
 11
4720.512673767877
 21
5983.830393514245
 31
0.0
  0
LINE
  5
27760
330
27248
100
AcDbEntity
  8
寸法
 62
     0
 48
50.0
370
    -2
100
AcDbLine
 10
5229.325326928807
 20
5263.830393514245
 30
0.0
 11
4720.512673767877
 21
5263.830393514245
 31
0.0
  0
LINE
  5
27761
330
27248
100
AcDbEntity
  8
寸法
 62
     0
 48
50.0
370
    -2
100
AcDbLine
 10
4780.512673767877
 20
5983.830393514245
 30
0.0
 11
4780.512673767877
 21
5263.830393514245
 31
0.0
  0
INSERT
  5
27762
330
27248
100
AcDbEntity
  8
寸法
 62
     0
 48
50.0
370
    -2
100
AcDbBlockReference
  2
_DOTSMALL
 10
4780.512673767877
 20
5983.830393514245
 30
0.0
 41
100.0
 42
100.0
 43
100.0
 50
90.0
  0
INSERT
  5
27763
330
27248
100
AcDbEntity
  8
寸法
 62
     0
 48
50.0
370
    -2
100
AcDbBlockReference
  2
_DOTSMALL
 10
4780.512673767877
 20
5263.830393514245
 30
0.0
 41
100.0
 42
100.0
 43
100.0
 50
270.0
  0
MTEXT
  5
27764
330
27248
100
AcDbEntity
  8
寸法
 62
     7
 48
50.0
100
AcDbMText
 10
4680.500862744255
 20
5623.830393514246
 30
0.0
 40
120.0
 41
0.0
 71
     5
 72
     1
  1
\A1;扉の出720
  7
STYLE1
 11
0.0000000000000001
 21
1.0
 31
0.0
 73
     1
 44
1.0
1001
ACAD
1000
MTEXTBEGIN
1070
    73
1070
     1
1070
    44
1040
1.0
1070
    74
1070
     0
1000
MTEXTEND
  0
POINT
  5
27765
330
27248
100
AcDbEntity
  8
DEFPOINTS
 62
     0
 48
50.0
100
AcDbPoint
 10
4893.600000000002
 20
5983.830393514245
 30
0.0
  0
POINT
  5
27766
330
27248
100
AcDbEntity
  8
DEFPOINTS
 62
     0
 48
50.0
100
AcDbPoint
 10
5249.325326928807
 20
5263.830393514245
 30
0.0
  0
POINT
  5
27767
330
27248
100
AcDbEntity
  8
DEFPOINTS
 62
     0
 48
50.0
100
AcDbPoint
 10
4780.512673767877
 20
5263.830393514245
 30
0.0
  0
ENDBLK
  5
27253
330
27248
100
AcDbEntity
  8
0
 48
50.0
100
AcDbBlockEnd
  0
BLOCK
  5
2725F
330
27254
100
AcDbEntity
  8
0
 48
50.0
100
AcDbBlockBegin
  2
*D44
 70
     1
 10
0.0
 20
0.0
 30
0.0
  3
*D44
  1

  0
LINE
  5
27794
330
27254
100
AcDbEntity
  8
寸法
 62
     0
 48
50.0
370
    -2
100
AcDbLine
 10
4946.600000000006
 20
6181.830393514252
 30
0.0
 11
4210.665006330071
 21
6181.830393514252
 31
0.0
  0
LINE
  5
27795
330
27254
100
AcDbEntity
  8
寸法
 62
     0
 48
50.0
370
    -2
100
AcDbLine
 10
4873.599999999999
 20
5983.830393514248
 30
0.0
 11
4210.66500633007
 21
5983.830393514248
 31
0.0
  0
LINE
  5
27796
330
27254
100
AcDbEntity
  8
寸法
 62
     0
 48
50.0
370
    -2
100
AcDbLine
 10
4270.665006330071
 20
6181.830393514252
 30
0.0
 11
4270.66500633007
 21
5983.830393514248
 31
0.0
  0
LINE
  5
27797
330
27254
100
AcDbEntity
  8
寸法
 62
     0
 48
50.0
370
    -2
100
AcDbLine
 10
4270.66500633007
 20
5983.830393514248
 30
0.0
 11
4270.66500633007
 21
5512.089784841999
 31
0.0
  0
INSERT
  5
27798
330
27254
100
AcDbEntity
  8
寸法
 62
     0
 48
50.0
370
    -2
100
AcDbBlockReference
  2
_DOTSMALL
 10
4270.665006330071
 20
6181.830393514252
 30
0.0
 41
100.0
 42
100.0
 43
100.0
 50
90.0
  0
INSERT
  5
27799
330
27254
100
AcDbEntity
  8
寸法
 62
     0
 48
50.0
370
    -2
100
AcDbBlockReference
  2
_DOTSMALL
 10
4270.66500633007
 20
5983.830393514248
 30
0.0
 41
100.0
 42
100.0
 43
100.0
 50
270.0
  0
MTEXT
  5
2779A
330
27254
100
AcDbEntity
  8
寸法
 62
     7
 48
50.0
100
AcDbMText
 10
4170.665006330069
 20
5648.299444671657
 30
0.0
 40
120.0
 41
0.0
 71
     5
 72
     1
  1
\A1;198
  7
STYLE1
 11
0.0000000000000001
 21
1.0
 31
0.0
 73
     1
 44
1.0
1001
ACAD
1000
MTEXTBEGIN
1070
    73
1070
     1
1070
    44
1040
1.0
1070
    74
1070
     0
1000
MTEXTEND
  0
POINT
  5
2779B
330
27254
100
AcDbEntity
  8
DEFPOINTS
 62
     0
 48
50.0
100
AcDbPoint
 10
4966.600000000006
 20
6181.830393514252
 30
0.0
  0
POINT
  5
2779C
330
27254
100
AcDbEntity
  8
DEFPOINTS
 62
     0
 48
50.0
100
AcDbPoint
 10
4893.599999999999
 20
5983.830393514248
 30
0.0
  0
POINT
  5
2779D
330
27254
100
AcDbEntity
  8
DEFPOINTS
 62
     0
 48
50.0
100
AcDbPoint
 10
4270.66500633007
 20
5983.830393514248
 30
0.0
  0
ENDBLK
  5
27260
330
27254
100
AcDbEntity
  8
0
 48
50.0
100
AcDbBlockEnd
  0
BLOCK
  5
27BE9
330
27BDF
100
AcDbEntity
  8
0
 48
50.0
100
AcDbBlockBegin
  2
*D45
 70
     1
 10
0.0
 20
0.0
 30
0.0
  3
*D45
  1

  0
LINE
  5
27C29
330
27BDF
100
AcDbEntity
  8
寸法
 62
     0
 48
50.0
370
    -2
100
AcDbLine
 10
8380.795207872164
 20
2053.31674513145
 30
0.0
 11
8922.66380764101
 21
2053.31674513145
 31
0.0
  0
LINE
  5
27C2A
330
27BDF
100
AcDbEntity
  8
寸法
 62
     0
 48
50.0
370
    -2
100
AcDbLine
 10
8380.795207872164
 20
1729.316745131448
 30
0.0
 11
8922.66380764101
 21
1729.316745131448
 31
0.0
  0
LINE
  5
27C2B
330
27BDF
100
AcDbEntity
  8
寸法
 62
     0
 48
50.0
370
    -2
100
AcDbLine
 10
8862.663807641009
 20
2053.31674513145
 30
0.0
 11
8862.663807641009
 21
1729.316745131448
 31
0.0
  0
INSERT
  5
27C2C
330
27BDF
100
AcDbEntity
  8
寸法
 62
     0
 48
50.0
370
    -2
100
AcDbBlockReference
  2
_DOTSMALL
 10
8862.663807641009
 20
2053.31674513145
 30
0.0
 41
100.0
 42
100.0
 43
100.0
 50
90.0
  0
INSERT
  5
27C2D
330
27BDF
100
AcDbEntity
  8
寸法
 62
     0
 48
50.0
370
    -2
100
AcDbBlockReference
  2
_DOTSMALL
 10
8862.663807641009
 20
1729.316745131448
 30
0.0
 41
100.0
 42
100.0
 43
100.0
 50
270.0
  0
MTEXT
  5
27C2E
330
27BDF
100
AcDbEntity
  8
寸法
 62
     7
 48
50.0
100
AcDbMText
 10
8762.663807641009
 20
1891.31674513145
 30
0.0
 40
120.0
 41
0.0
 71
     5
 72
     1
  1
\A1;180
  7
STYLE1
 11
0.0000000000000001
 21
1.0
 31
0.0
 73
     1
 44
1.0
1001
ACAD
1000
MTEXTBEGIN
1070
    73
1070
     1
1070
    44
1040
1.0
1070
    74
1070
     0
1000
MTEXTEND
  0
POINT
  5
27C2F
330
27BDF
100
AcDbEntity
  8
DEFPOINTS
 62
     0
 48
50.0
100
AcDbPoint
 10
8360.795207872165
 20
2053.31674513145
 30
0.0
  0
POINT
  5
27C30
330
27BDF
100
AcDbEntity
  8
DEFPOINTS
 62
     0
 48
50.0
100
AcDbPoint
 10
8360.795207872165
 20
1729.316745131448
 30
0.0
  0
POINT
  5
27C31
330
27BDF
100
AcDbEntity
  8
DEFPOINTS
 62
     0
 48
50.0
100
AcDbPoint
 10
8862.663807641009
 20
1729.316745131448
 30
0.0
  0
ENDBLK
  5
27BEA
330
27BDF
100
AcDbEntity
  8
0
 48
50.0
100
AcDbBlockEnd
  0
BLOCK
  5
27BF7
330
27BEB
100
AcDbEntity
  8
0
 48
50.0
100
AcDbBlockBegin
  2
*D46
 70
     1
 10
0.0
 20
0.0
 30
0.0
  3
*D46
  1

  0
LINE
  5
27C32
330
27BEB
100
AcDbEntity
  8
寸法
 62
     0
 48
50.0
370
    -2
100
AcDbLine
 10
8193.595207872169
 20
2106.076745131451
 30
0.0
 11
9198.718473760036
 21
2106.076745131451
 31
0.0
  0
LINE
  5
27C33
330
27BEB
100
AcDbEntity
  8
寸法
 62
     0
 48
50.0
370
    -2
100
AcDbLine
 10
8380.795207872164
 20
2053.31674513145
 30
0.0
 11
9198.718473760036
 21
2053.31674513145
 31
0.0
  0
LINE
  5
27C34
330
27BEB
100
AcDbEntity
  8
寸法
 62
     0
 48
50.0
370
    -2
100
AcDbLine
 10
9138.718473760036
 20
2106.076745131451
 30
0.0
 11
9138.718473760036
 21
2206.076745131451
 31
0.0
  0
LINE
  5
27C35
330
27BEB
100
AcDbEntity
  8
寸法
 62
     0
 48
50.0
370
    -2
100
AcDbLine
 10
9138.718473760036
 20
2053.31674513145
 30
0.0
 11
9138.718473760036
 21
1321.298938288483
 31
0.0
  0
LINE
  5
27C36
330
27BEB
100
AcDbEntity
  8
寸法
 62
     0
 48
50.0
370
    -2
100
AcDbLine
 10
9138.718473760036
 20
2106.076745131451
 30
0.0
 11
9138.718473760036
 21
2053.31674513145
 31
0.0
  0
INSERT
  5
27C37
330
27BEB
100
AcDbEntity
  8
寸法
 62
     0
 48
50.0
370
    -2
100
AcDbBlockReference
  2
_DOTSMALL
 10
9138.718473760036
 20
2106.076745131451
 30
0.0
 41
100.0
 42
100.0
 43
100.0
 50
270.0
  0
INSERT
  5
27C38
330
27BEB
100
AcDbEntity
  8
寸法
 62
     0
 48
50.0
370
    -2
100
AcDbBlockReference
  2
_DOTSMALL
 10
9138.718473760036
 20
2053.31674513145
 30
0.0
 41
100.0
 42
100.0
 43
100.0
 50
90.0
  0
MTEXT
  5
27C39
330
27BEB
100
AcDbEntity
  8
寸法
 62
     7
 48
50.0
100
AcDbMText
 10
9038.706662736414
 20
1587.307841709967
 30
0.0
 40
120.0
 41
0.0
 71
     5
 72
     1
  1
\A1;20～25
  7
STYLE1
 11
0.0000000000000001
 21
1.0
 31
0.0
 73
     1
 44
1.0
1001
ACAD
1000
MTEXTBEGIN
1070
    73
1070
     1
1070
    44
1040
1.0
1070
    74
1070
     0
1000
MTEXTEND
  0
POINT
  5
27C3A
330
27BEB
100
AcDbEntity
  8
DEFPOINTS
 62
     0
 48
50.0
100
AcDbPoint
 10
8173.595207872168
 20
2106.076745131451
 30
0.0
  0
POINT
  5
27C3B
330
27BEB
100
AcDbEntity
  8
DEFPOINTS
 62
     0
 48
50.0
100
AcDbPoint
 10
8360.795207872165
 20
2053.31674513145
 30
0.0
  0
POINT
  5
27C3C
330
27BEB
100
AcDbEntity
  8
DEFPOINTS
 62
     0
 48
50.0
100
AcDbPoint
 10
9138.718473760036
 20
2053.31674513145
 30
0.0
  0
ENDBLK
  5
27BF8
330
27BEB
100
AcDbEntity
  8
0
 48
50.0
100
AcDbBlockEnd
  0
BLOCK
  5
27C03
330
27BF9
100
AcDbEntity
  8
0
 48
50.0
100
AcDbBlockBegin
  2
*D47
 70
     1
 10
0.0
 20
0.0
 30
0.0
  3
*D47
  1

  0
LINE
  5
27C3D
330
27BF9
100
AcDbEntity
  8
寸法
 62
     0
 48
50.0
370
    -2
100
AcDbLine
 10
6098.755894694972
 20
1509.316745131449
 30
0.0
 11
5916.335580962513
 21
1509.316745131449
 31
0.0
  0
LINE
  5
27C3E
330
27BF9
100
AcDbEntity
  8
寸法
 62
     0
 48
50.0
370
    -2
100
AcDbLine
 10
6018.755894694976
 20
1269.316745131449
 30
0.0
 11
5916.335580962513
 21
1269.316745131449
 31
0.0
  0
LINE
  5
27C3F
330
27BF9
100
AcDbEntity
  8
寸法
 62
     0
 48
50.0
370
    -2
100
AcDbLine
 10
5976.335580962512
 20
1509.316745131449
 30
0.0
 11
5976.335580962512
 21
1269.316745131449
 31
0.0
  0
INSERT
  5
27C40
330
27BF9
100
AcDbEntity
  8
寸法
 62
     0
 48
50.0
370
    -2
100
AcDbBlockReference
  2
_DOTSMALL
 10
5976.335580962512
 20
1509.316745131449
 30
0.0
 41
100.0
 42
100.0
 43
100.0
 50
90.0
  0
INSERT
  5
27C41
330
27BF9
100
AcDbEntity
  8
寸法
 62
     0
 48
50.0
370
    -2
100
AcDbBlockReference
  2
_DOTSMALL
 10
5976.335580962512
 20
1269.316745131449
 30
0.0
 41
100.0
 42
100.0
 43
100.0
 50
270.0
  0
MTEXT
  5
27C42
330
27BF9
100
AcDbEntity
  8
寸法
 62
     7
 48
50.0
100
AcDbMText
 10
5876.335580962512
 20
1389.31674513145
 30
0.0
 40
120.0
 41
0.0
 71
     5
 72
     1
  1
\A1;150
  7
STYLE1
 11
0.0000000000000001
 21
1.0
 31
0.0
 73
     1
 44
1.0
1001
ACAD
1000
MTEXTBEGIN
1070
    73
1070
     1
1070
    44
1040
1.0
1070
    74
1070
     0
1000
MTEXTEND
  0
POINT
  5
27C43
330
27BF9
100
AcDbEntity
  8
DEFPOINTS
 62
     0
 48
50.0
100
AcDbPoint
 10
6118.755894694972
 20
1509.316745131449
 30
0.0
  0
POINT
  5
27C44
330
27BF9
100
AcDbEntity
  8
DEFPOINTS
 62
     0
 48
50.0
100
AcDbPoint
 10
6038.755894694975
 20
1269.316745131449
 30
0.0
  0
POINT
  5
27C45
330
27BF9
100
AcDbEntity
  8
DEFPOINTS
 62
     0
 48
50.0
100
AcDbPoint
 10
5976.335580962512
 20
1269.316745131449
 30
0.0
  0
ENDBLK
  5
27C04
330
27BF9
100
AcDbEntity
  8
0
 48
50.0
100
AcDbBlockEnd
  0
BLOCK
  5
27C0F
330
27C05
100
AcDbEntity
  8
0
 48
50.0
100
AcDbBlockBegin
  2
*D48
 70
     1
 10
0.0
 20
0.0
 30
0.0
  3
*D48
  1

  0
LINE
  5
27C46
330
27C05
100
AcDbEntity
  8
寸法
 62
     0
 48
50.0
370
    -2
100
AcDbLine
 10
6226.755894694972
 20
2053.31674513145
 30
0.0
 11
5451.718656133233
 21
2053.31674513145
 31
0.0
  0
LINE
  5
27C47
330
27C05
100
AcDbEntity
  8
寸法
 62
     0
 48
50.0
370
    -2
100
AcDbLine
 10
6018.755894694976
 20
1269.316745131449
 30
0.0
 11
5451.718656133232
 21
1269.316745131449
 31
0.0
  0
LINE
  5
27C48
330
27C05
100
AcDbEntity
  8
寸法
 62
     0
 48
50.0
370
    -2
100
AcDbLine
 10
5511.718656133233
 20
2053.31674513145
 30
0.0
 11
5511.718656133232
 21
1269.316745131449
 31
0.0
  0
INSERT
  5
27C49
330
27C05
100
AcDbEntity
  8
寸法
 62
     0
 48
50.0
370
    -2
100
AcDbBlockReference
  2
_DOTSMALL
 10
5511.718656133233
 20
2053.31674513145
 30
0.0
 41
100.0
 42
100.0
 43
100.0
 50
90.0
  0
INSERT
  5
27C4A
330
27C05
100
AcDbEntity
  8
寸法
 62
     0
 48
50.0
370
    -2
100
AcDbBlockReference
  2
_DOTSMALL
 10
5511.718656133232
 20
1269.316745131449
 30
0.0
 41
100.0
 42
100.0
 43
100.0
 50
270.0
  0
MTEXT
  5
27C4B
330
27C05
100
AcDbEntity
  8
寸法
 62
     7
 48
50.0
100
AcDbMText
 10
5411.718656133231
 20
1640.85689478745
 30
0.0
 40
120.0
 41
0.0
 71
     5
 72
     1
  1
\A1;540
  7
STYLE1
 11
0.0000000000000001
 21
1.0
 31
0.0
 73
     1
 44
1.0
1001
ACAD
1000
MTEXTBEGIN
1070
    73
1070
     1
1070
    44
1040
1.0
1070
    74
1070
     0
1000
MTEXTEND
  0
POINT
  5
27C4C
330
27C05
100
AcDbEntity
  8
DEFPOINTS
 62
     0
 48
50.0
100
AcDbPoint
 10
6246.755894694972
 20
2053.31674513145
 30
0.0
  0
POINT
  5
27C4D
330
27C05
100
AcDbEntity
  8
DEFPOINTS
 62
     0
 48
50.0
100
AcDbPoint
 10
6038.755894694975
 20
1269.316745131449
 30
0.0
  0
POINT
  5
27C4E
330
27C05
100
AcDbEntity
  8
DEFPOINTS
 62
     0
 48
50.0
100
AcDbPoint
 10
5511.718656133232
 20
1269.316745131449
 30
0.0
  0
ENDBLK
  5
27C10
330
27C05
100
AcDbEntity
  8
0
 48
50.0
100
AcDbBlockEnd
  0
BLOCK
  5
27C1B
330
27C11
100
AcDbEntity
  8
0
 48
50.0
100
AcDbBlockBegin
  2
*D49
 70
     1
 10
0.0
 20
0.0
 30
0.0
  3
*D49
  1

  0
LINE
  5
27C4F
330
27C11
100
AcDbEntity
  8
寸法
 62
     0
 48
50.0
370
    -2
100
AcDbLine
 10
6118.755894694972
 20
1121.316745131449
 30
0.0
 11
6118.755894694972
 21
670.8871071262892
 31
0.0
  0
LINE
  5
27C50
330
27C11
100
AcDbEntity
  8
寸法
 62
     0
 48
50.0
370
    -2
100
AcDbLine
 10
6566.755894694972
 20
1121.316745131449
 30
0.0
 11
6566.755894694972
 21
670.8871071262892
 31
0.0
  0
LINE
  5
27C51
330
27C11
100
AcDbEntity
  8
寸法
 62
     0
 48
50.0
370
    -2
100
AcDbLine
 10
6118.755894694972
 20
730.8871071262892
 30
0.0
 11
6566.755894694972
 21
730.8871071262892
 31
0.0
  0
INSERT
  5
27C52
330
27C11
100
AcDbEntity
  8
寸法
 62
     0
 48
50.0
370
    -2
100
AcDbBlockReference
  2
_DOTSMALL
 10
6118.755894694972
 20
730.8871071262892
 30
0.0
 41
100.0
 42
100.0
 43
100.0
 50
180.0
  0
INSERT
  5
27C53
330
27C11
100
AcDbEntity
  8
寸法
 62
     0
 48
50.0
370
    -2
100
AcDbBlockReference
  2
_DOTSMALL
 10
6566.755894694972
 20
730.8871071262892
 30
0.0
 41
100.0
 42
100.0
 43
100.0
  0
MTEXT
  5
27C54
330
27C11
100
AcDbEntity
  8
寸法
 62
     7
 48
50.0
100
AcDbMText
 10
6322.659136016749
 20
830.8871071262892
 30
0.0
 40
120.0
 41
0.0
 71
     5
 72
     1
  1
\A1;300
  7
STYLE1
 73
     1
 44
1.0
1001
ACAD
1000
MTEXTBEGIN
1070
    73
1070
     1
1070
    44
1040
1.0
1070
    74
1070
     0
1000
MTEXTEND
  0
POINT
  5
27C55
330
27C11
100
AcDbEntity
  8
DEFPOINTS
 62
     0
 48
50.0
100
AcDbPoint
 10
6118.755894694972
 20
1141.316745131449
 30
0.0
  0
POINT
  5
27C56
330
27C11
100
AcDbEntity
  8
DEFPOINTS
 62
     0
 48
50.0
100
AcDbPoint
 10
6566.755894694972
 20
1141.316745131449
 30
0.0
  0
POINT
  5
27C57
330
27C11
100
AcDbEntity
  8
DEFPOINTS
 62
     0
 48
50.0
100
AcDbPoint
 10
6566.755894694972
 20
730.8871071262892
 30
0.0
  0
ENDBLK
  5
27C1C
330
27C11
100
AcDbEntity
  8
0
 48
50.0
100
AcDbBlockEnd
  0
BLOCK
  5
27C27
330
27C1D
100
AcDbEntity
  8
0
 48
50.0
100
AcDbBlockBegin
  2
*D50
 70
     1
 10
0.0
 20
0.0
 30
0.0
  3
*D50
  1

  0
LINE
  5
27C58
330
27C1D
100
AcDbEntity
  8
寸法
 62
     0
 48
50.0
370
    -2
100
AcDbLine
 10
6438.755894694972
 20
2073.31674513145
 30
0.0
 11
6438.755894694972
 21
2532.98455304783
 31
0.0
  0
LINE
  5
27C59
330
27C1D
100
AcDbEntity
  8
寸法
 62
     0
 48
50.0
370
    -2
100
AcDbLine
 10
6246.755894694972
 20
2073.31674513145
 30
0.0
 11
6246.755894694972
 21
2532.98455304783
 31
0.0
  0
LINE
  5
27C5A
330
27C1D
100
AcDbEntity
  8
寸法
 62
     0
 48
50.0
370
    -2
100
AcDbLine
 10
6438.755894694972
 20
2472.98455304783
 30
0.0
 11
6246.755894694972
 21
2472.98455304783
 31
0.0
  0
INSERT
  5
27C5B
330
27C1D
100
AcDbEntity
  8
寸法
 62
     0
 48
50.0
370
    -2
100
AcDbBlockReference
  2
_DOTSMALL
 10
6438.755894694972
 20
2472.98455304783
 30
0.0
 41
100.0
 42
100.0
 43
100.0
  0
INSERT
  5
27C5C
330
27C1D
100
AcDbEntity
  8
寸法
 62
     0
 48
50.0
370
    -2
100
AcDbBlockReference
  2
_DOTSMALL
 10
6246.755894694972
 20
2472.98455304783
 30
0.0
 41
100.0
 42
100.0
 43
100.0
 50
180.0
  0
MTEXT
  5
27C5D
330
27C1D
100
AcDbEntity
  8
寸法
 62
     7
 48
50.0
100
AcDbMText
 10
6342.755894694972
 20
2773.019986118696
 30
0.0
 40
120.0
 41
0.0
 71
     5
 72
     1
  1
\A1;120\P200\P280
  7
STYLE1
 73
     1
 44
1.0
1001
ACAD
1000
MTEXTBEGIN
1070
    73
1070
     1
1070
    44
1040
1.0
1070
    74
1070
     0
1000
MTEXTEND
  0
POINT
  5
27C5E
330
27C1D
100
AcDbEntity
  8
DEFPOINTS
 62
     0
 48
50.0
100
AcDbPoint
 10
6438.755894694972
 20
2053.31674513145
 30
0.0
  0
POINT
  5
27C5F
330
27C1D
100
AcDbEntity
  8
DEFPOINTS
 62
     0
 48
50.0
100
AcDbPoint
 10
6246.755894694972
 20
2053.31674513145
 30
0.0
  0
POINT
  5
27C60
330
27C1D
100
AcDbEntity
  8
DEFPOINTS
 62
     0
 48
50.0
100
AcDbPoint
 10
6246.755894694972
 20
2472.98455304783
 30
0.0
  0
ENDBLK
  5
27C28
330
27C1D
100
AcDbEntity
  8
0
 48
50.0
100
AcDbBlockEnd
  0
BLOCK
  5
27C8F
330
27C83
100
AcDbEntity
  8
0
 48
50.0
100
AcDbBlockBegin
  2
*D51
 70
     1
 10
0.0
 20
0.0
 30
0.0
  3
*D51
  1

  0
LINE
  5
27C9C
330
27C83
100
AcDbEntity
  8
寸法
 62
     0
 48
50.0
370
    -2
100
AcDbLine
 10
11433.6
 20
7084.660105106952
 30
0.0
 11
11433.6
 21
6993.395957874894
 31
0.0
  0
LINE
  5
27C9D
330
27C83
100
AcDbEntity
  8
寸法
 62
     0
 48
50.0
370
    -2
100
AcDbLine
 10
11553.6
 20
7084.660105106952
 30
0.0
 11
11553.6
 21
6993.395957874894
 31
0.0
  0
LINE
  5
27C9E
330
27C83
100
AcDbEntity
  8
寸法
 62
     0
 48
50.0
370
    -2
100
AcDbLine
 10
11433.6
 20
7053.395957874895
 30
0.0
 11
11553.6
 21
7053.395957874895
 31
0.0
  0
LINE
  5
27C9F
330
27C83
100
AcDbEntity
  8
寸法
 62
     0
 48
50.0
370
    -2
100
AcDbLine
 10
11553.6
 20
7053.395957874895
 30
0.0
 11
11925.69448818897
 21
7053.395957874895
 31
0.0
  0
INSERT
  5
27CA0
330
27C83
100
AcDbEntity
  8
寸法
 62
     0
 48
50.0
370
    -2
100
AcDbBlockReference
  2
_DOTSMALL
 10
11433.6
 20
7053.395957874895
 30
0.0
 41
100.0
 42
100.0
 43
100.0
 50
180.0
  0
INSERT
  5
27CA1
330
27C83
100
AcDbEntity
  8
寸法
 62
     0
 48
50.0
370
    -2
100
AcDbBlockReference
  2
_DOTSMALL
 10
11553.6
 20
7053.395957874895
 30
0.0
 41
100.0
 42
100.0
 43
100.0
  0
MTEXT
  5
27CA2
330
27C83
100
AcDbEntity
  8
寸法
 62
     7
 48
50.0
100
AcDbMText
 10
11789.64724409448
 20
7153.407768898516
 30
0.0
 40
120.0
 41
0.0
 71
     5
 72
     1
  1
\A1;120
  7
STYLE1
 73
     1
 44
1.0
1001
ACAD
1000
MTEXTBEGIN
1070
    73
1070
     1
1070
    44
1040
1.0
1070
    74
1070
     0
1000
MTEXTEND
  0
POINT
  5
27CA3
330
27C83
100
AcDbEntity
  8
DEFPOINTS
 62
     0
 48
50.0
100
AcDbPoint
 10
11433.6
 20
7104.660105106951
 30
0.0
  0
POINT
  5
27CA4
330
27C83
100
AcDbEntity
  8
DEFPOINTS
 62
     0
 48
50.0
100
AcDbPoint
 10
11553.6
 20
7104.660105106951
 30
0.0
  0
POINT
  5
27CA5
330
27C83
100
AcDbEntity
  8
DEFPOINTS
 62
     0
 48
50.0
100
AcDbPoint
 10
11553.6
 20
7053.395957874895
 30
0.0
  0
ENDBLK
  5
27C90
330
27C83
100
AcDbEntity
  8
0
 48
50.0
100
AcDbBlockEnd
  0
ENDSEC
  0
SECTION
  2
ENTITIES
  0
MTEXT
  5
763F
330
747D
100
AcDbEntity
  8
0
100
AcDbMText
 10
302.846345836809
 20
280.1983726409901
 30
0.0
 40
3.5
 41
5.323721266742722
 71
     1
 72
     5
  1

  7
MSMINCHO
 73
     1
 44
1.0
1001
ACAD
1000
MTEXTBEGIN
1070
    73
1070
     1
1070
    44
1040
1.0
1070
    74
1070
     0
1000
MTEXTEND
  0
LINE
  5
10B57
330
747D
100
AcDbEntity
  8
補助
  6
PHANTOM
 62
   230
 48
50.0
100
AcDbLine
 10
139.9999999999995
 20
11409.6
 30
0.0
 11
16307.2
 21
11409.6
 31
0.0
  0
LINE
  5
10B59
330
747D
100
AcDbEntity
  8
仕様書枠
  6
Continuous
 48
50.0
100
AcDbLine
 10
13107.2
 20
1200.0
 30
0.0
 11
13107.2
 21
-0.0000000000000729
 31
0.0
  0
LINE
  5
10B5D
330
747D
100
AcDbEntity
  8
仕様書枠
 48
50.0
100
AcDbLine
 10
140.0
 20
0.0
 30
0.0
 11
16307.2
 21
-0.0000000000000909
 31
0.0
  0
LINE
  5
10B5E
330
747D
100
AcDbEntity
  8
補助
  6
PHANTOM
 62
   230
 48
50.0
100
AcDbLine
 10
16307.2
 20
11409.6
 30
0.0
 11
16307.2
 21
1200.0
 31
0.0
  0
LINE
  5
10B6C
330
747D
100
AcDbEntity
  8
仕様書枠
 48
50.0
100
AcDbLine
 10
13107.2
 20
1200.0
 30
0.0
 11
16307.2
 21
1200.0
 31
0.0
  0
TEXT
  5
10B73
330
747D
100
AcDbEntity
  8
文字
 62
     7
 48
50.0
100
AcDbText
 10
13162.9790565769
 20
895.0906074299405
 30
0.0
 40
200.0
  1
基 礎 図
  7
STYLE2
100
AcDbText
  0
LINE
  5
10B7B
330
747D
100
AcDbEntity
  8
仕様書枠
 48
50.0
100
AcDbLine
 10
13107.2
 20
800.0
 30
0.0
 11
14251.2
 21
800.0
 31
0.0
  0
LINE
  5
10B88
330
747D
100
AcDbEntity
  8
仕様書枠
  6
Continuous
 48
50.0
100
AcDbLine
 10
14251.2
 20
1200.0
 30
0.0
 11
14251.2
 21
800.0
 31
0.0
  0
LINE
  5
16462
330
747D
100
AcDbEntity
  8
仕様書枠
 48
50.0
100
AcDbLine
 10
16307.2
 20
1200.0
 30
0.0
 11
16307.2
 21
-0.0000000000000909
 31
0.0
  0
LINE
  5
1903B
330
747D
100
AcDbEntity
  8
補助
  6
PHANTOM
 62
   230
 48
50.0
100
AcDbLine
 10
140.0
 20
0.0
 30
0.0
 11
139.9999999999995
 21
11409.6
 31
0.0
  0
LEADER
  5
1AC27
330
747D
100
AcDbEntity
  8
寸法
 48
50.0
100
AcDbLeader
  3
INABA_S50G
 73
     0
 74
     0
 75
     1
 40
120.0
 41
720.0000000000001
 76
     3
 10
11555.05985718447
 20
6787.782130049601
 30
0.0
 10
11711.83343157075
 20
6526.768216481769
 30
0.0
 10
11836.83343157075
 20
6526.768216481769
 30
0.0
340
1AC28
1001
ACAD
1000
DSTYLE
1002
{
1070
   341
1005
0
1070
    40
1040
1.0
1070
   343
1005
0
1070
   344
1005
0
1002
}
  0
MTEXT
  5
1AC28
102
{ACAD_REACTORS
330
1AC27
102
}
330
747D
100
AcDbEntity
  8
部品1
 62
     7
 48
50.0
100
AcDbMText
 10
12581.83343157075
 20
6611.768216481768
 30
0.0
 40
120.0
 41
0.0
 71
     6
 72
     1
  1
\A1;床下換気口
  7
STYLE1
 73
     1
 44
1.0
1001
ACAD
1000
MTEXTBEGIN
1070
    73
1070
     1
1070
    44
1040
1.0
1070
    74
1070
     0
1000
MTEXTEND
  0
TEXT
  5
1AC29
330
747D
100
AcDbEntity
  8
部品1
 48
50.0
100
AcDbText
 10
11897.64807370302
 20
5847.981571188601
 30
0.0
 40
80.0
  1
(a=45,b=55,c=75)
  7
STYLE1
100
AcDbText
  0
TEXT
  5
1AC2A
330
747D
100
AcDbEntity
  8
部品1
 48
50.0
100
AcDbText
 10
11739.06906494872
 20
5954.826792057354
 30
0.0
 40
80.0
  1
※a,b,cは屋根の出幅です。
  7
STYLE1
100
AcDbText
  0
MTEXT
  5
1AC2B
102
{ACAD_REACTORS
330
1AC2C
102
}
330
747D
100
AcDbEntity
  8
部品1
 62
     7
 48
50.0
100
AcDbMText
 10
12536.85626093732
 20
6134.137478990429
 30
0.0
 40
120.0
 41
0.0
 71
     6
 72
     1
  1
\A1;屋根の外寸
  7
STYLE1
 73
     1
 44
1.0
1001
ACAD
1000
MTEXTBEGIN
1070
    73
1070
     1
1070
    44
1040
1.0
1070
    74
1070
     0
1000
MTEXTEND
  0
LEADER
  5
1AC2C
330
747D
100
AcDbEntity
  8
寸法
 48
50.0
100
AcDbLeader
  3
INABA_S50G
 73
     0
 74
     0
 75
     1
 40
120.0
 41
672.0
 76
     3
 10
11598.91624874528
 20
6308.026822454005
 30
0.0
 10
11714.85626093732
 20
6049.137478990429
 30
0.0
 10
11839.85626093732
 20
6049.137478990429
 30
0.0
340
1AC2B
1001
ACAD
1000
DSTYLE
1002
{
1070
   341
1005
0
1070
    40
1040
1.0
1070
   343
1005
0
1070
   344
1005
0
1002
}
  0
TEXT
  5
1C7A1
330
747D
100
AcDbEntity
  8
文字
 62
     7
 48
50.0
100
AcDbText
 10
13188.16259899338
 20
79.80631269190417
 30
0.0
 40
80.0
  1
※布基礎には換気口を設けてください。
  7
STYLE2
100
AcDbText
  0
TEXT
  5
1C7E7
330
747D
100
AcDbEntity
  8
文字
 62
     7
 48
50.0
100
AcDbText
 10
13188.16259899338
 20
246.7109242801889
 30
0.0
 40
80.0
  1
※寒冷地等は地域の実情に合わせた基礎にして下さい。
  7
STYLE2
100
AcDbText
  0
TEXT
  5
1C7E8
330
747D
100
AcDbEntity
  8
文字
 62
     7
 48
50.0
100
AcDbText
 10
14325.79230300687
 20
499.5983841039506
 30
0.0
 40
160.0
  1
ＮＸＮ－１４ＤＬ－７
  7
STYLE2
100
AcDbText
  0
TEXT
  5
1C7EC
330
747D
100
AcDbEntity
  8
文字
 62
     7
 48
50.0
100
AcDbText
 10
14524.131837222
 20
1031.557706291229
 30
0.0
 40
100.0
  1
      <縮尺> S=1/40
  7
STYLE2
100
AcDbText
  0
TEXT
  5
1C7ED
330
747D
100
AcDbEntity
  8
文字
 62
     7
 48
50.0
100
AcDbText
 10
13201.43669998441
 20
477.2740661031257
 30
0.0
 40
160.0
  1
機種名
  7
STYLE2
100
AcDbText
  0
LINE
  5
1C7EF
330
747D
100
AcDbEntity
  8
文字
 62
     7
 48
50.0
100
AcDbLine
 10
13187.2
 20
400.0
 30
0.0
 11
16227.2
 21
400.0
 31
0.0
  0
MTEXT
  5
1D2D5
102
{ACAD_REACTORS
330
1D2D6
102
}
330
747D
100
AcDbEntity
  8
部品1
 62
     7
 48
50.0
100
AcDbMText
 10
12748.99523070988
 20
7839.443137756759
 30
0.0
 40
120.0
 41
0.0
 71
     6
 72
     1
  1
アンカーボルト
  7
STYLE1
 73
     1
 44
1.0
1001
ACAD
1000
MTEXTBEGIN
1070
    73
1070
     1
1070
    44
1040
1.0
1070
    74
1070
     0
1000
MTEXTEND
  0
LEADER
  5
1D2D6
330
747D
100
AcDbEntity
  8
寸法
 48
50.0
100
AcDbLeader
  3
INABA_S50G
 73
     0
 74
     0
 75
     1
 40
120.0
 41
994.3492424049171
 76
     3
 10
11430.680085757
 20
7401.03823787296
 30
0.0
 10
11604.64598830496
 20
7754.443137756758
 30
0.0
 10
11729.64598830496
 20
7754.443137756758
 30
0.0
340
1D2D5
1001
ACAD
1000
DSTYLE
1002
{
1070
   341
1005
0
1070
    40
1040
1.0
1070
   343
1005
0
1070
   344
1005
0
1002
}
  0
MTEXT
  5
1D332
102
{ACAD_REACTORS
330
1D333
102
}
330
747D
100
AcDbEntity
  8
部品1
 62
     7
 48
50.0
100
AcDbMText
 10
11113.82869701569
 20
6614.420914447805
 30
0.0
 40
120.0
 41
0.0
 71
     6
 72
     1
  1
CB
  7
STYLE1
 73
     1
 44
1.0
1001
ACAD
1000
MTEXTBEGIN
1070
    73
1070
     1
1070
    44
1040
1.0
1070
    74
1070
     0
1000
MTEXTEND
  0
LEADER
  5
1D333
330
747D
100
AcDbEntity
  8
寸法
 48
50.0
100
AcDbLeader
  3
INABA_S50G
 73
     0
 74
     0
 75
     1
 40
120.0
 41
149.591883092037
 76
     3
 10
10686.95401106101
 20
6752.139228002632
 30
0.0
 10
10814.23681392365
 20
6529.420914447806
 30
0.0
 10
10939.23681392365
 20
6529.420914447806
 30
0.0
340
1D332
1001
ACAD
1000
DSTYLE
1002
{
1070
   341
1005
0
1070
    40
1040
1.0
1070
   343
1005
0
1070
   344
1005
0
1002
}
  0
DIMENSION
  5
20DE1
330
747D
100
AcDbEntity
  8
寸法
 48
50.0
100
AcDbDimension
  2
*D19
 10
11598.6
 20
8482.050715573171
 30
0.0
 11
11869.77462120246
 21
8482.050715573171
 31
0.0
 70
   160
  1
a
 71
     5
 42
45.0
  3
INABA_S40G
100
AcDbAlignedDimension
 13
11553.6
 23
7523.830393514248
 33
0.0
 14
11598.6
 24
8250.09685160816
 34
0.0
100
AcDbRotatedDimension
1001
ACAD
1000
DSTYLE
1002
{
1070
   341
1005
0
1002
}
  0
DIMENSION
  5
20DFB
330
747D
100
AcDbEntity
  8
寸法
 48
50.0
100
AcDbDimension
  2
*D20
 10
4893.599999999995
 20
8482.050715573178
 30
0.0
 11
4577.425378797536
 21
8482.050715573178
 31
0.0
 70
   160
  1
a
 71
     5
 42
44.99999999999636
  3
INABA_S40G
100
AcDbAlignedDimension
 13
4848.599999999999
 23
8250.096851608169
 33
0.0
 14
4893.599999999995
 24
7523.830393514258
 34
0.0
100
AcDbRotatedDimension
1001
ACAD
1000
DSTYLE
1002
{
1070
   341
1005
0
1002
}
  0
LINE
  5
22711
330
747D
100
AcDbEntity
  8
想像線
 48
10.0
100
AcDbLine
 10
11598.6
 20
7598.830393514251
 30
0.0
 11
4848.599999999997
 21
7598.830393514261
 31
0.0
  0
LINE
  5
22712
330
747D
100
AcDbEntity
  8
想像線
 48
10.0
100
AcDbLine
 10
4848.599999999994
 20
5928.830393514299
 30
0.0
 11
4848.599999999999
 21
7598.830393514264
 31
0.0
  0
LINE
  5
22713
330
747D
100
AcDbEntity
  8
想像線
 48
10.0
100
AcDbLine
 10
11598.6
 20
5928.830393514296
 30
0.0
 11
11598.6
 21
7598.830393514251
 31
0.0
  0
LINE
  5
22714
330
747D
100
AcDbEntity
  8
想像線
 48
10.0
100
AcDbLine
 10
11598.6
 20
5928.830393514296
 30
0.0
 11
4848.599999999994
 21
5928.830393514278
 31
0.0
  0
DIMENSION
  5
22741
330
747D
100
AcDbEntity
  8
寸法
 48
50.0
100
AcDbDimension
  2
*D21
 10
4018.721909610671
 20
7523.830393514258
 30
0.0
 11
3918.72190961067
 21
7561.330393514261
 31
0.0
 70
    32
  1
c
 71
     5
 42
75.00000000000636
  3
INABA_S40G
100
AcDbAlignedDimension
 13
4270.665006330065
 23
7598.830393514264
 33
0.0
 14
4893.599999999995
 24
7523.830393514258
 34
0.0
 50
90.0
100
AcDbRotatedDimension
1001
ACAD
1000
DSTYLE
1002
{
1070
   341
1005
0
1002
}
  0
DIMENSION
  5
2275B
330
747D
100
AcDbEntity
  8
寸法
 48
50.0
100
AcDbDimension
  2
*D22
 10
4018.721909610667
 20
5928.830393514314
 30
0.0
 11
3918.721909610667
 21
5956.330393514303
 31
0.0
 70
    32
  1
b
 71
     5
 42
54.99999999997453
  3
INABA_S40G
100
AcDbAlignedDimension
 13
4893.599999999995
 23
5983.830393514289
 33
0.0
 14
4270.665006330065
 24
5928.830393514314
 34
0.0
 50
90.0
100
AcDbRotatedDimension
1001
ACAD
1000
DSTYLE
1002
{
1070
   341
1005
0
1002
}
  0
DIMENSION
  5
23FD9
330
747D
100
AcDbEntity
  8
寸法
 48
50.0
100
AcDbDimension
  2
*D23
 10
10872.81202022565
 20
5983.830393514267
 30
0.0
 11
10872.81202022565
 21
5696.866810837095
 31
0.0
 70
   160
 71
     5
 42
279.9999999999773
  3
INABA_S40G
100
AcDbAlignedDimension
 13
10973.59999999999
 23
6263.830393514243
 33
0.0
 14
10973.6
 24
5983.830393514267
 34
0.0
 50
90.0
100
AcDbRotatedDimension
1001
ACAD
1000
DSTYLE
1002
{
1070
   341
1005
0
1002
}
  0
DIMENSION
  5
23FDA
330
747D
100
AcDbEntity
  8
寸法
 48
50.0
100
AcDbDimension
  2
*D24
 10
10872.81202022565
 20
7323.830393514251
 30
0.0
 11
10872.81202022565
 21
7810.793976191405
 31
0.0
 70
   160
 71
     5
 42
199.9999999999854
  3
INABA_S40G
100
AcDbAlignedDimension
 13
10973.6
 23
7523.830393514235
 33
0.0
 14
10973.6
 24
7323.830393514251
 34
0.0
 50
90.0
100
AcDbRotatedDimension
1001
ACAD
1000
DSTYLE
1002
{
1070
   341
1005
0
1002
}
  0
LINE
  5
27010
330
747D
100
AcDbEntity
  8
部品1
 48
50.0
100
AcDbLine
 10
11433.6
 20
7323.830393514251
 30
0.0
 11
5013.599999999994
 21
7323.830393514246
 31
0.0
  0
DIMENSION
  5
27012
330
747D
100
AcDbEntity
  8
寸法
 48
50.0
100
AcDbDimension
  2
*D34
 10
7748.600000000006
 20
8006.439210184497
 30
0.0
 11
8223.600000000006
 21
8106.439210184497
 31
0.0
 70
    32
 71
     5
 42
950.0
  3
INABA_S40G
100
AcDbAlignedDimension
 13
8698.600000000006
 23
6840.830393514249
 33
0.0
 14
7748.600000000006
 24
6840.830393514249
 34
0.0
100
AcDbRotatedDimension
1001
ACAD
1000
DSTYLE
1002
{
1070
   341
1005
0
1002
}
  0
DIMENSION
  5
27013
330
747D
100
AcDbEntity
  8
寸法
 48
50.0
100
AcDbDimension
  2
*D35
 10
6680.599999999998
 20
8250.09685160816
 30
0.0
 11
7630.599999999998
 21
8350.09685160816
 31
0.0
 70
    32
 71
     5
 42
1900.0
  3
INABA_S40G
100
AcDbAlignedDimension
 13
8580.599999999998
 23
7450.830393514249
 33
0.0
 14
6680.599999999998
 24
7450.830393514249
 34
0.0
100
AcDbRotatedDimension
1001
ACAD
1000
DSTYLE
1002
{
1070
   341
1005
0
1002
}
  0
DIMENSION
  5
27014
330
747D
100
AcDbEntity
  8
寸法
 48
50.0
100
AcDbDimension
  2
*D36
 10
11553.6
 20
8482.050715573166
 30
0.0
 11
8223.599999999999
 21
8582.050715573165
 31
0.0
 70
    32
 71
     5
 42
6660.0
  3
INABA_S40G
100
AcDbAlignedDimension
 13
4893.599999999999
 23
7523.830393514248
 33
0.0
 14
11553.6
 24
7523.830393514248
 34
0.0
100
AcDbRotatedDimension
1001
ACAD
1000
DSTYLE
1002
{
1070
   341
1005
0
1002
}
  0
LINE
  5
27015
330
747D
100
AcDbEntity
  8
部品1
 48
50.0
100
AcDbLine
 10
11553.6
 20
7523.830393514248
 30
0.0
 11
4893.599999999999
 21
7523.830393514248
 31
0.0
  0
LINE
  5
27017
330
747D
100
AcDbEntity
  8
部品1
 48
50.0
100
AcDbLine
 10
11553.6
 20
5983.830393514267
 30
0.0
 11
4893.599999999995
 21
5983.830393514245
 31
0.0
  0
DIMENSION
  5
27019
330
747D
100
AcDbEntity
  8
寸法
 48
50.0
100
AcDbDimension
  2
*D37
 10
6798.600000000006
 20
8006.439210184497
 30
0.0
 11
7273.600000000006
 21
8106.439210184497
 31
0.0
 70
    32
 71
     5
 42
950.0
  3
INABA_S40G
100
AcDbAlignedDimension
 13
7748.600000000006
 23
6840.830393514249
 33
0.0
 14
6798.600000000006
 24
6840.830393514249
 34
0.0
100
AcDbRotatedDimension
1001
ACAD
1000
DSTYLE
1002
{
1070
   341
1005
0
1002
}
  0
DIMENSION
  5
2701A
330
747D
100
AcDbEntity
  8
寸法
 48
50.0
100
AcDbDimension
  2
*D38
 10
5848.600000000006
 20
8006.439210184497
 30
0.0
 11
6323.600000000006
 21
8106.439210184497
 31
0.0
 70
    32
 71
     5
 42
950.0
  3
INABA_S40G
100
AcDbAlignedDimension
 13
6798.600000000006
 23
6840.830393514249
 33
0.0
 14
5848.600000000006
 24
6840.830393514249
 34
0.0
100
AcDbRotatedDimension
1001
ACAD
1000
DSTYLE
1002
{
1070
   341
1005
0
1002
}
  0
DIMENSION
  5
2701B
330
747D
100
AcDbEntity
  8
寸法
 48
50.0
100
AcDbDimension
  2
*D39
 10
5376.285990614301
 20
7523.830393514248
 30
0.0
 11
5376.285990614299
 21
7083.425184208426
 31
0.0
 70
   160
 71
     5
 42
733.0
  3
INABA_S40G
100
AcDbAlignedDimension
 13
5798.600000000006
 23
6790.830393514248
 33
0.0
 14
5467.765475140899
 24
7523.830393514248
 34
0.0
 50
90.0
100
AcDbRotatedDimension
1001
ACAD
1000
DSTYLE
1002
{
1070
   341
1005
0
1002
}
  0
DIMENSION
  5
2701C
330
747D
100
AcDbEntity
  8
寸法
 48
50.0
100
AcDbDimension
  2
*D40
 10
4893.599999999999
 20
8006.439210184497
 30
0.0
 11
5371.100000000001
 21
8106.439210184497
 31
0.0
 70
    32
 71
     5
 42
955.0000000000073
  3
INABA_S40G
100
AcDbAlignedDimension
 13
5848.600000000006
 23
6840.830393514249
 33
0.0
 14
4893.599999999999
 24
7523.830393514248
 34
0.0
100
AcDbRotatedDimension
1001
ACAD
1000
DSTYLE
1002
{
1070
   341
1005
0
1002
}
  0
DIMENSION
  5
2701F
330
747D
100
AcDbEntity
  8
寸法
 48
50.0
100
AcDbDimension
  2
*D41
 10
4018.721909610672
 20
5983.830393514248
 30
0.0
 11
4018.721909610671
 21
6791.330393514248
 31
0.0
 70
   160
 71
     5
 42
1540.0
  3
INABA_S40G
100
AcDbAlignedDimension
 13
4893.599999999999
 23
7523.830393514248
 33
0.0
 14
4893.599999999999
 24
5983.830393514248
 34
0.0
 50
90.0
100
AcDbRotatedDimension
1001
ACAD
1000
DSTYLE
1002
{
1070
   341
1005
0
1002
}
  0
DIMENSION
  5
27020
330
747D
100
AcDbEntity
  8
寸法
 48
50.0
100
AcDbDimension
  2
*D42
 10
4270.665006330071
 20
6181.830393514252
 30
0.0
 11
4270.665006330069
 21
6791.330393514248
 31
0.0
 70
   160
 71
     5
 42
1218.999999999996
  3
INABA_S40G
100
AcDbAlignedDimension
 13
4966.599999999999
 23
7400.830393514249
 33
0.0
 14
4966.600000000006
 24
6181.830393514252
 34
0.0
 50
90.0
100
AcDbRotatedDimension
1001
ACAD
1000
DSTYLE
1002
{
1070
   341
1005
0
1002
}
  0
LINE
  5
27021
102
{ACAD_REACTORS
330
2791C
102
}
330
747D
100
AcDbEntity
  8
部品1
 48
50.0
100
AcDbLine
 10
4893.599999999999
 20
5983.830393514248
 30
0.0
 11
4893.599999999999
 21
7523.830393514248
 31
0.0
  0
ARC
  5
27022
330
747D
100
AcDbEntity
  8
想像線
 48
5.0
100
AcDbCircle
 10
5663.600000000002
 20
5983.830393514252
 30
0.0
 40
720.0
100
AcDbArc
 50
180.0
 51
270.0
  0
DIMENSION
  5
27023
330
747D
100
AcDbEntity
  8
寸法
 48
50.0
100
AcDbDimension
  2
*D43
 10
4780.512673767877
 20
5263.830393514245
 30
0.0
 11
4780.512673767876
 21
5623.830393514246
 31
0.0
 70
   160
  1
扉の出<>
 71
     5
 42
720.0
  3
INABA_S40G
100
AcDbAlignedDimension
 13
4893.600000000002
 23
5983.830393514245
 33
0.0
 14
5249.325326928807
 24
5263.830393514245
 34
0.0
 50
90.0
100
AcDbRotatedDimension
1001
ACAD
1000
DSTYLE
1002
{
1070
   341
1005
0
1002
}
  0
DIMENSION
  5
27024
330
747D
100
AcDbEntity
  8
寸法
 48
50.0
100
AcDbDimension
  2
*D44
 10
4270.66500633007
 20
5983.830393514248
 30
0.0
 11
4270.665006330069
 21
5648.299444671657
 31
0.0
 70
   160
 71
     5
 42
198.0000000000036
  3
INABA_S40G
100
AcDbAlignedDimension
 13
4966.600000000006
 23
6181.830393514252
 33
0.0
 14
4893.599999999999
 24
5983.830393514248
 34
0.0
 50
90.0
100
AcDbRotatedDimension
1001
ACAD
1000
DSTYLE
1002
{
1070
   341
1005
0
1002
}
  0
LINE
  5
27026
330
747D
100
AcDbEntity
  8
センター
 48
2.0
100
AcDbLine
 10
5016.600000000006
 20
6231.830393514252
 30
0.0
 11
5016.600000000006
 21
6131.830393514253
 31
0.0
  0
LINE
  5
27027
330
747D
100
AcDbEntity
  8
センター
 48
2.0
100
AcDbLine
 10
4966.600000000006
 20
6181.830393514252
 30
0.0
 11
5066.600000000006
 21
6181.830393514252
 31
0.0
  0
CIRCLE
  5
27028
330
747D
100
AcDbEntity
  8
部品1
 48
50.0
100
AcDbCircle
 10
5016.599999999991
 20
6181.830393514252
 30
0.0
 40
35.0
  0
LINE
  5
27029
102
{ACAD_REACTORS
330
2791C
102
}
330
747D
100
AcDbEntity
  8
部品1
 48
50.0
100
AcDbLine
 10
5013.599999999996
 20
6878.830393514263
 30
0.0
 11
4893.599999999985
 21
6878.830393514263
 31
0.0
  0
LINE
  5
2702A
102
{ACAD_REACTORS
330
2791C
102
}
330
747D
100
AcDbEntity
  8
部品1
 48
50.0
100
AcDbLine
 10
5013.599999999996
 20
6678.830393514264
 30
0.0
 11
4893.599999999985
 21
6678.830393514264
 31
0.0
  0
LINE
  5
2702C
330
747D
100
AcDbEntity
  8
センター
 48
2.0
100
AcDbLine
 10
6748.600000000006
 20
6790.830393514248
 30
0.0
 11
6848.600000000006
 21
6790.830393514248
 31
0.0
  0
LINE
  5
2702D
330
747D
100
AcDbEntity
  8
部品1
 48
50.0
100
AcDbLine
 10
6898.600000000006
 20
6890.830393514248
 30
0.0
 11
6698.600000000006
 21
6890.830393514248
 31
0.0
  0
LINE
  5
2702E
330
747D
100
AcDbEntity
  8
部品1
 48
50.0
100
AcDbLine
 10
6898.600000000006
 20
6690.830393514248
 30
0.0
 11
6698.600000000006
 21
6690.830393514248
 31
0.0
  0
LINE
  5
2702F
330
747D
100
AcDbEntity
  8
想像線
 48
5.0
100
AcDbLine
 10
5663.600000000002
 20
5983.830393514264
 30
0.0
 11
5663.600000000002
 21
5263.830393514252
 31
0.0
  0
DIMENSION
  5
27031
330
747D
100
AcDbEntity
  8
寸法
 48
50.0
100
AcDbDimension
  2
*D25
 10
5376.285990614301
 20
6790.830393514248
 30
0.0
 11
5376.285990614299
 21
6468.830393514249
 31
0.0
 70
   160
 71
     5
 42
806.999999999989
  3
INABA_S40G
100
AcDbAlignedDimension
 13
5467.765475140899
 23
5983.83039351426
 33
0.0
 14
5798.600000000006
 24
6790.830393514248
 34
0.0
 50
90.0
100
AcDbRotatedDimension
1001
ACAD
1000
DSTYLE
1002
{
1070
   341
1005
0
1002
}
  0
LINE
  5
27032
330
747D
100
AcDbEntity
  8
細線
 48
50.0
100
AcDbLine
 10
5409.404364949107
 20
5983.830393514271
 30
0.0
 11
5473.599999999997
 21
6048.026028565158
 31
0.0
  0
LINE
  5
27033
330
747D
100
AcDbEntity
  8
細線
 48
50.0
100
AcDbLine
 10
5364.503084343762
 20
5983.830393514268
 30
0.0
 11
5473.599999999997
 21
6092.927309170505
 31
0.0
  0
LINE
  5
27034
330
747D
100
AcDbEntity
  8
細線
 48
50.0
100
AcDbLine
 10
5319.601803738414
 20
5983.830393514268
 30
0.0
 11
5473.599999999991
 21
6137.828589775845
 31
0.0
  0
LINE
  5
27035
330
747D
100
AcDbEntity
  8
細線
 48
50.0
100
AcDbLine
 10
5274.700523133067
 20
5983.830393514267
 30
0.0
 11
5473.59999999999
 21
6182.729870381191
 31
0.0
  0
LINE
  5
27036
330
747D
100
AcDbEntity
  8
細線
 48
50.0
100
AcDbLine
 10
5273.599999999994
 20
6027.63115098654
 30
0.0
 11
5473.59999999999
 21
6227.631150986534
 31
0.0
  0
LINE
  5
27037
330
747D
100
AcDbEntity
  8
部品1
 48
50.0
100
AcDbLine
 10
5473.599999999987
 20
6263.830393514245
 30
0.0
 11
5473.599999999994
 21
5983.830393514271
 31
0.0
  0
LINE
  5
27038
330
747D
100
AcDbEntity
  8
部品1
 48
50.0
100
AcDbLine
 10
5273.599999999987
 20
6263.830393514243
 30
0.0
 11
5273.599999999994
 21
5983.830393514267
 31
0.0
  0
LINE
  5
27039
330
747D
100
AcDbEntity
  8
細線
 48
50.0
100
AcDbLine
 10
5454.305645554454
 20
5983.830393514271
 30
0.0
 11
5473.599999999997
 21
6003.124747959815
 31
0.0
  0
LINE
  5
2703A
330
747D
100
AcDbEntity
  8
細線
 48
50.0
100
AcDbLine
 10
5273.599999999993
 20
6072.532431591886
 30
0.0
 11
5464.897961922352
 21
6263.830393514245
 31
0.0
  0
LINE
  5
2703B
330
747D
100
AcDbEntity
  8
細線
 48
50.0
100
AcDbLine
 10
5273.599999999992
 20
6117.433712197229
 30
0.0
 11
5419.996681317008
 21
6263.830393514245
 31
0.0
  0
LINE
  5
2703C
330
747D
100
AcDbEntity
  8
細線
 48
50.0
100
AcDbLine
 10
5273.59999999999
 20
6207.236273407922
 30
0.0
 11
5330.194120106317
 21
6263.830393514246
 31
0.0
  0
LINE
  5
2703D
330
747D
100
AcDbEntity
  8
細線
 48
50.0
100
AcDbLine
 10
5273.599999999991
 20
6162.334992802578
 30
0.0
 11
5375.095400711658
 21
6263.830393514245
 31
0.0
  0
LINE
  5
2703E
330
747D
100
AcDbEntity
  8
部品1
 48
50.0
100
AcDbLine
 10
5948.600000000006
 20
6890.830393514248
 30
0.0
 11
5748.600000000006
 21
6890.830393514248
 31
0.0
  0
LINE
  5
2703F
330
747D
100
AcDbEntity
  8
部品1
 48
50.0
100
AcDbLine
 10
5948.600000000006
 20
6690.830393514248
 30
0.0
 11
5748.600000000006
 21
6690.830393514248
 31
0.0
  0
LINE
  5
27040
330
747D
100
AcDbEntity
  8
部品1
 48
50.0
100
AcDbLine
 10
5748.600000000006
 20
6690.830393514248
 30
0.0
 11
5748.600000000006
 21
6890.830393514248
 31
0.0
  0
LINE
  5
27041
330
747D
100
AcDbEntity
  8
部品1
 48
50.0
100
AcDbLine
 10
5948.600000000006
 20
6690.830393514248
 30
0.0
 11
5948.600000000006
 21
6890.830393514248
 31
0.0
  0
LINE
  5
27042
330
747D
100
AcDbEntity
  8
センター
 48
2.0
100
AcDbLine
 10
5848.600000000006
 20
6840.830393514249
 30
0.0
 11
5848.600000000006
 21
6740.830393514248
 31
0.0
  0
LINE
  5
27043
330
747D
100
AcDbEntity
  8
センター
 48
2.0
100
AcDbLine
 10
5798.600000000006
 20
6790.830393514248
 30
0.0
 11
5898.600000000006
 21
6790.830393514248
 31
0.0
  0
LINE
  5
27050
330
747D
100
AcDbEntity
  8
センター
 48
2.0
100
AcDbLine
 10
6680.600000000005
 20
6231.830393514252
 30
0.0
 11
6680.600000000005
 21
6131.830393514253
 31
0.0
  0
LINE
  5
27051
330
747D
100
AcDbEntity
  8
センター
 48
2.0
100
AcDbLine
 10
6630.600000000005
 20
6181.830393514252
 30
0.0
 11
6730.600000000006
 21
6181.830393514252
 31
0.0
  0
CIRCLE
  5
27052
330
747D
100
AcDbEntity
  8
部品1
 48
50.0
100
AcDbCircle
 10
6680.600000000005
 20
6181.830393514252
 30
0.0
 40
35.0
  0
LINE
  5
27053
330
747D
100
AcDbEntity
  8
部品1
 48
50.0
100
AcDbLine
 10
6698.600000000006
 20
6690.830393514248
 30
0.0
 11
6698.600000000006
 21
6890.830393514248
 31
0.0
  0
LINE
  5
27054
330
747D
100
AcDbEntity
  8
センター
 48
2.0
100
AcDbLine
 10
6798.600000000006
 20
6840.830393514249
 30
0.0
 11
6798.600000000006
 21
6740.830393514248
 31
0.0
  0
LINE
  5
27061
330
747D
100
AcDbEntity
  8
部品1
 48
50.0
100
AcDbLine
 10
6898.600000000006
 20
6690.830393514248
 30
0.0
 11
6898.600000000006
 21
6890.830393514248
 31
0.0
  0
TEXT
  5
27062
330
747D
100
AcDbEntity
  8
寸法
 48
50.0
100
AcDbText
 10
7658.736304800051
 20
6002.511684306987
 30
0.0
 40
120.0
  1
扉面
  7
STYLE1
100
AcDbText
  0
LINE
  5
2706F
330
747D
100
AcDbEntity
  8
部品1
 48
50.0
100
AcDbLine
 10
7848.600000000006
 20
6890.830393514248
 30
0.0
 11
7648.600000000006
 21
6890.830393514248
 31
0.0
  0
LINE
  5
27070
330
747D
100
AcDbEntity
  8
部品1
 48
50.0
100
AcDbLine
 10
7848.600000000006
 20
6690.830393514248
 30
0.0
 11
7648.600000000006
 21
6690.830393514248
 31
0.0
  0
LINE
  5
27071
330
747D
100
AcDbEntity
  8
センター
 48
2.0
100
AcDbLine
 10
7748.600000000006
 20
6840.830393514249
 30
0.0
 11
7748.600000000006
 21
6740.830393514248
 31
0.0
  0
LINE
  5
27072
330
747D
100
AcDbEntity
  8
部品1
 48
50.0
100
AcDbLine
 10
7648.600000000006
 20
6690.830393514248
 30
0.0
 11
7648.600000000006
 21
6890.830393514248
 31
0.0
  0
LINE
  5
27073
330
747D
100
AcDbEntity
  8
センター
 48
2.0
100
AcDbLine
 10
7698.600000000006
 20
6790.830393514248
 30
0.0
 11
7798.600000000006
 21
6790.830393514248
 31
0.0
  0
LINE
  5
27074
330
747D
100
AcDbEntity
  8
部品1
 48
50.0
100
AcDbLine
 10
7848.600000000006
 20
6690.830393514248
 30
0.0
 11
7848.600000000006
 21
6890.830393514248
 31
0.0
  0
DIMENSION
  5
27075
330
747D
100
AcDbEntity
  8
寸法
 48
50.0
100
AcDbDimension
  2
*D26
 10
5016.599999999999
 20
8250.09685160816
 30
0.0
 11
5848.599999999999
 21
8350.09685160816
 31
0.0
 70
    32
 71
     5
 42
1664.0
  3
INABA_S40G
100
AcDbAlignedDimension
 13
6680.599999999998
 23
7450.830393514249
 33
0.0
 14
5016.599999999999
 24
7450.830393514249
 34
0.0
100
AcDbRotatedDimension
1001
ACAD
1000
DSTYLE
1002
{
1070
   341
1005
0
1002
}
  0
DIMENSION
  5
27076
330
747D
100
AcDbEntity
  8
寸法
 48
50.0
100
AcDbDimension
  2
*D27
 10
4893.599999999999
 20
8250.09685160816
 30
0.0
 11
4620.4933982822
 21
8250.09685160816
 31
0.0
 70
   160
 71
     5
 42
123.0
  3
INABA_S40G
100
AcDbAlignedDimension
 13
5016.599999999999
 23
7450.830393514249
 33
0.0
 14
4893.599999999999
 24
7523.830393514248
 34
0.0
100
AcDbRotatedDimension
1001
ACAD
1000
DSTYLE
1002
{
1070
   341
1005
0
1002
}
  0
DIMENSION
  5
27079
330
747D
100
AcDbEntity
  8
寸法
 48
50.0
100
AcDbDimension
  2
*D28
 10
4270.66500633007
 20
7400.830393514249
 30
0.0
 11
4270.665006330069
 21
7796.936995232049
 31
0.0
 70
   160
 71
     5
 42
123.0
  3
INABA_S40G
100
AcDbAlignedDimension
 13
4893.599999999999
 23
7523.830393514248
 33
0.0
 14
4966.599999999999
 24
7400.830393514249
 34
0.0
 50
90.0
100
AcDbRotatedDimension
1001
ACAD
1000
DSTYLE
1002
{
1070
   341
1005
0
1002
}
  0
LINE
  5
2707A
330
747D
100
AcDbEntity
  8
センター
 48
2.0
100
AcDbLine
 10
5016.599999999999
 20
7450.830393514249
 30
0.0
 11
5016.599999999999
 21
7350.830393514249
 31
0.0
  0
CIRCLE
  5
2707B
330
747D
100
AcDbEntity
  8
部品1
 48
50.0
100
AcDbCircle
 10
5016.599999999999
 20
7400.830393514249
 30
0.0
 40
35.0
  0
LINE
  5
2707C
330
747D
100
AcDbEntity
  8
センター
 48
2.0
100
AcDbLine
 10
4966.599999999999
 20
7400.830393514249
 30
0.0
 11
5066.599999999999
 21
7400.830393514249
 31
0.0
  0
LINE
  5
2707D
330
747D
100
AcDbEntity
  8
細線
 48
50.0
100
AcDbLine
 10
5273.6
 20
7326.051640672059
 30
0.0
 11
5471.378752842191
 21
7523.830393514248
 31
0.0
  0
LINE
  5
2707E
330
747D
100
AcDbEntity
  8
細線
 48
50.0
100
AcDbLine
 10
5273.599999999999
 20
7370.952921277397
 30
0.0
 11
5426.477472236846
 21
7523.830393514248
 31
0.0
  0
LINE
  5
2707F
330
747D
100
AcDbEntity
  8
細線
 48
50.0
100
AcDbLine
 10
5273.599999999997
 20
7415.854201882744
 30
0.0
 11
5381.5761916315
 21
7523.830393514248
 31
0.0
  0
LINE
  5
27080
330
747D
100
AcDbEntity
  8
細線
 48
50.0
100
AcDbLine
 10
5273.599999999996
 20
7460.755482488092
 30
0.0
 11
5336.674911026154
 21
7523.830393514248
 31
0.0
  0
LINE
  5
27081
330
747D
100
AcDbEntity
  8
部品1
 48
50.0
100
AcDbLine
 10
5473.599999999994
 20
7523.830393514248
 30
0.0
 11
5473.600000000001
 21
7323.830393514248
 31
0.0
  0
LINE
  5
27082
330
747D
100
AcDbEntity
  8
部品1
 48
50.0
100
AcDbLine
 10
5273.599999999993
 20
7523.830393514248
 30
0.0
 11
5273.6
 21
7323.830393514248
 31
0.0
  0
LINE
  5
27083
330
747D
100
AcDbEntity
  8
細線
 48
50.0
100
AcDbLine
 10
5361.181314052895
 20
7323.830393514247
 30
0.0
 11
5473.599999999999
 21
7436.249079461365
 31
0.0
  0
LINE
  5
27084
330
747D
100
AcDbEntity
  8
細線
 48
50.0
100
AcDbLine
 10
5316.280033447535
 20
7323.830393514246
 30
0.0
 11
5473.599999999994
 21
7481.150360066705
 31
0.0
  0
LINE
  5
27085
330
747D
100
AcDbEntity
  8
細線
 48
50.0
100
AcDbLine
 10
5450.983875263588
 20
7323.830393514246
 30
0.0
 11
5473.6
 21
7346.446518250662
 31
0.0
  0
LINE
  5
27086
330
747D
100
AcDbEntity
  8
細線
 48
50.0
100
AcDbLine
 10
5406.082594658233
 20
7323.830393514247
 30
0.0
 11
5473.599999999999
 21
7391.347798856012
 31
0.0
  0
LINE
  5
27087
330
747D
100
AcDbEntity
  8
細線
 48
50.0
100
AcDbLine
 10
5273.599999999994
 20
7505.656763093435
 30
0.0
 11
5291.773630420808
 21
7523.830393514248
 31
0.0
  0
LINE
  5
27088
330
747D
100
AcDbEntity
  8
細線
 48
50.0
100
AcDbLine
 10
6223.599999999994
 20
7460.755482488092
 30
0.0
 11
6286.674911026155
 21
7523.830393514248
 31
0.0
  0
LINE
  5
27089
330
747D
100
AcDbEntity
  8
部品1
 48
50.0
100
AcDbLine
 10
6223.599999999994
 20
7523.830393514248
 30
0.0
 11
6223.600000000001
 21
7323.830393514248
 31
0.0
  0
LINE
  5
2708A
330
747D
100
AcDbEntity
  8
部品1
 48
50.0
100
AcDbLine
 10
6423.599999999993
 20
7523.830393514248
 30
0.0
 11
6423.6
 21
7323.830393514248
 31
0.0
  0
LINE
  5
2708B
330
747D
100
AcDbEntity
  8
細線
 48
50.0
100
AcDbLine
 10
6223.600000000001
 20
7326.051640672059
 30
0.0
 11
6421.378752842193
 21
7523.830393514248
 31
0.0
  0
LINE
  5
2708C
330
747D
100
AcDbEntity
  8
細線
 48
50.0
100
AcDbLine
 10
6223.599999999999
 20
7370.952921277397
 30
0.0
 11
6376.477472236846
 21
7523.830393514248
 31
0.0
  0
LINE
  5
2708D
330
747D
100
AcDbEntity
  8
細線
 48
50.0
100
AcDbLine
 10
6223.599999999997
 20
7415.854201882744
 30
0.0
 11
6331.5761916315
 21
7523.830393514248
 31
0.0
  0
LINE
  5
2708F
330
747D
100
AcDbEntity
  8
細線
 48
50.0
100
AcDbLine
 10
6356.082594658233
 20
7323.830393514247
 30
0.0
 11
6423.599999999999
 21
7391.347798856012
 31
0.0
  0
LINE
  5
27090
330
747D
100
AcDbEntity
  8
細線
 48
50.0
100
AcDbLine
 10
6311.181314052896
 20
7323.830393514247
 30
0.0
 11
6423.599999999999
 21
7436.249079461365
 31
0.0
  0
LINE
  5
27091
330
747D
100
AcDbEntity
  8
細線
 48
50.0
100
AcDbLine
 10
6266.280033447536
 20
7323.830393514246
 30
0.0
 11
6423.599999999995
 21
7481.150360066705
 31
0.0
  0
LINE
  5
27092
330
747D
100
AcDbEntity
  8
細線
 48
50.0
100
AcDbLine
 10
6400.983875263588
 20
7323.830393514246
 30
0.0
 11
6423.599999999999
 21
7346.446518250662
 31
0.0
  0
LINE
  5
27093
330
747D
100
AcDbEntity
  8
センター
 48
2.0
100
AcDbLine
 10
6680.599999999998
 20
7450.830393514249
 30
0.0
 11
6680.599999999998
 21
7350.830393514249
 31
0.0
  0
CIRCLE
  5
27094
330
747D
100
AcDbEntity
  8
部品1
 48
50.0
100
AcDbCircle
 10
6680.599999999998
 20
7400.830393514249
 30
0.0
 40
35.0
  0
LINE
  5
27095
330
747D
100
AcDbEntity
  8
センター
 48
2.0
100
AcDbLine
 10
6630.599999999998
 20
7400.830393514249
 30
0.0
 11
6730.599999999999
 21
7400.830393514249
 31
0.0
  0
LINE
  5
27096
330
747D
100
AcDbEntity
  8
細線
 48
50.0
100
AcDbLine
 10
6223.599999999994
 20
7505.656763093435
 30
0.0
 11
6241.773630420809
 21
7523.830393514248
 31
0.0
  0
LINE
  5
27097
330
747D
100
AcDbEntity
  8
細線
 48
50.0
100
AcDbLine
 10
7173.599999999995
 20
7460.755482488092
 30
0.0
 11
7236.674911026155
 21
7523.830393514248
 31
0.0
  0
LINE
  5
27098
330
747D
100
AcDbEntity
  8
細線
 48
50.0
100
AcDbLine
 10
7173.599999999997
 20
7415.854201882744
 30
0.0
 11
7281.576191631501
 21
7523.830393514248
 31
0.0
  0
LINE
  5
27099
330
747D
100
AcDbEntity
  8
細線
 48
50.0
100
AcDbLine
 10
7173.599999999999
 20
7370.952921277397
 30
0.0
 11
7326.477472236845
 21
7523.830393514248
 31
0.0
  0
LINE
  5
2709A
330
747D
100
AcDbEntity
  8
細線
 48
50.0
100
AcDbLine
 10
7173.6
 20
7326.051640672059
 30
0.0
 11
7371.378752842193
 21
7523.830393514248
 31
0.0
  0
LINE
  5
2709B
330
747D
100
AcDbEntity
  8
部品1
 48
50.0
100
AcDbLine
 10
7373.599999999993
 20
7523.830393514248
 30
0.0
 11
7373.6
 21
7323.830393514248
 31
0.0
  0
LINE
  5
2709C
330
747D
100
AcDbEntity
  8
部品1
 48
50.0
100
AcDbLine
 10
7173.599999999993
 20
7523.830393514248
 30
0.0
 11
7173.6
 21
7323.830393514248
 31
0.0
  0
LINE
  5
2709D
330
747D
100
AcDbEntity
  8
細線
 48
50.0
100
AcDbLine
 10
7306.082594658234
 20
7323.830393514247
 30
0.0
 11
7373.599999999999
 21
7391.347798856012
 31
0.0
  0
LINE
  5
2709E
330
747D
100
AcDbEntity
  8
細線
 48
50.0
100
AcDbLine
 10
7350.983875263588
 20
7323.830393514246
 30
0.0
 11
7373.599999999999
 21
7346.446518250662
 31
0.0
  0
LINE
  5
2709F
330
747D
100
AcDbEntity
  8
細線
 48
50.0
100
AcDbLine
 10
7216.280033447536
 20
7323.830393514246
 30
0.0
 11
7373.599999999995
 21
7481.150360066705
 31
0.0
  0
LINE
  5
270A0
330
747D
100
AcDbEntity
  8
細線
 48
50.0
100
AcDbLine
 10
7261.181314052895
 20
7323.830393514247
 30
0.0
 11
7373.599999999999
 21
7436.249079461365
 31
0.0
  0
LINE
  5
270A1
330
747D
100
AcDbEntity
  8
細線
 48
50.0
100
AcDbLine
 10
7173.599999999995
 20
7505.656763093435
 30
0.0
 11
7191.773630420809
 21
7523.830393514248
 31
0.0
  0
LINE
  5
270A2
330
747D
100
AcDbEntity
  8
細線
 48
50.0
100
AcDbLine
 10
8123.599999999994
 20
7460.755482488092
 30
0.0
 11
8186.674911026155
 21
7523.830393514248
 31
0.0
  0
LINE
  5
270A3
330
747D
100
AcDbEntity
  8
細線
 48
50.0
100
AcDbLine
 10
8123.599999999997
 20
7415.854201882744
 30
0.0
 11
8231.576191631502
 21
7523.830393514248
 31
0.0
  0
LINE
  5
270A4
330
747D
100
AcDbEntity
  8
細線
 48
50.0
100
AcDbLine
 10
8123.599999999999
 20
7370.952921277397
 30
0.0
 11
8276.477472236846
 21
7523.830393514248
 31
0.0
  0
LINE
  5
270A5
330
747D
100
AcDbEntity
  8
細線
 48
50.0
100
AcDbLine
 10
8123.600000000001
 20
7326.051640672059
 30
0.0
 11
8321.378752842193
 21
7523.830393514248
 31
0.0
  0
LINE
  5
270A6
330
747D
100
AcDbEntity
  8
部品1
 48
50.0
100
AcDbLine
 10
8323.599999999993
 20
7523.830393514248
 30
0.0
 11
8323.6
 21
7323.830393514248
 31
0.0
  0
LINE
  5
270A7
330
747D
100
AcDbEntity
  8
部品1
 48
50.0
100
AcDbLine
 10
8123.599999999994
 20
7523.830393514248
 30
0.0
 11
8123.600000000001
 21
7323.830393514248
 31
0.0
  0
LINE
  5
270A8
330
747D
100
AcDbEntity
  8
細線
 48
50.0
100
AcDbLine
 10
8166.280033447536
 20
7323.830393514246
 30
0.0
 11
8323.599999999995
 21
7481.150360066705
 31
0.0
  0
LINE
  5
270A9
330
747D
100
AcDbEntity
  8
細線
 48
50.0
100
AcDbLine
 10
8211.181314052895
 20
7323.830393514247
 30
0.0
 11
8323.599999999998
 21
7436.249079461365
 31
0.0
  0
LINE
  5
270AA
330
747D
100
AcDbEntity
  8
細線
 48
50.0
100
AcDbLine
 10
8256.082594658234
 20
7323.830393514247
 30
0.0
 11
8323.599999999998
 21
7391.347798856012
 31
0.0
  0
LINE
  5
270AB
330
747D
100
AcDbEntity
  8
細線
 48
50.0
100
AcDbLine
 10
8300.983875263588
 20
7323.830393514246
 30
0.0
 11
8323.599999999998
 21
7346.446518250662
 31
0.0
  0
LINE
  5
270AC
330
747D
100
AcDbEntity
  8
細線
 48
50.0
100
AcDbLine
 10
8123.599999999994
 20
7505.656763093435
 30
0.0
 11
8141.773630420809
 21
7523.830393514248
 31
0.0
  0
DIMENSION
  5
270AD
330
747D
100
AcDbEntity
  8
寸法
 48
50.0
100
AcDbDimension
  2
*D29
 10
9648.600000000007
 20
8006.439210184497
 30
0.0
 11
10123.6
 21
8106.439210184497
 31
0.0
 70
    32
 71
     5
 42
950.0
  3
INABA_S40G
100
AcDbAlignedDimension
 13
10598.6
 23
6840.830393514249
 33
0.0
 14
9648.600000000007
 24
6840.830393514249
 34
0.0
100
AcDbRotatedDimension
1001
ACAD
1000
DSTYLE
1002
{
1070
   341
1005
0
1002
}
  0
DIMENSION
  5
270B0
330
747D
100
AcDbEntity
  8
寸法
 48
50.0
100
AcDbDimension
  2
*D30
 10
10598.6
 20
8006.439210184497
 30
0.0
 11
11076.1
 21
8106.439210184497
 31
0.0
 70
    32
 71
     5
 42
954.9999999999927
  3
INABA_S40G
100
AcDbAlignedDimension
 13
11553.6
 23
7523.830393514248
 33
0.0
 14
10598.6
 24
6840.830393514249
 34
0.0
100
AcDbRotatedDimension
1001
ACAD
1000
DSTYLE
1002
{
1070
   341
1005
0
1002
}
  0
LINE
  5
270B3
102
{ACAD_REACTORS
330
2790B
102
}
330
747D
100
AcDbEntity
  8
部品1
 48
50.0
100
AcDbLine
 10
11553.6
 20
5983.830393514267
 30
0.0
 11
11553.6
 21
7523.830393514248
 31
0.0
  0
DIMENSION
  5
270B4
330
747D
100
AcDbEntity
  8
寸法
 48
50.0
100
AcDbDimension
  2
*D31
 10
8698.600000000006
 20
8006.439210184497
 30
0.0
 11
9173.600000000005
 21
8106.439210184497
 31
0.0
 70
    32
 71
     5
 42
950.0
  3
INABA_S40G
100
AcDbAlignedDimension
 13
9648.600000000007
 23
6840.830393514249
 33
0.0
 14
8698.600000000006
 24
6840.830393514249
 34
0.0
100
AcDbRotatedDimension
1001
ACAD
1000
DSTYLE
1002
{
1070
   341
1005
0
1002
}
  0
LINE
  5
270C7
330
747D
100
AcDbEntity
  8
センター
 48
2.0
100
AcDbLine
 10
8580.600000000005
 20
6231.830393514252
 30
0.0
 11
8580.600000000005
 21
6131.830393514253
 31
0.0
  0
LINE
  5
270C8
330
747D
100
AcDbEntity
  8
センター
 48
2.0
100
AcDbLine
 10
8530.600000000005
 20
6181.830393514252
 30
0.0
 11
8630.600000000006
 21
6181.830393514252
 31
0.0
  0
CIRCLE
  5
270C9
330
747D
100
AcDbEntity
  8
部品1
 48
50.0
100
AcDbCircle
 10
8580.600000000005
 20
6181.830393514252
 30
0.0
 40
35.0
  0
LINE
  5
270CF
330
747D
100
AcDbEntity
  8
部品1
 48
50.0
100
AcDbLine
 10
8798.600000000005
 20
6890.830393514248
 30
0.0
 11
8598.600000000006
 21
6890.830393514248
 31
0.0
  0
LINE
  5
270D0
330
747D
100
AcDbEntity
  8
部品1
 48
50.0
100
AcDbLine
 10
8798.600000000005
 20
6690.830393514248
 30
0.0
 11
8598.600000000006
 21
6690.830393514248
 31
0.0
  0
LINE
  5
270D1
330
747D
100
AcDbEntity
  8
センター
 48
2.0
100
AcDbLine
 10
8648.600000000007
 20
6790.830393514248
 30
0.0
 11
8748.600000000006
 21
6790.830393514248
 31
0.0
  0
LINE
  5
270D2
330
747D
100
AcDbEntity
  8
部品1
 48
50.0
100
AcDbLine
 10
8598.600000000006
 20
6690.830393514248
 30
0.0
 11
8598.600000000006
 21
6890.830393514248
 31
0.0
  0
LINE
  5
270D3
330
747D
100
AcDbEntity
  8
部品1
 48
50.0
100
AcDbLine
 10
8798.600000000005
 20
6690.830393514248
 30
0.0
 11
8798.600000000005
 21
6890.830393514248
 31
0.0
  0
LINE
  5
270D4
330
747D
100
AcDbEntity
  8
センター
 48
2.0
100
AcDbLine
 10
8698.600000000006
 20
6840.830393514249
 30
0.0
 11
8698.600000000006
 21
6740.830393514248
 31
0.0
  0
LINE
  5
270D8
330
747D
100
AcDbEntity
  8
センター
 48
2.0
100
AcDbLine
 10
9598.600000000006
 20
6790.830393514248
 30
0.0
 11
9698.600000000006
 21
6790.830393514248
 31
0.0
  0
LINE
  5
270D9
330
747D
100
AcDbEntity
  8
部品1
 48
50.0
100
AcDbLine
 10
9748.600000000006
 20
6690.830393514248
 30
0.0
 11
9548.600000000005
 21
6690.830393514248
 31
0.0
  0
LINE
  5
270DA
330
747D
100
AcDbEntity
  8
部品1
 48
50.0
100
AcDbLine
 10
9748.600000000006
 20
6890.830393514248
 30
0.0
 11
9548.600000000005
 21
6890.830393514248
 31
0.0
  0
LINE
  5
270DB
330
747D
100
AcDbEntity
  8
センター
 48
2.0
100
AcDbLine
 10
9648.600000000007
 20
6840.830393514249
 30
0.0
 11
9648.600000000007
 21
6740.830393514248
 31
0.0
  0
LINE
  5
270DC
330
747D
100
AcDbEntity
  8
部品1
 48
50.0
100
AcDbLine
 10
9548.600000000005
 20
6690.830393514248
 30
0.0
 11
9548.600000000005
 21
6890.830393514248
 31
0.0
  0
LINE
  5
270DD
330
747D
100
AcDbEntity
  8
部品1
 48
50.0
100
AcDbLine
 10
9748.600000000006
 20
6690.830393514248
 30
0.0
 11
9748.600000000006
 21
6890.830393514248
 31
0.0
  0
LINE
  5
270E2
330
747D
100
AcDbEntity
  8
部品1
 48
50.0
100
AcDbLine
 10
10698.6
 20
6690.830393514248
 30
0.0
 11
10698.6
 21
6890.830393514248
 31
0.0
  0
LINE
  5
270E3
330
747D
100
AcDbEntity
  8
部品1
 48
50.0
100
AcDbLine
 10
10498.6
 20
6690.830393514248
 30
0.0
 11
10498.6
 21
6890.830393514248
 31
0.0
  0
LINE
  5
270E4
330
747D
100
AcDbEntity
  8
センター
 48
2.0
100
AcDbLine
 10
10598.6
 20
6840.830393514249
 30
0.0
 11
10598.6
 21
6740.830393514248
 31
0.0
  0
LINE
  5
270E5
330
747D
100
AcDbEntity
  8
部品1
 48
50.0
100
AcDbLine
 10
10698.6
 20
6890.830393514248
 30
0.0
 11
10498.6
 21
6890.830393514248
 31
0.0
  0
LINE
  5
270E6
330
747D
100
AcDbEntity
  8
部品1
 48
50.0
100
AcDbLine
 10
10698.6
 20
6690.830393514248
 30
0.0
 11
10498.6
 21
6690.830393514248
 31
0.0
  0
LINE
  5
270E7
330
747D
100
AcDbEntity
  8
センター
 48
2.0
100
AcDbLine
 10
10548.6
 20
6790.830393514248
 30
0.0
 11
10648.6
 21
6790.830393514248
 31
0.0
  0
LINE
  5
270F4
330
747D
100
AcDbEntity
  8
センター
 48
2.0
100
AcDbLine
 10
11380.6
 20
6181.830393514252
 30
0.0
 11
11480.6
 21
6181.830393514252
 31
0.0
  0
CIRCLE
  5
270F5
330
747D
100
AcDbEntity
  8
部品1
 48
50.0
100
AcDbCircle
 10
11430.6
 20
6181.830393514252
 30
0.0
 40
35.0
  0
LINE
  5
270F6
330
747D
100
AcDbEntity
  8
センター
 48
2.0
100
AcDbLine
 10
11430.6
 20
6231.830393514252
 30
0.0
 11
11430.6
 21
6131.830393514253
 31
0.0
  0
LINE
  5
270F7
102
{ACAD_REACTORS
330
2790B
102
}
330
747D
100
AcDbEntity
  8
部品1
 48
50.0
100
AcDbLine
 10
11553.59999999998
 20
6878.83039351427
 30
0.0
 11
11433.6
 21
6878.83039351427
 31
0.0
  0
LINE
  5
270F8
102
{ACAD_REACTORS
330
2790B
102
}
330
747D
100
AcDbEntity
  8
部品1
 48
50.0
100
AcDbLine
 10
11553.59999999998
 20
6678.830393514271
 30
0.0
 11
11433.6
 21
6678.830393514271
 31
0.0
  0
DIMENSION
  5
270FC
330
747D
100
AcDbEntity
  8
寸法
 48
50.0
100
AcDbDimension
  2
*D32
 10
11430.6
 20
8250.09685160816
 30
0.0
 11
11826.7066017178
 21
8250.09685160816
 31
0.0
 70
   160
 71
     5
 42
123.0
  3
INABA_S40G
100
AcDbAlignedDimension
 13
11553.6
 23
7523.830393514248
 33
0.0
 14
11430.6
 24
7450.830393514249
 34
0.0
100
AcDbRotatedDimension
1001
ACAD
1000
DSTYLE
1002
{
1070
   341
1005
0
1002
}
  0
LINE
  5
270FD
330
747D
100
AcDbEntity
  8
細線
 48
50.0
100
AcDbLine
 10
10023.59999999999
 20
7460.75548248816
 30
0.0
 11
10086.67491102615
 21
7523.830393514318
 31
0.0
  0
LINE
  5
270FE
330
747D
100
AcDbEntity
  8
細線
 48
50.0
100
AcDbLine
 10
10066.28003344753
 20
7323.830393514313
 30
0.0
 11
10223.59999999999
 21
7481.150360066775
 31
0.0
  0
LINE
  5
270FF
330
747D
100
AcDbEntity
  8
細線
 48
50.0
100
AcDbLine
 10
10023.6
 20
7326.051640672128
 30
0.0
 11
10221.37875284219
 21
7523.830393514318
 31
0.0
  0
LINE
  5
27100
330
747D
100
AcDbEntity
  8
細線
 48
50.0
100
AcDbLine
 10
10023.6
 20
7370.952921277467
 30
0.0
 11
10176.47747223684
 21
7523.830393514318
 31
0.0
  0
LINE
  5
27101
330
747D
100
AcDbEntity
  8
細線
 48
50.0
100
AcDbLine
 10
10023.6
 20
7415.854201882814
 30
0.0
 11
10131.5761916315
 21
7523.830393514318
 31
0.0
  0
DIMENSION
  5
27102
330
747D
100
AcDbEntity
  8
寸法
 48
50.0
100
AcDbDimension
  2
*D33
 10
8580.599999999998
 20
8250.09685160816
 30
0.0
 11
10005.6
 21
8350.108662631781
 31
0.0
 70
    32
 71
     5
 42
2850.0
  3
INABA_S40G
100
AcDbAlignedDimension
 13
11430.6
 23
7450.830393514249
 33
0.0
 14
8580.599999999998
 24
7450.830393514249
 34
0.0
100
AcDbRotatedDimension
1001
ACAD
1000
DSTYLE
1002
{
1070
   341
1005
0
1002
}
  0
LINE
  5
27103
330
747D
100
AcDbEntity
  8
細線
 48
50.0
100
AcDbLine
 10
9250.983875263589
 20
7323.830393514246
 30
0.0
 11
9273.6
 21
7346.446518250662
 31
0.0
  0
LINE
  5
27104
330
747D
100
AcDbEntity
  8
細線
 48
50.0
100
AcDbLine
 10
9206.082594658234
 20
7323.830393514247
 30
0.0
 11
9273.6
 21
7391.347798856012
 31
0.0
  0
LINE
  5
27105
330
747D
100
AcDbEntity
  8
細線
 48
50.0
100
AcDbLine
 10
9161.181314052894
 20
7323.830393514247
 30
0.0
 11
9273.6
 21
7436.249079461365
 31
0.0
  0
LINE
  5
27106
330
747D
100
AcDbEntity
  8
細線
 48
50.0
100
AcDbLine
 10
9116.280033447536
 20
7323.830393514246
 30
0.0
 11
9273.599999999994
 21
7481.150360066705
 31
0.0
  0
LINE
  5
27107
330
747D
100
AcDbEntity
  8
細線
 48
50.0
100
AcDbLine
 10
9073.6
 20
7326.051640672059
 30
0.0
 11
9271.378752842194
 21
7523.830393514248
 31
0.0
  0
LINE
  5
27108
330
747D
100
AcDbEntity
  8
細線
 48
50.0
100
AcDbLine
 10
9073.599999999995
 20
7460.755482488092
 30
0.0
 11
9136.674911026155
 21
7523.830393514248
 31
0.0
  0
LINE
  5
27109
330
747D
100
AcDbEntity
  8
部品1
 48
50.0
100
AcDbLine
 10
9073.599999999993
 20
7523.830393514248
 30
0.0
 11
9073.6
 21
7323.830393514248
 31
0.0
  0
LINE
  5
2710A
330
747D
100
AcDbEntity
  8
細線
 48
50.0
100
AcDbLine
 10
9073.599999999998
 20
7370.952921277397
 30
0.0
 11
9226.477472236846
 21
7523.830393514248
 31
0.0
  0
LINE
  5
2710B
330
747D
100
AcDbEntity
  8
細線
 48
50.0
100
AcDbLine
 10
9073.599999999997
 20
7415.854201882744
 30
0.0
 11
9181.576191631501
 21
7523.830393514248
 31
0.0
  0
LINE
  5
2710C
330
747D
100
AcDbEntity
  8
センター
 48
2.0
100
AcDbLine
 10
8580.599999999998
 20
7450.830393514249
 30
0.0
 11
8580.599999999998
 21
7350.830393514249
 31
0.0
  0
CIRCLE
  5
2710D
330
747D
100
AcDbEntity
  8
部品1
 48
50.0
100
AcDbCircle
 10
8580.599999999998
 20
7400.830393514249
 30
0.0
 40
35.0
  0
LINE
  5
2710E
330
747D
100
AcDbEntity
  8
センター
 48
2.0
100
AcDbLine
 10
8530.599999999997
 20
7400.830393514249
 30
0.0
 11
8630.599999999999
 21
7400.830393514249
 31
0.0
  0
LINE
  5
2710F
330
747D
100
AcDbEntity
  8
細線
 48
50.0
100
AcDbLine
 10
9073.599999999995
 20
7505.656763093435
 30
0.0
 11
9091.773630420808
 21
7523.830393514248
 31
0.0
  0
LINE
  5
27110
330
747D
100
AcDbEntity
  8
部品1
 48
50.0
100
AcDbLine
 10
10023.59999999999
 20
7523.830393514318
 30
0.0
 11
10023.6
 21
7323.830393514318
 31
0.0
  0
LINE
  5
27111
330
747D
100
AcDbEntity
  8
部品1
 48
50.0
100
AcDbLine
 10
9273.599999999992
 20
7523.830393514248
 30
0.0
 11
9273.6
 21
7323.830393514248
 31
0.0
  0
LINE
  5
27112
330
747D
100
AcDbEntity
  8
細線
 48
50.0
100
AcDbLine
 10
10023.59999999999
 20
7505.656763093504
 30
0.0
 11
10041.77363042081
 21
7523.830393514318
 31
0.0
  0
LINE
  5
27113
330
747D
100
AcDbEntity
  8
部品1
 48
50.0
100
AcDbLine
 10
10223.59999999999
 20
7523.830393514318
 30
0.0
 11
10223.6
 21
7323.830393514318
 31
0.0
  0
LINE
  5
27114
330
747D
100
AcDbEntity
  8
細線
 48
50.0
100
AcDbLine
 10
10200.98387526358
 20
7323.830393514313
 30
0.0
 11
10223.6
 21
7346.446518250729
 31
0.0
  0
LINE
  5
27115
330
747D
100
AcDbEntity
  8
細線
 48
50.0
100
AcDbLine
 10
10156.08259465823
 20
7323.830393514317
 30
0.0
 11
10223.6
 21
7391.347798856081
 31
0.0
  0
LINE
  5
27116
330
747D
100
AcDbEntity
  8
細線
 48
50.0
100
AcDbLine
 10
10111.18131405289
 20
7323.830393514317
 30
0.0
 11
10223.6
 21
7436.249079461433
 31
0.0
  0
LINE
  5
27117
330
747D
100
AcDbEntity
  8
細線
 48
50.0
100
AcDbLine
 10
10973.59999999999
 20
7460.75548248816
 30
0.0
 11
11036.67491102615
 21
7523.830393514318
 31
0.0
  0
LINE
  5
27118
330
747D
100
AcDbEntity
  8
細線
 48
50.0
100
AcDbLine
 10
10973.6
 20
7415.854201882814
 30
0.0
 11
11081.5761916315
 21
7523.830393514318
 31
0.0
  0
LINE
  5
27119
330
747D
100
AcDbEntity
  8
細線
 48
50.0
100
AcDbLine
 10
10973.6
 20
7370.952921277467
 30
0.0
 11
11126.47747223684
 21
7523.830393514318
 31
0.0
  0
LINE
  5
2711A
330
747D
100
AcDbEntity
  8
細線
 48
50.0
100
AcDbLine
 10
10973.6
 20
7326.051640672128
 30
0.0
 11
11171.37875284219
 21
7523.830393514318
 31
0.0
  0
LINE
  5
2711B
330
747D
100
AcDbEntity
  8
部品1
 48
50.0
100
AcDbLine
 10
11173.59999999999
 20
7523.830393514318
 30
0.0
 11
11173.6
 21
7323.830393514318
 31
0.0
  0
LINE
  5
2711C
330
747D
100
AcDbEntity
  8
部品1
 48
50.0
100
AcDbLine
 10
10973.59999999999
 20
7523.830393514318
 30
0.0
 11
10973.6
 21
7323.830393514318
 31
0.0
  0
LINE
  5
2711D
330
747D
100
AcDbEntity
  8
細線
 48
50.0
100
AcDbLine
 10
11106.08259465823
 20
7323.830393514317
 30
0.0
 11
11173.6
 21
7391.347798856081
 31
0.0
  0
LINE
  5
2711E
330
747D
100
AcDbEntity
  8
細線
 48
50.0
100
AcDbLine
 10
11016.28003344753
 20
7323.830393514313
 30
0.0
 11
11173.59999999999
 21
7481.150360066775
 31
0.0
  0
LINE
  5
2711F
330
747D
100
AcDbEntity
  8
細線
 48
50.0
100
AcDbLine
 10
11061.18131405289
 20
7323.830393514317
 30
0.0
 11
11173.6
 21
7436.249079461433
 31
0.0
  0
LINE
  5
27120
330
747D
100
AcDbEntity
  8
細線
 48
50.0
100
AcDbLine
 10
11150.98387526359
 20
7323.830393514313
 30
0.0
 11
11173.6
 21
7346.446518250729
 31
0.0
  0
CIRCLE
  5
27121
330
747D
100
AcDbEntity
  8
部品1
 48
50.0
100
AcDbCircle
 10
11430.6
 20
7400.830393514249
 30
0.0
 40
35.0
  0
LINE
  5
27122
330
747D
100
AcDbEntity
  8
センター
 48
2.0
100
AcDbLine
 10
11430.6
 20
7450.830393514249
 30
0.0
 11
11430.6
 21
7350.830393514249
 31
0.0
  0
LINE
  5
27123
330
747D
100
AcDbEntity
  8
センター
 48
2.0
100
AcDbLine
 10
11380.6
 20
7400.830393514249
 30
0.0
 11
11480.6
 21
7400.830393514249
 31
0.0
  0
LINE
  5
27124
330
747D
100
AcDbEntity
  8
細線
 48
50.0
100
AcDbLine
 10
10973.59999999999
 20
7505.656763093504
 30
0.0
 11
10991.77363042081
 21
7523.830393514318
 31
0.0
  0
TEXT
  5
277B7
330
747D
100
AcDbEntity
  8
文字
 62
     7
 48
50.0
100
AcDbText
 10
7537.930472564095
 20
4759.929381336872
 30
0.0
 40
200.0
  1
〈参 考 図〉
  7
STYLE2
100
AcDbText
  0
TEXT
  5
27875
330
747D
100
AcDbEntity
  8
文字
 62
     7
 48
50.0
100
AcDbText
 10
14267.69561199343
 20
838.2527270729188
 30
0.0
 40
100.0
  1
～一般型・多雪地型・豪雪地型～
  7
STYLE2
100
AcDbText
  0
LINE
  5
27895
330
747D
100
AcDbEntity
  8
部品1
 48
50.0
100
AcDbLine
 10
11433.6
 20
6263.830393514266
 30
0.0
 11
5013.599999999997
 21
6263.830393514242
 31
0.0
  0
LINE
  5
27896
330
747D
100
AcDbEntity
  8
細線
 48
50.0
100
AcDbLine
 10
6223.59999999999
 20
6162.334992802578
 30
0.0
 11
6325.095400711658
 21
6263.830393514245
 31
0.0
  0
LINE
  5
27897
330
747D
100
AcDbEntity
  8
細線
 48
50.0
100
AcDbLine
 10
6223.59999999999
 20
6207.236273407922
 30
0.0
 11
6280.194120106317
 21
6263.830393514246
 31
0.0
  0
LINE
  5
27898
330
747D
100
AcDbEntity
  8
細線
 48
50.0
100
AcDbLine
 10
6223.599999999993
 20
6117.433712197229
 30
0.0
 11
6369.996681317008
 21
6263.830393514245
 31
0.0
  0
LINE
  5
27899
330
747D
100
AcDbEntity
  8
細線
 48
50.0
100
AcDbLine
 10
6223.599999999994
 20
6072.532431591886
 30
0.0
 11
6414.897961922353
 21
6263.830393514245
 31
0.0
  0
LINE
  5
2789A
330
747D
100
AcDbEntity
  8
細線
 48
50.0
100
AcDbLine
 10
6404.305645554455
 20
5983.830393514271
 30
0.0
 11
6423.599999999997
 21
6003.124747959815
 31
0.0
  0
LINE
  5
2789B
330
747D
100
AcDbEntity
  8
部品1
 48
50.0
100
AcDbLine
 10
6223.599999999987
 20
6263.830393514243
 30
0.0
 11
6223.599999999994
 21
5983.830393514267
 31
0.0
  0
LINE
  5
2789C
330
747D
100
AcDbEntity
  8
部品1
 48
50.0
100
AcDbLine
 10
6423.599999999987
 20
6263.830393514245
 30
0.0
 11
6423.599999999995
 21
5983.830393514271
 31
0.0
  0
LINE
  5
2789D
330
747D
100
AcDbEntity
  8
細線
 48
50.0
100
AcDbLine
 10
6223.599999999994
 20
6027.63115098654
 30
0.0
 11
6423.599999999989
 21
6227.631150986534
 31
0.0
  0
LINE
  5
2789E
330
747D
100
AcDbEntity
  8
細線
 48
50.0
100
AcDbLine
 10
6224.700523133067
 20
5983.830393514267
 30
0.0
 11
6423.59999999999
 21
6182.729870381191
 31
0.0
  0
LINE
  5
2789F
330
747D
100
AcDbEntity
  8
細線
 48
50.0
100
AcDbLine
 10
6269.601803738414
 20
5983.830393514268
 30
0.0
 11
6423.599999999992
 21
6137.828589775845
 31
0.0
  0
LINE
  5
278A0
330
747D
100
AcDbEntity
  8
細線
 48
50.0
100
AcDbLine
 10
6314.503084343762
 20
5983.830393514268
 30
0.0
 11
6423.599999999996
 21
6092.927309170505
 31
0.0
  0
LINE
  5
278A1
330
747D
100
AcDbEntity
  8
細線
 48
50.0
100
AcDbLine
 10
6359.404364949107
 20
5983.830393514271
 30
0.0
 11
6423.599999999997
 21
6048.026028565158
 31
0.0
  0
LINE
  5
278A2
330
747D
100
AcDbEntity
  8
細線
 48
50.0
100
AcDbLine
 10
7173.59999999999
 20
6162.334992802578
 30
0.0
 11
7275.095400711657
 21
6263.830393514245
 31
0.0
  0
LINE
  5
278A3
330
747D
100
AcDbEntity
  8
細線
 48
50.0
100
AcDbLine
 10
7173.599999999989
 20
6207.236273407922
 30
0.0
 11
7230.194120106317
 21
6263.830393514246
 31
0.0
  0
LINE
  5
278A4
330
747D
100
AcDbEntity
  8
細線
 48
50.0
100
AcDbLine
 10
7173.599999999992
 20
6117.433712197229
 30
0.0
 11
7319.996681317007
 21
6263.830393514245
 31
0.0
  0
LINE
  5
278A5
330
747D
100
AcDbEntity
  8
細線
 48
50.0
100
AcDbLine
 10
7173.599999999993
 20
6072.532431591886
 30
0.0
 11
7364.897961922352
 21
6263.830393514245
 31
0.0
  0
LINE
  5
278A6
330
747D
100
AcDbEntity
  8
細線
 48
50.0
100
AcDbLine
 10
7354.305645554454
 20
5983.830393514271
 30
0.0
 11
7373.599999999997
 21
6003.124747959815
 31
0.0
  0
LINE
  5
278A7
330
747D
100
AcDbEntity
  8
部品1
 48
50.0
100
AcDbLine
 10
7173.599999999987
 20
6263.830393514243
 30
0.0
 11
7173.599999999995
 21
5983.830393514267
 31
0.0
  0
LINE
  5
278A8
330
747D
100
AcDbEntity
  8
部品1
 48
50.0
100
AcDbLine
 10
7373.599999999988
 20
6263.830393514245
 30
0.0
 11
7373.599999999995
 21
5983.830393514271
 31
0.0
  0
LINE
  5
278A9
330
747D
100
AcDbEntity
  8
細線
 48
50.0
100
AcDbLine
 10
7173.599999999995
 20
6027.63115098654
 30
0.0
 11
7373.599999999989
 21
6227.631150986534
 31
0.0
  0
LINE
  5
278AA
330
747D
100
AcDbEntity
  8
細線
 48
50.0
100
AcDbLine
 10
7174.700523133068
 20
5983.830393514267
 30
0.0
 11
7373.59999999999
 21
6182.729870381191
 31
0.0
  0
LINE
  5
278AB
330
747D
100
AcDbEntity
  8
細線
 48
50.0
100
AcDbLine
 10
7219.601803738413
 20
5983.830393514268
 30
0.0
 11
7373.599999999992
 21
6137.828589775845
 31
0.0
  0
LINE
  5
278AC
330
747D
100
AcDbEntity
  8
細線
 48
50.0
100
AcDbLine
 10
7264.503084343762
 20
5983.830393514268
 30
0.0
 11
7373.599999999997
 21
6092.927309170505
 31
0.0
  0
LINE
  5
278AD
330
747D
100
AcDbEntity
  8
細線
 48
50.0
100
AcDbLine
 10
7309.404364949108
 20
5983.830393514271
 30
0.0
 11
7373.599999999997
 21
6048.026028565158
 31
0.0
  0
LINE
  5
278AE
330
747D
100
AcDbEntity
  8
細線
 48
50.0
100
AcDbLine
 10
8123.59999999999
 20
6162.334992802578
 30
0.0
 11
8225.095400711657
 21
6263.830393514245
 31
0.0
  0
LINE
  5
278AF
330
747D
100
AcDbEntity
  8
細線
 48
50.0
100
AcDbLine
 10
8123.599999999989
 20
6207.236273407922
 30
0.0
 11
8180.194120106317
 21
6263.830393514246
 31
0.0
  0
LINE
  5
278B0
330
747D
100
AcDbEntity
  8
細線
 48
50.0
100
AcDbLine
 10
8123.599999999992
 20
6117.433712197229
 30
0.0
 11
8269.996681317007
 21
6263.830393514245
 31
0.0
  0
LINE
  5
278B1
330
747D
100
AcDbEntity
  8
細線
 48
50.0
100
AcDbLine
 10
8123.599999999994
 20
6072.532431591886
 30
0.0
 11
8314.897961922353
 21
6263.830393514245
 31
0.0
  0
LINE
  5
278B2
330
747D
100
AcDbEntity
  8
細線
 48
50.0
100
AcDbLine
 10
8304.305645554455
 20
5983.830393514271
 30
0.0
 11
8323.599999999998
 21
6003.124747959815
 31
0.0
  0
LINE
  5
278B3
330
747D
100
AcDbEntity
  8
部品1
 48
50.0
100
AcDbLine
 10
8123.599999999987
 20
6263.830393514243
 30
0.0
 11
8123.599999999994
 21
5983.830393514267
 31
0.0
  0
LINE
  5
278B4
330
747D
100
AcDbEntity
  8
部品1
 48
50.0
100
AcDbLine
 10
8323.599999999988
 20
6263.830393514245
 30
0.0
 11
8323.599999999995
 21
5983.830393514271
 31
0.0
  0
LINE
  5
278B5
330
747D
100
AcDbEntity
  8
細線
 48
50.0
100
AcDbLine
 10
8123.599999999994
 20
6027.63115098654
 30
0.0
 11
8323.59999999999
 21
6227.631150986534
 31
0.0
  0
LINE
  5
278B6
330
747D
100
AcDbEntity
  8
細線
 48
50.0
100
AcDbLine
 10
8124.700523133068
 20
5983.830393514267
 30
0.0
 11
8323.599999999991
 21
6182.729870381191
 31
0.0
  0
LINE
  5
278B7
330
747D
100
AcDbEntity
  8
細線
 48
50.0
100
AcDbLine
 10
8169.601803738414
 20
5983.830393514268
 30
0.0
 11
8323.599999999991
 21
6137.828589775845
 31
0.0
  0
LINE
  5
278B8
330
747D
100
AcDbEntity
  8
細線
 48
50.0
100
AcDbLine
 10
8214.503084343762
 20
5983.830393514268
 30
0.0
 11
8323.599999999997
 21
6092.927309170505
 31
0.0
  0
LINE
  5
278B9
330
747D
100
AcDbEntity
  8
細線
 48
50.0
100
AcDbLine
 10
8259.404364949107
 20
5983.830393514271
 30
0.0
 11
8323.599999999998
 21
6048.026028565158
 31
0.0
  0
LINE
  5
278BA
330
747D
100
AcDbEntity
  8
細線
 48
50.0
100
AcDbLine
 10
9073.599999999991
 20
6162.334992802578
 30
0.0
 11
9175.095400711658
 21
6263.830393514245
 31
0.0
  0
LINE
  5
278BB
330
747D
100
AcDbEntity
  8
細線
 48
50.0
100
AcDbLine
 10
9073.59999999999
 20
6207.236273407922
 30
0.0
 11
9130.194120106317
 21
6263.830393514246
 31
0.0
  0
LINE
  5
278BC
330
747D
100
AcDbEntity
  8
細線
 48
50.0
100
AcDbLine
 10
9073.599999999991
 20
6117.433712197229
 30
0.0
 11
9219.996681317006
 21
6263.830393514245
 31
0.0
  0
LINE
  5
278BD
330
747D
100
AcDbEntity
  8
細線
 48
50.0
100
AcDbLine
 10
9073.599999999993
 20
6072.532431591886
 30
0.0
 11
9264.897961922352
 21
6263.830393514245
 31
0.0
  0
LINE
  5
278BE
330
747D
100
AcDbEntity
  8
細線
 48
50.0
100
AcDbLine
 10
9254.305645554454
 20
5983.830393514271
 30
0.0
 11
9273.6
 21
6003.124747959815
 31
0.0
  0
LINE
  5
278BF
330
747D
100
AcDbEntity
  8
部品1
 48
50.0
100
AcDbLine
 10
9073.599999999988
 20
6263.830393514243
 30
0.0
 11
9073.599999999995
 21
5983.830393514267
 31
0.0
  0
LINE
  5
278C0
330
747D
100
AcDbEntity
  8
部品1
 48
50.0
100
AcDbLine
 10
9273.599999999987
 20
6263.830393514245
 30
0.0
 11
9273.599999999994
 21
5983.830393514271
 31
0.0
  0
LINE
  5
278C1
330
747D
100
AcDbEntity
  8
細線
 48
50.0
100
AcDbLine
 10
9073.599999999995
 20
6027.63115098654
 30
0.0
 11
9273.599999999989
 21
6227.631150986534
 31
0.0
  0
LINE
  5
278C2
330
747D
100
AcDbEntity
  8
細線
 48
50.0
100
AcDbLine
 10
9074.700523133067
 20
5983.830393514267
 30
0.0
 11
9273.599999999992
 21
6182.729870381191
 31
0.0
  0
LINE
  5
278C3
330
747D
100
AcDbEntity
  8
細線
 48
50.0
100
AcDbLine
 10
9119.601803738413
 20
5983.830393514268
 30
0.0
 11
9273.599999999992
 21
6137.828589775845
 31
0.0
  0
LINE
  5
278C4
330
747D
100
AcDbEntity
  8
細線
 48
50.0
100
AcDbLine
 10
9164.503084343762
 20
5983.830393514268
 30
0.0
 11
9273.599999999998
 21
6092.927309170505
 31
0.0
  0
LINE
  5
278C5
330
747D
100
AcDbEntity
  8
細線
 48
50.0
100
AcDbLine
 10
9209.404364949106
 20
5983.830393514271
 30
0.0
 11
9273.6
 21
6048.026028565158
 31
0.0
  0
LINE
  5
278C6
330
747D
100
AcDbEntity
  8
細線
 48
50.0
100
AcDbLine
 10
10023.59999999999
 20
6162.334992802578
 30
0.0
 11
10125.09540071166
 21
6263.830393514245
 31
0.0
  0
LINE
  5
278C7
330
747D
100
AcDbEntity
  8
細線
 48
50.0
100
AcDbLine
 10
10023.59999999999
 20
6207.236273407922
 30
0.0
 11
10080.19412010631
 21
6263.830393514246
 31
0.0
  0
LINE
  5
278C8
330
747D
100
AcDbEntity
  8
細線
 48
50.0
100
AcDbLine
 10
10023.59999999999
 20
6117.433712197229
 30
0.0
 11
10169.996681317
 21
6263.830393514245
 31
0.0
  0
LINE
  5
278C9
330
747D
100
AcDbEntity
  8
細線
 48
50.0
100
AcDbLine
 10
10023.59999999999
 20
6072.532431591886
 30
0.0
 11
10214.89796192235
 21
6263.830393514245
 31
0.0
  0
LINE
  5
278CA
330
747D
100
AcDbEntity
  8
細線
 48
50.0
100
AcDbLine
 10
10204.30564555445
 20
5983.830393514271
 30
0.0
 11
10223.6
 21
6003.124747959815
 31
0.0
  0
LINE
  5
278CB
330
747D
100
AcDbEntity
  8
部品1
 48
50.0
100
AcDbLine
 10
10023.59999999999
 20
6263.830393514243
 30
0.0
 11
10023.59999999999
 21
5983.830393514267
 31
0.0
  0
LINE
  5
278CC
330
747D
100
AcDbEntity
  8
部品1
 48
50.0
100
AcDbLine
 10
10223.59999999999
 20
6263.830393514245
 30
0.0
 11
10223.59999999999
 21
5983.830393514271
 31
0.0
  0
LINE
  5
278CD
330
747D
100
AcDbEntity
  8
細線
 48
50.0
100
AcDbLine
 10
10023.59999999999
 20
6027.63115098654
 30
0.0
 11
10223.59999999999
 21
6227.631150986534
 31
0.0
  0
LINE
  5
278CE
330
747D
100
AcDbEntity
  8
細線
 48
50.0
100
AcDbLine
 10
10024.70052313306
 20
5983.830393514267
 30
0.0
 11
10223.59999999999
 21
6182.729870381191
 31
0.0
  0
LINE
  5
278CF
330
747D
100
AcDbEntity
  8
細線
 48
50.0
100
AcDbLine
 10
10069.60180373841
 20
5983.830393514268
 30
0.0
 11
10223.59999999999
 21
6137.828589775845
 31
0.0
  0
LINE
  5
278D0
330
747D
100
AcDbEntity
  8
細線
 48
50.0
100
AcDbLine
 10
10114.50308434376
 20
5983.830393514268
 30
0.0
 11
10223.59999999999
 21
6092.927309170505
 31
0.0
  0
LINE
  5
278D1
330
747D
100
AcDbEntity
  8
細線
 48
50.0
100
AcDbLine
 10
10159.4043649491
 20
5983.830393514271
 30
0.0
 11
10223.6
 21
6048.026028565158
 31
0.0
  0
LINE
  5
278D2
330
747D
100
AcDbEntity
  8
細線
 48
50.0
100
AcDbLine
 10
10973.59999999999
 20
6162.334992802578
 30
0.0
 11
11075.09540071166
 21
6263.830393514245
 31
0.0
  0
LINE
  5
278D3
330
747D
100
AcDbEntity
  8
細線
 48
50.0
100
AcDbLine
 10
10973.59999999999
 20
6207.236273407922
 30
0.0
 11
11030.19412010631
 21
6263.830393514246
 31
0.0
  0
LINE
  5
278D4
330
747D
100
AcDbEntity
  8
細線
 48
50.0
100
AcDbLine
 10
10973.59999999999
 20
6117.433712197229
 30
0.0
 11
11119.99668131701
 21
6263.830393514245
 31
0.0
  0
LINE
  5
278D5
330
747D
100
AcDbEntity
  8
細線
 48
50.0
100
AcDbLine
 10
10973.59999999999
 20
6072.532431591886
 30
0.0
 11
11164.89796192235
 21
6263.830393514245
 31
0.0
  0
LINE
  5
278D6
330
747D
100
AcDbEntity
  8
細線
 48
50.0
100
AcDbLine
 10
11154.30564555445
 20
5983.830393514271
 30
0.0
 11
11173.6
 21
6003.124747959815
 31
0.0
  0
LINE
  5
278D7
330
747D
100
AcDbEntity
  8
部品1
 48
50.0
100
AcDbLine
 10
10973.59999999999
 20
6263.830393514243
 30
0.0
 11
10973.59999999999
 21
5983.830393514267
 31
0.0
  0
LINE
  5
278D8
330
747D
100
AcDbEntity
  8
部品1
 48
50.0
100
AcDbLine
 10
11173.59999999999
 20
6263.830393514245
 30
0.0
 11
11173.59999999999
 21
5983.830393514271
 31
0.0
  0
LINE
  5
278D9
330
747D
100
AcDbEntity
  8
細線
 48
50.0
100
AcDbLine
 10
10973.59999999999
 20
6027.63115098654
 30
0.0
 11
11173.59999999999
 21
6227.631150986534
 31
0.0
  0
LINE
  5
278DA
330
747D
100
AcDbEntity
  8
細線
 48
50.0
100
AcDbLine
 10
10974.70052313306
 20
5983.830393514267
 30
0.0
 11
11173.59999999999
 21
6182.729870381191
 31
0.0
  0
LINE
  5
278DB
330
747D
100
AcDbEntity
  8
細線
 48
50.0
100
AcDbLine
 10
11019.60180373841
 20
5983.830393514268
 30
0.0
 11
11173.59999999999
 21
6137.828589775845
 31
0.0
  0
LINE
  5
278DC
330
747D
100
AcDbEntity
  8
細線
 48
50.0
100
AcDbLine
 10
11064.50308434376
 20
5983.830393514268
 30
0.0
 11
11173.59999999999
 21
6092.927309170505
 31
0.0
  0
LINE
  5
278DD
330
747D
100
AcDbEntity
  8
細線
 48
50.0
100
AcDbLine
 10
11109.4043649491
 20
5983.830393514271
 30
0.0
 11
11173.6
 21
6048.026028565158
 31
0.0
  0
LINE
  5
278FB
102
{ACAD_REACTORS
330
2790B
102
}
330
747D
100
AcDbEntity
  8
部品1
 48
50.0
100
AcDbLine
 10
11433.6
 20
6263.830393514268
 30
0.0
 11
11433.6
 21
7323.830393514251
 31
0.0
  0
LINE
  5
278FC
102
{ACAD_REACTORS
330
2791C
102
}
330
747D
100
AcDbEntity
  8
部品1
 48
50.0
100
AcDbLine
 10
5013.599999999999
 20
6263.830393514243
 30
0.0
 11
5013.599999999995
 21
7323.830393514248
 31
0.0
  0
HATCH
  5
2790B
330
747D
100
AcDbEntity
  8
細線
 48
50.0
100
AcDbHatch
 10
0.0
 20
0.0
 30
0.0
210
0.0
220
0.0
230
1.0
  2
LINE
 70
     0
 71
     1
 91
        1
 92
        7
 72
     0
 73
     1
 93
        4
 10
11553.59999999999
 20
6878.83039351427
 10
11433.59999999999
 20
6878.83039351427
 10
11433.59999999999
 20
6678.830393514271
 10
11553.6
 20
6678.830393514269
 97
        4
330
270F7
330
278FB
330
270F8
330
270B3
 75
     0
 76
     1
 52
45.0
 41
10.0
 77
     0
 78
     1
 53
45.0
 43
0.0
 44
0.0
 45
-22.45064030267288
 46
22.45064030267288
 79
     0
 47
2.660538714442278
 98
        1
 10
11522.78335116815
 20
6762.374899773451
  0
HATCH
  5
2791C
330
747D
100
AcDbEntity
  8
細線
 48
50.0
100
AcDbHatch
 10
0.0
 20
0.0
 30
0.0
210
0.0
220
0.0
230
1.0
  2
LINE
 70
     0
 71
     1
 91
        1
 92
        7
 72
     0
 73
     1
 93
        4
 10
5013.599999999996
 20
6878.830393514265
 10
4893.599999999999
 20
6878.830393514262
 10
4893.599999999998
 20
6678.83039351426
 10
5013.599999999999
 20
6678.830393514264
 97
        4
330
27029
330
27021
330
2702A
330
278FC
 75
     0
 76
     1
 52
45.0
 41
10.0
 77
     0
 78
     1
 53
45.0
 43
0.0
 44
0.0
 45
-22.45064030267288
 46
22.45064030267288
 79
     0
 47
1.854208915657295
 98
        1
 10
4970.432527385499
 20
6793.739087696922
  0
LINE
  5
27AAA
330
747D
100
AcDbEntity
  8
部品1
100
AcDbLine
 10
11247.07264127196
 20
3452.655412332035
 30
0.0
 11
5176.087455885707
 21
3452.655412332035
 31
0.0
  0
LINE
  5
27AAB
330
747D
100
AcDbEntity
  8
部品1
100
AcDbLine
 10
11247.07264127196
 20
3212.655412332033
 30
0.0
 11
5176.087455885711
 21
3212.655412332033
 31
0.0
  0
LINE
  5
27AAC
330
747D
100
AcDbEntity
  8
部品1
100
AcDbLine
 10
5176.087455885713
 20
488.3484427473876
 30
0.0
 11
11247.07264127196
 21
488.3484427473876
 31
0.0
  0
LEADER
  5
27AAD
330
747D
100
AcDbEntity
  8
寸法
 48
50.0
100
AcDbLeader
  3
INABA_S50G
 73
     0
 74
     0
 75
     1
 40
102.2727272727273
 41
680.0000000000001
 76
     3
 10
8184.195207872166
 20
2452.192026240592
 30
0.0
 10
8218.549178985522
 20
2862.644837347133
 30
0.0
 10
8343.549178985522
 20
2862.644837347133
 30
0.0
340
27AAE
1001
ACAD
1000
DSTYLE
1002
{
1070
   341
1005
0
1070
    40
1040
1.0
1070
   343
1005
0
1070
   344
1005
0
1002
}
  0
MTEXT
  5
27AAE
102
{ACAD_REACTORS
330
27AAD
102
}
330
747D
100
AcDbEntity
  8
部品1
 62
     7
 48
50.0
100
AcDbMText
 10
8368.549178985523
 20
2938.781200983497
 30
0.0
 40
80.0
 41
0.8
 71
     4
 72
     1
  1
\A1;ナット(市販品)
  7
STYLE2
 73
     1
 44
1.0
1001
ACAD
1000
MTEXTBEGIN
1070
    73
1070
     1
1070
    44
1040
1.0
1070
    74
1070
     0
1000
MTEXTEND
  0
LEADER
  5
27AAF
330
747D
100
AcDbEntity
  8
寸法
 48
50.0
100
AcDbLeader
  3
INABA_S50G
 73
     0
 74
     0
 75
     1
 40
102.2727272727273
 41
906.8181818181818
 76
     3
 10
8208.195207872165
 20
2322.440033575729
 30
0.0
 10
8250.066798241006
 20
2677.675754582346
 30
0.0
 10
8375.066798241006
 20
2677.675754582346
 30
0.0
340
27AB0
1001
ACAD
1000
DSTYLE
1002
{
1070
   341
1005
0
1070
    40
1040
1.0
1070
   343
1005
0
1070
   344
1005
0
1002
}
  0
MTEXT
  5
27AB0
102
{ACAD_REACTORS
330
27AAF
102
}
330
747D
100
AcDbEntity
  8
部品1
 62
     7
 48
50.0
100
AcDbMText
 10
8400.066798241004
 20
2753.81211821871
 30
0.0
 40
80.0
 41
0.8
 71
     4
 72
     1
  1
\A1;ワッシャー(市販品)
  7
STYLE2
 73
     1
 44
1.0
1001
ACAD
1000
MTEXTBEGIN
1070
    73
1070
     1
1070
    44
1040
1.0
1070
    74
1070
     0
1000
MTEXTEND
  0
LWPOLYLINE
  5
27AB1
330
747D
100
AcDbEntity
  8
部品1
 48
50.0
100
AcDbPolyline
 90
        2
 70
     0
 43
8.0
 10
8360.795207872165
 20
1813.31674513145
 10
8654.497671271551
 20
1813.31674513145
  0
TEXT
  5
27AB2
330
747D
100
AcDbEntity
  8
部品1
 48
50.0
100
AcDbText
 10
8365.148792156594
 20
2409.19542589365
 30
0.0
 40
80.0
  1
基礎ボルト(市販品)
  7
STYLE2
100
AcDbText
  0
DIMENSION
  5
27AB3
330
747D
100
AcDbEntity
  8
寸法
 48
50.0
100
AcDbDimension
  2
*D45
 10
8862.663807641009
 20
1729.316745131448
 30
0.0
 11
8762.663807641009
 21
1891.31674513145
 31
0.0
 70
    32
  1
180
 71
     5
 42
324.0000000000009
  3
INABA_S40G
100
AcDbAlignedDimension
 13
8360.795207872165
 23
2053.31674513145
 33
0.0
 14
8360.795207872165
 24
1729.316745131448
 34
0.0
 50
90.0
100
AcDbRotatedDimension
1001
ACAD
1000
DSTYLE
1002
{
1070
   341
1005
0
1002
}
  0
DIMENSION
  5
27AB4
330
747D
100
AcDbEntity
  8
寸法
 48
50.0
100
AcDbDimension
  2
*D46
 10
9138.718473760036
 20
2053.31674513145
 30
0.0
 11
9138.718473760036
 21
1587.307841709967
 31
0.0
 70
   160
  1
20～25
 71
     5
 42
52.76000000000113
  3
INABA_S40G
100
AcDbAlignedDimension
 13
8173.595207872168
 23
2106.076745131451
 33
0.0
 14
8360.795207872165
 24
2053.31674513145
 34
0.0
 50
90.0
100
AcDbRotatedDimension
1001
ACAD
1000
DSTYLE
1002
{
1070
   341
1005
0
1002
}
  0
MTEXT
  5
27AB5
102
{ACAD_REACTORS
330
27AB6
102
}
330
747D
100
AcDbEntity
  8
部品1
 62
     7
 48
50.0
100
AcDbMText
 10
8369.739670291485
 20
2317.700071284679
 30
0.0
 40
80.0
 41
0.8
 71
     4
 72
     1
  1
M10X160
  7
STYLE2
 73
     1
 44
1.0
1001
ACAD
1000
MTEXTBEGIN
1070
    73
1070
     1
1070
    44
1040
1.0
1070
    74
1070
     0
1000
MTEXTEND
  0
LEADER
  5
27AB6
330
747D
100
AcDbEntity
  8
寸法
 48
50.0
100
AcDbLeader
  3
INABA_S50G
 73
     0
 74
     0
 75
     1
 40
80.0
 41
435.0
 76
     3
 10
8177.195207872166
 20
2102.47674513145
 30
0.0
 10
8219.739670291485
 20
2252.700071284679
 30
0.0
 10
8344.739670291485
 20
2252.700071284679
 30
0.0
340
27AB5
1001
ACAD
1000
DSTYLE
1002
{
1070
   341
1005
0
1070
    40
1040
1.0
1070
   343
1005
0
1070
   344
1005
0
1002
}
  0
LINE
  5
27AB7
330
747D
100
AcDbEntity
  8
部品1
100
AcDbLine
 10
5176.08745588571
 20
3452.655412332035
 30
0.0
 11
5176.087455885711
 21
488.3484427473876
 31
0.0
  0
LEADER
  5
27AB8
330
747D
100
AcDbEntity
  8
寸法
 48
50.0
100
AcDbLeader
  3
INABA_S50G
 73
     0
 75
     1
 40
113.1818181818182
 41
608.6363636363635
 76
     3
 10
8136.931958010217
 20
2002.832418489728
 30
0.0
 10
8003.128129318868
 20
2854.211500846206
 30
0.0
 10
7878.128129318868
 20
2854.211500846206
 30
0.0
340
27AB9
1001
ACAD
1000
DSTYLE
1002
{
1070
   341
1005
0
1070
    40
1040
1.0
1070
   343
1005
0
1070
   344
1005
0
1002
}
  0
MTEXT
  5
27AB9
102
{ACAD_REACTORS
330
27AB8
102
}
330
747D
100
AcDbEntity
  8
寸法
 62
     7
 48
50.0
100
AcDbMText
 10
7853.128129318868
 20
2935.802409937115
 30
0.0
 40
80.0
 41
0.8
 71
     6
 72
     1
  1
\A1;φ70スリーブ
  7
STYLE2
 73
     1
 44
1.0
1001
ACAD
1000
MTEXTBEGIN
1070
    73
1070
     1
1070
    44
1040
1.0
1070
    74
1070
     0
1000
MTEXTEND
  0
LWPOLYLINE
  5
27ABA
330
747D
100
AcDbEntity
  8
部品1
 48
50.0
100
AcDbPolyline
 90
        2
 70
     0
 43
8.0
 10
5832.615992862016
 20
1813.31674513145
 10
6246.755894694972
 20
1813.31674513145
  0
TEXT
  5
27ABB
330
747D
100
AcDbEntity
  8
部品1
 48
50.0
100
AcDbText
 10
5832.615992862016
 20
1824.555737414705
 30
0.0
 40
80.0
  1
▽G.L
  7
STYLE2
100
AcDbText
  0
DIMENSION
  5
27ABC
330
747D
100
AcDbEntity
  8
寸法
 48
50.0
100
AcDbDimension
  2
*D47
 10
5976.335580962512
 20
1269.316745131449
 30
0.0
 11
5976.335580962512
 21
1389.31674513145
 31
0.0
 70
   160
  1
150
 71
     5
 42
240.0
  3
INABA_S40G
100
AcDbAlignedDimension
 13
6118.755894694972
 23
1509.316745131449
 33
0.0
 14
6038.755894694975
 24
1269.316745131449
 34
0.0
 50
90.0
100
AcDbRotatedDimension
1001
ACAD
1000
DSTYLE
1002
{
1070
   341
1005
0
1002
}
  0
LEADER
  5
27ABD
330
747D
100
AcDbEntity
  8
寸法
 48
50.0
100
AcDbLeader
  3
INABA_S50G
 71
     0
 73
     0
 75
     1
 40
100.0
 41
225.0
 76
     3
 10
6214.658847047115
 20
1389.316745131449
 30
0.0
 10
6092.820868499778
 20
1125.794051513013
 30
0.0
 10
5967.820868499778
 20
1125.794051513013
 30
0.0
1001
ACAD
1000
DSTYLE
1002
{
1070
    40
1040
1.0
1070
   272
1070
     1
1070
   279
1070
     1
1070
   341
1005
0
1002
}
  0
LEADER
  5
27ABE
330
747D
100
AcDbEntity
  8
寸法
 48
50.0
100
AcDbLeader
  3
INABA_S50G
 71
     0
 73
     0
 75
     1
 40
100.0
 41
222.7272727272727
 76
     3
 10
6342.755894694972
 20
1389.316745131449
 30
0.0
 10
6120.943596057212
 20
945.4778989735697
 30
0.0
 10
5995.943596057212
 20
945.4778989735697
 30
0.0
1001
ACAD
1000
DSTYLE
1002
{
1070
    40
1040
1.0
1070
   272
1070
     1
1070
   279
1070
     1
1070
   341
1005
0
1002
}
  0
MTEXT
  5
27ABF
102
{ACAD_REACTORS
330
27AC0
102
}
330
747D
100
AcDbEntity
  8
寸法
 62
     7
 48
50.0
100
AcDbMText
 10
6157.505840472168
 20
1654.617347948906
 30
0.0
 40
80.0
 41
0.8
 71
     6
 72
     1
  1
\A1;D10@300
  7
STYLE2
 73
     1
 44
1.0
1001
ACAD
1000
MTEXTBEGIN
1070
    73
1070
     1
1070
    44
1040
1.0
1070
    74
1070
     0
1000
MTEXTEND
  0
LEADER
  5
27AC0
330
747D
100
AcDbEntity
  8
寸法
 48
50.0
100
AcDbLeader
  3
INABA_S50G
 71
     0
 73
     0
 75
     1
 40
100.0
 41
540.3409090909091
 76
     3
 10
6350.755894694972
 20
1811.443959828572
 30
0.0
 10
6292.773658166274
 20
1589.973631287767
 30
0.0
 10
6167.773658166274
 20
1589.973631287767
 30
0.0
213
-9.732182305893367
223
-4.643716661138569
233
0.0
1001
ACAD
1000
DSTYLE
1002
{
1070
    40
1040
1.0
1070
   272
1070
     1
1070
   279
1070
     1
1070
   341
1005
0
1002
}
  0
LEADER
  5
27AC1
330
747D
100
AcDbEntity
  8
寸法
 48
50.0
100
AcDbLeader
  3
INABA_S50G
 71
     0
 73
     0
 75
     1
 40
130.1136363636363
 41
651.1363636363636
 76
     3
 10
6326.755894694972
 20
2053.31674513145
 30
0.0
 10
6214.331314530955
 20
2193.787510588038
 30
0.0
 10
6089.331314530955
 20
2193.787510588038
 30
0.0
1001
ACAD
1000
DSTYLE
1002
{
1070
    40
1040
1.0
1070
   272
1070
     1
1070
   279
1070
     1
1070
   341
1005
0
1002
}
  0
MTEXT
  5
27AC2
102
{ACAD_REACTORS
330
27AC1
102
}
330
747D
100
AcDbEntity
  8
寸法
 62
     7
 48
50.0
100
AcDbMText
 10
6026.657415211699
 20
2265.832965133492
 30
0.0
 40
80.0
 41
0.8
 71
     6
 72
     1
  1
\A1;金コテ押エ
  7
STYLE2
 73
     1
 44
1.0
1001
ACAD
1000
MTEXTBEGIN
1070
    73
1070
     1
1070
    44
1040
1.0
1070
    74
1070
     0
1000
MTEXTEND
  0
DIMENSION
  5
27AC3
330
747D
100
AcDbEntity
  8
寸法
 48
50.0
100
AcDbDimension
  2
*D48
 10
5511.718656133232
 20
1269.316745131449
 30
0.0
 11
5511.718656133232
 21
1640.85689478745
 31
0.0
 70
   160
  1
540
 71
     5
 42
784.0
  3
INABA_S40G
100
AcDbAlignedDimension
 13
6246.755894694972
 23
2053.31674513145
 33
0.0
 14
6038.755894694975
 24
1269.316745131449
 34
0.0
 50
90.0
100
AcDbRotatedDimension
1001
ACAD
1000
DSTYLE
1002
{
1070
   341
1005
0
1002
}
  0
MTEXT
  5
27AC4
102
{ACAD_REACTORS
330
27ABE
102
}
330
747D
100
AcDbEntity
  8
寸法
 62
     7
 48
50.0
100
AcDbMText
 10
5975.943596057213
 20
1005.477898973569
 30
0.0
 40
80.0
 41
0.8
 71
     6
 72
     1
  1
D13
  7
STYLE2
 73
     1
 44
1.0
1001
ACAD
1000
MTEXTBEGIN
1070
    73
1070
     1
1070
    44
1040
1.0
1070
    74
1070
     0
1000
MTEXTEND
  0
MTEXT
  5
27AC5
102
{ACAD_REACTORS
330
27ABD
102
}
330
747D
100
AcDbEntity
  8
寸法
 62
     7
 48
50.0
100
AcDbMText
 10
5947.820868499778
 20
1185.794051513013
 30
0.0
 40
80.0
 41
0.8
 71
     6
 72
     1
  1
D10
  7
STYLE2
 73
     1
 44
1.0
1001
ACAD
1000
MTEXTBEGIN
1070
    73
1070
     1
1070
    44
1040
1.0
1070
    74
1070
     0
1000
MTEXTEND
  0
DIMENSION
  5
27AC6
330
747D
100
AcDbEntity
  8
寸法
 48
50.0
100
AcDbDimension
  2
*D49
 10
6566.755894694972
 20
730.8871071262892
 30
0.0
 11
6322.659136016749
 21
730.8871071262892
 31
0.0
 70
   160
  1
300
 71
     5
 42
448.0
  3
INABA_S40G
100
AcDbAlignedDimension
 13
6118.755894694972
 23
1141.316745131449
 33
0.0
 14
6566.755894694972
 24
1141.316745131449
 34
0.0
100
AcDbRotatedDimension
1001
ACAD
1000
DSTYLE
1002
{
1070
   341
1005
0
1002
}
  0
MTEXT
  5
27AC7
102
{ACAD_REACTORS
330
27AC8
102
}
330
747D
100
AcDbEntity
  8
寸法
 62
     7
 48
50.0
100
AcDbMText
 10
7879.771135527227
 20
2575.118138029601
 30
0.0
 40
80.0
 41
0.8
 71
     6
 72
     1
  1
\A1;アンカープレート L
  7
STYLE2
 73
     1
 44
1.0
1001
ACAD
1000
MTEXTBEGIN
1070
    73
1070
     1
1070
    44
1040
1.0
1070
    74
1070
     0
1000
MTEXTEND
  0
LEADER
  5
27AC8
330
747D
100
AcDbEntity
  8
寸法
 48
50.0
100
AcDbLeader
  3
INABA_S50G
 73
     0
 75
     1
 40
106.3636363636363
 41
893.1818181818181
 76
     3
 10
8078.195207872166
 20
2122.876745131451
 30
0.0
 10
8029.771135527226
 20
2496.936319847783
 30
0.0
 10
7904.771135527226
 20
2496.936319847783
 30
0.0
340
27AC7
1001
ACAD
1000
DSTYLE
1002
{
1070
   341
1005
0
1070
    40
1040
1.0
1070
   343
1005
0
1070
   344
1005
0
1002
}
  0
LINE
  5
27AC9
330
747D
100
AcDbEntity
  8
細線
 48
50.0
100
AcDbLine
 10
6366.755894694973
 20
1891.68963779928
 30
0.0
 11
6438.755894694972
 21
1963.68963779928
 31
0.0
  0
ARC
  5
27ACA
330
747D
100
AcDbEntity
  8
部品1
 48
50.0
100
AcDbCircle
 10
6342.755894694973
 20
1913.571174525695
 30
0.0
 40
24.0
100
AcDbArc
 50
0.0
 51
180.0
  0
CIRCLE
  5
27ACB
330
747D
100
AcDbEntity
  8
部品1
 48
50.0
100
AcDbCircle
 10
6342.755894694973
 20
1913.571174525695
 30
0.0
 40
8.0
  0
LINE
  5
27ACC
330
747D
100
AcDbEntity
  8
部品1
 48
50.0
100
AcDbLine
 10
6246.755894694973
 20
1509.316745131449
 30
0.0
 11
6246.755894694973
 21
2053.31674513145
 31
0.0
  0
LINE
  5
27ACD
330
747D
100
AcDbEntity
  8
部品1
 48
50.0
100
AcDbLine
 10
6438.755894694972
 20
2053.31674513145
 30
0.0
 11
6438.755894694972
 21
1509.316745131449
 31
0.0
  0
MTEXT
  5
27ACE
102
{ACAD_REACTORS
330
27AD3
102
}
330
747D
100
AcDbEntity
  8
寸法
 62
     7
 48
50.0
100
AcDbMText
 10
6521.641831722367
 20
2075.87264442426
 30
0.0
 40
80.0
 41
0.8
 71
     4
 72
     1
  1
D13
  7
STYLE2
 73
     1
 44
1.0
1001
ACAD
1000
MTEXTBEGIN
1070
    73
1070
     1
1070
    44
1040
1.0
1070
    74
1070
     0
1000
MTEXTEND
  0
LEADER
  5
27ACF
330
747D
100
AcDbEntity
  8
寸法
 48
50.0
100
AcDbLeader
  3
INABA_S50G
 71
     0
 73
     0
 74
     0
 75
     1
 40
100.0
 41
225.0
 76
     3
 10
6470.658847047115
 20
1389.316745131449
 30
0.0
 10
6525.083554501657
 20
1293.919676188477
 30
0.0
 10
6650.083554501657
 20
1293.919676188477
 30
0.0
1001
ACAD
1000
DSTYLE
1002
{
1070
    40
1040
1.0
1070
   272
1070
     1
1070
   279
1070
     1
1070
   341
1005
0
1002
}
  0
LEADER
  5
27AD0
330
747D
100
AcDbEntity
  8
寸法
 48
50.0
100
AcDbLeader
  3
INABA_S50G
 71
     0
 73
     0
 74
     0
 75
     1
 40
100.0
 41
540.3409090909091
 76
     3
 10
6416.701063708146
 20
1372.576214717924
 30
0.0
 10
6535.494350556223
 20
1030.945396723026
 30
0.0
 10
6660.494350556223
 20
1030.945396723026
 30
0.0
213
0.0
223
-1.022262676269383
233
0.0
1001
ACAD
1000
DSTYLE
1002
{
1070
    40
1040
1.0
1070
   272
1070
     1
1070
   279
1070
     1
1070
   341
1005
0
1002
}
  0
MTEXT
  5
27AD1
102
{ACAD_REACTORS
330
27ACF
102
}
330
747D
100
AcDbEntity
  8
寸法
 62
     7
 48
50.0
100
AcDbMText
 10
6670.083554501657
 20
1353.919676188477
 30
0.0
 40
80.0
 41
0.8
 71
     4
 72
     1
  1
D10
  7
STYLE2
 73
     1
 44
1.0
1001
ACAD
1000
MTEXTBEGIN
1070
    73
1070
     1
1070
    44
1040
1.0
1070
    74
1070
     0
1000
MTEXTEND
  0
LWPOLYLINE
  5
27AD2
330
747D
100
AcDbEntity
  8
部品1
 48
50.0
100
AcDbPolyline
 90
        2
 70
     0
 43
8.0
 10
6438.755894694972
 20
1813.31674513145
 10
6852.89579652793
 20
1813.31674513145
  0
LEADER
  5
27AD3
330
747D
100
AcDbEntity
  8
寸法
 48
50.0
100
AcDbLeader
  3
INABA_S50G
 71
     0
 73
     0
 74
     0
 75
     1
 40
100.0
 41
222.7272727272727
 76
     3
 10
6342.755894694972
 20
1913.571174525695
 30
0.0
 10
6396.641831722367
 20
2012.806747378869
 30
0.0
 10
6521.641831722367
 20
2012.806747378869
 30
0.0
1001
ACAD
1000
DSTYLE
1002
{
1070
    40
1040
1.0
1070
   272
1070
     1
1070
   279
1070
     1
1070
   341
1005
0
1002
}
  0
LINE
  5
27AD4
330
747D
100
AcDbEntity
  8
細線
 48
50.0
100
AcDbLine
 10
6118.755894694966
 20
1428.16349089362
 30
0.0
 11
6199.909148932801
 21
1509.316745131449
 31
0.0
  0
LINE
  5
27AD5
330
747D
100
AcDbEntity
  8
細線
 48
50.0
100
AcDbLine
 10
6326.621742172377
 20
1447.443959828571
 30
0.0
 11
6350.755894694978
 21
1471.57811235117
 31
0.0
  0
LINE
  5
27AD6
330
747D
100
AcDbEntity
  8
細線
 48
50.0
100
AcDbLine
 10
6233.553759112045
 20
1381.316745131449
 30
0.0
 11
6350.755894694973
 21
1498.518880714375
 31
0.0
  0
LINE
  5
27AD7
330
747D
100
AcDbEntity
  8
部品1
 48
50.0
100
AcDbLine
 10
6118.755894694973
 20
1269.316745131449
 30
0.0
 11
6118.755894694973
 21
1509.316745131449
 31
0.0
  0
LINE
  5
27AD8
330
747D
100
AcDbEntity
  8
細線
 48
50.0
100
AcDbLine
 10
6476.020674380916
 20
1381.316745131449
 30
0.0
 11
6566.755894694972
 21
1472.051965445508
 31
0.0
  0
LINE
  5
27AD9
330
747D
100
AcDbEntity
  8
細線
 48
50.0
100
AcDbLine
 10
6449.079906017701
 20
1381.316745131449
 30
0.0
 11
6566.755894694972
 21
1498.992733808715
 31
0.0
  0
LINE
  5
27ADA
330
747D
100
AcDbEntity
  8
部品1
 48
50.0
100
AcDbLine
 10
6566.755894694972
 20
1509.316745131449
 30
0.0
 11
6566.755894694972
 21
1269.316745131449
 31
0.0
  0
LINE
  5
27ADB
330
747D
100
AcDbEntity
  8
部品1
 48
50.0
100
AcDbLine
 10
6366.755894694978
 20
1389.316745131449
 30
0.0
 11
6366.755894694973
 21
1913.571174525695
 31
0.0
  0
LINE
  5
27ADC
330
747D
100
AcDbEntity
  8
部品1
 48
50.0
100
AcDbLine
 10
6350.755894694978
 20
1389.316745131449
 30
0.0
 11
6350.755894694966
 21
1913.571174525695
 31
0.0
  0
LINE
  5
27ADD
330
747D
100
AcDbEntity
  8
細線
 48
50.0
100
AcDbLine
 10
6334.755894694973
 20
1428.637343987961
 30
0.0
 11
6350.755894694978
 21
1444.637343987961
 31
0.0
  0
LINE
  5
27ADE
330
747D
100
AcDbEntity
  8
細線
 48
50.0
100
AcDbLine
 10
6323.938734190987
 20
1141.316745131449
 30
0.0
 11
6358.23623082217
 21
1269.316745131449
 31
0.0
  0
LINE
  5
27ADF
330
747D
100
AcDbEntity
  8
部品1
 48
50.0
100
AcDbLine
 10
6646.755894694976
 20
1141.316745131449
 30
0.0
 11
6038.755894694975
 21
1141.316745131449
 31
0.0
  0
LINE
  5
27AE0
330
747D
100
AcDbEntity
  8
部品1
 48
50.0
100
AcDbLine
 10
6174.755894694973
 20
1365.316745131449
 30
0.0
 11
6510.755894694973
 21
1365.316745131449
 31
0.0
  0
LINE
  5
27AE1
330
747D
100
AcDbEntity
  8
部品1
 48
50.0
100
AcDbLine
 10
6174.755894694973
 20
1381.316745131449
 30
0.0
 11
6510.755894694973
 21
1381.316745131449
 31
0.0
  0
LINE
  5
27AE2
330
747D
100
AcDbEntity
  8
部品1
 48
50.0
100
AcDbLine
 10
6646.755894694976
 20
1269.316745131449
 30
0.0
 11
6038.755894694975
 21
1269.316745131449
 31
0.0
  0
CIRCLE
  5
27AE3
330
747D
100
AcDbEntity
  8
部品1
 48
50.0
100
AcDbCircle
 10
6342.755894694973
 20
1389.316745131449
 30
0.0
 40
8.0
  0
LINE
  5
27AE4
330
747D
100
AcDbEntity
  8
細線
 48
50.0
100
AcDbLine
 10
6337.079906017706
 20
1269.316745131449
 30
0.0
 11
6433.079906017706
 21
1365.316745131449
 31
0.0
  0
LINE
  5
27AE5
330
747D
100
AcDbEntity
  8
細線
 48
50.0
100
AcDbLine
 10
6166.162644296488
 20
1141.316745131449
 30
0.0
 11
6200.460140927672
 21
1269.316745131449
 31
0.0
  0
LINE
  5
27AE6
330
747D
100
AcDbEntity
  8
細線
 48
50.0
100
AcDbLine
 10
6245.050689243734
 20
1141.316745131447
 30
0.0
 11
6279.348185874917
 21
1269.316745131447
 31
0.0
  0
LINE
  5
27AE7
330
747D
100
AcDbEntity
  8
細線
 48
50.0
100
AcDbLine
 10
6087.274599349231
 20
1141.316745131447
 30
0.0
 11
6121.572095980414
 21
1269.316745131447
 31
0.0
  0
LINE
  5
27AE8
330
747D
100
AcDbEntity
  8
部品1
 48
50.0
100
AcDbLine
 10
6038.755894694975
 20
1141.316745131449
 30
0.0
 11
6038.755894694975
 21
1269.316745131449
 31
0.0
  0
LINE
  5
27AE9
330
747D
100
AcDbEntity
  8
細線
 48
50.0
100
AcDbLine
 10
6172.593424914835
 20
1165.316745131449
 30
0.0
 11
6179.024205533183
 21
1141.316745131449
 31
0.0
  0
LINE
  5
27AEA
330
747D
100
AcDbEntity
  8
細線
 48
50.0
100
AcDbLine
 10
6093.705379967584
 20
1165.316745131449
 30
0.0
 11
6100.13616058593
 21
1141.316745131449
 31
0.0
  0
LINE
  5
27AEB
330
747D
100
AcDbEntity
  8
細線
 48
50.0
100
AcDbLine
 10
6330.369514809341
 20
1165.316745131449
 30
0.0
 11
6336.800295427686
 21
1141.316745131449
 31
0.0
  0
LINE
  5
27AEC
330
747D
100
AcDbEntity
  8
細線
 48
50.0
100
AcDbLine
 10
6251.481469862087
 20
1165.316745131449
 30
0.0
 11
6257.912250480433
 21
1141.316745131449
 31
0.0
  0
LINE
  5
27AED
330
747D
100
AcDbEntity
  8
細線
 48
50.0
100
AcDbLine
 10
6148.494527475256
 20
1269.316745131449
 30
0.0
 11
6244.494527475256
 21
1365.316745131449
 31
0.0
  0
LINE
  5
27AEE
330
747D
100
AcDbEntity
  8
細線
 48
50.0
100
AcDbLine
 10
6121.553759112046
 20
1269.316745131449
 30
0.0
 11
6217.553759112046
 21
1365.316745131449
 31
0.0
  0
LINE
  5
27AEF
330
747D
100
AcDbEntity
  8
部品1
 48
50.0
100
AcDbLine
 10
6174.755894694973
 20
1381.316745131449
 30
0.0
 11
6174.755894694973
 21
1365.316745131449
 31
0.0
  0
LINE
  5
27AF0
330
747D
100
AcDbEntity
  8
細線
 48
50.0
100
AcDbLine
 10
6115.141315362073
 20
1245.316745131449
 30
0.0
 11
6108.710534743726
 21
1269.316745131449
 31
0.0
  0
LINE
  5
27AF1
330
747D
100
AcDbEntity
  8
細線
 48
50.0
100
AcDbLine
 10
6038.755894694973
 20
1254.656666097229
 30
0.0
 11
6042.684051033169
 21
1269.316745131449
 31
0.0
  0
LINE
  5
27AF2
330
747D
100
AcDbEntity
  8
部品1
 48
50.0
100
AcDbLine
 10
6334.755894694973
 20
1447.443959828571
 30
0.0
 11
6318.755894694973
 21
1447.443959828571
 31
0.0
  0
CIRCLE
  5
27AF3
330
747D
100
AcDbEntity
  8
部品1
 48
50.0
100
AcDbCircle
 10
6214.755894694973
 20
1389.316745131449
 30
0.0
 40
8.0
  0
LINE
  5
27AF4
330
747D
100
AcDbEntity
  8
細線
 48
50.0
100
AcDbLine
 10
6287.435295838462
 20
1381.316745131449
 30
0.0
 11
6318.755894694973
 21
1412.637343987961
 31
0.0
  0
ARC
  5
27AF5
330
747D
100
AcDbEntity
  8
部品1
 48
50.0
100
AcDbCircle
 10
6342.755894694973
 20
1389.316745131449
 30
0.0
 40
24.0
100
AcDbArc
 50
180.0
 51
199.4712206344713
  0
LINE
  5
27AF6
330
747D
100
AcDbEntity
  8
細線
 48
50.0
100
AcDbLine
 10
6194.029360309325
 20
1245.316745131449
 30
0.0
 11
6187.598579690978
 21
1269.316745131449
 31
0.0
  0
LINE
  5
27AF7
330
747D
100
AcDbEntity
  8
細線
 48
50.0
100
AcDbLine
 10
6272.917405256577
 20
1245.316745131449
 30
0.0
 11
6266.486624638231
 21
1269.316745131449
 31
0.0
  0
LINE
  5
27AF8
330
747D
100
AcDbEntity
  8
細線
 48
50.0
100
AcDbLine
 10
6175.435295838461
 20
1269.316745131449
 30
0.0
 11
6271.435295838461
 21
1365.316745131449
 31
0.0
  0
LINE
  5
27AF9
330
747D
100
AcDbEntity
  8
部品1
 48
50.0
100
AcDbLine
 10
6318.755894694973
 20
1447.443959828571
 30
0.0
 11
6318.755894694973
 21
1389.316745131449
 31
0.0
  0
LINE
  5
27AFA
330
747D
100
AcDbEntity
  8
細線
 48
50.0
100
AcDbLine
 10
6260.494527475256
 20
1381.316745131449
 30
0.0
 11
6318.755894694973
 21
1439.578112351168
 31
0.0
  0
LINE
  5
27AFB
330
747D
100
AcDbEntity
  8
部品1
 48
50.0
100
AcDbLine
 10
6334.755894694973
 20
1447.443959828571
 30
0.0
 11
6334.755894694973
 21
1389.316745131449
 31
0.0
  0
LINE
  5
27AFC
330
747D
100
AcDbEntity
  8
部品1
 48
50.0
100
AcDbLine
 10
6646.755894694976
 20
1269.316745131449
 30
0.0
 11
6646.755894694976
 21
1141.316745131449
 31
0.0
  0
LINE
  5
27AFD
330
747D
100
AcDbEntity
  8
細線
 48
50.0
100
AcDbLine
 10
6560.602869032726
 20
1141.316745131449
 30
0.0
 11
6594.900365663912
 21
1269.316745131447
 31
0.0
  0
LINE
  5
27AFE
330
747D
100
AcDbEntity
  8
細線
 48
50.0
100
AcDbLine
 10
6402.826779138232
 20
1141.316745131449
 30
0.0
 11
6437.124275769419
 21
1269.316745131447
 31
0.0
  0
LINE
  5
27AFF
330
747D
100
AcDbEntity
  8
細線
 48
50.0
100
AcDbLine
 10
6481.714824085482
 20
1141.316745131447
 30
0.0
 11
6516.012320716666
 21
1269.316745131447
 31
0.0
  0
LINE
  5
27B00
330
747D
100
AcDbEntity
  8
細線
 48
50.0
100
AcDbLine
 10
6488.145604703831
 20
1165.316745131449
 30
0.0
 11
6494.576385322179
 21
1141.316745131449
 31
0.0
  0
LINE
  5
27B01
330
747D
100
AcDbEntity
  8
細線
 48
50.0
100
AcDbLine
 10
6409.257559756586
 20
1165.316745131449
 30
0.0
 11
6415.688340374932
 21
1141.316745131449
 31
0.0
  0
LINE
  5
27B02
330
747D
100
AcDbEntity
  8
細線
 48
50.0
100
AcDbLine
 10
6567.033649651079
 20
1165.316745131449
 30
0.0
 11
6573.464430269426
 21
1141.316745131449
 31
0.0
  0
LINE
  5
27B03
330
747D
100
AcDbEntity
  8
細線
 48
50.0
100
AcDbLine
 10
6645.921694598325
 20
1165.316745131449
 30
0.0
 11
6646.755894694973
 21
1162.203467987085
 31
0.0
  0
LINE
  5
27B04
330
747D
100
AcDbEntity
  8
細線
 48
50.0
100
AcDbLine
 10
6639.490913979975
 20
1141.316745131447
 30
0.0
 11
6646.755894694973
 21
1168.430022275837
 31
0.0
  0
LINE
  5
27B05
330
747D
100
AcDbEntity
  8
細線
 48
50.0
100
AcDbLine
 10
6502.96144274412
 20
1381.316745131449
 30
0.0
 11
6566.755894694972
 21
1445.1111970823
 31
0.0
  0
CIRCLE
  5
27B06
330
747D
100
AcDbEntity
  8
部品1
 48
50.0
100
AcDbCircle
 10
6470.755894694973
 20
1389.316745131449
 30
0.0
 40
8.0
  0
ARC
  5
27B07
330
747D
100
AcDbEntity
  8
部品1
 48
50.0
100
AcDbCircle
 10
6342.755894694973
 20
1389.316745131449
 30
0.0
 40
24.0
100
AcDbArc
 50
340.5287793655287
 51
0.0
  0
LINE
  5
27B08
330
747D
100
AcDbEntity
  8
細線
 48
50.0
100
AcDbLine
 10
6351.80545020383
 20
1245.316745131449
 30
0.0
 11
6345.374669585481
 21
1269.316745131449
 31
0.0
  0
LINE
  5
27B09
330
747D
100
AcDbEntity
  8
細線
 48
50.0
100
AcDbLine
 10
6430.693495151075
 20
1245.316745131449
 30
0.0
 11
6424.262714532729
 21
1269.316745131449
 31
0.0
  0
LINE
  5
27B0A
330
747D
100
AcDbEntity
  8
細線
 48
50.0
100
AcDbLine
 10
6364.020674380917
 20
1269.316745131449
 30
0.0
 11
6460.020674380917
 21
1365.316745131449
 31
0.0
  0
LINE
  5
27B0B
330
747D
100
AcDbEntity
  8
細線
 48
50.0
100
AcDbLine
 10
6390.961442744121
 20
1269.316745131449
 30
0.0
 11
6486.962330589257
 21
1365.317632976588
 31
0.0
  0
LINE
  5
27B0C
330
747D
100
AcDbEntity
  8
部品1
 48
50.0
100
AcDbLine
 10
6510.755894694973
 20
1381.316745131449
 30
0.0
 11
6510.755894694973
 21
1365.316745131449
 31
0.0
  0
LINE
  5
27B0D
330
747D
100
AcDbEntity
  8
細線
 48
50.0
100
AcDbLine
 10
6588.469585045567
 20
1245.316745131449
 30
0.0
 11
6582.038804427219
 21
1269.316745131449
 31
0.0
  0
LINE
  5
27B0E
330
747D
100
AcDbEntity
  8
細線
 48
50.0
100
AcDbLine
 10
6552.606052923366
 20
1269.316745131449
 30
0.0
 11
6566.755894694972
 21
1283.466586903056
 31
0.0
  0
LINE
  5
27B0F
330
747D
100
AcDbEntity
  8
細線
 48
50.0
100
AcDbLine
 10
6509.58154009832
 20
1245.316745131449
 30
0.0
 11
6503.150759479975
 21
1269.316745131449
 31
0.0
  0
LINE
  5
27B10
330
747D
100
AcDbEntity
  8
細線
 48
50.0
100
AcDbLine
 10
6246.755894694973
 20
1583.104259256827
 30
0.0
 11
6350.755894694978
 21
1687.10425925683
 31
0.0
  0
LINE
  5
27B11
330
747D
100
AcDbEntity
  8
細線
 48
50.0
100
AcDbLine
 10
6246.755894694973
 20
1610.045027620035
 30
0.0
 11
6350.755894694973
 21
1714.045027620035
 31
0.0
  0
LINE
  5
27B12
330
747D
100
AcDbEntity
  8
細線
 48
50.0
100
AcDbLine
 10
6246.755894694973
 20
1556.16349089362
 30
0.0
 11
6350.755894694978
 21
1660.16349089362
 31
0.0
  0
LINE
  5
27B13
330
747D
100
AcDbEntity
  8
細線
 48
50.0
100
AcDbLine
 10
6334.755894694973
 20
1859.68963779928
 30
0.0
 11
6350.755894694973
 21
1875.68963779928
 31
0.0
  0
LINE
  5
27B14
330
747D
100
AcDbEntity
  8
細線
 48
50.0
100
AcDbLine
 10
6334.755894694973
 20
1886.630406162487
 30
0.0
 11
6350.755894694973
 21
1902.630406162487
 31
0.0
  0
LINE
  5
27B15
330
747D
100
AcDbEntity
  8
部品1
 48
50.0
100
AcDbLine
 10
6118.755894694973
 20
1509.316745131449
 30
0.0
 11
6246.755894694973
 21
1509.316745131449
 31
0.0
  0
LINE
  5
27B16
330
747D
100
AcDbEntity
  8
細線
 48
50.0
100
AcDbLine
 10
6118.755894694966
 20
1455.104259256825
 30
0.0
 11
6172.968380569598
 21
1509.316745131449
 31
0.0
  0
LINE
  5
27B17
330
747D
100
AcDbEntity
  8
細線
 48
50.0
100
AcDbLine
 10
6118.755894694966
 20
1482.045027620035
 30
0.0
 11
6146.027612206387
 21
1509.316745131449
 31
0.0
  0
LINE
  5
27B18
330
747D
100
AcDbEntity
  8
部品1
 48
50.0
100
AcDbLine
 10
6334.755894694973
 20
1855.443959828572
 30
0.0
 11
6318.755894694973
 21
1855.443959828575
 31
0.0
  0
LINE
  5
27B19
330
747D
100
AcDbEntity
  8
細線
 48
50.0
100
AcDbLine
 10
6246.755894694973
 20
1771.68963779928
 30
0.0
 11
6330.510216724267
 21
1855.443959828572
 31
0.0
  0
LINE
  5
27B1A
330
747D
100
AcDbEntity
  8
細線
 48
50.0
100
AcDbLine
 10
6246.755894694973
 20
1798.630406162487
 30
0.0
 11
6318.755894694973
 21
1870.630406162487
 31
0.0
  0
LINE
  5
27B1B
330
747D
100
AcDbEntity
  8
部品1
 48
50.0
100
AcDbLine
 10
6318.755894694973
 20
1855.443959828575
 30
0.0
 11
6318.755894694973
 21
1913.571174525695
 31
0.0
  0
LINE
  5
27B1C
330
747D
100
AcDbEntity
  8
細線
 48
50.0
100
AcDbLine
 10
6246.755894694973
 20
1825.571174525695
 30
0.0
 11
6318.755894694973
 21
1897.571174525695
 31
0.0
  0
LINE
  5
27B1D
330
747D
100
AcDbEntity
  8
部品1
 48
50.0
100
AcDbLine
 10
6334.755894694973
 20
1855.443959828572
 30
0.0
 11
6334.755894694973
 21
1913.571174525695
 31
0.0
  0
LINE
  5
27B1E
330
747D
100
AcDbEntity
  8
細線
 48
50.0
100
AcDbLine
 10
6366.755894694978
 20
1676.16349089362
 30
0.0
 11
6438.755894694965
 21
1748.16349089362
 31
0.0
  0
LINE
  5
27B1F
330
747D
100
AcDbEntity
  8
部品1
 48
50.0
100
AcDbLine
 10
6438.755894694972
 20
1509.316745131449
 30
0.0
 11
6566.755894694972
 21
1509.316745131449
 31
0.0
  0
LINE
  5
27B20
330
747D
100
AcDbEntity
  8
細線
 48
50.0
100
AcDbLine
 10
6366.755894694978
 20
1487.57811235117
 30
0.0
 11
6438.755894694965
 21
1559.578112351165
 31
0.0
  0
LINE
  5
27B21
330
747D
100
AcDbEntity
  8
細線
 48
50.0
100
AcDbLine
 10
6366.755894694978
 20
1514.518880714378
 30
0.0
 11
6438.755894694965
 21
1586.518880714375
 31
0.0
  0
LINE
  5
27B22
330
747D
100
AcDbEntity
  8
細線
 48
50.0
100
AcDbLine
 10
6366.755894694978
 20
1460.637343987961
 30
0.0
 11
6438.755894694965
 21
1532.637343987961
 31
0.0
  0
LINE
  5
27B23
330
747D
100
AcDbEntity
  8
細線
 48
50.0
100
AcDbLine
 10
6366.755894694973
 20
1730.045027620035
 30
0.0
 11
6438.755894694972
 21
1802.045027620035
 31
0.0
  0
LINE
  5
27B24
330
747D
100
AcDbEntity
  8
細線
 48
50.0
100
AcDbLine
 10
6366.755894694978
 20
1703.10425925683
 30
0.0
 11
6438.755894694965
 21
1775.104259256824
 31
0.0
  0
MTEXT
  5
27B25
102
{ACAD_REACTORS
330
27AD0
102
}
330
747D
100
AcDbEntity
  8
寸法
 62
     7
 48
50.0
100
AcDbMText
 10
6680.494350556223
 20
1091.967659399296
 30
0.0
 40
80.0
 41
0.8
 71
     4
 72
     1
  1
\A1;D10@300
  7
STYLE2
 73
     1
 44
1.0
1001
ACAD
1000
MTEXTBEGIN
1070
    73
1070
     1
1070
    44
1040
1.0
1070
    74
1070
     0
1000
MTEXTEND
  0
DIMENSION
  5
27B26
330
747D
100
AcDbEntity
  8
寸法
 48
50.0
100
AcDbDimension
  2
*D50
 10
6246.755894694972
 20
2472.98455304783
 30
0.0
 11
6342.755894694972
 21
2472.98455304783
 31
0.0
 70
   160
  1
120\P200\P280
 71
     5
 42
192.0
  3
INABA_S40G
100
AcDbAlignedDimension
 13
6438.755894694972
 23
2053.31674513145
 33
0.0
 14
6246.755894694972
 24
2053.31674513145
 34
0.0
100
AcDbRotatedDimension
1001
ACAD
1000
DSTYLE
1002
{
1070
   341
1005
0
1002
}
  0
LINE
  5
27B27
330
747D
100
AcDbEntity
  8
部品1
 48
50.0
100
AcDbLine
 10
6246.755894694973
 20
2053.31674513145
 30
0.0
 11
6438.755894694972
 21
2053.31674513145
 31
0.0
  0
LINE
  5
27B28
330
747D
100
AcDbEntity
  8
細線
 48
50.0
100
AcDbLine
 10
6246.755894694973
 20
2014.156553068147
 30
0.0
 11
6285.916086758277
 21
2053.31674513145
 31
0.0
  0
LINE
  5
27B29
330
747D
100
AcDbEntity
  8
細線
 48
50.0
100
AcDbLine
 10
6246.755894694973
 20
1987.215784704939
 30
0.0
 11
6312.856855121482
 21
2053.31674513145
 31
0.0
  0
LINE
  5
27B2A
330
747D
100
AcDbEntity
  8
細線
 48
50.0
100
AcDbLine
 10
6246.755894694973
 20
2041.097321431355
 30
0.0
 11
6258.975318395068
 21
2053.31674513145
 31
0.0
  0
LINE
  5
27B2B
330
747D
100
AcDbEntity
  8
細線
 48
50.0
100
AcDbLine
 10
6366.308601960959
 20
1918.183113428471
 30
0.0
 11
6438.755894694972
 21
1990.630406162487
 31
0.0
  0
LINE
  5
27B2C
330
747D
100
AcDbEntity
  8
細線
 48
50.0
100
AcDbLine
 10
6355.248317197442
 20
1934.063597028165
 30
0.0
 11
6438.755894694972
 21
2017.571174525695
 31
0.0
  0
LINE
  5
27B2D
330
747D
100
AcDbEntity
  8
細線
 48
50.0
100
AcDbLine
 10
8231.195207872167
 20
1894.445027620038
 30
0.0
 11
8360.795207872165
 21
2024.045027620037
 31
0.0
  0
LINE
  5
27B2E
330
747D
100
AcDbEntity
  8
部品1
100
AcDbLine
 10
8360.795207872165
 20
1509.316745131449
 30
0.0
 11
8360.795207872165
 21
2053.31674513145
 31
0.0
  0
LINE
  5
27B2F
330
747D
100
AcDbEntity
  8
部品1
 48
50.0
100
AcDbLine
 10
7946.795207872165
 20
1509.316745131449
 30
0.0
 11
7946.795207872165
 21
2053.31674513145
 31
0.0
  0
LINE
  5
27B30
330
747D
100
AcDbEntity
  8
細線
 48
50.0
100
AcDbLine
 10
7946.795207872165
 20
1825.571174525695
 30
0.0
 11
8105.195207872167
 21
1983.971174525692
 31
0.0
  0
LINE
  5
27B31
330
747D
100
AcDbEntity
  8
細線
 48
50.0
100
AcDbLine
 10
7946.795207872165
 20
1798.630406162487
 30
0.0
 11
8105.195207872167
 21
1957.030406162485
 31
0.0
  0
LINE
  5
27B32
330
747D
100
AcDbEntity
  8
細線
 48
50.0
100
AcDbLine
 10
7946.795207872165
 20
1771.68963779928
 30
0.0
 11
8105.195207872162
 21
1930.089637799272
 31
0.0
  0
TEXT
  5
27B33
330
747D
100
AcDbEntity
  8
部品1
 48
50.0
100
AcDbText
 10
7532.65530603921
 20
1824.555737414705
 30
0.0
 40
80.0
  1
▽G.L
  7
STYLE2
100
AcDbText
  0
LINE
  5
27B34
330
747D
100
AcDbEntity
  8
部品1
100
AcDbLine
 10
8177.195207872166
 20
1828.316745131449
 30
0.0
 11
8177.195207872163
 21
2102.47674513145
 31
0.0
  0
LINE
  5
27B35
330
747D
100
AcDbEntity
  8
部品1
100
AcDbLine
 10
8159.195207872166
 20
1828.316745131449
 30
0.0
 11
8159.195207872164
 21
2102.47674513145
 31
0.0
  0
LINE
  5
27B36
330
747D
100
AcDbEntity
  8
細線
 48
50.0
100
AcDbLine
 10
8231.195207872167
 20
1840.563490893608
 30
0.0
 11
8360.795207872165
 21
1970.163490893599
 31
0.0
  0
LINE
  5
27B37
330
747D
100
AcDbEntity
  8
細線
 48
50.0
100
AcDbLine
 10
8231.195207872167
 20
1867.50425925682
 30
0.0
 11
8360.795207872165
 21
1997.104259256817
 31
0.0
  0
LINE
  5
27B38
330
747D
100
AcDbEntity
  8
部品1
100
AcDbLine
 10
8231.195207872167
 20
1729.316745131449
 30
0.0
 11
8231.195207872167
 21
2053.31674513145
 31
0.0
  0
LINE
  5
27B39
330
747D
100
AcDbEntity
  8
部品1
100
AcDbLine
 10
8105.195207872158
 20
1729.316745131449
 30
0.0
 11
8105.195207872167
 21
2053.31674513145
 31
0.0
  0
LINE
  5
27B3A
330
747D
100
AcDbEntity
  8
細線
 48
50.0
100
AcDbLine
 10
7946.795207872165
 20
1583.104259256827
 30
0.0
 11
8105.195207872158
 21
1741.504259256816
 31
0.0
  0
LINE
  5
27B3B
330
747D
100
AcDbEntity
  8
細線
 48
50.0
100
AcDbLine
 10
7946.795207872165
 20
1556.16349089362
 30
0.0
 11
8119.948462110002
 21
1729.316745131447
 31
0.0
  0
LINE
  5
27B3C
330
747D
100
AcDbEntity
  8
細線
 48
50.0
100
AcDbLine
 10
7946.795207872165
 20
1610.045027620035
 30
0.0
 11
8105.195207872158
 21
1768.44502762003
 31
0.0
  0
LINE
  5
27B3D
330
747D
100
AcDbEntity
  8
細線
 48
50.0
100
AcDbLine
 10
7875.474609015656
 20
1269.316745131449
 30
0.0
 11
8360.795207872165
 21
1754.637343987957
 31
0.0
  0
LINE
  5
27B3E
330
747D
100
AcDbEntity
  8
細線
 48
50.0
100
AcDbLine
 10
7848.53384065245
 20
1269.316745131449
 30
0.0
 11
8360.795207872168
 21
1781.578112351163
 31
0.0
  0
LINE
  5
27B3F
330
747D
100
AcDbEntity
  8
細線
 48
50.0
100
AcDbLine
 10
7821.593072289243
 20
1269.316745131449
 30
0.0
 11
8360.795207872165
 21
1808.518880714375
 31
0.0
  0
LINE
  5
27B40
330
747D
100
AcDbEntity
  8
部品1
 48
50.0
100
AcDbLine
 10
8568.795207872168
 20
1269.316745131449
 30
0.0
 11
7738.795207872169
 21
1269.316745131449
 31
0.0
  0
LINE
  5
27B41
330
747D
100
AcDbEntity
  8
部品1
 48
50.0
100
AcDbLine
 10
8568.795207872168
 20
1141.316745131449
 30
0.0
 11
7738.795207872169
 21
1141.316745131449
 31
0.0
  0
LINE
  5
27B42
330
747D
100
AcDbEntity
  8
細線
 48
50.0
100
AcDbLine
 10
7818.795207872162
 20
1428.16349089362
 30
0.0
 11
7899.948462109995
 21
1509.316745131449
 31
0.0
  0
LINE
  5
27B43
330
747D
100
AcDbEntity
  8
部品1
 48
50.0
100
AcDbLine
 10
7818.795207872165
 20
1269.316745131449
 30
0.0
 11
7818.795207872165
 21
1509.316745131449
 31
0.0
  0
LINE
  5
27B44
330
747D
100
AcDbEntity
  8
細線
 48
50.0
100
AcDbLine
 10
7866.201957473683
 20
1141.316745131449
 30
0.0
 11
7900.499454104866
 21
1269.316745131449
 31
0.0
  0
LINE
  5
27B45
330
747D
100
AcDbEntity
  8
部品1
 48
50.0
100
AcDbLine
 10
7738.795207872169
 20
1141.316745131449
 30
0.0
 11
7738.795207872169
 21
1269.316745131449
 31
0.0
  0
LINE
  5
27B46
330
747D
100
AcDbEntity
  8
細線
 48
50.0
100
AcDbLine
 10
7787.313912526426
 20
1141.316745131447
 30
0.0
 11
7821.611409157608
 21
1269.316745131447
 31
0.0
  0
LINE
  5
27B47
330
747D
100
AcDbEntity
  8
細線
 48
50.0
100
AcDbLine
 10
7945.09000242093
 20
1141.316745131447
 30
0.0
 11
7979.387499052112
 21
1269.316745131447
 31
0.0
  0
LINE
  5
27B48
330
747D
100
AcDbEntity
  8
細線
 48
50.0
100
AcDbLine
 10
7793.744693144778
 20
1165.316745131449
 30
0.0
 11
7800.175473763125
 21
1141.316745131449
 31
0.0
  0
LINE
  5
27B49
330
747D
100
AcDbEntity
  8
細線
 48
50.0
100
AcDbLine
 10
7951.520783039282
 20
1165.316745131449
 30
0.0
 11
7957.95156365763
 21
1141.316745131449
 31
0.0
  0
LINE
  5
27B4A
330
747D
100
AcDbEntity
  8
細線
 48
50.0
100
AcDbLine
 10
7872.632738092031
 20
1165.316745131449
 30
0.0
 11
7879.063518710378
 21
1141.316745131449
 31
0.0
  0
LINE
  5
27B4B
330
747D
100
AcDbEntity
  8
細線
 48
50.0
100
AcDbLine
 10
7738.795207872165
 20
1254.656666097229
 30
0.0
 11
7742.723364210362
 21
1269.316745131449
 31
0.0
  0
LINE
  5
27B4C
330
747D
100
AcDbEntity
  8
細線
 48
50.0
100
AcDbLine
 10
7815.180628539268
 20
1245.316745131449
 30
0.0
 11
7808.749847920921
 21
1269.316745131449
 31
0.0
  0
LINE
  5
27B4D
330
747D
100
AcDbEntity
  8
細線
 48
50.0
100
AcDbLine
 10
7972.956718433771
 20
1245.316745131449
 30
0.0
 11
7966.525937815423
 21
1269.316745131449
 31
0.0
  0
LINE
  5
27B4E
330
747D
100
AcDbEntity
  8
細線
 48
50.0
100
AcDbLine
 10
7894.068673486521
 20
1245.316745131449
 30
0.0
 11
7887.637892868173
 21
1269.316745131449
 31
0.0
  0
LWPOLYLINE
  5
27B4F
330
747D
100
AcDbEntity
  8
部品1
 48
50.0
100
AcDbPolyline
 90
        2
 70
     0
 43
8.0
 10
7532.65530603921
 20
1813.31674513145
 10
7946.795207872165
 20
1813.31674513145
  0
LINE
  5
27B50
330
747D
100
AcDbEntity
  8
細線
 48
50.0
100
AcDbLine
 10
7818.795207872162
 20
1455.104259256825
 30
0.0
 11
7873.00769374679
 21
1509.316745131449
 31
0.0
  0
LINE
  5
27B51
330
747D
100
AcDbEntity
  8
部品1
 48
50.0
100
AcDbLine
 10
7818.795207872165
 20
1509.316745131449
 30
0.0
 11
7946.795207872165
 21
1509.316745131449
 31
0.0
  0
LINE
  5
27B52
330
747D
100
AcDbEntity
  8
細線
 48
50.0
100
AcDbLine
 10
7818.795207872162
 20
1482.045027620035
 30
0.0
 11
7846.066925383581
 21
1509.316745131449
 31
0.0
  0
LINE
  5
27B53
330
747D
100
AcDbEntity
  8
細線
 48
50.0
100
AcDbLine
 10
8064.059987558112
 20
1269.316745131449
 30
0.0
 11
8360.795207872165
 21
1566.051965445502
 31
0.0
  0
LINE
  5
27B54
330
747D
100
AcDbEntity
  8
細線
 48
50.0
100
AcDbLine
 10
8091.000755921315
 20
1269.316745131449
 30
0.0
 11
8360.795207872165
 21
1539.111197082307
 31
0.0
  0
LINE
  5
27B55
330
747D
100
AcDbEntity
  8
細線
 48
50.0
100
AcDbLine
 10
8037.119219194901
 20
1269.316745131449
 30
0.0
 11
8360.795207872165
 21
1592.992733808715
 31
0.0
  0
LINE
  5
27B56
330
747D
100
AcDbEntity
  8
細線
 48
50.0
100
AcDbLine
 10
8252.645366100557
 20
1269.316745131449
 30
0.0
 11
8488.795207872165
 21
1505.466586903058
 31
0.0
  0
LINE
  5
27B57
330
747D
100
AcDbEntity
  8
細線
 48
50.0
100
AcDbLine
 10
8279.586134463771
 20
1269.316745131449
 30
0.0
 11
8488.795207872165
 21
1478.525818539842
 31
0.0
  0
LINE
  5
27B58
330
747D
100
AcDbEntity
  8
部品1
 48
50.0
100
AcDbLine
 10
8488.795207872165
 20
1509.316745131449
 30
0.0
 11
8488.795207872165
 21
1269.316745131449
 31
0.0
  0
LINE
  5
27B59
330
747D
100
AcDbEntity
  8
細線
 48
50.0
100
AcDbLine
 10
8306.526902826975
 20
1269.316745131449
 30
0.0
 11
8488.795207872165
 21
1451.585050176645
 31
0.0
  0
LINE
  5
27B5A
330
747D
100
AcDbEntity
  8
細線
 48
50.0
100
AcDbLine
 10
8181.754137262677
 20
1141.316745131447
 30
0.0
 11
8216.051633893858
 21
1269.316745131447
 31
0.0
  0
LINE
  5
27B5B
330
747D
100
AcDbEntity
  8
細線
 48
50.0
100
AcDbLine
 10
8023.978047368181
 20
1141.316745131449
 30
0.0
 11
8058.275543999364
 21
1269.316745131449
 31
0.0
  0
LINE
  5
27B5C
330
747D
100
AcDbEntity
  8
細線
 48
50.0
100
AcDbLine
 10
8102.866092315428
 20
1141.316745131449
 30
0.0
 11
8137.163588946611
 21
1269.316745131447
 31
0.0
  0
LINE
  5
27B5D
330
747D
100
AcDbEntity
  8
細線
 48
50.0
100
AcDbLine
 10
8260.642182209918
 20
1141.316745131449
 30
0.0
 11
8294.939678841103
 21
1269.316745131447
 31
0.0
  0
LINE
  5
27B5E
330
747D
100
AcDbEntity
  8
細線
 48
50.0
100
AcDbLine
 10
8109.29687293378
 20
1165.316745131449
 30
0.0
 11
8115.727653552127
 21
1141.316745131449
 31
0.0
  0
LINE
  5
27B5F
330
747D
100
AcDbEntity
  8
細線
 48
50.0
100
AcDbLine
 10
8030.408827986532
 20
1165.316745131449
 30
0.0
 11
8036.83960860488
 21
1141.316745131449
 31
0.0
  0
LINE
  5
27B60
330
747D
100
AcDbEntity
  8
細線
 48
50.0
100
AcDbLine
 10
8267.072962828271
 20
1165.316745131449
 30
0.0
 11
8273.503743446617
 21
1141.316745131449
 31
0.0
  0
LINE
  5
27B61
330
747D
100
AcDbEntity
  8
細線
 48
50.0
100
AcDbLine
 10
8188.184917881027
 20
1165.316745131449
 30
0.0
 11
8194.615698499372
 21
1141.316745131449
 31
0.0
  0
LINE
  5
27B62
330
747D
100
AcDbEntity
  8
細線
 48
50.0
100
AcDbLine
 10
8130.73280832827
 20
1245.316745131449
 30
0.0
 11
8124.302027709921
 21
1269.316745131449
 31
0.0
  0
LINE
  5
27B63
330
747D
100
AcDbEntity
  8
細線
 48
50.0
100
AcDbLine
 10
8051.844763381023
 20
1245.316745131449
 30
0.0
 11
8045.413982762676
 21
1269.316745131449
 31
0.0
  0
LINE
  5
27B64
330
747D
100
AcDbEntity
  8
細線
 48
50.0
100
AcDbLine
 10
8209.620853275515
 20
1245.316745131449
 30
0.0
 11
8203.19007265717
 21
1269.316745131449
 31
0.0
  0
LINE
  5
27B65
330
747D
100
AcDbEntity
  8
細線
 48
50.0
100
AcDbLine
 10
8288.508898222762
 20
1245.316745131449
 30
0.0
 11
8282.078117604415
 21
1269.316745131449
 31
0.0
  0
LINE
  5
27B66
330
747D
100
AcDbEntity
  8
部品1
 48
50.0
100
AcDbLine
 10
8568.795207872168
 20
1269.316745131449
 30
0.0
 11
8568.795207872168
 21
1141.316745131449
 31
0.0
  0
LINE
  5
27B67
330
747D
100
AcDbEntity
  8
細線
 48
50.0
100
AcDbLine
 10
8497.306317051663
 20
1141.316745131447
 30
0.0
 11
8531.603813682847
 21
1269.316745131446
 31
0.0
  0
LINE
  5
27B68
330
747D
100
AcDbEntity
  8
細線
 48
50.0
100
AcDbLine
 10
8339.530227157167
 20
1141.316745131447
 30
0.0
 11
8373.827723788341
 21
1269.316745131449
 31
0.0
  0
LINE
  5
27B69
330
747D
100
AcDbEntity
  8
細線
 48
50.0
100
AcDbLine
 10
8418.418272104416
 20
1141.316745131446
 30
0.0
 11
8452.7157687356
 21
1269.316745131446
 31
0.0
  0
LINE
  5
27B6A
330
747D
100
AcDbEntity
  8
細線
 48
50.0
100
AcDbLine
 10
8345.961007775517
 20
1165.316745131449
 30
0.0
 11
8352.391788393873
 21
1141.316745131449
 31
0.0
  0
LINE
  5
27B6B
330
747D
100
AcDbEntity
  8
細線
 48
50.0
100
AcDbLine
 10
8424.849052722766
 20
1165.316745131447
 30
0.0
 11
8431.279833341113
 21
1141.316745131447
 31
0.0
  0
LINE
  5
27B6C
330
747D
100
AcDbEntity
  8
細線
 48
50.0
100
AcDbLine
 10
8503.737097670011
 20
1165.316745131447
 30
0.0
 11
8510.167878288362
 21
1141.316745131447
 31
0.0
  0
LINE
  5
27B6D
330
747D
100
AcDbEntity
  8
細線
 48
50.0
100
AcDbLine
 10
8367.396943169998
 20
1245.316745131449
 30
0.0
 11
8360.966162551653
 21
1269.316745131449
 31
0.0
  0
LINE
  5
27B6E
330
747D
100
AcDbEntity
  8
細線
 48
50.0
100
AcDbLine
 10
8446.284988117255
 20
1245.316745131447
 30
0.0
 11
8439.854207498909
 21
1269.316745131447
 31
0.0
  0
LINE
  5
27B6F
330
747D
100
AcDbEntity
  8
細線
 48
50.0
100
AcDbLine
 10
8525.173033064501
 20
1245.316745131447
 30
0.0
 11
8518.742252446156
 21
1269.316745131447
 31
0.0
  0
LINE
  5
27B70
330
747D
100
AcDbEntity
  8
部品1
100
AcDbLine
 10
8231.195207872167
 20
1729.316745131447
 30
0.0
 11
8105.195207872158
 21
1729.316745131447
 31
0.0
  0
LINE
  5
27B71
330
747D
100
AcDbEntity
  8
部品1
100
AcDbLine
 10
8213.195207872166
 20
1810.316745131449
 30
0.0
 11
8213.195207872166
 21
1828.316745131449
 31
0.0
  0
ARC
  5
27B72
330
747D
100
AcDbEntity
  8
部品1
100
AcDbCircle
 10
8177.195207872166
 20
1828.316745131449
 30
0.0
 40
18.0
100
AcDbArc
 50
180.0
 51
270.0
  0
LINE
  5
27B73
330
747D
100
AcDbEntity
  8
部品1
100
AcDbLine
 10
8177.195207872166
 20
1810.316745131449
 30
0.0
 11
8213.195207872166
 21
1810.316745131449
 31
0.0
  0
LINE
  5
27B74
330
747D
100
AcDbEntity
  8
部品1
100
AcDbLine
 10
8177.195207872166
 20
1828.316745131449
 30
0.0
 11
8213.195207872166
 21
1828.316745131449
 31
0.0
  0
LINE
  5
27B75
330
747D
100
AcDbEntity
  8
部品1
 48
50.0
100
AcDbLine
 10
8360.795207872165
 20
1509.316745131449
 30
0.0
 11
8488.795207872165
 21
1509.316745131449
 31
0.0
  0
LINE
  5
27B76
330
747D
100
AcDbEntity
  8
部品1
100
AcDbLine
 10
7966.595207872167
 20
2143.316745131449
 30
0.0
 11
8004.395207872168
 21
2143.316745131449
 31
0.0
  0
LINE
  5
27B77
330
747D
100
AcDbEntity
  8
細線
 48
50.0
100
AcDbLine
 10
7946.795207872165
 20
2014.156553068147
 30
0.0
 11
7985.955399935473
 21
2053.31674513145
 31
0.0
  0
LINE
  5
27B78
330
747D
100
AcDbEntity
  8
細線
 48
50.0
100
AcDbLine
 10
7946.795207872165
 20
1987.215784704939
 30
0.0
 11
8012.896168298677
 21
2053.31674513145
 31
0.0
  0
LINE
  5
27B79
330
747D
100
AcDbEntity
  8
部品1
 48
50.0
100
AcDbLine
 10
7946.795207872165
 20
2053.31674513145
 30
0.0
 11
8360.795207872168
 21
2053.31674513145
 31
0.0
  0
LINE
  5
27B7A
330
747D
100
AcDbEntity
  8
部品1
100
AcDbLine
 10
7963.895207872167
 20
2132.516745131449
 30
0.0
 11
7963.895207872167
 21
2140.616745131449
 31
0.0
  0
ARC
  5
27B7B
330
747D
100
AcDbEntity
  8
部品1
100
AcDbCircle
 10
7966.595207872167
 20
2140.616745131449
 30
0.0
 40
2.7
100
AcDbArc
 50
90.0
 51
180.0
  0
ARC
  5
27B7C
330
747D
100
AcDbEntity
  8
部品1
100
AcDbCircle
 10
7955.795207872165
 20
2127.708648834158
 30
0.0
 40
2.7
100
AcDbArc
 50
104.0362434679067
 51
180.0
  0
LINE
  5
27B7D
330
747D
100
AcDbEntity
  8
部品1
100
AcDbLine
 10
7955.140361684569
 20
2130.328033584549
 30
0.0
 11
7963.895207872167
 21
2132.516745131449
 31
0.0
  0
ARC
  5
27B7E
330
747D
100
AcDbEntity
  8
部品1
100
AcDbCircle
 10
7955.795207872165
 20
2065.576745131449
 30
0.0
 40
2.7
100
AcDbArc
 50
180.0
 51
270.0
  0
LINE
  5
27B7F
330
747D
100
AcDbEntity
  8
細線
 48
50.0
100
AcDbLine
 10
7946.795207872165
 20
2041.097321431355
 30
0.0
 11
7959.01463157226
 21
2053.31674513145
 31
0.0
  0
LINE
  5
27B80
330
747D
100
AcDbEntity
  8
部品1
100
AcDbLine
 10
7955.795207872165
 20
2062.87674513145
 30
0.0
 11
7967.49520787216
 21
2062.87674513145
 31
0.0
  0
LINE
  5
27B81
330
747D
100
AcDbEntity
  8
部品1
100
AcDbLine
 10
7953.095207872166
 20
2065.576745131449
 30
0.0
 11
7953.095207872166
 21
2127.708648834158
 31
0.0
  0
LINE
  5
27B82
330
747D
100
AcDbEntity
  8
部品1
100
AcDbLine
 10
8111.75520787216
 20
2062.87674513145
 30
0.0
 11
8313.09520787216
 21
2062.87674513145
 31
0.0
  0
LINE
  5
27B83
330
747D
100
AcDbEntity
  8
部品1
100
AcDbLine
 10
8004.395207872168
 20
2143.316745131449
 30
0.0
 11
8004.395207872168
 21
2151.41674513145
 31
0.0
  0
LINE
  5
27B84
330
747D
100
AcDbEntity
  8
部品1
100
AcDbLine
 10
8054.795207872166
 20
2162.216745131447
 30
0.0
 11
8054.795207872166
 21
2110.91674513145
 31
0.0
  0
LINE
  5
27B85
330
747D
100
AcDbEntity
  8
部品1
100
AcDbLine
 10
8078.195207872166
 20
2122.87674513145
 30
0.0
 11
8106.355207872166
 21
2122.87674513145
 31
0.0
  0
ARC
  5
27B86
330
747D
100
AcDbEntity
  8
部品1
100
AcDbCircle
 10
8078.195207872166
 20
2120.17674513145
 30
0.0
 40
2.7
100
AcDbArc
 50
90.0
 51
180.0
  0
ARC
  5
27B87
330
747D
100
AcDbEntity
  8
部品1
100
AcDbCircle
 10
8106.355207872166
 20
2120.17674513145
 30
0.0
 40
2.7
100
AcDbArc
 50
0.0
 51
90.0
  0
LINE
  5
27B88
330
747D
100
AcDbEntity
  8
部品1
100
AcDbLine
 10
8097.095207872168
 20
2108.216745131449
 30
0.0
 11
8097.095207872168
 21
2065.576745131449
 31
0.0
  0
LINE
  5
27B89
330
747D
100
AcDbEntity
  8
部品1
100
AcDbLine
 10
8082.695207872166
 20
2062.87674513145
 30
0.0
 11
8094.395207872166
 21
2062.87674513145
 31
0.0
  0
ARC
  5
27B8A
330
747D
100
AcDbEntity
  8
部品1
100
AcDbCircle
 10
8111.75520787216
 20
2065.576745131449
 30
0.0
 40
2.7
100
AcDbArc
 50
180.0
 51
270.0
  0
ARC
  5
27B8B
330
747D
100
AcDbEntity
  8
部品1
100
AcDbCircle
 10
8094.395207872166
 20
2065.576745131449
 30
0.0
 40
2.7
100
AcDbArc
 50
270.0
 51
0.0
  0
LINE
  5
27B8C
330
747D
100
AcDbEntity
  8
部品1
100
AcDbLine
 10
8054.795207872166
 20
2110.91674513145
 30
0.0
 11
8094.395207872166
 21
2110.91674513145
 31
0.0
  0
ARC
  5
27B8D
330
747D
100
AcDbEntity
  8
部品1
100
AcDbCircle
 10
8094.395207872166
 20
2108.216745131449
 30
0.0
 40
2.7
100
AcDbArc
 50
0.0
 51
90.0
  0
LINE
  5
27B8E
330
747D
100
AcDbEntity
  8
部品1
100
AcDbLine
 10
8109.055207872167
 20
2120.17674513145
 30
0.0
 11
8109.055207872163
 21
2065.576745131449
 31
0.0
  0
LINE
  5
27B8F
330
747D
100
AcDbEntity
  8
部品1
100
AcDbLine
 10
8075.495207872165
 20
2120.17674513145
 30
0.0
 11
8075.495207872165
 21
2103.07674513145
 31
0.0
  0
LINE
  5
27B90
330
747D
100
AcDbEntity
  8
細線
100
AcDbLine
 10
8173.595207872168
 20
2062.87674513145
 30
0.0
 11
8173.595207872168
 21
2106.07674513145
 31
0.0
  0
LINE
  5
27B91
330
747D
100
AcDbEntity
  8
細線
100
AcDbLine
 10
8162.79520787217
 20
2062.87674513145
 30
0.0
 11
8162.795207872164
 21
2106.07674513145
 31
0.0
  0
LINE
  5
27B92
330
747D
100
AcDbEntity
  8
部品1
100
AcDbLine
 10
8159.195207872166
 20
2102.47674513145
 30
0.0
 11
8177.195207872166
 21
2102.47674513145
 31
0.0
  0
LINE
  5
27B93
330
747D
100
AcDbEntity
  8
部品1
100
AcDbLine
 10
8162.795207872164
 20
2106.07674513145
 30
0.0
 11
8173.595207872168
 21
2106.07674513145
 31
0.0
  0
ELLIPSE
  5
27B94
330
747D
100
AcDbEntity
  8
部品1
 48
50.0
100
AcDbEllipse
 10
8168.195207872166
 20
2322.440033575722
 30
0.0
 11
40.0
 21
0.0
 31
0.0
210
0.0
220
0.0
230
1.0
 40
0.4
 41
0.0
 42
6.283185307179586
  0
ELLIPSE
  5
27B95
330
747D
100
AcDbEntity
  8
部品1
 48
50.0
100
AcDbEllipse
 10
8168.195207872166
 20
2312.840033575723
 30
0.0
 11
40.0
 21
0.0
 31
0.0
210
0.0
220
0.0
230
1.0
 40
0.4
 41
3.141592653589793
 42
6.283185307179586
  0
LINE
  5
27B96
330
747D
100
AcDbEntity
  8
部品1
 48
50.0
100
AcDbLine
 10
8128.195207872165
 20
2322.440033575722
 30
0.0
 11
8128.195207872165
 21
2312.840033575722
 31
0.0
  0
ARC
  5
27B97
330
747D
100
AcDbEntity
  8
部品1
100
AcDbCircle
 10
8052.095207872167
 20
2162.216745131447
 30
0.0
 40
2.7
100
AcDbArc
 50
0.0
 51
90.0
  0
ARC
  5
27B98
330
747D
100
AcDbEntity
  8
部品1
100
AcDbCircle
 10
8009.795207872166
 20
2162.216745131449
 30
0.0
 40
2.7
100
AcDbArc
 50
90.0
 51
180.0
  0
LINE
  5
27B99
330
747D
100
AcDbEntity
  8
部品1
100
AcDbLine
 10
8007.095207872167
 20
2154.11674513145
 30
0.0
 11
8007.095207872167
 21
2154.11674513145
 31
0.0
  0
LINE
  5
27B9A
330
747D
100
AcDbEntity
  8
部品1
100
AcDbLine
 10
8007.095207872167
 20
2154.11674513145
 30
0.0
 11
8007.095207872167
 21
2162.216745131449
 31
0.0
  0
LINE
  5
27B9B
330
747D
100
AcDbEntity
  8
部品1
100
AcDbLine
 10
8009.795207872166
 20
2164.91674513145
 30
0.0
 11
8052.095207872167
 21
2164.916745131446
 31
0.0
  0
ARC
  5
27B9C
330
747D
100
AcDbEntity
  8
部品1
100
AcDbCircle
 10
8007.095207872167
 20
2151.41674513145
 30
0.0
 40
2.7
100
AcDbArc
 50
90.0
 51
180.0
  0
ELLIPSE
  5
27B9D
330
747D
100
AcDbEntity
  8
部品1
 48
50.0
100
AcDbEllipse
 10
8168.195207872166
 20
2322.440033575722
 30
0.0
 11
18.4
 21
0.0
 31
0.0
210
0.0
220
0.0
230
1.0
 40
0.3478260869565217
 41
0.0
 42
6.283185307179586
  0
LINE
  5
27B9E
330
747D
100
AcDbEntity
  8
部品1
 48
50.0
100
AcDbLine
 10
8208.195207872165
 20
2312.840033575722
 30
0.0
 11
8208.195207872165
 21
2322.440033575722
 31
0.0
  0
LINE
  5
27B9F
330
747D
100
AcDbEntity
  8
部品1
 48
50.0
100
AcDbLine
 10
8136.195207872166
 20
2444.192026240592
 30
0.0
 11
8152.195207872166
 21
2436.192026240592
 31
0.0
  0
LINE
  5
27BA0
330
747D
100
AcDbEntity
  8
部品1
 48
50.0
100
AcDbLine
 10
8136.195207872166
 20
2412.192026240592
 30
0.0
 11
8152.195207872166
 21
2404.192026240592
 31
0.0
  0
LINE
  5
27BA1
330
747D
100
AcDbEntity
  8
部品1
 48
50.0
100
AcDbLine
 10
8136.195207872166
 20
2444.192026240592
 30
0.0
 11
8152.195207872166
 21
2452.192026240592
 31
0.0
  0
LINE
  5
27BA2
330
747D
100
AcDbEntity
  8
部品1
 48
50.0
100
AcDbLine
 10
8136.195207872166
 20
2412.192026240592
 30
0.0
 11
8136.195207872166
 21
2444.192026240592
 31
0.0
  0
LINE
  5
27BA3
330
747D
100
AcDbEntity
  8
部品1
 48
50.0
100
AcDbLine
 10
8152.195207872166
 20
2452.192026240592
 30
0.0
 11
8184.195207872166
 21
2452.192026240592
 31
0.0
  0
ELLIPSE
  5
27BA4
330
747D
100
AcDbEntity
  8
細線
 48
50.0
100
AcDbEllipse
 10
8168.195207872166
 20
2444.192026240592
 30
0.0
 11
14.76670786606846
 21
0.0
 31
0.0
210
0.0
220
0.0
230
1.0
 40
0.2071254069489396
 41
0.0
 42
6.283185307179586
  0
LINE
  5
27BA5
330
747D
100
AcDbEntity
  8
部品1
 48
50.0
100
AcDbLine
 10
8152.195207872166
 20
2404.192026240592
 30
0.0
 11
8184.195207872166
 21
2404.192026240592
 31
0.0
  0
LINE
  5
27BA6
330
747D
100
AcDbEntity
  8
部品1
 48
50.0
100
AcDbLine
 10
8184.195207872166
 20
2404.192026240592
 30
0.0
 11
8200.195207872166
 21
2412.192026240592
 31
0.0
  0
LINE
  5
27BA7
330
747D
100
AcDbEntity
  8
部品1
 48
50.0
100
AcDbLine
 10
8152.195207872166
 20
2436.192026240592
 30
0.0
 11
8184.195207872166
 21
2436.192026240592
 31
0.0
  0
LINE
  5
27BA8
330
747D
100
AcDbEntity
  8
部品1
 48
50.0
100
AcDbLine
 10
8184.195207872166
 20
2436.192026240592
 30
0.0
 11
8200.195207872166
 21
2444.192026240592
 31
0.0
  0
LINE
  5
27BA9
330
747D
100
AcDbEntity
  8
細線
 48
50.0
100
AcDbLine
 10
8184.195207872166
 20
2404.192026240592
 30
0.0
 11
8184.195207872166
 21
2436.192026240592
 31
0.0
  0
LINE
  5
27BAA
330
747D
100
AcDbEntity
  8
部品1
 48
50.0
100
AcDbLine
 10
8200.195207872166
 20
2412.192026240592
 30
0.0
 11
8200.195207872166
 21
2444.192026240592
 31
0.0
  0
LINE
  5
27BAB
330
747D
100
AcDbEntity
  8
細線
 48
50.0
100
AcDbLine
 10
8152.195207872166
 20
2404.192026240592
 30
0.0
 11
8152.195207872166
 21
2436.192026240592
 31
0.0
  0
LINE
  5
27BAC
330
747D
100
AcDbEntity
  8
部品1
 48
50.0
100
AcDbLine
 10
8184.195207872166
 20
2452.192026240592
 30
0.0
 11
8200.195207872166
 21
2444.192026240592
 31
0.0
  0
TEXT
  5
27BAD
330
747D
100
AcDbEntity
  8
部品1
100
AcDbText
 10
7868.967457064098
 20
3273.103480380607
 30
0.0
 40
120.0
  1
基礎詳細
  7
STYLE2
100
AcDbText
  0
LINE
  5
27BAE
330
747D
100
AcDbEntity
  8
部品1
100
AcDbLine
 10
11247.07264127195
 20
488.3484427473876
 30
0.0
 11
11247.07264127196
 21
3452.655412332035
 31
0.0
  0
LINE
  5
27BAF
330
747D
100
AcDbEntity
  8
細線
100
AcDbLine
 10
10254.96447385171
 20
1813.316745131449
 30
0.0
 11
10060.33114017492
 21
2007.950078808232
 31
0.0
  0
LINE
  5
27BB0
330
747D
100
AcDbEntity
  8
部品1
100
AcDbLine
 10
10060.33114017492
 20
2053.31674513145
 30
0.0
 11
10540.33114017492
 21
2053.31674513145
 31
0.0
  0
LINE
  5
27BB1
330
747D
100
AcDbEntity
  8
細線
 48
50.0
100
AcDbLine
 10
10194.40202461818
 20
1593.617829478099
 30
0.0
 11
10228.69952124936
 21
1721.617829478098
 31
0.0
  0
LINE
  5
27BB2
330
747D
100
AcDbEntity
  8
部品1
100
AcDbLine
 10
9940.331140174924
 20
1593.617829478096
 30
0.0
 11
10660.33114017492
 21
1593.617829478099
 31
0.0
  0
LINE
  5
27BB3
330
747D
100
AcDbEntity
  8
部品1
100
AcDbLine
 10
9940.331140174924
 20
1721.617829478099
 30
0.0
 11
10660.33114017492
 21
1721.617829478102
 31
0.0
  0
LINE
  5
27BB4
330
747D
100
AcDbEntity
  8
細線
100
AcDbLine
 10
10121.24978566816
 20
1721.617829478099
 30
0.0
 11
10212.94870132151
 21
1813.316745131449
 31
0.0
  0
LWPOLYLINE
  5
27BB5
330
747D
100
AcDbEntity
  8
部品1
 48
50.0
100
AcDbPolyline
 90
        2
 70
     0
 43
12.0
 10
9675.719878074536
 20
1813.316745131449
 10
10876.81218120616
 20
1813.316745131449
  0
LINE
  5
27BB6
330
747D
100
AcDbEntity
  8
細線
100
AcDbLine
 10
10204.05278560627
 20
1813.316745131449
 30
0.0
 11
10060.33114017492
 21
1957.038390562802
 31
0.0
  0
TEXT
  5
27BB7
330
747D
100
AcDbEntity
  8
部品1
 48
50.0
100
AcDbText
 10
9296.213053416421
 20
1546.51700449414
 30
0.0
 40
80.0
  1
ボルトの出
 50
90.0
  7
STYLE2
100
AcDbText
  0
LINE
  5
27BB8
330
747D
100
AcDbEntity
  8
部品1
100
AcDbLine
 10
10060.33114017492
 20
1813.316745131449
 30
0.0
 11
10060.33114017492
 21
2053.31674513145
 31
0.0
  0
LINE
  5
27BB9
330
747D
100
AcDbEntity
  8
細線
 48
50.0
100
AcDbLine
 10
10036.62593472368
 20
1593.617829478098
 30
0.0
 11
10070.92343135486
 21
1721.617829478098
 31
0.0
  0
LINE
  5
27BBA
330
747D
100
AcDbEntity
  8
細線
 48
50.0
100
AcDbLine
 10
10115.51397967093
 20
1593.617829478099
 30
0.0
 11
10149.81147630212
 21
1721.617829478099
 31
0.0
  0
LINE
  5
27BBB
330
747D
100
AcDbEntity
  8
細線
 48
50.0
100
AcDbLine
 10
9957.737889776437
 20
1593.617829478099
 30
0.0
 11
9992.035386407621
 21
1721.617829478099
 31
0.0
  0
LINE
  5
27BBC
330
747D
100
AcDbEntity
  8
部品1
100
AcDbLine
 10
9940.331140174924
 20
1593.617829478096
 30
0.0
 11
9940.331140174924
 21
1813.316745131449
 31
0.0
  0
LINE
  5
27BBD
330
747D
100
AcDbEntity
  8
細線
 48
50.0
100
AcDbLine
 10
10043.05671534203
 20
1617.617829478099
 30
0.0
 11
10049.48749596038
 21
1593.617829478099
 31
0.0
  0
LINE
  5
27BBE
330
747D
100
AcDbEntity
  8
細線
 48
50.0
100
AcDbLine
 10
9964.168670394785
 20
1617.617829478099
 30
0.0
 11
9970.599451013132
 21
1593.617829478099
 31
0.0
  0
LINE
  5
27BBF
330
747D
100
AcDbEntity
  8
細線
 48
50.0
100
AcDbLine
 10
10121.94476028928
 20
1617.617829478099
 30
0.0
 11
10128.37554090763
 21
1593.617829478099
 31
0.0
  0
LINE
  5
27BC0
330
747D
100
AcDbEntity
  8
細線
 48
50.0
100
AcDbLine
 10
10200.83280523653
 20
1617.617829478099
 30
0.0
 11
10207.26358585488
 21
1593.617829478099
 31
0.0
  0
LINE
  5
27BC1
330
747D
100
AcDbEntity
  8
細線
 48
50.0
100
AcDbLine
 10
9985.604605789275
 20
1697.617829478099
 30
0.0
 11
9979.173825170924
 21
1721.617829478099
 31
0.0
  0
LINE
  5
27BC2
330
747D
100
AcDbEntity
  8
細線
 48
50.0
100
AcDbLine
 10
10143.38069568377
 20
1697.617829478099
 30
0.0
 11
10136.94991506543
 21
1721.617829478099
 31
0.0
  0
LINE
  5
27BC3
330
747D
100
AcDbEntity
  8
細線
 48
50.0
100
AcDbLine
 10
10064.49265073652
 20
1697.617829478099
 30
0.0
 11
10058.06187011818
 21
1721.617829478099
 31
0.0
  0
LINE
  5
27BC4
330
747D
100
AcDbEntity
  8
細線
100
AcDbLine
 10
10053.36753467425
 20
1721.617829478099
 30
0.0
 11
10145.0664503276
 21
1813.316745131449
 31
0.0
  0
LINE
  5
27BC5
330
747D
100
AcDbEntity
  8
細線
100
AcDbLine
 10
10087.30866017121
 20
1721.617829478099
 30
0.0
 11
10179.00757582455
 21
1813.316745131449
 31
0.0
  0
LINE
  5
27BC6
330
747D
100
AcDbEntity
  8
細線
100
AcDbLine
 10
10475.58178958191
 20
1813.316745131449
 30
0.0
 11
10235.58178958191
 21
2053.31674513145
 31
0.0
  0
LINE
  5
27BC7
330
747D
100
AcDbEntity
  8
細線
100
AcDbLine
 10
10526.49347782734
 20
1813.316745131451
 30
0.0
 11
10286.49347782734
 21
2053.31674513145
 31
0.0
  0
LINE
  5
27BC8
330
747D
100
AcDbEntity
  8
部品1
100
AcDbLine
 10
10540.33114017492
 20
2053.31674513145
 30
0.0
 11
10540.33114017492
 21
1813.316745131449
 31
0.0
  0
LINE
  5
27BC9
330
747D
100
AcDbEntity
  8
細線
 48
50.0
100
AcDbLine
 10
10509.95420440717
 20
1593.617829478096
 30
0.0
 11
10544.25170103835
 21
1721.617829478097
 31
0.0
  0
LINE
  5
27BCA
330
747D
100
AcDbEntity
  8
細線
100
AcDbLine
 10
10481.24978566816
 20
1721.617829478101
 30
0.0
 11
10572.94870132151
 21
1813.316745131449
 31
0.0
  0
LINE
  5
27BCB
330
747D
100
AcDbEntity
  8
細線
 48
50.0
100
AcDbLine
 10
10431.06615945992
 20
1593.617829478098
 30
0.0
 11
10465.3636560911
 21
1721.617829478099
 31
0.0
  0
LINE
  5
27BCC
330
747D
100
AcDbEntity
  8
細線
 48
50.0
100
AcDbLine
 10
10273.29006956543
 20
1593.617829478098
 30
0.0
 11
10307.58756619661
 21
1721.617829478098
 31
0.0
  0
LINE
  5
27BCD
330
747D
100
AcDbEntity
  8
細線
 48
50.0
100
AcDbLine
 10
10352.17811451267
 20
1593.617829478099
 30
0.0
 11
10386.47561114386
 21
1721.617829478098
 31
0.0
  0
LINE
  5
27BCE
330
747D
100
AcDbEntity
  8
細線
 48
50.0
100
AcDbLine
 10
10358.60889513102
 20
1617.617829478099
 30
0.0
 11
10365.03967574937
 21
1593.617829478099
 31
0.0
  0
LINE
  5
27BCF
330
747D
100
AcDbEntity
  8
細線
 48
50.0
100
AcDbLine
 10
10279.72085018378
 20
1617.617829478099
 30
0.0
 11
10286.15163080212
 21
1593.617829478099
 31
0.0
  0
LINE
  5
27BD0
330
747D
100
AcDbEntity
  8
細線
 48
50.0
100
AcDbLine
 10
10437.49694007827
 20
1617.617829478099
 30
0.0
 11
10443.92772069663
 21
1593.617829478099
 31
0.0
  0
LINE
  5
27BD1
330
747D
100
AcDbEntity
  8
細線
 48
50.0
100
AcDbLine
 10
10516.38498502552
 20
1617.617829478098
 30
0.0
 11
10522.81576564386
 21
1593.617829478098
 31
0.0
  0
LINE
  5
27BD2
330
747D
100
AcDbEntity
  8
細線
 48
50.0
100
AcDbLine
 10
10380.04483052551
 20
1697.617829478099
 30
0.0
 11
10373.61404990717
 21
1721.617829478099
 31
0.0
  0
LINE
  5
27BD3
330
747D
100
AcDbEntity
  8
細線
 48
50.0
100
AcDbLine
 10
10301.15678557827
 20
1697.617829478099
 30
0.0
 11
10294.72600495992
 21
1721.617829478099
 31
0.0
  0
LINE
  5
27BD4
330
747D
100
AcDbEntity
  8
細線
 48
50.0
100
AcDbLine
 10
10222.26874063102
 20
1697.617829478099
 30
0.0
 11
10215.83796001267
 21
1721.617829478099
 31
0.0
  0
LINE
  5
27BD5
330
747D
100
AcDbEntity
  8
細線
100
AcDbLine
 10
10447.30866017121
 20
1721.617829478101
 30
0.0
 11
10539.00757582455
 21
1813.316745131449
 31
0.0
  0
LINE
  5
27BD6
330
747D
100
AcDbEntity
  8
細線
 48
50.0
100
AcDbLine
 10
10458.93287547275
 20
1697.617829478099
 30
0.0
 11
10452.50209485441
 21
1721.617829478099
 31
0.0
  0
LINE
  5
27BD7
330
747D
100
AcDbEntity
  8
細線
100
AcDbLine
 10
10413.36753467425
 20
1721.617829478101
 30
0.0
 11
10505.0664503276
 21
1813.316745131449
 31
0.0
  0
LINE
  5
27BD8
330
747D
100
AcDbEntity
  8
細線
 48
50.0
100
AcDbLine
 10
10537.82092042001
 20
1697.617829478098
 30
0.0
 11
10531.39013980166
 21
1721.617829478098
 31
0.0
  0
LINE
  5
27BD9
330
747D
100
AcDbEntity
  8
細線
 48
50.0
100
AcDbLine
 10
10588.84224935441
 20
1593.617829478098
 30
0.0
 11
10623.1397459856
 21
1721.617829478097
 31
0.0
  0
LINE
  5
27BDA
330
747D
100
AcDbEntity
  8
部品1
100
AcDbLine
 10
10660.33114017492
 20
1813.316745131449
 30
0.0
 11
10660.33114017493
 21
1593.617829478099
 31
0.0
  0
LINE
  5
27BDB
330
747D
100
AcDbEntity
  8
細線
 48
50.0
100
AcDbLine
 10
10595.27302997276
 20
1617.617829478098
 30
0.0
 11
10601.70381059111
 21
1593.617829478098
 31
0.0
  0
LINE
  5
27BDC
330
747D
100
AcDbEntity
  8
細線
 48
50.0
100
AcDbLine
 10
10616.70896536725
 20
1697.617829478098
 30
0.0
 11
10610.27818474891
 21
1721.617829478098
 31
0.0
  0
LEADER
  5
27BDD
330
747D
100
AcDbEntity
  8
寸法
 48
50.0
100
AcDbLeader
  3
INABA_S50G
 73
     0
 74
     0
 75
     1
 40
120.0
 41
185.591883092037
 76
     3
 10
10471.05555179084
 20
2053.31674513145
 30
0.0
 10
10504.19375842449
 20
2225.463065812587
 30
0.0
 10
10629.19375842449
 20
2225.463065812587
 30
0.0
340
27BDE
1001
ACAD
1000
DSTYLE
1002
{
1070
    40
1040
1.0
1002
}
  0
MTEXT
  5
27BDE
102
{ACAD_REACTORS
330
27BDD
102
}
330
747D
100
AcDbEntity
  8
寸法
 62
     7
 48
50.0
100
AcDbMText
 10
10654.19375842449
 20
2310.463065812587
 30
0.0
 40
120.0
 41
0.8
 71
     4
 72
     1
  1
\A1;C.B
  7
STYLE1
 73
     1
 44
1.0
1001
ACAD
1000
MTEXTBEGIN
1070
    73
1070
     1
1070
    44
1040
1.0
1070
    74
1070
     0
1000
MTEXTEND
  0
TEXT
  5
27C6F
330
747D
100
AcDbEntity
  8
文字
 62
     7
 48
50.0
100
AcDbText
 10
16307.78595799787
 20
0.1862994167713623
 30
0.0
 40
1.0
  1
at
  7
STYLE2
100
AcDbText
  0
DIMENSION
  5
27C82
330
747D
100
AcDbEntity
  8
寸法
 48
50.0
100
AcDbDimension
  2
*D51
 10
11553.6
 20
7053.395957874895
 30
0.0
 11
11789.64724409448
 21
7053.395957874895
 31
0.0
 70
   160
 71
     5
 42
119.9999999999981
  3
INABA_S40G
100
AcDbAlignedDimension
 13
11433.6
 23
7104.660105106951
 33
0.0
 14
11553.6
 24
7104.660105106951
 34
0.0
100
AcDbRotatedDimension
1001
ACAD
1000
DSTYLE
1002
{
1070
   341
1005
0
1002
}
  0
ENDSEC
  0
SECTION
  2
OBJECTS
  0
DICTIONARY
  5
7471
330
0
100
AcDbDictionary
281
     1
  3
ACAD_COLOR
350
173D2
  3
ACAD_GROUP
350
7472
  3
ACAD_LAYOUT
350
173D3
  3
ACAD_MATERIAL
350
173D1
  3
ACAD_MLINESTYLE
350
7473
  3
ACAD_PLOTSETTINGS
350
173D4
  3
ACAD_PLOTSTYLENAME
350
173CF
  3
ACDBHEADERROUNDTRIPXREC
350
27CB1
  3
AcDbVariableDictionary
350
27788
  3
CONTENTDICTIONARY
350
E71C
  3
DRAWINGVARIABLESDICT
350
F3B9
  0
DICTIONARY
  5
1758F
330
7467
100
AcDbDictionary
280
     1
281
     1
  3
ACAD_LAYERSTATES
360
17590
  0
DICTIONARY
  5
173D2
102
{ACAD_REACTORS
330
7471
102
}
330
7471
100
AcDbDictionary
281
     1
  0
DICTIONARY
  5
7472
102
{ACAD_REACTORS
330
7471
102
}
330
7471
100
AcDbDictionary
281
     1
  3
*A1
350
1D2A9
  0
DICTIONARY
  5
173D3
102
{ACAD_REACTORS
330
7471
102
}
330
7471
100
AcDbDictionary
281
     1
  3
Model
350
173D5
  3
レイアウト1
350
173D6
  0
DICTIONARY
  5
173D1
102
{ACAD_REACTORS
330
7471
102
}
330
7471
100
AcDbDictionary
281
     1
  0
DICTIONARY
  5
7473
102
{ACAD_REACTORS
330
7471
102
}
330
7471
100
AcDbDictionary
281
     1
  3
STANDARD
350
7480
  0
DICTIONARY
  5
173D4
102
{ACAD_REACTORS
330
7471
102
}
330
7471
100
AcDbDictionary
281
     1
  0
ACDBDICTIONARYWDFLT
  5
173CF
102
{ACAD_REACTORS
330
7471
102
}
330
7471
100
AcDbDictionary
281
     1
  3
Normal
350
173D0
100
AcDbDictionaryWithDefault
340
173D0
  0
DICTIONARY
  5
27CB1
102
{ACAD_REACTORS
330
7471
102
}
330
7471
100
AcDbDictionary
281
     1
  3
COLORDICT
350
27CB3
  3
MATERIALDICT
350
27CB2
  0
DICTIONARY
  5
27788
102
{ACAD_REACTORS
330
7471
102
}
330
7471
100
AcDbDictionary
281
     1
  3
DIMASSOC
350
27789
  3
PROJECTNAME
350
2778A
  0
DICTIONARY
  5
E71C
102
{ACAD_REACTORS
330
7471
102
}
330
7471
100
AcDbDictionary
281
     1
  0
DICTIONARY
  5
F3B9
102
{ACAD_REACTORS
330
7471
102
}
330
7471
100
AcDbDictionary
281
     1
1001
DRAWINGVARIABLESXDATA
1000
POLARMODE
1000
1
  0
DICTIONARY
  5
17590
102
{ACAD_REACTORS
330
1758F
102
}
330
1758F
100
AcDbDictionary
281
     1
  0
GROUP
  5
1D2A9
102
{ACAD_REACTORS
330
7472
102
}
330
7472
100
AcDbGroup
300

 70
     1
 71
     1
  0
LAYOUT
  5
173D5
102
{ACAD_XDICTIONARY
360
27CB4
102
}
102
{ACAD_REACTORS
330
173D3
102
}
330
173D3
100
AcDbPlotSettings
  1

  2
Microsoft Office Document Image Writer
  4

  6

 40
0.0
 41
0.0
 42
0.0
 43
0.0
 44
0.0
 45
0.0
 46
0.0
 47
0.0
 48
0.0
 49
0.0
140
0.0
141
0.0
142
1.0
143
1.0
 70
  1712
 72
     0
 73
     0
 74
     0
  7

 75
     0
147
1.0
148
0.0
149
0.0
100
AcDbLayout
  1
Model
 70
     1
 71
     0
 10
0.0
 20
0.0
 11
12.0
 21
9.0
 12
0.0
 22
0.0
 32
0.0
 14
0.0
 24
0.0
 34
0.0
 15
0.0
 25
0.0
 35
0.0
146
0.0
 13
0.0
 23
0.0
 33
0.0
 16
1.0
 26
0.0
 36
0.0
 17
0.0
 27
1.0
 37
0.0
 76
     0
330
747D
  0
LAYOUT
  5
173D6
102
{ACAD_XDICTIONARY
360
27CB6
102
}
102
{ACAD_REACTORS
330
173D3
102
}
330
173D3
100
AcDbPlotSettings
  1

  2
Microsoft Office Document Image Writer
  4

  6

 40
0.0
 41
0.0
 42
0.0
 43
0.0
 44
0.0
 45
0.0
 46
0.0
 47
0.0
 48
0.0
 49
0.0
140
0.0
141
0.0
142
1.0
143
1.0
 70
   688
 72
     0
 73
     0
 74
     5
  7

 75
    16
147
1.0
148
0.0
149
0.0
100
AcDbLayout
  1
レイアウト1
 70
     0
 71
     1
 10
0.0
 20
0.0
 11
420.0
 21
297.0
 12
0.0
 22
0.0
 32
0.0
 14
1.000000000000000E+20
 24
1.000000000000000E+20
 34
1.000000000000000E+20
 15
-1.000000000000000E+20
 25
-1.000000000000000E+20
 35
-1.000000000000000E+20
146
0.0
 13
0.0
 23
0.0
 33
0.0
 16
1.0
 26
0.0
 36
0.0
 17
0.0
 27
1.0
 37
0.0
 76
     0
330
747A
  0
MLINESTYLE
  5
7480
102
{ACAD_REACTORS
330
7473
102
}
330
7473
100
AcDbMlineStyle
  2
STANDARD
 70
     0
  3

 62
     0
 51
90.0
 52
90.0
 71
     2
 49
0.5
 62
   256
  6
BYLAYER
 49
-0.5
 62
   256
  6
BYLAYER
  0
ACDBPLACEHOLDER
  5
173D0
102
{ACAD_REACTORS
330
173CF
102
}
330
173CF
  0
XRECORD
  5
27CB3
102
{ACAD_REACTORS
330
27CB1
102
}
330
27CB1
100
AcDbXrecord
280
     1
340
173D2
  0
XRECORD
  5
27CB2
102
{ACAD_REACTORS
330
27CB1
102
}
330
27CB1
100
AcDbXrecord
280
     1
340
173D1
  0
DICTIONARYVAR
  5
27789
102
{ACAD_REACTORS
330
27788
102
}
330
27788
100
DictionaryVariables
280
     0
  1
1
  0
DICTIONARYVAR
  5
2778A
102
{ACAD_REACTORS
330
27788
102
}
330
27788
100
DictionaryVariables
280
     0
  1

  0
DICTIONARY
  5
27CB4
330
173D5
100
AcDbDictionary
280
     1
281
     1
  3
ACAD_XREC_ROUNDTRIP
360
27CB5
  0
DICTIONARY
  5
27CB6
330
173D6
100
AcDbDictionary
280
     1
281
     1
  3
ACAD_XREC_ROUNDTRIP
360
27CB7
  0
XRECORD
  5
27CB5
102
{ACAD_REACTORS
330
27CB4
102
}
330
27CB4
100
AcDbXrecord
280
     1
102
SHADEPLOT
 70
     0
102
SHADEPLOTRESLEVEL
 70
     2
102
SHADEPLOTCUSTOMDPI
 70
   300
  0
XRECORD
  5
27CB7
102
{ACAD_REACTORS
330
27CB6
102
}
330
27CB6
100
AcDbXrecord
280
     1
102
SHADEPLOT
 70
     0
102
SHADEPLOTRESLEVEL
 70
     2
102
SHADEPLOTCUSTOMDPI
 70
   300
  0
ENDSEC
  0
EOF
