  0
SECTION
  2
HEADER
  9
$ACADVER
  1
AC1015
  9
$ACADMAINTVER
 70
    20
  9
$DWGCODEPAGE
  3
ANSI_932
  9
$INSBASE
 10
0.0
 20
0.0
 30
0.0
  9
$EXTMIN
 10
139.9999999999995
 20
-0.0182460377740923
 30
0.0
  9
$EXTMAX
 10
16308.99050345242
 20
11409.6
 30
0.0
  9
$LIMMIN
 10
0.0
 20
0.0
  9
$LIMMAX
 10
16800.0
 20
11880.0
  9
$ORTHOMODE
 70
     0
  9
$REGENMODE
 70
     1
  9
$FILLMODE
 70
     1
  9
$QTEXTMODE
 70
     0
  9
$MIRRTEXT
 70
     1
  9
$LTSCALE
 40
20.0
  9
$ATTMODE
 70
     1
  9
$TEXTSIZE
 40
4.0
  9
$TRACEWID
 40
1.0
  9
$TEXTSTYLE
  7
STYLE1
  9
$CLAYER
  8
細線
  9
$CELTYPE
  6
BYLAYER
  9
$CECOLOR
 62
   256
  9
$CELTSCALE
 40
50.0
  9
$DISPSILH
 70
     0
  9
$DIMSCALE
 40
40.0
  9
$DIMASZ
 40
2.5
  9
$DIMEXO
 40
0.5
  9
$DIMDLI
 40
7.0
  9
$DIMRND
 40
0.0
  9
$DIMDLE
 40
0.0
  9
$DIMEXE
 40
1.5
  9
$DIMTP
 40
0.0
  9
$DIMTM
 40
0.0
  9
$DIMTXT
 40
3.0
  9
$DIMCEN
 40
0.0
  9
$DIMTSZ
 40
0.0
  9
$DIMTOL
 70
     0
  9
$DIMLIM
 70
     0
  9
$DIMTIH
 70
     0
  9
$DIMTOH
 70
     0
  9
$DIMSE1
 70
     0
  9
$DIMSE2
 70
     0
  9
$DIMTAD
 70
     3
  9
$DIMZIN
 70
     8
  9
$DIMBLK
  1

  9
$DIMASO
 70
     1
  9
$DIMSHO
 70
     1
  9
$DIMPOST
  1

  9
$DIMAPOST
  1

  9
$DIMALT
 70
     0
  9
$DIMALTD
 70
     2
  9
$DIMALTF
 40
0.0394
  9
$DIMLFAC
 40
1.0
  9
$DIMTOFL
 70
     1
  9
$DIMTVP
 40
0.0
  9
$DIMTIX
 70
     1
  9
$DIMSOXD
 70
     0
  9
$DIMSAH
 70
     1
  9
$DIMBLK1
  1
DOTSMALL
  9
$DIMBLK2
  1
DOTSMALL
  9
$DIMSTYLE
  2
INABA_S40G
  9
$DIMCLRD
 70
     0
  9
$DIMCLRE
 70
     0
  9
$DIMCLRT
 70
     7
  9
$DIMTFAC
 40
1.0
  9
$DIMGAP
 40
1.0
  9
$DIMJUST
 70
     0
  9
$DIMSD1
 70
     0
  9
$DIMSD2
 70
     0
  9
$DIMTOLJ
 70
     1
  9
$DIMTZIN
 70
     0
  9
$DIMALTZ
 70
     0
  9
$DIMALTTZ
 70
     0
  9
$DIMUPT
 70
     0
  9
$DIMDEC
 70
     1
  9
$DIMTDEC
 70
     4
  9
$DIMALTU
 70
     2
  9
$DIMALTTD
 70
     2
  9
$DIMTXSTY
  7
STYLE1
  9
$DIMAUNIT
 70
     0
  9
$DIMADEC
 70
     0
  9
$DIMALTRND
 40
0.0
  9
$DIMAZIN
 70
     0
  9
$DIMDSEP
 70
    46
  9
$DIMATFIT
 70
     3
  9
$DIMFRAC
 70
     0
  9
$DIMLDRBLK
  1

  9
$DIMLUNIT
 70
     2
  9
$DIMLWD
 70
    -2
  9
$DIMLWE
 70
    -2
  9
$DIMTMOVE
 70
     0
  9
$LUNITS
 70
     2
  9
$LUPREC
 70
     1
  9
$SKETCHINC
 40
1.0
  9
$FILLETRAD
 40
3.0
  9
$AUNITS
 70
     0
  9
$AUPREC
 70
     0
  9
$MENU
  1
acad
  9
$ELEVATION
 40
0.0
  9
$PELEVATION
 40
0.0
  9
$THICKNESS
 40
0.0
  9
$LIMCHECK
 70
     0
  9
$CHAMFERA
 40
0.0
  9
$CHAMFERB
 40
0.0
  9
$CHAMFERC
 40
0.0
  9
$CHAMFERD
 40
0.0
  9
$SKPOLY
 70
     0
  9
$TDCREATE
 40
2451368.612993866
  9
$TDUCREATE
 40
2451368.237993866
  9
$TDUPDATE
 40
2455827.391303125
  9
$TDUUPDATE
 40
2455827.016303125
  9
$TDINDWG
 40
0.8321465625
  9
$TDUSRTIMER
 40
0.8321465625
  9
$USRTIMER
 70
     1
  9
$ANGBASE
 50
0.0
  9
$ANGDIR
 70
     0
  9
$PDMODE
 70
     3
  9
$PDSIZE
 40
2.0
  9
$PLINEWID
 40
0.0
  9
$SPLFRAME
 70
     0
  9
$SPLINETYPE
 70
     6
  9
$SPLINESEGS
 70
     8
  9
$HANDSEED
  5
27262
  9
$SURFTAB1
 70
     6
  9
$SURFTAB2
 70
     6
  9
$SURFTYPE
 70
     6
  9
$SURFU
 70
     6
  9
$SURFV
 70
     6
  9
$UCSBASE
  2

  9
$UCSNAME
  2

  9
$UCSORG
 10
0.0
 20
0.0
 30
0.0
  9
$UCSXDIR
 10
1.0
 20
0.0
 30
0.0
  9
$UCSYDIR
 10
0.0
 20
1.0
 30
0.0
  9
$UCSORTHOREF
  2

  9
$UCSORTHOVIEW
 70
     0
  9
$UCSORGTOP
 10
0.0
 20
0.0
 30
0.0
  9
$UCSORGBOTTOM
 10
0.0
 20
0.0
 30
0.0
  9
$UCSORGLEFT
 10
0.0
 20
0.0
 30
0.0
  9
$UCSORGRIGHT
 10
0.0
 20
0.0
 30
0.0
  9
$UCSORGFRONT
 10
0.0
 20
0.0
 30
0.0
  9
$UCSORGBACK
 10
0.0
 20
0.0
 30
0.0
  9
$PUCSBASE
  2

  9
$PUCSNAME
  2

  9
$PUCSORG
 10
0.0
 20
0.0
 30
0.0
  9
$PUCSXDIR
 10
1.0
 20
0.0
 30
0.0
  9
$PUCSYDIR
 10
0.0
 20
1.0
 30
0.0
  9
$PUCSORTHOREF
  2

  9
$PUCSORTHOVIEW
 70
     0
  9
$PUCSORGTOP
 10
0.0
 20
0.0
 30
0.0
  9
$PUCSORGBOTTOM
 10
0.0
 20
0.0
 30
0.0
  9
$PUCSORGLEFT
 10
0.0
 20
0.0
 30
0.0
  9
$PUCSORGRIGHT
 10
0.0
 20
0.0
 30
0.0
  9
$PUCSORGFRONT
 10
0.0
 20
0.0
 30
0.0
  9
$PUCSORGBACK
 10
0.0
 20
0.0
 30
0.0
  9
$USERI1
 70
     0
  9
$USERI2
 70
     0
  9
$USERI3
 70
     0
  9
$USERI4
 70
     0
  9
$USERI5
 70
     0
  9
$USERR1
 40
0.0
  9
$USERR2
 40
0.0
  9
$USERR3
 40
0.0
  9
$USERR4
 40
0.0
  9
$USERR5
 40
0.0
  9
$WORLDVIEW
 70
     1
  9
$SHADEDGE
 70
     3
  9
$SHADEDIF
 70
    70
  9
$TILEMODE
 70
     1
  9
$MAXACTVP
 70
    16
  9
$PINSBASE
 10
0.0
 20
0.0
 30
0.0
  9
$PLIMCHECK
 70
     0
  9
$PEXTMIN
 10
1.000000000000000E+20
 20
1.000000000000000E+20
 30
1.000000000000000E+20
  9
$PEXTMAX
 10
-1.000000000000000E+20
 20
-1.000000000000000E+20
 30
-1.000000000000000E+20
  9
$PLIMMIN
 10
0.0
 20
0.0
  9
$PLIMMAX
 10
420.0
 20
297.0
  9
$UNITMODE
 70
     0
  9
$VISRETAIN
 70
     0
  9
$PLINEGEN
 70
     0
  9
$PSLTSCALE
 70
     0
  9
$TREEDEPTH
 70
  3020
  9
$CMLSTYLE
  2
STANDARD
  9
$CMLJUST
 70
     0
  9
$CMLSCALE
 40
1.0
  9
$PROXYGRAPHICS
 70
     1
  9
$MEASUREMENT
 70
     1
  9
$CELWEIGHT
370
    -1
  9
$ENDCAPS
280
     0
  9
$JOINSTYLE
280
     0
  9
$LWDISPLAY
290
     0
  9
$INSUNITS
 70
     0
  9
$HYPERLINKBASE
  1

  9
$STYLESHEET
  1

  9
$XEDIT
290
     1
  9
$CEPSNTYPE
380
     0
  9
$PSTYLEMODE
290
     1
  9
$FINGERPRINTGUID
  2
{5EAC461A-2277-4BF8-9AB0-99C43BB394F0}
  9
$VERSIONGUID
  2
{694A84E5-6A75-4DEE-828D-C09E5095A20B}
  9
$EXTNAMES
290
     1
  9
$PSVPSCALE
 40
0.0
  9
$OLESTARTUP
290
     0
  0
ENDSEC
  0
SECTION
  2
CLASSES
  0
CLASS
  1
ACDBDICTIONARYWDFLT
  2
AcDbDictionaryWithDefault
  3
ObjectDBX Classes
 90
        0
280
     0
281
     0
  0
CLASS
  1
DICTIONARYVAR
  2
AcDbDictionaryVar
  3
ObjectDBX Classes
 90
        0
280
     0
281
     0
  0
CLASS
  1
ACDBPLACEHOLDER
  2
AcDbPlaceHolder
  3
ObjectDBX Classes
 90
        0
280
     0
281
     0
  0
CLASS
  1
LAYOUT
  2
AcDbLayout
  3
ObjectDBX Classes
 90
        0
280
     0
281
     0
  0
ENDSEC
  0
SECTION
  2
TABLES
  0
TABLE
  2
VPORT
  5
746D
330
0
100
AcDbSymbolTable
 70
     2
  0
VPORT
  5
2725A
330
746D
100
AcDbSymbolTableRecord
100
AcDbViewportTableRecord
  2
*Active
 70
     0
 10
0.0
 20
0.0
 11
1.0
 21
1.0
 12
8224.401894379873
 22
5855.776308371822
 13
0.0
 23
0.0
 14
10.0
 24
10.0
 15
10.0
 25
10.0
 16
0.0
 26
0.0
 36
1.0
 17
0.0
 27
0.0
 37
0.0
 40
11800.47982950347
 41
1.522222222222221
 42
50.0
 43
0.0
 44
0.0
 50
0.0
 51
0.0
 71
     0
 72
     0
 73
     1
 74
     0
 75
     0
 76
     0
 77
     0
 78
     0
281
     0
 65
     1
110
0.0
120
0.0
130
0.0
111
1.0
121
0.0
131
0.0
112
0.0
122
1.0
132
0.0
 79
     0
146
0.0
  0
ENDTAB
  0
TABLE
  2
LTYPE
  5
746A
330
0
100
AcDbSymbolTable
 70
     5
  0
LTYPE
  5
7477
330
746A
100
AcDbSymbolTableRecord
100
AcDbLinetypeTableRecord
  2
BYBLOCK
 70
     0
  3

 72
    65
 73
     0
 40
0.0
  0
LTYPE
  5
7478
330
746A
100
AcDbSymbolTableRecord
100
AcDbLinetypeTableRecord
  2
BYLAYER
 70
     0
  3

 72
    65
 73
     0
 40
0.0
  0
LTYPE
  5
7479
330
746A
100
AcDbSymbolTableRecord
100
AcDbLinetypeTableRecord
  2
CONTINUOUS
 70
     0
  3
Solid line
 72
    65
 73
     0
 40
0.0
  0
LTYPE
  5
7816
330
746A
100
AcDbSymbolTableRecord
100
AcDbLinetypeTableRecord
  2
CENTER
 70
     0
  3
____ _ ____ _ ____ _ ____ _ ____ _ ____ _ ____ 
 72
    65
 73
     4
 40
2.0
 49
1.25
 74
     0
 49
-0.25
 74
     0
 49
0.25
 74
     0
 49
-0.25
 74
     0
  0
LTYPE
  5
781A
330
746A
100
AcDbSymbolTableRecord
100
AcDbLinetypeTableRecord
  2
HIDDEN
 70
     0
  3
__ __ __ __ __ __ __ __ __ __ __ __ __ __ __ __
 72
    65
 73
     2
 40
0.375
 49
0.25
 74
     0
 49
-0.125
 74
     0
  0
LTYPE
  5
781B
330
746A
100
AcDbSymbolTableRecord
100
AcDbLinetypeTableRecord
  2
PHANTOM
 70
     0
  3
______  __  __  ______  __  __  ______  __  __ 
 72
    65
 73
     6
 40
2.5
 49
1.25
 74
     0
 49
-0.25
 74
     0
 49
0.25
 74
     0
 49
-0.25
 74
     0
 49
0.25
 74
     0
 49
-0.25
 74
     0
  0
LTYPE
  5
12CC3
330
746A
100
AcDbSymbolTableRecord
100
AcDbLinetypeTableRecord
  2
HIDDENX2
 70
     0
  3
Hidden (2x) ____ ____ ____ ____ ____ ____ ____
 72
    65
 73
     2
 40
19.05
 49
12.7
 74
     0
 49
-6.349999999999999
 74
     0
  0
ENDTAB
  0
TABLE
  2
LAYER
  5
7467
102
{ACAD_XDICTIONARY
360
1758F
102
}
330
0
100
AcDbSymbolTable
 70
    12
  0
LAYER
  5
7474
330
7467
100
AcDbSymbolTableRecord
100
AcDbLayerTableRecord
  2
0
 70
     0
 62
     7
  6
CONTINUOUS
370
    -3
390
173D0
  0
LAYER
  5
DEB2
330
7467
100
AcDbSymbolTableRecord
100
AcDbLayerTableRecord
  2
センター
 70
     0
 62
     3
  6
CENTER
370
    -3
390
173D0
  0
LAYER
  5
DEB3
330
7467
100
AcDbSymbolTableRecord
100
AcDbLayerTableRecord
  2
寸法
 70
     0
 62
     4
  6
CONTINUOUS
370
    -3
390
173D0
  0
LAYER
  5
DEB4
330
7467
100
AcDbSymbolTableRecord
100
AcDbLayerTableRecord
  2
部品1
 70
     0
 62
     7
  6
CONTINUOUS
370
    -3
390
173D0
  0
LAYER
  5
DEB5
330
7467
100
AcDbSymbolTableRecord
100
AcDbLayerTableRecord
  2
補助
 70
     0
 62
    -1
  6
CONTINUOUS
370
    -3
390
173D0
  0
LAYER
  5
DEB6
330
7467
100
AcDbSymbolTableRecord
100
AcDbLayerTableRecord
  2
文字
 70
     0
 62
     7
  6
CONTINUOUS
370
    -3
390
173D0
  0
LAYER
  5
F255
330
7467
100
AcDbSymbolTableRecord
100
AcDbLayerTableRecord
  2
DEFPOINTS
 70
     0
 62
     7
  6
CONTINUOUS
290
     0
370
    -3
390
173D0
  0
LAYER
  5
10B54
330
7467
100
AcDbSymbolTableRecord
100
AcDbLayerTableRecord
  2
仕様書枠
 70
     0
 62
   230
  6
CONTINUOUS
370
    -3
390
173D0
  0
LAYER
  5
11729
330
7467
100
AcDbSymbolTableRecord
100
AcDbLayerTableRecord
  2
Ｇ．Ｌ
 70
     0
 62
    30
  6
CONTINUOUS
370
    -3
390
173D0
  0
LAYER
  5
1173F
330
7467
100
AcDbSymbolTableRecord
100
AcDbLayerTableRecord
  2
細線
 70
     0
 62
     5
  6
CONTINUOUS
370
    -3
390
173D0
  0
LAYER
  5
12CC4
330
7467
100
AcDbSymbolTableRecord
100
AcDbLayerTableRecord
  2
想像線
 70
     0
 62
     6
  6
PHANTOM
370
    -3
390
173D0
  0
LAYER
  5
142E2
330
7467
100
AcDbSymbolTableRecord
100
AcDbLayerTableRecord
  2
破線
 70
     0
 62
     2
  6
HIDDEN
370
    -3
390
173D0
  0
ENDTAB
  0
TABLE
  2
STYLE
  5
7468
330
0
100
AcDbSymbolTable
 70
     7
  0
STYLE
  5
7475
330
7468
100
AcDbSymbolTableRecord
100
AcDbTextStyleTableRecord
  2
STANDARD
 70
     0
 40
0.0
 41
1.0
 50
0.0
 71
     0
 42
4.0
  3
txt
  4
C:\AutoCAD LT\bigfont.shx
  0
STYLE
  5
763C
330
7468
100
AcDbSymbolTableRecord
100
AcDbTextStyleTableRecord
  2
MSMINCHO
 70
     0
 40
0.0
 41
1.0
 50
0.0
 71
     0
 42
1.199999999999999
  3
C:\AutoCAD LT\msminch2.TTF
  4

  0
STYLE
  5
F706
330
7468
100
AcDbSymbolTableRecord
100
AcDbTextStyleTableRecord
  2
STYLE1
 70
     0
 40
0.0
 41
1.0
 50
0.0
 71
     0
 42
4.0
  3
isocp.shx
  4
bigfont.shx
  0
STYLE
  5
103BF
330
7468
100
AcDbSymbolTableRecord
100
AcDbTextStyleTableRecord
  2
STYLE2
 70
     0
 40
0.0
 41
1.0
 50
0.0
 71
     0
 42
100.0
  3
MS PGothic.ttf
  4

1001
ACAD
1000
MS PGothic
1071
    32818
  0
STYLE
  5
10BAA
330
7468
100
AcDbSymbolTableRecord
100
AcDbTextStyleTableRecord
  2
STYLE3
 70
     0
 40
0.0
 41
1.0
 50
0.0
 71
     0
 42
100.0
  3

  4

1001
ACAD
1000
DFPGothic-EB
1071
    32818
  0
STYLE
  5
11A15
330
7468
100
AcDbSymbolTableRecord
100
AcDbTextStyleTableRecord
  2
MSGOTHIC
 70
     0
 40
0.0
 41
1.0
 50
0.0
 71
     0
 42
3.5
  3
msgothi2.ttf
  4

  0
STYLE
  5
13E96
330
7468
100
AcDbSymbolTableRecord
100
AcDbTextStyleTableRecord
  2
MSPゴシック
 70
     0
 40
0.0
 41
1.0
 50
0.0
 71
     0
 42
4.0
  3
MS PGothic.ttf
  4

1001
ACAD
1000
MS PGothic
1071
    32818
  0
ENDTAB
  0
TABLE
  2
VIEW
  5
746B
330
0
100
AcDbSymbolTable
 70
     0
  0
ENDTAB
  0
TABLE
  2
UCS
  5
746C
330
0
100
AcDbSymbolTable
 70
     0
  0
ENDTAB
  0
TABLE
  2
APPID
  5
746E
330
0
100
AcDbSymbolTable
 70
     6
  0
APPID
  5
7476
330
746E
100
AcDbSymbolTableRecord
100
AcDbRegAppTableRecord
  2
ACAD
 70
     0
  0
APPID
  5
DEA9
330
746E
100
AcDbSymbolTableRecord
100
AcDbRegAppTableRecord
  2
CONTENTBLOCKICON
 70
     0
  0
APPID
  5
DEAA
330
746E
100
AcDbSymbolTableRecord
100
AcDbRegAppTableRecord
  2
CONTENTBLOCKDESCRIPTION
 70
     0
  0
APPID
  5
E71D
330
746E
100
AcDbSymbolTableRecord
100
AcDbRegAppTableRecord
  2
CONTENTTABDATA
 70
     0
  0
APPID
  5
E71E
330
746E
100
AcDbSymbolTableRecord
100
AcDbRegAppTableRecord
  2
CONTENTCURRENTTAB
 70
     0
  0
APPID
  5
F3BA
330
746E
100
AcDbSymbolTableRecord
100
AcDbRegAppTableRecord
  2
DRAWINGVARIABLESXDATA
 70
     0
  0
ENDTAB
  0
TABLE
  2
DIMSTYLE
  5
746F
330
0
100
AcDbSymbolTable
 70
     6
100
AcDbDimStyleTable
 71
     1
340
F71F
  0
DIMSTYLE
105
7484
330
746F
100
AcDbSymbolTableRecord
100
AcDbDimStyleTableRecord
  2
JIS
 70
     0
 41
2.5
 42
1.0
 43
7.0
 44
1.0
 73
     0
 74
     0
 77
     1
 78
     8
140
2.5
141
0.0
143
0.0394
147
0.0
172
     1
174
     1
175
     1
340
7475
  0
DIMSTYLE
105
F236
330
746F
100
AcDbSymbolTableRecord
100
AcDbDimStyleTableRecord
  2
INABA_S40
 70
     0
 40
40.0
 41
2.5
 42
0.5
 43
7.0
 44
1.5
 73
     0
 74
     0
 77
     3
 78
     8
140
3.0
141
0.0
143
0.0394
147
1.0
172
     1
173
     1
174
     1
175
     1
178
     7
289
     0
340
7475
341
DEAC
343
DEAC
344
DEAC
  0
DIMSTYLE
105
F71F
102
{ACAD_REACTORS
330
20DE1
330
20DFB
330
22741
330
2275B
330
23FDA
330
23FD9
330
24043
330
268BE
330
2686A
330
26864
330
26840
330
26838
330
267EB
330
267EA
330
267E8
330
267E5
330
267E2
330
267E1
330
267F1
330
26839
330
267F3
330
267F0
330
267EF
330
267FD
330
267E9
330
27089
330
2708A
330
27092
330
27099
330
2709C
330
270FC
102
}
330
746F
100
AcDbSymbolTableRecord
100
AcDbDimStyleTableRecord
  2
INABA_S40G
 70
     0
 40
40.0
 41
2.5
 42
0.5
 43
7.0
 44
1.5
 73
     0
 74
     0
 77
     3
 78
     8
140
3.0
141
0.0
143
0.0394
147
1.0
172
     1
173
     1
174
     1
178
     7
271
     1
340
F706
341
F770
343
F770
344
F770
  0
DIMSTYLE
105
142E3
330
746F
100
AcDbSymbolTableRecord
100
AcDbDimStyleTableRecord
  2
INABA_S1
 70
     0
 40
0.0
 41
2.5
 42
0.5
 43
7.0
 44
1.5
 73
     0
 74
     0
 77
     3
 78
     8
140
3.0
141
0.0
143
0.0394
146
0.5
147
0.5
172
     1
173
     1
176
   256
177
   256
178
     7
271
     2
272
     2
284
     8
288
     1
340
7475
341
DEAC
343
DEAC
344
DEAC
  0
DIMSTYLE
105
14463
330
746F
100
AcDbSymbolTableRecord
100
AcDbDimStyleTableRecord
  2
INABA_S30G
 70
     0
 40
30.0
 41
2.5
 42
0.5
 43
7.0
 44
1.5
 73
     0
 74
     0
 77
     3
 78
     8
140
3.0
141
0.0
143
0.0394
147
1.0
172
     1
173
     1
174
     1
175
     1
178
     7
271
     1
340
F706
341
F770
343
F770
344
F770
  0
DIMSTYLE
105
1758E
330
746F
100
AcDbSymbolTableRecord
100
AcDbDimStyleTableRecord
  2
INABA_S50G
 70
     0
 41
125.0
 42
25.0
 43
7.0
 44
75.0
 73
     0
 74
     0
 77
     3
 78
     8
140
150.0
141
0.0
143
0.0394
147
25.0
172
     1
173
     1
174
     1
175
     1
178
     7
271
     1
340
F706
341
F770
343
F770
344
F770
  0
ENDTAB
  0
TABLE
  2
BLOCK_RECORD
  5
7466
330
0
100
AcDbSymbolTable
 70
    50
  0
BLOCK_RECORD
  5
747D
330
7466
100
AcDbSymbolTableRecord
100
AcDbBlockTableRecord
  2
*MODEL_SPACE
340
173D5
  0
BLOCK_RECORD
  5
747A
330
7466
100
AcDbSymbolTableRecord
100
AcDbBlockTableRecord
  2
*PAPER_SPACE
340
173D6
  0
BLOCK_RECORD
  5
DEAC
330
7466
100
AcDbSymbolTableRecord
100
AcDbBlockTableRecord
  2
_OPEN
340
0
  0
BLOCK_RECORD
  5
F770
330
7466
100
AcDbSymbolTableRecord
100
AcDbBlockTableRecord
  2
_DOTSMALL
340
0
102
{BLKREFS
331
18C65
331
18C66
331
18C59
331
18C5A
331
18C4D
331
18C4E
331
18C41
331
18C42
331
18C35
331
18C36
331
18C29
331
18C2A
331
18C1D
331
18C1E
331
18C0F
331
18C10
331
18C03
331
18C04
331
18BF5
331
18BF6
331
18BE7
331
18BE8
331
18BD9
331
18BDA
331
18BCD
331
18BCE
331
26CB4
331
26CB5
331
26CCF
331
26CD0
331
26CD9
331
26CDA
331
26CFD
331
26CFE
331
26D06
331
26D07
331
26D18
331
26D19
331
26D22
331
26D23
331
26D35
331
26D36
331
26D65
331
26D66
331
26D79
331
26D7A
331
26D84
331
26D85
331
26D8F
331
26D90
331
26D9A
331
26D9B
331
26DBE
331
26DBF
331
26DC7
331
26DC8
331
26DE4
331
26DE5
331
26DF6
331
26DF7
331
26E08
331
26E09
331
26E1A
331
26E1B
331
26E23
331
26E24
331
26E2C
331
26E2D
331
26E35
331
26E36
331
26E3E
331
26E3F
331
26EB5
331
26EB6
331
26ED4
331
26ED5
331
27202
331
27203
331
2720D
331
2720E
331
27216
331
27217
331
2721F
331
27220
331
27228
331
27229
331
27231
331
27232
102
}
  0
BLOCK_RECORD
  5
164B4
330
7466
100
AcDbSymbolTableRecord
100
AcDbBlockTableRecord
  2
_DOT
340
0
102
{BLKREFS
331
18C73
331
18C74
102
}
  0
BLOCK_RECORD
  5
18BC8
330
7466
100
AcDbSymbolTableRecord
100
AcDbBlockTableRecord
  2
*D3
340
0
  0
BLOCK_RECORD
  5
18BD4
330
7466
100
AcDbSymbolTableRecord
100
AcDbBlockTableRecord
  2
*D4
340
0
  0
BLOCK_RECORD
  5
18BE0
330
7466
100
AcDbSymbolTableRecord
100
AcDbBlockTableRecord
  2
*D5
340
0
  0
BLOCK_RECORD
  5
18BEE
330
7466
100
AcDbSymbolTableRecord
100
AcDbBlockTableRecord
  2
*D6
340
0
  0
BLOCK_RECORD
  5
18BFC
330
7466
100
AcDbSymbolTableRecord
100
AcDbBlockTableRecord
  2
*D7
340
0
  0
BLOCK_RECORD
  5
18C0A
330
7466
100
AcDbSymbolTableRecord
100
AcDbBlockTableRecord
  2
*D8
340
0
  0
BLOCK_RECORD
  5
18C16
330
7466
100
AcDbSymbolTableRecord
100
AcDbBlockTableRecord
  2
*D9
340
0
  0
BLOCK_RECORD
  5
18C24
330
7466
100
AcDbSymbolTableRecord
100
AcDbBlockTableRecord
  2
*D10
340
0
  0
BLOCK_RECORD
  5
18C30
330
7466
100
AcDbSymbolTableRecord
100
AcDbBlockTableRecord
  2
*D11
340
0
  0
BLOCK_RECORD
  5
18C3C
330
7466
100
AcDbSymbolTableRecord
100
AcDbBlockTableRecord
  2
*D12
340
0
  0
BLOCK_RECORD
  5
18C48
330
7466
100
AcDbSymbolTableRecord
100
AcDbBlockTableRecord
  2
*D13
340
0
  0
BLOCK_RECORD
  5
18C54
330
7466
100
AcDbSymbolTableRecord
100
AcDbBlockTableRecord
  2
*D14
340
0
  0
BLOCK_RECORD
  5
18C60
330
7466
100
AcDbSymbolTableRecord
100
AcDbBlockTableRecord
  2
*D15
340
0
  0
BLOCK_RECORD
  5
18C6C
330
7466
100
AcDbSymbolTableRecord
100
AcDbBlockTableRecord
  2
*D16
340
0
  0
BLOCK_RECORD
  5
18C7A
330
7466
100
AcDbSymbolTableRecord
100
AcDbBlockTableRecord
  2
A$C3B1A506B
340
0
  0
BLOCK_RECORD
  5
1C4CA
330
7466
100
AcDbSymbolTableRecord
100
AcDbBlockTableRecord
  2
_NONE
340
0
  0
BLOCK_RECORD
  5
20DE2
330
7466
100
AcDbSymbolTableRecord
100
AcDbBlockTableRecord
  2
*D19
340
0
  0
BLOCK_RECORD
  5
20DFC
330
7466
100
AcDbSymbolTableRecord
100
AcDbBlockTableRecord
  2
*D20
340
0
  0
BLOCK_RECORD
  5
22742
330
7466
100
AcDbSymbolTableRecord
100
AcDbBlockTableRecord
  2
*D21
340
0
  0
BLOCK_RECORD
  5
2275C
330
7466
100
AcDbSymbolTableRecord
100
AcDbBlockTableRecord
  2
*D22
340
0
  0
BLOCK_RECORD
  5
240C4
330
7466
100
AcDbSymbolTableRecord
100
AcDbBlockTableRecord
  2
*D23
340
0
  0
BLOCK_RECORD
  5
240D1
330
7466
100
AcDbSymbolTableRecord
100
AcDbBlockTableRecord
  2
*D24
340
0
  0
BLOCK_RECORD
  5
240DE
330
7466
100
AcDbSymbolTableRecord
100
AcDbBlockTableRecord
  2
*D25
340
0
  0
BLOCK_RECORD
  5
268CE
330
7466
100
AcDbSymbolTableRecord
100
AcDbBlockTableRecord
  2
*D26
340
0
  0
BLOCK_RECORD
  5
268DA
330
7466
100
AcDbSymbolTableRecord
100
AcDbBlockTableRecord
  2
*D27
340
0
  0
BLOCK_RECORD
  5
268E6
330
7466
100
AcDbSymbolTableRecord
100
AcDbBlockTableRecord
  2
*D28
340
0
  0
BLOCK_RECORD
  5
268F2
330
7466
100
AcDbSymbolTableRecord
100
AcDbBlockTableRecord
  2
*D29
340
0
  0
BLOCK_RECORD
  5
268FD
330
7466
100
AcDbSymbolTableRecord
100
AcDbBlockTableRecord
  2
*D30
340
0
  0
BLOCK_RECORD
  5
26909
330
7466
100
AcDbSymbolTableRecord
100
AcDbBlockTableRecord
  2
*D31
340
0
  0
BLOCK_RECORD
  5
26915
330
7466
100
AcDbSymbolTableRecord
100
AcDbBlockTableRecord
  2
*D32
340
0
  0
BLOCK_RECORD
  5
26920
330
7466
100
AcDbSymbolTableRecord
100
AcDbBlockTableRecord
  2
*D33
340
0
  0
BLOCK_RECORD
  5
2692C
330
7466
100
AcDbSymbolTableRecord
100
AcDbBlockTableRecord
  2
*D34
340
0
  0
BLOCK_RECORD
  5
26938
330
7466
100
AcDbSymbolTableRecord
100
AcDbBlockTableRecord
  2
*D35
340
0
  0
BLOCK_RECORD
  5
26950
330
7466
100
AcDbSymbolTableRecord
100
AcDbBlockTableRecord
  2
*D36
340
0
  0
BLOCK_RECORD
  5
2696A
330
7466
100
AcDbSymbolTableRecord
100
AcDbBlockTableRecord
  2
*D37
340
0
  0
BLOCK_RECORD
  5
26983
330
7466
100
AcDbSymbolTableRecord
100
AcDbBlockTableRecord
  2
*D38
340
0
  0
BLOCK_RECORD
  5
26990
330
7466
100
AcDbSymbolTableRecord
100
AcDbBlockTableRecord
  2
*D39
340
0
  0
BLOCK_RECORD
  5
269A7
330
7466
100
AcDbSymbolTableRecord
100
AcDbBlockTableRecord
  2
*D40
340
0
  0
BLOCK_RECORD
  5
269BF
330
7466
100
AcDbSymbolTableRecord
100
AcDbBlockTableRecord
  2
*D41
340
0
  0
BLOCK_RECORD
  5
269CB
330
7466
100
AcDbSymbolTableRecord
100
AcDbBlockTableRecord
  2
*D42
340
0
  0
BLOCK_RECORD
  5
269E4
330
7466
100
AcDbSymbolTableRecord
100
AcDbBlockTableRecord
  2
*D43
340
0
  0
BLOCK_RECORD
  5
271B5
330
7466
100
AcDbSymbolTableRecord
100
AcDbBlockTableRecord
  2
*D44
340
0
  0
BLOCK_RECORD
  5
271C1
330
7466
100
AcDbSymbolTableRecord
100
AcDbBlockTableRecord
  2
*D45
340
0
  0
BLOCK_RECORD
  5
271CF
330
7466
100
AcDbSymbolTableRecord
100
AcDbBlockTableRecord
  2
*D46
340
0
  0
BLOCK_RECORD
  5
271DB
330
7466
100
AcDbSymbolTableRecord
100
AcDbBlockTableRecord
  2
*D47
340
0
  0
BLOCK_RECORD
  5
271E7
330
7466
100
AcDbSymbolTableRecord
100
AcDbBlockTableRecord
  2
*D48
340
0
  0
BLOCK_RECORD
  5
271F3
330
7466
100
AcDbSymbolTableRecord
100
AcDbBlockTableRecord
  2
*D49
340
0
  0
ENDTAB
  0
ENDSEC
  0
SECTION
  2
BLOCKS
  0
BLOCK
  5
7489
330
747D
100
AcDbEntity
  8
0
100
AcDbBlockBegin
  2
*MODEL_SPACE
 70
     0
 10
0.0
 20
0.0
 30
0.0
  3
*MODEL_SPACE
  1

  0
ENDBLK
  5
748A
330
747D
100
AcDbEntity
  8
0
100
AcDbBlockEnd
  0
BLOCK
  5
7487
330
747A
100
AcDbEntity
 67
     1
  8
0
100
AcDbBlockBegin
  2
*PAPER_SPACE
 70
     0
 10
0.0
 20
0.0
 30
0.0
  3
*PAPER_SPACE
  1

  0
ENDBLK
  5
7488
330
747A
100
AcDbEntity
 67
     1
  8
0
100
AcDbBlockEnd
  0
BLOCK
  5
DEAD
330
DEAC
100
AcDbEntity
  8
0
100
AcDbBlockBegin
  2
_OPEN
 70
     0
 10
0.0
 20
0.0
 30
0.0
  3
_OPEN
  1

  0
LINE
  5
DEAE
330
DEAC
100
AcDbEntity
  8
0
  6
ByBlock
 62
     0
100
AcDbLine
 10
-1.0
 20
0.1666666666666666
 30
0.0
 11
0.0
 21
0.0
 31
0.0
  0
LINE
  5
DEAF
330
DEAC
100
AcDbEntity
  8
0
  6
ByBlock
 62
     0
100
AcDbLine
 10
0.0
 20
0.0
 30
0.0
 11
-1.0
 21
-0.1666666666666666
 31
0.0
  0
LINE
  5
DEB0
330
DEAC
100
AcDbEntity
  8
0
  6
ByBlock
 62
     0
100
AcDbLine
 10
0.0
 20
0.0
 30
0.0
 11
-1.0
 21
0.0
 31
0.0
  0
ENDBLK
  5
DEB1
330
DEAC
100
AcDbEntity
  8
0
100
AcDbBlockEnd
  0
BLOCK
  5
F771
330
F770
100
AcDbEntity
  8
0
 48
50.0
100
AcDbBlockBegin
  2
_DOTSMALL
 70
     0
 10
0.0
 20
0.0
 30
0.0
  3
_DOTSMALL
  1

  0
LWPOLYLINE
  5
F772
330
F770
100
AcDbEntity
  8
0
  6
ByBlock
 62
     0
 48
50.0
100
AcDbPolyline
 90
        2
 70
     1
 43
0.5
 10
-0.0625
 20
0.0
 42
1.0
 10
0.0625
 20
0.0
 42
1.0
  0
ENDBLK
  5
F776
330
F770
100
AcDbEntity
  8
0
 48
50.0
100
AcDbBlockEnd
  0
BLOCK
  5
164BA
330
164B4
100
AcDbEntity
  8
0
 48
50.0
100
AcDbBlockBegin
  2
_DOT
 70
     0
 10
0.0
 20
0.0
 30
0.0
  3
_DOT
  1

  0
LWPOLYLINE
  5
164B5
330
164B4
100
AcDbEntity
  8
0
  6
ByBlock
 62
     0
 48
50.0
100
AcDbPolyline
 90
        2
 70
     1
 43
0.5
 10
-0.25
 20
0.0
 42
1.0
 10
0.25
 20
0.0
 42
1.0
  0
LINE
  5
164B9
330
164B4
100
AcDbEntity
  8
0
  6
ByBlock
 62
     0
 48
50.0
100
AcDbLine
 10
-0.5
 20
0.0
 30
0.0
 11
-1.0
 21
0.0
 31
0.0
  0
ENDBLK
  5
164BB
330
164B4
100
AcDbEntity
  8
0
 48
50.0
100
AcDbBlockEnd
  0
BLOCK
  5
18BC9
330
18BC8
100
AcDbEntity
  8
0
 48
50.0
100
AcDbBlockBegin
  2
*D3
 70
     1
 10
0.0
 20
0.0
 30
0.0
  3
*D3
  1

  0
LINE
  5
18BCA
330
18BC8
100
AcDbEntity
  8
寸法
 62
     0
 48
50.0
370
    -2
100
AcDbLine
 10
7649.896575106999
 20
9636.123139034717
 30
0.0
 11
8702.429862581047
 21
9636.123139034717
 31
0.0
  0
LINE
  5
18BCB
330
18BC8
100
AcDbEntity
  8
寸法
 62
     0
 48
50.0
370
    -2
100
AcDbLine
 10
7649.896575106973
 20
7846.123139034709
 30
0.0
 11
8702.429862581047
 21
7846.123139034709
 31
0.0
  0
LINE
  5
18BCC
330
18BC8
100
AcDbEntity
  8
寸法
 62
     0
 48
50.0
370
    -2
100
AcDbLine
 10
8642.429862581046
 20
9636.123139034717
 30
0.0
 11
8642.429862581046
 21
7846.123139034709
 31
0.0
  0
INSERT
  5
18BCD
330
18BC8
100
AcDbEntity
  8
寸法
 62
     0
 48
50.0
370
    -2
100
AcDbBlockReference
  2
_DOTSMALL
 10
8642.429862581046
 20
9636.123139034717
 30
0.0
 41
100.0
 42
100.0
 43
100.0
 50
90.0
  0
INSERT
  5
18BCE
330
18BC8
100
AcDbEntity
  8
寸法
 62
     0
 48
50.0
370
    -2
100
AcDbBlockReference
  2
_DOTSMALL
 10
8642.429862581046
 20
7846.123139034709
 30
0.0
 41
100.0
 42
100.0
 43
100.0
 50
270.0
  0
MTEXT
  5
18BCF
330
18BC8
100
AcDbEntity
  8
寸法
 62
     7
 48
50.0
100
AcDbMText
 10
8542.429862581045
 20
8741.123139034712
 30
0.0
 40
120.0
 41
0.0
 71
     5
 72
     1
  1
\A1;1790
  7
STYLE1
 11
0.0000000000000001
 21
1.0
 31
0.0
 73
     1
 44
1.0
1001
ACAD
1000
MTEXTBEGIN
1070
    73
1070
     1
1070
    44
1040
1.0
1070
    74
1070
     0
1000
MTEXTEND
  0
POINT
  5
18BD0
330
18BC8
100
AcDbEntity
  8
DEFPOINTS
 62
     0
 48
50.0
100
AcDbPoint
 10
7629.896575106998
 20
9636.123139034717
 30
0.0
  0
POINT
  5
18BD1
330
18BC8
100
AcDbEntity
  8
DEFPOINTS
 62
     0
 48
50.0
100
AcDbPoint
 10
7629.896575106974
 20
7846.123139034709
 30
0.0
  0
POINT
  5
18BD2
330
18BC8
100
AcDbEntity
  8
DEFPOINTS
 62
     0
 48
50.0
100
AcDbPoint
 10
8642.429862581046
 20
7846.123139034709
 30
0.0
  0
ENDBLK
  5
18BD3
330
18BC8
100
AcDbEntity
  8
0
 48
50.0
100
AcDbBlockEnd
  0
BLOCK
  5
18BD5
330
18BD4
100
AcDbEntity
  8
0
 48
50.0
100
AcDbBlockBegin
  2
*D4
 70
     1
 10
0.0
 20
0.0
 30
0.0
  3
*D4
  1

  0
LINE
  5
18BD6
330
18BD4
100
AcDbEntity
  8
寸法
 62
     0
 48
50.0
370
    -2
100
AcDbLine
 10
4214.896575106998
 20
9656.123139034622
 30
0.0
 11
4214.896575106998
 21
10211.93135865972
 31
0.0
  0
LINE
  5
18BD7
330
18BD4
100
AcDbEntity
  8
寸法
 62
     0
 48
50.0
370
    -2
100
AcDbLine
 10
7574.896575106999
 20
9656.123139034718
 30
0.0
 11
7574.896575106999
 21
10211.93135865972
 31
0.0
  0
LINE
  5
18BD8
330
18BD4
100
AcDbEntity
  8
寸法
 62
     0
 48
50.0
370
    -2
100
AcDbLine
 10
4214.896575106998
 20
10151.93135865972
 30
0.0
 11
7574.896575106999
 21
10151.93135865972
 31
0.0
  0
INSERT
  5
18BD9
330
18BD4
100
AcDbEntity
  8
寸法
 62
     0
 48
50.0
370
    -2
100
AcDbBlockReference
  2
_DOTSMALL
 10
4214.896575106998
 20
10151.93135865972
 30
0.0
 41
100.0
 42
100.0
 43
100.0
 50
180.0
  0
INSERT
  5
18BDA
330
18BD4
100
AcDbEntity
  8
寸法
 62
     0
 48
50.0
370
    -2
100
AcDbBlockReference
  2
_DOTSMALL
 10
7574.896575106999
 20
10151.93135865972
 30
0.0
 41
100.0
 42
100.0
 43
100.0
  0
MTEXT
  5
18BDB
330
18BD4
100
AcDbEntity
  8
寸法
 62
     7
 48
50.0
100
AcDbMText
 10
5894.896575106997
 20
10251.94316968334
 30
0.0
 40
120.0
 41
0.0
 71
     5
 72
     1
  1
\A1;8X420=3360
  7
STYLE1
 73
     1
 44
1.0
1001
ACAD
1000
MTEXTBEGIN
1070
    73
1070
     1
1070
    44
1040
1.0
1070
    74
1070
     0
1000
MTEXTEND
  0
POINT
  5
18BDC
330
18BD4
100
AcDbEntity
  8
DEFPOINTS
 62
     0
 48
50.0
100
AcDbPoint
 10
4214.896575106998
 20
9636.123139034623
 30
0.0
  0
POINT
  5
18BDD
330
18BD4
100
AcDbEntity
  8
DEFPOINTS
 62
     0
 48
50.0
100
AcDbPoint
 10
7574.896575106999
 20
9636.123139034717
 30
0.0
  0
POINT
  5
18BDE
330
18BD4
100
AcDbEntity
  8
DEFPOINTS
 62
     0
 48
50.0
100
AcDbPoint
 10
7574.896575106999
 20
10151.93135865972
 30
0.0
  0
ENDBLK
  5
18BDF
330
18BD4
100
AcDbEntity
  8
0
 48
50.0
100
AcDbBlockEnd
  0
BLOCK
  5
18BE1
330
18BE0
100
AcDbEntity
  8
0
 48
50.0
100
AcDbBlockBegin
  2
*D5
 70
     1
 10
0.0
 20
0.0
 30
0.0
  3
*D5
  1

  0
LINE
  5
18BE2
330
18BE0
100
AcDbEntity
  8
寸法
 62
     0
 48
50.0
370
    -2
100
AcDbLine
 10
7574.896575106999
 20
9656.123139034718
 30
0.0
 11
7574.896575106999
 21
10211.9313586597
 31
0.0
  0
LINE
  5
18BE3
330
18BE0
100
AcDbEntity
  8
寸法
 62
     0
 48
50.0
370
    -2
100
AcDbLine
 10
7629.896575106998
 20
9656.123139034718
 30
0.0
 11
7629.896575106998
 21
10211.9313586597
 31
0.0
  0
LINE
  5
18BE4
330
18BE0
100
AcDbEntity
  8
寸法
 62
     0
 48
50.0
370
    -2
100
AcDbLine
 10
7574.896575106999
 20
10151.9313586597
 30
0.0
 11
7474.896575106999
 21
10151.9313586597
 31
0.0
  0
LINE
  5
18BE5
330
18BE0
100
AcDbEntity
  8
寸法
 62
     0
 48
50.0
370
    -2
100
AcDbLine
 10
7629.896575106998
 20
10151.9313586597
 30
0.0
 11
8046.867137855477
 21
10151.9313586597
 31
0.0
  0
LINE
  5
18BE6
330
18BE0
100
AcDbEntity
  8
寸法
 62
     0
 48
50.0
370
    -2
100
AcDbLine
 10
7574.896575106999
 20
10151.9313586597
 30
0.0
 11
7629.896575106998
 21
10151.9313586597
 31
0.0
  0
INSERT
  5
18BE7
330
18BE0
100
AcDbEntity
  8
寸法
 62
     0
 48
50.0
370
    -2
100
AcDbBlockReference
  2
_DOTSMALL
 10
7574.896575106999
 20
10151.9313586597
 30
0.0
 41
100.0
 42
100.0
 43
100.0
  0
INSERT
  5
18BE8
330
18BE0
100
AcDbEntity
  8
寸法
 62
     0
 48
50.0
370
    -2
100
AcDbBlockReference
  2
_DOTSMALL
 10
7629.896575106998
 20
10151.9313586597
 30
0.0
 41
100.0
 42
100.0
 43
100.0
 50
180.0
  0
MTEXT
  5
18BE9
330
18BE0
100
AcDbEntity
  8
寸法
 62
     7
 48
50.0
100
AcDbMText
 10
7938.381856481237
 20
10251.9313586597
 30
0.0
 40
120.0
 41
0.0
 71
     5
 72
     1
  1
\A1;55
  7
STYLE1
 73
     1
 44
1.0
1001
ACAD
1000
MTEXTBEGIN
1070
    73
1070
     1
1070
    44
1040
1.0
1070
    74
1070
     0
1000
MTEXTEND
  0
POINT
  5
18BEA
330
18BE0
100
AcDbEntity
  8
DEFPOINTS
 62
     0
 48
50.0
100
AcDbPoint
 10
7574.896575106999
 20
9636.123139034717
 30
0.0
  0
POINT
  5
18BEB
330
18BE0
100
AcDbEntity
  8
DEFPOINTS
 62
     0
 48
50.0
100
AcDbPoint
 10
7629.896575106998
 20
9636.123139034717
 30
0.0
  0
POINT
  5
18BEC
330
18BE0
100
AcDbEntity
  8
DEFPOINTS
 62
     0
 48
50.0
100
AcDbPoint
 10
7629.896575106998
 20
10151.9313586597
 30
0.0
  0
ENDBLK
  5
18BED
330
18BE0
100
AcDbEntity
  8
0
 48
50.0
100
AcDbBlockEnd
  0
BLOCK
  5
18BEF
330
18BEE
100
AcDbEntity
  8
0
 48
50.0
100
AcDbBlockBegin
  2
*D6
 70
     1
 10
0.0
 20
0.0
 30
0.0
  3
*D6
  1

  0
LINE
  5
18BF0
330
18BEE
100
AcDbEntity
  8
寸法
 62
     0
 48
50.0
370
    -2
100
AcDbLine
 10
7649.896575106999
 20
9636.123139034717
 30
0.0
 11
8337.32292084141
 21
9636.123139034717
 31
0.0
  0
LINE
  5
18BF1
330
18BEE
100
AcDbEntity
  8
寸法
 62
     0
 48
50.0
370
    -2
100
AcDbLine
 10
7649.896575106999
 20
9581.123139034721
 30
0.0
 11
8337.32292084141
 21
9581.123139034721
 31
0.0
  0
LINE
  5
18BF2
330
18BEE
100
AcDbEntity
  8
寸法
 62
     0
 48
50.0
370
    -2
100
AcDbLine
 10
8277.322920841411
 20
9581.123139034721
 30
0.0
 11
8277.322920841411
 21
9481.123139034719
 31
0.0
  0
LINE
  5
18BF3
330
18BEE
100
AcDbEntity
  8
寸法
 62
     0
 48
50.0
370
    -2
100
AcDbLine
 10
8277.322920841411
 20
9636.123139034717
 30
0.0
 11
8277.322920841411
 21
10053.09370178319
 31
0.0
  0
LINE
  5
18BF4
330
18BEE
100
AcDbEntity
  8
寸法
 62
     0
 48
50.0
370
    -2
100
AcDbLine
 10
8277.322920841411
 20
9581.123139034721
 30
0.0
 11
8277.322920841411
 21
9636.123139034717
 31
0.0
  0
INSERT
  5
18BF5
330
18BEE
100
AcDbEntity
  8
寸法
 62
     0
 48
50.0
370
    -2
100
AcDbBlockReference
  2
_DOTSMALL
 10
8277.322920841411
 20
9581.123139034721
 30
0.0
 41
100.0
 42
100.0
 43
100.0
 50
90.0
  0
INSERT
  5
18BF6
330
18BEE
100
AcDbEntity
  8
寸法
 62
     0
 48
50.0
370
    -2
100
AcDbBlockReference
  2
_DOTSMALL
 10
8277.322920841411
 20
9636.123139034717
 30
0.0
 41
100.0
 42
100.0
 43
100.0
 50
270.0
  0
MTEXT
  5
18BF7
330
18BEE
100
AcDbEntity
  8
寸法
 62
     7
 48
50.0
100
AcDbMText
 10
8177.32292084141
 20
9944.608420408957
 30
0.0
 40
120.0
 41
0.0
 71
     5
 72
     1
  1
\A1;55
  7
STYLE1
 11
0.0000000000000001
 21
1.0
 31
0.0
 73
     1
 44
1.0
1001
ACAD
1000
MTEXTBEGIN
1070
    73
1070
     1
1070
    44
1040
1.0
1070
    74
1070
     0
1000
MTEXTEND
  0
POINT
  5
18BF8
330
18BEE
100
AcDbEntity
  8
DEFPOINTS
 62
     0
 48
50.0
100
AcDbPoint
 10
7629.896575106998
 20
9636.123139034717
 30
0.0
  0
POINT
  5
18BF9
330
18BEE
100
AcDbEntity
  8
DEFPOINTS
 62
     0
 48
50.0
100
AcDbPoint
 10
7629.896575106998
 20
9581.123139034721
 30
0.0
  0
POINT
  5
18BFA
330
18BEE
100
AcDbEntity
  8
DEFPOINTS
 62
     0
 48
50.0
100
AcDbPoint
 10
8277.322920841411
 20
9581.123139034721
 30
0.0
  0
ENDBLK
  5
18BFB
330
18BEE
100
AcDbEntity
  8
0
 48
50.0
100
AcDbBlockEnd
  0
BLOCK
  5
18BFD
330
18BFC
100
AcDbEntity
  8
0
 48
50.0
100
AcDbBlockBegin
  2
*D7
 70
     1
 10
0.0
 20
0.0
 30
0.0
  3
*D7
  1

  0
LINE
  5
18BFE
330
18BFC
100
AcDbEntity
  8
寸法
 62
     0
 48
50.0
370
    -2
100
AcDbLine
 10
4159.896575106963
 20
9656.123139034622
 30
0.0
 11
4159.896575106963
 21
10211.9313586596
 31
0.0
  0
LINE
  5
18BFF
330
18BFC
100
AcDbEntity
  8
寸法
 62
     0
 48
50.0
370
    -2
100
AcDbLine
 10
4214.896575106998
 20
9656.123139034622
 30
0.0
 11
4214.896575106998
 21
10211.9313586596
 31
0.0
  0
LINE
  5
18C00
330
18BFC
100
AcDbEntity
  8
寸法
 62
     0
 48
50.0
370
    -2
100
AcDbLine
 10
4214.896575106998
 20
10151.9313586596
 30
0.0
 11
4314.896575106998
 21
10151.9313586596
 31
0.0
  0
LINE
  5
18C01
330
18BFC
100
AcDbEntity
  8
寸法
 62
     0
 48
50.0
370
    -2
100
AcDbLine
 10
4159.896575106963
 20
10151.9313586596
 30
0.0
 11
3742.926012358486
 21
10151.9313586596
 31
0.0
  0
LINE
  5
18C02
330
18BFC
100
AcDbEntity
  8
寸法
 62
     0
 48
50.0
370
    -2
100
AcDbLine
 10
4214.896575106998
 20
10151.9313586596
 30
0.0
 11
4159.896575106963
 21
10151.9313586596
 31
0.0
  0
INSERT
  5
18C03
330
18BFC
100
AcDbEntity
  8
寸法
 62
     0
 48
50.0
370
    -2
100
AcDbBlockReference
  2
_DOTSMALL
 10
4214.896575106998
 20
10151.9313586596
 30
0.0
 41
100.0
 42
100.0
 43
100.0
 50
180.0
  0
INSERT
  5
18C04
330
18BFC
100
AcDbEntity
  8
寸法
 62
     0
 48
50.0
370
    -2
100
AcDbBlockReference
  2
_DOTSMALL
 10
4159.896575106963
 20
10151.9313586596
 30
0.0
 41
100.0
 42
100.0
 43
100.0
  0
MTEXT
  5
18C05
330
18BFC
100
AcDbEntity
  8
寸法
 62
     7
 48
50.0
100
AcDbMText
 10
3851.411293732725
 20
10251.9313586596
 30
0.0
 40
120.0
 41
0.0
 71
     5
 72
     1
  1
\A1;55
  7
STYLE1
 73
     1
 44
1.0
1001
ACAD
1000
MTEXTBEGIN
1070
    73
1070
     1
1070
    44
1040
1.0
1070
    74
1070
     0
1000
MTEXTEND
  0
POINT
  5
18C06
330
18BFC
100
AcDbEntity
  8
DEFPOINTS
 62
     0
 48
50.0
100
AcDbPoint
 10
4159.896575106963
 20
9636.123139034623
 30
0.0
  0
POINT
  5
18C07
330
18BFC
100
AcDbEntity
  8
DEFPOINTS
 62
     0
 48
50.0
100
AcDbPoint
 10
4214.896575106998
 20
9636.123139034623
 30
0.0
  0
POINT
  5
18C08
330
18BFC
100
AcDbEntity
  8
DEFPOINTS
 62
     0
 48
50.0
100
AcDbPoint
 10
4214.896575106998
 20
10151.9313586596
 30
0.0
  0
ENDBLK
  5
18C09
330
18BFC
100
AcDbEntity
  8
0
 48
50.0
100
AcDbBlockEnd
  0
BLOCK
  5
18C0B
330
18C0A
100
AcDbEntity
  8
0
 48
50.0
100
AcDbBlockBegin
  2
*D8
 70
     1
 10
0.0
 20
0.0
 30
0.0
  3
*D8
  1

  0
LINE
  5
18C0C
330
18C0A
100
AcDbEntity
  8
寸法
 62
     0
 48
50.0
370
    -2
100
AcDbLine
 10
4159.896575106992
 20
7826.123139034546
 30
0.0
 11
4159.896575106992
 21
6804.372203245664
 31
0.0
  0
LINE
  5
18C0D
330
18C0A
100
AcDbEntity
  8
寸法
 62
     0
 48
50.0
370
    -2
100
AcDbLine
 10
7629.896575106974
 20
7826.123139034674
 30
0.0
 11
7629.896575106974
 21
6804.372203245664
 31
0.0
  0
LINE
  5
18C0E
330
18C0A
100
AcDbEntity
  8
寸法
 62
     0
 48
50.0
370
    -2
100
AcDbLine
 10
4159.896575106992
 20
6864.372203245665
 30
0.0
 11
7629.896575106974
 21
6864.372203245665
 31
0.0
  0
INSERT
  5
18C0F
330
18C0A
100
AcDbEntity
  8
寸法
 62
     0
 48
50.0
370
    -2
100
AcDbBlockReference
  2
_DOTSMALL
 10
4159.896575106992
 20
6864.372203245665
 30
0.0
 41
100.0
 42
100.0
 43
100.0
 50
180.0
  0
INSERT
  5
18C10
330
18C0A
100
AcDbEntity
  8
寸法
 62
     0
 48
50.0
370
    -2
100
AcDbBlockReference
  2
_DOTSMALL
 10
7629.896575106974
 20
6864.372203245665
 30
0.0
 41
100.0
 42
100.0
 43
100.0
  0
MTEXT
  5
18C11
330
18C0A
100
AcDbEntity
  8
寸法
 62
     7
 48
50.0
100
AcDbMText
 10
5911.12376113973
 20
6964.372203245665
 30
0.0
 40
120.0
 41
0.0
 71
     5
 72
     1
  1
\A1;3470
  7
STYLE1
 73
     1
 44
1.0
1001
ACAD
1000
MTEXTBEGIN
1070
    73
1070
     1
1070
    44
1040
1.0
1070
    74
1070
     0
1000
MTEXTEND
  0
POINT
  5
18C12
330
18C0A
100
AcDbEntity
  8
DEFPOINTS
 62
     0
 48
50.0
100
AcDbPoint
 10
4159.896575106992
 20
7846.123139034546
 30
0.0
  0
POINT
  5
18C13
330
18C0A
100
AcDbEntity
  8
DEFPOINTS
 62
     0
 48
50.0
100
AcDbPoint
 10
7629.896575106974
 20
7846.123139034673
 30
0.0
  0
POINT
  5
18C14
330
18C0A
100
AcDbEntity
  8
DEFPOINTS
 62
     0
 48
50.0
100
AcDbPoint
 10
7629.896575106974
 20
6864.372203245665
 30
0.0
  0
ENDBLK
  5
18C15
330
18C0A
100
AcDbEntity
  8
0
 48
50.0
100
AcDbBlockEnd
  0
BLOCK
  5
18C17
330
18C16
100
AcDbEntity
  8
0
 48
50.0
100
AcDbBlockBegin
  2
*D9
 70
     1
 10
0.0
 20
0.0
 30
0.0
  3
*D9
  1

  0
LINE
  5
18C18
330
18C16
100
AcDbEntity
  8
寸法
 62
     0
 48
50.0
370
    -2
100
AcDbLine
 10
7649.896575106973
 20
7901.123139034706
 30
0.0
 11
8337.322920841385
 21
7901.123139034706
 31
0.0
  0
LINE
  5
18C19
330
18C16
100
AcDbEntity
  8
寸法
 62
     0
 48
50.0
370
    -2
100
AcDbLine
 10
7649.896575106973
 20
7846.123139034709
 30
0.0
 11
8337.322920841385
 21
7846.123139034709
 31
0.0
  0
LINE
  5
18C1A
330
18C16
100
AcDbEntity
  8
寸法
 62
     0
 48
50.0
370
    -2
100
AcDbLine
 10
8277.322920841385
 20
7901.123139034706
 30
0.0
 11
8277.322920841385
 21
8001.123139034707
 31
0.0
  0
LINE
  5
18C1B
330
18C16
100
AcDbEntity
  8
寸法
 62
     0
 48
50.0
370
    -2
100
AcDbLine
 10
8277.322920841385
 20
7846.123139034709
 30
0.0
 11
8277.322920841385
 21
7429.152576286229
 31
0.0
  0
LINE
  5
18C1C
330
18C16
100
AcDbEntity
  8
寸法
 62
     0
 48
50.0
370
    -2
100
AcDbLine
 10
8277.322920841385
 20
7901.123139034706
 30
0.0
 11
8277.322920841385
 21
7846.123139034709
 31
0.0
  0
INSERT
  5
18C1D
330
18C16
100
AcDbEntity
  8
寸法
 62
     0
 48
50.0
370
    -2
100
AcDbBlockReference
  2
_DOTSMALL
 10
8277.322920841385
 20
7901.123139034706
 30
0.0
 41
100.0
 42
100.0
 43
100.0
 50
270.0
  0
INSERT
  5
18C1E
330
18C16
100
AcDbEntity
  8
寸法
 62
     0
 48
50.0
370
    -2
100
AcDbBlockReference
  2
_DOTSMALL
 10
8277.322920841385
 20
7846.123139034709
 30
0.0
 41
100.0
 42
100.0
 43
100.0
 50
90.0
  0
MTEXT
  5
18C1F
330
18C16
100
AcDbEntity
  8
寸法
 62
     7
 48
50.0
100
AcDbMText
 10
8177.322920841383
 20
7537.637857660469
 30
0.0
 40
120.0
 41
0.0
 71
     5
 72
     1
  1
\A1;55
  7
STYLE1
 11
0.0000000000000001
 21
1.0
 31
0.0
 73
     1
 44
1.0
1001
ACAD
1000
MTEXTBEGIN
1070
    73
1070
     1
1070
    44
1040
1.0
1070
    74
1070
     0
1000
MTEXTEND
  0
POINT
  5
18C20
330
18C16
100
AcDbEntity
  8
DEFPOINTS
 62
     0
 48
50.0
100
AcDbPoint
 10
7629.896575106974
 20
7901.123139034706
 30
0.0
  0
POINT
  5
18C21
330
18C16
100
AcDbEntity
  8
DEFPOINTS
 62
     0
 48
50.0
100
AcDbPoint
 10
7629.896575106974
 20
7846.123139034709
 30
0.0
  0
POINT
  5
18C22
330
18C16
100
AcDbEntity
  8
DEFPOINTS
 62
     0
 48
50.0
100
AcDbPoint
 10
8277.322920841385
 20
7846.123139034709
 30
0.0
  0
ENDBLK
  5
18C23
330
18C16
100
AcDbEntity
  8
0
 48
50.0
100
AcDbBlockEnd
  0
BLOCK
  5
18C25
330
18C24
100
AcDbEntity
  8
0
 48
50.0
100
AcDbBlockBegin
  2
*D10
 70
     1
 10
0.0
 20
0.0
 30
0.0
  3
*D10
  1

  0
LINE
  5
18C26
330
18C24
100
AcDbEntity
  8
寸法
 62
     0
 48
50.0
370
    -2
100
AcDbLine
 10
6533.037591258376
 20
9136.123139034728
 30
0.0
 11
6465.083950562664
 21
8882.516699399049
 31
0.0
  0
LINE
  5
18C27
330
18C24
100
AcDbEntity
  8
寸法
 62
     0
 48
50.0
370
    -2
100
AcDbLine
 10
7596.037591258388
 20
9136.123139034721
 30
0.0
 11
7528.083950562677
 21
8882.516699399049
 31
0.0
  0
LINE
  5
18C28
330
18C24
100
AcDbEntity
  8
寸法
 62
     0
 48
50.0
370
    -2
100
AcDbLine
 10
6481.160902108531
 20
8942.51669939905
 30
0.0
 11
7544.160902108544
 21
8942.51669939905
 31
0.0
  0
INSERT
  5
18C29
330
18C24
100
AcDbEntity
  8
寸法
 62
     0
 48
50.0
370
    -2
100
AcDbBlockReference
  2
_DOTSMALL
 10
6481.160902108531
 20
8942.51669939905
 30
0.0
 41
100.0
 42
100.0
 43
100.0
 50
180.0
  0
INSERT
  5
18C2A
330
18C24
100
AcDbEntity
  8
寸法
 62
     0
 48
50.0
370
    -2
100
AcDbBlockReference
  2
_DOTSMALL
 10
7544.160902108544
 20
8942.51669939905
 30
0.0
 41
100.0
 42
100.0
 43
100.0
  0
MTEXT
  5
18C2B
330
18C24
100
AcDbEntity
  8
寸法
 62
     7
 48
50.0
100
AcDbMText
 10
7061.28653022935
 20
9042.516699399049
 30
0.0
 40
120.0
 41
0.0
 71
     5
 72
     1
  1
\A1;1063
  7
STYLE1
 73
     1
 44
1.0
1001
ACAD
1000
MTEXTBEGIN
1070
    73
1070
     1
1070
    44
1040
1.0
1070
    74
1070
     0
1000
MTEXTEND
  0
POINT
  5
18C2C
330
18C24
100
AcDbEntity
  8
DEFPOINTS
 62
     0
 48
50.0
100
AcDbPoint
 10
6538.396575106998
 20
9156.123139034727
 30
0.0
  0
POINT
  5
18C2D
330
18C24
100
AcDbEntity
  8
DEFPOINTS
 62
     0
 48
50.0
100
AcDbPoint
 10
7601.39657510701
 20
9156.12313903472
 30
0.0
  0
POINT
  5
18C2E
330
18C24
100
AcDbEntity
  8
DEFPOINTS
 62
     0
 48
50.0
100
AcDbPoint
 10
7544.160902108544
 20
8942.51669939905
 30
0.0
  0
ENDBLK
  5
18C2F
330
18C24
100
AcDbEntity
  8
0
 48
50.0
100
AcDbBlockEnd
  0
BLOCK
  5
18C31
330
18C30
100
AcDbEntity
  8
0
 48
50.0
100
AcDbBlockBegin
  2
*D11
 70
     1
 10
0.0
 20
0.0
 30
0.0
  3
*D11
  1

  0
LINE
  5
18C32
330
18C30
100
AcDbEntity
  8
寸法
 62
     0
 48
50.0
370
    -2
100
AcDbLine
 10
7621.396575106999
 20
9600.764155186094
 30
0.0
 11
8016.754300969024
 21
9494.828371819961
 31
0.0
  0
LINE
  5
18C33
330
18C30
100
AcDbEntity
  8
寸法
 62
     0
 48
50.0
370
    -2
100
AcDbLine
 10
7621.396575106999
 20
9150.764155186099
 30
0.0
 11
8016.754300969024
 21
9044.828371819964
 31
0.0
  0
LINE
  5
18C34
330
18C30
100
AcDbEntity
  8
寸法
 62
     0
 48
50.0
370
    -2
100
AcDbLine
 10
7956.754300969024
 20
9510.905323365827
 30
0.0
 11
7956.754300969024
 21
9060.90532336583
 31
0.0
  0
INSERT
  5
18C35
330
18C30
100
AcDbEntity
  8
寸法
 62
     0
 48
50.0
370
    -2
100
AcDbBlockReference
  2
_DOTSMALL
 10
7956.754300969024
 20
9510.905323365827
 30
0.0
 41
100.0
 42
100.0
 43
100.0
 50
90.0
  0
INSERT
  5
18C36
330
18C30
100
AcDbEntity
  8
寸法
 62
     0
 48
50.0
370
    -2
100
AcDbBlockReference
  2
_DOTSMALL
 10
7956.754300969024
 20
9060.90532336583
 30
0.0
 41
100.0
 42
100.0
 43
100.0
 50
270.0
  0
MTEXT
  5
18C37
330
18C30
100
AcDbEntity
  8
寸法
 62
     7
 48
50.0
100
AcDbMText
 10
7856.754300969022
 20
9285.905323365829
 30
0.0
 40
120.0
 41
0.0
 71
     5
 72
     1
  1
\A1;450
  7
STYLE1
 11
0.0000000000000001
 21
1.0
 31
0.0
 73
     1
 44
1.0
1001
ACAD
1000
MTEXTBEGIN
1070
    73
1070
     1
1070
    44
1040
1.0
1070
    74
1070
     0
1000
MTEXTEND
  0
POINT
  5
18C38
330
18C30
100
AcDbEntity
  8
DEFPOINTS
 62
     0
 48
50.0
100
AcDbPoint
 10
7601.396575106999
 20
9606.123139034718
 30
0.0
  0
POINT
  5
18C39
330
18C30
100
AcDbEntity
  8
DEFPOINTS
 62
     0
 48
50.0
100
AcDbPoint
 10
7601.396575106999
 20
9156.12313903472
 30
0.0
  0
POINT
  5
18C3A
330
18C30
100
AcDbEntity
  8
DEFPOINTS
 62
     0
 48
50.0
100
AcDbPoint
 10
7956.754300969024
 20
9060.90532336583
 30
0.0
  0
ENDBLK
  5
18C3B
330
18C30
100
AcDbEntity
  8
0
 48
50.0
100
AcDbBlockEnd
  0
BLOCK
  5
18C3D
330
18C3C
100
AcDbEntity
  8
0
 48
50.0
100
AcDbBlockBegin
  2
*D12
 70
     1
 10
0.0
 20
0.0
 30
0.0
  3
*D12
  1

  0
LINE
  5
18C3E
330
18C3C
100
AcDbEntity
  8
寸法
 62
     0
 48
50.0
370
    -2
100
AcDbLine
 10
7649.896575106999
 20
9581.123139034721
 30
0.0
 11
8337.32292084141
 21
9581.123139034721
 31
0.0
  0
LINE
  5
18C3F
330
18C3C
100
AcDbEntity
  8
寸法
 62
     0
 48
50.0
370
    -2
100
AcDbLine
 10
7649.896575106973
 20
7901.123139034706
 30
0.0
 11
8337.32292084141
 21
7901.123139034706
 31
0.0
  0
LINE
  5
18C40
330
18C3C
100
AcDbEntity
  8
寸法
 62
     0
 48
50.0
370
    -2
100
AcDbLine
 10
8277.322920841411
 20
9581.123139034721
 30
0.0
 11
8277.322920841411
 21
7901.123139034706
 31
0.0
  0
INSERT
  5
18C41
330
18C3C
100
AcDbEntity
  8
寸法
 62
     0
 48
50.0
370
    -2
100
AcDbBlockReference
  2
_DOTSMALL
 10
8277.322920841411
 20
9581.123139034721
 30
0.0
 41
100.0
 42
100.0
 43
100.0
 50
90.0
  0
INSERT
  5
18C42
330
18C3C
100
AcDbEntity
  8
寸法
 62
     0
 48
50.0
370
    -2
100
AcDbBlockReference
  2
_DOTSMALL
 10
8277.322920841411
 20
7901.123139034706
 30
0.0
 41
100.0
 42
100.0
 43
100.0
 50
270.0
  0
MTEXT
  5
18C43
330
18C3C
100
AcDbEntity
  8
寸法
 62
     7
 48
50.0
100
AcDbMText
 10
8177.311109817788
 20
8741.123139034712
 30
0.0
 40
120.0
 41
0.0
 71
     5
 72
     1
  1
\A1;4X420=1680
  7
STYLE1
 11
0.0000000000000001
 21
1.0
 31
0.0
 73
     1
 44
1.0
1001
ACAD
1000
MTEXTBEGIN
1070
    73
1070
     1
1070
    44
1040
1.0
1070
    74
1070
     0
1000
MTEXTEND
  0
POINT
  5
18C44
330
18C3C
100
AcDbEntity
  8
DEFPOINTS
 62
     0
 48
50.0
100
AcDbPoint
 10
7629.896575106998
 20
9581.123139034721
 30
0.0
  0
POINT
  5
18C45
330
18C3C
100
AcDbEntity
  8
DEFPOINTS
 62
     0
 48
50.0
100
AcDbPoint
 10
7629.896575106974
 20
7901.123139034706
 30
0.0
  0
POINT
  5
18C46
330
18C3C
100
AcDbEntity
  8
DEFPOINTS
 62
     0
 48
50.0
100
AcDbPoint
 10
8277.322920841411
 20
7901.123139034706
 30
0.0
  0
ENDBLK
  5
18C47
330
18C3C
100
AcDbEntity
  8
0
 48
50.0
100
AcDbBlockEnd
  0
BLOCK
  5
18C49
330
18C48
100
AcDbEntity
  8
0
 48
50.0
100
AcDbBlockBegin
  2
*D13
 70
     1
 10
0.0
 20
0.0
 30
0.0
  3
*D13
  1

  0
LINE
  5
18C4A
330
18C48
100
AcDbEntity
  8
寸法
 62
     0
 48
50.0
370
    -2
100
AcDbLine
 10
4183.037591258377
 20
9136.123139034619
 30
0.0
 11
4115.083950562663
 21
8882.516699398941
 31
0.0
  0
LINE
  5
18C4B
330
18C48
100
AcDbEntity
  8
寸法
 62
     0
 48
50.0
370
    -2
100
AcDbLine
 10
5246.037591258307
 20
9136.123139034671
 30
0.0
 11
5178.08395056258
 21
8882.516699398941
 31
0.0
  0
LINE
  5
18C4C
330
18C48
100
AcDbEntity
  8
寸法
 62
     0
 48
50.0
370
    -2
100
AcDbLine
 10
4131.160902108532
 20
8942.516699398941
 30
0.0
 11
5194.160902108448
 21
8942.516699398941
 31
0.0
  0
INSERT
  5
18C4D
330
18C48
100
AcDbEntity
  8
寸法
 62
     0
 48
50.0
370
    -2
100
AcDbBlockReference
  2
_DOTSMALL
 10
4131.160902108532
 20
8942.516699398941
 30
0.0
 41
100.0
 42
100.0
 43
100.0
 50
180.0
  0
INSERT
  5
18C4E
330
18C48
100
AcDbEntity
  8
寸法
 62
     0
 48
50.0
370
    -2
100
AcDbBlockReference
  2
_DOTSMALL
 10
5194.160902108448
 20
8942.516699398941
 30
0.0
 41
100.0
 42
100.0
 43
100.0
  0
MTEXT
  5
18C4F
330
18C48
100
AcDbEntity
  8
寸法
 62
     7
 48
50.0
100
AcDbMText
 10
4658.986452655306
 20
9042.516699398941
 30
0.0
 40
120.0
 41
0.0
 71
     5
 72
     1
  1
\A1;1063
  7
STYLE1
 73
     1
 44
1.0
1001
ACAD
1000
MTEXTBEGIN
1070
    73
1070
     1
1070
    44
1040
1.0
1070
    74
1070
     0
1000
MTEXTEND
  0
POINT
  5
18C50
330
18C48
100
AcDbEntity
  8
DEFPOINTS
 62
     0
 48
50.0
100
AcDbPoint
 10
4188.396575106999
 20
9156.123139034617
 30
0.0
  0
POINT
  5
18C51
330
18C48
100
AcDbEntity
  8
DEFPOINTS
 62
     0
 48
50.0
100
AcDbPoint
 10
5251.396575106929
 20
9156.123139034672
 30
0.0
  0
POINT
  5
18C52
330
18C48
100
AcDbEntity
  8
DEFPOINTS
 62
     0
 48
50.0
100
AcDbPoint
 10
5194.160902108448
 20
8942.516699398941
 30
0.0
  0
ENDBLK
  5
18C53
330
18C48
100
AcDbEntity
  8
0
 48
50.0
100
AcDbBlockEnd
  0
BLOCK
  5
18C55
330
18C54
100
AcDbEntity
  8
0
 48
50.0
100
AcDbBlockBegin
  2
*D14
 70
     1
 10
0.0
 20
0.0
 30
0.0
  3
*D14
  1

  0
LINE
  5
18C56
330
18C54
100
AcDbEntity
  8
寸法
 62
     0
 48
50.0
370
    -2
100
AcDbLine
 10
5274.037591258307
 20
9136.123139034669
 30
0.0
 11
5206.08395056258
 21
8882.516699398941
 31
0.0
  0
LINE
  5
18C57
330
18C54
100
AcDbEntity
  8
寸法
 62
     0
 48
50.0
370
    -2
100
AcDbLine
 10
6505.037591258377
 20
9136.123139034662
 30
0.0
 11
6437.083950562653
 21
8882.516699398941
 31
0.0
  0
LINE
  5
18C58
330
18C54
100
AcDbEntity
  8
寸法
 62
     0
 48
50.0
370
    -2
100
AcDbLine
 10
5222.160902108448
 20
8942.516699398941
 30
0.0
 11
6453.16090210852
 21
8942.516699398941
 31
0.0
  0
INSERT
  5
18C59
330
18C54
100
AcDbEntity
  8
寸法
 62
     0
 48
50.0
370
    -2
100
AcDbBlockReference
  2
_DOTSMALL
 10
5222.160902108448
 20
8942.516699398941
 30
0.0
 41
100.0
 42
100.0
 43
100.0
 50
180.0
  0
INSERT
  5
18C5A
330
18C54
100
AcDbEntity
  8
寸法
 62
     0
 48
50.0
370
    -2
100
AcDbBlockReference
  2
_DOTSMALL
 10
6453.16090210852
 20
8942.516699398941
 30
0.0
 41
100.0
 42
100.0
 43
100.0
  0
MTEXT
  5
18C5B
330
18C54
100
AcDbEntity
  8
寸法
 62
     7
 48
50.0
100
AcDbMText
 10
6081.244808320626
 20
9042.528510422561
 30
0.0
 40
120.0
 41
0.0
 71
     5
 72
     1
  1
\A1;1231
  7
STYLE1
 73
     1
 44
1.0
1001
ACAD
1000
MTEXTBEGIN
1070
    73
1070
     1
1070
    44
1040
1.0
1070
    74
1070
     0
1000
MTEXTEND
  0
POINT
  5
18C5C
330
18C54
100
AcDbEntity
  8
DEFPOINTS
 62
     0
 48
50.0
100
AcDbPoint
 10
5279.396575106929
 20
9156.123139034669
 30
0.0
  0
POINT
  5
18C5D
330
18C54
100
AcDbEntity
  8
DEFPOINTS
 62
     0
 48
50.0
100
AcDbPoint
 10
6510.396575106999
 20
9156.123139034662
 30
0.0
  0
POINT
  5
18C5E
330
18C54
100
AcDbEntity
  8
DEFPOINTS
 62
     0
 48
50.0
100
AcDbPoint
 10
6453.16090210852
 20
8942.516699398941
 30
0.0
  0
ENDBLK
  5
18C5F
330
18C54
100
AcDbEntity
  8
0
 48
50.0
100
AcDbBlockEnd
  0
BLOCK
  5
18C61
330
18C60
100
AcDbEntity
  8
0
 48
50.0
100
AcDbBlockBegin
  2
*D15
 70
     1
 10
0.0
 20
0.0
 30
0.0
  3
*D15
  1

  0
LINE
  5
18C62
330
18C60
100
AcDbEntity
  8
寸法
 62
     0
 48
50.0
370
    -2
100
AcDbLine
 10
5065.896575106966
 20
7749.123139034579
 30
0.0
 11
5065.896575106966
 21
7099.952920982538
 31
0.0
  0
LINE
  5
18C63
330
18C60
100
AcDbEntity
  8
寸法
 62
     0
 48
50.0
370
    -2
100
AcDbLine
 10
6331.896575106966
 20
7749.123139034579
 30
0.0
 11
6331.896575106966
 21
7099.952920982538
 31
0.0
  0
LINE
  5
18C64
330
18C60
100
AcDbEntity
  8
寸法
 62
     0
 48
50.0
370
    -2
100
AcDbLine
 10
5065.896575106966
 20
7159.952920982537
 30
0.0
 11
6331.896575106966
 21
7159.952920982537
 31
0.0
  0
INSERT
  5
18C65
330
18C60
100
AcDbEntity
  8
寸法
 62
     0
 48
50.0
370
    -2
100
AcDbBlockReference
  2
_DOTSMALL
 10
5065.896575106966
 20
7159.952920982537
 30
0.0
 41
100.0
 42
100.0
 43
100.0
 50
180.0
  0
INSERT
  5
18C66
330
18C60
100
AcDbEntity
  8
寸法
 62
     0
 48
50.0
370
    -2
100
AcDbBlockReference
  2
_DOTSMALL
 10
6331.896575106966
 20
7159.952920982537
 30
0.0
 41
100.0
 42
100.0
 43
100.0
  0
MTEXT
  5
18C67
330
18C60
100
AcDbEntity
  8
寸法
 62
     7
 48
50.0
100
AcDbMText
 10
5711.986008735934
 20
7359.964732006159
 30
0.0
 40
120.0
 41
0.0
 71
     5
 72
     1
  1
\A1;有効開口部間口\P1266
  7
STYLE1
 73
     1
 44
1.0
1001
ACAD
1000
MTEXTBEGIN
1070
    73
1070
     1
1070
    44
1040
1.0
1070
    74
1070
     0
1000
MTEXTEND
  0
POINT
  5
18C68
330
18C60
100
AcDbEntity
  8
DEFPOINTS
 62
     0
 48
50.0
100
AcDbPoint
 10
5065.896575106966
 20
7769.123139034579
 30
0.0
  0
POINT
  5
18C69
330
18C60
100
AcDbEntity
  8
DEFPOINTS
 62
     0
 48
50.0
100
AcDbPoint
 10
6331.896575106966
 20
7769.123139034579
 30
0.0
  0
POINT
  5
18C6A
330
18C60
100
AcDbEntity
  8
DEFPOINTS
 62
     0
 48
50.0
100
AcDbPoint
 10
6331.896575106966
 20
7159.952920982537
 30
0.0
  0
ENDBLK
  5
18C6B
330
18C60
100
AcDbEntity
  8
0
 48
50.0
100
AcDbBlockEnd
  0
BLOCK
  5
18C6D
330
18C6C
100
AcDbEntity
  8
0
 48
50.0
100
AcDbBlockBegin
  2
*D16
 70
     1
 10
0.0
 20
0.0
 30
0.0
  3
*D16
  1

  0
LINE
  5
18C6E
330
18C6C
100
AcDbEntity
  8
寸法
 62
     0
 48
50.0
370
    -2
100
AcDbLine
 10
7200.896575106966
 20
7846.123139034578
 30
0.0
 11
7457.192158500191
 21
7846.123139034578
 31
0.0
  0
LINE
  5
18C6F
330
18C6C
100
AcDbEntity
  8
寸法
 62
     0
 48
50.0
370
    -2
100
AcDbLine
 10
7199.896575106966
 20
7769.123139034579
 30
0.0
 11
7457.192158500191
 21
7769.123139034579
 31
0.0
  0
LINE
  5
18C70
330
18C6C
100
AcDbEntity
  8
寸法
 62
     0
 48
50.0
370
    -2
100
AcDbLine
 10
7417.192158500192
 20
7866.123139034579
 30
0.0
 11
7417.192158500192
 21
7886.123139034578
 31
0.0
  0
LINE
  5
18C71
330
18C6C
100
AcDbEntity
  8
寸法
 62
     0
 48
50.0
370
    -2
100
AcDbLine
 10
7417.192158500192
 20
7749.123139034579
 30
0.0
 11
7417.192158500192
 21
7533.123139034573
 31
0.0
  0
LINE
  5
18C72
330
18C6C
100
AcDbEntity
  8
寸法
 62
     0
 48
50.0
370
    -2
100
AcDbLine
 10
7417.192158500192
 20
7846.123139034578
 30
0.0
 11
7417.192158500192
 21
7769.123139034579
 31
0.0
  0
INSERT
  5
18C73
330
18C6C
100
AcDbEntity
  8
寸法
 62
     0
 48
50.0
370
    -2
100
AcDbBlockReference
  2
_DOT
 10
7417.192158500192
 20
7846.123139034578
 30
0.0
 41
20.0
 42
20.0
 43
20.0
 50
270.0
  0
INSERT
  5
18C74
330
18C6C
100
AcDbEntity
  8
寸法
 62
     0
 48
50.0
370
    -2
100
AcDbBlockReference
  2
_DOT
 10
7417.192158500192
 20
7769.123139034579
 30
0.0
 41
20.0
 42
20.0
 43
20.0
 50
90.0
  0
MTEXT
  5
18C75
330
18C6C
100
AcDbEntity
  8
寸法
 62
     7
 48
50.0
100
AcDbMText
 10
7325.192158500191
 20
7631.123139034575
 30
0.0
 40
120.0
 41
0.0
 71
     5
 72
     1
  1
\A1;77
  7
STYLE1
 11
0.0000000000000001
 21
1.0
 31
0.0
 73
     1
 44
1.0
1001
ACAD
1000
MTEXTBEGIN
1070
    73
1070
     1
1070
    44
1040
1.0
1070
    74
1070
     0
1000
MTEXTEND
  0
POINT
  5
18C76
330
18C6C
100
AcDbEntity
  8
DEFPOINTS
 62
     0
 48
50.0
100
AcDbPoint
 10
7180.896575106967
 20
7846.123139034578
 30
0.0
  0
POINT
  5
18C77
330
18C6C
100
AcDbEntity
  8
DEFPOINTS
 62
     0
 48
50.0
100
AcDbPoint
 10
7179.896575106965
 20
7769.123139034579
 30
0.0
  0
POINT
  5
18C78
330
18C6C
100
AcDbEntity
  8
DEFPOINTS
 62
     0
 48
50.0
100
AcDbPoint
 10
7417.192158500192
 20
7769.123139034579
 30
0.0
  0
ENDBLK
  5
18C79
330
18C6C
100
AcDbEntity
  8
0
 48
50.0
100
AcDbBlockEnd
  0
BLOCK
  5
18DA0
330
18C7A
100
AcDbEntity
  8
0
 48
50.0
100
AcDbBlockBegin
  2
A$C3B1A506B
 70
     0
 10
0.0
 20
0.0
 30
0.0
  3
A$C3B1A506B
  1

  0
MTEXT
  5
18C7B
330
18C7A
100
AcDbEntity
  8
寸法
 62
     7
 48
50.0
100
AcDbMText
 10
3342.250386887194
 20
2778.329429134012
 30
0.0
 40
96.0
 41
0.0
 71
     5
 72
     1
  1
棚 2段
  7
STYLE1
 73
     1
 44
1.0
1001
ACAD
1000
MTEXTBEGIN
1070
    73
1070
     1
1070
    44
1040
1.0
1070
    74
1070
     0
1000
MTEXTEND
  0
MTEXT
  5
18C7C
330
18C7A
100
AcDbEntity
  8
寸法
 62
     7
 48
50.0
100
AcDbMText
 10
2167.25038688716
 20
2778.329429133986
 30
0.0
 40
96.0
 41
0.0
 71
     5
 72
     1
  1
棚 2段
  7
STYLE1
 73
     1
 44
1.0
1001
ACAD
1000
MTEXTBEGIN
1070
    73
1070
     1
1070
    44
1040
1.0
1070
    74
1070
     0
1000
MTEXTEND
  0
MTEXT
  5
18C7D
330
18C7A
100
AcDbEntity
  8
寸法
 62
     7
 48
50.0
100
AcDbMText
 10
992.2503868871608
 20
2778.329429133935
 30
0.0
 40
96.0
 41
0.0
 71
     5
 72
     1
  1
棚 2段
  7
STYLE1
 73
     1
 44
1.0
1001
ACAD
1000
MTEXTBEGIN
1070
    73
1070
     1
1070
    44
1040
1.0
1070
    74
1070
     0
1000
MTEXTEND
  0
LINE
  5
18C7E
330
18C7A
100
AcDbEntity
  8
細線
 48
50.0
100
AcDbLine
 10
2771.970589276527
 20
1368.994384123192
 30
0.0
 11
3398.970589276523
 21
1368.994384123192
 31
0.0
  0
LINE
  5
18C7F
330
18C7A
100
AcDbEntity
  8
細線
 48
50.0
100
AcDbLine
 10
2117.970593930113
 20
1335.285615569113
 30
0.0
 11
3398.970589276523
 21
1335.285615569113
 31
0.0
  0
LINE
  5
18C80
330
18C7A
100
AcDbEntity
  8
細線
 48
50.0
100
AcDbLine
 10
2076.970593930115
 20
1364.690523565368
 30
0.0
 11
1322.970589276523
 21
1364.690523565367
 31
0.0
  0
LINE
  5
18C81
330
18C7A
100
AcDbEntity
  8
細線
100
AcDbLine
 10
3170.720579860066
 20
1388.494284088199
 30
0.0
 11
3173.052119381877
 21
1393.494286728162
 31
0.0
  0
LINE
  5
18C82
330
18C7A
100
AcDbEntity
  8
細線
100
AcDbLine
 10
3240.720589276525
 20
1388.494269174465
 30
0.0
 11
3238.389042800336
 21
1393.494286728144
 31
0.0
  0
LINE
  5
18C83
330
18C7A
100
AcDbEntity
  8
細線
100
AcDbLine
 10
3238.389042800336
 20
1393.494286728144
 30
0.0
 11
3173.052119381862
 21
1393.494286728133
 31
0.0
  0
LINE
  5
18C84
330
18C7A
100
AcDbEntity
  8
細線
100
AcDbLine
 10
3098.389042800336
 20
1393.494286728144
 30
0.0
 11
3033.052119381862
 21
1393.494286728133
 31
0.0
  0
LINE
  5
18C85
330
18C7A
100
AcDbEntity
  8
細線
100
AcDbLine
 10
3100.720589276523
 20
1388.494269174465
 30
0.0
 11
3098.389042800336
 21
1393.494286728144
 31
0.0
  0
LINE
  5
18C86
330
18C7A
100
AcDbEntity
  8
細線
100
AcDbLine
 10
3030.720579860066
 20
1388.494284088199
 30
0.0
 11
3033.052119381875
 21
1393.494286728162
 31
0.0
  0
LINE
  5
18C87
330
18C7A
100
AcDbEntity
  8
細線
100
AcDbLine
 10
2890.720589276525
 20
1388.494269174465
 30
0.0
 11
2893.052128798336
 21
1393.494271814428
 31
0.0
  0
LINE
  5
18C88
330
18C7A
100
AcDbEntity
  8
細線
100
AcDbLine
 10
2960.720598692984
 20
1388.494254260731
 30
0.0
 11
2958.389052216793
 21
1393.49427181441
 31
0.0
  0
LINE
  5
18C89
330
18C7A
100
AcDbEntity
  8
細線
100
AcDbLine
 10
2958.389052216795
 20
1393.49427181441
 30
0.0
 11
2893.052128798321
 21
1393.494271814399
 31
0.0
  0
LINE
  5
18C8A
330
18C7A
100
AcDbEntity
  8
細線
100
AcDbLine
 10
2667.139038146739
 20
1359.494298590735
 30
0.0
 11
2601.802114728263
 21
1359.494298590724
 31
0.0
  0
LINE
  5
18C8B
330
18C7A
100
AcDbEntity
  8
細線
100
AcDbLine
 10
2669.470584622926
 20
1354.494281037055
 30
0.0
 11
2667.139038146737
 21
1359.494298590735
 31
0.0
  0
LINE
  5
18C8C
330
18C7A
100
AcDbEntity
  8
細線
100
AcDbLine
 10
2599.470575206469
 20
1354.49429595079
 30
0.0
 11
2601.802114728278
 21
1359.494298590752
 31
0.0
  0
LINE
  5
18C8D
330
18C7A
100
AcDbEntity
  8
細線
 48
50.0
100
AcDbLine
 10
2440.853968524536
 20
1372.765132327548
 30
0.0
 11
2446.609486107205
 21
1354.494281037057
 31
0.0
  0
LINE
  5
18C8E
330
18C7A
100
AcDbEntity
  8
細線
 48
50.0
100
AcDbLine
 10
2429.925520044106
 20
1372.765132327546
 30
0.0
 11
2440.853968524536
 21
1372.765132327548
 31
0.0
  0
ARC
  5
18C8F
330
18C7A
100
AcDbEntity
  8
細線
 48
50.0
100
AcDbCircle
 10
2424.471163986787
 20
1374.265132327546
 30
0.0
 40
5.0
100
AcDbArc
 50
204.6243183520723
 51
335.3756816479278
  0
ARC
  5
18C90
330
18C7A
100
AcDbEntity
  8
細線
 48
50.0
100
AcDbCircle
 10
2429.925520044106
 20
1371.765132327546
 30
0.0
 40
1.0
100
AcDbArc
 50
90.0
 51
155.3756816479277
  0
ARC
  5
18C91
330
18C7A
100
AcDbEntity
  8
細線
 48
50.0
100
AcDbCircle
 10
2419.016807929469
 20
1371.765132327546
 30
0.0
 40
1.0
100
AcDbArc
 50
24.62431835207225
 51
90.0
  0
LINE
  5
18C92
330
18C7A
100
AcDbEntity
  8
細線
 48
50.0
100
AcDbLine
 10
2408.088359449037
 20
1372.765132327548
 30
0.0
 11
2419.016807929469
 21
1372.765132327546
 31
0.0
  0
LINE
  5
18C93
330
18C7A
100
AcDbEntity
  8
細線
 48
50.0
100
AcDbLine
 10
2402.33284186637
 20
1354.494281037054
 30
0.0
 11
2408.088359449037
 21
1372.765132327548
 31
0.0
  0
LINE
  5
18C94
330
18C7A
100
AcDbEntity
  8
細線
100
AcDbLine
 10
2458.070304175992
 20
1354.494278397076
 30
0.0
 11
2460.401843697802
 21
1359.494281037039
 31
0.0
  0
LINE
  5
18C95
330
18C7A
100
AcDbEntity
  8
細線
100
AcDbLine
 10
2528.070313592451
 20
1354.494263483342
 30
0.0
 11
2525.738767116262
 21
1359.494281037021
 31
0.0
  0
LINE
  5
18C96
330
18C7A
100
AcDbEntity
  8
細線
100
AcDbLine
 10
2525.738767116262
 20
1359.494281037021
 30
0.0
 11
2460.40184369779
 21
1359.49428103701
 31
0.0
  0
LINE
  5
18C97
330
18C7A
100
AcDbEntity
  8
細線
100
AcDbLine
 10
2387.139046332155
 20
1359.494281037021
 30
0.0
 11
2321.80212291368
 21
1359.49428103701
 31
0.0
  0
LINE
  5
18C98
330
18C7A
100
AcDbEntity
  8
細線
100
AcDbLine
 10
2389.470592808342
 20
1354.494263483342
 30
0.0
 11
2387.139046332153
 21
1359.494281037021
 31
0.0
  0
LINE
  5
18C99
330
18C7A
100
AcDbEntity
  8
細線
100
AcDbLine
 10
2319.470584622926
 20
1354.494281037054
 30
0.0
 11
2321.802122913694
 21
1359.494281037039
 31
0.0
  0
LINE
  5
18C9A
330
18C7A
100
AcDbEntity
  8
細線
100
AcDbLine
 10
2179.47061994182
 20
1354.494289224422
 30
0.0
 11
2181.802158232587
 21
1359.494289224407
 31
0.0
  0
LINE
  5
18C9B
330
18C7A
100
AcDbEntity
  8
細線
100
AcDbLine
 10
2249.470628127236
 20
1354.49427167071
 30
0.0
 11
2247.139081651047
 21
1359.494289224389
 31
0.0
  0
LINE
  5
18C9C
330
18C7A
100
AcDbEntity
  8
細線
100
AcDbLine
 10
2247.139081651047
 20
1359.494289224389
 30
0.0
 11
2181.802158232573
 21
1359.494289224378
 31
0.0
  0
LINE
  5
18C9D
330
18C7A
100
AcDbEntity
  8
細線
100
AcDbLine
 10
1807.970585744697
 20
1320.494460905133
 30
0.0
 11
1810.302124035464
 21
1325.494460905118
 31
0.0
  0
LINE
  5
18C9E
330
18C7A
100
AcDbEntity
  8
細線
100
AcDbLine
 10
1877.970593930113
 20
1320.494443351421
 30
0.0
 11
1875.639047453926
 21
1325.4944609051
 31
0.0
  0
LINE
  5
18C9F
330
18C7A
100
AcDbEntity
  8
細線
100
AcDbLine
 10
1875.639047453926
 20
1325.4944609051
 30
0.0
 11
1810.302124035452
 21
1325.494460905089
 31
0.0
  0
LINE
  5
18CA0
330
18C7A
100
AcDbEntity
  8
細線
100
AcDbLine
 10
2015.639047453926
 20
1325.4944609051
 30
0.0
 11
1950.302124035452
 21
1325.494460905089
 31
0.0
  0
LINE
  5
18CA1
330
18C7A
100
AcDbEntity
  8
細線
100
AcDbLine
 10
2017.970593930113
 20
1320.494443351421
 30
0.0
 11
2015.639047453924
 21
1325.4944609051
 31
0.0
  0
LINE
  5
18CA2
330
18C7A
100
AcDbEntity
  8
細線
100
AcDbLine
 10
1947.970585744697
 20
1320.494460905133
 30
0.0
 11
1950.302124035465
 21
1325.494460905118
 31
0.0
  0
LINE
  5
18CA3
330
18C7A
100
AcDbEntity
  8
細線
100
AcDbLine
 10
1735.639047453926
 20
1325.494460905098
 30
0.0
 11
1670.302124035454
 21
1325.494460905087
 31
0.0
  0
LINE
  5
18CA4
330
18C7A
100
AcDbEntity
  8
細線
100
AcDbLine
 10
1737.970593930113
 20
1320.494443351419
 30
0.0
 11
1735.639047453926
 21
1325.494460905098
 31
0.0
  0
LINE
  5
18CA5
330
18C7A
100
AcDbEntity
  8
細線
100
AcDbLine
 10
1667.970585744697
 20
1320.494460905131
 30
0.0
 11
1670.302124035465
 21
1325.494460905116
 31
0.0
  0
LINE
  5
18CA6
330
18C7A
100
AcDbEntity
  8
細線
100
AcDbLine
 10
1527.970593930113
 20
1320.494460905133
 30
0.0
 11
1530.302132220881
 21
1325.494460905118
 31
0.0
  0
LINE
  5
18CA7
330
18C7A
100
AcDbEntity
  8
細線
100
AcDbLine
 10
1597.970602115529
 20
1320.494443351421
 30
0.0
 11
1595.639055639342
 21
1325.4944609051
 31
0.0
  0
LINE
  5
18CA8
330
18C7A
100
AcDbEntity
  8
細線
100
AcDbLine
 10
1595.639055639342
 20
1325.4944609051
 30
0.0
 11
1530.302132220869
 21
1325.494460905089
 31
0.0
  0
ARC
  5
18CA9
330
18C7A
100
AcDbEntity
  8
部品1
 48
0.01
100
AcDbCircle
 10
1483.470482677778
 20
1319.493338720063
 30
0.0
 40
0.5
100
AcDbArc
 50
270.0
 51
0.0
  0
LINE
  5
18CAA
330
18C7A
100
AcDbEntity
  8
部品1
 48
0.01
100
AcDbLine
 10
1483.970482677778
 20
1320.493338720063
 30
0.0
 11
1483.970482677778
 21
1319.493338720063
 31
0.0
  0
LINE
  5
18CAB
330
18C7A
100
AcDbEntity
  8
部品1
 48
0.01
100
AcDbLine
 10
1483.970482677778
 20
1320.493338720063
 30
0.0
 11
1483.970482677778
 21
1319.493338720063
 31
0.0
  0
LINE
  5
18CAC
330
18C7A
100
AcDbEntity
  8
部品1
 48
0.01
100
AcDbLine
 10
1483.470482677778
 20
1318.993338720063
 30
0.0
 11
1476.857977247713
 21
1318.993338720062
 31
0.0
  0
ARC
  5
18CAD
330
18C7A
100
AcDbEntity
  8
部品1
100
AcDbCircle
 10
1476.926326800494
 20
1319.993338720062
 30
0.0
 40
1.0
100
AcDbArc
 50
160.5287793655865
 51
270.0
  0
ARC
  5
18CAE
330
18C7A
100
AcDbEntity
  8
部品1
100
AcDbCircle
 10
1451.470482677778
 20
1328.993338720062
 30
0.0
 40
26.0
100
AcDbArc
 50
340.5287793655865
 51
0.0
  0
LINE
  5
18CAF
330
18C7A
100
AcDbEntity
  8
部品1
100
AcDbLine
 10
1477.470482677778
 20
1328.993338720062
 30
0.0
 11
1477.470482677778
 21
1333.993338720061
 31
0.0
  0
ARC
  5
18CB0
330
18C7A
100
AcDbEntity
  8
部品1
 48
0.01
100
AcDbCircle
 10
1475.470482677778
 20
1333.993338720061
 30
0.0
 40
2.0
100
AcDbArc
 50
0.0
 51
90.0
  0
ARC
  5
18CB1
330
18C7A
100
AcDbEntity
  8
部品1
100
AcDbCircle
 10
1473.862091052968
 20
1332.993338720062
 30
0.0
 40
3.0
100
AcDbArc
 50
90.0
 51
141.6069559808035
  0
LINE
  5
18CB2
330
18C7A
100
AcDbEntity
  8
部品1
 48
0.01
100
AcDbLine
 10
1475.470482677778
 20
1335.993338720062
 30
0.0
 11
1473.862091052968
 21
1335.993338720062
 31
0.0
  0
ARC
  5
18CB3
330
18C7A
100
AcDbEntity
  8
部品1
100
AcDbCircle
 10
1455.399768463507
 20
1332.293338720065
 30
0.0
 40
3.0
100
AcDbArc
 50
254.0576313943215
 51
270.0
  0
ARC
  5
18CB4
330
18C7A
100
AcDbEntity
  8
部品1
100
AcDbCircle
 10
1462.541196892049
 20
1332.293338720065
 30
0.0
 40
3.0
100
AcDbArc
 50
270.0
 51
285.9423686056786
  0
LINE
  5
18CB5
330
18C7A
100
AcDbEntity
  8
部品1
100
AcDbLine
 10
1462.541196892049
 20
1329.293338720064
 30
0.0
 11
1455.399768463507
 21
1329.293338720064
 31
0.0
  0
ARC
  5
18CB6
330
18C7A
100
AcDbEntity
  8
部品1
100
AcDbCircle
 10
1458.970482677778
 20
1344.793338720065
 30
0.0
 40
16.0
100
AcDbArc
 50
285.9423686056786
 51
321.6069559808035
  0
LINE
  5
18CB7
330
18C7A
100
AcDbEntity
  8
部品1
 48
0.01
100
AcDbLine
 10
1442.470482677778
 20
1335.993338720062
 30
0.0
 11
1444.078874302588
 21
1335.993338720062
 31
0.0
  0
ARC
  5
18CB8
330
18C7A
100
AcDbEntity
  8
部品1
100
AcDbCircle
 10
1444.078874302588
 20
1332.993338720062
 30
0.0
 40
3.0
100
AcDbArc
 50
38.39304401919648
 51
90.0
  0
ARC
  5
18CB9
330
18C7A
100
AcDbEntity
  8
部品1
100
AcDbCircle
 10
1458.970482677778
 20
1344.793338720065
 30
0.0
 40
16.0
100
AcDbArc
 50
218.3930440191965
 51
254.0576313943215
  0
LINE
  5
18CBA
330
18C7A
100
AcDbEntity
  8
部品1
100
AcDbLine
 10
1440.470482677778
 20
1328.993338720062
 30
0.0
 11
1440.470482677778
 21
1333.993338720061
 31
0.0
  0
ARC
  5
18CBB
330
18C7A
100
AcDbEntity
  8
部品1
 48
0.01
100
AcDbCircle
 10
1442.470482677778
 20
1333.993338720061
 30
0.0
 40
2.0
100
AcDbArc
 50
90.0
 51
180.0
  0
ARC
  5
18CBC
330
18C7A
100
AcDbEntity
  8
部品1
100
AcDbCircle
 10
1466.470482677778
 20
1328.993338720062
 30
0.0
 40
26.0
100
AcDbArc
 50
180.0
 51
199.4712206344134
  0
ARC
  5
18CBD
330
18C7A
100
AcDbEntity
  8
部品1
 48
0.01
100
AcDbCircle
 10
1434.470482677778
 20
1319.493338720063
 30
0.0
 40
0.5
100
AcDbArc
 50
180.0
 51
270.0
  0
LINE
  5
18CBE
330
18C7A
100
AcDbEntity
  8
部品1
 48
0.01
100
AcDbLine
 10
1434.470482677778
 20
1318.993338720063
 30
0.0
 11
1441.014638555061
 21
1318.993338720062
 31
0.0
  0
LINE
  5
18CBF
330
18C7A
100
AcDbEntity
  8
部品1
 48
0.01
100
AcDbLine
 10
1433.970482677778
 20
1320.493338720063
 30
0.0
 11
1433.970482677778
 21
1319.493338720063
 31
0.0
  0
ARC
  5
18CC0
330
18C7A
100
AcDbEntity
  8
部品1
100
AcDbCircle
 10
1441.014638555061
 20
1319.993338720062
 30
0.0
 40
1.0
100
AcDbArc
 50
270.0
 51
19.47122063441346
  0
LINE
  5
18CC1
330
18C7A
100
AcDbEntity
  8
細線
100
AcDbLine
 10
1479.470482677785
 20
1338.493338720065
 30
0.0
 11
1438.470482677785
 21
1338.493338720058
 31
0.0
  0
LINE
  5
18CC2
330
18C7A
100
AcDbEntity
  8
細線
100
AcDbLine
 10
1438.470482677785
 20
1338.493338720058
 30
0.0
 11
1438.470482677785
 21
1320.49333872004
 31
0.0
  0
LINE
  5
18CC3
330
18C7A
100
AcDbEntity
  8
細線
100
AcDbLine
 10
1479.470482677785
 20
1338.493338720065
 30
0.0
 11
1479.470482677785
 21
1320.49333872004
 31
0.0
  0
LINE
  5
18CC4
330
18C7A
100
AcDbEntity
  8
細線
100
AcDbLine
 10
1322.970589276523
 20
1324.494269174465
 30
0.0
 11
1322.970589276523
 21
1320.494269174513
 31
0.0
  0
LINE
  5
18CC5
330
18C7A
100
AcDbEntity
  8
寸法
 48
50.0
100
AcDbLine
 10
1746.17359555837
 20
1170.531020743327
 30
0.0
 11
1694.767587648266
 21
1170.531020743327
 31
0.0
  0
LINE
  5
18CC6
330
18C7A
100
AcDbEntity
  8
寸法
 48
50.0
100
AcDbLine
 10
1694.767587648266
 20
1170.531020743327
 30
0.0
 11
1694.767587648266
 21
1201.841179395494
 31
0.0
  0
LINE
  5
18CC7
330
18C7A
100
AcDbEntity
  8
寸法
 48
50.0
100
AcDbLine
 10
1694.767587648266
 20
1201.841179395494
 30
0.0
 11
1665.006255656843
 21
1201.841179395494
 31
0.0
  0
LINE
  5
18CC8
330
18C7A
100
AcDbEntity
  8
寸法
 48
50.0
100
AcDbLine
 10
1665.006255656843
 20
1201.841179395494
 30
0.0
 11
1720.470591603318
 21
1239.420630324105
 31
0.0
  0
LINE
  5
18CC9
330
18C7A
100
AcDbEntity
  8
寸法
 48
50.0
100
AcDbLine
 10
1775.934927549793
 20
1201.841179395494
 30
0.0
 11
1720.470591603318
 21
1239.420630324105
 31
0.0
  0
LINE
  5
18CCA
330
18C7A
100
AcDbEntity
  8
寸法
 48
50.0
100
AcDbLine
 10
1746.17359555837
 20
1201.841179395494
 30
0.0
 11
1775.934927549793
 21
1201.841179395494
 31
0.0
  0
LINE
  5
18CCB
330
18C7A
100
AcDbEntity
  8
寸法
 48
50.0
100
AcDbLine
 10
1746.17359555837
 20
1170.531020743327
 30
0.0
 11
1746.17359555837
 21
1201.841179395494
 31
0.0
  0
LINE
  5
18CCC
330
18C7A
100
AcDbEntity
  8
寸法
 48
50.0
100
AcDbLine
 10
1694.767587648266
 20
1170.531020743327
 30
0.0
 11
1746.17359555837
 21
1170.531020743327
 31
0.0
  0
LINE
  5
18CCD
330
18C7A
100
AcDbEntity
  8
寸法
 48
50.0
100
AcDbLine
 10
2025.339129835225
 20
1227.676611498152
 30
0.0
 11
2025.339129835225
 21
1174.01297691636
 31
0.0
  0
LINE
  5
18CCE
330
18C7A
100
AcDbEntity
  8
寸法
 48
50.0
100
AcDbLine
 10
2114.623348430647
 20
1203.752977228664
 30
0.0
 11
2025.339129835225
 21
1227.676611498152
 31
0.0
  0
LINE
  5
18CCF
330
18C7A
100
AcDbEntity
  8
寸法
 48
50.0
100
AcDbLine
 10
1895.471408254923
 20
1203.752977228664
 30
0.0
 11
2114.623348430647
 21
1203.752977228664
 31
0.0
  0
DIMENSION
  5
18CD0
330
18C7A
100
AcDbEntity
  8
寸法
 48
50.0
100
AcDbDimension
  2
*D15
 10
2588.970589276523
 20
706.3240511224249
 30
0.0
 11
1969.060022905491
 21
706.3240511224249
 31
0.0
 12
-3742.925985830444
 22
-6453.628869860112
 32
0.0
 70
   128
  1
有効開口部間口\P<>
 71
     5
 42
1266.0
  3
INABA_S40G
100
AcDbAlignedDimension
 13
1322.970589276523
 23
1315.494269174465
 33
0.0
 14
2588.970589276523
 24
1315.494269174465
 34
0.0
100
AcDbRotatedDimension
1001
ACAD
1000
DSTYLE
1002
{
1070
   341
1005
0
1002
}
  0
LINE
  5
18CD1
330
18C7A
100
AcDbEntity
  8
部品1
100
AcDbLine
 10
3409.970589276524
 20
1392.494269174465
 30
0.0
 11
3437.970589276523
 21
1392.494269174465
 31
0.0
  0
DIMENSION
  5
18CD2
330
18C7A
100
AcDbEntity
  8
寸法
100
AcDbDimension
  2
*D16
 10
3674.266172669749
 20
1315.494269174465
 30
0.0
 11
3674.266172669748
 21
1177.494269174462
 31
0.0
 12
-3742.925985830444
 22
-6453.628869860112
 32
0.0
 70
   128
 71
     5
 42
77.0
  3
INABA_S40
100
AcDbAlignedDimension
 13
3437.970589276523
 23
1392.494269174465
 33
0.0
 14
3436.970589276523
 24
1315.494269174465
 34
0.0
 50
90.0
100
AcDbRotatedDimension
1001
ACAD
1000
DSTYLE
1002
{
1070
    41
1040
0.5
1070
    44
1040
1.0
1070
   147
1040
0.8
1070
   271
1070
     2
1070
   272
1070
     2
1070
   289
1070
     3
1070
   340
1005
F706
1070
   343
1005
164B4
1070
   344
1005
164B4
1002
}
  0
LINE
  5
18CD3
330
18C7A
100
AcDbEntity
  8
部品1
100
AcDbLine
 10
3437.970589276523
 20
1315.494269174465
 30
0.0
 11
3437.970589276523
 21
1392.494269174465
 31
0.0
  0
LINE
  5
18CD4
330
18C7A
100
AcDbEntity
  8
部品1
100
AcDbLine
 10
3398.970589276523
 20
1388.494269174465
 30
0.0
 11
3409.970589276524
 21
1388.494269174465
 31
0.0
  0
LINE
  5
18CD5
330
18C7A
100
AcDbEntity
  8
部品1
100
AcDbLine
 10
3407.970589276523
 20
1324.494269174465
 30
0.0
 11
3407.970589276523
 21
1315.494269174465
 31
0.0
  0
LINE
  5
18CD6
330
18C7A
100
AcDbEntity
  8
部品1
100
AcDbLine
 10
3398.970589276523
 20
1324.494269174465
 30
0.0
 11
3407.970589276523
 21
1324.494269174465
 31
0.0
  0
LINE
  5
18CD7
330
18C7A
100
AcDbEntity
  8
部品1
100
AcDbLine
 10
3398.970589276523
 20
1388.494269174465
 30
0.0
 11
3398.970589276523
 21
1324.494269174465
 31
0.0
  0
LINE
  5
18CD8
330
18C7A
100
AcDbEntity
  8
部品1
100
AcDbLine
 10
3409.970589276524
 20
1419.494269174465
 30
0.0
 11
3409.970589276524
 21
1388.494269174465
 31
0.0
  0
LINE
  5
18CD9
330
18C7A
100
AcDbEntity
  8
部品1
100
AcDbLine
 10
1322.970589276523
 20
1388.494269174465
 30
0.0
 11
1311.970589276523
 21
1388.494269174465
 31
0.0
  0
LINE
  5
18CDA
330
18C7A
100
AcDbEntity
  8
部品1
100
AcDbLine
 10
1283.970589276523
 20
1392.494269174465
 30
0.0
 11
1311.970589276523
 21
1392.494269174465
 31
0.0
  0
LINE
  5
18CDB
330
18C7A
100
AcDbEntity
  8
部品1
100
AcDbLine
 10
1313.970589276523
 20
1324.494269174465
 30
0.0
 11
1313.970589276523
 21
1315.494269174465
 31
0.0
  0
LINE
  5
18CDC
330
18C7A
100
AcDbEntity
  8
部品1
100
AcDbLine
 10
1322.970589276523
 20
1324.494269174465
 30
0.0
 11
1313.970589276523
 21
1324.494269174465
 31
0.0
  0
LINE
  5
18CDD
330
18C7A
100
AcDbEntity
  8
部品1
100
AcDbLine
 10
1313.970589276523
 20
1315.494269174465
 30
0.0
 11
1283.970589276523
 21
1315.494269174465
 31
0.0
  0
LINE
  5
18CDE
330
18C7A
100
AcDbEntity
  8
部品1
100
AcDbLine
 10
1283.970589276523
 20
1315.494269174465
 30
0.0
 11
1283.970589276523
 21
1392.494269174465
 31
0.0
  0
LINE
  5
18CDF
330
18C7A
100
AcDbEntity
  8
部品1
100
AcDbLine
 10
1322.970589276523
 20
1388.494269174465
 30
0.0
 11
1322.970589276523
 21
1324.494269174465
 31
0.0
  0
LINE
  5
18CE0
330
18C7A
100
AcDbEntity
  8
部品1
100
AcDbLine
 10
1311.970589276523
 20
1419.494269174462
 30
0.0
 11
1311.970589276523
 21
1388.494269174465
 31
0.0
  0
LINE
  5
18CE1
330
18C7A
100
AcDbEntity
  8
部品1
100
AcDbLine
 10
1311.970589276523
 20
1419.494269174462
 30
0.0
 11
3409.970589276524
 21
1419.494269174465
 31
0.0
  0
LINE
  5
18CE2
330
18C7A
100
AcDbEntity
  8
部品1
100
AcDbLine
 10
3407.970589276523
 20
1315.494269174465
 30
0.0
 11
3437.970589276523
 21
1315.494269174465
 31
0.0
  0
LINE
  5
18CE3
330
18C7A
100
AcDbEntity
  8
部品1
100
AcDbLine
 10
1313.970589276523
 20
1315.494269174465
 30
0.0
 11
3410.970589276523
 21
1315.494269174465
 31
0.0
  0
LINE
  5
18CE4
330
18C7A
100
AcDbEntity
  8
細線
  6
Continuous
 62
     5
100
AcDbLine
 10
2689.970589276527
 20
1354.494269174462
 30
0.0
 11
2689.970589276527
 21
1354.494269174462
 31
0.0
  0
LINE
  5
18CE5
330
18C7A
100
AcDbEntity
  8
細線
  6
Continuous
 62
     5
100
AcDbLine
 10
2682.470589276527
 20
1354.494269174462
 30
0.0
 11
2682.470589276527
 21
1354.494269174462
 31
0.0
  0
LINE
  5
18CE6
330
18C7A
100
AcDbEntity
  8
細線
  6
Continuous
 62
     5
100
AcDbLine
 10
2676.470589276527
 20
1354.494269174462
 30
0.0
 11
2676.470589276527
 21
1354.494269174462
 31
0.0
  0
LINE
  5
18CE7
330
18C7A
100
AcDbEntity
  8
細線
  6
Continuous
 62
     5
100
AcDbLine
 10
2743.970589276527
 20
1373.494269174462
 30
0.0
 11
2743.970589276527
 21
1373.494269174462
 31
0.0
  0
LINE
  5
18CE8
330
18C7A
100
AcDbEntity
  8
細線
 48
50.0
100
AcDbLine
 10
1336.970593930116
 20
1341.094443351418
 30
0.0
 11
1336.970593930113
 21
1349.490593759059
 31
0.0
  0
LINE
  5
18CE9
330
18C7A
100
AcDbEntity
  8
細線
 48
50.0
100
AcDbLine
 10
1336.970593930113
 20
1349.490593759059
 30
0.0
 11
1322.970589276523
 21
1349.490593759057
 31
0.0
  0
LINE
  5
18CEA
330
18C7A
100
AcDbEntity
  8
細線
 48
50.0
100
AcDbLine
 10
2087.970593930113
 20
1337.644443351419
 30
0.0
 11
2087.970593930113
 21
1342.494443351421
 31
0.0
  0
LINE
  5
18CEB
330
18C7A
100
AcDbEntity
  8
細線
 48
50.0
100
AcDbLine
 10
2087.970593930113
 20
1342.494443351421
 30
0.0
 11
2102.970593930113
 21
1342.494443351421
 31
0.0
  0
LINE
  5
18CEC
330
18C7A
100
AcDbEntity
  8
細線
 48
50.0
100
AcDbLine
 10
2102.970593930113
 20
1342.494443351421
 30
0.0
 11
2102.970593930115
 21
1349.494443351419
 31
0.0
  0
LINE
  5
18CED
330
18C7A
100
AcDbEntity
  8
細線
 48
50.0
100
AcDbLine
 10
2102.970593930115
 20
1349.494443351419
 30
0.0
 11
2117.970593930113
 21
1349.494443351419
 31
0.0
  0
LINE
  5
18CEE
330
18C7A
100
AcDbEntity
  8
細線
 48
50.0
100
AcDbLine
 10
2117.970593930113
 20
1349.494443351419
 30
0.0
 11
2117.970593930113
 21
1320.494443351421
 31
0.0
  0
LINE
  5
18CEF
330
18C7A
100
AcDbEntity
  8
細線
 48
50.0
100
AcDbLine
 10
1313.970589276523
 20
1320.491777694889
 30
0.0
 11
1527.970593930113
 21
1320.494460905133
 31
0.0
  0
LINE
  5
18CF0
330
18C7A
100
AcDbEntity
  8
細線
 48
50.0
100
AcDbLine
 10
2017.970593930113
 20
1320.494443351421
 30
0.0
 11
2117.970593930113
 21
1320.494443351421
 31
0.0
  0
LINE
  5
18CF1
330
18C7A
100
AcDbEntity
  8
細線
 48
50.0
100
AcDbLine
 10
1737.970593930113
 20
1320.494443351419
 30
0.0
 11
1807.970593930113
 21
1320.494443351423
 31
0.0
  0
LINE
  5
18CF2
330
18C7A
100
AcDbEntity
  8
細線
 48
50.0
100
AcDbLine
 10
1750.832558942642
 20
1320.494443351419
 30
0.0
 11
1756.588076525309
 21
1338.765294641913
 31
0.0
  0
LINE
  5
18CF3
330
18C7A
100
AcDbEntity
  8
細線
 48
50.0
100
AcDbLine
 10
1756.588076525309
 20
1338.765294641913
 30
0.0
 11
1767.516525005743
 21
1338.765294641911
 31
0.0
  0
ARC
  5
18CF4
330
18C7A
100
AcDbEntity
  8
細線
 48
50.0
100
AcDbCircle
 10
1767.516525005743
 20
1337.765294641911
 30
0.0
 40
1.0
100
AcDbArc
 50
24.62431835207225
 51
90.0
  0
ARC
  5
18CF5
330
18C7A
100
AcDbEntity
  8
細線
 48
50.0
100
AcDbCircle
 10
1778.425237120377
 20
1337.765294641911
 30
0.0
 40
1.0
100
AcDbArc
 50
90.0
 51
155.3756816479277
  0
ARC
  5
18CF6
330
18C7A
100
AcDbEntity
  8
細線
 48
50.0
100
AcDbCircle
 10
1772.970881063058
 20
1340.265294641911
 30
0.0
 40
5.0
100
AcDbArc
 50
204.6243183520723
 51
335.3756816479278
  0
LINE
  5
18CF7
330
18C7A
100
AcDbEntity
  8
細線
 48
50.0
100
AcDbLine
 10
1778.425237120377
 20
1338.765294641911
 30
0.0
 11
1789.35368560081
 21
1338.765294641913
 31
0.0
  0
LINE
  5
18CF8
330
18C7A
100
AcDbEntity
  8
細線
 48
50.0
100
AcDbLine
 10
1789.35368560081
 20
1338.765294641913
 30
0.0
 11
1795.109203183478
 21
1320.494443351423
 31
0.0
  0
LINE
  5
18CF9
330
18C7A
100
AcDbEntity
  8
細線
 48
50.0
100
AcDbLine
 10
2087.970593930113
 20
1341.094443351419
 30
0.0
 11
1336.970593930116
 21
1341.094443351418
 31
0.0
  0
LINE
  5
18CFA
330
18C7A
100
AcDbEntity
  8
細線
 48
50.0
100
AcDbLine
 10
1947.970593930113
 20
1320.494443351421
 30
0.0
 11
1877.970593930113
 21
1320.494443351421
 31
0.0
  0
LINE
  5
18CFB
330
18C7A
100
AcDbEntity
  8
細線
100
AcDbLine
 10
1667.970593930113
 20
1320.494443351421
 30
0.0
 11
1597.970602115529
 21
1320.494443351421
 31
0.0
  0
LINE
  5
18CFC
330
18C7A
100
AcDbEntity
  8
細線
 48
50.0
100
AcDbLine
 10
2741.970584622936
 20
1375.094487209288
 30
0.0
 11
2106.970593930113
 21
1375.094487209284
 31
0.0
  0
LINE
  5
18CFD
330
18C7A
100
AcDbEntity
  8
細線
 48
50.0
100
AcDbLine
 10
2106.970593930113
 20
1371.990637616925
 30
0.0
 11
2106.970593930113
 21
1376.490637616925
 31
0.0
  0
LINE
  5
18CFE
330
18C7A
100
AcDbEntity
  8
細線
 48
50.0
100
AcDbLine
 10
2106.970593930113
 20
1376.490637616925
 30
0.0
 11
2091.970593930113
 21
1376.490637616925
 31
0.0
  0
LINE
  5
18CFF
330
18C7A
100
AcDbEntity
  8
細線
 48
50.0
100
AcDbLine
 10
2091.970593930113
 20
1376.490637616925
 30
0.0
 11
2091.970593930113
 21
1383.490637616927
 31
0.0
  0
LINE
  5
18D00
330
18C7A
100
AcDbEntity
  8
細線
 48
50.0
100
AcDbLine
 10
2091.970593930113
 20
1383.490637616927
 30
0.0
 11
2076.970593930115
 21
1383.490637616924
 31
0.0
  0
LINE
  5
18D01
330
18C7A
100
AcDbEntity
  8
細線
 48
50.0
100
AcDbLine
 10
2076.970593930115
 20
1383.490637616924
 30
0.0
 11
2076.970593930115
 21
1345.890409513813
 31
0.0
  0
LINE
  5
18D02
330
18C7A
100
AcDbEntity
  8
細線
 48
50.0
100
AcDbLine
 10
2076.970593930115
 20
1345.890409513813
 30
0.0
 11
2096.970601231289
 21
1345.890451063353
 31
0.0
  0
LINE
  5
18D03
330
18C7A
100
AcDbEntity
  8
細線
 48
50.0
100
AcDbLine
 10
2096.970556362348
 20
1354.493912699161
 30
0.0
 11
2096.970601231289
 21
1345.890451063353
 31
0.0
  0
LINE
  5
18D04
330
18C7A
100
AcDbEntity
  8
細線
 48
50.0
100
AcDbLine
 10
2741.970584622936
 20
1371.644487209287
 30
0.0
 11
2741.970584622936
 21
1376.494487209284
 31
0.0
  0
LINE
  5
18D05
330
18C7A
100
AcDbEntity
  8
細線
 48
50.0
100
AcDbLine
 10
2741.970584622936
 20
1376.494487209284
 30
0.0
 11
2756.970584622934
 21
1376.494487209285
 31
0.0
  0
LINE
  5
18D06
330
18C7A
100
AcDbEntity
  8
細線
 48
50.0
100
AcDbLine
 10
2756.970584622934
 20
1376.494487209285
 30
0.0
 11
2756.970596256909
 21
1383.494487209331
 31
0.0
  0
LINE
  5
18D07
330
18C7A
100
AcDbEntity
  8
細線
 48
50.0
100
AcDbLine
 10
2756.970596256909
 20
1383.494487209331
 30
0.0
 11
2771.970594427439
 21
1383.494487209329
 31
0.0
  0
LINE
  5
18D08
330
18C7A
100
AcDbEntity
  8
細線
 48
50.0
100
AcDbLine
 10
2771.970594427439
 20
1383.494487209329
 30
0.0
 11
2771.970584125617
 21
1354.494281037055
 31
0.0
  0
LINE
  5
18D09
330
18C7A
100
AcDbEntity
  8
細線
 48
50.0
100
AcDbLine
 10
2458.070304175992
 20
1354.494278397076
 30
0.0
 11
2389.470863838818
 21
1354.494283787084
 31
0.0
  0
LINE
  5
18D0A
330
18C7A
100
AcDbEntity
  8
細線
 48
50.0
100
AcDbLine
 10
2096.970556362348
 20
1354.493912699161
 30
0.0
 11
2108.203245717057
 21
1354.494095652309
 31
0.0
  0
ARC
  5
18D0B
330
18C7A
100
AcDbEntity
  8
細線
 48
50.0
100
AcDbCircle
 10
2114.785538024393
 20
1353.294259565922
 30
0.0
 40
1.8
100
AcDbArc
 50
270.0006665777295
 51
345.000555481349
  0
LINE
  5
18D0C
330
18C7A
100
AcDbEntity
  8
細線
 48
50.0
100
AcDbLine
 10
2116.771971470473
 20
1353.753100023201
 30
0.0
 11
2116.524209028273
 21
1352.828402141094
 31
0.0
  0
LINE
  5
18D0D
330
18C7A
100
AcDbEntity
  8
細線
 48
50.0
100
AcDbLine
 10
2114.785558965548
 20
1351.494259566043
 30
0.0
 11
2111.155631546781
 21
1351.494217335563
 31
0.0
  0
ARC
  5
18D0E
330
18C7A
100
AcDbEntity
  8
細線
 48
50.0
100
AcDbCircle
 10
2111.155610605627
 20
1353.29421733544
 30
0.0
 40
1.8
100
AcDbArc
 50
195.0010443049965
 51
270.0006665777295
  0
LINE
  5
18D0F
330
18C7A
100
AcDbEntity
  8
細線
 48
50.0
100
AcDbLine
 10
2109.169183113368
 20
1353.752932303007
 30
0.0
 11
2109.416952609882
 21
1352.828311364425
 31
0.0
  0
ARC
  5
18D10
330
18C7A
100
AcDbEntity
  8
細線
 48
50.0
100
AcDbCircle
 10
2108.203262004622
 20
1353.494095652444
 30
0.0
 40
1.0
100
AcDbArc
 50
15.00104430499651
 51
90.00093320877969
  0
LINE
  5
18D11
330
18C7A
100
AcDbEntity
  8
細線
 48
50.0
100
AcDbLine
 10
2117.737892825577
 20
1354.494290342714
 30
0.0
 11
2118.679652976481
 21
1354.494296916564
 31
0.0
  0
ARC
  5
18D12
330
18C7A
100
AcDbEntity
  8
細線
 48
50.0
100
AcDbCircle
 10
2117.737899805961
 20
1353.49429034274
 30
0.0
 40
1.0
100
AcDbArc
 50
90.0003999466794
 51
165.000555481349
  0
LINE
  5
18D13
330
18C7A
100
AcDbEntity
  8
細線
 48
50.0
100
AcDbLine
 10
2669.470584622926
 20
1354.494281037055
 30
0.0
 11
2771.970584125617
 21
1354.494281037055
 31
0.0
  0
LINE
  5
18D14
330
18C7A
100
AcDbEntity
  8
細線
 48
50.0
100
AcDbLine
 10
2179.47061994182
 20
1354.494289224422
 30
0.0
 11
2118.370558714898
 21
1354.494296916564
 31
0.0
  0
LINE
  5
18D15
330
18C7A
100
AcDbEntity
  8
細線
 48
50.0
100
AcDbLine
 10
2599.470584622926
 20
1354.494281037057
 30
0.0
 11
2529.470584622926
 21
1354.494281037055
 31
0.0
  0
LINE
  5
18D16
330
18C7A
100
AcDbEntity
  8
細線
 48
50.0
100
AcDbLine
 10
2319.470584622926
 20
1354.494281037054
 30
0.0
 11
2249.470567335051
 21
1354.494281037057
 31
0.0
  0
ARC
  5
18D17
330
18C7A
100
AcDbEntity
  8
細線
 48
50.0
100
AcDbCircle
 10
2756.170589276533
 20
1387.694269174466
 30
0.0
 40
0.8
100
AcDbArc
 50
359.9997333689499
 51
89.99986668437072
  0
ARC
  5
18D18
330
18C7A
100
AcDbEntity
  8
細線
 48
50.0
100
AcDbCircle
 10
2763.770596101631
 20
1387.694280343081
 30
0.0
 40
0.8
100
AcDbArc
 50
90.00014387753465
 51
179.9997333689498
  0
LINE
  5
18D19
330
18C7A
100
AcDbEntity
  8
細線
 48
50.0
100
AcDbLine
 10
2756.170591137969
 20
1388.494269174465
 30
0.0
 11
2750.970589276525
 21
1388.494269174465
 31
0.0
  0
ARC
  5
18D1A
330
18C7A
100
AcDbEntity
  8
細線
 48
50.0
100
AcDbCircle
 10
2757.670589276524
 20
1386.194269174464
 30
0.0
 40
0.7
100
AcDbArc
 50
180.0
 51
270.0
  0
ARC
  5
18D1B
330
18C7A
100
AcDbEntity
  8
細線
 48
50.0
100
AcDbCircle
 10
2762.270589276524
 20
1386.194269174464
 30
0.0
 40
0.7
100
AcDbArc
 50
270.0
 51
0.0
  0
LINE
  5
18D1C
330
18C7A
100
AcDbEntity
  8
細線
 48
50.0
100
AcDbLine
 10
2762.970589276525
 20
1386.194269174464
 30
0.0
 11
2762.970596101639
 21
1387.694284065954
 31
0.0
  0
LINE
  5
18D1D
330
18C7A
100
AcDbEntity
  8
細線
 48
50.0
100
AcDbLine
 10
2757.670589276524
 20
1385.494269174465
 30
0.0
 11
2762.270589276524
 21
1385.494269174465
 31
0.0
  0
LINE
  5
18D1E
330
18C7A
100
AcDbEntity
  8
細線
 48
50.0
100
AcDbLine
 10
2756.970589276525
 20
1387.694269174466
 30
0.0
 11
2756.970589276525
 21
1386.194269174464
 31
0.0
  0
LINE
  5
18D1F
330
18C7A
100
AcDbEntity
  8
細線
 48
50.0
100
AcDbLine
 10
3382.570589276527
 20
1418.494269174465
 30
0.0
 11
2745.970589276525
 21
1418.494269174463
 31
0.0
  0
LINE
  5
18D20
330
18C7A
100
AcDbEntity
  8
細線
 48
50.0
100
AcDbLine
 10
3408.470589276525
 20
1413.494269174467
 30
0.0
 11
3392.570589276527
 21
1413.494269174465
 31
0.0
  0
LINE
  5
18D21
330
18C7A
100
AcDbEntity
  8
細線
 48
50.0
100
AcDbLine
 10
3392.570589276526
 20
1413.494269174465
 30
0.0
 11
3382.570589276527
 21
1418.494269174465
 31
0.0
  0
LINE
  5
18D22
330
18C7A
100
AcDbEntity
  8
細線
100
AcDbLine
 10
2993.470589276525
 20
1388.494269174465
 30
0.0
 11
2993.470589276525
 21
1417.794269174464
 31
0.0
  0
LINE
  5
18D23
330
18C7A
100
AcDbEntity
  8
細線
100
AcDbLine
 10
2993.470589276525
 20
1417.794269174464
 30
0.0
 11
3013.470589276525
 21
1417.794269174464
 31
0.0
  0
LINE
  5
18D24
330
18C7A
100
AcDbEntity
  8
細線
100
AcDbLine
 10
3013.470589276525
 20
1388.494269174465
 30
0.0
 11
3013.470589276525
 21
1417.794269174464
 31
0.0
  0
LINE
  5
18D25
330
18C7A
100
AcDbEntity
  8
細線
100
AcDbLine
 10
3170.720589276524
 20
1388.494269174465
 30
0.0
 11
3100.720589276523
 21
1388.494269174465
 31
0.0
  0
LINE
  5
18D26
330
18C7A
100
AcDbEntity
  8
細線
 48
50.0
100
AcDbLine
 10
2890.720589276525
 20
1388.494269174465
 30
0.0
 11
2763.766368849365
 21
1388.494269174465
 31
0.0
  0
LINE
  5
18D27
330
18C7A
100
AcDbEntity
  8
細線
100
AcDbLine
 10
3030.720589276525
 20
1388.494269174465
 30
0.0
 11
2960.720589276525
 21
1388.494269174465
 31
0.0
  0
LINE
  5
18D28
330
18C7A
100
AcDbEntity
  8
細線
 48
50.0
100
AcDbLine
 10
2750.970589276525
 20
1380.494269174465
 30
0.0
 11
2750.970589276525
 21
1388.494269174465
 31
0.0
  0
LINE
  5
18D29
330
18C7A
100
AcDbEntity
  8
細線
 48
50.0
100
AcDbLine
 10
2730.970589276524
 20
1380.494269174467
 30
0.0
 11
2750.970589276525
 21
1380.494269174465
 31
0.0
  0
LINE
  5
18D2A
330
18C7A
100
AcDbEntity
  8
細線
 48
50.0
100
AcDbLine
 10
2745.970589276525
 20
1418.494269174465
 30
0.0
 11
2745.970589276525
 21
1413.494269174465
 31
0.0
  0
LINE
  5
18D2B
330
18C7A
100
AcDbEntity
  8
細線
 48
50.0
100
AcDbLine
 10
2730.970589276525
 20
1418.494269174463
 30
0.0
 11
2745.970589276525
 21
1418.494269174465
 31
0.0
  0
LINE
  5
18D2C
330
18C7A
100
AcDbEntity
  8
細線
 48
50.0
100
AcDbLine
 10
2730.970589276524
 20
1380.494269174467
 30
0.0
 11
2730.970589276525
 21
1418.494269174463
 31
0.0
  0
LINE
  5
18D2D
330
18C7A
100
AcDbEntity
  8
細線
100
AcDbLine
 10
3398.970589276523
 20
1388.494269174465
 30
0.0
 11
3240.720589276525
 21
1388.494269174465
 31
0.0
  0
LINE
  5
18D2E
330
18C7A
100
AcDbEntity
  8
細線
 48
50.0
100
AcDbLine
 10
3408.470589276525
 20
1413.494269174467
 30
0.0
 11
3408.470589276524
 21
1388.494269174465
 31
0.0
  0
TEXT
  5
18D2F
330
18C7A
100
AcDbEntity
  8
部品1
100
AcDbText
 10
1860.154865991392
 20
46.99880823813145
 30
0.0
 40
135.0
  1
平面図
  7
STYLE2
100
AcDbText
  0
LWPOLYLINE
  5
18D30
330
18C7A
100
AcDbEntity
  8
部品1
100
AcDbPolyline
 90
        4
 70
     1
 43
0.0
 10
1770.23525616235
 20
239.8923374566548
 10
1770.23525616235
 20
0.0000159111223184
 10
2533.705922390791
 20
0.0000159111223184
 10
2533.705922390791
 20
239.8923374566548
  0
LINE
  5
18D31
330
18C7A
100
AcDbEntity
  8
部品1
100
AcDbLine
 10
1534.470589276487
 20
3154.494269174626
 30
0.0
 11
2769.470589276552
 21
3154.494269174626
 31
0.0
  0
LINE
  5
18D32
330
18C7A
100
AcDbEntity
  8
部品1
 48
50.0
100
AcDbLine
 10
1311.970589276523
 20
1420.494269174462
 30
0.0
 11
3411.970589276523
 21
1420.494269174465
 31
0.0
  0
LINE
  5
18D33
330
18C7A
100
AcDbEntity
  8
部品1
 48
50.0
100
AcDbLine
 10
471.9705892765232
 20
1392.494269174465
 30
0.0
 11
1311.970589276523
 21
1392.494269174465
 31
0.0
  0
DIMENSION
  5
18D34
330
18C7A
100
AcDbEntity
  8
寸法
100
AcDbDimension
  2
*D14
 10
2710.234916278077
 20
2488.887829538828
 30
0.0
 11
2338.318822490183
 21
2488.887829538828
 31
0.0
 12
-3742.925985830444
 22
-6453.628869860112
 32
0.0
 70
   128
 71
     5
 42
1231.00000000007
  3
INABA_S40G
100
AcDbAlignedDimension
 13
1536.470589276486
 23
2702.494269174557
 33
0.0
 14
2767.470589276556
 24
2702.494269174549
 34
0.0
100
AcDbRotatedDimension
1001
ACAD
1000
DSTYLE
1002
{
1002
}
  0
LINE
  5
18D35
330
18C7A
100
AcDbEntity
  8
部品1
100
AcDbLine
 10
1536.470589276487
 20
2702.494269174557
 30
0.0
 11
2767.470589276554
 21
2702.494269174615
 31
0.0
  0
LINE
  5
18D36
330
18C7A
100
AcDbEntity
  8
部品1
100
AcDbLine
 10
1536.470589276487
 20
3152.494269174557
 30
0.0
 11
2767.470589276556
 21
3152.494269174615
 31
0.0
  0
LINE
  5
18D37
330
18C7A
100
AcDbEntity
  8
細線
 48
50.0
100
AcDbLine
 10
1508.470589276487
 20
3152.494269174558
 30
0.0
 11
445.4705892765559
 21
2702.494269174509
 31
0.0
  0
LINE
  5
18D38
330
18C7A
100
AcDbEntity
  8
細線
 48
50.0
100
AcDbLine
 10
1508.470589276487
 20
2702.494269174558
 30
0.0
 11
445.4705892765542
 21
3152.494269174509
 31
0.0
  0
LINE
  5
18D39
330
18C7A
100
AcDbEntity
  8
部品1
100
AcDbLine
 10
1556.970589276487
 20
3172.494269174611
 30
0.0
 11
1556.970589276487
 21
3154.494269174611
 31
0.0
  0
LINE
  5
18D3A
330
18C7A
100
AcDbEntity
  8
部品1
100
AcDbLine
 10
1556.970589276487
 20
3172.494269174611
 30
0.0
 11
1550.970589276487
 21
3172.494269174611
 31
0.0
  0
LINE
  5
18D3B
330
18C7A
100
AcDbEntity
  8
部品1
100
AcDbLine
 10
1534.470589276487
 20
3146.494269174608
 30
0.0
 11
1509.470589276487
 21
3146.494269174611
 31
0.0
  0
LINE
  5
18D3C
330
18C7A
100
AcDbEntity
  8
部品1
100
AcDbLine
 10
1486.970589276487
 20
3172.494269174611
 30
0.0
 11
1486.970589276487
 21
3154.494269174611
 31
0.0
  0
LINE
  5
18D3D
330
18C7A
100
AcDbEntity
  8
部品1
100
AcDbLine
 10
1492.970589276487
 20
3172.494269174611
 30
0.0
 11
1486.970589276487
 21
3172.494269174611
 31
0.0
  0
LINE
  5
18D3E
330
18C7A
100
AcDbEntity
  8
部品1
100
AcDbLine
 10
1534.470589276487
 20
2702.494269174615
 30
0.0
 11
1509.470589276487
 21
2702.494269174615
 31
0.0
  0
LINE
  5
18D3F
330
18C7A
100
AcDbEntity
  8
部品1
 48
50.0
100
AcDbLine
 10
1536.470589276487
 20
3152.494269174611
 30
0.0
 11
1536.470589276487
 21
2702.494269174615
 31
0.0
  0
LINE
  5
18D40
330
18C7A
100
AcDbEntity
  8
部品1
 48
50.0
100
AcDbLine
 10
1508.470589276487
 20
3152.494269174607
 30
0.0
 11
1508.470589276487
 21
2702.494269174615
 31
0.0
  0
LINE
  5
18D41
330
18C7A
100
AcDbEntity
  8
部品1
 48
50.0
100
AcDbLine
 10
1534.470589276487
 20
3154.494269174618
 30
0.0
 11
1534.470589276487
 21
2702.494269174615
 31
0.0
  0
LINE
  5
18D42
330
18C7A
100
AcDbEntity
  8
部品1
 48
50.0
100
AcDbLine
 10
1509.470589276487
 20
3154.494269174615
 30
0.0
 11
1509.470589276487
 21
2702.494269174615
 31
0.0
  0
LINE
  5
18D43
330
18C7A
100
AcDbEntity
  8
部品1
100
AcDbLine
 10
3411.970589276556
 20
1392.494269174582
 30
0.0
 11
3411.970589276556
 21
1420.494269174596
 31
0.0
  0
LINE
  5
18D44
330
18C7A
100
AcDbEntity
  8
部品1
100
AcDbLine
 10
1311.970589276523
 20
1392.494269174596
 30
0.0
 11
1311.970589276523
 21
1420.494269174596
 31
0.0
  0
LINE
  5
18D45
330
18C7A
100
AcDbEntity
  8
部品1
100
AcDbLine
 10
891.9705892765232
 20
1392.494269174596
 30
0.0
 11
891.9705892765232
 21
1420.494269174596
 31
0.0
  0
LINE
  5
18D46
330
18C7A
100
AcDbEntity
  8
部品1
100
AcDbLine
 10
3411.97058927652
 20
3182.494269174477
 30
0.0
 11
3411.970589276523
 21
3154.494269174477
 31
0.0
  0
LINE
  5
18D47
330
18C7A
100
AcDbEntity
  8
部品1
100
AcDbLine
 10
2571.97058927652
 20
3182.494269174477
 30
0.0
 11
2571.970589276523
 21
3154.494269174477
 31
0.0
  0
LINE
  5
18D48
330
18C7A
100
AcDbEntity
  8
部品1
100
AcDbLine
 10
2991.97058927652
 20
3182.494269174477
 30
0.0
 11
2991.970589276523
 21
3154.494269174477
 31
0.0
  0
LINE
  5
18D49
330
18C7A
100
AcDbEntity
  8
部品1
100
AcDbLine
 10
2151.970589276519
 20
3182.494269174477
 30
0.0
 11
2151.970589276523
 21
3154.494269174477
 31
0.0
  0
LINE
  5
18D4A
330
18C7A
100
AcDbEntity
  8
部品1
100
AcDbLine
 10
1731.970589276519
 20
3182.494269174477
 30
0.0
 11
1731.970589276523
 21
3154.494269174477
 31
0.0
  0
LINE
  5
18D4B
330
18C7A
100
AcDbEntity
  8
部品1
100
AcDbLine
 10
1311.970589276519
 20
3182.494269174477
 30
0.0
 11
1311.970589276523
 21
3154.494269174477
 31
0.0
  0
LINE
  5
18D4C
330
18C7A
100
AcDbEntity
  8
部品1
100
AcDbLine
 10
891.9705892765195
 20
3182.494269174477
 30
0.0
 11
891.9705892765232
 21
3154.494269174477
 31
0.0
  0
LINE
  5
18D4D
330
18C7A
100
AcDbEntity
  8
部品1
100
AcDbLine
 10
471.9705892765232
 20
1392.494269174596
 30
0.0
 11
471.9705892765232
 21
1420.494269174596
 31
0.0
  0
LINE
  5
18D4E
330
18C7A
100
AcDbEntity
  8
部品1
100
AcDbLine
 10
444.9705892765305
 20
1420.494269174558
 30
0.0
 11
3858.970589276556
 21
1420.494269174596
 31
0.0
  0
LINE
  5
18D4F
330
18C7A
100
AcDbEntity
  8
部品1
100
AcDbLine
 10
3831.970589276556
 20
1392.494269174596
 30
0.0
 11
3831.970589276556
 21
1420.494269174596
 31
0.0
  0
LINE
  5
18D50
330
18C7A
100
AcDbEntity
  8
部品1
100
AcDbLine
 10
3858.970589276556
 20
1447.494269174593
 30
0.0
 11
3886.970589276556
 21
1447.494269174593
 31
0.0
  0
LINE
  5
18D51
330
18C7A
100
AcDbEntity
  8
部品1
100
AcDbLine
 10
3858.970589276556
 20
1867.494269174607
 30
0.0
 11
3886.970589276556
 21
1867.494269174607
 31
0.0
  0
LINE
  5
18D52
330
18C7A
100
AcDbEntity
  8
部品1
100
AcDbLine
 10
444.9705892765305
 20
1867.49426917448
 30
0.0
 11
416.9705892765305
 21
1867.49426917448
 31
0.0
  0
LINE
  5
18D53
330
18C7A
100
AcDbEntity
  8
部品1
100
AcDbLine
 10
3830.470589276541
 20
1867.49426917458
 30
0.0
 11
473.4705892765396
 21
1867.49426917448
 31
0.0
  0
LINE
  5
18D54
330
18C7A
100
AcDbEntity
  8
部品1
100
AcDbLine
 10
3830.470589276541
 20
2287.49426917458
 30
0.0
 11
473.4705892765396
 21
2287.49426917448
 31
0.0
  0
LINE
  5
18D55
330
18C7A
100
AcDbEntity
  8
部品1
100
AcDbLine
 10
444.9705892765305
 20
2287.49426917448
 30
0.0
 11
416.9705892765305
 21
2287.49426917448
 31
0.0
  0
LINE
  5
18D56
330
18C7A
100
AcDbEntity
  8
部品1
100
AcDbLine
 10
3858.970589276556
 20
2287.494269174608
 30
0.0
 11
3886.970589276556
 21
2287.494269174608
 31
0.0
  0
LINE
  5
18D57
330
18C7A
100
AcDbEntity
  8
部品1
 48
50.0
100
AcDbLine
 10
2151.970589276551
 20
2702.494269174586
 30
0.0
 11
2151.970589276581
 21
1448.994269174494
 31
0.0
  0
LINE
  5
18D58
330
18C7A
100
AcDbEntity
  8
破線
 48
10.0
100
AcDbLine
 10
2959.470589276535
 20
1472.494269174522
 30
0.0
 11
2176.970589276532
 21
1472.494269174505
 31
0.0
  0
LINE
  5
18D59
330
18C7A
100
AcDbEntity
  8
破線
 48
10.0
100
AcDbLine
 10
3009.47058927653
 20
1448.994269174509
 30
0.0
 11
3009.47058927653
 21
2702.494269174615
 31
0.0
  0
LINE
  5
18D5A
330
18C7A
100
AcDbEntity
  8
破線
 48
10.0
100
AcDbLine
 10
2959.470589276535
 20
1448.994269174505
 30
0.0
 11
2959.470589276531
 21
2702.494269174615
 31
0.0
  0
LINE
  5
18D5B
330
18C7A
100
AcDbEntity
  8
破線
 48
10.0
100
AcDbLine
 10
1344.47058927653
 20
1448.994269174509
 30
0.0
 11
1344.47058927653
 21
2702.494269174615
 31
0.0
  0
LINE
  5
18D5C
330
18C7A
100
AcDbEntity
  8
破線
 48
10.0
100
AcDbLine
 10
1294.470589276534
 20
1448.994269174505
 30
0.0
 11
1294.47058927653
 21
2702.494269174615
 31
0.0
  0
DIMENSION
  5
18D5D
330
18C7A
100
AcDbEntity
  8
寸法
100
AcDbDimension
  2
*D13
 10
1451.234916278005
 20
2488.887829538828
 30
0.0
 11
916.0604668248634
 21
2488.887829538828
 31
0.0
 12
-3742.925985830444
 22
-6453.628869860112
 32
0.0
 70
   128
 71
     5
 42
1062.99999999993
  3
INABA_S40G
100
AcDbAlignedDimension
 13
445.4705892765559
 23
2702.494269174505
 33
0.0
 14
1508.470589276486
 24
2702.494269174558
 34
0.0
100
AcDbRotatedDimension
1001
ACAD
1000
DSTYLE
1002
{
1002
}
  0
LINE
  5
18D5E
330
18C7A
100
AcDbEntity
  8
破線
 48
10.0
100
AcDbLine
 10
1294.470589276534
 20
1472.494269174469
 30
0.0
 11
496.9705892765414
 21
1472.494269174476
 31
0.0
  0
LINE
  5
18D5F
330
18C7A
100
AcDbEntity
  8
部品1
100
AcDbLine
 10
3831.970589276556
 20
3182.494269174604
 30
0.0
 11
3831.970589276556
 21
3154.494269174604
 31
0.0
  0
LINE
  5
18D60
330
18C7A
100
AcDbEntity
  8
部品1
100
AcDbLine
 10
3831.970589276556
 20
3182.494269174626
 30
0.0
 11
3831.970589276556
 21
3154.494269174626
 31
0.0
  0
LINE
  5
18D61
330
18C7A
100
AcDbEntity
  8
部品1
100
AcDbLine
 10
3858.970589276556
 20
3127.494269174607
 30
0.0
 11
3886.970589276556
 21
3127.494269174607
 31
0.0
  0
LINE
  5
18D62
330
18C7A
100
AcDbEntity
  8
部品1
100
AcDbLine
 10
3858.970589276556
 20
2707.494269174608
 30
0.0
 11
3886.970589276556
 21
2707.494269174608
 31
0.0
  0
LINE
  5
18D63
330
18C7A
100
AcDbEntity
  8
部品1
100
AcDbLine
 10
3858.470589276556
 20
3152.494269174604
 30
0.0
 11
3858.470589276556
 21
2702.494269174608
 31
0.0
  0
LINE
  5
18D64
330
18C7A
100
AcDbEntity
  8
部品1
100
AcDbLine
 10
3886.970589276533
 20
1447.494269174593
 30
0.0
 11
3886.970589276531
 21
1392.494269174596
 31
0.0
  0
LINE
  5
18D65
330
18C7A
100
AcDbEntity
  8
部品1
 48
50.0
100
AcDbLine
 10
3830.470589276556
 20
1448.994269174596
 30
0.0
 11
3858.970589276554
 21
1420.494269174596
 31
0.0
  0
LINE
  5
18D66
330
18C7A
100
AcDbEntity
  8
部品1
100
AcDbLine
 10
3886.970589276531
 20
1392.494269174596
 30
0.0
 11
3835.970589276531
 21
1392.494269174596
 31
0.0
  0
LINE
  5
18D67
330
18C7A
100
AcDbEntity
  8
部品1
100
AcDbLine
 10
3858.970589276533
 20
1447.494269174593
 30
0.0
 11
3886.970589276531
 21
1447.494269174593
 31
0.0
  0
LINE
  5
18D68
330
18C7A
100
AcDbEntity
  8
部品1
100
AcDbLine
 10
3886.970589276556
 20
3182.494269174604
 30
0.0
 11
3886.970589276531
 21
1392.494269174596
 31
0.0
  0
DIMENSION
  5
18D69
330
18C7A
100
AcDbEntity
  8
寸法
100
AcDbDimension
  2
*D12
 10
4534.396935010967
 20
1447.494269174593
 30
0.0
 11
4534.396935010965
 21
2287.4942691746
 31
0.0
 12
-3742.925985830444
 22
-6453.628869860112
 32
0.0
 70
   128
  1
4X420=<>
 71
     5
 42
1680.000000000014
  3
INABA_S40G
100
AcDbAlignedDimension
 13
3886.970589276556
 23
3127.494269174607
 33
0.0
 14
3886.970589276531
 24
1447.494269174593
 34
0.0
 50
90.0
100
AcDbRotatedDimension
1001
ACAD
1000
DSTYLE
1002
{
1002
}
  0
LINE
  5
18D6A
330
18C7A
100
AcDbEntity
  8
部品1
100
AcDbLine
 10
3858.970589276556
 20
3154.494269174604
 30
0.0
 11
3858.970589276534
 21
1420.494269174596
 31
0.0
  0
DIMENSION
  5
18D6B
330
18C7A
100
AcDbEntity
  8
寸法
100
AcDbDimension
  2
*D11
 10
4213.82831513858
 20
2607.276453505718
 30
0.0
 11
4113.828315138579
 21
2832.276453505718
 31
0.0
 12
-3742.925985830444
 22
-6453.628869860112
 32
0.0
 71
     5
 42
449.9999999999963
  3
INABA_S40G
100
AcDbAlignedDimension
 13
3858.470589276556
 23
3152.494269174604
 33
0.0
 14
3858.470589276556
 24
2702.494269174608
 34
0.0
 50
90.0
100
AcDbRotatedDimension
1001
ACAD
1000
DSTYLE
1002
{
1002
}
  0
LINE
  5
18D6C
330
18C7A
100
AcDbEntity
  8
部品1
100
AcDbLine
 10
3830.470589276547
 20
2702.494269174608
 30
0.0
 11
3830.470589276556
 21
1448.994269174596
 31
0.0
  0
LINE
  5
18D6D
330
18C7A
100
AcDbEntity
  8
破線
 48
10.0
100
AcDbLine
 10
3806.970589276549
 20
2702.494269174608
 30
0.0
 11
3806.970589276558
 21
1472.494269174593
 31
0.0
  0
LINE
  5
18D6E
330
18C7A
100
AcDbEntity
  8
部品1
100
AcDbLine
 10
2769.470589276556
 20
3146.494269174608
 30
0.0
 11
2794.470589276556
 21
3146.494269174611
 31
0.0
  0
LINE
  5
18D6F
330
18C7A
100
AcDbEntity
  8
部品1
100
AcDbLine
 10
2810.970589276556
 20
3172.494269174611
 30
0.0
 11
2816.970589276556
 21
3172.494269174611
 31
0.0
  0
LINE
  5
18D70
330
18C7A
100
AcDbEntity
  8
部品1
100
AcDbLine
 10
2816.970589276556
 20
3172.494269174611
 30
0.0
 11
2816.970589276556
 21
3154.494269174611
 31
0.0
  0
LINE
  5
18D71
330
18C7A
100
AcDbEntity
  8
部品1
100
AcDbLine
 10
2746.970589276556
 20
3172.494269174611
 30
0.0
 11
2752.970589276556
 21
3172.494269174611
 31
0.0
  0
LINE
  5
18D72
330
18C7A
100
AcDbEntity
  8
部品1
100
AcDbLine
 10
2746.970589276556
 20
3172.494269174611
 30
0.0
 11
2746.970589276556
 21
3154.494269174611
 31
0.0
  0
LINE
  5
18D73
330
18C7A
100
AcDbEntity
  8
部品1
100
AcDbLine
 10
2769.470589276556
 20
2702.494269174615
 30
0.0
 11
2794.470589276556
 21
2702.494269174615
 31
0.0
  0
LINE
  5
18D74
330
18C7A
100
AcDbEntity
  8
部品1
 48
50.0
100
AcDbLine
 10
2794.470589276556
 20
3154.494269174615
 30
0.0
 11
2794.470589276556
 21
2702.494269174615
 31
0.0
  0
LINE
  5
18D75
330
18C7A
100
AcDbEntity
  8
部品1
 48
50.0
100
AcDbLine
 10
2769.470589276554
 20
3154.494269174618
 30
0.0
 11
2769.470589276556
 21
2702.494269174615
 31
0.0
  0
LINE
  5
18D76
330
18C7A
100
AcDbEntity
  8
部品1
 48
50.0
100
AcDbLine
 10
2795.470589276556
 20
3152.494269174607
 30
0.0
 11
2795.470589276556
 21
2702.494269174615
 31
0.0
  0
LINE
  5
18D77
330
18C7A
100
AcDbEntity
  8
部品1
 48
50.0
100
AcDbLine
 10
2767.470589276556
 20
3152.494269174611
 30
0.0
 11
2767.470589276556
 21
2702.494269174615
 31
0.0
  0
LINE
  5
18D78
330
18C7A
100
AcDbEntity
  8
破線
 48
10.0
100
AcDbLine
 10
2176.97058927653
 20
1448.994269174509
 30
0.0
 11
2176.97058927653
 21
2702.494269174588
 31
0.0
  0
LINE
  5
18D79
330
18C7A
100
AcDbEntity
  8
破線
 48
10.0
100
AcDbLine
 10
2126.970589276534
 20
1448.994269174505
 30
0.0
 11
2126.970589276531
 21
2702.494269174586
 31
0.0
  0
LINE
  5
18D7A
330
18C7A
100
AcDbEntity
  8
部品1
100
AcDbLine
 10
2794.470589276556
 20
3154.494269174622
 30
0.0
 11
3858.970589276556
 21
3154.494269174604
 31
0.0
  0
LINE
  5
18D7B
330
18C7A
100
AcDbEntity
  8
細線
 48
50.0
100
AcDbLine
 10
3858.470589276556
 20
2702.494269174608
 30
0.0
 11
2795.470589276556
 21
3152.494269174607
 31
0.0
  0
LINE
  5
18D7C
330
18C7A
100
AcDbEntity
  8
部品1
100
AcDbLine
 10
2795.470589276555
 20
2702.494269174615
 30
0.0
 11
3858.470589276556
 21
2702.494269174608
 31
0.0
  0
LINE
  5
18D7D
330
18C7A
100
AcDbEntity
  8
部品1
100
AcDbLine
 10
2795.470589276556
 20
3152.494269174611
 30
0.0
 11
3858.470589276556
 21
3152.494269174604
 31
0.0
  0
LINE
  5
18D7E
330
18C7A
100
AcDbEntity
  8
細線
 48
50.0
100
AcDbLine
 10
3858.470589276556
 20
3152.494269174604
 30
0.0
 11
2795.470589276555
 21
2702.494269174615
 31
0.0
  0
DIMENSION
  5
18D7F
330
18C7A
100
AcDbEntity
  8
寸法
100
AcDbDimension
  2
*D10
 10
3801.234916278101
 20
2488.887829538937
 30
0.0
 11
3318.360544398907
 21
2488.887829538937
 31
0.0
 12
-3742.925985830444
 22
-6453.628869860112
 32
0.0
 70
   128
 71
     5
 42
1063.000000000012
  3
INABA_S40G
100
AcDbAlignedDimension
 13
2795.470589276555
 23
2702.494269174615
 33
0.0
 14
3858.470589276567
 24
2702.494269174608
 34
0.0
100
AcDbRotatedDimension
1001
ACAD
1000
DSTYLE
1002
{
1002
}
  0
LINE
  5
18D80
330
18C7A
100
AcDbEntity
  8
破線
 48
10.0
100
AcDbLine
 10
3806.970589276556
 20
1472.494269174594
 30
0.0
 11
3009.47058927653
 21
1472.494269174523
 31
0.0
  0
DIMENSION
  5
18D81
330
18C7A
100
AcDbEntity
  8
寸法
100
AcDbDimension
  2
*D9
 10
4534.396935010941
 20
1392.494269174596
 30
0.0
 11
4534.39693501094
 21
1084.008987800356
 31
0.0
 12
-3742.925985830444
 22
-6453.628869860112
 32
0.0
 70
   128
 71
     5
 42
54.99999999999636
  3
INABA_S40G
100
AcDbAlignedDimension
 13
3886.970589276531
 23
1447.494269174593
 33
0.0
 14
3886.970589276531
 24
1392.494269174596
 34
0.0
 50
90.0
100
AcDbRotatedDimension
1001
ACAD
1000
DSTYLE
1002
{
1002
}
  0
LINE
  5
18D82
330
18C7A
100
AcDbEntity
  8
部品1
100
AcDbLine
 10
471.9705892765196
 20
3182.494269174477
 30
0.0
 11
471.9705892765232
 21
3154.494269174477
 31
0.0
  0
LINE
  5
18D83
330
18C7A
100
AcDbEntity
  8
部品1
100
AcDbLine
 10
471.9705892765559
 20
3182.494269174509
 30
0.0
 11
471.9705892765559
 21
3154.494269174509
 31
0.0
  0
LINE
  5
18D84
330
18C7A
100
AcDbEntity
  8
部品1
100
AcDbLine
 10
444.9705892765232
 20
3127.49426917448
 30
0.0
 11
416.9705892765232
 21
3127.49426917448
 31
0.0
  0
LINE
  5
18D85
330
18C7A
100
AcDbEntity
  8
部品1
100
AcDbLine
 10
444.9705892765305
 20
2707.49426917448
 30
0.0
 11
416.9705892765305
 21
2707.49426917448
 31
0.0
  0
LINE
  5
18D86
330
18C7A
100
AcDbEntity
  8
部品1
 48
50.0
100
AcDbLine
 10
445.4705892765542
 20
3152.494269174506
 30
0.0
 11
445.4705892765559
 21
2702.494269174505
 31
0.0
  0
LINE
  5
18D87
330
18C7A
100
AcDbEntity
  8
部品1
 48
50.0
100
AcDbLine
 10
473.470589276545
 20
1448.994269174573
 30
0.0
 11
444.970589276545
 21
1420.494269174574
 31
0.0
  0
LINE
  5
18D88
330
18C7A
100
AcDbEntity
  8
部品1
100
AcDbLine
 10
471.9705892765232
 20
1392.494269174465
 30
0.0
 11
416.9705892765486
 21
1392.494269174465
 31
0.0
  0
LINE
  5
18D89
330
18C7A
100
AcDbEntity
  8
部品1
100
AcDbLine
 10
444.9705892765305
 20
1447.494269174429
 30
0.0
 11
416.9705892765469
 21
1447.494269174429
 31
0.0
  0
LINE
  5
18D8A
330
18C7A
100
AcDbEntity
  8
部品1
100
AcDbLine
 10
444.9705892765305
 20
1447.494269174465
 30
0.0
 11
416.9705892765469
 21
1447.494269174465
 31
0.0
  0
LINE
  5
18D8B
330
18C7A
100
AcDbEntity
  8
部品1
100
AcDbLine
 10
444.9705892765469
 20
1447.49426917448
 30
0.0
 11
416.9705892765469
 21
1447.49426917448
 31
0.0
  0
LINE
  5
18D8C
330
18C7A
100
AcDbEntity
  8
部品1
100
AcDbLine
 10
416.9705892765469
 20
1447.494269174429
 30
0.0
 11
416.9705892765486
 21
1392.494269174433
 31
0.0
  0
LINE
  5
18D8D
330
18C7A
100
AcDbEntity
  8
部品1
100
AcDbLine
 10
416.9705892765196
 20
3182.494269174477
 30
0.0
 11
416.9705892765486
 21
1392.494269174465
 31
0.0
  0
LINE
  5
18D8E
330
18C7A
100
AcDbEntity
  8
部品1
100
AcDbLine
 10
444.9705892765305
 20
1420.494269174556
 30
0.0
 11
444.9705892765559
 21
3154.494269174509
 31
0.0
  0
LINE
  5
18D8F
330
18C7A
100
AcDbEntity
  8
部品1
100
AcDbLine
 10
473.4705892765323
 20
2702.494269174608
 30
0.0
 11
473.470589276545
 21
1448.994269174571
 31
0.0
  0
LINE
  5
18D90
330
18C7A
100
AcDbEntity
  8
破線
 48
10.0
100
AcDbLine
 10
496.9705892765305
 20
2702.494269174608
 30
0.0
 11
496.9705892765451
 21
1472.494269174476
 31
0.0
  0
DIMENSION
  5
18D91
330
18C7A
100
AcDbEntity
  8
寸法
100
AcDbDimension
  2
*D8
 10
3886.970589276531
 20
410.7433333855515
 30
0.0
 11
2168.197775309287
 21
410.7433333855515
 31
0.0
 12
-3742.925985830444
 22
-6453.628869860112
 32
0.0
 70
   128
 71
     5
 42
3469.999999999982
  3
INABA_S40G
100
AcDbAlignedDimension
 13
416.9705892765486
 23
1392.494269174433
 33
0.0
 14
3886.970589276531
 24
1392.49426917456
 34
0.0
100
AcDbRotatedDimension
1001
ACAD
1000
DSTYLE
1002
{
1070
   341
1005
0
1002
}
  0
LINE
  5
18D92
330
18C7A
100
AcDbEntity
  8
部品1
100
AcDbLine
 10
444.9705892765559
 20
3154.494269174624
 30
0.0
 11
1509.470589276487
 21
3154.494269174626
 31
0.0
  0
LINE
  5
18D93
330
18C7A
100
AcDbEntity
  8
部品1
100
AcDbLine
 10
3886.970589276531
 20
1392.494269174596
 30
0.0
 11
3411.970589276556
 21
1392.494269174582
 31
0.0
  0
LINE
  5
18D94
330
18C7A
100
AcDbEntity
  8
部品1
100
AcDbLine
 10
416.9705892765559
 20
3182.494269174509
 30
0.0
 11
3886.970589276556
 21
3182.494269174604
 31
0.0
  0
LINE
  5
18D95
330
18C7A
100
AcDbEntity
  8
部品1
100
AcDbLine
 10
445.4705892765559
 20
2702.494269174509
 30
0.0
 11
1508.470589276487
 21
2702.494269174558
 31
0.0
  0
LINE
  5
18D96
330
18C7A
100
AcDbEntity
  8
細線
 48
50.0
100
AcDbLine
 10
2767.470589276556
 20
3152.494269174611
 30
0.0
 11
1536.470589276487
 21
2702.494269174558
 31
0.0
  0
LINE
  5
18D97
330
18C7A
100
AcDbEntity
  8
部品1
100
AcDbLine
 10
445.4705892765542
 20
3152.494269174509
 30
0.0
 11
1508.470589276485
 21
3152.494269174558
 31
0.0
  0
LINE
  5
18D98
330
18C7A
100
AcDbEntity
  8
細線
 48
50.0
100
AcDbLine
 10
2767.470589276554
 20
2702.494269174615
 30
0.0
 11
1536.470589276485
 21
3152.494269174558
 31
0.0
  0
LINE
  5
18D99
330
18C7A
100
AcDbEntity
  8
破線
 48
10.0
100
AcDbLine
 10
2126.970589276534
 20
1472.494269174502
 30
0.0
 11
1344.47058927653
 21
1472.494269174473
 31
0.0
  0
LINE
  5
18D9A
330
18C7A
100
AcDbEntity
  8
部品1
100
AcDbLine
 10
3830.470589276556
 20
1448.994269174596
 30
0.0
 11
473.4705892764487
 21
1448.994269174476
 31
0.0
  0
DIMENSION
  5
18D9B
330
18C7A
100
AcDbEntity
  8
寸法
100
AcDbDimension
  2
*D7
 10
471.970589276555
 20
3698.302488799491
 30
0.0
 11
108.4853079022819
 21
3698.302488799491
 31
0.0
 12
-3742.925985830444
 22
-6453.628869860112
 32
0.0
 70
   128
 71
     5
 42
55.00000000003456
  3
INABA_S40G
100
AcDbAlignedDimension
 13
416.9705892765205
 23
3182.494269174509
 33
0.0
 14
471.970589276555
 24
3182.494269174509
 34
0.0
100
AcDbRotatedDimension
1001
ACAD
1000
DSTYLE
1002
{
1002
}
  0
DIMENSION
  5
18D9C
330
18C7A
100
AcDbEntity
  8
寸法
100
AcDbDimension
  2
*D6
 10
4534.396935010967
 20
3127.494269174607
 30
0.0
 11
4534.396935010965
 21
3490.979550548844
 31
0.0
 12
-3742.925985830444
 22
-6453.628869860112
 32
0.0
 70
   128
 71
     5
 42
54.99999999999636
  3
INABA_S40G
100
AcDbAlignedDimension
 13
3886.970589276556
 23
3182.494269174604
 33
0.0
 14
3886.970589276556
 24
3127.494269174607
 34
0.0
 50
90.0
100
AcDbRotatedDimension
1001
ACAD
1000
DSTYLE
1002
{
1002
}
  0
DIMENSION
  5
18D9D
330
18C7A
100
AcDbEntity
  8
寸法
100
AcDbDimension
  2
*D5
 10
3886.970589276556
 20
3698.302488799589
 30
0.0
 11
4195.455870650794
 21
3698.302488799589
 31
0.0
 12
-3742.925985830444
 22
-6453.628869860112
 32
0.0
 70
   128
 71
     5
 42
55.0
  3
INABA_S40G
100
AcDbAlignedDimension
 13
3831.970589276556
 23
3182.494269174604
 33
0.0
 14
3886.970589276556
 24
3182.494269174604
 34
0.0
100
AcDbRotatedDimension
1001
ACAD
1000
DSTYLE
1002
{
1002
}
  0
DIMENSION
  5
18D9E
330
18C7A
100
AcDbEntity
  8
寸法
100
AcDbDimension
  2
*D4
 10
3831.970589276556
 20
3698.302488799607
 30
0.0
 11
2151.970589276555
 21
3698.302488799607
 31
0.0
 12
-3742.925985830444
 22
-6453.628869860112
 32
0.0
 70
   128
  1
8X420=<>
 71
     5
 42
3360.000000000001
  3
INABA_S40G
100
AcDbAlignedDimension
 13
471.970589276555
 23
3182.494269174509
 33
0.0
 14
3831.970589276556
 24
3182.494269174604
 34
0.0
100
AcDbRotatedDimension
1001
ACAD
1000
DSTYLE
1002
{
1002
}
  0
DIMENSION
  5
18D9F
330
18C7A
100
AcDbEntity
  8
寸法
100
AcDbDimension
  2
*D3
 10
4899.503876750603
 20
1392.494269174596
 30
0.0
 11
4899.503876750601
 21
2287.4942691746
 31
0.0
 12
-3742.925985830444
 22
-6453.628869860112
 32
0.0
 70
   128
 71
     5
 42
1790.000000000007
  3
INABA_S40G
100
AcDbAlignedDimension
 13
3886.970589276556
 23
3182.494269174604
 33
0.0
 14
3886.970589276531
 24
1392.494269174596
 34
0.0
 50
90.0
100
AcDbRotatedDimension
1001
ACAD
1000
DSTYLE
1002
{
1002
}
  0
ENDBLK
  5
18DA1
330
18C7A
100
AcDbEntity
  8
0
 48
50.0
100
AcDbBlockEnd
  0
BLOCK
  5
1C4CB
330
1C4CA
100
AcDbEntity
  8
0
 48
50.0
100
AcDbBlockBegin
  2
_NONE
 70
     0
 10
0.0
 20
0.0
 30
0.0
  3
_NONE
  1

  0
CIRCLE
  5
1C4CC
330
1C4CA
100
AcDbEntity
  8
0
  6
ByBlock
 62
     0
 48
50.0
100
AcDbCircle
 10
0.0
 20
0.0
 30
0.0
 40
0.25
  0
ENDBLK
  5
1C4CD
330
1C4CA
100
AcDbEntity
  8
0
 48
50.0
100
AcDbBlockEnd
  0
BLOCK
  5
20DEE
330
20DE2
100
AcDbEntity
  8
0
 48
50.0
100
AcDbBlockBegin
  2
*D19
 70
     1
 10
0.0
 20
0.0
 30
0.0
  3
*D19
  1

  0
LINE
  5
26D60
330
20DE2
100
AcDbEntity
  8
寸法
 62
     0
 48
50.0
370
    -2
100
AcDbLine
 10
11078.6
 20
7637.186130694103
 30
0.0
 11
11078.6
 21
8635.406452753024
 31
0.0
  0
LINE
  5
26D61
330
20DE2
100
AcDbEntity
  8
寸法
 62
     0
 48
50.0
370
    -2
100
AcDbLine
 10
11123.6
 20
8363.452588788014
 30
0.0
 11
11123.6
 21
8635.406452753024
 31
0.0
  0
LINE
  5
26D62
330
20DE2
100
AcDbEntity
  8
寸法
 62
     0
 48
50.0
370
    -2
100
AcDbLine
 10
11078.6
 20
8575.406452753025
 30
0.0
 11
10978.6
 21
8575.406452753025
 31
0.0
  0
LINE
  5
26D63
330
20DE2
100
AcDbEntity
  8
寸法
 62
     0
 48
50.0
370
    -2
100
AcDbLine
 10
11123.6
 20
8575.406452753025
 30
0.0
 11
11460.94924240492
 21
8575.406452753025
 31
0.0
  0
LINE
  5
26D64
330
20DE2
100
AcDbEntity
  8
寸法
 62
     0
 48
50.0
370
    -2
100
AcDbLine
 10
11078.6
 20
8575.406452753025
 30
0.0
 11
11123.6
 21
8575.406452753025
 31
0.0
  0
INSERT
  5
26D65
330
20DE2
100
AcDbEntity
  8
寸法
 62
     0
 48
50.0
370
    -2
100
AcDbBlockReference
  2
_DOTSMALL
 10
11078.6
 20
8575.406452753025
 30
0.0
 41
100.0
 42
100.0
 43
100.0
  0
INSERT
  5
26D66
330
20DE2
100
AcDbEntity
  8
寸法
 62
     0
 48
50.0
370
    -2
100
AcDbBlockReference
  2
_DOTSMALL
 10
11123.6
 20
8575.406452753025
 30
0.0
 41
100.0
 42
100.0
 43
100.0
 50
180.0
  0
MTEXT
  5
26D67
330
20DE2
100
AcDbEntity
  8
寸法
 62
     7
 48
50.0
100
AcDbMText
 10
11394.77462120246
 20
8675.406452753025
 30
0.0
 40
120.0
 41
0.0
 71
     5
 72
     1
  1
\A1;a
  7
STYLE1
 73
     1
 44
1.0
1001
ACAD
1000
MTEXTBEGIN
1070
    73
1070
     1
1070
    44
1040
1.0
1070
    74
1070
     0
1000
MTEXTEND
  0
POINT
  5
26D68
330
20DE2
100
AcDbEntity
  8
DEFPOINTS
 62
     0
 48
50.0
100
AcDbPoint
 10
11078.6
 20
7617.186130694102
 30
0.0
  0
POINT
  5
26D69
330
20DE2
100
AcDbEntity
  8
DEFPOINTS
 62
     0
 48
50.0
100
AcDbPoint
 10
11123.6
 20
8343.452588788014
 30
0.0
  0
POINT
  5
26D6A
330
20DE2
100
AcDbEntity
  8
DEFPOINTS
 62
     0
 48
50.0
100
AcDbPoint
 10
11123.6
 20
8575.406452753025
 30
0.0
  0
ENDBLK
  5
20DEF
330
20DE2
100
AcDbEntity
  8
0
 48
50.0
100
AcDbBlockEnd
  0
BLOCK
  5
20E08
330
20DFC
100
AcDbEntity
  8
0
 48
50.0
100
AcDbBlockBegin
  2
*D20
 70
     1
 10
0.0
 20
0.0
 30
0.0
  3
*D20
  1

  0
LINE
  5
26D7F
330
20DFC
100
AcDbEntity
  8
寸法
 62
     0
 48
50.0
370
    -2
100
AcDbLine
 10
5323.6
 20
8363.452588788025
 30
0.0
 11
5323.6
 21
8635.406452753034
 31
0.0
  0
LINE
  5
26D80
330
20DFC
100
AcDbEntity
  8
寸法
 62
     0
 48
50.0
370
    -2
100
AcDbLine
 10
5368.599999999997
 20
7637.186130694111
 30
0.0
 11
5368.599999999997
 21
8635.406452753034
 31
0.0
  0
LINE
  5
26D81
330
20DFC
100
AcDbEntity
  8
寸法
 62
     0
 48
50.0
370
    -2
100
AcDbLine
 10
5368.599999999997
 20
8575.406452753034
 30
0.0
 11
5468.599999999997
 21
8575.406452753034
 31
0.0
  0
LINE
  5
26D82
330
20DFC
100
AcDbEntity
  8
寸法
 62
     0
 48
50.0
370
    -2
100
AcDbLine
 10
5323.6
 20
8575.406452753034
 30
0.0
 11
4986.25075759508
 21
8575.406452753034
 31
0.0
  0
LINE
  5
26D83
330
20DFC
100
AcDbEntity
  8
寸法
 62
     0
 48
50.0
370
    -2
100
AcDbLine
 10
5368.599999999997
 20
8575.406452753034
 30
0.0
 11
5323.6
 21
8575.406452753034
 31
0.0
  0
INSERT
  5
26D84
330
20DFC
100
AcDbEntity
  8
寸法
 62
     0
 48
50.0
370
    -2
100
AcDbBlockReference
  2
_DOTSMALL
 10
5368.599999999997
 20
8575.406452753034
 30
0.0
 41
100.0
 42
100.0
 43
100.0
 50
180.0
  0
INSERT
  5
26D85
330
20DFC
100
AcDbEntity
  8
寸法
 62
     0
 48
50.0
370
    -2
100
AcDbBlockReference
  2
_DOTSMALL
 10
5323.6
 20
8575.406452753034
 30
0.0
 41
100.0
 42
100.0
 43
100.0
  0
MTEXT
  5
26D86
330
20DFC
100
AcDbEntity
  8
寸法
 62
     7
 48
50.0
100
AcDbMText
 10
5052.425378797537
 20
8675.406452753033
 30
0.0
 40
120.0
 41
0.0
 71
     5
 72
     1
  1
\A1;a
  7
STYLE1
 73
     1
 44
1.0
1001
ACAD
1000
MTEXTBEGIN
1070
    73
1070
     1
1070
    44
1040
1.0
1070
    74
1070
     0
1000
MTEXTEND
  0
POINT
  5
26D87
330
20DFC
100
AcDbEntity
  8
DEFPOINTS
 62
     0
 48
50.0
100
AcDbPoint
 10
5323.6
 20
8343.452588788023
 30
0.0
  0
POINT
  5
26D88
330
20DFC
100
AcDbEntity
  8
DEFPOINTS
 62
     0
 48
50.0
100
AcDbPoint
 10
5368.599999999997
 20
7617.186130694112
 30
0.0
  0
POINT
  5
26D89
330
20DFC
100
AcDbEntity
  8
DEFPOINTS
 62
     0
 48
50.0
100
AcDbPoint
 10
5368.599999999997
 20
8575.406452753034
 30
0.0
  0
ENDBLK
  5
20E09
330
20DFC
100
AcDbEntity
  8
0
 48
50.0
100
AcDbBlockEnd
  0
BLOCK
  5
2274E
330
22742
100
AcDbEntity
  8
0
 48
50.0
100
AcDbBlockBegin
  2
*D21
 70
     1
 10
0.0
 20
0.0
 30
0.0
  3
*D21
  1

  0
LINE
  5
26D8A
330
22742
100
AcDbEntity
  8
寸法
 62
     0
 48
50.0
370
    -2
100
AcDbLine
 10
4725.665006330067
 20
7692.186130694118
 30
0.0
 11
4433.721909610673
 21
7692.186130694118
 31
0.0
  0
LINE
  5
26D8B
330
22742
100
AcDbEntity
  8
寸法
 62
     0
 48
50.0
370
    -2
100
AcDbLine
 10
5348.599999999997
 20
7617.186130694112
 30
0.0
 11
4433.721909610673
 21
7617.186130694112
 31
0.0
  0
LINE
  5
26D8C
330
22742
100
AcDbEntity
  8
寸法
 62
     0
 48
50.0
370
    -2
100
AcDbLine
 10
4493.721909610672
 20
7692.186130694118
 30
0.0
 11
4493.721909610672
 21
7792.186130694118
 31
0.0
  0
LINE
  5
26D8D
330
22742
100
AcDbEntity
  8
寸法
 62
     0
 48
50.0
370
    -2
100
AcDbLine
 10
4493.721909610672
 20
7617.186130694112
 30
0.0
 11
4493.721909610672
 21
7517.186130694113
 31
0.0
  0
LINE
  5
26D8E
330
22742
100
AcDbEntity
  8
寸法
 62
     0
 48
50.0
370
    -2
100
AcDbLine
 10
4493.721909610672
 20
7692.186130694118
 30
0.0
 11
4493.721909610672
 21
7617.186130694112
 31
0.0
  0
INSERT
  5
26D8F
330
22742
100
AcDbEntity
  8
寸法
 62
     0
 48
50.0
370
    -2
100
AcDbBlockReference
  2
_DOTSMALL
 10
4493.721909610672
 20
7692.186130694118
 30
0.0
 41
100.0
 42
100.0
 43
100.0
 50
270.0
  0
INSERT
  5
26D90
330
22742
100
AcDbEntity
  8
寸法
 62
     0
 48
50.0
370
    -2
100
AcDbBlockReference
  2
_DOTSMALL
 10
4493.721909610672
 20
7617.186130694112
 30
0.0
 41
100.0
 42
100.0
 43
100.0
 50
90.0
  0
MTEXT
  5
26D91
330
22742
100
AcDbEntity
  8
寸法
 62
     7
 48
50.0
100
AcDbMText
 10
4393.721909610672
 20
7654.686130694115
 30
0.0
 40
120.0
 41
0.0
 71
     5
 72
     1
  1
\A1;c
  7
STYLE1
 11
0.0000000000000001
 21
1.0
 31
0.0
 73
     1
 44
1.0
1001
ACAD
1000
MTEXTBEGIN
1070
    73
1070
     1
1070
    44
1040
1.0
1070
    74
1070
     0
1000
MTEXTEND
  0
POINT
  5
26D92
330
22742
100
AcDbEntity
  8
DEFPOINTS
 62
     0
 48
50.0
100
AcDbPoint
 10
4745.665006330067
 20
7692.186130694118
 30
0.0
  0
POINT
  5
26D93
330
22742
100
AcDbEntity
  8
DEFPOINTS
 62
     0
 48
50.0
100
AcDbPoint
 10
5368.599999999997
 20
7617.186130694112
 30
0.0
  0
POINT
  5
26D94
330
22742
100
AcDbEntity
  8
DEFPOINTS
 62
     0
 48
50.0
100
AcDbPoint
 10
4493.721909610672
 20
7617.186130694112
 30
0.0
  0
ENDBLK
  5
2274F
330
22742
100
AcDbEntity
  8
0
 48
50.0
100
AcDbBlockEnd
  0
BLOCK
  5
22768
330
2275C
100
AcDbEntity
  8
0
 48
50.0
100
AcDbBlockBegin
  2
*D22
 70
     1
 10
0.0
 20
0.0
 30
0.0
  3
*D22
  1

  0
LINE
  5
26D95
330
2275C
100
AcDbEntity
  8
寸法
 62
     0
 48
50.0
370
    -2
100
AcDbLine
 10
5348.599999999997
 20
6077.186130694144
 30
0.0
 11
4433.721909610669
 21
6077.186130694144
 31
0.0
  0
LINE
  5
26D96
330
2275C
100
AcDbEntity
  8
寸法
 62
     0
 48
50.0
370
    -2
100
AcDbLine
 10
4725.665006330067
 20
6022.186130694169
 30
0.0
 11
4433.721909610669
 21
6022.186130694169
 31
0.0
  0
LINE
  5
26D97
330
2275C
100
AcDbEntity
  8
寸法
 62
     0
 48
50.0
370
    -2
100
AcDbLine
 10
4493.721909610669
 20
6077.186130694144
 30
0.0
 11
4493.72190961067
 21
6177.186130694144
 31
0.0
  0
LINE
  5
26D98
330
2275C
100
AcDbEntity
  8
寸法
 62
     0
 48
50.0
370
    -2
100
AcDbLine
 10
4493.721909610669
 20
6022.186130694169
 30
0.0
 11
4493.721909610669
 21
5922.186130694169
 31
0.0
  0
LINE
  5
26D99
330
2275C
100
AcDbEntity
  8
寸法
 62
     0
 48
50.0
370
    -2
100
AcDbLine
 10
4493.721909610669
 20
6077.186130694144
 30
0.0
 11
4493.721909610669
 21
6022.186130694169
 31
0.0
  0
INSERT
  5
26D9A
330
2275C
100
AcDbEntity
  8
寸法
 62
     0
 48
50.0
370
    -2
100
AcDbBlockReference
  2
_DOTSMALL
 10
4493.721909610669
 20
6077.186130694144
 30
0.0
 41
100.0
 42
100.0
 43
100.0
 50
270.0
  0
INSERT
  5
26D9B
330
2275C
100
AcDbEntity
  8
寸法
 62
     0
 48
50.0
370
    -2
100
AcDbBlockReference
  2
_DOTSMALL
 10
4493.721909610669
 20
6022.186130694169
 30
0.0
 41
100.0
 42
100.0
 43
100.0
 50
90.0
  0
MTEXT
  5
26D9C
330
2275C
100
AcDbEntity
  8
寸法
 62
     7
 48
50.0
100
AcDbMText
 10
4393.721909610667
 20
6049.686130694158
 30
0.0
 40
120.0
 41
0.0
 71
     5
 72
     1
  1
\A1;b
  7
STYLE1
 11
0.0000000000000001
 21
1.0
 31
0.0
 73
     1
 44
1.0
1001
ACAD
1000
MTEXTBEGIN
1070
    73
1070
     1
1070
    44
1040
1.0
1070
    74
1070
     0
1000
MTEXTEND
  0
POINT
  5
26D9D
330
2275C
100
AcDbEntity
  8
DEFPOINTS
 62
     0
 48
50.0
100
AcDbPoint
 10
5368.599999999997
 20
6077.186130694144
 30
0.0
  0
POINT
  5
26D9E
330
2275C
100
AcDbEntity
  8
DEFPOINTS
 62
     0
 48
50.0
100
AcDbPoint
 10
4745.665006330067
 20
6022.186130694169
 30
0.0
  0
POINT
  5
26D9F
330
2275C
100
AcDbEntity
  8
DEFPOINTS
 62
     0
 48
50.0
100
AcDbPoint
 10
4493.721909610669
 20
6022.186130694169
 30
0.0
  0
ENDBLK
  5
22769
330
2275C
100
AcDbEntity
  8
0
 48
50.0
100
AcDbBlockEnd
  0
BLOCK
  5
240CF
330
240C4
100
AcDbEntity
  8
0
 48
50.0
100
AcDbBlockBegin
  2
*D23
 70
     1
 10
0.0
 20
0.0
 30
0.0
  3
*D23
  1

  0
LINE
  5
26ED0
330
240C4
100
AcDbEntity
  8
寸法
 62
     0
 48
50.0
370
    -2
100
AcDbLine
 10
11078.6
 20
7072.186130694141
 30
0.0
 11
11078.6
 21
7226.784743792214
 31
0.0
  0
LINE
  5
26ED1
330
240C4
100
AcDbEntity
  8
寸法
 62
     0
 48
50.0
370
    -2
100
AcDbLine
 10
10958.6
 20
7072.186130694138
 30
0.0
 11
10958.6
 21
7226.784743792214
 31
0.0
  0
LINE
  5
26ED2
330
240C4
100
AcDbEntity
  8
寸法
 62
     0
 48
50.0
370
    -2
100
AcDbLine
 10
10958.6
 20
7166.784743792213
 30
0.0
 11
11078.6
 21
7166.784743792213
 31
0.0
  0
LINE
  5
26ED3
330
240C4
100
AcDbEntity
  8
寸法
 62
     0
 48
50.0
370
    -2
100
AcDbLine
 10
11078.6
 20
7166.784743792213
 30
0.0
 11
11484.70629921261
 21
7166.784743792213
 31
0.0
  0
INSERT
  5
26ED4
330
240C4
100
AcDbEntity
  8
寸法
 62
     0
 48
50.0
370
    -2
100
AcDbBlockReference
  2
_DOTSMALL
 10
10958.6
 20
7166.784743792213
 30
0.0
 41
100.0
 42
100.0
 43
100.0
 50
180.0
  0
INSERT
  5
26ED5
330
240C4
100
AcDbEntity
  8
寸法
 62
     0
 48
50.0
370
    -2
100
AcDbBlockReference
  2
_DOTSMALL
 10
11078.6
 20
7166.784743792213
 30
0.0
 41
100.0
 42
100.0
 43
100.0
  0
MTEXT
  5
26ED6
330
240C4
100
AcDbEntity
  8
寸法
 62
     7
 48
50.0
100
AcDbMText
 10
11348.65905511811
 20
7266.796554815835
 30
0.0
 40
120.0
 41
0.0
 71
     5
 72
     1
  1
\A1;120
  7
STYLE1
 73
     1
 44
1.0
1001
ACAD
1000
MTEXTBEGIN
1070
    73
1070
     1
1070
    44
1040
1.0
1070
    74
1070
     0
1000
MTEXTEND
  0
POINT
  5
26ED7
330
240C4
100
AcDbEntity
  8
DEFPOINTS
 62
     0
 48
50.0
100
AcDbPoint
 10
11078.6
 20
7052.18613069414
 30
0.0
  0
POINT
  5
26ED8
330
240C4
100
AcDbEntity
  8
DEFPOINTS
 62
     0
 48
50.0
100
AcDbPoint
 10
10958.6
 20
7052.186130694138
 30
0.0
  0
POINT
  5
26ED9
330
240C4
100
AcDbEntity
  8
DEFPOINTS
 62
     0
 48
50.0
100
AcDbPoint
 10
10958.6
 20
7166.784743792213
 30
0.0
  0
ENDBLK
  5
240D0
330
240C4
100
AcDbEntity
  8
0
 48
50.0
100
AcDbBlockEnd
  0
BLOCK
  5
240DC
330
240D1
100
AcDbEntity
  8
0
 48
50.0
100
AcDbBlockBegin
  2
*D24
 70
     1
 10
0.0
 20
0.0
 30
0.0
  3
*D24
  1

  0
LINE
  5
26EB1
330
240D1
100
AcDbEntity
  8
寸法
 62
     0
 48
50.0
370
    -2
100
AcDbLine
 10
10478.59999999999
 20
6357.186130694101
 30
0.0
 11
10337.81202022566
 21
6357.186130694101
 31
0.0
  0
LINE
  5
26EB2
330
240D1
100
AcDbEntity
  8
寸法
 62
     0
 48
50.0
370
    -2
100
AcDbLine
 10
10478.6
 20
6077.186130694121
 30
0.0
 11
10337.81202022566
 21
6077.186130694121
 31
0.0
  0
LINE
  5
26EB3
330
240D1
100
AcDbEntity
  8
寸法
 62
     0
 48
50.0
370
    -2
100
AcDbLine
 10
10397.81202022566
 20
6357.186130694101
 30
0.0
 11
10397.81202022566
 21
6077.186130694121
 31
0.0
  0
LINE
  5
26EB4
330
240D1
100
AcDbEntity
  8
寸法
 62
     0
 48
50.0
370
    -2
100
AcDbLine
 10
10397.81202022566
 20
6077.186130694121
 30
0.0
 11
10397.81202022566
 21
5640.651681875215
 31
0.0
  0
INSERT
  5
26EB5
330
240D1
100
AcDbEntity
  8
寸法
 62
     0
 48
50.0
370
    -2
100
AcDbBlockReference
  2
_DOTSMALL
 10
10397.81202022566
 20
6357.186130694101
 30
0.0
 41
100.0
 42
100.0
 43
100.0
 50
90.0
  0
INSERT
  5
26EB6
330
240D1
100
AcDbEntity
  8
寸法
 62
     0
 48
50.0
370
    -2
100
AcDbBlockReference
  2
_DOTSMALL
 10
10397.81202022566
 20
6077.186130694121
 30
0.0
 41
100.0
 42
100.0
 43
100.0
 50
270.0
  0
MTEXT
  5
26EB7
330
240D1
100
AcDbEntity
  8
寸法
 62
     7
 48
50.0
100
AcDbMText
 10
10297.80020920203
 20
5790.222548016949
 30
0.0
 40
120.0
 41
0.0
 71
     5
 72
     1
  1
\A1;280
  7
STYLE1
 11
0.0000000000000001
 21
1.0
 31
0.0
 73
     1
 44
1.0
1001
ACAD
1000
MTEXTBEGIN
1070
    73
1070
     1
1070
    44
1040
1.0
1070
    74
1070
     0
1000
MTEXTEND
  0
POINT
  5
26EB8
330
240D1
100
AcDbEntity
  8
DEFPOINTS
 62
     0
 48
50.0
100
AcDbPoint
 10
10498.59999999999
 20
6357.186130694101
 30
0.0
  0
POINT
  5
26EB9
330
240D1
100
AcDbEntity
  8
DEFPOINTS
 62
     0
 48
50.0
100
AcDbPoint
 10
10498.6
 20
6077.186130694121
 30
0.0
  0
POINT
  5
26EBA
330
240D1
100
AcDbEntity
  8
DEFPOINTS
 62
     0
 48
50.0
100
AcDbPoint
 10
10397.81202022566
 20
6077.186130694121
 30
0.0
  0
ENDBLK
  5
240DD
330
240D1
100
AcDbEntity
  8
0
 48
50.0
100
AcDbBlockEnd
  0
BLOCK
  5
240E9
330
240DE
100
AcDbEntity
  8
0
 48
50.0
100
AcDbBlockBegin
  2
*D25
 70
     1
 10
0.0
 20
0.0
 30
0.0
  3
*D25
  1

  0
LINE
  5
26D75
330
240DE
100
AcDbEntity
  8
寸法
 62
     0
 48
50.0
370
    -2
100
AcDbLine
 10
10478.6
 20
7617.18613069409
 30
0.0
 11
10337.81202022566
 21
7617.18613069409
 31
0.0
  0
LINE
  5
26D76
330
240DE
100
AcDbEntity
  8
寸法
 62
     0
 48
50.0
370
    -2
100
AcDbLine
 10
10478.60000000001
 20
7417.186130694105
 30
0.0
 11
10337.81202022566
 21
7417.186130694105
 31
0.0
  0
LINE
  5
26D77
330
240DE
100
AcDbEntity
  8
寸法
 62
     0
 48
50.0
370
    -2
100
AcDbLine
 10
10397.81202022566
 20
7417.186130694105
 30
0.0
 11
10397.81202022566
 21
7617.18613069409
 31
0.0
  0
LINE
  5
26D78
330
240DE
100
AcDbEntity
  8
寸法
 62
     0
 48
50.0
370
    -2
100
AcDbLine
 10
10397.81202022566
 20
7617.18613069409
 30
0.0
 11
10397.81202022566
 21
8053.72057951299
 31
0.0
  0
INSERT
  5
26D79
330
240DE
100
AcDbEntity
  8
寸法
 62
     0
 48
50.0
370
    -2
100
AcDbBlockReference
  2
_DOTSMALL
 10
10397.81202022566
 20
7417.186130694105
 30
0.0
 41
100.0
 42
100.0
 43
100.0
 50
270.0
  0
INSERT
  5
26D7A
330
240DE
100
AcDbEntity
  8
寸法
 62
     0
 48
50.0
370
    -2
100
AcDbBlockReference
  2
_DOTSMALL
 10
10397.81202022566
 20
7617.18613069409
 30
0.0
 41
100.0
 42
100.0
 43
100.0
 50
90.0
  0
MTEXT
  5
26D7B
330
240DE
100
AcDbEntity
  8
寸法
 62
     7
 48
50.0
100
AcDbMText
 10
10297.80020920203
 20
7904.14971337126
 30
0.0
 40
120.0
 41
0.0
 71
     5
 72
     1
  1
\A1;200
  7
STYLE1
 11
0.0000000000000001
 21
1.0
 31
0.0
 73
     1
 44
1.0
1001
ACAD
1000
MTEXTBEGIN
1070
    73
1070
     1
1070
    44
1040
1.0
1070
    74
1070
     0
1000
MTEXTEND
  0
POINT
  5
26D7C
330
240DE
100
AcDbEntity
  8
DEFPOINTS
 62
     0
 48
50.0
100
AcDbPoint
 10
10498.6
 20
7617.18613069409
 30
0.0
  0
POINT
  5
26D7D
330
240DE
100
AcDbEntity
  8
DEFPOINTS
 62
     0
 48
50.0
100
AcDbPoint
 10
10498.60000000001
 20
7417.186130694105
 30
0.0
  0
POINT
  5
26D7E
330
240DE
100
AcDbEntity
  8
DEFPOINTS
 62
     0
 48
50.0
100
AcDbPoint
 10
10397.81202022566
 20
7417.186130694105
 30
0.0
  0
ENDBLK
  5
240EA
330
240DE
100
AcDbEntity
  8
0
 48
50.0
100
AcDbBlockEnd
  0
BLOCK
  5
268D8
330
268CE
100
AcDbEntity
  8
0
 48
50.0
100
AcDbBlockBegin
  2
*D26
 70
     1
 10
0.0
 20
0.0
 30
0.0
  3
*D26
  1

  0
LINE
  5
26E05
330
268CE
100
AcDbEntity
  8
寸法
 62
     0
 48
50.0
370
    -2
100
AcDbLine
 10
9173.600000000009
 20
6954.186130694103
 30
0.0
 11
9173.600000000009
 21
8159.794947364352
 31
0.0
  0
LINE
  5
26E06
330
268CE
100
AcDbEntity
  8
寸法
 62
     0
 48
50.0
370
    -2
100
AcDbLine
 10
8223.60000000001
 20
6954.186130694103
 30
0.0
 11
8223.60000000001
 21
8159.794947364352
 31
0.0
  0
LINE
  5
26E07
330
268CE
100
AcDbEntity
  8
寸法
 62
     0
 48
50.0
370
    -2
100
AcDbLine
 10
9173.600000000009
 20
8099.794947364351
 30
0.0
 11
8223.60000000001
 21
8099.794947364351
 31
0.0
  0
INSERT
  5
26E08
330
268CE
100
AcDbEntity
  8
寸法
 62
     0
 48
50.0
370
    -2
100
AcDbBlockReference
  2
_DOTSMALL
 10
9173.600000000009
 20
8099.794947364351
 30
0.0
 41
100.0
 42
100.0
 43
100.0
  0
INSERT
  5
26E09
330
268CE
100
AcDbEntity
  8
寸法
 62
     0
 48
50.0
370
    -2
100
AcDbBlockReference
  2
_DOTSMALL
 10
8223.60000000001
 20
8099.794947364351
 30
0.0
 41
100.0
 42
100.0
 43
100.0
 50
180.0
  0
MTEXT
  5
26E0A
330
268CE
100
AcDbEntity
  8
寸法
 62
     7
 48
50.0
100
AcDbMText
 10
8698.600000000009
 20
8199.794947364351
 30
0.0
 40
120.0
 41
0.0
 71
     5
 72
     1
  1
\A1;950
  7
STYLE1
 73
     1
 44
1.0
1001
ACAD
1000
MTEXTBEGIN
1070
    73
1070
     1
1070
    44
1040
1.0
1070
    74
1070
     0
1000
MTEXTEND
  0
POINT
  5
26E0B
330
268CE
100
AcDbEntity
  8
DEFPOINTS
 62
     0
 48
50.0
100
AcDbPoint
 10
9173.600000000009
 20
6934.186130694103
 30
0.0
  0
POINT
  5
26E0C
330
268CE
100
AcDbEntity
  8
DEFPOINTS
 62
     0
 48
50.0
100
AcDbPoint
 10
8223.60000000001
 20
6934.186130694103
 30
0.0
  0
POINT
  5
26E0D
330
268CE
100
AcDbEntity
  8
DEFPOINTS
 62
     0
 48
50.0
100
AcDbPoint
 10
8223.60000000001
 20
8099.794947364351
 30
0.0
  0
ENDBLK
  5
268D9
330
268CE
100
AcDbEntity
  8
0
 48
50.0
100
AcDbBlockEnd
  0
BLOCK
  5
268E4
330
268DA
100
AcDbEntity
  8
0
 48
50.0
100
AcDbBlockBegin
  2
*D27
 70
     1
 10
0.0
 20
0.0
 30
0.0
  3
*D27
  1

  0
LINE
  5
26D03
330
268DA
100
AcDbEntity
  8
寸法
 62
     0
 48
50.0
370
    -2
100
AcDbLine
 10
5368.6
 20
7637.186130694103
 30
0.0
 11
5368.6
 21
8635.406452753022
 31
0.0
  0
LINE
  5
26D04
330
268DA
100
AcDbEntity
  8
寸法
 62
     0
 48
50.0
370
    -2
100
AcDbLine
 10
11078.6
 20
7637.186130694103
 30
0.0
 11
11078.6
 21
8635.406452753022
 31
0.0
  0
LINE
  5
26D05
330
268DA
100
AcDbEntity
  8
寸法
 62
     0
 48
50.0
370
    -2
100
AcDbLine
 10
5368.6
 20
8575.40645275302
 30
0.0
 11
11078.6
 21
8575.40645275302
 31
0.0
  0
INSERT
  5
26D06
330
268DA
100
AcDbEntity
  8
寸法
 62
     0
 48
50.0
370
    -2
100
AcDbBlockReference
  2
_DOTSMALL
 10
5368.6
 20
8575.40645275302
 30
0.0
 41
100.0
 42
100.0
 43
100.0
 50
180.0
  0
INSERT
  5
26D07
330
268DA
100
AcDbEntity
  8
寸法
 62
     0
 48
50.0
370
    -2
100
AcDbBlockReference
  2
_DOTSMALL
 10
11078.6
 20
8575.40645275302
 30
0.0
 41
100.0
 42
100.0
 43
100.0
  0
MTEXT
  5
26D08
330
268DA
100
AcDbEntity
  8
寸法
 62
     7
 48
50.0
100
AcDbMText
 10
8223.600000000002
 20
8675.406452753021
 30
0.0
 40
120.0
 41
0.0
 71
     5
 72
     1
  1
\A1;5710
  7
STYLE1
 73
     1
 44
1.0
1001
ACAD
1000
MTEXTBEGIN
1070
    73
1070
     1
1070
    44
1040
1.0
1070
    74
1070
     0
1000
MTEXTEND
  0
POINT
  5
26D09
330
268DA
100
AcDbEntity
  8
DEFPOINTS
 62
     0
 48
50.0
100
AcDbPoint
 10
5368.6
 20
7617.186130694102
 30
0.0
  0
POINT
  5
26D0A
330
268DA
100
AcDbEntity
  8
DEFPOINTS
 62
     0
 48
50.0
100
AcDbPoint
 10
11078.6
 20
7617.186130694102
 30
0.0
  0
POINT
  5
26D0B
330
268DA
100
AcDbEntity
  8
DEFPOINTS
 62
     0
 48
50.0
100
AcDbPoint
 10
11078.6
 20
8575.40645275302
 30
0.0
  0
ENDBLK
  5
268E5
330
268DA
100
AcDbEntity
  8
0
 48
50.0
100
AcDbBlockEnd
  0
BLOCK
  5
268F0
330
268E6
100
AcDbEntity
  8
0
 48
50.0
100
AcDbBlockBegin
  2
*D28
 70
     1
 10
0.0
 20
0.0
 30
0.0
  3
*D28
  1

  0
LINE
  5
26CFA
330
268E6
100
AcDbEntity
  8
寸法
 62
     0
 48
50.0
370
    -2
100
AcDbLine
 10
10955.6
 20
7564.186130694102
 30
0.0
 11
10955.6
 21
8403.452588788013
 31
0.0
  0
LINE
  5
26CFB
330
268E6
100
AcDbEntity
  8
寸法
 62
     0
 48
50.0
370
    -2
100
AcDbLine
 10
8105.600000000002
 20
7564.186130694102
 30
0.0
 11
8105.600000000002
 21
8403.452588788013
 31
0.0
  0
LINE
  5
26CFC
330
268E6
100
AcDbEntity
  8
寸法
 62
     0
 48
50.0
370
    -2
100
AcDbLine
 10
10955.6
 20
8343.452588788014
 30
0.0
 11
8105.600000000002
 21
8343.452588788014
 31
0.0
  0
INSERT
  5
26CFD
330
268E6
100
AcDbEntity
  8
寸法
 62
     0
 48
50.0
370
    -2
100
AcDbBlockReference
  2
_DOTSMALL
 10
10955.6
 20
8343.452588788014
 30
0.0
 41
100.0
 42
100.0
 43
100.0
  0
INSERT
  5
26CFE
330
268E6
100
AcDbEntity
  8
寸法
 62
     0
 48
50.0
370
    -2
100
AcDbBlockReference
  2
_DOTSMALL
 10
8105.600000000002
 20
8343.452588788014
 30
0.0
 41
100.0
 42
100.0
 43
100.0
 50
180.0
  0
MTEXT
  5
26CFF
330
268E6
100
AcDbEntity
  8
寸法
 62
     7
 48
50.0
100
AcDbMText
 10
9530.600000000003
 20
8443.464399811636
 30
0.0
 40
120.0
 41
0.0
 71
     5
 72
     1
  1
\A1;2850
  7
STYLE1
 73
     1
 44
1.0
1001
ACAD
1000
MTEXTBEGIN
1070
    73
1070
     1
1070
    44
1040
1.0
1070
    74
1070
     0
1000
MTEXTEND
  0
POINT
  5
26D00
330
268E6
100
AcDbEntity
  8
DEFPOINTS
 62
     0
 48
50.0
100
AcDbPoint
 10
10955.6
 20
7544.186130694104
 30
0.0
  0
POINT
  5
26D01
330
268E6
100
AcDbEntity
  8
DEFPOINTS
 62
     0
 48
50.0
100
AcDbPoint
 10
8105.600000000002
 20
7544.186130694104
 30
0.0
  0
POINT
  5
26D02
330
268E6
100
AcDbEntity
  8
DEFPOINTS
 62
     0
 48
50.0
100
AcDbPoint
 10
8105.600000000002
 20
8343.452588788014
 30
0.0
  0
ENDBLK
  5
268F1
330
268E6
100
AcDbEntity
  8
0
 48
50.0
100
AcDbBlockEnd
  0
BLOCK
  5
268FB
330
268F2
100
AcDbEntity
  8
0
 48
50.0
100
AcDbBlockBegin
  2
*D29
 70
     1
 10
0.0
 20
0.0
 30
0.0
  3
*D29
  1

  0
LINE
  5
26E29
330
268F2
100
AcDbEntity
  8
寸法
 62
     0
 48
50.0
370
    -2
100
AcDbLine
 10
7273.600000000008
 20
6954.186130694103
 30
0.0
 11
7273.600000000008
 21
8159.794947364352
 31
0.0
  0
LINE
  5
26E2A
330
268F2
100
AcDbEntity
  8
寸法
 62
     0
 48
50.0
370
    -2
100
AcDbLine
 10
6323.600000000007
 20
6954.186130694103
 30
0.0
 11
6323.600000000007
 21
8159.794947364352
 31
0.0
  0
LINE
  5
26E2B
330
268F2
100
AcDbEntity
  8
寸法
 62
     0
 48
50.0
370
    -2
100
AcDbLine
 10
7273.600000000008
 20
8099.794947364351
 30
0.0
 11
6323.600000000007
 21
8099.794947364351
 31
0.0
  0
INSERT
  5
26E2C
330
268F2
100
AcDbEntity
  8
寸法
 62
     0
 48
50.0
370
    -2
100
AcDbBlockReference
  2
_DOTSMALL
 10
7273.600000000008
 20
8099.794947364351
 30
0.0
 41
100.0
 42
100.0
 43
100.0
  0
INSERT
  5
26E2D
330
268F2
100
AcDbEntity
  8
寸法
 62
     0
 48
50.0
370
    -2
100
AcDbBlockReference
  2
_DOTSMALL
 10
6323.600000000007
 20
8099.794947364351
 30
0.0
 41
100.0
 42
100.0
 43
100.0
 50
180.0
  0
MTEXT
  5
26E2E
330
268F2
100
AcDbEntity
  8
寸法
 62
     7
 48
50.0
100
AcDbMText
 10
6798.600000000009
 20
8199.794947364351
 30
0.0
 40
120.0
 41
0.0
 71
     5
 72
     1
  1
\A1;950
  7
STYLE1
 73
     1
 44
1.0
1001
ACAD
1000
MTEXTBEGIN
1070
    73
1070
     1
1070
    44
1040
1.0
1070
    74
1070
     0
1000
MTEXTEND
  0
POINT
  5
26E2F
330
268F2
100
AcDbEntity
  8
DEFPOINTS
 62
     0
 48
50.0
100
AcDbPoint
 10
7273.600000000008
 20
6934.186130694103
 30
0.0
  0
POINT
  5
26E30
330
268F2
100
AcDbEntity
  8
DEFPOINTS
 62
     0
 48
50.0
100
AcDbPoint
 10
6323.600000000007
 20
6934.186130694103
 30
0.0
  0
POINT
  5
26E31
330
268F2
100
AcDbEntity
  8
DEFPOINTS
 62
     0
 48
50.0
100
AcDbPoint
 10
6323.600000000007
 20
8099.794947364351
 30
0.0
  0
ENDBLK
  5
268FC
330
268F2
100
AcDbEntity
  8
0
 48
50.0
100
AcDbBlockEnd
  0
BLOCK
  5
26907
330
268FD
100
AcDbEntity
  8
0
 48
50.0
100
AcDbBlockBegin
  2
*D30
 70
     1
 10
0.0
 20
0.0
 30
0.0
  3
*D30
  1

  0
LINE
  5
26E3B
330
268FD
100
AcDbEntity
  8
寸法
 62
     0
 48
50.0
370
    -2
100
AcDbLine
 10
6253.600000000008
 20
6884.186130694103
 30
0.0
 11
5791.285990614301
 21
6884.186130694104
 31
0.0
  0
LINE
  5
26E3C
330
268FD
100
AcDbEntity
  8
寸法
 62
     0
 48
50.0
370
    -2
100
AcDbLine
 10
5922.765475140901
 20
7617.186130694102
 30
0.0
 11
5791.285990614301
 21
7617.186130694102
 31
0.0
  0
LINE
  5
26E3D
330
268FD
100
AcDbEntity
  8
寸法
 62
     0
 48
50.0
370
    -2
100
AcDbLine
 10
5851.285990614302
 20
6884.186130694104
 30
0.0
 11
5851.285990614302
 21
7617.186130694102
 31
0.0
  0
INSERT
  5
26E3E
330
268FD
100
AcDbEntity
  8
寸法
 62
     0
 48
50.0
370
    -2
100
AcDbBlockReference
  2
_DOTSMALL
 10
5851.285990614302
 20
6884.186130694104
 30
0.0
 41
100.0
 42
100.0
 43
100.0
 50
270.0
  0
INSERT
  5
26E3F
330
268FD
100
AcDbEntity
  8
寸法
 62
     0
 48
50.0
370
    -2
100
AcDbBlockReference
  2
_DOTSMALL
 10
5851.285990614302
 20
7617.186130694102
 30
0.0
 41
100.0
 42
100.0
 43
100.0
 50
90.0
  0
MTEXT
  5
26E40
330
268FD
100
AcDbEntity
  8
寸法
 62
     7
 48
50.0
100
AcDbMText
 10
5751.285990614301
 20
7176.78092138828
 30
0.0
 40
120.0
 41
0.0
 71
     5
 72
     1
  1
\A1;733
  7
STYLE1
 11
0.0000000000000001
 21
1.0
 31
0.0
 73
     1
 44
1.0
1001
ACAD
1000
MTEXTBEGIN
1070
    73
1070
     1
1070
    44
1040
1.0
1070
    74
1070
     0
1000
MTEXTEND
  0
POINT
  5
26E41
330
268FD
100
AcDbEntity
  8
DEFPOINTS
 62
     0
 48
50.0
100
AcDbPoint
 10
6273.600000000008
 20
6884.186130694103
 30
0.0
  0
POINT
  5
26E42
330
268FD
100
AcDbEntity
  8
DEFPOINTS
 62
     0
 48
50.0
100
AcDbPoint
 10
5942.765475140901
 20
7617.186130694102
 30
0.0
  0
POINT
  5
26E43
330
268FD
100
AcDbEntity
  8
DEFPOINTS
 62
     0
 48
50.0
100
AcDbPoint
 10
5851.285990614302
 20
7617.186130694102
 30
0.0
  0
ENDBLK
  5
26908
330
268FD
100
AcDbEntity
  8
0
 48
50.0
100
AcDbBlockEnd
  0
BLOCK
  5
26913
330
26909
100
AcDbEntity
  8
0
 48
50.0
100
AcDbBlockBegin
  2
*D31
 70
     1
 10
0.0
 20
0.0
 30
0.0
  3
*D31
  1

  0
LINE
  5
26E20
330
26909
100
AcDbEntity
  8
寸法
 62
     0
 48
50.0
370
    -2
100
AcDbLine
 10
6323.600000000007
 20
6954.186130694103
 30
0.0
 11
6323.600000000007
 21
8159.794947364352
 31
0.0
  0
LINE
  5
26E21
330
26909
100
AcDbEntity
  8
寸法
 62
     0
 48
50.0
370
    -2
100
AcDbLine
 10
5368.6
 20
7637.186130694103
 30
0.0
 11
5368.6
 21
8159.794947364352
 31
0.0
  0
LINE
  5
26E22
330
26909
100
AcDbEntity
  8
寸法
 62
     0
 48
50.0
370
    -2
100
AcDbLine
 10
6323.600000000007
 20
8099.794947364351
 30
0.0
 11
5368.6
 21
8099.794947364351
 31
0.0
  0
INSERT
  5
26E23
330
26909
100
AcDbEntity
  8
寸法
 62
     0
 48
50.0
370
    -2
100
AcDbBlockReference
  2
_DOTSMALL
 10
6323.600000000007
 20
8099.794947364351
 30
0.0
 41
100.0
 42
100.0
 43
100.0
  0
INSERT
  5
26E24
330
26909
100
AcDbEntity
  8
寸法
 62
     0
 48
50.0
370
    -2
100
AcDbBlockReference
  2
_DOTSMALL
 10
5368.6
 20
8099.794947364351
 30
0.0
 41
100.0
 42
100.0
 43
100.0
 50
180.0
  0
MTEXT
  5
26E25
330
26909
100
AcDbEntity
  8
寸法
 62
     7
 48
50.0
100
AcDbMText
 10
5846.100000000004
 20
8199.794947364351
 30
0.0
 40
120.0
 41
0.0
 71
     5
 72
     1
  1
\A1;955
  7
STYLE1
 73
     1
 44
1.0
1001
ACAD
1000
MTEXTBEGIN
1070
    73
1070
     1
1070
    44
1040
1.0
1070
    74
1070
     0
1000
MTEXTEND
  0
POINT
  5
26E26
330
26909
100
AcDbEntity
  8
DEFPOINTS
 62
     0
 48
50.0
100
AcDbPoint
 10
6323.600000000007
 20
6934.186130694103
 30
0.0
  0
POINT
  5
26E27
330
26909
100
AcDbEntity
  8
DEFPOINTS
 62
     0
 48
50.0
100
AcDbPoint
 10
5368.6
 20
7617.186130694102
 30
0.0
  0
POINT
  5
26E28
330
26909
100
AcDbEntity
  8
DEFPOINTS
 62
     0
 48
50.0
100
AcDbPoint
 10
5368.6
 20
8099.794947364351
 30
0.0
  0
ENDBLK
  5
26914
330
26909
100
AcDbEntity
  8
0
 48
50.0
100
AcDbBlockEnd
  0
BLOCK
  5
2691E
330
26915
100
AcDbEntity
  8
0
 48
50.0
100
AcDbBlockBegin
  2
*D32
 70
     1
 10
0.0
 20
0.0
 30
0.0
  3
*D32
  1

  0
LINE
  5
26E17
330
26915
100
AcDbEntity
  8
寸法
 62
     0
 48
50.0
370
    -2
100
AcDbLine
 10
8223.60000000001
 20
6954.186130694103
 30
0.0
 11
8223.60000000001
 21
8159.794947364352
 31
0.0
  0
LINE
  5
26E18
330
26915
100
AcDbEntity
  8
寸法
 62
     0
 48
50.0
370
    -2
100
AcDbLine
 10
7273.600000000008
 20
6954.186130694103
 30
0.0
 11
7273.600000000008
 21
8159.794947364352
 31
0.0
  0
LINE
  5
26E19
330
26915
100
AcDbEntity
  8
寸法
 62
     0
 48
50.0
370
    -2
100
AcDbLine
 10
8223.60000000001
 20
8099.794947364351
 30
0.0
 11
7273.600000000008
 21
8099.794947364351
 31
0.0
  0
INSERT
  5
26E1A
330
26915
100
AcDbEntity
  8
寸法
 62
     0
 48
50.0
370
    -2
100
AcDbBlockReference
  2
_DOTSMALL
 10
8223.60000000001
 20
8099.794947364351
 30
0.0
 41
100.0
 42
100.0
 43
100.0
  0
INSERT
  5
26E1B
330
26915
100
AcDbEntity
  8
寸法
 62
     0
 48
50.0
370
    -2
100
AcDbBlockReference
  2
_DOTSMALL
 10
7273.600000000008
 20
8099.794947364351
 30
0.0
 41
100.0
 42
100.0
 43
100.0
 50
180.0
  0
MTEXT
  5
26E1C
330
26915
100
AcDbEntity
  8
寸法
 62
     7
 48
50.0
100
AcDbMText
 10
7748.600000000009
 20
8199.794947364351
 30
0.0
 40
120.0
 41
0.0
 71
     5
 72
     1
  1
\A1;950
  7
STYLE1
 73
     1
 44
1.0
1001
ACAD
1000
MTEXTBEGIN
1070
    73
1070
     1
1070
    44
1040
1.0
1070
    74
1070
     0
1000
MTEXTEND
  0
POINT
  5
26E1D
330
26915
100
AcDbEntity
  8
DEFPOINTS
 62
     0
 48
50.0
100
AcDbPoint
 10
8223.60000000001
 20
6934.186130694103
 30
0.0
  0
POINT
  5
26E1E
330
26915
100
AcDbEntity
  8
DEFPOINTS
 62
     0
 48
50.0
100
AcDbPoint
 10
7273.600000000008
 20
6934.186130694103
 30
0.0
  0
POINT
  5
26E1F
330
26915
100
AcDbEntity
  8
DEFPOINTS
 62
     0
 48
50.0
100
AcDbPoint
 10
7273.600000000008
 20
8099.794947364351
 30
0.0
  0
ENDBLK
  5
2691F
330
26915
100
AcDbEntity
  8
0
 48
50.0
100
AcDbBlockEnd
  0
BLOCK
  5
2692A
330
26920
100
AcDbEntity
  8
0
 48
50.0
100
AcDbBlockBegin
  2
*D33
 70
     1
 10
0.0
 20
0.0
 30
0.0
  3
*D33
  1

  0
LINE
  5
26DC4
330
26920
100
AcDbEntity
  8
寸法
 62
     0
 48
50.0
370
    -2
100
AcDbLine
 10
5421.600000000001
 20
7494.186130694103
 30
0.0
 11
4685.665006330073
 21
7494.186130694103
 31
0.0
  0
LINE
  5
26DC5
330
26920
100
AcDbEntity
  8
寸法
 62
     0
 48
50.0
370
    -2
100
AcDbLine
 10
5421.600000000008
 20
6275.186130694106
 30
0.0
 11
4685.665006330073
 21
6275.186130694106
 31
0.0
  0
LINE
  5
26DC6
330
26920
100
AcDbEntity
  8
寸法
 62
     0
 48
50.0
370
    -2
100
AcDbLine
 10
4745.665006330074
 20
7494.186130694103
 30
0.0
 11
4745.665006330074
 21
6275.186130694106
 31
0.0
  0
INSERT
  5
26DC7
330
26920
100
AcDbEntity
  8
寸法
 62
     0
 48
50.0
370
    -2
100
AcDbBlockReference
  2
_DOTSMALL
 10
4745.665006330074
 20
7494.186130694103
 30
0.0
 41
100.0
 42
100.0
 43
100.0
 50
90.0
  0
INSERT
  5
26DC8
330
26920
100
AcDbEntity
  8
寸法
 62
     0
 48
50.0
370
    -2
100
AcDbBlockReference
  2
_DOTSMALL
 10
4745.665006330074
 20
6275.186130694106
 30
0.0
 41
100.0
 42
100.0
 43
100.0
 50
270.0
  0
MTEXT
  5
26DC9
330
26920
100
AcDbEntity
  8
寸法
 62
     7
 48
50.0
100
AcDbMText
 10
4645.65319530645
 20
6884.686130694102
 30
0.0
 40
120.0
 41
0.0
 71
     5
 72
     1
  1
\A1;1219
  7
STYLE1
 11
0.0000000000000001
 21
1.0
 31
0.0
 73
     1
 44
1.0
1001
ACAD
1000
MTEXTBEGIN
1070
    73
1070
     1
1070
    44
1040
1.0
1070
    74
1070
     0
1000
MTEXTEND
  0
POINT
  5
26DCA
330
26920
100
AcDbEntity
  8
DEFPOINTS
 62
     0
 48
50.0
100
AcDbPoint
 10
5441.600000000001
 20
7494.186130694103
 30
0.0
  0
POINT
  5
26DCB
330
26920
100
AcDbEntity
  8
DEFPOINTS
 62
     0
 48
50.0
100
AcDbPoint
 10
5441.600000000008
 20
6275.186130694106
 30
0.0
  0
POINT
  5
26DCC
330
26920
100
AcDbEntity
  8
DEFPOINTS
 62
     0
 48
50.0
100
AcDbPoint
 10
4745.665006330074
 20
6275.186130694106
 30
0.0
  0
ENDBLK
  5
2692B
330
26920
100
AcDbEntity
  8
0
 48
50.0
100
AcDbBlockEnd
  0
BLOCK
  5
26936
330
2692C
100
AcDbEntity
  8
0
 48
50.0
100
AcDbBlockBegin
  2
*D34
 70
     1
 10
0.0
 20
0.0
 30
0.0
  3
*D34
  1

  0
LINE
  5
26D32
330
2692C
100
AcDbEntity
  8
寸法
 62
     0
 48
50.0
370
    -2
100
AcDbLine
 10
5348.600000000001
 20
7617.186130694102
 30
0.0
 11
4433.721909610675
 21
7617.186130694102
 31
0.0
  0
LINE
  5
26D33
330
2692C
100
AcDbEntity
  8
寸法
 62
     0
 48
50.0
370
    -2
100
AcDbLine
 10
5348.600000000001
 20
6077.186130694102
 30
0.0
 11
4433.721909610674
 21
6077.186130694102
 31
0.0
  0
LINE
  5
26D34
330
2692C
100
AcDbEntity
  8
寸法
 62
     0
 48
50.0
370
    -2
100
AcDbLine
 10
4493.721909610674
 20
7617.186130694102
 30
0.0
 11
4493.721909610673
 21
6077.186130694102
 31
0.0
  0
INSERT
  5
26D35
330
2692C
100
AcDbEntity
  8
寸法
 62
     0
 48
50.0
370
    -2
100
AcDbBlockReference
  2
_DOTSMALL
 10
4493.721909610674
 20
7617.186130694102
 30
0.0
 41
100.0
 42
100.0
 43
100.0
 50
90.0
  0
INSERT
  5
26D36
330
2692C
100
AcDbEntity
  8
寸法
 62
     0
 48
50.0
370
    -2
100
AcDbBlockReference
  2
_DOTSMALL
 10
4493.721909610673
 20
6077.186130694102
 30
0.0
 41
100.0
 42
100.0
 43
100.0
 50
270.0
  0
MTEXT
  5
26D37
330
2692C
100
AcDbEntity
  8
寸法
 62
     7
 48
50.0
100
AcDbMText
 10
4393.721909610673
 20
6884.686130694102
 30
0.0
 40
120.0
 41
0.0
 71
     5
 72
     1
  1
\A1;1540
  7
STYLE1
 11
0.0000000000000001
 21
1.0
 31
0.0
 73
     1
 44
1.0
1001
ACAD
1000
MTEXTBEGIN
1070
    73
1070
     1
1070
    44
1040
1.0
1070
    74
1070
     0
1000
MTEXTEND
  0
POINT
  5
26D38
330
2692C
100
AcDbEntity
  8
DEFPOINTS
 62
     0
 48
50.0
100
AcDbPoint
 10
5368.6
 20
7617.186130694102
 30
0.0
  0
POINT
  5
26D39
330
2692C
100
AcDbEntity
  8
DEFPOINTS
 62
     0
 48
50.0
100
AcDbPoint
 10
5368.6
 20
6077.186130694102
 30
0.0
  0
POINT
  5
26D3A
330
2692C
100
AcDbEntity
  8
DEFPOINTS
 62
     0
 48
50.0
100
AcDbPoint
 10
4493.721909610673
 20
6077.186130694102
 30
0.0
  0
ENDBLK
  5
26937
330
2692C
100
AcDbEntity
  8
0
 48
50.0
100
AcDbBlockEnd
  0
BLOCK
  5
26942
330
26938
100
AcDbEntity
  8
0
 48
50.0
100
AcDbBlockBegin
  2
*D35
 70
     1
 10
0.0
 20
0.0
 30
0.0
  3
*D35
  1

  0
LINE
  5
26D15
330
26938
100
AcDbEntity
  8
寸法
 62
     0
 48
50.0
370
    -2
100
AcDbLine
 10
5348.600000000004
 20
6077.186130694099
 30
0.0
 11
5195.512673767881
 21
6077.186130694099
 31
0.0
  0
LINE
  5
26D16
330
26938
100
AcDbEntity
  8
寸法
 62
     0
 48
50.0
370
    -2
100
AcDbLine
 10
5704.325326928809
 20
5357.186130694099
 30
0.0
 11
5195.512673767881
 21
5357.186130694099
 31
0.0
  0
LINE
  5
26D17
330
26938
100
AcDbEntity
  8
寸法
 62
     0
 48
50.0
370
    -2
100
AcDbLine
 10
5255.512673767881
 20
6077.186130694099
 30
0.0
 11
5255.512673767881
 21
5357.186130694099
 31
0.0
  0
INSERT
  5
26D18
330
26938
100
AcDbEntity
  8
寸法
 62
     0
 48
50.0
370
    -2
100
AcDbBlockReference
  2
_DOTSMALL
 10
5255.512673767881
 20
6077.186130694099
 30
0.0
 41
100.0
 42
100.0
 43
100.0
 50
90.0
  0
INSERT
  5
26D19
330
26938
100
AcDbEntity
  8
寸法
 62
     0
 48
50.0
370
    -2
100
AcDbBlockReference
  2
_DOTSMALL
 10
5255.512673767881
 20
5357.186130694099
 30
0.0
 41
100.0
 42
100.0
 43
100.0
 50
270.0
  0
MTEXT
  5
26D1A
330
26938
100
AcDbEntity
  8
寸法
 62
     7
 48
50.0
100
AcDbMText
 10
5155.500862744259
 20
5717.1861306941
 30
0.0
 40
120.0
 41
0.0
 71
     5
 72
     1
  1
\A1;扉の出720
  7
STYLE1
 11
0.0000000000000001
 21
1.0
 31
0.0
 73
     1
 44
1.0
1001
ACAD
1000
MTEXTBEGIN
1070
    73
1070
     1
1070
    44
1040
1.0
1070
    74
1070
     0
1000
MTEXTEND
  0
POINT
  5
26D1B
330
26938
100
AcDbEntity
  8
DEFPOINTS
 62
     0
 48
50.0
100
AcDbPoint
 10
5368.600000000004
 20
6077.186130694099
 30
0.0
  0
POINT
  5
26D1C
330
26938
100
AcDbEntity
  8
DEFPOINTS
 62
     0
 48
50.0
100
AcDbPoint
 10
5724.325326928809
 20
5357.186130694099
 30
0.0
  0
POINT
  5
26D1D
330
26938
100
AcDbEntity
  8
DEFPOINTS
 62
     0
 48
50.0
100
AcDbPoint
 10
5255.512673767881
 20
5357.186130694099
 30
0.0
  0
ENDBLK
  5
26943
330
26938
100
AcDbEntity
  8
0
 48
50.0
100
AcDbBlockEnd
  0
BLOCK
  5
2695B
330
26950
100
AcDbEntity
  8
0
 48
50.0
100
AcDbBlockBegin
  2
*D36
 70
     1
 10
0.0
 20
0.0
 30
0.0
  3
*D36
  1

  0
LINE
  5
26DBA
330
26950
100
AcDbEntity
  8
寸法
 62
     0
 48
50.0
370
    -2
100
AcDbLine
 10
5421.600000000008
 20
6275.186130694106
 30
0.0
 11
4685.665006330073
 21
6275.186130694106
 31
0.0
  0
LINE
  5
26DBB
330
26950
100
AcDbEntity
  8
寸法
 62
     0
 48
50.0
370
    -2
100
AcDbLine
 10
5348.600000000001
 20
6077.186130694102
 30
0.0
 11
4685.665006330071
 21
6077.186130694102
 31
0.0
  0
LINE
  5
26DBC
330
26950
100
AcDbEntity
  8
寸法
 62
     0
 48
50.0
370
    -2
100
AcDbLine
 10
4745.665006330074
 20
6275.186130694106
 30
0.0
 11
4745.665006330072
 21
6077.186130694102
 31
0.0
  0
LINE
  5
26DBD
330
26950
100
AcDbEntity
  8
寸法
 62
     0
 48
50.0
370
    -2
100
AcDbLine
 10
4745.665006330072
 20
6077.186130694102
 30
0.0
 11
4745.665006330072
 21
5605.445522021853
 31
0.0
  0
INSERT
  5
26DBE
330
26950
100
AcDbEntity
  8
寸法
 62
     0
 48
50.0
370
    -2
100
AcDbBlockReference
  2
_DOTSMALL
 10
4745.665006330074
 20
6275.186130694106
 30
0.0
 41
100.0
 42
100.0
 43
100.0
 50
90.0
  0
INSERT
  5
26DBF
330
26950
100
AcDbEntity
  8
寸法
 62
     0
 48
50.0
370
    -2
100
AcDbBlockReference
  2
_DOTSMALL
 10
4745.665006330072
 20
6077.186130694102
 30
0.0
 41
100.0
 42
100.0
 43
100.0
 50
270.0
  0
MTEXT
  5
26DC0
330
26950
100
AcDbEntity
  8
寸法
 62
     7
 48
50.0
100
AcDbMText
 10
4645.665006330071
 20
5741.655181851511
 30
0.0
 40
120.0
 41
0.0
 71
     5
 72
     1
  1
\A1;198
  7
STYLE1
 11
0.0000000000000001
 21
1.0
 31
0.0
 73
     1
 44
1.0
1001
ACAD
1000
MTEXTBEGIN
1070
    73
1070
     1
1070
    44
1040
1.0
1070
    74
1070
     0
1000
MTEXTEND
  0
POINT
  5
26DC1
330
26950
100
AcDbEntity
  8
DEFPOINTS
 62
     0
 48
50.0
100
AcDbPoint
 10
5441.600000000008
 20
6275.186130694106
 30
0.0
  0
POINT
  5
26DC2
330
26950
100
AcDbEntity
  8
DEFPOINTS
 62
     0
 48
50.0
100
AcDbPoint
 10
5368.6
 20
6077.186130694102
 30
0.0
  0
POINT
  5
26DC3
330
26950
100
AcDbEntity
  8
DEFPOINTS
 62
     0
 48
50.0
100
AcDbPoint
 10
4745.665006330072
 20
6077.186130694102
 30
0.0
  0
ENDBLK
  5
2695C
330
26950
100
AcDbEntity
  8
0
 48
50.0
100
AcDbBlockEnd
  0
BLOCK
  5
26974
330
2696A
100
AcDbEntity
  8
0
 48
50.0
100
AcDbBlockBegin
  2
*D37
 70
     1
 10
0.0
 20
0.0
 30
0.0
  3
*D37
  1

  0
LINE
  5
26E32
330
2696A
100
AcDbEntity
  8
寸法
 62
     0
 48
50.0
370
    -2
100
AcDbLine
 10
5922.765475140901
 20
6077.186130694114
 30
0.0
 11
5791.285990614301
 21
6077.186130694114
 31
0.0
  0
LINE
  5
26E33
330
2696A
100
AcDbEntity
  8
寸法
 62
     0
 48
50.0
370
    -2
100
AcDbLine
 10
6253.600000000008
 20
6884.186130694103
 30
0.0
 11
5791.285990614301
 21
6884.186130694104
 31
0.0
  0
LINE
  5
26E34
330
2696A
100
AcDbEntity
  8
寸法
 62
     0
 48
50.0
370
    -2
100
AcDbLine
 10
5851.285990614301
 20
6077.186130694114
 30
0.0
 11
5851.285990614302
 21
6884.186130694104
 31
0.0
  0
INSERT
  5
26E35
330
2696A
100
AcDbEntity
  8
寸法
 62
     0
 48
50.0
370
    -2
100
AcDbBlockReference
  2
_DOTSMALL
 10
5851.285990614301
 20
6077.186130694114
 30
0.0
 41
100.0
 42
100.0
 43
100.0
 50
270.0
  0
INSERT
  5
26E36
330
2696A
100
AcDbEntity
  8
寸法
 62
     0
 48
50.0
370
    -2
100
AcDbBlockReference
  2
_DOTSMALL
 10
5851.285990614302
 20
6884.186130694104
 30
0.0
 41
100.0
 42
100.0
 43
100.0
 50
90.0
  0
MTEXT
  5
26E37
330
2696A
100
AcDbEntity
  8
寸法
 62
     7
 48
50.0
100
AcDbMText
 10
5751.285990614301
 20
6562.186130694103
 30
0.0
 40
120.0
 41
0.0
 71
     5
 72
     1
  1
\A1;807
  7
STYLE1
 11
0.0000000000000001
 21
1.0
 31
0.0
 73
     1
 44
1.0
1001
ACAD
1000
MTEXTBEGIN
1070
    73
1070
     1
1070
    44
1040
1.0
1070
    74
1070
     0
1000
MTEXTEND
  0
POINT
  5
26E38
330
2696A
100
AcDbEntity
  8
DEFPOINTS
 62
     0
 48
50.0
100
AcDbPoint
 10
5942.765475140901
 20
6077.186130694114
 30
0.0
  0
POINT
  5
26E39
330
2696A
100
AcDbEntity
  8
DEFPOINTS
 62
     0
 48
50.0
100
AcDbPoint
 10
6273.600000000008
 20
6884.186130694103
 30
0.0
  0
POINT
  5
26E3A
330
2696A
100
AcDbEntity
  8
DEFPOINTS
 62
     0
 48
50.0
100
AcDbPoint
 10
5851.285990614302
 20
6884.186130694104
 30
0.0
  0
ENDBLK
  5
26975
330
2696A
100
AcDbEntity
  8
0
 48
50.0
100
AcDbBlockEnd
  0
BLOCK
  5
2698E
330
26983
100
AcDbEntity
  8
0
 48
50.0
100
AcDbBlockBegin
  2
*D38
 70
     1
 10
0.0
 20
0.0
 30
0.0
  3
*D38
  1

  0
LINE
  5
26CD5
330
26983
100
AcDbEntity
  8
寸法
 62
     0
 48
50.0
370
    -2
100
AcDbLine
 10
5491.6
 20
7564.186130694102
 30
0.0
 11
5491.6
 21
8403.452588788013
 31
0.0
  0
LINE
  5
26CD6
330
26983
100
AcDbEntity
  8
寸法
 62
     0
 48
50.0
370
    -2
100
AcDbLine
 10
5368.6
 20
7637.186130694103
 30
0.0
 11
5368.6
 21
8403.452588788013
 31
0.0
  0
LINE
  5
26CD7
330
26983
100
AcDbEntity
  8
寸法
 62
     0
 48
50.0
370
    -2
100
AcDbLine
 10
5491.6
 20
8343.452588788014
 30
0.0
 11
5368.6
 21
8343.452588788014
 31
0.0
  0
LINE
  5
26CD8
330
26983
100
AcDbEntity
  8
寸法
 62
     0
 48
50.0
370
    -2
100
AcDbLine
 10
5368.6
 20
8343.452588788014
 30
0.0
 11
4957.008116907963
 21
8343.452588788014
 31
0.0
  0
INSERT
  5
26CD9
330
26983
100
AcDbEntity
  8
寸法
 62
     0
 48
50.0
370
    -2
100
AcDbBlockReference
  2
_DOTSMALL
 10
5491.6
 20
8343.452588788014
 30
0.0
 41
100.0
 42
100.0
 43
100.0
  0
INSERT
  5
26CDA
330
26983
100
AcDbEntity
  8
寸法
 62
     0
 48
50.0
370
    -2
100
AcDbBlockReference
  2
_DOTSMALL
 10
5368.6
 20
8343.452588788014
 30
0.0
 41
100.0
 42
100.0
 43
100.0
 50
180.0
  0
MTEXT
  5
26CDB
330
26983
100
AcDbEntity
  8
寸法
 62
     7
 48
50.0
100
AcDbMText
 10
5095.493398282202
 20
8443.464399811636
 30
0.0
 40
120.0
 41
0.0
 71
     5
 72
     1
  1
\A1;123
  7
STYLE1
 73
     1
 44
1.0
1001
ACAD
1000
MTEXTBEGIN
1070
    73
1070
     1
1070
    44
1040
1.0
1070
    74
1070
     0
1000
MTEXTEND
  0
POINT
  5
26CDC
330
26983
100
AcDbEntity
  8
DEFPOINTS
 62
     0
 48
50.0
100
AcDbPoint
 10
5491.6
 20
7544.186130694104
 30
0.0
  0
POINT
  5
26CDD
330
26983
100
AcDbEntity
  8
DEFPOINTS
 62
     0
 48
50.0
100
AcDbPoint
 10
5368.6
 20
7617.186130694102
 30
0.0
  0
POINT
  5
26CDE
330
26983
100
AcDbEntity
  8
DEFPOINTS
 62
     0
 48
50.0
100
AcDbPoint
 10
5368.6
 20
8343.452588788014
 30
0.0
  0
ENDBLK
  5
2698F
330
26983
100
AcDbEntity
  8
0
 48
50.0
100
AcDbBlockEnd
  0
BLOCK
  5
2699B
330
26990
100
AcDbEntity
  8
0
 48
50.0
100
AcDbBlockBegin
  2
*D39
 70
     1
 10
0.0
 20
0.0
 30
0.0
  3
*D39
  1

  0
LINE
  5
26D1E
330
26990
100
AcDbEntity
  8
寸法
 62
     0
 48
50.0
370
    -2
100
AcDbLine
 10
5348.600000000001
 20
7617.186130694102
 30
0.0
 11
4685.665006330071
 21
7617.186130694102
 31
0.0
  0
LINE
  5
26D1F
330
26990
100
AcDbEntity
  8
寸法
 62
     0
 48
50.0
370
    -2
100
AcDbLine
 10
5421.600000000001
 20
7494.186130694103
 30
0.0
 11
4685.665006330071
 21
7494.186130694103
 31
0.0
  0
LINE
  5
26D20
330
26990
100
AcDbEntity
  8
寸法
 62
     0
 48
50.0
370
    -2
100
AcDbLine
 10
4745.665006330072
 20
7494.186130694103
 30
0.0
 11
4745.665006330072
 21
7617.186130694102
 31
0.0
  0
LINE
  5
26D21
330
26990
100
AcDbEntity
  8
寸法
 62
     0
 48
50.0
370
    -2
100
AcDbLine
 10
4745.665006330072
 20
7617.186130694102
 30
0.0
 11
4745.665006330072
 21
8028.778013786142
 31
0.0
  0
INSERT
  5
26D22
330
26990
100
AcDbEntity
  8
寸法
 62
     0
 48
50.0
370
    -2
100
AcDbBlockReference
  2
_DOTSMALL
 10
4745.665006330072
 20
7494.186130694103
 30
0.0
 41
100.0
 42
100.0
 43
100.0
 50
270.0
  0
INSERT
  5
26D23
330
26990
100
AcDbEntity
  8
寸法
 62
     0
 48
50.0
370
    -2
100
AcDbBlockReference
  2
_DOTSMALL
 10
4745.665006330072
 20
7617.186130694102
 30
0.0
 41
100.0
 42
100.0
 43
100.0
 50
90.0
  0
MTEXT
  5
26D24
330
26990
100
AcDbEntity
  8
寸法
 62
     7
 48
50.0
100
AcDbMText
 10
4645.65319530645
 20
7890.292732411904
 30
0.0
 40
120.0
 41
0.0
 71
     5
 72
     1
  1
\A1;123
  7
STYLE1
 11
0.0000000000000001
 21
1.0
 31
0.0
 73
     1
 44
1.0
1001
ACAD
1000
MTEXTBEGIN
1070
    73
1070
     1
1070
    44
1040
1.0
1070
    74
1070
     0
1000
MTEXTEND
  0
POINT
  5
26D25
330
26990
100
AcDbEntity
  8
DEFPOINTS
 62
     0
 48
50.0
100
AcDbPoint
 10
5368.6
 20
7617.186130694102
 30
0.0
  0
POINT
  5
26D26
330
26990
100
AcDbEntity
  8
DEFPOINTS
 62
     0
 48
50.0
100
AcDbPoint
 10
5441.600000000001
 20
7494.186130694103
 30
0.0
  0
POINT
  5
26D27
330
26990
100
AcDbEntity
  8
DEFPOINTS
 62
     0
 48
50.0
100
AcDbPoint
 10
4745.665006330072
 20
7494.186130694103
 30
0.0
  0
ENDBLK
  5
2699C
330
26990
100
AcDbEntity
  8
0
 48
50.0
100
AcDbBlockEnd
  0
BLOCK
  5
269B0
330
269A7
100
AcDbEntity
  8
0
 48
50.0
100
AcDbBlockBegin
  2
*D40
 70
     1
 10
0.0
 20
0.0
 30
0.0
  3
*D40
  1

  0
LINE
  5
26CCC
330
269A7
100
AcDbEntity
  8
寸法
 62
     0
 48
50.0
370
    -2
100
AcDbLine
 10
8105.600000000002
 20
7564.186130694102
 30
0.0
 11
8105.600000000002
 21
8403.452588788013
 31
0.0
  0
LINE
  5
26CCD
330
269A7
100
AcDbEntity
  8
寸法
 62
     0
 48
50.0
370
    -2
100
AcDbLine
 10
5491.6
 20
7564.186130694102
 30
0.0
 11
5491.6
 21
8403.452588788013
 31
0.0
  0
LINE
  5
26CCE
330
269A7
100
AcDbEntity
  8
寸法
 62
     0
 48
50.0
370
    -2
100
AcDbLine
 10
8105.600000000002
 20
8343.452588788014
 30
0.0
 11
5491.6
 21
8343.452588788014
 31
0.0
  0
INSERT
  5
26CCF
330
269A7
100
AcDbEntity
  8
寸法
 62
     0
 48
50.0
370
    -2
100
AcDbBlockReference
  2
_DOTSMALL
 10
8105.600000000002
 20
8343.452588788014
 30
0.0
 41
100.0
 42
100.0
 43
100.0
  0
INSERT
  5
26CD0
330
269A7
100
AcDbEntity
  8
寸法
 62
     0
 48
50.0
370
    -2
100
AcDbBlockReference
  2
_DOTSMALL
 10
5491.6
 20
8343.452588788014
 30
0.0
 41
100.0
 42
100.0
 43
100.0
 50
180.0
  0
MTEXT
  5
26CD1
330
269A7
100
AcDbEntity
  8
寸法
 62
     7
 48
50.0
100
AcDbMText
 10
6798.600000000002
 20
8443.464399811636
 30
0.0
 40
120.0
 41
0.0
 71
     5
 72
     1
  1
\A1;2614
  7
STYLE1
 73
     1
 44
1.0
1001
ACAD
1000
MTEXTBEGIN
1070
    73
1070
     1
1070
    44
1040
1.0
1070
    74
1070
     0
1000
MTEXTEND
  0
POINT
  5
26CD2
330
269A7
100
AcDbEntity
  8
DEFPOINTS
 62
     0
 48
50.0
100
AcDbPoint
 10
8105.600000000002
 20
7544.186130694104
 30
0.0
  0
POINT
  5
26CD3
330
269A7
100
AcDbEntity
  8
DEFPOINTS
 62
     0
 48
50.0
100
AcDbPoint
 10
5491.6
 20
7544.186130694104
 30
0.0
  0
POINT
  5
26CD4
330
269A7
100
AcDbEntity
  8
DEFPOINTS
 62
     0
 48
50.0
100
AcDbPoint
 10
5491.6
 20
8343.452588788014
 30
0.0
  0
ENDBLK
  5
269B1
330
269A7
100
AcDbEntity
  8
0
 48
50.0
100
AcDbBlockEnd
  0
BLOCK
  5
269C9
330
269BF
100
AcDbEntity
  8
0
 48
50.0
100
AcDbBlockBegin
  2
*D41
 70
     1
 10
0.0
 20
0.0
 30
0.0
  3
*D41
  1

  0
LINE
  5
26DE1
330
269BF
100
AcDbEntity
  8
寸法
 62
     0
 48
50.0
370
    -2
100
AcDbLine
 10
11078.6
 20
7637.186130694103
 30
0.0
 11
11078.6
 21
8159.794947364352
 31
0.0
  0
LINE
  5
26DE2
330
269BF
100
AcDbEntity
  8
寸法
 62
     0
 48
50.0
370
    -2
100
AcDbLine
 10
10123.60000000001
 20
6954.186130694103
 30
0.0
 11
10123.60000000001
 21
8159.794947364352
 31
0.0
  0
LINE
  5
26DE3
330
269BF
100
AcDbEntity
  8
寸法
 62
     0
 48
50.0
370
    -2
100
AcDbLine
 10
11078.6
 20
8099.794947364351
 30
0.0
 11
10123.60000000001
 21
8099.794947364351
 31
0.0
  0
INSERT
  5
26DE4
330
269BF
100
AcDbEntity
  8
寸法
 62
     0
 48
50.0
370
    -2
100
AcDbBlockReference
  2
_DOTSMALL
 10
11078.6
 20
8099.794947364351
 30
0.0
 41
100.0
 42
100.0
 43
100.0
  0
INSERT
  5
26DE5
330
269BF
100
AcDbEntity
  8
寸法
 62
     0
 48
50.0
370
    -2
100
AcDbBlockReference
  2
_DOTSMALL
 10
10123.60000000001
 20
8099.794947364351
 30
0.0
 41
100.0
 42
100.0
 43
100.0
 50
180.0
  0
MTEXT
  5
26DE6
330
269BF
100
AcDbEntity
  8
寸法
 62
     7
 48
50.0
100
AcDbMText
 10
10601.1
 20
8199.794947364351
 30
0.0
 40
120.0
 41
0.0
 71
     5
 72
     1
  1
\A1;955
  7
STYLE1
 73
     1
 44
1.0
1001
ACAD
1000
MTEXTBEGIN
1070
    73
1070
     1
1070
    44
1040
1.0
1070
    74
1070
     0
1000
MTEXTEND
  0
POINT
  5
26DE7
330
269BF
100
AcDbEntity
  8
DEFPOINTS
 62
     0
 48
50.0
100
AcDbPoint
 10
11078.6
 20
7617.186130694102
 30
0.0
  0
POINT
  5
26DE8
330
269BF
100
AcDbEntity
  8
DEFPOINTS
 62
     0
 48
50.0
100
AcDbPoint
 10
10123.60000000001
 20
6934.186130694103
 30
0.0
  0
POINT
  5
26DE9
330
269BF
100
AcDbEntity
  8
DEFPOINTS
 62
     0
 48
50.0
100
AcDbPoint
 10
10123.60000000001
 20
8099.794947364351
 30
0.0
  0
ENDBLK
  5
269CA
330
269BF
100
AcDbEntity
  8
0
 48
50.0
100
AcDbBlockEnd
  0
BLOCK
  5
269D5
330
269CB
100
AcDbEntity
  8
0
 48
50.0
100
AcDbBlockBegin
  2
*D42
 70
     1
 10
0.0
 20
0.0
 30
0.0
  3
*D42
  1

  0
LINE
  5
26DF3
330
269CB
100
AcDbEntity
  8
寸法
 62
     0
 48
50.0
370
    -2
100
AcDbLine
 10
10123.60000000001
 20
6954.186130694103
 30
0.0
 11
10123.60000000001
 21
8159.794947364352
 31
0.0
  0
LINE
  5
26DF4
330
269CB
100
AcDbEntity
  8
寸法
 62
     0
 48
50.0
370
    -2
100
AcDbLine
 10
9173.600000000009
 20
6954.186130694103
 30
0.0
 11
9173.600000000009
 21
8159.794947364352
 31
0.0
  0
LINE
  5
26DF5
330
269CB
100
AcDbEntity
  8
寸法
 62
     0
 48
50.0
370
    -2
100
AcDbLine
 10
10123.60000000001
 20
8099.794947364351
 30
0.0
 11
9173.600000000009
 21
8099.794947364351
 31
0.0
  0
INSERT
  5
26DF6
330
269CB
100
AcDbEntity
  8
寸法
 62
     0
 48
50.0
370
    -2
100
AcDbBlockReference
  2
_DOTSMALL
 10
10123.60000000001
 20
8099.794947364351
 30
0.0
 41
100.0
 42
100.0
 43
100.0
  0
INSERT
  5
26DF7
330
269CB
100
AcDbEntity
  8
寸法
 62
     0
 48
50.0
370
    -2
100
AcDbBlockReference
  2
_DOTSMALL
 10
9173.600000000009
 20
8099.794947364351
 30
0.0
 41
100.0
 42
100.0
 43
100.0
 50
180.0
  0
MTEXT
  5
26DF8
330
269CB
100
AcDbEntity
  8
寸法
 62
     7
 48
50.0
100
AcDbMText
 10
9648.60000000001
 20
8199.794947364351
 30
0.0
 40
120.0
 41
0.0
 71
     5
 72
     1
  1
\A1;950
  7
STYLE1
 73
     1
 44
1.0
1001
ACAD
1000
MTEXTBEGIN
1070
    73
1070
     1
1070
    44
1040
1.0
1070
    74
1070
     0
1000
MTEXTEND
  0
POINT
  5
26DF9
330
269CB
100
AcDbEntity
  8
DEFPOINTS
 62
     0
 48
50.0
100
AcDbPoint
 10
10123.60000000001
 20
6934.186130694103
 30
0.0
  0
POINT
  5
26DFA
330
269CB
100
AcDbEntity
  8
DEFPOINTS
 62
     0
 48
50.0
100
AcDbPoint
 10
9173.600000000009
 20
6934.186130694103
 30
0.0
  0
POINT
  5
26DFB
330
269CB
100
AcDbEntity
  8
DEFPOINTS
 62
     0
 48
50.0
100
AcDbPoint
 10
9173.600000000009
 20
8099.794947364351
 30
0.0
  0
ENDBLK
  5
269D6
330
269CB
100
AcDbEntity
  8
0
 48
50.0
100
AcDbBlockEnd
  0
BLOCK
  5
269EF
330
269E4
100
AcDbEntity
  8
0
 48
50.0
100
AcDbBlockBegin
  2
*D43
 70
     1
 10
0.0
 20
0.0
 30
0.0
  3
*D43
  1

  0
LINE
  5
26CB0
330
269E4
100
AcDbEntity
  8
寸法
 62
     0
 48
50.0
370
    -2
100
AcDbLine
 10
11078.6
 20
7637.186130694103
 30
0.0
 11
11078.6
 21
8403.452588788013
 31
0.0
  0
LINE
  5
26CB1
330
269E4
100
AcDbEntity
  8
寸法
 62
     0
 48
50.0
370
    -2
100
AcDbLine
 10
10955.6
 20
7564.186130694102
 30
0.0
 11
10955.6
 21
8403.452588788013
 31
0.0
  0
LINE
  5
26CB2
330
269E4
100
AcDbEntity
  8
寸法
 62
     0
 48
50.0
370
    -2
100
AcDbLine
 10
10955.6
 20
8343.452588788014
 30
0.0
 11
11078.6
 21
8343.452588788014
 31
0.0
  0
LINE
  5
26CB3
330
269E4
100
AcDbEntity
  8
寸法
 62
     0
 48
50.0
370
    -2
100
AcDbLine
 10
11078.6
 20
8343.452588788014
 30
0.0
 11
11490.19188309204
 21
8343.452588788014
 31
0.0
  0
INSERT
  5
26CB4
330
269E4
100
AcDbEntity
  8
寸法
 62
     0
 48
50.0
370
    -2
100
AcDbBlockReference
  2
_DOTSMALL
 10
10955.6
 20
8343.452588788014
 30
0.0
 41
100.0
 42
100.0
 43
100.0
 50
180.0
  0
INSERT
  5
26CB5
330
269E4
100
AcDbEntity
  8
寸法
 62
     0
 48
50.0
370
    -2
100
AcDbBlockReference
  2
_DOTSMALL
 10
11078.6
 20
8343.452588788014
 30
0.0
 41
100.0
 42
100.0
 43
100.0
  0
MTEXT
  5
26CB6
330
269E4
100
AcDbEntity
  8
寸法
 62
     7
 48
50.0
100
AcDbMText
 10
11351.7066017178
 20
8443.464399811636
 30
0.0
 40
120.0
 41
0.0
 71
     5
 72
     1
  1
\A1;123
  7
STYLE1
 73
     1
 44
1.0
1001
ACAD
1000
MTEXTBEGIN
1070
    73
1070
     1
1070
    44
1040
1.0
1070
    74
1070
     0
1000
MTEXTEND
  0
POINT
  5
26CB7
330
269E4
100
AcDbEntity
  8
DEFPOINTS
 62
     0
 48
50.0
100
AcDbPoint
 10
11078.6
 20
7617.186130694102
 30
0.0
  0
POINT
  5
26CB8
330
269E4
100
AcDbEntity
  8
DEFPOINTS
 62
     0
 48
50.0
100
AcDbPoint
 10
10955.6
 20
7544.186130694104
 30
0.0
  0
POINT
  5
26CB9
330
269E4
100
AcDbEntity
  8
DEFPOINTS
 62
     0
 48
50.0
100
AcDbPoint
 10
10955.6
 20
8343.452588788014
 30
0.0
  0
ENDBLK
  5
269F0
330
269E4
100
AcDbEntity
  8
0
 48
50.0
100
AcDbBlockEnd
  0
BLOCK
  5
271BF
330
271B5
100
AcDbEntity
  8
0
 48
50.0
100
AcDbBlockBegin
  2
*D44
 70
     1
 10
0.0
 20
0.0
 30
0.0
  3
*D44
  1

  0
LINE
  5
271FF
330
271B5
100
AcDbEntity
  8
寸法
 62
     0
 48
50.0
370
    -2
100
AcDbLine
 10
8111.777115490193
 20
2206.555055888048
 30
0.0
 11
8653.645715259036
 21
2206.555055888048
 31
0.0
  0
LINE
  5
27200
330
271B5
100
AcDbEntity
  8
寸法
 62
     0
 48
50.0
370
    -2
100
AcDbLine
 10
8111.777115490193
 20
1882.555055888047
 30
0.0
 11
8653.645715259036
 21
1882.555055888047
 31
0.0
  0
LINE
  5
27201
330
271B5
100
AcDbEntity
  8
寸法
 62
     0
 48
50.0
370
    -2
100
AcDbLine
 10
8593.645715259038
 20
2206.555055888048
 30
0.0
 11
8593.645715259038
 21
1882.555055888047
 31
0.0
  0
INSERT
  5
27202
330
271B5
100
AcDbEntity
  8
寸法
 62
     0
 48
50.0
370
    -2
100
AcDbBlockReference
  2
_DOTSMALL
 10
8593.645715259038
 20
2206.555055888048
 30
0.0
 41
100.0
 42
100.0
 43
100.0
 50
90.0
  0
INSERT
  5
27203
330
271B5
100
AcDbEntity
  8
寸法
 62
     0
 48
50.0
370
    -2
100
AcDbBlockReference
  2
_DOTSMALL
 10
8593.645715259038
 20
1882.555055888047
 30
0.0
 41
100.0
 42
100.0
 43
100.0
 50
270.0
  0
MTEXT
  5
27204
330
271B5
100
AcDbEntity
  8
寸法
 62
     7
 48
50.0
100
AcDbMText
 10
8493.645715259038
 20
2044.555055888049
 30
0.0
 40
120.0
 41
0.0
 71
     5
 72
     1
  1
\A1;180
  7
STYLE1
 11
0.0000000000000001
 21
1.0
 31
0.0
 73
     1
 44
1.0
1001
ACAD
1000
MTEXTBEGIN
1070
    73
1070
     1
1070
    44
1040
1.0
1070
    74
1070
     0
1000
MTEXTEND
  0
POINT
  5
27205
330
271B5
100
AcDbEntity
  8
DEFPOINTS
 62
     0
 48
50.0
100
AcDbPoint
 10
8091.777115490193
 20
2206.555055888048
 30
0.0
  0
POINT
  5
27206
330
271B5
100
AcDbEntity
  8
DEFPOINTS
 62
     0
 48
50.0
100
AcDbPoint
 10
8091.777115490193
 20
1882.555055888047
 30
0.0
  0
POINT
  5
27207
330
271B5
100
AcDbEntity
  8
DEFPOINTS
 62
     0
 48
50.0
100
AcDbPoint
 10
8593.645715259038
 20
1882.555055888047
 30
0.0
  0
ENDBLK
  5
271C0
330
271B5
100
AcDbEntity
  8
0
 48
50.0
100
AcDbBlockEnd
  0
BLOCK
  5
271CD
330
271C1
100
AcDbEntity
  8
0
 48
50.0
100
AcDbBlockBegin
  2
*D45
 70
     1
 10
0.0
 20
0.0
 30
0.0
  3
*D45
  1

  0
LINE
  5
27208
330
271C1
100
AcDbEntity
  8
寸法
 62
     0
 48
50.0
370
    -2
100
AcDbLine
 10
7924.577115490196
 20
2259.315055888049
 30
0.0
 11
8929.700381378065
 21
2259.315055888049
 31
0.0
  0
LINE
  5
27209
330
271C1
100
AcDbEntity
  8
寸法
 62
     0
 48
50.0
370
    -2
100
AcDbLine
 10
8111.777115490193
 20
2206.555055888048
 30
0.0
 11
8929.700381378065
 21
2206.555055888048
 31
0.0
  0
LINE
  5
2720A
330
271C1
100
AcDbEntity
  8
寸法
 62
     0
 48
50.0
370
    -2
100
AcDbLine
 10
8869.700381378065
 20
2259.315055888049
 30
0.0
 11
8869.700381378065
 21
2359.315055888049
 31
0.0
  0
LINE
  5
2720B
330
271C1
100
AcDbEntity
  8
寸法
 62
     0
 48
50.0
370
    -2
100
AcDbLine
 10
8869.700381378065
 20
2206.555055888048
 30
0.0
 11
8869.700381378065
 21
1474.537249045081
 31
0.0
  0
LINE
  5
2720C
330
271C1
100
AcDbEntity
  8
寸法
 62
     0
 48
50.0
370
    -2
100
AcDbLine
 10
8869.700381378065
 20
2259.315055888049
 30
0.0
 11
8869.700381378065
 21
2206.555055888048
 31
0.0
  0
INSERT
  5
2720D
330
271C1
100
AcDbEntity
  8
寸法
 62
     0
 48
50.0
370
    -2
100
AcDbBlockReference
  2
_DOTSMALL
 10
8869.700381378065
 20
2259.315055888049
 30
0.0
 41
100.0
 42
100.0
 43
100.0
 50
270.0
  0
INSERT
  5
2720E
330
271C1
100
AcDbEntity
  8
寸法
 62
     0
 48
50.0
370
    -2
100
AcDbBlockReference
  2
_DOTSMALL
 10
8869.700381378065
 20
2206.555055888048
 30
0.0
 41
100.0
 42
100.0
 43
100.0
 50
90.0
  0
MTEXT
  5
2720F
330
271C1
100
AcDbEntity
  8
寸法
 62
     7
 48
50.0
100
AcDbMText
 10
8769.688570354444
 20
1740.546152466565
 30
0.0
 40
120.0
 41
0.0
 71
     5
 72
     1
  1
\A1;20～25
  7
STYLE1
 11
0.0000000000000001
 21
1.0
 31
0.0
 73
     1
 44
1.0
1001
ACAD
1000
MTEXTBEGIN
1070
    73
1070
     1
1070
    44
1040
1.0
1070
    74
1070
     0
1000
MTEXTEND
  0
POINT
  5
27210
330
271C1
100
AcDbEntity
  8
DEFPOINTS
 62
     0
 48
50.0
100
AcDbPoint
 10
7904.577115490195
 20
2259.315055888049
 30
0.0
  0
POINT
  5
27211
330
271C1
100
AcDbEntity
  8
DEFPOINTS
 62
     0
 48
50.0
100
AcDbPoint
 10
8091.777115490193
 20
2206.555055888048
 30
0.0
  0
POINT
  5
27212
330
271C1
100
AcDbEntity
  8
DEFPOINTS
 62
     0
 48
50.0
100
AcDbPoint
 10
8869.700381378065
 20
2206.555055888048
 30
0.0
  0
ENDBLK
  5
271CE
330
271C1
100
AcDbEntity
  8
0
 48
50.0
100
AcDbBlockEnd
  0
BLOCK
  5
271D9
330
271CF
100
AcDbEntity
  8
0
 48
50.0
100
AcDbBlockBegin
  2
*D46
 70
     1
 10
0.0
 20
0.0
 30
0.0
  3
*D46
  1

  0
LINE
  5
27213
330
271CF
100
AcDbEntity
  8
寸法
 62
     0
 48
50.0
370
    -2
100
AcDbLine
 10
5829.737802313001
 20
1662.555055888048
 30
0.0
 11
5647.317488580541
 21
1662.555055888048
 31
0.0
  0
LINE
  5
27214
330
271CF
100
AcDbEntity
  8
寸法
 62
     0
 48
50.0
370
    -2
100
AcDbLine
 10
5749.737802313004
 20
1422.555055888048
 30
0.0
 11
5647.317488580541
 21
1422.555055888048
 31
0.0
  0
LINE
  5
27215
330
271CF
100
AcDbEntity
  8
寸法
 62
     0
 48
50.0
370
    -2
100
AcDbLine
 10
5707.317488580541
 20
1662.555055888048
 30
0.0
 11
5707.317488580541
 21
1422.555055888048
 31
0.0
  0
INSERT
  5
27216
330
271CF
100
AcDbEntity
  8
寸法
 62
     0
 48
50.0
370
    -2
100
AcDbBlockReference
  2
_DOTSMALL
 10
5707.317488580541
 20
1662.555055888048
 30
0.0
 41
100.0
 42
100.0
 43
100.0
 50
90.0
  0
INSERT
  5
27217
330
271CF
100
AcDbEntity
  8
寸法
 62
     0
 48
50.0
370
    -2
100
AcDbBlockReference
  2
_DOTSMALL
 10
5707.317488580541
 20
1422.555055888048
 30
0.0
 41
100.0
 42
100.0
 43
100.0
 50
270.0
  0
MTEXT
  5
27218
330
271CF
100
AcDbEntity
  8
寸法
 62
     7
 48
50.0
100
AcDbMText
 10
5607.317488580541
 20
1542.555055888048
 30
0.0
 40
120.0
 41
0.0
 71
     5
 72
     1
  1
\A1;150
  7
STYLE1
 11
0.0000000000000001
 21
1.0
 31
0.0
 73
     1
 44
1.0
1001
ACAD
1000
MTEXTBEGIN
1070
    73
1070
     1
1070
    44
1040
1.0
1070
    74
1070
     0
1000
MTEXTEND
  0
POINT
  5
27219
330
271CF
100
AcDbEntity
  8
DEFPOINTS
 62
     0
 48
50.0
100
AcDbPoint
 10
5849.737802313001
 20
1662.555055888048
 30
0.0
  0
POINT
  5
2721A
330
271CF
100
AcDbEntity
  8
DEFPOINTS
 62
     0
 48
50.0
100
AcDbPoint
 10
5769.737802313004
 20
1422.555055888048
 30
0.0
  0
POINT
  5
2721B
330
271CF
100
AcDbEntity
  8
DEFPOINTS
 62
     0
 48
50.0
100
AcDbPoint
 10
5707.317488580541
 20
1422.555055888048
 30
0.0
  0
ENDBLK
  5
271DA
330
271CF
100
AcDbEntity
  8
0
 48
50.0
100
AcDbBlockEnd
  0
BLOCK
  5
271E5
330
271DB
100
AcDbEntity
  8
0
 48
50.0
100
AcDbBlockBegin
  2
*D47
 70
     1
 10
0.0
 20
0.0
 30
0.0
  3
*D47
  1

  0
LINE
  5
2721C
330
271DB
100
AcDbEntity
  8
寸法
 62
     0
 48
50.0
370
    -2
100
AcDbLine
 10
5957.737802313
 20
2206.555055888048
 30
0.0
 11
5182.700563751261
 21
2206.555055888048
 31
0.0
  0
LINE
  5
2721D
330
271DB
100
AcDbEntity
  8
寸法
 62
     0
 48
50.0
370
    -2
100
AcDbLine
 10
5749.737802313004
 20
1422.555055888048
 30
0.0
 11
5182.700563751261
 21
1422.555055888048
 31
0.0
  0
LINE
  5
2721E
330
271DB
100
AcDbEntity
  8
寸法
 62
     0
 48
50.0
370
    -2
100
AcDbLine
 10
5242.700563751261
 20
2206.555055888048
 30
0.0
 11
5242.70056375126
 21
1422.555055888048
 31
0.0
  0
INSERT
  5
2721F
330
271DB
100
AcDbEntity
  8
寸法
 62
     0
 48
50.0
370
    -2
100
AcDbBlockReference
  2
_DOTSMALL
 10
5242.700563751261
 20
2206.555055888048
 30
0.0
 41
100.0
 42
100.0
 43
100.0
 50
90.0
  0
INSERT
  5
27220
330
271DB
100
AcDbEntity
  8
寸法
 62
     0
 48
50.0
370
    -2
100
AcDbBlockReference
  2
_DOTSMALL
 10
5242.70056375126
 20
1422.555055888048
 30
0.0
 41
100.0
 42
100.0
 43
100.0
 50
270.0
  0
MTEXT
  5
27221
330
271DB
100
AcDbEntity
  8
寸法
 62
     7
 48
50.0
100
AcDbMText
 10
5142.70056375126
 20
1794.095205544048
 30
0.0
 40
120.0
 41
0.0
 71
     5
 72
     1
  1
\A1;540
  7
STYLE1
 11
0.0000000000000001
 21
1.0
 31
0.0
 73
     1
 44
1.0
1001
ACAD
1000
MTEXTBEGIN
1070
    73
1070
     1
1070
    44
1040
1.0
1070
    74
1070
     0
1000
MTEXTEND
  0
POINT
  5
27222
330
271DB
100
AcDbEntity
  8
DEFPOINTS
 62
     0
 48
50.0
100
AcDbPoint
 10
5977.737802313001
 20
2206.555055888048
 30
0.0
  0
POINT
  5
27223
330
271DB
100
AcDbEntity
  8
DEFPOINTS
 62
     0
 48
50.0
100
AcDbPoint
 10
5769.737802313004
 20
1422.555055888048
 30
0.0
  0
POINT
  5
27224
330
271DB
100
AcDbEntity
  8
DEFPOINTS
 62
     0
 48
50.0
100
AcDbPoint
 10
5242.70056375126
 20
1422.555055888048
 30
0.0
  0
ENDBLK
  5
271E6
330
271DB
100
AcDbEntity
  8
0
 48
50.0
100
AcDbBlockEnd
  0
BLOCK
  5
271F1
330
271E7
100
AcDbEntity
  8
0
 48
50.0
100
AcDbBlockBegin
  2
*D48
 70
     1
 10
0.0
 20
0.0
 30
0.0
  3
*D48
  1

  0
LINE
  5
27225
330
271E7
100
AcDbEntity
  8
寸法
 62
     0
 48
50.0
370
    -2
100
AcDbLine
 10
5849.737802313001
 20
1274.555055888048
 30
0.0
 11
5849.737802313001
 21
824.1254178828876
 31
0.0
  0
LINE
  5
27226
330
271E7
100
AcDbEntity
  8
寸法
 62
     0
 48
50.0
370
    -2
100
AcDbLine
 10
6297.737802313001
 20
1274.555055888048
 30
0.0
 11
6297.737802313001
 21
824.1254178828876
 31
0.0
  0
LINE
  5
27227
330
271E7
100
AcDbEntity
  8
寸法
 62
     0
 48
50.0
370
    -2
100
AcDbLine
 10
5849.737802313001
 20
884.1254178828876
 30
0.0
 11
6297.737802313001
 21
884.1254178828876
 31
0.0
  0
INSERT
  5
27228
330
271E7
100
AcDbEntity
  8
寸法
 62
     0
 48
50.0
370
    -2
100
AcDbBlockReference
  2
_DOTSMALL
 10
5849.737802313001
 20
884.1254178828876
 30
0.0
 41
100.0
 42
100.0
 43
100.0
 50
180.0
  0
INSERT
  5
27229
330
271E7
100
AcDbEntity
  8
寸法
 62
     0
 48
50.0
370
    -2
100
AcDbBlockReference
  2
_DOTSMALL
 10
6297.737802313001
 20
884.1254178828876
 30
0.0
 41
100.0
 42
100.0
 43
100.0
  0
MTEXT
  5
2722A
330
271E7
100
AcDbEntity
  8
寸法
 62
     7
 48
50.0
100
AcDbMText
 10
6053.641043634777
 20
984.1254178828876
 30
0.0
 40
120.0
 41
0.0
 71
     5
 72
     1
  1
\A1;300
  7
STYLE1
 73
     1
 44
1.0
1001
ACAD
1000
MTEXTBEGIN
1070
    73
1070
     1
1070
    44
1040
1.0
1070
    74
1070
     0
1000
MTEXTEND
  0
POINT
  5
2722B
330
271E7
100
AcDbEntity
  8
DEFPOINTS
 62
     0
 48
50.0
100
AcDbPoint
 10
5849.737802313001
 20
1294.555055888048
 30
0.0
  0
POINT
  5
2722C
330
271E7
100
AcDbEntity
  8
DEFPOINTS
 62
     0
 48
50.0
100
AcDbPoint
 10
6297.737802313001
 20
1294.555055888048
 30
0.0
  0
POINT
  5
2722D
330
271E7
100
AcDbEntity
  8
DEFPOINTS
 62
     0
 48
50.0
100
AcDbPoint
 10
6297.737802313001
 20
884.1254178828876
 30
0.0
  0
ENDBLK
  5
271F2
330
271E7
100
AcDbEntity
  8
0
 48
50.0
100
AcDbBlockEnd
  0
BLOCK
  5
271FD
330
271F3
100
AcDbEntity
  8
0
 48
50.0
100
AcDbBlockBegin
  2
*D49
 70
     1
 10
0.0
 20
0.0
 30
0.0
  3
*D49
  1

  0
LINE
  5
2722E
330
271F3
100
AcDbEntity
  8
寸法
 62
     0
 48
50.0
370
    -2
100
AcDbLine
 10
6169.737802313001
 20
2226.555055888048
 30
0.0
 11
6169.737802313001
 21
2686.222863804428
 31
0.0
  0
LINE
  5
2722F
330
271F3
100
AcDbEntity
  8
寸法
 62
     0
 48
50.0
370
    -2
100
AcDbLine
 10
5977.737802313001
 20
2226.555055888048
 30
0.0
 11
5977.737802313001
 21
2686.222863804428
 31
0.0
  0
LINE
  5
27230
330
271F3
100
AcDbEntity
  8
寸法
 62
     0
 48
50.0
370
    -2
100
AcDbLine
 10
6169.737802313001
 20
2626.222863804428
 30
0.0
 11
5977.737802313001
 21
2626.222863804428
 31
0.0
  0
INSERT
  5
27231
330
271F3
100
AcDbEntity
  8
寸法
 62
     0
 48
50.0
370
    -2
100
AcDbBlockReference
  2
_DOTSMALL
 10
6169.737802313001
 20
2626.222863804428
 30
0.0
 41
100.0
 42
100.0
 43
100.0
  0
INSERT
  5
27232
330
271F3
100
AcDbEntity
  8
寸法
 62
     0
 48
50.0
370
    -2
100
AcDbBlockReference
  2
_DOTSMALL
 10
5977.737802313001
 20
2626.222863804428
 30
0.0
 41
100.0
 42
100.0
 43
100.0
 50
180.0
  0
MTEXT
  5
27233
330
271F3
100
AcDbEntity
  8
寸法
 62
     7
 48
50.0
100
AcDbMText
 10
6073.737802313001
 20
2926.258296875294
 30
0.0
 40
120.0
 41
0.0
 71
     5
 72
     1
  1
\A1;120\P200\P280
  7
STYLE1
 73
     1
 44
1.0
1001
ACAD
1000
MTEXTBEGIN
1070
    73
1070
     1
1070
    44
1040
1.0
1070
    74
1070
     0
1000
MTEXTEND
  0
POINT
  5
27234
330
271F3
100
AcDbEntity
  8
DEFPOINTS
 62
     0
 48
50.0
100
AcDbPoint
 10
6169.737802313001
 20
2206.555055888048
 30
0.0
  0
POINT
  5
27235
330
271F3
100
AcDbEntity
  8
DEFPOINTS
 62
     0
 48
50.0
100
AcDbPoint
 10
5977.737802313001
 20
2206.555055888048
 30
0.0
  0
POINT
  5
27236
330
271F3
100
AcDbEntity
  8
DEFPOINTS
 62
     0
 48
50.0
100
AcDbPoint
 10
5977.737802313001
 20
2626.222863804428
 30
0.0
  0
ENDBLK
  5
271FE
330
271F3
100
AcDbEntity
  8
0
 48
50.0
100
AcDbBlockEnd
  0
ENDSEC
  0
SECTION
  2
ENTITIES
  0
MTEXT
  5
763F
330
747D
100
AcDbEntity
  8
0
100
AcDbMText
 10
302.846345836809
 20
280.1983726409901
 30
0.0
 40
3.5
 41
5.323721266742722
 71
     1
 72
     5
  1

  7
MSMINCHO
 73
     1
 44
1.0
1001
ACAD
1000
MTEXTBEGIN
1070
    73
1070
     1
1070
    44
1040
1.0
1070
    74
1070
     0
1000
MTEXTEND
  0
LINE
  5
10B57
330
747D
100
AcDbEntity
  8
補助
  6
PHANTOM
 62
   230
 48
50.0
100
AcDbLine
 10
139.9999999999995
 20
11409.6
 30
0.0
 11
16307.2
 21
11409.6
 31
0.0
  0
LINE
  5
10B59
330
747D
100
AcDbEntity
  8
仕様書枠
  6
Continuous
 48
50.0
100
AcDbLine
 10
13107.2
 20
1200.0
 30
0.0
 11
13107.2
 21
-0.0000000000000729
 31
0.0
  0
LINE
  5
10B5D
330
747D
100
AcDbEntity
  8
仕様書枠
 48
50.0
100
AcDbLine
 10
140.0
 20
0.0
 30
0.0
 11
16307.2
 21
-0.0000000000000909
 31
0.0
  0
LINE
  5
10B5E
330
747D
100
AcDbEntity
  8
補助
  6
PHANTOM
 62
   230
 48
50.0
100
AcDbLine
 10
16307.2
 20
11409.6
 30
0.0
 11
16307.2
 21
1200.0
 31
0.0
  0
LINE
  5
10B6C
330
747D
100
AcDbEntity
  8
仕様書枠
 48
50.0
100
AcDbLine
 10
13107.2
 20
1200.0
 30
0.0
 11
16307.2
 21
1200.0
 31
0.0
  0
TEXT
  5
10B73
330
747D
100
AcDbEntity
  8
文字
 62
     7
 48
50.0
100
AcDbText
 10
13162.9790565769
 20
895.0906074299405
 30
0.0
 40
200.0
  1
基 礎 図
  7
STYLE2
100
AcDbText
  0
LINE
  5
10B7B
330
747D
100
AcDbEntity
  8
仕様書枠
 48
50.0
100
AcDbLine
 10
13107.2
 20
800.0
 30
0.0
 11
14251.2
 21
800.0
 31
0.0
  0
LINE
  5
10B88
330
747D
100
AcDbEntity
  8
仕様書枠
  6
Continuous
 48
50.0
100
AcDbLine
 10
14251.2
 20
1200.0
 30
0.0
 11
14251.2
 21
800.0
 31
0.0
  0
LINE
  5
16462
330
747D
100
AcDbEntity
  8
仕様書枠
 48
50.0
100
AcDbLine
 10
16307.2
 20
1200.0
 30
0.0
 11
16307.2
 21
-0.0000000000000909
 31
0.0
  0
LINE
  5
1903B
330
747D
100
AcDbEntity
  8
補助
  6
PHANTOM
 62
   230
 48
50.0
100
AcDbLine
 10
140.0
 20
0.0
 30
0.0
 11
139.9999999999995
 21
11409.6
 31
0.0
  0
LEADER
  5
1AC27
330
747D
100
AcDbEntity
  8
寸法
 48
50.0
100
AcDbLeader
  3
INABA_S50G
 73
     0
 74
     0
 75
     1
 40
120.0
 41
720.0000000000001
 76
     3
 10
11080.05985718447
 20
6881.137867229455
 30
0.0
 10
11236.83343157076
 20
6620.123953661622
 30
0.0
 10
11361.83343157076
 20
6620.123953661622
 30
0.0
340
1AC28
1001
ACAD
1000
DSTYLE
1002
{
1070
   341
1005
0
1070
    40
1040
1.0
1070
   343
1005
0
1070
   344
1005
0
1002
}
  0
MTEXT
  5
1AC28
102
{ACAD_REACTORS
330
1AC27
102
}
330
747D
100
AcDbEntity
  8
部品1
 62
     7
 48
50.0
100
AcDbMText
 10
12106.83343157076
 20
6705.123953661622
 30
0.0
 40
120.0
 41
0.0
 71
     6
 72
     1
  1
\A1;床下換気口
  7
STYLE1
 73
     1
 44
1.0
1001
ACAD
1000
MTEXTBEGIN
1070
    73
1070
     1
1070
    44
1040
1.0
1070
    74
1070
     0
1000
MTEXTEND
  0
TEXT
  5
1AC29
330
747D
100
AcDbEntity
  8
部品1
 48
50.0
100
AcDbText
 10
11422.64807370302
 20
5941.337308368455
 30
0.0
 40
80.0
  1
(a=45,b=55,c=75)
  7
STYLE1
100
AcDbText
  0
TEXT
  5
1AC2A
330
747D
100
AcDbEntity
  8
部品1
 48
50.0
100
AcDbText
 10
11264.06906494872
 20
6048.182529237209
 30
0.0
 40
80.0
  1
※a,b,cは屋根の出幅です。
  7
STYLE1
100
AcDbText
  0
MTEXT
  5
1AC2B
102
{ACAD_REACTORS
330
1AC2C
102
}
330
747D
100
AcDbEntity
  8
部品1
 62
     7
 48
50.0
100
AcDbMText
 10
12061.85626093733
 20
6227.493216170284
 30
0.0
 40
120.0
 41
0.0
 71
     6
 72
     1
  1
\A1;屋根の外寸
  7
STYLE1
 73
     1
 44
1.0
1001
ACAD
1000
MTEXTBEGIN
1070
    73
1070
     1
1070
    44
1040
1.0
1070
    74
1070
     0
1000
MTEXTEND
  0
LEADER
  5
1AC2C
330
747D
100
AcDbEntity
  8
寸法
 48
50.0
100
AcDbLeader
  3
INABA_S50G
 73
     0
 74
     0
 75
     1
 40
120.0
 41
672.0
 76
     3
 10
11123.91624874529
 20
6401.382559633859
 30
0.0
 10
11239.85626093733
 20
6142.493216170283
 30
0.0
 10
11364.85626093733
 20
6142.493216170283
 30
0.0
340
1AC2B
1001
ACAD
1000
DSTYLE
1002
{
1070
   341
1005
0
1070
    40
1040
1.0
1070
   343
1005
0
1070
   344
1005
0
1002
}
  0
TEXT
  5
1C7A1
330
747D
100
AcDbEntity
  8
文字
 62
     7
 48
50.0
100
AcDbText
 10
13188.16259899338
 20
79.80631269190417
 30
0.0
 40
80.0
  1
※布基礎には換気口を設けてください。
  7
STYLE2
100
AcDbText
  0
TEXT
  5
1C7E7
330
747D
100
AcDbEntity
  8
文字
 62
     7
 48
50.0
100
AcDbText
 10
13188.16259899338
 20
246.7109242801889
 30
0.0
 40
80.0
  1
※寒冷地等は地域の実情に合わせた基礎にして下さい。
  7
STYLE2
100
AcDbText
  0
TEXT
  5
1C7E8
330
747D
100
AcDbEntity
  8
文字
 62
     7
 48
50.0
100
AcDbText
 10
14325.79230300687
 20
499.5983841039506
 30
0.0
 40
160.0
  1
ＮＸＮ－１４ＤＬ－６
  7
STYLE2
100
AcDbText
  0
TEXT
  5
1C7EC
330
747D
100
AcDbEntity
  8
文字
 62
     7
 48
50.0
100
AcDbText
 10
14524.131837222
 20
1031.557706291229
 30
0.0
 40
100.0
  1
      <縮尺> S=1/40
  7
STYLE2
100
AcDbText
  0
TEXT
  5
1C7ED
330
747D
100
AcDbEntity
  8
文字
 62
     7
 48
50.0
100
AcDbText
 10
13201.43669998441
 20
477.2740661031257
 30
0.0
 40
160.0
  1
機種名
  7
STYLE2
100
AcDbText
  0
LINE
  5
1C7EF
330
747D
100
AcDbEntity
  8
文字
 62
     7
 48
50.0
100
AcDbLine
 10
13187.2
 20
400.0
 30
0.0
 11
16227.2
 21
400.0
 31
0.0
  0
MTEXT
  5
1D2D5
102
{ACAD_REACTORS
330
1D2D6
102
}
330
747D
100
AcDbEntity
  8
部品1
 62
     7
 48
50.0
100
AcDbMText
 10
12273.99523070988
 20
7932.798874936612
 30
0.0
 40
120.0
 41
0.0
 71
     6
 72
     1
  1
アンカーボルト
  7
STYLE1
 73
     1
 44
1.0
1001
ACAD
1000
MTEXTBEGIN
1070
    73
1070
     1
1070
    44
1040
1.0
1070
    74
1070
     0
1000
MTEXTEND
  0
LEADER
  5
1D2D6
330
747D
100
AcDbEntity
  8
寸法
 48
50.0
100
AcDbLeader
  3
INABA_S50G
 73
     0
 74
     0
 75
     1
 40
120.0
 41
994.3492424049171
 76
     3
 10
10955.680085757
 20
7494.393975052815
 30
0.0
 10
11129.64598830497
 20
7847.798874936612
 30
0.0
 10
11254.64598830496
 20
7847.798874936612
 30
0.0
340
1D2D5
1001
ACAD
1000
DSTYLE
1002
{
1070
   341
1005
0
1070
    40
1040
1.0
1070
   343
1005
0
1070
   344
1005
0
1002
}
  0
MTEXT
  5
1D332
102
{ACAD_REACTORS
330
1D333
102
}
330
747D
100
AcDbEntity
  8
部品1
 62
     7
 48
50.0
100
AcDbMText
 10
10638.82869701569
 20
6707.77665162766
 30
0.0
 40
120.0
 41
0.0
 71
     6
 72
     1
  1
CB
  7
STYLE1
 73
     1
 44
1.0
1001
ACAD
1000
MTEXTBEGIN
1070
    73
1070
     1
1070
    44
1040
1.0
1070
    74
1070
     0
1000
MTEXTEND
  0
LEADER
  5
1D333
330
747D
100
AcDbEntity
  8
寸法
 48
50.0
100
AcDbLeader
  3
INABA_S50G
 73
     0
 74
     0
 75
     1
 40
120.0
 41
149.591883092037
 76
     3
 10
10211.95401106101
 20
6845.494965182486
 30
0.0
 10
10339.23681392366
 20
6622.77665162766
 30
0.0
 10
10464.23681392366
 20
6622.77665162766
 30
0.0
340
1D332
1001
ACAD
1000
DSTYLE
1002
{
1070
   341
1005
0
1070
    40
1040
1.0
1070
   343
1005
0
1070
   344
1005
0
1002
}
  0
DIMENSION
  5
20DE1
330
747D
100
AcDbEntity
  8
寸法
 48
50.0
100
AcDbDimension
  2
*D19
 10
11123.6
 20
8575.406452753025
 30
0.0
 11
11394.77462120246
 21
8575.406452753025
 31
0.0
 70
   160
  1
a
 71
     5
 42
45.0
  3
INABA_S40G
100
AcDbAlignedDimension
 13
11078.6
 23
7617.186130694102
 33
0.0
 14
11123.6
 24
8343.452588788014
 34
0.0
100
AcDbRotatedDimension
1001
ACAD
1000
DSTYLE
1002
{
1070
   341
1005
0
1002
}
  0
DIMENSION
  5
20DFB
330
747D
100
AcDbEntity
  8
寸法
 48
50.0
100
AcDbDimension
  2
*D20
 10
5368.599999999997
 20
8575.406452753034
 30
0.0
 11
5052.425378797537
 21
8575.406452753034
 31
0.0
 70
   160
  1
a
 71
     5
 42
44.99999999999636
  3
INABA_S40G
100
AcDbAlignedDimension
 13
5323.6
 23
8343.452588788023
 33
0.0
 14
5368.599999999997
 24
7617.186130694112
 34
0.0
100
AcDbRotatedDimension
1001
ACAD
1000
DSTYLE
1002
{
1070
   341
1005
0
1002
}
  0
LINE
  5
22711
330
747D
100
AcDbEntity
  8
想像線
 48
10.0
100
AcDbLine
 10
11123.6
 20
7692.186130694105
 30
0.0
 11
5323.600000000001
 21
7692.186130694114
 31
0.0
  0
LINE
  5
22712
330
747D
100
AcDbEntity
  8
想像線
 48
10.0
100
AcDbLine
 10
5323.599999999997
 20
6022.186130694154
 30
0.0
 11
5323.6
 21
7692.186130694118
 31
0.0
  0
LINE
  5
22713
330
747D
100
AcDbEntity
  8
想像線
 48
10.0
100
AcDbLine
 10
11123.6
 20
6022.18613069415
 30
0.0
 11
11123.6
 21
7692.186130694105
 31
0.0
  0
LINE
  5
22714
330
747D
100
AcDbEntity
  8
想像線
 48
10.0
100
AcDbLine
 10
11123.6
 20
6022.18613069415
 30
0.0
 11
5323.599999999997
 21
6022.186130694135
 31
0.0
  0
DIMENSION
  5
22741
330
747D
100
AcDbEntity
  8
寸法
 48
50.0
100
AcDbDimension
  2
*D21
 10
4493.721909610672
 20
7617.186130694112
 30
0.0
 11
4393.721909610672
 21
7654.686130694115
 31
0.0
 70
    32
  1
c
 71
     5
 42
75.00000000000636
  3
INABA_S40G
100
AcDbAlignedDimension
 13
4745.665006330067
 23
7692.186130694118
 33
0.0
 14
5368.599999999997
 24
7617.186130694112
 34
0.0
 50
90.0
100
AcDbRotatedDimension
1001
ACAD
1000
DSTYLE
1002
{
1070
   341
1005
0
1002
}
  0
DIMENSION
  5
2275B
330
747D
100
AcDbEntity
  8
寸法
 48
50.0
100
AcDbDimension
  2
*D22
 10
4493.721909610669
 20
6022.186130694169
 30
0.0
 11
4393.721909610667
 21
6049.686130694158
 31
0.0
 70
    32
  1
b
 71
     5
 42
54.99999999997453
  3
INABA_S40G
100
AcDbAlignedDimension
 13
5368.599999999997
 23
6077.186130694144
 33
0.0
 14
4745.665006330067
 24
6022.186130694169
 34
0.0
 50
90.0
100
AcDbRotatedDimension
1001
ACAD
1000
DSTYLE
1002
{
1070
   341
1005
0
1002
}
  0
DIMENSION
  5
23FD9
330
747D
100
AcDbEntity
  8
寸法
 48
50.0
100
AcDbDimension
  2
*D24
 10
10397.81202022566
 20
6077.186130694121
 30
0.0
 11
10397.81202022566
 21
5790.222548016949
 31
0.0
 70
   160
 71
     5
 42
279.99999999998
  3
INABA_S40G
100
AcDbAlignedDimension
 13
10498.59999999999
 23
6357.186130694101
 33
0.0
 14
10498.6
 24
6077.186130694121
 34
0.0
 50
90.0
100
AcDbRotatedDimension
1001
ACAD
1000
DSTYLE
1002
{
1070
   341
1005
0
1002
}
  0
DIMENSION
  5
23FDA
330
747D
100
AcDbEntity
  8
寸法
 48
50.0
100
AcDbDimension
  2
*D25
 10
10397.81202022566
 20
7417.186130694105
 30
0.0
 11
10397.81202022566
 21
7904.14971337126
 31
0.0
 70
   160
 71
     5
 42
199.9999999999854
  3
INABA_S40G
100
AcDbAlignedDimension
 13
10498.6
 23
7617.18613069409
 33
0.0
 14
10498.60000000001
 24
7417.186130694105
 34
0.0
 50
90.0
100
AcDbRotatedDimension
1001
ACAD
1000
DSTYLE
1002
{
1070
   341
1005
0
1002
}
  0
DIMENSION
  5
24043
330
747D
100
AcDbEntity
  8
寸法
 48
50.0
100
AcDbDimension
  2
*D23
 10
10958.6
 20
7166.784743792213
 30
0.0
 11
11348.65905511811
 21
7166.784743792213
 31
0.0
 70
   160
 71
     5
 42
120.0000000000018
  3
INABA_S40G
100
AcDbAlignedDimension
 13
11078.6
 23
7052.18613069414
 33
0.0
 14
10958.6
 24
7052.186130694138
 34
0.0
100
AcDbRotatedDimension
1001
ACAD
1000
DSTYLE
1002
{
1070
   341
1005
0
1002
}
  0
LINE
  5
267DE
330
747D
100
AcDbEntity
  8
部品1
 48
50.0
100
AcDbLine
 10
10958.6
 20
7417.186130694102
 30
0.0
 11
5488.599999999995
 21
7417.186130694102
 31
0.0
  0
TEXT
  5
267E0
330
747D
100
AcDbEntity
  8
寸法
 48
50.0
100
AcDbText
 10
8258.654496108331
 20
6095.867421486841
 30
0.0
 40
120.0
  1
扉面
  7
STYLE1
100
AcDbText
  0
DIMENSION
  5
267E1
330
747D
100
AcDbEntity
  8
寸法
 48
50.0
100
AcDbDimension
  2
*D26
 10
8223.60000000001
 20
8099.794947364351
 30
0.0
 11
8698.600000000009
 21
8199.794947364351
 31
0.0
 70
    32
 71
     5
 42
950.0
  3
INABA_S40G
100
AcDbAlignedDimension
 13
9173.600000000009
 23
6934.186130694103
 33
0.0
 14
8223.60000000001
 24
6934.186130694103
 34
0.0
100
AcDbRotatedDimension
1001
ACAD
1000
DSTYLE
1002
{
1070
   341
1005
0
1002
}
  0
DIMENSION
  5
267E2
330
747D
100
AcDbEntity
  8
寸法
 48
50.0
100
AcDbDimension
  2
*D27
 10
11078.6
 20
8575.40645275302
 30
0.0
 11
8223.600000000002
 21
8675.406452753021
 31
0.0
 70
    32
 71
     5
 42
5710.000000000002
  3
INABA_S40G
100
AcDbAlignedDimension
 13
5368.6
 23
7617.186130694102
 33
0.0
 14
11078.6
 24
7617.186130694102
 34
0.0
100
AcDbRotatedDimension
1001
ACAD
1000
DSTYLE
1002
{
1070
   341
1005
0
1002
}
  0
LINE
  5
267E3
330
747D
100
AcDbEntity
  8
部品1
 48
50.0
100
AcDbLine
 10
11078.6
 20
7617.186130694102
 30
0.0
 11
5368.6
 21
7617.186130694102
 31
0.0
  0
DIMENSION
  5
267E5
330
747D
100
AcDbEntity
  8
寸法
 48
50.0
100
AcDbDimension
  2
*D28
 10
8105.600000000002
 20
8343.452588788014
 30
0.0
 11
9530.600000000003
 21
8443.464399811636
 31
0.0
 70
    32
 71
     5
 42
2850.0
  3
INABA_S40G
100
AcDbAlignedDimension
 13
10955.6
 23
7544.186130694104
 33
0.0
 14
8105.600000000002
 24
7544.186130694104
 34
0.0
100
AcDbRotatedDimension
1001
ACAD
1000
DSTYLE
1002
{
1070
   341
1005
0
1002
}
  0
LINE
  5
267E6
330
747D
100
AcDbEntity
  8
部品1
 48
50.0
100
AcDbLine
 10
11078.6
 20
6077.186130694121
 30
0.0
 11
5368.599999999997
 21
6077.186130694099
 31
0.0
  0
DIMENSION
  5
267E8
330
747D
100
AcDbEntity
  8
寸法
 48
50.0
100
AcDbDimension
  2
*D29
 10
6323.600000000007
 20
8099.794947364351
 30
0.0
 11
6798.600000000009
 21
8199.794947364351
 31
0.0
 70
    32
 71
     5
 42
950.0000000000017
  3
INABA_S40G
100
AcDbAlignedDimension
 13
7273.600000000008
 23
6934.186130694103
 33
0.0
 14
6323.600000000007
 24
6934.186130694103
 34
0.0
100
AcDbRotatedDimension
1001
ACAD
1000
DSTYLE
1002
{
1070
   341
1005
0
1002
}
  0
DIMENSION
  5
267E9
330
747D
100
AcDbEntity
  8
寸法
 48
50.0
100
AcDbDimension
  2
*D30
 10
5851.285990614302
 20
7617.186130694102
 30
0.0
 11
5851.2859906143
 21
7176.78092138828
 31
0.0
 70
   160
 71
     5
 42
732.9999999999991
  3
INABA_S40G
100
AcDbAlignedDimension
 13
6273.600000000008
 23
6884.186130694103
 33
0.0
 14
5942.765475140901
 24
7617.186130694102
 34
0.0
 50
90.0
100
AcDbRotatedDimension
1001
ACAD
1000
DSTYLE
1002
{
1070
   341
1005
0
1002
}
  0
DIMENSION
  5
267EA
330
747D
100
AcDbEntity
  8
寸法
 48
50.0
100
AcDbDimension
  2
*D31
 10
5368.6
 20
8099.794947364351
 30
0.0
 11
5846.100000000004
 21
8199.794947364351
 31
0.0
 70
    32
 71
     5
 42
955.0000000000073
  3
INABA_S40G
100
AcDbAlignedDimension
 13
6323.600000000007
 23
6934.186130694103
 33
0.0
 14
5368.6
 24
7617.186130694102
 34
0.0
100
AcDbRotatedDimension
1001
ACAD
1000
DSTYLE
1002
{
1070
   341
1005
0
1002
}
  0
DIMENSION
  5
267EB
330
747D
100
AcDbEntity
  8
寸法
 48
50.0
100
AcDbDimension
  2
*D32
 10
7273.600000000008
 20
8099.794947364351
 30
0.0
 11
7748.600000000009
 21
8199.794947364351
 31
0.0
 70
    32
 71
     5
 42
950.0000000000017
  3
INABA_S40G
100
AcDbAlignedDimension
 13
8223.60000000001
 23
6934.186130694103
 33
0.0
 14
7273.600000000008
 24
6934.186130694103
 34
0.0
100
AcDbRotatedDimension
1001
ACAD
1000
DSTYLE
1002
{
1070
   341
1005
0
1002
}
  0
LINE
  5
267EC
102
{ACAD_REACTORS
330
26EFC
102
}
330
747D
100
AcDbEntity
  8
部品1
 48
50.0
100
AcDbLine
 10
5368.6
 20
6077.186130694102
 30
0.0
 11
5368.6
 21
7617.186130694102
 31
0.0
  0
DIMENSION
  5
267EF
330
747D
100
AcDbEntity
  8
寸法
 48
50.0
100
AcDbDimension
  2
*D33
 10
4745.665006330074
 20
6275.186130694106
 30
0.0
 11
4745.665006330071
 21
6884.686130694102
 31
0.0
 70
   160
 71
     5
 42
1218.999999999996
  3
INABA_S40G
100
AcDbAlignedDimension
 13
5441.600000000001
 23
7494.186130694103
 33
0.0
 14
5441.600000000008
 24
6275.186130694106
 34
0.0
 50
90.0
100
AcDbRotatedDimension
1001
ACAD
1000
DSTYLE
1002
{
1070
   341
1005
0
1002
}
  0
DIMENSION
  5
267F0
330
747D
100
AcDbEntity
  8
寸法
 48
50.0
100
AcDbDimension
  2
*D34
 10
4493.721909610673
 20
6077.186130694102
 30
0.0
 11
4493.721909610672
 21
6884.686130694102
 31
0.0
 70
   160
 71
     5
 42
1540.0
  3
INABA_S40G
100
AcDbAlignedDimension
 13
5368.6
 23
7617.186130694102
 33
0.0
 14
5368.6
 24
6077.186130694102
 34
0.0
 50
90.0
100
AcDbRotatedDimension
1001
ACAD
1000
DSTYLE
1002
{
1070
   341
1005
0
1002
}
  0
DIMENSION
  5
267F1
330
747D
100
AcDbEntity
  8
寸法
 48
50.0
100
AcDbDimension
  2
*D35
 10
5255.512673767881
 20
5357.186130694099
 30
0.0
 11
5255.512673767881
 21
5717.1861306941
 31
0.0
 70
   160
  1
扉の出<>
 71
     5
 42
720.0
  3
INABA_S40G
100
AcDbAlignedDimension
 13
5368.600000000004
 23
6077.186130694099
 33
0.0
 14
5724.325326928809
 24
5357.186130694099
 34
0.0
 50
90.0
100
AcDbRotatedDimension
1001
ACAD
1000
DSTYLE
1002
{
1070
   341
1005
0
1002
}
  0
DIMENSION
  5
267F3
330
747D
100
AcDbEntity
  8
寸法
 48
50.0
100
AcDbDimension
  2
*D36
 10
4745.665006330072
 20
6077.186130694102
 30
0.0
 11
4745.665006330071
 21
5741.655181851511
 31
0.0
 70
   160
 71
     5
 42
198.0000000000036
  3
INABA_S40G
100
AcDbAlignedDimension
 13
5441.600000000008
 23
6275.186130694106
 33
0.0
 14
5368.6
 24
6077.186130694102
 34
0.0
 50
90.0
100
AcDbRotatedDimension
1001
ACAD
1000
DSTYLE
1002
{
1070
   341
1005
0
1002
}
  0
ARC
  5
267FB
330
747D
100
AcDbEntity
  8
想像線
 48
5.0
100
AcDbCircle
 10
6138.600000000003
 20
6077.186130694106
 30
0.0
 40
720.0
100
AcDbArc
 50
180.0
 51
270.0
  0
LINE
  5
267FC
330
747D
100
AcDbEntity
  8
想像線
 48
5.0
100
AcDbLine
 10
6138.600000000003
 20
6077.186130694117
 30
0.0
 11
6138.600000000003
 21
5357.186130694106
 31
0.0
  0
DIMENSION
  5
267FD
330
747D
100
AcDbEntity
  8
寸法
 48
50.0
100
AcDbDimension
  2
*D37
 10
5851.285990614302
 20
6884.186130694104
 30
0.0
 11
5851.2859906143
 21
6562.186130694103
 31
0.0
 70
   160
 71
     5
 42
806.99999999999
  3
INABA_S40G
100
AcDbAlignedDimension
 13
5942.765475140901
 23
6077.186130694114
 33
0.0
 14
6273.600000000008
 24
6884.186130694103
 34
0.0
 50
90.0
100
AcDbRotatedDimension
1001
ACAD
1000
DSTYLE
1002
{
1070
   341
1005
0
1002
}
  0
CIRCLE
  5
267FE
330
747D
100
AcDbEntity
  8
部品1
 48
50.0
100
AcDbCircle
 10
5491.599999999993
 20
6275.186130694106
 30
0.0
 40
35.0
  0
LINE
  5
267FF
330
747D
100
AcDbEntity
  8
センター
 48
2.0
100
AcDbLine
 10
5441.600000000008
 20
6275.186130694106
 30
0.0
 11
5541.600000000007
 21
6275.186130694106
 31
0.0
  0
LINE
  5
26800
330
747D
100
AcDbEntity
  8
センター
 48
2.0
100
AcDbLine
 10
5491.600000000008
 20
6325.186130694106
 30
0.0
 11
5491.600000000008
 21
6225.186130694106
 31
0.0
  0
LINE
  5
26801
330
747D
100
AcDbEntity
  8
細線
 48
50.0
100
AcDbLine
 10
5884.404364949112
 20
6077.186130694125
 30
0.0
 11
5948.6
 21
6141.381765745013
 31
0.0
  0
LINE
  5
26802
330
747D
100
AcDbEntity
  8
細線
 48
50.0
100
AcDbLine
 10
5748.599999999997
 20
6120.986888166394
 30
0.0
 11
5948.599999999993
 21
6320.986888166387
 31
0.0
  0
LINE
  5
26803
330
747D
100
AcDbEntity
  8
細線
 48
50.0
100
AcDbLine
 10
5749.700523133073
 20
6077.186130694121
 30
0.0
 11
5948.599999999993
 21
6276.085607561043
 31
0.0
  0
LINE
  5
26804
330
747D
100
AcDbEntity
  8
部品1
 48
50.0
100
AcDbLine
 10
5748.599999999992
 20
6357.186130694101
 30
0.0
 11
5748.599999999999
 21
6077.186130694121
 31
0.0
  0
LINE
  5
26805
330
747D
100
AcDbEntity
  8
部品1
 48
50.0
100
AcDbLine
 10
5948.599999999993
 20
6357.186130694102
 30
0.0
 11
5948.599999999998
 21
6077.186130694125
 31
0.0
  0
LINE
  5
26806
330
747D
100
AcDbEntity
  8
細線
 48
50.0
100
AcDbLine
 10
5794.601803738419
 20
6077.186130694123
 30
0.0
 11
5948.599999999995
 21
6231.184326955702
 31
0.0
  0
LINE
  5
26807
330
747D
100
AcDbEntity
  8
細線
 48
50.0
100
AcDbLine
 10
5839.503084343765
 20
6077.186130694125
 30
0.0
 11
5948.6
 21
6186.283046350357
 31
0.0
  0
LINE
  5
26808
330
747D
100
AcDbEntity
  8
細線
 48
50.0
100
AcDbLine
 10
5929.305645554459
 20
6077.186130694126
 30
0.0
 11
5948.600000000002
 21
6096.480485139669
 31
0.0
  0
LINE
  5
26809
330
747D
100
AcDbEntity
  8
細線
 48
50.0
100
AcDbLine
 10
5748.599999999995
 20
6255.690729982431
 30
0.0
 11
5850.09540071166
 21
6357.186130694101
 31
0.0
  0
LINE
  5
2680A
330
747D
100
AcDbEntity
  8
細線
 48
50.0
100
AcDbLine
 10
5748.599999999995
 20
6210.789449377084
 30
0.0
 11
5894.996681317014
 21
6357.186130694102
 31
0.0
  0
LINE
  5
2680B
330
747D
100
AcDbEntity
  8
細線
 48
50.0
100
AcDbLine
 10
5748.599999999997
 20
6165.888168771739
 30
0.0
 11
5939.897961922353
 21
6357.186130694103
 31
0.0
  0
LINE
  5
2680C
330
747D
100
AcDbEntity
  8
細線
 48
50.0
100
AcDbLine
 10
5748.599999999993
 20
6300.592010587774
 30
0.0
 11
5805.194120106323
 21
6357.186130694101
 31
0.0
  0
LINE
  5
2680E
102
{ACAD_REACTORS
330
26EFC
102
}
330
747D
100
AcDbEntity
  8
部品1
 48
50.0
100
AcDbLine
 10
5488.599999999999
 20
6772.186130694122
 30
0.0
 11
5368.59999999999
 21
6772.18613069412
 31
0.0
  0
LINE
  5
2680F
102
{ACAD_REACTORS
330
26EFC
102
}
330
747D
100
AcDbEntity
  8
部品1
 48
50.0
100
AcDbLine
 10
5488.599999999998
 20
6972.186130694121
 30
0.0
 11
5368.59999999999
 21
6972.186130694121
 31
0.0
  0
LINE
  5
26813
330
747D
100
AcDbEntity
  8
部品1
 48
50.0
100
AcDbLine
 10
6423.600000000007
 20
6784.186130694102
 30
0.0
 11
6223.600000000008
 21
6784.186130694102
 31
0.0
  0
LINE
  5
26814
330
747D
100
AcDbEntity
  8
部品1
 48
50.0
100
AcDbLine
 10
6423.600000000007
 20
6984.186130694102
 30
0.0
 11
6223.600000000008
 21
6984.186130694102
 31
0.0
  0
LINE
  5
26815
330
747D
100
AcDbEntity
  8
センター
 48
2.0
100
AcDbLine
 10
6273.600000000008
 20
6884.186130694103
 30
0.0
 11
6373.600000000007
 21
6884.186130694103
 31
0.0
  0
LINE
  5
26816
330
747D
100
AcDbEntity
  8
センター
 48
2.0
100
AcDbLine
 10
6323.600000000007
 20
6934.186130694103
 30
0.0
 11
6323.600000000007
 21
6834.186130694103
 31
0.0
  0
LINE
  5
26817
330
747D
100
AcDbEntity
  8
部品1
 48
50.0
100
AcDbLine
 10
6223.600000000008
 20
6784.186130694102
 30
0.0
 11
6223.600000000008
 21
6984.186130694102
 31
0.0
  0
LINE
  5
26818
330
747D
100
AcDbEntity
  8
部品1
 48
50.0
100
AcDbLine
 10
6423.600000000007
 20
6784.186130694102
 30
0.0
 11
6423.600000000007
 21
6984.186130694102
 31
0.0
  0
LINE
  5
2681C
330
747D
100
AcDbEntity
  8
部品1
 48
50.0
100
AcDbLine
 10
7373.600000000007
 20
6984.186130694102
 30
0.0
 11
7173.600000000007
 21
6984.186130694102
 31
0.0
  0
LINE
  5
2681D
330
747D
100
AcDbEntity
  8
部品1
 48
50.0
100
AcDbLine
 10
7373.600000000007
 20
6784.186130694102
 30
0.0
 11
7173.600000000007
 21
6784.186130694102
 31
0.0
  0
LINE
  5
2681E
330
747D
100
AcDbEntity
  8
部品1
 48
50.0
100
AcDbLine
 10
7173.600000000007
 20
6784.186130694102
 30
0.0
 11
7173.600000000007
 21
6984.186130694102
 31
0.0
  0
LINE
  5
2681F
330
747D
100
AcDbEntity
  8
部品1
 48
50.0
100
AcDbLine
 10
7373.600000000007
 20
6784.186130694102
 30
0.0
 11
7373.600000000007
 21
6984.186130694102
 31
0.0
  0
LINE
  5
26820
330
747D
100
AcDbEntity
  8
センター
 48
2.0
100
AcDbLine
 10
7273.600000000008
 20
6934.186130694103
 30
0.0
 11
7273.600000000008
 21
6834.186130694103
 31
0.0
  0
LINE
  5
26821
330
747D
100
AcDbEntity
  8
センター
 48
2.0
100
AcDbLine
 10
7223.600000000008
 20
6884.186130694103
 30
0.0
 11
7323.600000000007
 21
6884.186130694103
 31
0.0
  0
CIRCLE
  5
2682E
330
747D
100
AcDbEntity
  8
部品1
 48
50.0
100
AcDbCircle
 10
8105.600000000009
 20
6275.186130694106
 30
0.0
 40
35.0
  0
LINE
  5
2682F
330
747D
100
AcDbEntity
  8
センター
 48
2.0
100
AcDbLine
 10
8055.60000000001
 20
6275.186130694106
 30
0.0
 11
8155.60000000001
 21
6275.186130694106
 31
0.0
  0
LINE
  5
26830
330
747D
100
AcDbEntity
  8
センター
 48
2.0
100
AcDbLine
 10
8105.600000000009
 20
6325.186130694106
 30
0.0
 11
8105.600000000009
 21
6225.186130694106
 31
0.0
  0
LINE
  5
26831
330
747D
100
AcDbEntity
  8
センター
 48
2.0
100
AcDbLine
 10
8173.600000000009
 20
6884.186130694103
 30
0.0
 11
8273.600000000008
 21
6884.186130694103
 31
0.0
  0
LINE
  5
26832
330
747D
100
AcDbEntity
  8
部品1
 48
50.0
100
AcDbLine
 10
8323.600000000009
 20
6784.186130694102
 30
0.0
 11
8123.600000000008
 21
6784.186130694102
 31
0.0
  0
LINE
  5
26833
330
747D
100
AcDbEntity
  8
部品1
 48
50.0
100
AcDbLine
 10
8323.600000000009
 20
6984.186130694102
 30
0.0
 11
8123.600000000008
 21
6984.186130694102
 31
0.0
  0
LINE
  5
26834
330
747D
100
AcDbEntity
  8
センター
 48
2.0
100
AcDbLine
 10
8223.60000000001
 20
6934.186130694103
 30
0.0
 11
8223.60000000001
 21
6834.186130694103
 31
0.0
  0
LINE
  5
26835
330
747D
100
AcDbEntity
  8
部品1
 48
50.0
100
AcDbLine
 10
8123.600000000008
 20
6784.186130694102
 30
0.0
 11
8123.600000000008
 21
6984.186130694102
 31
0.0
  0
LINE
  5
26836
330
747D
100
AcDbEntity
  8
部品1
 48
50.0
100
AcDbLine
 10
8323.600000000009
 20
6784.186130694102
 30
0.0
 11
8323.600000000009
 21
6984.186130694102
 31
0.0
  0
DIMENSION
  5
26838
330
747D
100
AcDbEntity
  8
寸法
 48
50.0
100
AcDbDimension
  2
*D38
 10
5368.6
 20
8343.452588788014
 30
0.0
 11
5095.493398282202
 21
8343.452588788014
 31
0.0
 70
   160
 71
     5
 42
123.0
  3
INABA_S40G
100
AcDbAlignedDimension
 13
5491.6
 23
7544.186130694104
 33
0.0
 14
5368.6
 24
7617.186130694102
 34
0.0
100
AcDbRotatedDimension
1001
ACAD
1000
DSTYLE
1002
{
1070
   341
1005
0
1002
}
  0
DIMENSION
  5
26839
330
747D
100
AcDbEntity
  8
寸法
 48
50.0
100
AcDbDimension
  2
*D39
 10
4745.665006330072
 20
7494.186130694103
 30
0.0
 11
4745.665006330071
 21
7890.292732411904
 31
0.0
 70
   160
 71
     5
 42
123.0
  3
INABA_S40G
100
AcDbAlignedDimension
 13
5368.6
 23
7617.186130694102
 33
0.0
 14
5441.600000000001
 24
7494.186130694103
 34
0.0
 50
90.0
100
AcDbRotatedDimension
1001
ACAD
1000
DSTYLE
1002
{
1070
   341
1005
0
1002
}
  0
LINE
  5
2683B
330
747D
100
AcDbEntity
  8
細線
 48
50.0
100
AcDbLine
 10
6741.28003344753
 20
7417.186130694101
 30
0.0
 11
6898.599999999999
 21
7574.506097246569
 31
0.0
  0
LINE
  5
2683C
330
747D
100
AcDbEntity
  8
細線
 48
50.0
100
AcDbLine
 10
6786.181314052878
 20
7417.186130694101
 30
0.0
 11
6898.6
 21
7529.604816641226
 31
0.0
  0
LINE
  5
2683D
330
747D
100
AcDbEntity
  8
細線
 48
50.0
100
AcDbLine
 10
6698.600000000005
 20
7464.308658457264
 30
0.0
 11
6851.47747223685
 21
7617.186130694114
 31
0.0
  0
LINE
  5
2683E
330
747D
100
AcDbEntity
  8
細線
 48
50.0
100
AcDbLine
 10
6698.600000000005
 20
7419.407377851924
 30
0.0
 11
6896.378752842195
 21
7617.186130694109
 31
0.0
  0
LINE
  5
2683F
330
747D
100
AcDbEntity
  8
細線
 48
50.0
100
AcDbLine
 10
6698.6
 20
7509.209939062611
 30
0.0
 11
6806.576191631503
 21
7617.186130694109
 31
0.0
  0
DIMENSION
  5
26840
330
747D
100
AcDbEntity
  8
寸法
 48
50.0
100
AcDbDimension
  2
*D40
 10
5491.6
 20
8343.452588788014
 30
0.0
 11
6798.600000000002
 21
8443.464399811636
 31
0.0
 70
    32
 71
     5
 42
2614.000000000002
  3
INABA_S40G
100
AcDbAlignedDimension
 13
8105.600000000002
 23
7544.186130694104
 33
0.0
 14
5491.6
 24
7544.186130694104
 34
0.0
100
AcDbRotatedDimension
1001
ACAD
1000
DSTYLE
1002
{
1070
   341
1005
0
1002
}
  0
LINE
  5
26841
330
747D
100
AcDbEntity
  8
部品1
 48
50.0
100
AcDbLine
 10
5948.599999999997
 20
7617.186130694112
 30
0.0
 11
5948.600000000004
 21
7417.186130694102
 31
0.0
  0
LINE
  5
26842
330
747D
100
AcDbEntity
  8
部品1
 48
50.0
100
AcDbLine
 10
5748.599999999997
 20
7617.186130694112
 30
0.0
 11
5748.600000000004
 21
7417.186130694102
 31
0.0
  0
LINE
  5
26843
330
747D
100
AcDbEntity
  8
細線
 48
50.0
100
AcDbLine
 10
5748.6
 20
7509.209939062611
 30
0.0
 11
5856.576191631503
 21
7617.186130694109
 31
0.0
  0
LINE
  5
26844
330
747D
100
AcDbEntity
  8
細線
 48
50.0
100
AcDbLine
 10
5748.6
 20
7554.111219667955
 30
0.0
 11
5811.674911026157
 21
7617.186130694112
 31
0.0
  0
LINE
  5
26845
330
747D
100
AcDbEntity
  8
細線
 48
50.0
100
AcDbLine
 10
5748.600000000004
 20
7419.407377851924
 30
0.0
 11
5946.378752842194
 21
7617.186130694109
 31
0.0
  0
LINE
  5
26846
330
747D
100
AcDbEntity
  8
細線
 48
50.0
100
AcDbLine
 10
5748.600000000004
 20
7464.308658457264
 30
0.0
 11
5901.477472236849
 21
7617.186130694114
 31
0.0
  0
LINE
  5
26847
330
747D
100
AcDbEntity
  8
センター
 48
2.0
100
AcDbLine
 10
5441.600000000001
 20
7494.186130694103
 30
0.0
 11
5541.6
 21
7494.186130694103
 31
0.0
  0
CIRCLE
  5
26848
330
747D
100
AcDbEntity
  8
部品1
 48
50.0
100
AcDbCircle
 10
5491.6
 20
7494.186130694103
 30
0.0
 40
35.0
  0
LINE
  5
26849
330
747D
100
AcDbEntity
  8
センター
 48
2.0
100
AcDbLine
 10
5491.6
 20
7544.186130694104
 30
0.0
 11
5491.6
 21
7444.186130694103
 31
0.0
  0
LINE
  5
2684A
330
747D
100
AcDbEntity
  8
細線
 48
50.0
100
AcDbLine
 10
5925.983875263568
 20
7417.186130694101
 30
0.0
 11
5948.600000000002
 21
7439.802255430537
 31
0.0
  0
LINE
  5
2684B
330
747D
100
AcDbEntity
  8
細線
 48
50.0
100
AcDbLine
 10
5881.082594658225
 20
7417.186130694101
 30
0.0
 11
5948.6
 21
7484.70353603588
 31
0.0
  0
LINE
  5
2684C
330
747D
100
AcDbEntity
  8
細線
 48
50.0
100
AcDbLine
 10
5791.280033447531
 20
7417.186130694101
 30
0.0
 11
5948.599999999998
 21
7574.506097246569
 31
0.0
  0
LINE
  5
2684D
330
747D
100
AcDbEntity
  8
細線
 48
50.0
100
AcDbLine
 10
5836.181314052877
 20
7417.186130694101
 30
0.0
 11
5948.6
 21
7529.604816641226
 31
0.0
  0
LINE
  5
2684E
330
747D
100
AcDbEntity
  8
細線
 48
50.0
100
AcDbLine
 10
5748.599999999999
 20
7599.012500273296
 30
0.0
 11
5766.773630420812
 21
7617.186130694114
 31
0.0
  0
LINE
  5
2684F
330
747D
100
AcDbEntity
  8
部品1
 48
50.0
100
AcDbLine
 10
6698.599999999996
 20
7617.186130694112
 30
0.0
 11
6698.600000000005
 21
7417.186130694102
 31
0.0
  0
LINE
  5
26850
330
747D
100
AcDbEntity
  8
細線
 48
50.0
100
AcDbLine
 10
6698.6
 20
7554.111219667955
 30
0.0
 11
6761.674911026156
 21
7617.186130694112
 31
0.0
  0
LINE
  5
26851
330
747D
100
AcDbEntity
  8
細線
 48
50.0
100
AcDbLine
 10
6698.599999999998
 20
7599.012500273296
 30
0.0
 11
6716.773630420812
 21
7617.186130694114
 31
0.0
  0
LINE
  5
26853
330
747D
100
AcDbEntity
  8
部品1
 48
50.0
100
AcDbLine
 10
6898.599999999998
 20
7617.186130694112
 30
0.0
 11
6898.600000000005
 21
7417.186130694102
 31
0.0
  0
LINE
  5
26854
330
747D
100
AcDbEntity
  8
細線
 48
50.0
100
AcDbLine
 10
6875.983875263568
 20
7417.186130694101
 30
0.0
 11
6898.600000000001
 21
7439.802255430537
 31
0.0
  0
LINE
  5
26855
330
747D
100
AcDbEntity
  8
細線
 48
50.0
100
AcDbLine
 10
6831.082594658224
 20
7417.186130694101
 30
0.0
 11
6898.6
 21
7484.70353603588
 31
0.0
  0
LINE
  5
26856
330
747D
100
AcDbEntity
  8
部品1
 48
50.0
100
AcDbLine
 10
7848.599999999994
 20
7617.186130694112
 30
0.0
 11
7848.600000000002
 21
7417.186130694102
 31
0.0
  0
LINE
  5
26857
330
747D
100
AcDbEntity
  8
部品1
 48
50.0
100
AcDbLine
 10
7648.599999999994
 20
7617.186130694112
 30
0.0
 11
7648.600000000001
 21
7417.186130694102
 31
0.0
  0
LINE
  5
26858
330
747D
100
AcDbEntity
  8
細線
 48
50.0
100
AcDbLine
 10
7648.600000000001
 20
7554.111219667955
 30
0.0
 11
7711.674911026155
 21
7617.186130694112
 31
0.0
  0
LINE
  5
26859
330
747D
100
AcDbEntity
  8
細線
 48
50.0
100
AcDbLine
 10
7648.600000000001
 20
7419.407377851924
 30
0.0
 11
7846.378752842193
 21
7617.186130694109
 31
0.0
  0
LINE
  5
2685A
330
747D
100
AcDbEntity
  8
細線
 48
50.0
100
AcDbLine
 10
7648.600000000001
 20
7509.209939062611
 30
0.0
 11
7756.576191631502
 21
7617.186130694109
 31
0.0
  0
LINE
  5
2685B
330
747D
100
AcDbEntity
  8
細線
 48
50.0
100
AcDbLine
 10
7648.600000000001
 20
7464.308658457264
 30
0.0
 11
7801.47747223685
 21
7617.186130694114
 31
0.0
  0
LINE
  5
2685C
330
747D
100
AcDbEntity
  8
細線
 48
50.0
100
AcDbLine
 10
7781.082594658222
 20
7417.186130694101
 30
0.0
 11
7848.600000000002
 21
7484.70353603588
 31
0.0
  0
LINE
  5
2685D
330
747D
100
AcDbEntity
  8
細線
 48
50.0
100
AcDbLine
 10
7825.983875263566
 20
7417.186130694101
 30
0.0
 11
7848.600000000002
 21
7439.802255430537
 31
0.0
  0
LINE
  5
2685E
330
747D
100
AcDbEntity
  8
細線
 48
50.0
100
AcDbLine
 10
7736.181314052879
 20
7417.186130694101
 30
0.0
 11
7848.600000000002
 21
7529.604816641226
 31
0.0
  0
LINE
  5
2685F
330
747D
100
AcDbEntity
  8
細線
 48
50.0
100
AcDbLine
 10
7691.280033447529
 20
7417.186130694101
 30
0.0
 11
7848.599999999999
 21
7574.506097246569
 31
0.0
  0
LINE
  5
26860
330
747D
100
AcDbEntity
  8
センター
 48
2.0
100
AcDbLine
 10
8055.600000000003
 20
7494.186130694103
 30
0.0
 11
8155.600000000003
 21
7494.186130694103
 31
0.0
  0
CIRCLE
  5
26861
330
747D
100
AcDbEntity
  8
部品1
 48
50.0
100
AcDbCircle
 10
8105.600000000002
 20
7494.186130694103
 30
0.0
 40
35.0
  0
LINE
  5
26862
330
747D
100
AcDbEntity
  8
センター
 48
2.0
100
AcDbLine
 10
8105.600000000002
 20
7544.186130694104
 30
0.0
 11
8105.600000000002
 21
7444.186130694103
 31
0.0
  0
LINE
  5
26863
330
747D
100
AcDbEntity
  8
細線
 48
50.0
100
AcDbLine
 10
7648.599999999999
 20
7599.012500273296
 30
0.0
 11
7666.773630420812
 21
7617.186130694114
 31
0.0
  0
DIMENSION
  5
26864
330
747D
100
AcDbEntity
  8
寸法
 48
50.0
100
AcDbDimension
  2
*D41
 10
10123.60000000001
 20
8099.794947364351
 30
0.0
 11
10601.1
 21
8199.794947364351
 31
0.0
 70
    32
 71
     5
 42
954.9999999999927
  3
INABA_S40G
100
AcDbAlignedDimension
 13
11078.6
 23
7617.186130694102
 33
0.0
 14
10123.60000000001
 24
6934.186130694103
 34
0.0
100
AcDbRotatedDimension
1001
ACAD
1000
DSTYLE
1002
{
1070
   341
1005
0
1002
}
  0
LINE
  5
26867
102
{ACAD_REACTORS
330
26EEB
102
}
330
747D
100
AcDbEntity
  8
部品1
 48
50.0
100
AcDbLine
 10
11078.6
 20
6077.186130694121
 30
0.0
 11
11078.6
 21
7617.186130694102
 31
0.0
  0
DIMENSION
  5
2686A
330
747D
100
AcDbEntity
  8
寸法
 48
50.0
100
AcDbDimension
  2
*D42
 10
9173.600000000009
 20
8099.794947364351
 30
0.0
 11
9648.60000000001
 21
8199.794947364351
 31
0.0
 70
    32
 71
     5
 42
950.0
  3
INABA_S40G
100
AcDbAlignedDimension
 13
10123.60000000001
 23
6934.186130694103
 33
0.0
 14
9173.600000000009
 24
6934.186130694103
 34
0.0
100
AcDbRotatedDimension
1001
ACAD
1000
DSTYLE
1002
{
1070
   341
1005
0
1002
}
  0
LINE
  5
26871
330
747D
100
AcDbEntity
  8
センター
 48
2.0
100
AcDbLine
 10
10073.60000000001
 20
6884.186130694103
 30
0.0
 11
10173.60000000001
 21
6884.186130694103
 31
0.0
  0
LINE
  5
26872
330
747D
100
AcDbEntity
  8
部品1
 48
50.0
100
AcDbLine
 10
10223.60000000001
 20
6784.186130694102
 30
0.0
 11
10023.60000000001
 21
6784.186130694102
 31
0.0
  0
LINE
  5
26873
330
747D
100
AcDbEntity
  8
部品1
 48
50.0
100
AcDbLine
 10
10223.60000000001
 20
6984.186130694102
 30
0.0
 11
10023.60000000001
 21
6984.186130694102
 31
0.0
  0
LINE
  5
26874
330
747D
100
AcDbEntity
  8
部品1
 48
50.0
100
AcDbLine
 10
9273.600000000008
 20
6984.186130694102
 30
0.0
 11
9073.600000000009
 21
6984.186130694102
 31
0.0
  0
LINE
  5
26875
330
747D
100
AcDbEntity
  8
部品1
 48
50.0
100
AcDbLine
 10
9273.600000000008
 20
6784.186130694102
 30
0.0
 11
9073.600000000009
 21
6784.186130694102
 31
0.0
  0
LINE
  5
26882
330
747D
100
AcDbEntity
  8
部品1
 48
50.0
100
AcDbLine
 10
9073.600000000009
 20
6784.186130694102
 30
0.0
 11
9073.600000000009
 21
6984.186130694102
 31
0.0
  0
LINE
  5
26883
330
747D
100
AcDbEntity
  8
センター
 48
2.0
100
AcDbLine
 10
9173.600000000009
 20
6934.186130694103
 30
0.0
 11
9173.600000000009
 21
6834.186130694103
 31
0.0
  0
LINE
  5
26884
330
747D
100
AcDbEntity
  8
センター
 48
2.0
100
AcDbLine
 10
9123.600000000008
 20
6884.186130694103
 30
0.0
 11
9223.60000000001
 21
6884.186130694103
 31
0.0
  0
LINE
  5
26891
330
747D
100
AcDbEntity
  8
部品1
 48
50.0
100
AcDbLine
 10
9273.600000000008
 20
6784.186130694102
 30
0.0
 11
9273.600000000008
 21
6984.186130694102
 31
0.0
  0
LINE
  5
26892
330
747D
100
AcDbEntity
  8
部品1
 48
50.0
100
AcDbLine
 10
10023.60000000001
 20
6784.186130694102
 30
0.0
 11
10023.60000000001
 21
6984.186130694102
 31
0.0
  0
LINE
  5
2689F
330
747D
100
AcDbEntity
  8
部品1
 48
50.0
100
AcDbLine
 10
10223.60000000001
 20
6784.186130694102
 30
0.0
 11
10223.60000000001
 21
6984.186130694102
 31
0.0
  0
LINE
  5
268A0
330
747D
100
AcDbEntity
  8
センター
 48
2.0
100
AcDbLine
 10
10123.60000000001
 20
6934.186130694103
 30
0.0
 11
10123.60000000001
 21
6834.186130694103
 31
0.0
  0
LINE
  5
268A1
330
747D
100
AcDbEntity
  8
センター
 48
2.0
100
AcDbLine
 10
10905.60000000001
 20
6275.186130694106
 30
0.0
 11
11005.60000000001
 21
6275.186130694106
 31
0.0
  0
CIRCLE
  5
268A2
330
747D
100
AcDbEntity
  8
部品1
 48
50.0
100
AcDbCircle
 10
10955.60000000001
 20
6275.186130694106
 30
0.0
 40
35.0
  0
LINE
  5
268A3
330
747D
100
AcDbEntity
  8
センター
 48
2.0
100
AcDbLine
 10
10955.60000000001
 20
6325.186130694106
 30
0.0
 11
10955.60000000001
 21
6225.186130694106
 31
0.0
  0
LINE
  5
268A4
102
{ACAD_REACTORS
330
26EEB
102
}
330
747D
100
AcDbEntity
  8
部品1
 48
50.0
100
AcDbLine
 10
11078.59999999998
 20
6972.186130694121
 30
0.0
 11
10958.6
 21
6972.186130694121
 31
0.0
  0
LINE
  5
268A5
102
{ACAD_REACTORS
330
26EEB
102
}
330
747D
100
AcDbEntity
  8
部品1
 48
50.0
100
AcDbLine
 10
11078.59999999998
 20
6772.18613069412
 30
0.0
 11
10958.6
 21
6772.186130694122
 31
0.0
  0
LINE
  5
268A7
330
747D
100
AcDbEntity
  8
部品1
 48
50.0
100
AcDbLine
 10
8798.599999999995
 20
7617.186130694112
 30
0.0
 11
8798.600000000002
 21
7417.186130694102
 31
0.0
  0
LINE
  5
268A8
330
747D
100
AcDbEntity
  8
部品1
 48
50.0
100
AcDbLine
 10
8598.599999999995
 20
7617.186130694112
 30
0.0
 11
8598.600000000002
 21
7417.186130694102
 31
0.0
  0
LINE
  5
268A9
330
747D
100
AcDbEntity
  8
細線
 48
50.0
100
AcDbLine
 10
8598.600000000002
 20
7464.308658457264
 30
0.0
 11
8751.47747223685
 21
7617.186130694114
 31
0.0
  0
LINE
  5
268AA
330
747D
100
AcDbEntity
  8
細線
 48
50.0
100
AcDbLine
 10
8598.600000000002
 20
7509.209939062611
 30
0.0
 11
8706.576191631503
 21
7617.186130694109
 31
0.0
  0
LINE
  5
268AB
330
747D
100
AcDbEntity
  8
細線
 48
50.0
100
AcDbLine
 10
8598.600000000002
 20
7554.111219667955
 30
0.0
 11
8661.674911026155
 21
7617.186130694112
 31
0.0
  0
LINE
  5
268AC
330
747D
100
AcDbEntity
  8
細線
 48
50.0
100
AcDbLine
 10
8598.600000000002
 20
7419.407377851924
 30
0.0
 11
8796.378752842192
 21
7617.186130694109
 31
0.0
  0
LINE
  5
268AD
330
747D
100
AcDbEntity
  8
細線
 48
50.0
100
AcDbLine
 10
8641.280033447529
 20
7417.186130694101
 30
0.0
 11
8798.599999999998
 21
7574.506097246569
 31
0.0
  0
LINE
  5
268AE
330
747D
100
AcDbEntity
  8
細線
 48
50.0
100
AcDbLine
 10
8775.983875263566
 20
7417.186130694101
 30
0.0
 11
8798.600000000002
 21
7439.802255430537
 31
0.0
  0
LINE
  5
268AF
330
747D
100
AcDbEntity
  8
細線
 48
50.0
100
AcDbLine
 10
8731.082594658223
 20
7417.186130694101
 30
0.0
 11
8798.600000000002
 21
7484.70353603588
 31
0.0
  0
LINE
  5
268B0
330
747D
100
AcDbEntity
  8
細線
 48
50.0
100
AcDbLine
 10
8686.181314052879
 20
7417.186130694101
 30
0.0
 11
8798.600000000002
 21
7529.604816641226
 31
0.0
  0
LINE
  5
268B1
330
747D
100
AcDbEntity
  8
細線
 48
50.0
100
AcDbLine
 10
8598.599999999999
 20
7599.012500273296
 30
0.0
 11
8616.773630420812
 21
7617.186130694114
 31
0.0
  0
LINE
  5
268B2
330
747D
100
AcDbEntity
  8
部品1
 48
50.0
100
AcDbLine
 10
9748.599999999996
 20
7617.186130694112
 30
0.0
 11
9748.600000000003
 21
7417.186130694102
 31
0.0
  0
LINE
  5
268B3
330
747D
100
AcDbEntity
  8
部品1
 48
50.0
100
AcDbLine
 10
9548.599999999995
 20
7617.186130694112
 30
0.0
 11
9548.600000000002
 21
7417.186130694102
 31
0.0
  0
LINE
  5
268B4
330
747D
100
AcDbEntity
  8
細線
 48
50.0
100
AcDbLine
 10
9548.600000000002
 20
7419.407377851924
 30
0.0
 11
9746.378752842193
 21
7617.186130694109
 31
0.0
  0
LINE
  5
268B5
330
747D
100
AcDbEntity
  8
細線
 48
50.0
100
AcDbLine
 10
9548.600000000002
 20
7554.111219667955
 30
0.0
 11
9611.674911026156
 21
7617.186130694112
 31
0.0
  0
LINE
  5
268B6
330
747D
100
AcDbEntity
  8
細線
 48
50.0
100
AcDbLine
 10
9548.600000000002
 20
7509.209939062611
 30
0.0
 11
9656.576191631502
 21
7617.186130694109
 31
0.0
  0
LINE
  5
268B7
330
747D
100
AcDbEntity
  8
細線
 48
50.0
100
AcDbLine
 10
9548.600000000002
 20
7464.308658457264
 30
0.0
 11
9701.477472236851
 21
7617.186130694114
 31
0.0
  0
LINE
  5
268B8
330
747D
100
AcDbEntity
  8
細線
 48
50.0
100
AcDbLine
 10
9636.18131405288
 20
7417.186130694101
 30
0.0
 11
9748.600000000003
 21
7529.604816641226
 31
0.0
  0
LINE
  5
268B9
330
747D
100
AcDbEntity
  8
細線
 48
50.0
100
AcDbLine
 10
9591.28003344753
 20
7417.186130694101
 30
0.0
 11
9748.599999999999
 21
7574.506097246569
 31
0.0
  0
LINE
  5
268BA
330
747D
100
AcDbEntity
  8
細線
 48
50.0
100
AcDbLine
 10
9681.082594658223
 20
7417.186130694101
 30
0.0
 11
9748.600000000003
 21
7484.70353603588
 31
0.0
  0
LINE
  5
268BB
330
747D
100
AcDbEntity
  8
細線
 48
50.0
100
AcDbLine
 10
9725.983875263565
 20
7417.186130694101
 30
0.0
 11
9748.600000000003
 21
7439.802255430537
 31
0.0
  0
LINE
  5
268BC
330
747D
100
AcDbEntity
  8
細線
 48
50.0
100
AcDbLine
 10
9548.599999999998
 20
7599.012500273296
 30
0.0
 11
9566.773630420811
 21
7617.186130694114
 31
0.0
  0
DIMENSION
  5
268BE
330
747D
100
AcDbEntity
  8
寸法
 48
50.0
100
AcDbDimension
  2
*D43
 10
10955.6
 20
8343.452588788014
 30
0.0
 11
11351.7066017178
 21
8343.452588788014
 31
0.0
 70
   160
 71
     5
 42
123.0
  3
INABA_S40G
100
AcDbAlignedDimension
 13
11078.6
 23
7617.186130694102
 33
0.0
 14
10955.6
 24
7544.186130694104
 34
0.0
100
AcDbRotatedDimension
1001
ACAD
1000
DSTYLE
1002
{
1070
   341
1005
0
1002
}
  0
LINE
  5
268BF
330
747D
100
AcDbEntity
  8
部品1
 48
50.0
100
AcDbLine
 10
10698.59999999999
 20
7617.186130694112
 30
0.0
 11
10698.6
 21
7417.186130694102
 31
0.0
  0
LINE
  5
268C0
330
747D
100
AcDbEntity
  8
細線
 48
50.0
100
AcDbLine
 10
10498.6
 20
7554.111219667955
 30
0.0
 11
10561.67491102615
 21
7617.186130694112
 31
0.0
  0
LINE
  5
268C1
330
747D
100
AcDbEntity
  8
部品1
 48
50.0
100
AcDbLine
 10
10498.59999999999
 20
7617.186130694112
 30
0.0
 11
10498.6
 21
7417.186130694102
 31
0.0
  0
LINE
  5
268C2
330
747D
100
AcDbEntity
  8
細線
 48
50.0
100
AcDbLine
 10
10498.6
 20
7464.308658457264
 30
0.0
 11
10651.47747223685
 21
7617.186130694114
 31
0.0
  0
LINE
  5
268C3
330
747D
100
AcDbEntity
  8
細線
 48
50.0
100
AcDbLine
 10
10498.6
 20
7509.209939062611
 30
0.0
 11
10606.5761916315
 21
7617.186130694109
 31
0.0
  0
LINE
  5
268C4
330
747D
100
AcDbEntity
  8
細線
 48
50.0
100
AcDbLine
 10
10498.6
 20
7419.407377851924
 30
0.0
 11
10696.37875284219
 21
7617.186130694109
 31
0.0
  0
LINE
  5
268C5
330
747D
100
AcDbEntity
  8
細線
 48
50.0
100
AcDbLine
 10
10675.98387526356
 20
7417.186130694101
 30
0.0
 11
10698.6
 21
7439.802255430537
 31
0.0
  0
LINE
  5
268C6
330
747D
100
AcDbEntity
  8
細線
 48
50.0
100
AcDbLine
 10
10631.08259465822
 20
7417.186130694101
 30
0.0
 11
10698.6
 21
7484.70353603588
 31
0.0
  0
LINE
  5
268C7
330
747D
100
AcDbEntity
  8
細線
 48
50.0
100
AcDbLine
 10
10541.28003344753
 20
7417.186130694101
 30
0.0
 11
10698.6
 21
7574.506097246569
 31
0.0
  0
LINE
  5
268C8
330
747D
100
AcDbEntity
  8
細線
 48
50.0
100
AcDbLine
 10
10586.18131405288
 20
7417.186130694101
 30
0.0
 11
10698.6
 21
7529.604816641226
 31
0.0
  0
LINE
  5
268C9
330
747D
100
AcDbEntity
  8
細線
 48
50.0
100
AcDbLine
 10
10498.6
 20
7599.012500273296
 30
0.0
 11
10516.77363042081
 21
7617.186130694114
 31
0.0
  0
CIRCLE
  5
268CB
330
747D
100
AcDbEntity
  8
部品1
 48
50.0
100
AcDbCircle
 10
10955.6
 20
7494.186130694103
 30
0.0
 40
35.0
  0
LINE
  5
268CC
330
747D
100
AcDbEntity
  8
センター
 48
2.0
100
AcDbLine
 10
10905.6
 20
7494.186130694103
 30
0.0
 11
11005.6
 21
7494.186130694103
 31
0.0
  0
LINE
  5
268CD
330
747D
100
AcDbEntity
  8
センター
 48
2.0
100
AcDbLine
 10
10955.6
 20
7544.186130694104
 30
0.0
 11
10955.6
 21
7444.186130694103
 31
0.0
  0
TEXT
  5
26E54
330
747D
100
AcDbEntity
  8
文字
 62
     7
 48
50.0
100
AcDbText
 10
14267.69561199343
 20
838.2527270729188
 30
0.0
 40
100.0
  1
～一般型・多雪地型・豪雪地型～
  7
STYLE2
100
AcDbText
  0
LINE
  5
26E74
330
747D
100
AcDbEntity
  8
部品1
 48
50.0
100
AcDbLine
 10
10958.6
 20
6357.18613069412
 30
0.0
 11
5488.6
 21
6357.1861306941
 31
0.0
  0
LINE
  5
26E75
330
747D
100
AcDbEntity
  8
細線
 48
50.0
100
AcDbLine
 10
6698.599999999993
 20
6300.592010587774
 30
0.0
 11
6755.194120106323
 21
6357.186130694101
 31
0.0
  0
LINE
  5
26E76
330
747D
100
AcDbEntity
  8
細線
 48
50.0
100
AcDbLine
 10
6698.599999999996
 20
6165.888168771739
 30
0.0
 11
6889.897961922352
 21
6357.186130694103
 31
0.0
  0
LINE
  5
26E77
330
747D
100
AcDbEntity
  8
細線
 48
50.0
100
AcDbLine
 10
6698.599999999995
 20
6210.789449377084
 30
0.0
 11
6844.996681317013
 21
6357.186130694102
 31
0.0
  0
LINE
  5
26E78
330
747D
100
AcDbEntity
  8
細線
 48
50.0
100
AcDbLine
 10
6698.599999999995
 20
6255.690729982431
 30
0.0
 11
6800.09540071166
 21
6357.186130694101
 31
0.0
  0
LINE
  5
26E79
330
747D
100
AcDbEntity
  8
細線
 48
50.0
100
AcDbLine
 10
6879.30564555446
 20
6077.186130694126
 30
0.0
 11
6898.600000000001
 21
6096.480485139669
 31
0.0
  0
LINE
  5
26E7A
330
747D
100
AcDbEntity
  8
細線
 48
50.0
100
AcDbLine
 10
6789.503084343765
 20
6077.186130694125
 30
0.0
 11
6898.6
 21
6186.283046350357
 31
0.0
  0
LINE
  5
26E7B
330
747D
100
AcDbEntity
  8
細線
 48
50.0
100
AcDbLine
 10
6744.601803738418
 20
6077.186130694123
 30
0.0
 11
6898.599999999994
 21
6231.184326955702
 31
0.0
  0
LINE
  5
26E7C
330
747D
100
AcDbEntity
  8
部品1
 48
50.0
100
AcDbLine
 10
6898.599999999993
 20
6357.186130694102
 30
0.0
 11
6898.599999999999
 21
6077.186130694125
 31
0.0
  0
LINE
  5
26E7D
330
747D
100
AcDbEntity
  8
部品1
 48
50.0
100
AcDbLine
 10
6698.599999999991
 20
6357.186130694101
 30
0.0
 11
6698.599999999998
 21
6077.186130694121
 31
0.0
  0
LINE
  5
26E7E
330
747D
100
AcDbEntity
  8
細線
 48
50.0
100
AcDbLine
 10
6699.700523133073
 20
6077.186130694121
 30
0.0
 11
6898.599999999993
 21
6276.085607561043
 31
0.0
  0
LINE
  5
26E7F
330
747D
100
AcDbEntity
  8
細線
 48
50.0
100
AcDbLine
 10
6698.599999999996
 20
6120.986888166394
 30
0.0
 11
6898.599999999993
 21
6320.986888166387
 31
0.0
  0
LINE
  5
26E80
330
747D
100
AcDbEntity
  8
細線
 48
50.0
100
AcDbLine
 10
6834.404364949112
 20
6077.186130694125
 30
0.0
 11
6898.6
 21
6141.381765745013
 31
0.0
  0
LINE
  5
26E81
330
747D
100
AcDbEntity
  8
細線
 48
50.0
100
AcDbLine
 10
7648.599999999993
 20
6300.592010587774
 30
0.0
 11
7705.194120106323
 21
6357.186130694101
 31
0.0
  0
LINE
  5
26E82
330
747D
100
AcDbEntity
  8
細線
 48
50.0
100
AcDbLine
 10
7648.599999999998
 20
6165.888168771739
 30
0.0
 11
7839.897961922352
 21
6357.186130694103
 31
0.0
  0
LINE
  5
26E83
330
747D
100
AcDbEntity
  8
細線
 48
50.0
100
AcDbLine
 10
7648.599999999994
 20
6210.789449377084
 30
0.0
 11
7794.996681317013
 21
6357.186130694102
 31
0.0
  0
LINE
  5
26E84
330
747D
100
AcDbEntity
  8
細線
 48
50.0
100
AcDbLine
 10
7648.599999999994
 20
6255.690729982431
 30
0.0
 11
7750.095400711661
 21
6357.186130694101
 31
0.0
  0
LINE
  5
26E85
330
747D
100
AcDbEntity
  8
細線
 48
50.0
100
AcDbLine
 10
7829.30564555446
 20
6077.186130694126
 30
0.0
 11
7848.600000000002
 21
6096.480485139669
 31
0.0
  0
LINE
  5
26E86
330
747D
100
AcDbEntity
  8
細線
 48
50.0
100
AcDbLine
 10
7739.503084343765
 20
6077.186130694125
 30
0.0
 11
7848.600000000001
 21
6186.283046350357
 31
0.0
  0
LINE
  5
26E87
330
747D
100
AcDbEntity
  8
細線
 48
50.0
100
AcDbLine
 10
7694.601803738418
 20
6077.186130694123
 30
0.0
 11
7848.599999999994
 21
6231.184326955702
 31
0.0
  0
LINE
  5
26E88
330
747D
100
AcDbEntity
  8
部品1
 48
50.0
100
AcDbLine
 10
7848.599999999994
 20
6357.186130694102
 30
0.0
 11
7848.599999999999
 21
6077.186130694125
 31
0.0
  0
LINE
  5
26E89
330
747D
100
AcDbEntity
  8
部品1
 48
50.0
100
AcDbLine
 10
7648.599999999992
 20
6357.186130694101
 30
0.0
 11
7648.599999999999
 21
6077.186130694121
 31
0.0
  0
LINE
  5
26E8A
330
747D
100
AcDbEntity
  8
細線
 48
50.0
100
AcDbLine
 10
7649.700523133073
 20
6077.186130694121
 30
0.0
 11
7848.599999999994
 21
6276.085607561043
 31
0.0
  0
LINE
  5
26E8B
330
747D
100
AcDbEntity
  8
細線
 48
50.0
100
AcDbLine
 10
7648.599999999998
 20
6120.986888166394
 30
0.0
 11
7848.599999999994
 21
6320.986888166387
 31
0.0
  0
LINE
  5
26E8C
330
747D
100
AcDbEntity
  8
細線
 48
50.0
100
AcDbLine
 10
7784.404364949113
 20
6077.186130694125
 30
0.0
 11
7848.600000000001
 21
6141.381765745013
 31
0.0
  0
LINE
  5
26E8D
330
747D
100
AcDbEntity
  8
細線
 48
50.0
100
AcDbLine
 10
8598.599999999994
 20
6300.592010587774
 30
0.0
 11
8655.194120106324
 21
6357.186130694101
 31
0.0
  0
LINE
  5
26E8E
330
747D
100
AcDbEntity
  8
細線
 48
50.0
100
AcDbLine
 10
8598.599999999997
 20
6165.888168771739
 30
0.0
 11
8789.897961922354
 21
6357.186130694103
 31
0.0
  0
LINE
  5
26E8F
330
747D
100
AcDbEntity
  8
細線
 48
50.0
100
AcDbLine
 10
8598.599999999995
 20
6210.789449377084
 30
0.0
 11
8744.996681317013
 21
6357.186130694102
 31
0.0
  0
LINE
  5
26E90
330
747D
100
AcDbEntity
  8
細線
 48
50.0
100
AcDbLine
 10
8598.599999999995
 20
6255.690729982431
 30
0.0
 11
8700.09540071166
 21
6357.186130694101
 31
0.0
  0
LINE
  5
26E91
330
747D
100
AcDbEntity
  8
細線
 48
50.0
100
AcDbLine
 10
8779.30564555446
 20
6077.186130694126
 30
0.0
 11
8798.600000000002
 21
6096.480485139669
 31
0.0
  0
LINE
  5
26E92
330
747D
100
AcDbEntity
  8
細線
 48
50.0
100
AcDbLine
 10
8689.503084343765
 20
6077.186130694125
 30
0.0
 11
8798.6
 21
6186.283046350357
 31
0.0
  0
LINE
  5
26E93
330
747D
100
AcDbEntity
  8
細線
 48
50.0
100
AcDbLine
 10
8644.601803738417
 20
6077.186130694123
 30
0.0
 11
8798.599999999995
 21
6231.184326955702
 31
0.0
  0
LINE
  5
26E94
330
747D
100
AcDbEntity
  8
部品1
 48
50.0
100
AcDbLine
 10
8798.599999999993
 20
6357.186130694102
 30
0.0
 11
8798.599999999998
 21
6077.186130694125
 31
0.0
  0
LINE
  5
26E95
330
747D
100
AcDbEntity
  8
部品1
 48
50.0
100
AcDbLine
 10
8598.599999999992
 20
6357.186130694101
 30
0.0
 11
8598.599999999999
 21
6077.186130694121
 31
0.0
  0
LINE
  5
26E96
330
747D
100
AcDbEntity
  8
細線
 48
50.0
100
AcDbLine
 10
8599.700523133073
 20
6077.186130694121
 30
0.0
 11
8798.599999999993
 21
6276.085607561043
 31
0.0
  0
LINE
  5
26E97
330
747D
100
AcDbEntity
  8
細線
 48
50.0
100
AcDbLine
 10
8598.599999999997
 20
6120.986888166394
 30
0.0
 11
8798.599999999993
 21
6320.986888166387
 31
0.0
  0
LINE
  5
26E98
330
747D
100
AcDbEntity
  8
細線
 48
50.0
100
AcDbLine
 10
8734.404364949112
 20
6077.186130694125
 30
0.0
 11
8798.6
 21
6141.381765745013
 31
0.0
  0
LINE
  5
26E99
330
747D
100
AcDbEntity
  8
細線
 48
50.0
100
AcDbLine
 10
9548.599999999993
 20
6300.592010587774
 30
0.0
 11
9605.194120106325
 21
6357.186130694101
 31
0.0
  0
LINE
  5
26E9A
330
747D
100
AcDbEntity
  8
細線
 48
50.0
100
AcDbLine
 10
9548.599999999998
 20
6165.888168771739
 30
0.0
 11
9739.897961922354
 21
6357.186130694103
 31
0.0
  0
LINE
  5
26E9B
330
747D
100
AcDbEntity
  8
細線
 48
50.0
100
AcDbLine
 10
9548.599999999995
 20
6210.789449377084
 30
0.0
 11
9694.996681317014
 21
6357.186130694102
 31
0.0
  0
LINE
  5
26E9C
330
747D
100
AcDbEntity
  8
細線
 48
50.0
100
AcDbLine
 10
9548.599999999995
 20
6255.690729982431
 30
0.0
 11
9650.095400711661
 21
6357.186130694101
 31
0.0
  0
LINE
  5
26E9D
330
747D
100
AcDbEntity
  8
細線
 48
50.0
100
AcDbLine
 10
9729.305645554461
 20
6077.186130694126
 30
0.0
 11
9748.600000000003
 21
6096.480485139669
 31
0.0
  0
LINE
  5
26E9E
330
747D
100
AcDbEntity
  8
細線
 48
50.0
100
AcDbLine
 10
9639.503084343765
 20
6077.186130694125
 30
0.0
 11
9748.600000000001
 21
6186.283046350357
 31
0.0
  0
LINE
  5
26E9F
330
747D
100
AcDbEntity
  8
細線
 48
50.0
100
AcDbLine
 10
9594.601803738418
 20
6077.186130694123
 30
0.0
 11
9748.599999999996
 21
6231.184326955702
 31
0.0
  0
LINE
  5
26EA0
330
747D
100
AcDbEntity
  8
部品1
 48
50.0
100
AcDbLine
 10
9748.599999999994
 20
6357.186130694102
 30
0.0
 11
9748.599999999999
 21
6077.186130694125
 31
0.0
  0
LINE
  5
26EA1
330
747D
100
AcDbEntity
  8
部品1
 48
50.0
100
AcDbLine
 10
9548.599999999991
 20
6357.186130694101
 30
0.0
 11
9548.599999999998
 21
6077.186130694121
 31
0.0
  0
LINE
  5
26EA2
330
747D
100
AcDbEntity
  8
細線
 48
50.0
100
AcDbLine
 10
9549.700523133074
 20
6077.186130694121
 30
0.0
 11
9748.599999999994
 21
6276.085607561043
 31
0.0
  0
LINE
  5
26EA3
330
747D
100
AcDbEntity
  8
細線
 48
50.0
100
AcDbLine
 10
9548.599999999998
 20
6120.986888166394
 30
0.0
 11
9748.599999999994
 21
6320.986888166387
 31
0.0
  0
LINE
  5
26EA4
330
747D
100
AcDbEntity
  8
細線
 48
50.0
100
AcDbLine
 10
9684.404364949113
 20
6077.186130694125
 30
0.0
 11
9748.600000000001
 21
6141.381765745013
 31
0.0
  0
LINE
  5
26EA5
330
747D
100
AcDbEntity
  8
細線
 48
50.0
100
AcDbLine
 10
10498.59999999999
 20
6300.592010587774
 30
0.0
 11
10555.19412010632
 21
6357.186130694101
 31
0.0
  0
LINE
  5
26EA6
330
747D
100
AcDbEntity
  8
細線
 48
50.0
100
AcDbLine
 10
10498.6
 20
6165.888168771739
 30
0.0
 11
10689.89796192235
 21
6357.186130694103
 31
0.0
  0
LINE
  5
26EA7
330
747D
100
AcDbEntity
  8
細線
 48
50.0
100
AcDbLine
 10
10498.59999999999
 20
6210.789449377084
 30
0.0
 11
10644.99668131701
 21
6357.186130694102
 31
0.0
  0
LINE
  5
26EA8
330
747D
100
AcDbEntity
  8
細線
 48
50.0
100
AcDbLine
 10
10498.59999999999
 20
6255.690729982431
 30
0.0
 11
10600.09540071166
 21
6357.186130694101
 31
0.0
  0
LINE
  5
26EA9
330
747D
100
AcDbEntity
  8
細線
 48
50.0
100
AcDbLine
 10
10679.30564555446
 20
6077.186130694126
 30
0.0
 11
10698.6
 21
6096.480485139669
 31
0.0
  0
LINE
  5
26EAA
330
747D
100
AcDbEntity
  8
細線
 48
50.0
100
AcDbLine
 10
10589.50308434376
 20
6077.186130694125
 30
0.0
 11
10698.6
 21
6186.283046350357
 31
0.0
  0
LINE
  5
26EAB
330
747D
100
AcDbEntity
  8
細線
 48
50.0
100
AcDbLine
 10
10544.60180373842
 20
6077.186130694123
 30
0.0
 11
10698.59999999999
 21
6231.184326955702
 31
0.0
  0
LINE
  5
26EAC
330
747D
100
AcDbEntity
  8
部品1
 48
50.0
100
AcDbLine
 10
10698.59999999999
 20
6357.186130694102
 30
0.0
 11
10698.6
 21
6077.186130694125
 31
0.0
  0
LINE
  5
26EAD
330
747D
100
AcDbEntity
  8
部品1
 48
50.0
100
AcDbLine
 10
10498.59999999999
 20
6357.186130694101
 30
0.0
 11
10498.6
 21
6077.186130694121
 31
0.0
  0
LINE
  5
26EAE
330
747D
100
AcDbEntity
  8
細線
 48
50.0
100
AcDbLine
 10
10499.70052313307
 20
6077.186130694121
 30
0.0
 11
10698.59999999999
 21
6276.085607561043
 31
0.0
  0
LINE
  5
26EAF
330
747D
100
AcDbEntity
  8
細線
 48
50.0
100
AcDbLine
 10
10498.6
 20
6120.986888166394
 30
0.0
 11
10698.59999999999
 21
6320.986888166387
 31
0.0
  0
LINE
  5
26EB0
330
747D
100
AcDbEntity
  8
細線
 48
50.0
100
AcDbLine
 10
10634.40436494911
 20
6077.186130694125
 30
0.0
 11
10698.6
 21
6141.381765745013
 31
0.0
  0
LINE
  5
26ECE
102
{ACAD_REACTORS
330
26EEB
102
}
330
747D
100
AcDbEntity
  8
部品1
 48
50.0
100
AcDbLine
 10
10958.6
 20
6357.18613069412
 30
0.0
 11
10958.6
 21
7417.186130694104
 31
0.0
  0
LINE
  5
26ECF
102
{ACAD_REACTORS
330
26EFC
102
}
330
747D
100
AcDbEntity
  8
部品1
 48
50.0
100
AcDbLine
 10
5488.6
 20
6357.186130694099
 30
0.0
 11
5488.599999999995
 21
7417.186130694102
 31
0.0
  0
HATCH
  5
26EEB
330
747D
100
AcDbEntity
  8
細線
 48
50.0
100
AcDbHatch
 10
0.0
 20
0.0
 30
0.0
210
0.0
220
0.0
230
1.0
  2
LINE
 70
     0
 71
     1
 91
        1
 92
        7
 72
     0
 73
     1
 93
        4
 10
11078.6
 20
6972.186130694121
 10
10958.6
 20
6972.186130694121
 10
10958.6
 20
6772.186130694123
 10
11078.6
 20
6772.18613069412
 97
        4
330
268A4
330
26ECE
330
268A5
330
26867
 75
     0
 76
     1
 52
45.0
 41
10.0
 77
     0
 78
     1
 53
45.0
 43
0.0
 44
0.0
 45
-22.45064030267288
 46
22.45064030267288
 79
     0
 47
5.358123516054916
 98
        1
 10
11028.07397113798
 20
6857.126324761733
  0
HATCH
  5
26EFC
330
747D
100
AcDbEntity
  8
細線
 48
50.0
100
AcDbHatch
 10
0.0
 20
0.0
 30
0.0
210
0.0
220
0.0
230
1.0
  2
LINE
 70
     0
 71
     1
 91
        1
 92
        7
 72
     0
 73
     1
 93
        4
 10
5488.599999999996
 20
6972.186130694121
 10
5368.6
 20
6972.186130694122
 10
5368.6
 20
6772.186130694122
 10
5488.599999999999
 20
6772.186130694123
 97
        4
330
2680F
330
267EC
330
2680E
330
26ECF
 75
     0
 76
     1
 52
45.0
 41
10.0
 77
     0
 78
     1
 53
45.0
 43
0.0
 44
0.0
 45
-22.45064030267288
 46
22.45064030267288
 79
     0
 47
2.081135630948963
 98
        1
 10
5440.036819350163
 20
6932.980085114308
  0
LINE
  5
27080
330
747D
100
AcDbEntity
  8
部品1
100
AcDbLine
 10
10978.05454888999
 20
3605.893723088633
 30
0.0
 11
4907.069363503736
 21
3605.893723088633
 31
0.0
  0
LINE
  5
27081
330
747D
100
AcDbEntity
  8
部品1
100
AcDbLine
 10
10978.05454888999
 20
3365.893723088632
 30
0.0
 11
4907.06936350374
 21
3365.893723088632
 31
0.0
  0
LINE
  5
27082
330
747D
100
AcDbEntity
  8
部品1
100
AcDbLine
 10
4907.069363503741
 20
641.586753503986
 30
0.0
 11
10978.05454888999
 21
641.586753503986
 31
0.0
  0
LEADER
  5
27083
330
747D
100
AcDbEntity
  8
寸法
 48
50.0
100
AcDbLeader
  3
INABA_S50G
 73
     0
 74
     0
 75
     1
 40
102.2727272727273
 41
680.0000000000001
 76
     3
 10
7915.177115490195
 20
2605.430336997191
 30
0.0
 10
7949.531086603551
 20
3015.883148103732
 30
0.0
 10
8074.531086603551
 20
3015.883148103732
 30
0.0
340
27084
1001
ACAD
1000
DSTYLE
1002
{
1070
   341
1005
0
1070
    40
1040
1.0
1070
   343
1005
0
1070
   344
1005
0
1002
}
  0
MTEXT
  5
27084
102
{ACAD_REACTORS
330
27083
102
}
330
747D
100
AcDbEntity
  8
部品1
 62
     7
 48
50.0
100
AcDbMText
 10
8099.531086603551
 20
3092.019511740096
 30
0.0
 40
80.0
 41
0.8
 71
     4
 72
     1
  1
\A1;ナット(市販品)
  7
STYLE2
 73
     1
 44
1.0
1001
ACAD
1000
MTEXTBEGIN
1070
    73
1070
     1
1070
    44
1040
1.0
1070
    74
1070
     0
1000
MTEXTEND
  0
LEADER
  5
27085
330
747D
100
AcDbEntity
  8
寸法
 48
50.0
100
AcDbLeader
  3
INABA_S50G
 73
     0
 74
     0
 75
     1
 40
102.2727272727273
 41
906.8181818181818
 76
     3
 10
7939.177115490195
 20
2475.678344332328
 30
0.0
 10
7981.048705859034
 20
2830.914065338944
 30
0.0
 10
8106.048705859034
 20
2830.914065338944
 30
0.0
340
27086
1001
ACAD
1000
DSTYLE
1002
{
1070
   341
1005
0
1070
    40
1040
1.0
1070
   343
1005
0
1070
   344
1005
0
1002
}
  0
MTEXT
  5
27086
102
{ACAD_REACTORS
330
27085
102
}
330
747D
100
AcDbEntity
  8
部品1
 62
     7
 48
50.0
100
AcDbMText
 10
8131.048705859035
 20
2907.050428975308
 30
0.0
 40
80.0
 41
0.8
 71
     4
 72
     1
  1
\A1;ワッシャー(市販品)
  7
STYLE2
 73
     1
 44
1.0
1001
ACAD
1000
MTEXTBEGIN
1070
    73
1070
     1
1070
    44
1040
1.0
1070
    74
1070
     0
1000
MTEXTEND
  0
LWPOLYLINE
  5
27087
330
747D
100
AcDbEntity
  8
部品1
 48
50.0
100
AcDbPolyline
 90
        2
 70
     0
 43
8.0
 10
8091.777115490193
 20
1966.555055888048
 10
8385.479578889578
 20
1966.555055888048
  0
TEXT
  5
27088
330
747D
100
AcDbEntity
  8
部品1
 48
50.0
100
AcDbText
 10
8096.130699774622
 20
2562.433736650248
 30
0.0
 40
80.0
  1
基礎ボルト(市販品)
  7
STYLE2
100
AcDbText
  0
DIMENSION
  5
27089
330
747D
100
AcDbEntity
  8
寸法
 48
50.0
100
AcDbDimension
  2
*D44
 10
8593.645715259038
 20
1882.555055888047
 30
0.0
 11
8493.645715259038
 21
2044.555055888049
 31
0.0
 70
    32
  1
180
 71
     5
 42
324.0000000000009
  3
INABA_S40G
100
AcDbAlignedDimension
 13
8091.777115490193
 23
2206.555055888048
 33
0.0
 14
8091.777115490193
 24
1882.555055888047
 34
0.0
 50
90.0
100
AcDbRotatedDimension
1001
ACAD
1000
DSTYLE
1002
{
1070
   341
1005
0
1002
}
  0
DIMENSION
  5
2708A
330
747D
100
AcDbEntity
  8
寸法
 48
50.0
100
AcDbDimension
  2
*D45
 10
8869.700381378065
 20
2206.555055888048
 30
0.0
 11
8869.700381378065
 21
1740.546152466565
 31
0.0
 70
   160
  1
20～25
 71
     5
 42
52.76000000000113
  3
INABA_S40G
100
AcDbAlignedDimension
 13
7904.577115490195
 23
2259.315055888049
 33
0.0
 14
8091.777115490193
 24
2206.555055888048
 34
0.0
 50
90.0
100
AcDbRotatedDimension
1001
ACAD
1000
DSTYLE
1002
{
1070
   341
1005
0
1002
}
  0
MTEXT
  5
2708B
102
{ACAD_REACTORS
330
2708C
102
}
330
747D
100
AcDbEntity
  8
部品1
 62
     7
 48
50.0
100
AcDbMText
 10
8100.721577909514
 20
2470.938382041278
 30
0.0
 40
80.0
 41
0.8
 71
     4
 72
     1
  1
M10X160
  7
STYLE2
 73
     1
 44
1.0
1001
ACAD
1000
MTEXTBEGIN
1070
    73
1070
     1
1070
    44
1040
1.0
1070
    74
1070
     0
1000
MTEXTEND
  0
LEADER
  5
2708C
330
747D
100
AcDbEntity
  8
寸法
 48
50.0
100
AcDbLeader
  3
INABA_S50G
 73
     0
 74
     0
 75
     1
 40
80.0
 41
435.0
 76
     3
 10
7908.177115490194
 20
2255.715055888049
 30
0.0
 10
7950.721577909513
 20
2405.938382041278
 30
0.0
 10
8075.721577909513
 20
2405.938382041278
 30
0.0
340
2708B
1001
ACAD
1000
DSTYLE
1002
{
1070
   341
1005
0
1070
    40
1040
1.0
1070
   343
1005
0
1070
   344
1005
0
1002
}
  0
LINE
  5
2708D
330
747D
100
AcDbEntity
  8
部品1
100
AcDbLine
 10
4907.069363503738
 20
3605.893723088633
 30
0.0
 11
4907.06936350374
 21
641.586753503986
 31
0.0
  0
LEADER
  5
2708E
330
747D
100
AcDbEntity
  8
寸法
 48
50.0
100
AcDbLeader
  3
INABA_S50G
 73
     0
 75
     1
 40
113.1818181818182
 41
608.6363636363635
 76
     3
 10
7867.913865628245
 20
2156.070729246327
 30
0.0
 10
7734.110036936897
 20
3007.449811602805
 30
0.0
 10
7609.110036936897
 20
3007.449811602805
 30
0.0
340
2708F
1001
ACAD
1000
DSTYLE
1002
{
1070
   341
1005
0
1070
    40
1040
1.0
1070
   343
1005
0
1070
   344
1005
0
1002
}
  0
MTEXT
  5
2708F
102
{ACAD_REACTORS
330
2708E
102
}
330
747D
100
AcDbEntity
  8
寸法
 62
     7
 48
50.0
100
AcDbMText
 10
7584.110036936897
 20
3089.040720693713
 30
0.0
 40
80.0
 41
0.8
 71
     6
 72
     1
  1
\A1;φ70スリーブ
  7
STYLE2
 73
     1
 44
1.0
1001
ACAD
1000
MTEXTBEGIN
1070
    73
1070
     1
1070
    44
1040
1.0
1070
    74
1070
     0
1000
MTEXTEND
  0
LWPOLYLINE
  5
27090
330
747D
100
AcDbEntity
  8
部品1
 48
50.0
100
AcDbPolyline
 90
        2
 70
     0
 43
8.0
 10
5563.597900480043
 20
1966.555055888048
 10
5977.737802313001
 20
1966.555055888048
  0
TEXT
  5
27091
330
747D
100
AcDbEntity
  8
部品1
 48
50.0
100
AcDbText
 10
5563.597900480043
 20
1977.794048171303
 30
0.0
 40
80.0
  1
▽G.L
  7
STYLE2
100
AcDbText
  0
DIMENSION
  5
27092
330
747D
100
AcDbEntity
  8
寸法
 48
50.0
100
AcDbDimension
  2
*D46
 10
5707.317488580541
 20
1422.555055888048
 30
0.0
 11
5707.317488580541
 21
1542.555055888048
 31
0.0
 70
   160
  1
150
 71
     5
 42
240.0
  3
INABA_S40G
100
AcDbAlignedDimension
 13
5849.737802313001
 23
1662.555055888048
 33
0.0
 14
5769.737802313004
 24
1422.555055888048
 34
0.0
 50
90.0
100
AcDbRotatedDimension
1001
ACAD
1000
DSTYLE
1002
{
1070
   341
1005
0
1002
}
  0
LEADER
  5
27093
330
747D
100
AcDbEntity
  8
寸法
 48
50.0
100
AcDbLeader
  3
INABA_S50G
 71
     0
 73
     0
 75
     1
 40
100.0
 41
225.0
 76
     3
 10
5945.640754665143
 20
1542.555055888048
 30
0.0
 10
5823.802776117807
 20
1279.032362269611
 30
0.0
 10
5698.802776117807
 20
1279.032362269611
 30
0.0
1001
ACAD
1000
DSTYLE
1002
{
1070
    40
1040
1.0
1070
   272
1070
     1
1070
   279
1070
     1
1070
   341
1005
0
1002
}
  0
LEADER
  5
27094
330
747D
100
AcDbEntity
  8
寸法
 48
50.0
100
AcDbLeader
  3
INABA_S50G
 71
     0
 73
     0
 75
     1
 40
100.0
 41
222.7272727272727
 76
     3
 10
6073.737802313001
 20
1542.555055888048
 30
0.0
 10
5851.925503675241
 20
1098.716209730168
 30
0.0
 10
5726.925503675241
 20
1098.716209730168
 30
0.0
1001
ACAD
1000
DSTYLE
1002
{
1070
    40
1040
1.0
1070
   272
1070
     1
1070
   279
1070
     1
1070
   341
1005
0
1002
}
  0
MTEXT
  5
27095
102
{ACAD_REACTORS
330
27096
102
}
330
747D
100
AcDbEntity
  8
寸法
 62
     7
 48
50.0
100
AcDbMText
 10
5888.487748090196
 20
1807.855658705505
 30
0.0
 40
80.0
 41
0.8
 71
     6
 72
     1
  1
\A1;D10@300
  7
STYLE2
 73
     1
 44
1.0
1001
ACAD
1000
MTEXTBEGIN
1070
    73
1070
     1
1070
    44
1040
1.0
1070
    74
1070
     0
1000
MTEXTEND
  0
LEADER
  5
27096
330
747D
100
AcDbEntity
  8
寸法
 48
50.0
100
AcDbLeader
  3
INABA_S50G
 71
     0
 73
     0
 75
     1
 40
100.0
 41
540.3409090909091
 76
     3
 10
6081.737802313
 20
1964.682270585171
 30
0.0
 10
6023.755565784302
 20
1743.211942044366
 30
0.0
 10
5898.755565784302
 20
1743.211942044366
 30
0.0
213
-9.732182305893367
223
-4.643716661138569
233
0.0
1001
ACAD
1000
DSTYLE
1002
{
1070
    40
1040
1.0
1070
   272
1070
     1
1070
   279
1070
     1
1070
   341
1005
0
1002
}
  0
LEADER
  5
27097
330
747D
100
AcDbEntity
  8
寸法
 48
50.0
100
AcDbLeader
  3
INABA_S50G
 71
     0
 73
     0
 75
     1
 40
130.1136363636363
 41
651.1363636363636
 76
     3
 10
6057.737802313
 20
2206.555055888048
 30
0.0
 10
5945.313222148985
 20
2347.025821344636
 30
0.0
 10
5820.313222148985
 20
2347.025821344636
 30
0.0
1001
ACAD
1000
DSTYLE
1002
{
1070
    40
1040
1.0
1070
   272
1070
     1
1070
   279
1070
     1
1070
   341
1005
0
1002
}
  0
MTEXT
  5
27098
102
{ACAD_REACTORS
330
27097
102
}
330
747D
100
AcDbEntity
  8
寸法
 62
     7
 48
50.0
100
AcDbMText
 10
5757.639322829728
 20
2419.07127589009
 30
0.0
 40
80.0
 41
0.8
 71
     6
 72
     1
  1
\A1;金コテ押エ
  7
STYLE2
 73
     1
 44
1.0
1001
ACAD
1000
MTEXTBEGIN
1070
    73
1070
     1
1070
    44
1040
1.0
1070
    74
1070
     0
1000
MTEXTEND
  0
DIMENSION
  5
27099
330
747D
100
AcDbEntity
  8
寸法
 48
50.0
100
AcDbDimension
  2
*D47
 10
5242.70056375126
 20
1422.555055888048
 30
0.0
 11
5242.70056375126
 21
1794.095205544048
 31
0.0
 70
   160
  1
540
 71
     5
 42
784.0
  3
INABA_S40G
100
AcDbAlignedDimension
 13
5977.737802313001
 23
2206.555055888048
 33
0.0
 14
5769.737802313004
 24
1422.555055888048
 34
0.0
 50
90.0
100
AcDbRotatedDimension
1001
ACAD
1000
DSTYLE
1002
{
1070
   341
1005
0
1002
}
  0
MTEXT
  5
2709A
102
{ACAD_REACTORS
330
27094
102
}
330
747D
100
AcDbEntity
  8
寸法
 62
     7
 48
50.0
100
AcDbMText
 10
5706.925503675241
 20
1158.716209730168
 30
0.0
 40
80.0
 41
0.8
 71
     6
 72
     1
  1
D13
  7
STYLE2
 73
     1
 44
1.0
1001
ACAD
1000
MTEXTBEGIN
1070
    73
1070
     1
1070
    44
1040
1.0
1070
    74
1070
     0
1000
MTEXTEND
  0
MTEXT
  5
2709B
102
{ACAD_REACTORS
330
27093
102
}
330
747D
100
AcDbEntity
  8
寸法
 62
     7
 48
50.0
100
AcDbMText
 10
5678.802776117806
 20
1339.032362269611
 30
0.0
 40
80.0
 41
0.8
 71
     6
 72
     1
  1
D10
  7
STYLE2
 73
     1
 44
1.0
1001
ACAD
1000
MTEXTBEGIN
1070
    73
1070
     1
1070
    44
1040
1.0
1070
    74
1070
     0
1000
MTEXTEND
  0
DIMENSION
  5
2709C
330
747D
100
AcDbEntity
  8
寸法
 48
50.0
100
AcDbDimension
  2
*D48
 10
6297.737802313001
 20
884.1254178828876
 30
0.0
 11
6053.641043634777
 21
884.1254178828876
 31
0.0
 70
   160
  1
300
 71
     5
 42
448.0
  3
INABA_S40G
100
AcDbAlignedDimension
 13
5849.737802313001
 23
1294.555055888048
 33
0.0
 14
6297.737802313001
 24
1294.555055888048
 34
0.0
100
AcDbRotatedDimension
1001
ACAD
1000
DSTYLE
1002
{
1070
   341
1005
0
1002
}
  0
MTEXT
  5
2709D
102
{ACAD_REACTORS
330
2709E
102
}
330
747D
100
AcDbEntity
  8
寸法
 62
     7
 48
50.0
100
AcDbMText
 10
7610.753043145256
 20
2728.356448786199
 30
0.0
 40
80.0
 41
0.8
 71
     6
 72
     1
  1
\A1;アンカープレート L
  7
STYLE2
 73
     1
 44
1.0
1001
ACAD
1000
MTEXTBEGIN
1070
    73
1070
     1
1070
    44
1040
1.0
1070
    74
1070
     0
1000
MTEXTEND
  0
LEADER
  5
2709E
330
747D
100
AcDbEntity
  8
寸法
 48
50.0
100
AcDbLeader
  3
INABA_S50G
 73
     0
 75
     1
 40
106.3636363636363
 41
893.1818181818181
 76
     3
 10
7809.177115490195
 20
2276.115055888049
 30
0.0
 10
7760.753043145256
 20
2650.174630604381
 30
0.0
 10
7635.753043145256
 20
2650.174630604381
 30
0.0
340
2709D
1001
ACAD
1000
DSTYLE
1002
{
1070
   341
1005
0
1070
    40
1040
1.0
1070
   343
1005
0
1070
   344
1005
0
1002
}
  0
LINE
  5
2709F
330
747D
100
AcDbEntity
  8
細線
 48
50.0
100
AcDbLine
 10
6097.737802313002
 20
2044.927948555878
 30
0.0
 11
6169.737802313001
 21
2116.927948555878
 31
0.0
  0
ARC
  5
270A0
330
747D
100
AcDbEntity
  8
部品1
 48
50.0
100
AcDbCircle
 10
6073.737802313001
 20
2066.809485282293
 30
0.0
 40
24.0
100
AcDbArc
 50
0.0
 51
180.0
  0
CIRCLE
  5
270A1
330
747D
100
AcDbEntity
  8
部品1
 48
50.0
100
AcDbCircle
 10
6073.737802313001
 20
2066.809485282293
 30
0.0
 40
8.0
  0
LINE
  5
270A2
330
747D
100
AcDbEntity
  8
部品1
 48
50.0
100
AcDbLine
 10
5977.737802313001
 20
1662.555055888048
 30
0.0
 11
5977.737802313001
 21
2206.555055888048
 31
0.0
  0
LINE
  5
270A3
330
747D
100
AcDbEntity
  8
部品1
 48
50.0
100
AcDbLine
 10
6169.737802313001
 20
2206.555055888048
 30
0.0
 11
6169.737802313001
 21
1662.555055888048
 31
0.0
  0
MTEXT
  5
270A4
102
{ACAD_REACTORS
330
270A9
102
}
330
747D
100
AcDbEntity
  8
寸法
 62
     7
 48
50.0
100
AcDbMText
 10
6252.623739340395
 20
2229.110955180859
 30
0.0
 40
80.0
 41
0.8
 71
     4
 72
     1
  1
D13
  7
STYLE2
 73
     1
 44
1.0
1001
ACAD
1000
MTEXTBEGIN
1070
    73
1070
     1
1070
    44
1040
1.0
1070
    74
1070
     0
1000
MTEXTEND
  0
LEADER
  5
270A5
330
747D
100
AcDbEntity
  8
寸法
 48
50.0
100
AcDbLeader
  3
INABA_S50G
 71
     0
 73
     0
 74
     0
 75
     1
 40
100.0
 41
225.0
 76
     3
 10
6201.640754665143
 20
1542.555055888048
 30
0.0
 10
6256.065462119686
 20
1447.157986945075
 30
0.0
 10
6381.065462119686
 20
1447.157986945075
 30
0.0
1001
ACAD
1000
DSTYLE
1002
{
1070
    40
1040
1.0
1070
   272
1070
     1
1070
   279
1070
     1
1070
   341
1005
0
1002
}
  0
LEADER
  5
270A6
330
747D
100
AcDbEntity
  8
寸法
 48
50.0
100
AcDbLeader
  3
INABA_S50G
 71
     0
 73
     0
 74
     0
 75
     1
 40
100.0
 41
540.3409090909091
 76
     3
 10
6147.682971326175
 20
1525.814525474522
 30
0.0
 10
6266.476258174251
 20
1184.183707479625
 30
0.0
 10
6391.476258174251
 20
1184.183707479625
 30
0.0
213
0.0
223
-1.022262676269383
233
0.0
1001
ACAD
1000
DSTYLE
1002
{
1070
    40
1040
1.0
1070
   272
1070
     1
1070
   279
1070
     1
1070
   341
1005
0
1002
}
  0
MTEXT
  5
270A7
102
{ACAD_REACTORS
330
270A5
102
}
330
747D
100
AcDbEntity
  8
寸法
 62
     7
 48
50.0
100
AcDbMText
 10
6401.065462119685
 20
1507.157986945075
 30
0.0
 40
80.0
 41
0.8
 71
     4
 72
     1
  1
D10
  7
STYLE2
 73
     1
 44
1.0
1001
ACAD
1000
MTEXTBEGIN
1070
    73
1070
     1
1070
    44
1040
1.0
1070
    74
1070
     0
1000
MTEXTEND
  0
LWPOLYLINE
  5
270A8
330
747D
100
AcDbEntity
  8
部品1
 48
50.0
100
AcDbPolyline
 90
        2
 70
     0
 43
8.0
 10
6169.737802313001
 20
1966.555055888048
 10
6583.877704145958
 20
1966.555055888048
  0
LEADER
  5
270A9
330
747D
100
AcDbEntity
  8
寸法
 48
50.0
100
AcDbLeader
  3
INABA_S50G
 71
     0
 73
     0
 74
     0
 75
     1
 40
100.0
 41
222.7272727272727
 76
     3
 10
6073.737802313001
 20
2066.809485282293
 30
0.0
 10
6127.623739340395
 20
2166.045058135467
 30
0.0
 10
6252.623739340395
 20
2166.045058135467
 30
0.0
1001
ACAD
1000
DSTYLE
1002
{
1070
    40
1040
1.0
1070
   272
1070
     1
1070
   279
1070
     1
1070
   341
1005
0
1002
}
  0
LINE
  5
270AA
330
747D
100
AcDbEntity
  8
細線
 48
50.0
100
AcDbLine
 10
5849.737802312994
 20
1581.401801650218
 30
0.0
 11
5930.89105655083
 21
1662.555055888048
 31
0.0
  0
LINE
  5
270AB
330
747D
100
AcDbEntity
  8
細線
 48
50.0
100
AcDbLine
 10
6057.603649790405
 20
1600.68227058517
 30
0.0
 11
6081.737802313007
 21
1624.816423107769
 31
0.0
  0
LINE
  5
270AC
330
747D
100
AcDbEntity
  8
細線
 48
50.0
100
AcDbLine
 10
5964.535666730074
 20
1534.555055888048
 30
0.0
 11
6081.737802313001
 21
1651.757191470973
 31
0.0
  0
LINE
  5
270AD
330
747D
100
AcDbEntity
  8
部品1
 48
50.0
100
AcDbLine
 10
5849.737802313001
 20
1422.555055888048
 30
0.0
 11
5849.737802313001
 21
1662.555055888048
 31
0.0
  0
LINE
  5
270AE
330
747D
100
AcDbEntity
  8
細線
 48
50.0
100
AcDbLine
 10
6207.002581998946
 20
1534.555055888048
 30
0.0
 11
6297.737802313001
 21
1625.290276202107
 31
0.0
  0
LINE
  5
270AF
330
747D
100
AcDbEntity
  8
細線
 48
50.0
100
AcDbLine
 10
6180.061813635729
 20
1534.555055888048
 30
0.0
 11
6297.737802313001
 21
1652.231044565314
 31
0.0
  0
LINE
  5
270B0
330
747D
100
AcDbEntity
  8
部品1
 48
50.0
100
AcDbLine
 10
6297.737802313001
 20
1662.555055888048
 30
0.0
 11
6297.737802313001
 21
1422.555055888048
 31
0.0
  0
LINE
  5
270B1
330
747D
100
AcDbEntity
  8
部品1
 48
50.0
100
AcDbLine
 10
6097.737802313007
 20
1542.555055888048
 30
0.0
 11
6097.737802313002
 21
2066.809485282293
 31
0.0
  0
LINE
  5
270B2
330
747D
100
AcDbEntity
  8
部品1
 48
50.0
100
AcDbLine
 10
6081.737802313007
 20
1542.555055888048
 30
0.0
 11
6081.737802312994
 21
2066.809485282293
 31
0.0
  0
LINE
  5
270B3
330
747D
100
AcDbEntity
  8
細線
 48
50.0
100
AcDbLine
 10
6065.737802313002
 20
1581.875654744559
 30
0.0
 11
6081.737802313007
 21
1597.875654744559
 31
0.0
  0
LINE
  5
270B4
330
747D
100
AcDbEntity
  8
細線
 48
50.0
100
AcDbLine
 10
6054.920641809015
 20
1294.555055888048
 30
0.0
 11
6089.218138440198
 21
1422.555055888048
 31
0.0
  0
LINE
  5
270B5
330
747D
100
AcDbEntity
  8
部品1
 48
50.0
100
AcDbLine
 10
6377.737802313005
 20
1294.555055888048
 30
0.0
 11
5769.737802313003
 21
1294.555055888048
 31
0.0
  0
LINE
  5
270B6
330
747D
100
AcDbEntity
  8
部品1
 48
50.0
100
AcDbLine
 10
5905.737802313002
 20
1518.555055888048
 30
0.0
 11
6241.737802313001
 21
1518.555055888048
 31
0.0
  0
LINE
  5
270B7
330
747D
100
AcDbEntity
  8
部品1
 48
50.0
100
AcDbLine
 10
5905.737802313002
 20
1534.555055888048
 30
0.0
 11
6241.737802313001
 21
1534.555055888048
 31
0.0
  0
LINE
  5
270B8
330
747D
100
AcDbEntity
  8
部品1
 48
50.0
100
AcDbLine
 10
6377.737802313005
 20
1422.555055888048
 30
0.0
 11
5769.737802313003
 21
1422.555055888048
 31
0.0
  0
CIRCLE
  5
270B9
330
747D
100
AcDbEntity
  8
部品1
 48
50.0
100
AcDbCircle
 10
6073.737802313001
 20
1542.555055888048
 30
0.0
 40
8.0
  0
LINE
  5
270BA
330
747D
100
AcDbEntity
  8
細線
 48
50.0
100
AcDbLine
 10
6068.061813635734
 20
1422.555055888048
 30
0.0
 11
6164.061813635735
 21
1518.555055888048
 31
0.0
  0
LINE
  5
270BB
330
747D
100
AcDbEntity
  8
細線
 48
50.0
100
AcDbLine
 10
5897.144551914517
 20
1294.555055888048
 30
0.0
 11
5931.442048545701
 21
1422.555055888048
 31
0.0
  0
LINE
  5
270BC
330
747D
100
AcDbEntity
  8
細線
 48
50.0
100
AcDbLine
 10
5976.032596861763
 20
1294.555055888046
 30
0.0
 11
6010.330093492946
 21
1422.555055888046
 31
0.0
  0
LINE
  5
270BD
330
747D
100
AcDbEntity
  8
細線
 48
50.0
100
AcDbLine
 10
5818.256506967259
 20
1294.555055888046
 30
0.0
 11
5852.554003598442
 21
1422.555055888046
 31
0.0
  0
LINE
  5
270BE
330
747D
100
AcDbEntity
  8
部品1
 48
50.0
100
AcDbLine
 10
5769.737802313003
 20
1294.555055888048
 30
0.0
 11
5769.737802313003
 21
1422.555055888048
 31
0.0
  0
LINE
  5
270BF
330
747D
100
AcDbEntity
  8
細線
 48
50.0
100
AcDbLine
 10
5903.575332532863
 20
1318.555055888048
 30
0.0
 11
5910.006113151212
 21
1294.555055888048
 31
0.0
  0
LINE
  5
270C0
330
747D
100
AcDbEntity
  8
細線
 48
50.0
100
AcDbLine
 10
5824.687287585613
 20
1318.555055888048
 30
0.0
 11
5831.118068203958
 21
1294.555055888048
 31
0.0
  0
LINE
  5
270C1
330
747D
100
AcDbEntity
  8
細線
 48
50.0
100
AcDbLine
 10
6061.351422427368
 20
1318.555055888048
 30
0.0
 11
6067.782203045715
 21
1294.555055888048
 31
0.0
  0
LINE
  5
270C2
330
747D
100
AcDbEntity
  8
細線
 48
50.0
100
AcDbLine
 10
5982.463377480115
 20
1318.555055888048
 30
0.0
 11
5988.894158098462
 21
1294.555055888048
 31
0.0
  0
LINE
  5
270C3
330
747D
100
AcDbEntity
  8
細線
 48
50.0
100
AcDbLine
 10
5879.476435093284
 20
1422.555055888048
 30
0.0
 11
5975.476435093284
 21
1518.555055888048
 31
0.0
  0
LINE
  5
270C4
330
747D
100
AcDbEntity
  8
細線
 48
50.0
100
AcDbLine
 10
5852.535666730074
 20
1422.555055888048
 30
0.0
 11
5948.535666730074
 21
1518.555055888048
 31
0.0
  0
LINE
  5
270C5
330
747D
100
AcDbEntity
  8
部品1
 48
50.0
100
AcDbLine
 10
5905.737802313002
 20
1534.555055888048
 30
0.0
 11
5905.737802313002
 21
1518.555055888048
 31
0.0
  0
LINE
  5
270C6
330
747D
100
AcDbEntity
  8
細線
 48
50.0
100
AcDbLine
 10
5846.123222980102
 20
1398.555055888048
 30
0.0
 11
5839.692442361754
 21
1422.555055888048
 31
0.0
  0
LINE
  5
270C7
330
747D
100
AcDbEntity
  8
細線
 48
50.0
100
AcDbLine
 10
5769.737802313001
 20
1407.894976853827
 30
0.0
 11
5773.665958651196
 21
1422.555055888048
 31
0.0
  0
LINE
  5
270C8
330
747D
100
AcDbEntity
  8
部品1
 48
50.0
100
AcDbLine
 10
6065.737802313002
 20
1600.68227058517
 30
0.0
 11
6049.737802313001
 21
1600.68227058517
 31
0.0
  0
CIRCLE
  5
270C9
330
747D
100
AcDbEntity
  8
部品1
 48
50.0
100
AcDbCircle
 10
5945.737802313001
 20
1542.555055888048
 30
0.0
 40
8.0
  0
LINE
  5
270CA
330
747D
100
AcDbEntity
  8
細線
 48
50.0
100
AcDbLine
 10
6018.41720345649
 20
1534.555055888048
 30
0.0
 11
6049.737802313001
 21
1565.875654744559
 31
0.0
  0
ARC
  5
270CB
330
747D
100
AcDbEntity
  8
部品1
 48
50.0
100
AcDbCircle
 10
6073.737802313001
 20
1542.555055888048
 30
0.0
 40
24.0
100
AcDbArc
 50
180.0
 51
199.4712206344713
  0
LINE
  5
270CC
330
747D
100
AcDbEntity
  8
細線
 48
50.0
100
AcDbLine
 10
5925.011267927352
 20
1398.555055888048
 30
0.0
 11
5918.580487309006
 21
1422.555055888048
 31
0.0
  0
LINE
  5
270CD
330
747D
100
AcDbEntity
  8
細線
 48
50.0
100
AcDbLine
 10
6003.899312874604
 20
1398.555055888048
 30
0.0
 11
5997.468532256259
 21
1422.555055888048
 31
0.0
  0
LINE
  5
270CE
330
747D
100
AcDbEntity
  8
細線
 48
50.0
100
AcDbLine
 10
5906.41720345649
 20
1422.555055888048
 30
0.0
 11
6002.41720345649
 21
1518.555055888048
 31
0.0
  0
LINE
  5
270CF
330
747D
100
AcDbEntity
  8
部品1
 48
50.0
100
AcDbLine
 10
6049.737802313001
 20
1600.68227058517
 30
0.0
 11
6049.737802313001
 21
1542.555055888048
 31
0.0
  0
LINE
  5
270D0
330
747D
100
AcDbEntity
  8
細線
 48
50.0
100
AcDbLine
 10
5991.476435093285
 20
1534.555055888048
 30
0.0
 11
6049.737802313001
 21
1592.816423107766
 31
0.0
  0
LINE
  5
270D1
330
747D
100
AcDbEntity
  8
部品1
 48
50.0
100
AcDbLine
 10
6065.737802313002
 20
1600.68227058517
 30
0.0
 11
6065.737802313002
 21
1542.555055888048
 31
0.0
  0
LINE
  5
270D2
330
747D
100
AcDbEntity
  8
部品1
 48
50.0
100
AcDbLine
 10
6377.737802313005
 20
1422.555055888048
 30
0.0
 11
6377.737802313005
 21
1294.555055888048
 31
0.0
  0
LINE
  5
270D3
330
747D
100
AcDbEntity
  8
細線
 48
50.0
100
AcDbLine
 10
6291.584776650755
 20
1294.555055888048
 30
0.0
 11
6325.882273281941
 21
1422.555055888046
 31
0.0
  0
LINE
  5
270D4
330
747D
100
AcDbEntity
  8
細線
 48
50.0
100
AcDbLine
 10
6133.80868675626
 20
1294.555055888048
 30
0.0
 11
6168.106183387447
 21
1422.555055888046
 31
0.0
  0
LINE
  5
270D5
330
747D
100
AcDbEntity
  8
細線
 48
50.0
100
AcDbLine
 10
6212.696731703509
 20
1294.555055888046
 30
0.0
 11
6246.994228334695
 21
1422.555055888046
 31
0.0
  0
LINE
  5
270D6
330
747D
100
AcDbEntity
  8
細線
 48
50.0
100
AcDbLine
 10
6219.127512321859
 20
1318.555055888048
 30
0.0
 11
6225.558292940207
 21
1294.555055888048
 31
0.0
  0
LINE
  5
270D7
330
747D
100
AcDbEntity
  8
細線
 48
50.0
100
AcDbLine
 10
6140.239467374613
 20
1318.555055888048
 30
0.0
 11
6146.67024799296
 21
1294.555055888048
 31
0.0
  0
LINE
  5
270D8
330
747D
100
AcDbEntity
  8
細線
 48
50.0
100
AcDbLine
 10
6298.015557269106
 20
1318.555055888048
 30
0.0
 11
6304.446337887455
 21
1294.555055888048
 31
0.0
  0
LINE
  5
270D9
330
747D
100
AcDbEntity
  8
細線
 48
50.0
100
AcDbLine
 10
6376.903602216354
 20
1318.555055888048
 30
0.0
 11
6377.737802313001
 21
1315.441778743683
 31
0.0
  0
LINE
  5
270DA
330
747D
100
AcDbEntity
  8
細線
 48
50.0
100
AcDbLine
 10
6370.472821598004
 20
1294.555055888046
 30
0.0
 11
6377.737802313001
 21
1321.668333032436
 31
0.0
  0
LINE
  5
270DB
330
747D
100
AcDbEntity
  8
細線
 48
50.0
100
AcDbLine
 10
6233.943350362149
 20
1534.555055888048
 30
0.0
 11
6297.737802313001
 21
1598.349507838898
 31
0.0
  0
CIRCLE
  5
270DC
330
747D
100
AcDbEntity
  8
部品1
 48
50.0
100
AcDbCircle
 10
6201.737802313001
 20
1542.555055888048
 30
0.0
 40
8.0
  0
ARC
  5
270DD
330
747D
100
AcDbEntity
  8
部品1
 48
50.0
100
AcDbCircle
 10
6073.737802313001
 20
1542.555055888048
 30
0.0
 40
24.0
100
AcDbArc
 50
340.5287793655287
 51
0.0
  0
LINE
  5
270DE
330
747D
100
AcDbEntity
  8
細線
 48
50.0
100
AcDbLine
 10
6082.787357821858
 20
1398.555055888048
 30
0.0
 11
6076.35657720351
 21
1422.555055888048
 31
0.0
  0
LINE
  5
270DF
330
747D
100
AcDbEntity
  8
細線
 48
50.0
100
AcDbLine
 10
6161.675402769103
 20
1398.555055888048
 30
0.0
 11
6155.244622150757
 21
1422.555055888048
 31
0.0
  0
LINE
  5
270E0
330
747D
100
AcDbEntity
  8
細線
 48
50.0
100
AcDbLine
 10
6095.002581998945
 20
1422.555055888048
 30
0.0
 11
6191.002581998945
 21
1518.555055888048
 31
0.0
  0
LINE
  5
270E1
330
747D
100
AcDbEntity
  8
細線
 48
50.0
100
AcDbLine
 10
6121.943350362148
 20
1422.555055888048
 30
0.0
 11
6217.944238207286
 21
1518.555943733186
 31
0.0
  0
LINE
  5
270E2
330
747D
100
AcDbEntity
  8
部品1
 48
50.0
100
AcDbLine
 10
6241.737802313001
 20
1534.555055888048
 30
0.0
 11
6241.737802313001
 21
1518.555055888048
 31
0.0
  0
LINE
  5
270E3
330
747D
100
AcDbEntity
  8
細線
 48
50.0
100
AcDbLine
 10
6319.451492663596
 20
1398.555055888048
 30
0.0
 11
6313.020712045248
 21
1422.555055888048
 31
0.0
  0
LINE
  5
270E4
330
747D
100
AcDbEntity
  8
細線
 48
50.0
100
AcDbLine
 10
6283.587960541395
 20
1422.555055888048
 30
0.0
 11
6297.737802313001
 21
1436.704897659654
 31
0.0
  0
LINE
  5
270E5
330
747D
100
AcDbEntity
  8
細線
 48
50.0
100
AcDbLine
 10
6240.563447716349
 20
1398.555055888048
 30
0.0
 11
6234.132667098002
 21
1422.555055888048
 31
0.0
  0
LINE
  5
270E6
330
747D
100
AcDbEntity
  8
細線
 48
50.0
100
AcDbLine
 10
5977.737802313001
 20
1736.342570013426
 30
0.0
 11
6081.737802313007
 21
1840.342570013428
 31
0.0
  0
LINE
  5
270E7
330
747D
100
AcDbEntity
  8
細線
 48
50.0
100
AcDbLine
 10
5977.737802313001
 20
1763.283338376634
 30
0.0
 11
6081.737802313001
 21
1867.283338376634
 31
0.0
  0
LINE
  5
270E8
330
747D
100
AcDbEntity
  8
細線
 48
50.0
100
AcDbLine
 10
5977.737802313001
 20
1709.401801650218
 30
0.0
 11
6081.737802313007
 21
1813.401801650218
 31
0.0
  0
LINE
  5
270E9
330
747D
100
AcDbEntity
  8
細線
 48
50.0
100
AcDbLine
 10
6065.737802313002
 20
2012.927948555878
 30
0.0
 11
6081.737802313001
 21
2028.927948555878
 31
0.0
  0
LINE
  5
270EA
330
747D
100
AcDbEntity
  8
細線
 48
50.0
100
AcDbLine
 10
6065.737802313002
 20
2039.868716919086
 30
0.0
 11
6081.737802313001
 21
2055.868716919086
 31
0.0
  0
LINE
  5
270EB
330
747D
100
AcDbEntity
  8
部品1
 48
50.0
100
AcDbLine
 10
5849.737802313001
 20
1662.555055888048
 30
0.0
 11
5977.737802313001
 21
1662.555055888048
 31
0.0
  0
LINE
  5
270EC
330
747D
100
AcDbEntity
  8
細線
 48
50.0
100
AcDbLine
 10
5849.737802312994
 20
1608.342570013423
 30
0.0
 11
5903.950288187626
 21
1662.555055888048
 31
0.0
  0
LINE
  5
270ED
330
747D
100
AcDbEntity
  8
細線
 48
50.0
100
AcDbLine
 10
5849.737802312994
 20
1635.283338376634
 30
0.0
 11
5877.009519824415
 21
1662.555055888048
 31
0.0
  0
LINE
  5
270EE
330
747D
100
AcDbEntity
  8
部品1
 48
50.0
100
AcDbLine
 10
6065.737802313002
 20
2008.68227058517
 30
0.0
 11
6049.737802313001
 21
2008.682270585174
 31
0.0
  0
LINE
  5
270EF
330
747D
100
AcDbEntity
  8
細線
 48
50.0
100
AcDbLine
 10
5977.737802313001
 20
1924.927948555878
 30
0.0
 11
6061.492124342295
 21
2008.68227058517
 31
0.0
  0
LINE
  5
270F0
330
747D
100
AcDbEntity
  8
細線
 48
50.0
100
AcDbLine
 10
5977.737802313001
 20
1951.868716919085
 30
0.0
 11
6049.737802313001
 21
2023.868716919086
 31
0.0
  0
LINE
  5
270F1
330
747D
100
AcDbEntity
  8
部品1
 48
50.0
100
AcDbLine
 10
6049.737802313001
 20
2008.682270585174
 30
0.0
 11
6049.737802313001
 21
2066.809485282293
 31
0.0
  0
LINE
  5
270F2
330
747D
100
AcDbEntity
  8
細線
 48
50.0
100
AcDbLine
 10
5977.737802313001
 20
1978.809485282293
 30
0.0
 11
6049.737802313001
 21
2050.809485282293
 31
0.0
  0
LINE
  5
270F3
330
747D
100
AcDbEntity
  8
部品1
 48
50.0
100
AcDbLine
 10
6065.737802313002
 20
2008.68227058517
 30
0.0
 11
6065.737802313002
 21
2066.809485282293
 31
0.0
  0
LINE
  5
270F4
330
747D
100
AcDbEntity
  8
細線
 48
50.0
100
AcDbLine
 10
6097.737802313007
 20
1829.401801650218
 30
0.0
 11
6169.737802312994
 21
1901.401801650219
 31
0.0
  0
LINE
  5
270F5
330
747D
100
AcDbEntity
  8
部品1
 48
50.0
100
AcDbLine
 10
6169.737802313001
 20
1662.555055888048
 30
0.0
 11
6297.737802313001
 21
1662.555055888048
 31
0.0
  0
LINE
  5
270F6
330
747D
100
AcDbEntity
  8
細線
 48
50.0
100
AcDbLine
 10
6097.737802313007
 20
1640.816423107769
 30
0.0
 11
6169.737802312994
 21
1712.816423107764
 31
0.0
  0
LINE
  5
270F7
330
747D
100
AcDbEntity
  8
細線
 48
50.0
100
AcDbLine
 10
6097.737802313007
 20
1667.757191470977
 30
0.0
 11
6169.737802312994
 21
1739.757191470973
 31
0.0
  0
LINE
  5
270F8
330
747D
100
AcDbEntity
  8
細線
 48
50.0
100
AcDbLine
 10
6097.737802313007
 20
1613.875654744559
 30
0.0
 11
6169.737802312994
 21
1685.875654744559
 31
0.0
  0
LINE
  5
270F9
330
747D
100
AcDbEntity
  8
細線
 48
50.0
100
AcDbLine
 10
6097.737802313002
 20
1883.283338376634
 30
0.0
 11
6169.737802313001
 21
1955.283338376634
 31
0.0
  0
LINE
  5
270FA
330
747D
100
AcDbEntity
  8
細線
 48
50.0
100
AcDbLine
 10
6097.737802313007
 20
1856.342570013428
 30
0.0
 11
6169.737802312994
 21
1928.342570013423
 31
0.0
  0
MTEXT
  5
270FB
102
{ACAD_REACTORS
330
270A6
102
}
330
747D
100
AcDbEntity
  8
寸法
 62
     7
 48
50.0
100
AcDbMText
 10
6411.476258174251
 20
1245.205970155894
 30
0.0
 40
80.0
 41
0.8
 71
     4
 72
     1
  1
\A1;D10@300
  7
STYLE2
 73
     1
 44
1.0
1001
ACAD
1000
MTEXTBEGIN
1070
    73
1070
     1
1070
    44
1040
1.0
1070
    74
1070
     0
1000
MTEXTEND
  0
DIMENSION
  5
270FC
330
747D
100
AcDbEntity
  8
寸法
 48
50.0
100
AcDbDimension
  2
*D49
 10
5977.737802313001
 20
2626.222863804428
 30
0.0
 11
6073.737802313001
 21
2626.222863804428
 31
0.0
 70
   160
  1
120\P200\P280
 71
     5
 42
192.0
  3
INABA_S40G
100
AcDbAlignedDimension
 13
6169.737802313001
 23
2206.555055888048
 33
0.0
 14
5977.737802313001
 24
2206.555055888048
 34
0.0
100
AcDbRotatedDimension
1001
ACAD
1000
DSTYLE
1002
{
1070
   341
1005
0
1002
}
  0
LINE
  5
270FD
330
747D
100
AcDbEntity
  8
部品1
 48
50.0
100
AcDbLine
 10
5977.737802313001
 20
2206.555055888048
 30
0.0
 11
6169.737802313001
 21
2206.555055888048
 31
0.0
  0
LINE
  5
270FE
330
747D
100
AcDbEntity
  8
細線
 48
50.0
100
AcDbLine
 10
5977.737802313001
 20
2167.394863824746
 30
0.0
 11
6016.897994376305
 21
2206.555055888048
 31
0.0
  0
LINE
  5
270FF
330
747D
100
AcDbEntity
  8
細線
 48
50.0
100
AcDbLine
 10
5977.737802313001
 20
2140.454095461538
 30
0.0
 11
6043.838762739511
 21
2206.555055888048
 31
0.0
  0
LINE
  5
27100
330
747D
100
AcDbEntity
  8
細線
 48
50.0
100
AcDbLine
 10
5977.737802313001
 20
2194.335632187953
 30
0.0
 11
5989.957226013096
 21
2206.555055888048
 31
0.0
  0
LINE
  5
27101
330
747D
100
AcDbEntity
  8
細線
 48
50.0
100
AcDbLine
 10
6097.290509578987
 20
2071.42142418507
 30
0.0
 11
6169.737802313001
 21
2143.868716919085
 31
0.0
  0
LINE
  5
27102
330
747D
100
AcDbEntity
  8
細線
 48
50.0
100
AcDbLine
 10
6086.230224815471
 20
2087.301907784764
 30
0.0
 11
6169.737802313001
 21
2170.809485282294
 31
0.0
  0
LINE
  5
27103
330
747D
100
AcDbEntity
  8
細線
 48
50.0
100
AcDbLine
 10
7962.177115490195
 20
2047.683338376636
 30
0.0
 11
8091.777115490193
 21
2177.283338376635
 31
0.0
  0
LINE
  5
27104
330
747D
100
AcDbEntity
  8
部品1
100
AcDbLine
 10
8091.777115490193
 20
1662.555055888048
 30
0.0
 11
8091.777115490193
 21
2206.555055888048
 31
0.0
  0
LINE
  5
27105
330
747D
100
AcDbEntity
  8
部品1
 48
50.0
100
AcDbLine
 10
7677.777115490194
 20
1662.555055888048
 30
0.0
 11
7677.777115490194
 21
2206.555055888048
 31
0.0
  0
LINE
  5
27106
330
747D
100
AcDbEntity
  8
細線
 48
50.0
100
AcDbLine
 10
7677.777115490194
 20
1978.809485282293
 30
0.0
 11
7836.177115490194
 21
2137.20948528229
 31
0.0
  0
LINE
  5
27107
330
747D
100
AcDbEntity
  8
細線
 48
50.0
100
AcDbLine
 10
7677.777115490194
 20
1951.868716919085
 30
0.0
 11
7836.177115490194
 21
2110.268716919083
 31
0.0
  0
LINE
  5
27108
330
747D
100
AcDbEntity
  8
細線
 48
50.0
100
AcDbLine
 10
7677.777115490194
 20
1924.927948555878
 30
0.0
 11
7836.177115490191
 21
2083.32794855587
 31
0.0
  0
TEXT
  5
27109
330
747D
100
AcDbEntity
  8
部品1
 48
50.0
100
AcDbText
 10
7263.637213657237
 20
1977.794048171303
 30
0.0
 40
80.0
  1
▽G.L
  7
STYLE2
100
AcDbText
  0
LINE
  5
2710A
330
747D
100
AcDbEntity
  8
部品1
100
AcDbLine
 10
7908.177115490194
 20
1981.555055888048
 30
0.0
 11
7908.177115490191
 21
2255.715055888049
 31
0.0
  0
LINE
  5
2710B
330
747D
100
AcDbEntity
  8
部品1
100
AcDbLine
 10
7890.177115490195
 20
1981.555055888048
 30
0.0
 11
7890.177115490191
 21
2255.715055888049
 31
0.0
  0
LINE
  5
2710C
330
747D
100
AcDbEntity
  8
細線
 48
50.0
100
AcDbLine
 10
7962.177115490195
 20
1993.801801650207
 30
0.0
 11
8091.777115490193
 21
2123.401801650198
 31
0.0
  0
LINE
  5
2710D
330
747D
100
AcDbEntity
  8
細線
 48
50.0
100
AcDbLine
 10
7962.177115490195
 20
2020.742570013419
 30
0.0
 11
8091.777115490193
 21
2150.342570013416
 31
0.0
  0
LINE
  5
2710E
330
747D
100
AcDbEntity
  8
部品1
100
AcDbLine
 10
7962.177115490195
 20
1882.555055888047
 30
0.0
 11
7962.177115490195
 21
2206.555055888048
 31
0.0
  0
LINE
  5
2710F
330
747D
100
AcDbEntity
  8
部品1
100
AcDbLine
 10
7836.177115490187
 20
1882.555055888047
 30
0.0
 11
7836.177115490194
 21
2206.555055888048
 31
0.0
  0
LINE
  5
27110
330
747D
100
AcDbEntity
  8
細線
 48
50.0
100
AcDbLine
 10
7677.777115490194
 20
1736.342570013426
 30
0.0
 11
7836.177115490187
 21
1894.742570013414
 31
0.0
  0
LINE
  5
27111
330
747D
100
AcDbEntity
  8
細線
 48
50.0
100
AcDbLine
 10
7677.777115490194
 20
1709.401801650218
 30
0.0
 11
7850.93036972803
 21
1882.555055888046
 31
0.0
  0
LINE
  5
27112
330
747D
100
AcDbEntity
  8
細線
 48
50.0
100
AcDbLine
 10
7677.777115490194
 20
1763.283338376634
 30
0.0
 11
7836.177115490187
 21
1921.683338376629
 31
0.0
  0
LINE
  5
27113
330
747D
100
AcDbEntity
  8
細線
 48
50.0
100
AcDbLine
 10
7606.456516633684
 20
1422.555055888048
 30
0.0
 11
8091.777115490193
 21
1907.875654744555
 31
0.0
  0
LINE
  5
27114
330
747D
100
AcDbEntity
  8
細線
 48
50.0
100
AcDbLine
 10
7579.51574827048
 20
1422.555055888048
 30
0.0
 11
8091.777115490197
 21
1934.816423107761
 31
0.0
  0
LINE
  5
27115
330
747D
100
AcDbEntity
  8
細線
 48
50.0
100
AcDbLine
 10
7552.574979907269
 20
1422.555055888048
 30
0.0
 11
8091.777115490193
 21
1961.757191470973
 31
0.0
  0
LINE
  5
27116
330
747D
100
AcDbEntity
  8
部品1
 48
50.0
100
AcDbLine
 10
8299.777115490197
 20
1422.555055888048
 30
0.0
 11
7469.777115490197
 21
1422.555055888048
 31
0.0
  0
LINE
  5
27117
330
747D
100
AcDbEntity
  8
部品1
 48
50.0
100
AcDbLine
 10
8299.777115490197
 20
1294.555055888048
 30
0.0
 11
7469.777115490197
 21
1294.555055888048
 31
0.0
  0
LINE
  5
27118
330
747D
100
AcDbEntity
  8
細線
 48
50.0
100
AcDbLine
 10
7549.77711549019
 20
1581.401801650218
 30
0.0
 11
7630.930369728024
 21
1662.555055888048
 31
0.0
  0
LINE
  5
27119
330
747D
100
AcDbEntity
  8
部品1
 48
50.0
100
AcDbLine
 10
7549.777115490194
 20
1422.555055888048
 30
0.0
 11
7549.777115490194
 21
1662.555055888048
 31
0.0
  0
LINE
  5
2711A
330
747D
100
AcDbEntity
  8
細線
 48
50.0
100
AcDbLine
 10
7597.183865091712
 20
1294.555055888048
 30
0.0
 11
7631.481361722895
 21
1422.555055888048
 31
0.0
  0
LINE
  5
2711B
330
747D
100
AcDbEntity
  8
部品1
 48
50.0
100
AcDbLine
 10
7469.777115490197
 20
1294.555055888048
 30
0.0
 11
7469.777115490197
 21
1422.555055888048
 31
0.0
  0
LINE
  5
2711C
330
747D
100
AcDbEntity
  8
細線
 48
50.0
100
AcDbLine
 10
7518.295820144453
 20
1294.555055888046
 30
0.0
 11
7552.593316775636
 21
1422.555055888046
 31
0.0
  0
LINE
  5
2711D
330
747D
100
AcDbEntity
  8
細線
 48
50.0
100
AcDbLine
 10
7676.07191003896
 20
1294.555055888046
 30
0.0
 11
7710.369406670141
 21
1422.555055888046
 31
0.0
  0
LINE
  5
2711E
330
747D
100
AcDbEntity
  8
細線
 48
50.0
100
AcDbLine
 10
7524.726600762807
 20
1318.555055888048
 30
0.0
 11
7531.157381381153
 21
1294.555055888048
 31
0.0
  0
LINE
  5
2711F
330
747D
100
AcDbEntity
  8
細線
 48
50.0
100
AcDbLine
 10
7682.50269065731
 20
1318.555055888048
 30
0.0
 11
7688.933471275658
 21
1294.555055888048
 31
0.0
  0
LINE
  5
27120
330
747D
100
AcDbEntity
  8
細線
 48
50.0
100
AcDbLine
 10
7603.614645710059
 20
1318.555055888048
 30
0.0
 11
7610.045426328404
 21
1294.555055888048
 31
0.0
  0
LINE
  5
27121
330
747D
100
AcDbEntity
  8
細線
 48
50.0
100
AcDbLine
 10
7469.777115490194
 20
1407.894976853827
 30
0.0
 11
7473.705271828389
 21
1422.555055888048
 31
0.0
  0
LINE
  5
27122
330
747D
100
AcDbEntity
  8
細線
 48
50.0
100
AcDbLine
 10
7546.162536157296
 20
1398.555055888048
 30
0.0
 11
7539.731755538951
 21
1422.555055888048
 31
0.0
  0
LINE
  5
27123
330
747D
100
AcDbEntity
  8
細線
 48
50.0
100
AcDbLine
 10
7703.9386260518
 20
1398.555055888048
 30
0.0
 11
7697.507845433452
 21
1422.555055888048
 31
0.0
  0
LINE
  5
27124
330
747D
100
AcDbEntity
  8
細線
 48
50.0
100
AcDbLine
 10
7625.050581104549
 20
1398.555055888048
 30
0.0
 11
7618.6198004862
 21
1422.555055888048
 31
0.0
  0
LWPOLYLINE
  5
27125
330
747D
100
AcDbEntity
  8
部品1
 48
50.0
100
AcDbPolyline
 90
        2
 70
     0
 43
8.0
 10
7263.637213657237
 20
1966.555055888048
 10
7677.777115490194
 20
1966.555055888048
  0
LINE
  5
27126
330
747D
100
AcDbEntity
  8
細線
 48
50.0
100
AcDbLine
 10
7549.77711549019
 20
1608.342570013423
 30
0.0
 11
7603.989601364819
 21
1662.555055888048
 31
0.0
  0
LINE
  5
27127
330
747D
100
AcDbEntity
  8
部品1
 48
50.0
100
AcDbLine
 10
7549.777115490194
 20
1662.555055888048
 30
0.0
 11
7677.777115490194
 21
1662.555055888048
 31
0.0
  0
LINE
  5
27128
330
747D
100
AcDbEntity
  8
細線
 48
50.0
100
AcDbLine
 10
7549.77711549019
 20
1635.283338376634
 30
0.0
 11
7577.048833001609
 21
1662.555055888048
 31
0.0
  0
LINE
  5
27129
330
747D
100
AcDbEntity
  8
細線
 48
50.0
100
AcDbLine
 10
7795.041895176139
 20
1422.555055888048
 30
0.0
 11
8091.777115490193
 21
1719.2902762021
 31
0.0
  0
LINE
  5
2712A
330
747D
100
AcDbEntity
  8
細線
 48
50.0
100
AcDbLine
 10
7821.982663539344
 20
1422.555055888048
 30
0.0
 11
8091.777115490193
 21
1692.349507838905
 31
0.0
  0
LINE
  5
2712B
330
747D
100
AcDbEntity
  8
細線
 48
50.0
100
AcDbLine
 10
7768.101126812928
 20
1422.555055888048
 30
0.0
 11
8091.777115490193
 21
1746.231044565314
 31
0.0
  0
LINE
  5
2712C
330
747D
100
AcDbEntity
  8
細線
 48
50.0
100
AcDbLine
 10
7983.627273718586
 20
1422.555055888048
 30
0.0
 11
8219.777115490193
 21
1658.704897659656
 31
0.0
  0
LINE
  5
2712D
330
747D
100
AcDbEntity
  8
細線
 48
50.0
100
AcDbLine
 10
8010.568042081798
 20
1422.555055888048
 30
0.0
 11
8219.777115490193
 21
1631.764129296441
 31
0.0
  0
LINE
  5
2712E
330
747D
100
AcDbEntity
  8
部品1
 48
50.0
100
AcDbLine
 10
8219.777115490193
 20
1662.555055888048
 30
0.0
 11
8219.777115490193
 21
1422.555055888048
 31
0.0
  0
LINE
  5
2712F
330
747D
100
AcDbEntity
  8
細線
 48
50.0
100
AcDbLine
 10
8037.508810445004
 20
1422.555055888048
 30
0.0
 11
8219.777115490193
 21
1604.823360933244
 31
0.0
  0
LINE
  5
27130
330
747D
100
AcDbEntity
  8
細線
 48
50.0
100
AcDbLine
 10
7912.736044880706
 20
1294.555055888046
 30
0.0
 11
7947.033541511887
 21
1422.555055888046
 31
0.0
  0
LINE
  5
27131
330
747D
100
AcDbEntity
  8
細線
 48
50.0
100
AcDbLine
 10
7754.959954986209
 20
1294.555055888048
 30
0.0
 11
7789.257451617392
 21
1422.555055888048
 31
0.0
  0
LINE
  5
27132
330
747D
100
AcDbEntity
  8
細線
 48
50.0
100
AcDbLine
 10
7833.847999933457
 20
1294.555055888048
 30
0.0
 11
7868.145496564641
 21
1422.555055888046
 31
0.0
  0
LINE
  5
27133
330
747D
100
AcDbEntity
  8
細線
 48
50.0
100
AcDbLine
 10
7991.624089827947
 20
1294.555055888048
 30
0.0
 11
8025.921586459132
 21
1422.555055888046
 31
0.0
  0
LINE
  5
27134
330
747D
100
AcDbEntity
  8
細線
 48
50.0
100
AcDbLine
 10
7840.278780551809
 20
1318.555055888048
 30
0.0
 11
7846.709561170155
 21
1294.555055888048
 31
0.0
  0
LINE
  5
27135
330
747D
100
AcDbEntity
  8
細線
 48
50.0
100
AcDbLine
 10
7761.390735604561
 20
1318.555055888048
 30
0.0
 11
7767.821516222909
 21
1294.555055888048
 31
0.0
  0
LINE
  5
27136
330
747D
100
AcDbEntity
  8
細線
 48
50.0
100
AcDbLine
 10
7998.0548704463
 20
1318.555055888048
 30
0.0
 11
8004.485651064646
 21
1294.555055888048
 31
0.0
  0
LINE
  5
27137
330
747D
100
AcDbEntity
  8
細線
 48
50.0
100
AcDbLine
 10
7919.166825499054
 20
1318.555055888048
 30
0.0
 11
7925.597606117401
 21
1294.555055888048
 31
0.0
  0
LINE
  5
27138
330
747D
100
AcDbEntity
  8
細線
 48
50.0
100
AcDbLine
 10
7861.714715946298
 20
1398.555055888048
 30
0.0
 11
7855.28393532795
 21
1422.555055888048
 31
0.0
  0
LINE
  5
27139
330
747D
100
AcDbEntity
  8
細線
 48
50.0
100
AcDbLine
 10
7782.82667099905
 20
1398.555055888048
 30
0.0
 11
7776.395890380705
 21
1422.555055888048
 31
0.0
  0
LINE
  5
2713A
330
747D
100
AcDbEntity
  8
細線
 48
50.0
100
AcDbLine
 10
7940.602760893544
 20
1398.555055888048
 30
0.0
 11
7934.171980275198
 21
1422.555055888048
 31
0.0
  0
LINE
  5
2713B
330
747D
100
AcDbEntity
  8
細線
 48
50.0
100
AcDbLine
 10
8019.490805840788
 20
1398.555055888048
 30
0.0
 11
8013.060025222442
 21
1422.555055888048
 31
0.0
  0
LINE
  5
2713C
330
747D
100
AcDbEntity
  8
部品1
 48
50.0
100
AcDbLine
 10
8299.777115490197
 20
1422.555055888048
 30
0.0
 11
8299.777115490197
 21
1294.555055888048
 31
0.0
  0
LINE
  5
2713D
330
747D
100
AcDbEntity
  8
細線
 48
50.0
100
AcDbLine
 10
8228.28822466969
 20
1294.555055888046
 30
0.0
 11
8262.585721300876
 21
1422.555055888045
 31
0.0
  0
LINE
  5
2713E
330
747D
100
AcDbEntity
  8
細線
 48
50.0
100
AcDbLine
 10
8070.512134775196
 20
1294.555055888046
 30
0.0
 11
8104.80963140637
 21
1422.555055888048
 31
0.0
  0
LINE
  5
2713F
330
747D
100
AcDbEntity
  8
細線
 48
50.0
100
AcDbLine
 10
8149.400179722444
 20
1294.555055888045
 30
0.0
 11
8183.697676353629
 21
1422.555055888045
 31
0.0
  0
LINE
  5
27140
330
747D
100
AcDbEntity
  8
細線
 48
50.0
100
AcDbLine
 10
8076.942915393544
 20
1318.555055888048
 30
0.0
 11
8083.373696011902
 21
1294.555055888048
 31
0.0
  0
LINE
  5
27141
330
747D
100
AcDbEntity
  8
細線
 48
50.0
100
AcDbLine
 10
8155.830960340795
 20
1318.555055888046
 30
0.0
 11
8162.26174095914
 21
1294.555055888046
 31
0.0
  0
LINE
  5
27142
330
747D
100
AcDbEntity
  8
細線
 48
50.0
100
AcDbLine
 10
8234.71900528804
 20
1318.555055888046
 30
0.0
 11
8241.14978590639
 21
1294.555055888046
 31
0.0
  0
LINE
  5
27143
330
747D
100
AcDbEntity
  8
細線
 48
50.0
100
AcDbLine
 10
8098.378850788028
 20
1398.555055888048
 30
0.0
 11
8091.948070169681
 21
1422.555055888048
 31
0.0
  0
LINE
  5
27144
330
747D
100
AcDbEntity
  8
細線
 48
50.0
100
AcDbLine
 10
8177.266895735284
 20
1398.555055888046
 30
0.0
 11
8170.836115116937
 21
1422.555055888046
 31
0.0
  0
LINE
  5
27145
330
747D
100
AcDbEntity
  8
細線
 48
50.0
100
AcDbLine
 10
8256.154940682529
 20
1398.555055888046
 30
0.0
 11
8249.724160064182
 21
1422.555055888046
 31
0.0
  0
LINE
  5
27146
330
747D
100
AcDbEntity
  8
部品1
100
AcDbLine
 10
7962.177115490195
 20
1882.555055888046
 30
0.0
 11
7836.177115490187
 21
1882.555055888046
 31
0.0
  0
LINE
  5
27147
330
747D
100
AcDbEntity
  8
部品1
100
AcDbLine
 10
7944.177115490195
 20
1963.555055888048
 30
0.0
 11
7944.177115490195
 21
1981.555055888048
 31
0.0
  0
ARC
  5
27148
330
747D
100
AcDbEntity
  8
部品1
100
AcDbCircle
 10
7908.177115490194
 20
1981.555055888048
 30
0.0
 40
18.0
100
AcDbArc
 50
180.0
 51
270.0
  0
LINE
  5
27149
330
747D
100
AcDbEntity
  8
部品1
100
AcDbLine
 10
7908.177115490194
 20
1963.555055888048
 30
0.0
 11
7944.177115490195
 21
1963.555055888048
 31
0.0
  0
LINE
  5
2714A
330
747D
100
AcDbEntity
  8
部品1
100
AcDbLine
 10
7908.177115490194
 20
1981.555055888048
 30
0.0
 11
7944.177115490195
 21
1981.555055888048
 31
0.0
  0
LINE
  5
2714B
330
747D
100
AcDbEntity
  8
部品1
 48
50.0
100
AcDbLine
 10
8091.777115490193
 20
1662.555055888048
 30
0.0
 11
8219.777115490193
 21
1662.555055888048
 31
0.0
  0
LINE
  5
2714C
330
747D
100
AcDbEntity
  8
部品1
100
AcDbLine
 10
7697.577115490195
 20
2296.555055888048
 30
0.0
 11
7735.377115490196
 21
2296.555055888048
 31
0.0
  0
LINE
  5
2714D
330
747D
100
AcDbEntity
  8
細線
 48
50.0
100
AcDbLine
 10
7677.777115490194
 20
2167.394863824746
 30
0.0
 11
7716.937307553502
 21
2206.555055888048
 31
0.0
  0
LINE
  5
2714E
330
747D
100
AcDbEntity
  8
細線
 48
50.0
100
AcDbLine
 10
7677.777115490194
 20
2140.454095461538
 30
0.0
 11
7743.878075916704
 21
2206.555055888048
 31
0.0
  0
LINE
  5
2714F
330
747D
100
AcDbEntity
  8
部品1
 48
50.0
100
AcDbLine
 10
7677.777115490194
 20
2206.555055888048
 30
0.0
 11
8091.777115490197
 21
2206.555055888048
 31
0.0
  0
LINE
  5
27150
330
747D
100
AcDbEntity
  8
部品1
100
AcDbLine
 10
7694.877115490196
 20
2285.755055888047
 30
0.0
 11
7694.877115490196
 21
2293.855055888048
 31
0.0
  0
ARC
  5
27151
330
747D
100
AcDbEntity
  8
部品1
100
AcDbCircle
 10
7697.577115490195
 20
2293.855055888048
 30
0.0
 40
2.7
100
AcDbArc
 50
90.0
 51
180.0
  0
ARC
  5
27152
330
747D
100
AcDbEntity
  8
部品1
100
AcDbCircle
 10
7686.777115490194
 20
2280.946959590756
 30
0.0
 40
2.7
100
AcDbArc
 50
104.0362434679059
 51
180.0
  0
LINE
  5
27153
330
747D
100
AcDbEntity
  8
部品1
100
AcDbLine
 10
7686.122269302597
 20
2283.566344341148
 30
0.0
 11
7694.877115490196
 21
2285.755055888047
 31
0.0
  0
ARC
  5
27154
330
747D
100
AcDbEntity
  8
部品1
100
AcDbCircle
 10
7686.777115490194
 20
2218.815055888048
 30
0.0
 40
2.7
100
AcDbArc
 50
180.0
 51
270.0
  0
LINE
  5
27155
330
747D
100
AcDbEntity
  8
細線
 48
50.0
100
AcDbLine
 10
7677.777115490194
 20
2194.335632187953
 30
0.0
 11
7689.996539190289
 21
2206.555055888048
 31
0.0
  0
LINE
  5
27156
330
747D
100
AcDbEntity
  8
部品1
100
AcDbLine
 10
7686.777115490194
 20
2216.115055888048
 30
0.0
 11
7698.477115490189
 21
2216.115055888048
 31
0.0
  0
LINE
  5
27157
330
747D
100
AcDbEntity
  8
部品1
100
AcDbLine
 10
7684.077115490196
 20
2218.815055888048
 30
0.0
 11
7684.077115490196
 21
2280.946959590756
 31
0.0
  0
LINE
  5
27158
330
747D
100
AcDbEntity
  8
部品1
100
AcDbLine
 10
7842.737115490189
 20
2216.115055888048
 30
0.0
 11
8044.077115490187
 21
2216.115055888048
 31
0.0
  0
LINE
  5
27159
330
747D
100
AcDbEntity
  8
部品1
100
AcDbLine
 10
7735.377115490196
 20
2296.555055888048
 30
0.0
 11
7735.377115490196
 21
2304.655055888048
 31
0.0
  0
LINE
  5
2715A
330
747D
100
AcDbEntity
  8
部品1
100
AcDbLine
 10
7785.777115490194
 20
2315.455055888045
 30
0.0
 11
7785.777115490194
 21
2264.155055888048
 31
0.0
  0
LINE
  5
2715B
330
747D
100
AcDbEntity
  8
部品1
100
AcDbLine
 10
7809.177115490195
 20
2276.115055888048
 30
0.0
 11
7837.337115490194
 21
2276.115055888048
 31
0.0
  0
ARC
  5
2715C
330
747D
100
AcDbEntity
  8
部品1
100
AcDbCircle
 10
7809.177115490195
 20
2273.415055888048
 30
0.0
 40
2.7
100
AcDbArc
 50
90.0
 51
180.0
  0
ARC
  5
2715D
330
747D
100
AcDbEntity
  8
部品1
100
AcDbCircle
 10
7837.337115490194
 20
2273.415055888048
 30
0.0
 40
2.7
100
AcDbArc
 50
0.0
 51
90.0
  0
LINE
  5
2715E
330
747D
100
AcDbEntity
  8
部品1
100
AcDbLine
 10
7828.077115490195
 20
2261.455055888047
 30
0.0
 11
7828.077115490195
 21
2218.815055888048
 31
0.0
  0
LINE
  5
2715F
330
747D
100
AcDbEntity
  8
部品1
100
AcDbLine
 10
7813.677115490195
 20
2216.115055888048
 30
0.0
 11
7825.377115490195
 21
2216.115055888048
 31
0.0
  0
ARC
  5
27160
330
747D
100
AcDbEntity
  8
部品1
100
AcDbCircle
 10
7842.737115490189
 20
2218.815055888048
 30
0.0
 40
2.7
100
AcDbArc
 50
180.0
 51
270.0
  0
ARC
  5
27161
330
747D
100
AcDbEntity
  8
部品1
100
AcDbCircle
 10
7825.377115490195
 20
2218.815055888048
 30
0.0
 40
2.7
100
AcDbArc
 50
270.0
 51
0.0
  0
LINE
  5
27162
330
747D
100
AcDbEntity
  8
部品1
100
AcDbLine
 10
7785.777115490194
 20
2264.155055888048
 30
0.0
 11
7825.377115490195
 21
2264.155055888048
 31
0.0
  0
ARC
  5
27163
330
747D
100
AcDbEntity
  8
部品1
100
AcDbCircle
 10
7825.377115490195
 20
2261.455055888047
 30
0.0
 40
2.7
100
AcDbArc
 50
0.0
 51
90.0
  0
LINE
  5
27164
330
747D
100
AcDbEntity
  8
部品1
100
AcDbLine
 10
7840.037115490194
 20
2273.415055888048
 30
0.0
 11
7840.037115490192
 21
2218.815055888048
 31
0.0
  0
LINE
  5
27165
330
747D
100
AcDbEntity
  8
部品1
100
AcDbLine
 10
7806.477115490193
 20
2273.415055888048
 30
0.0
 11
7806.477115490193
 21
2256.315055888048
 31
0.0
  0
LINE
  5
27166
330
747D
100
AcDbEntity
  8
細線
100
AcDbLine
 10
7904.577115490195
 20
2216.115055888048
 30
0.0
 11
7904.577115490195
 21
2259.315055888048
 31
0.0
  0
LINE
  5
27167
330
747D
100
AcDbEntity
  8
細線
100
AcDbLine
 10
7893.777115490197
 20
2216.115055888048
 30
0.0
 11
7893.777115490194
 21
2259.315055888048
 31
0.0
  0
LINE
  5
27168
330
747D
100
AcDbEntity
  8
部品1
100
AcDbLine
 10
7890.177115490195
 20
2255.715055888049
 30
0.0
 11
7908.177115490194
 21
2255.715055888049
 31
0.0
  0
LINE
  5
27169
330
747D
100
AcDbEntity
  8
部品1
100
AcDbLine
 10
7893.777115490194
 20
2259.315055888048
 30
0.0
 11
7904.577115490195
 21
2259.315055888048
 31
0.0
  0
ELLIPSE
  5
2716A
330
747D
100
AcDbEntity
  8
部品1
 48
50.0
100
AcDbEllipse
 10
7899.177115490194
 20
2475.67834433232
 30
0.0
 11
40.0
 21
0.0
 31
0.0
210
0.0
220
0.0
230
1.0
 40
0.4
 41
0.0
 42
6.283185307179586
  0
ELLIPSE
  5
2716B
330
747D
100
AcDbEntity
  8
部品1
 48
50.0
100
AcDbEllipse
 10
7899.177115490194
 20
2466.078344332321
 30
0.0
 11
40.0
 21
0.0
 31
0.0
210
0.0
220
0.0
230
1.0
 40
0.4
 41
3.141592653589793
 42
6.283185307179586
  0
LINE
  5
2716C
330
747D
100
AcDbEntity
  8
部品1
 48
50.0
100
AcDbLine
 10
7859.177115490195
 20
2475.67834433232
 30
0.0
 11
7859.177115490195
 21
2466.07834433232
 31
0.0
  0
ARC
  5
2716D
330
747D
100
AcDbEntity
  8
部品1
100
AcDbCircle
 10
7783.077115490195
 20
2315.455055888045
 30
0.0
 40
2.7
100
AcDbArc
 50
0.0
 51
90.0
  0
ARC
  5
2716E
330
747D
100
AcDbEntity
  8
部品1
100
AcDbCircle
 10
7740.777115490193
 20
2315.455055888048
 30
0.0
 40
2.7
100
AcDbArc
 50
90.0
 51
180.0
  0
LINE
  5
2716F
330
747D
100
AcDbEntity
  8
部品1
100
AcDbLine
 10
7738.077115490195
 20
2307.355055888048
 30
0.0
 11
7738.077115490195
 21
2307.355055888048
 31
0.0
  0
LINE
  5
27170
330
747D
100
AcDbEntity
  8
部品1
100
AcDbLine
 10
7738.077115490195
 20
2307.355055888048
 30
0.0
 11
7738.077115490195
 21
2315.455055888048
 31
0.0
  0
LINE
  5
27171
330
747D
100
AcDbEntity
  8
部品1
100
AcDbLine
 10
7740.777115490193
 20
2318.155055888048
 30
0.0
 11
7783.077115490195
 21
2318.155055888045
 31
0.0
  0
ARC
  5
27172
330
747D
100
AcDbEntity
  8
部品1
100
AcDbCircle
 10
7738.077115490195
 20
2304.655055888048
 30
0.0
 40
2.7
100
AcDbArc
 50
90.0
 51
180.0
  0
ELLIPSE
  5
27173
330
747D
100
AcDbEntity
  8
部品1
 48
50.0
100
AcDbEllipse
 10
7899.177115490194
 20
2475.67834433232
 30
0.0
 11
18.4
 21
0.0
 31
0.0
210
0.0
220
0.0
230
1.0
 40
0.3478260869565217
 41
0.0
 42
6.283185307179586
  0
LINE
  5
27174
330
747D
100
AcDbEntity
  8
部品1
 48
50.0
100
AcDbLine
 10
7939.177115490195
 20
2466.07834433232
 30
0.0
 11
7939.177115490195
 21
2475.67834433232
 31
0.0
  0
LINE
  5
27175
330
747D
100
AcDbEntity
  8
部品1
 48
50.0
100
AcDbLine
 10
7867.177115490195
 20
2597.43033699719
 30
0.0
 11
7883.177115490195
 21
2589.430336997191
 31
0.0
  0
LINE
  5
27176
330
747D
100
AcDbEntity
  8
部品1
 48
50.0
100
AcDbLine
 10
7867.177115490195
 20
2565.43033699719
 30
0.0
 11
7883.177115490195
 21
2557.430336997191
 31
0.0
  0
LINE
  5
27177
330
747D
100
AcDbEntity
  8
部品1
 48
50.0
100
AcDbLine
 10
7867.177115490195
 20
2597.43033699719
 30
0.0
 11
7883.177115490195
 21
2605.430336997191
 31
0.0
  0
LINE
  5
27178
330
747D
100
AcDbEntity
  8
部品1
 48
50.0
100
AcDbLine
 10
7867.177115490195
 20
2565.43033699719
 30
0.0
 11
7867.177115490195
 21
2597.43033699719
 31
0.0
  0
LINE
  5
27179
330
747D
100
AcDbEntity
  8
部品1
 48
50.0
100
AcDbLine
 10
7883.177115490195
 20
2605.430336997191
 30
0.0
 11
7915.177115490195
 21
2605.430336997191
 31
0.0
  0
ELLIPSE
  5
2717A
330
747D
100
AcDbEntity
  8
細線
 48
50.0
100
AcDbEllipse
 10
7899.177115490194
 20
2597.43033699719
 30
0.0
 11
14.76670786606846
 21
0.0
 31
0.0
210
0.0
220
0.0
230
1.0
 40
0.2071254069489396
 41
0.0
 42
6.283185307179586
  0
LINE
  5
2717B
330
747D
100
AcDbEntity
  8
部品1
 48
50.0
100
AcDbLine
 10
7883.177115490195
 20
2557.430336997191
 30
0.0
 11
7915.177115490195
 21
2557.430336997191
 31
0.0
  0
LINE
  5
2717C
330
747D
100
AcDbEntity
  8
部品1
 48
50.0
100
AcDbLine
 10
7915.177115490195
 20
2557.430336997191
 30
0.0
 11
7931.177115490195
 21
2565.43033699719
 31
0.0
  0
LINE
  5
2717D
330
747D
100
AcDbEntity
  8
部品1
 48
50.0
100
AcDbLine
 10
7883.177115490195
 20
2589.430336997191
 30
0.0
 11
7915.177115490195
 21
2589.430336997191
 31
0.0
  0
LINE
  5
2717E
330
747D
100
AcDbEntity
  8
部品1
 48
50.0
100
AcDbLine
 10
7915.177115490195
 20
2589.430336997191
 30
0.0
 11
7931.177115490195
 21
2597.43033699719
 31
0.0
  0
LINE
  5
2717F
330
747D
100
AcDbEntity
  8
細線
 48
50.0
100
AcDbLine
 10
7915.177115490195
 20
2557.430336997191
 30
0.0
 11
7915.177115490195
 21
2589.430336997191
 31
0.0
  0
LINE
  5
27180
330
747D
100
AcDbEntity
  8
部品1
 48
50.0
100
AcDbLine
 10
7931.177115490195
 20
2565.43033699719
 30
0.0
 11
7931.177115490195
 21
2597.43033699719
 31
0.0
  0
LINE
  5
27181
330
747D
100
AcDbEntity
  8
細線
 48
50.0
100
AcDbLine
 10
7883.177115490195
 20
2557.430336997191
 30
0.0
 11
7883.177115490195
 21
2589.430336997191
 31
0.0
  0
LINE
  5
27182
330
747D
100
AcDbEntity
  8
部品1
 48
50.0
100
AcDbLine
 10
7915.177115490195
 20
2605.430336997191
 30
0.0
 11
7931.177115490195
 21
2597.43033699719
 31
0.0
  0
TEXT
  5
27183
330
747D
100
AcDbEntity
  8
部品1
100
AcDbText
 10
7599.949364682126
 20
3426.341791137205
 30
0.0
 40
120.0
  1
基礎詳細
  7
STYLE2
100
AcDbText
  0
LINE
  5
27184
330
747D
100
AcDbEntity
  8
部品1
100
AcDbLine
 10
10978.05454888998
 20
641.586753503986
 30
0.0
 11
10978.05454888999
 21
3605.893723088633
 31
0.0
  0
LINE
  5
27185
330
747D
100
AcDbEntity
  8
細線
100
AcDbLine
 10
9985.946381469737
 20
1966.555055888048
 30
0.0
 11
9791.313047792952
 21
2161.188389564831
 31
0.0
  0
LINE
  5
27186
330
747D
100
AcDbEntity
  8
部品1
100
AcDbLine
 10
9791.313047792952
 20
2206.555055888048
 30
0.0
 11
10271.31304779295
 21
2206.555055888048
 31
0.0
  0
LINE
  5
27187
330
747D
100
AcDbEntity
  8
細線
 48
50.0
100
AcDbLine
 10
9925.383932236211
 20
1746.856140234697
 30
0.0
 11
9959.681428867396
 21
1874.856140234697
 31
0.0
  0
LINE
  5
27188
330
747D
100
AcDbEntity
  8
部品1
100
AcDbLine
 10
9671.313047792953
 20
1746.856140234694
 30
0.0
 11
10391.31304779295
 21
1746.856140234697
 31
0.0
  0
LINE
  5
27189
330
747D
100
AcDbEntity
  8
部品1
100
AcDbLine
 10
9671.313047792953
 20
1874.856140234697
 30
0.0
 11
10391.31304779295
 21
1874.8561402347
 31
0.0
  0
LINE
  5
2718A
330
747D
100
AcDbEntity
  8
細線
100
AcDbLine
 10
9852.231693286194
 20
1874.856140234697
 30
0.0
 11
9943.93060893954
 21
1966.555055888048
 31
0.0
  0
LWPOLYLINE
  5
2718B
330
747D
100
AcDbEntity
  8
部品1
 48
50.0
100
AcDbPolyline
 90
        2
 70
     0
 43
12.0
 10
9406.701785692563
 20
1966.555055888048
 10
10607.79408882419
 20
1966.555055888048
  0
LINE
  5
2718C
330
747D
100
AcDbEntity
  8
細線
100
AcDbLine
 10
9935.034693224304
 20
1966.555055888048
 30
0.0
 11
9791.313047792952
 21
2110.276701319401
 31
0.0
  0
TEXT
  5
2718D
330
747D
100
AcDbEntity
  8
部品1
 48
50.0
100
AcDbText
 10
9027.194961034449
 20
1699.755315250739
 30
0.0
 40
80.0
  1
ボルトの出
 50
90.0
  7
STYLE2
100
AcDbText
  0
LINE
  5
2718E
330
747D
100
AcDbEntity
  8
部品1
100
AcDbLine
 10
9791.313047792952
 20
1966.555055888048
 30
0.0
 11
9791.313047792952
 21
2206.555055888048
 31
0.0
  0
LINE
  5
2718F
330
747D
100
AcDbEntity
  8
細線
 48
50.0
100
AcDbLine
 10
9767.607842341714
 20
1746.856140234697
 30
0.0
 11
9801.905338972893
 21
1874.856140234697
 31
0.0
  0
LINE
  5
27190
330
747D
100
AcDbEntity
  8
細線
 48
50.0
100
AcDbLine
 10
9846.495887288963
 20
1746.856140234697
 30
0.0
 11
9880.793383920147
 21
1874.856140234697
 31
0.0
  0
LINE
  5
27191
330
747D
100
AcDbEntity
  8
細線
 48
50.0
100
AcDbLine
 10
9688.719797394464
 20
1746.856140234697
 30
0.0
 11
9723.01729402565
 21
1874.856140234697
 31
0.0
  0
LINE
  5
27192
330
747D
100
AcDbEntity
  8
部品1
100
AcDbLine
 10
9671.313047792953
 20
1746.856140234694
 30
0.0
 11
9671.313047792953
 21
1966.555055888048
 31
0.0
  0
LINE
  5
27193
330
747D
100
AcDbEntity
  8
細線
 48
50.0
100
AcDbLine
 10
9774.038622960063
 20
1770.856140234698
 30
0.0
 11
9780.469403578413
 21
1746.856140234697
 31
0.0
  0
LINE
  5
27194
330
747D
100
AcDbEntity
  8
細線
 48
50.0
100
AcDbLine
 10
9695.150578012814
 20
1770.856140234698
 30
0.0
 11
9701.581358631159
 21
1746.856140234697
 31
0.0
  0
LINE
  5
27195
330
747D
100
AcDbEntity
  8
細線
 48
50.0
100
AcDbLine
 10
9852.926667907317
 20
1770.856140234698
 30
0.0
 11
9859.357448525662
 21
1746.856140234697
 31
0.0
  0
LINE
  5
27196
330
747D
100
AcDbEntity
  8
細線
 48
50.0
100
AcDbLine
 10
9931.81471285456
 20
1770.856140234698
 30
0.0
 11
9938.245493472912
 21
1746.856140234697
 31
0.0
  0
LINE
  5
27197
330
747D
100
AcDbEntity
  8
細線
 48
50.0
100
AcDbLine
 10
9716.586513407303
 20
1850.856140234698
 30
0.0
 11
9710.155732788955
 21
1874.856140234697
 31
0.0
  0
LINE
  5
27198
330
747D
100
AcDbEntity
  8
細線
 48
50.0
100
AcDbLine
 10
9874.362603301804
 20
1850.856140234698
 30
0.0
 11
9867.931822683459
 21
1874.856140234697
 31
0.0
  0
LINE
  5
27199
330
747D
100
AcDbEntity
  8
細線
 48
50.0
100
AcDbLine
 10
9795.474558354552
 20
1850.856140234698
 30
0.0
 11
9789.043777736207
 21
1874.856140234697
 31
0.0
  0
LINE
  5
2719A
330
747D
100
AcDbEntity
  8
細線
100
AcDbLine
 10
9784.349442292281
 20
1874.856140234697
 30
0.0
 11
9876.048357945631
 21
1966.555055888048
 31
0.0
  0
LINE
  5
2719B
330
747D
100
AcDbEntity
  8
細線
100
AcDbLine
 10
9818.290567789238
 20
1874.856140234697
 30
0.0
 11
9909.989483442585
 21
1966.555055888048
 31
0.0
  0
LINE
  5
2719C
330
747D
100
AcDbEntity
  8
細線
100
AcDbLine
 10
10206.56369719994
 20
1966.555055888048
 30
0.0
 11
9966.563697199942
 21
2206.555055888048
 31
0.0
  0
LINE
  5
2719D
330
747D
100
AcDbEntity
  8
細線
100
AcDbLine
 10
10257.47538544537
 20
1966.55505588805
 30
0.0
 11
10017.47538544537
 21
2206.555055888048
 31
0.0
  0
LINE
  5
2719E
330
747D
100
AcDbEntity
  8
部品1
100
AcDbLine
 10
10271.31304779295
 20
2206.555055888048
 30
0.0
 11
10271.31304779295
 21
1966.555055888048
 31
0.0
  0
LINE
  5
2719F
330
747D
100
AcDbEntity
  8
細線
 48
50.0
100
AcDbLine
 10
10240.9361120252
 20
1746.856140234695
 30
0.0
 11
10275.23360865638
 21
1874.856140234695
 31
0.0
  0
LINE
  5
271A0
330
747D
100
AcDbEntity
  8
細線
100
AcDbLine
 10
10212.23169328619
 20
1874.856140234699
 30
0.0
 11
10303.93060893954
 21
1966.555055888048
 31
0.0
  0
LINE
  5
271A1
330
747D
100
AcDbEntity
  8
細線
 48
50.0
100
AcDbLine
 10
10162.04806707795
 20
1746.856140234697
 30
0.0
 11
10196.34556370912
 21
1874.856140234697
 31
0.0
  0
LINE
  5
271A2
330
747D
100
AcDbEntity
  8
細線
 48
50.0
100
AcDbLine
 10
10004.27197718346
 20
1746.856140234697
 30
0.0
 11
10038.56947381464
 21
1874.856140234697
 31
0.0
  0
LINE
  5
271A3
330
747D
100
AcDbEntity
  8
細線
 48
50.0
100
AcDbLine
 10
10083.1600221307
 20
1746.856140234697
 30
0.0
 11
10117.45751876188
 21
1874.856140234697
 31
0.0
  0
LINE
  5
271A4
330
747D
100
AcDbEntity
  8
細線
 48
50.0
100
AcDbLine
 10
10089.59080274905
 20
1770.856140234698
 30
0.0
 11
10096.0215833674
 21
1746.856140234697
 31
0.0
  0
LINE
  5
271A5
330
747D
100
AcDbEntity
  8
細線
 48
50.0
100
AcDbLine
 10
10010.70275780181
 20
1770.856140234698
 30
0.0
 11
10017.13353842015
 21
1746.856140234697
 31
0.0
  0
LINE
  5
271A6
330
747D
100
AcDbEntity
  8
細線
 48
50.0
100
AcDbLine
 10
10168.4788476963
 20
1770.856140234698
 30
0.0
 11
10174.90962831465
 21
1746.856140234697
 31
0.0
  0
LINE
  5
271A7
330
747D
100
AcDbEntity
  8
細線
 48
50.0
100
AcDbLine
 10
10247.36689264355
 20
1770.856140234697
 30
0.0
 11
10253.79767326189
 21
1746.856140234697
 31
0.0
  0
LINE
  5
271A8
330
747D
100
AcDbEntity
  8
細線
 48
50.0
100
AcDbLine
 10
10111.02673814354
 20
1850.856140234698
 30
0.0
 11
10104.59595752519
 21
1874.856140234697
 31
0.0
  0
LINE
  5
271A9
330
747D
100
AcDbEntity
  8
細線
 48
50.0
100
AcDbLine
 10
10032.1386931963
 20
1850.856140234698
 30
0.0
 11
10025.70791257795
 21
1874.856140234697
 31
0.0
  0
LINE
  5
271AA
330
747D
100
AcDbEntity
  8
細線
 48
50.0
100
AcDbLine
 10
9953.250648249051
 20
1850.856140234698
 30
0.0
 11
9946.819867630704
 21
1874.856140234697
 31
0.0
  0
LINE
  5
271AB
330
747D
100
AcDbEntity
  8
細線
100
AcDbLine
 10
10178.29056778924
 20
1874.856140234699
 30
0.0
 11
10269.98948344258
 21
1966.555055888048
 31
0.0
  0
LINE
  5
271AC
330
747D
100
AcDbEntity
  8
細線
 48
50.0
100
AcDbLine
 10
10189.91478309078
 20
1850.856140234698
 30
0.0
 11
10183.48400247243
 21
1874.856140234697
 31
0.0
  0
LINE
  5
271AD
330
747D
100
AcDbEntity
  8
細線
100
AcDbLine
 10
10144.34944229228
 20
1874.856140234699
 30
0.0
 11
10236.04835794563
 21
1966.555055888048
 31
0.0
  0
LINE
  5
271AE
330
747D
100
AcDbEntity
  8
細線
 48
50.0
100
AcDbLine
 10
10268.80282803804
 20
1850.856140234697
 30
0.0
 11
10262.37204741969
 21
1874.856140234697
 31
0.0
  0
LINE
  5
271AF
330
747D
100
AcDbEntity
  8
細線
 48
50.0
100
AcDbLine
 10
10319.82415697244
 20
1746.856140234697
 30
0.0
 11
10354.12165360363
 21
1874.856140234695
 31
0.0
  0
LINE
  5
271B0
330
747D
100
AcDbEntity
  8
部品1
100
AcDbLine
 10
10391.31304779295
 20
1966.555055888048
 30
0.0
 11
10391.31304779295
 21
1746.856140234697
 31
0.0
  0
LINE
  5
271B1
330
747D
100
AcDbEntity
  8
細線
 48
50.0
100
AcDbLine
 10
10326.25493759079
 20
1770.856140234697
 30
0.0
 11
10332.68571820914
 21
1746.856140234697
 31
0.0
  0
LINE
  5
271B2
330
747D
100
AcDbEntity
  8
細線
 48
50.0
100
AcDbLine
 10
10347.69087298528
 20
1850.856140234697
 30
0.0
 11
10341.26009236693
 21
1874.856140234697
 31
0.0
  0
LEADER
  5
271B3
330
747D
100
AcDbEntity
  8
寸法
 48
50.0
100
AcDbLeader
  3
INABA_S50G
 73
     0
 74
     0
 75
     1
 40
120.0
 41
185.591883092037
 76
     3
 10
10202.03745940887
 20
2206.555055888048
 30
0.0
 10
10235.17566604252
 20
2378.701376569186
 30
0.0
 10
10360.17566604252
 20
2378.701376569186
 30
0.0
340
271B4
1001
ACAD
1000
DSTYLE
1002
{
1070
    40
1040
1.0
1002
}
  0
MTEXT
  5
271B4
102
{ACAD_REACTORS
330
271B3
102
}
330
747D
100
AcDbEntity
  8
寸法
 62
     7
 48
50.0
100
AcDbMText
 10
10385.17566604252
 20
2463.701376569185
 30
0.0
 40
120.0
 41
0.8
 71
     4
 72
     1
  1
\A1;C.B
  7
STYLE1
 73
     1
 44
1.0
1001
ACAD
1000
MTEXTBEGIN
1070
    73
1070
     1
1070
    44
1040
1.0
1070
    74
1070
     0
1000
MTEXTEND
  0
TEXT
  5
27246
330
747D
100
AcDbEntity
  8
文字
 62
     7
 48
50.0
100
AcDbText
 10
16307.78595799787
 20
0.1862994167713623
 30
0.0
 40
1.0
  1
at
  7
STYLE2
100
AcDbText
  0
ENDSEC
  0
SECTION
  2
OBJECTS
  0
DICTIONARY
  5
7471
330
0
100
AcDbDictionary
281
     1
  3
ACAD_COLOR
350
173D2
  3
ACAD_GROUP
350
7472
  3
ACAD_LAYOUT
350
173D3
  3
ACAD_MATERIAL
350
173D1
  3
ACAD_MLINESTYLE
350
7473
  3
ACAD_PLOTSETTINGS
350
173D4
  3
ACAD_PLOTSTYLENAME
350
173CF
  3
ACDBHEADERROUNDTRIPXREC
350
2725B
  3
AcDbVariableDictionary
350
26DAE
  3
CONTENTDICTIONARY
350
E71C
  3
DRAWINGVARIABLESDICT
350
F3B9
  0
DICTIONARY
  5
1758F
330
7467
100
AcDbDictionary
280
     1
281
     1
  3
ACAD_LAYERSTATES
360
17590
  0
DICTIONARY
  5
173D2
102
{ACAD_REACTORS
330
7471
102
}
330
7471
100
AcDbDictionary
281
     1
  0
DICTIONARY
  5
7472
102
{ACAD_REACTORS
330
7471
102
}
330
7471
100
AcDbDictionary
281
     1
  3
*A1
350
1D2A9
  0
DICTIONARY
  5
173D3
102
{ACAD_REACTORS
330
7471
102
}
330
7471
100
AcDbDictionary
281
     1
  3
Model
350
173D5
  3
レイアウト1
350
173D6
  0
DICTIONARY
  5
173D1
102
{ACAD_REACTORS
330
7471
102
}
330
7471
100
AcDbDictionary
281
     1
  0
DICTIONARY
  5
7473
102
{ACAD_REACTORS
330
7471
102
}
330
7471
100
AcDbDictionary
281
     1
  3
STANDARD
350
7480
  0
DICTIONARY
  5
173D4
102
{ACAD_REACTORS
330
7471
102
}
330
7471
100
AcDbDictionary
281
     1
  0
ACDBDICTIONARYWDFLT
  5
173CF
102
{ACAD_REACTORS
330
7471
102
}
330
7471
100
AcDbDictionary
281
     1
  3
Normal
350
173D0
100
AcDbDictionaryWithDefault
340
173D0
  0
DICTIONARY
  5
2725B
102
{ACAD_REACTORS
330
7471
102
}
330
7471
100
AcDbDictionary
281
     1
  3
COLORDICT
350
2725D
  3
MATERIALDICT
350
2725C
  0
DICTIONARY
  5
26DAE
102
{ACAD_REACTORS
330
7471
102
}
330
7471
100
AcDbDictionary
281
     1
  3
DIMASSOC
350
26DAF
  3
PROJECTNAME
350
26DB0
  0
DICTIONARY
  5
E71C
102
{ACAD_REACTORS
330
7471
102
}
330
7471
100
AcDbDictionary
281
     1
  0
DICTIONARY
  5
F3B9
102
{ACAD_REACTORS
330
7471
102
}
330
7471
100
AcDbDictionary
281
     1
1001
DRAWINGVARIABLESXDATA
1000
POLARMODE
1000
1
  0
DICTIONARY
  5
17590
102
{ACAD_REACTORS
330
1758F
102
}
330
1758F
100
AcDbDictionary
281
     1
  0
GROUP
  5
1D2A9
102
{ACAD_REACTORS
330
7472
102
}
330
7472
100
AcDbGroup
300

 70
     1
 71
     1
  0
LAYOUT
  5
173D5
102
{ACAD_XDICTIONARY
360
2725E
102
}
102
{ACAD_REACTORS
330
173D3
102
}
330
173D3
100
AcDbPlotSettings
  1

  2
Microsoft Office Document Image Writer
  4

  6

 40
0.0
 41
0.0
 42
0.0
 43
0.0
 44
0.0
 45
0.0
 46
0.0
 47
0.0
 48
0.0
 49
0.0
140
0.0
141
0.0
142
1.0
143
1.0
 70
  1712
 72
     0
 73
     0
 74
     0
  7

 75
     0
147
1.0
148
0.0
149
0.0
100
AcDbLayout
  1
Model
 70
     1
 71
     0
 10
0.0
 20
0.0
 11
12.0
 21
9.0
 12
0.0
 22
0.0
 32
0.0
 14
0.0
 24
0.0
 34
0.0
 15
0.0
 25
0.0
 35
0.0
146
0.0
 13
0.0
 23
0.0
 33
0.0
 16
1.0
 26
0.0
 36
0.0
 17
0.0
 27
1.0
 37
0.0
 76
     0
330
747D
  0
LAYOUT
  5
173D6
102
{ACAD_XDICTIONARY
360
27260
102
}
102
{ACAD_REACTORS
330
173D3
102
}
330
173D3
100
AcDbPlotSettings
  1

  2
Microsoft Office Document Image Writer
  4

  6

 40
0.0
 41
0.0
 42
0.0
 43
0.0
 44
0.0
 45
0.0
 46
0.0
 47
0.0
 48
0.0
 49
0.0
140
0.0
141
0.0
142
1.0
143
1.0
 70
   688
 72
     0
 73
     0
 74
     5
  7

 75
    16
147
1.0
148
0.0
149
0.0
100
AcDbLayout
  1
レイアウト1
 70
     0
 71
     1
 10
0.0
 20
0.0
 11
420.0
 21
297.0
 12
0.0
 22
0.0
 32
0.0
 14
1.000000000000000E+20
 24
1.000000000000000E+20
 34
1.000000000000000E+20
 15
-1.000000000000000E+20
 25
-1.000000000000000E+20
 35
-1.000000000000000E+20
146
0.0
 13
0.0
 23
0.0
 33
0.0
 16
1.0
 26
0.0
 36
0.0
 17
0.0
 27
1.0
 37
0.0
 76
     0
330
747A
  0
MLINESTYLE
  5
7480
102
{ACAD_REACTORS
330
7473
102
}
330
7473
100
AcDbMlineStyle
  2
STANDARD
 70
     0
  3

 62
     0
 51
90.0
 52
90.0
 71
     2
 49
0.5
 62
   256
  6
BYLAYER
 49
-0.5
 62
   256
  6
BYLAYER
  0
ACDBPLACEHOLDER
  5
173D0
102
{ACAD_REACTORS
330
173CF
102
}
330
173CF
  0
XRECORD
  5
2725D
102
{ACAD_REACTORS
330
2725B
102
}
330
2725B
100
AcDbXrecord
280
     1
340
173D2
  0
XRECORD
  5
2725C
102
{ACAD_REACTORS
330
2725B
102
}
330
2725B
100
AcDbXrecord
280
     1
340
173D1
  0
DICTIONARYVAR
  5
26DAF
102
{ACAD_REACTORS
330
26DAE
102
}
330
26DAE
100
DictionaryVariables
280
     0
  1
1
  0
DICTIONARYVAR
  5
26DB0
102
{ACAD_REACTORS
330
26DAE
102
}
330
26DAE
100
DictionaryVariables
280
     0
  1

  0
DICTIONARY
  5
2725E
330
173D5
100
AcDbDictionary
280
     1
281
     1
  3
ACAD_XREC_ROUNDTRIP
360
2725F
  0
DICTIONARY
  5
27260
330
173D6
100
AcDbDictionary
280
     1
281
     1
  3
ACAD_XREC_ROUNDTRIP
360
27261
  0
XRECORD
  5
2725F
102
{ACAD_REACTORS
330
2725E
102
}
330
2725E
100
AcDbXrecord
280
     1
102
SHADEPLOT
 70
     0
102
SHADEPLOTRESLEVEL
 70
     2
102
SHADEPLOTCUSTOMDPI
 70
   300
  0
XRECORD
  5
27261
102
{ACAD_REACTORS
330
27260
102
}
330
27260
100
AcDbXrecord
280
     1
102
SHADEPLOT
 70
     0
102
SHADEPLOTRESLEVEL
 70
     2
102
SHADEPLOTCUSTOMDPI
 70
   300
  0
ENDSEC
  0
EOF
