  0
SECTION
  2
HEADER
  9
$ACADVER
  1
AC1015
  9
$ACADMAINTVER
 70
    20
  9
$DWGCODEPAGE
  3
ANSI_932
  9
$INSBASE
 10
0.0
 20
0.0
 30
0.0
  9
$EXTMIN
 10
139.9999999999995
 20
-0.0182460377740923
 30
0.0
  9
$EXTMAX
 10
16308.99050345242
 20
11409.6
 30
0.0
  9
$LIMMIN
 10
0.0
 20
0.0
  9
$LIMMAX
 10
16800.0
 20
11880.0
  9
$ORTHOMODE
 70
     0
  9
$REGENMODE
 70
     1
  9
$FILLMODE
 70
     1
  9
$QTEXTMODE
 70
     0
  9
$MIRRTEXT
 70
     1
  9
$LTSCALE
 40
20.0
  9
$ATTMODE
 70
     1
  9
$TEXTSIZE
 40
4.0
  9
$TRACEWID
 40
1.0
  9
$TEXTSTYLE
  7
STYLE1
  9
$CLAYER
  8
細線
  9
$CELTYPE
  6
BYLAYER
  9
$CECOLOR
 62
   256
  9
$CELTSCALE
 40
50.0
  9
$DISPSILH
 70
     0
  9
$DIMSCALE
 40
40.0
  9
$DIMASZ
 40
2.5
  9
$DIMEXO
 40
0.5
  9
$DIMDLI
 40
7.0
  9
$DIMRND
 40
0.0
  9
$DIMDLE
 40
0.0
  9
$DIMEXE
 40
1.5
  9
$DIMTP
 40
0.0
  9
$DIMTM
 40
0.0
  9
$DIMTXT
 40
3.0
  9
$DIMCEN
 40
0.0
  9
$DIMTSZ
 40
0.0
  9
$DIMTOL
 70
     0
  9
$DIMLIM
 70
     0
  9
$DIMTIH
 70
     0
  9
$DIMTOH
 70
     0
  9
$DIMSE1
 70
     0
  9
$DIMSE2
 70
     0
  9
$DIMTAD
 70
     3
  9
$DIMZIN
 70
     8
  9
$DIMBLK
  1

  9
$DIMASO
 70
     1
  9
$DIMSHO
 70
     1
  9
$DIMPOST
  1

  9
$DIMAPOST
  1

  9
$DIMALT
 70
     0
  9
$DIMALTD
 70
     2
  9
$DIMALTF
 40
0.0394
  9
$DIMLFAC
 40
1.0
  9
$DIMTOFL
 70
     1
  9
$DIMTVP
 40
0.0
  9
$DIMTIX
 70
     1
  9
$DIMSOXD
 70
     0
  9
$DIMSAH
 70
     1
  9
$DIMBLK1
  1
DOTSMALL
  9
$DIMBLK2
  1
DOTSMALL
  9
$DIMSTYLE
  2
INABA_S40G
  9
$DIMCLRD
 70
     0
  9
$DIMCLRE
 70
     0
  9
$DIMCLRT
 70
     7
  9
$DIMTFAC
 40
1.0
  9
$DIMGAP
 40
1.0
  9
$DIMJUST
 70
     0
  9
$DIMSD1
 70
     0
  9
$DIMSD2
 70
     0
  9
$DIMTOLJ
 70
     1
  9
$DIMTZIN
 70
     0
  9
$DIMALTZ
 70
     0
  9
$DIMALTTZ
 70
     0
  9
$DIMUPT
 70
     0
  9
$DIMDEC
 70
     1
  9
$DIMTDEC
 70
     4
  9
$DIMALTU
 70
     2
  9
$DIMALTTD
 70
     2
  9
$DIMTXSTY
  7
STYLE1
  9
$DIMAUNIT
 70
     0
  9
$DIMADEC
 70
     0
  9
$DIMALTRND
 40
0.0
  9
$DIMAZIN
 70
     0
  9
$DIMDSEP
 70
    46
  9
$DIMATFIT
 70
     3
  9
$DIMFRAC
 70
     0
  9
$DIMLDRBLK
  1

  9
$DIMLUNIT
 70
     2
  9
$DIMLWD
 70
    -2
  9
$DIMLWE
 70
    -2
  9
$DIMTMOVE
 70
     0
  9
$LUNITS
 70
     2
  9
$LUPREC
 70
     1
  9
$SKETCHINC
 40
1.0
  9
$FILLETRAD
 40
3.0
  9
$AUNITS
 70
     0
  9
$AUPREC
 70
     0
  9
$MENU
  1
acad
  9
$ELEVATION
 40
0.0
  9
$PELEVATION
 40
0.0
  9
$THICKNESS
 40
0.0
  9
$LIMCHECK
 70
     0
  9
$CHAMFERA
 40
0.0
  9
$CHAMFERB
 40
0.0
  9
$CHAMFERC
 40
0.0
  9
$CHAMFERD
 40
0.0
  9
$SKPOLY
 70
     0
  9
$TDCREATE
 40
2451368.612993866
  9
$TDUCREATE
 40
2451368.237993866
  9
$TDUPDATE
 40
2455827.391272014
  9
$TDUUPDATE
 40
2455827.016272014
  9
$TDINDWG
 40
0.8254128819
  9
$TDUSRTIMER
 40
0.8254128819
  9
$USRTIMER
 70
     1
  9
$ANGBASE
 50
0.0
  9
$ANGDIR
 70
     0
  9
$PDMODE
 70
     3
  9
$PDSIZE
 40
2.0
  9
$PLINEWID
 40
0.0
  9
$SPLFRAME
 70
     0
  9
$SPLINETYPE
 70
     6
  9
$SPLINESEGS
 70
     8
  9
$HANDSEED
  5
26A54
  9
$SURFTAB1
 70
     6
  9
$SURFTAB2
 70
     6
  9
$SURFTYPE
 70
     6
  9
$SURFU
 70
     6
  9
$SURFV
 70
     6
  9
$UCSBASE
  2

  9
$UCSNAME
  2

  9
$UCSORG
 10
0.0
 20
0.0
 30
0.0
  9
$UCSXDIR
 10
1.0
 20
0.0
 30
0.0
  9
$UCSYDIR
 10
0.0
 20
1.0
 30
0.0
  9
$UCSORTHOREF
  2

  9
$UCSORTHOVIEW
 70
     0
  9
$UCSORGTOP
 10
0.0
 20
0.0
 30
0.0
  9
$UCSORGBOTTOM
 10
0.0
 20
0.0
 30
0.0
  9
$UCSORGLEFT
 10
0.0
 20
0.0
 30
0.0
  9
$UCSORGRIGHT
 10
0.0
 20
0.0
 30
0.0
  9
$UCSORGFRONT
 10
0.0
 20
0.0
 30
0.0
  9
$UCSORGBACK
 10
0.0
 20
0.0
 30
0.0
  9
$PUCSBASE
  2

  9
$PUCSNAME
  2

  9
$PUCSORG
 10
0.0
 20
0.0
 30
0.0
  9
$PUCSXDIR
 10
1.0
 20
0.0
 30
0.0
  9
$PUCSYDIR
 10
0.0
 20
1.0
 30
0.0
  9
$PUCSORTHOREF
  2

  9
$PUCSORTHOVIEW
 70
     0
  9
$PUCSORGTOP
 10
0.0
 20
0.0
 30
0.0
  9
$PUCSORGBOTTOM
 10
0.0
 20
0.0
 30
0.0
  9
$PUCSORGLEFT
 10
0.0
 20
0.0
 30
0.0
  9
$PUCSORGRIGHT
 10
0.0
 20
0.0
 30
0.0
  9
$PUCSORGFRONT
 10
0.0
 20
0.0
 30
0.0
  9
$PUCSORGBACK
 10
0.0
 20
0.0
 30
0.0
  9
$USERI1
 70
     0
  9
$USERI2
 70
     0
  9
$USERI3
 70
     0
  9
$USERI4
 70
     0
  9
$USERI5
 70
     0
  9
$USERR1
 40
0.0
  9
$USERR2
 40
0.0
  9
$USERR3
 40
0.0
  9
$USERR4
 40
0.0
  9
$USERR5
 40
0.0
  9
$WORLDVIEW
 70
     1
  9
$SHADEDGE
 70
     3
  9
$SHADEDIF
 70
    70
  9
$TILEMODE
 70
     1
  9
$MAXACTVP
 70
    16
  9
$PINSBASE
 10
0.0
 20
0.0
 30
0.0
  9
$PLIMCHECK
 70
     0
  9
$PEXTMIN
 10
1.000000000000000E+20
 20
1.000000000000000E+20
 30
1.000000000000000E+20
  9
$PEXTMAX
 10
-1.000000000000000E+20
 20
-1.000000000000000E+20
 30
-1.000000000000000E+20
  9
$PLIMMIN
 10
0.0
 20
0.0
  9
$PLIMMAX
 10
420.0
 20
297.0
  9
$UNITMODE
 70
     0
  9
$VISRETAIN
 70
     0
  9
$PLINEGEN
 70
     0
  9
$PSLTSCALE
 70
     0
  9
$TREEDEPTH
 70
  3020
  9
$CMLSTYLE
  2
STANDARD
  9
$CMLJUST
 70
     0
  9
$CMLSCALE
 40
1.0
  9
$PROXYGRAPHICS
 70
     1
  9
$MEASUREMENT
 70
     1
  9
$CELWEIGHT
370
    -1
  9
$ENDCAPS
280
     0
  9
$JOINSTYLE
280
     0
  9
$LWDISPLAY
290
     0
  9
$INSUNITS
 70
     0
  9
$HYPERLINKBASE
  1

  9
$STYLESHEET
  1

  9
$XEDIT
290
     1
  9
$CEPSNTYPE
380
     0
  9
$PSTYLEMODE
290
     1
  9
$FINGERPRINTGUID
  2
{5EAC461A-2277-4BF8-9AB0-99C43BB394F0}
  9
$VERSIONGUID
  2
{90AC9340-BB52-4FBF-B245-C1BE50BC7608}
  9
$EXTNAMES
290
     1
  9
$PSVPSCALE
 40
0.0
  9
$OLESTARTUP
290
     0
  0
ENDSEC
  0
SECTION
  2
CLASSES
  0
CLASS
  1
ACDBDICTIONARYWDFLT
  2
AcDbDictionaryWithDefault
  3
ObjectDBX Classes
 90
        0
280
     0
281
     0
  0
CLASS
  1
DICTIONARYVAR
  2
AcDbDictionaryVar
  3
ObjectDBX Classes
 90
        0
280
     0
281
     0
  0
CLASS
  1
ACDBPLACEHOLDER
  2
AcDbPlaceHolder
  3
ObjectDBX Classes
 90
        0
280
     0
281
     0
  0
CLASS
  1
LAYOUT
  2
AcDbLayout
  3
ObjectDBX Classes
 90
        0
280
     0
281
     0
  0
ENDSEC
  0
SECTION
  2
TABLES
  0
TABLE
  2
VPORT
  5
746D
330
0
100
AcDbSymbolTable
 70
     2
  0
VPORT
  5
26A4C
330
746D
100
AcDbSymbolTableRecord
100
AcDbViewportTableRecord
  2
*Active
 70
     0
 10
0.0
 20
0.0
 11
1.0
 21
1.0
 12
8224.401894379873
 22
5855.776308371822
 13
0.0
 23
0.0
 14
10.0
 24
10.0
 15
10.0
 25
10.0
 16
0.0
 26
0.0
 36
1.0
 17
0.0
 27
0.0
 37
0.0
 40
11800.47982950347
 41
1.522222222222221
 42
50.0
 43
0.0
 44
0.0
 50
0.0
 51
0.0
 71
     0
 72
     0
 73
     1
 74
     0
 75
     0
 76
     0
 77
     0
 78
     0
281
     0
 65
     1
110
0.0
120
0.0
130
0.0
111
1.0
121
0.0
131
0.0
112
0.0
122
1.0
132
0.0
 79
     0
146
0.0
  0
ENDTAB
  0
TABLE
  2
LTYPE
  5
746A
330
0
100
AcDbSymbolTable
 70
     5
  0
LTYPE
  5
7477
330
746A
100
AcDbSymbolTableRecord
100
AcDbLinetypeTableRecord
  2
BYBLOCK
 70
     0
  3

 72
    65
 73
     0
 40
0.0
  0
LTYPE
  5
7478
330
746A
100
AcDbSymbolTableRecord
100
AcDbLinetypeTableRecord
  2
BYLAYER
 70
     0
  3

 72
    65
 73
     0
 40
0.0
  0
LTYPE
  5
7479
330
746A
100
AcDbSymbolTableRecord
100
AcDbLinetypeTableRecord
  2
CONTINUOUS
 70
     0
  3
Solid line
 72
    65
 73
     0
 40
0.0
  0
LTYPE
  5
7816
330
746A
100
AcDbSymbolTableRecord
100
AcDbLinetypeTableRecord
  2
CENTER
 70
     0
  3
____ _ ____ _ ____ _ ____ _ ____ _ ____ _ ____ 
 72
    65
 73
     4
 40
2.0
 49
1.25
 74
     0
 49
-0.25
 74
     0
 49
0.25
 74
     0
 49
-0.25
 74
     0
  0
LTYPE
  5
781A
330
746A
100
AcDbSymbolTableRecord
100
AcDbLinetypeTableRecord
  2
HIDDEN
 70
     0
  3
__ __ __ __ __ __ __ __ __ __ __ __ __ __ __ __
 72
    65
 73
     2
 40
0.375
 49
0.25
 74
     0
 49
-0.125
 74
     0
  0
LTYPE
  5
781B
330
746A
100
AcDbSymbolTableRecord
100
AcDbLinetypeTableRecord
  2
PHANTOM
 70
     0
  3
______  __  __  ______  __  __  ______  __  __ 
 72
    65
 73
     6
 40
2.5
 49
1.25
 74
     0
 49
-0.25
 74
     0
 49
0.25
 74
     0
 49
-0.25
 74
     0
 49
0.25
 74
     0
 49
-0.25
 74
     0
  0
LTYPE
  5
12CC3
330
746A
100
AcDbSymbolTableRecord
100
AcDbLinetypeTableRecord
  2
HIDDENX2
 70
     0
  3
Hidden (2x) ____ ____ ____ ____ ____ ____ ____
 72
    65
 73
     2
 40
19.05
 49
12.7
 74
     0
 49
-6.349999999999999
 74
     0
  0
ENDTAB
  0
TABLE
  2
LAYER
  5
7467
102
{ACAD_XDICTIONARY
360
1758F
102
}
330
0
100
AcDbSymbolTable
 70
    12
  0
LAYER
  5
7474
330
7467
100
AcDbSymbolTableRecord
100
AcDbLayerTableRecord
  2
0
 70
     0
 62
     7
  6
CONTINUOUS
370
    -3
390
173D0
  0
LAYER
  5
DEB2
330
7467
100
AcDbSymbolTableRecord
100
AcDbLayerTableRecord
  2
センター
 70
     0
 62
     3
  6
CENTER
370
    -3
390
173D0
  0
LAYER
  5
DEB3
330
7467
100
AcDbSymbolTableRecord
100
AcDbLayerTableRecord
  2
寸法
 70
     0
 62
     4
  6
CONTINUOUS
370
    -3
390
173D0
  0
LAYER
  5
DEB4
330
7467
100
AcDbSymbolTableRecord
100
AcDbLayerTableRecord
  2
部品1
 70
     0
 62
     7
  6
CONTINUOUS
370
    -3
390
173D0
  0
LAYER
  5
DEB5
330
7467
100
AcDbSymbolTableRecord
100
AcDbLayerTableRecord
  2
補助
 70
     0
 62
    -1
  6
CONTINUOUS
370
    -3
390
173D0
  0
LAYER
  5
DEB6
330
7467
100
AcDbSymbolTableRecord
100
AcDbLayerTableRecord
  2
文字
 70
     0
 62
     7
  6
CONTINUOUS
370
    -3
390
173D0
  0
LAYER
  5
F255
330
7467
100
AcDbSymbolTableRecord
100
AcDbLayerTableRecord
  2
DEFPOINTS
 70
     0
 62
     7
  6
CONTINUOUS
290
     0
370
    -3
390
173D0
  0
LAYER
  5
10B54
330
7467
100
AcDbSymbolTableRecord
100
AcDbLayerTableRecord
  2
仕様書枠
 70
     0
 62
   230
  6
CONTINUOUS
370
    -3
390
173D0
  0
LAYER
  5
11729
330
7467
100
AcDbSymbolTableRecord
100
AcDbLayerTableRecord
  2
Ｇ．Ｌ
 70
     0
 62
    30
  6
CONTINUOUS
370
    -3
390
173D0
  0
LAYER
  5
1173F
330
7467
100
AcDbSymbolTableRecord
100
AcDbLayerTableRecord
  2
細線
 70
     0
 62
     5
  6
CONTINUOUS
370
    -3
390
173D0
  0
LAYER
  5
12CC4
330
7467
100
AcDbSymbolTableRecord
100
AcDbLayerTableRecord
  2
想像線
 70
     0
 62
     6
  6
PHANTOM
370
    -3
390
173D0
  0
LAYER
  5
142E2
330
7467
100
AcDbSymbolTableRecord
100
AcDbLayerTableRecord
  2
破線
 70
     0
 62
     2
  6
HIDDEN
370
    -3
390
173D0
  0
ENDTAB
  0
TABLE
  2
STYLE
  5
7468
330
0
100
AcDbSymbolTable
 70
     7
  0
STYLE
  5
7475
330
7468
100
AcDbSymbolTableRecord
100
AcDbTextStyleTableRecord
  2
STANDARD
 70
     0
 40
0.0
 41
1.0
 50
0.0
 71
     0
 42
4.0
  3
txt
  4
C:\AutoCAD LT\bigfont.shx
  0
STYLE
  5
763C
330
7468
100
AcDbSymbolTableRecord
100
AcDbTextStyleTableRecord
  2
MSMINCHO
 70
     0
 40
0.0
 41
1.0
 50
0.0
 71
     0
 42
1.199999999999999
  3
C:\AutoCAD LT\msminch2.TTF
  4

  0
STYLE
  5
F706
330
7468
100
AcDbSymbolTableRecord
100
AcDbTextStyleTableRecord
  2
STYLE1
 70
     0
 40
0.0
 41
1.0
 50
0.0
 71
     0
 42
4.0
  3
isocp.shx
  4
bigfont.shx
  0
STYLE
  5
103BF
330
7468
100
AcDbSymbolTableRecord
100
AcDbTextStyleTableRecord
  2
STYLE2
 70
     0
 40
0.0
 41
1.0
 50
0.0
 71
     0
 42
100.0
  3
MS PGothic.ttf
  4

1001
ACAD
1000
MS PGothic
1071
    32818
  0
STYLE
  5
10BAA
330
7468
100
AcDbSymbolTableRecord
100
AcDbTextStyleTableRecord
  2
STYLE3
 70
     0
 40
0.0
 41
1.0
 50
0.0
 71
     0
 42
100.0
  3

  4

1001
ACAD
1000
DFPGothic-EB
1071
    32818
  0
STYLE
  5
11A15
330
7468
100
AcDbSymbolTableRecord
100
AcDbTextStyleTableRecord
  2
MSGOTHIC
 70
     0
 40
0.0
 41
1.0
 50
0.0
 71
     0
 42
3.5
  3
msgothi2.ttf
  4

  0
STYLE
  5
13E96
330
7468
100
AcDbSymbolTableRecord
100
AcDbTextStyleTableRecord
  2
MSPゴシック
 70
     0
 40
0.0
 41
1.0
 50
0.0
 71
     0
 42
4.0
  3
MS PGothic.ttf
  4

1001
ACAD
1000
MS PGothic
1071
    32818
  0
ENDTAB
  0
TABLE
  2
VIEW
  5
746B
330
0
100
AcDbSymbolTable
 70
     0
  0
ENDTAB
  0
TABLE
  2
UCS
  5
746C
330
0
100
AcDbSymbolTable
 70
     0
  0
ENDTAB
  0
TABLE
  2
APPID
  5
746E
330
0
100
AcDbSymbolTable
 70
     6
  0
APPID
  5
7476
330
746E
100
AcDbSymbolTableRecord
100
AcDbRegAppTableRecord
  2
ACAD
 70
     0
  0
APPID
  5
DEA9
330
746E
100
AcDbSymbolTableRecord
100
AcDbRegAppTableRecord
  2
CONTENTBLOCKICON
 70
     0
  0
APPID
  5
DEAA
330
746E
100
AcDbSymbolTableRecord
100
AcDbRegAppTableRecord
  2
CONTENTBLOCKDESCRIPTION
 70
     0
  0
APPID
  5
E71D
330
746E
100
AcDbSymbolTableRecord
100
AcDbRegAppTableRecord
  2
CONTENTTABDATA
 70
     0
  0
APPID
  5
E71E
330
746E
100
AcDbSymbolTableRecord
100
AcDbRegAppTableRecord
  2
CONTENTCURRENTTAB
 70
     0
  0
APPID
  5
F3BA
330
746E
100
AcDbSymbolTableRecord
100
AcDbRegAppTableRecord
  2
DRAWINGVARIABLESXDATA
 70
     0
  0
ENDTAB
  0
TABLE
  2
DIMSTYLE
  5
746F
330
0
100
AcDbSymbolTable
 70
     6
100
AcDbDimStyleTable
 71
     1
340
F71F
  0
DIMSTYLE
105
7484
330
746F
100
AcDbSymbolTableRecord
100
AcDbDimStyleTableRecord
  2
JIS
 70
     0
 41
2.5
 42
1.0
 43
7.0
 44
1.0
 73
     0
 74
     0
 77
     1
 78
     8
140
2.5
141
0.0
143
0.0394
147
0.0
172
     1
174
     1
175
     1
340
7475
  0
DIMSTYLE
105
F236
330
746F
100
AcDbSymbolTableRecord
100
AcDbDimStyleTableRecord
  2
INABA_S40
 70
     0
 40
40.0
 41
2.5
 42
0.5
 43
7.0
 44
1.5
 73
     0
 74
     0
 77
     3
 78
     8
140
3.0
141
0.0
143
0.0394
147
1.0
172
     1
173
     1
174
     1
175
     1
178
     7
289
     0
340
7475
341
DEAC
343
DEAC
344
DEAC
  0
DIMSTYLE
105
F71F
102
{ACAD_REACTORS
330
20DE1
330
20DFB
330
22741
330
2275B
330
23FDA
330
23FD9
330
24043
330
2601D
330
25FD6
330
25FD5
330
25FAB
330
25FAA
330
25F62
330
25F60
330
25F5F
330
25F5B
330
25F58
330
25F6E
330
25FA9
330
25F68
330
25F66
330
25F65
330
25F76
330
25F61
330
268EF
330
2687C
330
2687D
330
26885
330
2688C
330
2688F
102
}
330
746F
100
AcDbSymbolTableRecord
100
AcDbDimStyleTableRecord
  2
INABA_S40G
 70
     0
 40
40.0
 41
2.5
 42
0.5
 43
7.0
 44
1.5
 73
     0
 74
     0
 77
     3
 78
     8
140
3.0
141
0.0
143
0.0394
147
1.0
172
     1
173
     1
174
     1
178
     7
271
     1
340
F706
341
F770
343
F770
344
F770
  0
DIMSTYLE
105
142E3
330
746F
100
AcDbSymbolTableRecord
100
AcDbDimStyleTableRecord
  2
INABA_S1
 70
     0
 40
0.0
 41
2.5
 42
0.5
 43
7.0
 44
1.5
 73
     0
 74
     0
 77
     3
 78
     8
140
3.0
141
0.0
143
0.0394
146
0.5
147
0.5
172
     1
173
     1
176
   256
177
   256
178
     7
271
     2
272
     2
284
     8
288
     1
340
7475
341
DEAC
343
DEAC
344
DEAC
  0
DIMSTYLE
105
14463
330
746F
100
AcDbSymbolTableRecord
100
AcDbDimStyleTableRecord
  2
INABA_S30G
 70
     0
 40
30.0
 41
2.5
 42
0.5
 43
7.0
 44
1.5
 73
     0
 74
     0
 77
     3
 78
     8
140
3.0
141
0.0
143
0.0394
147
1.0
172
     1
173
     1
174
     1
175
     1
178
     7
271
     1
340
F706
341
F770
343
F770
344
F770
  0
DIMSTYLE
105
1758E
330
746F
100
AcDbSymbolTableRecord
100
AcDbDimStyleTableRecord
  2
INABA_S50G
 70
     0
 41
125.0
 42
25.0
 43
7.0
 44
75.0
 73
     0
 74
     0
 77
     3
 78
     8
140
150.0
141
0.0
143
0.0394
147
25.0
172
     1
173
     1
174
     1
175
     1
178
     7
271
     1
340
F706
341
F770
343
F770
344
F770
  0
ENDTAB
  0
TABLE
  2
BLOCK_RECORD
  5
7466
330
0
100
AcDbSymbolTable
 70
    49
  0
BLOCK_RECORD
  5
747D
330
7466
100
AcDbSymbolTableRecord
100
AcDbBlockTableRecord
  2
*MODEL_SPACE
340
173D5
  0
BLOCK_RECORD
  5
747A
330
7466
100
AcDbSymbolTableRecord
100
AcDbBlockTableRecord
  2
*PAPER_SPACE
340
173D6
  0
BLOCK_RECORD
  5
DEAC
330
7466
100
AcDbSymbolTableRecord
100
AcDbBlockTableRecord
  2
_OPEN
340
0
  0
BLOCK_RECORD
  5
F770
330
7466
100
AcDbSymbolTableRecord
100
AcDbBlockTableRecord
  2
_DOTSMALL
340
0
102
{BLKREFS
331
18C65
331
18C66
331
18C59
331
18C5A
331
18C4D
331
18C4E
331
18C41
331
18C42
331
18C35
331
18C36
331
18C29
331
18C2A
331
18C1D
331
18C1E
331
18C0F
331
18C10
331
18C03
331
18C04
331
18BF5
331
18BF6
331
18BE7
331
18BE8
331
18BD9
331
18BDA
331
18BCD
331
18BCE
331
264C5
331
264C6
331
264E1
331
264E2
331
264EA
331
264EB
331
2650E
331
2650F
331
26517
331
26518
331
26520
331
26521
331
2652A
331
2652B
331
26546
331
26547
331
2656E
331
2656F
331
26578
331
26579
331
2658E
331
2658F
331
26599
331
2659A
331
265A4
331
265A5
331
265C9
331
265CA
331
265D2
331
265D3
331
265E6
331
265E7
331
265F8
331
265F9
331
26613
331
26614
331
2661C
331
2661D
331
26625
331
26626
331
2662E
331
2662F
331
26637
331
26638
331
266A2
331
266A3
331
266EA
331
266EB
331
269F5
331
269F6
331
269FE
331
269FF
331
26A09
331
26A0A
331
26A12
331
26A13
331
26A1B
331
26A1C
331
26A24
331
26A25
102
}
  0
BLOCK_RECORD
  5
164B4
330
7466
100
AcDbSymbolTableRecord
100
AcDbBlockTableRecord
  2
_DOT
340
0
102
{BLKREFS
331
18C73
331
18C74
102
}
  0
BLOCK_RECORD
  5
18BC8
330
7466
100
AcDbSymbolTableRecord
100
AcDbBlockTableRecord
  2
*D3
340
0
  0
BLOCK_RECORD
  5
18BD4
330
7466
100
AcDbSymbolTableRecord
100
AcDbBlockTableRecord
  2
*D4
340
0
  0
BLOCK_RECORD
  5
18BE0
330
7466
100
AcDbSymbolTableRecord
100
AcDbBlockTableRecord
  2
*D5
340
0
  0
BLOCK_RECORD
  5
18BEE
330
7466
100
AcDbSymbolTableRecord
100
AcDbBlockTableRecord
  2
*D6
340
0
  0
BLOCK_RECORD
  5
18BFC
330
7466
100
AcDbSymbolTableRecord
100
AcDbBlockTableRecord
  2
*D7
340
0
  0
BLOCK_RECORD
  5
18C0A
330
7466
100
AcDbSymbolTableRecord
100
AcDbBlockTableRecord
  2
*D8
340
0
  0
BLOCK_RECORD
  5
18C16
330
7466
100
AcDbSymbolTableRecord
100
AcDbBlockTableRecord
  2
*D9
340
0
  0
BLOCK_RECORD
  5
18C24
330
7466
100
AcDbSymbolTableRecord
100
AcDbBlockTableRecord
  2
*D10
340
0
  0
BLOCK_RECORD
  5
18C30
330
7466
100
AcDbSymbolTableRecord
100
AcDbBlockTableRecord
  2
*D11
340
0
  0
BLOCK_RECORD
  5
18C3C
330
7466
100
AcDbSymbolTableRecord
100
AcDbBlockTableRecord
  2
*D12
340
0
  0
BLOCK_RECORD
  5
18C48
330
7466
100
AcDbSymbolTableRecord
100
AcDbBlockTableRecord
  2
*D13
340
0
  0
BLOCK_RECORD
  5
18C54
330
7466
100
AcDbSymbolTableRecord
100
AcDbBlockTableRecord
  2
*D14
340
0
  0
BLOCK_RECORD
  5
18C60
330
7466
100
AcDbSymbolTableRecord
100
AcDbBlockTableRecord
  2
*D15
340
0
  0
BLOCK_RECORD
  5
18C6C
330
7466
100
AcDbSymbolTableRecord
100
AcDbBlockTableRecord
  2
*D16
340
0
  0
BLOCK_RECORD
  5
18C7A
330
7466
100
AcDbSymbolTableRecord
100
AcDbBlockTableRecord
  2
A$C3B1A506B
340
0
  0
BLOCK_RECORD
  5
1C4CA
330
7466
100
AcDbSymbolTableRecord
100
AcDbBlockTableRecord
  2
_NONE
340
0
  0
BLOCK_RECORD
  5
20DE2
330
7466
100
AcDbSymbolTableRecord
100
AcDbBlockTableRecord
  2
*D19
340
0
  0
BLOCK_RECORD
  5
20DFC
330
7466
100
AcDbSymbolTableRecord
100
AcDbBlockTableRecord
  2
*D20
340
0
  0
BLOCK_RECORD
  5
22742
330
7466
100
AcDbSymbolTableRecord
100
AcDbBlockTableRecord
  2
*D21
340
0
  0
BLOCK_RECORD
  5
2275C
330
7466
100
AcDbSymbolTableRecord
100
AcDbBlockTableRecord
  2
*D22
340
0
  0
BLOCK_RECORD
  5
240C4
330
7466
100
AcDbSymbolTableRecord
100
AcDbBlockTableRecord
  2
*D23
340
0
  0
BLOCK_RECORD
  5
240D1
330
7466
100
AcDbSymbolTableRecord
100
AcDbBlockTableRecord
  2
*D24
340
0
  0
BLOCK_RECORD
  5
240DE
330
7466
100
AcDbSymbolTableRecord
100
AcDbBlockTableRecord
  2
*D25
340
0
  0
BLOCK_RECORD
  5
26026
330
7466
100
AcDbSymbolTableRecord
100
AcDbBlockTableRecord
  2
*D26
340
0
  0
BLOCK_RECORD
  5
26032
330
7466
100
AcDbSymbolTableRecord
100
AcDbBlockTableRecord
  2
*D27
340
0
  0
BLOCK_RECORD
  5
2603E
330
7466
100
AcDbSymbolTableRecord
100
AcDbBlockTableRecord
  2
*D28
340
0
  0
BLOCK_RECORD
  5
2604A
330
7466
100
AcDbSymbolTableRecord
100
AcDbBlockTableRecord
  2
*D29
340
0
  0
BLOCK_RECORD
  5
26055
330
7466
100
AcDbSymbolTableRecord
100
AcDbBlockTableRecord
  2
*D30
340
0
  0
BLOCK_RECORD
  5
26061
330
7466
100
AcDbSymbolTableRecord
100
AcDbBlockTableRecord
  2
*D31
340
0
  0
BLOCK_RECORD
  5
2606D
330
7466
100
AcDbSymbolTableRecord
100
AcDbBlockTableRecord
  2
*D32
340
0
  0
BLOCK_RECORD
  5
26079
330
7466
100
AcDbSymbolTableRecord
100
AcDbBlockTableRecord
  2
*D33
340
0
  0
BLOCK_RECORD
  5
26085
330
7466
100
AcDbSymbolTableRecord
100
AcDbBlockTableRecord
  2
*D34
340
0
  0
BLOCK_RECORD
  5
2609E
330
7466
100
AcDbSymbolTableRecord
100
AcDbBlockTableRecord
  2
*D35
340
0
  0
BLOCK_RECORD
  5
260AA
330
7466
100
AcDbSymbolTableRecord
100
AcDbBlockTableRecord
  2
*D36
340
0
  0
BLOCK_RECORD
  5
260CD
330
7466
100
AcDbSymbolTableRecord
100
AcDbBlockTableRecord
  2
*D37
340
0
  0
BLOCK_RECORD
  5
260DA
330
7466
100
AcDbSymbolTableRecord
100
AcDbBlockTableRecord
  2
*D38
340
0
  0
BLOCK_RECORD
  5
260E5
330
7466
100
AcDbSymbolTableRecord
100
AcDbBlockTableRecord
  2
*D39
340
0
  0
BLOCK_RECORD
  5
2610C
330
7466
100
AcDbSymbolTableRecord
100
AcDbBlockTableRecord
  2
*D40
340
0
  0
BLOCK_RECORD
  5
26118
330
7466
100
AcDbSymbolTableRecord
100
AcDbBlockTableRecord
  2
*D41
340
0
  0
BLOCK_RECORD
  5
26131
330
7466
100
AcDbSymbolTableRecord
100
AcDbBlockTableRecord
  2
*D42
340
0
  0
BLOCK_RECORD
  5
269A8
330
7466
100
AcDbSymbolTableRecord
100
AcDbBlockTableRecord
  2
*D43
340
0
  0
BLOCK_RECORD
  5
269B4
330
7466
100
AcDbSymbolTableRecord
100
AcDbBlockTableRecord
  2
*D44
340
0
  0
BLOCK_RECORD
  5
269C0
330
7466
100
AcDbSymbolTableRecord
100
AcDbBlockTableRecord
  2
*D45
340
0
  0
BLOCK_RECORD
  5
269CE
330
7466
100
AcDbSymbolTableRecord
100
AcDbBlockTableRecord
  2
*D46
340
0
  0
BLOCK_RECORD
  5
269DA
330
7466
100
AcDbSymbolTableRecord
100
AcDbBlockTableRecord
  2
*D47
340
0
  0
BLOCK_RECORD
  5
269E6
330
7466
100
AcDbSymbolTableRecord
100
AcDbBlockTableRecord
  2
*D48
340
0
  0
ENDTAB
  0
ENDSEC
  0
SECTION
  2
BLOCKS
  0
BLOCK
  5
7489
330
747D
100
AcDbEntity
  8
0
100
AcDbBlockBegin
  2
*MODEL_SPACE
 70
     0
 10
0.0
 20
0.0
 30
0.0
  3
*MODEL_SPACE
  1

  0
ENDBLK
  5
748A
330
747D
100
AcDbEntity
  8
0
100
AcDbBlockEnd
  0
BLOCK
  5
7487
330
747A
100
AcDbEntity
 67
     1
  8
0
100
AcDbBlockBegin
  2
*PAPER_SPACE
 70
     0
 10
0.0
 20
0.0
 30
0.0
  3
*PAPER_SPACE
  1

  0
ENDBLK
  5
7488
330
747A
100
AcDbEntity
 67
     1
  8
0
100
AcDbBlockEnd
  0
BLOCK
  5
DEAD
330
DEAC
100
AcDbEntity
  8
0
100
AcDbBlockBegin
  2
_OPEN
 70
     0
 10
0.0
 20
0.0
 30
0.0
  3
_OPEN
  1

  0
LINE
  5
DEAE
330
DEAC
100
AcDbEntity
  8
0
  6
ByBlock
 62
     0
100
AcDbLine
 10
-1.0
 20
0.1666666666666666
 30
0.0
 11
0.0
 21
0.0
 31
0.0
  0
LINE
  5
DEAF
330
DEAC
100
AcDbEntity
  8
0
  6
ByBlock
 62
     0
100
AcDbLine
 10
0.0
 20
0.0
 30
0.0
 11
-1.0
 21
-0.1666666666666666
 31
0.0
  0
LINE
  5
DEB0
330
DEAC
100
AcDbEntity
  8
0
  6
ByBlock
 62
     0
100
AcDbLine
 10
0.0
 20
0.0
 30
0.0
 11
-1.0
 21
0.0
 31
0.0
  0
ENDBLK
  5
DEB1
330
DEAC
100
AcDbEntity
  8
0
100
AcDbBlockEnd
  0
BLOCK
  5
F771
330
F770
100
AcDbEntity
  8
0
 48
50.0
100
AcDbBlockBegin
  2
_DOTSMALL
 70
     0
 10
0.0
 20
0.0
 30
0.0
  3
_DOTSMALL
  1

  0
LWPOLYLINE
  5
F772
330
F770
100
AcDbEntity
  8
0
  6
ByBlock
 62
     0
 48
50.0
100
AcDbPolyline
 90
        2
 70
     1
 43
0.5
 10
-0.0625
 20
0.0
 42
1.0
 10
0.0625
 20
0.0
 42
1.0
  0
ENDBLK
  5
F776
330
F770
100
AcDbEntity
  8
0
 48
50.0
100
AcDbBlockEnd
  0
BLOCK
  5
164BA
330
164B4
100
AcDbEntity
  8
0
 48
50.0
100
AcDbBlockBegin
  2
_DOT
 70
     0
 10
0.0
 20
0.0
 30
0.0
  3
_DOT
  1

  0
LWPOLYLINE
  5
164B5
330
164B4
100
AcDbEntity
  8
0
  6
ByBlock
 62
     0
 48
50.0
100
AcDbPolyline
 90
        2
 70
     1
 43
0.5
 10
-0.25
 20
0.0
 42
1.0
 10
0.25
 20
0.0
 42
1.0
  0
LINE
  5
164B9
330
164B4
100
AcDbEntity
  8
0
  6
ByBlock
 62
     0
 48
50.0
100
AcDbLine
 10
-0.5
 20
0.0
 30
0.0
 11
-1.0
 21
0.0
 31
0.0
  0
ENDBLK
  5
164BB
330
164B4
100
AcDbEntity
  8
0
 48
50.0
100
AcDbBlockEnd
  0
BLOCK
  5
18BC9
330
18BC8
100
AcDbEntity
  8
0
 48
50.0
100
AcDbBlockBegin
  2
*D3
 70
     1
 10
0.0
 20
0.0
 30
0.0
  3
*D3
  1

  0
LINE
  5
18BCA
330
18BC8
100
AcDbEntity
  8
寸法
 62
     0
 48
50.0
370
    -2
100
AcDbLine
 10
7649.896575106999
 20
9636.123139034717
 30
0.0
 11
8702.429862581047
 21
9636.123139034717
 31
0.0
  0
LINE
  5
18BCB
330
18BC8
100
AcDbEntity
  8
寸法
 62
     0
 48
50.0
370
    -2
100
AcDbLine
 10
7649.896575106973
 20
7846.123139034709
 30
0.0
 11
8702.429862581047
 21
7846.123139034709
 31
0.0
  0
LINE
  5
18BCC
330
18BC8
100
AcDbEntity
  8
寸法
 62
     0
 48
50.0
370
    -2
100
AcDbLine
 10
8642.429862581046
 20
9636.123139034717
 30
0.0
 11
8642.429862581046
 21
7846.123139034709
 31
0.0
  0
INSERT
  5
18BCD
330
18BC8
100
AcDbEntity
  8
寸法
 62
     0
 48
50.0
370
    -2
100
AcDbBlockReference
  2
_DOTSMALL
 10
8642.429862581046
 20
9636.123139034717
 30
0.0
 41
100.0
 42
100.0
 43
100.0
 50
90.0
  0
INSERT
  5
18BCE
330
18BC8
100
AcDbEntity
  8
寸法
 62
     0
 48
50.0
370
    -2
100
AcDbBlockReference
  2
_DOTSMALL
 10
8642.429862581046
 20
7846.123139034709
 30
0.0
 41
100.0
 42
100.0
 43
100.0
 50
270.0
  0
MTEXT
  5
18BCF
330
18BC8
100
AcDbEntity
  8
寸法
 62
     7
 48
50.0
100
AcDbMText
 10
8542.429862581045
 20
8741.123139034712
 30
0.0
 40
120.0
 41
0.0
 71
     5
 72
     1
  1
\A1;1790
  7
STYLE1
 11
0.0000000000000001
 21
1.0
 31
0.0
 73
     1
 44
1.0
1001
ACAD
1000
MTEXTBEGIN
1070
    73
1070
     1
1070
    44
1040
1.0
1070
    74
1070
     0
1000
MTEXTEND
  0
POINT
  5
18BD0
330
18BC8
100
AcDbEntity
  8
DEFPOINTS
 62
     0
 48
50.0
100
AcDbPoint
 10
7629.896575106998
 20
9636.123139034717
 30
0.0
  0
POINT
  5
18BD1
330
18BC8
100
AcDbEntity
  8
DEFPOINTS
 62
     0
 48
50.0
100
AcDbPoint
 10
7629.896575106974
 20
7846.123139034709
 30
0.0
  0
POINT
  5
18BD2
330
18BC8
100
AcDbEntity
  8
DEFPOINTS
 62
     0
 48
50.0
100
AcDbPoint
 10
8642.429862581046
 20
7846.123139034709
 30
0.0
  0
ENDBLK
  5
18BD3
330
18BC8
100
AcDbEntity
  8
0
 48
50.0
100
AcDbBlockEnd
  0
BLOCK
  5
18BD5
330
18BD4
100
AcDbEntity
  8
0
 48
50.0
100
AcDbBlockBegin
  2
*D4
 70
     1
 10
0.0
 20
0.0
 30
0.0
  3
*D4
  1

  0
LINE
  5
18BD6
330
18BD4
100
AcDbEntity
  8
寸法
 62
     0
 48
50.0
370
    -2
100
AcDbLine
 10
4214.896575106998
 20
9656.123139034622
 30
0.0
 11
4214.896575106998
 21
10211.93135865972
 31
0.0
  0
LINE
  5
18BD7
330
18BD4
100
AcDbEntity
  8
寸法
 62
     0
 48
50.0
370
    -2
100
AcDbLine
 10
7574.896575106999
 20
9656.123139034718
 30
0.0
 11
7574.896575106999
 21
10211.93135865972
 31
0.0
  0
LINE
  5
18BD8
330
18BD4
100
AcDbEntity
  8
寸法
 62
     0
 48
50.0
370
    -2
100
AcDbLine
 10
4214.896575106998
 20
10151.93135865972
 30
0.0
 11
7574.896575106999
 21
10151.93135865972
 31
0.0
  0
INSERT
  5
18BD9
330
18BD4
100
AcDbEntity
  8
寸法
 62
     0
 48
50.0
370
    -2
100
AcDbBlockReference
  2
_DOTSMALL
 10
4214.896575106998
 20
10151.93135865972
 30
0.0
 41
100.0
 42
100.0
 43
100.0
 50
180.0
  0
INSERT
  5
18BDA
330
18BD4
100
AcDbEntity
  8
寸法
 62
     0
 48
50.0
370
    -2
100
AcDbBlockReference
  2
_DOTSMALL
 10
7574.896575106999
 20
10151.93135865972
 30
0.0
 41
100.0
 42
100.0
 43
100.0
  0
MTEXT
  5
18BDB
330
18BD4
100
AcDbEntity
  8
寸法
 62
     7
 48
50.0
100
AcDbMText
 10
5894.896575106997
 20
10251.94316968334
 30
0.0
 40
120.0
 41
0.0
 71
     5
 72
     1
  1
\A1;8X420=3360
  7
STYLE1
 73
     1
 44
1.0
1001
ACAD
1000
MTEXTBEGIN
1070
    73
1070
     1
1070
    44
1040
1.0
1070
    74
1070
     0
1000
MTEXTEND
  0
POINT
  5
18BDC
330
18BD4
100
AcDbEntity
  8
DEFPOINTS
 62
     0
 48
50.0
100
AcDbPoint
 10
4214.896575106998
 20
9636.123139034623
 30
0.0
  0
POINT
  5
18BDD
330
18BD4
100
AcDbEntity
  8
DEFPOINTS
 62
     0
 48
50.0
100
AcDbPoint
 10
7574.896575106999
 20
9636.123139034717
 30
0.0
  0
POINT
  5
18BDE
330
18BD4
100
AcDbEntity
  8
DEFPOINTS
 62
     0
 48
50.0
100
AcDbPoint
 10
7574.896575106999
 20
10151.93135865972
 30
0.0
  0
ENDBLK
  5
18BDF
330
18BD4
100
AcDbEntity
  8
0
 48
50.0
100
AcDbBlockEnd
  0
BLOCK
  5
18BE1
330
18BE0
100
AcDbEntity
  8
0
 48
50.0
100
AcDbBlockBegin
  2
*D5
 70
     1
 10
0.0
 20
0.0
 30
0.0
  3
*D5
  1

  0
LINE
  5
18BE2
330
18BE0
100
AcDbEntity
  8
寸法
 62
     0
 48
50.0
370
    -2
100
AcDbLine
 10
7574.896575106999
 20
9656.123139034718
 30
0.0
 11
7574.896575106999
 21
10211.9313586597
 31
0.0
  0
LINE
  5
18BE3
330
18BE0
100
AcDbEntity
  8
寸法
 62
     0
 48
50.0
370
    -2
100
AcDbLine
 10
7629.896575106998
 20
9656.123139034718
 30
0.0
 11
7629.896575106998
 21
10211.9313586597
 31
0.0
  0
LINE
  5
18BE4
330
18BE0
100
AcDbEntity
  8
寸法
 62
     0
 48
50.0
370
    -2
100
AcDbLine
 10
7574.896575106999
 20
10151.9313586597
 30
0.0
 11
7474.896575106999
 21
10151.9313586597
 31
0.0
  0
LINE
  5
18BE5
330
18BE0
100
AcDbEntity
  8
寸法
 62
     0
 48
50.0
370
    -2
100
AcDbLine
 10
7629.896575106998
 20
10151.9313586597
 30
0.0
 11
8046.867137855477
 21
10151.9313586597
 31
0.0
  0
LINE
  5
18BE6
330
18BE0
100
AcDbEntity
  8
寸法
 62
     0
 48
50.0
370
    -2
100
AcDbLine
 10
7574.896575106999
 20
10151.9313586597
 30
0.0
 11
7629.896575106998
 21
10151.9313586597
 31
0.0
  0
INSERT
  5
18BE7
330
18BE0
100
AcDbEntity
  8
寸法
 62
     0
 48
50.0
370
    -2
100
AcDbBlockReference
  2
_DOTSMALL
 10
7574.896575106999
 20
10151.9313586597
 30
0.0
 41
100.0
 42
100.0
 43
100.0
  0
INSERT
  5
18BE8
330
18BE0
100
AcDbEntity
  8
寸法
 62
     0
 48
50.0
370
    -2
100
AcDbBlockReference
  2
_DOTSMALL
 10
7629.896575106998
 20
10151.9313586597
 30
0.0
 41
100.0
 42
100.0
 43
100.0
 50
180.0
  0
MTEXT
  5
18BE9
330
18BE0
100
AcDbEntity
  8
寸法
 62
     7
 48
50.0
100
AcDbMText
 10
7938.381856481237
 20
10251.9313586597
 30
0.0
 40
120.0
 41
0.0
 71
     5
 72
     1
  1
\A1;55
  7
STYLE1
 73
     1
 44
1.0
1001
ACAD
1000
MTEXTBEGIN
1070
    73
1070
     1
1070
    44
1040
1.0
1070
    74
1070
     0
1000
MTEXTEND
  0
POINT
  5
18BEA
330
18BE0
100
AcDbEntity
  8
DEFPOINTS
 62
     0
 48
50.0
100
AcDbPoint
 10
7574.896575106999
 20
9636.123139034717
 30
0.0
  0
POINT
  5
18BEB
330
18BE0
100
AcDbEntity
  8
DEFPOINTS
 62
     0
 48
50.0
100
AcDbPoint
 10
7629.896575106998
 20
9636.123139034717
 30
0.0
  0
POINT
  5
18BEC
330
18BE0
100
AcDbEntity
  8
DEFPOINTS
 62
     0
 48
50.0
100
AcDbPoint
 10
7629.896575106998
 20
10151.9313586597
 30
0.0
  0
ENDBLK
  5
18BED
330
18BE0
100
AcDbEntity
  8
0
 48
50.0
100
AcDbBlockEnd
  0
BLOCK
  5
18BEF
330
18BEE
100
AcDbEntity
  8
0
 48
50.0
100
AcDbBlockBegin
  2
*D6
 70
     1
 10
0.0
 20
0.0
 30
0.0
  3
*D6
  1

  0
LINE
  5
18BF0
330
18BEE
100
AcDbEntity
  8
寸法
 62
     0
 48
50.0
370
    -2
100
AcDbLine
 10
7649.896575106999
 20
9636.123139034717
 30
0.0
 11
8337.32292084141
 21
9636.123139034717
 31
0.0
  0
LINE
  5
18BF1
330
18BEE
100
AcDbEntity
  8
寸法
 62
     0
 48
50.0
370
    -2
100
AcDbLine
 10
7649.896575106999
 20
9581.123139034721
 30
0.0
 11
8337.32292084141
 21
9581.123139034721
 31
0.0
  0
LINE
  5
18BF2
330
18BEE
100
AcDbEntity
  8
寸法
 62
     0
 48
50.0
370
    -2
100
AcDbLine
 10
8277.322920841411
 20
9581.123139034721
 30
0.0
 11
8277.322920841411
 21
9481.123139034719
 31
0.0
  0
LINE
  5
18BF3
330
18BEE
100
AcDbEntity
  8
寸法
 62
     0
 48
50.0
370
    -2
100
AcDbLine
 10
8277.322920841411
 20
9636.123139034717
 30
0.0
 11
8277.322920841411
 21
10053.09370178319
 31
0.0
  0
LINE
  5
18BF4
330
18BEE
100
AcDbEntity
  8
寸法
 62
     0
 48
50.0
370
    -2
100
AcDbLine
 10
8277.322920841411
 20
9581.123139034721
 30
0.0
 11
8277.322920841411
 21
9636.123139034717
 31
0.0
  0
INSERT
  5
18BF5
330
18BEE
100
AcDbEntity
  8
寸法
 62
     0
 48
50.0
370
    -2
100
AcDbBlockReference
  2
_DOTSMALL
 10
8277.322920841411
 20
9581.123139034721
 30
0.0
 41
100.0
 42
100.0
 43
100.0
 50
90.0
  0
INSERT
  5
18BF6
330
18BEE
100
AcDbEntity
  8
寸法
 62
     0
 48
50.0
370
    -2
100
AcDbBlockReference
  2
_DOTSMALL
 10
8277.322920841411
 20
9636.123139034717
 30
0.0
 41
100.0
 42
100.0
 43
100.0
 50
270.0
  0
MTEXT
  5
18BF7
330
18BEE
100
AcDbEntity
  8
寸法
 62
     7
 48
50.0
100
AcDbMText
 10
8177.32292084141
 20
9944.608420408957
 30
0.0
 40
120.0
 41
0.0
 71
     5
 72
     1
  1
\A1;55
  7
STYLE1
 11
0.0000000000000001
 21
1.0
 31
0.0
 73
     1
 44
1.0
1001
ACAD
1000
MTEXTBEGIN
1070
    73
1070
     1
1070
    44
1040
1.0
1070
    74
1070
     0
1000
MTEXTEND
  0
POINT
  5
18BF8
330
18BEE
100
AcDbEntity
  8
DEFPOINTS
 62
     0
 48
50.0
100
AcDbPoint
 10
7629.896575106998
 20
9636.123139034717
 30
0.0
  0
POINT
  5
18BF9
330
18BEE
100
AcDbEntity
  8
DEFPOINTS
 62
     0
 48
50.0
100
AcDbPoint
 10
7629.896575106998
 20
9581.123139034721
 30
0.0
  0
POINT
  5
18BFA
330
18BEE
100
AcDbEntity
  8
DEFPOINTS
 62
     0
 48
50.0
100
AcDbPoint
 10
8277.322920841411
 20
9581.123139034721
 30
0.0
  0
ENDBLK
  5
18BFB
330
18BEE
100
AcDbEntity
  8
0
 48
50.0
100
AcDbBlockEnd
  0
BLOCK
  5
18BFD
330
18BFC
100
AcDbEntity
  8
0
 48
50.0
100
AcDbBlockBegin
  2
*D7
 70
     1
 10
0.0
 20
0.0
 30
0.0
  3
*D7
  1

  0
LINE
  5
18BFE
330
18BFC
100
AcDbEntity
  8
寸法
 62
     0
 48
50.0
370
    -2
100
AcDbLine
 10
4159.896575106963
 20
9656.123139034622
 30
0.0
 11
4159.896575106963
 21
10211.9313586596
 31
0.0
  0
LINE
  5
18BFF
330
18BFC
100
AcDbEntity
  8
寸法
 62
     0
 48
50.0
370
    -2
100
AcDbLine
 10
4214.896575106998
 20
9656.123139034622
 30
0.0
 11
4214.896575106998
 21
10211.9313586596
 31
0.0
  0
LINE
  5
18C00
330
18BFC
100
AcDbEntity
  8
寸法
 62
     0
 48
50.0
370
    -2
100
AcDbLine
 10
4214.896575106998
 20
10151.9313586596
 30
0.0
 11
4314.896575106998
 21
10151.9313586596
 31
0.0
  0
LINE
  5
18C01
330
18BFC
100
AcDbEntity
  8
寸法
 62
     0
 48
50.0
370
    -2
100
AcDbLine
 10
4159.896575106963
 20
10151.9313586596
 30
0.0
 11
3742.926012358486
 21
10151.9313586596
 31
0.0
  0
LINE
  5
18C02
330
18BFC
100
AcDbEntity
  8
寸法
 62
     0
 48
50.0
370
    -2
100
AcDbLine
 10
4214.896575106998
 20
10151.9313586596
 30
0.0
 11
4159.896575106963
 21
10151.9313586596
 31
0.0
  0
INSERT
  5
18C03
330
18BFC
100
AcDbEntity
  8
寸法
 62
     0
 48
50.0
370
    -2
100
AcDbBlockReference
  2
_DOTSMALL
 10
4214.896575106998
 20
10151.9313586596
 30
0.0
 41
100.0
 42
100.0
 43
100.0
 50
180.0
  0
INSERT
  5
18C04
330
18BFC
100
AcDbEntity
  8
寸法
 62
     0
 48
50.0
370
    -2
100
AcDbBlockReference
  2
_DOTSMALL
 10
4159.896575106963
 20
10151.9313586596
 30
0.0
 41
100.0
 42
100.0
 43
100.0
  0
MTEXT
  5
18C05
330
18BFC
100
AcDbEntity
  8
寸法
 62
     7
 48
50.0
100
AcDbMText
 10
3851.411293732725
 20
10251.9313586596
 30
0.0
 40
120.0
 41
0.0
 71
     5
 72
     1
  1
\A1;55
  7
STYLE1
 73
     1
 44
1.0
1001
ACAD
1000
MTEXTBEGIN
1070
    73
1070
     1
1070
    44
1040
1.0
1070
    74
1070
     0
1000
MTEXTEND
  0
POINT
  5
18C06
330
18BFC
100
AcDbEntity
  8
DEFPOINTS
 62
     0
 48
50.0
100
AcDbPoint
 10
4159.896575106963
 20
9636.123139034623
 30
0.0
  0
POINT
  5
18C07
330
18BFC
100
AcDbEntity
  8
DEFPOINTS
 62
     0
 48
50.0
100
AcDbPoint
 10
4214.896575106998
 20
9636.123139034623
 30
0.0
  0
POINT
  5
18C08
330
18BFC
100
AcDbEntity
  8
DEFPOINTS
 62
     0
 48
50.0
100
AcDbPoint
 10
4214.896575106998
 20
10151.9313586596
 30
0.0
  0
ENDBLK
  5
18C09
330
18BFC
100
AcDbEntity
  8
0
 48
50.0
100
AcDbBlockEnd
  0
BLOCK
  5
18C0B
330
18C0A
100
AcDbEntity
  8
0
 48
50.0
100
AcDbBlockBegin
  2
*D8
 70
     1
 10
0.0
 20
0.0
 30
0.0
  3
*D8
  1

  0
LINE
  5
18C0C
330
18C0A
100
AcDbEntity
  8
寸法
 62
     0
 48
50.0
370
    -2
100
AcDbLine
 10
4159.896575106992
 20
7826.123139034546
 30
0.0
 11
4159.896575106992
 21
6804.372203245664
 31
0.0
  0
LINE
  5
18C0D
330
18C0A
100
AcDbEntity
  8
寸法
 62
     0
 48
50.0
370
    -2
100
AcDbLine
 10
7629.896575106974
 20
7826.123139034674
 30
0.0
 11
7629.896575106974
 21
6804.372203245664
 31
0.0
  0
LINE
  5
18C0E
330
18C0A
100
AcDbEntity
  8
寸法
 62
     0
 48
50.0
370
    -2
100
AcDbLine
 10
4159.896575106992
 20
6864.372203245665
 30
0.0
 11
7629.896575106974
 21
6864.372203245665
 31
0.0
  0
INSERT
  5
18C0F
330
18C0A
100
AcDbEntity
  8
寸法
 62
     0
 48
50.0
370
    -2
100
AcDbBlockReference
  2
_DOTSMALL
 10
4159.896575106992
 20
6864.372203245665
 30
0.0
 41
100.0
 42
100.0
 43
100.0
 50
180.0
  0
INSERT
  5
18C10
330
18C0A
100
AcDbEntity
  8
寸法
 62
     0
 48
50.0
370
    -2
100
AcDbBlockReference
  2
_DOTSMALL
 10
7629.896575106974
 20
6864.372203245665
 30
0.0
 41
100.0
 42
100.0
 43
100.0
  0
MTEXT
  5
18C11
330
18C0A
100
AcDbEntity
  8
寸法
 62
     7
 48
50.0
100
AcDbMText
 10
5911.12376113973
 20
6964.372203245665
 30
0.0
 40
120.0
 41
0.0
 71
     5
 72
     1
  1
\A1;3470
  7
STYLE1
 73
     1
 44
1.0
1001
ACAD
1000
MTEXTBEGIN
1070
    73
1070
     1
1070
    44
1040
1.0
1070
    74
1070
     0
1000
MTEXTEND
  0
POINT
  5
18C12
330
18C0A
100
AcDbEntity
  8
DEFPOINTS
 62
     0
 48
50.0
100
AcDbPoint
 10
4159.896575106992
 20
7846.123139034546
 30
0.0
  0
POINT
  5
18C13
330
18C0A
100
AcDbEntity
  8
DEFPOINTS
 62
     0
 48
50.0
100
AcDbPoint
 10
7629.896575106974
 20
7846.123139034673
 30
0.0
  0
POINT
  5
18C14
330
18C0A
100
AcDbEntity
  8
DEFPOINTS
 62
     0
 48
50.0
100
AcDbPoint
 10
7629.896575106974
 20
6864.372203245665
 30
0.0
  0
ENDBLK
  5
18C15
330
18C0A
100
AcDbEntity
  8
0
 48
50.0
100
AcDbBlockEnd
  0
BLOCK
  5
18C17
330
18C16
100
AcDbEntity
  8
0
 48
50.0
100
AcDbBlockBegin
  2
*D9
 70
     1
 10
0.0
 20
0.0
 30
0.0
  3
*D9
  1

  0
LINE
  5
18C18
330
18C16
100
AcDbEntity
  8
寸法
 62
     0
 48
50.0
370
    -2
100
AcDbLine
 10
7649.896575106973
 20
7901.123139034706
 30
0.0
 11
8337.322920841385
 21
7901.123139034706
 31
0.0
  0
LINE
  5
18C19
330
18C16
100
AcDbEntity
  8
寸法
 62
     0
 48
50.0
370
    -2
100
AcDbLine
 10
7649.896575106973
 20
7846.123139034709
 30
0.0
 11
8337.322920841385
 21
7846.123139034709
 31
0.0
  0
LINE
  5
18C1A
330
18C16
100
AcDbEntity
  8
寸法
 62
     0
 48
50.0
370
    -2
100
AcDbLine
 10
8277.322920841385
 20
7901.123139034706
 30
0.0
 11
8277.322920841385
 21
8001.123139034707
 31
0.0
  0
LINE
  5
18C1B
330
18C16
100
AcDbEntity
  8
寸法
 62
     0
 48
50.0
370
    -2
100
AcDbLine
 10
8277.322920841385
 20
7846.123139034709
 30
0.0
 11
8277.322920841385
 21
7429.152576286229
 31
0.0
  0
LINE
  5
18C1C
330
18C16
100
AcDbEntity
  8
寸法
 62
     0
 48
50.0
370
    -2
100
AcDbLine
 10
8277.322920841385
 20
7901.123139034706
 30
0.0
 11
8277.322920841385
 21
7846.123139034709
 31
0.0
  0
INSERT
  5
18C1D
330
18C16
100
AcDbEntity
  8
寸法
 62
     0
 48
50.0
370
    -2
100
AcDbBlockReference
  2
_DOTSMALL
 10
8277.322920841385
 20
7901.123139034706
 30
0.0
 41
100.0
 42
100.0
 43
100.0
 50
270.0
  0
INSERT
  5
18C1E
330
18C16
100
AcDbEntity
  8
寸法
 62
     0
 48
50.0
370
    -2
100
AcDbBlockReference
  2
_DOTSMALL
 10
8277.322920841385
 20
7846.123139034709
 30
0.0
 41
100.0
 42
100.0
 43
100.0
 50
90.0
  0
MTEXT
  5
18C1F
330
18C16
100
AcDbEntity
  8
寸法
 62
     7
 48
50.0
100
AcDbMText
 10
8177.322920841383
 20
7537.637857660469
 30
0.0
 40
120.0
 41
0.0
 71
     5
 72
     1
  1
\A1;55
  7
STYLE1
 11
0.0000000000000001
 21
1.0
 31
0.0
 73
     1
 44
1.0
1001
ACAD
1000
MTEXTBEGIN
1070
    73
1070
     1
1070
    44
1040
1.0
1070
    74
1070
     0
1000
MTEXTEND
  0
POINT
  5
18C20
330
18C16
100
AcDbEntity
  8
DEFPOINTS
 62
     0
 48
50.0
100
AcDbPoint
 10
7629.896575106974
 20
7901.123139034706
 30
0.0
  0
POINT
  5
18C21
330
18C16
100
AcDbEntity
  8
DEFPOINTS
 62
     0
 48
50.0
100
AcDbPoint
 10
7629.896575106974
 20
7846.123139034709
 30
0.0
  0
POINT
  5
18C22
330
18C16
100
AcDbEntity
  8
DEFPOINTS
 62
     0
 48
50.0
100
AcDbPoint
 10
8277.322920841385
 20
7846.123139034709
 30
0.0
  0
ENDBLK
  5
18C23
330
18C16
100
AcDbEntity
  8
0
 48
50.0
100
AcDbBlockEnd
  0
BLOCK
  5
18C25
330
18C24
100
AcDbEntity
  8
0
 48
50.0
100
AcDbBlockBegin
  2
*D10
 70
     1
 10
0.0
 20
0.0
 30
0.0
  3
*D10
  1

  0
LINE
  5
18C26
330
18C24
100
AcDbEntity
  8
寸法
 62
     0
 48
50.0
370
    -2
100
AcDbLine
 10
6533.037591258376
 20
9136.123139034728
 30
0.0
 11
6465.083950562664
 21
8882.516699399049
 31
0.0
  0
LINE
  5
18C27
330
18C24
100
AcDbEntity
  8
寸法
 62
     0
 48
50.0
370
    -2
100
AcDbLine
 10
7596.037591258388
 20
9136.123139034721
 30
0.0
 11
7528.083950562677
 21
8882.516699399049
 31
0.0
  0
LINE
  5
18C28
330
18C24
100
AcDbEntity
  8
寸法
 62
     0
 48
50.0
370
    -2
100
AcDbLine
 10
6481.160902108531
 20
8942.51669939905
 30
0.0
 11
7544.160902108544
 21
8942.51669939905
 31
0.0
  0
INSERT
  5
18C29
330
18C24
100
AcDbEntity
  8
寸法
 62
     0
 48
50.0
370
    -2
100
AcDbBlockReference
  2
_DOTSMALL
 10
6481.160902108531
 20
8942.51669939905
 30
0.0
 41
100.0
 42
100.0
 43
100.0
 50
180.0
  0
INSERT
  5
18C2A
330
18C24
100
AcDbEntity
  8
寸法
 62
     0
 48
50.0
370
    -2
100
AcDbBlockReference
  2
_DOTSMALL
 10
7544.160902108544
 20
8942.51669939905
 30
0.0
 41
100.0
 42
100.0
 43
100.0
  0
MTEXT
  5
18C2B
330
18C24
100
AcDbEntity
  8
寸法
 62
     7
 48
50.0
100
AcDbMText
 10
7061.28653022935
 20
9042.516699399049
 30
0.0
 40
120.0
 41
0.0
 71
     5
 72
     1
  1
\A1;1063
  7
STYLE1
 73
     1
 44
1.0
1001
ACAD
1000
MTEXTBEGIN
1070
    73
1070
     1
1070
    44
1040
1.0
1070
    74
1070
     0
1000
MTEXTEND
  0
POINT
  5
18C2C
330
18C24
100
AcDbEntity
  8
DEFPOINTS
 62
     0
 48
50.0
100
AcDbPoint
 10
6538.396575106998
 20
9156.123139034727
 30
0.0
  0
POINT
  5
18C2D
330
18C24
100
AcDbEntity
  8
DEFPOINTS
 62
     0
 48
50.0
100
AcDbPoint
 10
7601.39657510701
 20
9156.12313903472
 30
0.0
  0
POINT
  5
18C2E
330
18C24
100
AcDbEntity
  8
DEFPOINTS
 62
     0
 48
50.0
100
AcDbPoint
 10
7544.160902108544
 20
8942.51669939905
 30
0.0
  0
ENDBLK
  5
18C2F
330
18C24
100
AcDbEntity
  8
0
 48
50.0
100
AcDbBlockEnd
  0
BLOCK
  5
18C31
330
18C30
100
AcDbEntity
  8
0
 48
50.0
100
AcDbBlockBegin
  2
*D11
 70
     1
 10
0.0
 20
0.0
 30
0.0
  3
*D11
  1

  0
LINE
  5
18C32
330
18C30
100
AcDbEntity
  8
寸法
 62
     0
 48
50.0
370
    -2
100
AcDbLine
 10
7621.396575106999
 20
9600.764155186094
 30
0.0
 11
8016.754300969024
 21
9494.828371819961
 31
0.0
  0
LINE
  5
18C33
330
18C30
100
AcDbEntity
  8
寸法
 62
     0
 48
50.0
370
    -2
100
AcDbLine
 10
7621.396575106999
 20
9150.764155186099
 30
0.0
 11
8016.754300969024
 21
9044.828371819964
 31
0.0
  0
LINE
  5
18C34
330
18C30
100
AcDbEntity
  8
寸法
 62
     0
 48
50.0
370
    -2
100
AcDbLine
 10
7956.754300969024
 20
9510.905323365827
 30
0.0
 11
7956.754300969024
 21
9060.90532336583
 31
0.0
  0
INSERT
  5
18C35
330
18C30
100
AcDbEntity
  8
寸法
 62
     0
 48
50.0
370
    -2
100
AcDbBlockReference
  2
_DOTSMALL
 10
7956.754300969024
 20
9510.905323365827
 30
0.0
 41
100.0
 42
100.0
 43
100.0
 50
90.0
  0
INSERT
  5
18C36
330
18C30
100
AcDbEntity
  8
寸法
 62
     0
 48
50.0
370
    -2
100
AcDbBlockReference
  2
_DOTSMALL
 10
7956.754300969024
 20
9060.90532336583
 30
0.0
 41
100.0
 42
100.0
 43
100.0
 50
270.0
  0
MTEXT
  5
18C37
330
18C30
100
AcDbEntity
  8
寸法
 62
     7
 48
50.0
100
AcDbMText
 10
7856.754300969022
 20
9285.905323365829
 30
0.0
 40
120.0
 41
0.0
 71
     5
 72
     1
  1
\A1;450
  7
STYLE1
 11
0.0000000000000001
 21
1.0
 31
0.0
 73
     1
 44
1.0
1001
ACAD
1000
MTEXTBEGIN
1070
    73
1070
     1
1070
    44
1040
1.0
1070
    74
1070
     0
1000
MTEXTEND
  0
POINT
  5
18C38
330
18C30
100
AcDbEntity
  8
DEFPOINTS
 62
     0
 48
50.0
100
AcDbPoint
 10
7601.396575106999
 20
9606.123139034718
 30
0.0
  0
POINT
  5
18C39
330
18C30
100
AcDbEntity
  8
DEFPOINTS
 62
     0
 48
50.0
100
AcDbPoint
 10
7601.396575106999
 20
9156.12313903472
 30
0.0
  0
POINT
  5
18C3A
330
18C30
100
AcDbEntity
  8
DEFPOINTS
 62
     0
 48
50.0
100
AcDbPoint
 10
7956.754300969024
 20
9060.90532336583
 30
0.0
  0
ENDBLK
  5
18C3B
330
18C30
100
AcDbEntity
  8
0
 48
50.0
100
AcDbBlockEnd
  0
BLOCK
  5
18C3D
330
18C3C
100
AcDbEntity
  8
0
 48
50.0
100
AcDbBlockBegin
  2
*D12
 70
     1
 10
0.0
 20
0.0
 30
0.0
  3
*D12
  1

  0
LINE
  5
18C3E
330
18C3C
100
AcDbEntity
  8
寸法
 62
     0
 48
50.0
370
    -2
100
AcDbLine
 10
7649.896575106999
 20
9581.123139034721
 30
0.0
 11
8337.32292084141
 21
9581.123139034721
 31
0.0
  0
LINE
  5
18C3F
330
18C3C
100
AcDbEntity
  8
寸法
 62
     0
 48
50.0
370
    -2
100
AcDbLine
 10
7649.896575106973
 20
7901.123139034706
 30
0.0
 11
8337.32292084141
 21
7901.123139034706
 31
0.0
  0
LINE
  5
18C40
330
18C3C
100
AcDbEntity
  8
寸法
 62
     0
 48
50.0
370
    -2
100
AcDbLine
 10
8277.322920841411
 20
9581.123139034721
 30
0.0
 11
8277.322920841411
 21
7901.123139034706
 31
0.0
  0
INSERT
  5
18C41
330
18C3C
100
AcDbEntity
  8
寸法
 62
     0
 48
50.0
370
    -2
100
AcDbBlockReference
  2
_DOTSMALL
 10
8277.322920841411
 20
9581.123139034721
 30
0.0
 41
100.0
 42
100.0
 43
100.0
 50
90.0
  0
INSERT
  5
18C42
330
18C3C
100
AcDbEntity
  8
寸法
 62
     0
 48
50.0
370
    -2
100
AcDbBlockReference
  2
_DOTSMALL
 10
8277.322920841411
 20
7901.123139034706
 30
0.0
 41
100.0
 42
100.0
 43
100.0
 50
270.0
  0
MTEXT
  5
18C43
330
18C3C
100
AcDbEntity
  8
寸法
 62
     7
 48
50.0
100
AcDbMText
 10
8177.311109817788
 20
8741.123139034712
 30
0.0
 40
120.0
 41
0.0
 71
     5
 72
     1
  1
\A1;4X420=1680
  7
STYLE1
 11
0.0000000000000001
 21
1.0
 31
0.0
 73
     1
 44
1.0
1001
ACAD
1000
MTEXTBEGIN
1070
    73
1070
     1
1070
    44
1040
1.0
1070
    74
1070
     0
1000
MTEXTEND
  0
POINT
  5
18C44
330
18C3C
100
AcDbEntity
  8
DEFPOINTS
 62
     0
 48
50.0
100
AcDbPoint
 10
7629.896575106998
 20
9581.123139034721
 30
0.0
  0
POINT
  5
18C45
330
18C3C
100
AcDbEntity
  8
DEFPOINTS
 62
     0
 48
50.0
100
AcDbPoint
 10
7629.896575106974
 20
7901.123139034706
 30
0.0
  0
POINT
  5
18C46
330
18C3C
100
AcDbEntity
  8
DEFPOINTS
 62
     0
 48
50.0
100
AcDbPoint
 10
8277.322920841411
 20
7901.123139034706
 30
0.0
  0
ENDBLK
  5
18C47
330
18C3C
100
AcDbEntity
  8
0
 48
50.0
100
AcDbBlockEnd
  0
BLOCK
  5
18C49
330
18C48
100
AcDbEntity
  8
0
 48
50.0
100
AcDbBlockBegin
  2
*D13
 70
     1
 10
0.0
 20
0.0
 30
0.0
  3
*D13
  1

  0
LINE
  5
18C4A
330
18C48
100
AcDbEntity
  8
寸法
 62
     0
 48
50.0
370
    -2
100
AcDbLine
 10
4183.037591258377
 20
9136.123139034619
 30
0.0
 11
4115.083950562663
 21
8882.516699398941
 31
0.0
  0
LINE
  5
18C4B
330
18C48
100
AcDbEntity
  8
寸法
 62
     0
 48
50.0
370
    -2
100
AcDbLine
 10
5246.037591258307
 20
9136.123139034671
 30
0.0
 11
5178.08395056258
 21
8882.516699398941
 31
0.0
  0
LINE
  5
18C4C
330
18C48
100
AcDbEntity
  8
寸法
 62
     0
 48
50.0
370
    -2
100
AcDbLine
 10
4131.160902108532
 20
8942.516699398941
 30
0.0
 11
5194.160902108448
 21
8942.516699398941
 31
0.0
  0
INSERT
  5
18C4D
330
18C48
100
AcDbEntity
  8
寸法
 62
     0
 48
50.0
370
    -2
100
AcDbBlockReference
  2
_DOTSMALL
 10
4131.160902108532
 20
8942.516699398941
 30
0.0
 41
100.0
 42
100.0
 43
100.0
 50
180.0
  0
INSERT
  5
18C4E
330
18C48
100
AcDbEntity
  8
寸法
 62
     0
 48
50.0
370
    -2
100
AcDbBlockReference
  2
_DOTSMALL
 10
5194.160902108448
 20
8942.516699398941
 30
0.0
 41
100.0
 42
100.0
 43
100.0
  0
MTEXT
  5
18C4F
330
18C48
100
AcDbEntity
  8
寸法
 62
     7
 48
50.0
100
AcDbMText
 10
4658.986452655306
 20
9042.516699398941
 30
0.0
 40
120.0
 41
0.0
 71
     5
 72
     1
  1
\A1;1063
  7
STYLE1
 73
     1
 44
1.0
1001
ACAD
1000
MTEXTBEGIN
1070
    73
1070
     1
1070
    44
1040
1.0
1070
    74
1070
     0
1000
MTEXTEND
  0
POINT
  5
18C50
330
18C48
100
AcDbEntity
  8
DEFPOINTS
 62
     0
 48
50.0
100
AcDbPoint
 10
4188.396575106999
 20
9156.123139034617
 30
0.0
  0
POINT
  5
18C51
330
18C48
100
AcDbEntity
  8
DEFPOINTS
 62
     0
 48
50.0
100
AcDbPoint
 10
5251.396575106929
 20
9156.123139034672
 30
0.0
  0
POINT
  5
18C52
330
18C48
100
AcDbEntity
  8
DEFPOINTS
 62
     0
 48
50.0
100
AcDbPoint
 10
5194.160902108448
 20
8942.516699398941
 30
0.0
  0
ENDBLK
  5
18C53
330
18C48
100
AcDbEntity
  8
0
 48
50.0
100
AcDbBlockEnd
  0
BLOCK
  5
18C55
330
18C54
100
AcDbEntity
  8
0
 48
50.0
100
AcDbBlockBegin
  2
*D14
 70
     1
 10
0.0
 20
0.0
 30
0.0
  3
*D14
  1

  0
LINE
  5
18C56
330
18C54
100
AcDbEntity
  8
寸法
 62
     0
 48
50.0
370
    -2
100
AcDbLine
 10
5274.037591258307
 20
9136.123139034669
 30
0.0
 11
5206.08395056258
 21
8882.516699398941
 31
0.0
  0
LINE
  5
18C57
330
18C54
100
AcDbEntity
  8
寸法
 62
     0
 48
50.0
370
    -2
100
AcDbLine
 10
6505.037591258377
 20
9136.123139034662
 30
0.0
 11
6437.083950562653
 21
8882.516699398941
 31
0.0
  0
LINE
  5
18C58
330
18C54
100
AcDbEntity
  8
寸法
 62
     0
 48
50.0
370
    -2
100
AcDbLine
 10
5222.160902108448
 20
8942.516699398941
 30
0.0
 11
6453.16090210852
 21
8942.516699398941
 31
0.0
  0
INSERT
  5
18C59
330
18C54
100
AcDbEntity
  8
寸法
 62
     0
 48
50.0
370
    -2
100
AcDbBlockReference
  2
_DOTSMALL
 10
5222.160902108448
 20
8942.516699398941
 30
0.0
 41
100.0
 42
100.0
 43
100.0
 50
180.0
  0
INSERT
  5
18C5A
330
18C54
100
AcDbEntity
  8
寸法
 62
     0
 48
50.0
370
    -2
100
AcDbBlockReference
  2
_DOTSMALL
 10
6453.16090210852
 20
8942.516699398941
 30
0.0
 41
100.0
 42
100.0
 43
100.0
  0
MTEXT
  5
18C5B
330
18C54
100
AcDbEntity
  8
寸法
 62
     7
 48
50.0
100
AcDbMText
 10
6081.244808320626
 20
9042.528510422561
 30
0.0
 40
120.0
 41
0.0
 71
     5
 72
     1
  1
\A1;1231
  7
STYLE1
 73
     1
 44
1.0
1001
ACAD
1000
MTEXTBEGIN
1070
    73
1070
     1
1070
    44
1040
1.0
1070
    74
1070
     0
1000
MTEXTEND
  0
POINT
  5
18C5C
330
18C54
100
AcDbEntity
  8
DEFPOINTS
 62
     0
 48
50.0
100
AcDbPoint
 10
5279.396575106929
 20
9156.123139034669
 30
0.0
  0
POINT
  5
18C5D
330
18C54
100
AcDbEntity
  8
DEFPOINTS
 62
     0
 48
50.0
100
AcDbPoint
 10
6510.396575106999
 20
9156.123139034662
 30
0.0
  0
POINT
  5
18C5E
330
18C54
100
AcDbEntity
  8
DEFPOINTS
 62
     0
 48
50.0
100
AcDbPoint
 10
6453.16090210852
 20
8942.516699398941
 30
0.0
  0
ENDBLK
  5
18C5F
330
18C54
100
AcDbEntity
  8
0
 48
50.0
100
AcDbBlockEnd
  0
BLOCK
  5
18C61
330
18C60
100
AcDbEntity
  8
0
 48
50.0
100
AcDbBlockBegin
  2
*D15
 70
     1
 10
0.0
 20
0.0
 30
0.0
  3
*D15
  1

  0
LINE
  5
18C62
330
18C60
100
AcDbEntity
  8
寸法
 62
     0
 48
50.0
370
    -2
100
AcDbLine
 10
5065.896575106966
 20
7749.123139034579
 30
0.0
 11
5065.896575106966
 21
7099.952920982538
 31
0.0
  0
LINE
  5
18C63
330
18C60
100
AcDbEntity
  8
寸法
 62
     0
 48
50.0
370
    -2
100
AcDbLine
 10
6331.896575106966
 20
7749.123139034579
 30
0.0
 11
6331.896575106966
 21
7099.952920982538
 31
0.0
  0
LINE
  5
18C64
330
18C60
100
AcDbEntity
  8
寸法
 62
     0
 48
50.0
370
    -2
100
AcDbLine
 10
5065.896575106966
 20
7159.952920982537
 30
0.0
 11
6331.896575106966
 21
7159.952920982537
 31
0.0
  0
INSERT
  5
18C65
330
18C60
100
AcDbEntity
  8
寸法
 62
     0
 48
50.0
370
    -2
100
AcDbBlockReference
  2
_DOTSMALL
 10
5065.896575106966
 20
7159.952920982537
 30
0.0
 41
100.0
 42
100.0
 43
100.0
 50
180.0
  0
INSERT
  5
18C66
330
18C60
100
AcDbEntity
  8
寸法
 62
     0
 48
50.0
370
    -2
100
AcDbBlockReference
  2
_DOTSMALL
 10
6331.896575106966
 20
7159.952920982537
 30
0.0
 41
100.0
 42
100.0
 43
100.0
  0
MTEXT
  5
18C67
330
18C60
100
AcDbEntity
  8
寸法
 62
     7
 48
50.0
100
AcDbMText
 10
5711.986008735934
 20
7359.964732006159
 30
0.0
 40
120.0
 41
0.0
 71
     5
 72
     1
  1
\A1;有効開口部間口\P1266
  7
STYLE1
 73
     1
 44
1.0
1001
ACAD
1000
MTEXTBEGIN
1070
    73
1070
     1
1070
    44
1040
1.0
1070
    74
1070
     0
1000
MTEXTEND
  0
POINT
  5
18C68
330
18C60
100
AcDbEntity
  8
DEFPOINTS
 62
     0
 48
50.0
100
AcDbPoint
 10
5065.896575106966
 20
7769.123139034579
 30
0.0
  0
POINT
  5
18C69
330
18C60
100
AcDbEntity
  8
DEFPOINTS
 62
     0
 48
50.0
100
AcDbPoint
 10
6331.896575106966
 20
7769.123139034579
 30
0.0
  0
POINT
  5
18C6A
330
18C60
100
AcDbEntity
  8
DEFPOINTS
 62
     0
 48
50.0
100
AcDbPoint
 10
6331.896575106966
 20
7159.952920982537
 30
0.0
  0
ENDBLK
  5
18C6B
330
18C60
100
AcDbEntity
  8
0
 48
50.0
100
AcDbBlockEnd
  0
BLOCK
  5
18C6D
330
18C6C
100
AcDbEntity
  8
0
 48
50.0
100
AcDbBlockBegin
  2
*D16
 70
     1
 10
0.0
 20
0.0
 30
0.0
  3
*D16
  1

  0
LINE
  5
18C6E
330
18C6C
100
AcDbEntity
  8
寸法
 62
     0
 48
50.0
370
    -2
100
AcDbLine
 10
7200.896575106966
 20
7846.123139034578
 30
0.0
 11
7457.192158500191
 21
7846.123139034578
 31
0.0
  0
LINE
  5
18C6F
330
18C6C
100
AcDbEntity
  8
寸法
 62
     0
 48
50.0
370
    -2
100
AcDbLine
 10
7199.896575106966
 20
7769.123139034579
 30
0.0
 11
7457.192158500191
 21
7769.123139034579
 31
0.0
  0
LINE
  5
18C70
330
18C6C
100
AcDbEntity
  8
寸法
 62
     0
 48
50.0
370
    -2
100
AcDbLine
 10
7417.192158500192
 20
7866.123139034579
 30
0.0
 11
7417.192158500192
 21
7886.123139034578
 31
0.0
  0
LINE
  5
18C71
330
18C6C
100
AcDbEntity
  8
寸法
 62
     0
 48
50.0
370
    -2
100
AcDbLine
 10
7417.192158500192
 20
7749.123139034579
 30
0.0
 11
7417.192158500192
 21
7533.123139034573
 31
0.0
  0
LINE
  5
18C72
330
18C6C
100
AcDbEntity
  8
寸法
 62
     0
 48
50.0
370
    -2
100
AcDbLine
 10
7417.192158500192
 20
7846.123139034578
 30
0.0
 11
7417.192158500192
 21
7769.123139034579
 31
0.0
  0
INSERT
  5
18C73
330
18C6C
100
AcDbEntity
  8
寸法
 62
     0
 48
50.0
370
    -2
100
AcDbBlockReference
  2
_DOT
 10
7417.192158500192
 20
7846.123139034578
 30
0.0
 41
20.0
 42
20.0
 43
20.0
 50
270.0
  0
INSERT
  5
18C74
330
18C6C
100
AcDbEntity
  8
寸法
 62
     0
 48
50.0
370
    -2
100
AcDbBlockReference
  2
_DOT
 10
7417.192158500192
 20
7769.123139034579
 30
0.0
 41
20.0
 42
20.0
 43
20.0
 50
90.0
  0
MTEXT
  5
18C75
330
18C6C
100
AcDbEntity
  8
寸法
 62
     7
 48
50.0
100
AcDbMText
 10
7325.192158500191
 20
7631.123139034575
 30
0.0
 40
120.0
 41
0.0
 71
     5
 72
     1
  1
\A1;77
  7
STYLE1
 11
0.0000000000000001
 21
1.0
 31
0.0
 73
     1
 44
1.0
1001
ACAD
1000
MTEXTBEGIN
1070
    73
1070
     1
1070
    44
1040
1.0
1070
    74
1070
     0
1000
MTEXTEND
  0
POINT
  5
18C76
330
18C6C
100
AcDbEntity
  8
DEFPOINTS
 62
     0
 48
50.0
100
AcDbPoint
 10
7180.896575106967
 20
7846.123139034578
 30
0.0
  0
POINT
  5
18C77
330
18C6C
100
AcDbEntity
  8
DEFPOINTS
 62
     0
 48
50.0
100
AcDbPoint
 10
7179.896575106965
 20
7769.123139034579
 30
0.0
  0
POINT
  5
18C78
330
18C6C
100
AcDbEntity
  8
DEFPOINTS
 62
     0
 48
50.0
100
AcDbPoint
 10
7417.192158500192
 20
7769.123139034579
 30
0.0
  0
ENDBLK
  5
18C79
330
18C6C
100
AcDbEntity
  8
0
 48
50.0
100
AcDbBlockEnd
  0
BLOCK
  5
18DA0
330
18C7A
100
AcDbEntity
  8
0
 48
50.0
100
AcDbBlockBegin
  2
A$C3B1A506B
 70
     0
 10
0.0
 20
0.0
 30
0.0
  3
A$C3B1A506B
  1

  0
MTEXT
  5
18C7B
330
18C7A
100
AcDbEntity
  8
寸法
 62
     7
 48
50.0
100
AcDbMText
 10
3342.250386887194
 20
2778.329429134012
 30
0.0
 40
96.0
 41
0.0
 71
     5
 72
     1
  1
棚 2段
  7
STYLE1
 73
     1
 44
1.0
1001
ACAD
1000
MTEXTBEGIN
1070
    73
1070
     1
1070
    44
1040
1.0
1070
    74
1070
     0
1000
MTEXTEND
  0
MTEXT
  5
18C7C
330
18C7A
100
AcDbEntity
  8
寸法
 62
     7
 48
50.0
100
AcDbMText
 10
2167.25038688716
 20
2778.329429133986
 30
0.0
 40
96.0
 41
0.0
 71
     5
 72
     1
  1
棚 2段
  7
STYLE1
 73
     1
 44
1.0
1001
ACAD
1000
MTEXTBEGIN
1070
    73
1070
     1
1070
    44
1040
1.0
1070
    74
1070
     0
1000
MTEXTEND
  0
MTEXT
  5
18C7D
330
18C7A
100
AcDbEntity
  8
寸法
 62
     7
 48
50.0
100
AcDbMText
 10
992.2503868871608
 20
2778.329429133935
 30
0.0
 40
96.0
 41
0.0
 71
     5
 72
     1
  1
棚 2段
  7
STYLE1
 73
     1
 44
1.0
1001
ACAD
1000
MTEXTBEGIN
1070
    73
1070
     1
1070
    44
1040
1.0
1070
    74
1070
     0
1000
MTEXTEND
  0
LINE
  5
18C7E
330
18C7A
100
AcDbEntity
  8
細線
 48
50.0
100
AcDbLine
 10
2771.970589276527
 20
1368.994384123192
 30
0.0
 11
3398.970589276523
 21
1368.994384123192
 31
0.0
  0
LINE
  5
18C7F
330
18C7A
100
AcDbEntity
  8
細線
 48
50.0
100
AcDbLine
 10
2117.970593930113
 20
1335.285615569113
 30
0.0
 11
3398.970589276523
 21
1335.285615569113
 31
0.0
  0
LINE
  5
18C80
330
18C7A
100
AcDbEntity
  8
細線
 48
50.0
100
AcDbLine
 10
2076.970593930115
 20
1364.690523565368
 30
0.0
 11
1322.970589276523
 21
1364.690523565367
 31
0.0
  0
LINE
  5
18C81
330
18C7A
100
AcDbEntity
  8
細線
100
AcDbLine
 10
3170.720579860066
 20
1388.494284088199
 30
0.0
 11
3173.052119381877
 21
1393.494286728162
 31
0.0
  0
LINE
  5
18C82
330
18C7A
100
AcDbEntity
  8
細線
100
AcDbLine
 10
3240.720589276525
 20
1388.494269174465
 30
0.0
 11
3238.389042800336
 21
1393.494286728144
 31
0.0
  0
LINE
  5
18C83
330
18C7A
100
AcDbEntity
  8
細線
100
AcDbLine
 10
3238.389042800336
 20
1393.494286728144
 30
0.0
 11
3173.052119381862
 21
1393.494286728133
 31
0.0
  0
LINE
  5
18C84
330
18C7A
100
AcDbEntity
  8
細線
100
AcDbLine
 10
3098.389042800336
 20
1393.494286728144
 30
0.0
 11
3033.052119381862
 21
1393.494286728133
 31
0.0
  0
LINE
  5
18C85
330
18C7A
100
AcDbEntity
  8
細線
100
AcDbLine
 10
3100.720589276523
 20
1388.494269174465
 30
0.0
 11
3098.389042800336
 21
1393.494286728144
 31
0.0
  0
LINE
  5
18C86
330
18C7A
100
AcDbEntity
  8
細線
100
AcDbLine
 10
3030.720579860066
 20
1388.494284088199
 30
0.0
 11
3033.052119381875
 21
1393.494286728162
 31
0.0
  0
LINE
  5
18C87
330
18C7A
100
AcDbEntity
  8
細線
100
AcDbLine
 10
2890.720589276525
 20
1388.494269174465
 30
0.0
 11
2893.052128798336
 21
1393.494271814428
 31
0.0
  0
LINE
  5
18C88
330
18C7A
100
AcDbEntity
  8
細線
100
AcDbLine
 10
2960.720598692984
 20
1388.494254260731
 30
0.0
 11
2958.389052216793
 21
1393.49427181441
 31
0.0
  0
LINE
  5
18C89
330
18C7A
100
AcDbEntity
  8
細線
100
AcDbLine
 10
2958.389052216795
 20
1393.49427181441
 30
0.0
 11
2893.052128798321
 21
1393.494271814399
 31
0.0
  0
LINE
  5
18C8A
330
18C7A
100
AcDbEntity
  8
細線
100
AcDbLine
 10
2667.139038146739
 20
1359.494298590735
 30
0.0
 11
2601.802114728263
 21
1359.494298590724
 31
0.0
  0
LINE
  5
18C8B
330
18C7A
100
AcDbEntity
  8
細線
100
AcDbLine
 10
2669.470584622926
 20
1354.494281037055
 30
0.0
 11
2667.139038146737
 21
1359.494298590735
 31
0.0
  0
LINE
  5
18C8C
330
18C7A
100
AcDbEntity
  8
細線
100
AcDbLine
 10
2599.470575206469
 20
1354.49429595079
 30
0.0
 11
2601.802114728278
 21
1359.494298590752
 31
0.0
  0
LINE
  5
18C8D
330
18C7A
100
AcDbEntity
  8
細線
 48
50.0
100
AcDbLine
 10
2440.853968524536
 20
1372.765132327548
 30
0.0
 11
2446.609486107205
 21
1354.494281037057
 31
0.0
  0
LINE
  5
18C8E
330
18C7A
100
AcDbEntity
  8
細線
 48
50.0
100
AcDbLine
 10
2429.925520044106
 20
1372.765132327546
 30
0.0
 11
2440.853968524536
 21
1372.765132327548
 31
0.0
  0
ARC
  5
18C8F
330
18C7A
100
AcDbEntity
  8
細線
 48
50.0
100
AcDbCircle
 10
2424.471163986787
 20
1374.265132327546
 30
0.0
 40
5.0
100
AcDbArc
 50
204.6243183520723
 51
335.3756816479278
  0
ARC
  5
18C90
330
18C7A
100
AcDbEntity
  8
細線
 48
50.0
100
AcDbCircle
 10
2429.925520044106
 20
1371.765132327546
 30
0.0
 40
1.0
100
AcDbArc
 50
90.0
 51
155.3756816479277
  0
ARC
  5
18C91
330
18C7A
100
AcDbEntity
  8
細線
 48
50.0
100
AcDbCircle
 10
2419.016807929469
 20
1371.765132327546
 30
0.0
 40
1.0
100
AcDbArc
 50
24.62431835207225
 51
90.0
  0
LINE
  5
18C92
330
18C7A
100
AcDbEntity
  8
細線
 48
50.0
100
AcDbLine
 10
2408.088359449037
 20
1372.765132327548
 30
0.0
 11
2419.016807929469
 21
1372.765132327546
 31
0.0
  0
LINE
  5
18C93
330
18C7A
100
AcDbEntity
  8
細線
 48
50.0
100
AcDbLine
 10
2402.33284186637
 20
1354.494281037054
 30
0.0
 11
2408.088359449037
 21
1372.765132327548
 31
0.0
  0
LINE
  5
18C94
330
18C7A
100
AcDbEntity
  8
細線
100
AcDbLine
 10
2458.070304175992
 20
1354.494278397076
 30
0.0
 11
2460.401843697802
 21
1359.494281037039
 31
0.0
  0
LINE
  5
18C95
330
18C7A
100
AcDbEntity
  8
細線
100
AcDbLine
 10
2528.070313592451
 20
1354.494263483342
 30
0.0
 11
2525.738767116262
 21
1359.494281037021
 31
0.0
  0
LINE
  5
18C96
330
18C7A
100
AcDbEntity
  8
細線
100
AcDbLine
 10
2525.738767116262
 20
1359.494281037021
 30
0.0
 11
2460.40184369779
 21
1359.49428103701
 31
0.0
  0
LINE
  5
18C97
330
18C7A
100
AcDbEntity
  8
細線
100
AcDbLine
 10
2387.139046332155
 20
1359.494281037021
 30
0.0
 11
2321.80212291368
 21
1359.49428103701
 31
0.0
  0
LINE
  5
18C98
330
18C7A
100
AcDbEntity
  8
細線
100
AcDbLine
 10
2389.470592808342
 20
1354.494263483342
 30
0.0
 11
2387.139046332153
 21
1359.494281037021
 31
0.0
  0
LINE
  5
18C99
330
18C7A
100
AcDbEntity
  8
細線
100
AcDbLine
 10
2319.470584622926
 20
1354.494281037054
 30
0.0
 11
2321.802122913694
 21
1359.494281037039
 31
0.0
  0
LINE
  5
18C9A
330
18C7A
100
AcDbEntity
  8
細線
100
AcDbLine
 10
2179.47061994182
 20
1354.494289224422
 30
0.0
 11
2181.802158232587
 21
1359.494289224407
 31
0.0
  0
LINE
  5
18C9B
330
18C7A
100
AcDbEntity
  8
細線
100
AcDbLine
 10
2249.470628127236
 20
1354.49427167071
 30
0.0
 11
2247.139081651047
 21
1359.494289224389
 31
0.0
  0
LINE
  5
18C9C
330
18C7A
100
AcDbEntity
  8
細線
100
AcDbLine
 10
2247.139081651047
 20
1359.494289224389
 30
0.0
 11
2181.802158232573
 21
1359.494289224378
 31
0.0
  0
LINE
  5
18C9D
330
18C7A
100
AcDbEntity
  8
細線
100
AcDbLine
 10
1807.970585744697
 20
1320.494460905133
 30
0.0
 11
1810.302124035464
 21
1325.494460905118
 31
0.0
  0
LINE
  5
18C9E
330
18C7A
100
AcDbEntity
  8
細線
100
AcDbLine
 10
1877.970593930113
 20
1320.494443351421
 30
0.0
 11
1875.639047453926
 21
1325.4944609051
 31
0.0
  0
LINE
  5
18C9F
330
18C7A
100
AcDbEntity
  8
細線
100
AcDbLine
 10
1875.639047453926
 20
1325.4944609051
 30
0.0
 11
1810.302124035452
 21
1325.494460905089
 31
0.0
  0
LINE
  5
18CA0
330
18C7A
100
AcDbEntity
  8
細線
100
AcDbLine
 10
2015.639047453926
 20
1325.4944609051
 30
0.0
 11
1950.302124035452
 21
1325.494460905089
 31
0.0
  0
LINE
  5
18CA1
330
18C7A
100
AcDbEntity
  8
細線
100
AcDbLine
 10
2017.970593930113
 20
1320.494443351421
 30
0.0
 11
2015.639047453924
 21
1325.4944609051
 31
0.0
  0
LINE
  5
18CA2
330
18C7A
100
AcDbEntity
  8
細線
100
AcDbLine
 10
1947.970585744697
 20
1320.494460905133
 30
0.0
 11
1950.302124035465
 21
1325.494460905118
 31
0.0
  0
LINE
  5
18CA3
330
18C7A
100
AcDbEntity
  8
細線
100
AcDbLine
 10
1735.639047453926
 20
1325.494460905098
 30
0.0
 11
1670.302124035454
 21
1325.494460905087
 31
0.0
  0
LINE
  5
18CA4
330
18C7A
100
AcDbEntity
  8
細線
100
AcDbLine
 10
1737.970593930113
 20
1320.494443351419
 30
0.0
 11
1735.639047453926
 21
1325.494460905098
 31
0.0
  0
LINE
  5
18CA5
330
18C7A
100
AcDbEntity
  8
細線
100
AcDbLine
 10
1667.970585744697
 20
1320.494460905131
 30
0.0
 11
1670.302124035465
 21
1325.494460905116
 31
0.0
  0
LINE
  5
18CA6
330
18C7A
100
AcDbEntity
  8
細線
100
AcDbLine
 10
1527.970593930113
 20
1320.494460905133
 30
0.0
 11
1530.302132220881
 21
1325.494460905118
 31
0.0
  0
LINE
  5
18CA7
330
18C7A
100
AcDbEntity
  8
細線
100
AcDbLine
 10
1597.970602115529
 20
1320.494443351421
 30
0.0
 11
1595.639055639342
 21
1325.4944609051
 31
0.0
  0
LINE
  5
18CA8
330
18C7A
100
AcDbEntity
  8
細線
100
AcDbLine
 10
1595.639055639342
 20
1325.4944609051
 30
0.0
 11
1530.302132220869
 21
1325.494460905089
 31
0.0
  0
ARC
  5
18CA9
330
18C7A
100
AcDbEntity
  8
部品1
 48
0.01
100
AcDbCircle
 10
1483.470482677778
 20
1319.493338720063
 30
0.0
 40
0.5
100
AcDbArc
 50
270.0
 51
0.0
  0
LINE
  5
18CAA
330
18C7A
100
AcDbEntity
  8
部品1
 48
0.01
100
AcDbLine
 10
1483.970482677778
 20
1320.493338720063
 30
0.0
 11
1483.970482677778
 21
1319.493338720063
 31
0.0
  0
LINE
  5
18CAB
330
18C7A
100
AcDbEntity
  8
部品1
 48
0.01
100
AcDbLine
 10
1483.970482677778
 20
1320.493338720063
 30
0.0
 11
1483.970482677778
 21
1319.493338720063
 31
0.0
  0
LINE
  5
18CAC
330
18C7A
100
AcDbEntity
  8
部品1
 48
0.01
100
AcDbLine
 10
1483.470482677778
 20
1318.993338720063
 30
0.0
 11
1476.857977247713
 21
1318.993338720062
 31
0.0
  0
ARC
  5
18CAD
330
18C7A
100
AcDbEntity
  8
部品1
100
AcDbCircle
 10
1476.926326800494
 20
1319.993338720062
 30
0.0
 40
1.0
100
AcDbArc
 50
160.5287793655865
 51
270.0
  0
ARC
  5
18CAE
330
18C7A
100
AcDbEntity
  8
部品1
100
AcDbCircle
 10
1451.470482677778
 20
1328.993338720062
 30
0.0
 40
26.0
100
AcDbArc
 50
340.5287793655865
 51
0.0
  0
LINE
  5
18CAF
330
18C7A
100
AcDbEntity
  8
部品1
100
AcDbLine
 10
1477.470482677778
 20
1328.993338720062
 30
0.0
 11
1477.470482677778
 21
1333.993338720061
 31
0.0
  0
ARC
  5
18CB0
330
18C7A
100
AcDbEntity
  8
部品1
 48
0.01
100
AcDbCircle
 10
1475.470482677778
 20
1333.993338720061
 30
0.0
 40
2.0
100
AcDbArc
 50
0.0
 51
90.0
  0
ARC
  5
18CB1
330
18C7A
100
AcDbEntity
  8
部品1
100
AcDbCircle
 10
1473.862091052968
 20
1332.993338720062
 30
0.0
 40
3.0
100
AcDbArc
 50
90.0
 51
141.6069559808035
  0
LINE
  5
18CB2
330
18C7A
100
AcDbEntity
  8
部品1
 48
0.01
100
AcDbLine
 10
1475.470482677778
 20
1335.993338720062
 30
0.0
 11
1473.862091052968
 21
1335.993338720062
 31
0.0
  0
ARC
  5
18CB3
330
18C7A
100
AcDbEntity
  8
部品1
100
AcDbCircle
 10
1455.399768463507
 20
1332.293338720065
 30
0.0
 40
3.0
100
AcDbArc
 50
254.0576313943215
 51
270.0
  0
ARC
  5
18CB4
330
18C7A
100
AcDbEntity
  8
部品1
100
AcDbCircle
 10
1462.541196892049
 20
1332.293338720065
 30
0.0
 40
3.0
100
AcDbArc
 50
270.0
 51
285.9423686056786
  0
LINE
  5
18CB5
330
18C7A
100
AcDbEntity
  8
部品1
100
AcDbLine
 10
1462.541196892049
 20
1329.293338720064
 30
0.0
 11
1455.399768463507
 21
1329.293338720064
 31
0.0
  0
ARC
  5
18CB6
330
18C7A
100
AcDbEntity
  8
部品1
100
AcDbCircle
 10
1458.970482677778
 20
1344.793338720065
 30
0.0
 40
16.0
100
AcDbArc
 50
285.9423686056786
 51
321.6069559808035
  0
LINE
  5
18CB7
330
18C7A
100
AcDbEntity
  8
部品1
 48
0.01
100
AcDbLine
 10
1442.470482677778
 20
1335.993338720062
 30
0.0
 11
1444.078874302588
 21
1335.993338720062
 31
0.0
  0
ARC
  5
18CB8
330
18C7A
100
AcDbEntity
  8
部品1
100
AcDbCircle
 10
1444.078874302588
 20
1332.993338720062
 30
0.0
 40
3.0
100
AcDbArc
 50
38.39304401919648
 51
90.0
  0
ARC
  5
18CB9
330
18C7A
100
AcDbEntity
  8
部品1
100
AcDbCircle
 10
1458.970482677778
 20
1344.793338720065
 30
0.0
 40
16.0
100
AcDbArc
 50
218.3930440191965
 51
254.0576313943215
  0
LINE
  5
18CBA
330
18C7A
100
AcDbEntity
  8
部品1
100
AcDbLine
 10
1440.470482677778
 20
1328.993338720062
 30
0.0
 11
1440.470482677778
 21
1333.993338720061
 31
0.0
  0
ARC
  5
18CBB
330
18C7A
100
AcDbEntity
  8
部品1
 48
0.01
100
AcDbCircle
 10
1442.470482677778
 20
1333.993338720061
 30
0.0
 40
2.0
100
AcDbArc
 50
90.0
 51
180.0
  0
ARC
  5
18CBC
330
18C7A
100
AcDbEntity
  8
部品1
100
AcDbCircle
 10
1466.470482677778
 20
1328.993338720062
 30
0.0
 40
26.0
100
AcDbArc
 50
180.0
 51
199.4712206344134
  0
ARC
  5
18CBD
330
18C7A
100
AcDbEntity
  8
部品1
 48
0.01
100
AcDbCircle
 10
1434.470482677778
 20
1319.493338720063
 30
0.0
 40
0.5
100
AcDbArc
 50
180.0
 51
270.0
  0
LINE
  5
18CBE
330
18C7A
100
AcDbEntity
  8
部品1
 48
0.01
100
AcDbLine
 10
1434.470482677778
 20
1318.993338720063
 30
0.0
 11
1441.014638555061
 21
1318.993338720062
 31
0.0
  0
LINE
  5
18CBF
330
18C7A
100
AcDbEntity
  8
部品1
 48
0.01
100
AcDbLine
 10
1433.970482677778
 20
1320.493338720063
 30
0.0
 11
1433.970482677778
 21
1319.493338720063
 31
0.0
  0
ARC
  5
18CC0
330
18C7A
100
AcDbEntity
  8
部品1
100
AcDbCircle
 10
1441.014638555061
 20
1319.993338720062
 30
0.0
 40
1.0
100
AcDbArc
 50
270.0
 51
19.47122063441346
  0
LINE
  5
18CC1
330
18C7A
100
AcDbEntity
  8
細線
100
AcDbLine
 10
1479.470482677785
 20
1338.493338720065
 30
0.0
 11
1438.470482677785
 21
1338.493338720058
 31
0.0
  0
LINE
  5
18CC2
330
18C7A
100
AcDbEntity
  8
細線
100
AcDbLine
 10
1438.470482677785
 20
1338.493338720058
 30
0.0
 11
1438.470482677785
 21
1320.49333872004
 31
0.0
  0
LINE
  5
18CC3
330
18C7A
100
AcDbEntity
  8
細線
100
AcDbLine
 10
1479.470482677785
 20
1338.493338720065
 30
0.0
 11
1479.470482677785
 21
1320.49333872004
 31
0.0
  0
LINE
  5
18CC4
330
18C7A
100
AcDbEntity
  8
細線
100
AcDbLine
 10
1322.970589276523
 20
1324.494269174465
 30
0.0
 11
1322.970589276523
 21
1320.494269174513
 31
0.0
  0
LINE
  5
18CC5
330
18C7A
100
AcDbEntity
  8
寸法
 48
50.0
100
AcDbLine
 10
1746.17359555837
 20
1170.531020743327
 30
0.0
 11
1694.767587648266
 21
1170.531020743327
 31
0.0
  0
LINE
  5
18CC6
330
18C7A
100
AcDbEntity
  8
寸法
 48
50.0
100
AcDbLine
 10
1694.767587648266
 20
1170.531020743327
 30
0.0
 11
1694.767587648266
 21
1201.841179395494
 31
0.0
  0
LINE
  5
18CC7
330
18C7A
100
AcDbEntity
  8
寸法
 48
50.0
100
AcDbLine
 10
1694.767587648266
 20
1201.841179395494
 30
0.0
 11
1665.006255656843
 21
1201.841179395494
 31
0.0
  0
LINE
  5
18CC8
330
18C7A
100
AcDbEntity
  8
寸法
 48
50.0
100
AcDbLine
 10
1665.006255656843
 20
1201.841179395494
 30
0.0
 11
1720.470591603318
 21
1239.420630324105
 31
0.0
  0
LINE
  5
18CC9
330
18C7A
100
AcDbEntity
  8
寸法
 48
50.0
100
AcDbLine
 10
1775.934927549793
 20
1201.841179395494
 30
0.0
 11
1720.470591603318
 21
1239.420630324105
 31
0.0
  0
LINE
  5
18CCA
330
18C7A
100
AcDbEntity
  8
寸法
 48
50.0
100
AcDbLine
 10
1746.17359555837
 20
1201.841179395494
 30
0.0
 11
1775.934927549793
 21
1201.841179395494
 31
0.0
  0
LINE
  5
18CCB
330
18C7A
100
AcDbEntity
  8
寸法
 48
50.0
100
AcDbLine
 10
1746.17359555837
 20
1170.531020743327
 30
0.0
 11
1746.17359555837
 21
1201.841179395494
 31
0.0
  0
LINE
  5
18CCC
330
18C7A
100
AcDbEntity
  8
寸法
 48
50.0
100
AcDbLine
 10
1694.767587648266
 20
1170.531020743327
 30
0.0
 11
1746.17359555837
 21
1170.531020743327
 31
0.0
  0
LINE
  5
18CCD
330
18C7A
100
AcDbEntity
  8
寸法
 48
50.0
100
AcDbLine
 10
2025.339129835225
 20
1227.676611498152
 30
0.0
 11
2025.339129835225
 21
1174.01297691636
 31
0.0
  0
LINE
  5
18CCE
330
18C7A
100
AcDbEntity
  8
寸法
 48
50.0
100
AcDbLine
 10
2114.623348430647
 20
1203.752977228664
 30
0.0
 11
2025.339129835225
 21
1227.676611498152
 31
0.0
  0
LINE
  5
18CCF
330
18C7A
100
AcDbEntity
  8
寸法
 48
50.0
100
AcDbLine
 10
1895.471408254923
 20
1203.752977228664
 30
0.0
 11
2114.623348430647
 21
1203.752977228664
 31
0.0
  0
DIMENSION
  5
18CD0
330
18C7A
100
AcDbEntity
  8
寸法
 48
50.0
100
AcDbDimension
  2
*D15
 10
2588.970589276523
 20
706.3240511224249
 30
0.0
 11
1969.060022905491
 21
706.3240511224249
 31
0.0
 12
-3742.925985830444
 22
-6453.628869860112
 32
0.0
 70
   128
  1
有効開口部間口\P<>
 71
     5
 42
1266.0
  3
INABA_S40G
100
AcDbAlignedDimension
 13
1322.970589276523
 23
1315.494269174465
 33
0.0
 14
2588.970589276523
 24
1315.494269174465
 34
0.0
100
AcDbRotatedDimension
1001
ACAD
1000
DSTYLE
1002
{
1070
   341
1005
0
1002
}
  0
LINE
  5
18CD1
330
18C7A
100
AcDbEntity
  8
部品1
100
AcDbLine
 10
3409.970589276524
 20
1392.494269174465
 30
0.0
 11
3437.970589276523
 21
1392.494269174465
 31
0.0
  0
DIMENSION
  5
18CD2
330
18C7A
100
AcDbEntity
  8
寸法
100
AcDbDimension
  2
*D16
 10
3674.266172669749
 20
1315.494269174465
 30
0.0
 11
3674.266172669748
 21
1177.494269174462
 31
0.0
 12
-3742.925985830444
 22
-6453.628869860112
 32
0.0
 70
   128
 71
     5
 42
77.0
  3
INABA_S40
100
AcDbAlignedDimension
 13
3437.970589276523
 23
1392.494269174465
 33
0.0
 14
3436.970589276523
 24
1315.494269174465
 34
0.0
 50
90.0
100
AcDbRotatedDimension
1001
ACAD
1000
DSTYLE
1002
{
1070
    41
1040
0.5
1070
    44
1040
1.0
1070
   147
1040
0.8
1070
   271
1070
     2
1070
   272
1070
     2
1070
   289
1070
     3
1070
   340
1005
F706
1070
   343
1005
164B4
1070
   344
1005
164B4
1002
}
  0
LINE
  5
18CD3
330
18C7A
100
AcDbEntity
  8
部品1
100
AcDbLine
 10
3437.970589276523
 20
1315.494269174465
 30
0.0
 11
3437.970589276523
 21
1392.494269174465
 31
0.0
  0
LINE
  5
18CD4
330
18C7A
100
AcDbEntity
  8
部品1
100
AcDbLine
 10
3398.970589276523
 20
1388.494269174465
 30
0.0
 11
3409.970589276524
 21
1388.494269174465
 31
0.0
  0
LINE
  5
18CD5
330
18C7A
100
AcDbEntity
  8
部品1
100
AcDbLine
 10
3407.970589276523
 20
1324.494269174465
 30
0.0
 11
3407.970589276523
 21
1315.494269174465
 31
0.0
  0
LINE
  5
18CD6
330
18C7A
100
AcDbEntity
  8
部品1
100
AcDbLine
 10
3398.970589276523
 20
1324.494269174465
 30
0.0
 11
3407.970589276523
 21
1324.494269174465
 31
0.0
  0
LINE
  5
18CD7
330
18C7A
100
AcDbEntity
  8
部品1
100
AcDbLine
 10
3398.970589276523
 20
1388.494269174465
 30
0.0
 11
3398.970589276523
 21
1324.494269174465
 31
0.0
  0
LINE
  5
18CD8
330
18C7A
100
AcDbEntity
  8
部品1
100
AcDbLine
 10
3409.970589276524
 20
1419.494269174465
 30
0.0
 11
3409.970589276524
 21
1388.494269174465
 31
0.0
  0
LINE
  5
18CD9
330
18C7A
100
AcDbEntity
  8
部品1
100
AcDbLine
 10
1322.970589276523
 20
1388.494269174465
 30
0.0
 11
1311.970589276523
 21
1388.494269174465
 31
0.0
  0
LINE
  5
18CDA
330
18C7A
100
AcDbEntity
  8
部品1
100
AcDbLine
 10
1283.970589276523
 20
1392.494269174465
 30
0.0
 11
1311.970589276523
 21
1392.494269174465
 31
0.0
  0
LINE
  5
18CDB
330
18C7A
100
AcDbEntity
  8
部品1
100
AcDbLine
 10
1313.970589276523
 20
1324.494269174465
 30
0.0
 11
1313.970589276523
 21
1315.494269174465
 31
0.0
  0
LINE
  5
18CDC
330
18C7A
100
AcDbEntity
  8
部品1
100
AcDbLine
 10
1322.970589276523
 20
1324.494269174465
 30
0.0
 11
1313.970589276523
 21
1324.494269174465
 31
0.0
  0
LINE
  5
18CDD
330
18C7A
100
AcDbEntity
  8
部品1
100
AcDbLine
 10
1313.970589276523
 20
1315.494269174465
 30
0.0
 11
1283.970589276523
 21
1315.494269174465
 31
0.0
  0
LINE
  5
18CDE
330
18C7A
100
AcDbEntity
  8
部品1
100
AcDbLine
 10
1283.970589276523
 20
1315.494269174465
 30
0.0
 11
1283.970589276523
 21
1392.494269174465
 31
0.0
  0
LINE
  5
18CDF
330
18C7A
100
AcDbEntity
  8
部品1
100
AcDbLine
 10
1322.970589276523
 20
1388.494269174465
 30
0.0
 11
1322.970589276523
 21
1324.494269174465
 31
0.0
  0
LINE
  5
18CE0
330
18C7A
100
AcDbEntity
  8
部品1
100
AcDbLine
 10
1311.970589276523
 20
1419.494269174462
 30
0.0
 11
1311.970589276523
 21
1388.494269174465
 31
0.0
  0
LINE
  5
18CE1
330
18C7A
100
AcDbEntity
  8
部品1
100
AcDbLine
 10
1311.970589276523
 20
1419.494269174462
 30
0.0
 11
3409.970589276524
 21
1419.494269174465
 31
0.0
  0
LINE
  5
18CE2
330
18C7A
100
AcDbEntity
  8
部品1
100
AcDbLine
 10
3407.970589276523
 20
1315.494269174465
 30
0.0
 11
3437.970589276523
 21
1315.494269174465
 31
0.0
  0
LINE
  5
18CE3
330
18C7A
100
AcDbEntity
  8
部品1
100
AcDbLine
 10
1313.970589276523
 20
1315.494269174465
 30
0.0
 11
3410.970589276523
 21
1315.494269174465
 31
0.0
  0
LINE
  5
18CE4
330
18C7A
100
AcDbEntity
  8
細線
  6
Continuous
 62
     5
100
AcDbLine
 10
2689.970589276527
 20
1354.494269174462
 30
0.0
 11
2689.970589276527
 21
1354.494269174462
 31
0.0
  0
LINE
  5
18CE5
330
18C7A
100
AcDbEntity
  8
細線
  6
Continuous
 62
     5
100
AcDbLine
 10
2682.470589276527
 20
1354.494269174462
 30
0.0
 11
2682.470589276527
 21
1354.494269174462
 31
0.0
  0
LINE
  5
18CE6
330
18C7A
100
AcDbEntity
  8
細線
  6
Continuous
 62
     5
100
AcDbLine
 10
2676.470589276527
 20
1354.494269174462
 30
0.0
 11
2676.470589276527
 21
1354.494269174462
 31
0.0
  0
LINE
  5
18CE7
330
18C7A
100
AcDbEntity
  8
細線
  6
Continuous
 62
     5
100
AcDbLine
 10
2743.970589276527
 20
1373.494269174462
 30
0.0
 11
2743.970589276527
 21
1373.494269174462
 31
0.0
  0
LINE
  5
18CE8
330
18C7A
100
AcDbEntity
  8
細線
 48
50.0
100
AcDbLine
 10
1336.970593930116
 20
1341.094443351418
 30
0.0
 11
1336.970593930113
 21
1349.490593759059
 31
0.0
  0
LINE
  5
18CE9
330
18C7A
100
AcDbEntity
  8
細線
 48
50.0
100
AcDbLine
 10
1336.970593930113
 20
1349.490593759059
 30
0.0
 11
1322.970589276523
 21
1349.490593759057
 31
0.0
  0
LINE
  5
18CEA
330
18C7A
100
AcDbEntity
  8
細線
 48
50.0
100
AcDbLine
 10
2087.970593930113
 20
1337.644443351419
 30
0.0
 11
2087.970593930113
 21
1342.494443351421
 31
0.0
  0
LINE
  5
18CEB
330
18C7A
100
AcDbEntity
  8
細線
 48
50.0
100
AcDbLine
 10
2087.970593930113
 20
1342.494443351421
 30
0.0
 11
2102.970593930113
 21
1342.494443351421
 31
0.0
  0
LINE
  5
18CEC
330
18C7A
100
AcDbEntity
  8
細線
 48
50.0
100
AcDbLine
 10
2102.970593930113
 20
1342.494443351421
 30
0.0
 11
2102.970593930115
 21
1349.494443351419
 31
0.0
  0
LINE
  5
18CED
330
18C7A
100
AcDbEntity
  8
細線
 48
50.0
100
AcDbLine
 10
2102.970593930115
 20
1349.494443351419
 30
0.0
 11
2117.970593930113
 21
1349.494443351419
 31
0.0
  0
LINE
  5
18CEE
330
18C7A
100
AcDbEntity
  8
細線
 48
50.0
100
AcDbLine
 10
2117.970593930113
 20
1349.494443351419
 30
0.0
 11
2117.970593930113
 21
1320.494443351421
 31
0.0
  0
LINE
  5
18CEF
330
18C7A
100
AcDbEntity
  8
細線
 48
50.0
100
AcDbLine
 10
1313.970589276523
 20
1320.491777694889
 30
0.0
 11
1527.970593930113
 21
1320.494460905133
 31
0.0
  0
LINE
  5
18CF0
330
18C7A
100
AcDbEntity
  8
細線
 48
50.0
100
AcDbLine
 10
2017.970593930113
 20
1320.494443351421
 30
0.0
 11
2117.970593930113
 21
1320.494443351421
 31
0.0
  0
LINE
  5
18CF1
330
18C7A
100
AcDbEntity
  8
細線
 48
50.0
100
AcDbLine
 10
1737.970593930113
 20
1320.494443351419
 30
0.0
 11
1807.970593930113
 21
1320.494443351423
 31
0.0
  0
LINE
  5
18CF2
330
18C7A
100
AcDbEntity
  8
細線
 48
50.0
100
AcDbLine
 10
1750.832558942642
 20
1320.494443351419
 30
0.0
 11
1756.588076525309
 21
1338.765294641913
 31
0.0
  0
LINE
  5
18CF3
330
18C7A
100
AcDbEntity
  8
細線
 48
50.0
100
AcDbLine
 10
1756.588076525309
 20
1338.765294641913
 30
0.0
 11
1767.516525005743
 21
1338.765294641911
 31
0.0
  0
ARC
  5
18CF4
330
18C7A
100
AcDbEntity
  8
細線
 48
50.0
100
AcDbCircle
 10
1767.516525005743
 20
1337.765294641911
 30
0.0
 40
1.0
100
AcDbArc
 50
24.62431835207225
 51
90.0
  0
ARC
  5
18CF5
330
18C7A
100
AcDbEntity
  8
細線
 48
50.0
100
AcDbCircle
 10
1778.425237120377
 20
1337.765294641911
 30
0.0
 40
1.0
100
AcDbArc
 50
90.0
 51
155.3756816479277
  0
ARC
  5
18CF6
330
18C7A
100
AcDbEntity
  8
細線
 48
50.0
100
AcDbCircle
 10
1772.970881063058
 20
1340.265294641911
 30
0.0
 40
5.0
100
AcDbArc
 50
204.6243183520723
 51
335.3756816479278
  0
LINE
  5
18CF7
330
18C7A
100
AcDbEntity
  8
細線
 48
50.0
100
AcDbLine
 10
1778.425237120377
 20
1338.765294641911
 30
0.0
 11
1789.35368560081
 21
1338.765294641913
 31
0.0
  0
LINE
  5
18CF8
330
18C7A
100
AcDbEntity
  8
細線
 48
50.0
100
AcDbLine
 10
1789.35368560081
 20
1338.765294641913
 30
0.0
 11
1795.109203183478
 21
1320.494443351423
 31
0.0
  0
LINE
  5
18CF9
330
18C7A
100
AcDbEntity
  8
細線
 48
50.0
100
AcDbLine
 10
2087.970593930113
 20
1341.094443351419
 30
0.0
 11
1336.970593930116
 21
1341.094443351418
 31
0.0
  0
LINE
  5
18CFA
330
18C7A
100
AcDbEntity
  8
細線
 48
50.0
100
AcDbLine
 10
1947.970593930113
 20
1320.494443351421
 30
0.0
 11
1877.970593930113
 21
1320.494443351421
 31
0.0
  0
LINE
  5
18CFB
330
18C7A
100
AcDbEntity
  8
細線
100
AcDbLine
 10
1667.970593930113
 20
1320.494443351421
 30
0.0
 11
1597.970602115529
 21
1320.494443351421
 31
0.0
  0
LINE
  5
18CFC
330
18C7A
100
AcDbEntity
  8
細線
 48
50.0
100
AcDbLine
 10
2741.970584622936
 20
1375.094487209288
 30
0.0
 11
2106.970593930113
 21
1375.094487209284
 31
0.0
  0
LINE
  5
18CFD
330
18C7A
100
AcDbEntity
  8
細線
 48
50.0
100
AcDbLine
 10
2106.970593930113
 20
1371.990637616925
 30
0.0
 11
2106.970593930113
 21
1376.490637616925
 31
0.0
  0
LINE
  5
18CFE
330
18C7A
100
AcDbEntity
  8
細線
 48
50.0
100
AcDbLine
 10
2106.970593930113
 20
1376.490637616925
 30
0.0
 11
2091.970593930113
 21
1376.490637616925
 31
0.0
  0
LINE
  5
18CFF
330
18C7A
100
AcDbEntity
  8
細線
 48
50.0
100
AcDbLine
 10
2091.970593930113
 20
1376.490637616925
 30
0.0
 11
2091.970593930113
 21
1383.490637616927
 31
0.0
  0
LINE
  5
18D00
330
18C7A
100
AcDbEntity
  8
細線
 48
50.0
100
AcDbLine
 10
2091.970593930113
 20
1383.490637616927
 30
0.0
 11
2076.970593930115
 21
1383.490637616924
 31
0.0
  0
LINE
  5
18D01
330
18C7A
100
AcDbEntity
  8
細線
 48
50.0
100
AcDbLine
 10
2076.970593930115
 20
1383.490637616924
 30
0.0
 11
2076.970593930115
 21
1345.890409513813
 31
0.0
  0
LINE
  5
18D02
330
18C7A
100
AcDbEntity
  8
細線
 48
50.0
100
AcDbLine
 10
2076.970593930115
 20
1345.890409513813
 30
0.0
 11
2096.970601231289
 21
1345.890451063353
 31
0.0
  0
LINE
  5
18D03
330
18C7A
100
AcDbEntity
  8
細線
 48
50.0
100
AcDbLine
 10
2096.970556362348
 20
1354.493912699161
 30
0.0
 11
2096.970601231289
 21
1345.890451063353
 31
0.0
  0
LINE
  5
18D04
330
18C7A
100
AcDbEntity
  8
細線
 48
50.0
100
AcDbLine
 10
2741.970584622936
 20
1371.644487209287
 30
0.0
 11
2741.970584622936
 21
1376.494487209284
 31
0.0
  0
LINE
  5
18D05
330
18C7A
100
AcDbEntity
  8
細線
 48
50.0
100
AcDbLine
 10
2741.970584622936
 20
1376.494487209284
 30
0.0
 11
2756.970584622934
 21
1376.494487209285
 31
0.0
  0
LINE
  5
18D06
330
18C7A
100
AcDbEntity
  8
細線
 48
50.0
100
AcDbLine
 10
2756.970584622934
 20
1376.494487209285
 30
0.0
 11
2756.970596256909
 21
1383.494487209331
 31
0.0
  0
LINE
  5
18D07
330
18C7A
100
AcDbEntity
  8
細線
 48
50.0
100
AcDbLine
 10
2756.970596256909
 20
1383.494487209331
 30
0.0
 11
2771.970594427439
 21
1383.494487209329
 31
0.0
  0
LINE
  5
18D08
330
18C7A
100
AcDbEntity
  8
細線
 48
50.0
100
AcDbLine
 10
2771.970594427439
 20
1383.494487209329
 30
0.0
 11
2771.970584125617
 21
1354.494281037055
 31
0.0
  0
LINE
  5
18D09
330
18C7A
100
AcDbEntity
  8
細線
 48
50.0
100
AcDbLine
 10
2458.070304175992
 20
1354.494278397076
 30
0.0
 11
2389.470863838818
 21
1354.494283787084
 31
0.0
  0
LINE
  5
18D0A
330
18C7A
100
AcDbEntity
  8
細線
 48
50.0
100
AcDbLine
 10
2096.970556362348
 20
1354.493912699161
 30
0.0
 11
2108.203245717057
 21
1354.494095652309
 31
0.0
  0
ARC
  5
18D0B
330
18C7A
100
AcDbEntity
  8
細線
 48
50.0
100
AcDbCircle
 10
2114.785538024393
 20
1353.294259565922
 30
0.0
 40
1.8
100
AcDbArc
 50
270.0006665777295
 51
345.000555481349
  0
LINE
  5
18D0C
330
18C7A
100
AcDbEntity
  8
細線
 48
50.0
100
AcDbLine
 10
2116.771971470473
 20
1353.753100023201
 30
0.0
 11
2116.524209028273
 21
1352.828402141094
 31
0.0
  0
LINE
  5
18D0D
330
18C7A
100
AcDbEntity
  8
細線
 48
50.0
100
AcDbLine
 10
2114.785558965548
 20
1351.494259566043
 30
0.0
 11
2111.155631546781
 21
1351.494217335563
 31
0.0
  0
ARC
  5
18D0E
330
18C7A
100
AcDbEntity
  8
細線
 48
50.0
100
AcDbCircle
 10
2111.155610605627
 20
1353.29421733544
 30
0.0
 40
1.8
100
AcDbArc
 50
195.0010443049965
 51
270.0006665777295
  0
LINE
  5
18D0F
330
18C7A
100
AcDbEntity
  8
細線
 48
50.0
100
AcDbLine
 10
2109.169183113368
 20
1353.752932303007
 30
0.0
 11
2109.416952609882
 21
1352.828311364425
 31
0.0
  0
ARC
  5
18D10
330
18C7A
100
AcDbEntity
  8
細線
 48
50.0
100
AcDbCircle
 10
2108.203262004622
 20
1353.494095652444
 30
0.0
 40
1.0
100
AcDbArc
 50
15.00104430499651
 51
90.00093320877969
  0
LINE
  5
18D11
330
18C7A
100
AcDbEntity
  8
細線
 48
50.0
100
AcDbLine
 10
2117.737892825577
 20
1354.494290342714
 30
0.0
 11
2118.679652976481
 21
1354.494296916564
 31
0.0
  0
ARC
  5
18D12
330
18C7A
100
AcDbEntity
  8
細線
 48
50.0
100
AcDbCircle
 10
2117.737899805961
 20
1353.49429034274
 30
0.0
 40
1.0
100
AcDbArc
 50
90.0003999466794
 51
165.000555481349
  0
LINE
  5
18D13
330
18C7A
100
AcDbEntity
  8
細線
 48
50.0
100
AcDbLine
 10
2669.470584622926
 20
1354.494281037055
 30
0.0
 11
2771.970584125617
 21
1354.494281037055
 31
0.0
  0
LINE
  5
18D14
330
18C7A
100
AcDbEntity
  8
細線
 48
50.0
100
AcDbLine
 10
2179.47061994182
 20
1354.494289224422
 30
0.0
 11
2118.370558714898
 21
1354.494296916564
 31
0.0
  0
LINE
  5
18D15
330
18C7A
100
AcDbEntity
  8
細線
 48
50.0
100
AcDbLine
 10
2599.470584622926
 20
1354.494281037057
 30
0.0
 11
2529.470584622926
 21
1354.494281037055
 31
0.0
  0
LINE
  5
18D16
330
18C7A
100
AcDbEntity
  8
細線
 48
50.0
100
AcDbLine
 10
2319.470584622926
 20
1354.494281037054
 30
0.0
 11
2249.470567335051
 21
1354.494281037057
 31
0.0
  0
ARC
  5
18D17
330
18C7A
100
AcDbEntity
  8
細線
 48
50.0
100
AcDbCircle
 10
2756.170589276533
 20
1387.694269174466
 30
0.0
 40
0.8
100
AcDbArc
 50
359.9997333689499
 51
89.99986668437072
  0
ARC
  5
18D18
330
18C7A
100
AcDbEntity
  8
細線
 48
50.0
100
AcDbCircle
 10
2763.770596101631
 20
1387.694280343081
 30
0.0
 40
0.8
100
AcDbArc
 50
90.00014387753465
 51
179.9997333689498
  0
LINE
  5
18D19
330
18C7A
100
AcDbEntity
  8
細線
 48
50.0
100
AcDbLine
 10
2756.170591137969
 20
1388.494269174465
 30
0.0
 11
2750.970589276525
 21
1388.494269174465
 31
0.0
  0
ARC
  5
18D1A
330
18C7A
100
AcDbEntity
  8
細線
 48
50.0
100
AcDbCircle
 10
2757.670589276524
 20
1386.194269174464
 30
0.0
 40
0.7
100
AcDbArc
 50
180.0
 51
270.0
  0
ARC
  5
18D1B
330
18C7A
100
AcDbEntity
  8
細線
 48
50.0
100
AcDbCircle
 10
2762.270589276524
 20
1386.194269174464
 30
0.0
 40
0.7
100
AcDbArc
 50
270.0
 51
0.0
  0
LINE
  5
18D1C
330
18C7A
100
AcDbEntity
  8
細線
 48
50.0
100
AcDbLine
 10
2762.970589276525
 20
1386.194269174464
 30
0.0
 11
2762.970596101639
 21
1387.694284065954
 31
0.0
  0
LINE
  5
18D1D
330
18C7A
100
AcDbEntity
  8
細線
 48
50.0
100
AcDbLine
 10
2757.670589276524
 20
1385.494269174465
 30
0.0
 11
2762.270589276524
 21
1385.494269174465
 31
0.0
  0
LINE
  5
18D1E
330
18C7A
100
AcDbEntity
  8
細線
 48
50.0
100
AcDbLine
 10
2756.970589276525
 20
1387.694269174466
 30
0.0
 11
2756.970589276525
 21
1386.194269174464
 31
0.0
  0
LINE
  5
18D1F
330
18C7A
100
AcDbEntity
  8
細線
 48
50.0
100
AcDbLine
 10
3382.570589276527
 20
1418.494269174465
 30
0.0
 11
2745.970589276525
 21
1418.494269174463
 31
0.0
  0
LINE
  5
18D20
330
18C7A
100
AcDbEntity
  8
細線
 48
50.0
100
AcDbLine
 10
3408.470589276525
 20
1413.494269174467
 30
0.0
 11
3392.570589276527
 21
1413.494269174465
 31
0.0
  0
LINE
  5
18D21
330
18C7A
100
AcDbEntity
  8
細線
 48
50.0
100
AcDbLine
 10
3392.570589276526
 20
1413.494269174465
 30
0.0
 11
3382.570589276527
 21
1418.494269174465
 31
0.0
  0
LINE
  5
18D22
330
18C7A
100
AcDbEntity
  8
細線
100
AcDbLine
 10
2993.470589276525
 20
1388.494269174465
 30
0.0
 11
2993.470589276525
 21
1417.794269174464
 31
0.0
  0
LINE
  5
18D23
330
18C7A
100
AcDbEntity
  8
細線
100
AcDbLine
 10
2993.470589276525
 20
1417.794269174464
 30
0.0
 11
3013.470589276525
 21
1417.794269174464
 31
0.0
  0
LINE
  5
18D24
330
18C7A
100
AcDbEntity
  8
細線
100
AcDbLine
 10
3013.470589276525
 20
1388.494269174465
 30
0.0
 11
3013.470589276525
 21
1417.794269174464
 31
0.0
  0
LINE
  5
18D25
330
18C7A
100
AcDbEntity
  8
細線
100
AcDbLine
 10
3170.720589276524
 20
1388.494269174465
 30
0.0
 11
3100.720589276523
 21
1388.494269174465
 31
0.0
  0
LINE
  5
18D26
330
18C7A
100
AcDbEntity
  8
細線
 48
50.0
100
AcDbLine
 10
2890.720589276525
 20
1388.494269174465
 30
0.0
 11
2763.766368849365
 21
1388.494269174465
 31
0.0
  0
LINE
  5
18D27
330
18C7A
100
AcDbEntity
  8
細線
100
AcDbLine
 10
3030.720589276525
 20
1388.494269174465
 30
0.0
 11
2960.720589276525
 21
1388.494269174465
 31
0.0
  0
LINE
  5
18D28
330
18C7A
100
AcDbEntity
  8
細線
 48
50.0
100
AcDbLine
 10
2750.970589276525
 20
1380.494269174465
 30
0.0
 11
2750.970589276525
 21
1388.494269174465
 31
0.0
  0
LINE
  5
18D29
330
18C7A
100
AcDbEntity
  8
細線
 48
50.0
100
AcDbLine
 10
2730.970589276524
 20
1380.494269174467
 30
0.0
 11
2750.970589276525
 21
1380.494269174465
 31
0.0
  0
LINE
  5
18D2A
330
18C7A
100
AcDbEntity
  8
細線
 48
50.0
100
AcDbLine
 10
2745.970589276525
 20
1418.494269174465
 30
0.0
 11
2745.970589276525
 21
1413.494269174465
 31
0.0
  0
LINE
  5
18D2B
330
18C7A
100
AcDbEntity
  8
細線
 48
50.0
100
AcDbLine
 10
2730.970589276525
 20
1418.494269174463
 30
0.0
 11
2745.970589276525
 21
1418.494269174465
 31
0.0
  0
LINE
  5
18D2C
330
18C7A
100
AcDbEntity
  8
細線
 48
50.0
100
AcDbLine
 10
2730.970589276524
 20
1380.494269174467
 30
0.0
 11
2730.970589276525
 21
1418.494269174463
 31
0.0
  0
LINE
  5
18D2D
330
18C7A
100
AcDbEntity
  8
細線
100
AcDbLine
 10
3398.970589276523
 20
1388.494269174465
 30
0.0
 11
3240.720589276525
 21
1388.494269174465
 31
0.0
  0
LINE
  5
18D2E
330
18C7A
100
AcDbEntity
  8
細線
 48
50.0
100
AcDbLine
 10
3408.470589276525
 20
1413.494269174467
 30
0.0
 11
3408.470589276524
 21
1388.494269174465
 31
0.0
  0
TEXT
  5
18D2F
330
18C7A
100
AcDbEntity
  8
部品1
100
AcDbText
 10
1860.154865991392
 20
46.99880823813145
 30
0.0
 40
135.0
  1
平面図
  7
STYLE2
100
AcDbText
  0
LWPOLYLINE
  5
18D30
330
18C7A
100
AcDbEntity
  8
部品1
100
AcDbPolyline
 90
        4
 70
     1
 43
0.0
 10
1770.23525616235
 20
239.8923374566548
 10
1770.23525616235
 20
0.0000159111223184
 10
2533.705922390791
 20
0.0000159111223184
 10
2533.705922390791
 20
239.8923374566548
  0
LINE
  5
18D31
330
18C7A
100
AcDbEntity
  8
部品1
100
AcDbLine
 10
1534.470589276487
 20
3154.494269174626
 30
0.0
 11
2769.470589276552
 21
3154.494269174626
 31
0.0
  0
LINE
  5
18D32
330
18C7A
100
AcDbEntity
  8
部品1
 48
50.0
100
AcDbLine
 10
1311.970589276523
 20
1420.494269174462
 30
0.0
 11
3411.970589276523
 21
1420.494269174465
 31
0.0
  0
LINE
  5
18D33
330
18C7A
100
AcDbEntity
  8
部品1
 48
50.0
100
AcDbLine
 10
471.9705892765232
 20
1392.494269174465
 30
0.0
 11
1311.970589276523
 21
1392.494269174465
 31
0.0
  0
DIMENSION
  5
18D34
330
18C7A
100
AcDbEntity
  8
寸法
100
AcDbDimension
  2
*D14
 10
2710.234916278077
 20
2488.887829538828
 30
0.0
 11
2338.318822490183
 21
2488.887829538828
 31
0.0
 12
-3742.925985830444
 22
-6453.628869860112
 32
0.0
 70
   128
 71
     5
 42
1231.00000000007
  3
INABA_S40G
100
AcDbAlignedDimension
 13
1536.470589276486
 23
2702.494269174557
 33
0.0
 14
2767.470589276556
 24
2702.494269174549
 34
0.0
100
AcDbRotatedDimension
1001
ACAD
1000
DSTYLE
1002
{
1002
}
  0
LINE
  5
18D35
330
18C7A
100
AcDbEntity
  8
部品1
100
AcDbLine
 10
1536.470589276487
 20
2702.494269174557
 30
0.0
 11
2767.470589276554
 21
2702.494269174615
 31
0.0
  0
LINE
  5
18D36
330
18C7A
100
AcDbEntity
  8
部品1
100
AcDbLine
 10
1536.470589276487
 20
3152.494269174557
 30
0.0
 11
2767.470589276556
 21
3152.494269174615
 31
0.0
  0
LINE
  5
18D37
330
18C7A
100
AcDbEntity
  8
細線
 48
50.0
100
AcDbLine
 10
1508.470589276487
 20
3152.494269174558
 30
0.0
 11
445.4705892765559
 21
2702.494269174509
 31
0.0
  0
LINE
  5
18D38
330
18C7A
100
AcDbEntity
  8
細線
 48
50.0
100
AcDbLine
 10
1508.470589276487
 20
2702.494269174558
 30
0.0
 11
445.4705892765542
 21
3152.494269174509
 31
0.0
  0
LINE
  5
18D39
330
18C7A
100
AcDbEntity
  8
部品1
100
AcDbLine
 10
1556.970589276487
 20
3172.494269174611
 30
0.0
 11
1556.970589276487
 21
3154.494269174611
 31
0.0
  0
LINE
  5
18D3A
330
18C7A
100
AcDbEntity
  8
部品1
100
AcDbLine
 10
1556.970589276487
 20
3172.494269174611
 30
0.0
 11
1550.970589276487
 21
3172.494269174611
 31
0.0
  0
LINE
  5
18D3B
330
18C7A
100
AcDbEntity
  8
部品1
100
AcDbLine
 10
1534.470589276487
 20
3146.494269174608
 30
0.0
 11
1509.470589276487
 21
3146.494269174611
 31
0.0
  0
LINE
  5
18D3C
330
18C7A
100
AcDbEntity
  8
部品1
100
AcDbLine
 10
1486.970589276487
 20
3172.494269174611
 30
0.0
 11
1486.970589276487
 21
3154.494269174611
 31
0.0
  0
LINE
  5
18D3D
330
18C7A
100
AcDbEntity
  8
部品1
100
AcDbLine
 10
1492.970589276487
 20
3172.494269174611
 30
0.0
 11
1486.970589276487
 21
3172.494269174611
 31
0.0
  0
LINE
  5
18D3E
330
18C7A
100
AcDbEntity
  8
部品1
100
AcDbLine
 10
1534.470589276487
 20
2702.494269174615
 30
0.0
 11
1509.470589276487
 21
2702.494269174615
 31
0.0
  0
LINE
  5
18D3F
330
18C7A
100
AcDbEntity
  8
部品1
 48
50.0
100
AcDbLine
 10
1536.470589276487
 20
3152.494269174611
 30
0.0
 11
1536.470589276487
 21
2702.494269174615
 31
0.0
  0
LINE
  5
18D40
330
18C7A
100
AcDbEntity
  8
部品1
 48
50.0
100
AcDbLine
 10
1508.470589276487
 20
3152.494269174607
 30
0.0
 11
1508.470589276487
 21
2702.494269174615
 31
0.0
  0
LINE
  5
18D41
330
18C7A
100
AcDbEntity
  8
部品1
 48
50.0
100
AcDbLine
 10
1534.470589276487
 20
3154.494269174618
 30
0.0
 11
1534.470589276487
 21
2702.494269174615
 31
0.0
  0
LINE
  5
18D42
330
18C7A
100
AcDbEntity
  8
部品1
 48
50.0
100
AcDbLine
 10
1509.470589276487
 20
3154.494269174615
 30
0.0
 11
1509.470589276487
 21
2702.494269174615
 31
0.0
  0
LINE
  5
18D43
330
18C7A
100
AcDbEntity
  8
部品1
100
AcDbLine
 10
3411.970589276556
 20
1392.494269174582
 30
0.0
 11
3411.970589276556
 21
1420.494269174596
 31
0.0
  0
LINE
  5
18D44
330
18C7A
100
AcDbEntity
  8
部品1
100
AcDbLine
 10
1311.970589276523
 20
1392.494269174596
 30
0.0
 11
1311.970589276523
 21
1420.494269174596
 31
0.0
  0
LINE
  5
18D45
330
18C7A
100
AcDbEntity
  8
部品1
100
AcDbLine
 10
891.9705892765232
 20
1392.494269174596
 30
0.0
 11
891.9705892765232
 21
1420.494269174596
 31
0.0
  0
LINE
  5
18D46
330
18C7A
100
AcDbEntity
  8
部品1
100
AcDbLine
 10
3411.97058927652
 20
3182.494269174477
 30
0.0
 11
3411.970589276523
 21
3154.494269174477
 31
0.0
  0
LINE
  5
18D47
330
18C7A
100
AcDbEntity
  8
部品1
100
AcDbLine
 10
2571.97058927652
 20
3182.494269174477
 30
0.0
 11
2571.970589276523
 21
3154.494269174477
 31
0.0
  0
LINE
  5
18D48
330
18C7A
100
AcDbEntity
  8
部品1
100
AcDbLine
 10
2991.97058927652
 20
3182.494269174477
 30
0.0
 11
2991.970589276523
 21
3154.494269174477
 31
0.0
  0
LINE
  5
18D49
330
18C7A
100
AcDbEntity
  8
部品1
100
AcDbLine
 10
2151.970589276519
 20
3182.494269174477
 30
0.0
 11
2151.970589276523
 21
3154.494269174477
 31
0.0
  0
LINE
  5
18D4A
330
18C7A
100
AcDbEntity
  8
部品1
100
AcDbLine
 10
1731.970589276519
 20
3182.494269174477
 30
0.0
 11
1731.970589276523
 21
3154.494269174477
 31
0.0
  0
LINE
  5
18D4B
330
18C7A
100
AcDbEntity
  8
部品1
100
AcDbLine
 10
1311.970589276519
 20
3182.494269174477
 30
0.0
 11
1311.970589276523
 21
3154.494269174477
 31
0.0
  0
LINE
  5
18D4C
330
18C7A
100
AcDbEntity
  8
部品1
100
AcDbLine
 10
891.9705892765195
 20
3182.494269174477
 30
0.0
 11
891.9705892765232
 21
3154.494269174477
 31
0.0
  0
LINE
  5
18D4D
330
18C7A
100
AcDbEntity
  8
部品1
100
AcDbLine
 10
471.9705892765232
 20
1392.494269174596
 30
0.0
 11
471.9705892765232
 21
1420.494269174596
 31
0.0
  0
LINE
  5
18D4E
330
18C7A
100
AcDbEntity
  8
部品1
100
AcDbLine
 10
444.9705892765305
 20
1420.494269174558
 30
0.0
 11
3858.970589276556
 21
1420.494269174596
 31
0.0
  0
LINE
  5
18D4F
330
18C7A
100
AcDbEntity
  8
部品1
100
AcDbLine
 10
3831.970589276556
 20
1392.494269174596
 30
0.0
 11
3831.970589276556
 21
1420.494269174596
 31
0.0
  0
LINE
  5
18D50
330
18C7A
100
AcDbEntity
  8
部品1
100
AcDbLine
 10
3858.970589276556
 20
1447.494269174593
 30
0.0
 11
3886.970589276556
 21
1447.494269174593
 31
0.0
  0
LINE
  5
18D51
330
18C7A
100
AcDbEntity
  8
部品1
100
AcDbLine
 10
3858.970589276556
 20
1867.494269174607
 30
0.0
 11
3886.970589276556
 21
1867.494269174607
 31
0.0
  0
LINE
  5
18D52
330
18C7A
100
AcDbEntity
  8
部品1
100
AcDbLine
 10
444.9705892765305
 20
1867.49426917448
 30
0.0
 11
416.9705892765305
 21
1867.49426917448
 31
0.0
  0
LINE
  5
18D53
330
18C7A
100
AcDbEntity
  8
部品1
100
AcDbLine
 10
3830.470589276541
 20
1867.49426917458
 30
0.0
 11
473.4705892765396
 21
1867.49426917448
 31
0.0
  0
LINE
  5
18D54
330
18C7A
100
AcDbEntity
  8
部品1
100
AcDbLine
 10
3830.470589276541
 20
2287.49426917458
 30
0.0
 11
473.4705892765396
 21
2287.49426917448
 31
0.0
  0
LINE
  5
18D55
330
18C7A
100
AcDbEntity
  8
部品1
100
AcDbLine
 10
444.9705892765305
 20
2287.49426917448
 30
0.0
 11
416.9705892765305
 21
2287.49426917448
 31
0.0
  0
LINE
  5
18D56
330
18C7A
100
AcDbEntity
  8
部品1
100
AcDbLine
 10
3858.970589276556
 20
2287.494269174608
 30
0.0
 11
3886.970589276556
 21
2287.494269174608
 31
0.0
  0
LINE
  5
18D57
330
18C7A
100
AcDbEntity
  8
部品1
 48
50.0
100
AcDbLine
 10
2151.970589276551
 20
2702.494269174586
 30
0.0
 11
2151.970589276581
 21
1448.994269174494
 31
0.0
  0
LINE
  5
18D58
330
18C7A
100
AcDbEntity
  8
破線
 48
10.0
100
AcDbLine
 10
2959.470589276535
 20
1472.494269174522
 30
0.0
 11
2176.970589276532
 21
1472.494269174505
 31
0.0
  0
LINE
  5
18D59
330
18C7A
100
AcDbEntity
  8
破線
 48
10.0
100
AcDbLine
 10
3009.47058927653
 20
1448.994269174509
 30
0.0
 11
3009.47058927653
 21
2702.494269174615
 31
0.0
  0
LINE
  5
18D5A
330
18C7A
100
AcDbEntity
  8
破線
 48
10.0
100
AcDbLine
 10
2959.470589276535
 20
1448.994269174505
 30
0.0
 11
2959.470589276531
 21
2702.494269174615
 31
0.0
  0
LINE
  5
18D5B
330
18C7A
100
AcDbEntity
  8
破線
 48
10.0
100
AcDbLine
 10
1344.47058927653
 20
1448.994269174509
 30
0.0
 11
1344.47058927653
 21
2702.494269174615
 31
0.0
  0
LINE
  5
18D5C
330
18C7A
100
AcDbEntity
  8
破線
 48
10.0
100
AcDbLine
 10
1294.470589276534
 20
1448.994269174505
 30
0.0
 11
1294.47058927653
 21
2702.494269174615
 31
0.0
  0
DIMENSION
  5
18D5D
330
18C7A
100
AcDbEntity
  8
寸法
100
AcDbDimension
  2
*D13
 10
1451.234916278005
 20
2488.887829538828
 30
0.0
 11
916.0604668248634
 21
2488.887829538828
 31
0.0
 12
-3742.925985830444
 22
-6453.628869860112
 32
0.0
 70
   128
 71
     5
 42
1062.99999999993
  3
INABA_S40G
100
AcDbAlignedDimension
 13
445.4705892765559
 23
2702.494269174505
 33
0.0
 14
1508.470589276486
 24
2702.494269174558
 34
0.0
100
AcDbRotatedDimension
1001
ACAD
1000
DSTYLE
1002
{
1002
}
  0
LINE
  5
18D5E
330
18C7A
100
AcDbEntity
  8
破線
 48
10.0
100
AcDbLine
 10
1294.470589276534
 20
1472.494269174469
 30
0.0
 11
496.9705892765414
 21
1472.494269174476
 31
0.0
  0
LINE
  5
18D5F
330
18C7A
100
AcDbEntity
  8
部品1
100
AcDbLine
 10
3831.970589276556
 20
3182.494269174604
 30
0.0
 11
3831.970589276556
 21
3154.494269174604
 31
0.0
  0
LINE
  5
18D60
330
18C7A
100
AcDbEntity
  8
部品1
100
AcDbLine
 10
3831.970589276556
 20
3182.494269174626
 30
0.0
 11
3831.970589276556
 21
3154.494269174626
 31
0.0
  0
LINE
  5
18D61
330
18C7A
100
AcDbEntity
  8
部品1
100
AcDbLine
 10
3858.970589276556
 20
3127.494269174607
 30
0.0
 11
3886.970589276556
 21
3127.494269174607
 31
0.0
  0
LINE
  5
18D62
330
18C7A
100
AcDbEntity
  8
部品1
100
AcDbLine
 10
3858.970589276556
 20
2707.494269174608
 30
0.0
 11
3886.970589276556
 21
2707.494269174608
 31
0.0
  0
LINE
  5
18D63
330
18C7A
100
AcDbEntity
  8
部品1
100
AcDbLine
 10
3858.470589276556
 20
3152.494269174604
 30
0.0
 11
3858.470589276556
 21
2702.494269174608
 31
0.0
  0
LINE
  5
18D64
330
18C7A
100
AcDbEntity
  8
部品1
100
AcDbLine
 10
3886.970589276533
 20
1447.494269174593
 30
0.0
 11
3886.970589276531
 21
1392.494269174596
 31
0.0
  0
LINE
  5
18D65
330
18C7A
100
AcDbEntity
  8
部品1
 48
50.0
100
AcDbLine
 10
3830.470589276556
 20
1448.994269174596
 30
0.0
 11
3858.970589276554
 21
1420.494269174596
 31
0.0
  0
LINE
  5
18D66
330
18C7A
100
AcDbEntity
  8
部品1
100
AcDbLine
 10
3886.970589276531
 20
1392.494269174596
 30
0.0
 11
3835.970589276531
 21
1392.494269174596
 31
0.0
  0
LINE
  5
18D67
330
18C7A
100
AcDbEntity
  8
部品1
100
AcDbLine
 10
3858.970589276533
 20
1447.494269174593
 30
0.0
 11
3886.970589276531
 21
1447.494269174593
 31
0.0
  0
LINE
  5
18D68
330
18C7A
100
AcDbEntity
  8
部品1
100
AcDbLine
 10
3886.970589276556
 20
3182.494269174604
 30
0.0
 11
3886.970589276531
 21
1392.494269174596
 31
0.0
  0
DIMENSION
  5
18D69
330
18C7A
100
AcDbEntity
  8
寸法
100
AcDbDimension
  2
*D12
 10
4534.396935010967
 20
1447.494269174593
 30
0.0
 11
4534.396935010965
 21
2287.4942691746
 31
0.0
 12
-3742.925985830444
 22
-6453.628869860112
 32
0.0
 70
   128
  1
4X420=<>
 71
     5
 42
1680.000000000014
  3
INABA_S40G
100
AcDbAlignedDimension
 13
3886.970589276556
 23
3127.494269174607
 33
0.0
 14
3886.970589276531
 24
1447.494269174593
 34
0.0
 50
90.0
100
AcDbRotatedDimension
1001
ACAD
1000
DSTYLE
1002
{
1002
}
  0
LINE
  5
18D6A
330
18C7A
100
AcDbEntity
  8
部品1
100
AcDbLine
 10
3858.970589276556
 20
3154.494269174604
 30
0.0
 11
3858.970589276534
 21
1420.494269174596
 31
0.0
  0
DIMENSION
  5
18D6B
330
18C7A
100
AcDbEntity
  8
寸法
100
AcDbDimension
  2
*D11
 10
4213.82831513858
 20
2607.276453505718
 30
0.0
 11
4113.828315138579
 21
2832.276453505718
 31
0.0
 12
-3742.925985830444
 22
-6453.628869860112
 32
0.0
 71
     5
 42
449.9999999999963
  3
INABA_S40G
100
AcDbAlignedDimension
 13
3858.470589276556
 23
3152.494269174604
 33
0.0
 14
3858.470589276556
 24
2702.494269174608
 34
0.0
 50
90.0
100
AcDbRotatedDimension
1001
ACAD
1000
DSTYLE
1002
{
1002
}
  0
LINE
  5
18D6C
330
18C7A
100
AcDbEntity
  8
部品1
100
AcDbLine
 10
3830.470589276547
 20
2702.494269174608
 30
0.0
 11
3830.470589276556
 21
1448.994269174596
 31
0.0
  0
LINE
  5
18D6D
330
18C7A
100
AcDbEntity
  8
破線
 48
10.0
100
AcDbLine
 10
3806.970589276549
 20
2702.494269174608
 30
0.0
 11
3806.970589276558
 21
1472.494269174593
 31
0.0
  0
LINE
  5
18D6E
330
18C7A
100
AcDbEntity
  8
部品1
100
AcDbLine
 10
2769.470589276556
 20
3146.494269174608
 30
0.0
 11
2794.470589276556
 21
3146.494269174611
 31
0.0
  0
LINE
  5
18D6F
330
18C7A
100
AcDbEntity
  8
部品1
100
AcDbLine
 10
2810.970589276556
 20
3172.494269174611
 30
0.0
 11
2816.970589276556
 21
3172.494269174611
 31
0.0
  0
LINE
  5
18D70
330
18C7A
100
AcDbEntity
  8
部品1
100
AcDbLine
 10
2816.970589276556
 20
3172.494269174611
 30
0.0
 11
2816.970589276556
 21
3154.494269174611
 31
0.0
  0
LINE
  5
18D71
330
18C7A
100
AcDbEntity
  8
部品1
100
AcDbLine
 10
2746.970589276556
 20
3172.494269174611
 30
0.0
 11
2752.970589276556
 21
3172.494269174611
 31
0.0
  0
LINE
  5
18D72
330
18C7A
100
AcDbEntity
  8
部品1
100
AcDbLine
 10
2746.970589276556
 20
3172.494269174611
 30
0.0
 11
2746.970589276556
 21
3154.494269174611
 31
0.0
  0
LINE
  5
18D73
330
18C7A
100
AcDbEntity
  8
部品1
100
AcDbLine
 10
2769.470589276556
 20
2702.494269174615
 30
0.0
 11
2794.470589276556
 21
2702.494269174615
 31
0.0
  0
LINE
  5
18D74
330
18C7A
100
AcDbEntity
  8
部品1
 48
50.0
100
AcDbLine
 10
2794.470589276556
 20
3154.494269174615
 30
0.0
 11
2794.470589276556
 21
2702.494269174615
 31
0.0
  0
LINE
  5
18D75
330
18C7A
100
AcDbEntity
  8
部品1
 48
50.0
100
AcDbLine
 10
2769.470589276554
 20
3154.494269174618
 30
0.0
 11
2769.470589276556
 21
2702.494269174615
 31
0.0
  0
LINE
  5
18D76
330
18C7A
100
AcDbEntity
  8
部品1
 48
50.0
100
AcDbLine
 10
2795.470589276556
 20
3152.494269174607
 30
0.0
 11
2795.470589276556
 21
2702.494269174615
 31
0.0
  0
LINE
  5
18D77
330
18C7A
100
AcDbEntity
  8
部品1
 48
50.0
100
AcDbLine
 10
2767.470589276556
 20
3152.494269174611
 30
0.0
 11
2767.470589276556
 21
2702.494269174615
 31
0.0
  0
LINE
  5
18D78
330
18C7A
100
AcDbEntity
  8
破線
 48
10.0
100
AcDbLine
 10
2176.97058927653
 20
1448.994269174509
 30
0.0
 11
2176.97058927653
 21
2702.494269174588
 31
0.0
  0
LINE
  5
18D79
330
18C7A
100
AcDbEntity
  8
破線
 48
10.0
100
AcDbLine
 10
2126.970589276534
 20
1448.994269174505
 30
0.0
 11
2126.970589276531
 21
2702.494269174586
 31
0.0
  0
LINE
  5
18D7A
330
18C7A
100
AcDbEntity
  8
部品1
100
AcDbLine
 10
2794.470589276556
 20
3154.494269174622
 30
0.0
 11
3858.970589276556
 21
3154.494269174604
 31
0.0
  0
LINE
  5
18D7B
330
18C7A
100
AcDbEntity
  8
細線
 48
50.0
100
AcDbLine
 10
3858.470589276556
 20
2702.494269174608
 30
0.0
 11
2795.470589276556
 21
3152.494269174607
 31
0.0
  0
LINE
  5
18D7C
330
18C7A
100
AcDbEntity
  8
部品1
100
AcDbLine
 10
2795.470589276555
 20
2702.494269174615
 30
0.0
 11
3858.470589276556
 21
2702.494269174608
 31
0.0
  0
LINE
  5
18D7D
330
18C7A
100
AcDbEntity
  8
部品1
100
AcDbLine
 10
2795.470589276556
 20
3152.494269174611
 30
0.0
 11
3858.470589276556
 21
3152.494269174604
 31
0.0
  0
LINE
  5
18D7E
330
18C7A
100
AcDbEntity
  8
細線
 48
50.0
100
AcDbLine
 10
3858.470589276556
 20
3152.494269174604
 30
0.0
 11
2795.470589276555
 21
2702.494269174615
 31
0.0
  0
DIMENSION
  5
18D7F
330
18C7A
100
AcDbEntity
  8
寸法
100
AcDbDimension
  2
*D10
 10
3801.234916278101
 20
2488.887829538937
 30
0.0
 11
3318.360544398907
 21
2488.887829538937
 31
0.0
 12
-3742.925985830444
 22
-6453.628869860112
 32
0.0
 70
   128
 71
     5
 42
1063.000000000012
  3
INABA_S40G
100
AcDbAlignedDimension
 13
2795.470589276555
 23
2702.494269174615
 33
0.0
 14
3858.470589276567
 24
2702.494269174608
 34
0.0
100
AcDbRotatedDimension
1001
ACAD
1000
DSTYLE
1002
{
1002
}
  0
LINE
  5
18D80
330
18C7A
100
AcDbEntity
  8
破線
 48
10.0
100
AcDbLine
 10
3806.970589276556
 20
1472.494269174594
 30
0.0
 11
3009.47058927653
 21
1472.494269174523
 31
0.0
  0
DIMENSION
  5
18D81
330
18C7A
100
AcDbEntity
  8
寸法
100
AcDbDimension
  2
*D9
 10
4534.396935010941
 20
1392.494269174596
 30
0.0
 11
4534.39693501094
 21
1084.008987800356
 31
0.0
 12
-3742.925985830444
 22
-6453.628869860112
 32
0.0
 70
   128
 71
     5
 42
54.99999999999636
  3
INABA_S40G
100
AcDbAlignedDimension
 13
3886.970589276531
 23
1447.494269174593
 33
0.0
 14
3886.970589276531
 24
1392.494269174596
 34
0.0
 50
90.0
100
AcDbRotatedDimension
1001
ACAD
1000
DSTYLE
1002
{
1002
}
  0
LINE
  5
18D82
330
18C7A
100
AcDbEntity
  8
部品1
100
AcDbLine
 10
471.9705892765196
 20
3182.494269174477
 30
0.0
 11
471.9705892765232
 21
3154.494269174477
 31
0.0
  0
LINE
  5
18D83
330
18C7A
100
AcDbEntity
  8
部品1
100
AcDbLine
 10
471.9705892765559
 20
3182.494269174509
 30
0.0
 11
471.9705892765559
 21
3154.494269174509
 31
0.0
  0
LINE
  5
18D84
330
18C7A
100
AcDbEntity
  8
部品1
100
AcDbLine
 10
444.9705892765232
 20
3127.49426917448
 30
0.0
 11
416.9705892765232
 21
3127.49426917448
 31
0.0
  0
LINE
  5
18D85
330
18C7A
100
AcDbEntity
  8
部品1
100
AcDbLine
 10
444.9705892765305
 20
2707.49426917448
 30
0.0
 11
416.9705892765305
 21
2707.49426917448
 31
0.0
  0
LINE
  5
18D86
330
18C7A
100
AcDbEntity
  8
部品1
 48
50.0
100
AcDbLine
 10
445.4705892765542
 20
3152.494269174506
 30
0.0
 11
445.4705892765559
 21
2702.494269174505
 31
0.0
  0
LINE
  5
18D87
330
18C7A
100
AcDbEntity
  8
部品1
 48
50.0
100
AcDbLine
 10
473.470589276545
 20
1448.994269174573
 30
0.0
 11
444.970589276545
 21
1420.494269174574
 31
0.0
  0
LINE
  5
18D88
330
18C7A
100
AcDbEntity
  8
部品1
100
AcDbLine
 10
471.9705892765232
 20
1392.494269174465
 30
0.0
 11
416.9705892765486
 21
1392.494269174465
 31
0.0
  0
LINE
  5
18D89
330
18C7A
100
AcDbEntity
  8
部品1
100
AcDbLine
 10
444.9705892765305
 20
1447.494269174429
 30
0.0
 11
416.9705892765469
 21
1447.494269174429
 31
0.0
  0
LINE
  5
18D8A
330
18C7A
100
AcDbEntity
  8
部品1
100
AcDbLine
 10
444.9705892765305
 20
1447.494269174465
 30
0.0
 11
416.9705892765469
 21
1447.494269174465
 31
0.0
  0
LINE
  5
18D8B
330
18C7A
100
AcDbEntity
  8
部品1
100
AcDbLine
 10
444.9705892765469
 20
1447.49426917448
 30
0.0
 11
416.9705892765469
 21
1447.49426917448
 31
0.0
  0
LINE
  5
18D8C
330
18C7A
100
AcDbEntity
  8
部品1
100
AcDbLine
 10
416.9705892765469
 20
1447.494269174429
 30
0.0
 11
416.9705892765486
 21
1392.494269174433
 31
0.0
  0
LINE
  5
18D8D
330
18C7A
100
AcDbEntity
  8
部品1
100
AcDbLine
 10
416.9705892765196
 20
3182.494269174477
 30
0.0
 11
416.9705892765486
 21
1392.494269174465
 31
0.0
  0
LINE
  5
18D8E
330
18C7A
100
AcDbEntity
  8
部品1
100
AcDbLine
 10
444.9705892765305
 20
1420.494269174556
 30
0.0
 11
444.9705892765559
 21
3154.494269174509
 31
0.0
  0
LINE
  5
18D8F
330
18C7A
100
AcDbEntity
  8
部品1
100
AcDbLine
 10
473.4705892765323
 20
2702.494269174608
 30
0.0
 11
473.470589276545
 21
1448.994269174571
 31
0.0
  0
LINE
  5
18D90
330
18C7A
100
AcDbEntity
  8
破線
 48
10.0
100
AcDbLine
 10
496.9705892765305
 20
2702.494269174608
 30
0.0
 11
496.9705892765451
 21
1472.494269174476
 31
0.0
  0
DIMENSION
  5
18D91
330
18C7A
100
AcDbEntity
  8
寸法
100
AcDbDimension
  2
*D8
 10
3886.970589276531
 20
410.7433333855515
 30
0.0
 11
2168.197775309287
 21
410.7433333855515
 31
0.0
 12
-3742.925985830444
 22
-6453.628869860112
 32
0.0
 70
   128
 71
     5
 42
3469.999999999982
  3
INABA_S40G
100
AcDbAlignedDimension
 13
416.9705892765486
 23
1392.494269174433
 33
0.0
 14
3886.970589276531
 24
1392.49426917456
 34
0.0
100
AcDbRotatedDimension
1001
ACAD
1000
DSTYLE
1002
{
1070
   341
1005
0
1002
}
  0
LINE
  5
18D92
330
18C7A
100
AcDbEntity
  8
部品1
100
AcDbLine
 10
444.9705892765559
 20
3154.494269174624
 30
0.0
 11
1509.470589276487
 21
3154.494269174626
 31
0.0
  0
LINE
  5
18D93
330
18C7A
100
AcDbEntity
  8
部品1
100
AcDbLine
 10
3886.970589276531
 20
1392.494269174596
 30
0.0
 11
3411.970589276556
 21
1392.494269174582
 31
0.0
  0
LINE
  5
18D94
330
18C7A
100
AcDbEntity
  8
部品1
100
AcDbLine
 10
416.9705892765559
 20
3182.494269174509
 30
0.0
 11
3886.970589276556
 21
3182.494269174604
 31
0.0
  0
LINE
  5
18D95
330
18C7A
100
AcDbEntity
  8
部品1
100
AcDbLine
 10
445.4705892765559
 20
2702.494269174509
 30
0.0
 11
1508.470589276487
 21
2702.494269174558
 31
0.0
  0
LINE
  5
18D96
330
18C7A
100
AcDbEntity
  8
細線
 48
50.0
100
AcDbLine
 10
2767.470589276556
 20
3152.494269174611
 30
0.0
 11
1536.470589276487
 21
2702.494269174558
 31
0.0
  0
LINE
  5
18D97
330
18C7A
100
AcDbEntity
  8
部品1
100
AcDbLine
 10
445.4705892765542
 20
3152.494269174509
 30
0.0
 11
1508.470589276485
 21
3152.494269174558
 31
0.0
  0
LINE
  5
18D98
330
18C7A
100
AcDbEntity
  8
細線
 48
50.0
100
AcDbLine
 10
2767.470589276554
 20
2702.494269174615
 30
0.0
 11
1536.470589276485
 21
3152.494269174558
 31
0.0
  0
LINE
  5
18D99
330
18C7A
100
AcDbEntity
  8
破線
 48
10.0
100
AcDbLine
 10
2126.970589276534
 20
1472.494269174502
 30
0.0
 11
1344.47058927653
 21
1472.494269174473
 31
0.0
  0
LINE
  5
18D9A
330
18C7A
100
AcDbEntity
  8
部品1
100
AcDbLine
 10
3830.470589276556
 20
1448.994269174596
 30
0.0
 11
473.4705892764487
 21
1448.994269174476
 31
0.0
  0
DIMENSION
  5
18D9B
330
18C7A
100
AcDbEntity
  8
寸法
100
AcDbDimension
  2
*D7
 10
471.970589276555
 20
3698.302488799491
 30
0.0
 11
108.4853079022819
 21
3698.302488799491
 31
0.0
 12
-3742.925985830444
 22
-6453.628869860112
 32
0.0
 70
   128
 71
     5
 42
55.00000000003456
  3
INABA_S40G
100
AcDbAlignedDimension
 13
416.9705892765205
 23
3182.494269174509
 33
0.0
 14
471.970589276555
 24
3182.494269174509
 34
0.0
100
AcDbRotatedDimension
1001
ACAD
1000
DSTYLE
1002
{
1002
}
  0
DIMENSION
  5
18D9C
330
18C7A
100
AcDbEntity
  8
寸法
100
AcDbDimension
  2
*D6
 10
4534.396935010967
 20
3127.494269174607
 30
0.0
 11
4534.396935010965
 21
3490.979550548844
 31
0.0
 12
-3742.925985830444
 22
-6453.628869860112
 32
0.0
 70
   128
 71
     5
 42
54.99999999999636
  3
INABA_S40G
100
AcDbAlignedDimension
 13
3886.970589276556
 23
3182.494269174604
 33
0.0
 14
3886.970589276556
 24
3127.494269174607
 34
0.0
 50
90.0
100
AcDbRotatedDimension
1001
ACAD
1000
DSTYLE
1002
{
1002
}
  0
DIMENSION
  5
18D9D
330
18C7A
100
AcDbEntity
  8
寸法
100
AcDbDimension
  2
*D5
 10
3886.970589276556
 20
3698.302488799589
 30
0.0
 11
4195.455870650794
 21
3698.302488799589
 31
0.0
 12
-3742.925985830444
 22
-6453.628869860112
 32
0.0
 70
   128
 71
     5
 42
55.0
  3
INABA_S40G
100
AcDbAlignedDimension
 13
3831.970589276556
 23
3182.494269174604
 33
0.0
 14
3886.970589276556
 24
3182.494269174604
 34
0.0
100
AcDbRotatedDimension
1001
ACAD
1000
DSTYLE
1002
{
1002
}
  0
DIMENSION
  5
18D9E
330
18C7A
100
AcDbEntity
  8
寸法
100
AcDbDimension
  2
*D4
 10
3831.970589276556
 20
3698.302488799607
 30
0.0
 11
2151.970589276555
 21
3698.302488799607
 31
0.0
 12
-3742.925985830444
 22
-6453.628869860112
 32
0.0
 70
   128
  1
8X420=<>
 71
     5
 42
3360.000000000001
  3
INABA_S40G
100
AcDbAlignedDimension
 13
471.970589276555
 23
3182.494269174509
 33
0.0
 14
3831.970589276556
 24
3182.494269174604
 34
0.0
100
AcDbRotatedDimension
1001
ACAD
1000
DSTYLE
1002
{
1002
}
  0
DIMENSION
  5
18D9F
330
18C7A
100
AcDbEntity
  8
寸法
100
AcDbDimension
  2
*D3
 10
4899.503876750603
 20
1392.494269174596
 30
0.0
 11
4899.503876750601
 21
2287.4942691746
 31
0.0
 12
-3742.925985830444
 22
-6453.628869860112
 32
0.0
 70
   128
 71
     5
 42
1790.000000000007
  3
INABA_S40G
100
AcDbAlignedDimension
 13
3886.970589276556
 23
3182.494269174604
 33
0.0
 14
3886.970589276531
 24
1392.494269174596
 34
0.0
 50
90.0
100
AcDbRotatedDimension
1001
ACAD
1000
DSTYLE
1002
{
1002
}
  0
ENDBLK
  5
18DA1
330
18C7A
100
AcDbEntity
  8
0
 48
50.0
100
AcDbBlockEnd
  0
BLOCK
  5
1C4CB
330
1C4CA
100
AcDbEntity
  8
0
 48
50.0
100
AcDbBlockBegin
  2
_NONE
 70
     0
 10
0.0
 20
0.0
 30
0.0
  3
_NONE
  1

  0
CIRCLE
  5
1C4CC
330
1C4CA
100
AcDbEntity
  8
0
  6
ByBlock
 62
     0
 48
50.0
100
AcDbCircle
 10
0.0
 20
0.0
 30
0.0
 40
0.25
  0
ENDBLK
  5
1C4CD
330
1C4CA
100
AcDbEntity
  8
0
 48
50.0
100
AcDbBlockEnd
  0
BLOCK
  5
20DEE
330
20DE2
100
AcDbEntity
  8
0
 48
50.0
100
AcDbBlockBegin
  2
*D19
 70
     1
 10
0.0
 20
0.0
 30
0.0
  3
*D19
  1

  0
LINE
  5
26569
330
20DE2
100
AcDbEntity
  8
寸法
 62
     0
 48
50.0
370
    -2
100
AcDbLine
 10
10603.6
 20
7748.305586227947
 30
0.0
 11
10603.6
 21
8746.525908286868
 31
0.0
  0
LINE
  5
2656A
330
20DE2
100
AcDbEntity
  8
寸法
 62
     0
 48
50.0
370
    -2
100
AcDbLine
 10
10648.6
 20
8474.572044321858
 30
0.0
 11
10648.6
 21
8746.525908286868
 31
0.0
  0
LINE
  5
2656B
330
20DE2
100
AcDbEntity
  8
寸法
 62
     0
 48
50.0
370
    -2
100
AcDbLine
 10
10603.6
 20
8686.525908286869
 30
0.0
 11
10503.6
 21
8686.525908286869
 31
0.0
  0
LINE
  5
2656C
330
20DE2
100
AcDbEntity
  8
寸法
 62
     0
 48
50.0
370
    -2
100
AcDbLine
 10
10648.6
 20
8686.525908286869
 30
0.0
 11
10985.94924240492
 21
8686.525908286869
 31
0.0
  0
LINE
  5
2656D
330
20DE2
100
AcDbEntity
  8
寸法
 62
     0
 48
50.0
370
    -2
100
AcDbLine
 10
10603.6
 20
8686.525908286869
 30
0.0
 11
10648.6
 21
8686.525908286869
 31
0.0
  0
INSERT
  5
2656E
330
20DE2
100
AcDbEntity
  8
寸法
 62
     0
 48
50.0
370
    -2
100
AcDbBlockReference
  2
_DOTSMALL
 10
10603.6
 20
8686.525908286869
 30
0.0
 41
100.0
 42
100.0
 43
100.0
  0
INSERT
  5
2656F
330
20DE2
100
AcDbEntity
  8
寸法
 62
     0
 48
50.0
370
    -2
100
AcDbBlockReference
  2
_DOTSMALL
 10
10648.6
 20
8686.525908286869
 30
0.0
 41
100.0
 42
100.0
 43
100.0
 50
180.0
  0
MTEXT
  5
26570
330
20DE2
100
AcDbEntity
  8
寸法
 62
     7
 48
50.0
100
AcDbMText
 10
10919.77462120246
 20
8786.525908286868
 30
0.0
 40
120.0
 41
0.0
 71
     5
 72
     1
  1
\A1;a
  7
STYLE1
 73
     1
 44
1.0
1001
ACAD
1000
MTEXTBEGIN
1070
    73
1070
     1
1070
    44
1040
1.0
1070
    74
1070
     0
1000
MTEXTEND
  0
POINT
  5
26571
330
20DE2
100
AcDbEntity
  8
DEFPOINTS
 62
     0
 48
50.0
100
AcDbPoint
 10
10603.6
 20
7728.305586227946
 30
0.0
  0
POINT
  5
26572
330
20DE2
100
AcDbEntity
  8
DEFPOINTS
 62
     0
 48
50.0
100
AcDbPoint
 10
10648.6
 20
8454.572044321858
 30
0.0
  0
POINT
  5
26573
330
20DE2
100
AcDbEntity
  8
DEFPOINTS
 62
     0
 48
50.0
100
AcDbPoint
 10
10648.6
 20
8686.525908286869
 30
0.0
  0
ENDBLK
  5
20DEF
330
20DE2
100
AcDbEntity
  8
0
 48
50.0
100
AcDbBlockEnd
  0
BLOCK
  5
20E08
330
20DFC
100
AcDbEntity
  8
0
 48
50.0
100
AcDbBlockBegin
  2
*D20
 70
     1
 10
0.0
 20
0.0
 30
0.0
  3
*D20
  1

  0
LINE
  5
26589
330
20DFC
100
AcDbEntity
  8
寸法
 62
     0
 48
50.0
370
    -2
100
AcDbLine
 10
5798.600000000003
 20
8474.572044321869
 30
0.0
 11
5798.600000000003
 21
8746.525908286878
 31
0.0
  0
LINE
  5
2658A
330
20DFC
100
AcDbEntity
  8
寸法
 62
     0
 48
50.0
370
    -2
100
AcDbLine
 10
5843.599999999998
 20
7748.305586227956
 30
0.0
 11
5843.599999999998
 21
8746.525908286878
 31
0.0
  0
LINE
  5
2658B
330
20DFC
100
AcDbEntity
  8
寸法
 62
     0
 48
50.0
370
    -2
100
AcDbLine
 10
5843.599999999998
 20
8686.525908286878
 30
0.0
 11
5943.599999999999
 21
8686.525908286878
 31
0.0
  0
LINE
  5
2658C
330
20DFC
100
AcDbEntity
  8
寸法
 62
     0
 48
50.0
370
    -2
100
AcDbLine
 10
5798.600000000003
 20
8686.525908286878
 30
0.0
 11
5461.250757595081
 21
8686.525908286878
 31
0.0
  0
LINE
  5
2658D
330
20DFC
100
AcDbEntity
  8
寸法
 62
     0
 48
50.0
370
    -2
100
AcDbLine
 10
5843.599999999998
 20
8686.525908286878
 30
0.0
 11
5798.600000000003
 21
8686.525908286878
 31
0.0
  0
INSERT
  5
2658E
330
20DFC
100
AcDbEntity
  8
寸法
 62
     0
 48
50.0
370
    -2
100
AcDbBlockReference
  2
_DOTSMALL
 10
5843.599999999998
 20
8686.525908286878
 30
0.0
 41
100.0
 42
100.0
 43
100.0
 50
180.0
  0
INSERT
  5
2658F
330
20DFC
100
AcDbEntity
  8
寸法
 62
     0
 48
50.0
370
    -2
100
AcDbBlockReference
  2
_DOTSMALL
 10
5798.600000000003
 20
8686.525908286878
 30
0.0
 41
100.0
 42
100.0
 43
100.0
  0
MTEXT
  5
26590
330
20DFC
100
AcDbEntity
  8
寸法
 62
     7
 48
50.0
100
AcDbMText
 10
5527.42537879754
 20
8786.525908286877
 30
0.0
 40
120.0
 41
0.0
 71
     5
 72
     1
  1
\A1;a
  7
STYLE1
 73
     1
 44
1.0
1001
ACAD
1000
MTEXTBEGIN
1070
    73
1070
     1
1070
    44
1040
1.0
1070
    74
1070
     0
1000
MTEXTEND
  0
POINT
  5
26591
330
20DFC
100
AcDbEntity
  8
DEFPOINTS
 62
     0
 48
50.0
100
AcDbPoint
 10
5798.600000000003
 20
8454.572044321869
 30
0.0
  0
POINT
  5
26592
330
20DFC
100
AcDbEntity
  8
DEFPOINTS
 62
     0
 48
50.0
100
AcDbPoint
 10
5843.599999999998
 20
7728.305586227957
 30
0.0
  0
POINT
  5
26593
330
20DFC
100
AcDbEntity
  8
DEFPOINTS
 62
     0
 48
50.0
100
AcDbPoint
 10
5843.599999999998
 20
8686.525908286878
 30
0.0
  0
ENDBLK
  5
20E09
330
20DFC
100
AcDbEntity
  8
0
 48
50.0
100
AcDbBlockEnd
  0
BLOCK
  5
2274E
330
22742
100
AcDbEntity
  8
0
 48
50.0
100
AcDbBlockBegin
  2
*D21
 70
     1
 10
0.0
 20
0.0
 30
0.0
  3
*D21
  1

  0
LINE
  5
26594
330
22742
100
AcDbEntity
  8
寸法
 62
     0
 48
50.0
370
    -2
100
AcDbLine
 10
5200.665006330069
 20
7803.305586227962
 30
0.0
 11
4908.721909610675
 21
7803.305586227962
 31
0.0
  0
LINE
  5
26595
330
22742
100
AcDbEntity
  8
寸法
 62
     0
 48
50.0
370
    -2
100
AcDbLine
 10
5823.599999999998
 20
7728.305586227957
 30
0.0
 11
4908.721909610675
 21
7728.305586227957
 31
0.0
  0
LINE
  5
26596
330
22742
100
AcDbEntity
  8
寸法
 62
     0
 48
50.0
370
    -2
100
AcDbLine
 10
4968.721909610675
 20
7803.305586227962
 30
0.0
 11
4968.721909610675
 21
7903.305586227962
 31
0.0
  0
LINE
  5
26597
330
22742
100
AcDbEntity
  8
寸法
 62
     0
 48
50.0
370
    -2
100
AcDbLine
 10
4968.721909610675
 20
7728.305586227957
 30
0.0
 11
4968.721909610675
 21
7628.305586227956
 31
0.0
  0
LINE
  5
26598
330
22742
100
AcDbEntity
  8
寸法
 62
     0
 48
50.0
370
    -2
100
AcDbLine
 10
4968.721909610675
 20
7803.305586227962
 30
0.0
 11
4968.721909610675
 21
7728.305586227957
 31
0.0
  0
INSERT
  5
26599
330
22742
100
AcDbEntity
  8
寸法
 62
     0
 48
50.0
370
    -2
100
AcDbBlockReference
  2
_DOTSMALL
 10
4968.721909610675
 20
7803.305586227962
 30
0.0
 41
100.0
 42
100.0
 43
100.0
 50
270.0
  0
INSERT
  5
2659A
330
22742
100
AcDbEntity
  8
寸法
 62
     0
 48
50.0
370
    -2
100
AcDbBlockReference
  2
_DOTSMALL
 10
4968.721909610675
 20
7728.305586227957
 30
0.0
 41
100.0
 42
100.0
 43
100.0
 50
90.0
  0
MTEXT
  5
2659B
330
22742
100
AcDbEntity
  8
寸法
 62
     7
 48
50.0
100
AcDbMText
 10
4868.721909610673
 20
7765.805586227959
 30
0.0
 40
120.0
 41
0.0
 71
     5
 72
     1
  1
\A1;c
  7
STYLE1
 11
0.0000000000000001
 21
1.0
 31
0.0
 73
     1
 44
1.0
1001
ACAD
1000
MTEXTBEGIN
1070
    73
1070
     1
1070
    44
1040
1.0
1070
    74
1070
     0
1000
MTEXTEND
  0
POINT
  5
2659C
330
22742
100
AcDbEntity
  8
DEFPOINTS
 62
     0
 48
50.0
100
AcDbPoint
 10
5220.665006330069
 20
7803.305586227962
 30
0.0
  0
POINT
  5
2659D
330
22742
100
AcDbEntity
  8
DEFPOINTS
 62
     0
 48
50.0
100
AcDbPoint
 10
5843.599999999998
 20
7728.305586227957
 30
0.0
  0
POINT
  5
2659E
330
22742
100
AcDbEntity
  8
DEFPOINTS
 62
     0
 48
50.0
100
AcDbPoint
 10
4968.721909610675
 20
7728.305586227957
 30
0.0
  0
ENDBLK
  5
2274F
330
22742
100
AcDbEntity
  8
0
 48
50.0
100
AcDbBlockEnd
  0
BLOCK
  5
22768
330
2275C
100
AcDbEntity
  8
0
 48
50.0
100
AcDbBlockBegin
  2
*D22
 70
     1
 10
0.0
 20
0.0
 30
0.0
  3
*D22
  1

  0
LINE
  5
2659F
330
2275C
100
AcDbEntity
  8
寸法
 62
     0
 48
50.0
370
    -2
100
AcDbLine
 10
5823.599999999998
 20
6188.305586227988
 30
0.0
 11
4908.721909610672
 21
6188.305586227988
 31
0.0
  0
LINE
  5
265A0
330
2275C
100
AcDbEntity
  8
寸法
 62
     0
 48
50.0
370
    -2
100
AcDbLine
 10
5200.665006330069
 20
6133.305586228013
 30
0.0
 11
4908.721909610671
 21
6133.305586228013
 31
0.0
  0
LINE
  5
265A1
330
2275C
100
AcDbEntity
  8
寸法
 62
     0
 48
50.0
370
    -2
100
AcDbLine
 10
4968.721909610672
 20
6188.305586227988
 30
0.0
 11
4968.721909610672
 21
6288.305586227988
 31
0.0
  0
LINE
  5
265A2
330
2275C
100
AcDbEntity
  8
寸法
 62
     0
 48
50.0
370
    -2
100
AcDbLine
 10
4968.721909610671
 20
6133.305586228013
 30
0.0
 11
4968.721909610671
 21
6033.305586228014
 31
0.0
  0
LINE
  5
265A3
330
2275C
100
AcDbEntity
  8
寸法
 62
     0
 48
50.0
370
    -2
100
AcDbLine
 10
4968.721909610672
 20
6188.305586227988
 30
0.0
 11
4968.721909610671
 21
6133.305586228013
 31
0.0
  0
INSERT
  5
265A4
330
2275C
100
AcDbEntity
  8
寸法
 62
     0
 48
50.0
370
    -2
100
AcDbBlockReference
  2
_DOTSMALL
 10
4968.721909610672
 20
6188.305586227988
 30
0.0
 41
100.0
 42
100.0
 43
100.0
 50
270.0
  0
INSERT
  5
265A5
330
2275C
100
AcDbEntity
  8
寸法
 62
     0
 48
50.0
370
    -2
100
AcDbBlockReference
  2
_DOTSMALL
 10
4968.721909610671
 20
6133.305586228013
 30
0.0
 41
100.0
 42
100.0
 43
100.0
 50
90.0
  0
MTEXT
  5
265A6
330
2275C
100
AcDbEntity
  8
寸法
 62
     7
 48
50.0
100
AcDbMText
 10
4868.72190961067
 20
6160.805586228002
 30
0.0
 40
120.0
 41
0.0
 71
     5
 72
     1
  1
\A1;b
  7
STYLE1
 11
0.0000000000000001
 21
1.0
 31
0.0
 73
     1
 44
1.0
1001
ACAD
1000
MTEXTBEGIN
1070
    73
1070
     1
1070
    44
1040
1.0
1070
    74
1070
     0
1000
MTEXTEND
  0
POINT
  5
265A7
330
2275C
100
AcDbEntity
  8
DEFPOINTS
 62
     0
 48
50.0
100
AcDbPoint
 10
5843.599999999998
 20
6188.305586227988
 30
0.0
  0
POINT
  5
265A8
330
2275C
100
AcDbEntity
  8
DEFPOINTS
 62
     0
 48
50.0
100
AcDbPoint
 10
5220.665006330069
 20
6133.305586228013
 30
0.0
  0
POINT
  5
265A9
330
2275C
100
AcDbEntity
  8
DEFPOINTS
 62
     0
 48
50.0
100
AcDbPoint
 10
4968.721909610671
 20
6133.305586228013
 30
0.0
  0
ENDBLK
  5
22769
330
2275C
100
AcDbEntity
  8
0
 48
50.0
100
AcDbBlockEnd
  0
BLOCK
  5
240CF
330
240C4
100
AcDbEntity
  8
0
 48
50.0
100
AcDbBlockBegin
  2
*D23
 70
     1
 10
0.0
 20
0.0
 30
0.0
  3
*D23
  1

  0
LINE
  5
266E6
330
240C4
100
AcDbEntity
  8
寸法
 62
     0
 48
50.0
370
    -2
100
AcDbLine
 10
10603.6
 20
7183.305586227985
 30
0.0
 11
10603.6
 21
7337.904199326058
 31
0.0
  0
LINE
  5
266E7
330
240C4
100
AcDbEntity
  8
寸法
 62
     0
 48
50.0
370
    -2
100
AcDbLine
 10
10483.6
 20
7183.305586227984
 30
0.0
 11
10483.6
 21
7337.904199326058
 31
0.0
  0
LINE
  5
266E8
330
240C4
100
AcDbEntity
  8
寸法
 62
     0
 48
50.0
370
    -2
100
AcDbLine
 10
10483.6
 20
7277.904199326058
 30
0.0
 11
10603.6
 21
7277.904199326058
 31
0.0
  0
LINE
  5
266E9
330
240C4
100
AcDbEntity
  8
寸法
 62
     0
 48
50.0
370
    -2
100
AcDbLine
 10
10603.6
 20
7277.904199326058
 30
0.0
 11
11009.7062992126
 21
7277.904199326058
 31
0.0
  0
INSERT
  5
266EA
330
240C4
100
AcDbEntity
  8
寸法
 62
     0
 48
50.0
370
    -2
100
AcDbBlockReference
  2
_DOTSMALL
 10
10483.6
 20
7277.904199326058
 30
0.0
 41
100.0
 42
100.0
 43
100.0
 50
180.0
  0
INSERT
  5
266EB
330
240C4
100
AcDbEntity
  8
寸法
 62
     0
 48
50.0
370
    -2
100
AcDbBlockReference
  2
_DOTSMALL
 10
10603.6
 20
7277.904199326058
 30
0.0
 41
100.0
 42
100.0
 43
100.0
  0
MTEXT
  5
266EC
330
240C4
100
AcDbEntity
  8
寸法
 62
     7
 48
50.0
100
AcDbMText
 10
10873.65905511812
 20
7377.916010349679
 30
0.0
 40
120.0
 41
0.0
 71
     5
 72
     1
  1
\A1;120
  7
STYLE1
 73
     1
 44
1.0
1001
ACAD
1000
MTEXTBEGIN
1070
    73
1070
     1
1070
    44
1040
1.0
1070
    74
1070
     0
1000
MTEXTEND
  0
POINT
  5
266ED
330
240C4
100
AcDbEntity
  8
DEFPOINTS
 62
     0
 48
50.0
100
AcDbPoint
 10
10603.6
 20
7163.305586227984
 30
0.0
  0
POINT
  5
266EE
330
240C4
100
AcDbEntity
  8
DEFPOINTS
 62
     0
 48
50.0
100
AcDbPoint
 10
10483.6
 20
7163.305586227983
 30
0.0
  0
POINT
  5
266EF
330
240C4
100
AcDbEntity
  8
DEFPOINTS
 62
     0
 48
50.0
100
AcDbPoint
 10
10483.6
 20
7277.904199326058
 30
0.0
  0
ENDBLK
  5
240D0
330
240C4
100
AcDbEntity
  8
0
 48
50.0
100
AcDbBlockEnd
  0
BLOCK
  5
240DC
330
240D1
100
AcDbEntity
  8
0
 48
50.0
100
AcDbBlockBegin
  2
*D24
 70
     1
 10
0.0
 20
0.0
 30
0.0
  3
*D24
  1

  0
LINE
  5
2669E
330
240D1
100
AcDbEntity
  8
寸法
 62
     0
 48
50.0
370
    -2
100
AcDbLine
 10
10003.59999999999
 20
6468.305586227946
 30
0.0
 11
9862.812020225661
 21
6468.305586227946
 31
0.0
  0
LINE
  5
2669F
330
240D1
100
AcDbEntity
  8
寸法
 62
     0
 48
50.0
370
    -2
100
AcDbLine
 10
10003.6
 20
6188.305586227965
 30
0.0
 11
9862.812020225661
 21
6188.305586227965
 31
0.0
  0
LINE
  5
266A0
330
240D1
100
AcDbEntity
  8
寸法
 62
     0
 48
50.0
370
    -2
100
AcDbLine
 10
9922.812020225661
 20
6468.305586227946
 30
0.0
 11
9922.812020225661
 21
6188.305586227965
 31
0.0
  0
LINE
  5
266A1
330
240D1
100
AcDbEntity
  8
寸法
 62
     0
 48
50.0
370
    -2
100
AcDbLine
 10
9922.812020225661
 20
6188.305586227965
 30
0.0
 11
9922.812020225661
 21
5751.771137409059
 31
0.0
  0
INSERT
  5
266A2
330
240D1
100
AcDbEntity
  8
寸法
 62
     0
 48
50.0
370
    -2
100
AcDbBlockReference
  2
_DOTSMALL
 10
9922.812020225661
 20
6468.305586227946
 30
0.0
 41
100.0
 42
100.0
 43
100.0
 50
90.0
  0
INSERT
  5
266A3
330
240D1
100
AcDbEntity
  8
寸法
 62
     0
 48
50.0
370
    -2
100
AcDbBlockReference
  2
_DOTSMALL
 10
9922.812020225661
 20
6188.305586227965
 30
0.0
 41
100.0
 42
100.0
 43
100.0
 50
270.0
  0
MTEXT
  5
266A4
330
240D1
100
AcDbEntity
  8
寸法
 62
     7
 48
50.0
100
AcDbMText
 10
9822.800209202036
 20
5901.342003550793
 30
0.0
 40
120.0
 41
0.0
 71
     5
 72
     1
  1
\A1;280
  7
STYLE1
 11
0.0000000000000001
 21
1.0
 31
0.0
 73
     1
 44
1.0
1001
ACAD
1000
MTEXTBEGIN
1070
    73
1070
     1
1070
    44
1040
1.0
1070
    74
1070
     0
1000
MTEXTEND
  0
POINT
  5
266A5
330
240D1
100
AcDbEntity
  8
DEFPOINTS
 62
     0
 48
50.0
100
AcDbPoint
 10
10023.59999999999
 20
6468.305586227946
 30
0.0
  0
POINT
  5
266A6
330
240D1
100
AcDbEntity
  8
DEFPOINTS
 62
     0
 48
50.0
100
AcDbPoint
 10
10023.6
 20
6188.305586227965
 30
0.0
  0
POINT
  5
266A7
330
240D1
100
AcDbEntity
  8
DEFPOINTS
 62
     0
 48
50.0
100
AcDbPoint
 10
9922.812020225661
 20
6188.305586227965
 30
0.0
  0
ENDBLK
  5
240DD
330
240D1
100
AcDbEntity
  8
0
 48
50.0
100
AcDbBlockEnd
  0
BLOCK
  5
240E9
330
240DE
100
AcDbEntity
  8
0
 48
50.0
100
AcDbBlockBegin
  2
*D25
 70
     1
 10
0.0
 20
0.0
 30
0.0
  3
*D25
  1

  0
LINE
  5
26574
330
240DE
100
AcDbEntity
  8
寸法
 62
     0
 48
50.0
370
    -2
100
AcDbLine
 10
10003.6
 20
7728.305586227934
 30
0.0
 11
9862.812020225661
 21
7728.305586227934
 31
0.0
  0
LINE
  5
26575
330
240DE
100
AcDbEntity
  8
寸法
 62
     0
 48
50.0
370
    -2
100
AcDbLine
 10
10003.60000000001
 20
7528.30558622795
 30
0.0
 11
9862.812020225661
 21
7528.30558622795
 31
0.0
  0
LINE
  5
26576
330
240DE
100
AcDbEntity
  8
寸法
 62
     0
 48
50.0
370
    -2
100
AcDbLine
 10
9922.812020225661
 20
7528.30558622795
 30
0.0
 11
9922.812020225661
 21
7728.305586227934
 31
0.0
  0
LINE
  5
26577
330
240DE
100
AcDbEntity
  8
寸法
 62
     0
 48
50.0
370
    -2
100
AcDbLine
 10
9922.812020225661
 20
7728.305586227934
 30
0.0
 11
9922.812020225661
 21
8164.840035046836
 31
0.0
  0
INSERT
  5
26578
330
240DE
100
AcDbEntity
  8
寸法
 62
     0
 48
50.0
370
    -2
100
AcDbBlockReference
  2
_DOTSMALL
 10
9922.812020225661
 20
7528.30558622795
 30
0.0
 41
100.0
 42
100.0
 43
100.0
 50
270.0
  0
INSERT
  5
26579
330
240DE
100
AcDbEntity
  8
寸法
 62
     0
 48
50.0
370
    -2
100
AcDbBlockReference
  2
_DOTSMALL
 10
9922.812020225661
 20
7728.305586227934
 30
0.0
 41
100.0
 42
100.0
 43
100.0
 50
90.0
  0
MTEXT
  5
2657A
330
240DE
100
AcDbEntity
  8
寸法
 62
     7
 48
50.0
100
AcDbMText
 10
9822.800209202036
 20
8015.269168905104
 30
0.0
 40
120.0
 41
0.0
 71
     5
 72
     1
  1
\A1;200
  7
STYLE1
 11
0.0000000000000001
 21
1.0
 31
0.0
 73
     1
 44
1.0
1001
ACAD
1000
MTEXTBEGIN
1070
    73
1070
     1
1070
    44
1040
1.0
1070
    74
1070
     0
1000
MTEXTEND
  0
POINT
  5
2657B
330
240DE
100
AcDbEntity
  8
DEFPOINTS
 62
     0
 48
50.0
100
AcDbPoint
 10
10023.6
 20
7728.305586227934
 30
0.0
  0
POINT
  5
2657C
330
240DE
100
AcDbEntity
  8
DEFPOINTS
 62
     0
 48
50.0
100
AcDbPoint
 10
10023.60000000001
 20
7528.30558622795
 30
0.0
  0
POINT
  5
2657D
330
240DE
100
AcDbEntity
  8
DEFPOINTS
 62
     0
 48
50.0
100
AcDbPoint
 10
9922.812020225661
 20
7528.30558622795
 30
0.0
  0
ENDBLK
  5
240EA
330
240DE
100
AcDbEntity
  8
0
 48
50.0
100
AcDbBlockEnd
  0
BLOCK
  5
26030
330
26026
100
AcDbEntity
  8
0
 48
50.0
100
AcDbBlockBegin
  2
*D26
 70
     1
 10
0.0
 20
0.0
 30
0.0
  3
*D26
  1

  0
LINE
  5
26514
330
26026
100
AcDbEntity
  8
寸法
 62
     0
 48
50.0
370
    -2
100
AcDbLine
 10
5843.600000000002
 20
7748.305586227947
 30
0.0
 11
5843.600000000002
 21
8746.525908286866
 31
0.0
  0
LINE
  5
26515
330
26026
100
AcDbEntity
  8
寸法
 62
     0
 48
50.0
370
    -2
100
AcDbLine
 10
10603.6
 20
7748.305586227947
 30
0.0
 11
10603.6
 21
8746.525908286866
 31
0.0
  0
LINE
  5
26516
330
26026
100
AcDbEntity
  8
寸法
 62
     0
 48
50.0
370
    -2
100
AcDbLine
 10
5843.600000000002
 20
8686.525908286865
 30
0.0
 11
10603.6
 21
8686.525908286865
 31
0.0
  0
INSERT
  5
26517
330
26026
100
AcDbEntity
  8
寸法
 62
     0
 48
50.0
370
    -2
100
AcDbBlockReference
  2
_DOTSMALL
 10
5843.600000000002
 20
8686.525908286865
 30
0.0
 41
100.0
 42
100.0
 43
100.0
 50
180.0
  0
INSERT
  5
26518
330
26026
100
AcDbEntity
  8
寸法
 62
     0
 48
50.0
370
    -2
100
AcDbBlockReference
  2
_DOTSMALL
 10
10603.6
 20
8686.525908286865
 30
0.0
 41
100.0
 42
100.0
 43
100.0
  0
MTEXT
  5
26519
330
26026
100
AcDbEntity
  8
寸法
 62
     7
 48
50.0
100
AcDbMText
 10
8223.600000000002
 20
8786.525908286865
 30
0.0
 40
120.0
 41
0.0
 71
     5
 72
     1
  1
\A1;4760
  7
STYLE1
 73
     1
 44
1.0
1001
ACAD
1000
MTEXTBEGIN
1070
    73
1070
     1
1070
    44
1040
1.0
1070
    74
1070
     0
1000
MTEXTEND
  0
POINT
  5
2651A
330
26026
100
AcDbEntity
  8
DEFPOINTS
 62
     0
 48
50.0
100
AcDbPoint
 10
5843.600000000002
 20
7728.305586227946
 30
0.0
  0
POINT
  5
2651B
330
26026
100
AcDbEntity
  8
DEFPOINTS
 62
     0
 48
50.0
100
AcDbPoint
 10
10603.6
 20
7728.305586227946
 30
0.0
  0
POINT
  5
2651C
330
26026
100
AcDbEntity
  8
DEFPOINTS
 62
     0
 48
50.0
100
AcDbPoint
 10
10603.6
 20
8686.525908286865
 30
0.0
  0
ENDBLK
  5
26031
330
26026
100
AcDbEntity
  8
0
 48
50.0
100
AcDbBlockEnd
  0
BLOCK
  5
2603C
330
26032
100
AcDbEntity
  8
0
 48
50.0
100
AcDbBlockBegin
  2
*D27
 70
     1
 10
0.0
 20
0.0
 30
0.0
  3
*D27
  1

  0
LINE
  5
2650B
330
26032
100
AcDbEntity
  8
寸法
 62
     0
 48
50.0
370
    -2
100
AcDbLine
 10
10480.6
 20
7675.305586227946
 30
0.0
 11
10480.6
 21
8514.572044321857
 31
0.0
  0
LINE
  5
2650C
330
26032
100
AcDbEntity
  8
寸法
 62
     0
 48
50.0
370
    -2
100
AcDbLine
 10
7630.600000000002
 20
7675.305586227946
 30
0.0
 11
7630.600000000002
 21
8514.572044321857
 31
0.0
  0
LINE
  5
2650D
330
26032
100
AcDbEntity
  8
寸法
 62
     0
 48
50.0
370
    -2
100
AcDbLine
 10
10480.6
 20
8454.572044321858
 30
0.0
 11
7630.600000000002
 21
8454.572044321858
 31
0.0
  0
INSERT
  5
2650E
330
26032
100
AcDbEntity
  8
寸法
 62
     0
 48
50.0
370
    -2
100
AcDbBlockReference
  2
_DOTSMALL
 10
10480.6
 20
8454.572044321858
 30
0.0
 41
100.0
 42
100.0
 43
100.0
  0
INSERT
  5
2650F
330
26032
100
AcDbEntity
  8
寸法
 62
     0
 48
50.0
370
    -2
100
AcDbBlockReference
  2
_DOTSMALL
 10
7630.600000000002
 20
8454.572044321858
 30
0.0
 41
100.0
 42
100.0
 43
100.0
 50
180.0
  0
MTEXT
  5
26510
330
26032
100
AcDbEntity
  8
寸法
 62
     7
 48
50.0
100
AcDbMText
 10
9055.600000000003
 20
8554.58385534548
 30
0.0
 40
120.0
 41
0.0
 71
     5
 72
     1
  1
\A1;2850
  7
STYLE1
 73
     1
 44
1.0
1001
ACAD
1000
MTEXTBEGIN
1070
    73
1070
     1
1070
    44
1040
1.0
1070
    74
1070
     0
1000
MTEXTEND
  0
POINT
  5
26511
330
26032
100
AcDbEntity
  8
DEFPOINTS
 62
     0
 48
50.0
100
AcDbPoint
 10
10480.6
 20
7655.305586227948
 30
0.0
  0
POINT
  5
26512
330
26032
100
AcDbEntity
  8
DEFPOINTS
 62
     0
 48
50.0
100
AcDbPoint
 10
7630.600000000002
 20
7655.305586227948
 30
0.0
  0
POINT
  5
26513
330
26032
100
AcDbEntity
  8
DEFPOINTS
 62
     0
 48
50.0
100
AcDbPoint
 10
7630.600000000002
 20
8454.572044321858
 30
0.0
  0
ENDBLK
  5
2603D
330
26032
100
AcDbEntity
  8
0
 48
50.0
100
AcDbBlockEnd
  0
BLOCK
  5
26048
330
2603E
100
AcDbEntity
  8
0
 48
50.0
100
AcDbBlockBegin
  2
*D28
 70
     1
 10
0.0
 20
0.0
 30
0.0
  3
*D28
  1

  0
LINE
  5
26610
330
2603E
100
AcDbEntity
  8
寸法
 62
     0
 48
50.0
370
    -2
100
AcDbLine
 10
8698.600000000009
 20
7065.305586227947
 30
0.0
 11
8698.600000000009
 21
8270.914402898196
 31
0.0
  0
LINE
  5
26611
330
2603E
100
AcDbEntity
  8
寸法
 62
     0
 48
50.0
370
    -2
100
AcDbLine
 10
7748.600000000009
 20
7065.305586227947
 30
0.0
 11
7748.600000000009
 21
8270.914402898196
 31
0.0
  0
LINE
  5
26612
330
2603E
100
AcDbEntity
  8
寸法
 62
     0
 48
50.0
370
    -2
100
AcDbLine
 10
8698.600000000009
 20
8210.914402898195
 30
0.0
 11
7748.600000000009
 21
8210.914402898195
 31
0.0
  0
INSERT
  5
26613
330
2603E
100
AcDbEntity
  8
寸法
 62
     0
 48
50.0
370
    -2
100
AcDbBlockReference
  2
_DOTSMALL
 10
8698.600000000009
 20
8210.914402898195
 30
0.0
 41
100.0
 42
100.0
 43
100.0
  0
INSERT
  5
26614
330
2603E
100
AcDbEntity
  8
寸法
 62
     0
 48
50.0
370
    -2
100
AcDbBlockReference
  2
_DOTSMALL
 10
7748.600000000009
 20
8210.914402898195
 30
0.0
 41
100.0
 42
100.0
 43
100.0
 50
180.0
  0
MTEXT
  5
26615
330
2603E
100
AcDbEntity
  8
寸法
 62
     7
 48
50.0
100
AcDbMText
 10
8223.60000000001
 20
8310.914402898196
 30
0.0
 40
120.0
 41
0.0
 71
     5
 72
     1
  1
\A1;950
  7
STYLE1
 73
     1
 44
1.0
1001
ACAD
1000
MTEXTBEGIN
1070
    73
1070
     1
1070
    44
1040
1.0
1070
    74
1070
     0
1000
MTEXTEND
  0
POINT
  5
26616
330
2603E
100
AcDbEntity
  8
DEFPOINTS
 62
     0
 48
50.0
100
AcDbPoint
 10
8698.600000000009
 20
7045.305586227947
 30
0.0
  0
POINT
  5
26617
330
2603E
100
AcDbEntity
  8
DEFPOINTS
 62
     0
 48
50.0
100
AcDbPoint
 10
7748.600000000009
 20
7045.305586227947
 30
0.0
  0
POINT
  5
26618
330
2603E
100
AcDbEntity
  8
DEFPOINTS
 62
     0
 48
50.0
100
AcDbPoint
 10
7748.600000000009
 20
8210.914402898195
 30
0.0
  0
ENDBLK
  5
26049
330
2603E
100
AcDbEntity
  8
0
 48
50.0
100
AcDbBlockEnd
  0
BLOCK
  5
26053
330
2604A
100
AcDbEntity
  8
0
 48
50.0
100
AcDbBlockBegin
  2
*D29
 70
     1
 10
0.0
 20
0.0
 30
0.0
  3
*D29
  1

  0
LINE
  5
26622
330
2604A
100
AcDbEntity
  8
寸法
 62
     0
 48
50.0
370
    -2
100
AcDbLine
 10
7748.600000000009
 20
7065.305586227947
 30
0.0
 11
7748.600000000009
 21
8270.914402898196
 31
0.0
  0
LINE
  5
26623
330
2604A
100
AcDbEntity
  8
寸法
 62
     0
 48
50.0
370
    -2
100
AcDbLine
 10
6798.600000000009
 20
7065.305586227947
 30
0.0
 11
6798.600000000009
 21
8270.914402898196
 31
0.0
  0
LINE
  5
26624
330
2604A
100
AcDbEntity
  8
寸法
 62
     0
 48
50.0
370
    -2
100
AcDbLine
 10
7748.600000000009
 20
8210.914402898195
 30
0.0
 11
6798.600000000009
 21
8210.914402898195
 31
0.0
  0
INSERT
  5
26625
330
2604A
100
AcDbEntity
  8
寸法
 62
     0
 48
50.0
370
    -2
100
AcDbBlockReference
  2
_DOTSMALL
 10
7748.600000000009
 20
8210.914402898195
 30
0.0
 41
100.0
 42
100.0
 43
100.0
  0
INSERT
  5
26626
330
2604A
100
AcDbEntity
  8
寸法
 62
     0
 48
50.0
370
    -2
100
AcDbBlockReference
  2
_DOTSMALL
 10
6798.600000000009
 20
8210.914402898195
 30
0.0
 41
100.0
 42
100.0
 43
100.0
 50
180.0
  0
MTEXT
  5
26627
330
2604A
100
AcDbEntity
  8
寸法
 62
     7
 48
50.0
100
AcDbMText
 10
7273.600000000008
 20
8310.914402898196
 30
0.0
 40
120.0
 41
0.0
 71
     5
 72
     1
  1
\A1;950
  7
STYLE1
 73
     1
 44
1.0
1001
ACAD
1000
MTEXTBEGIN
1070
    73
1070
     1
1070
    44
1040
1.0
1070
    74
1070
     0
1000
MTEXTEND
  0
POINT
  5
26628
330
2604A
100
AcDbEntity
  8
DEFPOINTS
 62
     0
 48
50.0
100
AcDbPoint
 10
7748.600000000009
 20
7045.305586227947
 30
0.0
  0
POINT
  5
26629
330
2604A
100
AcDbEntity
  8
DEFPOINTS
 62
     0
 48
50.0
100
AcDbPoint
 10
6798.600000000009
 20
7045.305586227947
 30
0.0
  0
POINT
  5
2662A
330
2604A
100
AcDbEntity
  8
DEFPOINTS
 62
     0
 48
50.0
100
AcDbPoint
 10
6798.600000000009
 20
8210.914402898195
 30
0.0
  0
ENDBLK
  5
26054
330
2604A
100
AcDbEntity
  8
0
 48
50.0
100
AcDbBlockEnd
  0
BLOCK
  5
2605F
330
26055
100
AcDbEntity
  8
0
 48
50.0
100
AcDbBlockBegin
  2
*D30
 70
     1
 10
0.0
 20
0.0
 30
0.0
  3
*D30
  1

  0
LINE
  5
26634
330
26055
100
AcDbEntity
  8
寸法
 62
     0
 48
50.0
370
    -2
100
AcDbLine
 10
6728.60000000001
 20
6995.305586227947
 30
0.0
 11
6266.285990614304
 21
6995.305586227947
 31
0.0
  0
LINE
  5
26635
330
26055
100
AcDbEntity
  8
寸法
 62
     0
 48
50.0
370
    -2
100
AcDbLine
 10
6397.765475140903
 20
7728.305586227946
 30
0.0
 11
6266.285990614304
 21
7728.305586227946
 31
0.0
  0
LINE
  5
26636
330
26055
100
AcDbEntity
  8
寸法
 62
     0
 48
50.0
370
    -2
100
AcDbLine
 10
6326.285990614304
 20
6995.305586227947
 30
0.0
 11
6326.285990614304
 21
7728.305586227946
 31
0.0
  0
INSERT
  5
26637
330
26055
100
AcDbEntity
  8
寸法
 62
     0
 48
50.0
370
    -2
100
AcDbBlockReference
  2
_DOTSMALL
 10
6326.285990614304
 20
6995.305586227947
 30
0.0
 41
100.0
 42
100.0
 43
100.0
 50
270.0
  0
INSERT
  5
26638
330
26055
100
AcDbEntity
  8
寸法
 62
     0
 48
50.0
370
    -2
100
AcDbBlockReference
  2
_DOTSMALL
 10
6326.285990614304
 20
7728.305586227946
 30
0.0
 41
100.0
 42
100.0
 43
100.0
 50
90.0
  0
MTEXT
  5
26639
330
26055
100
AcDbEntity
  8
寸法
 62
     7
 48
50.0
100
AcDbMText
 10
6226.285990614302
 20
7287.900376922124
 30
0.0
 40
120.0
 41
0.0
 71
     5
 72
     1
  1
\A1;733
  7
STYLE1
 11
0.0000000000000001
 21
1.0
 31
0.0
 73
     1
 44
1.0
1001
ACAD
1000
MTEXTBEGIN
1070
    73
1070
     1
1070
    44
1040
1.0
1070
    74
1070
     0
1000
MTEXTEND
  0
POINT
  5
2663A
330
26055
100
AcDbEntity
  8
DEFPOINTS
 62
     0
 48
50.0
100
AcDbPoint
 10
6748.600000000009
 20
6995.305586227947
 30
0.0
  0
POINT
  5
2663B
330
26055
100
AcDbEntity
  8
DEFPOINTS
 62
     0
 48
50.0
100
AcDbPoint
 10
6417.765475140902
 20
7728.305586227946
 30
0.0
  0
POINT
  5
2663C
330
26055
100
AcDbEntity
  8
DEFPOINTS
 62
     0
 48
50.0
100
AcDbPoint
 10
6326.285990614304
 20
7728.305586227946
 30
0.0
  0
ENDBLK
  5
26060
330
26055
100
AcDbEntity
  8
0
 48
50.0
100
AcDbBlockEnd
  0
BLOCK
  5
2606B
330
26061
100
AcDbEntity
  8
0
 48
50.0
100
AcDbBlockBegin
  2
*D31
 70
     1
 10
0.0
 20
0.0
 30
0.0
  3
*D31
  1

  0
LINE
  5
26619
330
26061
100
AcDbEntity
  8
寸法
 62
     0
 48
50.0
370
    -2
100
AcDbLine
 10
6798.600000000009
 20
7065.305586227947
 30
0.0
 11
6798.600000000009
 21
8270.914402898196
 31
0.0
  0
LINE
  5
2661A
330
26061
100
AcDbEntity
  8
寸法
 62
     0
 48
50.0
370
    -2
100
AcDbLine
 10
5843.600000000002
 20
7748.305586227947
 30
0.0
 11
5843.600000000002
 21
8270.914402898196
 31
0.0
  0
LINE
  5
2661B
330
26061
100
AcDbEntity
  8
寸法
 62
     0
 48
50.0
370
    -2
100
AcDbLine
 10
6798.600000000009
 20
8210.914402898195
 30
0.0
 11
5843.600000000002
 21
8210.914402898195
 31
0.0
  0
INSERT
  5
2661C
330
26061
100
AcDbEntity
  8
寸法
 62
     0
 48
50.0
370
    -2
100
AcDbBlockReference
  2
_DOTSMALL
 10
6798.600000000009
 20
8210.914402898195
 30
0.0
 41
100.0
 42
100.0
 43
100.0
  0
INSERT
  5
2661D
330
26061
100
AcDbEntity
  8
寸法
 62
     0
 48
50.0
370
    -2
100
AcDbBlockReference
  2
_DOTSMALL
 10
5843.600000000002
 20
8210.914402898195
 30
0.0
 41
100.0
 42
100.0
 43
100.0
 50
180.0
  0
MTEXT
  5
2661E
330
26061
100
AcDbEntity
  8
寸法
 62
     7
 48
50.0
100
AcDbMText
 10
6321.100000000006
 20
8310.914402898196
 30
0.0
 40
120.0
 41
0.0
 71
     5
 72
     1
  1
\A1;955
  7
STYLE1
 73
     1
 44
1.0
1001
ACAD
1000
MTEXTBEGIN
1070
    73
1070
     1
1070
    44
1040
1.0
1070
    74
1070
     0
1000
MTEXTEND
  0
POINT
  5
2661F
330
26061
100
AcDbEntity
  8
DEFPOINTS
 62
     0
 48
50.0
100
AcDbPoint
 10
6798.600000000009
 20
7045.305586227947
 30
0.0
  0
POINT
  5
26620
330
26061
100
AcDbEntity
  8
DEFPOINTS
 62
     0
 48
50.0
100
AcDbPoint
 10
5843.600000000002
 20
7728.305586227946
 30
0.0
  0
POINT
  5
26621
330
26061
100
AcDbEntity
  8
DEFPOINTS
 62
     0
 48
50.0
100
AcDbPoint
 10
5843.600000000002
 20
8210.914402898195
 30
0.0
  0
ENDBLK
  5
2606C
330
26061
100
AcDbEntity
  8
0
 48
50.0
100
AcDbBlockEnd
  0
BLOCK
  5
26077
330
2606D
100
AcDbEntity
  8
0
 48
50.0
100
AcDbBlockBegin
  2
*D32
 70
     1
 10
0.0
 20
0.0
 30
0.0
  3
*D32
  1

  0
LINE
  5
26543
330
2606D
100
AcDbEntity
  8
寸法
 62
     0
 48
50.0
370
    -2
100
AcDbLine
 10
5823.600000000002
 20
7728.305586227946
 30
0.0
 11
4908.721909610676
 21
7728.305586227946
 31
0.0
  0
LINE
  5
26544
330
2606D
100
AcDbEntity
  8
寸法
 62
     0
 48
50.0
370
    -2
100
AcDbLine
 10
5823.600000000002
 20
6188.305586227947
 30
0.0
 11
4908.721909610676
 21
6188.305586227947
 31
0.0
  0
LINE
  5
26545
330
2606D
100
AcDbEntity
  8
寸法
 62
     0
 48
50.0
370
    -2
100
AcDbLine
 10
4968.721909610676
 20
7728.305586227946
 30
0.0
 11
4968.721909610676
 21
6188.305586227947
 31
0.0
  0
INSERT
  5
26546
330
2606D
100
AcDbEntity
  8
寸法
 62
     0
 48
50.0
370
    -2
100
AcDbBlockReference
  2
_DOTSMALL
 10
4968.721909610676
 20
7728.305586227946
 30
0.0
 41
100.0
 42
100.0
 43
100.0
 50
90.0
  0
INSERT
  5
26547
330
2606D
100
AcDbEntity
  8
寸法
 62
     0
 48
50.0
370
    -2
100
AcDbBlockReference
  2
_DOTSMALL
 10
4968.721909610676
 20
6188.305586227947
 30
0.0
 41
100.0
 42
100.0
 43
100.0
 50
270.0
  0
MTEXT
  5
26548
330
2606D
100
AcDbEntity
  8
寸法
 62
     7
 48
50.0
100
AcDbMText
 10
4868.721909610674
 20
6995.805586227946
 30
0.0
 40
120.0
 41
0.0
 71
     5
 72
     1
  1
\A1;1540
  7
STYLE1
 11
0.0000000000000001
 21
1.0
 31
0.0
 73
     1
 44
1.0
1001
ACAD
1000
MTEXTBEGIN
1070
    73
1070
     1
1070
    44
1040
1.0
1070
    74
1070
     0
1000
MTEXTEND
  0
POINT
  5
26549
330
2606D
100
AcDbEntity
  8
DEFPOINTS
 62
     0
 48
50.0
100
AcDbPoint
 10
5843.600000000002
 20
7728.305586227946
 30
0.0
  0
POINT
  5
2654A
330
2606D
100
AcDbEntity
  8
DEFPOINTS
 62
     0
 48
50.0
100
AcDbPoint
 10
5843.600000000002
 20
6188.305586227947
 30
0.0
  0
POINT
  5
2654B
330
2606D
100
AcDbEntity
  8
DEFPOINTS
 62
     0
 48
50.0
100
AcDbPoint
 10
4968.721909610676
 20
6188.305586227947
 30
0.0
  0
ENDBLK
  5
26078
330
2606D
100
AcDbEntity
  8
0
 48
50.0
100
AcDbBlockEnd
  0
BLOCK
  5
26083
330
26079
100
AcDbEntity
  8
0
 48
50.0
100
AcDbBlockBegin
  2
*D33
 70
     1
 10
0.0
 20
0.0
 30
0.0
  3
*D33
  1

  0
LINE
  5
265CF
330
26079
100
AcDbEntity
  8
寸法
 62
     0
 48
50.0
370
    -2
100
AcDbLine
 10
5896.600000000002
 20
7605.305586227948
 30
0.0
 11
5160.665006330074
 21
7605.305586227948
 31
0.0
  0
LINE
  5
265D0
330
26079
100
AcDbEntity
  8
寸法
 62
     0
 48
50.0
370
    -2
100
AcDbLine
 10
5896.60000000001
 20
6386.305586227951
 30
0.0
 11
5160.665006330074
 21
6386.305586227951
 31
0.0
  0
LINE
  5
265D1
330
26079
100
AcDbEntity
  8
寸法
 62
     0
 48
50.0
370
    -2
100
AcDbLine
 10
5220.665006330075
 20
7605.305586227948
 30
0.0
 11
5220.665006330075
 21
6386.305586227951
 31
0.0
  0
INSERT
  5
265D2
330
26079
100
AcDbEntity
  8
寸法
 62
     0
 48
50.0
370
    -2
100
AcDbBlockReference
  2
_DOTSMALL
 10
5220.665006330075
 20
7605.305586227948
 30
0.0
 41
100.0
 42
100.0
 43
100.0
 50
90.0
  0
INSERT
  5
265D3
330
26079
100
AcDbEntity
  8
寸法
 62
     0
 48
50.0
370
    -2
100
AcDbBlockReference
  2
_DOTSMALL
 10
5220.665006330075
 20
6386.305586227951
 30
0.0
 41
100.0
 42
100.0
 43
100.0
 50
270.0
  0
MTEXT
  5
265D4
330
26079
100
AcDbEntity
  8
寸法
 62
     7
 48
50.0
100
AcDbMText
 10
5120.653195306451
 20
6995.805586227946
 30
0.0
 40
120.0
 41
0.0
 71
     5
 72
     1
  1
\A1;1219
  7
STYLE1
 11
0.0000000000000001
 21
1.0
 31
0.0
 73
     1
 44
1.0
1001
ACAD
1000
MTEXTBEGIN
1070
    73
1070
     1
1070
    44
1040
1.0
1070
    74
1070
     0
1000
MTEXTEND
  0
POINT
  5
265D5
330
26079
100
AcDbEntity
  8
DEFPOINTS
 62
     0
 48
50.0
100
AcDbPoint
 10
5916.600000000002
 20
7605.305586227948
 30
0.0
  0
POINT
  5
265D6
330
26079
100
AcDbEntity
  8
DEFPOINTS
 62
     0
 48
50.0
100
AcDbPoint
 10
5916.600000000009
 20
6386.305586227951
 30
0.0
  0
POINT
  5
265D7
330
26079
100
AcDbEntity
  8
DEFPOINTS
 62
     0
 48
50.0
100
AcDbPoint
 10
5220.665006330075
 20
6386.305586227951
 30
0.0
  0
ENDBLK
  5
26084
330
26079
100
AcDbEntity
  8
0
 48
50.0
100
AcDbBlockEnd
  0
BLOCK
  5
26090
330
26085
100
AcDbEntity
  8
0
 48
50.0
100
AcDbBlockBegin
  2
*D34
 70
     1
 10
0.0
 20
0.0
 30
0.0
  3
*D34
  1

  0
LINE
  5
265C5
330
26085
100
AcDbEntity
  8
寸法
 62
     0
 48
50.0
370
    -2
100
AcDbLine
 10
5896.60000000001
 20
6386.305586227951
 30
0.0
 11
5160.665006330074
 21
6386.305586227951
 31
0.0
  0
LINE
  5
265C6
330
26085
100
AcDbEntity
  8
寸法
 62
     0
 48
50.0
370
    -2
100
AcDbLine
 10
5823.600000000002
 20
6188.305586227947
 30
0.0
 11
5160.665006330074
 21
6188.305586227947
 31
0.0
  0
LINE
  5
265C7
330
26085
100
AcDbEntity
  8
寸法
 62
     0
 48
50.0
370
    -2
100
AcDbLine
 10
5220.665006330075
 20
6386.305586227951
 30
0.0
 11
5220.665006330075
 21
6188.305586227947
 31
0.0
  0
LINE
  5
265C8
330
26085
100
AcDbEntity
  8
寸法
 62
     0
 48
50.0
370
    -2
100
AcDbLine
 10
5220.665006330075
 20
6188.305586227947
 30
0.0
 11
5220.665006330074
 21
5716.564977555698
 31
0.0
  0
INSERT
  5
265C9
330
26085
100
AcDbEntity
  8
寸法
 62
     0
 48
50.0
370
    -2
100
AcDbBlockReference
  2
_DOTSMALL
 10
5220.665006330075
 20
6386.305586227951
 30
0.0
 41
100.0
 42
100.0
 43
100.0
 50
90.0
  0
INSERT
  5
265CA
330
26085
100
AcDbEntity
  8
寸法
 62
     0
 48
50.0
370
    -2
100
AcDbBlockReference
  2
_DOTSMALL
 10
5220.665006330075
 20
6188.305586227947
 30
0.0
 41
100.0
 42
100.0
 43
100.0
 50
270.0
  0
MTEXT
  5
265CB
330
26085
100
AcDbEntity
  8
寸法
 62
     7
 48
50.0
100
AcDbMText
 10
5120.665006330074
 20
5852.774637385355
 30
0.0
 40
120.0
 41
0.0
 71
     5
 72
     1
  1
\A1;198
  7
STYLE1
 11
0.0000000000000001
 21
1.0
 31
0.0
 73
     1
 44
1.0
1001
ACAD
1000
MTEXTBEGIN
1070
    73
1070
     1
1070
    44
1040
1.0
1070
    74
1070
     0
1000
MTEXTEND
  0
POINT
  5
265CC
330
26085
100
AcDbEntity
  8
DEFPOINTS
 62
     0
 48
50.0
100
AcDbPoint
 10
5916.600000000009
 20
6386.305586227951
 30
0.0
  0
POINT
  5
265CD
330
26085
100
AcDbEntity
  8
DEFPOINTS
 62
     0
 48
50.0
100
AcDbPoint
 10
5843.600000000002
 20
6188.305586227947
 30
0.0
  0
POINT
  5
265CE
330
26085
100
AcDbEntity
  8
DEFPOINTS
 62
     0
 48
50.0
100
AcDbPoint
 10
5220.665006330075
 20
6188.305586227947
 30
0.0
  0
ENDBLK
  5
26091
330
26085
100
AcDbEntity
  8
0
 48
50.0
100
AcDbBlockEnd
  0
BLOCK
  5
260A8
330
2609E
100
AcDbEntity
  8
0
 48
50.0
100
AcDbBlockBegin
  2
*D35
 70
     1
 10
0.0
 20
0.0
 30
0.0
  3
*D35
  1

  0
LINE
  5
2651D
330
2609E
100
AcDbEntity
  8
寸法
 62
     0
 48
50.0
370
    -2
100
AcDbLine
 10
5823.600000000006
 20
6188.305586227944
 30
0.0
 11
5670.512673767884
 21
6188.305586227944
 31
0.0
  0
LINE
  5
2651E
330
2609E
100
AcDbEntity
  8
寸法
 62
     0
 48
50.0
370
    -2
100
AcDbLine
 10
6179.325326928811
 20
5468.305586227944
 30
0.0
 11
5670.512673767883
 21
5468.305586227945
 31
0.0
  0
LINE
  5
2651F
330
2609E
100
AcDbEntity
  8
寸法
 62
     0
 48
50.0
370
    -2
100
AcDbLine
 10
5730.512673767884
 20
6188.305586227944
 30
0.0
 11
5730.512673767883
 21
5468.305586227945
 31
0.0
  0
INSERT
  5
26520
330
2609E
100
AcDbEntity
  8
寸法
 62
     0
 48
50.0
370
    -2
100
AcDbBlockReference
  2
_DOTSMALL
 10
5730.512673767884
 20
6188.305586227944
 30
0.0
 41
100.0
 42
100.0
 43
100.0
 50
90.0
  0
INSERT
  5
26521
330
2609E
100
AcDbEntity
  8
寸法
 62
     0
 48
50.0
370
    -2
100
AcDbBlockReference
  2
_DOTSMALL
 10
5730.512673767883
 20
5468.305586227945
 30
0.0
 41
100.0
 42
100.0
 43
100.0
 50
270.0
  0
MTEXT
  5
26522
330
2609E
100
AcDbEntity
  8
寸法
 62
     7
 48
50.0
100
AcDbMText
 10
5630.50086274426
 20
5828.305586227945
 30
0.0
 40
120.0
 41
0.0
 71
     5
 72
     1
  1
\A1;扉の出720
  7
STYLE1
 11
0.0000000000000001
 21
1.0
 31
0.0
 73
     1
 44
1.0
1001
ACAD
1000
MTEXTBEGIN
1070
    73
1070
     1
1070
    44
1040
1.0
1070
    74
1070
     0
1000
MTEXTEND
  0
POINT
  5
26523
330
2609E
100
AcDbEntity
  8
DEFPOINTS
 62
     0
 48
50.0
100
AcDbPoint
 10
5843.600000000005
 20
6188.305586227944
 30
0.0
  0
POINT
  5
26524
330
2609E
100
AcDbEntity
  8
DEFPOINTS
 62
     0
 48
50.0
100
AcDbPoint
 10
6199.325326928811
 20
5468.305586227944
 30
0.0
  0
POINT
  5
26525
330
2609E
100
AcDbEntity
  8
DEFPOINTS
 62
     0
 48
50.0
100
AcDbPoint
 10
5730.512673767883
 20
5468.305586227945
 30
0.0
  0
ENDBLK
  5
260A9
330
2609E
100
AcDbEntity
  8
0
 48
50.0
100
AcDbBlockEnd
  0
BLOCK
  5
260B4
330
260AA
100
AcDbEntity
  8
0
 48
50.0
100
AcDbBlockBegin
  2
*D36
 70
     1
 10
0.0
 20
0.0
 30
0.0
  3
*D36
  1

  0
LINE
  5
2662B
330
260AA
100
AcDbEntity
  8
寸法
 62
     0
 48
50.0
370
    -2
100
AcDbLine
 10
6397.765475140903
 20
6188.305586227958
 30
0.0
 11
6266.285990614304
 21
6188.305586227958
 31
0.0
  0
LINE
  5
2662C
330
260AA
100
AcDbEntity
  8
寸法
 62
     0
 48
50.0
370
    -2
100
AcDbLine
 10
6728.60000000001
 20
6995.305586227947
 30
0.0
 11
6266.285990614304
 21
6995.305586227947
 31
0.0
  0
LINE
  5
2662D
330
260AA
100
AcDbEntity
  8
寸法
 62
     0
 48
50.0
370
    -2
100
AcDbLine
 10
6326.285990614304
 20
6188.305586227958
 30
0.0
 11
6326.285990614304
 21
6995.305586227947
 31
0.0
  0
INSERT
  5
2662E
330
260AA
100
AcDbEntity
  8
寸法
 62
     0
 48
50.0
370
    -2
100
AcDbBlockReference
  2
_DOTSMALL
 10
6326.285990614304
 20
6188.305586227958
 30
0.0
 41
100.0
 42
100.0
 43
100.0
 50
270.0
  0
INSERT
  5
2662F
330
260AA
100
AcDbEntity
  8
寸法
 62
     0
 48
50.0
370
    -2
100
AcDbBlockReference
  2
_DOTSMALL
 10
6326.285990614304
 20
6995.305586227947
 30
0.0
 41
100.0
 42
100.0
 43
100.0
 50
90.0
  0
MTEXT
  5
26630
330
260AA
100
AcDbEntity
  8
寸法
 62
     7
 48
50.0
100
AcDbMText
 10
6226.285990614302
 20
6673.305586227947
 30
0.0
 40
120.0
 41
0.0
 71
     5
 72
     1
  1
\A1;807
  7
STYLE1
 11
0.0000000000000001
 21
1.0
 31
0.0
 73
     1
 44
1.0
1001
ACAD
1000
MTEXTBEGIN
1070
    73
1070
     1
1070
    44
1040
1.0
1070
    74
1070
     0
1000
MTEXTEND
  0
POINT
  5
26631
330
260AA
100
AcDbEntity
  8
DEFPOINTS
 62
     0
 48
50.0
100
AcDbPoint
 10
6417.765475140902
 20
6188.305586227958
 30
0.0
  0
POINT
  5
26632
330
260AA
100
AcDbEntity
  8
DEFPOINTS
 62
     0
 48
50.0
100
AcDbPoint
 10
6748.600000000009
 20
6995.305586227947
 30
0.0
  0
POINT
  5
26633
330
260AA
100
AcDbEntity
  8
DEFPOINTS
 62
     0
 48
50.0
100
AcDbPoint
 10
6326.285990614304
 20
6995.305586227947
 30
0.0
  0
ENDBLK
  5
260B5
330
260AA
100
AcDbEntity
  8
0
 48
50.0
100
AcDbBlockEnd
  0
BLOCK
  5
260D8
330
260CD
100
AcDbEntity
  8
0
 48
50.0
100
AcDbBlockBegin
  2
*D37
 70
     1
 10
0.0
 20
0.0
 30
0.0
  3
*D37
  1

  0
LINE
  5
26526
330
260CD
100
AcDbEntity
  8
寸法
 62
     0
 48
50.0
370
    -2
100
AcDbLine
 10
5823.600000000002
 20
7728.305586227946
 30
0.0
 11
5160.665006330074
 21
7728.305586227946
 31
0.0
  0
LINE
  5
26527
330
260CD
100
AcDbEntity
  8
寸法
 62
     0
 48
50.0
370
    -2
100
AcDbLine
 10
5896.600000000002
 20
7605.305586227948
 30
0.0
 11
5160.665006330074
 21
7605.305586227948
 31
0.0
  0
LINE
  5
26528
330
260CD
100
AcDbEntity
  8
寸法
 62
     0
 48
50.0
370
    -2
100
AcDbLine
 10
5220.665006330074
 20
7605.305586227948
 30
0.0
 11
5220.665006330074
 21
7728.305586227946
 31
0.0
  0
LINE
  5
26529
330
260CD
100
AcDbEntity
  8
寸法
 62
     0
 48
50.0
370
    -2
100
AcDbLine
 10
5220.665006330074
 20
7728.305586227946
 30
0.0
 11
5220.665006330074
 21
8139.897469319986
 31
0.0
  0
INSERT
  5
2652A
330
260CD
100
AcDbEntity
  8
寸法
 62
     0
 48
50.0
370
    -2
100
AcDbBlockReference
  2
_DOTSMALL
 10
5220.665006330074
 20
7605.305586227948
 30
0.0
 41
100.0
 42
100.0
 43
100.0
 50
270.0
  0
INSERT
  5
2652B
330
260CD
100
AcDbEntity
  8
寸法
 62
     0
 48
50.0
370
    -2
100
AcDbBlockReference
  2
_DOTSMALL
 10
5220.665006330074
 20
7728.305586227946
 30
0.0
 41
100.0
 42
100.0
 43
100.0
 50
90.0
  0
MTEXT
  5
2652C
330
260CD
100
AcDbEntity
  8
寸法
 62
     7
 48
50.0
100
AcDbMText
 10
5120.653195306451
 20
8001.412187945748
 30
0.0
 40
120.0
 41
0.0
 71
     5
 72
     1
  1
\A1;123
  7
STYLE1
 11
0.0000000000000001
 21
1.0
 31
0.0
 73
     1
 44
1.0
1001
ACAD
1000
MTEXTBEGIN
1070
    73
1070
     1
1070
    44
1040
1.0
1070
    74
1070
     0
1000
MTEXTEND
  0
POINT
  5
2652D
330
260CD
100
AcDbEntity
  8
DEFPOINTS
 62
     0
 48
50.0
100
AcDbPoint
 10
5843.600000000002
 20
7728.305586227946
 30
0.0
  0
POINT
  5
2652E
330
260CD
100
AcDbEntity
  8
DEFPOINTS
 62
     0
 48
50.0
100
AcDbPoint
 10
5916.600000000002
 20
7605.305586227948
 30
0.0
  0
POINT
  5
2652F
330
260CD
100
AcDbEntity
  8
DEFPOINTS
 62
     0
 48
50.0
100
AcDbPoint
 10
5220.665006330074
 20
7605.305586227948
 30
0.0
  0
ENDBLK
  5
260D9
330
260CD
100
AcDbEntity
  8
0
 48
50.0
100
AcDbBlockEnd
  0
BLOCK
  5
260E3
330
260DA
100
AcDbEntity
  8
0
 48
50.0
100
AcDbBlockBegin
  2
*D38
 70
     1
 10
0.0
 20
0.0
 30
0.0
  3
*D38
  1

  0
LINE
  5
264E7
330
260DA
100
AcDbEntity
  8
寸法
 62
     0
 48
50.0
370
    -2
100
AcDbLine
 10
7630.600000000002
 20
7675.305586227946
 30
0.0
 11
7630.600000000002
 21
8514.572044321857
 31
0.0
  0
LINE
  5
264E8
330
260DA
100
AcDbEntity
  8
寸法
 62
     0
 48
50.0
370
    -2
100
AcDbLine
 10
5966.600000000003
 20
7675.305586227946
 30
0.0
 11
5966.600000000003
 21
8514.572044321857
 31
0.0
  0
LINE
  5
264E9
330
260DA
100
AcDbEntity
  8
寸法
 62
     0
 48
50.0
370
    -2
100
AcDbLine
 10
7630.600000000002
 20
8454.572044321858
 30
0.0
 11
5966.600000000003
 21
8454.572044321858
 31
0.0
  0
INSERT
  5
264EA
330
260DA
100
AcDbEntity
  8
寸法
 62
     0
 48
50.0
370
    -2
100
AcDbBlockReference
  2
_DOTSMALL
 10
7630.600000000002
 20
8454.572044321858
 30
0.0
 41
100.0
 42
100.0
 43
100.0
  0
INSERT
  5
264EB
330
260DA
100
AcDbEntity
  8
寸法
 62
     0
 48
50.0
370
    -2
100
AcDbBlockReference
  2
_DOTSMALL
 10
5966.600000000003
 20
8454.572044321858
 30
0.0
 41
100.0
 42
100.0
 43
100.0
 50
180.0
  0
MTEXT
  5
264EC
330
260DA
100
AcDbEntity
  8
寸法
 62
     7
 48
50.0
100
AcDbMText
 10
6798.600000000002
 20
8554.572044321858
 30
0.0
 40
120.0
 41
0.0
 71
     5
 72
     1
  1
\A1;1664
  7
STYLE1
 73
     1
 44
1.0
1001
ACAD
1000
MTEXTBEGIN
1070
    73
1070
     1
1070
    44
1040
1.0
1070
    74
1070
     0
1000
MTEXTEND
  0
POINT
  5
264ED
330
260DA
100
AcDbEntity
  8
DEFPOINTS
 62
     0
 48
50.0
100
AcDbPoint
 10
7630.600000000002
 20
7655.305586227948
 30
0.0
  0
POINT
  5
264EE
330
260DA
100
AcDbEntity
  8
DEFPOINTS
 62
     0
 48
50.0
100
AcDbPoint
 10
5966.600000000003
 20
7655.305586227948
 30
0.0
  0
POINT
  5
264EF
330
260DA
100
AcDbEntity
  8
DEFPOINTS
 62
     0
 48
50.0
100
AcDbPoint
 10
5966.600000000003
 20
8454.572044321858
 30
0.0
  0
ENDBLK
  5
260E4
330
260DA
100
AcDbEntity
  8
0
 48
50.0
100
AcDbBlockEnd
  0
BLOCK
  5
260F0
330
260E5
100
AcDbEntity
  8
0
 48
50.0
100
AcDbBlockBegin
  2
*D39
 70
     1
 10
0.0
 20
0.0
 30
0.0
  3
*D39
  1

  0
LINE
  5
264DD
330
260E5
100
AcDbEntity
  8
寸法
 62
     0
 48
50.0
370
    -2
100
AcDbLine
 10
5966.600000000003
 20
7675.305586227946
 30
0.0
 11
5966.600000000003
 21
8514.572044321857
 31
0.0
  0
LINE
  5
264DE
330
260E5
100
AcDbEntity
  8
寸法
 62
     0
 48
50.0
370
    -2
100
AcDbLine
 10
5843.600000000002
 20
7748.305586227947
 30
0.0
 11
5843.600000000002
 21
8514.572044321857
 31
0.0
  0
LINE
  5
264DF
330
260E5
100
AcDbEntity
  8
寸法
 62
     0
 48
50.0
370
    -2
100
AcDbLine
 10
5966.600000000003
 20
8454.572044321858
 30
0.0
 11
5843.600000000002
 21
8454.572044321858
 31
0.0
  0
LINE
  5
264E0
330
260E5
100
AcDbEntity
  8
寸法
 62
     0
 48
50.0
370
    -2
100
AcDbLine
 10
5843.600000000002
 20
8454.572044321858
 30
0.0
 11
5432.008116907965
 21
8454.572044321858
 31
0.0
  0
INSERT
  5
264E1
330
260E5
100
AcDbEntity
  8
寸法
 62
     0
 48
50.0
370
    -2
100
AcDbBlockReference
  2
_DOTSMALL
 10
5966.600000000003
 20
8454.572044321858
 30
0.0
 41
100.0
 42
100.0
 43
100.0
  0
INSERT
  5
264E2
330
260E5
100
AcDbEntity
  8
寸法
 62
     0
 48
50.0
370
    -2
100
AcDbBlockReference
  2
_DOTSMALL
 10
5843.600000000002
 20
8454.572044321858
 30
0.0
 41
100.0
 42
100.0
 43
100.0
 50
180.0
  0
MTEXT
  5
264E3
330
260E5
100
AcDbEntity
  8
寸法
 62
     7
 48
50.0
100
AcDbMText
 10
5570.493398282204
 20
8554.58385534548
 30
0.0
 40
120.0
 41
0.0
 71
     5
 72
     1
  1
\A1;123
  7
STYLE1
 73
     1
 44
1.0
1001
ACAD
1000
MTEXTBEGIN
1070
    73
1070
     1
1070
    44
1040
1.0
1070
    74
1070
     0
1000
MTEXTEND
  0
POINT
  5
264E4
330
260E5
100
AcDbEntity
  8
DEFPOINTS
 62
     0
 48
50.0
100
AcDbPoint
 10
5966.600000000003
 20
7655.305586227948
 30
0.0
  0
POINT
  5
264E5
330
260E5
100
AcDbEntity
  8
DEFPOINTS
 62
     0
 48
50.0
100
AcDbPoint
 10
5843.600000000002
 20
7728.305586227946
 30
0.0
  0
POINT
  5
264E6
330
260E5
100
AcDbEntity
  8
DEFPOINTS
 62
     0
 48
50.0
100
AcDbPoint
 10
5843.600000000002
 20
8454.572044321858
 30
0.0
  0
ENDBLK
  5
260F1
330
260E5
100
AcDbEntity
  8
0
 48
50.0
100
AcDbBlockEnd
  0
BLOCK
  5
26116
330
2610C
100
AcDbEntity
  8
0
 48
50.0
100
AcDbBlockBegin
  2
*D40
 70
     1
 10
0.0
 20
0.0
 30
0.0
  3
*D40
  1

  0
LINE
  5
265F5
330
2610C
100
AcDbEntity
  8
寸法
 62
     0
 48
50.0
370
    -2
100
AcDbLine
 10
9648.60000000001
 20
7065.305586227947
 30
0.0
 11
9648.60000000001
 21
8270.914402898196
 31
0.0
  0
LINE
  5
265F6
330
2610C
100
AcDbEntity
  8
寸法
 62
     0
 48
50.0
370
    -2
100
AcDbLine
 10
8698.600000000009
 20
7065.305586227947
 30
0.0
 11
8698.600000000009
 21
8270.914402898196
 31
0.0
  0
LINE
  5
265F7
330
2610C
100
AcDbEntity
  8
寸法
 62
     0
 48
50.0
370
    -2
100
AcDbLine
 10
9648.60000000001
 20
8210.914402898195
 30
0.0
 11
8698.600000000009
 21
8210.914402898195
 31
0.0
  0
INSERT
  5
265F8
330
2610C
100
AcDbEntity
  8
寸法
 62
     0
 48
50.0
370
    -2
100
AcDbBlockReference
  2
_DOTSMALL
 10
9648.60000000001
 20
8210.914402898195
 30
0.0
 41
100.0
 42
100.0
 43
100.0
  0
INSERT
  5
265F9
330
2610C
100
AcDbEntity
  8
寸法
 62
     0
 48
50.0
370
    -2
100
AcDbBlockReference
  2
_DOTSMALL
 10
8698.600000000009
 20
8210.914402898195
 30
0.0
 41
100.0
 42
100.0
 43
100.0
 50
180.0
  0
MTEXT
  5
265FA
330
2610C
100
AcDbEntity
  8
寸法
 62
     7
 48
50.0
100
AcDbMText
 10
9173.600000000009
 20
8310.914402898196
 30
0.0
 40
120.0
 41
0.0
 71
     5
 72
     1
  1
\A1;950
  7
STYLE1
 73
     1
 44
1.0
1001
ACAD
1000
MTEXTBEGIN
1070
    73
1070
     1
1070
    44
1040
1.0
1070
    74
1070
     0
1000
MTEXTEND
  0
POINT
  5
265FB
330
2610C
100
AcDbEntity
  8
DEFPOINTS
 62
     0
 48
50.0
100
AcDbPoint
 10
9648.60000000001
 20
7045.305586227947
 30
0.0
  0
POINT
  5
265FC
330
2610C
100
AcDbEntity
  8
DEFPOINTS
 62
     0
 48
50.0
100
AcDbPoint
 10
8698.600000000009
 20
7045.305586227947
 30
0.0
  0
POINT
  5
265FD
330
2610C
100
AcDbEntity
  8
DEFPOINTS
 62
     0
 48
50.0
100
AcDbPoint
 10
8698.600000000009
 20
8210.914402898195
 30
0.0
  0
ENDBLK
  5
26117
330
2610C
100
AcDbEntity
  8
0
 48
50.0
100
AcDbBlockEnd
  0
BLOCK
  5
26122
330
26118
100
AcDbEntity
  8
0
 48
50.0
100
AcDbBlockBegin
  2
*D41
 70
     1
 10
0.0
 20
0.0
 30
0.0
  3
*D41
  1

  0
LINE
  5
265E3
330
26118
100
AcDbEntity
  8
寸法
 62
     0
 48
50.0
370
    -2
100
AcDbLine
 10
10603.6
 20
7748.305586227947
 30
0.0
 11
10603.6
 21
8270.914402898196
 31
0.0
  0
LINE
  5
265E4
330
26118
100
AcDbEntity
  8
寸法
 62
     0
 48
50.0
370
    -2
100
AcDbLine
 10
9648.60000000001
 20
7065.305586227947
 30
0.0
 11
9648.60000000001
 21
8270.914402898196
 31
0.0
  0
LINE
  5
265E5
330
26118
100
AcDbEntity
  8
寸法
 62
     0
 48
50.0
370
    -2
100
AcDbLine
 10
10603.6
 20
8210.914402898195
 30
0.0
 11
9648.60000000001
 21
8210.914402898195
 31
0.0
  0
INSERT
  5
265E6
330
26118
100
AcDbEntity
  8
寸法
 62
     0
 48
50.0
370
    -2
100
AcDbBlockReference
  2
_DOTSMALL
 10
10603.6
 20
8210.914402898195
 30
0.0
 41
100.0
 42
100.0
 43
100.0
  0
INSERT
  5
265E7
330
26118
100
AcDbEntity
  8
寸法
 62
     0
 48
50.0
370
    -2
100
AcDbBlockReference
  2
_DOTSMALL
 10
9648.60000000001
 20
8210.914402898195
 30
0.0
 41
100.0
 42
100.0
 43
100.0
 50
180.0
  0
MTEXT
  5
265E8
330
26118
100
AcDbEntity
  8
寸法
 62
     7
 48
50.0
100
AcDbMText
 10
10126.1
 20
8310.914402898196
 30
0.0
 40
120.0
 41
0.0
 71
     5
 72
     1
  1
\A1;955
  7
STYLE1
 73
     1
 44
1.0
1001
ACAD
1000
MTEXTBEGIN
1070
    73
1070
     1
1070
    44
1040
1.0
1070
    74
1070
     0
1000
MTEXTEND
  0
POINT
  5
265E9
330
26118
100
AcDbEntity
  8
DEFPOINTS
 62
     0
 48
50.0
100
AcDbPoint
 10
10603.6
 20
7728.305586227946
 30
0.0
  0
POINT
  5
265EA
330
26118
100
AcDbEntity
  8
DEFPOINTS
 62
     0
 48
50.0
100
AcDbPoint
 10
9648.60000000001
 20
7045.305586227947
 30
0.0
  0
POINT
  5
265EB
330
26118
100
AcDbEntity
  8
DEFPOINTS
 62
     0
 48
50.0
100
AcDbPoint
 10
9648.60000000001
 20
8210.914402898195
 30
0.0
  0
ENDBLK
  5
26123
330
26118
100
AcDbEntity
  8
0
 48
50.0
100
AcDbBlockEnd
  0
BLOCK
  5
2613C
330
26131
100
AcDbEntity
  8
0
 48
50.0
100
AcDbBlockBegin
  2
*D42
 70
     1
 10
0.0
 20
0.0
 30
0.0
  3
*D42
  1

  0
LINE
  5
264C1
330
26131
100
AcDbEntity
  8
寸法
 62
     0
 48
50.0
370
    -2
100
AcDbLine
 10
10603.6
 20
7748.305586227947
 30
0.0
 11
10603.6
 21
8514.572044321857
 31
0.0
  0
LINE
  5
264C2
330
26131
100
AcDbEntity
  8
寸法
 62
     0
 48
50.0
370
    -2
100
AcDbLine
 10
10480.6
 20
7675.305586227946
 30
0.0
 11
10480.6
 21
8514.572044321857
 31
0.0
  0
LINE
  5
264C3
330
26131
100
AcDbEntity
  8
寸法
 62
     0
 48
50.0
370
    -2
100
AcDbLine
 10
10480.6
 20
8454.572044321858
 30
0.0
 11
10603.6
 21
8454.572044321858
 31
0.0
  0
LINE
  5
264C4
330
26131
100
AcDbEntity
  8
寸法
 62
     0
 48
50.0
370
    -2
100
AcDbLine
 10
10603.6
 20
8454.572044321858
 30
0.0
 11
11015.19188309204
 21
8454.572044321858
 31
0.0
  0
INSERT
  5
264C5
330
26131
100
AcDbEntity
  8
寸法
 62
     0
 48
50.0
370
    -2
100
AcDbBlockReference
  2
_DOTSMALL
 10
10480.6
 20
8454.572044321858
 30
0.0
 41
100.0
 42
100.0
 43
100.0
 50
180.0
  0
INSERT
  5
264C6
330
26131
100
AcDbEntity
  8
寸法
 62
     0
 48
50.0
370
    -2
100
AcDbBlockReference
  2
_DOTSMALL
 10
10603.6
 20
8454.572044321858
 30
0.0
 41
100.0
 42
100.0
 43
100.0
  0
MTEXT
  5
264C7
330
26131
100
AcDbEntity
  8
寸法
 62
     7
 48
50.0
100
AcDbMText
 10
10876.7066017178
 20
8554.58385534548
 30
0.0
 40
120.0
 41
0.0
 71
     5
 72
     1
  1
\A1;123
  7
STYLE1
 73
     1
 44
1.0
1001
ACAD
1000
MTEXTBEGIN
1070
    73
1070
     1
1070
    44
1040
1.0
1070
    74
1070
     0
1000
MTEXTEND
  0
POINT
  5
264C8
330
26131
100
AcDbEntity
  8
DEFPOINTS
 62
     0
 48
50.0
100
AcDbPoint
 10
10603.6
 20
7728.305586227946
 30
0.0
  0
POINT
  5
264C9
330
26131
100
AcDbEntity
  8
DEFPOINTS
 62
     0
 48
50.0
100
AcDbPoint
 10
10480.6
 20
7655.305586227948
 30
0.0
  0
POINT
  5
264CA
330
26131
100
AcDbEntity
  8
DEFPOINTS
 62
     0
 48
50.0
100
AcDbPoint
 10
10480.6
 20
8454.572044321858
 30
0.0
  0
ENDBLK
  5
2613D
330
26131
100
AcDbEntity
  8
0
 48
50.0
100
AcDbBlockEnd
  0
BLOCK
  5
269B2
330
269A8
100
AcDbEntity
  8
0
 48
50.0
100
AcDbBlockBegin
  2
*D43
 70
     1
 10
0.0
 20
0.0
 30
0.0
  3
*D43
  1

  0
LINE
  5
269F2
330
269A8
100
AcDbEntity
  8
寸法
 62
     0
 48
50.0
370
    -2
100
AcDbLine
 10
6296.124437498104
 20
2006.107163576473
 30
0.0
 11
6296.124437498104
 21
2465.774971492853
 31
0.0
  0
LINE
  5
269F3
330
269A8
100
AcDbEntity
  8
寸法
 62
     0
 48
50.0
370
    -2
100
AcDbLine
 10
6104.124437498104
 20
2006.107163576473
 30
0.0
 11
6104.124437498104
 21
2465.774971492853
 31
0.0
  0
LINE
  5
269F4
330
269A8
100
AcDbEntity
  8
寸法
 62
     0
 48
50.0
370
    -2
100
AcDbLine
 10
6296.124437498104
 20
2405.774971492853
 30
0.0
 11
6104.124437498104
 21
2405.774971492853
 31
0.0
  0
INSERT
  5
269F5
330
269A8
100
AcDbEntity
  8
寸法
 62
     0
 48
50.0
370
    -2
100
AcDbBlockReference
  2
_DOTSMALL
 10
6296.124437498104
 20
2405.774971492853
 30
0.0
 41
100.0
 42
100.0
 43
100.0
  0
INSERT
  5
269F6
330
269A8
100
AcDbEntity
  8
寸法
 62
     0
 48
50.0
370
    -2
100
AcDbBlockReference
  2
_DOTSMALL
 10
6104.124437498104
 20
2405.774971492853
 30
0.0
 41
100.0
 42
100.0
 43
100.0
 50
180.0
  0
MTEXT
  5
269F7
330
269A8
100
AcDbEntity
  8
寸法
 62
     7
 48
50.0
100
AcDbMText
 10
6200.124437498104
 20
2705.810404563719
 30
0.0
 40
120.0
 41
0.0
 71
     5
 72
     1
  1
\A1;120\P200\P280
  7
STYLE1
 73
     1
 44
1.0
1001
ACAD
1000
MTEXTBEGIN
1070
    73
1070
     1
1070
    44
1040
1.0
1070
    74
1070
     0
1000
MTEXTEND
  0
POINT
  5
269F8
330
269A8
100
AcDbEntity
  8
DEFPOINTS
 62
     0
 48
50.0
100
AcDbPoint
 10
6296.124437498104
 20
1986.107163576473
 30
0.0
  0
POINT
  5
269F9
330
269A8
100
AcDbEntity
  8
DEFPOINTS
 62
     0
 48
50.0
100
AcDbPoint
 10
6104.124437498104
 20
1986.107163576473
 30
0.0
  0
POINT
  5
269FA
330
269A8
100
AcDbEntity
  8
DEFPOINTS
 62
     0
 48
50.0
100
AcDbPoint
 10
6104.124437498104
 20
2405.774971492853
 30
0.0
  0
ENDBLK
  5
269B3
330
269A8
100
AcDbEntity
  8
0
 48
50.0
100
AcDbBlockEnd
  0
BLOCK
  5
269BE
330
269B4
100
AcDbEntity
  8
0
 48
50.0
100
AcDbBlockBegin
  2
*D44
 70
     1
 10
0.0
 20
0.0
 30
0.0
  3
*D44
  1

  0
LINE
  5
269FB
330
269B4
100
AcDbEntity
  8
寸法
 62
     0
 48
50.0
370
    -2
100
AcDbLine
 10
8238.163750675296
 20
1986.107163576473
 30
0.0
 11
8780.032350444141
 21
1986.107163576473
 31
0.0
  0
LINE
  5
269FC
330
269B4
100
AcDbEntity
  8
寸法
 62
     0
 48
50.0
370
    -2
100
AcDbLine
 10
8238.163750675296
 20
1662.107163576472
 30
0.0
 11
8780.032350444141
 21
1662.107163576472
 31
0.0
  0
LINE
  5
269FD
330
269B4
100
AcDbEntity
  8
寸法
 62
     0
 48
50.0
370
    -2
100
AcDbLine
 10
8720.032350444141
 20
1986.107163576473
 30
0.0
 11
8720.032350444141
 21
1662.107163576472
 31
0.0
  0
INSERT
  5
269FE
330
269B4
100
AcDbEntity
  8
寸法
 62
     0
 48
50.0
370
    -2
100
AcDbBlockReference
  2
_DOTSMALL
 10
8720.032350444141
 20
1986.107163576473
 30
0.0
 41
100.0
 42
100.0
 43
100.0
 50
90.0
  0
INSERT
  5
269FF
330
269B4
100
AcDbEntity
  8
寸法
 62
     0
 48
50.0
370
    -2
100
AcDbBlockReference
  2
_DOTSMALL
 10
8720.032350444141
 20
1662.107163576472
 30
0.0
 41
100.0
 42
100.0
 43
100.0
 50
270.0
  0
MTEXT
  5
26A00
330
269B4
100
AcDbEntity
  8
寸法
 62
     7
 48
50.0
100
AcDbMText
 10
8620.032350444139
 20
1824.107163576474
 30
0.0
 40
120.0
 41
0.0
 71
     5
 72
     1
  1
\A1;180
  7
STYLE1
 11
0.0000000000000001
 21
1.0
 31
0.0
 73
     1
 44
1.0
1001
ACAD
1000
MTEXTBEGIN
1070
    73
1070
     1
1070
    44
1040
1.0
1070
    74
1070
     0
1000
MTEXTEND
  0
POINT
  5
26A01
330
269B4
100
AcDbEntity
  8
DEFPOINTS
 62
     0
 48
50.0
100
AcDbPoint
 10
8218.163750675296
 20
1986.107163576473
 30
0.0
  0
POINT
  5
26A02
330
269B4
100
AcDbEntity
  8
DEFPOINTS
 62
     0
 48
50.0
100
AcDbPoint
 10
8218.163750675296
 20
1662.107163576472
 30
0.0
  0
POINT
  5
26A03
330
269B4
100
AcDbEntity
  8
DEFPOINTS
 62
     0
 48
50.0
100
AcDbPoint
 10
8720.032350444141
 20
1662.107163576472
 30
0.0
  0
ENDBLK
  5
269BF
330
269B4
100
AcDbEntity
  8
0
 48
50.0
100
AcDbBlockEnd
  0
BLOCK
  5
269CC
330
269C0
100
AcDbEntity
  8
0
 48
50.0
100
AcDbBlockBegin
  2
*D45
 70
     1
 10
0.0
 20
0.0
 30
0.0
  3
*D45
  1

  0
LINE
  5
26A04
330
269C0
100
AcDbEntity
  8
寸法
 62
     0
 48
50.0
370
    -2
100
AcDbLine
 10
8050.963750675299
 20
2038.867163576474
 30
0.0
 11
9056.087016563168
 21
2038.867163576474
 31
0.0
  0
LINE
  5
26A05
330
269C0
100
AcDbEntity
  8
寸法
 62
     0
 48
50.0
370
    -2
100
AcDbLine
 10
8238.163750675296
 20
1986.107163576473
 30
0.0
 11
9056.087016563168
 21
1986.107163576473
 31
0.0
  0
LINE
  5
26A06
330
269C0
100
AcDbEntity
  8
寸法
 62
     0
 48
50.0
370
    -2
100
AcDbLine
 10
8996.087016563167
 20
2038.867163576474
 30
0.0
 11
8996.087016563167
 21
2138.867163576474
 31
0.0
  0
LINE
  5
26A07
330
269C0
100
AcDbEntity
  8
寸法
 62
     0
 48
50.0
370
    -2
100
AcDbLine
 10
8996.087016563167
 20
1986.107163576473
 30
0.0
 11
8996.087016563167
 21
1254.089356733506
 31
0.0
  0
LINE
  5
26A08
330
269C0
100
AcDbEntity
  8
寸法
 62
     0
 48
50.0
370
    -2
100
AcDbLine
 10
8996.087016563167
 20
2038.867163576474
 30
0.0
 11
8996.087016563167
 21
1986.107163576473
 31
0.0
  0
INSERT
  5
26A09
330
269C0
100
AcDbEntity
  8
寸法
 62
     0
 48
50.0
370
    -2
100
AcDbBlockReference
  2
_DOTSMALL
 10
8996.087016563167
 20
2038.867163576474
 30
0.0
 41
100.0
 42
100.0
 43
100.0
 50
270.0
  0
INSERT
  5
26A0A
330
269C0
100
AcDbEntity
  8
寸法
 62
     0
 48
50.0
370
    -2
100
AcDbBlockReference
  2
_DOTSMALL
 10
8996.087016563167
 20
1986.107163576473
 30
0.0
 41
100.0
 42
100.0
 43
100.0
 50
90.0
  0
MTEXT
  5
26A0B
330
269C0
100
AcDbEntity
  8
寸法
 62
     7
 48
50.0
100
AcDbMText
 10
8896.075205539546
 20
1520.09826015499
 30
0.0
 40
120.0
 41
0.0
 71
     5
 72
     1
  1
\A1;20～25
  7
STYLE1
 11
0.0000000000000001
 21
1.0
 31
0.0
 73
     1
 44
1.0
1001
ACAD
1000
MTEXTBEGIN
1070
    73
1070
     1
1070
    44
1040
1.0
1070
    74
1070
     0
1000
MTEXTEND
  0
POINT
  5
26A0C
330
269C0
100
AcDbEntity
  8
DEFPOINTS
 62
     0
 48
50.0
100
AcDbPoint
 10
8030.963750675299
 20
2038.867163576474
 30
0.0
  0
POINT
  5
26A0D
330
269C0
100
AcDbEntity
  8
DEFPOINTS
 62
     0
 48
50.0
100
AcDbPoint
 10
8218.163750675296
 20
1986.107163576473
 30
0.0
  0
POINT
  5
26A0E
330
269C0
100
AcDbEntity
  8
DEFPOINTS
 62
     0
 48
50.0
100
AcDbPoint
 10
8996.087016563167
 20
1986.107163576473
 30
0.0
  0
ENDBLK
  5
269CD
330
269C0
100
AcDbEntity
  8
0
 48
50.0
100
AcDbBlockEnd
  0
BLOCK
  5
269D8
330
269CE
100
AcDbEntity
  8
0
 48
50.0
100
AcDbBlockBegin
  2
*D46
 70
     1
 10
0.0
 20
0.0
 30
0.0
  3
*D46
  1

  0
LINE
  5
26A0F
330
269CE
100
AcDbEntity
  8
寸法
 62
     0
 48
50.0
370
    -2
100
AcDbLine
 10
5956.124437498104
 20
1442.107163576473
 30
0.0
 11
5773.704123765644
 21
1442.107163576473
 31
0.0
  0
LINE
  5
26A10
330
269CE
100
AcDbEntity
  8
寸法
 62
     0
 48
50.0
370
    -2
100
AcDbLine
 10
5876.124437498106
 20
1202.107163576473
 30
0.0
 11
5773.704123765644
 21
1202.107163576473
 31
0.0
  0
LINE
  5
26A11
330
269CE
100
AcDbEntity
  8
寸法
 62
     0
 48
50.0
370
    -2
100
AcDbLine
 10
5833.704123765644
 20
1442.107163576473
 30
0.0
 11
5833.704123765644
 21
1202.107163576473
 31
0.0
  0
INSERT
  5
26A12
330
269CE
100
AcDbEntity
  8
寸法
 62
     0
 48
50.0
370
    -2
100
AcDbBlockReference
  2
_DOTSMALL
 10
5833.704123765644
 20
1442.107163576473
 30
0.0
 41
100.0
 42
100.0
 43
100.0
 50
90.0
  0
INSERT
  5
26A13
330
269CE
100
AcDbEntity
  8
寸法
 62
     0
 48
50.0
370
    -2
100
AcDbBlockReference
  2
_DOTSMALL
 10
5833.704123765644
 20
1202.107163576473
 30
0.0
 41
100.0
 42
100.0
 43
100.0
 50
270.0
  0
MTEXT
  5
26A14
330
269CE
100
AcDbEntity
  8
寸法
 62
     7
 48
50.0
100
AcDbMText
 10
5733.704123765644
 20
1322.107163576474
 30
0.0
 40
120.0
 41
0.0
 71
     5
 72
     1
  1
\A1;150
  7
STYLE1
 11
0.0000000000000001
 21
1.0
 31
0.0
 73
     1
 44
1.0
1001
ACAD
1000
MTEXTBEGIN
1070
    73
1070
     1
1070
    44
1040
1.0
1070
    74
1070
     0
1000
MTEXTEND
  0
POINT
  5
26A15
330
269CE
100
AcDbEntity
  8
DEFPOINTS
 62
     0
 48
50.0
100
AcDbPoint
 10
5976.124437498103
 20
1442.107163576473
 30
0.0
  0
POINT
  5
26A16
330
269CE
100
AcDbEntity
  8
DEFPOINTS
 62
     0
 48
50.0
100
AcDbPoint
 10
5896.124437498107
 20
1202.107163576473
 30
0.0
  0
POINT
  5
26A17
330
269CE
100
AcDbEntity
  8
DEFPOINTS
 62
     0
 48
50.0
100
AcDbPoint
 10
5833.704123765644
 20
1202.107163576473
 30
0.0
  0
ENDBLK
  5
269D9
330
269CE
100
AcDbEntity
  8
0
 48
50.0
100
AcDbBlockEnd
  0
BLOCK
  5
269E4
330
269DA
100
AcDbEntity
  8
0
 48
50.0
100
AcDbBlockBegin
  2
*D47
 70
     1
 10
0.0
 20
0.0
 30
0.0
  3
*D47
  1

  0
LINE
  5
26A18
330
269DA
100
AcDbEntity
  8
寸法
 62
     0
 48
50.0
370
    -2
100
AcDbLine
 10
6084.124437498104
 20
1986.107163576473
 30
0.0
 11
5309.087198936364
 21
1986.107163576473
 31
0.0
  0
LINE
  5
26A19
330
269DA
100
AcDbEntity
  8
寸法
 62
     0
 48
50.0
370
    -2
100
AcDbLine
 10
5876.124437498106
 20
1202.107163576473
 30
0.0
 11
5309.087198936364
 21
1202.107163576473
 31
0.0
  0
LINE
  5
26A1A
330
269DA
100
AcDbEntity
  8
寸法
 62
     0
 48
50.0
370
    -2
100
AcDbLine
 10
5369.087198936363
 20
1986.107163576473
 30
0.0
 11
5369.087198936363
 21
1202.107163576473
 31
0.0
  0
INSERT
  5
26A1B
330
269DA
100
AcDbEntity
  8
寸法
 62
     0
 48
50.0
370
    -2
100
AcDbBlockReference
  2
_DOTSMALL
 10
5369.087198936363
 20
1986.107163576473
 30
0.0
 41
100.0
 42
100.0
 43
100.0
 50
90.0
  0
INSERT
  5
26A1C
330
269DA
100
AcDbEntity
  8
寸法
 62
     0
 48
50.0
370
    -2
100
AcDbBlockReference
  2
_DOTSMALL
 10
5369.087198936363
 20
1202.107163576473
 30
0.0
 41
100.0
 42
100.0
 43
100.0
 50
270.0
  0
MTEXT
  5
26A1D
330
269DA
100
AcDbEntity
  8
寸法
 62
     7
 48
50.0
100
AcDbMText
 10
5269.087198936364
 20
1573.647313232473
 30
0.0
 40
120.0
 41
0.0
 71
     5
 72
     1
  1
\A1;540
  7
STYLE1
 11
0.0000000000000001
 21
1.0
 31
0.0
 73
     1
 44
1.0
1001
ACAD
1000
MTEXTBEGIN
1070
    73
1070
     1
1070
    44
1040
1.0
1070
    74
1070
     0
1000
MTEXTEND
  0
POINT
  5
26A1E
330
269DA
100
AcDbEntity
  8
DEFPOINTS
 62
     0
 48
50.0
100
AcDbPoint
 10
6104.124437498104
 20
1986.107163576473
 30
0.0
  0
POINT
  5
26A1F
330
269DA
100
AcDbEntity
  8
DEFPOINTS
 62
     0
 48
50.0
100
AcDbPoint
 10
5896.124437498107
 20
1202.107163576473
 30
0.0
  0
POINT
  5
26A20
330
269DA
100
AcDbEntity
  8
DEFPOINTS
 62
     0
 48
50.0
100
AcDbPoint
 10
5369.087198936363
 20
1202.107163576473
 30
0.0
  0
ENDBLK
  5
269E5
330
269DA
100
AcDbEntity
  8
0
 48
50.0
100
AcDbBlockEnd
  0
BLOCK
  5
269F0
330
269E6
100
AcDbEntity
  8
0
 48
50.0
100
AcDbBlockBegin
  2
*D48
 70
     1
 10
0.0
 20
0.0
 30
0.0
  3
*D48
  1

  0
LINE
  5
26A21
330
269E6
100
AcDbEntity
  8
寸法
 62
     0
 48
50.0
370
    -2
100
AcDbLine
 10
5976.124437498103
 20
1054.107163576473
 30
0.0
 11
5976.124437498103
 21
603.6775255713128
 31
0.0
  0
LINE
  5
26A22
330
269E6
100
AcDbEntity
  8
寸法
 62
     0
 48
50.0
370
    -2
100
AcDbLine
 10
6424.124437498104
 20
1054.107163576473
 30
0.0
 11
6424.124437498104
 21
603.6775255713128
 31
0.0
  0
LINE
  5
26A23
330
269E6
100
AcDbEntity
  8
寸法
 62
     0
 48
50.0
370
    -2
100
AcDbLine
 10
5976.124437498103
 20
663.6775255713128
 30
0.0
 11
6424.124437498104
 21
663.6775255713128
 31
0.0
  0
INSERT
  5
26A24
330
269E6
100
AcDbEntity
  8
寸法
 62
     0
 48
50.0
370
    -2
100
AcDbBlockReference
  2
_DOTSMALL
 10
5976.124437498103
 20
663.6775255713128
 30
0.0
 41
100.0
 42
100.0
 43
100.0
 50
180.0
  0
INSERT
  5
26A25
330
269E6
100
AcDbEntity
  8
寸法
 62
     0
 48
50.0
370
    -2
100
AcDbBlockReference
  2
_DOTSMALL
 10
6424.124437498104
 20
663.6775255713128
 30
0.0
 41
100.0
 42
100.0
 43
100.0
  0
MTEXT
  5
26A26
330
269E6
100
AcDbEntity
  8
寸法
 62
     7
 48
50.0
100
AcDbMText
 10
6180.02767881988
 20
763.6775255713128
 30
0.0
 40
120.0
 41
0.0
 71
     5
 72
     1
  1
\A1;300
  7
STYLE1
 73
     1
 44
1.0
1001
ACAD
1000
MTEXTBEGIN
1070
    73
1070
     1
1070
    44
1040
1.0
1070
    74
1070
     0
1000
MTEXTEND
  0
POINT
  5
26A27
330
269E6
100
AcDbEntity
  8
DEFPOINTS
 62
     0
 48
50.0
100
AcDbPoint
 10
5976.124437498103
 20
1074.107163576473
 30
0.0
  0
POINT
  5
26A28
330
269E6
100
AcDbEntity
  8
DEFPOINTS
 62
     0
 48
50.0
100
AcDbPoint
 10
6424.124437498104
 20
1074.107163576473
 30
0.0
  0
POINT
  5
26A29
330
269E6
100
AcDbEntity
  8
DEFPOINTS
 62
     0
 48
50.0
100
AcDbPoint
 10
6424.124437498104
 20
663.6775255713128
 30
0.0
  0
ENDBLK
  5
269F1
330
269E6
100
AcDbEntity
  8
0
 48
50.0
100
AcDbBlockEnd
  0
ENDSEC
  0
SECTION
  2
ENTITIES
  0
MTEXT
  5
763F
330
747D
100
AcDbEntity
  8
0
100
AcDbMText
 10
302.846345836809
 20
280.1983726409901
 30
0.0
 40
3.5
 41
5.323721266742722
 71
     1
 72
     5
  1

  7
MSMINCHO
 73
     1
 44
1.0
1001
ACAD
1000
MTEXTBEGIN
1070
    73
1070
     1
1070
    44
1040
1.0
1070
    74
1070
     0
1000
MTEXTEND
  0
LINE
  5
10B57
330
747D
100
AcDbEntity
  8
補助
  6
PHANTOM
 62
   230
 48
50.0
100
AcDbLine
 10
139.9999999999995
 20
11409.6
 30
0.0
 11
16307.2
 21
11409.6
 31
0.0
  0
LINE
  5
10B59
330
747D
100
AcDbEntity
  8
仕様書枠
  6
Continuous
 48
50.0
100
AcDbLine
 10
13107.2
 20
1200.0
 30
0.0
 11
13107.2
 21
-0.0000000000000729
 31
0.0
  0
LINE
  5
10B5D
330
747D
100
AcDbEntity
  8
仕様書枠
 48
50.0
100
AcDbLine
 10
140.0
 20
0.0
 30
0.0
 11
16307.2
 21
-0.0000000000000909
 31
0.0
  0
LINE
  5
10B5E
330
747D
100
AcDbEntity
  8
補助
  6
PHANTOM
 62
   230
 48
50.0
100
AcDbLine
 10
16307.2
 20
11409.6
 30
0.0
 11
16307.2
 21
1200.0
 31
0.0
  0
LINE
  5
10B6C
330
747D
100
AcDbEntity
  8
仕様書枠
 48
50.0
100
AcDbLine
 10
13107.2
 20
1200.0
 30
0.0
 11
16307.2
 21
1200.0
 31
0.0
  0
TEXT
  5
10B73
330
747D
100
AcDbEntity
  8
文字
 62
     7
 48
50.0
100
AcDbText
 10
13162.9790565769
 20
895.0906074299405
 30
0.0
 40
200.0
  1
基 礎 図
  7
STYLE2
100
AcDbText
  0
LINE
  5
10B7B
330
747D
100
AcDbEntity
  8
仕様書枠
 48
50.0
100
AcDbLine
 10
13107.2
 20
800.0
 30
0.0
 11
14251.2
 21
800.0
 31
0.0
  0
LINE
  5
10B88
330
747D
100
AcDbEntity
  8
仕様書枠
  6
Continuous
 48
50.0
100
AcDbLine
 10
14251.2
 20
1200.0
 30
0.0
 11
14251.2
 21
800.0
 31
0.0
  0
LINE
  5
16462
330
747D
100
AcDbEntity
  8
仕様書枠
 48
50.0
100
AcDbLine
 10
16307.2
 20
1200.0
 30
0.0
 11
16307.2
 21
-0.0000000000000909
 31
0.0
  0
LINE
  5
1903B
330
747D
100
AcDbEntity
  8
補助
  6
PHANTOM
 62
   230
 48
50.0
100
AcDbLine
 10
140.0
 20
0.0
 30
0.0
 11
139.9999999999995
 21
11409.6
 31
0.0
  0
LEADER
  5
1AC27
330
747D
100
AcDbEntity
  8
寸法
 48
50.0
100
AcDbLeader
  3
INABA_S50G
 73
     0
 74
     0
 75
     1
 40
120.0
 41
720.0000000000001
 76
     3
 10
10605.05985718447
 20
6992.2573227633
 30
0.0
 10
10761.83343157075
 20
6731.243409195467
 30
0.0
 10
10886.83343157076
 20
6731.243409195467
 30
0.0
340
1AC28
1001
ACAD
1000
DSTYLE
1002
{
1070
   341
1005
0
1070
    40
1040
1.0
1070
   343
1005
0
1070
   344
1005
0
1002
}
  0
MTEXT
  5
1AC28
102
{ACAD_REACTORS
330
1AC27
102
}
330
747D
100
AcDbEntity
  8
部品1
 62
     7
 48
50.0
100
AcDbMText
 10
11631.83343157076
 20
6816.243409195466
 30
0.0
 40
120.0
 41
0.0
 71
     6
 72
     1
  1
\A1;床下換気口
  7
STYLE1
 73
     1
 44
1.0
1001
ACAD
1000
MTEXTBEGIN
1070
    73
1070
     1
1070
    44
1040
1.0
1070
    74
1070
     0
1000
MTEXTEND
  0
TEXT
  5
1AC29
330
747D
100
AcDbEntity
  8
部品1
 48
50.0
100
AcDbText
 10
10947.64807370302
 20
6052.456763902299
 30
0.0
 40
80.0
  1
(a=45,b=55,c=75)
  7
STYLE1
100
AcDbText
  0
TEXT
  5
1AC2A
330
747D
100
AcDbEntity
  8
部品1
 48
50.0
100
AcDbText
 10
10789.06906494872
 20
6159.301984771053
 30
0.0
 40
80.0
  1
※a,b,cは屋根の出幅です。
  7
STYLE1
100
AcDbText
  0
MTEXT
  5
1AC2B
102
{ACAD_REACTORS
330
1AC2C
102
}
330
747D
100
AcDbEntity
  8
部品1
 62
     7
 48
50.0
100
AcDbMText
 10
11586.85626093733
 20
6338.612671704128
 30
0.0
 40
120.0
 41
0.0
 71
     6
 72
     1
  1
\A1;屋根の外寸
  7
STYLE1
 73
     1
 44
1.0
1001
ACAD
1000
MTEXTBEGIN
1070
    73
1070
     1
1070
    44
1040
1.0
1070
    74
1070
     0
1000
MTEXTEND
  0
LEADER
  5
1AC2C
330
747D
100
AcDbEntity
  8
寸法
 48
50.0
100
AcDbLeader
  3
INABA_S50G
 73
     0
 74
     0
 75
     1
 40
120.0
 41
672.0
 76
     3
 10
10648.91624874529
 20
6512.502015167703
 30
0.0
 10
10764.85626093733
 20
6253.612671704128
 30
0.0
 10
10889.85626093733
 20
6253.612671704128
 30
0.0
340
1AC2B
1001
ACAD
1000
DSTYLE
1002
{
1070
   341
1005
0
1070
    40
1040
1.0
1070
   343
1005
0
1070
   344
1005
0
1002
}
  0
TEXT
  5
1C7A1
330
747D
100
AcDbEntity
  8
文字
 62
     7
 48
50.0
100
AcDbText
 10
13188.16259899338
 20
79.80631269190417
 30
0.0
 40
80.0
  1
※布基礎には換気口を設けてください。
  7
STYLE2
100
AcDbText
  0
TEXT
  5
1C7E7
330
747D
100
AcDbEntity
  8
文字
 62
     7
 48
50.0
100
AcDbText
 10
13188.16259899338
 20
246.7109242801889
 30
0.0
 40
80.0
  1
※寒冷地等は地域の実情に合わせた基礎にして下さい。
  7
STYLE2
100
AcDbText
  0
TEXT
  5
1C7E8
330
747D
100
AcDbEntity
  8
文字
 62
     7
 48
50.0
100
AcDbText
 10
14325.79230300687
 20
499.5983841039506
 30
0.0
 40
160.0
  1
ＮＸＮ－１４ＤＬ－５
  7
STYLE2
100
AcDbText
  0
TEXT
  5
1C7EC
330
747D
100
AcDbEntity
  8
文字
 62
     7
 48
50.0
100
AcDbText
 10
14524.131837222
 20
1031.557706291229
 30
0.0
 40
100.0
  1
      <縮尺> S=1/40
  7
STYLE2
100
AcDbText
  0
TEXT
  5
1C7ED
330
747D
100
AcDbEntity
  8
文字
 62
     7
 48
50.0
100
AcDbText
 10
13201.43669998441
 20
477.2740661031257
 30
0.0
 40
160.0
  1
機種名
  7
STYLE2
100
AcDbText
  0
LINE
  5
1C7EF
330
747D
100
AcDbEntity
  8
文字
 62
     7
 48
50.0
100
AcDbLine
 10
13187.2
 20
400.0
 30
0.0
 11
16227.2
 21
400.0
 31
0.0
  0
MTEXT
  5
1D2D5
102
{ACAD_REACTORS
330
1D2D6
102
}
330
747D
100
AcDbEntity
  8
部品1
 62
     7
 48
50.0
100
AcDbMText
 10
11798.99523070988
 20
8043.918330470457
 30
0.0
 40
120.0
 41
0.0
 71
     6
 72
     1
  1
アンカーボルト
  7
STYLE1
 73
     1
 44
1.0
1001
ACAD
1000
MTEXTBEGIN
1070
    73
1070
     1
1070
    44
1040
1.0
1070
    74
1070
     0
1000
MTEXTEND
  0
LEADER
  5
1D2D6
330
747D
100
AcDbEntity
  8
寸法
 48
50.0
100
AcDbLeader
  3
INABA_S50G
 73
     0
 74
     0
 75
     1
 40
120.0
 41
994.3492424049171
 76
     3
 10
10480.680085757
 20
7605.513430586658
 30
0.0
 10
10654.64598830496
 20
7958.918330470456
 30
0.0
 10
10779.64598830496
 20
7958.918330470456
 30
0.0
340
1D2D5
1001
ACAD
1000
DSTYLE
1002
{
1070
   341
1005
0
1070
    40
1040
1.0
1070
   343
1005
0
1070
   344
1005
0
1002
}
  0
MTEXT
  5
1D332
102
{ACAD_REACTORS
330
1D333
102
}
330
747D
100
AcDbEntity
  8
部品1
 62
     7
 48
50.0
100
AcDbMText
 10
10163.82869701569
 20
6818.896107161504
 30
0.0
 40
120.0
 41
0.0
 71
     6
 72
     1
  1
CB
  7
STYLE1
 73
     1
 44
1.0
1001
ACAD
1000
MTEXTBEGIN
1070
    73
1070
     1
1070
    44
1040
1.0
1070
    74
1070
     0
1000
MTEXTEND
  0
LEADER
  5
1D333
330
747D
100
AcDbEntity
  8
寸法
 48
50.0
100
AcDbLeader
  3
INABA_S50G
 73
     0
 74
     0
 75
     1
 40
120.0
 41
149.591883092037
 76
     3
 10
9736.954011061015
 20
6956.614420716331
 30
0.0
 10
9864.23681392366
 20
6733.896107161505
 30
0.0
 10
9989.23681392366
 20
6733.896107161505
 30
0.0
340
1D332
1001
ACAD
1000
DSTYLE
1002
{
1070
   341
1005
0
1070
    40
1040
1.0
1070
   343
1005
0
1070
   344
1005
0
1002
}
  0
DIMENSION
  5
20DE1
330
747D
100
AcDbEntity
  8
寸法
 48
50.0
100
AcDbDimension
  2
*D19
 10
10648.6
 20
8686.525908286869
 30
0.0
 11
10919.77462120246
 21
8686.525908286869
 31
0.0
 70
   160
  1
a
 71
     5
 42
45.0
  3
INABA_S40G
100
AcDbAlignedDimension
 13
10603.6
 23
7728.305586227946
 33
0.0
 14
10648.6
 24
8454.572044321858
 34
0.0
100
AcDbRotatedDimension
1001
ACAD
1000
DSTYLE
1002
{
1070
   341
1005
0
1002
}
  0
DIMENSION
  5
20DFB
330
747D
100
AcDbEntity
  8
寸法
 48
50.0
100
AcDbDimension
  2
*D20
 10
5843.599999999998
 20
8686.525908286878
 30
0.0
 11
5527.42537879754
 21
8686.525908286878
 31
0.0
 70
   160
  1
a
 71
     5
 42
44.99999999999636
  3
INABA_S40G
100
AcDbAlignedDimension
 13
5798.600000000003
 23
8454.572044321869
 33
0.0
 14
5843.599999999998
 24
7728.305586227957
 34
0.0
100
AcDbRotatedDimension
1001
ACAD
1000
DSTYLE
1002
{
1070
   341
1005
0
1002
}
  0
LINE
  5
22711
330
747D
100
AcDbEntity
  8
想像線
 48
10.0
100
AcDbLine
 10
10648.6
 20
7803.305586227949
 30
0.0
 11
5798.600000000003
 21
7803.305586227958
 31
0.0
  0
LINE
  5
22712
330
747D
100
AcDbEntity
  8
想像線
 48
10.0
100
AcDbLine
 10
5798.599999999999
 20
6133.305586227998
 30
0.0
 11
5798.600000000003
 21
7803.305586227962
 31
0.0
  0
LINE
  5
22713
330
747D
100
AcDbEntity
  8
想像線
 48
10.0
100
AcDbLine
 10
10648.6
 20
6133.305586227994
 30
0.0
 11
10648.6
 21
7803.305586227949
 31
0.0
  0
LINE
  5
22714
330
747D
100
AcDbEntity
  8
想像線
 48
10.0
100
AcDbLine
 10
10648.6
 20
6133.305586227994
 30
0.0
 11
5798.599999999997
 21
6133.305586227982
 31
0.0
  0
DIMENSION
  5
22741
330
747D
100
AcDbEntity
  8
寸法
 48
50.0
100
AcDbDimension
  2
*D21
 10
4968.721909610675
 20
7728.305586227957
 30
0.0
 11
4868.721909610673
 21
7765.805586227959
 31
0.0
 70
    32
  1
c
 71
     5
 42
75.00000000000636
  3
INABA_S40G
100
AcDbAlignedDimension
 13
5220.665006330069
 23
7803.305586227962
 33
0.0
 14
5843.599999999998
 24
7728.305586227957
 34
0.0
 50
90.0
100
AcDbRotatedDimension
1001
ACAD
1000
DSTYLE
1002
{
1070
   341
1005
0
1002
}
  0
DIMENSION
  5
2275B
330
747D
100
AcDbEntity
  8
寸法
 48
50.0
100
AcDbDimension
  2
*D22
 10
4968.721909610671
 20
6133.305586228013
 30
0.0
 11
4868.72190961067
 21
6160.805586228002
 31
0.0
 70
    32
  1
b
 71
     5
 42
54.99999999997453
  3
INABA_S40G
100
AcDbAlignedDimension
 13
5843.599999999998
 23
6188.305586227988
 33
0.0
 14
5220.665006330069
 24
6133.305586228013
 34
0.0
 50
90.0
100
AcDbRotatedDimension
1001
ACAD
1000
DSTYLE
1002
{
1070
   341
1005
0
1002
}
  0
DIMENSION
  5
23FD9
330
747D
100
AcDbEntity
  8
寸法
 48
50.0
100
AcDbDimension
  2
*D24
 10
9922.812020225661
 20
6188.305586227965
 30
0.0
 11
9922.812020225658
 21
5901.342003550793
 31
0.0
 70
   160
 71
     5
 42
279.9999999999809
  3
INABA_S40G
100
AcDbAlignedDimension
 13
10023.59999999999
 23
6468.305586227946
 33
0.0
 14
10023.6
 24
6188.305586227965
 34
0.0
 50
90.0
100
AcDbRotatedDimension
1001
ACAD
1000
DSTYLE
1002
{
1070
   341
1005
0
1002
}
  0
DIMENSION
  5
23FDA
330
747D
100
AcDbEntity
  8
寸法
 48
50.0
100
AcDbDimension
  2
*D25
 10
9922.812020225661
 20
7528.30558622795
 30
0.0
 11
9922.812020225658
 21
8015.269168905104
 31
0.0
 70
   160
 71
     5
 42
199.9999999999854
  3
INABA_S40G
100
AcDbAlignedDimension
 13
10023.6
 23
7728.305586227934
 33
0.0
 14
10023.60000000001
 24
7528.30558622795
 34
0.0
 50
90.0
100
AcDbRotatedDimension
1001
ACAD
1000
DSTYLE
1002
{
1070
   341
1005
0
1002
}
  0
DIMENSION
  5
24043
330
747D
100
AcDbEntity
  8
寸法
 48
50.0
100
AcDbDimension
  2
*D23
 10
10483.6
 20
7277.904199326058
 30
0.0
 11
10873.65905511812
 21
7277.904199326058
 31
0.0
 70
   160
 71
     5
 42
120.0
  3
INABA_S40G
100
AcDbAlignedDimension
 13
10603.6
 23
7163.305586227984
 33
0.0
 14
10483.6
 24
7163.305586227983
 34
0.0
100
AcDbRotatedDimension
1001
ACAD
1000
DSTYLE
1002
{
1070
   341
1005
0
1002
}
  0
LINE
  5
25F54
330
747D
100
AcDbEntity
  8
部品1
 48
50.0
100
AcDbLine
 10
10483.6
 20
7528.305586227947
 30
0.0
 11
5963.599999999999
 21
7528.30558622795
 31
0.0
  0
DIMENSION
  5
25F58
330
747D
100
AcDbEntity
  8
寸法
 48
50.0
100
AcDbDimension
  2
*D26
 10
10603.6
 20
8686.525908286865
 30
0.0
 11
8223.600000000002
 21
8786.525908286865
 31
0.0
 70
    32
 71
     5
 42
4760.0
  3
INABA_S40G
100
AcDbAlignedDimension
 13
5843.600000000002
 23
7728.305586227946
 33
0.0
 14
10603.6
 24
7728.305586227946
 34
0.0
100
AcDbRotatedDimension
1001
ACAD
1000
DSTYLE
1002
{
1070
   341
1005
0
1002
}
  0
LINE
  5
25F59
330
747D
100
AcDbEntity
  8
部品1
 48
50.0
100
AcDbLine
 10
10603.6
 20
7728.305586227946
 30
0.0
 11
5843.600000000002
 21
7728.305586227946
 31
0.0
  0
DIMENSION
  5
25F5B
330
747D
100
AcDbEntity
  8
寸法
 48
50.0
100
AcDbDimension
  2
*D27
 10
7630.600000000002
 20
8454.572044321858
 30
0.0
 11
9055.600000000003
 21
8554.58385534548
 31
0.0
 70
    32
 71
     5
 42
2850.0
  3
INABA_S40G
100
AcDbAlignedDimension
 13
10480.6
 23
7655.305586227948
 33
0.0
 14
7630.600000000002
 24
7655.305586227948
 34
0.0
100
AcDbRotatedDimension
1001
ACAD
1000
DSTYLE
1002
{
1070
   341
1005
0
1002
}
  0
LINE
  5
25F5C
330
747D
100
AcDbEntity
  8
部品1
 48
50.0
100
AcDbLine
 10
10603.6
 20
6188.305586227965
 30
0.0
 11
5843.599999999998
 21
6188.305586227944
 31
0.0
  0
TEXT
  5
25F5E
330
747D
100
AcDbEntity
  8
寸法
 48
50.0
100
AcDbText
 10
8559.364876950251
 20
6206.986877020685
 30
0.0
 40
120.0
  1
扉面
  7
STYLE1
100
AcDbText
  0
DIMENSION
  5
25F5F
330
747D
100
AcDbEntity
  8
寸法
 48
50.0
100
AcDbDimension
  2
*D28
 10
7748.600000000009
 20
8210.914402898195
 30
0.0
 11
8223.60000000001
 21
8310.914402898196
 31
0.0
 70
    32
 71
     5
 42
950.0
  3
INABA_S40G
100
AcDbAlignedDimension
 13
8698.600000000009
 23
7045.305586227947
 33
0.0
 14
7748.600000000009
 24
7045.305586227947
 34
0.0
100
AcDbRotatedDimension
1001
ACAD
1000
DSTYLE
1002
{
1070
   341
1005
0
1002
}
  0
DIMENSION
  5
25F60
330
747D
100
AcDbEntity
  8
寸法
 48
50.0
100
AcDbDimension
  2
*D29
 10
6798.600000000009
 20
8210.914402898195
 30
0.0
 11
7273.600000000008
 21
8310.914402898196
 31
0.0
 70
    32
 71
     5
 42
950.0
  3
INABA_S40G
100
AcDbAlignedDimension
 13
7748.600000000009
 23
7045.305586227947
 33
0.0
 14
6798.600000000009
 24
7045.305586227947
 34
0.0
100
AcDbRotatedDimension
1001
ACAD
1000
DSTYLE
1002
{
1070
   341
1005
0
1002
}
  0
DIMENSION
  5
25F61
330
747D
100
AcDbEntity
  8
寸法
 48
50.0
100
AcDbDimension
  2
*D30
 10
6326.285990614304
 20
7728.305586227946
 30
0.0
 11
6326.285990614302
 21
7287.900376922124
 31
0.0
 70
   160
 71
     5
 42
733.0
  3
INABA_S40G
100
AcDbAlignedDimension
 13
6748.600000000009
 23
6995.305586227947
 33
0.0
 14
6417.765475140902
 24
7728.305586227946
 34
0.0
 50
90.0
100
AcDbRotatedDimension
1001
ACAD
1000
DSTYLE
1002
{
1070
   341
1005
0
1002
}
  0
DIMENSION
  5
25F62
330
747D
100
AcDbEntity
  8
寸法
 48
50.0
100
AcDbDimension
  2
*D31
 10
5843.600000000002
 20
8210.914402898195
 30
0.0
 11
6321.100000000006
 21
8310.914402898196
 31
0.0
 70
    32
 71
     5
 42
955.0000000000073
  3
INABA_S40G
100
AcDbAlignedDimension
 13
6798.600000000009
 23
7045.305586227947
 33
0.0
 14
5843.600000000002
 24
7728.305586227946
 34
0.0
100
AcDbRotatedDimension
1001
ACAD
1000
DSTYLE
1002
{
1070
   341
1005
0
1002
}
  0
DIMENSION
  5
25F65
330
747D
100
AcDbEntity
  8
寸法
 48
50.0
100
AcDbDimension
  2
*D32
 10
4968.721909610676
 20
6188.305586227947
 30
0.0
 11
4968.721909610675
 21
6995.805586227946
 31
0.0
 70
   160
 71
     5
 42
1540.0
  3
INABA_S40G
100
AcDbAlignedDimension
 13
5843.600000000002
 23
7728.305586227946
 33
0.0
 14
5843.600000000002
 24
6188.305586227947
 34
0.0
 50
90.0
100
AcDbRotatedDimension
1001
ACAD
1000
DSTYLE
1002
{
1070
   341
1005
0
1002
}
  0
DIMENSION
  5
25F66
330
747D
100
AcDbEntity
  8
寸法
 48
50.0
100
AcDbDimension
  2
*D33
 10
5220.665006330075
 20
6386.305586227951
 30
0.0
 11
5220.665006330073
 21
6995.805586227946
 31
0.0
 70
   160
 71
     5
 42
1218.999999999996
  3
INABA_S40G
100
AcDbAlignedDimension
 13
5916.600000000002
 23
7605.305586227948
 33
0.0
 14
5916.600000000009
 24
6386.305586227951
 34
0.0
 50
90.0
100
AcDbRotatedDimension
1001
ACAD
1000
DSTYLE
1002
{
1070
   341
1005
0
1002
}
  0
LINE
  5
25F67
102
{ACAD_REACTORS
330
266CC
102
}
330
747D
100
AcDbEntity
  8
部品1
 48
50.0
100
AcDbLine
 10
5843.600000000002
 20
6188.305586227947
 30
0.0
 11
5843.600000000002
 21
7728.305586227946
 31
0.0
  0
DIMENSION
  5
25F68
330
747D
100
AcDbEntity
  8
寸法
 48
50.0
100
AcDbDimension
  2
*D34
 10
5220.665006330075
 20
6188.305586227947
 30
0.0
 11
5220.665006330073
 21
5852.774637385355
 31
0.0
 70
   160
 71
     5
 42
198.0000000000036
  3
INABA_S40G
100
AcDbAlignedDimension
 13
5916.600000000009
 23
6386.305586227951
 33
0.0
 14
5843.600000000002
 24
6188.305586227947
 34
0.0
 50
90.0
100
AcDbRotatedDimension
1001
ACAD
1000
DSTYLE
1002
{
1070
   341
1005
0
1002
}
  0
LINE
  5
25F6A
330
747D
100
AcDbEntity
  8
センター
 48
2.0
100
AcDbLine
 10
6748.600000000009
 20
6995.305586227947
 30
0.0
 11
6848.600000000009
 21
6995.305586227947
 31
0.0
  0
LINE
  5
25F6B
330
747D
100
AcDbEntity
  8
部品1
 48
50.0
100
AcDbLine
 10
6898.600000000008
 20
7095.305586227947
 30
0.0
 11
6698.600000000009
 21
7095.305586227947
 31
0.0
  0
LINE
  5
25F6C
330
747D
100
AcDbEntity
  8
部品1
 48
50.0
100
AcDbLine
 10
6898.600000000008
 20
6895.305586227947
 30
0.0
 11
6698.600000000009
 21
6895.305586227947
 31
0.0
  0
ARC
  5
25F6D
330
747D
100
AcDbEntity
  8
想像線
 48
5.0
100
AcDbCircle
 10
6613.600000000005
 20
6188.305586227951
 30
0.0
 40
720.0
100
AcDbArc
 50
180.0
 51
270.0
  0
DIMENSION
  5
25F6E
330
747D
100
AcDbEntity
  8
寸法
 48
50.0
100
AcDbDimension
  2
*D35
 10
5730.512673767883
 20
5468.305586227945
 30
0.0
 11
5730.512673767882
 21
5828.305586227945
 31
0.0
 70
   160
  1
扉の出<>
 71
     5
 42
719.9999999999991
  3
INABA_S40G
100
AcDbAlignedDimension
 13
5843.600000000005
 23
6188.305586227944
 33
0.0
 14
6199.325326928811
 24
5468.305586227944
 34
0.0
 50
90.0
100
AcDbRotatedDimension
1001
ACAD
1000
DSTYLE
1002
{
1070
   341
1005
0
1002
}
  0
LINE
  5
25F6F
330
747D
100
AcDbEntity
  8
想像線
 48
5.0
100
AcDbLine
 10
6613.600000000005
 20
6188.305586227961
 30
0.0
 11
6613.600000000005
 21
5468.305586227951
 31
0.0
  0
LINE
  5
25F70
330
747D
100
AcDbEntity
  8
センター
 48
2.0
100
AcDbLine
 10
5916.600000000009
 20
6386.305586227951
 30
0.0
 11
6016.60000000001
 21
6386.305586227951
 31
0.0
  0
CIRCLE
  5
25F71
330
747D
100
AcDbEntity
  8
部品1
 48
50.0
100
AcDbCircle
 10
5966.599999999995
 20
6386.305586227951
 30
0.0
 40
35.0
  0
LINE
  5
25F72
330
747D
100
AcDbEntity
  8
センター
 48
2.0
100
AcDbLine
 10
5966.60000000001
 20
6436.305586227951
 30
0.0
 11
5966.60000000001
 21
6336.30558622795
 31
0.0
  0
LINE
  5
25F73
102
{ACAD_REACTORS
330
266CC
102
}
330
747D
100
AcDbEntity
  8
部品1
 48
50.0
100
AcDbLine
 10
5963.599999999999
 20
7083.305586227965
 30
0.0
 11
5843.599999999991
 21
7083.305586227965
 31
0.0
  0
LINE
  5
25F74
102
{ACAD_REACTORS
330
266CC
102
}
330
747D
100
AcDbEntity
  8
部品1
 48
50.0
100
AcDbLine
 10
5963.6
 20
6883.305586227965
 30
0.0
 11
5843.599999999991
 21
6883.305586227965
 31
0.0
  0
DIMENSION
  5
25F76
330
747D
100
AcDbEntity
  8
寸法
 48
50.0
100
AcDbDimension
  2
*D36
 10
6326.285990614304
 20
6995.305586227947
 30
0.0
 11
6326.285990614302
 21
6673.305586227947
 31
0.0
 70
   160
 71
     5
 42
806.999999999989
  3
INABA_S40G
100
AcDbAlignedDimension
 13
6417.765475140902
 23
6188.305586227958
 33
0.0
 14
6748.600000000009
 24
6995.305586227947
 34
0.0
 50
90.0
100
AcDbRotatedDimension
1001
ACAD
1000
DSTYLE
1002
{
1070
   341
1005
0
1002
}
  0
LINE
  5
25F77
330
747D
100
AcDbEntity
  8
細線
 48
50.0
100
AcDbLine
 10
6314.503084343767
 20
6188.305586227969
 30
0.0
 11
6423.600000000002
 21
6297.402501884202
 31
0.0
  0
LINE
  5
25F78
330
747D
100
AcDbEntity
  8
細線
 48
50.0
100
AcDbLine
 10
6359.404364949114
 20
6188.305586227969
 30
0.0
 11
6423.600000000002
 21
6252.501221278857
 31
0.0
  0
LINE
  5
25F79
330
747D
100
AcDbEntity
  8
細線
 48
50.0
100
AcDbLine
 10
6269.60180373842
 20
6188.305586227967
 30
0.0
 11
6423.599999999996
 21
6342.303782489546
 31
0.0
  0
LINE
  5
25F7A
330
747D
100
AcDbEntity
  8
細線
 48
50.0
100
AcDbLine
 10
6224.700523133075
 20
6188.305586227965
 30
0.0
 11
6423.599999999995
 21
6387.205063094887
 31
0.0
  0
LINE
  5
25F7B
330
747D
100
AcDbEntity
  8
細線
 48
50.0
100
AcDbLine
 10
6223.599999999999
 20
6232.106343700237
 30
0.0
 11
6423.599999999995
 21
6432.106343700232
 31
0.0
  0
LINE
  5
25F7C
330
747D
100
AcDbEntity
  8
部品1
 48
50.0
100
AcDbLine
 10
6223.599999999994
 20
6468.305586227946
 30
0.0
 11
6223.600000000001
 21
6188.305586227965
 31
0.0
  0
LINE
  5
25F7D
330
747D
100
AcDbEntity
  8
細線
 48
50.0
100
AcDbLine
 10
6223.599999999994
 20
6411.711466121618
 30
0.0
 11
6280.194120106326
 21
6468.305586227946
 31
0.0
  0
LINE
  5
25F7E
330
747D
100
AcDbEntity
  8
細線
 48
50.0
100
AcDbLine
 10
6223.599999999999
 20
6277.007624305583
 30
0.0
 11
6414.897961922353
 21
6468.305586227946
 31
0.0
  0
LINE
  5
25F7F
330
747D
100
AcDbEntity
  8
細線
 48
50.0
100
AcDbLine
 10
6223.599999999997
 20
6321.908904910928
 30
0.0
 11
6369.996681317015
 21
6468.305586227947
 31
0.0
  0
LINE
  5
25F80
330
747D
100
AcDbEntity
  8
細線
 48
50.0
100
AcDbLine
 10
6223.599999999997
 20
6366.810185516275
 30
0.0
 11
6325.095400711663
 21
6468.305586227946
 31
0.0
  0
LINE
  5
25F81
330
747D
100
AcDbEntity
  8
部品1
 48
50.0
100
AcDbLine
 10
6423.599999999995
 20
6468.305586227946
 30
0.0
 11
6423.6
 21
6188.305586227969
 31
0.0
  0
LINE
  5
25F82
330
747D
100
AcDbEntity
  8
細線
 48
50.0
100
AcDbLine
 10
6404.305645554462
 20
6188.305586227971
 30
0.0
 11
6423.600000000004
 21
6207.599940673514
 31
0.0
  0
LINE
  5
25F83
330
747D
100
AcDbEntity
  8
部品1
 48
50.0
100
AcDbLine
 10
6698.600000000009
 20
6895.305586227947
 30
0.0
 11
6698.600000000009
 21
7095.305586227947
 31
0.0
  0
LINE
  5
25F84
330
747D
100
AcDbEntity
  8
センター
 48
2.0
100
AcDbLine
 10
6798.600000000009
 20
7045.305586227947
 30
0.0
 11
6798.600000000009
 21
6945.305586227947
 31
0.0
  0
LINE
  5
25F86
330
747D
100
AcDbEntity
  8
センター
 48
2.0
100
AcDbLine
 10
7580.60000000001
 20
6386.305586227951
 30
0.0
 11
7680.600000000009
 21
6386.305586227951
 31
0.0
  0
CIRCLE
  5
25F87
330
747D
100
AcDbEntity
  8
部品1
 48
50.0
100
AcDbCircle
 10
7630.60000000001
 20
6386.305586227951
 30
0.0
 40
35.0
  0
LINE
  5
25F94
330
747D
100
AcDbEntity
  8
部品1
 48
50.0
100
AcDbLine
 10
6898.600000000008
 20
6895.305586227947
 30
0.0
 11
6898.600000000008
 21
7095.305586227947
 31
0.0
  0
LINE
  5
25F95
330
747D
100
AcDbEntity
  8
センター
 48
2.0
100
AcDbLine
 10
7630.60000000001
 20
6436.305586227951
 30
0.0
 11
7630.60000000001
 21
6336.30558622795
 31
0.0
  0
LINE
  5
25FA2
330
747D
100
AcDbEntity
  8
部品1
 48
50.0
100
AcDbLine
 10
7848.600000000009
 20
7095.305586227947
 30
0.0
 11
7648.600000000008
 21
7095.305586227947
 31
0.0
  0
LINE
  5
25FA3
330
747D
100
AcDbEntity
  8
部品1
 48
50.0
100
AcDbLine
 10
7848.600000000009
 20
6895.305586227947
 30
0.0
 11
7648.600000000008
 21
6895.305586227947
 31
0.0
  0
LINE
  5
25FA4
330
747D
100
AcDbEntity
  8
センター
 48
2.0
100
AcDbLine
 10
7698.600000000009
 20
6995.305586227947
 30
0.0
 11
7798.600000000009
 21
6995.305586227947
 31
0.0
  0
LINE
  5
25FA5
330
747D
100
AcDbEntity
  8
部品1
 48
50.0
100
AcDbLine
 10
7648.600000000008
 20
6895.305586227947
 30
0.0
 11
7648.600000000008
 21
7095.305586227947
 31
0.0
  0
LINE
  5
25FA6
330
747D
100
AcDbEntity
  8
センター
 48
2.0
100
AcDbLine
 10
7748.600000000009
 20
7045.305586227947
 30
0.0
 11
7748.600000000009
 21
6945.305586227947
 31
0.0
  0
LINE
  5
25FA7
330
747D
100
AcDbEntity
  8
部品1
 48
50.0
100
AcDbLine
 10
7848.600000000009
 20
6895.305586227947
 30
0.0
 11
7848.600000000009
 21
7095.305586227947
 31
0.0
  0
DIMENSION
  5
25FA9
330
747D
100
AcDbEntity
  8
寸法
 48
50.0
100
AcDbDimension
  2
*D37
 10
5220.665006330074
 20
7605.305586227948
 30
0.0
 11
5220.665006330073
 21
8001.412187945748
 31
0.0
 70
   160
 71
     5
 42
123.0
  3
INABA_S40G
100
AcDbAlignedDimension
 13
5843.600000000002
 23
7728.305586227946
 33
0.0
 14
5916.600000000002
 24
7605.305586227948
 34
0.0
 50
90.0
100
AcDbRotatedDimension
1001
ACAD
1000
DSTYLE
1002
{
1070
   341
1005
0
1002
}
  0
DIMENSION
  5
25FAA
330
747D
100
AcDbEntity
  8
寸法
 48
50.0
100
AcDbDimension
  2
*D38
 10
5966.600000000003
 20
8454.572044321858
 30
0.0
 11
6798.600000000002
 21
8554.572044321858
 31
0.0
 70
    32
 71
     5
 42
1664.0
  3
INABA_S40G
100
AcDbAlignedDimension
 13
7630.600000000002
 23
7655.305586227948
 33
0.0
 14
5966.600000000003
 24
7655.305586227948
 34
0.0
100
AcDbRotatedDimension
1001
ACAD
1000
DSTYLE
1002
{
1070
   341
1005
0
1002
}
  0
DIMENSION
  5
25FAB
330
747D
100
AcDbEntity
  8
寸法
 48
50.0
100
AcDbDimension
  2
*D39
 10
5843.600000000002
 20
8454.572044321858
 30
0.0
 11
5570.493398282204
 21
8454.572044321858
 31
0.0
 70
   160
 71
     5
 42
123.0
  3
INABA_S40G
100
AcDbAlignedDimension
 13
5966.600000000003
 23
7655.305586227948
 33
0.0
 14
5843.600000000002
 24
7728.305586227946
 34
0.0
100
AcDbRotatedDimension
1001
ACAD
1000
DSTYLE
1002
{
1070
   341
1005
0
1002
}
  0
CIRCLE
  5
25FAD
330
747D
100
AcDbEntity
  8
部品1
 48
50.0
100
AcDbCircle
 10
5966.600000000003
 20
7605.305586227948
 30
0.0
 40
35.0
  0
LINE
  5
25FAE
330
747D
100
AcDbEntity
  8
センター
 48
2.0
100
AcDbLine
 10
5916.600000000002
 20
7605.305586227948
 30
0.0
 11
6016.600000000003
 21
7605.305586227948
 31
0.0
  0
LINE
  5
25FAF
330
747D
100
AcDbEntity
  8
センター
 48
2.0
100
AcDbLine
 10
5966.600000000003
 20
7655.305586227948
 30
0.0
 11
5966.600000000003
 21
7555.305586227948
 31
0.0
  0
LINE
  5
25FB0
330
747D
100
AcDbEntity
  8
細線
 48
50.0
100
AcDbLine
 10
6223.600000000006
 20
7575.428113991108
 30
0.0
 11
6376.477472236851
 21
7728.305586227958
 31
0.0
  0
LINE
  5
25FB1
330
747D
100
AcDbEntity
  8
細線
 48
50.0
100
AcDbLine
 10
6223.600000000002
 20
7665.230675201799
 30
0.0
 11
6286.674911026159
 21
7728.305586227957
 31
0.0
  0
LINE
  5
25FB2
330
747D
100
AcDbEntity
  8
細線
 48
50.0
100
AcDbLine
 10
6223.600000000002
 20
7620.329394596454
 30
0.0
 11
6331.576191631504
 21
7728.305586227953
 31
0.0
  0
LINE
  5
25FB3
330
747D
100
AcDbEntity
  8
部品1
 48
50.0
100
AcDbLine
 10
6223.599999999999
 20
7728.305586227957
 30
0.0
 11
6223.600000000006
 21
7528.305586227947
 31
0.0
  0
LINE
  5
25FB4
330
747D
100
AcDbEntity
  8
部品1
 48
50.0
100
AcDbLine
 10
6423.599999999999
 20
7728.305586227957
 30
0.0
 11
6423.600000000006
 21
7528.305586227947
 31
0.0
  0
LINE
  5
25FB5
330
747D
100
AcDbEntity
  8
細線
 48
50.0
100
AcDbLine
 10
6223.600000000006
 20
7530.526833385768
 30
0.0
 11
6421.378752842196
 21
7728.305586227953
 31
0.0
  0
LINE
  5
25FB6
330
747D
100
AcDbEntity
  8
細線
 48
50.0
100
AcDbLine
 10
6311.18131405288
 20
7528.305586227945
 30
0.0
 11
6423.600000000002
 21
7640.72427217507
 31
0.0
  0
LINE
  5
25FB7
330
747D
100
AcDbEntity
  8
細線
 48
50.0
100
AcDbLine
 10
6266.280033447532
 20
7528.305586227945
 30
0.0
 11
6423.6
 21
7685.625552780414
 31
0.0
  0
LINE
  5
25FB8
330
747D
100
AcDbEntity
  8
細線
 48
50.0
100
AcDbLine
 10
6356.082594658226
 20
7528.305586227945
 30
0.0
 11
6423.600000000002
 21
7595.822991569725
 31
0.0
  0
LINE
  5
25FB9
330
747D
100
AcDbEntity
  8
細線
 48
50.0
100
AcDbLine
 10
6400.98387526357
 20
7528.305586227945
 30
0.0
 11
6423.600000000004
 21
7550.921710964381
 31
0.0
  0
LINE
  5
25FBA
330
747D
100
AcDbEntity
  8
細線
 48
50.0
100
AcDbLine
 10
6223.600000000001
 20
7710.131955807141
 30
0.0
 11
6241.773630420814
 21
7728.305586227958
 31
0.0
  0
CIRCLE
  5
25FBB
330
747D
100
AcDbEntity
  8
部品1
 48
50.0
100
AcDbCircle
 10
7630.600000000002
 20
7605.305586227948
 30
0.0
 40
35.0
  0
LINE
  5
25FBC
330
747D
100
AcDbEntity
  8
センター
 48
2.0
100
AcDbLine
 10
7580.600000000003
 20
7605.305586227948
 30
0.0
 11
7680.600000000002
 21
7605.305586227948
 31
0.0
  0
LINE
  5
25FBD
330
747D
100
AcDbEntity
  8
部品1
 48
50.0
100
AcDbLine
 10
7373.599999999999
 20
7728.305586227957
 30
0.0
 11
7373.600000000006
 21
7528.305586227947
 31
0.0
  0
LINE
  5
25FBE
330
747D
100
AcDbEntity
  8
細線
 48
50.0
100
AcDbLine
 10
7173.600000000002
 20
7665.230675201799
 30
0.0
 11
7236.67491102616
 21
7728.305586227957
 31
0.0
  0
LINE
  5
25FBF
330
747D
100
AcDbEntity
  8
細線
 48
50.0
100
AcDbLine
 10
7173.600000000002
 20
7620.329394596454
 30
0.0
 11
7281.576191631504
 21
7728.305586227953
 31
0.0
  0
LINE
  5
25FC0
330
747D
100
AcDbEntity
  8
部品1
 48
50.0
100
AcDbLine
 10
7173.599999999999
 20
7728.305586227957
 30
0.0
 11
7173.600000000006
 21
7528.305586227947
 31
0.0
  0
LINE
  5
25FC1
330
747D
100
AcDbEntity
  8
細線
 48
50.0
100
AcDbLine
 10
7173.600000000006
 20
7530.526833385768
 30
0.0
 11
7371.378752842196
 21
7728.305586227953
 31
0.0
  0
LINE
  5
25FC2
330
747D
100
AcDbEntity
  8
細線
 48
50.0
100
AcDbLine
 10
7173.600000000006
 20
7575.428113991108
 30
0.0
 11
7326.477472236851
 21
7728.305586227958
 31
0.0
  0
LINE
  5
25FC4
330
747D
100
AcDbEntity
  8
細線
 48
50.0
100
AcDbLine
 10
7306.082594658227
 20
7528.305586227945
 30
0.0
 11
7373.600000000002
 21
7595.822991569725
 31
0.0
  0
LINE
  5
25FC5
330
747D
100
AcDbEntity
  8
細線
 48
50.0
100
AcDbLine
 10
7350.98387526357
 20
7528.305586227945
 30
0.0
 11
7373.600000000005
 21
7550.921710964381
 31
0.0
  0
LINE
  5
25FC6
330
747D
100
AcDbEntity
  8
細線
 48
50.0
100
AcDbLine
 10
7261.18131405288
 20
7528.305586227945
 30
0.0
 11
7373.600000000002
 21
7640.72427217507
 31
0.0
  0
LINE
  5
25FC7
330
747D
100
AcDbEntity
  8
細線
 48
50.0
100
AcDbLine
 10
7216.280033447532
 20
7528.305586227945
 30
0.0
 11
7373.6
 21
7685.625552780414
 31
0.0
  0
LINE
  5
25FC8
330
747D
100
AcDbEntity
  8
細線
 48
50.0
100
AcDbLine
 10
7173.6
 20
7710.131955807141
 30
0.0
 11
7191.773630420813
 21
7728.305586227958
 31
0.0
  0
LINE
  5
25FC9
330
747D
100
AcDbEntity
  8
細線
 48
50.0
100
AcDbLine
 10
8123.600000000005
 20
7575.428113991108
 30
0.0
 11
8276.477472236852
 21
7728.305586227958
 31
0.0
  0
LINE
  5
25FCA
330
747D
100
AcDbEntity
  8
細線
 48
50.0
100
AcDbLine
 10
8123.600000000005
 20
7620.329394596454
 30
0.0
 11
8231.576191631504
 21
7728.305586227953
 31
0.0
  0
LINE
  5
25FCB
330
747D
100
AcDbEntity
  8
細線
 48
50.0
100
AcDbLine
 10
8123.600000000005
 20
7665.230675201799
 30
0.0
 11
8186.674911026157
 21
7728.305586227957
 31
0.0
  0
LINE
  5
25FCC
330
747D
100
AcDbEntity
  8
細線
 48
50.0
100
AcDbLine
 10
8123.600000000005
 20
7530.526833385768
 30
0.0
 11
8321.378752842194
 21
7728.305586227953
 31
0.0
  0
LINE
  5
25FCD
330
747D
100
AcDbEntity
  8
部品1
 48
50.0
100
AcDbLine
 10
8123.599999999997
 20
7728.305586227957
 30
0.0
 11
8123.600000000005
 21
7528.305586227947
 31
0.0
  0
LINE
  5
25FCE
330
747D
100
AcDbEntity
  8
部品1
 48
50.0
100
AcDbLine
 10
8323.599999999997
 20
7728.305586227957
 30
0.0
 11
8323.600000000004
 21
7528.305586227947
 31
0.0
  0
LINE
  5
25FCF
330
747D
100
AcDbEntity
  8
センター
 48
2.0
100
AcDbLine
 10
7630.600000000002
 20
7655.305586227948
 30
0.0
 11
7630.600000000002
 21
7555.305586227948
 31
0.0
  0
LINE
  5
25FD0
330
747D
100
AcDbEntity
  8
細線
 48
50.0
100
AcDbLine
 10
8166.280033447531
 20
7528.305586227945
 30
0.0
 11
8323.6
 21
7685.625552780414
 31
0.0
  0
LINE
  5
25FD1
330
747D
100
AcDbEntity
  8
細線
 48
50.0
100
AcDbLine
 10
8211.181314052881
 20
7528.305586227945
 30
0.0
 11
8323.600000000004
 21
7640.72427217507
 31
0.0
  0
LINE
  5
25FD2
330
747D
100
AcDbEntity
  8
細線
 48
50.0
100
AcDbLine
 10
8300.983875263566
 20
7528.305586227945
 30
0.0
 11
8323.600000000004
 21
7550.921710964381
 31
0.0
  0
LINE
  5
25FD3
330
747D
100
AcDbEntity
  8
細線
 48
50.0
100
AcDbLine
 10
8256.082594658224
 20
7528.305586227945
 30
0.0
 11
8323.600000000004
 21
7595.822991569725
 31
0.0
  0
LINE
  5
25FD4
330
747D
100
AcDbEntity
  8
細線
 48
50.0
100
AcDbLine
 10
8123.600000000001
 20
7710.131955807141
 30
0.0
 11
8141.773630420813
 21
7728.305586227958
 31
0.0
  0
DIMENSION
  5
25FD5
330
747D
100
AcDbEntity
  8
寸法
 48
50.0
100
AcDbDimension
  2
*D40
 10
8698.600000000009
 20
8210.914402898195
 30
0.0
 11
9173.600000000009
 21
8310.914402898196
 31
0.0
 70
    32
 71
     5
 42
950.0
  3
INABA_S40G
100
AcDbAlignedDimension
 13
9648.60000000001
 23
7045.305586227947
 33
0.0
 14
8698.600000000009
 24
7045.305586227947
 34
0.0
100
AcDbRotatedDimension
1001
ACAD
1000
DSTYLE
1002
{
1070
   341
1005
0
1002
}
  0
DIMENSION
  5
25FD6
330
747D
100
AcDbEntity
  8
寸法
 48
50.0
100
AcDbDimension
  2
*D41
 10
9648.60000000001
 20
8210.914402898195
 30
0.0
 11
10126.1
 21
8310.914402898196
 31
0.0
 70
    32
 71
     5
 42
954.9999999999927
  3
INABA_S40G
100
AcDbAlignedDimension
 13
10603.6
 23
7728.305586227946
 33
0.0
 14
9648.60000000001
 24
7045.305586227947
 34
0.0
100
AcDbRotatedDimension
1001
ACAD
1000
DSTYLE
1002
{
1070
   341
1005
0
1002
}
  0
LINE
  5
25FD9
102
{ACAD_REACTORS
330
266E5
102
}
330
747D
100
AcDbEntity
  8
部品1
 48
50.0
100
AcDbLine
 10
10603.6
 20
6188.305586227965
 30
0.0
 11
10603.6
 21
7728.305586227946
 31
0.0
  0
LINE
  5
25FEF
330
747D
100
AcDbEntity
  8
センター
 48
2.0
100
AcDbLine
 10
8648.600000000008
 20
6995.305586227947
 30
0.0
 11
8748.600000000008
 21
6995.305586227947
 31
0.0
  0
LINE
  5
25FF0
330
747D
100
AcDbEntity
  8
部品1
 48
50.0
100
AcDbLine
 10
8798.600000000009
 20
6895.305586227947
 30
0.0
 11
8598.60000000001
 21
6895.305586227947
 31
0.0
  0
LINE
  5
25FF1
330
747D
100
AcDbEntity
  8
部品1
 48
50.0
100
AcDbLine
 10
8798.600000000009
 20
7095.305586227947
 30
0.0
 11
8598.60000000001
 21
7095.305586227947
 31
0.0
  0
LINE
  5
25FF2
330
747D
100
AcDbEntity
  8
部品1
 48
50.0
100
AcDbLine
 10
8598.60000000001
 20
6895.305586227947
 30
0.0
 11
8598.60000000001
 21
7095.305586227947
 31
0.0
  0
LINE
  5
25FF3
330
747D
100
AcDbEntity
  8
部品1
 48
50.0
100
AcDbLine
 10
8798.600000000009
 20
6895.305586227947
 30
0.0
 11
8798.600000000009
 21
7095.305586227947
 31
0.0
  0
LINE
  5
25FF4
330
747D
100
AcDbEntity
  8
センター
 48
2.0
100
AcDbLine
 10
8698.600000000009
 20
7045.305586227947
 30
0.0
 11
8698.600000000009
 21
6945.305586227947
 31
0.0
  0
LINE
  5
25FF8
330
747D
100
AcDbEntity
  8
部品1
 48
50.0
100
AcDbLine
 10
9748.60000000001
 20
7095.305586227947
 30
0.0
 11
9548.600000000009
 21
7095.305586227947
 31
0.0
  0
LINE
  5
25FF9
330
747D
100
AcDbEntity
  8
部品1
 48
50.0
100
AcDbLine
 10
9748.60000000001
 20
6895.305586227947
 30
0.0
 11
9548.600000000009
 21
6895.305586227947
 31
0.0
  0
LINE
  5
25FFA
330
747D
100
AcDbEntity
  8
センター
 48
2.0
100
AcDbLine
 10
9598.60000000001
 20
6995.305586227947
 30
0.0
 11
9698.600000000011
 21
6995.305586227947
 31
0.0
  0
LINE
  5
25FFB
330
747D
100
AcDbEntity
  8
部品1
 48
50.0
100
AcDbLine
 10
9548.600000000009
 20
6895.305586227947
 30
0.0
 11
9548.600000000009
 21
7095.305586227947
 31
0.0
  0
LINE
  5
25FFC
330
747D
100
AcDbEntity
  8
センター
 48
2.0
100
AcDbLine
 10
9648.60000000001
 20
7045.305586227947
 30
0.0
 11
9648.60000000001
 21
6945.305586227947
 31
0.0
  0
LINE
  5
25FFD
330
747D
100
AcDbEntity
  8
部品1
 48
50.0
100
AcDbLine
 10
9748.60000000001
 20
6895.305586227947
 30
0.0
 11
9748.60000000001
 21
7095.305586227947
 31
0.0
  0
LINE
  5
26000
330
747D
100
AcDbEntity
  8
センター
 48
2.0
100
AcDbLine
 10
10430.60000000001
 20
6386.305586227951
 30
0.0
 11
10530.60000000001
 21
6386.305586227951
 31
0.0
  0
CIRCLE
  5
26001
330
747D
100
AcDbEntity
  8
部品1
 48
50.0
100
AcDbCircle
 10
10480.60000000001
 20
6386.305586227951
 30
0.0
 40
35.0
  0
LINE
  5
26006
330
747D
100
AcDbEntity
  8
センター
 48
2.0
100
AcDbLine
 10
10480.60000000001
 20
6436.305586227951
 30
0.0
 11
10480.60000000001
 21
6336.30558622795
 31
0.0
  0
LINE
  5
26008
102
{ACAD_REACTORS
330
266E5
102
}
330
747D
100
AcDbEntity
  8
部品1
 48
50.0
100
AcDbLine
 10
10603.59999999999
 20
6883.305586227965
 30
0.0
 11
10483.6
 21
6883.305586227965
 31
0.0
  0
LINE
  5
26009
102
{ACAD_REACTORS
330
266E5
102
}
330
747D
100
AcDbEntity
  8
部品1
 48
50.0
100
AcDbLine
 10
10603.59999999999
 20
7083.305586227965
 30
0.0
 11
10483.6
 21
7083.305586227965
 31
0.0
  0
LINE
  5
2600A
330
747D
100
AcDbEntity
  8
細線
 48
50.0
100
AcDbLine
 10
10023.6
 20
7575.428113991108
 30
0.0
 11
10176.47747223685
 21
7728.305586227958
 31
0.0
  0
LINE
  5
2600B
330
747D
100
AcDbEntity
  8
細線
 48
50.0
100
AcDbLine
 10
10023.6
 20
7620.329394596454
 30
0.0
 11
10131.5761916315
 21
7728.305586227953
 31
0.0
  0
LINE
  5
2600C
330
747D
100
AcDbEntity
  8
細線
 48
50.0
100
AcDbLine
 10
10023.6
 20
7665.230675201799
 30
0.0
 11
10086.67491102615
 21
7728.305586227957
 31
0.0
  0
LINE
  5
2600D
330
747D
100
AcDbEntity
  8
細線
 48
50.0
100
AcDbLine
 10
10066.28003344753
 20
7528.305586227945
 30
0.0
 11
10223.6
 21
7685.625552780414
 31
0.0
  0
LINE
  5
2600E
330
747D
100
AcDbEntity
  8
細線
 48
50.0
100
AcDbLine
 10
10023.6
 20
7530.526833385768
 30
0.0
 11
10221.37875284219
 21
7728.305586227953
 31
0.0
  0
LINE
  5
2600F
330
747D
100
AcDbEntity
  8
細線
 48
50.0
100
AcDbLine
 10
9161.18131405288
 20
7528.305586227945
 30
0.0
 11
9273.600000000005
 21
7640.72427217507
 31
0.0
  0
LINE
  5
26010
330
747D
100
AcDbEntity
  8
細線
 48
50.0
100
AcDbLine
 10
9073.600000000004
 20
7530.526833385768
 30
0.0
 11
9271.378752842194
 21
7728.305586227953
 31
0.0
  0
LINE
  5
26011
330
747D
100
AcDbEntity
  8
細線
 48
50.0
100
AcDbLine
 10
9116.28003344753
 20
7528.305586227945
 30
0.0
 11
9273.6
 21
7685.625552780414
 31
0.0
  0
LINE
  5
26012
330
747D
100
AcDbEntity
  8
細線
 48
50.0
100
AcDbLine
 10
9206.082594658225
 20
7528.305586227945
 30
0.0
 11
9273.600000000005
 21
7595.822991569725
 31
0.0
  0
LINE
  5
26013
330
747D
100
AcDbEntity
  8
細線
 48
50.0
100
AcDbLine
 10
9250.983875263568
 20
7528.305586227945
 30
0.0
 11
9273.600000000005
 21
7550.921710964381
 31
0.0
  0
LINE
  5
26014
330
747D
100
AcDbEntity
  8
細線
 48
50.0
100
AcDbLine
 10
9073.600000000004
 20
7665.230675201799
 30
0.0
 11
9136.674911026158
 21
7728.305586227957
 31
0.0
  0
LINE
  5
26015
330
747D
100
AcDbEntity
  8
細線
 48
50.0
100
AcDbLine
 10
9073.600000000004
 20
7620.329394596454
 30
0.0
 11
9181.576191631505
 21
7728.305586227953
 31
0.0
  0
LINE
  5
26016
330
747D
100
AcDbEntity
  8
細線
 48
50.0
100
AcDbLine
 10
9073.600000000004
 20
7575.428113991108
 30
0.0
 11
9226.477472236851
 21
7728.305586227958
 31
0.0
  0
LINE
  5
26017
330
747D
100
AcDbEntity
  8
部品1
 48
50.0
100
AcDbLine
 10
9073.599999999997
 20
7728.305586227957
 30
0.0
 11
9073.600000000004
 21
7528.305586227947
 31
0.0
  0
LINE
  5
26018
330
747D
100
AcDbEntity
  8
細線
 48
50.0
100
AcDbLine
 10
9073.6
 20
7710.131955807141
 30
0.0
 11
9091.773630420814
 21
7728.305586227958
 31
0.0
  0
LINE
  5
26019
330
747D
100
AcDbEntity
  8
部品1
 48
50.0
100
AcDbLine
 10
10023.59999999999
 20
7728.305586227957
 30
0.0
 11
10023.6
 21
7528.305586227947
 31
0.0
  0
LINE
  5
2601A
330
747D
100
AcDbEntity
  8
部品1
 48
50.0
100
AcDbLine
 10
9273.599999999998
 20
7728.305586227957
 30
0.0
 11
9273.600000000005
 21
7528.305586227947
 31
0.0
  0
LINE
  5
2601B
330
747D
100
AcDbEntity
  8
細線
 48
50.0
100
AcDbLine
 10
10023.6
 20
7710.131955807141
 30
0.0
 11
10041.77363042081
 21
7728.305586227958
 31
0.0
  0
DIMENSION
  5
2601D
330
747D
100
AcDbEntity
  8
寸法
 48
50.0
100
AcDbDimension
  2
*D42
 10
10480.6
 20
8454.572044321858
 30
0.0
 11
10876.7066017178
 21
8454.572044321858
 31
0.0
 70
   160
 71
     5
 42
123.0
  3
INABA_S40G
100
AcDbAlignedDimension
 13
10603.6
 23
7728.305586227946
 33
0.0
 14
10480.6
 24
7655.305586227948
 34
0.0
100
AcDbRotatedDimension
1001
ACAD
1000
DSTYLE
1002
{
1070
   341
1005
0
1002
}
  0
LINE
  5
2601F
330
747D
100
AcDbEntity
  8
部品1
 48
50.0
100
AcDbLine
 10
10223.59999999999
 20
7728.305586227957
 30
0.0
 11
10223.6
 21
7528.305586227947
 31
0.0
  0
CIRCLE
  5
26020
330
747D
100
AcDbEntity
  8
部品1
 48
50.0
100
AcDbCircle
 10
10480.6
 20
7605.305586227948
 30
0.0
 40
35.0
  0
LINE
  5
26021
330
747D
100
AcDbEntity
  8
センター
 48
2.0
100
AcDbLine
 10
10430.6
 20
7605.305586227948
 30
0.0
 11
10530.6
 21
7605.305586227948
 31
0.0
  0
LINE
  5
26022
330
747D
100
AcDbEntity
  8
細線
 48
50.0
100
AcDbLine
 10
10200.98387526356
 20
7528.305586227945
 30
0.0
 11
10223.6
 21
7550.921710964381
 31
0.0
  0
LINE
  5
26023
330
747D
100
AcDbEntity
  8
細線
 48
50.0
100
AcDbLine
 10
10156.08259465822
 20
7528.305586227945
 30
0.0
 11
10223.6
 21
7595.822991569725
 31
0.0
  0
LINE
  5
26024
330
747D
100
AcDbEntity
  8
細線
 48
50.0
100
AcDbLine
 10
10111.18131405288
 20
7528.305586227945
 30
0.0
 11
10223.6
 21
7640.72427217507
 31
0.0
  0
LINE
  5
26025
330
747D
100
AcDbEntity
  8
センター
 48
2.0
100
AcDbLine
 10
10480.6
 20
7655.305586227948
 30
0.0
 11
10480.6
 21
7555.305586227948
 31
0.0
  0
TEXT
  5
2664D
330
747D
100
AcDbEntity
  8
文字
 62
     7
 48
50.0
100
AcDbText
 10
14267.69561199343
 20
838.2527270729188
 30
0.0
 40
100.0
  1
～一般型・多雪地型・豪雪地型～
  7
STYLE2
100
AcDbText
  0
LINE
  5
2666D
330
747D
100
AcDbEntity
  8
部品1
 48
50.0
100
AcDbLine
 10
10483.6
 20
6468.305586227963
 30
0.0
 11
5963.600000000003
 21
6468.305586227946
 31
0.0
  0
LINE
  5
2666E
330
747D
100
AcDbEntity
  8
細線
 48
50.0
100
AcDbLine
 10
7354.305645554461
 20
6188.305586227971
 30
0.0
 11
7373.600000000005
 21
6207.599940673514
 31
0.0
  0
LINE
  5
2666F
330
747D
100
AcDbEntity
  8
部品1
 48
50.0
100
AcDbLine
 10
7373.599999999995
 20
6468.305586227946
 30
0.0
 11
7373.6
 21
6188.305586227969
 31
0.0
  0
LINE
  5
26670
330
747D
100
AcDbEntity
  8
細線
 48
50.0
100
AcDbLine
 10
7173.599999999997
 20
6366.810185516275
 30
0.0
 11
7275.095400711663
 21
6468.305586227946
 31
0.0
  0
LINE
  5
26671
330
747D
100
AcDbEntity
  8
細線
 48
50.0
100
AcDbLine
 10
7173.599999999997
 20
6321.908904910928
 30
0.0
 11
7319.996681317014
 21
6468.305586227947
 31
0.0
  0
LINE
  5
26672
330
747D
100
AcDbEntity
  8
細線
 48
50.0
100
AcDbLine
 10
7173.599999999999
 20
6277.007624305583
 30
0.0
 11
7364.897961922352
 21
6468.305586227946
 31
0.0
  0
LINE
  5
26673
330
747D
100
AcDbEntity
  8
細線
 48
50.0
100
AcDbLine
 10
7173.599999999995
 20
6411.711466121618
 30
0.0
 11
7230.194120106325
 21
6468.305586227946
 31
0.0
  0
LINE
  5
26674
330
747D
100
AcDbEntity
  8
部品1
 48
50.0
100
AcDbLine
 10
7173.599999999995
 20
6468.305586227946
 30
0.0
 11
7173.6
 21
6188.305586227965
 31
0.0
  0
LINE
  5
26675
330
747D
100
AcDbEntity
  8
細線
 48
50.0
100
AcDbLine
 10
7173.599999999999
 20
6232.106343700237
 30
0.0
 11
7373.599999999995
 21
6432.106343700232
 31
0.0
  0
LINE
  5
26676
330
747D
100
AcDbEntity
  8
細線
 48
50.0
100
AcDbLine
 10
7174.700523133075
 20
6188.305586227965
 30
0.0
 11
7373.599999999995
 21
6387.205063094887
 31
0.0
  0
LINE
  5
26677
330
747D
100
AcDbEntity
  8
細線
 48
50.0
100
AcDbLine
 10
7219.60180373842
 20
6188.305586227967
 30
0.0
 11
7373.599999999997
 21
6342.303782489546
 31
0.0
  0
LINE
  5
26678
330
747D
100
AcDbEntity
  8
細線
 48
50.0
100
AcDbLine
 10
7309.404364949114
 20
6188.305586227969
 30
0.0
 11
7373.600000000002
 21
6252.501221278857
 31
0.0
  0
LINE
  5
26679
330
747D
100
AcDbEntity
  8
細線
 48
50.0
100
AcDbLine
 10
7264.503084343767
 20
6188.305586227969
 30
0.0
 11
7373.600000000002
 21
6297.402501884202
 31
0.0
  0
LINE
  5
2667A
330
747D
100
AcDbEntity
  8
細線
 48
50.0
100
AcDbLine
 10
8304.305645554462
 20
6188.305586227971
 30
0.0
 11
8323.600000000004
 21
6207.599940673514
 31
0.0
  0
LINE
  5
2667B
330
747D
100
AcDbEntity
  8
部品1
 48
50.0
100
AcDbLine
 10
8323.599999999995
 20
6468.305586227946
 30
0.0
 11
8323.6
 21
6188.305586227969
 31
0.0
  0
LINE
  5
2667C
330
747D
100
AcDbEntity
  8
細線
 48
50.0
100
AcDbLine
 10
8123.599999999997
 20
6366.810185516275
 30
0.0
 11
8225.095400711664
 21
6468.305586227946
 31
0.0
  0
LINE
  5
2667D
330
747D
100
AcDbEntity
  8
細線
 48
50.0
100
AcDbLine
 10
8123.599999999997
 20
6321.908904910928
 30
0.0
 11
8269.996681317014
 21
6468.305586227947
 31
0.0
  0
LINE
  5
2667E
330
747D
100
AcDbEntity
  8
細線
 48
50.0
100
AcDbLine
 10
8123.599999999999
 20
6277.007624305583
 30
0.0
 11
8314.897961922353
 21
6468.305586227946
 31
0.0
  0
LINE
  5
2667F
330
747D
100
AcDbEntity
  8
細線
 48
50.0
100
AcDbLine
 10
8123.599999999994
 20
6411.711466121618
 30
0.0
 11
8180.194120106326
 21
6468.305586227946
 31
0.0
  0
LINE
  5
26680
330
747D
100
AcDbEntity
  8
部品1
 48
50.0
100
AcDbLine
 10
8123.599999999994
 20
6468.305586227946
 30
0.0
 11
8123.600000000001
 21
6188.305586227965
 31
0.0
  0
LINE
  5
26681
330
747D
100
AcDbEntity
  8
細線
 48
50.0
100
AcDbLine
 10
8123.599999999999
 20
6232.106343700237
 30
0.0
 11
8323.599999999995
 21
6432.106343700232
 31
0.0
  0
LINE
  5
26682
330
747D
100
AcDbEntity
  8
細線
 48
50.0
100
AcDbLine
 10
8124.700523133075
 20
6188.305586227965
 30
0.0
 11
8323.599999999995
 21
6387.205063094887
 31
0.0
  0
LINE
  5
26683
330
747D
100
AcDbEntity
  8
細線
 48
50.0
100
AcDbLine
 10
8169.601803738421
 20
6188.305586227967
 30
0.0
 11
8323.599999999997
 21
6342.303782489546
 31
0.0
  0
LINE
  5
26684
330
747D
100
AcDbEntity
  8
細線
 48
50.0
100
AcDbLine
 10
8259.404364949114
 20
6188.305586227969
 30
0.0
 11
8323.600000000002
 21
6252.501221278857
 31
0.0
  0
LINE
  5
26685
330
747D
100
AcDbEntity
  8
細線
 48
50.0
100
AcDbLine
 10
8214.503084343766
 20
6188.305586227969
 30
0.0
 11
8323.600000000002
 21
6297.402501884202
 31
0.0
  0
LINE
  5
26686
330
747D
100
AcDbEntity
  8
細線
 48
50.0
100
AcDbLine
 10
9254.305645554461
 20
6188.305586227971
 30
0.0
 11
9273.600000000005
 21
6207.599940673514
 31
0.0
  0
LINE
  5
26687
330
747D
100
AcDbEntity
  8
部品1
 48
50.0
100
AcDbLine
 10
9273.599999999994
 20
6468.305586227946
 30
0.0
 11
9273.6
 21
6188.305586227969
 31
0.0
  0
LINE
  5
26688
330
747D
100
AcDbEntity
  8
細線
 48
50.0
100
AcDbLine
 10
9073.599999999997
 20
6366.810185516275
 30
0.0
 11
9175.095400711663
 21
6468.305586227946
 31
0.0
  0
LINE
  5
26689
330
747D
100
AcDbEntity
  8
細線
 48
50.0
100
AcDbLine
 10
9073.599999999997
 20
6321.908904910928
 30
0.0
 11
9219.996681317013
 21
6468.305586227947
 31
0.0
  0
LINE
  5
2668A
330
747D
100
AcDbEntity
  8
細線
 48
50.0
100
AcDbLine
 10
9073.599999999998
 20
6277.007624305583
 30
0.0
 11
9264.897961922354
 21
6468.305586227946
 31
0.0
  0
LINE
  5
2668B
330
747D
100
AcDbEntity
  8
細線
 48
50.0
100
AcDbLine
 10
9073.599999999995
 20
6411.711466121618
 30
0.0
 11
9130.194120106326
 21
6468.305586227946
 31
0.0
  0
LINE
  5
2668C
330
747D
100
AcDbEntity
  8
部品1
 48
50.0
100
AcDbLine
 10
9073.599999999995
 20
6468.305586227946
 30
0.0
 11
9073.6
 21
6188.305586227965
 31
0.0
  0
LINE
  5
2668D
330
747D
100
AcDbEntity
  8
細線
 48
50.0
100
AcDbLine
 10
9073.599999999998
 20
6232.106343700237
 30
0.0
 11
9273.599999999994
 21
6432.106343700232
 31
0.0
  0
LINE
  5
2668E
330
747D
100
AcDbEntity
  8
細線
 48
50.0
100
AcDbLine
 10
9074.700523133074
 20
6188.305586227965
 30
0.0
 11
9273.599999999994
 21
6387.205063094887
 31
0.0
  0
LINE
  5
2668F
330
747D
100
AcDbEntity
  8
細線
 48
50.0
100
AcDbLine
 10
9119.60180373842
 20
6188.305586227967
 30
0.0
 11
9273.599999999998
 21
6342.303782489546
 31
0.0
  0
LINE
  5
26690
330
747D
100
AcDbEntity
  8
細線
 48
50.0
100
AcDbLine
 10
9209.404364949113
 20
6188.305586227969
 30
0.0
 11
9273.600000000001
 21
6252.501221278857
 31
0.0
  0
LINE
  5
26691
330
747D
100
AcDbEntity
  8
細線
 48
50.0
100
AcDbLine
 10
9164.503084343767
 20
6188.305586227969
 30
0.0
 11
9273.600000000001
 21
6297.402501884202
 31
0.0
  0
LINE
  5
26692
330
747D
100
AcDbEntity
  8
細線
 48
50.0
100
AcDbLine
 10
10204.30564555446
 20
6188.305586227971
 30
0.0
 11
10223.6
 21
6207.599940673514
 31
0.0
  0
LINE
  5
26693
330
747D
100
AcDbEntity
  8
部品1
 48
50.0
100
AcDbLine
 10
10223.59999999999
 20
6468.305586227946
 30
0.0
 11
10223.6
 21
6188.305586227969
 31
0.0
  0
LINE
  5
26694
330
747D
100
AcDbEntity
  8
細線
 48
50.0
100
AcDbLine
 10
10023.59999999999
 20
6366.810185516275
 30
0.0
 11
10125.09540071166
 21
6468.305586227946
 31
0.0
  0
LINE
  5
26695
330
747D
100
AcDbEntity
  8
細線
 48
50.0
100
AcDbLine
 10
10023.59999999999
 20
6321.908904910928
 30
0.0
 11
10169.99668131701
 21
6468.305586227947
 31
0.0
  0
LINE
  5
26696
330
747D
100
AcDbEntity
  8
細線
 48
50.0
100
AcDbLine
 10
10023.6
 20
6277.007624305583
 30
0.0
 11
10214.89796192235
 21
6468.305586227946
 31
0.0
  0
LINE
  5
26697
330
747D
100
AcDbEntity
  8
細線
 48
50.0
100
AcDbLine
 10
10023.59999999999
 20
6411.711466121618
 30
0.0
 11
10080.19412010632
 21
6468.305586227946
 31
0.0
  0
LINE
  5
26698
330
747D
100
AcDbEntity
  8
部品1
 48
50.0
100
AcDbLine
 10
10023.59999999999
 20
6468.305586227946
 30
0.0
 11
10023.6
 21
6188.305586227965
 31
0.0
  0
LINE
  5
26699
330
747D
100
AcDbEntity
  8
細線
 48
50.0
100
AcDbLine
 10
10023.6
 20
6232.106343700237
 30
0.0
 11
10223.59999999999
 21
6432.106343700232
 31
0.0
  0
LINE
  5
2669A
330
747D
100
AcDbEntity
  8
細線
 48
50.0
100
AcDbLine
 10
10024.70052313307
 20
6188.305586227965
 30
0.0
 11
10223.59999999999
 21
6387.205063094887
 31
0.0
  0
LINE
  5
2669B
330
747D
100
AcDbEntity
  8
細線
 48
50.0
100
AcDbLine
 10
10069.60180373842
 20
6188.305586227967
 30
0.0
 11
10223.59999999999
 21
6342.303782489546
 31
0.0
  0
LINE
  5
2669C
330
747D
100
AcDbEntity
  8
細線
 48
50.0
100
AcDbLine
 10
10159.40436494911
 20
6188.305586227969
 30
0.0
 11
10223.6
 21
6252.501221278857
 31
0.0
  0
LINE
  5
2669D
330
747D
100
AcDbEntity
  8
細線
 48
50.0
100
AcDbLine
 10
10114.50308434376
 20
6188.305586227969
 30
0.0
 11
10223.6
 21
6297.402501884202
 31
0.0
  0
LINE
  5
266BC
102
{ACAD_REACTORS
330
266CC
102
}
330
747D
100
AcDbEntity
  8
部品1
 48
50.0
100
AcDbLine
 10
5963.600000000003
 20
6468.305586227945
 30
0.0
 11
5963.599999999999
 21
7528.305586227947
 31
0.0
  0
LINE
  5
266BD
102
{ACAD_REACTORS
330
266E5
102
}
330
747D
100
AcDbEntity
  8
部品1
 48
50.0
100
AcDbLine
 10
10483.6
 20
6468.305586227963
 30
0.0
 11
10483.6
 21
7528.305586227948
 31
0.0
  0
HATCH
  5
266CC
330
747D
100
AcDbEntity
  8
細線
 48
50.0
100
AcDbHatch
 10
0.0
 20
0.0
 30
0.0
210
0.0
220
0.0
230
1.0
  2
LINE
 70
     0
 71
     1
 91
        1
 92
        7
 72
     0
 73
     1
 93
        4
 10
5963.6
 20
7083.305586227965
 10
5843.600000000002
 20
7083.305586227965
 10
5843.600000000003
 20
6883.305586227966
 10
5963.600000000002
 20
6883.305586227966
 97
        4
330
25F73
330
25F67
330
25F74
330
266BC
 75
     0
 76
     1
 52
45.0
 41
10.0
 77
     0
 78
     1
 53
45.0
 43
0.0
 44
0.0
 45
-22.45064030267288
 46
22.45064030267288
 79
     0
 47
1.85420902868516
 98
        1
 10
5875.546775874806
 20
6952.257665967453
  0
HATCH
  5
266E5
330
747D
100
AcDbEntity
  8
細線
 48
50.0
100
AcDbHatch
 10
0.0
 20
0.0
 30
0.0
210
0.0
220
0.0
230
1.0
  2
LINE
 70
     0
 71
     1
 91
        1
 92
        7
 72
     0
 73
     1
 93
        4
 10
10603.6
 20
7083.305586227965
 10
10483.6
 20
7083.305586227965
 10
10483.6
 20
6883.305586227965
 10
10603.6
 20
6883.305586227965
 97
        4
330
26009
330
266BD
330
26008
330
25FD9
 75
     0
 76
     1
 52
45.0
 41
10.0
 77
     0
 78
     1
 53
45.0
 43
0.0
 44
0.0
 45
-22.45064030267288
 46
22.45064030267288
 79
     0
 47
4.160548867995594
 98
        1
 10
10557.12408779982
 20
6977.943963064092
  0
LINE
  5
26873
330
747D
100
AcDbEntity
  8
部品1
100
AcDbLine
 10
11104.44118407509
 20
3385.445830777058
 30
0.0
 11
5033.45599868884
 21
3385.445830777058
 31
0.0
  0
LINE
  5
26874
330
747D
100
AcDbEntity
  8
部品1
100
AcDbLine
 10
11104.44118407509
 20
3145.445830777056
 30
0.0
 11
5033.455998688843
 21
3145.445830777056
 31
0.0
  0
LINE
  5
26875
330
747D
100
AcDbEntity
  8
部品1
100
AcDbLine
 10
5033.455998688844
 20
421.1388611924112
 30
0.0
 11
11104.44118407509
 21
421.1388611924112
 31
0.0
  0
LEADER
  5
26876
330
747D
100
AcDbEntity
  8
寸法
 48
50.0
100
AcDbLeader
  3
INABA_S50G
 73
     0
 74
     0
 75
     1
 40
102.2727272727273
 41
680.0000000000001
 76
     3
 10
8041.563750675297
 20
2384.982444685616
 30
0.0
 10
8075.917721788654
 20
2795.435255792157
 30
0.0
 10
8200.917721788654
 20
2795.435255792157
 30
0.0
340
26877
1001
ACAD
1000
DSTYLE
1002
{
1070
   341
1005
0
1070
    40
1040
1.0
1070
   343
1005
0
1070
   344
1005
0
1002
}
  0
MTEXT
  5
26877
102
{ACAD_REACTORS
330
26876
102
}
330
747D
100
AcDbEntity
  8
部品1
 62
     7
 48
50.0
100
AcDbMText
 10
8225.917721788652
 20
2871.571619428521
 30
0.0
 40
80.0
 41
0.8
 71
     4
 72
     1
  1
\A1;ナット(市販品)
  7
STYLE2
 73
     1
 44
1.0
1001
ACAD
1000
MTEXTBEGIN
1070
    73
1070
     1
1070
    44
1040
1.0
1070
    74
1070
     0
1000
MTEXTEND
  0
LEADER
  5
26878
330
747D
100
AcDbEntity
  8
寸法
 48
50.0
100
AcDbLeader
  3
INABA_S50G
 73
     0
 74
     0
 75
     1
 40
102.2727272727273
 41
906.8181818181818
 76
     3
 10
8065.563750675298
 20
2255.230452020753
 30
0.0
 10
8107.435341044135
 20
2610.466173027369
 30
0.0
 10
8232.435341044135
 20
2610.466173027369
 30
0.0
340
26879
1001
ACAD
1000
DSTYLE
1002
{
1070
   341
1005
0
1070
    40
1040
1.0
1070
   343
1005
0
1070
   344
1005
0
1002
}
  0
MTEXT
  5
26879
102
{ACAD_REACTORS
330
26878
102
}
330
747D
100
AcDbEntity
  8
部品1
 62
     7
 48
50.0
100
AcDbMText
 10
8257.435341044136
 20
2686.602536663733
 30
0.0
 40
80.0
 41
0.8
 71
     4
 72
     1
  1
\A1;ワッシャー(市販品)
  7
STYLE2
 73
     1
 44
1.0
1001
ACAD
1000
MTEXTBEGIN
1070
    73
1070
     1
1070
    44
1040
1.0
1070
    74
1070
     0
1000
MTEXTEND
  0
LWPOLYLINE
  5
2687A
330
747D
100
AcDbEntity
  8
部品1
 48
50.0
100
AcDbPolyline
 90
        2
 70
     0
 43
8.0
 10
8218.163750675296
 20
1746.107163576474
 10
8511.866214074682
 20
1746.107163576474
  0
TEXT
  5
2687B
330
747D
100
AcDbEntity
  8
部品1
 48
50.0
100
AcDbText
 10
8222.517334959723
 20
2341.985844338673
 30
0.0
 40
80.0
  1
基礎ボルト(市販品)
  7
STYLE2
100
AcDbText
  0
DIMENSION
  5
2687C
330
747D
100
AcDbEntity
  8
寸法
 48
50.0
100
AcDbDimension
  2
*D44
 10
8720.032350444141
 20
1662.107163576472
 30
0.0
 11
8620.032350444139
 21
1824.107163576474
 31
0.0
 70
    32
  1
180
 71
     5
 42
324.0000000000009
  3
INABA_S40G
100
AcDbAlignedDimension
 13
8218.163750675296
 23
1986.107163576473
 33
0.0
 14
8218.163750675296
 24
1662.107163576472
 34
0.0
 50
90.0
100
AcDbRotatedDimension
1001
ACAD
1000
DSTYLE
1002
{
1070
   341
1005
0
1002
}
  0
DIMENSION
  5
2687D
330
747D
100
AcDbEntity
  8
寸法
 48
50.0
100
AcDbDimension
  2
*D45
 10
8996.087016563167
 20
1986.107163576473
 30
0.0
 11
8996.087016563167
 21
1520.09826015499
 31
0.0
 70
   160
  1
20～25
 71
     5
 42
52.76000000000113
  3
INABA_S40G
100
AcDbAlignedDimension
 13
8030.963750675299
 23
2038.867163576474
 33
0.0
 14
8218.163750675296
 24
1986.107163576473
 34
0.0
 50
90.0
100
AcDbRotatedDimension
1001
ACAD
1000
DSTYLE
1002
{
1070
   341
1005
0
1002
}
  0
MTEXT
  5
2687E
102
{ACAD_REACTORS
330
2687F
102
}
330
747D
100
AcDbEntity
  8
部品1
 62
     7
 48
50.0
100
AcDbMText
 10
8227.108213094616
 20
2250.490489729703
 30
0.0
 40
80.0
 41
0.8
 71
     4
 72
     1
  1
M10X160
  7
STYLE2
 73
     1
 44
1.0
1001
ACAD
1000
MTEXTBEGIN
1070
    73
1070
     1
1070
    44
1040
1.0
1070
    74
1070
     0
1000
MTEXTEND
  0
LEADER
  5
2687F
330
747D
100
AcDbEntity
  8
寸法
 48
50.0
100
AcDbLeader
  3
INABA_S50G
 73
     0
 74
     0
 75
     1
 40
80.0
 41
435.0
 76
     3
 10
8034.563750675298
 20
2035.267163576474
 30
0.0
 10
8077.108213094616
 20
2185.490489729703
 30
0.0
 10
8202.108213094616
 20
2185.490489729703
 30
0.0
340
2687E
1001
ACAD
1000
DSTYLE
1002
{
1070
   341
1005
0
1070
    40
1040
1.0
1070
   343
1005
0
1070
   344
1005
0
1002
}
  0
LINE
  5
26880
330
747D
100
AcDbEntity
  8
部品1
100
AcDbLine
 10
5033.45599868884
 20
3385.445830777058
 30
0.0
 11
5033.455998688843
 21
421.1388611924112
 31
0.0
  0
LEADER
  5
26881
330
747D
100
AcDbEntity
  8
寸法
 48
50.0
100
AcDbLeader
  3
INABA_S50G
 73
     0
 75
     1
 40
113.1818181818182
 41
608.6363636363635
 76
     3
 10
7994.300500813348
 20
1935.622836934752
 30
0.0
 10
7860.496672122
 20
2787.00191929123
 30
0.0
 10
7735.496672122
 20
2787.00191929123
 30
0.0
340
26882
1001
ACAD
1000
DSTYLE
1002
{
1070
   341
1005
0
1070
    40
1040
1.0
1070
   343
1005
0
1070
   344
1005
0
1002
}
  0
MTEXT
  5
26882
102
{ACAD_REACTORS
330
26881
102
}
330
747D
100
AcDbEntity
  8
寸法
 62
     7
 48
50.0
100
AcDbMText
 10
7710.496672121999
 20
2868.592828382139
 30
0.0
 40
80.0
 41
0.8
 71
     6
 72
     1
  1
\A1;φ70スリーブ
  7
STYLE2
 73
     1
 44
1.0
1001
ACAD
1000
MTEXTBEGIN
1070
    73
1070
     1
1070
    44
1040
1.0
1070
    74
1070
     0
1000
MTEXTEND
  0
LWPOLYLINE
  5
26883
330
747D
100
AcDbEntity
  8
部品1
 48
50.0
100
AcDbPolyline
 90
        2
 70
     0
 43
8.0
 10
5689.984535665146
 20
1746.107163576474
 10
6104.124437498104
 20
1746.107163576474
  0
TEXT
  5
26884
330
747D
100
AcDbEntity
  8
部品1
 48
50.0
100
AcDbText
 10
5689.984535665146
 20
1757.346155859728
 30
0.0
 40
80.0
  1
▽G.L
  7
STYLE2
100
AcDbText
  0
DIMENSION
  5
26885
330
747D
100
AcDbEntity
  8
寸法
 48
50.0
100
AcDbDimension
  2
*D46
 10
5833.704123765644
 20
1202.107163576473
 30
0.0
 11
5833.704123765644
 21
1322.107163576474
 31
0.0
 70
   160
  1
150
 71
     5
 42
240.0
  3
INABA_S40G
100
AcDbAlignedDimension
 13
5976.124437498103
 23
1442.107163576473
 33
0.0
 14
5896.124437498107
 24
1202.107163576473
 34
0.0
 50
90.0
100
AcDbRotatedDimension
1001
ACAD
1000
DSTYLE
1002
{
1070
   341
1005
0
1002
}
  0
LEADER
  5
26886
330
747D
100
AcDbEntity
  8
寸法
 48
50.0
100
AcDbLeader
  3
INABA_S50G
 71
     0
 73
     0
 75
     1
 40
100.0
 41
225.0
 76
     3
 10
6072.027389850246
 20
1322.107163576473
 30
0.0
 10
5950.189411302909
 20
1058.584469958036
 30
0.0
 10
5825.189411302909
 20
1058.584469958036
 30
0.0
1001
ACAD
1000
DSTYLE
1002
{
1070
    40
1040
1.0
1070
   272
1070
     1
1070
   279
1070
     1
1070
   341
1005
0
1002
}
  0
LEADER
  5
26887
330
747D
100
AcDbEntity
  8
寸法
 48
50.0
100
AcDbLeader
  3
INABA_S50G
 71
     0
 73
     0
 75
     1
 40
100.0
 41
222.7272727272727
 76
     3
 10
6200.124437498104
 20
1322.107163576473
 30
0.0
 10
5978.312138860344
 20
878.2683174185931
 30
0.0
 10
5853.312138860344
 20
878.2683174185931
 30
0.0
1001
ACAD
1000
DSTYLE
1002
{
1070
    40
1040
1.0
1070
   272
1070
     1
1070
   279
1070
     1
1070
   341
1005
0
1002
}
  0
MTEXT
  5
26888
102
{ACAD_REACTORS
330
26889
102
}
330
747D
100
AcDbEntity
  8
寸法
 62
     7
 48
50.0
100
AcDbMText
 10
6014.874383275299
 20
1587.40776639393
 30
0.0
 40
80.0
 41
0.8
 71
     6
 72
     1
  1
\A1;D10@300
  7
STYLE2
 73
     1
 44
1.0
1001
ACAD
1000
MTEXTBEGIN
1070
    73
1070
     1
1070
    44
1040
1.0
1070
    74
1070
     0
1000
MTEXTEND
  0
LEADER
  5
26889
330
747D
100
AcDbEntity
  8
寸法
 48
50.0
100
AcDbLeader
  3
INABA_S50G
 71
     0
 73
     0
 75
     1
 40
100.0
 41
540.3409090909091
 76
     3
 10
6208.124437498103
 20
1744.234378273596
 30
0.0
 10
6150.142200969405
 20
1522.764049732791
 30
0.0
 10
6025.142200969405
 20
1522.764049732791
 30
0.0
213
-9.732182305893367
223
-4.643716661138569
233
0.0
1001
ACAD
1000
DSTYLE
1002
{
1070
    40
1040
1.0
1070
   272
1070
     1
1070
   279
1070
     1
1070
   341
1005
0
1002
}
  0
LEADER
  5
2688A
330
747D
100
AcDbEntity
  8
寸法
 48
50.0
100
AcDbLeader
  3
INABA_S50G
 71
     0
 73
     0
 75
     1
 40
130.1136363636363
 41
651.1363636363636
 76
     3
 10
6184.124437498104
 20
1986.107163576473
 30
0.0
 10
6071.699857334087
 20
2126.577929033061
 30
0.0
 10
5946.699857334087
 20
2126.577929033061
 30
0.0
1001
ACAD
1000
DSTYLE
1002
{
1070
    40
1040
1.0
1070
   272
1070
     1
1070
   279
1070
     1
1070
   341
1005
0
1002
}
  0
MTEXT
  5
2688B
102
{ACAD_REACTORS
330
2688A
102
}
330
747D
100
AcDbEntity
  8
寸法
 62
     7
 48
50.0
100
AcDbMText
 10
5884.025958014831
 20
2198.623383578516
 30
0.0
 40
80.0
 41
0.8
 71
     6
 72
     1
  1
\A1;金コテ押エ
  7
STYLE2
 73
     1
 44
1.0
1001
ACAD
1000
MTEXTBEGIN
1070
    73
1070
     1
1070
    44
1040
1.0
1070
    74
1070
     0
1000
MTEXTEND
  0
DIMENSION
  5
2688C
330
747D
100
AcDbEntity
  8
寸法
 48
50.0
100
AcDbDimension
  2
*D47
 10
5369.087198936363
 20
1202.107163576473
 30
0.0
 11
5369.087198936363
 21
1573.647313232473
 31
0.0
 70
   160
  1
540
 71
     5
 42
784.0
  3
INABA_S40G
100
AcDbAlignedDimension
 13
6104.124437498104
 23
1986.107163576473
 33
0.0
 14
5896.124437498107
 24
1202.107163576473
 34
0.0
 50
90.0
100
AcDbRotatedDimension
1001
ACAD
1000
DSTYLE
1002
{
1070
   341
1005
0
1002
}
  0
MTEXT
  5
2688D
102
{ACAD_REACTORS
330
26887
102
}
330
747D
100
AcDbEntity
  8
寸法
 62
     7
 48
50.0
100
AcDbMText
 10
5833.312138860344
 20
938.2683174185931
 30
0.0
 40
80.0
 41
0.8
 71
     6
 72
     1
  1
D13
  7
STYLE2
 73
     1
 44
1.0
1001
ACAD
1000
MTEXTBEGIN
1070
    73
1070
     1
1070
    44
1040
1.0
1070
    74
1070
     0
1000
MTEXTEND
  0
MTEXT
  5
2688E
102
{ACAD_REACTORS
330
26886
102
}
330
747D
100
AcDbEntity
  8
寸法
 62
     7
 48
50.0
100
AcDbMText
 10
5805.189411302909
 20
1118.584469958036
 30
0.0
 40
80.0
 41
0.8
 71
     6
 72
     1
  1
D10
  7
STYLE2
 73
     1
 44
1.0
1001
ACAD
1000
MTEXTBEGIN
1070
    73
1070
     1
1070
    44
1040
1.0
1070
    74
1070
     0
1000
MTEXTEND
  0
DIMENSION
  5
2688F
330
747D
100
AcDbEntity
  8
寸法
 48
50.0
100
AcDbDimension
  2
*D48
 10
6424.124437498104
 20
663.6775255713128
 30
0.0
 11
6180.02767881988
 21
663.6775255713128
 31
0.0
 70
   160
  1
300
 71
     5
 42
448.0
  3
INABA_S40G
100
AcDbAlignedDimension
 13
5976.124437498103
 23
1074.107163576473
 33
0.0
 14
6424.124437498104
 24
1074.107163576473
 34
0.0
100
AcDbRotatedDimension
1001
ACAD
1000
DSTYLE
1002
{
1070
   341
1005
0
1002
}
  0
MTEXT
  5
26890
102
{ACAD_REACTORS
330
26891
102
}
330
747D
100
AcDbEntity
  8
寸法
 62
     7
 48
50.0
100
AcDbMText
 10
7737.139678330358
 20
2507.908556474625
 30
0.0
 40
80.0
 41
0.8
 71
     6
 72
     1
  1
\A1;アンカープレート L
  7
STYLE2
 73
     1
 44
1.0
1001
ACAD
1000
MTEXTBEGIN
1070
    73
1070
     1
1070
    44
1040
1.0
1070
    74
1070
     0
1000
MTEXTEND
  0
LEADER
  5
26891
330
747D
100
AcDbEntity
  8
寸法
 48
50.0
100
AcDbLeader
  3
INABA_S50G
 73
     0
 75
     1
 40
106.3636363636363
 41
893.1818181818181
 76
     3
 10
7935.563750675297
 20
2055.667163576474
 30
0.0
 10
7887.139678330358
 20
2429.726738292806
 30
0.0
 10
7762.139678330358
 20
2429.726738292806
 30
0.0
340
26890
1001
ACAD
1000
DSTYLE
1002
{
1070
   341
1005
0
1070
    40
1040
1.0
1070
   343
1005
0
1070
   344
1005
0
1002
}
  0
LINE
  5
26892
330
747D
100
AcDbEntity
  8
細線
 48
50.0
100
AcDbLine
 10
6224.124437498105
 20
1824.480056244303
 30
0.0
 11
6296.124437498104
 21
1896.480056244303
 31
0.0
  0
ARC
  5
26893
330
747D
100
AcDbEntity
  8
部品1
 48
50.0
100
AcDbCircle
 10
6200.124437498104
 20
1846.361592970718
 30
0.0
 40
24.0
100
AcDbArc
 50
0.0
 51
180.0
  0
CIRCLE
  5
26894
330
747D
100
AcDbEntity
  8
部品1
 48
50.0
100
AcDbCircle
 10
6200.124437498104
 20
1846.361592970718
 30
0.0
 40
8.0
  0
LINE
  5
26895
330
747D
100
AcDbEntity
  8
部品1
 48
50.0
100
AcDbLine
 10
6104.124437498104
 20
1442.107163576473
 30
0.0
 11
6104.124437498104
 21
1986.107163576473
 31
0.0
  0
LINE
  5
26896
330
747D
100
AcDbEntity
  8
部品1
 48
50.0
100
AcDbLine
 10
6296.124437498104
 20
1986.107163576473
 30
0.0
 11
6296.124437498104
 21
1442.107163576473
 31
0.0
  0
MTEXT
  5
26897
102
{ACAD_REACTORS
330
2689C
102
}
330
747D
100
AcDbEntity
  8
寸法
 62
     7
 48
50.0
100
AcDbMText
 10
6379.010374525498
 20
2008.663062869284
 30
0.0
 40
80.0
 41
0.8
 71
     4
 72
     1
  1
D13
  7
STYLE2
 73
     1
 44
1.0
1001
ACAD
1000
MTEXTBEGIN
1070
    73
1070
     1
1070
    44
1040
1.0
1070
    74
1070
     0
1000
MTEXTEND
  0
LEADER
  5
26898
330
747D
100
AcDbEntity
  8
寸法
 48
50.0
100
AcDbLeader
  3
INABA_S50G
 71
     0
 73
     0
 74
     0
 75
     1
 40
100.0
 41
225.0
 76
     3
 10
6328.027389850246
 20
1322.107163576473
 30
0.0
 10
6382.452097304788
 20
1226.7100946335
 30
0.0
 10
6507.452097304788
 20
1226.7100946335
 30
0.0
1001
ACAD
1000
DSTYLE
1002
{
1070
    40
1040
1.0
1070
   272
1070
     1
1070
   279
1070
     1
1070
   341
1005
0
1002
}
  0
LEADER
  5
26899
330
747D
100
AcDbEntity
  8
寸法
 48
50.0
100
AcDbLeader
  3
INABA_S50G
 71
     0
 73
     0
 74
     0
 75
     1
 40
100.0
 41
540.3409090909091
 76
     3
 10
6274.069606511278
 20
1305.366633162947
 30
0.0
 10
6392.862893359354
 20
963.73581516805
 30
0.0
 10
6517.862893359354
 20
963.73581516805
 30
0.0
213
0.0
223
-1.022262676269383
233
0.0
1001
ACAD
1000
DSTYLE
1002
{
1070
    40
1040
1.0
1070
   272
1070
     1
1070
   279
1070
     1
1070
   341
1005
0
1002
}
  0
MTEXT
  5
2689A
102
{ACAD_REACTORS
330
26898
102
}
330
747D
100
AcDbEntity
  8
寸法
 62
     7
 48
50.0
100
AcDbMText
 10
6527.452097304788
 20
1286.7100946335
 30
0.0
 40
80.0
 41
0.8
 71
     4
 72
     1
  1
D10
  7
STYLE2
 73
     1
 44
1.0
1001
ACAD
1000
MTEXTBEGIN
1070
    73
1070
     1
1070
    44
1040
1.0
1070
    74
1070
     0
1000
MTEXTEND
  0
LWPOLYLINE
  5
2689B
330
747D
100
AcDbEntity
  8
部品1
 48
50.0
100
AcDbPolyline
 90
        2
 70
     0
 43
8.0
 10
6296.124437498104
 20
1746.107163576474
 10
6710.264339331061
 20
1746.107163576474
  0
LEADER
  5
2689C
330
747D
100
AcDbEntity
  8
寸法
 48
50.0
100
AcDbLeader
  3
INABA_S50G
 71
     0
 73
     0
 74
     0
 75
     1
 40
100.0
 41
222.7272727272727
 76
     3
 10
6200.124437498104
 20
1846.361592970718
 30
0.0
 10
6254.010374525498
 20
1945.597165823892
 30
0.0
 10
6379.010374525498
 20
1945.597165823892
 30
0.0
1001
ACAD
1000
DSTYLE
1002
{
1070
    40
1040
1.0
1070
   272
1070
     1
1070
   279
1070
     1
1070
   341
1005
0
1002
}
  0
LINE
  5
2689D
330
747D
100
AcDbEntity
  8
細線
 48
50.0
100
AcDbLine
 10
5976.124437498096
 20
1360.953909338644
 30
0.0
 11
6057.277691735933
 21
1442.107163576473
 31
0.0
  0
LINE
  5
2689E
330
747D
100
AcDbEntity
  8
細線
 48
50.0
100
AcDbLine
 10
6183.990284975508
 20
1380.234378273595
 30
0.0
 11
6208.12443749811
 21
1404.368530796194
 31
0.0
  0
LINE
  5
2689F
330
747D
100
AcDbEntity
  8
細線
 48
50.0
100
AcDbLine
 10
6090.922301915177
 20
1314.107163576473
 30
0.0
 11
6208.124437498105
 21
1431.309299159398
 31
0.0
  0
LINE
  5
268A0
330
747D
100
AcDbEntity
  8
部品1
 48
50.0
100
AcDbLine
 10
5976.124437498104
 20
1202.107163576473
 30
0.0
 11
5976.124437498104
 21
1442.107163576473
 31
0.0
  0
LINE
  5
268A1
330
747D
100
AcDbEntity
  8
細線
 48
50.0
100
AcDbLine
 10
6333.389217184048
 20
1314.107163576473
 30
0.0
 11
6424.124437498105
 21
1404.842383890532
 31
0.0
  0
LINE
  5
268A2
330
747D
100
AcDbEntity
  8
細線
 48
50.0
100
AcDbLine
 10
6306.448448820832
 20
1314.107163576473
 30
0.0
 11
6424.124437498105
 21
1431.783152253739
 31
0.0
  0
LINE
  5
268A3
330
747D
100
AcDbEntity
  8
部品1
 48
50.0
100
AcDbLine
 10
6424.124437498105
 20
1442.107163576473
 30
0.0
 11
6424.124437498105
 21
1202.107163576473
 31
0.0
  0
LINE
  5
268A4
330
747D
100
AcDbEntity
  8
部品1
 48
50.0
100
AcDbLine
 10
6224.12443749811
 20
1322.107163576473
 30
0.0
 11
6224.124437498105
 21
1846.361592970718
 31
0.0
  0
LINE
  5
268A5
330
747D
100
AcDbEntity
  8
部品1
 48
50.0
100
AcDbLine
 10
6208.12443749811
 20
1322.107163576473
 30
0.0
 11
6208.124437498097
 21
1846.361592970718
 31
0.0
  0
LINE
  5
268A6
330
747D
100
AcDbEntity
  8
細線
 48
50.0
100
AcDbLine
 10
6192.124437498105
 20
1361.427762432984
 30
0.0
 11
6208.12443749811
 21
1377.427762432984
 31
0.0
  0
LINE
  5
268A7
330
747D
100
AcDbEntity
  8
細線
 48
50.0
100
AcDbLine
 10
6181.307276994118
 20
1074.107163576473
 30
0.0
 11
6215.604773625301
 21
1202.107163576473
 31
0.0
  0
LINE
  5
268A8
330
747D
100
AcDbEntity
  8
部品1
 48
50.0
100
AcDbLine
 10
6504.124437498107
 20
1074.107163576473
 30
0.0
 11
5896.124437498106
 21
1074.107163576473
 31
0.0
  0
LINE
  5
268A9
330
747D
100
AcDbEntity
  8
部品1
 48
50.0
100
AcDbLine
 10
6032.124437498104
 20
1298.107163576473
 30
0.0
 11
6368.124437498104
 21
1298.107163576473
 31
0.0
  0
LINE
  5
268AA
330
747D
100
AcDbEntity
  8
部品1
 48
50.0
100
AcDbLine
 10
6032.124437498104
 20
1314.107163576473
 30
0.0
 11
6368.124437498104
 21
1314.107163576473
 31
0.0
  0
LINE
  5
268AB
330
747D
100
AcDbEntity
  8
部品1
 48
50.0
100
AcDbLine
 10
6504.124437498107
 20
1202.107163576473
 30
0.0
 11
5896.124437498106
 21
1202.107163576473
 31
0.0
  0
CIRCLE
  5
268AC
330
747D
100
AcDbEntity
  8
部品1
 48
50.0
100
AcDbCircle
 10
6200.124437498104
 20
1322.107163576473
 30
0.0
 40
8.0
  0
LINE
  5
268AD
330
747D
100
AcDbEntity
  8
細線
 48
50.0
100
AcDbLine
 10
6194.448448820837
 20
1202.107163576473
 30
0.0
 11
6290.448448820837
 21
1298.107163576473
 31
0.0
  0
LINE
  5
268AE
330
747D
100
AcDbEntity
  8
細線
 48
50.0
100
AcDbLine
 10
6023.531187099621
 20
1074.107163576473
 30
0.0
 11
6057.828683730804
 21
1202.107163576473
 31
0.0
  0
LINE
  5
268AF
330
747D
100
AcDbEntity
  8
細線
 48
50.0
100
AcDbLine
 10
6102.419232046866
 20
1074.107163576471
 30
0.0
 11
6136.716728678049
 21
1202.107163576471
 31
0.0
  0
LINE
  5
268B0
330
747D
100
AcDbEntity
  8
細線
 48
50.0
100
AcDbLine
 10
5944.643142152362
 20
1074.107163576471
 30
0.0
 11
5978.940638783545
 21
1202.107163576471
 31
0.0
  0
LINE
  5
268B1
330
747D
100
AcDbEntity
  8
部品1
 48
50.0
100
AcDbLine
 10
5896.124437498106
 20
1074.107163576473
 30
0.0
 11
5896.124437498106
 21
1202.107163576473
 31
0.0
  0
LINE
  5
268B2
330
747D
100
AcDbEntity
  8
細線
 48
50.0
100
AcDbLine
 10
6029.961967717966
 20
1098.107163576473
 30
0.0
 11
6036.392748336314
 21
1074.107163576473
 31
0.0
  0
LINE
  5
268B3
330
747D
100
AcDbEntity
  8
細線
 48
50.0
100
AcDbLine
 10
5951.073922770715
 20
1098.107163576473
 30
0.0
 11
5957.504703389061
 21
1074.107163576473
 31
0.0
  0
LINE
  5
268B4
330
747D
100
AcDbEntity
  8
細線
 48
50.0
100
AcDbLine
 10
6187.738057612471
 20
1098.107163576473
 30
0.0
 11
6194.168838230818
 21
1074.107163576473
 31
0.0
  0
LINE
  5
268B5
330
747D
100
AcDbEntity
  8
細線
 48
50.0
100
AcDbLine
 10
6108.850012665219
 20
1098.107163576473
 30
0.0
 11
6115.280793283565
 21
1074.107163576473
 31
0.0
  0
LINE
  5
268B6
330
747D
100
AcDbEntity
  8
細線
 48
50.0
100
AcDbLine
 10
6005.863070278388
 20
1202.107163576473
 30
0.0
 11
6101.863070278387
 21
1298.107163576473
 31
0.0
  0
LINE
  5
268B7
330
747D
100
AcDbEntity
  8
細線
 48
50.0
100
AcDbLine
 10
5978.922301915177
 20
1202.107163576473
 30
0.0
 11
6074.922301915177
 21
1298.107163576473
 31
0.0
  0
LINE
  5
268B8
330
747D
100
AcDbEntity
  8
部品1
 48
50.0
100
AcDbLine
 10
6032.124437498104
 20
1314.107163576473
 30
0.0
 11
6032.124437498104
 21
1298.107163576473
 31
0.0
  0
LINE
  5
268B9
330
747D
100
AcDbEntity
  8
細線
 48
50.0
100
AcDbLine
 10
5972.509858165205
 20
1178.107163576473
 30
0.0
 11
5966.079077546857
 21
1202.107163576473
 31
0.0
  0
LINE
  5
268BA
330
747D
100
AcDbEntity
  8
細線
 48
50.0
100
AcDbLine
 10
5896.124437498104
 20
1187.447084542253
 30
0.0
 11
5900.052593836299
 21
1202.107163576473
 31
0.0
  0
LINE
  5
268BB
330
747D
100
AcDbEntity
  8
部品1
 48
50.0
100
AcDbLine
 10
6192.124437498105
 20
1380.234378273595
 30
0.0
 11
6176.124437498105
 21
1380.234378273595
 31
0.0
  0
CIRCLE
  5
268BC
330
747D
100
AcDbEntity
  8
部品1
 48
50.0
100
AcDbCircle
 10
6072.124437498104
 20
1322.107163576473
 30
0.0
 40
8.0
  0
LINE
  5
268BD
330
747D
100
AcDbEntity
  8
細線
 48
50.0
100
AcDbLine
 10
6144.803838641593
 20
1314.107163576473
 30
0.0
 11
6176.124437498105
 21
1345.427762432984
 31
0.0
  0
ARC
  5
268BE
330
747D
100
AcDbEntity
  8
部品1
 48
50.0
100
AcDbCircle
 10
6200.124437498104
 20
1322.107163576473
 30
0.0
 40
24.0
100
AcDbArc
 50
180.0
 51
199.4712206344713
  0
LINE
  5
268BF
330
747D
100
AcDbEntity
  8
細線
 48
50.0
100
AcDbLine
 10
6051.397903112455
 20
1178.107163576473
 30
0.0
 11
6044.967122494109
 21
1202.107163576473
 31
0.0
  0
LINE
  5
268C0
330
747D
100
AcDbEntity
  8
細線
 48
50.0
100
AcDbLine
 10
6130.285948059707
 20
1178.107163576473
 30
0.0
 11
6123.855167441362
 21
1202.107163576473
 31
0.0
  0
LINE
  5
268C1
330
747D
100
AcDbEntity
  8
細線
 48
50.0
100
AcDbLine
 10
6032.803838641592
 20
1202.107163576473
 30
0.0
 11
6128.803838641593
 21
1298.107163576473
 31
0.0
  0
LINE
  5
268C2
330
747D
100
AcDbEntity
  8
部品1
 48
50.0
100
AcDbLine
 10
6176.124437498105
 20
1380.234378273595
 30
0.0
 11
6176.124437498105
 21
1322.107163576473
 31
0.0
  0
LINE
  5
268C3
330
747D
100
AcDbEntity
  8
細線
 48
50.0
100
AcDbLine
 10
6117.863070278388
 20
1314.107163576473
 30
0.0
 11
6176.124437498105
 21
1372.368530796191
 31
0.0
  0
LINE
  5
268C4
330
747D
100
AcDbEntity
  8
部品1
 48
50.0
100
AcDbLine
 10
6192.124437498105
 20
1380.234378273595
 30
0.0
 11
6192.124437498105
 21
1322.107163576473
 31
0.0
  0
LINE
  5
268C5
330
747D
100
AcDbEntity
  8
部品1
 48
50.0
100
AcDbLine
 10
6504.124437498107
 20
1202.107163576473
 30
0.0
 11
6504.124437498107
 21
1074.107163576473
 31
0.0
  0
LINE
  5
268C6
330
747D
100
AcDbEntity
  8
細線
 48
50.0
100
AcDbLine
 10
6417.971411835857
 20
1074.107163576473
 30
0.0
 11
6452.268908467043
 21
1202.107163576471
 31
0.0
  0
LINE
  5
268C7
330
747D
100
AcDbEntity
  8
細線
 48
50.0
100
AcDbLine
 10
6260.195321941363
 20
1074.107163576473
 30
0.0
 11
6294.49281857255
 21
1202.107163576471
 31
0.0
  0
LINE
  5
268C8
330
747D
100
AcDbEntity
  8
細線
 48
50.0
100
AcDbLine
 10
6339.083366888612
 20
1074.107163576471
 30
0.0
 11
6373.380863519797
 21
1202.107163576471
 31
0.0
  0
LINE
  5
268C9
330
747D
100
AcDbEntity
  8
細線
 48
50.0
100
AcDbLine
 10
6345.514147506962
 20
1098.107163576473
 30
0.0
 11
6351.94492812531
 21
1074.107163576473
 31
0.0
  0
LINE
  5
268CA
330
747D
100
AcDbEntity
  8
細線
 48
50.0
100
AcDbLine
 10
6266.626102559717
 20
1098.107163576473
 30
0.0
 11
6273.056883178063
 21
1074.107163576473
 31
0.0
  0
LINE
  5
268CB
330
747D
100
AcDbEntity
  8
細線
 48
50.0
100
AcDbLine
 10
6424.402192454209
 20
1098.107163576473
 30
0.0
 11
6430.832973072558
 21
1074.107163576473
 31
0.0
  0
LINE
  5
268CC
330
747D
100
AcDbEntity
  8
細線
 48
50.0
100
AcDbLine
 10
6503.290237401457
 20
1098.107163576473
 30
0.0
 11
6504.124437498105
 21
1094.993886432108
 31
0.0
  0
LINE
  5
268CD
330
747D
100
AcDbEntity
  8
細線
 48
50.0
100
AcDbLine
 10
6496.859456783107
 20
1074.107163576471
 30
0.0
 11
6504.124437498105
 21
1101.220440720861
 31
0.0
  0
LINE
  5
268CE
330
747D
100
AcDbEntity
  8
細線
 48
50.0
100
AcDbLine
 10
6360.329985547251
 20
1314.107163576473
 30
0.0
 11
6424.124437498105
 21
1377.901615527324
 31
0.0
  0
CIRCLE
  5
268CF
330
747D
100
AcDbEntity
  8
部品1
 48
50.0
100
AcDbCircle
 10
6328.124437498104
 20
1322.107163576473
 30
0.0
 40
8.0
  0
ARC
  5
268D0
330
747D
100
AcDbEntity
  8
部品1
 48
50.0
100
AcDbCircle
 10
6200.124437498104
 20
1322.107163576473
 30
0.0
 40
24.0
100
AcDbArc
 50
340.5287793655287
 51
0.0
  0
LINE
  5
268D1
330
747D
100
AcDbEntity
  8
細線
 48
50.0
100
AcDbLine
 10
6209.17399300696
 20
1178.107163576473
 30
0.0
 11
6202.743212388613
 21
1202.107163576473
 31
0.0
  0
LINE
  5
268D2
330
747D
100
AcDbEntity
  8
細線
 48
50.0
100
AcDbLine
 10
6288.062037954206
 20
1178.107163576473
 30
0.0
 11
6281.63125733586
 21
1202.107163576473
 31
0.0
  0
LINE
  5
268D3
330
747D
100
AcDbEntity
  8
細線
 48
50.0
100
AcDbLine
 10
6221.389217184048
 20
1202.107163576473
 30
0.0
 11
6317.389217184048
 21
1298.107163576473
 31
0.0
  0
LINE
  5
268D4
330
747D
100
AcDbEntity
  8
細線
 48
50.0
100
AcDbLine
 10
6248.329985547251
 20
1202.107163576473
 30
0.0
 11
6344.330873392388
 21
1298.108051421612
 31
0.0
  0
LINE
  5
268D5
330
747D
100
AcDbEntity
  8
部品1
 48
50.0
100
AcDbLine
 10
6368.124437498104
 20
1314.107163576473
 30
0.0
 11
6368.124437498104
 21
1298.107163576473
 31
0.0
  0
LINE
  5
268D6
330
747D
100
AcDbEntity
  8
細線
 48
50.0
100
AcDbLine
 10
6445.838127848698
 20
1178.107163576473
 30
0.0
 11
6439.40734723035
 21
1202.107163576473
 31
0.0
  0
LINE
  5
268D7
330
747D
100
AcDbEntity
  8
細線
 48
50.0
100
AcDbLine
 10
6409.974595726497
 20
1202.107163576473
 30
0.0
 11
6424.124437498105
 21
1216.257005348079
 31
0.0
  0
LINE
  5
268D8
330
747D
100
AcDbEntity
  8
細線
 48
50.0
100
AcDbLine
 10
6366.950082901452
 20
1178.107163576473
 30
0.0
 11
6360.519302283105
 21
1202.107163576473
 31
0.0
  0
LINE
  5
268D9
330
747D
100
AcDbEntity
  8
細線
 48
50.0
100
AcDbLine
 10
6104.124437498104
 20
1515.894677701851
 30
0.0
 11
6208.12443749811
 21
1619.894677701854
 31
0.0
  0
LINE
  5
268DA
330
747D
100
AcDbEntity
  8
細線
 48
50.0
100
AcDbLine
 10
6104.124437498104
 20
1542.835446065059
 30
0.0
 11
6208.124437498105
 21
1646.835446065059
 31
0.0
  0
LINE
  5
268DB
330
747D
100
AcDbEntity
  8
細線
 48
50.0
100
AcDbLine
 10
6104.124437498104
 20
1488.953909338644
 30
0.0
 11
6208.12443749811
 21
1592.953909338644
 31
0.0
  0
LINE
  5
268DC
330
747D
100
AcDbEntity
  8
細線
 48
50.0
100
AcDbLine
 10
6192.124437498105
 20
1792.480056244303
 30
0.0
 11
6208.124437498105
 21
1808.480056244303
 31
0.0
  0
LINE
  5
268DD
330
747D
100
AcDbEntity
  8
細線
 48
50.0
100
AcDbLine
 10
6192.124437498105
 20
1819.42082460751
 30
0.0
 11
6208.124437498105
 21
1835.42082460751
 31
0.0
  0
LINE
  5
268DE
330
747D
100
AcDbEntity
  8
部品1
 48
50.0
100
AcDbLine
 10
5976.124437498104
 20
1442.107163576473
 30
0.0
 11
6104.124437498104
 21
1442.107163576473
 31
0.0
  0
LINE
  5
268DF
330
747D
100
AcDbEntity
  8
細線
 48
50.0
100
AcDbLine
 10
5976.124437498096
 20
1387.894677701848
 30
0.0
 11
6030.336923372729
 21
1442.107163576473
 31
0.0
  0
LINE
  5
268E0
330
747D
100
AcDbEntity
  8
細線
 48
50.0
100
AcDbLine
 10
5976.124437498096
 20
1414.835446065059
 30
0.0
 11
6003.396155009518
 21
1442.107163576473
 31
0.0
  0
LINE
  5
268E1
330
747D
100
AcDbEntity
  8
部品1
 48
50.0
100
AcDbLine
 10
6192.124437498105
 20
1788.234378273595
 30
0.0
 11
6176.124437498105
 21
1788.234378273599
 31
0.0
  0
LINE
  5
268E2
330
747D
100
AcDbEntity
  8
細線
 48
50.0
100
AcDbLine
 10
6104.124437498104
 20
1704.480056244303
 30
0.0
 11
6187.878759527398
 21
1788.234378273595
 31
0.0
  0
LINE
  5
268E3
330
747D
100
AcDbEntity
  8
細線
 48
50.0
100
AcDbLine
 10
6104.124437498104
 20
1731.42082460751
 30
0.0
 11
6176.124437498105
 21
1803.420824607511
 31
0.0
  0
LINE
  5
268E4
330
747D
100
AcDbEntity
  8
部品1
 48
50.0
100
AcDbLine
 10
6176.124437498105
 20
1788.234378273599
 30
0.0
 11
6176.124437498105
 21
1846.361592970718
 31
0.0
  0
LINE
  5
268E5
330
747D
100
AcDbEntity
  8
細線
 48
50.0
100
AcDbLine
 10
6104.124437498104
 20
1758.361592970718
 30
0.0
 11
6176.124437498105
 21
1830.361592970718
 31
0.0
  0
LINE
  5
268E6
330
747D
100
AcDbEntity
  8
部品1
 48
50.0
100
AcDbLine
 10
6192.124437498105
 20
1788.234378273595
 30
0.0
 11
6192.124437498105
 21
1846.361592970718
 31
0.0
  0
LINE
  5
268E7
330
747D
100
AcDbEntity
  8
細線
 48
50.0
100
AcDbLine
 10
6224.12443749811
 20
1608.953909338644
 30
0.0
 11
6296.124437498097
 21
1680.953909338644
 31
0.0
  0
LINE
  5
268E8
330
747D
100
AcDbEntity
  8
部品1
 48
50.0
100
AcDbLine
 10
6296.124437498104
 20
1442.107163576473
 30
0.0
 11
6424.124437498105
 21
1442.107163576473
 31
0.0
  0
LINE
  5
268E9
330
747D
100
AcDbEntity
  8
細線
 48
50.0
100
AcDbLine
 10
6224.12443749811
 20
1420.368530796194
 30
0.0
 11
6296.124437498097
 21
1492.368530796189
 31
0.0
  0
LINE
  5
268EA
330
747D
100
AcDbEntity
  8
細線
 48
50.0
100
AcDbLine
 10
6224.12443749811
 20
1447.309299159402
 30
0.0
 11
6296.124437498097
 21
1519.309299159398
 31
0.0
  0
LINE
  5
268EB
330
747D
100
AcDbEntity
  8
細線
 48
50.0
100
AcDbLine
 10
6224.12443749811
 20
1393.427762432984
 30
0.0
 11
6296.124437498097
 21
1465.427762432984
 31
0.0
  0
LINE
  5
268EC
330
747D
100
AcDbEntity
  8
細線
 48
50.0
100
AcDbLine
 10
6224.124437498105
 20
1662.835446065059
 30
0.0
 11
6296.124437498104
 21
1734.835446065059
 31
0.0
  0
LINE
  5
268ED
330
747D
100
AcDbEntity
  8
細線
 48
50.0
100
AcDbLine
 10
6224.12443749811
 20
1635.894677701854
 30
0.0
 11
6296.124437498097
 21
1707.894677701848
 31
0.0
  0
MTEXT
  5
268EE
102
{ACAD_REACTORS
330
26899
102
}
330
747D
100
AcDbEntity
  8
寸法
 62
     7
 48
50.0
100
AcDbMText
 10
6537.862893359354
 20
1024.75807784432
 30
0.0
 40
80.0
 41
0.8
 71
     4
 72
     1
  1
\A1;D10@300
  7
STYLE2
 73
     1
 44
1.0
1001
ACAD
1000
MTEXTBEGIN
1070
    73
1070
     1
1070
    44
1040
1.0
1070
    74
1070
     0
1000
MTEXTEND
  0
DIMENSION
  5
268EF
330
747D
100
AcDbEntity
  8
寸法
 48
50.0
100
AcDbDimension
  2
*D43
 10
6104.124437498104
 20
2405.774971492853
 30
0.0
 11
6200.124437498104
 21
2405.774971492853
 31
0.0
 70
   160
  1
120\P200\P280
 71
     5
 42
192.0
  3
INABA_S40G
100
AcDbAlignedDimension
 13
6296.124437498104
 23
1986.107163576473
 33
0.0
 14
6104.124437498104
 24
1986.107163576473
 34
0.0
100
AcDbRotatedDimension
1001
ACAD
1000
DSTYLE
1002
{
1070
   341
1005
0
1002
}
  0
LINE
  5
268F0
330
747D
100
AcDbEntity
  8
部品1
 48
50.0
100
AcDbLine
 10
6104.124437498104
 20
1986.107163576473
 30
0.0
 11
6296.124437498104
 21
1986.107163576473
 31
0.0
  0
LINE
  5
268F1
330
747D
100
AcDbEntity
  8
細線
 48
50.0
100
AcDbLine
 10
6104.124437498104
 20
1946.946971513171
 30
0.0
 11
6143.284629561408
 21
1986.107163576473
 31
0.0
  0
LINE
  5
268F2
330
747D
100
AcDbEntity
  8
細線
 48
50.0
100
AcDbLine
 10
6104.124437498104
 20
1920.006203149963
 30
0.0
 11
6170.225397924614
 21
1986.107163576473
 31
0.0
  0
LINE
  5
268F3
330
747D
100
AcDbEntity
  8
細線
 48
50.0
100
AcDbLine
 10
6104.124437498104
 20
1973.887739876378
 30
0.0
 11
6116.343861198199
 21
1986.107163576473
 31
0.0
  0
LINE
  5
268F4
330
747D
100
AcDbEntity
  8
細線
 48
50.0
100
AcDbLine
 10
6223.67714476409
 20
1850.973531873495
 30
0.0
 11
6296.124437498104
 21
1923.42082460751
 31
0.0
  0
LINE
  5
268F5
330
747D
100
AcDbEntity
  8
細線
 48
50.0
100
AcDbLine
 10
6212.616860000574
 20
1866.854015473189
 30
0.0
 11
6296.124437498104
 21
1950.361592970718
 31
0.0
  0
LINE
  5
268F6
330
747D
100
AcDbEntity
  8
細線
 48
50.0
100
AcDbLine
 10
8088.563750675296
 20
1827.235446065061
 30
0.0
 11
8218.163750675296
 21
1956.83544606506
 31
0.0
  0
LINE
  5
268F7
330
747D
100
AcDbEntity
  8
部品1
100
AcDbLine
 10
8218.163750675296
 20
1442.107163576473
 30
0.0
 11
8218.163750675296
 21
1986.107163576473
 31
0.0
  0
LINE
  5
268F8
330
747D
100
AcDbEntity
  8
部品1
 48
50.0
100
AcDbLine
 10
7804.163750675296
 20
1442.107163576473
 30
0.0
 11
7804.163750675296
 21
1986.107163576473
 31
0.0
  0
LINE
  5
268F9
330
747D
100
AcDbEntity
  8
細線
 48
50.0
100
AcDbLine
 10
7804.163750675296
 20
1758.361592970718
 30
0.0
 11
7962.563750675298
 21
1916.761592970715
 31
0.0
  0
LINE
  5
268FA
330
747D
100
AcDbEntity
  8
細線
 48
50.0
100
AcDbLine
 10
7804.163750675296
 20
1731.42082460751
 30
0.0
 11
7962.563750675298
 21
1889.820824607508
 31
0.0
  0
LINE
  5
268FB
330
747D
100
AcDbEntity
  8
細線
 48
50.0
100
AcDbLine
 10
7804.163750675296
 20
1704.480056244303
 30
0.0
 11
7962.563750675293
 21
1862.880056244296
 31
0.0
  0
TEXT
  5
268FC
330
747D
100
AcDbEntity
  8
部品1
 48
50.0
100
AcDbText
 10
7390.023848842341
 20
1757.346155859728
 30
0.0
 40
80.0
  1
▽G.L
  7
STYLE2
100
AcDbText
  0
LINE
  5
268FD
330
747D
100
AcDbEntity
  8
部品1
100
AcDbLine
 10
8034.563750675298
 20
1761.107163576473
 30
0.0
 11
8034.563750675294
 21
2035.267163576474
 31
0.0
  0
LINE
  5
268FE
330
747D
100
AcDbEntity
  8
部品1
100
AcDbLine
 10
8016.563750675297
 20
1761.107163576473
 30
0.0
 11
8016.563750675294
 21
2035.267163576474
 31
0.0
  0
LINE
  5
268FF
330
747D
100
AcDbEntity
  8
細線
 48
50.0
100
AcDbLine
 10
8088.563750675296
 20
1773.353909338631
 30
0.0
 11
8218.163750675296
 21
1902.953909338623
 31
0.0
  0
LINE
  5
26900
330
747D
100
AcDbEntity
  8
細線
 48
50.0
100
AcDbLine
 10
8088.563750675296
 20
1800.294677701844
 30
0.0
 11
8218.163750675296
 21
1929.894677701841
 31
0.0
  0
LINE
  5
26901
330
747D
100
AcDbEntity
  8
部品1
100
AcDbLine
 10
8088.563750675296
 20
1662.107163576473
 30
0.0
 11
8088.563750675296
 21
1986.107163576473
 31
0.0
  0
LINE
  5
26902
330
747D
100
AcDbEntity
  8
部品1
100
AcDbLine
 10
7962.563750675291
 20
1662.107163576473
 30
0.0
 11
7962.563750675298
 21
1986.107163576473
 31
0.0
  0
LINE
  5
26903
330
747D
100
AcDbEntity
  8
細線
 48
50.0
100
AcDbLine
 10
7804.163750675296
 20
1515.894677701851
 30
0.0
 11
7962.563750675291
 21
1674.294677701839
 31
0.0
  0
LINE
  5
26904
330
747D
100
AcDbEntity
  8
細線
 48
50.0
100
AcDbLine
 10
7804.163750675296
 20
1488.953909338644
 30
0.0
 11
7977.317004913134
 21
1662.107163576471
 31
0.0
  0
LINE
  5
26905
330
747D
100
AcDbEntity
  8
細線
 48
50.0
100
AcDbLine
 10
7804.163750675296
 20
1542.835446065059
 30
0.0
 11
7962.563750675291
 21
1701.235446065054
 31
0.0
  0
LINE
  5
26906
330
747D
100
AcDbEntity
  8
細線
 48
50.0
100
AcDbLine
 10
7732.843151818787
 20
1202.107163576473
 30
0.0
 11
8218.163750675296
 21
1687.427762432981
 31
0.0
  0
LINE
  5
26907
330
747D
100
AcDbEntity
  8
細線
 48
50.0
100
AcDbLine
 10
7705.902383455581
 20
1202.107163576473
 30
0.0
 11
8218.1637506753
 21
1714.368530796187
 31
0.0
  0
LINE
  5
26908
330
747D
100
AcDbEntity
  8
細線
 48
50.0
100
AcDbLine
 10
7678.961615092373
 20
1202.107163576473
 30
0.0
 11
8218.163750675296
 21
1741.309299159398
 31
0.0
  0
LINE
  5
26909
330
747D
100
AcDbEntity
  8
部品1
 48
50.0
100
AcDbLine
 10
8426.163750675298
 20
1202.107163576473
 30
0.0
 11
7596.163750675301
 21
1202.107163576473
 31
0.0
  0
LINE
  5
2690A
330
747D
100
AcDbEntity
  8
部品1
 48
50.0
100
AcDbLine
 10
8426.163750675298
 20
1074.107163576473
 30
0.0
 11
7596.163750675301
 21
1074.107163576473
 31
0.0
  0
LINE
  5
2690B
330
747D
100
AcDbEntity
  8
細線
 48
50.0
100
AcDbLine
 10
7676.163750675293
 20
1360.953909338644
 30
0.0
 11
7757.317004913126
 21
1442.107163576473
 31
0.0
  0
LINE
  5
2690C
330
747D
100
AcDbEntity
  8
部品1
 48
50.0
100
AcDbLine
 10
7676.163750675297
 20
1202.107163576473
 30
0.0
 11
7676.163750675297
 21
1442.107163576473
 31
0.0
  0
LINE
  5
2690D
330
747D
100
AcDbEntity
  8
細線
 48
50.0
100
AcDbLine
 10
7723.570500276814
 20
1074.107163576473
 30
0.0
 11
7757.867996907997
 21
1202.107163576473
 31
0.0
  0
LINE
  5
2690E
330
747D
100
AcDbEntity
  8
部品1
 48
50.0
100
AcDbLine
 10
7596.163750675301
 20
1074.107163576473
 30
0.0
 11
7596.163750675301
 21
1202.107163576473
 31
0.0
  0
LINE
  5
2690F
330
747D
100
AcDbEntity
  8
細線
 48
50.0
100
AcDbLine
 10
7644.682455329557
 20
1074.107163576471
 30
0.0
 11
7678.97995196074
 21
1202.107163576471
 31
0.0
  0
LINE
  5
26910
330
747D
100
AcDbEntity
  8
細線
 48
50.0
100
AcDbLine
 10
7802.458545224062
 20
1074.107163576471
 30
0.0
 11
7836.756041855243
 21
1202.107163576471
 31
0.0
  0
LINE
  5
26911
330
747D
100
AcDbEntity
  8
細線
 48
50.0
100
AcDbLine
 10
7651.11323594791
 20
1098.107163576473
 30
0.0
 11
7657.544016566255
 21
1074.107163576473
 31
0.0
  0
LINE
  5
26912
330
747D
100
AcDbEntity
  8
細線
 48
50.0
100
AcDbLine
 10
7808.889325842414
 20
1098.107163576473
 30
0.0
 11
7815.320106460761
 21
1074.107163576473
 31
0.0
  0
LINE
  5
26913
330
747D
100
AcDbEntity
  8
細線
 48
50.0
100
AcDbLine
 10
7730.001280895162
 20
1098.107163576473
 30
0.0
 11
7736.432061513508
 21
1074.107163576473
 31
0.0
  0
LINE
  5
26914
330
747D
100
AcDbEntity
  8
細線
 48
50.0
100
AcDbLine
 10
7596.163750675296
 20
1187.447084542253
 30
0.0
 11
7600.091907013492
 21
1202.107163576473
 31
0.0
  0
LINE
  5
26915
330
747D
100
AcDbEntity
  8
細線
 48
50.0
100
AcDbLine
 10
7672.549171342399
 20
1178.107163576473
 30
0.0
 11
7666.118390724053
 21
1202.107163576473
 31
0.0
  0
LINE
  5
26916
330
747D
100
AcDbEntity
  8
細線
 48
50.0
100
AcDbLine
 10
7830.325261236902
 20
1178.107163576473
 30
0.0
 11
7823.894480618554
 21
1202.107163576473
 31
0.0
  0
LINE
  5
26917
330
747D
100
AcDbEntity
  8
細線
 48
50.0
100
AcDbLine
 10
7751.437216289652
 20
1178.107163576473
 30
0.0
 11
7745.006435671304
 21
1202.107163576473
 31
0.0
  0
LWPOLYLINE
  5
26918
330
747D
100
AcDbEntity
  8
部品1
 48
50.0
100
AcDbPolyline
 90
        2
 70
     0
 43
8.0
 10
7390.023848842341
 20
1746.107163576474
 10
7804.163750675296
 20
1746.107163576474
  0
LINE
  5
26919
330
747D
100
AcDbEntity
  8
細線
 48
50.0
100
AcDbLine
 10
7676.163750675293
 20
1387.894677701848
 30
0.0
 11
7730.376236549921
 21
1442.107163576473
 31
0.0
  0
LINE
  5
2691A
330
747D
100
AcDbEntity
  8
部品1
 48
50.0
100
AcDbLine
 10
7676.163750675297
 20
1442.107163576473
 30
0.0
 11
7804.163750675296
 21
1442.107163576473
 31
0.0
  0
LINE
  5
2691B
330
747D
100
AcDbEntity
  8
細線
 48
50.0
100
AcDbLine
 10
7676.163750675293
 20
1414.835446065059
 30
0.0
 11
7703.435468186713
 21
1442.107163576473
 31
0.0
  0
LINE
  5
2691C
330
747D
100
AcDbEntity
  8
細線
 48
50.0
100
AcDbLine
 10
7921.428530361243
 20
1202.107163576473
 30
0.0
 11
8218.163750675296
 21
1498.842383890525
 31
0.0
  0
LINE
  5
2691D
330
747D
100
AcDbEntity
  8
細線
 48
50.0
100
AcDbLine
 10
7948.369298724447
 20
1202.107163576473
 30
0.0
 11
8218.163750675296
 21
1471.90161552733
 31
0.0
  0
LINE
  5
2691E
330
747D
100
AcDbEntity
  8
細線
 48
50.0
100
AcDbLine
 10
7894.487761998032
 20
1202.107163576473
 30
0.0
 11
8218.163750675296
 21
1525.783152253739
 31
0.0
  0
LINE
  5
2691F
330
747D
100
AcDbEntity
  8
細線
 48
50.0
100
AcDbLine
 10
8110.01390890369
 20
1202.107163576473
 30
0.0
 11
8346.163750675296
 21
1438.257005348081
 31
0.0
  0
LINE
  5
26920
330
747D
100
AcDbEntity
  8
細線
 48
50.0
100
AcDbLine
 10
8136.954677266903
 20
1202.107163576473
 30
0.0
 11
8346.163750675296
 21
1411.316236984866
 31
0.0
  0
LINE
  5
26921
330
747D
100
AcDbEntity
  8
部品1
 48
50.0
100
AcDbLine
 10
8346.163750675296
 20
1442.107163576473
 30
0.0
 11
8346.163750675296
 21
1202.107163576473
 31
0.0
  0
LINE
  5
26922
330
747D
100
AcDbEntity
  8
細線
 48
50.0
100
AcDbLine
 10
8163.895445630108
 20
1202.107163576473
 30
0.0
 11
8346.163750675296
 21
1384.375468621669
 31
0.0
  0
LINE
  5
26923
330
747D
100
AcDbEntity
  8
細線
 48
50.0
100
AcDbLine
 10
8039.122680065807
 20
1074.107163576471
 30
0.0
 11
8073.420176696989
 21
1202.107163576471
 31
0.0
  0
LINE
  5
26924
330
747D
100
AcDbEntity
  8
細線
 48
50.0
100
AcDbLine
 10
7881.346590171313
 20
1074.107163576473
 30
0.0
 11
7915.644086802496
 21
1202.107163576473
 31
0.0
  0
LINE
  5
26925
330
747D
100
AcDbEntity
  8
細線
 48
50.0
100
AcDbLine
 10
7960.234635118559
 20
1074.107163576473
 30
0.0
 11
7994.532131749744
 21
1202.107163576471
 31
0.0
  0
LINE
  5
26926
330
747D
100
AcDbEntity
  8
細線
 48
50.0
100
AcDbLine
 10
8118.010725013048
 20
1074.107163576473
 30
0.0
 11
8152.308221644235
 21
1202.107163576471
 31
0.0
  0
LINE
  5
26927
330
747D
100
AcDbEntity
  8
細線
 48
50.0
100
AcDbLine
 10
7966.665415736912
 20
1098.107163576473
 30
0.0
 11
7973.096196355259
 21
1074.107163576473
 31
0.0
  0
LINE
  5
26928
330
747D
100
AcDbEntity
  8
細線
 48
50.0
100
AcDbLine
 10
7887.777370789663
 20
1098.107163576473
 30
0.0
 11
7894.208151408012
 21
1074.107163576473
 31
0.0
  0
LINE
  5
26929
330
747D
100
AcDbEntity
  8
細線
 48
50.0
100
AcDbLine
 10
8124.441505631402
 20
1098.107163576473
 30
0.0
 11
8130.872286249749
 21
1074.107163576473
 31
0.0
  0
LINE
  5
2692A
330
747D
100
AcDbEntity
  8
細線
 48
50.0
100
AcDbLine
 10
8045.553460684159
 20
1098.107163576473
 30
0.0
 11
8051.984241302504
 21
1074.107163576473
 31
0.0
  0
LINE
  5
2692B
330
747D
100
AcDbEntity
  8
細線
 48
50.0
100
AcDbLine
 10
7988.101351131401
 20
1178.107163576473
 30
0.0
 11
7981.670570513052
 21
1202.107163576473
 31
0.0
  0
LINE
  5
2692C
330
747D
100
AcDbEntity
  8
細線
 48
50.0
100
AcDbLine
 10
7909.213306184153
 20
1178.107163576473
 30
0.0
 11
7902.782525565807
 21
1202.107163576473
 31
0.0
  0
LINE
  5
2692D
330
747D
100
AcDbEntity
  8
細線
 48
50.0
100
AcDbLine
 10
8066.989396078646
 20
1178.107163576473
 30
0.0
 11
8060.558615460299
 21
1202.107163576473
 31
0.0
  0
LINE
  5
2692E
330
747D
100
AcDbEntity
  8
細線
 48
50.0
100
AcDbLine
 10
8145.877441025893
 20
1178.107163576473
 30
0.0
 11
8139.446660407546
 21
1202.107163576473
 31
0.0
  0
LINE
  5
2692F
330
747D
100
AcDbEntity
  8
部品1
 48
50.0
100
AcDbLine
 10
8426.163750675298
 20
1202.107163576473
 30
0.0
 11
8426.163750675298
 21
1074.107163576473
 31
0.0
  0
LINE
  5
26930
330
747D
100
AcDbEntity
  8
細線
 48
50.0
100
AcDbLine
 10
8354.674859854794
 20
1074.107163576471
 30
0.0
 11
8388.972356485977
 21
1202.10716357647
 31
0.0
  0
LINE
  5
26931
330
747D
100
AcDbEntity
  8
細線
 48
50.0
100
AcDbLine
 10
8196.898769960299
 20
1074.107163576471
 30
0.0
 11
8231.196266591473
 21
1202.107163576473
 31
0.0
  0
LINE
  5
26932
330
747D
100
AcDbEntity
  8
細線
 48
50.0
100
AcDbLine
 10
8275.786814907547
 20
1074.10716357647
 30
0.0
 11
8310.084311538732
 21
1202.10716357647
 31
0.0
  0
LINE
  5
26933
330
747D
100
AcDbEntity
  8
細線
 48
50.0
100
AcDbLine
 10
8203.329550578649
 20
1098.107163576473
 30
0.0
 11
8209.760331197005
 21
1074.107163576473
 31
0.0
  0
LINE
  5
26934
330
747D
100
AcDbEntity
  8
細線
 48
50.0
100
AcDbLine
 10
8282.217595525898
 20
1098.107163576471
 30
0.0
 11
8288.648376144243
 21
1074.107163576471
 31
0.0
  0
LINE
  5
26935
330
747D
100
AcDbEntity
  8
細線
 48
50.0
100
AcDbLine
 10
8361.105640473143
 20
1098.107163576471
 30
0.0
 11
8367.536421091491
 21
1074.107163576471
 31
0.0
  0
LINE
  5
26936
330
747D
100
AcDbEntity
  8
細線
 48
50.0
100
AcDbLine
 10
8224.765485973129
 20
1178.107163576473
 30
0.0
 11
8218.334705354784
 21
1202.107163576473
 31
0.0
  0
LINE
  5
26937
330
747D
100
AcDbEntity
  8
細線
 48
50.0
100
AcDbLine
 10
8303.653530920387
 20
1178.107163576471
 30
0.0
 11
8297.22275030204
 21
1202.107163576471
 31
0.0
  0
LINE
  5
26938
330
747D
100
AcDbEntity
  8
細線
 48
50.0
100
AcDbLine
 10
8382.541575867632
 20
1178.107163576471
 30
0.0
 11
8376.110795249287
 21
1202.107163576471
 31
0.0
  0
LINE
  5
26939
330
747D
100
AcDbEntity
  8
部品1
100
AcDbLine
 10
8088.563750675296
 20
1662.107163576471
 30
0.0
 11
7962.563750675291
 21
1662.107163576471
 31
0.0
  0
LINE
  5
2693A
330
747D
100
AcDbEntity
  8
部品1
100
AcDbLine
 10
8070.563750675297
 20
1743.107163576473
 30
0.0
 11
8070.563750675297
 21
1761.107163576473
 31
0.0
  0
ARC
  5
2693B
330
747D
100
AcDbEntity
  8
部品1
100
AcDbCircle
 10
8034.563750675298
 20
1761.107163576473
 30
0.0
 40
18.0
100
AcDbArc
 50
180.0
 51
270.0
  0
LINE
  5
2693C
330
747D
100
AcDbEntity
  8
部品1
100
AcDbLine
 10
8034.563750675298
 20
1743.107163576473
 30
0.0
 11
8070.563750675297
 21
1743.107163576473
 31
0.0
  0
LINE
  5
2693D
330
747D
100
AcDbEntity
  8
部品1
100
AcDbLine
 10
8034.563750675298
 20
1761.107163576473
 30
0.0
 11
8070.563750675297
 21
1761.107163576473
 31
0.0
  0
LINE
  5
2693E
330
747D
100
AcDbEntity
  8
部品1
 48
50.0
100
AcDbLine
 10
8218.163750675296
 20
1442.107163576473
 30
0.0
 11
8346.163750675296
 21
1442.107163576473
 31
0.0
  0
LINE
  5
2693F
330
747D
100
AcDbEntity
  8
部品1
100
AcDbLine
 10
7823.963750675298
 20
2076.107163576473
 30
0.0
 11
7861.763750675298
 21
2076.107163576473
 31
0.0
  0
LINE
  5
26940
330
747D
100
AcDbEntity
  8
細線
 48
50.0
100
AcDbLine
 10
7804.163750675296
 20
1946.946971513171
 30
0.0
 11
7843.323942738604
 21
1986.107163576473
 31
0.0
  0
LINE
  5
26941
330
747D
100
AcDbEntity
  8
細線
 48
50.0
100
AcDbLine
 10
7804.163750675296
 20
1920.006203149963
 30
0.0
 11
7870.264711101808
 21
1986.107163576473
 31
0.0
  0
LINE
  5
26942
330
747D
100
AcDbEntity
  8
部品1
 48
50.0
100
AcDbLine
 10
7804.163750675296
 20
1986.107163576473
 30
0.0
 11
8218.1637506753
 21
1986.107163576473
 31
0.0
  0
LINE
  5
26943
330
747D
100
AcDbEntity
  8
部品1
100
AcDbLine
 10
7821.263750675299
 20
2065.307163576473
 30
0.0
 11
7821.263750675299
 21
2073.407163576473
 31
0.0
  0
ARC
  5
26944
330
747D
100
AcDbEntity
  8
部品1
100
AcDbCircle
 10
7823.963750675298
 20
2073.407163576473
 30
0.0
 40
2.7
100
AcDbArc
 50
90.0
 51
180.0
  0
ARC
  5
26945
330
747D
100
AcDbEntity
  8
部品1
100
AcDbCircle
 10
7813.163750675297
 20
2060.499067279181
 30
0.0
 40
2.7
100
AcDbArc
 50
104.0362434679067
 51
180.0
  0
LINE
  5
26946
330
747D
100
AcDbEntity
  8
部品1
100
AcDbLine
 10
7812.5089044877
 20
2063.118452029573
 30
0.0
 11
7821.263750675299
 21
2065.307163576473
 31
0.0
  0
ARC
  5
26947
330
747D
100
AcDbEntity
  8
部品1
100
AcDbCircle
 10
7813.163750675297
 20
1998.367163576473
 30
0.0
 40
2.7
100
AcDbArc
 50
180.0
 51
270.0
  0
LINE
  5
26948
330
747D
100
AcDbEntity
  8
細線
 48
50.0
100
AcDbLine
 10
7804.163750675296
 20
1973.887739876378
 30
0.0
 11
7816.383174375392
 21
1986.107163576473
 31
0.0
  0
LINE
  5
26949
330
747D
100
AcDbEntity
  8
部品1
100
AcDbLine
 10
7813.163750675297
 20
1995.667163576473
 30
0.0
 11
7824.863750675293
 21
1995.667163576473
 31
0.0
  0
LINE
  5
2694A
330
747D
100
AcDbEntity
  8
部品1
100
AcDbLine
 10
7810.463750675298
 20
1998.367163576473
 30
0.0
 11
7810.463750675298
 21
2060.499067279181
 31
0.0
  0
LINE
  5
2694B
330
747D
100
AcDbEntity
  8
部品1
100
AcDbLine
 10
7969.123750675291
 20
1995.667163576473
 30
0.0
 11
8170.463750675292
 21
1995.667163576473
 31
0.0
  0
LINE
  5
2694C
330
747D
100
AcDbEntity
  8
部品1
100
AcDbLine
 10
7861.763750675298
 20
2076.107163576473
 30
0.0
 11
7861.763750675298
 21
2084.207163576473
 31
0.0
  0
LINE
  5
2694D
330
747D
100
AcDbEntity
  8
部品1
100
AcDbLine
 10
7912.163750675297
 20
2095.00716357647
 30
0.0
 11
7912.163750675297
 21
2043.707163576474
 31
0.0
  0
LINE
  5
2694E
330
747D
100
AcDbEntity
  8
部品1
100
AcDbLine
 10
7935.563750675297
 20
2055.667163576473
 30
0.0
 11
7963.723750675296
 21
2055.667163576473
 31
0.0
  0
ARC
  5
2694F
330
747D
100
AcDbEntity
  8
部品1
100
AcDbCircle
 10
7935.563750675297
 20
2052.967163576473
 30
0.0
 40
2.7
100
AcDbArc
 50
90.0
 51
180.0
  0
ARC
  5
26950
330
747D
100
AcDbEntity
  8
部品1
100
AcDbCircle
 10
7963.723750675296
 20
2052.967163576473
 30
0.0
 40
2.7
100
AcDbArc
 50
0.0
 51
90.0
  0
LINE
  5
26951
330
747D
100
AcDbEntity
  8
部品1
100
AcDbLine
 10
7954.463750675299
 20
2041.007163576473
 30
0.0
 11
7954.463750675299
 21
1998.367163576473
 31
0.0
  0
LINE
  5
26952
330
747D
100
AcDbEntity
  8
部品1
100
AcDbLine
 10
7940.063750675297
 20
1995.667163576473
 30
0.0
 11
7951.763750675297
 21
1995.667163576473
 31
0.0
  0
ARC
  5
26953
330
747D
100
AcDbEntity
  8
部品1
100
AcDbCircle
 10
7969.123750675291
 20
1998.367163576473
 30
0.0
 40
2.7
100
AcDbArc
 50
180.0
 51
270.0
  0
ARC
  5
26954
330
747D
100
AcDbEntity
  8
部品1
100
AcDbCircle
 10
7951.763750675297
 20
1998.367163576473
 30
0.0
 40
2.7
100
AcDbArc
 50
270.0
 51
0.0
  0
LINE
  5
26955
330
747D
100
AcDbEntity
  8
部品1
100
AcDbLine
 10
7912.163750675297
 20
2043.707163576474
 30
0.0
 11
7951.763750675297
 21
2043.707163576474
 31
0.0
  0
ARC
  5
26956
330
747D
100
AcDbEntity
  8
部品1
100
AcDbCircle
 10
7951.763750675297
 20
2041.007163576473
 30
0.0
 40
2.7
100
AcDbArc
 50
0.0
 51
90.0
  0
LINE
  5
26957
330
747D
100
AcDbEntity
  8
部品1
100
AcDbLine
 10
7966.423750675298
 20
2052.967163576473
 30
0.0
 11
7966.423750675294
 21
1998.367163576473
 31
0.0
  0
LINE
  5
26958
330
747D
100
AcDbEntity
  8
部品1
100
AcDbLine
 10
7932.863750675297
 20
2052.967163576473
 30
0.0
 11
7932.863750675297
 21
2035.867163576473
 31
0.0
  0
LINE
  5
26959
330
747D
100
AcDbEntity
  8
細線
100
AcDbLine
 10
8030.963750675299
 20
1995.667163576473
 30
0.0
 11
8030.963750675299
 21
2038.867163576473
 31
0.0
  0
LINE
  5
2695A
330
747D
100
AcDbEntity
  8
細線
100
AcDbLine
 10
8020.163750675299
 20
1995.667163576473
 30
0.0
 11
8020.163750675296
 21
2038.867163576473
 31
0.0
  0
LINE
  5
2695B
330
747D
100
AcDbEntity
  8
部品1
100
AcDbLine
 10
8016.563750675297
 20
2035.267163576474
 30
0.0
 11
8034.563750675298
 21
2035.267163576474
 31
0.0
  0
LINE
  5
2695C
330
747D
100
AcDbEntity
  8
部品1
100
AcDbLine
 10
8020.163750675296
 20
2038.867163576473
 30
0.0
 11
8030.963750675299
 21
2038.867163576473
 31
0.0
  0
ELLIPSE
  5
2695D
330
747D
100
AcDbEntity
  8
部品1
 48
50.0
100
AcDbEllipse
 10
8025.563750675297
 20
2255.230452020745
 30
0.0
 11
40.0
 21
0.0
 31
0.0
210
0.0
220
0.0
230
1.0
 40
0.4
 41
0.0
 42
6.283185307179586
  0
ELLIPSE
  5
2695E
330
747D
100
AcDbEntity
  8
部品1
 48
50.0
100
AcDbEllipse
 10
8025.563750675297
 20
2245.630452020746
 30
0.0
 11
40.0
 21
0.0
 31
0.0
210
0.0
220
0.0
230
1.0
 40
0.4
 41
3.141592653589793
 42
6.283185307179586
  0
LINE
  5
2695F
330
747D
100
AcDbEntity
  8
部品1
 48
50.0
100
AcDbLine
 10
7985.563750675297
 20
2255.230452020745
 30
0.0
 11
7985.563750675297
 21
2245.630452020745
 31
0.0
  0
ARC
  5
26960
330
747D
100
AcDbEntity
  8
部品1
100
AcDbCircle
 10
7909.463750675297
 20
2095.00716357647
 30
0.0
 40
2.7
100
AcDbArc
 50
0.0
 51
90.0
  0
ARC
  5
26961
330
747D
100
AcDbEntity
  8
部品1
100
AcDbCircle
 10
7867.163750675297
 20
2095.007163576473
 30
0.0
 40
2.7
100
AcDbArc
 50
90.0
 51
180.0
  0
LINE
  5
26962
330
747D
100
AcDbEntity
  8
部品1
100
AcDbLine
 10
7864.463750675298
 20
2086.907163576473
 30
0.0
 11
7864.463750675298
 21
2086.907163576473
 31
0.0
  0
LINE
  5
26963
330
747D
100
AcDbEntity
  8
部品1
100
AcDbLine
 10
7864.463750675298
 20
2086.907163576473
 30
0.0
 11
7864.463750675298
 21
2095.007163576473
 31
0.0
  0
LINE
  5
26964
330
747D
100
AcDbEntity
  8
部品1
100
AcDbLine
 10
7867.163750675297
 20
2097.707163576473
 30
0.0
 11
7909.463750675297
 21
2097.70716357647
 31
0.0
  0
ARC
  5
26965
330
747D
100
AcDbEntity
  8
部品1
100
AcDbCircle
 10
7864.463750675298
 20
2084.207163576473
 30
0.0
 40
2.7
100
AcDbArc
 50
90.0
 51
180.0
  0
ELLIPSE
  5
26966
330
747D
100
AcDbEntity
  8
部品1
 48
50.0
100
AcDbEllipse
 10
8025.563750675297
 20
2255.230452020745
 30
0.0
 11
18.4
 21
0.0
 31
0.0
210
0.0
220
0.0
230
1.0
 40
0.3478260869565217
 41
0.0
 42
6.283185307179586
  0
LINE
  5
26967
330
747D
100
AcDbEntity
  8
部品1
 48
50.0
100
AcDbLine
 10
8065.563750675298
 20
2245.630452020745
 30
0.0
 11
8065.563750675298
 21
2255.230452020745
 31
0.0
  0
LINE
  5
26968
330
747D
100
AcDbEntity
  8
部品1
 48
50.0
100
AcDbLine
 10
7993.563750675297
 20
2376.982444685616
 30
0.0
 11
8009.563750675297
 21
2368.982444685616
 31
0.0
  0
LINE
  5
26969
330
747D
100
AcDbEntity
  8
部品1
 48
50.0
100
AcDbLine
 10
7993.563750675297
 20
2344.982444685616
 30
0.0
 11
8009.563750675297
 21
2336.982444685616
 31
0.0
  0
LINE
  5
2696A
330
747D
100
AcDbEntity
  8
部品1
 48
50.0
100
AcDbLine
 10
7993.563750675297
 20
2376.982444685616
 30
0.0
 11
8009.563750675297
 21
2384.982444685616
 31
0.0
  0
LINE
  5
2696B
330
747D
100
AcDbEntity
  8
部品1
 48
50.0
100
AcDbLine
 10
7993.563750675297
 20
2344.982444685616
 30
0.0
 11
7993.563750675297
 21
2376.982444685616
 31
0.0
  0
LINE
  5
2696C
330
747D
100
AcDbEntity
  8
部品1
 48
50.0
100
AcDbLine
 10
8009.563750675297
 20
2384.982444685616
 30
0.0
 11
8041.563750675297
 21
2384.982444685616
 31
0.0
  0
ELLIPSE
  5
2696D
330
747D
100
AcDbEntity
  8
細線
 48
50.0
100
AcDbEllipse
 10
8025.563750675297
 20
2376.982444685616
 30
0.0
 11
14.76670786606846
 21
0.0
 31
0.0
210
0.0
220
0.0
230
1.0
 40
0.2071254069489396
 41
0.0
 42
6.283185307179586
  0
LINE
  5
2696E
330
747D
100
AcDbEntity
  8
部品1
 48
50.0
100
AcDbLine
 10
8009.563750675297
 20
2336.982444685616
 30
0.0
 11
8041.563750675297
 21
2336.982444685616
 31
0.0
  0
LINE
  5
2696F
330
747D
100
AcDbEntity
  8
部品1
 48
50.0
100
AcDbLine
 10
8041.563750675297
 20
2336.982444685616
 30
0.0
 11
8057.563750675297
 21
2344.982444685616
 31
0.0
  0
LINE
  5
26970
330
747D
100
AcDbEntity
  8
部品1
 48
50.0
100
AcDbLine
 10
8009.563750675297
 20
2368.982444685616
 30
0.0
 11
8041.563750675297
 21
2368.982444685616
 31
0.0
  0
LINE
  5
26971
330
747D
100
AcDbEntity
  8
部品1
 48
50.0
100
AcDbLine
 10
8041.563750675297
 20
2368.982444685616
 30
0.0
 11
8057.563750675297
 21
2376.982444685616
 31
0.0
  0
LINE
  5
26972
330
747D
100
AcDbEntity
  8
細線
 48
50.0
100
AcDbLine
 10
8041.563750675297
 20
2336.982444685616
 30
0.0
 11
8041.563750675297
 21
2368.982444685616
 31
0.0
  0
LINE
  5
26973
330
747D
100
AcDbEntity
  8
部品1
 48
50.0
100
AcDbLine
 10
8057.563750675297
 20
2344.982444685616
 30
0.0
 11
8057.563750675297
 21
2376.982444685616
 31
0.0
  0
LINE
  5
26974
330
747D
100
AcDbEntity
  8
細線
 48
50.0
100
AcDbLine
 10
8009.563750675297
 20
2336.982444685616
 30
0.0
 11
8009.563750675297
 21
2368.982444685616
 31
0.0
  0
LINE
  5
26975
330
747D
100
AcDbEntity
  8
部品1
 48
50.0
100
AcDbLine
 10
8041.563750675297
 20
2384.982444685616
 30
0.0
 11
8057.563750675297
 21
2376.982444685616
 31
0.0
  0
TEXT
  5
26976
330
747D
100
AcDbEntity
  8
部品1
100
AcDbText
 10
7726.335999867228
 20
3205.893898825631
 30
0.0
 40
120.0
  1
基礎詳細
  7
STYLE2
100
AcDbText
  0
LINE
  5
26977
330
747D
100
AcDbEntity
  8
部品1
100
AcDbLine
 10
11104.44118407508
 20
421.1388611924112
 30
0.0
 11
11104.44118407509
 21
3385.445830777058
 31
0.0
  0
LINE
  5
26978
330
747D
100
AcDbEntity
  8
細線
100
AcDbLine
 10
10112.33301665484
 20
1746.107163576473
 30
0.0
 11
9917.699682978055
 21
1940.740497253256
 31
0.0
  0
LINE
  5
26979
330
747D
100
AcDbEntity
  8
部品1
100
AcDbLine
 10
9917.699682978055
 20
1986.107163576473
 30
0.0
 11
10397.69968297805
 21
1986.107163576473
 31
0.0
  0
LINE
  5
2697A
330
747D
100
AcDbEntity
  8
細線
 48
50.0
100
AcDbLine
 10
10051.77056742131
 20
1526.408247923123
 30
0.0
 11
10086.0680640525
 21
1654.408247923122
 31
0.0
  0
LINE
  5
2697B
330
747D
100
AcDbEntity
  8
部品1
100
AcDbLine
 10
9797.699682978056
 20
1526.408247923119
 30
0.0
 11
10517.69968297805
 21
1526.408247923123
 31
0.0
  0
LINE
  5
2697C
330
747D
100
AcDbEntity
  8
部品1
100
AcDbLine
 10
9797.699682978056
 20
1654.408247923123
 30
0.0
 11
10517.69968297805
 21
1654.408247923125
 31
0.0
  0
LINE
  5
2697D
330
747D
100
AcDbEntity
  8
細線
100
AcDbLine
 10
9978.618328471299
 20
1654.408247923123
 30
0.0
 11
10070.31724412464
 21
1746.107163576473
 31
0.0
  0
LWPOLYLINE
  5
2697E
330
747D
100
AcDbEntity
  8
部品1
 48
50.0
100
AcDbPolyline
 90
        2
 70
     0
 43
12.0
 10
9533.088420877666
 20
1746.107163576473
 10
10734.18072400929
 20
1746.107163576473
  0
LINE
  5
2697F
330
747D
100
AcDbEntity
  8
細線
100
AcDbLine
 10
10061.42132840941
 20
1746.107163576473
 30
0.0
 11
9917.699682978055
 21
1889.828809007826
 31
0.0
  0
TEXT
  5
26980
330
747D
100
AcDbEntity
  8
部品1
 48
50.0
100
AcDbText
 10
9153.581596219552
 20
1479.307422939164
 30
0.0
 40
80.0
  1
ボルトの出
 50
90.0
  7
STYLE2
100
AcDbText
  0
LINE
  5
26981
330
747D
100
AcDbEntity
  8
部品1
100
AcDbLine
 10
9917.699682978055
 20
1746.107163576473
 30
0.0
 11
9917.699682978055
 21
1986.107163576473
 31
0.0
  0
LINE
  5
26982
330
747D
100
AcDbEntity
  8
細線
 48
50.0
100
AcDbLine
 10
9893.994477526817
 20
1526.408247923122
 30
0.0
 11
9928.291974157998
 21
1654.408247923122
 31
0.0
  0
LINE
  5
26983
330
747D
100
AcDbEntity
  8
細線
 48
50.0
100
AcDbLine
 10
9972.882522474066
 20
1526.408247923123
 30
0.0
 11
10007.18001910525
 21
1654.408247923123
 31
0.0
  0
LINE
  5
26984
330
747D
100
AcDbEntity
  8
細線
 48
50.0
100
AcDbLine
 10
9815.106432579568
 20
1526.408247923123
 30
0.0
 11
9849.403929210751
 21
1654.408247923123
 31
0.0
  0
LINE
  5
26985
330
747D
100
AcDbEntity
  8
部品1
100
AcDbLine
 10
9797.699682978056
 20
1526.408247923119
 30
0.0
 11
9797.699682978056
 21
1746.107163576473
 31
0.0
  0
LINE
  5
26986
330
747D
100
AcDbEntity
  8
細線
 48
50.0
100
AcDbLine
 10
9900.425258145165
 20
1550.408247923123
 30
0.0
 11
9906.856038763516
 21
1526.408247923123
 31
0.0
  0
LINE
  5
26987
330
747D
100
AcDbEntity
  8
細線
 48
50.0
100
AcDbLine
 10
9821.537213197917
 20
1550.408247923123
 30
0.0
 11
9827.967993816264
 21
1526.408247923123
 31
0.0
  0
LINE
  5
26988
330
747D
100
AcDbEntity
  8
細線
 48
50.0
100
AcDbLine
 10
9979.313303092418
 20
1550.408247923123
 30
0.0
 11
9985.744083710764
 21
1526.408247923123
 31
0.0
  0
LINE
  5
26989
330
747D
100
AcDbEntity
  8
細線
 48
50.0
100
AcDbLine
 10
10058.20134803966
 20
1550.408247923123
 30
0.0
 11
10064.63212865801
 21
1526.408247923123
 31
0.0
  0
LINE
  5
2698A
330
747D
100
AcDbEntity
  8
細線
 48
50.0
100
AcDbLine
 10
9842.973148592406
 20
1630.408247923123
 30
0.0
 11
9836.542367974056
 21
1654.408247923123
 31
0.0
  0
LINE
  5
2698B
330
747D
100
AcDbEntity
  8
細線
 48
50.0
100
AcDbLine
 10
10000.74923848691
 20
1630.408247923123
 30
0.0
 11
9994.318457868562
 21
1654.408247923123
 31
0.0
  0
LINE
  5
2698C
330
747D
100
AcDbEntity
  8
細線
 48
50.0
100
AcDbLine
 10
9921.861193539655
 20
1630.408247923123
 30
0.0
 11
9915.43041292131
 21
1654.408247923123
 31
0.0
  0
LINE
  5
2698D
330
747D
100
AcDbEntity
  8
細線
100
AcDbLine
 10
9910.736077477384
 20
1654.408247923123
 30
0.0
 11
10002.43499313073
 21
1746.107163576473
 31
0.0
  0
LINE
  5
2698E
330
747D
100
AcDbEntity
  8
細線
100
AcDbLine
 10
9944.677202974341
 20
1654.408247923123
 30
0.0
 11
10036.37611862768
 21
1746.107163576473
 31
0.0
  0
LINE
  5
2698F
330
747D
100
AcDbEntity
  8
細線
100
AcDbLine
 10
10332.95033238504
 20
1746.107163576473
 30
0.0
 11
10092.95033238504
 21
1986.107163576473
 31
0.0
  0
LINE
  5
26990
330
747D
100
AcDbEntity
  8
細線
100
AcDbLine
 10
10383.86202063047
 20
1746.107163576474
 30
0.0
 11
10143.86202063047
 21
1986.107163576473
 31
0.0
  0
LINE
  5
26991
330
747D
100
AcDbEntity
  8
部品1
100
AcDbLine
 10
10397.69968297805
 20
1986.107163576473
 30
0.0
 11
10397.69968297805
 21
1746.107163576473
 31
0.0
  0
LINE
  5
26992
330
747D
100
AcDbEntity
  8
細線
 48
50.0
100
AcDbLine
 10
10367.3227472103
 20
1526.40824792312
 30
0.0
 11
10401.62024384148
 21
1654.40824792312
 31
0.0
  0
LINE
  5
26993
330
747D
100
AcDbEntity
  8
細線
100
AcDbLine
 10
10338.6183284713
 20
1654.408247923124
 30
0.0
 11
10430.31724412464
 21
1746.107163576473
 31
0.0
  0
LINE
  5
26994
330
747D
100
AcDbEntity
  8
細線
 48
50.0
100
AcDbLine
 10
10288.43470226305
 20
1526.408247923122
 30
0.0
 11
10322.73219889423
 21
1654.408247923123
 31
0.0
  0
LINE
  5
26995
330
747D
100
AcDbEntity
  8
細線
 48
50.0
100
AcDbLine
 10
10130.65861236856
 20
1526.408247923122
 30
0.0
 11
10164.95610899974
 21
1654.408247923122
 31
0.0
  0
LINE
  5
26996
330
747D
100
AcDbEntity
  8
細線
 48
50.0
100
AcDbLine
 10
10209.5466573158
 20
1526.408247923123
 30
0.0
 11
10243.84415394699
 21
1654.408247923122
 31
0.0
  0
LINE
  5
26997
330
747D
100
AcDbEntity
  8
細線
 48
50.0
100
AcDbLine
 10
10215.97743793416
 20
1550.408247923123
 30
0.0
 11
10222.4082185525
 21
1526.408247923123
 31
0.0
  0
LINE
  5
26998
330
747D
100
AcDbEntity
  8
細線
 48
50.0
100
AcDbLine
 10
10137.08939298691
 20
1550.408247923123
 30
0.0
 11
10143.52017360526
 21
1526.408247923123
 31
0.0
  0
LINE
  5
26999
330
747D
100
AcDbEntity
  8
細線
 48
50.0
100
AcDbLine
 10
10294.8654828814
 20
1550.408247923123
 30
0.0
 11
10301.29626349976
 21
1526.408247923123
 31
0.0
  0
LINE
  5
2699A
330
747D
100
AcDbEntity
  8
細線
 48
50.0
100
AcDbLine
 10
10373.75352782865
 20
1550.408247923122
 30
0.0
 11
10380.184308447
 21
1526.408247923122
 31
0.0
  0
LINE
  5
2699B
330
747D
100
AcDbEntity
  8
細線
 48
50.0
100
AcDbLine
 10
10237.41337332864
 20
1630.408247923123
 30
0.0
 11
10230.9825927103
 21
1654.408247923123
 31
0.0
  0
LINE
  5
2699C
330
747D
100
AcDbEntity
  8
細線
 48
50.0
100
AcDbLine
 10
10158.5253283814
 20
1630.408247923123
 30
0.0
 11
10152.09454776305
 21
1654.408247923123
 31
0.0
  0
LINE
  5
2699D
330
747D
100
AcDbEntity
  8
細線
 48
50.0
100
AcDbLine
 10
10079.63728343415
 20
1630.408247923123
 30
0.0
 11
10073.20650281581
 21
1654.408247923123
 31
0.0
  0
LINE
  5
2699E
330
747D
100
AcDbEntity
  8
細線
100
AcDbLine
 10
10304.67720297434
 20
1654.408247923124
 30
0.0
 11
10396.37611862768
 21
1746.107163576473
 31
0.0
  0
LINE
  5
2699F
330
747D
100
AcDbEntity
  8
細線
 48
50.0
100
AcDbLine
 10
10316.30141827588
 20
1630.408247923123
 30
0.0
 11
10309.87063765754
 21
1654.408247923123
 31
0.0
  0
LINE
  5
269A0
330
747D
100
AcDbEntity
  8
細線
100
AcDbLine
 10
10270.73607747739
 20
1654.408247923124
 30
0.0
 11
10362.43499313073
 21
1746.107163576473
 31
0.0
  0
LINE
  5
269A1
330
747D
100
AcDbEntity
  8
細線
 48
50.0
100
AcDbLine
 10
10395.18946322314
 20
1630.408247923122
 30
0.0
 11
10388.75868260479
 21
1654.408247923122
 31
0.0
  0
LINE
  5
269A2
330
747D
100
AcDbEntity
  8
細線
 48
50.0
100
AcDbLine
 10
10446.21079215755
 20
1526.408247923122
 30
0.0
 11
10480.50828878873
 21
1654.40824792312
 31
0.0
  0
LINE
  5
269A3
330
747D
100
AcDbEntity
  8
部品1
100
AcDbLine
 10
10517.69968297805
 20
1746.107163576473
 30
0.0
 11
10517.69968297806
 21
1526.408247923123
 31
0.0
  0
LINE
  5
269A4
330
747D
100
AcDbEntity
  8
細線
 48
50.0
100
AcDbLine
 10
10452.6415727759
 20
1550.408247923122
 30
0.0
 11
10459.07235339424
 21
1526.408247923122
 31
0.0
  0
LINE
  5
269A5
330
747D
100
AcDbEntity
  8
細線
 48
50.0
100
AcDbLine
 10
10474.07750817038
 20
1630.408247923122
 30
0.0
 11
10467.64672755204
 21
1654.408247923122
 31
0.0
  0
LEADER
  5
269A6
330
747D
100
AcDbEntity
  8
寸法
 48
50.0
100
AcDbLeader
  3
INABA_S50G
 73
     0
 74
     0
 75
     1
 40
120.0
 41
185.591883092037
 76
     3
 10
10328.42409459398
 20
1986.107163576473
 30
0.0
 10
10361.56230122762
 20
2158.253484257611
 30
0.0
 10
10486.56230122762
 20
2158.253484257611
 30
0.0
340
269A7
1001
ACAD
1000
DSTYLE
1002
{
1070
    40
1040
1.0
1002
}
  0
MTEXT
  5
269A7
102
{ACAD_REACTORS
330
269A6
102
}
330
747D
100
AcDbEntity
  8
寸法
 62
     7
 48
50.0
100
AcDbMText
 10
10511.56230122762
 20
2243.253484257611
 30
0.0
 40
120.0
 41
0.8
 71
     4
 72
     1
  1
\A1;C.B
  7
STYLE1
 73
     1
 44
1.0
1001
ACAD
1000
MTEXTBEGIN
1070
    73
1070
     1
1070
    44
1040
1.0
1070
    74
1070
     0
1000
MTEXTEND
  0
TEXT
  5
26A38
330
747D
100
AcDbEntity
  8
文字
 62
     7
 48
50.0
100
AcDbText
 10
16307.78595799787
 20
0.1862994167713623
 30
0.0
 40
1.0
  1
at
  7
STYLE2
100
AcDbText
  0
ENDSEC
  0
SECTION
  2
OBJECTS
  0
DICTIONARY
  5
7471
330
0
100
AcDbDictionary
281
     1
  3
ACAD_COLOR
350
173D2
  3
ACAD_GROUP
350
7472
  3
ACAD_LAYOUT
350
173D3
  3
ACAD_MATERIAL
350
173D1
  3
ACAD_MLINESTYLE
350
7473
  3
ACAD_PLOTSETTINGS
350
173D4
  3
ACAD_PLOTSTYLENAME
350
173CF
  3
ACDBHEADERROUNDTRIPXREC
350
26A4D
  3
AcDbVariableDictionary
350
265B9
  3
CONTENTDICTIONARY
350
E71C
  3
DRAWINGVARIABLESDICT
350
F3B9
  0
DICTIONARY
  5
1758F
330
7467
100
AcDbDictionary
280
     1
281
     1
  3
ACAD_LAYERSTATES
360
17590
  0
DICTIONARY
  5
173D2
102
{ACAD_REACTORS
330
7471
102
}
330
7471
100
AcDbDictionary
281
     1
  0
DICTIONARY
  5
7472
102
{ACAD_REACTORS
330
7471
102
}
330
7471
100
AcDbDictionary
281
     1
  3
*A1
350
1D2A9
  0
DICTIONARY
  5
173D3
102
{ACAD_REACTORS
330
7471
102
}
330
7471
100
AcDbDictionary
281
     1
  3
Model
350
173D5
  3
レイアウト1
350
173D6
  0
DICTIONARY
  5
173D1
102
{ACAD_REACTORS
330
7471
102
}
330
7471
100
AcDbDictionary
281
     1
  0
DICTIONARY
  5
7473
102
{ACAD_REACTORS
330
7471
102
}
330
7471
100
AcDbDictionary
281
     1
  3
STANDARD
350
7480
  0
DICTIONARY
  5
173D4
102
{ACAD_REACTORS
330
7471
102
}
330
7471
100
AcDbDictionary
281
     1
  0
ACDBDICTIONARYWDFLT
  5
173CF
102
{ACAD_REACTORS
330
7471
102
}
330
7471
100
AcDbDictionary
281
     1
  3
Normal
350
173D0
100
AcDbDictionaryWithDefault
340
173D0
  0
DICTIONARY
  5
26A4D
102
{ACAD_REACTORS
330
7471
102
}
330
7471
100
AcDbDictionary
281
     1
  3
COLORDICT
350
26A4F
  3
MATERIALDICT
350
26A4E
  0
DICTIONARY
  5
265B9
102
{ACAD_REACTORS
330
7471
102
}
330
7471
100
AcDbDictionary
281
     1
  3
DIMASSOC
350
265BA
  3
PROJECTNAME
350
265BB
  0
DICTIONARY
  5
E71C
102
{ACAD_REACTORS
330
7471
102
}
330
7471
100
AcDbDictionary
281
     1
  0
DICTIONARY
  5
F3B9
102
{ACAD_REACTORS
330
7471
102
}
330
7471
100
AcDbDictionary
281
     1
1001
DRAWINGVARIABLESXDATA
1000
POLARMODE
1000
1
  0
DICTIONARY
  5
17590
102
{ACAD_REACTORS
330
1758F
102
}
330
1758F
100
AcDbDictionary
281
     1
  0
GROUP
  5
1D2A9
102
{ACAD_REACTORS
330
7472
102
}
330
7472
100
AcDbGroup
300

 70
     1
 71
     1
  0
LAYOUT
  5
173D5
102
{ACAD_XDICTIONARY
360
26A50
102
}
102
{ACAD_REACTORS
330
173D3
102
}
330
173D3
100
AcDbPlotSettings
  1

  2
Microsoft Office Document Image Writer
  4

  6

 40
0.0
 41
0.0
 42
0.0
 43
0.0
 44
0.0
 45
0.0
 46
0.0
 47
0.0
 48
0.0
 49
0.0
140
0.0
141
0.0
142
1.0
143
1.0
 70
  1712
 72
     0
 73
     0
 74
     0
  7

 75
     0
147
1.0
148
0.0
149
0.0
100
AcDbLayout
  1
Model
 70
     1
 71
     0
 10
0.0
 20
0.0
 11
12.0
 21
9.0
 12
0.0
 22
0.0
 32
0.0
 14
0.0
 24
0.0
 34
0.0
 15
0.0
 25
0.0
 35
0.0
146
0.0
 13
0.0
 23
0.0
 33
0.0
 16
1.0
 26
0.0
 36
0.0
 17
0.0
 27
1.0
 37
0.0
 76
     0
330
747D
  0
LAYOUT
  5
173D6
102
{ACAD_XDICTIONARY
360
26A52
102
}
102
{ACAD_REACTORS
330
173D3
102
}
330
173D3
100
AcDbPlotSettings
  1

  2
Microsoft Office Document Image Writer
  4

  6

 40
0.0
 41
0.0
 42
0.0
 43
0.0
 44
0.0
 45
0.0
 46
0.0
 47
0.0
 48
0.0
 49
0.0
140
0.0
141
0.0
142
1.0
143
1.0
 70
   688
 72
     0
 73
     0
 74
     5
  7

 75
    16
147
1.0
148
0.0
149
0.0
100
AcDbLayout
  1
レイアウト1
 70
     0
 71
     1
 10
0.0
 20
0.0
 11
420.0
 21
297.0
 12
0.0
 22
0.0
 32
0.0
 14
1.000000000000000E+20
 24
1.000000000000000E+20
 34
1.000000000000000E+20
 15
-1.000000000000000E+20
 25
-1.000000000000000E+20
 35
-1.000000000000000E+20
146
0.0
 13
0.0
 23
0.0
 33
0.0
 16
1.0
 26
0.0
 36
0.0
 17
0.0
 27
1.0
 37
0.0
 76
     0
330
747A
  0
MLINESTYLE
  5
7480
102
{ACAD_REACTORS
330
7473
102
}
330
7473
100
AcDbMlineStyle
  2
STANDARD
 70
     0
  3

 62
     0
 51
90.0
 52
90.0
 71
     2
 49
0.5
 62
   256
  6
BYLAYER
 49
-0.5
 62
   256
  6
BYLAYER
  0
ACDBPLACEHOLDER
  5
173D0
102
{ACAD_REACTORS
330
173CF
102
}
330
173CF
  0
XRECORD
  5
26A4F
102
{ACAD_REACTORS
330
26A4D
102
}
330
26A4D
100
AcDbXrecord
280
     1
340
173D2
  0
XRECORD
  5
26A4E
102
{ACAD_REACTORS
330
26A4D
102
}
330
26A4D
100
AcDbXrecord
280
     1
340
173D1
  0
DICTIONARYVAR
  5
265BA
102
{ACAD_REACTORS
330
265B9
102
}
330
265B9
100
DictionaryVariables
280
     0
  1
1
  0
DICTIONARYVAR
  5
265BB
102
{ACAD_REACTORS
330
265B9
102
}
330
265B9
100
DictionaryVariables
280
     0
  1

  0
DICTIONARY
  5
26A50
330
173D5
100
AcDbDictionary
280
     1
281
     1
  3
ACAD_XREC_ROUNDTRIP
360
26A51
  0
DICTIONARY
  5
26A52
330
173D6
100
AcDbDictionary
280
     1
281
     1
  3
ACAD_XREC_ROUNDTRIP
360
26A53
  0
XRECORD
  5
26A51
102
{ACAD_REACTORS
330
26A50
102
}
330
26A50
100
AcDbXrecord
280
     1
102
SHADEPLOT
 70
     0
102
SHADEPLOTRESLEVEL
 70
     2
102
SHADEPLOTCUSTOMDPI
 70
   300
  0
XRECORD
  5
26A53
102
{ACAD_REACTORS
330
26A52
102
}
330
26A52
100
AcDbXrecord
280
     1
102
SHADEPLOT
 70
     0
102
SHADEPLOTRESLEVEL
 70
     2
102
SHADEPLOTCUSTOMDPI
 70
   300
  0
ENDSEC
  0
EOF
