  0
SECTION
  2
HEADER
  9
$ACADVER
  1
AC1015
  9
$ACADMAINTVER
 70
    20
  9
$DWGCODEPAGE
  3
ANSI_932
  9
$INSBASE
 10
0.0
 20
0.0
 30
0.0
  9
$EXTMIN
 10
139.9999999999995
 20
-0.0182460377741832
 30
0.0
  9
$EXTMAX
 10
16308.99050345242
 20
11409.6
 30
0.0
  9
$LIMMIN
 10
0.0
 20
0.0
  9
$LIMMAX
 10
16800.0
 20
11880.0
  9
$ORTHOMODE
 70
     0
  9
$REGENMODE
 70
     1
  9
$FILLMODE
 70
     1
  9
$QTEXTMODE
 70
     0
  9
$MIRRTEXT
 70
     1
  9
$LTSCALE
 40
20.0
  9
$ATTMODE
 70
     1
  9
$TEXTSIZE
 40
4.0
  9
$TRACEWID
 40
1.0
  9
$TEXTSTYLE
  7
STYLE1
  9
$CLAYER
  8
細線
  9
$CELTYPE
  6
BYLAYER
  9
$CECOLOR
 62
   256
  9
$CELTSCALE
 40
50.0
  9
$DISPSILH
 70
     0
  9
$DIMSCALE
 40
40.0
  9
$DIMASZ
 40
2.5
  9
$DIMEXO
 40
0.5
  9
$DIMDLI
 40
7.0
  9
$DIMRND
 40
0.0
  9
$DIMDLE
 40
0.0
  9
$DIMEXE
 40
1.5
  9
$DIMTP
 40
0.0
  9
$DIMTM
 40
0.0
  9
$DIMTXT
 40
3.0
  9
$DIMCEN
 40
0.0
  9
$DIMTSZ
 40
0.0
  9
$DIMTOL
 70
     0
  9
$DIMLIM
 70
     0
  9
$DIMTIH
 70
     0
  9
$DIMTOH
 70
     0
  9
$DIMSE1
 70
     0
  9
$DIMSE2
 70
     0
  9
$DIMTAD
 70
     3
  9
$DIMZIN
 70
     8
  9
$DIMBLK
  1

  9
$DIMASO
 70
     1
  9
$DIMSHO
 70
     1
  9
$DIMPOST
  1

  9
$DIMAPOST
  1

  9
$DIMALT
 70
     0
  9
$DIMALTD
 70
     2
  9
$DIMALTF
 40
0.0394
  9
$DIMLFAC
 40
1.0
  9
$DIMTOFL
 70
     1
  9
$DIMTVP
 40
0.0
  9
$DIMTIX
 70
     1
  9
$DIMSOXD
 70
     0
  9
$DIMSAH
 70
     1
  9
$DIMBLK1
  1
DOTSMALL
  9
$DIMBLK2
  1
DOTSMALL
  9
$DIMSTYLE
  2
INABA_S40G
  9
$DIMCLRD
 70
     0
  9
$DIMCLRE
 70
     0
  9
$DIMCLRT
 70
     7
  9
$DIMTFAC
 40
1.0
  9
$DIMGAP
 40
1.0
  9
$DIMJUST
 70
     0
  9
$DIMSD1
 70
     0
  9
$DIMSD2
 70
     0
  9
$DIMTOLJ
 70
     1
  9
$DIMTZIN
 70
     0
  9
$DIMALTZ
 70
     0
  9
$DIMALTTZ
 70
     0
  9
$DIMUPT
 70
     0
  9
$DIMDEC
 70
     1
  9
$DIMTDEC
 70
     4
  9
$DIMALTU
 70
     2
  9
$DIMALTTD
 70
     2
  9
$DIMTXSTY
  7
STYLE1
  9
$DIMAUNIT
 70
     0
  9
$DIMADEC
 70
     0
  9
$DIMALTRND
 40
0.0
  9
$DIMAZIN
 70
     0
  9
$DIMDSEP
 70
    46
  9
$DIMATFIT
 70
     3
  9
$DIMFRAC
 70
     0
  9
$DIMLDRBLK
  1

  9
$DIMLUNIT
 70
     2
  9
$DIMLWD
 70
    -2
  9
$DIMLWE
 70
    -2
  9
$DIMTMOVE
 70
     0
  9
$LUNITS
 70
     2
  9
$LUPREC
 70
     1
  9
$SKETCHINC
 40
1.0
  9
$FILLETRAD
 40
3.0
  9
$AUNITS
 70
     0
  9
$AUPREC
 70
     0
  9
$MENU
  1
acad
  9
$ELEVATION
 40
0.0
  9
$PELEVATION
 40
0.0
  9
$THICKNESS
 40
0.0
  9
$LIMCHECK
 70
     0
  9
$CHAMFERA
 40
0.0
  9
$CHAMFERB
 40
0.0
  9
$CHAMFERC
 40
0.0
  9
$CHAMFERD
 40
0.0
  9
$SKPOLY
 70
     0
  9
$TDCREATE
 40
2451368.612993866
  9
$TDUCREATE
 40
2451368.237993866
  9
$TDUPDATE
 40
2455827.391240914
  9
$TDUUPDATE
 40
2455827.016240915
  9
$TDINDWG
 40
0.7887426273
  9
$TDUSRTIMER
 40
0.7887426273
  9
$USRTIMER
 70
     1
  9
$ANGBASE
 50
0.0
  9
$ANGDIR
 70
     0
  9
$PDMODE
 70
     3
  9
$PDSIZE
 40
2.0
  9
$PLINEWID
 40
0.0
  9
$SPLFRAME
 70
     0
  9
$SPLINETYPE
 70
     6
  9
$SPLINESEGS
 70
     8
  9
$HANDSEED
  5
261E6
  9
$SURFTAB1
 70
     6
  9
$SURFTAB2
 70
     6
  9
$SURFTYPE
 70
     6
  9
$SURFU
 70
     6
  9
$SURFV
 70
     6
  9
$UCSBASE
  2

  9
$UCSNAME
  2

  9
$UCSORG
 10
0.0
 20
0.0
 30
0.0
  9
$UCSXDIR
 10
1.0
 20
0.0
 30
0.0
  9
$UCSYDIR
 10
0.0
 20
1.0
 30
0.0
  9
$UCSORTHOREF
  2

  9
$UCSORTHOVIEW
 70
     0
  9
$UCSORGTOP
 10
0.0
 20
0.0
 30
0.0
  9
$UCSORGBOTTOM
 10
0.0
 20
0.0
 30
0.0
  9
$UCSORGLEFT
 10
0.0
 20
0.0
 30
0.0
  9
$UCSORGRIGHT
 10
0.0
 20
0.0
 30
0.0
  9
$UCSORGFRONT
 10
0.0
 20
0.0
 30
0.0
  9
$UCSORGBACK
 10
0.0
 20
0.0
 30
0.0
  9
$PUCSBASE
  2

  9
$PUCSNAME
  2

  9
$PUCSORG
 10
0.0
 20
0.0
 30
0.0
  9
$PUCSXDIR
 10
1.0
 20
0.0
 30
0.0
  9
$PUCSYDIR
 10
0.0
 20
1.0
 30
0.0
  9
$PUCSORTHOREF
  2

  9
$PUCSORTHOVIEW
 70
     0
  9
$PUCSORGTOP
 10
0.0
 20
0.0
 30
0.0
  9
$PUCSORGBOTTOM
 10
0.0
 20
0.0
 30
0.0
  9
$PUCSORGLEFT
 10
0.0
 20
0.0
 30
0.0
  9
$PUCSORGRIGHT
 10
0.0
 20
0.0
 30
0.0
  9
$PUCSORGFRONT
 10
0.0
 20
0.0
 30
0.0
  9
$PUCSORGBACK
 10
0.0
 20
0.0
 30
0.0
  9
$USERI1
 70
     0
  9
$USERI2
 70
     0
  9
$USERI3
 70
     0
  9
$USERI4
 70
     0
  9
$USERI5
 70
     0
  9
$USERR1
 40
0.0
  9
$USERR2
 40
0.0
  9
$USERR3
 40
0.0
  9
$USERR4
 40
0.0
  9
$USERR5
 40
0.0
  9
$WORLDVIEW
 70
     1
  9
$SHADEDGE
 70
     3
  9
$SHADEDIF
 70
    70
  9
$TILEMODE
 70
     1
  9
$MAXACTVP
 70
    16
  9
$PINSBASE
 10
0.0
 20
0.0
 30
0.0
  9
$PLIMCHECK
 70
     0
  9
$PEXTMIN
 10
1.000000000000000E+20
 20
1.000000000000000E+20
 30
1.000000000000000E+20
  9
$PEXTMAX
 10
-1.000000000000000E+20
 20
-1.000000000000000E+20
 30
-1.000000000000000E+20
  9
$PLIMMIN
 10
0.0
 20
0.0
  9
$PLIMMAX
 10
420.0
 20
297.0
  9
$UNITMODE
 70
     0
  9
$VISRETAIN
 70
     0
  9
$PLINEGEN
 70
     0
  9
$PSLTSCALE
 70
     0
  9
$TREEDEPTH
 70
  3020
  9
$CMLSTYLE
  2
STANDARD
  9
$CMLJUST
 70
     0
  9
$CMLSCALE
 40
1.0
  9
$PROXYGRAPHICS
 70
     1
  9
$MEASUREMENT
 70
     1
  9
$CELWEIGHT
370
    -1
  9
$ENDCAPS
280
     0
  9
$JOINSTYLE
280
     0
  9
$LWDISPLAY
290
     0
  9
$INSUNITS
 70
     0
  9
$HYPERLINKBASE
  1

  9
$STYLESHEET
  1

  9
$XEDIT
290
     1
  9
$CEPSNTYPE
380
     0
  9
$PSTYLEMODE
290
     1
  9
$FINGERPRINTGUID
  2
{5EAC461A-2277-4BF8-9AB0-99C43BB394F0}
  9
$VERSIONGUID
  2
{2A0C2912-702D-4481-9DF1-077B6A2F0F22}
  9
$EXTNAMES
290
     1
  9
$PSVPSCALE
 40
0.0
  9
$OLESTARTUP
290
     0
  0
ENDSEC
  0
SECTION
  2
CLASSES
  0
CLASS
  1
ACDBDICTIONARYWDFLT
  2
AcDbDictionaryWithDefault
  3
ObjectDBX Classes
 90
        0
280
     0
281
     0
  0
CLASS
  1
DICTIONARYVAR
  2
AcDbDictionaryVar
  3
ObjectDBX Classes
 90
        0
280
     0
281
     0
  0
CLASS
  1
ACDBPLACEHOLDER
  2
AcDbPlaceHolder
  3
ObjectDBX Classes
 90
        0
280
     0
281
     0
  0
CLASS
  1
LAYOUT
  2
AcDbLayout
  3
ObjectDBX Classes
 90
        0
280
     0
281
     0
  0
ENDSEC
  0
SECTION
  2
TABLES
  0
TABLE
  2
VPORT
  5
746D
330
0
100
AcDbSymbolTable
 70
     2
  0
VPORT
  5
261DE
330
746D
100
AcDbSymbolTableRecord
100
AcDbViewportTableRecord
  2
*Active
 70
     0
 10
0.0
 20
0.0
 11
1.0
 21
1.0
 12
8224.401894379873
 22
5855.776308371822
 13
0.0
 23
0.0
 14
10.0
 24
10.0
 15
10.0
 25
10.0
 16
0.0
 26
0.0
 36
1.0
 17
0.0
 27
0.0
 37
0.0
 40
11800.47982950347
 41
1.522222222222221
 42
50.0
 43
0.0
 44
0.0
 50
0.0
 51
0.0
 71
     0
 72
     0
 73
     1
 74
     0
 75
     0
 76
     0
 77
     0
 78
     0
281
     0
 65
     1
110
0.0
120
0.0
130
0.0
111
1.0
121
0.0
131
0.0
112
0.0
122
1.0
132
0.0
 79
     0
146
0.0
  0
ENDTAB
  0
TABLE
  2
LTYPE
  5
746A
330
0
100
AcDbSymbolTable
 70
     5
  0
LTYPE
  5
7477
330
746A
100
AcDbSymbolTableRecord
100
AcDbLinetypeTableRecord
  2
BYBLOCK
 70
     0
  3

 72
    65
 73
     0
 40
0.0
  0
LTYPE
  5
7478
330
746A
100
AcDbSymbolTableRecord
100
AcDbLinetypeTableRecord
  2
BYLAYER
 70
     0
  3

 72
    65
 73
     0
 40
0.0
  0
LTYPE
  5
7479
330
746A
100
AcDbSymbolTableRecord
100
AcDbLinetypeTableRecord
  2
CONTINUOUS
 70
     0
  3
Solid line
 72
    65
 73
     0
 40
0.0
  0
LTYPE
  5
7816
330
746A
100
AcDbSymbolTableRecord
100
AcDbLinetypeTableRecord
  2
CENTER
 70
     0
  3
____ _ ____ _ ____ _ ____ _ ____ _ ____ _ ____ 
 72
    65
 73
     4
 40
2.0
 49
1.25
 74
     0
 49
-0.25
 74
     0
 49
0.25
 74
     0
 49
-0.25
 74
     0
  0
LTYPE
  5
781A
330
746A
100
AcDbSymbolTableRecord
100
AcDbLinetypeTableRecord
  2
HIDDEN
 70
     0
  3
__ __ __ __ __ __ __ __ __ __ __ __ __ __ __ __
 72
    65
 73
     2
 40
0.375
 49
0.25
 74
     0
 49
-0.125
 74
     0
  0
LTYPE
  5
781B
330
746A
100
AcDbSymbolTableRecord
100
AcDbLinetypeTableRecord
  2
PHANTOM
 70
     0
  3
______  __  __  ______  __  __  ______  __  __ 
 72
    65
 73
     6
 40
2.5
 49
1.25
 74
     0
 49
-0.25
 74
     0
 49
0.25
 74
     0
 49
-0.25
 74
     0
 49
0.25
 74
     0
 49
-0.25
 74
     0
  0
LTYPE
  5
12CC3
330
746A
100
AcDbSymbolTableRecord
100
AcDbLinetypeTableRecord
  2
HIDDENX2
 70
     0
  3
Hidden (2x) ____ ____ ____ ____ ____ ____ ____
 72
    65
 73
     2
 40
19.05
 49
12.7
 74
     0
 49
-6.349999999999999
 74
     0
  0
ENDTAB
  0
TABLE
  2
LAYER
  5
7467
102
{ACAD_XDICTIONARY
360
1758F
102
}
330
0
100
AcDbSymbolTable
 70
    12
  0
LAYER
  5
7474
330
7467
100
AcDbSymbolTableRecord
100
AcDbLayerTableRecord
  2
0
 70
     0
 62
     7
  6
CONTINUOUS
370
    -3
390
173D0
  0
LAYER
  5
DEB2
330
7467
100
AcDbSymbolTableRecord
100
AcDbLayerTableRecord
  2
センター
 70
     0
 62
     3
  6
CENTER
370
    -3
390
173D0
  0
LAYER
  5
DEB3
330
7467
100
AcDbSymbolTableRecord
100
AcDbLayerTableRecord
  2
寸法
 70
     0
 62
     4
  6
CONTINUOUS
370
    -3
390
173D0
  0
LAYER
  5
DEB4
330
7467
100
AcDbSymbolTableRecord
100
AcDbLayerTableRecord
  2
部品1
 70
     0
 62
     7
  6
CONTINUOUS
370
    -3
390
173D0
  0
LAYER
  5
DEB5
330
7467
100
AcDbSymbolTableRecord
100
AcDbLayerTableRecord
  2
補助
 70
     0
 62
    -1
  6
CONTINUOUS
370
    -3
390
173D0
  0
LAYER
  5
DEB6
330
7467
100
AcDbSymbolTableRecord
100
AcDbLayerTableRecord
  2
文字
 70
     0
 62
     7
  6
CONTINUOUS
370
    -3
390
173D0
  0
LAYER
  5
F255
330
7467
100
AcDbSymbolTableRecord
100
AcDbLayerTableRecord
  2
DEFPOINTS
 70
     0
 62
     7
  6
CONTINUOUS
290
     0
370
    -3
390
173D0
  0
LAYER
  5
10B54
330
7467
100
AcDbSymbolTableRecord
100
AcDbLayerTableRecord
  2
仕様書枠
 70
     0
 62
   230
  6
CONTINUOUS
370
    -3
390
173D0
  0
LAYER
  5
11729
330
7467
100
AcDbSymbolTableRecord
100
AcDbLayerTableRecord
  2
Ｇ．Ｌ
 70
     0
 62
    30
  6
CONTINUOUS
370
    -3
390
173D0
  0
LAYER
  5
1173F
330
7467
100
AcDbSymbolTableRecord
100
AcDbLayerTableRecord
  2
細線
 70
     0
 62
     5
  6
CONTINUOUS
370
    -3
390
173D0
  0
LAYER
  5
12CC4
330
7467
100
AcDbSymbolTableRecord
100
AcDbLayerTableRecord
  2
想像線
 70
     0
 62
     6
  6
PHANTOM
370
    -3
390
173D0
  0
LAYER
  5
142E2
330
7467
100
AcDbSymbolTableRecord
100
AcDbLayerTableRecord
  2
破線
 70
     0
 62
     2
  6
HIDDEN
370
    -3
390
173D0
  0
ENDTAB
  0
TABLE
  2
STYLE
  5
7468
330
0
100
AcDbSymbolTable
 70
     7
  0
STYLE
  5
7475
330
7468
100
AcDbSymbolTableRecord
100
AcDbTextStyleTableRecord
  2
STANDARD
 70
     0
 40
0.0
 41
1.0
 50
0.0
 71
     0
 42
4.0
  3
txt
  4
C:\AutoCAD LT\bigfont.shx
  0
STYLE
  5
763C
330
7468
100
AcDbSymbolTableRecord
100
AcDbTextStyleTableRecord
  2
MSMINCHO
 70
     0
 40
0.0
 41
1.0
 50
0.0
 71
     0
 42
1.199999999999999
  3
C:\AutoCAD LT\msminch2.TTF
  4

  0
STYLE
  5
F706
330
7468
100
AcDbSymbolTableRecord
100
AcDbTextStyleTableRecord
  2
STYLE1
 70
     0
 40
0.0
 41
1.0
 50
0.0
 71
     0
 42
4.0
  3
isocp.shx
  4
bigfont.shx
  0
STYLE
  5
103BF
330
7468
100
AcDbSymbolTableRecord
100
AcDbTextStyleTableRecord
  2
STYLE2
 70
     0
 40
0.0
 41
1.0
 50
0.0
 71
     0
 42
100.0
  3
MS PGothic.ttf
  4

1001
ACAD
1000
MS PGothic
1071
    32818
  0
STYLE
  5
10BAA
330
7468
100
AcDbSymbolTableRecord
100
AcDbTextStyleTableRecord
  2
STYLE3
 70
     0
 40
0.0
 41
1.0
 50
0.0
 71
     0
 42
100.0
  3

  4

1001
ACAD
1000
DFPGothic-EB
1071
    32818
  0
STYLE
  5
11A15
330
7468
100
AcDbSymbolTableRecord
100
AcDbTextStyleTableRecord
  2
MSGOTHIC
 70
     0
 40
0.0
 41
1.0
 50
0.0
 71
     0
 42
3.5
  3
msgothi2.ttf
  4

  0
STYLE
  5
13E96
330
7468
100
AcDbSymbolTableRecord
100
AcDbTextStyleTableRecord
  2
MSPゴシック
 70
     0
 40
0.0
 41
1.0
 50
0.0
 71
     0
 42
4.0
  3
MS PGothic.ttf
  4

1001
ACAD
1000
MS PGothic
1071
    32818
  0
ENDTAB
  0
TABLE
  2
VIEW
  5
746B
330
0
100
AcDbSymbolTable
 70
     0
  0
ENDTAB
  0
TABLE
  2
UCS
  5
746C
330
0
100
AcDbSymbolTable
 70
     0
  0
ENDTAB
  0
TABLE
  2
APPID
  5
746E
330
0
100
AcDbSymbolTable
 70
     6
  0
APPID
  5
7476
330
746E
100
AcDbSymbolTableRecord
100
AcDbRegAppTableRecord
  2
ACAD
 70
     0
  0
APPID
  5
DEA9
330
746E
100
AcDbSymbolTableRecord
100
AcDbRegAppTableRecord
  2
CONTENTBLOCKICON
 70
     0
  0
APPID
  5
DEAA
330
746E
100
AcDbSymbolTableRecord
100
AcDbRegAppTableRecord
  2
CONTENTBLOCKDESCRIPTION
 70
     0
  0
APPID
  5
E71D
330
746E
100
AcDbSymbolTableRecord
100
AcDbRegAppTableRecord
  2
CONTENTTABDATA
 70
     0
  0
APPID
  5
E71E
330
746E
100
AcDbSymbolTableRecord
100
AcDbRegAppTableRecord
  2
CONTENTCURRENTTAB
 70
     0
  0
APPID
  5
F3BA
330
746E
100
AcDbSymbolTableRecord
100
AcDbRegAppTableRecord
  2
DRAWINGVARIABLESXDATA
 70
     0
  0
ENDTAB
  0
TABLE
  2
DIMSTYLE
  5
746F
330
0
100
AcDbSymbolTable
 70
     6
100
AcDbDimStyleTable
 71
     1
340
F71F
  0
DIMSTYLE
105
7484
330
746F
100
AcDbSymbolTableRecord
100
AcDbDimStyleTableRecord
  2
JIS
 70
     0
 41
2.5
 42
1.0
 43
7.0
 44
1.0
 73
     0
 74
     0
 77
     1
 78
     8
140
2.5
141
0.0
143
0.0394
147
0.0
172
     1
174
     1
175
     1
340
7475
  0
DIMSTYLE
105
F236
330
746F
100
AcDbSymbolTableRecord
100
AcDbDimStyleTableRecord
  2
INABA_S40
 70
     0
 40
40.0
 41
2.5
 42
0.5
 43
7.0
 44
1.5
 73
     0
 74
     0
 77
     3
 78
     8
140
3.0
141
0.0
143
0.0394
147
1.0
172
     1
173
     1
174
     1
175
     1
178
     7
289
     0
340
7475
341
DEAC
343
DEAC
344
DEAC
  0
DIMSTYLE
105
F71F
102
{ACAD_REACTORS
330
20DE1
330
20DFB
330
22741
330
2275B
330
23FDA
330
23FD9
330
24043
330
257F0
330
257C4
330
257A4
330
257A2
330
25768
330
25767
330
25760
330
2575D
330
2575B
330
257A6
330
25772
330
25771
330
25763
330
25762
330
25770
330
25766
330
2600A
330
2600B
330
26013
330
2601A
330
2601D
330
2607D
102
}
330
746F
100
AcDbSymbolTableRecord
100
AcDbDimStyleTableRecord
  2
INABA_S40G
 70
     0
 40
40.0
 41
2.5
 42
0.5
 43
7.0
 44
1.5
 73
     0
 74
     0
 77
     3
 78
     8
140
3.0
141
0.0
143
0.0394
147
1.0
172
     1
173
     1
174
     1
178
     7
271
     1
340
F706
341
F770
343
F770
344
F770
  0
DIMSTYLE
105
142E3
330
746F
100
AcDbSymbolTableRecord
100
AcDbDimStyleTableRecord
  2
INABA_S1
 70
     0
 40
0.0
 41
2.5
 42
0.5
 43
7.0
 44
1.5
 73
     0
 74
     0
 77
     3
 78
     8
140
3.0
141
0.0
143
0.0394
146
0.5
147
0.5
172
     1
173
     1
176
   256
177
   256
178
     7
271
     2
272
     2
284
     8
288
     1
340
7475
341
DEAC
343
DEAC
344
DEAC
  0
DIMSTYLE
105
14463
330
746F
100
AcDbSymbolTableRecord
100
AcDbDimStyleTableRecord
  2
INABA_S30G
 70
     0
 40
30.0
 41
2.5
 42
0.5
 43
7.0
 44
1.5
 73
     0
 74
     0
 77
     3
 78
     8
140
3.0
141
0.0
143
0.0394
147
1.0
172
     1
173
     1
174
     1
175
     1
178
     7
271
     1
340
F706
341
F770
343
F770
344
F770
  0
DIMSTYLE
105
1758E
330
746F
100
AcDbSymbolTableRecord
100
AcDbDimStyleTableRecord
  2
INABA_S50G
 70
     0
 41
125.0
 42
25.0
 43
7.0
 44
75.0
 73
     0
 74
     0
 77
     3
 78
     8
140
150.0
141
0.0
143
0.0394
147
25.0
172
     1
173
     1
174
     1
175
     1
178
     7
271
     1
340
F706
341
F770
343
F770
344
F770
  0
ENDTAB
  0
TABLE
  2
BLOCK_RECORD
  5
7466
330
0
100
AcDbSymbolTable
 70
    49
  0
BLOCK_RECORD
  5
747D
330
7466
100
AcDbSymbolTableRecord
100
AcDbBlockTableRecord
  2
*MODEL_SPACE
340
173D5
  0
BLOCK_RECORD
  5
747A
330
7466
100
AcDbSymbolTableRecord
100
AcDbBlockTableRecord
  2
*PAPER_SPACE
340
173D6
  0
BLOCK_RECORD
  5
DEAC
330
7466
100
AcDbSymbolTableRecord
100
AcDbBlockTableRecord
  2
_OPEN
340
0
  0
BLOCK_RECORD
  5
F770
330
7466
100
AcDbSymbolTableRecord
100
AcDbBlockTableRecord
  2
_DOTSMALL
340
0
102
{BLKREFS
331
18C65
331
18C66
331
18C59
331
18C5A
331
18C4D
331
18C4E
331
18C41
331
18C42
331
18C35
331
18C36
331
18C29
331
18C2A
331
18C1D
331
18C1E
331
18C0F
331
18C10
331
18C03
331
18C04
331
18BF5
331
18BF6
331
18BE7
331
18BE8
331
18BD9
331
18BDA
331
18BCD
331
18BCE
331
25BA4
331
25BA5
331
25BB7
331
25BB8
331
25BC0
331
25BC1
331
25BE4
331
25BE5
331
25BED
331
25BEE
331
25BF7
331
25BF8
331
25C0A
331
25C0B
331
25C13
331
25C14
331
25D0F
331
25D10
331
25D1A
331
25D1B
331
25D25
331
25D26
331
25D30
331
25D31
331
25D3A
331
25D3B
331
25D68
331
25D69
331
25D71
331
25D72
331
25D85
331
25D86
331
25D8E
331
25D8F
331
25D97
331
25D98
331
25DA9
331
25DAA
331
25DBB
331
25DBC
331
25DC4
331
25DC5
331
25E23
331
25E24
331
25E78
331
25E79
331
26183
331
26184
331
2618E
331
2618F
331
26197
331
26198
331
261A0
331
261A1
331
261A9
331
261AA
331
261B2
331
261B3
102
}
  0
BLOCK_RECORD
  5
164B4
330
7466
100
AcDbSymbolTableRecord
100
AcDbBlockTableRecord
  2
_DOT
340
0
102
{BLKREFS
331
18C73
331
18C74
102
}
  0
BLOCK_RECORD
  5
18BC8
330
7466
100
AcDbSymbolTableRecord
100
AcDbBlockTableRecord
  2
*D3
340
0
  0
BLOCK_RECORD
  5
18BD4
330
7466
100
AcDbSymbolTableRecord
100
AcDbBlockTableRecord
  2
*D4
340
0
  0
BLOCK_RECORD
  5
18BE0
330
7466
100
AcDbSymbolTableRecord
100
AcDbBlockTableRecord
  2
*D5
340
0
  0
BLOCK_RECORD
  5
18BEE
330
7466
100
AcDbSymbolTableRecord
100
AcDbBlockTableRecord
  2
*D6
340
0
  0
BLOCK_RECORD
  5
18BFC
330
7466
100
AcDbSymbolTableRecord
100
AcDbBlockTableRecord
  2
*D7
340
0
  0
BLOCK_RECORD
  5
18C0A
330
7466
100
AcDbSymbolTableRecord
100
AcDbBlockTableRecord
  2
*D8
340
0
  0
BLOCK_RECORD
  5
18C16
330
7466
100
AcDbSymbolTableRecord
100
AcDbBlockTableRecord
  2
*D9
340
0
  0
BLOCK_RECORD
  5
18C24
330
7466
100
AcDbSymbolTableRecord
100
AcDbBlockTableRecord
  2
*D10
340
0
  0
BLOCK_RECORD
  5
18C30
330
7466
100
AcDbSymbolTableRecord
100
AcDbBlockTableRecord
  2
*D11
340
0
  0
BLOCK_RECORD
  5
18C3C
330
7466
100
AcDbSymbolTableRecord
100
AcDbBlockTableRecord
  2
*D12
340
0
  0
BLOCK_RECORD
  5
18C48
330
7466
100
AcDbSymbolTableRecord
100
AcDbBlockTableRecord
  2
*D13
340
0
  0
BLOCK_RECORD
  5
18C54
330
7466
100
AcDbSymbolTableRecord
100
AcDbBlockTableRecord
  2
*D14
340
0
  0
BLOCK_RECORD
  5
18C60
330
7466
100
AcDbSymbolTableRecord
100
AcDbBlockTableRecord
  2
*D15
340
0
  0
BLOCK_RECORD
  5
18C6C
330
7466
100
AcDbSymbolTableRecord
100
AcDbBlockTableRecord
  2
*D16
340
0
  0
BLOCK_RECORD
  5
18C7A
330
7466
100
AcDbSymbolTableRecord
100
AcDbBlockTableRecord
  2
A$C3B1A506B
340
0
  0
BLOCK_RECORD
  5
1C4CA
330
7466
100
AcDbSymbolTableRecord
100
AcDbBlockTableRecord
  2
_NONE
340
0
  0
BLOCK_RECORD
  5
20DE2
330
7466
100
AcDbSymbolTableRecord
100
AcDbBlockTableRecord
  2
*D19
340
0
  0
BLOCK_RECORD
  5
20DFC
330
7466
100
AcDbSymbolTableRecord
100
AcDbBlockTableRecord
  2
*D20
340
0
  0
BLOCK_RECORD
  5
22742
330
7466
100
AcDbSymbolTableRecord
100
AcDbBlockTableRecord
  2
*D21
340
0
  0
BLOCK_RECORD
  5
2275C
330
7466
100
AcDbSymbolTableRecord
100
AcDbBlockTableRecord
  2
*D22
340
0
  0
BLOCK_RECORD
  5
240C4
330
7466
100
AcDbSymbolTableRecord
100
AcDbBlockTableRecord
  2
*D23
340
0
  0
BLOCK_RECORD
  5
240D1
330
7466
100
AcDbSymbolTableRecord
100
AcDbBlockTableRecord
  2
*D24
340
0
  0
BLOCK_RECORD
  5
240DE
330
7466
100
AcDbSymbolTableRecord
100
AcDbBlockTableRecord
  2
*D25
340
0
  0
BLOCK_RECORD
  5
2580B
330
7466
100
AcDbSymbolTableRecord
100
AcDbBlockTableRecord
  2
*D26
340
0
  0
BLOCK_RECORD
  5
25817
330
7466
100
AcDbSymbolTableRecord
100
AcDbBlockTableRecord
  2
*D27
340
0
  0
BLOCK_RECORD
  5
25823
330
7466
100
AcDbSymbolTableRecord
100
AcDbBlockTableRecord
  2
*D28
340
0
  0
BLOCK_RECORD
  5
2582F
330
7466
100
AcDbSymbolTableRecord
100
AcDbBlockTableRecord
  2
*D29
340
0
  0
BLOCK_RECORD
  5
2583B
330
7466
100
AcDbSymbolTableRecord
100
AcDbBlockTableRecord
  2
*D30
340
0
  0
BLOCK_RECORD
  5
25847
330
7466
100
AcDbSymbolTableRecord
100
AcDbBlockTableRecord
  2
*D31
340
0
  0
BLOCK_RECORD
  5
25853
330
7466
100
AcDbSymbolTableRecord
100
AcDbBlockTableRecord
  2
*D32
340
0
  0
BLOCK_RECORD
  5
2585E
330
7466
100
AcDbSymbolTableRecord
100
AcDbBlockTableRecord
  2
*D33
340
0
  0
BLOCK_RECORD
  5
2586A
330
7466
100
AcDbSymbolTableRecord
100
AcDbBlockTableRecord
  2
*D34
340
0
  0
BLOCK_RECORD
  5
25876
330
7466
100
AcDbSymbolTableRecord
100
AcDbBlockTableRecord
  2
*D35
340
0
  0
BLOCK_RECORD
  5
25882
330
7466
100
AcDbSymbolTableRecord
100
AcDbBlockTableRecord
  2
*D36
340
0
  0
BLOCK_RECORD
  5
258A8
330
7466
100
AcDbSymbolTableRecord
100
AcDbBlockTableRecord
  2
*D37
340
0
  0
BLOCK_RECORD
  5
258C0
330
7466
100
AcDbSymbolTableRecord
100
AcDbBlockTableRecord
  2
*D38
340
0
  0
BLOCK_RECORD
  5
258D7
330
7466
100
AcDbSymbolTableRecord
100
AcDbBlockTableRecord
  2
*D39
340
0
  0
BLOCK_RECORD
  5
258F1
330
7466
100
AcDbSymbolTableRecord
100
AcDbBlockTableRecord
  2
*D40
340
0
  0
BLOCK_RECORD
  5
2590A
330
7466
100
AcDbSymbolTableRecord
100
AcDbBlockTableRecord
  2
*D41
340
0
  0
BLOCK_RECORD
  5
26136
330
7466
100
AcDbSymbolTableRecord
100
AcDbBlockTableRecord
  2
*D42
340
0
  0
BLOCK_RECORD
  5
26142
330
7466
100
AcDbSymbolTableRecord
100
AcDbBlockTableRecord
  2
*D43
340
0
  0
BLOCK_RECORD
  5
26150
330
7466
100
AcDbSymbolTableRecord
100
AcDbBlockTableRecord
  2
*D44
340
0
  0
BLOCK_RECORD
  5
2615C
330
7466
100
AcDbSymbolTableRecord
100
AcDbBlockTableRecord
  2
*D45
340
0
  0
BLOCK_RECORD
  5
26168
330
7466
100
AcDbSymbolTableRecord
100
AcDbBlockTableRecord
  2
*D46
340
0
  0
BLOCK_RECORD
  5
26174
330
7466
100
AcDbSymbolTableRecord
100
AcDbBlockTableRecord
  2
*D47
340
0
  0
BLOCK_RECORD
  5
261C1
330
7466
100
AcDbSymbolTableRecord
100
AcDbBlockTableRecord
  2
A$C5893477D
340
0
  0
ENDTAB
  0
ENDSEC
  0
SECTION
  2
BLOCKS
  0
BLOCK
  5
7489
330
747D
100
AcDbEntity
  8
0
100
AcDbBlockBegin
  2
*MODEL_SPACE
 70
     0
 10
0.0
 20
0.0
 30
0.0
  3
*MODEL_SPACE
  1

  0
ENDBLK
  5
748A
330
747D
100
AcDbEntity
  8
0
100
AcDbBlockEnd
  0
BLOCK
  5
7487
330
747A
100
AcDbEntity
 67
     1
  8
0
100
AcDbBlockBegin
  2
*PAPER_SPACE
 70
     0
 10
0.0
 20
0.0
 30
0.0
  3
*PAPER_SPACE
  1

  0
ENDBLK
  5
7488
330
747A
100
AcDbEntity
 67
     1
  8
0
100
AcDbBlockEnd
  0
BLOCK
  5
DEAD
330
DEAC
100
AcDbEntity
  8
0
100
AcDbBlockBegin
  2
_OPEN
 70
     0
 10
0.0
 20
0.0
 30
0.0
  3
_OPEN
  1

  0
LINE
  5
DEAE
330
DEAC
100
AcDbEntity
  8
0
  6
ByBlock
 62
     0
100
AcDbLine
 10
-1.0
 20
0.1666666666666666
 30
0.0
 11
0.0
 21
0.0
 31
0.0
  0
LINE
  5
DEAF
330
DEAC
100
AcDbEntity
  8
0
  6
ByBlock
 62
     0
100
AcDbLine
 10
0.0
 20
0.0
 30
0.0
 11
-1.0
 21
-0.1666666666666666
 31
0.0
  0
LINE
  5
DEB0
330
DEAC
100
AcDbEntity
  8
0
  6
ByBlock
 62
     0
100
AcDbLine
 10
0.0
 20
0.0
 30
0.0
 11
-1.0
 21
0.0
 31
0.0
  0
ENDBLK
  5
DEB1
330
DEAC
100
AcDbEntity
  8
0
100
AcDbBlockEnd
  0
BLOCK
  5
F771
330
F770
100
AcDbEntity
  8
0
 48
50.0
100
AcDbBlockBegin
  2
_DOTSMALL
 70
     0
 10
0.0
 20
0.0
 30
0.0
  3
_DOTSMALL
  1

  0
LWPOLYLINE
  5
F772
330
F770
100
AcDbEntity
  8
0
  6
ByBlock
 62
     0
 48
50.0
100
AcDbPolyline
 90
        2
 70
     1
 43
0.5
 10
-0.0625
 20
0.0
 42
1.0
 10
0.0625
 20
0.0
 42
1.0
  0
ENDBLK
  5
F776
330
F770
100
AcDbEntity
  8
0
 48
50.0
100
AcDbBlockEnd
  0
BLOCK
  5
164BA
330
164B4
100
AcDbEntity
  8
0
 48
50.0
100
AcDbBlockBegin
  2
_DOT
 70
     0
 10
0.0
 20
0.0
 30
0.0
  3
_DOT
  1

  0
LWPOLYLINE
  5
164B5
330
164B4
100
AcDbEntity
  8
0
  6
ByBlock
 62
     0
 48
50.0
100
AcDbPolyline
 90
        2
 70
     1
 43
0.5
 10
-0.25
 20
0.0
 42
1.0
 10
0.25
 20
0.0
 42
1.0
  0
LINE
  5
164B9
330
164B4
100
AcDbEntity
  8
0
  6
ByBlock
 62
     0
 48
50.0
100
AcDbLine
 10
-0.5
 20
0.0
 30
0.0
 11
-1.0
 21
0.0
 31
0.0
  0
ENDBLK
  5
164BB
330
164B4
100
AcDbEntity
  8
0
 48
50.0
100
AcDbBlockEnd
  0
BLOCK
  5
18BC9
330
18BC8
100
AcDbEntity
  8
0
 48
50.0
100
AcDbBlockBegin
  2
*D3
 70
     1
 10
0.0
 20
0.0
 30
0.0
  3
*D3
  1

  0
LINE
  5
18BCA
330
18BC8
100
AcDbEntity
  8
寸法
 62
     0
 48
50.0
370
    -2
100
AcDbLine
 10
7649.896575106999
 20
9636.123139034717
 30
0.0
 11
8702.429862581047
 21
9636.123139034717
 31
0.0
  0
LINE
  5
18BCB
330
18BC8
100
AcDbEntity
  8
寸法
 62
     0
 48
50.0
370
    -2
100
AcDbLine
 10
7649.896575106973
 20
7846.123139034709
 30
0.0
 11
8702.429862581047
 21
7846.123139034709
 31
0.0
  0
LINE
  5
18BCC
330
18BC8
100
AcDbEntity
  8
寸法
 62
     0
 48
50.0
370
    -2
100
AcDbLine
 10
8642.429862581046
 20
9636.123139034717
 30
0.0
 11
8642.429862581046
 21
7846.123139034709
 31
0.0
  0
INSERT
  5
18BCD
330
18BC8
100
AcDbEntity
  8
寸法
 62
     0
 48
50.0
370
    -2
100
AcDbBlockReference
  2
_DOTSMALL
 10
8642.429862581046
 20
9636.123139034717
 30
0.0
 41
100.0
 42
100.0
 43
100.0
 50
90.0
  0
INSERT
  5
18BCE
330
18BC8
100
AcDbEntity
  8
寸法
 62
     0
 48
50.0
370
    -2
100
AcDbBlockReference
  2
_DOTSMALL
 10
8642.429862581046
 20
7846.123139034709
 30
0.0
 41
100.0
 42
100.0
 43
100.0
 50
270.0
  0
MTEXT
  5
18BCF
330
18BC8
100
AcDbEntity
  8
寸法
 62
     7
 48
50.0
100
AcDbMText
 10
8542.429862581045
 20
8741.123139034712
 30
0.0
 40
120.0
 41
0.0
 71
     5
 72
     1
  1
\A1;1790
  7
STYLE1
 11
0.0000000000000001
 21
1.0
 31
0.0
 73
     1
 44
1.0
1001
ACAD
1000
MTEXTBEGIN
1070
    73
1070
     1
1070
    44
1040
1.0
1070
    74
1070
     0
1000
MTEXTEND
  0
POINT
  5
18BD0
330
18BC8
100
AcDbEntity
  8
DEFPOINTS
 62
     0
 48
50.0
100
AcDbPoint
 10
7629.896575106998
 20
9636.123139034717
 30
0.0
  0
POINT
  5
18BD1
330
18BC8
100
AcDbEntity
  8
DEFPOINTS
 62
     0
 48
50.0
100
AcDbPoint
 10
7629.896575106974
 20
7846.123139034709
 30
0.0
  0
POINT
  5
18BD2
330
18BC8
100
AcDbEntity
  8
DEFPOINTS
 62
     0
 48
50.0
100
AcDbPoint
 10
8642.429862581046
 20
7846.123139034709
 30
0.0
  0
ENDBLK
  5
18BD3
330
18BC8
100
AcDbEntity
  8
0
 48
50.0
100
AcDbBlockEnd
  0
BLOCK
  5
18BD5
330
18BD4
100
AcDbEntity
  8
0
 48
50.0
100
AcDbBlockBegin
  2
*D4
 70
     1
 10
0.0
 20
0.0
 30
0.0
  3
*D4
  1

  0
LINE
  5
18BD6
330
18BD4
100
AcDbEntity
  8
寸法
 62
     0
 48
50.0
370
    -2
100
AcDbLine
 10
4214.896575106998
 20
9656.123139034622
 30
0.0
 11
4214.896575106998
 21
10211.93135865972
 31
0.0
  0
LINE
  5
18BD7
330
18BD4
100
AcDbEntity
  8
寸法
 62
     0
 48
50.0
370
    -2
100
AcDbLine
 10
7574.896575106999
 20
9656.123139034718
 30
0.0
 11
7574.896575106999
 21
10211.93135865972
 31
0.0
  0
LINE
  5
18BD8
330
18BD4
100
AcDbEntity
  8
寸法
 62
     0
 48
50.0
370
    -2
100
AcDbLine
 10
4214.896575106998
 20
10151.93135865972
 30
0.0
 11
7574.896575106999
 21
10151.93135865972
 31
0.0
  0
INSERT
  5
18BD9
330
18BD4
100
AcDbEntity
  8
寸法
 62
     0
 48
50.0
370
    -2
100
AcDbBlockReference
  2
_DOTSMALL
 10
4214.896575106998
 20
10151.93135865972
 30
0.0
 41
100.0
 42
100.0
 43
100.0
 50
180.0
  0
INSERT
  5
18BDA
330
18BD4
100
AcDbEntity
  8
寸法
 62
     0
 48
50.0
370
    -2
100
AcDbBlockReference
  2
_DOTSMALL
 10
7574.896575106999
 20
10151.93135865972
 30
0.0
 41
100.0
 42
100.0
 43
100.0
  0
MTEXT
  5
18BDB
330
18BD4
100
AcDbEntity
  8
寸法
 62
     7
 48
50.0
100
AcDbMText
 10
5894.896575106997
 20
10251.94316968334
 30
0.0
 40
120.0
 41
0.0
 71
     5
 72
     1
  1
\A1;8X420=3360
  7
STYLE1
 73
     1
 44
1.0
1001
ACAD
1000
MTEXTBEGIN
1070
    73
1070
     1
1070
    44
1040
1.0
1070
    74
1070
     0
1000
MTEXTEND
  0
POINT
  5
18BDC
330
18BD4
100
AcDbEntity
  8
DEFPOINTS
 62
     0
 48
50.0
100
AcDbPoint
 10
4214.896575106998
 20
9636.123139034623
 30
0.0
  0
POINT
  5
18BDD
330
18BD4
100
AcDbEntity
  8
DEFPOINTS
 62
     0
 48
50.0
100
AcDbPoint
 10
7574.896575106999
 20
9636.123139034717
 30
0.0
  0
POINT
  5
18BDE
330
18BD4
100
AcDbEntity
  8
DEFPOINTS
 62
     0
 48
50.0
100
AcDbPoint
 10
7574.896575106999
 20
10151.93135865972
 30
0.0
  0
ENDBLK
  5
18BDF
330
18BD4
100
AcDbEntity
  8
0
 48
50.0
100
AcDbBlockEnd
  0
BLOCK
  5
18BE1
330
18BE0
100
AcDbEntity
  8
0
 48
50.0
100
AcDbBlockBegin
  2
*D5
 70
     1
 10
0.0
 20
0.0
 30
0.0
  3
*D5
  1

  0
LINE
  5
18BE2
330
18BE0
100
AcDbEntity
  8
寸法
 62
     0
 48
50.0
370
    -2
100
AcDbLine
 10
7574.896575106999
 20
9656.123139034718
 30
0.0
 11
7574.896575106999
 21
10211.9313586597
 31
0.0
  0
LINE
  5
18BE3
330
18BE0
100
AcDbEntity
  8
寸法
 62
     0
 48
50.0
370
    -2
100
AcDbLine
 10
7629.896575106998
 20
9656.123139034718
 30
0.0
 11
7629.896575106998
 21
10211.9313586597
 31
0.0
  0
LINE
  5
18BE4
330
18BE0
100
AcDbEntity
  8
寸法
 62
     0
 48
50.0
370
    -2
100
AcDbLine
 10
7574.896575106999
 20
10151.9313586597
 30
0.0
 11
7474.896575106999
 21
10151.9313586597
 31
0.0
  0
LINE
  5
18BE5
330
18BE0
100
AcDbEntity
  8
寸法
 62
     0
 48
50.0
370
    -2
100
AcDbLine
 10
7629.896575106998
 20
10151.9313586597
 30
0.0
 11
8046.867137855477
 21
10151.9313586597
 31
0.0
  0
LINE
  5
18BE6
330
18BE0
100
AcDbEntity
  8
寸法
 62
     0
 48
50.0
370
    -2
100
AcDbLine
 10
7574.896575106999
 20
10151.9313586597
 30
0.0
 11
7629.896575106998
 21
10151.9313586597
 31
0.0
  0
INSERT
  5
18BE7
330
18BE0
100
AcDbEntity
  8
寸法
 62
     0
 48
50.0
370
    -2
100
AcDbBlockReference
  2
_DOTSMALL
 10
7574.896575106999
 20
10151.9313586597
 30
0.0
 41
100.0
 42
100.0
 43
100.0
  0
INSERT
  5
18BE8
330
18BE0
100
AcDbEntity
  8
寸法
 62
     0
 48
50.0
370
    -2
100
AcDbBlockReference
  2
_DOTSMALL
 10
7629.896575106998
 20
10151.9313586597
 30
0.0
 41
100.0
 42
100.0
 43
100.0
 50
180.0
  0
MTEXT
  5
18BE9
330
18BE0
100
AcDbEntity
  8
寸法
 62
     7
 48
50.0
100
AcDbMText
 10
7938.381856481237
 20
10251.9313586597
 30
0.0
 40
120.0
 41
0.0
 71
     5
 72
     1
  1
\A1;55
  7
STYLE1
 73
     1
 44
1.0
1001
ACAD
1000
MTEXTBEGIN
1070
    73
1070
     1
1070
    44
1040
1.0
1070
    74
1070
     0
1000
MTEXTEND
  0
POINT
  5
18BEA
330
18BE0
100
AcDbEntity
  8
DEFPOINTS
 62
     0
 48
50.0
100
AcDbPoint
 10
7574.896575106999
 20
9636.123139034717
 30
0.0
  0
POINT
  5
18BEB
330
18BE0
100
AcDbEntity
  8
DEFPOINTS
 62
     0
 48
50.0
100
AcDbPoint
 10
7629.896575106998
 20
9636.123139034717
 30
0.0
  0
POINT
  5
18BEC
330
18BE0
100
AcDbEntity
  8
DEFPOINTS
 62
     0
 48
50.0
100
AcDbPoint
 10
7629.896575106998
 20
10151.9313586597
 30
0.0
  0
ENDBLK
  5
18BED
330
18BE0
100
AcDbEntity
  8
0
 48
50.0
100
AcDbBlockEnd
  0
BLOCK
  5
18BEF
330
18BEE
100
AcDbEntity
  8
0
 48
50.0
100
AcDbBlockBegin
  2
*D6
 70
     1
 10
0.0
 20
0.0
 30
0.0
  3
*D6
  1

  0
LINE
  5
18BF0
330
18BEE
100
AcDbEntity
  8
寸法
 62
     0
 48
50.0
370
    -2
100
AcDbLine
 10
7649.896575106999
 20
9636.123139034717
 30
0.0
 11
8337.32292084141
 21
9636.123139034717
 31
0.0
  0
LINE
  5
18BF1
330
18BEE
100
AcDbEntity
  8
寸法
 62
     0
 48
50.0
370
    -2
100
AcDbLine
 10
7649.896575106999
 20
9581.123139034721
 30
0.0
 11
8337.32292084141
 21
9581.123139034721
 31
0.0
  0
LINE
  5
18BF2
330
18BEE
100
AcDbEntity
  8
寸法
 62
     0
 48
50.0
370
    -2
100
AcDbLine
 10
8277.322920841411
 20
9581.123139034721
 30
0.0
 11
8277.322920841411
 21
9481.123139034719
 31
0.0
  0
LINE
  5
18BF3
330
18BEE
100
AcDbEntity
  8
寸法
 62
     0
 48
50.0
370
    -2
100
AcDbLine
 10
8277.322920841411
 20
9636.123139034717
 30
0.0
 11
8277.322920841411
 21
10053.09370178319
 31
0.0
  0
LINE
  5
18BF4
330
18BEE
100
AcDbEntity
  8
寸法
 62
     0
 48
50.0
370
    -2
100
AcDbLine
 10
8277.322920841411
 20
9581.123139034721
 30
0.0
 11
8277.322920841411
 21
9636.123139034717
 31
0.0
  0
INSERT
  5
18BF5
330
18BEE
100
AcDbEntity
  8
寸法
 62
     0
 48
50.0
370
    -2
100
AcDbBlockReference
  2
_DOTSMALL
 10
8277.322920841411
 20
9581.123139034721
 30
0.0
 41
100.0
 42
100.0
 43
100.0
 50
90.0
  0
INSERT
  5
18BF6
330
18BEE
100
AcDbEntity
  8
寸法
 62
     0
 48
50.0
370
    -2
100
AcDbBlockReference
  2
_DOTSMALL
 10
8277.322920841411
 20
9636.123139034717
 30
0.0
 41
100.0
 42
100.0
 43
100.0
 50
270.0
  0
MTEXT
  5
18BF7
330
18BEE
100
AcDbEntity
  8
寸法
 62
     7
 48
50.0
100
AcDbMText
 10
8177.32292084141
 20
9944.608420408957
 30
0.0
 40
120.0
 41
0.0
 71
     5
 72
     1
  1
\A1;55
  7
STYLE1
 11
0.0000000000000001
 21
1.0
 31
0.0
 73
     1
 44
1.0
1001
ACAD
1000
MTEXTBEGIN
1070
    73
1070
     1
1070
    44
1040
1.0
1070
    74
1070
     0
1000
MTEXTEND
  0
POINT
  5
18BF8
330
18BEE
100
AcDbEntity
  8
DEFPOINTS
 62
     0
 48
50.0
100
AcDbPoint
 10
7629.896575106998
 20
9636.123139034717
 30
0.0
  0
POINT
  5
18BF9
330
18BEE
100
AcDbEntity
  8
DEFPOINTS
 62
     0
 48
50.0
100
AcDbPoint
 10
7629.896575106998
 20
9581.123139034721
 30
0.0
  0
POINT
  5
18BFA
330
18BEE
100
AcDbEntity
  8
DEFPOINTS
 62
     0
 48
50.0
100
AcDbPoint
 10
8277.322920841411
 20
9581.123139034721
 30
0.0
  0
ENDBLK
  5
18BFB
330
18BEE
100
AcDbEntity
  8
0
 48
50.0
100
AcDbBlockEnd
  0
BLOCK
  5
18BFD
330
18BFC
100
AcDbEntity
  8
0
 48
50.0
100
AcDbBlockBegin
  2
*D7
 70
     1
 10
0.0
 20
0.0
 30
0.0
  3
*D7
  1

  0
LINE
  5
18BFE
330
18BFC
100
AcDbEntity
  8
寸法
 62
     0
 48
50.0
370
    -2
100
AcDbLine
 10
4159.896575106963
 20
9656.123139034622
 30
0.0
 11
4159.896575106963
 21
10211.9313586596
 31
0.0
  0
LINE
  5
18BFF
330
18BFC
100
AcDbEntity
  8
寸法
 62
     0
 48
50.0
370
    -2
100
AcDbLine
 10
4214.896575106998
 20
9656.123139034622
 30
0.0
 11
4214.896575106998
 21
10211.9313586596
 31
0.0
  0
LINE
  5
18C00
330
18BFC
100
AcDbEntity
  8
寸法
 62
     0
 48
50.0
370
    -2
100
AcDbLine
 10
4214.896575106998
 20
10151.9313586596
 30
0.0
 11
4314.896575106998
 21
10151.9313586596
 31
0.0
  0
LINE
  5
18C01
330
18BFC
100
AcDbEntity
  8
寸法
 62
     0
 48
50.0
370
    -2
100
AcDbLine
 10
4159.896575106963
 20
10151.9313586596
 30
0.0
 11
3742.926012358486
 21
10151.9313586596
 31
0.0
  0
LINE
  5
18C02
330
18BFC
100
AcDbEntity
  8
寸法
 62
     0
 48
50.0
370
    -2
100
AcDbLine
 10
4214.896575106998
 20
10151.9313586596
 30
0.0
 11
4159.896575106963
 21
10151.9313586596
 31
0.0
  0
INSERT
  5
18C03
330
18BFC
100
AcDbEntity
  8
寸法
 62
     0
 48
50.0
370
    -2
100
AcDbBlockReference
  2
_DOTSMALL
 10
4214.896575106998
 20
10151.9313586596
 30
0.0
 41
100.0
 42
100.0
 43
100.0
 50
180.0
  0
INSERT
  5
18C04
330
18BFC
100
AcDbEntity
  8
寸法
 62
     0
 48
50.0
370
    -2
100
AcDbBlockReference
  2
_DOTSMALL
 10
4159.896575106963
 20
10151.9313586596
 30
0.0
 41
100.0
 42
100.0
 43
100.0
  0
MTEXT
  5
18C05
330
18BFC
100
AcDbEntity
  8
寸法
 62
     7
 48
50.0
100
AcDbMText
 10
3851.411293732725
 20
10251.9313586596
 30
0.0
 40
120.0
 41
0.0
 71
     5
 72
     1
  1
\A1;55
  7
STYLE1
 73
     1
 44
1.0
1001
ACAD
1000
MTEXTBEGIN
1070
    73
1070
     1
1070
    44
1040
1.0
1070
    74
1070
     0
1000
MTEXTEND
  0
POINT
  5
18C06
330
18BFC
100
AcDbEntity
  8
DEFPOINTS
 62
     0
 48
50.0
100
AcDbPoint
 10
4159.896575106963
 20
9636.123139034623
 30
0.0
  0
POINT
  5
18C07
330
18BFC
100
AcDbEntity
  8
DEFPOINTS
 62
     0
 48
50.0
100
AcDbPoint
 10
4214.896575106998
 20
9636.123139034623
 30
0.0
  0
POINT
  5
18C08
330
18BFC
100
AcDbEntity
  8
DEFPOINTS
 62
     0
 48
50.0
100
AcDbPoint
 10
4214.896575106998
 20
10151.9313586596
 30
0.0
  0
ENDBLK
  5
18C09
330
18BFC
100
AcDbEntity
  8
0
 48
50.0
100
AcDbBlockEnd
  0
BLOCK
  5
18C0B
330
18C0A
100
AcDbEntity
  8
0
 48
50.0
100
AcDbBlockBegin
  2
*D8
 70
     1
 10
0.0
 20
0.0
 30
0.0
  3
*D8
  1

  0
LINE
  5
18C0C
330
18C0A
100
AcDbEntity
  8
寸法
 62
     0
 48
50.0
370
    -2
100
AcDbLine
 10
4159.896575106992
 20
7826.123139034546
 30
0.0
 11
4159.896575106992
 21
6804.372203245664
 31
0.0
  0
LINE
  5
18C0D
330
18C0A
100
AcDbEntity
  8
寸法
 62
     0
 48
50.0
370
    -2
100
AcDbLine
 10
7629.896575106974
 20
7826.123139034674
 30
0.0
 11
7629.896575106974
 21
6804.372203245664
 31
0.0
  0
LINE
  5
18C0E
330
18C0A
100
AcDbEntity
  8
寸法
 62
     0
 48
50.0
370
    -2
100
AcDbLine
 10
4159.896575106992
 20
6864.372203245665
 30
0.0
 11
7629.896575106974
 21
6864.372203245665
 31
0.0
  0
INSERT
  5
18C0F
330
18C0A
100
AcDbEntity
  8
寸法
 62
     0
 48
50.0
370
    -2
100
AcDbBlockReference
  2
_DOTSMALL
 10
4159.896575106992
 20
6864.372203245665
 30
0.0
 41
100.0
 42
100.0
 43
100.0
 50
180.0
  0
INSERT
  5
18C10
330
18C0A
100
AcDbEntity
  8
寸法
 62
     0
 48
50.0
370
    -2
100
AcDbBlockReference
  2
_DOTSMALL
 10
7629.896575106974
 20
6864.372203245665
 30
0.0
 41
100.0
 42
100.0
 43
100.0
  0
MTEXT
  5
18C11
330
18C0A
100
AcDbEntity
  8
寸法
 62
     7
 48
50.0
100
AcDbMText
 10
5911.12376113973
 20
6964.372203245665
 30
0.0
 40
120.0
 41
0.0
 71
     5
 72
     1
  1
\A1;3470
  7
STYLE1
 73
     1
 44
1.0
1001
ACAD
1000
MTEXTBEGIN
1070
    73
1070
     1
1070
    44
1040
1.0
1070
    74
1070
     0
1000
MTEXTEND
  0
POINT
  5
18C12
330
18C0A
100
AcDbEntity
  8
DEFPOINTS
 62
     0
 48
50.0
100
AcDbPoint
 10
4159.896575106992
 20
7846.123139034546
 30
0.0
  0
POINT
  5
18C13
330
18C0A
100
AcDbEntity
  8
DEFPOINTS
 62
     0
 48
50.0
100
AcDbPoint
 10
7629.896575106974
 20
7846.123139034673
 30
0.0
  0
POINT
  5
18C14
330
18C0A
100
AcDbEntity
  8
DEFPOINTS
 62
     0
 48
50.0
100
AcDbPoint
 10
7629.896575106974
 20
6864.372203245665
 30
0.0
  0
ENDBLK
  5
18C15
330
18C0A
100
AcDbEntity
  8
0
 48
50.0
100
AcDbBlockEnd
  0
BLOCK
  5
18C17
330
18C16
100
AcDbEntity
  8
0
 48
50.0
100
AcDbBlockBegin
  2
*D9
 70
     1
 10
0.0
 20
0.0
 30
0.0
  3
*D9
  1

  0
LINE
  5
18C18
330
18C16
100
AcDbEntity
  8
寸法
 62
     0
 48
50.0
370
    -2
100
AcDbLine
 10
7649.896575106973
 20
7901.123139034706
 30
0.0
 11
8337.322920841385
 21
7901.123139034706
 31
0.0
  0
LINE
  5
18C19
330
18C16
100
AcDbEntity
  8
寸法
 62
     0
 48
50.0
370
    -2
100
AcDbLine
 10
7649.896575106973
 20
7846.123139034709
 30
0.0
 11
8337.322920841385
 21
7846.123139034709
 31
0.0
  0
LINE
  5
18C1A
330
18C16
100
AcDbEntity
  8
寸法
 62
     0
 48
50.0
370
    -2
100
AcDbLine
 10
8277.322920841385
 20
7901.123139034706
 30
0.0
 11
8277.322920841385
 21
8001.123139034707
 31
0.0
  0
LINE
  5
18C1B
330
18C16
100
AcDbEntity
  8
寸法
 62
     0
 48
50.0
370
    -2
100
AcDbLine
 10
8277.322920841385
 20
7846.123139034709
 30
0.0
 11
8277.322920841385
 21
7429.152576286229
 31
0.0
  0
LINE
  5
18C1C
330
18C16
100
AcDbEntity
  8
寸法
 62
     0
 48
50.0
370
    -2
100
AcDbLine
 10
8277.322920841385
 20
7901.123139034706
 30
0.0
 11
8277.322920841385
 21
7846.123139034709
 31
0.0
  0
INSERT
  5
18C1D
330
18C16
100
AcDbEntity
  8
寸法
 62
     0
 48
50.0
370
    -2
100
AcDbBlockReference
  2
_DOTSMALL
 10
8277.322920841385
 20
7901.123139034706
 30
0.0
 41
100.0
 42
100.0
 43
100.0
 50
270.0
  0
INSERT
  5
18C1E
330
18C16
100
AcDbEntity
  8
寸法
 62
     0
 48
50.0
370
    -2
100
AcDbBlockReference
  2
_DOTSMALL
 10
8277.322920841385
 20
7846.123139034709
 30
0.0
 41
100.0
 42
100.0
 43
100.0
 50
90.0
  0
MTEXT
  5
18C1F
330
18C16
100
AcDbEntity
  8
寸法
 62
     7
 48
50.0
100
AcDbMText
 10
8177.322920841383
 20
7537.637857660469
 30
0.0
 40
120.0
 41
0.0
 71
     5
 72
     1
  1
\A1;55
  7
STYLE1
 11
0.0000000000000001
 21
1.0
 31
0.0
 73
     1
 44
1.0
1001
ACAD
1000
MTEXTBEGIN
1070
    73
1070
     1
1070
    44
1040
1.0
1070
    74
1070
     0
1000
MTEXTEND
  0
POINT
  5
18C20
330
18C16
100
AcDbEntity
  8
DEFPOINTS
 62
     0
 48
50.0
100
AcDbPoint
 10
7629.896575106974
 20
7901.123139034706
 30
0.0
  0
POINT
  5
18C21
330
18C16
100
AcDbEntity
  8
DEFPOINTS
 62
     0
 48
50.0
100
AcDbPoint
 10
7629.896575106974
 20
7846.123139034709
 30
0.0
  0
POINT
  5
18C22
330
18C16
100
AcDbEntity
  8
DEFPOINTS
 62
     0
 48
50.0
100
AcDbPoint
 10
8277.322920841385
 20
7846.123139034709
 30
0.0
  0
ENDBLK
  5
18C23
330
18C16
100
AcDbEntity
  8
0
 48
50.0
100
AcDbBlockEnd
  0
BLOCK
  5
18C25
330
18C24
100
AcDbEntity
  8
0
 48
50.0
100
AcDbBlockBegin
  2
*D10
 70
     1
 10
0.0
 20
0.0
 30
0.0
  3
*D10
  1

  0
LINE
  5
18C26
330
18C24
100
AcDbEntity
  8
寸法
 62
     0
 48
50.0
370
    -2
100
AcDbLine
 10
6533.037591258376
 20
9136.123139034728
 30
0.0
 11
6465.083950562664
 21
8882.516699399049
 31
0.0
  0
LINE
  5
18C27
330
18C24
100
AcDbEntity
  8
寸法
 62
     0
 48
50.0
370
    -2
100
AcDbLine
 10
7596.037591258388
 20
9136.123139034721
 30
0.0
 11
7528.083950562677
 21
8882.516699399049
 31
0.0
  0
LINE
  5
18C28
330
18C24
100
AcDbEntity
  8
寸法
 62
     0
 48
50.0
370
    -2
100
AcDbLine
 10
6481.160902108531
 20
8942.51669939905
 30
0.0
 11
7544.160902108544
 21
8942.51669939905
 31
0.0
  0
INSERT
  5
18C29
330
18C24
100
AcDbEntity
  8
寸法
 62
     0
 48
50.0
370
    -2
100
AcDbBlockReference
  2
_DOTSMALL
 10
6481.160902108531
 20
8942.51669939905
 30
0.0
 41
100.0
 42
100.0
 43
100.0
 50
180.0
  0
INSERT
  5
18C2A
330
18C24
100
AcDbEntity
  8
寸法
 62
     0
 48
50.0
370
    -2
100
AcDbBlockReference
  2
_DOTSMALL
 10
7544.160902108544
 20
8942.51669939905
 30
0.0
 41
100.0
 42
100.0
 43
100.0
  0
MTEXT
  5
18C2B
330
18C24
100
AcDbEntity
  8
寸法
 62
     7
 48
50.0
100
AcDbMText
 10
7061.28653022935
 20
9042.516699399049
 30
0.0
 40
120.0
 41
0.0
 71
     5
 72
     1
  1
\A1;1063
  7
STYLE1
 73
     1
 44
1.0
1001
ACAD
1000
MTEXTBEGIN
1070
    73
1070
     1
1070
    44
1040
1.0
1070
    74
1070
     0
1000
MTEXTEND
  0
POINT
  5
18C2C
330
18C24
100
AcDbEntity
  8
DEFPOINTS
 62
     0
 48
50.0
100
AcDbPoint
 10
6538.396575106998
 20
9156.123139034727
 30
0.0
  0
POINT
  5
18C2D
330
18C24
100
AcDbEntity
  8
DEFPOINTS
 62
     0
 48
50.0
100
AcDbPoint
 10
7601.39657510701
 20
9156.12313903472
 30
0.0
  0
POINT
  5
18C2E
330
18C24
100
AcDbEntity
  8
DEFPOINTS
 62
     0
 48
50.0
100
AcDbPoint
 10
7544.160902108544
 20
8942.51669939905
 30
0.0
  0
ENDBLK
  5
18C2F
330
18C24
100
AcDbEntity
  8
0
 48
50.0
100
AcDbBlockEnd
  0
BLOCK
  5
18C31
330
18C30
100
AcDbEntity
  8
0
 48
50.0
100
AcDbBlockBegin
  2
*D11
 70
     1
 10
0.0
 20
0.0
 30
0.0
  3
*D11
  1

  0
LINE
  5
18C32
330
18C30
100
AcDbEntity
  8
寸法
 62
     0
 48
50.0
370
    -2
100
AcDbLine
 10
7621.396575106999
 20
9600.764155186094
 30
0.0
 11
8016.754300969024
 21
9494.828371819961
 31
0.0
  0
LINE
  5
18C33
330
18C30
100
AcDbEntity
  8
寸法
 62
     0
 48
50.0
370
    -2
100
AcDbLine
 10
7621.396575106999
 20
9150.764155186099
 30
0.0
 11
8016.754300969024
 21
9044.828371819964
 31
0.0
  0
LINE
  5
18C34
330
18C30
100
AcDbEntity
  8
寸法
 62
     0
 48
50.0
370
    -2
100
AcDbLine
 10
7956.754300969024
 20
9510.905323365827
 30
0.0
 11
7956.754300969024
 21
9060.90532336583
 31
0.0
  0
INSERT
  5
18C35
330
18C30
100
AcDbEntity
  8
寸法
 62
     0
 48
50.0
370
    -2
100
AcDbBlockReference
  2
_DOTSMALL
 10
7956.754300969024
 20
9510.905323365827
 30
0.0
 41
100.0
 42
100.0
 43
100.0
 50
90.0
  0
INSERT
  5
18C36
330
18C30
100
AcDbEntity
  8
寸法
 62
     0
 48
50.0
370
    -2
100
AcDbBlockReference
  2
_DOTSMALL
 10
7956.754300969024
 20
9060.90532336583
 30
0.0
 41
100.0
 42
100.0
 43
100.0
 50
270.0
  0
MTEXT
  5
18C37
330
18C30
100
AcDbEntity
  8
寸法
 62
     7
 48
50.0
100
AcDbMText
 10
7856.754300969022
 20
9285.905323365829
 30
0.0
 40
120.0
 41
0.0
 71
     5
 72
     1
  1
\A1;450
  7
STYLE1
 11
0.0000000000000001
 21
1.0
 31
0.0
 73
     1
 44
1.0
1001
ACAD
1000
MTEXTBEGIN
1070
    73
1070
     1
1070
    44
1040
1.0
1070
    74
1070
     0
1000
MTEXTEND
  0
POINT
  5
18C38
330
18C30
100
AcDbEntity
  8
DEFPOINTS
 62
     0
 48
50.0
100
AcDbPoint
 10
7601.396575106999
 20
9606.123139034718
 30
0.0
  0
POINT
  5
18C39
330
18C30
100
AcDbEntity
  8
DEFPOINTS
 62
     0
 48
50.0
100
AcDbPoint
 10
7601.396575106999
 20
9156.12313903472
 30
0.0
  0
POINT
  5
18C3A
330
18C30
100
AcDbEntity
  8
DEFPOINTS
 62
     0
 48
50.0
100
AcDbPoint
 10
7956.754300969024
 20
9060.90532336583
 30
0.0
  0
ENDBLK
  5
18C3B
330
18C30
100
AcDbEntity
  8
0
 48
50.0
100
AcDbBlockEnd
  0
BLOCK
  5
18C3D
330
18C3C
100
AcDbEntity
  8
0
 48
50.0
100
AcDbBlockBegin
  2
*D12
 70
     1
 10
0.0
 20
0.0
 30
0.0
  3
*D12
  1

  0
LINE
  5
18C3E
330
18C3C
100
AcDbEntity
  8
寸法
 62
     0
 48
50.0
370
    -2
100
AcDbLine
 10
7649.896575106999
 20
9581.123139034721
 30
0.0
 11
8337.32292084141
 21
9581.123139034721
 31
0.0
  0
LINE
  5
18C3F
330
18C3C
100
AcDbEntity
  8
寸法
 62
     0
 48
50.0
370
    -2
100
AcDbLine
 10
7649.896575106973
 20
7901.123139034706
 30
0.0
 11
8337.32292084141
 21
7901.123139034706
 31
0.0
  0
LINE
  5
18C40
330
18C3C
100
AcDbEntity
  8
寸法
 62
     0
 48
50.0
370
    -2
100
AcDbLine
 10
8277.322920841411
 20
9581.123139034721
 30
0.0
 11
8277.322920841411
 21
7901.123139034706
 31
0.0
  0
INSERT
  5
18C41
330
18C3C
100
AcDbEntity
  8
寸法
 62
     0
 48
50.0
370
    -2
100
AcDbBlockReference
  2
_DOTSMALL
 10
8277.322920841411
 20
9581.123139034721
 30
0.0
 41
100.0
 42
100.0
 43
100.0
 50
90.0
  0
INSERT
  5
18C42
330
18C3C
100
AcDbEntity
  8
寸法
 62
     0
 48
50.0
370
    -2
100
AcDbBlockReference
  2
_DOTSMALL
 10
8277.322920841411
 20
7901.123139034706
 30
0.0
 41
100.0
 42
100.0
 43
100.0
 50
270.0
  0
MTEXT
  5
18C43
330
18C3C
100
AcDbEntity
  8
寸法
 62
     7
 48
50.0
100
AcDbMText
 10
8177.311109817788
 20
8741.123139034712
 30
0.0
 40
120.0
 41
0.0
 71
     5
 72
     1
  1
\A1;4X420=1680
  7
STYLE1
 11
0.0000000000000001
 21
1.0
 31
0.0
 73
     1
 44
1.0
1001
ACAD
1000
MTEXTBEGIN
1070
    73
1070
     1
1070
    44
1040
1.0
1070
    74
1070
     0
1000
MTEXTEND
  0
POINT
  5
18C44
330
18C3C
100
AcDbEntity
  8
DEFPOINTS
 62
     0
 48
50.0
100
AcDbPoint
 10
7629.896575106998
 20
9581.123139034721
 30
0.0
  0
POINT
  5
18C45
330
18C3C
100
AcDbEntity
  8
DEFPOINTS
 62
     0
 48
50.0
100
AcDbPoint
 10
7629.896575106974
 20
7901.123139034706
 30
0.0
  0
POINT
  5
18C46
330
18C3C
100
AcDbEntity
  8
DEFPOINTS
 62
     0
 48
50.0
100
AcDbPoint
 10
8277.322920841411
 20
7901.123139034706
 30
0.0
  0
ENDBLK
  5
18C47
330
18C3C
100
AcDbEntity
  8
0
 48
50.0
100
AcDbBlockEnd
  0
BLOCK
  5
18C49
330
18C48
100
AcDbEntity
  8
0
 48
50.0
100
AcDbBlockBegin
  2
*D13
 70
     1
 10
0.0
 20
0.0
 30
0.0
  3
*D13
  1

  0
LINE
  5
18C4A
330
18C48
100
AcDbEntity
  8
寸法
 62
     0
 48
50.0
370
    -2
100
AcDbLine
 10
4183.037591258377
 20
9136.123139034619
 30
0.0
 11
4115.083950562663
 21
8882.516699398941
 31
0.0
  0
LINE
  5
18C4B
330
18C48
100
AcDbEntity
  8
寸法
 62
     0
 48
50.0
370
    -2
100
AcDbLine
 10
5246.037591258307
 20
9136.123139034671
 30
0.0
 11
5178.08395056258
 21
8882.516699398941
 31
0.0
  0
LINE
  5
18C4C
330
18C48
100
AcDbEntity
  8
寸法
 62
     0
 48
50.0
370
    -2
100
AcDbLine
 10
4131.160902108532
 20
8942.516699398941
 30
0.0
 11
5194.160902108448
 21
8942.516699398941
 31
0.0
  0
INSERT
  5
18C4D
330
18C48
100
AcDbEntity
  8
寸法
 62
     0
 48
50.0
370
    -2
100
AcDbBlockReference
  2
_DOTSMALL
 10
4131.160902108532
 20
8942.516699398941
 30
0.0
 41
100.0
 42
100.0
 43
100.0
 50
180.0
  0
INSERT
  5
18C4E
330
18C48
100
AcDbEntity
  8
寸法
 62
     0
 48
50.0
370
    -2
100
AcDbBlockReference
  2
_DOTSMALL
 10
5194.160902108448
 20
8942.516699398941
 30
0.0
 41
100.0
 42
100.0
 43
100.0
  0
MTEXT
  5
18C4F
330
18C48
100
AcDbEntity
  8
寸法
 62
     7
 48
50.0
100
AcDbMText
 10
4658.986452655306
 20
9042.516699398941
 30
0.0
 40
120.0
 41
0.0
 71
     5
 72
     1
  1
\A1;1063
  7
STYLE1
 73
     1
 44
1.0
1001
ACAD
1000
MTEXTBEGIN
1070
    73
1070
     1
1070
    44
1040
1.0
1070
    74
1070
     0
1000
MTEXTEND
  0
POINT
  5
18C50
330
18C48
100
AcDbEntity
  8
DEFPOINTS
 62
     0
 48
50.0
100
AcDbPoint
 10
4188.396575106999
 20
9156.123139034617
 30
0.0
  0
POINT
  5
18C51
330
18C48
100
AcDbEntity
  8
DEFPOINTS
 62
     0
 48
50.0
100
AcDbPoint
 10
5251.396575106929
 20
9156.123139034672
 30
0.0
  0
POINT
  5
18C52
330
18C48
100
AcDbEntity
  8
DEFPOINTS
 62
     0
 48
50.0
100
AcDbPoint
 10
5194.160902108448
 20
8942.516699398941
 30
0.0
  0
ENDBLK
  5
18C53
330
18C48
100
AcDbEntity
  8
0
 48
50.0
100
AcDbBlockEnd
  0
BLOCK
  5
18C55
330
18C54
100
AcDbEntity
  8
0
 48
50.0
100
AcDbBlockBegin
  2
*D14
 70
     1
 10
0.0
 20
0.0
 30
0.0
  3
*D14
  1

  0
LINE
  5
18C56
330
18C54
100
AcDbEntity
  8
寸法
 62
     0
 48
50.0
370
    -2
100
AcDbLine
 10
5274.037591258307
 20
9136.123139034669
 30
0.0
 11
5206.08395056258
 21
8882.516699398941
 31
0.0
  0
LINE
  5
18C57
330
18C54
100
AcDbEntity
  8
寸法
 62
     0
 48
50.0
370
    -2
100
AcDbLine
 10
6505.037591258377
 20
9136.123139034662
 30
0.0
 11
6437.083950562653
 21
8882.516699398941
 31
0.0
  0
LINE
  5
18C58
330
18C54
100
AcDbEntity
  8
寸法
 62
     0
 48
50.0
370
    -2
100
AcDbLine
 10
5222.160902108448
 20
8942.516699398941
 30
0.0
 11
6453.16090210852
 21
8942.516699398941
 31
0.0
  0
INSERT
  5
18C59
330
18C54
100
AcDbEntity
  8
寸法
 62
     0
 48
50.0
370
    -2
100
AcDbBlockReference
  2
_DOTSMALL
 10
5222.160902108448
 20
8942.516699398941
 30
0.0
 41
100.0
 42
100.0
 43
100.0
 50
180.0
  0
INSERT
  5
18C5A
330
18C54
100
AcDbEntity
  8
寸法
 62
     0
 48
50.0
370
    -2
100
AcDbBlockReference
  2
_DOTSMALL
 10
6453.16090210852
 20
8942.516699398941
 30
0.0
 41
100.0
 42
100.0
 43
100.0
  0
MTEXT
  5
18C5B
330
18C54
100
AcDbEntity
  8
寸法
 62
     7
 48
50.0
100
AcDbMText
 10
6081.244808320626
 20
9042.528510422561
 30
0.0
 40
120.0
 41
0.0
 71
     5
 72
     1
  1
\A1;1231
  7
STYLE1
 73
     1
 44
1.0
1001
ACAD
1000
MTEXTBEGIN
1070
    73
1070
     1
1070
    44
1040
1.0
1070
    74
1070
     0
1000
MTEXTEND
  0
POINT
  5
18C5C
330
18C54
100
AcDbEntity
  8
DEFPOINTS
 62
     0
 48
50.0
100
AcDbPoint
 10
5279.396575106929
 20
9156.123139034669
 30
0.0
  0
POINT
  5
18C5D
330
18C54
100
AcDbEntity
  8
DEFPOINTS
 62
     0
 48
50.0
100
AcDbPoint
 10
6510.396575106999
 20
9156.123139034662
 30
0.0
  0
POINT
  5
18C5E
330
18C54
100
AcDbEntity
  8
DEFPOINTS
 62
     0
 48
50.0
100
AcDbPoint
 10
6453.16090210852
 20
8942.516699398941
 30
0.0
  0
ENDBLK
  5
18C5F
330
18C54
100
AcDbEntity
  8
0
 48
50.0
100
AcDbBlockEnd
  0
BLOCK
  5
18C61
330
18C60
100
AcDbEntity
  8
0
 48
50.0
100
AcDbBlockBegin
  2
*D15
 70
     1
 10
0.0
 20
0.0
 30
0.0
  3
*D15
  1

  0
LINE
  5
18C62
330
18C60
100
AcDbEntity
  8
寸法
 62
     0
 48
50.0
370
    -2
100
AcDbLine
 10
5065.896575106966
 20
7749.123139034579
 30
0.0
 11
5065.896575106966
 21
7099.952920982538
 31
0.0
  0
LINE
  5
18C63
330
18C60
100
AcDbEntity
  8
寸法
 62
     0
 48
50.0
370
    -2
100
AcDbLine
 10
6331.896575106966
 20
7749.123139034579
 30
0.0
 11
6331.896575106966
 21
7099.952920982538
 31
0.0
  0
LINE
  5
18C64
330
18C60
100
AcDbEntity
  8
寸法
 62
     0
 48
50.0
370
    -2
100
AcDbLine
 10
5065.896575106966
 20
7159.952920982537
 30
0.0
 11
6331.896575106966
 21
7159.952920982537
 31
0.0
  0
INSERT
  5
18C65
330
18C60
100
AcDbEntity
  8
寸法
 62
     0
 48
50.0
370
    -2
100
AcDbBlockReference
  2
_DOTSMALL
 10
5065.896575106966
 20
7159.952920982537
 30
0.0
 41
100.0
 42
100.0
 43
100.0
 50
180.0
  0
INSERT
  5
18C66
330
18C60
100
AcDbEntity
  8
寸法
 62
     0
 48
50.0
370
    -2
100
AcDbBlockReference
  2
_DOTSMALL
 10
6331.896575106966
 20
7159.952920982537
 30
0.0
 41
100.0
 42
100.0
 43
100.0
  0
MTEXT
  5
18C67
330
18C60
100
AcDbEntity
  8
寸法
 62
     7
 48
50.0
100
AcDbMText
 10
5711.986008735934
 20
7359.964732006159
 30
0.0
 40
120.0
 41
0.0
 71
     5
 72
     1
  1
\A1;有効開口部間口\P1266
  7
STYLE1
 73
     1
 44
1.0
1001
ACAD
1000
MTEXTBEGIN
1070
    73
1070
     1
1070
    44
1040
1.0
1070
    74
1070
     0
1000
MTEXTEND
  0
POINT
  5
18C68
330
18C60
100
AcDbEntity
  8
DEFPOINTS
 62
     0
 48
50.0
100
AcDbPoint
 10
5065.896575106966
 20
7769.123139034579
 30
0.0
  0
POINT
  5
18C69
330
18C60
100
AcDbEntity
  8
DEFPOINTS
 62
     0
 48
50.0
100
AcDbPoint
 10
6331.896575106966
 20
7769.123139034579
 30
0.0
  0
POINT
  5
18C6A
330
18C60
100
AcDbEntity
  8
DEFPOINTS
 62
     0
 48
50.0
100
AcDbPoint
 10
6331.896575106966
 20
7159.952920982537
 30
0.0
  0
ENDBLK
  5
18C6B
330
18C60
100
AcDbEntity
  8
0
 48
50.0
100
AcDbBlockEnd
  0
BLOCK
  5
18C6D
330
18C6C
100
AcDbEntity
  8
0
 48
50.0
100
AcDbBlockBegin
  2
*D16
 70
     1
 10
0.0
 20
0.0
 30
0.0
  3
*D16
  1

  0
LINE
  5
18C6E
330
18C6C
100
AcDbEntity
  8
寸法
 62
     0
 48
50.0
370
    -2
100
AcDbLine
 10
7200.896575106966
 20
7846.123139034578
 30
0.0
 11
7457.192158500191
 21
7846.123139034578
 31
0.0
  0
LINE
  5
18C6F
330
18C6C
100
AcDbEntity
  8
寸法
 62
     0
 48
50.0
370
    -2
100
AcDbLine
 10
7199.896575106966
 20
7769.123139034579
 30
0.0
 11
7457.192158500191
 21
7769.123139034579
 31
0.0
  0
LINE
  5
18C70
330
18C6C
100
AcDbEntity
  8
寸法
 62
     0
 48
50.0
370
    -2
100
AcDbLine
 10
7417.192158500192
 20
7866.123139034579
 30
0.0
 11
7417.192158500192
 21
7886.123139034578
 31
0.0
  0
LINE
  5
18C71
330
18C6C
100
AcDbEntity
  8
寸法
 62
     0
 48
50.0
370
    -2
100
AcDbLine
 10
7417.192158500192
 20
7749.123139034579
 30
0.0
 11
7417.192158500192
 21
7533.123139034573
 31
0.0
  0
LINE
  5
18C72
330
18C6C
100
AcDbEntity
  8
寸法
 62
     0
 48
50.0
370
    -2
100
AcDbLine
 10
7417.192158500192
 20
7846.123139034578
 30
0.0
 11
7417.192158500192
 21
7769.123139034579
 31
0.0
  0
INSERT
  5
18C73
330
18C6C
100
AcDbEntity
  8
寸法
 62
     0
 48
50.0
370
    -2
100
AcDbBlockReference
  2
_DOT
 10
7417.192158500192
 20
7846.123139034578
 30
0.0
 41
20.0
 42
20.0
 43
20.0
 50
270.0
  0
INSERT
  5
18C74
330
18C6C
100
AcDbEntity
  8
寸法
 62
     0
 48
50.0
370
    -2
100
AcDbBlockReference
  2
_DOT
 10
7417.192158500192
 20
7769.123139034579
 30
0.0
 41
20.0
 42
20.0
 43
20.0
 50
90.0
  0
MTEXT
  5
18C75
330
18C6C
100
AcDbEntity
  8
寸法
 62
     7
 48
50.0
100
AcDbMText
 10
7325.192158500191
 20
7631.123139034575
 30
0.0
 40
120.0
 41
0.0
 71
     5
 72
     1
  1
\A1;77
  7
STYLE1
 11
0.0000000000000001
 21
1.0
 31
0.0
 73
     1
 44
1.0
1001
ACAD
1000
MTEXTBEGIN
1070
    73
1070
     1
1070
    44
1040
1.0
1070
    74
1070
     0
1000
MTEXTEND
  0
POINT
  5
18C76
330
18C6C
100
AcDbEntity
  8
DEFPOINTS
 62
     0
 48
50.0
100
AcDbPoint
 10
7180.896575106967
 20
7846.123139034578
 30
0.0
  0
POINT
  5
18C77
330
18C6C
100
AcDbEntity
  8
DEFPOINTS
 62
     0
 48
50.0
100
AcDbPoint
 10
7179.896575106965
 20
7769.123139034579
 30
0.0
  0
POINT
  5
18C78
330
18C6C
100
AcDbEntity
  8
DEFPOINTS
 62
     0
 48
50.0
100
AcDbPoint
 10
7417.192158500192
 20
7769.123139034579
 30
0.0
  0
ENDBLK
  5
18C79
330
18C6C
100
AcDbEntity
  8
0
 48
50.0
100
AcDbBlockEnd
  0
BLOCK
  5
18DA0
330
18C7A
100
AcDbEntity
  8
0
 48
50.0
100
AcDbBlockBegin
  2
A$C3B1A506B
 70
     0
 10
0.0
 20
0.0
 30
0.0
  3
A$C3B1A506B
  1

  0
MTEXT
  5
18C7B
330
18C7A
100
AcDbEntity
  8
寸法
 62
     7
 48
50.0
100
AcDbMText
 10
3342.250386887194
 20
2778.329429134012
 30
0.0
 40
96.0
 41
0.0
 71
     5
 72
     1
  1
棚 2段
  7
STYLE1
 73
     1
 44
1.0
1001
ACAD
1000
MTEXTBEGIN
1070
    73
1070
     1
1070
    44
1040
1.0
1070
    74
1070
     0
1000
MTEXTEND
  0
MTEXT
  5
18C7C
330
18C7A
100
AcDbEntity
  8
寸法
 62
     7
 48
50.0
100
AcDbMText
 10
2167.25038688716
 20
2778.329429133986
 30
0.0
 40
96.0
 41
0.0
 71
     5
 72
     1
  1
棚 2段
  7
STYLE1
 73
     1
 44
1.0
1001
ACAD
1000
MTEXTBEGIN
1070
    73
1070
     1
1070
    44
1040
1.0
1070
    74
1070
     0
1000
MTEXTEND
  0
MTEXT
  5
18C7D
330
18C7A
100
AcDbEntity
  8
寸法
 62
     7
 48
50.0
100
AcDbMText
 10
992.2503868871608
 20
2778.329429133935
 30
0.0
 40
96.0
 41
0.0
 71
     5
 72
     1
  1
棚 2段
  7
STYLE1
 73
     1
 44
1.0
1001
ACAD
1000
MTEXTBEGIN
1070
    73
1070
     1
1070
    44
1040
1.0
1070
    74
1070
     0
1000
MTEXTEND
  0
LINE
  5
18C7E
330
18C7A
100
AcDbEntity
  8
細線
 48
50.0
100
AcDbLine
 10
2771.970589276527
 20
1368.994384123192
 30
0.0
 11
3398.970589276523
 21
1368.994384123192
 31
0.0
  0
LINE
  5
18C7F
330
18C7A
100
AcDbEntity
  8
細線
 48
50.0
100
AcDbLine
 10
2117.970593930113
 20
1335.285615569113
 30
0.0
 11
3398.970589276523
 21
1335.285615569113
 31
0.0
  0
LINE
  5
18C80
330
18C7A
100
AcDbEntity
  8
細線
 48
50.0
100
AcDbLine
 10
2076.970593930115
 20
1364.690523565368
 30
0.0
 11
1322.970589276523
 21
1364.690523565367
 31
0.0
  0
LINE
  5
18C81
330
18C7A
100
AcDbEntity
  8
細線
100
AcDbLine
 10
3170.720579860066
 20
1388.494284088199
 30
0.0
 11
3173.052119381877
 21
1393.494286728162
 31
0.0
  0
LINE
  5
18C82
330
18C7A
100
AcDbEntity
  8
細線
100
AcDbLine
 10
3240.720589276525
 20
1388.494269174465
 30
0.0
 11
3238.389042800336
 21
1393.494286728144
 31
0.0
  0
LINE
  5
18C83
330
18C7A
100
AcDbEntity
  8
細線
100
AcDbLine
 10
3238.389042800336
 20
1393.494286728144
 30
0.0
 11
3173.052119381862
 21
1393.494286728133
 31
0.0
  0
LINE
  5
18C84
330
18C7A
100
AcDbEntity
  8
細線
100
AcDbLine
 10
3098.389042800336
 20
1393.494286728144
 30
0.0
 11
3033.052119381862
 21
1393.494286728133
 31
0.0
  0
LINE
  5
18C85
330
18C7A
100
AcDbEntity
  8
細線
100
AcDbLine
 10
3100.720589276523
 20
1388.494269174465
 30
0.0
 11
3098.389042800336
 21
1393.494286728144
 31
0.0
  0
LINE
  5
18C86
330
18C7A
100
AcDbEntity
  8
細線
100
AcDbLine
 10
3030.720579860066
 20
1388.494284088199
 30
0.0
 11
3033.052119381875
 21
1393.494286728162
 31
0.0
  0
LINE
  5
18C87
330
18C7A
100
AcDbEntity
  8
細線
100
AcDbLine
 10
2890.720589276525
 20
1388.494269174465
 30
0.0
 11
2893.052128798336
 21
1393.494271814428
 31
0.0
  0
LINE
  5
18C88
330
18C7A
100
AcDbEntity
  8
細線
100
AcDbLine
 10
2960.720598692984
 20
1388.494254260731
 30
0.0
 11
2958.389052216793
 21
1393.49427181441
 31
0.0
  0
LINE
  5
18C89
330
18C7A
100
AcDbEntity
  8
細線
100
AcDbLine
 10
2958.389052216795
 20
1393.49427181441
 30
0.0
 11
2893.052128798321
 21
1393.494271814399
 31
0.0
  0
LINE
  5
18C8A
330
18C7A
100
AcDbEntity
  8
細線
100
AcDbLine
 10
2667.139038146739
 20
1359.494298590735
 30
0.0
 11
2601.802114728263
 21
1359.494298590724
 31
0.0
  0
LINE
  5
18C8B
330
18C7A
100
AcDbEntity
  8
細線
100
AcDbLine
 10
2669.470584622926
 20
1354.494281037055
 30
0.0
 11
2667.139038146737
 21
1359.494298590735
 31
0.0
  0
LINE
  5
18C8C
330
18C7A
100
AcDbEntity
  8
細線
100
AcDbLine
 10
2599.470575206469
 20
1354.49429595079
 30
0.0
 11
2601.802114728278
 21
1359.494298590752
 31
0.0
  0
LINE
  5
18C8D
330
18C7A
100
AcDbEntity
  8
細線
 48
50.0
100
AcDbLine
 10
2440.853968524536
 20
1372.765132327548
 30
0.0
 11
2446.609486107205
 21
1354.494281037057
 31
0.0
  0
LINE
  5
18C8E
330
18C7A
100
AcDbEntity
  8
細線
 48
50.0
100
AcDbLine
 10
2429.925520044106
 20
1372.765132327546
 30
0.0
 11
2440.853968524536
 21
1372.765132327548
 31
0.0
  0
ARC
  5
18C8F
330
18C7A
100
AcDbEntity
  8
細線
 48
50.0
100
AcDbCircle
 10
2424.471163986787
 20
1374.265132327546
 30
0.0
 40
5.0
100
AcDbArc
 50
204.6243183520723
 51
335.3756816479278
  0
ARC
  5
18C90
330
18C7A
100
AcDbEntity
  8
細線
 48
50.0
100
AcDbCircle
 10
2429.925520044106
 20
1371.765132327546
 30
0.0
 40
1.0
100
AcDbArc
 50
90.0
 51
155.3756816479277
  0
ARC
  5
18C91
330
18C7A
100
AcDbEntity
  8
細線
 48
50.0
100
AcDbCircle
 10
2419.016807929469
 20
1371.765132327546
 30
0.0
 40
1.0
100
AcDbArc
 50
24.62431835207225
 51
90.0
  0
LINE
  5
18C92
330
18C7A
100
AcDbEntity
  8
細線
 48
50.0
100
AcDbLine
 10
2408.088359449037
 20
1372.765132327548
 30
0.0
 11
2419.016807929469
 21
1372.765132327546
 31
0.0
  0
LINE
  5
18C93
330
18C7A
100
AcDbEntity
  8
細線
 48
50.0
100
AcDbLine
 10
2402.33284186637
 20
1354.494281037054
 30
0.0
 11
2408.088359449037
 21
1372.765132327548
 31
0.0
  0
LINE
  5
18C94
330
18C7A
100
AcDbEntity
  8
細線
100
AcDbLine
 10
2458.070304175992
 20
1354.494278397076
 30
0.0
 11
2460.401843697802
 21
1359.494281037039
 31
0.0
  0
LINE
  5
18C95
330
18C7A
100
AcDbEntity
  8
細線
100
AcDbLine
 10
2528.070313592451
 20
1354.494263483342
 30
0.0
 11
2525.738767116262
 21
1359.494281037021
 31
0.0
  0
LINE
  5
18C96
330
18C7A
100
AcDbEntity
  8
細線
100
AcDbLine
 10
2525.738767116262
 20
1359.494281037021
 30
0.0
 11
2460.40184369779
 21
1359.49428103701
 31
0.0
  0
LINE
  5
18C97
330
18C7A
100
AcDbEntity
  8
細線
100
AcDbLine
 10
2387.139046332155
 20
1359.494281037021
 30
0.0
 11
2321.80212291368
 21
1359.49428103701
 31
0.0
  0
LINE
  5
18C98
330
18C7A
100
AcDbEntity
  8
細線
100
AcDbLine
 10
2389.470592808342
 20
1354.494263483342
 30
0.0
 11
2387.139046332153
 21
1359.494281037021
 31
0.0
  0
LINE
  5
18C99
330
18C7A
100
AcDbEntity
  8
細線
100
AcDbLine
 10
2319.470584622926
 20
1354.494281037054
 30
0.0
 11
2321.802122913694
 21
1359.494281037039
 31
0.0
  0
LINE
  5
18C9A
330
18C7A
100
AcDbEntity
  8
細線
100
AcDbLine
 10
2179.47061994182
 20
1354.494289224422
 30
0.0
 11
2181.802158232587
 21
1359.494289224407
 31
0.0
  0
LINE
  5
18C9B
330
18C7A
100
AcDbEntity
  8
細線
100
AcDbLine
 10
2249.470628127236
 20
1354.49427167071
 30
0.0
 11
2247.139081651047
 21
1359.494289224389
 31
0.0
  0
LINE
  5
18C9C
330
18C7A
100
AcDbEntity
  8
細線
100
AcDbLine
 10
2247.139081651047
 20
1359.494289224389
 30
0.0
 11
2181.802158232573
 21
1359.494289224378
 31
0.0
  0
LINE
  5
18C9D
330
18C7A
100
AcDbEntity
  8
細線
100
AcDbLine
 10
1807.970585744697
 20
1320.494460905133
 30
0.0
 11
1810.302124035464
 21
1325.494460905118
 31
0.0
  0
LINE
  5
18C9E
330
18C7A
100
AcDbEntity
  8
細線
100
AcDbLine
 10
1877.970593930113
 20
1320.494443351421
 30
0.0
 11
1875.639047453926
 21
1325.4944609051
 31
0.0
  0
LINE
  5
18C9F
330
18C7A
100
AcDbEntity
  8
細線
100
AcDbLine
 10
1875.639047453926
 20
1325.4944609051
 30
0.0
 11
1810.302124035452
 21
1325.494460905089
 31
0.0
  0
LINE
  5
18CA0
330
18C7A
100
AcDbEntity
  8
細線
100
AcDbLine
 10
2015.639047453926
 20
1325.4944609051
 30
0.0
 11
1950.302124035452
 21
1325.494460905089
 31
0.0
  0
LINE
  5
18CA1
330
18C7A
100
AcDbEntity
  8
細線
100
AcDbLine
 10
2017.970593930113
 20
1320.494443351421
 30
0.0
 11
2015.639047453924
 21
1325.4944609051
 31
0.0
  0
LINE
  5
18CA2
330
18C7A
100
AcDbEntity
  8
細線
100
AcDbLine
 10
1947.970585744697
 20
1320.494460905133
 30
0.0
 11
1950.302124035465
 21
1325.494460905118
 31
0.0
  0
LINE
  5
18CA3
330
18C7A
100
AcDbEntity
  8
細線
100
AcDbLine
 10
1735.639047453926
 20
1325.494460905098
 30
0.0
 11
1670.302124035454
 21
1325.494460905087
 31
0.0
  0
LINE
  5
18CA4
330
18C7A
100
AcDbEntity
  8
細線
100
AcDbLine
 10
1737.970593930113
 20
1320.494443351419
 30
0.0
 11
1735.639047453926
 21
1325.494460905098
 31
0.0
  0
LINE
  5
18CA5
330
18C7A
100
AcDbEntity
  8
細線
100
AcDbLine
 10
1667.970585744697
 20
1320.494460905131
 30
0.0
 11
1670.302124035465
 21
1325.494460905116
 31
0.0
  0
LINE
  5
18CA6
330
18C7A
100
AcDbEntity
  8
細線
100
AcDbLine
 10
1527.970593930113
 20
1320.494460905133
 30
0.0
 11
1530.302132220881
 21
1325.494460905118
 31
0.0
  0
LINE
  5
18CA7
330
18C7A
100
AcDbEntity
  8
細線
100
AcDbLine
 10
1597.970602115529
 20
1320.494443351421
 30
0.0
 11
1595.639055639342
 21
1325.4944609051
 31
0.0
  0
LINE
  5
18CA8
330
18C7A
100
AcDbEntity
  8
細線
100
AcDbLine
 10
1595.639055639342
 20
1325.4944609051
 30
0.0
 11
1530.302132220869
 21
1325.494460905089
 31
0.0
  0
ARC
  5
18CA9
330
18C7A
100
AcDbEntity
  8
部品1
 48
0.01
100
AcDbCircle
 10
1483.470482677778
 20
1319.493338720063
 30
0.0
 40
0.5
100
AcDbArc
 50
270.0
 51
0.0
  0
LINE
  5
18CAA
330
18C7A
100
AcDbEntity
  8
部品1
 48
0.01
100
AcDbLine
 10
1483.970482677778
 20
1320.493338720063
 30
0.0
 11
1483.970482677778
 21
1319.493338720063
 31
0.0
  0
LINE
  5
18CAB
330
18C7A
100
AcDbEntity
  8
部品1
 48
0.01
100
AcDbLine
 10
1483.970482677778
 20
1320.493338720063
 30
0.0
 11
1483.970482677778
 21
1319.493338720063
 31
0.0
  0
LINE
  5
18CAC
330
18C7A
100
AcDbEntity
  8
部品1
 48
0.01
100
AcDbLine
 10
1483.470482677778
 20
1318.993338720063
 30
0.0
 11
1476.857977247713
 21
1318.993338720062
 31
0.0
  0
ARC
  5
18CAD
330
18C7A
100
AcDbEntity
  8
部品1
100
AcDbCircle
 10
1476.926326800494
 20
1319.993338720062
 30
0.0
 40
1.0
100
AcDbArc
 50
160.5287793655865
 51
270.0
  0
ARC
  5
18CAE
330
18C7A
100
AcDbEntity
  8
部品1
100
AcDbCircle
 10
1451.470482677778
 20
1328.993338720062
 30
0.0
 40
26.0
100
AcDbArc
 50
340.5287793655865
 51
0.0
  0
LINE
  5
18CAF
330
18C7A
100
AcDbEntity
  8
部品1
100
AcDbLine
 10
1477.470482677778
 20
1328.993338720062
 30
0.0
 11
1477.470482677778
 21
1333.993338720061
 31
0.0
  0
ARC
  5
18CB0
330
18C7A
100
AcDbEntity
  8
部品1
 48
0.01
100
AcDbCircle
 10
1475.470482677778
 20
1333.993338720061
 30
0.0
 40
2.0
100
AcDbArc
 50
0.0
 51
90.0
  0
ARC
  5
18CB1
330
18C7A
100
AcDbEntity
  8
部品1
100
AcDbCircle
 10
1473.862091052968
 20
1332.993338720062
 30
0.0
 40
3.0
100
AcDbArc
 50
90.0
 51
141.6069559808035
  0
LINE
  5
18CB2
330
18C7A
100
AcDbEntity
  8
部品1
 48
0.01
100
AcDbLine
 10
1475.470482677778
 20
1335.993338720062
 30
0.0
 11
1473.862091052968
 21
1335.993338720062
 31
0.0
  0
ARC
  5
18CB3
330
18C7A
100
AcDbEntity
  8
部品1
100
AcDbCircle
 10
1455.399768463507
 20
1332.293338720065
 30
0.0
 40
3.0
100
AcDbArc
 50
254.0576313943215
 51
270.0
  0
ARC
  5
18CB4
330
18C7A
100
AcDbEntity
  8
部品1
100
AcDbCircle
 10
1462.541196892049
 20
1332.293338720065
 30
0.0
 40
3.0
100
AcDbArc
 50
270.0
 51
285.9423686056786
  0
LINE
  5
18CB5
330
18C7A
100
AcDbEntity
  8
部品1
100
AcDbLine
 10
1462.541196892049
 20
1329.293338720064
 30
0.0
 11
1455.399768463507
 21
1329.293338720064
 31
0.0
  0
ARC
  5
18CB6
330
18C7A
100
AcDbEntity
  8
部品1
100
AcDbCircle
 10
1458.970482677778
 20
1344.793338720065
 30
0.0
 40
16.0
100
AcDbArc
 50
285.9423686056786
 51
321.6069559808035
  0
LINE
  5
18CB7
330
18C7A
100
AcDbEntity
  8
部品1
 48
0.01
100
AcDbLine
 10
1442.470482677778
 20
1335.993338720062
 30
0.0
 11
1444.078874302588
 21
1335.993338720062
 31
0.0
  0
ARC
  5
18CB8
330
18C7A
100
AcDbEntity
  8
部品1
100
AcDbCircle
 10
1444.078874302588
 20
1332.993338720062
 30
0.0
 40
3.0
100
AcDbArc
 50
38.39304401919648
 51
90.0
  0
ARC
  5
18CB9
330
18C7A
100
AcDbEntity
  8
部品1
100
AcDbCircle
 10
1458.970482677778
 20
1344.793338720065
 30
0.0
 40
16.0
100
AcDbArc
 50
218.3930440191965
 51
254.0576313943215
  0
LINE
  5
18CBA
330
18C7A
100
AcDbEntity
  8
部品1
100
AcDbLine
 10
1440.470482677778
 20
1328.993338720062
 30
0.0
 11
1440.470482677778
 21
1333.993338720061
 31
0.0
  0
ARC
  5
18CBB
330
18C7A
100
AcDbEntity
  8
部品1
 48
0.01
100
AcDbCircle
 10
1442.470482677778
 20
1333.993338720061
 30
0.0
 40
2.0
100
AcDbArc
 50
90.0
 51
180.0
  0
ARC
  5
18CBC
330
18C7A
100
AcDbEntity
  8
部品1
100
AcDbCircle
 10
1466.470482677778
 20
1328.993338720062
 30
0.0
 40
26.0
100
AcDbArc
 50
180.0
 51
199.4712206344134
  0
ARC
  5
18CBD
330
18C7A
100
AcDbEntity
  8
部品1
 48
0.01
100
AcDbCircle
 10
1434.470482677778
 20
1319.493338720063
 30
0.0
 40
0.5
100
AcDbArc
 50
180.0
 51
270.0
  0
LINE
  5
18CBE
330
18C7A
100
AcDbEntity
  8
部品1
 48
0.01
100
AcDbLine
 10
1434.470482677778
 20
1318.993338720063
 30
0.0
 11
1441.014638555061
 21
1318.993338720062
 31
0.0
  0
LINE
  5
18CBF
330
18C7A
100
AcDbEntity
  8
部品1
 48
0.01
100
AcDbLine
 10
1433.970482677778
 20
1320.493338720063
 30
0.0
 11
1433.970482677778
 21
1319.493338720063
 31
0.0
  0
ARC
  5
18CC0
330
18C7A
100
AcDbEntity
  8
部品1
100
AcDbCircle
 10
1441.014638555061
 20
1319.993338720062
 30
0.0
 40
1.0
100
AcDbArc
 50
270.0
 51
19.47122063441346
  0
LINE
  5
18CC1
330
18C7A
100
AcDbEntity
  8
細線
100
AcDbLine
 10
1479.470482677785
 20
1338.493338720065
 30
0.0
 11
1438.470482677785
 21
1338.493338720058
 31
0.0
  0
LINE
  5
18CC2
330
18C7A
100
AcDbEntity
  8
細線
100
AcDbLine
 10
1438.470482677785
 20
1338.493338720058
 30
0.0
 11
1438.470482677785
 21
1320.49333872004
 31
0.0
  0
LINE
  5
18CC3
330
18C7A
100
AcDbEntity
  8
細線
100
AcDbLine
 10
1479.470482677785
 20
1338.493338720065
 30
0.0
 11
1479.470482677785
 21
1320.49333872004
 31
0.0
  0
LINE
  5
18CC4
330
18C7A
100
AcDbEntity
  8
細線
100
AcDbLine
 10
1322.970589276523
 20
1324.494269174465
 30
0.0
 11
1322.970589276523
 21
1320.494269174513
 31
0.0
  0
LINE
  5
18CC5
330
18C7A
100
AcDbEntity
  8
寸法
 48
50.0
100
AcDbLine
 10
1746.17359555837
 20
1170.531020743327
 30
0.0
 11
1694.767587648266
 21
1170.531020743327
 31
0.0
  0
LINE
  5
18CC6
330
18C7A
100
AcDbEntity
  8
寸法
 48
50.0
100
AcDbLine
 10
1694.767587648266
 20
1170.531020743327
 30
0.0
 11
1694.767587648266
 21
1201.841179395494
 31
0.0
  0
LINE
  5
18CC7
330
18C7A
100
AcDbEntity
  8
寸法
 48
50.0
100
AcDbLine
 10
1694.767587648266
 20
1201.841179395494
 30
0.0
 11
1665.006255656843
 21
1201.841179395494
 31
0.0
  0
LINE
  5
18CC8
330
18C7A
100
AcDbEntity
  8
寸法
 48
50.0
100
AcDbLine
 10
1665.006255656843
 20
1201.841179395494
 30
0.0
 11
1720.470591603318
 21
1239.420630324105
 31
0.0
  0
LINE
  5
18CC9
330
18C7A
100
AcDbEntity
  8
寸法
 48
50.0
100
AcDbLine
 10
1775.934927549793
 20
1201.841179395494
 30
0.0
 11
1720.470591603318
 21
1239.420630324105
 31
0.0
  0
LINE
  5
18CCA
330
18C7A
100
AcDbEntity
  8
寸法
 48
50.0
100
AcDbLine
 10
1746.17359555837
 20
1201.841179395494
 30
0.0
 11
1775.934927549793
 21
1201.841179395494
 31
0.0
  0
LINE
  5
18CCB
330
18C7A
100
AcDbEntity
  8
寸法
 48
50.0
100
AcDbLine
 10
1746.17359555837
 20
1170.531020743327
 30
0.0
 11
1746.17359555837
 21
1201.841179395494
 31
0.0
  0
LINE
  5
18CCC
330
18C7A
100
AcDbEntity
  8
寸法
 48
50.0
100
AcDbLine
 10
1694.767587648266
 20
1170.531020743327
 30
0.0
 11
1746.17359555837
 21
1170.531020743327
 31
0.0
  0
LINE
  5
18CCD
330
18C7A
100
AcDbEntity
  8
寸法
 48
50.0
100
AcDbLine
 10
2025.339129835225
 20
1227.676611498152
 30
0.0
 11
2025.339129835225
 21
1174.01297691636
 31
0.0
  0
LINE
  5
18CCE
330
18C7A
100
AcDbEntity
  8
寸法
 48
50.0
100
AcDbLine
 10
2114.623348430647
 20
1203.752977228664
 30
0.0
 11
2025.339129835225
 21
1227.676611498152
 31
0.0
  0
LINE
  5
18CCF
330
18C7A
100
AcDbEntity
  8
寸法
 48
50.0
100
AcDbLine
 10
1895.471408254923
 20
1203.752977228664
 30
0.0
 11
2114.623348430647
 21
1203.752977228664
 31
0.0
  0
DIMENSION
  5
18CD0
330
18C7A
100
AcDbEntity
  8
寸法
 48
50.0
100
AcDbDimension
  2
*D15
 10
2588.970589276523
 20
706.3240511224249
 30
0.0
 11
1969.060022905491
 21
706.3240511224249
 31
0.0
 12
-3742.925985830444
 22
-6453.628869860112
 32
0.0
 70
   128
  1
有効開口部間口\P<>
 71
     5
 42
1266.0
  3
INABA_S40G
100
AcDbAlignedDimension
 13
1322.970589276523
 23
1315.494269174465
 33
0.0
 14
2588.970589276523
 24
1315.494269174465
 34
0.0
100
AcDbRotatedDimension
1001
ACAD
1000
DSTYLE
1002
{
1070
   341
1005
0
1002
}
  0
LINE
  5
18CD1
330
18C7A
100
AcDbEntity
  8
部品1
100
AcDbLine
 10
3409.970589276524
 20
1392.494269174465
 30
0.0
 11
3437.970589276523
 21
1392.494269174465
 31
0.0
  0
DIMENSION
  5
18CD2
330
18C7A
100
AcDbEntity
  8
寸法
100
AcDbDimension
  2
*D16
 10
3674.266172669749
 20
1315.494269174465
 30
0.0
 11
3674.266172669748
 21
1177.494269174462
 31
0.0
 12
-3742.925985830444
 22
-6453.628869860112
 32
0.0
 70
   128
 71
     5
 42
77.0
  3
INABA_S40
100
AcDbAlignedDimension
 13
3437.970589276523
 23
1392.494269174465
 33
0.0
 14
3436.970589276523
 24
1315.494269174465
 34
0.0
 50
90.0
100
AcDbRotatedDimension
1001
ACAD
1000
DSTYLE
1002
{
1070
    41
1040
0.5
1070
    44
1040
1.0
1070
   147
1040
0.8
1070
   271
1070
     2
1070
   272
1070
     2
1070
   289
1070
     3
1070
   340
1005
F706
1070
   343
1005
164B4
1070
   344
1005
164B4
1002
}
  0
LINE
  5
18CD3
330
18C7A
100
AcDbEntity
  8
部品1
100
AcDbLine
 10
3437.970589276523
 20
1315.494269174465
 30
0.0
 11
3437.970589276523
 21
1392.494269174465
 31
0.0
  0
LINE
  5
18CD4
330
18C7A
100
AcDbEntity
  8
部品1
100
AcDbLine
 10
3398.970589276523
 20
1388.494269174465
 30
0.0
 11
3409.970589276524
 21
1388.494269174465
 31
0.0
  0
LINE
  5
18CD5
330
18C7A
100
AcDbEntity
  8
部品1
100
AcDbLine
 10
3407.970589276523
 20
1324.494269174465
 30
0.0
 11
3407.970589276523
 21
1315.494269174465
 31
0.0
  0
LINE
  5
18CD6
330
18C7A
100
AcDbEntity
  8
部品1
100
AcDbLine
 10
3398.970589276523
 20
1324.494269174465
 30
0.0
 11
3407.970589276523
 21
1324.494269174465
 31
0.0
  0
LINE
  5
18CD7
330
18C7A
100
AcDbEntity
  8
部品1
100
AcDbLine
 10
3398.970589276523
 20
1388.494269174465
 30
0.0
 11
3398.970589276523
 21
1324.494269174465
 31
0.0
  0
LINE
  5
18CD8
330
18C7A
100
AcDbEntity
  8
部品1
100
AcDbLine
 10
3409.970589276524
 20
1419.494269174465
 30
0.0
 11
3409.970589276524
 21
1388.494269174465
 31
0.0
  0
LINE
  5
18CD9
330
18C7A
100
AcDbEntity
  8
部品1
100
AcDbLine
 10
1322.970589276523
 20
1388.494269174465
 30
0.0
 11
1311.970589276523
 21
1388.494269174465
 31
0.0
  0
LINE
  5
18CDA
330
18C7A
100
AcDbEntity
  8
部品1
100
AcDbLine
 10
1283.970589276523
 20
1392.494269174465
 30
0.0
 11
1311.970589276523
 21
1392.494269174465
 31
0.0
  0
LINE
  5
18CDB
330
18C7A
100
AcDbEntity
  8
部品1
100
AcDbLine
 10
1313.970589276523
 20
1324.494269174465
 30
0.0
 11
1313.970589276523
 21
1315.494269174465
 31
0.0
  0
LINE
  5
18CDC
330
18C7A
100
AcDbEntity
  8
部品1
100
AcDbLine
 10
1322.970589276523
 20
1324.494269174465
 30
0.0
 11
1313.970589276523
 21
1324.494269174465
 31
0.0
  0
LINE
  5
18CDD
330
18C7A
100
AcDbEntity
  8
部品1
100
AcDbLine
 10
1313.970589276523
 20
1315.494269174465
 30
0.0
 11
1283.970589276523
 21
1315.494269174465
 31
0.0
  0
LINE
  5
18CDE
330
18C7A
100
AcDbEntity
  8
部品1
100
AcDbLine
 10
1283.970589276523
 20
1315.494269174465
 30
0.0
 11
1283.970589276523
 21
1392.494269174465
 31
0.0
  0
LINE
  5
18CDF
330
18C7A
100
AcDbEntity
  8
部品1
100
AcDbLine
 10
1322.970589276523
 20
1388.494269174465
 30
0.0
 11
1322.970589276523
 21
1324.494269174465
 31
0.0
  0
LINE
  5
18CE0
330
18C7A
100
AcDbEntity
  8
部品1
100
AcDbLine
 10
1311.970589276523
 20
1419.494269174462
 30
0.0
 11
1311.970589276523
 21
1388.494269174465
 31
0.0
  0
LINE
  5
18CE1
330
18C7A
100
AcDbEntity
  8
部品1
100
AcDbLine
 10
1311.970589276523
 20
1419.494269174462
 30
0.0
 11
3409.970589276524
 21
1419.494269174465
 31
0.0
  0
LINE
  5
18CE2
330
18C7A
100
AcDbEntity
  8
部品1
100
AcDbLine
 10
3407.970589276523
 20
1315.494269174465
 30
0.0
 11
3437.970589276523
 21
1315.494269174465
 31
0.0
  0
LINE
  5
18CE3
330
18C7A
100
AcDbEntity
  8
部品1
100
AcDbLine
 10
1313.970589276523
 20
1315.494269174465
 30
0.0
 11
3410.970589276523
 21
1315.494269174465
 31
0.0
  0
LINE
  5
18CE4
330
18C7A
100
AcDbEntity
  8
細線
  6
Continuous
 62
     5
100
AcDbLine
 10
2689.970589276527
 20
1354.494269174462
 30
0.0
 11
2689.970589276527
 21
1354.494269174462
 31
0.0
  0
LINE
  5
18CE5
330
18C7A
100
AcDbEntity
  8
細線
  6
Continuous
 62
     5
100
AcDbLine
 10
2682.470589276527
 20
1354.494269174462
 30
0.0
 11
2682.470589276527
 21
1354.494269174462
 31
0.0
  0
LINE
  5
18CE6
330
18C7A
100
AcDbEntity
  8
細線
  6
Continuous
 62
     5
100
AcDbLine
 10
2676.470589276527
 20
1354.494269174462
 30
0.0
 11
2676.470589276527
 21
1354.494269174462
 31
0.0
  0
LINE
  5
18CE7
330
18C7A
100
AcDbEntity
  8
細線
  6
Continuous
 62
     5
100
AcDbLine
 10
2743.970589276527
 20
1373.494269174462
 30
0.0
 11
2743.970589276527
 21
1373.494269174462
 31
0.0
  0
LINE
  5
18CE8
330
18C7A
100
AcDbEntity
  8
細線
 48
50.0
100
AcDbLine
 10
1336.970593930116
 20
1341.094443351418
 30
0.0
 11
1336.970593930113
 21
1349.490593759059
 31
0.0
  0
LINE
  5
18CE9
330
18C7A
100
AcDbEntity
  8
細線
 48
50.0
100
AcDbLine
 10
1336.970593930113
 20
1349.490593759059
 30
0.0
 11
1322.970589276523
 21
1349.490593759057
 31
0.0
  0
LINE
  5
18CEA
330
18C7A
100
AcDbEntity
  8
細線
 48
50.0
100
AcDbLine
 10
2087.970593930113
 20
1337.644443351419
 30
0.0
 11
2087.970593930113
 21
1342.494443351421
 31
0.0
  0
LINE
  5
18CEB
330
18C7A
100
AcDbEntity
  8
細線
 48
50.0
100
AcDbLine
 10
2087.970593930113
 20
1342.494443351421
 30
0.0
 11
2102.970593930113
 21
1342.494443351421
 31
0.0
  0
LINE
  5
18CEC
330
18C7A
100
AcDbEntity
  8
細線
 48
50.0
100
AcDbLine
 10
2102.970593930113
 20
1342.494443351421
 30
0.0
 11
2102.970593930115
 21
1349.494443351419
 31
0.0
  0
LINE
  5
18CED
330
18C7A
100
AcDbEntity
  8
細線
 48
50.0
100
AcDbLine
 10
2102.970593930115
 20
1349.494443351419
 30
0.0
 11
2117.970593930113
 21
1349.494443351419
 31
0.0
  0
LINE
  5
18CEE
330
18C7A
100
AcDbEntity
  8
細線
 48
50.0
100
AcDbLine
 10
2117.970593930113
 20
1349.494443351419
 30
0.0
 11
2117.970593930113
 21
1320.494443351421
 31
0.0
  0
LINE
  5
18CEF
330
18C7A
100
AcDbEntity
  8
細線
 48
50.0
100
AcDbLine
 10
1313.970589276523
 20
1320.491777694889
 30
0.0
 11
1527.970593930113
 21
1320.494460905133
 31
0.0
  0
LINE
  5
18CF0
330
18C7A
100
AcDbEntity
  8
細線
 48
50.0
100
AcDbLine
 10
2017.970593930113
 20
1320.494443351421
 30
0.0
 11
2117.970593930113
 21
1320.494443351421
 31
0.0
  0
LINE
  5
18CF1
330
18C7A
100
AcDbEntity
  8
細線
 48
50.0
100
AcDbLine
 10
1737.970593930113
 20
1320.494443351419
 30
0.0
 11
1807.970593930113
 21
1320.494443351423
 31
0.0
  0
LINE
  5
18CF2
330
18C7A
100
AcDbEntity
  8
細線
 48
50.0
100
AcDbLine
 10
1750.832558942642
 20
1320.494443351419
 30
0.0
 11
1756.588076525309
 21
1338.765294641913
 31
0.0
  0
LINE
  5
18CF3
330
18C7A
100
AcDbEntity
  8
細線
 48
50.0
100
AcDbLine
 10
1756.588076525309
 20
1338.765294641913
 30
0.0
 11
1767.516525005743
 21
1338.765294641911
 31
0.0
  0
ARC
  5
18CF4
330
18C7A
100
AcDbEntity
  8
細線
 48
50.0
100
AcDbCircle
 10
1767.516525005743
 20
1337.765294641911
 30
0.0
 40
1.0
100
AcDbArc
 50
24.62431835207225
 51
90.0
  0
ARC
  5
18CF5
330
18C7A
100
AcDbEntity
  8
細線
 48
50.0
100
AcDbCircle
 10
1778.425237120377
 20
1337.765294641911
 30
0.0
 40
1.0
100
AcDbArc
 50
90.0
 51
155.3756816479277
  0
ARC
  5
18CF6
330
18C7A
100
AcDbEntity
  8
細線
 48
50.0
100
AcDbCircle
 10
1772.970881063058
 20
1340.265294641911
 30
0.0
 40
5.0
100
AcDbArc
 50
204.6243183520723
 51
335.3756816479278
  0
LINE
  5
18CF7
330
18C7A
100
AcDbEntity
  8
細線
 48
50.0
100
AcDbLine
 10
1778.425237120377
 20
1338.765294641911
 30
0.0
 11
1789.35368560081
 21
1338.765294641913
 31
0.0
  0
LINE
  5
18CF8
330
18C7A
100
AcDbEntity
  8
細線
 48
50.0
100
AcDbLine
 10
1789.35368560081
 20
1338.765294641913
 30
0.0
 11
1795.109203183478
 21
1320.494443351423
 31
0.0
  0
LINE
  5
18CF9
330
18C7A
100
AcDbEntity
  8
細線
 48
50.0
100
AcDbLine
 10
2087.970593930113
 20
1341.094443351419
 30
0.0
 11
1336.970593930116
 21
1341.094443351418
 31
0.0
  0
LINE
  5
18CFA
330
18C7A
100
AcDbEntity
  8
細線
 48
50.0
100
AcDbLine
 10
1947.970593930113
 20
1320.494443351421
 30
0.0
 11
1877.970593930113
 21
1320.494443351421
 31
0.0
  0
LINE
  5
18CFB
330
18C7A
100
AcDbEntity
  8
細線
100
AcDbLine
 10
1667.970593930113
 20
1320.494443351421
 30
0.0
 11
1597.970602115529
 21
1320.494443351421
 31
0.0
  0
LINE
  5
18CFC
330
18C7A
100
AcDbEntity
  8
細線
 48
50.0
100
AcDbLine
 10
2741.970584622936
 20
1375.094487209288
 30
0.0
 11
2106.970593930113
 21
1375.094487209284
 31
0.0
  0
LINE
  5
18CFD
330
18C7A
100
AcDbEntity
  8
細線
 48
50.0
100
AcDbLine
 10
2106.970593930113
 20
1371.990637616925
 30
0.0
 11
2106.970593930113
 21
1376.490637616925
 31
0.0
  0
LINE
  5
18CFE
330
18C7A
100
AcDbEntity
  8
細線
 48
50.0
100
AcDbLine
 10
2106.970593930113
 20
1376.490637616925
 30
0.0
 11
2091.970593930113
 21
1376.490637616925
 31
0.0
  0
LINE
  5
18CFF
330
18C7A
100
AcDbEntity
  8
細線
 48
50.0
100
AcDbLine
 10
2091.970593930113
 20
1376.490637616925
 30
0.0
 11
2091.970593930113
 21
1383.490637616927
 31
0.0
  0
LINE
  5
18D00
330
18C7A
100
AcDbEntity
  8
細線
 48
50.0
100
AcDbLine
 10
2091.970593930113
 20
1383.490637616927
 30
0.0
 11
2076.970593930115
 21
1383.490637616924
 31
0.0
  0
LINE
  5
18D01
330
18C7A
100
AcDbEntity
  8
細線
 48
50.0
100
AcDbLine
 10
2076.970593930115
 20
1383.490637616924
 30
0.0
 11
2076.970593930115
 21
1345.890409513813
 31
0.0
  0
LINE
  5
18D02
330
18C7A
100
AcDbEntity
  8
細線
 48
50.0
100
AcDbLine
 10
2076.970593930115
 20
1345.890409513813
 30
0.0
 11
2096.970601231289
 21
1345.890451063353
 31
0.0
  0
LINE
  5
18D03
330
18C7A
100
AcDbEntity
  8
細線
 48
50.0
100
AcDbLine
 10
2096.970556362348
 20
1354.493912699161
 30
0.0
 11
2096.970601231289
 21
1345.890451063353
 31
0.0
  0
LINE
  5
18D04
330
18C7A
100
AcDbEntity
  8
細線
 48
50.0
100
AcDbLine
 10
2741.970584622936
 20
1371.644487209287
 30
0.0
 11
2741.970584622936
 21
1376.494487209284
 31
0.0
  0
LINE
  5
18D05
330
18C7A
100
AcDbEntity
  8
細線
 48
50.0
100
AcDbLine
 10
2741.970584622936
 20
1376.494487209284
 30
0.0
 11
2756.970584622934
 21
1376.494487209285
 31
0.0
  0
LINE
  5
18D06
330
18C7A
100
AcDbEntity
  8
細線
 48
50.0
100
AcDbLine
 10
2756.970584622934
 20
1376.494487209285
 30
0.0
 11
2756.970596256909
 21
1383.494487209331
 31
0.0
  0
LINE
  5
18D07
330
18C7A
100
AcDbEntity
  8
細線
 48
50.0
100
AcDbLine
 10
2756.970596256909
 20
1383.494487209331
 30
0.0
 11
2771.970594427439
 21
1383.494487209329
 31
0.0
  0
LINE
  5
18D08
330
18C7A
100
AcDbEntity
  8
細線
 48
50.0
100
AcDbLine
 10
2771.970594427439
 20
1383.494487209329
 30
0.0
 11
2771.970584125617
 21
1354.494281037055
 31
0.0
  0
LINE
  5
18D09
330
18C7A
100
AcDbEntity
  8
細線
 48
50.0
100
AcDbLine
 10
2458.070304175992
 20
1354.494278397076
 30
0.0
 11
2389.470863838818
 21
1354.494283787084
 31
0.0
  0
LINE
  5
18D0A
330
18C7A
100
AcDbEntity
  8
細線
 48
50.0
100
AcDbLine
 10
2096.970556362348
 20
1354.493912699161
 30
0.0
 11
2108.203245717057
 21
1354.494095652309
 31
0.0
  0
ARC
  5
18D0B
330
18C7A
100
AcDbEntity
  8
細線
 48
50.0
100
AcDbCircle
 10
2114.785538024393
 20
1353.294259565922
 30
0.0
 40
1.8
100
AcDbArc
 50
270.0006665777295
 51
345.000555481349
  0
LINE
  5
18D0C
330
18C7A
100
AcDbEntity
  8
細線
 48
50.0
100
AcDbLine
 10
2116.771971470473
 20
1353.753100023201
 30
0.0
 11
2116.524209028273
 21
1352.828402141094
 31
0.0
  0
LINE
  5
18D0D
330
18C7A
100
AcDbEntity
  8
細線
 48
50.0
100
AcDbLine
 10
2114.785558965548
 20
1351.494259566043
 30
0.0
 11
2111.155631546781
 21
1351.494217335563
 31
0.0
  0
ARC
  5
18D0E
330
18C7A
100
AcDbEntity
  8
細線
 48
50.0
100
AcDbCircle
 10
2111.155610605627
 20
1353.29421733544
 30
0.0
 40
1.8
100
AcDbArc
 50
195.0010443049965
 51
270.0006665777295
  0
LINE
  5
18D0F
330
18C7A
100
AcDbEntity
  8
細線
 48
50.0
100
AcDbLine
 10
2109.169183113368
 20
1353.752932303007
 30
0.0
 11
2109.416952609882
 21
1352.828311364425
 31
0.0
  0
ARC
  5
18D10
330
18C7A
100
AcDbEntity
  8
細線
 48
50.0
100
AcDbCircle
 10
2108.203262004622
 20
1353.494095652444
 30
0.0
 40
1.0
100
AcDbArc
 50
15.00104430499651
 51
90.00093320877969
  0
LINE
  5
18D11
330
18C7A
100
AcDbEntity
  8
細線
 48
50.0
100
AcDbLine
 10
2117.737892825577
 20
1354.494290342714
 30
0.0
 11
2118.679652976481
 21
1354.494296916564
 31
0.0
  0
ARC
  5
18D12
330
18C7A
100
AcDbEntity
  8
細線
 48
50.0
100
AcDbCircle
 10
2117.737899805961
 20
1353.49429034274
 30
0.0
 40
1.0
100
AcDbArc
 50
90.0003999466794
 51
165.000555481349
  0
LINE
  5
18D13
330
18C7A
100
AcDbEntity
  8
細線
 48
50.0
100
AcDbLine
 10
2669.470584622926
 20
1354.494281037055
 30
0.0
 11
2771.970584125617
 21
1354.494281037055
 31
0.0
  0
LINE
  5
18D14
330
18C7A
100
AcDbEntity
  8
細線
 48
50.0
100
AcDbLine
 10
2179.47061994182
 20
1354.494289224422
 30
0.0
 11
2118.370558714898
 21
1354.494296916564
 31
0.0
  0
LINE
  5
18D15
330
18C7A
100
AcDbEntity
  8
細線
 48
50.0
100
AcDbLine
 10
2599.470584622926
 20
1354.494281037057
 30
0.0
 11
2529.470584622926
 21
1354.494281037055
 31
0.0
  0
LINE
  5
18D16
330
18C7A
100
AcDbEntity
  8
細線
 48
50.0
100
AcDbLine
 10
2319.470584622926
 20
1354.494281037054
 30
0.0
 11
2249.470567335051
 21
1354.494281037057
 31
0.0
  0
ARC
  5
18D17
330
18C7A
100
AcDbEntity
  8
細線
 48
50.0
100
AcDbCircle
 10
2756.170589276533
 20
1387.694269174466
 30
0.0
 40
0.8
100
AcDbArc
 50
359.9997333689499
 51
89.99986668437072
  0
ARC
  5
18D18
330
18C7A
100
AcDbEntity
  8
細線
 48
50.0
100
AcDbCircle
 10
2763.770596101631
 20
1387.694280343081
 30
0.0
 40
0.8
100
AcDbArc
 50
90.00014387753465
 51
179.9997333689498
  0
LINE
  5
18D19
330
18C7A
100
AcDbEntity
  8
細線
 48
50.0
100
AcDbLine
 10
2756.170591137969
 20
1388.494269174465
 30
0.0
 11
2750.970589276525
 21
1388.494269174465
 31
0.0
  0
ARC
  5
18D1A
330
18C7A
100
AcDbEntity
  8
細線
 48
50.0
100
AcDbCircle
 10
2757.670589276524
 20
1386.194269174464
 30
0.0
 40
0.7
100
AcDbArc
 50
180.0
 51
270.0
  0
ARC
  5
18D1B
330
18C7A
100
AcDbEntity
  8
細線
 48
50.0
100
AcDbCircle
 10
2762.270589276524
 20
1386.194269174464
 30
0.0
 40
0.7
100
AcDbArc
 50
270.0
 51
0.0
  0
LINE
  5
18D1C
330
18C7A
100
AcDbEntity
  8
細線
 48
50.0
100
AcDbLine
 10
2762.970589276525
 20
1386.194269174464
 30
0.0
 11
2762.970596101639
 21
1387.694284065954
 31
0.0
  0
LINE
  5
18D1D
330
18C7A
100
AcDbEntity
  8
細線
 48
50.0
100
AcDbLine
 10
2757.670589276524
 20
1385.494269174465
 30
0.0
 11
2762.270589276524
 21
1385.494269174465
 31
0.0
  0
LINE
  5
18D1E
330
18C7A
100
AcDbEntity
  8
細線
 48
50.0
100
AcDbLine
 10
2756.970589276525
 20
1387.694269174466
 30
0.0
 11
2756.970589276525
 21
1386.194269174464
 31
0.0
  0
LINE
  5
18D1F
330
18C7A
100
AcDbEntity
  8
細線
 48
50.0
100
AcDbLine
 10
3382.570589276527
 20
1418.494269174465
 30
0.0
 11
2745.970589276525
 21
1418.494269174463
 31
0.0
  0
LINE
  5
18D20
330
18C7A
100
AcDbEntity
  8
細線
 48
50.0
100
AcDbLine
 10
3408.470589276525
 20
1413.494269174467
 30
0.0
 11
3392.570589276527
 21
1413.494269174465
 31
0.0
  0
LINE
  5
18D21
330
18C7A
100
AcDbEntity
  8
細線
 48
50.0
100
AcDbLine
 10
3392.570589276526
 20
1413.494269174465
 30
0.0
 11
3382.570589276527
 21
1418.494269174465
 31
0.0
  0
LINE
  5
18D22
330
18C7A
100
AcDbEntity
  8
細線
100
AcDbLine
 10
2993.470589276525
 20
1388.494269174465
 30
0.0
 11
2993.470589276525
 21
1417.794269174464
 31
0.0
  0
LINE
  5
18D23
330
18C7A
100
AcDbEntity
  8
細線
100
AcDbLine
 10
2993.470589276525
 20
1417.794269174464
 30
0.0
 11
3013.470589276525
 21
1417.794269174464
 31
0.0
  0
LINE
  5
18D24
330
18C7A
100
AcDbEntity
  8
細線
100
AcDbLine
 10
3013.470589276525
 20
1388.494269174465
 30
0.0
 11
3013.470589276525
 21
1417.794269174464
 31
0.0
  0
LINE
  5
18D25
330
18C7A
100
AcDbEntity
  8
細線
100
AcDbLine
 10
3170.720589276524
 20
1388.494269174465
 30
0.0
 11
3100.720589276523
 21
1388.494269174465
 31
0.0
  0
LINE
  5
18D26
330
18C7A
100
AcDbEntity
  8
細線
 48
50.0
100
AcDbLine
 10
2890.720589276525
 20
1388.494269174465
 30
0.0
 11
2763.766368849365
 21
1388.494269174465
 31
0.0
  0
LINE
  5
18D27
330
18C7A
100
AcDbEntity
  8
細線
100
AcDbLine
 10
3030.720589276525
 20
1388.494269174465
 30
0.0
 11
2960.720589276525
 21
1388.494269174465
 31
0.0
  0
LINE
  5
18D28
330
18C7A
100
AcDbEntity
  8
細線
 48
50.0
100
AcDbLine
 10
2750.970589276525
 20
1380.494269174465
 30
0.0
 11
2750.970589276525
 21
1388.494269174465
 31
0.0
  0
LINE
  5
18D29
330
18C7A
100
AcDbEntity
  8
細線
 48
50.0
100
AcDbLine
 10
2730.970589276524
 20
1380.494269174467
 30
0.0
 11
2750.970589276525
 21
1380.494269174465
 31
0.0
  0
LINE
  5
18D2A
330
18C7A
100
AcDbEntity
  8
細線
 48
50.0
100
AcDbLine
 10
2745.970589276525
 20
1418.494269174465
 30
0.0
 11
2745.970589276525
 21
1413.494269174465
 31
0.0
  0
LINE
  5
18D2B
330
18C7A
100
AcDbEntity
  8
細線
 48
50.0
100
AcDbLine
 10
2730.970589276525
 20
1418.494269174463
 30
0.0
 11
2745.970589276525
 21
1418.494269174465
 31
0.0
  0
LINE
  5
18D2C
330
18C7A
100
AcDbEntity
  8
細線
 48
50.0
100
AcDbLine
 10
2730.970589276524
 20
1380.494269174467
 30
0.0
 11
2730.970589276525
 21
1418.494269174463
 31
0.0
  0
LINE
  5
18D2D
330
18C7A
100
AcDbEntity
  8
細線
100
AcDbLine
 10
3398.970589276523
 20
1388.494269174465
 30
0.0
 11
3240.720589276525
 21
1388.494269174465
 31
0.0
  0
LINE
  5
18D2E
330
18C7A
100
AcDbEntity
  8
細線
 48
50.0
100
AcDbLine
 10
3408.470589276525
 20
1413.494269174467
 30
0.0
 11
3408.470589276524
 21
1388.494269174465
 31
0.0
  0
TEXT
  5
18D2F
330
18C7A
100
AcDbEntity
  8
部品1
100
AcDbText
 10
1860.154865991392
 20
46.99880823813145
 30
0.0
 40
135.0
  1
平面図
  7
STYLE2
100
AcDbText
  0
LWPOLYLINE
  5
18D30
330
18C7A
100
AcDbEntity
  8
部品1
100
AcDbPolyline
 90
        4
 70
     1
 43
0.0
 10
1770.23525616235
 20
239.8923374566548
 10
1770.23525616235
 20
0.0000159111223184
 10
2533.705922390791
 20
0.0000159111223184
 10
2533.705922390791
 20
239.8923374566548
  0
LINE
  5
18D31
330
18C7A
100
AcDbEntity
  8
部品1
100
AcDbLine
 10
1534.470589276487
 20
3154.494269174626
 30
0.0
 11
2769.470589276552
 21
3154.494269174626
 31
0.0
  0
LINE
  5
18D32
330
18C7A
100
AcDbEntity
  8
部品1
 48
50.0
100
AcDbLine
 10
1311.970589276523
 20
1420.494269174462
 30
0.0
 11
3411.970589276523
 21
1420.494269174465
 31
0.0
  0
LINE
  5
18D33
330
18C7A
100
AcDbEntity
  8
部品1
 48
50.0
100
AcDbLine
 10
471.9705892765232
 20
1392.494269174465
 30
0.0
 11
1311.970589276523
 21
1392.494269174465
 31
0.0
  0
DIMENSION
  5
18D34
330
18C7A
100
AcDbEntity
  8
寸法
100
AcDbDimension
  2
*D14
 10
2710.234916278077
 20
2488.887829538828
 30
0.0
 11
2338.318822490183
 21
2488.887829538828
 31
0.0
 12
-3742.925985830444
 22
-6453.628869860112
 32
0.0
 70
   128
 71
     5
 42
1231.00000000007
  3
INABA_S40G
100
AcDbAlignedDimension
 13
1536.470589276486
 23
2702.494269174557
 33
0.0
 14
2767.470589276556
 24
2702.494269174549
 34
0.0
100
AcDbRotatedDimension
1001
ACAD
1000
DSTYLE
1002
{
1002
}
  0
LINE
  5
18D35
330
18C7A
100
AcDbEntity
  8
部品1
100
AcDbLine
 10
1536.470589276487
 20
2702.494269174557
 30
0.0
 11
2767.470589276554
 21
2702.494269174615
 31
0.0
  0
LINE
  5
18D36
330
18C7A
100
AcDbEntity
  8
部品1
100
AcDbLine
 10
1536.470589276487
 20
3152.494269174557
 30
0.0
 11
2767.470589276556
 21
3152.494269174615
 31
0.0
  0
LINE
  5
18D37
330
18C7A
100
AcDbEntity
  8
細線
 48
50.0
100
AcDbLine
 10
1508.470589276487
 20
3152.494269174558
 30
0.0
 11
445.4705892765559
 21
2702.494269174509
 31
0.0
  0
LINE
  5
18D38
330
18C7A
100
AcDbEntity
  8
細線
 48
50.0
100
AcDbLine
 10
1508.470589276487
 20
2702.494269174558
 30
0.0
 11
445.4705892765542
 21
3152.494269174509
 31
0.0
  0
LINE
  5
18D39
330
18C7A
100
AcDbEntity
  8
部品1
100
AcDbLine
 10
1556.970589276487
 20
3172.494269174611
 30
0.0
 11
1556.970589276487
 21
3154.494269174611
 31
0.0
  0
LINE
  5
18D3A
330
18C7A
100
AcDbEntity
  8
部品1
100
AcDbLine
 10
1556.970589276487
 20
3172.494269174611
 30
0.0
 11
1550.970589276487
 21
3172.494269174611
 31
0.0
  0
LINE
  5
18D3B
330
18C7A
100
AcDbEntity
  8
部品1
100
AcDbLine
 10
1534.470589276487
 20
3146.494269174608
 30
0.0
 11
1509.470589276487
 21
3146.494269174611
 31
0.0
  0
LINE
  5
18D3C
330
18C7A
100
AcDbEntity
  8
部品1
100
AcDbLine
 10
1486.970589276487
 20
3172.494269174611
 30
0.0
 11
1486.970589276487
 21
3154.494269174611
 31
0.0
  0
LINE
  5
18D3D
330
18C7A
100
AcDbEntity
  8
部品1
100
AcDbLine
 10
1492.970589276487
 20
3172.494269174611
 30
0.0
 11
1486.970589276487
 21
3172.494269174611
 31
0.0
  0
LINE
  5
18D3E
330
18C7A
100
AcDbEntity
  8
部品1
100
AcDbLine
 10
1534.470589276487
 20
2702.494269174615
 30
0.0
 11
1509.470589276487
 21
2702.494269174615
 31
0.0
  0
LINE
  5
18D3F
330
18C7A
100
AcDbEntity
  8
部品1
 48
50.0
100
AcDbLine
 10
1536.470589276487
 20
3152.494269174611
 30
0.0
 11
1536.470589276487
 21
2702.494269174615
 31
0.0
  0
LINE
  5
18D40
330
18C7A
100
AcDbEntity
  8
部品1
 48
50.0
100
AcDbLine
 10
1508.470589276487
 20
3152.494269174607
 30
0.0
 11
1508.470589276487
 21
2702.494269174615
 31
0.0
  0
LINE
  5
18D41
330
18C7A
100
AcDbEntity
  8
部品1
 48
50.0
100
AcDbLine
 10
1534.470589276487
 20
3154.494269174618
 30
0.0
 11
1534.470589276487
 21
2702.494269174615
 31
0.0
  0
LINE
  5
18D42
330
18C7A
100
AcDbEntity
  8
部品1
 48
50.0
100
AcDbLine
 10
1509.470589276487
 20
3154.494269174615
 30
0.0
 11
1509.470589276487
 21
2702.494269174615
 31
0.0
  0
LINE
  5
18D43
330
18C7A
100
AcDbEntity
  8
部品1
100
AcDbLine
 10
3411.970589276556
 20
1392.494269174582
 30
0.0
 11
3411.970589276556
 21
1420.494269174596
 31
0.0
  0
LINE
  5
18D44
330
18C7A
100
AcDbEntity
  8
部品1
100
AcDbLine
 10
1311.970589276523
 20
1392.494269174596
 30
0.0
 11
1311.970589276523
 21
1420.494269174596
 31
0.0
  0
LINE
  5
18D45
330
18C7A
100
AcDbEntity
  8
部品1
100
AcDbLine
 10
891.9705892765232
 20
1392.494269174596
 30
0.0
 11
891.9705892765232
 21
1420.494269174596
 31
0.0
  0
LINE
  5
18D46
330
18C7A
100
AcDbEntity
  8
部品1
100
AcDbLine
 10
3411.97058927652
 20
3182.494269174477
 30
0.0
 11
3411.970589276523
 21
3154.494269174477
 31
0.0
  0
LINE
  5
18D47
330
18C7A
100
AcDbEntity
  8
部品1
100
AcDbLine
 10
2571.97058927652
 20
3182.494269174477
 30
0.0
 11
2571.970589276523
 21
3154.494269174477
 31
0.0
  0
LINE
  5
18D48
330
18C7A
100
AcDbEntity
  8
部品1
100
AcDbLine
 10
2991.97058927652
 20
3182.494269174477
 30
0.0
 11
2991.970589276523
 21
3154.494269174477
 31
0.0
  0
LINE
  5
18D49
330
18C7A
100
AcDbEntity
  8
部品1
100
AcDbLine
 10
2151.970589276519
 20
3182.494269174477
 30
0.0
 11
2151.970589276523
 21
3154.494269174477
 31
0.0
  0
LINE
  5
18D4A
330
18C7A
100
AcDbEntity
  8
部品1
100
AcDbLine
 10
1731.970589276519
 20
3182.494269174477
 30
0.0
 11
1731.970589276523
 21
3154.494269174477
 31
0.0
  0
LINE
  5
18D4B
330
18C7A
100
AcDbEntity
  8
部品1
100
AcDbLine
 10
1311.970589276519
 20
3182.494269174477
 30
0.0
 11
1311.970589276523
 21
3154.494269174477
 31
0.0
  0
LINE
  5
18D4C
330
18C7A
100
AcDbEntity
  8
部品1
100
AcDbLine
 10
891.9705892765195
 20
3182.494269174477
 30
0.0
 11
891.9705892765232
 21
3154.494269174477
 31
0.0
  0
LINE
  5
18D4D
330
18C7A
100
AcDbEntity
  8
部品1
100
AcDbLine
 10
471.9705892765232
 20
1392.494269174596
 30
0.0
 11
471.9705892765232
 21
1420.494269174596
 31
0.0
  0
LINE
  5
18D4E
330
18C7A
100
AcDbEntity
  8
部品1
100
AcDbLine
 10
444.9705892765305
 20
1420.494269174558
 30
0.0
 11
3858.970589276556
 21
1420.494269174596
 31
0.0
  0
LINE
  5
18D4F
330
18C7A
100
AcDbEntity
  8
部品1
100
AcDbLine
 10
3831.970589276556
 20
1392.494269174596
 30
0.0
 11
3831.970589276556
 21
1420.494269174596
 31
0.0
  0
LINE
  5
18D50
330
18C7A
100
AcDbEntity
  8
部品1
100
AcDbLine
 10
3858.970589276556
 20
1447.494269174593
 30
0.0
 11
3886.970589276556
 21
1447.494269174593
 31
0.0
  0
LINE
  5
18D51
330
18C7A
100
AcDbEntity
  8
部品1
100
AcDbLine
 10
3858.970589276556
 20
1867.494269174607
 30
0.0
 11
3886.970589276556
 21
1867.494269174607
 31
0.0
  0
LINE
  5
18D52
330
18C7A
100
AcDbEntity
  8
部品1
100
AcDbLine
 10
444.9705892765305
 20
1867.49426917448
 30
0.0
 11
416.9705892765305
 21
1867.49426917448
 31
0.0
  0
LINE
  5
18D53
330
18C7A
100
AcDbEntity
  8
部品1
100
AcDbLine
 10
3830.470589276541
 20
1867.49426917458
 30
0.0
 11
473.4705892765396
 21
1867.49426917448
 31
0.0
  0
LINE
  5
18D54
330
18C7A
100
AcDbEntity
  8
部品1
100
AcDbLine
 10
3830.470589276541
 20
2287.49426917458
 30
0.0
 11
473.4705892765396
 21
2287.49426917448
 31
0.0
  0
LINE
  5
18D55
330
18C7A
100
AcDbEntity
  8
部品1
100
AcDbLine
 10
444.9705892765305
 20
2287.49426917448
 30
0.0
 11
416.9705892765305
 21
2287.49426917448
 31
0.0
  0
LINE
  5
18D56
330
18C7A
100
AcDbEntity
  8
部品1
100
AcDbLine
 10
3858.970589276556
 20
2287.494269174608
 30
0.0
 11
3886.970589276556
 21
2287.494269174608
 31
0.0
  0
LINE
  5
18D57
330
18C7A
100
AcDbEntity
  8
部品1
 48
50.0
100
AcDbLine
 10
2151.970589276551
 20
2702.494269174586
 30
0.0
 11
2151.970589276581
 21
1448.994269174494
 31
0.0
  0
LINE
  5
18D58
330
18C7A
100
AcDbEntity
  8
破線
 48
10.0
100
AcDbLine
 10
2959.470589276535
 20
1472.494269174522
 30
0.0
 11
2176.970589276532
 21
1472.494269174505
 31
0.0
  0
LINE
  5
18D59
330
18C7A
100
AcDbEntity
  8
破線
 48
10.0
100
AcDbLine
 10
3009.47058927653
 20
1448.994269174509
 30
0.0
 11
3009.47058927653
 21
2702.494269174615
 31
0.0
  0
LINE
  5
18D5A
330
18C7A
100
AcDbEntity
  8
破線
 48
10.0
100
AcDbLine
 10
2959.470589276535
 20
1448.994269174505
 30
0.0
 11
2959.470589276531
 21
2702.494269174615
 31
0.0
  0
LINE
  5
18D5B
330
18C7A
100
AcDbEntity
  8
破線
 48
10.0
100
AcDbLine
 10
1344.47058927653
 20
1448.994269174509
 30
0.0
 11
1344.47058927653
 21
2702.494269174615
 31
0.0
  0
LINE
  5
18D5C
330
18C7A
100
AcDbEntity
  8
破線
 48
10.0
100
AcDbLine
 10
1294.470589276534
 20
1448.994269174505
 30
0.0
 11
1294.47058927653
 21
2702.494269174615
 31
0.0
  0
DIMENSION
  5
18D5D
330
18C7A
100
AcDbEntity
  8
寸法
100
AcDbDimension
  2
*D13
 10
1451.234916278005
 20
2488.887829538828
 30
0.0
 11
916.0604668248634
 21
2488.887829538828
 31
0.0
 12
-3742.925985830444
 22
-6453.628869860112
 32
0.0
 70
   128
 71
     5
 42
1062.99999999993
  3
INABA_S40G
100
AcDbAlignedDimension
 13
445.4705892765559
 23
2702.494269174505
 33
0.0
 14
1508.470589276486
 24
2702.494269174558
 34
0.0
100
AcDbRotatedDimension
1001
ACAD
1000
DSTYLE
1002
{
1002
}
  0
LINE
  5
18D5E
330
18C7A
100
AcDbEntity
  8
破線
 48
10.0
100
AcDbLine
 10
1294.470589276534
 20
1472.494269174469
 30
0.0
 11
496.9705892765414
 21
1472.494269174476
 31
0.0
  0
LINE
  5
18D5F
330
18C7A
100
AcDbEntity
  8
部品1
100
AcDbLine
 10
3831.970589276556
 20
3182.494269174604
 30
0.0
 11
3831.970589276556
 21
3154.494269174604
 31
0.0
  0
LINE
  5
18D60
330
18C7A
100
AcDbEntity
  8
部品1
100
AcDbLine
 10
3831.970589276556
 20
3182.494269174626
 30
0.0
 11
3831.970589276556
 21
3154.494269174626
 31
0.0
  0
LINE
  5
18D61
330
18C7A
100
AcDbEntity
  8
部品1
100
AcDbLine
 10
3858.970589276556
 20
3127.494269174607
 30
0.0
 11
3886.970589276556
 21
3127.494269174607
 31
0.0
  0
LINE
  5
18D62
330
18C7A
100
AcDbEntity
  8
部品1
100
AcDbLine
 10
3858.970589276556
 20
2707.494269174608
 30
0.0
 11
3886.970589276556
 21
2707.494269174608
 31
0.0
  0
LINE
  5
18D63
330
18C7A
100
AcDbEntity
  8
部品1
100
AcDbLine
 10
3858.470589276556
 20
3152.494269174604
 30
0.0
 11
3858.470589276556
 21
2702.494269174608
 31
0.0
  0
LINE
  5
18D64
330
18C7A
100
AcDbEntity
  8
部品1
100
AcDbLine
 10
3886.970589276533
 20
1447.494269174593
 30
0.0
 11
3886.970589276531
 21
1392.494269174596
 31
0.0
  0
LINE
  5
18D65
330
18C7A
100
AcDbEntity
  8
部品1
 48
50.0
100
AcDbLine
 10
3830.470589276556
 20
1448.994269174596
 30
0.0
 11
3858.970589276554
 21
1420.494269174596
 31
0.0
  0
LINE
  5
18D66
330
18C7A
100
AcDbEntity
  8
部品1
100
AcDbLine
 10
3886.970589276531
 20
1392.494269174596
 30
0.0
 11
3835.970589276531
 21
1392.494269174596
 31
0.0
  0
LINE
  5
18D67
330
18C7A
100
AcDbEntity
  8
部品1
100
AcDbLine
 10
3858.970589276533
 20
1447.494269174593
 30
0.0
 11
3886.970589276531
 21
1447.494269174593
 31
0.0
  0
LINE
  5
18D68
330
18C7A
100
AcDbEntity
  8
部品1
100
AcDbLine
 10
3886.970589276556
 20
3182.494269174604
 30
0.0
 11
3886.970589276531
 21
1392.494269174596
 31
0.0
  0
DIMENSION
  5
18D69
330
18C7A
100
AcDbEntity
  8
寸法
100
AcDbDimension
  2
*D12
 10
4534.396935010967
 20
1447.494269174593
 30
0.0
 11
4534.396935010965
 21
2287.4942691746
 31
0.0
 12
-3742.925985830444
 22
-6453.628869860112
 32
0.0
 70
   128
  1
4X420=<>
 71
     5
 42
1680.000000000014
  3
INABA_S40G
100
AcDbAlignedDimension
 13
3886.970589276556
 23
3127.494269174607
 33
0.0
 14
3886.970589276531
 24
1447.494269174593
 34
0.0
 50
90.0
100
AcDbRotatedDimension
1001
ACAD
1000
DSTYLE
1002
{
1002
}
  0
LINE
  5
18D6A
330
18C7A
100
AcDbEntity
  8
部品1
100
AcDbLine
 10
3858.970589276556
 20
3154.494269174604
 30
0.0
 11
3858.970589276534
 21
1420.494269174596
 31
0.0
  0
DIMENSION
  5
18D6B
330
18C7A
100
AcDbEntity
  8
寸法
100
AcDbDimension
  2
*D11
 10
4213.82831513858
 20
2607.276453505718
 30
0.0
 11
4113.828315138579
 21
2832.276453505718
 31
0.0
 12
-3742.925985830444
 22
-6453.628869860112
 32
0.0
 71
     5
 42
449.9999999999963
  3
INABA_S40G
100
AcDbAlignedDimension
 13
3858.470589276556
 23
3152.494269174604
 33
0.0
 14
3858.470589276556
 24
2702.494269174608
 34
0.0
 50
90.0
100
AcDbRotatedDimension
1001
ACAD
1000
DSTYLE
1002
{
1002
}
  0
LINE
  5
18D6C
330
18C7A
100
AcDbEntity
  8
部品1
100
AcDbLine
 10
3830.470589276547
 20
2702.494269174608
 30
0.0
 11
3830.470589276556
 21
1448.994269174596
 31
0.0
  0
LINE
  5
18D6D
330
18C7A
100
AcDbEntity
  8
破線
 48
10.0
100
AcDbLine
 10
3806.970589276549
 20
2702.494269174608
 30
0.0
 11
3806.970589276558
 21
1472.494269174593
 31
0.0
  0
LINE
  5
18D6E
330
18C7A
100
AcDbEntity
  8
部品1
100
AcDbLine
 10
2769.470589276556
 20
3146.494269174608
 30
0.0
 11
2794.470589276556
 21
3146.494269174611
 31
0.0
  0
LINE
  5
18D6F
330
18C7A
100
AcDbEntity
  8
部品1
100
AcDbLine
 10
2810.970589276556
 20
3172.494269174611
 30
0.0
 11
2816.970589276556
 21
3172.494269174611
 31
0.0
  0
LINE
  5
18D70
330
18C7A
100
AcDbEntity
  8
部品1
100
AcDbLine
 10
2816.970589276556
 20
3172.494269174611
 30
0.0
 11
2816.970589276556
 21
3154.494269174611
 31
0.0
  0
LINE
  5
18D71
330
18C7A
100
AcDbEntity
  8
部品1
100
AcDbLine
 10
2746.970589276556
 20
3172.494269174611
 30
0.0
 11
2752.970589276556
 21
3172.494269174611
 31
0.0
  0
LINE
  5
18D72
330
18C7A
100
AcDbEntity
  8
部品1
100
AcDbLine
 10
2746.970589276556
 20
3172.494269174611
 30
0.0
 11
2746.970589276556
 21
3154.494269174611
 31
0.0
  0
LINE
  5
18D73
330
18C7A
100
AcDbEntity
  8
部品1
100
AcDbLine
 10
2769.470589276556
 20
2702.494269174615
 30
0.0
 11
2794.470589276556
 21
2702.494269174615
 31
0.0
  0
LINE
  5
18D74
330
18C7A
100
AcDbEntity
  8
部品1
 48
50.0
100
AcDbLine
 10
2794.470589276556
 20
3154.494269174615
 30
0.0
 11
2794.470589276556
 21
2702.494269174615
 31
0.0
  0
LINE
  5
18D75
330
18C7A
100
AcDbEntity
  8
部品1
 48
50.0
100
AcDbLine
 10
2769.470589276554
 20
3154.494269174618
 30
0.0
 11
2769.470589276556
 21
2702.494269174615
 31
0.0
  0
LINE
  5
18D76
330
18C7A
100
AcDbEntity
  8
部品1
 48
50.0
100
AcDbLine
 10
2795.470589276556
 20
3152.494269174607
 30
0.0
 11
2795.470589276556
 21
2702.494269174615
 31
0.0
  0
LINE
  5
18D77
330
18C7A
100
AcDbEntity
  8
部品1
 48
50.0
100
AcDbLine
 10
2767.470589276556
 20
3152.494269174611
 30
0.0
 11
2767.470589276556
 21
2702.494269174615
 31
0.0
  0
LINE
  5
18D78
330
18C7A
100
AcDbEntity
  8
破線
 48
10.0
100
AcDbLine
 10
2176.97058927653
 20
1448.994269174509
 30
0.0
 11
2176.97058927653
 21
2702.494269174588
 31
0.0
  0
LINE
  5
18D79
330
18C7A
100
AcDbEntity
  8
破線
 48
10.0
100
AcDbLine
 10
2126.970589276534
 20
1448.994269174505
 30
0.0
 11
2126.970589276531
 21
2702.494269174586
 31
0.0
  0
LINE
  5
18D7A
330
18C7A
100
AcDbEntity
  8
部品1
100
AcDbLine
 10
2794.470589276556
 20
3154.494269174622
 30
0.0
 11
3858.970589276556
 21
3154.494269174604
 31
0.0
  0
LINE
  5
18D7B
330
18C7A
100
AcDbEntity
  8
細線
 48
50.0
100
AcDbLine
 10
3858.470589276556
 20
2702.494269174608
 30
0.0
 11
2795.470589276556
 21
3152.494269174607
 31
0.0
  0
LINE
  5
18D7C
330
18C7A
100
AcDbEntity
  8
部品1
100
AcDbLine
 10
2795.470589276555
 20
2702.494269174615
 30
0.0
 11
3858.470589276556
 21
2702.494269174608
 31
0.0
  0
LINE
  5
18D7D
330
18C7A
100
AcDbEntity
  8
部品1
100
AcDbLine
 10
2795.470589276556
 20
3152.494269174611
 30
0.0
 11
3858.470589276556
 21
3152.494269174604
 31
0.0
  0
LINE
  5
18D7E
330
18C7A
100
AcDbEntity
  8
細線
 48
50.0
100
AcDbLine
 10
3858.470589276556
 20
3152.494269174604
 30
0.0
 11
2795.470589276555
 21
2702.494269174615
 31
0.0
  0
DIMENSION
  5
18D7F
330
18C7A
100
AcDbEntity
  8
寸法
100
AcDbDimension
  2
*D10
 10
3801.234916278101
 20
2488.887829538937
 30
0.0
 11
3318.360544398907
 21
2488.887829538937
 31
0.0
 12
-3742.925985830444
 22
-6453.628869860112
 32
0.0
 70
   128
 71
     5
 42
1063.000000000012
  3
INABA_S40G
100
AcDbAlignedDimension
 13
2795.470589276555
 23
2702.494269174615
 33
0.0
 14
3858.470589276567
 24
2702.494269174608
 34
0.0
100
AcDbRotatedDimension
1001
ACAD
1000
DSTYLE
1002
{
1002
}
  0
LINE
  5
18D80
330
18C7A
100
AcDbEntity
  8
破線
 48
10.0
100
AcDbLine
 10
3806.970589276556
 20
1472.494269174594
 30
0.0
 11
3009.47058927653
 21
1472.494269174523
 31
0.0
  0
DIMENSION
  5
18D81
330
18C7A
100
AcDbEntity
  8
寸法
100
AcDbDimension
  2
*D9
 10
4534.396935010941
 20
1392.494269174596
 30
0.0
 11
4534.39693501094
 21
1084.008987800356
 31
0.0
 12
-3742.925985830444
 22
-6453.628869860112
 32
0.0
 70
   128
 71
     5
 42
54.99999999999636
  3
INABA_S40G
100
AcDbAlignedDimension
 13
3886.970589276531
 23
1447.494269174593
 33
0.0
 14
3886.970589276531
 24
1392.494269174596
 34
0.0
 50
90.0
100
AcDbRotatedDimension
1001
ACAD
1000
DSTYLE
1002
{
1002
}
  0
LINE
  5
18D82
330
18C7A
100
AcDbEntity
  8
部品1
100
AcDbLine
 10
471.9705892765196
 20
3182.494269174477
 30
0.0
 11
471.9705892765232
 21
3154.494269174477
 31
0.0
  0
LINE
  5
18D83
330
18C7A
100
AcDbEntity
  8
部品1
100
AcDbLine
 10
471.9705892765559
 20
3182.494269174509
 30
0.0
 11
471.9705892765559
 21
3154.494269174509
 31
0.0
  0
LINE
  5
18D84
330
18C7A
100
AcDbEntity
  8
部品1
100
AcDbLine
 10
444.9705892765232
 20
3127.49426917448
 30
0.0
 11
416.9705892765232
 21
3127.49426917448
 31
0.0
  0
LINE
  5
18D85
330
18C7A
100
AcDbEntity
  8
部品1
100
AcDbLine
 10
444.9705892765305
 20
2707.49426917448
 30
0.0
 11
416.9705892765305
 21
2707.49426917448
 31
0.0
  0
LINE
  5
18D86
330
18C7A
100
AcDbEntity
  8
部品1
 48
50.0
100
AcDbLine
 10
445.4705892765542
 20
3152.494269174506
 30
0.0
 11
445.4705892765559
 21
2702.494269174505
 31
0.0
  0
LINE
  5
18D87
330
18C7A
100
AcDbEntity
  8
部品1
 48
50.0
100
AcDbLine
 10
473.470589276545
 20
1448.994269174573
 30
0.0
 11
444.970589276545
 21
1420.494269174574
 31
0.0
  0
LINE
  5
18D88
330
18C7A
100
AcDbEntity
  8
部品1
100
AcDbLine
 10
471.9705892765232
 20
1392.494269174465
 30
0.0
 11
416.9705892765486
 21
1392.494269174465
 31
0.0
  0
LINE
  5
18D89
330
18C7A
100
AcDbEntity
  8
部品1
100
AcDbLine
 10
444.9705892765305
 20
1447.494269174429
 30
0.0
 11
416.9705892765469
 21
1447.494269174429
 31
0.0
  0
LINE
  5
18D8A
330
18C7A
100
AcDbEntity
  8
部品1
100
AcDbLine
 10
444.9705892765305
 20
1447.494269174465
 30
0.0
 11
416.9705892765469
 21
1447.494269174465
 31
0.0
  0
LINE
  5
18D8B
330
18C7A
100
AcDbEntity
  8
部品1
100
AcDbLine
 10
444.9705892765469
 20
1447.49426917448
 30
0.0
 11
416.9705892765469
 21
1447.49426917448
 31
0.0
  0
LINE
  5
18D8C
330
18C7A
100
AcDbEntity
  8
部品1
100
AcDbLine
 10
416.9705892765469
 20
1447.494269174429
 30
0.0
 11
416.9705892765486
 21
1392.494269174433
 31
0.0
  0
LINE
  5
18D8D
330
18C7A
100
AcDbEntity
  8
部品1
100
AcDbLine
 10
416.9705892765196
 20
3182.494269174477
 30
0.0
 11
416.9705892765486
 21
1392.494269174465
 31
0.0
  0
LINE
  5
18D8E
330
18C7A
100
AcDbEntity
  8
部品1
100
AcDbLine
 10
444.9705892765305
 20
1420.494269174556
 30
0.0
 11
444.9705892765559
 21
3154.494269174509
 31
0.0
  0
LINE
  5
18D8F
330
18C7A
100
AcDbEntity
  8
部品1
100
AcDbLine
 10
473.4705892765323
 20
2702.494269174608
 30
0.0
 11
473.470589276545
 21
1448.994269174571
 31
0.0
  0
LINE
  5
18D90
330
18C7A
100
AcDbEntity
  8
破線
 48
10.0
100
AcDbLine
 10
496.9705892765305
 20
2702.494269174608
 30
0.0
 11
496.9705892765451
 21
1472.494269174476
 31
0.0
  0
DIMENSION
  5
18D91
330
18C7A
100
AcDbEntity
  8
寸法
100
AcDbDimension
  2
*D8
 10
3886.970589276531
 20
410.7433333855515
 30
0.0
 11
2168.197775309287
 21
410.7433333855515
 31
0.0
 12
-3742.925985830444
 22
-6453.628869860112
 32
0.0
 70
   128
 71
     5
 42
3469.999999999982
  3
INABA_S40G
100
AcDbAlignedDimension
 13
416.9705892765486
 23
1392.494269174433
 33
0.0
 14
3886.970589276531
 24
1392.49426917456
 34
0.0
100
AcDbRotatedDimension
1001
ACAD
1000
DSTYLE
1002
{
1070
   341
1005
0
1002
}
  0
LINE
  5
18D92
330
18C7A
100
AcDbEntity
  8
部品1
100
AcDbLine
 10
444.9705892765559
 20
3154.494269174624
 30
0.0
 11
1509.470589276487
 21
3154.494269174626
 31
0.0
  0
LINE
  5
18D93
330
18C7A
100
AcDbEntity
  8
部品1
100
AcDbLine
 10
3886.970589276531
 20
1392.494269174596
 30
0.0
 11
3411.970589276556
 21
1392.494269174582
 31
0.0
  0
LINE
  5
18D94
330
18C7A
100
AcDbEntity
  8
部品1
100
AcDbLine
 10
416.9705892765559
 20
3182.494269174509
 30
0.0
 11
3886.970589276556
 21
3182.494269174604
 31
0.0
  0
LINE
  5
18D95
330
18C7A
100
AcDbEntity
  8
部品1
100
AcDbLine
 10
445.4705892765559
 20
2702.494269174509
 30
0.0
 11
1508.470589276487
 21
2702.494269174558
 31
0.0
  0
LINE
  5
18D96
330
18C7A
100
AcDbEntity
  8
細線
 48
50.0
100
AcDbLine
 10
2767.470589276556
 20
3152.494269174611
 30
0.0
 11
1536.470589276487
 21
2702.494269174558
 31
0.0
  0
LINE
  5
18D97
330
18C7A
100
AcDbEntity
  8
部品1
100
AcDbLine
 10
445.4705892765542
 20
3152.494269174509
 30
0.0
 11
1508.470589276485
 21
3152.494269174558
 31
0.0
  0
LINE
  5
18D98
330
18C7A
100
AcDbEntity
  8
細線
 48
50.0
100
AcDbLine
 10
2767.470589276554
 20
2702.494269174615
 30
0.0
 11
1536.470589276485
 21
3152.494269174558
 31
0.0
  0
LINE
  5
18D99
330
18C7A
100
AcDbEntity
  8
破線
 48
10.0
100
AcDbLine
 10
2126.970589276534
 20
1472.494269174502
 30
0.0
 11
1344.47058927653
 21
1472.494269174473
 31
0.0
  0
LINE
  5
18D9A
330
18C7A
100
AcDbEntity
  8
部品1
100
AcDbLine
 10
3830.470589276556
 20
1448.994269174596
 30
0.0
 11
473.4705892764487
 21
1448.994269174476
 31
0.0
  0
DIMENSION
  5
18D9B
330
18C7A
100
AcDbEntity
  8
寸法
100
AcDbDimension
  2
*D7
 10
471.970589276555
 20
3698.302488799491
 30
0.0
 11
108.4853079022819
 21
3698.302488799491
 31
0.0
 12
-3742.925985830444
 22
-6453.628869860112
 32
0.0
 70
   128
 71
     5
 42
55.00000000003456
  3
INABA_S40G
100
AcDbAlignedDimension
 13
416.9705892765205
 23
3182.494269174509
 33
0.0
 14
471.970589276555
 24
3182.494269174509
 34
0.0
100
AcDbRotatedDimension
1001
ACAD
1000
DSTYLE
1002
{
1002
}
  0
DIMENSION
  5
18D9C
330
18C7A
100
AcDbEntity
  8
寸法
100
AcDbDimension
  2
*D6
 10
4534.396935010967
 20
3127.494269174607
 30
0.0
 11
4534.396935010965
 21
3490.979550548844
 31
0.0
 12
-3742.925985830444
 22
-6453.628869860112
 32
0.0
 70
   128
 71
     5
 42
54.99999999999636
  3
INABA_S40G
100
AcDbAlignedDimension
 13
3886.970589276556
 23
3182.494269174604
 33
0.0
 14
3886.970589276556
 24
3127.494269174607
 34
0.0
 50
90.0
100
AcDbRotatedDimension
1001
ACAD
1000
DSTYLE
1002
{
1002
}
  0
DIMENSION
  5
18D9D
330
18C7A
100
AcDbEntity
  8
寸法
100
AcDbDimension
  2
*D5
 10
3886.970589276556
 20
3698.302488799589
 30
0.0
 11
4195.455870650794
 21
3698.302488799589
 31
0.0
 12
-3742.925985830444
 22
-6453.628869860112
 32
0.0
 70
   128
 71
     5
 42
55.0
  3
INABA_S40G
100
AcDbAlignedDimension
 13
3831.970589276556
 23
3182.494269174604
 33
0.0
 14
3886.970589276556
 24
3182.494269174604
 34
0.0
100
AcDbRotatedDimension
1001
ACAD
1000
DSTYLE
1002
{
1002
}
  0
DIMENSION
  5
18D9E
330
18C7A
100
AcDbEntity
  8
寸法
100
AcDbDimension
  2
*D4
 10
3831.970589276556
 20
3698.302488799607
 30
0.0
 11
2151.970589276555
 21
3698.302488799607
 31
0.0
 12
-3742.925985830444
 22
-6453.628869860112
 32
0.0
 70
   128
  1
8X420=<>
 71
     5
 42
3360.000000000001
  3
INABA_S40G
100
AcDbAlignedDimension
 13
471.970589276555
 23
3182.494269174509
 33
0.0
 14
3831.970589276556
 24
3182.494269174604
 34
0.0
100
AcDbRotatedDimension
1001
ACAD
1000
DSTYLE
1002
{
1002
}
  0
DIMENSION
  5
18D9F
330
18C7A
100
AcDbEntity
  8
寸法
100
AcDbDimension
  2
*D3
 10
4899.503876750603
 20
1392.494269174596
 30
0.0
 11
4899.503876750601
 21
2287.4942691746
 31
0.0
 12
-3742.925985830444
 22
-6453.628869860112
 32
0.0
 70
   128
 71
     5
 42
1790.000000000007
  3
INABA_S40G
100
AcDbAlignedDimension
 13
3886.970589276556
 23
3182.494269174604
 33
0.0
 14
3886.970589276531
 24
1392.494269174596
 34
0.0
 50
90.0
100
AcDbRotatedDimension
1001
ACAD
1000
DSTYLE
1002
{
1002
}
  0
ENDBLK
  5
18DA1
330
18C7A
100
AcDbEntity
  8
0
 48
50.0
100
AcDbBlockEnd
  0
BLOCK
  5
1C4CB
330
1C4CA
100
AcDbEntity
  8
0
 48
50.0
100
AcDbBlockBegin
  2
_NONE
 70
     0
 10
0.0
 20
0.0
 30
0.0
  3
_NONE
  1

  0
CIRCLE
  5
1C4CC
330
1C4CA
100
AcDbEntity
  8
0
  6
ByBlock
 62
     0
 48
50.0
100
AcDbCircle
 10
0.0
 20
0.0
 30
0.0
 40
0.25
  0
ENDBLK
  5
1C4CD
330
1C4CA
100
AcDbEntity
  8
0
 48
50.0
100
AcDbBlockEnd
  0
BLOCK
  5
20DEE
330
20DE2
100
AcDbEntity
  8
0
 48
50.0
100
AcDbBlockBegin
  2
*D19
 70
     1
 10
0.0
 20
0.0
 30
0.0
  3
*D19
  1

  0
LINE
  5
25D0A
330
20DE2
100
AcDbEntity
  8
寸法
 62
     0
 48
50.0
370
    -2
100
AcDbLine
 10
10128.6
 20
7700.522761723656
 30
0.0
 11
10128.6
 21
8698.743083782579
 31
0.0
  0
LINE
  5
25D0B
330
20DE2
100
AcDbEntity
  8
寸法
 62
     0
 48
50.0
370
    -2
100
AcDbLine
 10
10173.6
 20
8426.789219817568
 30
0.0
 11
10173.6
 21
8698.743083782579
 31
0.0
  0
LINE
  5
25D0C
330
20DE2
100
AcDbEntity
  8
寸法
 62
     0
 48
50.0
370
    -2
100
AcDbLine
 10
10128.6
 20
8638.743083782577
 30
0.0
 11
10028.6
 21
8638.743083782577
 31
0.0
  0
LINE
  5
25D0D
330
20DE2
100
AcDbEntity
  8
寸法
 62
     0
 48
50.0
370
    -2
100
AcDbLine
 10
10173.6
 20
8638.743083782577
 30
0.0
 11
10510.94924240492
 21
8638.743083782577
 31
0.0
  0
LINE
  5
25D0E
330
20DE2
100
AcDbEntity
  8
寸法
 62
     0
 48
50.0
370
    -2
100
AcDbLine
 10
10128.6
 20
8638.743083782577
 30
0.0
 11
10173.6
 21
8638.743083782577
 31
0.0
  0
INSERT
  5
25D0F
330
20DE2
100
AcDbEntity
  8
寸法
 62
     0
 48
50.0
370
    -2
100
AcDbBlockReference
  2
_DOTSMALL
 10
10128.6
 20
8638.743083782577
 30
0.0
 41
100.0
 42
100.0
 43
100.0
  0
INSERT
  5
25D10
330
20DE2
100
AcDbEntity
  8
寸法
 62
     0
 48
50.0
370
    -2
100
AcDbBlockReference
  2
_DOTSMALL
 10
10173.6
 20
8638.743083782577
 30
0.0
 41
100.0
 42
100.0
 43
100.0
 50
180.0
  0
MTEXT
  5
25D11
330
20DE2
100
AcDbEntity
  8
寸法
 62
     7
 48
50.0
100
AcDbMText
 10
10444.77462120246
 20
8738.743083782578
 30
0.0
 40
120.0
 41
0.0
 71
     5
 72
     1
  1
\A1;a
  7
STYLE1
 73
     1
 44
1.0
1001
ACAD
1000
MTEXTBEGIN
1070
    73
1070
     1
1070
    44
1040
1.0
1070
    74
1070
     0
1000
MTEXTEND
  0
POINT
  5
25D12
330
20DE2
100
AcDbEntity
  8
DEFPOINTS
 62
     0
 48
50.0
100
AcDbPoint
 10
10128.6
 20
7680.522761723657
 30
0.0
  0
POINT
  5
25D13
330
20DE2
100
AcDbEntity
  8
DEFPOINTS
 62
     0
 48
50.0
100
AcDbPoint
 10
10173.6
 20
8406.789219817566
 30
0.0
  0
POINT
  5
25D14
330
20DE2
100
AcDbEntity
  8
DEFPOINTS
 62
     0
 48
50.0
100
AcDbPoint
 10
10173.6
 20
8638.743083782577
 30
0.0
  0
ENDBLK
  5
20DEF
330
20DE2
100
AcDbEntity
  8
0
 48
50.0
100
AcDbBlockEnd
  0
BLOCK
  5
20E08
330
20DFC
100
AcDbEntity
  8
0
 48
50.0
100
AcDbBlockBegin
  2
*D20
 70
     1
 10
0.0
 20
0.0
 30
0.0
  3
*D20
  1

  0
LINE
  5
25D15
330
20DFC
100
AcDbEntity
  8
寸法
 62
     0
 48
50.0
370
    -2
100
AcDbLine
 10
6273.600000000003
 20
8426.789219817569
 30
0.0
 11
6273.600000000003
 21
8698.743083782579
 31
0.0
  0
LINE
  5
25D16
330
20DFC
100
AcDbEntity
  8
寸法
 62
     0
 48
50.0
370
    -2
100
AcDbLine
 10
6318.599999999999
 20
7700.522761723656
 30
0.0
 11
6318.599999999999
 21
8698.743083782579
 31
0.0
  0
LINE
  5
25D17
330
20DFC
100
AcDbEntity
  8
寸法
 62
     0
 48
50.0
370
    -2
100
AcDbLine
 10
6318.599999999999
 20
8638.743083782577
 30
0.0
 11
6418.599999999999
 21
8638.743083782577
 31
0.0
  0
LINE
  5
25D18
330
20DFC
100
AcDbEntity
  8
寸法
 62
     0
 48
50.0
370
    -2
100
AcDbLine
 10
6273.600000000003
 20
8638.743083782577
 30
0.0
 11
5936.250757595082
 21
8638.743083782577
 31
0.0
  0
LINE
  5
25D19
330
20DFC
100
AcDbEntity
  8
寸法
 62
     0
 48
50.0
370
    -2
100
AcDbLine
 10
6318.599999999999
 20
8638.743083782577
 30
0.0
 11
6273.600000000003
 21
8638.743083782577
 31
0.0
  0
INSERT
  5
25D1A
330
20DFC
100
AcDbEntity
  8
寸法
 62
     0
 48
50.0
370
    -2
100
AcDbBlockReference
  2
_DOTSMALL
 10
6318.599999999999
 20
8638.743083782577
 30
0.0
 41
100.0
 42
100.0
 43
100.0
 50
180.0
  0
INSERT
  5
25D1B
330
20DFC
100
AcDbEntity
  8
寸法
 62
     0
 48
50.0
370
    -2
100
AcDbBlockReference
  2
_DOTSMALL
 10
6273.600000000003
 20
8638.743083782577
 30
0.0
 41
100.0
 42
100.0
 43
100.0
  0
MTEXT
  5
25D1C
330
20DFC
100
AcDbEntity
  8
寸法
 62
     7
 48
50.0
100
AcDbMText
 10
6002.42537879754
 20
8738.743083782578
 30
0.0
 40
120.0
 41
0.0
 71
     5
 72
     1
  1
\A1;a
  7
STYLE1
 73
     1
 44
1.0
1001
ACAD
1000
MTEXTBEGIN
1070
    73
1070
     1
1070
    44
1040
1.0
1070
    74
1070
     0
1000
MTEXTEND
  0
POINT
  5
25D1D
330
20DFC
100
AcDbEntity
  8
DEFPOINTS
 62
     0
 48
50.0
100
AcDbPoint
 10
6273.600000000003
 20
8406.789219817568
 30
0.0
  0
POINT
  5
25D1E
330
20DFC
100
AcDbEntity
  8
DEFPOINTS
 62
     0
 48
50.0
100
AcDbPoint
 10
6318.599999999999
 20
7680.522761723657
 30
0.0
  0
POINT
  5
25D1F
330
20DFC
100
AcDbEntity
  8
DEFPOINTS
 62
     0
 48
50.0
100
AcDbPoint
 10
6318.599999999999
 20
8638.743083782577
 30
0.0
  0
ENDBLK
  5
20E09
330
20DFC
100
AcDbEntity
  8
0
 48
50.0
100
AcDbBlockEnd
  0
BLOCK
  5
2274E
330
22742
100
AcDbEntity
  8
0
 48
50.0
100
AcDbBlockBegin
  2
*D21
 70
     1
 10
0.0
 20
0.0
 30
0.0
  3
*D21
  1

  0
LINE
  5
25D20
330
22742
100
AcDbEntity
  8
寸法
 62
     0
 48
50.0
370
    -2
100
AcDbLine
 10
5675.665006330069
 20
7755.522761723662
 30
0.0
 11
5383.721909610674
 21
7755.522761723662
 31
0.0
  0
LINE
  5
25D21
330
22742
100
AcDbEntity
  8
寸法
 62
     0
 48
50.0
370
    -2
100
AcDbLine
 10
6298.6
 20
7680.522761723657
 30
0.0
 11
5383.721909610674
 21
7680.522761723657
 31
0.0
  0
LINE
  5
25D22
330
22742
100
AcDbEntity
  8
寸法
 62
     0
 48
50.0
370
    -2
100
AcDbLine
 10
5443.721909610673
 20
7755.522761723662
 30
0.0
 11
5443.721909610673
 21
7855.522761723662
 31
0.0
  0
LINE
  5
25D23
330
22742
100
AcDbEntity
  8
寸法
 62
     0
 48
50.0
370
    -2
100
AcDbLine
 10
5443.721909610673
 20
7680.522761723657
 30
0.0
 11
5443.721909610673
 21
7580.522761723656
 31
0.0
  0
LINE
  5
25D24
330
22742
100
AcDbEntity
  8
寸法
 62
     0
 48
50.0
370
    -2
100
AcDbLine
 10
5443.721909610673
 20
7755.522761723662
 30
0.0
 11
5443.721909610673
 21
7680.522761723657
 31
0.0
  0
INSERT
  5
25D25
330
22742
100
AcDbEntity
  8
寸法
 62
     0
 48
50.0
370
    -2
100
AcDbBlockReference
  2
_DOTSMALL
 10
5443.721909610673
 20
7755.522761723662
 30
0.0
 41
100.0
 42
100.0
 43
100.0
 50
270.0
  0
INSERT
  5
25D26
330
22742
100
AcDbEntity
  8
寸法
 62
     0
 48
50.0
370
    -2
100
AcDbBlockReference
  2
_DOTSMALL
 10
5443.721909610673
 20
7680.522761723657
 30
0.0
 41
100.0
 42
100.0
 43
100.0
 50
90.0
  0
MTEXT
  5
25D27
330
22742
100
AcDbEntity
  8
寸法
 62
     7
 48
50.0
100
AcDbMText
 10
5343.721909610673
 20
7718.022761723661
 30
0.0
 40
120.0
 41
0.0
 71
     5
 72
     1
  1
\A1;c
  7
STYLE1
 11
0.0000000000000001
 21
1.0
 31
0.0
 73
     1
 44
1.0
1001
ACAD
1000
MTEXTBEGIN
1070
    73
1070
     1
1070
    44
1040
1.0
1070
    74
1070
     0
1000
MTEXTEND
  0
POINT
  5
25D28
330
22742
100
AcDbEntity
  8
DEFPOINTS
 62
     0
 48
50.0
100
AcDbPoint
 10
5695.665006330068
 20
7755.522761723662
 30
0.0
  0
POINT
  5
25D29
330
22742
100
AcDbEntity
  8
DEFPOINTS
 62
     0
 48
50.0
100
AcDbPoint
 10
6318.599999999999
 20
7680.522761723657
 30
0.0
  0
POINT
  5
25D2A
330
22742
100
AcDbEntity
  8
DEFPOINTS
 62
     0
 48
50.0
100
AcDbPoint
 10
5443.721909610673
 20
7680.522761723657
 30
0.0
  0
ENDBLK
  5
2274F
330
22742
100
AcDbEntity
  8
0
 48
50.0
100
AcDbBlockEnd
  0
BLOCK
  5
22768
330
2275C
100
AcDbEntity
  8
0
 48
50.0
100
AcDbBlockBegin
  2
*D22
 70
     1
 10
0.0
 20
0.0
 30
0.0
  3
*D22
  1

  0
LINE
  5
25D2B
330
2275C
100
AcDbEntity
  8
寸法
 62
     0
 48
50.0
370
    -2
100
AcDbLine
 10
6298.599999999997
 20
6140.522761723688
 30
0.0
 11
5383.721909610672
 21
6140.522761723689
 31
0.0
  0
LINE
  5
25D2C
330
2275C
100
AcDbEntity
  8
寸法
 62
     0
 48
50.0
370
    -2
100
AcDbLine
 10
5675.665006330071
 20
6085.522761723713
 30
0.0
 11
5383.721909610672
 21
6085.522761723713
 31
0.0
  0
LINE
  5
25D2D
330
2275C
100
AcDbEntity
  8
寸法
 62
     0
 48
50.0
370
    -2
100
AcDbLine
 10
5443.721909610673
 20
6140.522761723689
 30
0.0
 11
5443.721909610673
 21
6240.522761723688
 31
0.0
  0
LINE
  5
25D2E
330
2275C
100
AcDbEntity
  8
寸法
 62
     0
 48
50.0
370
    -2
100
AcDbLine
 10
5443.721909610673
 20
6085.522761723713
 30
0.0
 11
5443.721909610673
 21
5985.522761723713
 31
0.0
  0
LINE
  5
25D2F
330
2275C
100
AcDbEntity
  8
寸法
 62
     0
 48
50.0
370
    -2
100
AcDbLine
 10
5443.721909610673
 20
6140.522761723689
 30
0.0
 11
5443.721909610673
 21
6085.522761723713
 31
0.0
  0
INSERT
  5
25D30
330
2275C
100
AcDbEntity
  8
寸法
 62
     0
 48
50.0
370
    -2
100
AcDbBlockReference
  2
_DOTSMALL
 10
5443.721909610673
 20
6140.522761723689
 30
0.0
 41
100.0
 42
100.0
 43
100.0
 50
270.0
  0
INSERT
  5
25D31
330
2275C
100
AcDbEntity
  8
寸法
 62
     0
 48
50.0
370
    -2
100
AcDbBlockReference
  2
_DOTSMALL
 10
5443.721909610673
 20
6085.522761723713
 30
0.0
 41
100.0
 42
100.0
 43
100.0
 50
90.0
  0
MTEXT
  5
25D32
330
2275C
100
AcDbEntity
  8
寸法
 62
     7
 48
50.0
100
AcDbMText
 10
5343.721909610671
 20
6113.022761723701
 30
0.0
 40
120.0
 41
0.0
 71
     5
 72
     1
  1
\A1;b
  7
STYLE1
 11
0.0000000000000001
 21
1.0
 31
0.0
 73
     1
 44
1.0
1001
ACAD
1000
MTEXTBEGIN
1070
    73
1070
     1
1070
    44
1040
1.0
1070
    74
1070
     0
1000
MTEXTEND
  0
POINT
  5
25D33
330
2275C
100
AcDbEntity
  8
DEFPOINTS
 62
     0
 48
50.0
100
AcDbPoint
 10
6318.599999999998
 20
6140.522761723688
 30
0.0
  0
POINT
  5
25D34
330
2275C
100
AcDbEntity
  8
DEFPOINTS
 62
     0
 48
50.0
100
AcDbPoint
 10
5695.66500633007
 20
6085.522761723713
 30
0.0
  0
POINT
  5
25D35
330
2275C
100
AcDbEntity
  8
DEFPOINTS
 62
     0
 48
50.0
100
AcDbPoint
 10
5443.721909610673
 20
6085.522761723713
 30
0.0
  0
ENDBLK
  5
22769
330
2275C
100
AcDbEntity
  8
0
 48
50.0
100
AcDbBlockEnd
  0
BLOCK
  5
240CF
330
240C4
100
AcDbEntity
  8
0
 48
50.0
100
AcDbBlockBegin
  2
*D23
 70
     1
 10
0.0
 20
0.0
 30
0.0
  3
*D23
  1

  0
LINE
  5
25E74
330
240C4
100
AcDbEntity
  8
寸法
 62
     0
 48
50.0
370
    -2
100
AcDbLine
 10
10128.6
 20
7135.522761723693
 30
0.0
 11
10128.6
 21
7290.121374821767
 31
0.0
  0
LINE
  5
25E75
330
240C4
100
AcDbEntity
  8
寸法
 62
     0
 48
50.0
370
    -2
100
AcDbLine
 10
10008.6
 20
7135.522761723692
 30
0.0
 11
10008.6
 21
7290.121374821767
 31
0.0
  0
LINE
  5
25E76
330
240C4
100
AcDbEntity
  8
寸法
 62
     0
 48
50.0
370
    -2
100
AcDbLine
 10
10008.6
 20
7230.121374821767
 30
0.0
 11
10128.6
 21
7230.121374821767
 31
0.0
  0
LINE
  5
25E77
330
240C4
100
AcDbEntity
  8
寸法
 62
     0
 48
50.0
370
    -2
100
AcDbLine
 10
10128.6
 20
7230.121374821767
 30
0.0
 11
10534.7062992126
 21
7230.121374821767
 31
0.0
  0
INSERT
  5
25E78
330
240C4
100
AcDbEntity
  8
寸法
 62
     0
 48
50.0
370
    -2
100
AcDbBlockReference
  2
_DOTSMALL
 10
10008.6
 20
7230.121374821767
 30
0.0
 41
100.0
 42
100.0
 43
100.0
 50
180.0
  0
INSERT
  5
25E79
330
240C4
100
AcDbEntity
  8
寸法
 62
     0
 48
50.0
370
    -2
100
AcDbBlockReference
  2
_DOTSMALL
 10
10128.6
 20
7230.121374821767
 30
0.0
 41
100.0
 42
100.0
 43
100.0
  0
MTEXT
  5
25E7A
330
240C4
100
AcDbEntity
  8
寸法
 62
     7
 48
50.0
100
AcDbMText
 10
10398.65905511812
 20
7330.133185845389
 30
0.0
 40
120.0
 41
0.0
 71
     5
 72
     1
  1
\A1;120
  7
STYLE1
 73
     1
 44
1.0
1001
ACAD
1000
MTEXTBEGIN
1070
    73
1070
     1
1070
    44
1040
1.0
1070
    74
1070
     0
1000
MTEXTEND
  0
POINT
  5
25E7B
330
240C4
100
AcDbEntity
  8
DEFPOINTS
 62
     0
 48
50.0
100
AcDbPoint
 10
10128.6
 20
7115.522761723693
 30
0.0
  0
POINT
  5
25E7C
330
240C4
100
AcDbEntity
  8
DEFPOINTS
 62
     0
 48
50.0
100
AcDbPoint
 10
10008.6
 20
7115.522761723693
 30
0.0
  0
POINT
  5
25E7D
330
240C4
100
AcDbEntity
  8
DEFPOINTS
 62
     0
 48
50.0
100
AcDbPoint
 10
10008.6
 20
7230.121374821767
 30
0.0
  0
ENDBLK
  5
240D0
330
240C4
100
AcDbEntity
  8
0
 48
50.0
100
AcDbBlockEnd
  0
BLOCK
  5
240DC
330
240D1
100
AcDbEntity
  8
0
 48
50.0
100
AcDbBlockBegin
  2
*D24
 70
     1
 10
0.0
 20
0.0
 30
0.0
  3
*D24
  1

  0
LINE
  5
25E1F
330
240D1
100
AcDbEntity
  8
寸法
 62
     0
 48
50.0
370
    -2
100
AcDbLine
 10
9528.599999999991
 20
6420.522761723647
 30
0.0
 11
9387.812020225659
 21
6420.522761723647
 31
0.0
  0
LINE
  5
25E20
330
240D1
100
AcDbEntity
  8
寸法
 62
     0
 48
50.0
370
    -2
100
AcDbLine
 10
9528.600000000002
 20
6140.522761723674
 30
0.0
 11
9387.812020225659
 21
6140.522761723674
 31
0.0
  0
LINE
  5
25E21
330
240D1
100
AcDbEntity
  8
寸法
 62
     0
 48
50.0
370
    -2
100
AcDbLine
 10
9447.81202022566
 20
6420.522761723647
 30
0.0
 11
9447.81202022566
 21
6140.522761723674
 31
0.0
  0
LINE
  5
25E22
330
240D1
100
AcDbEntity
  8
寸法
 62
     0
 48
50.0
370
    -2
100
AcDbLine
 10
9447.81202022566
 20
6140.522761723674
 30
0.0
 11
9447.81202022566
 21
5703.988312904769
 31
0.0
  0
INSERT
  5
25E23
330
240D1
100
AcDbEntity
  8
寸法
 62
     0
 48
50.0
370
    -2
100
AcDbBlockReference
  2
_DOTSMALL
 10
9447.81202022566
 20
6420.522761723647
 30
0.0
 41
100.0
 42
100.0
 43
100.0
 50
90.0
  0
INSERT
  5
25E24
330
240D1
100
AcDbEntity
  8
寸法
 62
     0
 48
50.0
370
    -2
100
AcDbBlockReference
  2
_DOTSMALL
 10
9447.81202022566
 20
6140.522761723674
 30
0.0
 41
100.0
 42
100.0
 43
100.0
 50
270.0
  0
MTEXT
  5
25E25
330
240D1
100
AcDbEntity
  8
寸法
 62
     7
 48
50.0
100
AcDbMText
 10
9347.800209202036
 20
5853.559179046502
 30
0.0
 40
120.0
 41
0.0
 71
     5
 72
     1
  1
\A1;280
  7
STYLE1
 11
0.0000000000000001
 21
1.0
 31
0.0
 73
     1
 44
1.0
1001
ACAD
1000
MTEXTBEGIN
1070
    73
1070
     1
1070
    44
1040
1.0
1070
    74
1070
     0
1000
MTEXTEND
  0
POINT
  5
25E26
330
240D1
100
AcDbEntity
  8
DEFPOINTS
 62
     0
 48
50.0
100
AcDbPoint
 10
9548.599999999991
 20
6420.522761723647
 30
0.0
  0
POINT
  5
25E27
330
240D1
100
AcDbEntity
  8
DEFPOINTS
 62
     0
 48
50.0
100
AcDbPoint
 10
9548.600000000002
 20
6140.522761723674
 30
0.0
  0
POINT
  5
25E28
330
240D1
100
AcDbEntity
  8
DEFPOINTS
 62
     0
 48
50.0
100
AcDbPoint
 10
9447.81202022566
 20
6140.522761723674
 30
0.0
  0
ENDBLK
  5
240DD
330
240D1
100
AcDbEntity
  8
0
 48
50.0
100
AcDbBlockEnd
  0
BLOCK
  5
240E9
330
240DE
100
AcDbEntity
  8
0
 48
50.0
100
AcDbBlockBegin
  2
*D25
 70
     1
 10
0.0
 20
0.0
 30
0.0
  3
*D25
  1

  0
LINE
  5
25D36
330
240DE
100
AcDbEntity
  8
寸法
 62
     0
 48
50.0
370
    -2
100
AcDbLine
 10
9528.600000000002
 20
7680.522761723644
 30
0.0
 11
9387.812020225659
 21
7680.522761723644
 31
0.0
  0
LINE
  5
25D37
330
240DE
100
AcDbEntity
  8
寸法
 62
     0
 48
50.0
370
    -2
100
AcDbLine
 10
9528.600000000009
 20
7480.522761723658
 30
0.0
 11
9387.812020225659
 21
7480.522761723658
 31
0.0
  0
LINE
  5
25D38
330
240DE
100
AcDbEntity
  8
寸法
 62
     0
 48
50.0
370
    -2
100
AcDbLine
 10
9447.81202022566
 20
7480.522761723658
 30
0.0
 11
9447.81202022566
 21
7680.522761723644
 31
0.0
  0
LINE
  5
25D39
330
240DE
100
AcDbEntity
  8
寸法
 62
     0
 48
50.0
370
    -2
100
AcDbLine
 10
9447.81202022566
 20
7680.522761723644
 30
0.0
 11
9447.81202022566
 21
8117.057210542546
 31
0.0
  0
INSERT
  5
25D3A
330
240DE
100
AcDbEntity
  8
寸法
 62
     0
 48
50.0
370
    -2
100
AcDbBlockReference
  2
_DOTSMALL
 10
9447.81202022566
 20
7480.522761723658
 30
0.0
 41
100.0
 42
100.0
 43
100.0
 50
270.0
  0
INSERT
  5
25D3B
330
240DE
100
AcDbEntity
  8
寸法
 62
     0
 48
50.0
370
    -2
100
AcDbBlockReference
  2
_DOTSMALL
 10
9447.81202022566
 20
7680.522761723644
 30
0.0
 41
100.0
 42
100.0
 43
100.0
 50
90.0
  0
MTEXT
  5
25D3C
330
240DE
100
AcDbEntity
  8
寸法
 62
     7
 48
50.0
100
AcDbMText
 10
9347.800209202036
 20
7967.486344400814
 30
0.0
 40
120.0
 41
0.0
 71
     5
 72
     1
  1
\A1;200
  7
STYLE1
 11
0.0000000000000001
 21
1.0
 31
0.0
 73
     1
 44
1.0
1001
ACAD
1000
MTEXTBEGIN
1070
    73
1070
     1
1070
    44
1040
1.0
1070
    74
1070
     0
1000
MTEXTEND
  0
POINT
  5
25D3D
330
240DE
100
AcDbEntity
  8
DEFPOINTS
 62
     0
 48
50.0
100
AcDbPoint
 10
9548.600000000002
 20
7680.522761723644
 30
0.0
  0
POINT
  5
25D3E
330
240DE
100
AcDbEntity
  8
DEFPOINTS
 62
     0
 48
50.0
100
AcDbPoint
 10
9548.600000000009
 20
7480.522761723658
 30
0.0
  0
POINT
  5
25D3F
330
240DE
100
AcDbEntity
  8
DEFPOINTS
 62
     0
 48
50.0
100
AcDbPoint
 10
9447.81202022566
 20
7480.522761723658
 30
0.0
  0
ENDBLK
  5
240EA
330
240DE
100
AcDbEntity
  8
0
 48
50.0
100
AcDbBlockEnd
  0
BLOCK
  5
25815
330
2580B
100
AcDbEntity
  8
0
 48
50.0
100
AcDbBlockBegin
  2
*D26
 70
     1
 10
0.0
 20
0.0
 30
0.0
  3
*D26
  1

  0
LINE
  5
25BEA
330
2580B
100
AcDbEntity
  8
寸法
 62
     0
 48
50.0
370
    -2
100
AcDbLine
 10
10005.6
 20
7627.522761723657
 30
0.0
 11
10005.6
 21
8466.789219817567
 31
0.0
  0
LINE
  5
25BEB
330
2580B
100
AcDbEntity
  8
寸法
 62
     0
 48
50.0
370
    -2
100
AcDbLine
 10
8105.6
 20
7627.522761723657
 30
0.0
 11
8105.6
 21
8466.789219817567
 31
0.0
  0
LINE
  5
25BEC
330
2580B
100
AcDbEntity
  8
寸法
 62
     0
 48
50.0
370
    -2
100
AcDbLine
 10
10005.6
 20
8406.789219817566
 30
0.0
 11
8105.6
 21
8406.789219817566
 31
0.0
  0
INSERT
  5
25BED
330
2580B
100
AcDbEntity
  8
寸法
 62
     0
 48
50.0
370
    -2
100
AcDbBlockReference
  2
_DOTSMALL
 10
10005.6
 20
8406.789219817566
 30
0.0
 41
100.0
 42
100.0
 43
100.0
  0
INSERT
  5
25BEE
330
2580B
100
AcDbEntity
  8
寸法
 62
     0
 48
50.0
370
    -2
100
AcDbBlockReference
  2
_DOTSMALL
 10
8105.6
 20
8406.789219817566
 30
0.0
 41
100.0
 42
100.0
 43
100.0
 50
180.0
  0
MTEXT
  5
25BEF
330
2580B
100
AcDbEntity
  8
寸法
 62
     7
 48
50.0
100
AcDbMText
 10
9055.600000000001
 20
8506.789219817568
 30
0.0
 40
120.0
 41
0.0
 71
     5
 72
     1
  1
\A1;1900
  7
STYLE1
 73
     1
 44
1.0
1001
ACAD
1000
MTEXTBEGIN
1070
    73
1070
     1
1070
    44
1040
1.0
1070
    74
1070
     0
1000
MTEXTEND
  0
POINT
  5
25BF0
330
2580B
100
AcDbEntity
  8
DEFPOINTS
 62
     0
 48
50.0
100
AcDbPoint
 10
10005.6
 20
7607.522761723656
 30
0.0
  0
POINT
  5
25BF1
330
2580B
100
AcDbEntity
  8
DEFPOINTS
 62
     0
 48
50.0
100
AcDbPoint
 10
8105.6
 20
7607.522761723656
 30
0.0
  0
POINT
  5
25BF2
330
2580B
100
AcDbEntity
  8
DEFPOINTS
 62
     0
 48
50.0
100
AcDbPoint
 10
8105.6
 20
8406.789219817566
 30
0.0
  0
ENDBLK
  5
25816
330
2580B
100
AcDbEntity
  8
0
 48
50.0
100
AcDbBlockEnd
  0
BLOCK
  5
25821
330
25817
100
AcDbEntity
  8
0
 48
50.0
100
AcDbBlockBegin
  2
*D27
 70
     1
 10
0.0
 20
0.0
 30
0.0
  3
*D27
  1

  0
LINE
  5
25BE1
330
25817
100
AcDbEntity
  8
寸法
 62
     0
 48
50.0
370
    -2
100
AcDbLine
 10
6318.599999999999
 20
7700.522761723656
 30
0.0
 11
6318.599999999999
 21
8698.743083782574
 31
0.0
  0
LINE
  5
25BE2
330
25817
100
AcDbEntity
  8
寸法
 62
     0
 48
50.0
370
    -2
100
AcDbLine
 10
10128.6
 20
7700.522761723656
 30
0.0
 11
10128.6
 21
8698.743083782574
 31
0.0
  0
LINE
  5
25BE3
330
25817
100
AcDbEntity
  8
寸法
 62
     0
 48
50.0
370
    -2
100
AcDbLine
 10
6318.599999999999
 20
8638.743083782575
 30
0.0
 11
10128.6
 21
8638.743083782575
 31
0.0
  0
INSERT
  5
25BE4
330
25817
100
AcDbEntity
  8
寸法
 62
     0
 48
50.0
370
    -2
100
AcDbBlockReference
  2
_DOTSMALL
 10
6318.599999999999
 20
8638.743083782575
 30
0.0
 41
100.0
 42
100.0
 43
100.0
 50
180.0
  0
INSERT
  5
25BE5
330
25817
100
AcDbEntity
  8
寸法
 62
     0
 48
50.0
370
    -2
100
AcDbBlockReference
  2
_DOTSMALL
 10
10128.6
 20
8638.743083782575
 30
0.0
 41
100.0
 42
100.0
 43
100.0
  0
MTEXT
  5
25BE6
330
25817
100
AcDbEntity
  8
寸法
 62
     7
 48
50.0
100
AcDbMText
 10
8223.600000000001
 20
8738.743083782575
 30
0.0
 40
120.0
 41
0.0
 71
     5
 72
     1
  1
\A1;3810
  7
STYLE1
 73
     1
 44
1.0
1001
ACAD
1000
MTEXTBEGIN
1070
    73
1070
     1
1070
    44
1040
1.0
1070
    74
1070
     0
1000
MTEXTEND
  0
POINT
  5
25BE7
330
25817
100
AcDbEntity
  8
DEFPOINTS
 62
     0
 48
50.0
100
AcDbPoint
 10
6318.599999999999
 20
7680.522761723657
 30
0.0
  0
POINT
  5
25BE8
330
25817
100
AcDbEntity
  8
DEFPOINTS
 62
     0
 48
50.0
100
AcDbPoint
 10
10128.6
 20
7680.522761723657
 30
0.0
  0
POINT
  5
25BE9
330
25817
100
AcDbEntity
  8
DEFPOINTS
 62
     0
 48
50.0
100
AcDbPoint
 10
10128.6
 20
8638.743083782575
 30
0.0
  0
ENDBLK
  5
25822
330
25817
100
AcDbEntity
  8
0
 48
50.0
100
AcDbBlockEnd
  0
BLOCK
  5
2582D
330
25823
100
AcDbEntity
  8
0
 48
50.0
100
AcDbBlockBegin
  2
*D28
 70
     1
 10
0.0
 20
0.0
 30
0.0
  3
*D28
  1

  0
LINE
  5
25DB8
330
25823
100
AcDbEntity
  8
寸法
 62
     0
 48
50.0
370
    -2
100
AcDbLine
 10
9173.600000000009
 20
7017.522761723656
 30
0.0
 11
9173.600000000009
 21
8223.131578393905
 31
0.0
  0
LINE
  5
25DB9
330
25823
100
AcDbEntity
  8
寸法
 62
     0
 48
50.0
370
    -2
100
AcDbLine
 10
8223.600000000006
 20
7017.522761723656
 30
0.0
 11
8223.600000000006
 21
8223.131578393905
 31
0.0
  0
LINE
  5
25DBA
330
25823
100
AcDbEntity
  8
寸法
 62
     0
 48
50.0
370
    -2
100
AcDbLine
 10
9173.600000000009
 20
8163.131578393905
 30
0.0
 11
8223.600000000006
 21
8163.131578393905
 31
0.0
  0
INSERT
  5
25DBB
330
25823
100
AcDbEntity
  8
寸法
 62
     0
 48
50.0
370
    -2
100
AcDbBlockReference
  2
_DOTSMALL
 10
9173.600000000009
 20
8163.131578393905
 30
0.0
 41
100.0
 42
100.0
 43
100.0
  0
INSERT
  5
25DBC
330
25823
100
AcDbEntity
  8
寸法
 62
     0
 48
50.0
370
    -2
100
AcDbBlockReference
  2
_DOTSMALL
 10
8223.600000000006
 20
8163.131578393905
 30
0.0
 41
100.0
 42
100.0
 43
100.0
 50
180.0
  0
MTEXT
  5
25DBD
330
25823
100
AcDbEntity
  8
寸法
 62
     7
 48
50.0
100
AcDbMText
 10
8698.600000000007
 20
8263.131578393904
 30
0.0
 40
120.0
 41
0.0
 71
     5
 72
     1
  1
\A1;950
  7
STYLE1
 73
     1
 44
1.0
1001
ACAD
1000
MTEXTBEGIN
1070
    73
1070
     1
1070
    44
1040
1.0
1070
    74
1070
     0
1000
MTEXTEND
  0
POINT
  5
25DBE
330
25823
100
AcDbEntity
  8
DEFPOINTS
 62
     0
 48
50.0
100
AcDbPoint
 10
9173.600000000009
 20
6997.522761723655
 30
0.0
  0
POINT
  5
25DBF
330
25823
100
AcDbEntity
  8
DEFPOINTS
 62
     0
 48
50.0
100
AcDbPoint
 10
8223.600000000006
 20
6997.522761723655
 30
0.0
  0
POINT
  5
25DC0
330
25823
100
AcDbEntity
  8
DEFPOINTS
 62
     0
 48
50.0
100
AcDbPoint
 10
8223.600000000006
 20
8163.131578393905
 30
0.0
  0
ENDBLK
  5
2582E
330
25823
100
AcDbEntity
  8
0
 48
50.0
100
AcDbBlockEnd
  0
BLOCK
  5
25839
330
2582F
100
AcDbEntity
  8
0
 48
50.0
100
AcDbBlockBegin
  2
*D29
 70
     1
 10
0.0
 20
0.0
 30
0.0
  3
*D29
  1

  0
LINE
  5
25D6E
330
2582F
100
AcDbEntity
  8
寸法
 62
     0
 48
50.0
370
    -2
100
AcDbLine
 10
6371.599999999999
 20
7557.522761723657
 30
0.0
 11
5635.665006330071
 21
7557.522761723657
 31
0.0
  0
LINE
  5
25D6F
330
2582F
100
AcDbEntity
  8
寸法
 62
     0
 48
50.0
370
    -2
100
AcDbLine
 10
6371.600000000007
 20
6338.522761723659
 30
0.0
 11
5635.665006330071
 21
6338.522761723661
 31
0.0
  0
LINE
  5
25D70
330
2582F
100
AcDbEntity
  8
寸法
 62
     0
 48
50.0
370
    -2
100
AcDbLine
 10
5695.665006330072
 20
7557.522761723657
 30
0.0
 11
5695.665006330072
 21
6338.522761723661
 31
0.0
  0
INSERT
  5
25D71
330
2582F
100
AcDbEntity
  8
寸法
 62
     0
 48
50.0
370
    -2
100
AcDbBlockReference
  2
_DOTSMALL
 10
5695.665006330072
 20
7557.522761723657
 30
0.0
 41
100.0
 42
100.0
 43
100.0
 50
90.0
  0
INSERT
  5
25D72
330
2582F
100
AcDbEntity
  8
寸法
 62
     0
 48
50.0
370
    -2
100
AcDbBlockReference
  2
_DOTSMALL
 10
5695.665006330072
 20
6338.522761723661
 30
0.0
 41
100.0
 42
100.0
 43
100.0
 50
270.0
  0
MTEXT
  5
25D73
330
2582F
100
AcDbEntity
  8
寸法
 62
     7
 48
50.0
100
AcDbMText
 10
5595.653195306448
 20
6948.022761723656
 30
0.0
 40
120.0
 41
0.0
 71
     5
 72
     1
  1
\A1;1219
  7
STYLE1
 11
0.0000000000000001
 21
1.0
 31
0.0
 73
     1
 44
1.0
1001
ACAD
1000
MTEXTBEGIN
1070
    73
1070
     1
1070
    44
1040
1.0
1070
    74
1070
     0
1000
MTEXTEND
  0
POINT
  5
25D74
330
2582F
100
AcDbEntity
  8
DEFPOINTS
 62
     0
 48
50.0
100
AcDbPoint
 10
6391.6
 20
7557.522761723657
 30
0.0
  0
POINT
  5
25D75
330
2582F
100
AcDbEntity
  8
DEFPOINTS
 62
     0
 48
50.0
100
AcDbPoint
 10
6391.600000000007
 20
6338.522761723659
 30
0.0
  0
POINT
  5
25D76
330
2582F
100
AcDbEntity
  8
DEFPOINTS
 62
     0
 48
50.0
100
AcDbPoint
 10
5695.665006330072
 20
6338.522761723661
 30
0.0
  0
ENDBLK
  5
2583A
330
2582F
100
AcDbEntity
  8
0
 48
50.0
100
AcDbBlockEnd
  0
BLOCK
  5
25845
330
2583B
100
AcDbEntity
  8
0
 48
50.0
100
AcDbBlockBegin
  2
*D30
 70
     1
 10
0.0
 20
0.0
 30
0.0
  3
*D30
  1

  0
LINE
  5
25C10
330
2583B
100
AcDbEntity
  8
寸法
 62
     0
 48
50.0
370
    -2
100
AcDbLine
 10
6298.6
 20
7680.522761723657
 30
0.0
 11
5383.721909610676
 21
7680.522761723657
 31
0.0
  0
LINE
  5
25C11
330
2583B
100
AcDbEntity
  8
寸法
 62
     0
 48
50.0
370
    -2
100
AcDbLine
 10
6298.6
 20
6140.522761723656
 30
0.0
 11
5383.721909610675
 21
6140.522761723657
 31
0.0
  0
LINE
  5
25C12
330
2583B
100
AcDbEntity
  8
寸法
 62
     0
 48
50.0
370
    -2
100
AcDbLine
 10
5443.721909610676
 20
7680.522761723657
 30
0.0
 11
5443.721909610674
 21
6140.522761723657
 31
0.0
  0
INSERT
  5
25C13
330
2583B
100
AcDbEntity
  8
寸法
 62
     0
 48
50.0
370
    -2
100
AcDbBlockReference
  2
_DOTSMALL
 10
5443.721909610676
 20
7680.522761723657
 30
0.0
 41
100.0
 42
100.0
 43
100.0
 50
90.0
  0
INSERT
  5
25C14
330
2583B
100
AcDbEntity
  8
寸法
 62
     0
 48
50.0
370
    -2
100
AcDbBlockReference
  2
_DOTSMALL
 10
5443.721909610674
 20
6140.522761723657
 30
0.0
 41
100.0
 42
100.0
 43
100.0
 50
270.0
  0
MTEXT
  5
25C15
330
2583B
100
AcDbEntity
  8
寸法
 62
     7
 48
50.0
100
AcDbMText
 10
5343.721909610674
 20
6948.022761723656
 30
0.0
 40
120.0
 41
0.0
 71
     5
 72
     1
  1
\A1;1540
  7
STYLE1
 11
0.0000000000000001
 21
1.0
 31
0.0
 73
     1
 44
1.0
1001
ACAD
1000
MTEXTBEGIN
1070
    73
1070
     1
1070
    44
1040
1.0
1070
    74
1070
     0
1000
MTEXTEND
  0
POINT
  5
25C16
330
2583B
100
AcDbEntity
  8
DEFPOINTS
 62
     0
 48
50.0
100
AcDbPoint
 10
6318.599999999999
 20
7680.522761723657
 30
0.0
  0
POINT
  5
25C17
330
2583B
100
AcDbEntity
  8
DEFPOINTS
 62
     0
 48
50.0
100
AcDbPoint
 10
6318.599999999999
 20
6140.522761723656
 30
0.0
  0
POINT
  5
25C18
330
2583B
100
AcDbEntity
  8
DEFPOINTS
 62
     0
 48
50.0
100
AcDbPoint
 10
5443.721909610674
 20
6140.522761723657
 30
0.0
  0
ENDBLK
  5
25846
330
2583B
100
AcDbEntity
  8
0
 48
50.0
100
AcDbBlockEnd
  0
BLOCK
  5
25851
330
25847
100
AcDbEntity
  8
0
 48
50.0
100
AcDbBlockBegin
  2
*D31
 70
     1
 10
0.0
 20
0.0
 30
0.0
  3
*D31
  1

  0
LINE
  5
25D8B
330
25847
100
AcDbEntity
  8
寸法
 62
     0
 48
50.0
370
    -2
100
AcDbLine
 10
7203.600000000007
 20
6947.522761723655
 30
0.0
 11
6741.285990614301
 21
6947.522761723655
 31
0.0
  0
LINE
  5
25D8C
330
25847
100
AcDbEntity
  8
寸法
 62
     0
 48
50.0
370
    -2
100
AcDbLine
 10
6872.765475140901
 20
7680.522761723657
 30
0.0
 11
6741.285990614301
 21
7680.522761723657
 31
0.0
  0
LINE
  5
25D8D
330
25847
100
AcDbEntity
  8
寸法
 62
     0
 48
50.0
370
    -2
100
AcDbLine
 10
6801.2859906143
 20
6947.522761723655
 30
0.0
 11
6801.2859906143
 21
7680.522761723657
 31
0.0
  0
INSERT
  5
25D8E
330
25847
100
AcDbEntity
  8
寸法
 62
     0
 48
50.0
370
    -2
100
AcDbBlockReference
  2
_DOTSMALL
 10
6801.2859906143
 20
6947.522761723655
 30
0.0
 41
100.0
 42
100.0
 43
100.0
 50
270.0
  0
INSERT
  5
25D8F
330
25847
100
AcDbEntity
  8
寸法
 62
     0
 48
50.0
370
    -2
100
AcDbBlockReference
  2
_DOTSMALL
 10
6801.2859906143
 20
7680.522761723657
 30
0.0
 41
100.0
 42
100.0
 43
100.0
 50
90.0
  0
MTEXT
  5
25D90
330
25847
100
AcDbEntity
  8
寸法
 62
     7
 48
50.0
100
AcDbMText
 10
6701.285990614299
 20
7240.117552417832
 30
0.0
 40
120.0
 41
0.0
 71
     5
 72
     1
  1
\A1;733
  7
STYLE1
 11
0.0000000000000001
 21
1.0
 31
0.0
 73
     1
 44
1.0
1001
ACAD
1000
MTEXTBEGIN
1070
    73
1070
     1
1070
    44
1040
1.0
1070
    74
1070
     0
1000
MTEXTEND
  0
POINT
  5
25D91
330
25847
100
AcDbEntity
  8
DEFPOINTS
 62
     0
 48
50.0
100
AcDbPoint
 10
7223.600000000008
 20
6947.522761723655
 30
0.0
  0
POINT
  5
25D92
330
25847
100
AcDbEntity
  8
DEFPOINTS
 62
     0
 48
50.0
100
AcDbPoint
 10
6892.765475140901
 20
7680.522761723657
 30
0.0
  0
POINT
  5
25D93
330
25847
100
AcDbEntity
  8
DEFPOINTS
 62
     0
 48
50.0
100
AcDbPoint
 10
6801.2859906143
 20
7680.522761723657
 30
0.0
  0
ENDBLK
  5
25852
330
25847
100
AcDbEntity
  8
0
 48
50.0
100
AcDbBlockEnd
  0
BLOCK
  5
2585C
330
25853
100
AcDbEntity
  8
0
 48
50.0
100
AcDbBlockBegin
  2
*D32
 70
     1
 10
0.0
 20
0.0
 30
0.0
  3
*D32
  1

  0
LINE
  5
25DA6
330
25853
100
AcDbEntity
  8
寸法
 62
     0
 48
50.0
370
    -2
100
AcDbLine
 10
8223.600000000006
 20
7017.522761723656
 30
0.0
 11
8223.600000000006
 21
8223.131578393905
 31
0.0
  0
LINE
  5
25DA7
330
25853
100
AcDbEntity
  8
寸法
 62
     0
 48
50.0
370
    -2
100
AcDbLine
 10
7273.600000000008
 20
7017.522761723656
 30
0.0
 11
7273.600000000008
 21
8223.131578393905
 31
0.0
  0
LINE
  5
25DA8
330
25853
100
AcDbEntity
  8
寸法
 62
     0
 48
50.0
370
    -2
100
AcDbLine
 10
8223.600000000006
 20
8163.131578393905
 30
0.0
 11
7273.600000000008
 21
8163.131578393905
 31
0.0
  0
INSERT
  5
25DA9
330
25853
100
AcDbEntity
  8
寸法
 62
     0
 48
50.0
370
    -2
100
AcDbBlockReference
  2
_DOTSMALL
 10
8223.600000000006
 20
8163.131578393905
 30
0.0
 41
100.0
 42
100.0
 43
100.0
  0
INSERT
  5
25DAA
330
25853
100
AcDbEntity
  8
寸法
 62
     0
 48
50.0
370
    -2
100
AcDbBlockReference
  2
_DOTSMALL
 10
7273.600000000008
 20
8163.131578393905
 30
0.0
 41
100.0
 42
100.0
 43
100.0
 50
180.0
  0
MTEXT
  5
25DAB
330
25853
100
AcDbEntity
  8
寸法
 62
     7
 48
50.0
100
AcDbMText
 10
7748.600000000006
 20
8263.131578393904
 30
0.0
 40
120.0
 41
0.0
 71
     5
 72
     1
  1
\A1;950
  7
STYLE1
 73
     1
 44
1.0
1001
ACAD
1000
MTEXTBEGIN
1070
    73
1070
     1
1070
    44
1040
1.0
1070
    74
1070
     0
1000
MTEXTEND
  0
POINT
  5
25DAC
330
25853
100
AcDbEntity
  8
DEFPOINTS
 62
     0
 48
50.0
100
AcDbPoint
 10
8223.600000000006
 20
6997.522761723655
 30
0.0
  0
POINT
  5
25DAD
330
25853
100
AcDbEntity
  8
DEFPOINTS
 62
     0
 48
50.0
100
AcDbPoint
 10
7273.600000000008
 20
6997.522761723655
 30
0.0
  0
POINT
  5
25DAE
330
25853
100
AcDbEntity
  8
DEFPOINTS
 62
     0
 48
50.0
100
AcDbPoint
 10
7273.600000000008
 20
8163.131578393905
 30
0.0
  0
ENDBLK
  5
2585D
330
25853
100
AcDbEntity
  8
0
 48
50.0
100
AcDbBlockEnd
  0
BLOCK
  5
25868
330
2585E
100
AcDbEntity
  8
0
 48
50.0
100
AcDbBlockBegin
  2
*D33
 70
     1
 10
0.0
 20
0.0
 30
0.0
  3
*D33
  1

  0
LINE
  5
25D94
330
2585E
100
AcDbEntity
  8
寸法
 62
     0
 48
50.0
370
    -2
100
AcDbLine
 10
7273.600000000008
 20
7017.522761723656
 30
0.0
 11
7273.600000000008
 21
8223.131578393905
 31
0.0
  0
LINE
  5
25D95
330
2585E
100
AcDbEntity
  8
寸法
 62
     0
 48
50.0
370
    -2
100
AcDbLine
 10
6318.599999999999
 20
7700.522761723656
 30
0.0
 11
6318.599999999999
 21
8223.131578393905
 31
0.0
  0
LINE
  5
25D96
330
2585E
100
AcDbEntity
  8
寸法
 62
     0
 48
50.0
370
    -2
100
AcDbLine
 10
7273.600000000008
 20
8163.131578393905
 30
0.0
 11
6318.599999999999
 21
8163.131578393905
 31
0.0
  0
INSERT
  5
25D97
330
2585E
100
AcDbEntity
  8
寸法
 62
     0
 48
50.0
370
    -2
100
AcDbBlockReference
  2
_DOTSMALL
 10
7273.600000000008
 20
8163.131578393905
 30
0.0
 41
100.0
 42
100.0
 43
100.0
  0
INSERT
  5
25D98
330
2585E
100
AcDbEntity
  8
寸法
 62
     0
 48
50.0
370
    -2
100
AcDbBlockReference
  2
_DOTSMALL
 10
6318.599999999999
 20
8163.131578393905
 30
0.0
 41
100.0
 42
100.0
 43
100.0
 50
180.0
  0
MTEXT
  5
25D99
330
2585E
100
AcDbEntity
  8
寸法
 62
     7
 48
50.0
100
AcDbMText
 10
6796.100000000002
 20
8263.131578393904
 30
0.0
 40
120.0
 41
0.0
 71
     5
 72
     1
  1
\A1;955
  7
STYLE1
 73
     1
 44
1.0
1001
ACAD
1000
MTEXTBEGIN
1070
    73
1070
     1
1070
    44
1040
1.0
1070
    74
1070
     0
1000
MTEXTEND
  0
POINT
  5
25D9A
330
2585E
100
AcDbEntity
  8
DEFPOINTS
 62
     0
 48
50.0
100
AcDbPoint
 10
7273.600000000008
 20
6997.522761723655
 30
0.0
  0
POINT
  5
25D9B
330
2585E
100
AcDbEntity
  8
DEFPOINTS
 62
     0
 48
50.0
100
AcDbPoint
 10
6318.599999999999
 20
7680.522761723657
 30
0.0
  0
POINT
  5
25D9C
330
2585E
100
AcDbEntity
  8
DEFPOINTS
 62
     0
 48
50.0
100
AcDbPoint
 10
6318.599999999999
 20
8163.131578393905
 30
0.0
  0
ENDBLK
  5
25869
330
2585E
100
AcDbEntity
  8
0
 48
50.0
100
AcDbBlockEnd
  0
BLOCK
  5
25874
330
2586A
100
AcDbEntity
  8
0
 48
50.0
100
AcDbBlockBegin
  2
*D34
 70
     1
 10
0.0
 20
0.0
 30
0.0
  3
*D34
  1

  0
LINE
  5
25D82
330
2586A
100
AcDbEntity
  8
寸法
 62
     0
 48
50.0
370
    -2
100
AcDbLine
 10
6872.765475140901
 20
6140.522761723667
 30
0.0
 11
6741.2859906143
 21
6140.522761723667
 31
0.0
  0
LINE
  5
25D83
330
2586A
100
AcDbEntity
  8
寸法
 62
     0
 48
50.0
370
    -2
100
AcDbLine
 10
7203.600000000007
 20
6947.522761723655
 30
0.0
 11
6741.285990614301
 21
6947.522761723655
 31
0.0
  0
LINE
  5
25D84
330
2586A
100
AcDbEntity
  8
寸法
 62
     0
 48
50.0
370
    -2
100
AcDbLine
 10
6801.2859906143
 20
6140.522761723667
 30
0.0
 11
6801.2859906143
 21
6947.522761723655
 31
0.0
  0
INSERT
  5
25D85
330
2586A
100
AcDbEntity
  8
寸法
 62
     0
 48
50.0
370
    -2
100
AcDbBlockReference
  2
_DOTSMALL
 10
6801.2859906143
 20
6140.522761723667
 30
0.0
 41
100.0
 42
100.0
 43
100.0
 50
270.0
  0
INSERT
  5
25D86
330
2586A
100
AcDbEntity
  8
寸法
 62
     0
 48
50.0
370
    -2
100
AcDbBlockReference
  2
_DOTSMALL
 10
6801.2859906143
 20
6947.522761723655
 30
0.0
 41
100.0
 42
100.0
 43
100.0
 50
90.0
  0
MTEXT
  5
25D87
330
2586A
100
AcDbEntity
  8
寸法
 62
     7
 48
50.0
100
AcDbMText
 10
6701.285990614299
 20
6625.522761723655
 30
0.0
 40
120.0
 41
0.0
 71
     5
 72
     1
  1
\A1;807
  7
STYLE1
 11
0.0000000000000001
 21
1.0
 31
0.0
 73
     1
 44
1.0
1001
ACAD
1000
MTEXTBEGIN
1070
    73
1070
     1
1070
    44
1040
1.0
1070
    74
1070
     0
1000
MTEXTEND
  0
POINT
  5
25D88
330
2586A
100
AcDbEntity
  8
DEFPOINTS
 62
     0
 48
50.0
100
AcDbPoint
 10
6892.765475140901
 20
6140.522761723667
 30
0.0
  0
POINT
  5
25D89
330
2586A
100
AcDbEntity
  8
DEFPOINTS
 62
     0
 48
50.0
100
AcDbPoint
 10
7223.600000000008
 20
6947.522761723655
 30
0.0
  0
POINT
  5
25D8A
330
2586A
100
AcDbEntity
  8
DEFPOINTS
 62
     0
 48
50.0
100
AcDbPoint
 10
6801.2859906143
 20
6947.522761723655
 30
0.0
  0
ENDBLK
  5
25875
330
2586A
100
AcDbEntity
  8
0
 48
50.0
100
AcDbBlockEnd
  0
BLOCK
  5
25880
330
25876
100
AcDbEntity
  8
0
 48
50.0
100
AcDbBlockBegin
  2
*D35
 70
     1
 10
0.0
 20
0.0
 30
0.0
  3
*D35
  1

  0
LINE
  5
25C07
330
25876
100
AcDbEntity
  8
寸法
 62
     0
 48
50.0
370
    -2
100
AcDbLine
 10
6298.600000000007
 20
6140.522761723652
 30
0.0
 11
6145.512673767882
 21
6140.522761723652
 31
0.0
  0
LINE
  5
25C08
330
25876
100
AcDbEntity
  8
寸法
 62
     0
 48
50.0
370
    -2
100
AcDbLine
 10
6654.325326928812
 20
5420.522761723653
 30
0.0
 11
6145.512673767882
 21
5420.522761723653
 31
0.0
  0
LINE
  5
25C09
330
25876
100
AcDbEntity
  8
寸法
 62
     0
 48
50.0
370
    -2
100
AcDbLine
 10
6205.512673767882
 20
6140.522761723652
 30
0.0
 11
6205.512673767882
 21
5420.522761723653
 31
0.0
  0
INSERT
  5
25C0A
330
25876
100
AcDbEntity
  8
寸法
 62
     0
 48
50.0
370
    -2
100
AcDbBlockReference
  2
_DOTSMALL
 10
6205.512673767882
 20
6140.522761723652
 30
0.0
 41
100.0
 42
100.0
 43
100.0
 50
90.0
  0
INSERT
  5
25C0B
330
25876
100
AcDbEntity
  8
寸法
 62
     0
 48
50.0
370
    -2
100
AcDbBlockReference
  2
_DOTSMALL
 10
6205.512673767882
 20
5420.522761723653
 30
0.0
 41
100.0
 42
100.0
 43
100.0
 50
270.0
  0
MTEXT
  5
25C0C
330
25876
100
AcDbEntity
  8
寸法
 62
     7
 48
50.0
100
AcDbMText
 10
6105.50086274426
 20
5780.522761723654
 30
0.0
 40
120.0
 41
0.0
 71
     5
 72
     1
  1
\A1;扉の出720
  7
STYLE1
 11
0.0000000000000001
 21
1.0
 31
0.0
 73
     1
 44
1.0
1001
ACAD
1000
MTEXTBEGIN
1070
    73
1070
     1
1070
    44
1040
1.0
1070
    74
1070
     0
1000
MTEXTEND
  0
POINT
  5
25C0D
330
25876
100
AcDbEntity
  8
DEFPOINTS
 62
     0
 48
50.0
100
AcDbPoint
 10
6318.600000000007
 20
6140.522761723652
 30
0.0
  0
POINT
  5
25C0E
330
25876
100
AcDbEntity
  8
DEFPOINTS
 62
     0
 48
50.0
100
AcDbPoint
 10
6674.325326928812
 20
5420.522761723653
 30
0.0
  0
POINT
  5
25C0F
330
25876
100
AcDbEntity
  8
DEFPOINTS
 62
     0
 48
50.0
100
AcDbPoint
 10
6205.512673767882
 20
5420.522761723653
 30
0.0
  0
ENDBLK
  5
25881
330
25876
100
AcDbEntity
  8
0
 48
50.0
100
AcDbBlockEnd
  0
BLOCK
  5
2588D
330
25882
100
AcDbEntity
  8
0
 48
50.0
100
AcDbBlockBegin
  2
*D36
 70
     1
 10
0.0
 20
0.0
 30
0.0
  3
*D36
  1

  0
LINE
  5
25D64
330
25882
100
AcDbEntity
  8
寸法
 62
     0
 48
50.0
370
    -2
100
AcDbLine
 10
6371.600000000007
 20
6338.522761723659
 30
0.0
 11
5635.665006330071
 21
6338.522761723661
 31
0.0
  0
LINE
  5
25D65
330
25882
100
AcDbEntity
  8
寸法
 62
     0
 48
50.0
370
    -2
100
AcDbLine
 10
6298.6
 20
6140.522761723656
 30
0.0
 11
5635.665006330071
 21
6140.522761723657
 31
0.0
  0
LINE
  5
25D66
330
25882
100
AcDbEntity
  8
寸法
 62
     0
 48
50.0
370
    -2
100
AcDbLine
 10
5695.665006330072
 20
6338.522761723661
 30
0.0
 11
5695.665006330071
 21
6140.522761723657
 31
0.0
  0
LINE
  5
25D67
330
25882
100
AcDbEntity
  8
寸法
 62
     0
 48
50.0
370
    -2
100
AcDbLine
 10
5695.665006330071
 20
6140.522761723657
 30
0.0
 11
5695.665006330071
 21
5668.782153051406
 31
0.0
  0
INSERT
  5
25D68
330
25882
100
AcDbEntity
  8
寸法
 62
     0
 48
50.0
370
    -2
100
AcDbBlockReference
  2
_DOTSMALL
 10
5695.665006330072
 20
6338.522761723661
 30
0.0
 41
100.0
 42
100.0
 43
100.0
 50
90.0
  0
INSERT
  5
25D69
330
25882
100
AcDbEntity
  8
寸法
 62
     0
 48
50.0
370
    -2
100
AcDbBlockReference
  2
_DOTSMALL
 10
5695.665006330071
 20
6140.522761723657
 30
0.0
 41
100.0
 42
100.0
 43
100.0
 50
270.0
  0
MTEXT
  5
25D6A
330
25882
100
AcDbEntity
  8
寸法
 62
     7
 48
50.0
100
AcDbMText
 10
5595.665006330071
 20
5804.991812881064
 30
0.0
 40
120.0
 41
0.0
 71
     5
 72
     1
  1
\A1;198
  7
STYLE1
 11
0.0000000000000001
 21
1.0
 31
0.0
 73
     1
 44
1.0
1001
ACAD
1000
MTEXTBEGIN
1070
    73
1070
     1
1070
    44
1040
1.0
1070
    74
1070
     0
1000
MTEXTEND
  0
POINT
  5
25D6B
330
25882
100
AcDbEntity
  8
DEFPOINTS
 62
     0
 48
50.0
100
AcDbPoint
 10
6391.600000000007
 20
6338.522761723659
 30
0.0
  0
POINT
  5
25D6C
330
25882
100
AcDbEntity
  8
DEFPOINTS
 62
     0
 48
50.0
100
AcDbPoint
 10
6318.599999999999
 20
6140.522761723656
 30
0.0
  0
POINT
  5
25D6D
330
25882
100
AcDbEntity
  8
DEFPOINTS
 62
     0
 48
50.0
100
AcDbPoint
 10
5695.665006330071
 20
6140.522761723657
 30
0.0
  0
ENDBLK
  5
2588E
330
25882
100
AcDbEntity
  8
0
 48
50.0
100
AcDbBlockEnd
  0
BLOCK
  5
258B1
330
258A8
100
AcDbEntity
  8
0
 48
50.0
100
AcDbBlockBegin
  2
*D37
 70
     1
 10
0.0
 20
0.0
 30
0.0
  3
*D37
  1

  0
LINE
  5
25BBD
330
258A8
100
AcDbEntity
  8
寸法
 62
     0
 48
50.0
370
    -2
100
AcDbLine
 10
8105.6
 20
7627.522761723657
 30
0.0
 11
8105.6
 21
8466.789219817567
 31
0.0
  0
LINE
  5
25BBE
330
258A8
100
AcDbEntity
  8
寸法
 62
     0
 48
50.0
370
    -2
100
AcDbLine
 10
6441.6
 20
7627.522761723657
 30
0.0
 11
6441.6
 21
8466.789219817567
 31
0.0
  0
LINE
  5
25BBF
330
258A8
100
AcDbEntity
  8
寸法
 62
     0
 48
50.0
370
    -2
100
AcDbLine
 10
8105.6
 20
8406.789219817566
 30
0.0
 11
6441.6
 21
8406.789219817566
 31
0.0
  0
INSERT
  5
25BC0
330
258A8
100
AcDbEntity
  8
寸法
 62
     0
 48
50.0
370
    -2
100
AcDbBlockReference
  2
_DOTSMALL
 10
8105.6
 20
8406.789219817566
 30
0.0
 41
100.0
 42
100.0
 43
100.0
  0
INSERT
  5
25BC1
330
258A8
100
AcDbEntity
  8
寸法
 62
     0
 48
50.0
370
    -2
100
AcDbBlockReference
  2
_DOTSMALL
 10
6441.6
 20
8406.789219817566
 30
0.0
 41
100.0
 42
100.0
 43
100.0
 50
180.0
  0
MTEXT
  5
25BC2
330
258A8
100
AcDbEntity
  8
寸法
 62
     7
 48
50.0
100
AcDbMText
 10
7273.599999999999
 20
8506.789219817568
 30
0.0
 40
120.0
 41
0.0
 71
     5
 72
     1
  1
\A1;1664
  7
STYLE1
 73
     1
 44
1.0
1001
ACAD
1000
MTEXTBEGIN
1070
    73
1070
     1
1070
    44
1040
1.0
1070
    74
1070
     0
1000
MTEXTEND
  0
POINT
  5
25BC3
330
258A8
100
AcDbEntity
  8
DEFPOINTS
 62
     0
 48
50.0
100
AcDbPoint
 10
8105.6
 20
7607.522761723656
 30
0.0
  0
POINT
  5
25BC4
330
258A8
100
AcDbEntity
  8
DEFPOINTS
 62
     0
 48
50.0
100
AcDbPoint
 10
6441.6
 20
7607.522761723656
 30
0.0
  0
POINT
  5
25BC5
330
258A8
100
AcDbEntity
  8
DEFPOINTS
 62
     0
 48
50.0
100
AcDbPoint
 10
6441.6
 20
8406.789219817566
 30
0.0
  0
ENDBLK
  5
258B2
330
258A8
100
AcDbEntity
  8
0
 48
50.0
100
AcDbBlockEnd
  0
BLOCK
  5
258CB
330
258C0
100
AcDbEntity
  8
0
 48
50.0
100
AcDbBlockBegin
  2
*D38
 70
     1
 10
0.0
 20
0.0
 30
0.0
  3
*D38
  1

  0
LINE
  5
25BB3
330
258C0
100
AcDbEntity
  8
寸法
 62
     0
 48
50.0
370
    -2
100
AcDbLine
 10
6441.6
 20
7627.522761723657
 30
0.0
 11
6441.6
 21
8466.789219817567
 31
0.0
  0
LINE
  5
25BB4
330
258C0
100
AcDbEntity
  8
寸法
 62
     0
 48
50.0
370
    -2
100
AcDbLine
 10
6318.599999999999
 20
7700.522761723656
 30
0.0
 11
6318.599999999999
 21
8466.789219817567
 31
0.0
  0
LINE
  5
25BB5
330
258C0
100
AcDbEntity
  8
寸法
 62
     0
 48
50.0
370
    -2
100
AcDbLine
 10
6441.6
 20
8406.789219817566
 30
0.0
 11
6318.599999999999
 21
8406.789219817566
 31
0.0
  0
LINE
  5
25BB6
330
258C0
100
AcDbEntity
  8
寸法
 62
     0
 48
50.0
370
    -2
100
AcDbLine
 10
6318.599999999999
 20
8406.789219817566
 30
0.0
 11
5907.008116907962
 21
8406.789219817566
 31
0.0
  0
INSERT
  5
25BB7
330
258C0
100
AcDbEntity
  8
寸法
 62
     0
 48
50.0
370
    -2
100
AcDbBlockReference
  2
_DOTSMALL
 10
6441.6
 20
8406.789219817566
 30
0.0
 41
100.0
 42
100.0
 43
100.0
  0
INSERT
  5
25BB8
330
258C0
100
AcDbEntity
  8
寸法
 62
     0
 48
50.0
370
    -2
100
AcDbBlockReference
  2
_DOTSMALL
 10
6318.599999999999
 20
8406.789219817566
 30
0.0
 41
100.0
 42
100.0
 43
100.0
 50
180.0
  0
MTEXT
  5
25BB9
330
258C0
100
AcDbEntity
  8
寸法
 62
     7
 48
50.0
100
AcDbMText
 10
6045.493398282201
 20
8506.801030841188
 30
0.0
 40
120.0
 41
0.0
 71
     5
 72
     1
  1
\A1;123
  7
STYLE1
 73
     1
 44
1.0
1001
ACAD
1000
MTEXTBEGIN
1070
    73
1070
     1
1070
    44
1040
1.0
1070
    74
1070
     0
1000
MTEXTEND
  0
POINT
  5
25BBA
330
258C0
100
AcDbEntity
  8
DEFPOINTS
 62
     0
 48
50.0
100
AcDbPoint
 10
6441.6
 20
7607.522761723656
 30
0.0
  0
POINT
  5
25BBB
330
258C0
100
AcDbEntity
  8
DEFPOINTS
 62
     0
 48
50.0
100
AcDbPoint
 10
6318.599999999999
 20
7680.522761723657
 30
0.0
  0
POINT
  5
25BBC
330
258C0
100
AcDbEntity
  8
DEFPOINTS
 62
     0
 48
50.0
100
AcDbPoint
 10
6318.599999999999
 20
8406.789219817566
 30
0.0
  0
ENDBLK
  5
258CC
330
258C0
100
AcDbEntity
  8
0
 48
50.0
100
AcDbBlockEnd
  0
BLOCK
  5
258E2
330
258D7
100
AcDbEntity
  8
0
 48
50.0
100
AcDbBlockBegin
  2
*D39
 70
     1
 10
0.0
 20
0.0
 30
0.0
  3
*D39
  1

  0
LINE
  5
25BF3
330
258D7
100
AcDbEntity
  8
寸法
 62
     0
 48
50.0
370
    -2
100
AcDbLine
 10
6298.6
 20
7680.522761723657
 30
0.0
 11
5635.665006330071
 21
7680.522761723657
 31
0.0
  0
LINE
  5
25BF4
330
258D7
100
AcDbEntity
  8
寸法
 62
     0
 48
50.0
370
    -2
100
AcDbLine
 10
6371.599999999999
 20
7557.522761723657
 30
0.0
 11
5635.665006330071
 21
7557.522761723657
 31
0.0
  0
LINE
  5
25BF5
330
258D7
100
AcDbEntity
  8
寸法
 62
     0
 48
50.0
370
    -2
100
AcDbLine
 10
5695.665006330071
 20
7557.522761723657
 30
0.0
 11
5695.665006330071
 21
7680.522761723657
 31
0.0
  0
LINE
  5
25BF6
330
258D7
100
AcDbEntity
  8
寸法
 62
     0
 48
50.0
370
    -2
100
AcDbLine
 10
5695.665006330071
 20
7680.522761723657
 30
0.0
 11
5695.665006330071
 21
8092.114644815694
 31
0.0
  0
INSERT
  5
25BF7
330
258D7
100
AcDbEntity
  8
寸法
 62
     0
 48
50.0
370
    -2
100
AcDbBlockReference
  2
_DOTSMALL
 10
5695.665006330071
 20
7557.522761723657
 30
0.0
 41
100.0
 42
100.0
 43
100.0
 50
270.0
  0
INSERT
  5
25BF8
330
258D7
100
AcDbEntity
  8
寸法
 62
     0
 48
50.0
370
    -2
100
AcDbBlockReference
  2
_DOTSMALL
 10
5695.665006330071
 20
7680.522761723657
 30
0.0
 41
100.0
 42
100.0
 43
100.0
 50
90.0
  0
MTEXT
  5
25BF9
330
258D7
100
AcDbEntity
  8
寸法
 62
     7
 48
50.0
100
AcDbMText
 10
5595.653195306448
 20
7953.629363441456
 30
0.0
 40
120.0
 41
0.0
 71
     5
 72
     1
  1
\A1;123
  7
STYLE1
 11
0.0000000000000001
 21
1.0
 31
0.0
 73
     1
 44
1.0
1001
ACAD
1000
MTEXTBEGIN
1070
    73
1070
     1
1070
    44
1040
1.0
1070
    74
1070
     0
1000
MTEXTEND
  0
POINT
  5
25BFA
330
258D7
100
AcDbEntity
  8
DEFPOINTS
 62
     0
 48
50.0
100
AcDbPoint
 10
6318.599999999999
 20
7680.522761723657
 30
0.0
  0
POINT
  5
25BFB
330
258D7
100
AcDbEntity
  8
DEFPOINTS
 62
     0
 48
50.0
100
AcDbPoint
 10
6391.6
 20
7557.522761723657
 30
0.0
  0
POINT
  5
25BFC
330
258D7
100
AcDbEntity
  8
DEFPOINTS
 62
     0
 48
50.0
100
AcDbPoint
 10
5695.665006330071
 20
7557.522761723657
 30
0.0
  0
ENDBLK
  5
258E3
330
258D7
100
AcDbEntity
  8
0
 48
50.0
100
AcDbBlockEnd
  0
BLOCK
  5
258FB
330
258F1
100
AcDbEntity
  8
0
 48
50.0
100
AcDbBlockBegin
  2
*D40
 70
     1
 10
0.0
 20
0.0
 30
0.0
  3
*D40
  1

  0
LINE
  5
25DC1
330
258F1
100
AcDbEntity
  8
寸法
 62
     0
 48
50.0
370
    -2
100
AcDbLine
 10
10128.6
 20
7700.522761723656
 30
0.0
 11
10128.6
 21
8223.131578393905
 31
0.0
  0
LINE
  5
25DC2
330
258F1
100
AcDbEntity
  8
寸法
 62
     0
 48
50.0
370
    -2
100
AcDbLine
 10
9173.600000000009
 20
7017.522761723656
 30
0.0
 11
9173.600000000009
 21
8223.131578393905
 31
0.0
  0
LINE
  5
25DC3
330
258F1
100
AcDbEntity
  8
寸法
 62
     0
 48
50.0
370
    -2
100
AcDbLine
 10
10128.6
 20
8163.131578393905
 30
0.0
 11
9173.600000000009
 21
8163.131578393905
 31
0.0
  0
INSERT
  5
25DC4
330
258F1
100
AcDbEntity
  8
寸法
 62
     0
 48
50.0
370
    -2
100
AcDbBlockReference
  2
_DOTSMALL
 10
10128.6
 20
8163.131578393905
 30
0.0
 41
100.0
 42
100.0
 43
100.0
  0
INSERT
  5
25DC5
330
258F1
100
AcDbEntity
  8
寸法
 62
     0
 48
50.0
370
    -2
100
AcDbBlockReference
  2
_DOTSMALL
 10
9173.600000000009
 20
8163.131578393905
 30
0.0
 41
100.0
 42
100.0
 43
100.0
 50
180.0
  0
MTEXT
  5
25DC6
330
258F1
100
AcDbEntity
  8
寸法
 62
     7
 48
50.0
100
AcDbMText
 10
9651.100000000006
 20
8263.131578393904
 30
0.0
 40
120.0
 41
0.0
 71
     5
 72
     1
  1
\A1;955
  7
STYLE1
 73
     1
 44
1.0
1001
ACAD
1000
MTEXTBEGIN
1070
    73
1070
     1
1070
    44
1040
1.0
1070
    74
1070
     0
1000
MTEXTEND
  0
POINT
  5
25DC7
330
258F1
100
AcDbEntity
  8
DEFPOINTS
 62
     0
 48
50.0
100
AcDbPoint
 10
10128.6
 20
7680.522761723657
 30
0.0
  0
POINT
  5
25DC8
330
258F1
100
AcDbEntity
  8
DEFPOINTS
 62
     0
 48
50.0
100
AcDbPoint
 10
9173.600000000009
 20
6997.522761723655
 30
0.0
  0
POINT
  5
25DC9
330
258F1
100
AcDbEntity
  8
DEFPOINTS
 62
     0
 48
50.0
100
AcDbPoint
 10
9173.600000000009
 20
8163.131578393905
 30
0.0
  0
ENDBLK
  5
258FC
330
258F1
100
AcDbEntity
  8
0
 48
50.0
100
AcDbBlockEnd
  0
BLOCK
  5
25915
330
2590A
100
AcDbEntity
  8
0
 48
50.0
100
AcDbBlockBegin
  2
*D41
 70
     1
 10
0.0
 20
0.0
 30
0.0
  3
*D41
  1

  0
LINE
  5
25BA0
330
2590A
100
AcDbEntity
  8
寸法
 62
     0
 48
50.0
370
    -2
100
AcDbLine
 10
10128.6
 20
7700.522761723656
 30
0.0
 11
10128.6
 21
8466.789219817567
 31
0.0
  0
LINE
  5
25BA1
330
2590A
100
AcDbEntity
  8
寸法
 62
     0
 48
50.0
370
    -2
100
AcDbLine
 10
10005.6
 20
7627.522761723657
 30
0.0
 11
10005.6
 21
8466.789219817567
 31
0.0
  0
LINE
  5
25BA2
330
2590A
100
AcDbEntity
  8
寸法
 62
     0
 48
50.0
370
    -2
100
AcDbLine
 10
10005.6
 20
8406.789219817566
 30
0.0
 11
10128.6
 21
8406.789219817566
 31
0.0
  0
LINE
  5
25BA3
330
2590A
100
AcDbEntity
  8
寸法
 62
     0
 48
50.0
370
    -2
100
AcDbLine
 10
10128.6
 20
8406.789219817566
 30
0.0
 11
10540.19188309204
 21
8406.789219817566
 31
0.0
  0
INSERT
  5
25BA4
330
2590A
100
AcDbEntity
  8
寸法
 62
     0
 48
50.0
370
    -2
100
AcDbBlockReference
  2
_DOTSMALL
 10
10005.6
 20
8406.789219817566
 30
0.0
 41
100.0
 42
100.0
 43
100.0
 50
180.0
  0
INSERT
  5
25BA5
330
2590A
100
AcDbEntity
  8
寸法
 62
     0
 48
50.0
370
    -2
100
AcDbBlockReference
  2
_DOTSMALL
 10
10128.6
 20
8406.789219817566
 30
0.0
 41
100.0
 42
100.0
 43
100.0
  0
MTEXT
  5
25BA6
330
2590A
100
AcDbEntity
  8
寸法
 62
     7
 48
50.0
100
AcDbMText
 10
10401.7066017178
 20
8506.801030841188
 30
0.0
 40
120.0
 41
0.0
 71
     5
 72
     1
  1
\A1;123
  7
STYLE1
 73
     1
 44
1.0
1001
ACAD
1000
MTEXTBEGIN
1070
    73
1070
     1
1070
    44
1040
1.0
1070
    74
1070
     0
1000
MTEXTEND
  0
POINT
  5
25BA7
330
2590A
100
AcDbEntity
  8
DEFPOINTS
 62
     0
 48
50.0
100
AcDbPoint
 10
10128.6
 20
7680.522761723657
 30
0.0
  0
POINT
  5
25BA8
330
2590A
100
AcDbEntity
  8
DEFPOINTS
 62
     0
 48
50.0
100
AcDbPoint
 10
10005.6
 20
7607.522761723656
 30
0.0
  0
POINT
  5
25BA9
330
2590A
100
AcDbEntity
  8
DEFPOINTS
 62
     0
 48
50.0
100
AcDbPoint
 10
10005.6
 20
8406.789219817566
 30
0.0
  0
ENDBLK
  5
25916
330
2590A
100
AcDbEntity
  8
0
 48
50.0
100
AcDbBlockEnd
  0
BLOCK
  5
26140
330
26136
100
AcDbEntity
  8
0
 48
50.0
100
AcDbBlockBegin
  2
*D42
 70
     1
 10
0.0
 20
0.0
 30
0.0
  3
*D42
  1

  0
LINE
  5
26180
330
26136
100
AcDbEntity
  8
寸法
 62
     0
 48
50.0
370
    -2
100
AcDbLine
 10
7512.661655653196
 20
2196.093103949186
 30
0.0
 11
8054.530255422042
 21
2196.093103949186
 31
0.0
  0
LINE
  5
26181
330
26136
100
AcDbEntity
  8
寸法
 62
     0
 48
50.0
370
    -2
100
AcDbLine
 10
7512.661655653196
 20
1872.093103949185
 30
0.0
 11
8054.53025542204
 21
1872.093103949185
 31
0.0
  0
LINE
  5
26182
330
26136
100
AcDbEntity
  8
寸法
 62
     0
 48
50.0
370
    -2
100
AcDbLine
 10
7994.53025542204
 20
2196.093103949186
 30
0.0
 11
7994.53025542204
 21
1872.093103949185
 31
0.0
  0
INSERT
  5
26183
330
26136
100
AcDbEntity
  8
寸法
 62
     0
 48
50.0
370
    -2
100
AcDbBlockReference
  2
_DOTSMALL
 10
7994.53025542204
 20
2196.093103949186
 30
0.0
 41
100.0
 42
100.0
 43
100.0
 50
90.0
  0
INSERT
  5
26184
330
26136
100
AcDbEntity
  8
寸法
 62
     0
 48
50.0
370
    -2
100
AcDbBlockReference
  2
_DOTSMALL
 10
7994.53025542204
 20
1872.093103949185
 30
0.0
 41
100.0
 42
100.0
 43
100.0
 50
270.0
  0
MTEXT
  5
26185
330
26136
100
AcDbEntity
  8
寸法
 62
     7
 48
50.0
100
AcDbMText
 10
7894.53025542204
 20
2034.093103949187
 30
0.0
 40
120.0
 41
0.0
 71
     5
 72
     1
  1
\A1;180
  7
STYLE1
 11
0.0000000000000001
 21
1.0
 31
0.0
 73
     1
 44
1.0
1001
ACAD
1000
MTEXTBEGIN
1070
    73
1070
     1
1070
    44
1040
1.0
1070
    74
1070
     0
1000
MTEXTEND
  0
POINT
  5
26186
330
26136
100
AcDbEntity
  8
DEFPOINTS
 62
     0
 48
50.0
100
AcDbPoint
 10
7492.661655653195
 20
2196.093103949186
 30
0.0
  0
POINT
  5
26187
330
26136
100
AcDbEntity
  8
DEFPOINTS
 62
     0
 48
50.0
100
AcDbPoint
 10
7492.661655653195
 20
1872.093103949185
 30
0.0
  0
POINT
  5
26188
330
26136
100
AcDbEntity
  8
DEFPOINTS
 62
     0
 48
50.0
100
AcDbPoint
 10
7994.53025542204
 20
1872.093103949185
 30
0.0
  0
ENDBLK
  5
26141
330
26136
100
AcDbEntity
  8
0
 48
50.0
100
AcDbBlockEnd
  0
BLOCK
  5
2614E
330
26142
100
AcDbEntity
  8
0
 48
50.0
100
AcDbBlockBegin
  2
*D43
 70
     1
 10
0.0
 20
0.0
 30
0.0
  3
*D43
  1

  0
LINE
  5
26189
330
26142
100
AcDbEntity
  8
寸法
 62
     0
 48
50.0
370
    -2
100
AcDbLine
 10
7325.461655653199
 20
2248.853103949187
 30
0.0
 11
8330.584921541067
 21
2248.853103949187
 31
0.0
  0
LINE
  5
2618A
330
26142
100
AcDbEntity
  8
寸法
 62
     0
 48
50.0
370
    -2
100
AcDbLine
 10
7512.661655653196
 20
2196.093103949186
 30
0.0
 11
8330.584921541067
 21
2196.093103949186
 31
0.0
  0
LINE
  5
2618B
330
26142
100
AcDbEntity
  8
寸法
 62
     0
 48
50.0
370
    -2
100
AcDbLine
 10
8270.584921541068
 20
2248.853103949187
 30
0.0
 11
8270.584921541068
 21
2348.853103949187
 31
0.0
  0
LINE
  5
2618C
330
26142
100
AcDbEntity
  8
寸法
 62
     0
 48
50.0
370
    -2
100
AcDbLine
 10
8270.584921541068
 20
2196.093103949186
 30
0.0
 11
8270.584921541068
 21
1464.07529710622
 31
0.0
  0
LINE
  5
2618D
330
26142
100
AcDbEntity
  8
寸法
 62
     0
 48
50.0
370
    -2
100
AcDbLine
 10
8270.584921541068
 20
2248.853103949187
 30
0.0
 11
8270.584921541068
 21
2196.093103949186
 31
0.0
  0
INSERT
  5
2618E
330
26142
100
AcDbEntity
  8
寸法
 62
     0
 48
50.0
370
    -2
100
AcDbBlockReference
  2
_DOTSMALL
 10
8270.584921541068
 20
2248.853103949187
 30
0.0
 41
100.0
 42
100.0
 43
100.0
 50
270.0
  0
INSERT
  5
2618F
330
26142
100
AcDbEntity
  8
寸法
 62
     0
 48
50.0
370
    -2
100
AcDbBlockReference
  2
_DOTSMALL
 10
8270.584921541068
 20
2196.093103949186
 30
0.0
 41
100.0
 42
100.0
 43
100.0
 50
90.0
  0
MTEXT
  5
26190
330
26142
100
AcDbEntity
  8
寸法
 62
     7
 48
50.0
100
AcDbMText
 10
8170.573110517445
 20
1730.084200527703
 30
0.0
 40
120.0
 41
0.0
 71
     5
 72
     1
  1
\A1;20～25
  7
STYLE1
 11
0.0000000000000001
 21
1.0
 31
0.0
 73
     1
 44
1.0
1001
ACAD
1000
MTEXTBEGIN
1070
    73
1070
     1
1070
    44
1040
1.0
1070
    74
1070
     0
1000
MTEXTEND
  0
POINT
  5
26191
330
26142
100
AcDbEntity
  8
DEFPOINTS
 62
     0
 48
50.0
100
AcDbPoint
 10
7305.461655653198
 20
2248.853103949187
 30
0.0
  0
POINT
  5
26192
330
26142
100
AcDbEntity
  8
DEFPOINTS
 62
     0
 48
50.0
100
AcDbPoint
 10
7492.661655653195
 20
2196.093103949186
 30
0.0
  0
POINT
  5
26193
330
26142
100
AcDbEntity
  8
DEFPOINTS
 62
     0
 48
50.0
100
AcDbPoint
 10
8270.584921541068
 20
2196.093103949186
 30
0.0
  0
ENDBLK
  5
2614F
330
26142
100
AcDbEntity
  8
0
 48
50.0
100
AcDbBlockEnd
  0
BLOCK
  5
2615A
330
26150
100
AcDbEntity
  8
0
 48
50.0
100
AcDbBlockBegin
  2
*D44
 70
     1
 10
0.0
 20
0.0
 30
0.0
  3
*D44
  1

  0
LINE
  5
26194
330
26150
100
AcDbEntity
  8
寸法
 62
     0
 48
50.0
370
    -2
100
AcDbLine
 10
5230.622342476003
 20
1652.093103949186
 30
0.0
 11
5048.202028743543
 21
1652.093103949186
 31
0.0
  0
LINE
  5
26195
330
26150
100
AcDbEntity
  8
寸法
 62
     0
 48
50.0
370
    -2
100
AcDbLine
 10
5150.622342476006
 20
1412.093103949186
 30
0.0
 11
5048.202028743543
 21
1412.093103949186
 31
0.0
  0
LINE
  5
26196
330
26150
100
AcDbEntity
  8
寸法
 62
     0
 48
50.0
370
    -2
100
AcDbLine
 10
5108.202028743543
 20
1652.093103949186
 30
0.0
 11
5108.202028743543
 21
1412.093103949186
 31
0.0
  0
INSERT
  5
26197
330
26150
100
AcDbEntity
  8
寸法
 62
     0
 48
50.0
370
    -2
100
AcDbBlockReference
  2
_DOTSMALL
 10
5108.202028743543
 20
1652.093103949186
 30
0.0
 41
100.0
 42
100.0
 43
100.0
 50
90.0
  0
INSERT
  5
26198
330
26150
100
AcDbEntity
  8
寸法
 62
     0
 48
50.0
370
    -2
100
AcDbBlockReference
  2
_DOTSMALL
 10
5108.202028743543
 20
1412.093103949186
 30
0.0
 41
100.0
 42
100.0
 43
100.0
 50
270.0
  0
MTEXT
  5
26199
330
26150
100
AcDbEntity
  8
寸法
 62
     7
 48
50.0
100
AcDbMText
 10
5008.202028743543
 20
1532.093103949187
 30
0.0
 40
120.0
 41
0.0
 71
     5
 72
     1
  1
\A1;150
  7
STYLE1
 11
0.0000000000000001
 21
1.0
 31
0.0
 73
     1
 44
1.0
1001
ACAD
1000
MTEXTBEGIN
1070
    73
1070
     1
1070
    44
1040
1.0
1070
    74
1070
     0
1000
MTEXTEND
  0
POINT
  5
2619A
330
26150
100
AcDbEntity
  8
DEFPOINTS
 62
     0
 48
50.0
100
AcDbPoint
 10
5250.622342476003
 20
1652.093103949186
 30
0.0
  0
POINT
  5
2619B
330
26150
100
AcDbEntity
  8
DEFPOINTS
 62
     0
 48
50.0
100
AcDbPoint
 10
5170.622342476007
 20
1412.093103949186
 30
0.0
  0
POINT
  5
2619C
330
26150
100
AcDbEntity
  8
DEFPOINTS
 62
     0
 48
50.0
100
AcDbPoint
 10
5108.202028743543
 20
1412.093103949186
 30
0.0
  0
ENDBLK
  5
2615B
330
26150
100
AcDbEntity
  8
0
 48
50.0
100
AcDbBlockEnd
  0
BLOCK
  5
26166
330
2615C
100
AcDbEntity
  8
0
 48
50.0
100
AcDbBlockBegin
  2
*D45
 70
     1
 10
0.0
 20
0.0
 30
0.0
  3
*D45
  1

  0
LINE
  5
2619D
330
2615C
100
AcDbEntity
  8
寸法
 62
     0
 48
50.0
370
    -2
100
AcDbLine
 10
5358.622342476003
 20
2196.093103949186
 30
0.0
 11
4583.585103914264
 21
2196.093103949186
 31
0.0
  0
LINE
  5
2619E
330
2615C
100
AcDbEntity
  8
寸法
 62
     0
 48
50.0
370
    -2
100
AcDbLine
 10
5150.622342476006
 20
1412.093103949186
 30
0.0
 11
4583.585103914262
 21
1412.093103949186
 31
0.0
  0
LINE
  5
2619F
330
2615C
100
AcDbEntity
  8
寸法
 62
     0
 48
50.0
370
    -2
100
AcDbLine
 10
4643.585103914263
 20
2196.093103949186
 30
0.0
 11
4643.585103914262
 21
1412.093103949186
 31
0.0
  0
INSERT
  5
261A0
330
2615C
100
AcDbEntity
  8
寸法
 62
     0
 48
50.0
370
    -2
100
AcDbBlockReference
  2
_DOTSMALL
 10
4643.585103914263
 20
2196.093103949186
 30
0.0
 41
100.0
 42
100.0
 43
100.0
 50
90.0
  0
INSERT
  5
261A1
330
2615C
100
AcDbEntity
  8
寸法
 62
     0
 48
50.0
370
    -2
100
AcDbBlockReference
  2
_DOTSMALL
 10
4643.585103914262
 20
1412.093103949186
 30
0.0
 41
100.0
 42
100.0
 43
100.0
 50
270.0
  0
MTEXT
  5
261A2
330
2615C
100
AcDbEntity
  8
寸法
 62
     7
 48
50.0
100
AcDbMText
 10
4543.585103914263
 20
1783.633253605187
 30
0.0
 40
120.0
 41
0.0
 71
     5
 72
     1
  1
\A1;540
  7
STYLE1
 11
0.0000000000000001
 21
1.0
 31
0.0
 73
     1
 44
1.0
1001
ACAD
1000
MTEXTBEGIN
1070
    73
1070
     1
1070
    44
1040
1.0
1070
    74
1070
     0
1000
MTEXTEND
  0
POINT
  5
261A3
330
2615C
100
AcDbEntity
  8
DEFPOINTS
 62
     0
 48
50.0
100
AcDbPoint
 10
5378.622342476003
 20
2196.093103949186
 30
0.0
  0
POINT
  5
261A4
330
2615C
100
AcDbEntity
  8
DEFPOINTS
 62
     0
 48
50.0
100
AcDbPoint
 10
5170.622342476007
 20
1412.093103949186
 30
0.0
  0
POINT
  5
261A5
330
2615C
100
AcDbEntity
  8
DEFPOINTS
 62
     0
 48
50.0
100
AcDbPoint
 10
4643.585103914262
 20
1412.093103949186
 30
0.0
  0
ENDBLK
  5
26167
330
2615C
100
AcDbEntity
  8
0
 48
50.0
100
AcDbBlockEnd
  0
BLOCK
  5
26172
330
26168
100
AcDbEntity
  8
0
 48
50.0
100
AcDbBlockBegin
  2
*D46
 70
     1
 10
0.0
 20
0.0
 30
0.0
  3
*D46
  1

  0
LINE
  5
261A6
330
26168
100
AcDbEntity
  8
寸法
 62
     0
 48
50.0
370
    -2
100
AcDbLine
 10
5250.622342476003
 20
1264.093103949186
 30
0.0
 11
5250.622342476003
 21
813.6634659440259
 31
0.0
  0
LINE
  5
261A7
330
26168
100
AcDbEntity
  8
寸法
 62
     0
 48
50.0
370
    -2
100
AcDbLine
 10
5698.622342476003
 20
1264.093103949186
 30
0.0
 11
5698.622342476003
 21
813.6634659440259
 31
0.0
  0
LINE
  5
261A8
330
26168
100
AcDbEntity
  8
寸法
 62
     0
 48
50.0
370
    -2
100
AcDbLine
 10
5250.622342476003
 20
873.6634659440261
 30
0.0
 11
5698.622342476003
 21
873.6634659440261
 31
0.0
  0
INSERT
  5
261A9
330
26168
100
AcDbEntity
  8
寸法
 62
     0
 48
50.0
370
    -2
100
AcDbBlockReference
  2
_DOTSMALL
 10
5250.622342476003
 20
873.6634659440261
 30
0.0
 41
100.0
 42
100.0
 43
100.0
 50
180.0
  0
INSERT
  5
261AA
330
26168
100
AcDbEntity
  8
寸法
 62
     0
 48
50.0
370
    -2
100
AcDbBlockReference
  2
_DOTSMALL
 10
5698.622342476003
 20
873.6634659440261
 30
0.0
 41
100.0
 42
100.0
 43
100.0
  0
MTEXT
  5
261AB
330
26168
100
AcDbEntity
  8
寸法
 62
     7
 48
50.0
100
AcDbMText
 10
5454.525583797779
 20
973.6634659440261
 30
0.0
 40
120.0
 41
0.0
 71
     5
 72
     1
  1
\A1;300
  7
STYLE1
 73
     1
 44
1.0
1001
ACAD
1000
MTEXTBEGIN
1070
    73
1070
     1
1070
    44
1040
1.0
1070
    74
1070
     0
1000
MTEXTEND
  0
POINT
  5
261AC
330
26168
100
AcDbEntity
  8
DEFPOINTS
 62
     0
 48
50.0
100
AcDbPoint
 10
5250.622342476003
 20
1284.093103949186
 30
0.0
  0
POINT
  5
261AD
330
26168
100
AcDbEntity
  8
DEFPOINTS
 62
     0
 48
50.0
100
AcDbPoint
 10
5698.622342476003
 20
1284.093103949186
 30
0.0
  0
POINT
  5
261AE
330
26168
100
AcDbEntity
  8
DEFPOINTS
 62
     0
 48
50.0
100
AcDbPoint
 10
5698.622342476003
 20
873.6634659440261
 30
0.0
  0
ENDBLK
  5
26173
330
26168
100
AcDbEntity
  8
0
 48
50.0
100
AcDbBlockEnd
  0
BLOCK
  5
2617E
330
26174
100
AcDbEntity
  8
0
 48
50.0
100
AcDbBlockBegin
  2
*D47
 70
     1
 10
0.0
 20
0.0
 30
0.0
  3
*D47
  1

  0
LINE
  5
261AF
330
26174
100
AcDbEntity
  8
寸法
 62
     0
 48
50.0
370
    -2
100
AcDbLine
 10
5570.622342476003
 20
2216.093103949186
 30
0.0
 11
5570.622342476003
 21
2675.760911865566
 31
0.0
  0
LINE
  5
261B0
330
26174
100
AcDbEntity
  8
寸法
 62
     0
 48
50.0
370
    -2
100
AcDbLine
 10
5378.622342476003
 20
2216.093103949186
 30
0.0
 11
5378.622342476003
 21
2675.760911865566
 31
0.0
  0
LINE
  5
261B1
330
26174
100
AcDbEntity
  8
寸法
 62
     0
 48
50.0
370
    -2
100
AcDbLine
 10
5570.622342476003
 20
2615.760911865566
 30
0.0
 11
5378.622342476003
 21
2615.760911865566
 31
0.0
  0
INSERT
  5
261B2
330
26174
100
AcDbEntity
  8
寸法
 62
     0
 48
50.0
370
    -2
100
AcDbBlockReference
  2
_DOTSMALL
 10
5570.622342476003
 20
2615.760911865566
 30
0.0
 41
100.0
 42
100.0
 43
100.0
  0
INSERT
  5
261B3
330
26174
100
AcDbEntity
  8
寸法
 62
     0
 48
50.0
370
    -2
100
AcDbBlockReference
  2
_DOTSMALL
 10
5378.622342476003
 20
2615.760911865566
 30
0.0
 41
100.0
 42
100.0
 43
100.0
 50
180.0
  0
MTEXT
  5
261B4
330
26174
100
AcDbEntity
  8
寸法
 62
     7
 48
50.0
100
AcDbMText
 10
5474.622342476003
 20
2915.796344936433
 30
0.0
 40
120.0
 41
0.0
 71
     5
 72
     1
  1
\A1;120\P200\P280
  7
STYLE1
 73
     1
 44
1.0
1001
ACAD
1000
MTEXTBEGIN
1070
    73
1070
     1
1070
    44
1040
1.0
1070
    74
1070
     0
1000
MTEXTEND
  0
POINT
  5
261B5
330
26174
100
AcDbEntity
  8
DEFPOINTS
 62
     0
 48
50.0
100
AcDbPoint
 10
5570.622342476003
 20
2196.093103949186
 30
0.0
  0
POINT
  5
261B6
330
26174
100
AcDbEntity
  8
DEFPOINTS
 62
     0
 48
50.0
100
AcDbPoint
 10
5378.622342476003
 20
2196.093103949186
 30
0.0
  0
POINT
  5
261B7
330
26174
100
AcDbEntity
  8
DEFPOINTS
 62
     0
 48
50.0
100
AcDbPoint
 10
5378.622342476003
 20
2615.760911865566
 30
0.0
  0
ENDBLK
  5
2617F
330
26174
100
AcDbEntity
  8
0
 48
50.0
100
AcDbBlockEnd
  0
BLOCK
  5
261C3
330
261C1
100
AcDbEntity
  8
0
 48
50.0
100
AcDbBlockBegin
  2
A$C5893477D
 70
     0
 10
0.0
 20
0.0
 30
0.0
  3
A$C5893477D
  1

  0
TEXT
  5
261C2
330
261C1
100
AcDbEntity
  8
文字
 62
     7
 48
50.0
100
AcDbText
 10
0.5859579978750844
 20
0.1862994167713623
 30
0.0
 40
1.0
  1
at
  7
STYLE2
100
AcDbText
  0
ENDBLK
  5
261C4
330
261C1
100
AcDbEntity
  8
0
 48
50.0
100
AcDbBlockEnd
  0
ENDSEC
  0
SECTION
  2
ENTITIES
  0
MTEXT
  5
763F
330
747D
100
AcDbEntity
  8
0
100
AcDbMText
 10
302.846345836809
 20
280.1983726409901
 30
0.0
 40
3.5
 41
5.323721266742722
 71
     1
 72
     5
  1

  7
MSMINCHO
 73
     1
 44
1.0
1001
ACAD
1000
MTEXTBEGIN
1070
    73
1070
     1
1070
    44
1040
1.0
1070
    74
1070
     0
1000
MTEXTEND
  0
LINE
  5
10B57
330
747D
100
AcDbEntity
  8
補助
  6
PHANTOM
 62
   230
 48
50.0
100
AcDbLine
 10
139.9999999999995
 20
11409.6
 30
0.0
 11
16307.2
 21
11409.6
 31
0.0
  0
LINE
  5
10B59
330
747D
100
AcDbEntity
  8
仕様書枠
  6
Continuous
 48
50.0
100
AcDbLine
 10
13107.2
 20
1200.0
 30
0.0
 11
13107.2
 21
-0.0000000000000729
 31
0.0
  0
LINE
  5
10B5D
330
747D
100
AcDbEntity
  8
仕様書枠
 48
50.0
100
AcDbLine
 10
140.0
 20
0.0
 30
0.0
 11
16307.2
 21
-0.0000000000000909
 31
0.0
  0
LINE
  5
10B5E
330
747D
100
AcDbEntity
  8
補助
  6
PHANTOM
 62
   230
 48
50.0
100
AcDbLine
 10
16307.2
 20
11409.6
 30
0.0
 11
16307.2
 21
1200.0
 31
0.0
  0
LINE
  5
10B6C
330
747D
100
AcDbEntity
  8
仕様書枠
 48
50.0
100
AcDbLine
 10
13107.2
 20
1200.0
 30
0.0
 11
16307.2
 21
1200.0
 31
0.0
  0
TEXT
  5
10B73
330
747D
100
AcDbEntity
  8
文字
 62
     7
 48
50.0
100
AcDbText
 10
13162.9790565769
 20
895.0906074299405
 30
0.0
 40
200.0
  1
基 礎 図
  7
STYLE2
100
AcDbText
  0
LINE
  5
10B7B
330
747D
100
AcDbEntity
  8
仕様書枠
 48
50.0
100
AcDbLine
 10
13107.2
 20
800.0
 30
0.0
 11
14251.2
 21
800.0
 31
0.0
  0
LINE
  5
10B88
330
747D
100
AcDbEntity
  8
仕様書枠
  6
Continuous
 48
50.0
100
AcDbLine
 10
14251.2
 20
1200.0
 30
0.0
 11
14251.2
 21
800.0
 31
0.0
  0
LINE
  5
16462
330
747D
100
AcDbEntity
  8
仕様書枠
 48
50.0
100
AcDbLine
 10
16307.2
 20
1200.0
 30
0.0
 11
16307.2
 21
-0.0000000000000909
 31
0.0
  0
LINE
  5
1903B
330
747D
100
AcDbEntity
  8
補助
  6
PHANTOM
 62
   230
 48
50.0
100
AcDbLine
 10
140.0
 20
0.0
 30
0.0
 11
139.9999999999995
 21
11409.6
 31
0.0
  0
LEADER
  5
1AC27
330
747D
100
AcDbEntity
  8
寸法
 48
50.0
100
AcDbLeader
  3
INABA_S50G
 73
     0
 74
     0
 75
     1
 40
120.0
 41
720.0000000000001
 76
     3
 10
10130.05985718447
 20
6944.474498259008
 30
0.0
 10
10286.83343157076
 20
6683.460584691175
 30
0.0
 10
10411.83343157076
 20
6683.460584691175
 30
0.0
340
1AC28
1001
ACAD
1000
DSTYLE
1002
{
1070
   341
1005
0
1070
    40
1040
1.0
1070
   343
1005
0
1070
   344
1005
0
1002
}
  0
MTEXT
  5
1AC28
102
{ACAD_REACTORS
330
1AC27
102
}
330
747D
100
AcDbEntity
  8
部品1
 62
     7
 48
50.0
100
AcDbMText
 10
11156.83343157076
 20
6768.460584691175
 30
0.0
 40
120.0
 41
0.0
 71
     6
 72
     1
  1
\A1;床下換気口
  7
STYLE1
 73
     1
 44
1.0
1001
ACAD
1000
MTEXTBEGIN
1070
    73
1070
     1
1070
    44
1040
1.0
1070
    74
1070
     0
1000
MTEXTEND
  0
TEXT
  5
1AC29
330
747D
100
AcDbEntity
  8
部品1
 48
50.0
100
AcDbText
 10
10472.64807370302
 20
6004.673939398008
 30
0.0
 40
80.0
  1
(a=45,b=55,c=75)
  7
STYLE1
100
AcDbText
  0
TEXT
  5
1AC2A
330
747D
100
AcDbEntity
  8
部品1
 48
50.0
100
AcDbText
 10
10314.06906494872
 20
6111.519160266762
 30
0.0
 40
80.0
  1
※a,b,cは屋根の出幅です。
  7
STYLE1
100
AcDbText
  0
MTEXT
  5
1AC2B
102
{ACAD_REACTORS
330
1AC2C
102
}
330
747D
100
AcDbEntity
  8
部品1
 62
     7
 48
50.0
100
AcDbMText
 10
11111.85626093733
 20
6290.829847199837
 30
0.0
 40
120.0
 41
0.0
 71
     6
 72
     1
  1
\A1;屋根の外寸
  7
STYLE1
 73
     1
 44
1.0
1001
ACAD
1000
MTEXTBEGIN
1070
    73
1070
     1
1070
    44
1040
1.0
1070
    74
1070
     0
1000
MTEXTEND
  0
LEADER
  5
1AC2C
330
747D
100
AcDbEntity
  8
寸法
 48
50.0
100
AcDbLeader
  3
INABA_S50G
 73
     0
 74
     0
 75
     1
 40
120.0
 41
672.0
 76
     3
 10
10173.91624874529
 20
6464.719190663412
 30
0.0
 10
10289.85626093733
 20
6205.829847199836
 30
0.0
 10
10414.85626093733
 20
6205.829847199836
 30
0.0
340
1AC2B
1001
ACAD
1000
DSTYLE
1002
{
1070
   341
1005
0
1070
    40
1040
1.0
1070
   343
1005
0
1070
   344
1005
0
1002
}
  0
TEXT
  5
1C7A1
330
747D
100
AcDbEntity
  8
文字
 62
     7
 48
50.0
100
AcDbText
 10
13188.16259899338
 20
79.80631269190417
 30
0.0
 40
80.0
  1
※布基礎には換気口を設けてください。
  7
STYLE2
100
AcDbText
  0
TEXT
  5
1C7E7
330
747D
100
AcDbEntity
  8
文字
 62
     7
 48
50.0
100
AcDbText
 10
13188.16259899338
 20
246.7109242801889
 30
0.0
 40
80.0
  1
※寒冷地等は地域の実情に合わせた基礎にして下さい。
  7
STYLE2
100
AcDbText
  0
TEXT
  5
1C7E8
330
747D
100
AcDbEntity
  8
文字
 62
     7
 48
50.0
100
AcDbText
 10
14325.79230300687
 20
499.5983841039506
 30
0.0
 40
160.0
  1
ＮＸＮ－１４ＤＬ－４
  7
STYLE2
100
AcDbText
  0
TEXT
  5
1C7EC
330
747D
100
AcDbEntity
  8
文字
 62
     7
 48
50.0
100
AcDbText
 10
14524.131837222
 20
1031.557706291229
 30
0.0
 40
100.0
  1
      <縮尺> S=1/40
  7
STYLE2
100
AcDbText
  0
TEXT
  5
1C7ED
330
747D
100
AcDbEntity
  8
文字
 62
     7
 48
50.0
100
AcDbText
 10
13201.43669998441
 20
477.2740661031257
 30
0.0
 40
160.0
  1
機種名
  7
STYLE2
100
AcDbText
  0
LINE
  5
1C7EF
330
747D
100
AcDbEntity
  8
文字
 62
     7
 48
50.0
100
AcDbLine
 10
13187.2
 20
400.0
 30
0.0
 11
16227.2
 21
400.0
 31
0.0
  0
MTEXT
  5
1D2D5
102
{ACAD_REACTORS
330
1D2D6
102
}
330
747D
100
AcDbEntity
  8
部品1
 62
     7
 48
50.0
100
AcDbMText
 10
11323.99523070988
 20
7996.135505966165
 30
0.0
 40
120.0
 41
0.0
 71
     6
 72
     1
  1
アンカーボルト
  7
STYLE1
 73
     1
 44
1.0
1001
ACAD
1000
MTEXTBEGIN
1070
    73
1070
     1
1070
    44
1040
1.0
1070
    74
1070
     0
1000
MTEXTEND
  0
LEADER
  5
1D2D6
330
747D
100
AcDbEntity
  8
寸法
 48
50.0
100
AcDbLeader
  3
INABA_S50G
 73
     0
 74
     0
 75
     1
 40
120.0
 41
994.3492424049171
 76
     3
 10
10005.680085757
 20
7557.730606082367
 30
0.0
 10
10179.64598830496
 20
7911.135505966166
 30
0.0
 10
10304.64598830497
 20
7911.135505966166
 30
0.0
340
1D2D5
1001
ACAD
1000
DSTYLE
1002
{
1070
   341
1005
0
1070
    40
1040
1.0
1070
   343
1005
0
1070
   344
1005
0
1002
}
  0
MTEXT
  5
1D332
102
{ACAD_REACTORS
330
1D333
102
}
330
747D
100
AcDbEntity
  8
部品1
 62
     7
 48
50.0
100
AcDbMText
 10
9688.828697015695
 20
6771.113282657212
 30
0.0
 40
120.0
 41
0.0
 71
     6
 72
     1
  1
CB
  7
STYLE1
 73
     1
 44
1.0
1001
ACAD
1000
MTEXTBEGIN
1070
    73
1070
     1
1070
    44
1040
1.0
1070
    74
1070
     0
1000
MTEXTEND
  0
LEADER
  5
1D333
330
747D
100
AcDbEntity
  8
寸法
 48
50.0
100
AcDbLeader
  3
INABA_S50G
 73
     0
 74
     0
 75
     1
 40
120.0
 41
149.591883092037
 76
     3
 10
9261.954011061014
 20
6908.831596212039
 30
0.0
 10
9389.236813923659
 20
6686.113282657213
 30
0.0
 10
9514.236813923659
 20
6686.113282657213
 30
0.0
340
1D332
1001
ACAD
1000
DSTYLE
1002
{
1070
   341
1005
0
1070
    40
1040
1.0
1070
   343
1005
0
1070
   344
1005
0
1002
}
  0
DIMENSION
  5
20DE1
330
747D
100
AcDbEntity
  8
寸法
 48
50.0
100
AcDbDimension
  2
*D19
 10
10173.6
 20
8638.743083782577
 30
0.0
 11
10444.77462120246
 21
8638.743083782577
 31
0.0
 70
   160
  1
a
 71
     5
 42
45.0
  3
INABA_S40G
100
AcDbAlignedDimension
 13
10128.6
 23
7680.522761723657
 33
0.0
 14
10173.6
 24
8406.789219817566
 34
0.0
100
AcDbRotatedDimension
1001
ACAD
1000
DSTYLE
1002
{
1070
   341
1005
0
1002
}
  0
DIMENSION
  5
20DFB
330
747D
100
AcDbEntity
  8
寸法
 48
50.0
100
AcDbDimension
  2
*D20
 10
6318.599999999999
 20
8638.743083782577
 30
0.0
 11
6002.42537879754
 21
8638.743083782577
 31
0.0
 70
   160
  1
a
 71
     5
 42
44.99999999999636
  3
INABA_S40G
100
AcDbAlignedDimension
 13
6273.600000000003
 23
8406.789219817568
 33
0.0
 14
6318.599999999999
 24
7680.522761723657
 34
0.0
100
AcDbRotatedDimension
1001
ACAD
1000
DSTYLE
1002
{
1070
   341
1005
0
1002
}
  0
LINE
  5
22711
330
747D
100
AcDbEntity
  8
想像線
 48
10.0
100
AcDbLine
 10
10173.6
 20
7755.522761723658
 30
0.0
 11
6273.600000000001
 21
7755.522761723665
 31
0.0
  0
LINE
  5
22712
330
747D
100
AcDbEntity
  8
想像線
 48
10.0
100
AcDbLine
 10
6273.599999999998
 20
6085.522761723698
 30
0.0
 11
6273.600000000001
 21
7755.522761723662
 31
0.0
  0
LINE
  5
22713
330
747D
100
AcDbEntity
  8
想像線
 48
10.0
100
AcDbLine
 10
10173.6
 20
6085.522761723703
 30
0.0
 11
10173.6
 21
7755.522761723658
 31
0.0
  0
LINE
  5
22714
330
747D
100
AcDbEntity
  8
想像線
 48
10.0
100
AcDbLine
 10
10173.6
 20
6085.522761723703
 30
0.0
 11
6273.599999999997
 21
6085.522761723693
 31
0.0
  0
DIMENSION
  5
22741
330
747D
100
AcDbEntity
  8
寸法
 48
50.0
100
AcDbDimension
  2
*D21
 10
5443.721909610673
 20
7680.522761723657
 30
0.0
 11
5343.721909610673
 21
7718.022761723661
 31
0.0
 70
    32
  1
c
 71
     5
 42
75.00000000000546
  3
INABA_S40G
100
AcDbAlignedDimension
 13
5695.665006330068
 23
7755.522761723662
 33
0.0
 14
6318.599999999999
 24
7680.522761723657
 34
0.0
 50
90.0
100
AcDbRotatedDimension
1001
ACAD
1000
DSTYLE
1002
{
1070
   341
1005
0
1002
}
  0
DIMENSION
  5
2275B
330
747D
100
AcDbEntity
  8
寸法
 48
50.0
100
AcDbDimension
  2
*D22
 10
5443.721909610673
 20
6085.522761723713
 30
0.0
 11
5343.721909610671
 21
6113.022761723701
 31
0.0
 70
    32
  1
b
 71
     5
 42
54.99999999997545
  3
INABA_S40G
100
AcDbAlignedDimension
 13
6318.599999999998
 23
6140.522761723688
 33
0.0
 14
5695.66500633007
 24
6085.522761723713
 34
0.0
 50
90.0
100
AcDbRotatedDimension
1001
ACAD
1000
DSTYLE
1002
{
1070
   341
1005
0
1002
}
  0
DIMENSION
  5
23FD9
330
747D
100
AcDbEntity
  8
寸法
 48
50.0
100
AcDbDimension
  2
*D24
 10
9447.81202022566
 20
6140.522761723674
 30
0.0
 11
9447.812020225658
 21
5853.559179046502
 31
0.0
 70
   160
 71
     5
 42
279.9999999999736
  3
INABA_S40G
100
AcDbAlignedDimension
 13
9548.599999999991
 23
6420.522761723647
 33
0.0
 14
9548.600000000002
 24
6140.522761723674
 34
0.0
 50
90.0
100
AcDbRotatedDimension
1001
ACAD
1000
DSTYLE
1002
{
1070
   341
1005
0
1002
}
  0
DIMENSION
  5
23FDA
330
747D
100
AcDbEntity
  8
寸法
 48
50.0
100
AcDbDimension
  2
*D25
 10
9447.81202022566
 20
7480.522761723658
 30
0.0
 11
9447.812020225658
 21
7967.486344400814
 31
0.0
 70
   160
 71
     5
 42
199.9999999999854
  3
INABA_S40G
100
AcDbAlignedDimension
 13
9548.600000000002
 23
7680.522761723644
 33
0.0
 14
9548.600000000009
 24
7480.522761723658
 34
0.0
 50
90.0
100
AcDbRotatedDimension
1001
ACAD
1000
DSTYLE
1002
{
1070
   341
1005
0
1002
}
  0
DIMENSION
  5
24043
330
747D
100
AcDbEntity
  8
寸法
 48
50.0
100
AcDbDimension
  2
*D23
 10
10008.6
 20
7230.121374821767
 30
0.0
 11
10398.65905511812
 21
7230.121374821767
 31
0.0
 70
   160
 71
     5
 42
120.0
  3
INABA_S40G
100
AcDbAlignedDimension
 13
10128.6
 23
7115.522761723693
 33
0.0
 14
10008.6
 24
7115.522761723693
 34
0.0
100
AcDbRotatedDimension
1001
ACAD
1000
DSTYLE
1002
{
1070
   341
1005
0
1002
}
  0
LINE
  5
25757
330
747D
100
AcDbEntity
  8
部品1
 48
50.0
100
AcDbLine
 10
10008.6
 20
7480.522761723657
 30
0.0
 11
6438.6
 21
7480.522761723658
 31
0.0
  0
LINE
  5
25759
330
747D
100
AcDbEntity
  8
部品1
 48
50.0
100
AcDbLine
 10
10128.6
 20
6140.522761723674
 30
0.0
 11
6318.599999999999
 21
6140.522761723643
 31
0.0
  0
LINE
  5
2575A
330
747D
100
AcDbEntity
  8
部品1
 48
50.0
100
AcDbLine
 10
10128.6
 20
7680.522761723657
 30
0.0
 11
6318.599999999999
 21
7680.522761723657
 31
0.0
  0
DIMENSION
  5
2575B
330
747D
100
AcDbEntity
  8
寸法
 48
50.0
100
AcDbDimension
  2
*D26
 10
8105.6
 20
8406.789219817566
 30
0.0
 11
9055.600000000001
 21
8506.789219817568
 31
0.0
 70
    32
 71
     5
 42
1900.000000000003
  3
INABA_S40G
100
AcDbAlignedDimension
 13
10005.6
 23
7607.522761723656
 33
0.0
 14
8105.6
 24
7607.522761723656
 34
0.0
100
AcDbRotatedDimension
1001
ACAD
1000
DSTYLE
1002
{
1070
   341
1005
0
1002
}
  0
DIMENSION
  5
2575D
330
747D
100
AcDbEntity
  8
寸法
 48
50.0
100
AcDbDimension
  2
*D27
 10
10128.6
 20
8638.743083782575
 30
0.0
 11
8223.600000000001
 21
8738.743083782575
 31
0.0
 70
    32
 71
     5
 42
3810.000000000003
  3
INABA_S40G
100
AcDbAlignedDimension
 13
6318.599999999999
 23
7680.522761723657
 33
0.0
 14
10128.6
 24
7680.522761723657
 34
0.0
100
AcDbRotatedDimension
1001
ACAD
1000
DSTYLE
1002
{
1070
   341
1005
0
1002
}
  0
TEXT
  5
2575E
330
747D
100
AcDbEntity
  8
寸法
 48
50.0
100
AcDbText
 10
8256.696499061646
 20
6159.204052516393
 30
0.0
 40
120.0
  1
扉面
  7
STYLE1
100
AcDbText
  0
DIMENSION
  5
25760
330
747D
100
AcDbEntity
  8
寸法
 48
50.0
100
AcDbDimension
  2
*D28
 10
8223.600000000006
 20
8163.131578393905
 30
0.0
 11
8698.600000000007
 21
8263.131578393904
 31
0.0
 70
    32
 71
     5
 42
950.0000000000037
  3
INABA_S40G
100
AcDbAlignedDimension
 13
9173.600000000009
 23
6997.522761723655
 33
0.0
 14
8223.600000000006
 24
6997.522761723655
 34
0.0
100
AcDbRotatedDimension
1001
ACAD
1000
DSTYLE
1002
{
1070
   341
1005
0
1002
}
  0
LINE
  5
25761
102
{ACAD_REACTORS
330
25E57
102
}
330
747D
100
AcDbEntity
  8
部品1
 48
50.0
100
AcDbLine
 10
6318.599999999999
 20
6140.522761723656
 30
0.0
 11
6318.599999999999
 21
7680.522761723657
 31
0.0
  0
DIMENSION
  5
25762
330
747D
100
AcDbEntity
  8
寸法
 48
50.0
100
AcDbDimension
  2
*D29
 10
5695.665006330072
 20
6338.522761723661
 30
0.0
 11
5695.66500633007
 21
6948.022761723656
 31
0.0
 70
   160
 71
     5
 42
1218.999999999996
  3
INABA_S40G
100
AcDbAlignedDimension
 13
6391.6
 23
7557.522761723657
 33
0.0
 14
6391.600000000007
 24
6338.522761723659
 34
0.0
 50
90.0
100
AcDbRotatedDimension
1001
ACAD
1000
DSTYLE
1002
{
1070
   341
1005
0
1002
}
  0
DIMENSION
  5
25763
330
747D
100
AcDbEntity
  8
寸法
 48
50.0
100
AcDbDimension
  2
*D30
 10
5443.721909610674
 20
6140.522761723657
 30
0.0
 11
5443.721909610673
 21
6948.022761723656
 31
0.0
 70
   160
 71
     5
 42
1540.0
  3
INABA_S40G
100
AcDbAlignedDimension
 13
6318.599999999999
 23
7680.522761723657
 33
0.0
 14
6318.599999999999
 24
6140.522761723656
 34
0.0
 50
90.0
100
AcDbRotatedDimension
1001
ACAD
1000
DSTYLE
1002
{
1070
   341
1005
0
1002
}
  0
DIMENSION
  5
25766
330
747D
100
AcDbEntity
  8
寸法
 48
50.0
100
AcDbDimension
  2
*D31
 10
6801.2859906143
 20
7680.522761723657
 30
0.0
 11
6801.285990614299
 21
7240.117552417832
 31
0.0
 70
   160
 71
     5
 42
733.0
  3
INABA_S40G
100
AcDbAlignedDimension
 13
7223.600000000008
 23
6947.522761723655
 33
0.0
 14
6892.765475140901
 24
7680.522761723657
 34
0.0
 50
90.0
100
AcDbRotatedDimension
1001
ACAD
1000
DSTYLE
1002
{
1070
   341
1005
0
1002
}
  0
DIMENSION
  5
25767
330
747D
100
AcDbEntity
  8
寸法
 48
50.0
100
AcDbDimension
  2
*D32
 10
7273.600000000008
 20
8163.131578393905
 30
0.0
 11
7748.600000000006
 21
8263.131578393904
 31
0.0
 70
    32
 71
     5
 42
949.9999999999991
  3
INABA_S40G
100
AcDbAlignedDimension
 13
8223.600000000006
 23
6997.522761723655
 33
0.0
 14
7273.600000000008
 24
6997.522761723655
 34
0.0
100
AcDbRotatedDimension
1001
ACAD
1000
DSTYLE
1002
{
1070
   341
1005
0
1002
}
  0
DIMENSION
  5
25768
330
747D
100
AcDbEntity
  8
寸法
 48
50.0
100
AcDbDimension
  2
*D33
 10
6318.599999999999
 20
8163.131578393905
 30
0.0
 11
6796.100000000002
 21
8263.131578393904
 31
0.0
 70
    32
 71
     5
 42
955.0000000000073
  3
INABA_S40G
100
AcDbAlignedDimension
 13
7273.600000000008
 23
6997.522761723655
 33
0.0
 14
6318.599999999999
 24
7680.522761723657
 34
0.0
100
AcDbRotatedDimension
1001
ACAD
1000
DSTYLE
1002
{
1070
   341
1005
0
1002
}
  0
LINE
  5
25769
330
747D
100
AcDbEntity
  8
細線
 48
50.0
100
AcDbLine
 10
6744.601803738418
 20
6140.522761723676
 30
0.0
 11
6898.599999999994
 21
6294.520957985255
 31
0.0
  0
LINE
  5
2576A
330
747D
100
AcDbEntity
  8
細線
 48
50.0
100
AcDbLine
 10
6789.503084343763
 20
6140.522761723678
 30
0.0
 11
6898.599999999999
 21
6249.619677379911
 31
0.0
  0
LINE
  5
2576B
330
747D
100
AcDbEntity
  8
細線
 48
50.0
100
AcDbLine
 10
6698.599999999995
 20
6274.126080406637
 30
0.0
 11
6844.996681317008
 21
6420.522761723649
 31
0.0
  0
LINE
  5
2576C
330
747D
100
AcDbEntity
  8
細線
 48
50.0
100
AcDbLine
 10
6698.599999999996
 20
6229.224799801292
 30
0.0
 11
6889.897961922343
 21
6420.522761723649
 31
0.0
  0
LINE
  5
2576D
330
747D
100
AcDbEntity
  8
細線
 48
50.0
100
AcDbLine
 10
6698.599999999996
 20
6184.323519195946
 30
0.0
 11
6898.599999999992
 21
6384.323519195941
 31
0.0
  0
LINE
  5
2576E
330
747D
100
AcDbEntity
  8
細線
 48
50.0
100
AcDbLine
 10
6699.700523133071
 20
6140.522761723674
 30
0.0
 11
6898.599999999992
 21
6339.422238590596
 31
0.0
  0
ARC
  5
2576F
330
747D
100
AcDbEntity
  8
想像線
 48
5.0
100
AcDbCircle
 10
7088.600000000006
 20
6140.522761723659
 30
0.0
 40
720.0
100
AcDbArc
 50
180.0
 51
270.0
  0
DIMENSION
  5
25770
330
747D
100
AcDbEntity
  8
寸法
 48
50.0
100
AcDbDimension
  2
*D34
 10
6801.2859906143
 20
6947.522761723655
 30
0.0
 11
6801.285990614299
 21
6625.522761723655
 31
0.0
 70
   160
 71
     5
 42
806.999999999989
  3
INABA_S40G
100
AcDbAlignedDimension
 13
6892.765475140901
 23
6140.522761723667
 33
0.0
 14
7223.600000000008
 24
6947.522761723655
 34
0.0
 50
90.0
100
AcDbRotatedDimension
1001
ACAD
1000
DSTYLE
1002
{
1070
   341
1005
0
1002
}
  0
DIMENSION
  5
25771
330
747D
100
AcDbEntity
  8
寸法
 48
50.0
100
AcDbDimension
  2
*D35
 10
6205.512673767882
 20
5420.522761723653
 30
0.0
 11
6205.512673767881
 21
5780.522761723654
 31
0.0
 70
   160
  1
扉の出<>
 71
     5
 42
720.0
  3
INABA_S40G
100
AcDbAlignedDimension
 13
6318.600000000007
 23
6140.522761723652
 33
0.0
 14
6674.325326928812
 24
5420.522761723653
 34
0.0
 50
90.0
100
AcDbRotatedDimension
1001
ACAD
1000
DSTYLE
1002
{
1070
   341
1005
0
1002
}
  0
DIMENSION
  5
25772
330
747D
100
AcDbEntity
  8
寸法
 48
50.0
100
AcDbDimension
  2
*D36
 10
5695.665006330071
 20
6140.522761723657
 30
0.0
 11
5695.66500633007
 21
5804.991812881064
 31
0.0
 70
   160
 71
     5
 42
198.0000000000036
  3
INABA_S40G
100
AcDbAlignedDimension
 13
6391.600000000007
 23
6338.522761723659
 33
0.0
 14
6318.599999999999
 24
6140.522761723656
 34
0.0
 50
90.0
100
AcDbRotatedDimension
1001
ACAD
1000
DSTYLE
1002
{
1070
   341
1005
0
1002
}
  0
LINE
  5
25774
330
747D
100
AcDbEntity
  8
センター
 48
2.0
100
AcDbLine
 10
6391.600000000007
 20
6338.522761723659
 30
0.0
 11
6491.600000000007
 21
6338.522761723659
 31
0.0
  0
LINE
  5
25775
330
747D
100
AcDbEntity
  8
部品1
 48
50.0
100
AcDbLine
 10
6698.599999999991
 20
6420.522761723647
 30
0.0
 11
6698.599999999998
 21
6140.522761723674
 31
0.0
  0
LINE
  5
25776
330
747D
100
AcDbEntity
  8
センター
 48
2.0
100
AcDbLine
 10
6441.600000000007
 20
6388.52276172366
 30
0.0
 11
6441.600000000007
 21
6288.522761723659
 31
0.0
  0
CIRCLE
  5
25777
330
747D
100
AcDbEntity
  8
部品1
 48
50.0
100
AcDbCircle
 10
6441.599999999993
 20
6338.522761723659
 30
0.0
 40
35.0
  0
LINE
  5
25778
330
747D
100
AcDbEntity
  8
細線
 48
50.0
100
AcDbLine
 10
6698.599999999991
 20
6363.928641617327
 30
0.0
 11
6755.194120106316
 21
6420.522761723649
 31
0.0
  0
LINE
  5
25779
330
747D
100
AcDbEntity
  8
細線
 48
50.0
100
AcDbLine
 10
6698.599999999995
 20
6319.027361011984
 30
0.0
 11
6800.095400711654
 21
6420.52276172365
 31
0.0
  0
LINE
  5
2577A
102
{ACAD_REACTORS
330
25E57
102
}
330
747D
100
AcDbEntity
  8
部品1
 48
50.0
100
AcDbLine
 10
6438.6
 20
7035.522761723673
 30
0.0
 11
6318.599999999991
 21
7035.522761723675
 31
0.0
  0
LINE
  5
2577B
102
{ACAD_REACTORS
330
25E57
102
}
330
747D
100
AcDbEntity
  8
部品1
 48
50.0
100
AcDbLine
 10
6438.6
 20
6835.522761723675
 30
0.0
 11
6318.599999999991
 21
6835.522761723675
 31
0.0
  0
LINE
  5
2577D
330
747D
100
AcDbEntity
  8
想像線
 48
5.0
100
AcDbLine
 10
7088.600000000006
 20
6140.52276172367
 30
0.0
 11
7088.600000000006
 21
5420.52276172366
 31
0.0
  0
LINE
  5
2577F
330
747D
100
AcDbEntity
  8
細線
 48
50.0
100
AcDbLine
 10
6834.404364949111
 20
6140.522761723678
 30
0.0
 11
6898.599999999999
 21
6204.718396774566
 31
0.0
  0
LINE
  5
25780
330
747D
100
AcDbEntity
  8
部品1
 48
50.0
100
AcDbLine
 10
6898.599999999992
 20
6420.52276172365
 30
0.0
 11
6898.599999999998
 21
6140.522761723678
 31
0.0
  0
LINE
  5
25781
330
747D
100
AcDbEntity
  8
細線
 48
50.0
100
AcDbLine
 10
6879.305645554459
 20
6140.52276172368
 30
0.0
 11
6898.600000000001
 21
6159.817116169223
 31
0.0
  0
LINE
  5
25782
330
747D
100
AcDbEntity
  8
部品1
 48
50.0
100
AcDbLine
 10
7373.600000000007
 20
7047.522761723655
 30
0.0
 11
7173.600000000007
 21
7047.522761723655
 31
0.0
  0
LINE
  5
25783
330
747D
100
AcDbEntity
  8
部品1
 48
50.0
100
AcDbLine
 10
7373.600000000007
 20
6847.522761723656
 30
0.0
 11
7173.600000000007
 21
6847.522761723656
 31
0.0
  0
LINE
  5
25784
330
747D
100
AcDbEntity
  8
部品1
 48
50.0
100
AcDbLine
 10
7173.600000000007
 20
6847.522761723656
 30
0.0
 11
7173.600000000007
 21
7047.522761723655
 31
0.0
  0
LINE
  5
25785
330
747D
100
AcDbEntity
  8
センター
 48
2.0
100
AcDbLine
 10
7223.600000000008
 20
6947.522761723655
 30
0.0
 11
7323.600000000007
 21
6947.522761723655
 31
0.0
  0
LINE
  5
25786
330
747D
100
AcDbEntity
  8
部品1
 48
50.0
100
AcDbLine
 10
7373.600000000007
 20
6847.522761723656
 30
0.0
 11
7373.600000000007
 21
7047.522761723655
 31
0.0
  0
LINE
  5
25787
330
747D
100
AcDbEntity
  8
センター
 48
2.0
100
AcDbLine
 10
7273.600000000008
 20
6997.522761723655
 30
0.0
 11
7273.600000000008
 21
6897.522761723656
 31
0.0
  0
LINE
  5
25794
330
747D
100
AcDbEntity
  8
センター
 48
2.0
100
AcDbLine
 10
8105.600000000007
 20
6388.52276172366
 30
0.0
 11
8105.600000000007
 21
6288.522761723659
 31
0.0
  0
CIRCLE
  5
25795
330
747D
100
AcDbEntity
  8
部品1
 48
50.0
100
AcDbCircle
 10
8105.600000000007
 20
6338.522761723659
 30
0.0
 40
35.0
  0
LINE
  5
25796
330
747D
100
AcDbEntity
  8
センター
 48
2.0
100
AcDbLine
 10
8055.600000000007
 20
6338.522761723659
 30
0.0
 11
8155.600000000006
 21
6338.522761723659
 31
0.0
  0
LINE
  5
25797
330
747D
100
AcDbEntity
  8
センター
 48
2.0
100
AcDbLine
 10
8173.600000000007
 20
6947.522761723655
 30
0.0
 11
8273.600000000007
 21
6947.522761723655
 31
0.0
  0
LINE
  5
25798
330
747D
100
AcDbEntity
  8
部品1
 48
50.0
100
AcDbLine
 10
8323.600000000006
 20
7047.522761723655
 30
0.0
 11
8123.600000000008
 21
7047.522761723655
 31
0.0
  0
LINE
  5
25799
330
747D
100
AcDbEntity
  8
部品1
 48
50.0
100
AcDbLine
 10
8323.600000000006
 20
6847.522761723656
 30
0.0
 11
8123.600000000008
 21
6847.522761723656
 31
0.0
  0
LINE
  5
2579A
330
747D
100
AcDbEntity
  8
部品1
 48
50.0
100
AcDbLine
 10
8123.600000000008
 20
6847.522761723656
 30
0.0
 11
8123.600000000008
 21
7047.522761723655
 31
0.0
  0
LINE
  5
2579B
330
747D
100
AcDbEntity
  8
センター
 48
2.0
100
AcDbLine
 10
8223.600000000006
 20
6997.522761723655
 30
0.0
 11
8223.600000000006
 21
6897.522761723656
 31
0.0
  0
LINE
  5
2579C
330
747D
100
AcDbEntity
  8
部品1
 48
50.0
100
AcDbLine
 10
8323.600000000006
 20
6847.522761723656
 30
0.0
 11
8323.600000000006
 21
7047.522761723655
 31
0.0
  0
LINE
  5
2579D
330
747D
100
AcDbEntity
  8
細線
 48
50.0
100
AcDbLine
 10
6698.599999999998
 20
7572.546570092163
 30
0.0
 11
6806.576191631501
 21
7680.522761723664
 31
0.0
  0
LINE
  5
2579E
330
747D
100
AcDbEntity
  8
細線
 48
50.0
100
AcDbLine
 10
6698.600000000003
 20
7527.645289486819
 30
0.0
 11
6851.477472236848
 21
7680.522761723667
 31
0.0
  0
LINE
  5
2579F
330
747D
100
AcDbEntity
  8
細線
 48
50.0
100
AcDbLine
 10
6698.600000000003
 20
7482.744008881477
 30
0.0
 11
6896.378752842193
 21
7680.522761723664
 31
0.0
  0
LINE
  5
257A0
330
747D
100
AcDbEntity
  8
細線
 48
50.0
100
AcDbLine
 10
6741.280033447529
 20
7480.522761723654
 30
0.0
 11
6898.599999999998
 21
7637.842728276122
 31
0.0
  0
LINE
  5
257A1
330
747D
100
AcDbEntity
  8
細線
 48
50.0
100
AcDbLine
 10
6786.181314052877
 20
7480.522761723654
 30
0.0
 11
6898.599999999999
 21
7592.941447670779
 31
0.0
  0
DIMENSION
  5
257A2
330
747D
100
AcDbEntity
  8
寸法
 48
50.0
100
AcDbDimension
  2
*D37
 10
6441.6
 20
8406.789219817566
 30
0.0
 11
7273.599999999999
 21
8506.789219817568
 31
0.0
 70
    32
 71
     5
 42
1664.0
  3
INABA_S40G
100
AcDbAlignedDimension
 13
8105.6
 23
7607.522761723656
 33
0.0
 14
6441.6
 24
7607.522761723656
 34
0.0
100
AcDbRotatedDimension
1001
ACAD
1000
DSTYLE
1002
{
1070
   341
1005
0
1002
}
  0
DIMENSION
  5
257A4
330
747D
100
AcDbEntity
  8
寸法
 48
50.0
100
AcDbDimension
  2
*D38
 10
6318.599999999999
 20
8406.789219817566
 30
0.0
 11
6045.493398282201
 21
8406.789219817566
 31
0.0
 70
   160
 71
     5
 42
123.0
  3
INABA_S40G
100
AcDbAlignedDimension
 13
6441.6
 23
7607.522761723656
 33
0.0
 14
6318.599999999999
 24
7680.522761723657
 34
0.0
100
AcDbRotatedDimension
1001
ACAD
1000
DSTYLE
1002
{
1070
   341
1005
0
1002
}
  0
DIMENSION
  5
257A6
330
747D
100
AcDbEntity
  8
寸法
 48
50.0
100
AcDbDimension
  2
*D39
 10
5695.665006330071
 20
7557.522761723657
 30
0.0
 11
5695.66500633007
 21
7953.629363441456
 31
0.0
 70
   160
 71
     5
 42
123.0
  3
INABA_S40G
100
AcDbAlignedDimension
 13
6318.599999999999
 23
7680.522761723657
 33
0.0
 14
6391.6
 24
7557.522761723657
 34
0.0
 50
90.0
100
AcDbRotatedDimension
1001
ACAD
1000
DSTYLE
1002
{
1070
   341
1005
0
1002
}
  0
LINE
  5
257A7
330
747D
100
AcDbEntity
  8
細線
 48
50.0
100
AcDbLine
 10
6698.599999999998
 20
7617.447850697509
 30
0.0
 11
6761.674911026156
 21
7680.522761723665
 31
0.0
  0
LINE
  5
257A8
330
747D
100
AcDbEntity
  8
部品1
 48
50.0
100
AcDbLine
 10
6698.599999999996
 20
7680.522761723665
 30
0.0
 11
6698.600000000003
 21
7480.522761723657
 31
0.0
  0
LINE
  5
257A9
330
747D
100
AcDbEntity
  8
センター
 48
2.0
100
AcDbLine
 10
6391.6
 20
7557.522761723657
 30
0.0
 11
6491.6
 21
7557.522761723657
 31
0.0
  0
CIRCLE
  5
257AA
330
747D
100
AcDbEntity
  8
部品1
 48
50.0
100
AcDbCircle
 10
6441.6
 20
7557.522761723657
 30
0.0
 40
35.0
  0
LINE
  5
257AB
330
747D
100
AcDbEntity
  8
センター
 48
2.0
100
AcDbLine
 10
6441.6
 20
7607.522761723656
 30
0.0
 11
6441.6
 21
7507.522761723656
 31
0.0
  0
LINE
  5
257AC
330
747D
100
AcDbEntity
  8
細線
 48
50.0
100
AcDbLine
 10
6698.599999999998
 20
7662.34913130285
 30
0.0
 11
6716.77363042081
 21
7680.522761723667
 31
0.0
  0
LINE
  5
257AE
330
747D
100
AcDbEntity
  8
部品1
 48
50.0
100
AcDbLine
 10
6898.599999999996
 20
7680.522761723665
 30
0.0
 11
6898.600000000003
 21
7480.522761723657
 31
0.0
  0
LINE
  5
257AF
330
747D
100
AcDbEntity
  8
細線
 48
50.0
100
AcDbLine
 10
6831.082594658224
 20
7480.522761723654
 30
0.0
 11
6898.599999999999
 21
7548.040167065434
 31
0.0
  0
LINE
  5
257B0
330
747D
100
AcDbEntity
  8
細線
 48
50.0
100
AcDbLine
 10
6875.983875263568
 20
7480.522761723654
 30
0.0
 11
6898.600000000001
 21
7503.13888646009
 31
0.0
  0
LINE
  5
257B1
330
747D
100
AcDbEntity
  8
細線
 48
50.0
100
AcDbLine
 10
7648.600000000003
 20
7527.645289486819
 30
0.0
 11
7801.477472236848
 21
7680.522761723667
 31
0.0
  0
LINE
  5
257B2
330
747D
100
AcDbEntity
  8
細線
 48
50.0
100
AcDbLine
 10
7648.599999999999
 20
7572.546570092163
 30
0.0
 11
7756.576191631501
 21
7680.522761723664
 31
0.0
  0
LINE
  5
257B3
330
747D
100
AcDbEntity
  8
細線
 48
50.0
100
AcDbLine
 10
7648.599999999999
 20
7617.447850697509
 30
0.0
 11
7711.674911026157
 21
7680.522761723665
 31
0.0
  0
LINE
  5
257B4
330
747D
100
AcDbEntity
  8
細線
 48
50.0
100
AcDbLine
 10
7648.600000000003
 20
7482.744008881477
 30
0.0
 11
7846.378752842193
 21
7680.522761723664
 31
0.0
  0
LINE
  5
257B5
330
747D
100
AcDbEntity
  8
部品1
 48
50.0
100
AcDbLine
 10
7648.599999999996
 20
7680.522761723665
 30
0.0
 11
7648.600000000003
 21
7480.522761723657
 31
0.0
  0
LINE
  5
257B6
330
747D
100
AcDbEntity
  8
部品1
 48
50.0
100
AcDbLine
 10
7848.599999999996
 20
7680.522761723665
 30
0.0
 11
7848.600000000003
 21
7480.522761723657
 31
0.0
  0
LINE
  5
257B7
330
747D
100
AcDbEntity
  8
細線
 48
50.0
100
AcDbLine
 10
7691.280033447529
 20
7480.522761723654
 30
0.0
 11
7848.599999999997
 21
7637.842728276122
 31
0.0
  0
LINE
  5
257B8
330
747D
100
AcDbEntity
  8
細線
 48
50.0
100
AcDbLine
 10
7736.181314052877
 20
7480.522761723654
 30
0.0
 11
7848.599999999999
 21
7592.941447670779
 31
0.0
  0
LINE
  5
257B9
330
747D
100
AcDbEntity
  8
細線
 48
50.0
100
AcDbLine
 10
7825.983875263567
 20
7480.522761723654
 30
0.0
 11
7848.600000000002
 21
7503.13888646009
 31
0.0
  0
LINE
  5
257BA
330
747D
100
AcDbEntity
  8
細線
 48
50.0
100
AcDbLine
 10
7781.082594658224
 20
7480.522761723654
 30
0.0
 11
7848.599999999999
 21
7548.040167065434
 31
0.0
  0
LINE
  5
257BB
330
747D
100
AcDbEntity
  8
センター
 48
2.0
100
AcDbLine
 10
8055.6
 20
7557.522761723657
 30
0.0
 11
8155.599999999999
 21
7557.522761723657
 31
0.0
  0
CIRCLE
  5
257BC
330
747D
100
AcDbEntity
  8
部品1
 48
50.0
100
AcDbCircle
 10
8105.6
 20
7557.522761723657
 30
0.0
 40
35.0
  0
LINE
  5
257BD
330
747D
100
AcDbEntity
  8
センター
 48
2.0
100
AcDbLine
 10
8105.6
 20
7607.522761723656
 30
0.0
 11
8105.6
 21
7507.522761723656
 31
0.0
  0
LINE
  5
257BE
330
747D
100
AcDbEntity
  8
細線
 48
50.0
100
AcDbLine
 10
7648.599999999998
 20
7662.34913130285
 30
0.0
 11
7666.77363042081
 21
7680.522761723667
 31
0.0
  0
LINE
  5
257BF
102
{ACAD_REACTORS
330
25E73
102
}
330
747D
100
AcDbEntity
  8
部品1
 48
50.0
100
AcDbLine
 10
10128.6
 20
6140.522761723674
 30
0.0
 11
10128.6
 21
7680.522761723657
 31
0.0
  0
DIMENSION
  5
257C4
330
747D
100
AcDbEntity
  8
寸法
 48
50.0
100
AcDbDimension
  2
*D40
 10
9173.600000000009
 20
8163.131578393905
 30
0.0
 11
9651.100000000006
 21
8263.131578393904
 31
0.0
 70
    32
 71
     5
 42
954.9999999999927
  3
INABA_S40G
100
AcDbAlignedDimension
 13
10128.6
 23
7680.522761723657
 33
0.0
 14
9173.600000000009
 24
6997.522761723655
 34
0.0
100
AcDbRotatedDimension
1001
ACAD
1000
DSTYLE
1002
{
1070
   341
1005
0
1002
}
  0
LINE
  5
257C6
102
{ACAD_REACTORS
330
25E73
102
}
330
747D
100
AcDbEntity
  8
部品1
 48
50.0
100
AcDbLine
 10
10128.59999999999
 20
6835.522761723692
 30
0.0
 11
10008.6
 21
6835.522761723693
 31
0.0
  0
LINE
  5
257C7
102
{ACAD_REACTORS
330
25E73
102
}
330
747D
100
AcDbEntity
  8
部品1
 48
50.0
100
AcDbLine
 10
10128.59999999999
 20
7035.522761723692
 30
0.0
 11
10008.6
 21
7035.522761723692
 31
0.0
  0
LINE
  5
257CB
330
747D
100
AcDbEntity
  8
部品1
 48
50.0
100
AcDbLine
 10
9273.600000000008
 20
6847.522761723656
 30
0.0
 11
9073.600000000009
 21
6847.522761723656
 31
0.0
  0
LINE
  5
257CC
330
747D
100
AcDbEntity
  8
部品1
 48
50.0
100
AcDbLine
 10
9273.600000000008
 20
7047.522761723655
 30
0.0
 11
9073.600000000009
 21
7047.522761723655
 31
0.0
  0
LINE
  5
257D9
330
747D
100
AcDbEntity
  8
センター
 48
2.0
100
AcDbLine
 10
9123.600000000008
 20
6947.522761723655
 30
0.0
 11
9223.60000000001
 21
6947.522761723655
 31
0.0
  0
LINE
  5
257DA
330
747D
100
AcDbEntity
  8
センター
 48
2.0
100
AcDbLine
 10
9173.600000000009
 20
6997.522761723655
 30
0.0
 11
9173.600000000009
 21
6897.522761723656
 31
0.0
  0
LINE
  5
257DB
330
747D
100
AcDbEntity
  8
部品1
 48
50.0
100
AcDbLine
 10
9073.600000000009
 20
6847.522761723656
 30
0.0
 11
9073.600000000009
 21
7047.522761723655
 31
0.0
  0
LINE
  5
257E8
330
747D
100
AcDbEntity
  8
センター
 48
2.0
100
AcDbLine
 10
10005.60000000001
 20
6388.52276172366
 30
0.0
 11
10005.60000000001
 21
6288.522761723659
 31
0.0
  0
CIRCLE
  5
257E9
330
747D
100
AcDbEntity
  8
部品1
 48
50.0
100
AcDbCircle
 10
10005.60000000001
 20
6338.522761723659
 30
0.0
 40
35.0
  0
LINE
  5
257EA
330
747D
100
AcDbEntity
  8
センター
 48
2.0
100
AcDbLine
 10
9955.600000000011
 20
6338.522761723659
 30
0.0
 11
10055.60000000001
 21
6338.522761723659
 31
0.0
  0
LINE
  5
257EB
330
747D
100
AcDbEntity
  8
部品1
 48
50.0
100
AcDbLine
 10
9273.600000000008
 20
6847.522761723656
 30
0.0
 11
9273.600000000008
 21
7047.522761723655
 31
0.0
  0
DIMENSION
  5
257F0
330
747D
100
AcDbEntity
  8
寸法
 48
50.0
100
AcDbDimension
  2
*D41
 10
10005.6
 20
8406.789219817566
 30
0.0
 11
10401.7066017178
 21
8406.789219817566
 31
0.0
 70
   160
 71
     5
 42
123.0
  3
INABA_S40G
100
AcDbAlignedDimension
 13
10128.6
 23
7680.522761723657
 33
0.0
 14
10005.6
 24
7607.522761723656
 34
0.0
100
AcDbRotatedDimension
1001
ACAD
1000
DSTYLE
1002
{
1070
   341
1005
0
1002
}
  0
LINE
  5
257F1
330
747D
100
AcDbEntity
  8
部品1
 48
50.0
100
AcDbLine
 10
8798.599999999995
 20
7680.522761723665
 30
0.0
 11
8798.600000000002
 21
7480.522761723657
 31
0.0
  0
LINE
  5
257F2
330
747D
100
AcDbEntity
  8
細線
 48
50.0
100
AcDbLine
 10
8598.600000000002
 20
7617.447850697509
 30
0.0
 11
8661.674911026155
 21
7680.522761723665
 31
0.0
  0
LINE
  5
257F3
330
747D
100
AcDbEntity
  8
部品1
 48
50.0
100
AcDbLine
 10
8598.599999999995
 20
7680.522761723665
 30
0.0
 11
8598.600000000002
 21
7480.522761723657
 31
0.0
  0
LINE
  5
257F4
330
747D
100
AcDbEntity
  8
細線
 48
50.0
100
AcDbLine
 10
8598.600000000002
 20
7482.744008881477
 30
0.0
 11
8796.378752842192
 21
7680.522761723664
 31
0.0
  0
LINE
  5
257F5
330
747D
100
AcDbEntity
  8
細線
 48
50.0
100
AcDbLine
 10
8598.600000000002
 20
7572.546570092163
 30
0.0
 11
8706.576191631503
 21
7680.522761723664
 31
0.0
  0
LINE
  5
257F6
330
747D
100
AcDbEntity
  8
細線
 48
50.0
100
AcDbLine
 10
8598.600000000002
 20
7527.645289486819
 30
0.0
 11
8751.47747223685
 21
7680.522761723667
 31
0.0
  0
LINE
  5
257F7
330
747D
100
AcDbEntity
  8
細線
 48
50.0
100
AcDbLine
 10
8641.280033447529
 20
7480.522761723654
 30
0.0
 11
8798.599999999998
 21
7637.842728276122
 31
0.0
  0
LINE
  5
257F8
330
747D
100
AcDbEntity
  8
細線
 48
50.0
100
AcDbLine
 10
8731.082594658223
 20
7480.522761723654
 30
0.0
 11
8798.600000000002
 21
7548.040167065434
 31
0.0
  0
LINE
  5
257F9
330
747D
100
AcDbEntity
  8
細線
 48
50.0
100
AcDbLine
 10
8775.983875263566
 20
7480.522761723654
 30
0.0
 11
8798.600000000002
 21
7503.13888646009
 31
0.0
  0
LINE
  5
257FA
330
747D
100
AcDbEntity
  8
細線
 48
50.0
100
AcDbLine
 10
8686.181314052879
 20
7480.522761723654
 30
0.0
 11
8798.600000000002
 21
7592.941447670779
 31
0.0
  0
LINE
  5
257FB
330
747D
100
AcDbEntity
  8
細線
 48
50.0
100
AcDbLine
 10
8598.599999999999
 20
7662.34913130285
 30
0.0
 11
8616.773630420812
 21
7680.522761723667
 31
0.0
  0
LINE
  5
257FC
330
747D
100
AcDbEntity
  8
細線
 48
50.0
100
AcDbLine
 10
9548.600000000002
 20
7527.645289486819
 30
0.0
 11
9701.477472236851
 21
7680.522761723667
 31
0.0
  0
LINE
  5
257FD
330
747D
100
AcDbEntity
  8
細線
 48
50.0
100
AcDbLine
 10
9548.600000000002
 20
7572.546570092163
 30
0.0
 11
9656.576191631502
 21
7680.522761723664
 31
0.0
  0
LINE
  5
257FE
330
747D
100
AcDbEntity
  8
細線
 48
50.0
100
AcDbLine
 10
9548.600000000002
 20
7617.447850697509
 30
0.0
 11
9611.674911026156
 21
7680.522761723665
 31
0.0
  0
LINE
  5
257FF
330
747D
100
AcDbEntity
  8
細線
 48
50.0
100
AcDbLine
 10
9548.600000000002
 20
7482.744008881477
 30
0.0
 11
9746.378752842193
 21
7680.522761723664
 31
0.0
  0
LINE
  5
25800
330
747D
100
AcDbEntity
  8
部品1
 48
50.0
100
AcDbLine
 10
9548.599999999995
 20
7680.522761723665
 30
0.0
 11
9548.600000000002
 21
7480.522761723657
 31
0.0
  0
LINE
  5
25801
330
747D
100
AcDbEntity
  8
部品1
 48
50.0
100
AcDbLine
 10
9748.599999999996
 20
7680.522761723665
 30
0.0
 11
9748.600000000003
 21
7480.522761723657
 31
0.0
  0
LINE
  5
25802
330
747D
100
AcDbEntity
  8
細線
 48
50.0
100
AcDbLine
 10
9591.28003344753
 20
7480.522761723654
 30
0.0
 11
9748.599999999999
 21
7637.842728276122
 31
0.0
  0
LINE
  5
25803
330
747D
100
AcDbEntity
  8
細線
 48
50.0
100
AcDbLine
 10
9636.18131405288
 20
7480.522761723654
 30
0.0
 11
9748.600000000003
 21
7592.941447670779
 31
0.0
  0
LINE
  5
25804
330
747D
100
AcDbEntity
  8
細線
 48
50.0
100
AcDbLine
 10
9725.983875263565
 20
7480.522761723654
 30
0.0
 11
9748.600000000003
 21
7503.13888646009
 31
0.0
  0
LINE
  5
25805
330
747D
100
AcDbEntity
  8
細線
 48
50.0
100
AcDbLine
 10
9681.082594658223
 20
7480.522761723654
 30
0.0
 11
9748.600000000003
 21
7548.040167065434
 31
0.0
  0
LINE
  5
25806
330
747D
100
AcDbEntity
  8
センター
 48
2.0
100
AcDbLine
 10
9955.600000000004
 20
7557.522761723657
 30
0.0
 11
10055.6
 21
7557.522761723657
 31
0.0
  0
LINE
  5
25807
330
747D
100
AcDbEntity
  8
センター
 48
2.0
100
AcDbLine
 10
10005.6
 20
7607.522761723656
 30
0.0
 11
10005.6
 21
7507.522761723656
 31
0.0
  0
CIRCLE
  5
25808
330
747D
100
AcDbEntity
  8
部品1
 48
50.0
100
AcDbCircle
 10
10005.6
 20
7557.522761723657
 30
0.0
 40
35.0
  0
LINE
  5
25809
330
747D
100
AcDbEntity
  8
細線
 48
50.0
100
AcDbLine
 10
9548.599999999998
 20
7662.34913130285
 30
0.0
 11
9566.773630420811
 21
7680.522761723667
 31
0.0
  0
TEXT
  5
25DDA
330
747D
100
AcDbEntity
  8
文字
 62
     7
 48
50.0
100
AcDbText
 10
14267.69561199343
 20
838.2527270729188
 30
0.0
 40
100.0
  1
～一般型・多雪地型・豪雪地型～
  7
STYLE2
100
AcDbText
  0
LINE
  5
25DFA
330
747D
100
AcDbEntity
  8
部品1
 48
50.0
100
AcDbLine
 10
10008.6
 20
6420.522761723676
 30
0.0
 11
6438.6
 21
6420.522761723645
 31
0.0
  0
LINE
  5
25DFB
330
747D
100
AcDbEntity
  8
細線
 48
50.0
100
AcDbLine
 10
7829.305645554459
 20
6140.52276172368
 30
0.0
 11
7848.600000000002
 21
6159.817116169223
 31
0.0
  0
LINE
  5
25DFC
330
747D
100
AcDbEntity
  8
部品1
 48
50.0
100
AcDbLine
 10
7848.599999999992
 20
6420.52276172365
 30
0.0
 11
7848.599999999997
 21
6140.522761723678
 31
0.0
  0
LINE
  5
25DFD
330
747D
100
AcDbEntity
  8
細線
 48
50.0
100
AcDbLine
 10
7784.404364949111
 20
6140.522761723678
 30
0.0
 11
7848.599999999999
 21
6204.718396774566
 31
0.0
  0
LINE
  5
25DFE
330
747D
100
AcDbEntity
  8
細線
 48
50.0
100
AcDbLine
 10
7648.599999999994
 20
6319.027361011984
 30
0.0
 11
7750.095400711654
 21
6420.52276172365
 31
0.0
  0
LINE
  5
25DFF
330
747D
100
AcDbEntity
  8
細線
 48
50.0
100
AcDbLine
 10
7648.599999999992
 20
6363.928641617327
 30
0.0
 11
7705.194120106317
 21
6420.522761723649
 31
0.0
  0
LINE
  5
25E00
330
747D
100
AcDbEntity
  8
部品1
 48
50.0
100
AcDbLine
 10
7648.599999999992
 20
6420.522761723647
 30
0.0
 11
7648.599999999998
 21
6140.522761723674
 31
0.0
  0
LINE
  5
25E01
330
747D
100
AcDbEntity
  8
細線
 48
50.0
100
AcDbLine
 10
7649.700523133072
 20
6140.522761723674
 30
0.0
 11
7848.599999999992
 21
6339.422238590596
 31
0.0
  0
LINE
  5
25E02
330
747D
100
AcDbEntity
  8
細線
 48
50.0
100
AcDbLine
 10
7648.599999999996
 20
6184.323519195946
 30
0.0
 11
7848.599999999992
 21
6384.323519195941
 31
0.0
  0
LINE
  5
25E03
330
747D
100
AcDbEntity
  8
細線
 48
50.0
100
AcDbLine
 10
7648.599999999996
 20
6229.224799801292
 30
0.0
 11
7839.897961922344
 21
6420.522761723649
 31
0.0
  0
LINE
  5
25E04
330
747D
100
AcDbEntity
  8
細線
 48
50.0
100
AcDbLine
 10
7648.599999999994
 20
6274.126080406637
 30
0.0
 11
7794.996681317008
 21
6420.522761723649
 31
0.0
  0
LINE
  5
25E05
330
747D
100
AcDbEntity
  8
細線
 48
50.0
100
AcDbLine
 10
7739.503084343765
 20
6140.522761723678
 30
0.0
 11
7848.599999999999
 21
6249.619677379911
 31
0.0
  0
LINE
  5
25E06
330
747D
100
AcDbEntity
  8
細線
 48
50.0
100
AcDbLine
 10
7694.601803738418
 20
6140.522761723676
 30
0.0
 11
7848.599999999994
 21
6294.520957985255
 31
0.0
  0
LINE
  5
25E07
330
747D
100
AcDbEntity
  8
細線
 48
50.0
100
AcDbLine
 10
8779.305645554456
 20
6140.52276172368
 30
0.0
 11
8798.600000000002
 21
6159.817116169223
 31
0.0
  0
LINE
  5
25E08
330
747D
100
AcDbEntity
  8
部品1
 48
50.0
100
AcDbLine
 10
8798.599999999991
 20
6420.52276172365
 30
0.0
 11
8798.599999999998
 21
6140.522761723678
 31
0.0
  0
LINE
  5
25E09
330
747D
100
AcDbEntity
  8
細線
 48
50.0
100
AcDbLine
 10
8734.404364949112
 20
6140.522761723678
 30
0.0
 11
8798.599999999998
 21
6204.718396774566
 31
0.0
  0
LINE
  5
25E0A
330
747D
100
AcDbEntity
  8
細線
 48
50.0
100
AcDbLine
 10
8598.599999999995
 20
6319.027361011984
 30
0.0
 11
8700.095400711655
 21
6420.52276172365
 31
0.0
  0
LINE
  5
25E0B
330
747D
100
AcDbEntity
  8
細線
 48
50.0
100
AcDbLine
 10
8598.599999999992
 20
6363.928641617327
 30
0.0
 11
8655.194120106317
 21
6420.522761723649
 31
0.0
  0
LINE
  5
25E0C
330
747D
100
AcDbEntity
  8
部品1
 48
50.0
100
AcDbLine
 10
8598.599999999992
 20
6420.522761723647
 30
0.0
 11
8598.599999999999
 21
6140.522761723674
 31
0.0
  0
LINE
  5
25E0D
330
747D
100
AcDbEntity
  8
細線
 48
50.0
100
AcDbLine
 10
8599.700523133073
 20
6140.522761723674
 30
0.0
 11
8798.599999999991
 21
6339.422238590596
 31
0.0
  0
LINE
  5
25E0E
330
747D
100
AcDbEntity
  8
細線
 48
50.0
100
AcDbLine
 10
8598.599999999995
 20
6184.323519195946
 30
0.0
 11
8798.599999999991
 21
6384.323519195941
 31
0.0
  0
LINE
  5
25E0F
330
747D
100
AcDbEntity
  8
細線
 48
50.0
100
AcDbLine
 10
8598.599999999995
 20
6229.224799801292
 30
0.0
 11
8789.897961922342
 21
6420.522761723649
 31
0.0
  0
LINE
  5
25E10
330
747D
100
AcDbEntity
  8
細線
 48
50.0
100
AcDbLine
 10
8598.599999999995
 20
6274.126080406637
 30
0.0
 11
8744.996681317006
 21
6420.522761723649
 31
0.0
  0
LINE
  5
25E11
330
747D
100
AcDbEntity
  8
細線
 48
50.0
100
AcDbLine
 10
8689.503084343764
 20
6140.522761723678
 30
0.0
 11
8798.599999999998
 21
6249.619677379911
 31
0.0
  0
LINE
  5
25E12
330
747D
100
AcDbEntity
  8
細線
 48
50.0
100
AcDbLine
 10
8644.601803738416
 20
6140.522761723676
 30
0.0
 11
8798.599999999995
 21
6294.520957985255
 31
0.0
  0
LINE
  5
25E13
330
747D
100
AcDbEntity
  8
細線
 48
50.0
100
AcDbLine
 10
9729.305645554457
 20
6140.52276172368
 30
0.0
 11
9748.600000000003
 21
6159.817116169223
 31
0.0
  0
LINE
  5
25E14
330
747D
100
AcDbEntity
  8
部品1
 48
50.0
100
AcDbLine
 10
9748.599999999992
 20
6420.52276172365
 30
0.0
 11
9748.599999999999
 21
6140.522761723678
 31
0.0
  0
LINE
  5
25E15
330
747D
100
AcDbEntity
  8
細線
 48
50.0
100
AcDbLine
 10
9684.404364949111
 20
6140.522761723678
 30
0.0
 11
9748.599999999999
 21
6204.718396774566
 31
0.0
  0
LINE
  5
25E16
330
747D
100
AcDbEntity
  8
細線
 48
50.0
100
AcDbLine
 10
9548.599999999995
 20
6319.027361011984
 30
0.0
 11
9650.095400711656
 21
6420.52276172365
 31
0.0
  0
LINE
  5
25E17
330
747D
100
AcDbEntity
  8
細線
 48
50.0
100
AcDbLine
 10
9548.599999999991
 20
6363.928641617327
 30
0.0
 11
9605.194120106318
 21
6420.522761723649
 31
0.0
  0
LINE
  5
25E18
330
747D
100
AcDbEntity
  8
部品1
 48
50.0
100
AcDbLine
 10
9548.599999999991
 20
6420.522761723647
 30
0.0
 11
9548.599999999998
 21
6140.522761723674
 31
0.0
  0
LINE
  5
25E19
330
747D
100
AcDbEntity
  8
細線
 48
50.0
100
AcDbLine
 10
9549.700523133074
 20
6140.522761723674
 30
0.0
 11
9748.599999999992
 21
6339.422238590596
 31
0.0
  0
LINE
  5
25E1A
330
747D
100
AcDbEntity
  8
細線
 48
50.0
100
AcDbLine
 10
9548.599999999995
 20
6184.323519195946
 30
0.0
 11
9748.599999999992
 21
6384.323519195941
 31
0.0
  0
LINE
  5
25E1B
330
747D
100
AcDbEntity
  8
細線
 48
50.0
100
AcDbLine
 10
9548.599999999995
 20
6229.224799801292
 30
0.0
 11
9739.897961922343
 21
6420.522761723649
 31
0.0
  0
LINE
  5
25E1C
330
747D
100
AcDbEntity
  8
細線
 48
50.0
100
AcDbLine
 10
9548.599999999995
 20
6274.126080406637
 30
0.0
 11
9694.996681317007
 21
6420.522761723649
 31
0.0
  0
LINE
  5
25E1D
330
747D
100
AcDbEntity
  8
細線
 48
50.0
100
AcDbLine
 10
9639.503084343765
 20
6140.522761723678
 30
0.0
 11
9748.599999999999
 21
6249.619677379911
 31
0.0
  0
LINE
  5
25E1E
330
747D
100
AcDbEntity
  8
細線
 48
50.0
100
AcDbLine
 10
9594.601803738417
 20
6140.522761723676
 30
0.0
 11
9748.599999999996
 21
6294.520957985255
 31
0.0
  0
LINE
  5
25E3C
102
{ACAD_REACTORS
330
25E73
102
}
330
747D
100
AcDbEntity
  8
部品1
 48
50.0
100
AcDbLine
 10
10008.6
 20
6420.522761723677
 30
0.0
 11
10008.6
 21
7480.522761723657
 31
0.0
  0
LINE
  5
25E3D
102
{ACAD_REACTORS
330
25E57
102
}
330
747D
100
AcDbEntity
  8
部品1
 48
50.0
100
AcDbLine
 10
6438.6
 20
6420.522761723645
 30
0.0
 11
6438.6
 21
7480.522761723657
 31
0.0
  0
HATCH
  5
25E57
330
747D
100
AcDbEntity
  8
細線
 48
50.0
100
AcDbHatch
 10
0.0
 20
0.0
 30
0.0
210
0.0
220
0.0
230
1.0
  2
LINE
 70
     0
 71
     1
 91
        1
 92
        7
 72
     0
 73
     1
 93
        4
 10
6438.6
 20
7035.522761723672
 10
6318.6
 20
7035.522761723675
 10
6318.6
 20
6835.522761723675
 10
6438.6
 20
6835.522761723675
 97
        4
330
2577A
330
25761
330
2577B
330
25E3D
 75
     0
 76
     1
 52
45.0
 41
10.0
 77
     0
 78
     1
 53
45.0
 43
0.0
 44
0.0
 45
-22.45064030267288
 46
22.45064030267288
 79
     0
 47
2.986147870226386
 98
        1
 10
6381.691680753181
 20
6954.640697358184
  0
HATCH
  5
25E73
330
747D
100
AcDbEntity
  8
細線
 48
50.0
100
AcDbHatch
 10
0.0
 20
0.0
 30
0.0
210
0.0
220
0.0
230
1.0
  2
LINE
 70
     0
 71
     1
 91
        1
 92
        7
 72
     0
 73
     1
 93
        4
 10
10128.6
 20
7035.522761723692
 10
10008.6
 20
7035.52276172369
 10
10008.6
 20
6835.522761723693
 10
10128.6
 20
6835.522761723692
 97
        4
330
257C7
330
25E3C
330
257C6
330
257BF
 75
     0
 76
     1
 52
45.0
 41
10.0
 77
     0
 78
     1
 53
45.0
 43
0.0
 44
0.0
 45
-22.45064030267288
 46
22.45064030267288
 79
     0
 47
7.631866270871329
 98
        1
 10
10085.37984331136
 20
6947.342636420781
  0
LINE
  5
26001
330
747D
100
AcDbEntity
  8
部品1
100
AcDbLine
 10
10378.93908905299
 20
3595.431771149772
 30
0.0
 11
4307.953903666738
 21
3595.431771149772
 31
0.0
  0
LINE
  5
26002
330
747D
100
AcDbEntity
  8
部品1
100
AcDbLine
 10
10378.93908905299
 20
3355.43177114977
 30
0.0
 11
4307.953903666741
 21
3355.43177114977
 31
0.0
  0
LINE
  5
26003
330
747D
100
AcDbEntity
  8
部品1
100
AcDbLine
 10
4307.953903666744
 20
631.1248015651244
 30
0.0
 11
10378.93908905299
 21
631.1248015651244
 31
0.0
  0
LEADER
  5
26004
330
747D
100
AcDbEntity
  8
寸法
 48
50.0
100
AcDbLeader
  3
INABA_S50G
 73
     0
 74
     0
 75
     1
 40
102.2727272727273
 41
680.0000000000001
 76
     3
 10
7316.061655653196
 20
2594.968385058329
 30
0.0
 10
7350.415626766554
 20
3005.42119616487
 30
0.0
 10
7475.415626766554
 20
3005.42119616487
 30
0.0
340
26005
1001
ACAD
1000
DSTYLE
1002
{
1070
   341
1005
0
1070
    40
1040
1.0
1070
   343
1005
0
1070
   344
1005
0
1002
}
  0
MTEXT
  5
26005
102
{ACAD_REACTORS
330
26004
102
}
330
747D
100
AcDbEntity
  8
部品1
 62
     7
 48
50.0
100
AcDbMText
 10
7500.415626766553
 20
3081.557559801234
 30
0.0
 40
80.0
 41
0.8
 71
     4
 72
     1
  1
\A1;ナット(市販品)
  7
STYLE2
 73
     1
 44
1.0
1001
ACAD
1000
MTEXTBEGIN
1070
    73
1070
     1
1070
    44
1040
1.0
1070
    74
1070
     0
1000
MTEXTEND
  0
LEADER
  5
26006
330
747D
100
AcDbEntity
  8
寸法
 48
50.0
100
AcDbLeader
  3
INABA_S50G
 73
     0
 74
     0
 75
     1
 40
102.2727272727273
 41
906.8181818181818
 76
     3
 10
7340.061655653197
 20
2465.216392393466
 30
0.0
 10
7381.933246022036
 20
2820.452113400083
 30
0.0
 10
7506.933246022036
 20
2820.452113400083
 30
0.0
340
26007
1001
ACAD
1000
DSTYLE
1002
{
1070
   341
1005
0
1070
    40
1040
1.0
1070
   343
1005
0
1070
   344
1005
0
1002
}
  0
MTEXT
  5
26007
102
{ACAD_REACTORS
330
26006
102
}
330
747D
100
AcDbEntity
  8
部品1
 62
     7
 48
50.0
100
AcDbMText
 10
7531.933246022036
 20
2896.588477036447
 30
0.0
 40
80.0
 41
0.8
 71
     4
 72
     1
  1
\A1;ワッシャー(市販品)
  7
STYLE2
 73
     1
 44
1.0
1001
ACAD
1000
MTEXTBEGIN
1070
    73
1070
     1
1070
    44
1040
1.0
1070
    74
1070
     0
1000
MTEXTEND
  0
LWPOLYLINE
  5
26008
330
747D
100
AcDbEntity
  8
部品1
 48
50.0
100
AcDbPolyline
 90
        2
 70
     0
 43
8.0
 10
7492.661655653195
 20
1956.093103949187
 10
7786.364119052581
 20
1956.093103949187
  0
TEXT
  5
26009
330
747D
100
AcDbEntity
  8
部品1
 48
50.0
100
AcDbText
 10
7497.015239937624
 20
2551.971784711386
 30
0.0
 40
80.0
  1
基礎ボルト(市販品)
  7
STYLE2
100
AcDbText
  0
DIMENSION
  5
2600A
330
747D
100
AcDbEntity
  8
寸法
 48
50.0
100
AcDbDimension
  2
*D42
 10
7994.53025542204
 20
1872.093103949185
 30
0.0
 11
7894.53025542204
 21
2034.093103949187
 31
0.0
 70
    32
  1
180
 71
     5
 42
324.0000000000011
  3
INABA_S40G
100
AcDbAlignedDimension
 13
7492.661655653195
 23
2196.093103949186
 33
0.0
 14
7492.661655653195
 24
1872.093103949185
 34
0.0
 50
90.0
100
AcDbRotatedDimension
1001
ACAD
1000
DSTYLE
1002
{
1070
   341
1005
0
1002
}
  0
DIMENSION
  5
2600B
330
747D
100
AcDbEntity
  8
寸法
 48
50.0
100
AcDbDimension
  2
*D43
 10
8270.584921541068
 20
2196.093103949186
 30
0.0
 11
8270.584921541068
 21
1730.084200527703
 31
0.0
 70
   160
  1
20～25
 71
     5
 42
52.76000000000113
  3
INABA_S40G
100
AcDbAlignedDimension
 13
7305.461655653198
 23
2248.853103949187
 33
0.0
 14
7492.661655653195
 24
2196.093103949186
 34
0.0
 50
90.0
100
AcDbRotatedDimension
1001
ACAD
1000
DSTYLE
1002
{
1070
   341
1005
0
1002
}
  0
MTEXT
  5
2600C
102
{ACAD_REACTORS
330
2600D
102
}
330
747D
100
AcDbEntity
  8
部品1
 62
     7
 48
50.0
100
AcDbMText
 10
7501.606118072515
 20
2460.476430102416
 30
0.0
 40
80.0
 41
0.8
 71
     4
 72
     1
  1
M10X160
  7
STYLE2
 73
     1
 44
1.0
1001
ACAD
1000
MTEXTBEGIN
1070
    73
1070
     1
1070
    44
1040
1.0
1070
    74
1070
     0
1000
MTEXTEND
  0
LEADER
  5
2600D
330
747D
100
AcDbEntity
  8
寸法
 48
50.0
100
AcDbLeader
  3
INABA_S50G
 73
     0
 74
     0
 75
     1
 40
80.0
 41
435.0
 76
     3
 10
7309.061655653197
 20
2245.253103949187
 30
0.0
 10
7351.606118072516
 20
2395.476430102416
 30
0.0
 10
7476.606118072516
 20
2395.476430102416
 30
0.0
340
2600C
1001
ACAD
1000
DSTYLE
1002
{
1070
   341
1005
0
1070
    40
1040
1.0
1070
   343
1005
0
1070
   344
1005
0
1002
}
  0
LINE
  5
2600E
330
747D
100
AcDbEntity
  8
部品1
100
AcDbLine
 10
4307.95390366674
 20
3595.431771149772
 30
0.0
 11
4307.953903666741
 21
631.1248015651244
 31
0.0
  0
LEADER
  5
2600F
330
747D
100
AcDbEntity
  8
寸法
 48
50.0
100
AcDbLeader
  3
INABA_S50G
 73
     0
 75
     1
 40
113.1818181818182
 41
608.6363636363635
 76
     3
 10
7268.798405791248
 20
2145.608777307465
 30
0.0
 10
7134.9945770999
 20
2996.987859663943
 30
0.0
 10
7009.9945770999
 20
2996.987859663943
 30
0.0
340
26010
1001
ACAD
1000
DSTYLE
1002
{
1070
   341
1005
0
1070
    40
1040
1.0
1070
   343
1005
0
1070
   344
1005
0
1002
}
  0
MTEXT
  5
26010
102
{ACAD_REACTORS
330
2600F
102
}
330
747D
100
AcDbEntity
  8
寸法
 62
     7
 48
50.0
100
AcDbMText
 10
6984.9945770999
 20
3078.578768754852
 30
0.0
 40
80.0
 41
0.8
 71
     6
 72
     1
  1
\A1;φ70スリーブ
  7
STYLE2
 73
     1
 44
1.0
1001
ACAD
1000
MTEXTBEGIN
1070
    73
1070
     1
1070
    44
1040
1.0
1070
    74
1070
     0
1000
MTEXTEND
  0
LWPOLYLINE
  5
26011
330
747D
100
AcDbEntity
  8
部品1
 48
50.0
100
AcDbPolyline
 90
        2
 70
     0
 43
8.0
 10
4964.482440643046
 20
1956.093103949187
 10
5378.622342476003
 20
1956.093103949187
  0
TEXT
  5
26012
330
747D
100
AcDbEntity
  8
部品1
 48
50.0
100
AcDbText
 10
4964.482440643046
 20
1967.332096232441
 30
0.0
 40
80.0
  1
▽G.L
  7
STYLE2
100
AcDbText
  0
DIMENSION
  5
26013
330
747D
100
AcDbEntity
  8
寸法
 48
50.0
100
AcDbDimension
  2
*D44
 10
5108.202028743543
 20
1412.093103949186
 30
0.0
 11
5108.202028743543
 21
1532.093103949187
 31
0.0
 70
   160
  1
150
 71
     5
 42
240.0
  3
INABA_S40G
100
AcDbAlignedDimension
 13
5250.622342476003
 23
1652.093103949186
 33
0.0
 14
5170.622342476007
 24
1412.093103949186
 34
0.0
 50
90.0
100
AcDbRotatedDimension
1001
ACAD
1000
DSTYLE
1002
{
1070
   341
1005
0
1002
}
  0
LEADER
  5
26014
330
747D
100
AcDbEntity
  8
寸法
 48
50.0
100
AcDbLeader
  3
INABA_S50G
 71
     0
 73
     0
 75
     1
 40
100.0
 41
225.0
 76
     3
 10
5346.525294828146
 20
1532.093103949186
 30
0.0
 10
5224.687316280808
 20
1268.57041033075
 30
0.0
 10
5099.687316280808
 20
1268.57041033075
 30
0.0
1001
ACAD
1000
DSTYLE
1002
{
1070
    40
1040
1.0
1070
   272
1070
     1
1070
   279
1070
     1
1070
   341
1005
0
1002
}
  0
LEADER
  5
26015
330
747D
100
AcDbEntity
  8
寸法
 48
50.0
100
AcDbLeader
  3
INABA_S50G
 71
     0
 73
     0
 75
     1
 40
100.0
 41
222.7272727272727
 76
     3
 10
5474.622342476003
 20
1532.093103949186
 30
0.0
 10
5252.810043838244
 20
1088.254257791306
 30
0.0
 10
5127.810043838244
 20
1088.254257791306
 30
0.0
1001
ACAD
1000
DSTYLE
1002
{
1070
    40
1040
1.0
1070
   272
1070
     1
1070
   279
1070
     1
1070
   341
1005
0
1002
}
  0
MTEXT
  5
26016
102
{ACAD_REACTORS
330
26017
102
}
330
747D
100
AcDbEntity
  8
寸法
 62
     7
 48
50.0
100
AcDbMText
 10
5289.372288253198
 20
1797.393706766643
 30
0.0
 40
80.0
 41
0.8
 71
     6
 72
     1
  1
\A1;D10@300
  7
STYLE2
 73
     1
 44
1.0
1001
ACAD
1000
MTEXTBEGIN
1070
    73
1070
     1
1070
    44
1040
1.0
1070
    74
1070
     0
1000
MTEXTEND
  0
LEADER
  5
26017
330
747D
100
AcDbEntity
  8
寸法
 48
50.0
100
AcDbLeader
  3
INABA_S50G
 71
     0
 73
     0
 75
     1
 40
100.0
 41
540.3409090909091
 76
     3
 10
5482.622342476003
 20
1954.220318646309
 30
0.0
 10
5424.640105947304
 20
1732.749990105504
 30
0.0
 10
5299.640105947304
 20
1732.749990105504
 30
0.0
213
-9.732182305893367
223
-4.643716661138569
233
0.0
1001
ACAD
1000
DSTYLE
1002
{
1070
    40
1040
1.0
1070
   272
1070
     1
1070
   279
1070
     1
1070
   341
1005
0
1002
}
  0
LEADER
  5
26018
330
747D
100
AcDbEntity
  8
寸法
 48
50.0
100
AcDbLeader
  3
INABA_S50G
 71
     0
 73
     0
 75
     1
 40
130.1136363636363
 41
651.1363636363636
 76
     3
 10
5458.622342476003
 20
2196.093103949186
 30
0.0
 10
5346.197762311986
 20
2336.563869405774
 30
0.0
 10
5221.197762311986
 20
2336.563869405774
 30
0.0
1001
ACAD
1000
DSTYLE
1002
{
1070
    40
1040
1.0
1070
   272
1070
     1
1070
   279
1070
     1
1070
   341
1005
0
1002
}
  0
MTEXT
  5
26019
102
{ACAD_REACTORS
330
26018
102
}
330
747D
100
AcDbEntity
  8
寸法
 62
     7
 48
50.0
100
AcDbMText
 10
5158.52386299273
 20
2408.609323951229
 30
0.0
 40
80.0
 41
0.8
 71
     6
 72
     1
  1
\A1;金コテ押エ
  7
STYLE2
 73
     1
 44
1.0
1001
ACAD
1000
MTEXTBEGIN
1070
    73
1070
     1
1070
    44
1040
1.0
1070
    74
1070
     0
1000
MTEXTEND
  0
DIMENSION
  5
2601A
330
747D
100
AcDbEntity
  8
寸法
 48
50.0
100
AcDbDimension
  2
*D45
 10
4643.585103914262
 20
1412.093103949186
 30
0.0
 11
4643.585103914262
 21
1783.633253605187
 31
0.0
 70
   160
  1
540
 71
     5
 42
784.0000000000002
  3
INABA_S40G
100
AcDbAlignedDimension
 13
5378.622342476003
 23
2196.093103949186
 33
0.0
 14
5170.622342476007
 24
1412.093103949186
 34
0.0
 50
90.0
100
AcDbRotatedDimension
1001
ACAD
1000
DSTYLE
1002
{
1070
   341
1005
0
1002
}
  0
MTEXT
  5
2601B
102
{ACAD_REACTORS
330
26015
102
}
330
747D
100
AcDbEntity
  8
寸法
 62
     7
 48
50.0
100
AcDbMText
 10
5107.810043838243
 20
1148.254257791306
 30
0.0
 40
80.0
 41
0.8
 71
     6
 72
     1
  1
D13
  7
STYLE2
 73
     1
 44
1.0
1001
ACAD
1000
MTEXTBEGIN
1070
    73
1070
     1
1070
    44
1040
1.0
1070
    74
1070
     0
1000
MTEXTEND
  0
MTEXT
  5
2601C
102
{ACAD_REACTORS
330
26014
102
}
330
747D
100
AcDbEntity
  8
寸法
 62
     7
 48
50.0
100
AcDbMText
 10
5079.687316280809
 20
1328.57041033075
 30
0.0
 40
80.0
 41
0.8
 71
     6
 72
     1
  1
D10
  7
STYLE2
 73
     1
 44
1.0
1001
ACAD
1000
MTEXTBEGIN
1070
    73
1070
     1
1070
    44
1040
1.0
1070
    74
1070
     0
1000
MTEXTEND
  0
DIMENSION
  5
2601D
330
747D
100
AcDbEntity
  8
寸法
 48
50.0
100
AcDbDimension
  2
*D46
 10
5698.622342476003
 20
873.6634659440261
 30
0.0
 11
5454.525583797779
 21
873.6634659440261
 31
0.0
 70
   160
  1
300
 71
     5
 42
448.0
  3
INABA_S40G
100
AcDbAlignedDimension
 13
5250.622342476003
 23
1284.093103949186
 33
0.0
 14
5698.622342476003
 24
1284.093103949186
 34
0.0
100
AcDbRotatedDimension
1001
ACAD
1000
DSTYLE
1002
{
1070
   341
1005
0
1002
}
  0
MTEXT
  5
2601E
102
{ACAD_REACTORS
330
2601F
102
}
330
747D
100
AcDbEntity
  8
寸法
 62
     7
 48
50.0
100
AcDbMText
 10
7011.637583308257
 20
2717.894496847338
 30
0.0
 40
80.0
 41
0.8
 71
     6
 72
     1
  1
\A1;アンカープレート L
  7
STYLE2
 73
     1
 44
1.0
1001
ACAD
1000
MTEXTBEGIN
1070
    73
1070
     1
1070
    44
1040
1.0
1070
    74
1070
     0
1000
MTEXTEND
  0
LEADER
  5
2601F
330
747D
100
AcDbEntity
  8
寸法
 48
50.0
100
AcDbLeader
  3
INABA_S50G
 73
     0
 75
     1
 40
106.3636363636363
 41
893.1818181818181
 76
     3
 10
7210.061655653198
 20
2265.653103949187
 30
0.0
 10
7161.637583308257
 20
2639.71267866552
 30
0.0
 10
7036.637583308257
 20
2639.71267866552
 30
0.0
340
2601E
1001
ACAD
1000
DSTYLE
1002
{
1070
   341
1005
0
1070
    40
1040
1.0
1070
   343
1005
0
1070
   344
1005
0
1002
}
  0
LINE
  5
26020
330
747D
100
AcDbEntity
  8
細線
 48
50.0
100
AcDbLine
 10
5498.622342476004
 20
2034.465996617017
 30
0.0
 11
5570.622342476004
 21
2106.465996617016
 31
0.0
  0
ARC
  5
26021
330
747D
100
AcDbEntity
  8
部品1
 48
50.0
100
AcDbCircle
 10
5474.622342476004
 20
2056.347533343432
 30
0.0
 40
24.0
100
AcDbArc
 50
0.0
 51
180.0
  0
CIRCLE
  5
26022
330
747D
100
AcDbEntity
  8
部品1
 48
50.0
100
AcDbCircle
 10
5474.622342476004
 20
2056.347533343432
 30
0.0
 40
8.0
  0
LINE
  5
26023
330
747D
100
AcDbEntity
  8
部品1
 48
50.0
100
AcDbLine
 10
5378.622342476004
 20
1652.093103949186
 30
0.0
 11
5378.622342476004
 21
2196.093103949186
 31
0.0
  0
LINE
  5
26024
330
747D
100
AcDbEntity
  8
部品1
 48
50.0
100
AcDbLine
 10
5570.622342476004
 20
2196.093103949186
 30
0.0
 11
5570.622342476004
 21
1652.093103949186
 31
0.0
  0
MTEXT
  5
26025
102
{ACAD_REACTORS
330
2602A
102
}
330
747D
100
AcDbEntity
  8
寸法
 62
     7
 48
50.0
100
AcDbMText
 10
5653.508279503398
 20
2218.649003241997
 30
0.0
 40
80.0
 41
0.8
 71
     4
 72
     1
  1
D13
  7
STYLE2
 73
     1
 44
1.0
1001
ACAD
1000
MTEXTBEGIN
1070
    73
1070
     1
1070
    44
1040
1.0
1070
    74
1070
     0
1000
MTEXTEND
  0
LEADER
  5
26026
330
747D
100
AcDbEntity
  8
寸法
 48
50.0
100
AcDbLeader
  3
INABA_S50G
 71
     0
 73
     0
 74
     0
 75
     1
 40
100.0
 41
225.0
 76
     3
 10
5602.525294828146
 20
1532.093103949186
 30
0.0
 10
5656.950002282687
 20
1436.696035006213
 30
0.0
 10
5781.950002282687
 20
1436.696035006213
 30
0.0
1001
ACAD
1000
DSTYLE
1002
{
1070
    40
1040
1.0
1070
   272
1070
     1
1070
   279
1070
     1
1070
   341
1005
0
1002
}
  0
LEADER
  5
26027
330
747D
100
AcDbEntity
  8
寸法
 48
50.0
100
AcDbLeader
  3
INABA_S50G
 71
     0
 73
     0
 74
     0
 75
     1
 40
100.0
 41
540.3409090909091
 76
     3
 10
5548.567511489178
 20
1515.35257353566
 30
0.0
 10
5667.360798337254
 20
1173.721755540763
 30
0.0
 10
5792.360798337254
 20
1173.721755540763
 30
0.0
213
0.0
223
-1.022262676269383
233
0.0
1001
ACAD
1000
DSTYLE
1002
{
1070
    40
1040
1.0
1070
   272
1070
     1
1070
   279
1070
     1
1070
   341
1005
0
1002
}
  0
MTEXT
  5
26028
102
{ACAD_REACTORS
330
26026
102
}
330
747D
100
AcDbEntity
  8
寸法
 62
     7
 48
50.0
100
AcDbMText
 10
5801.950002282688
 20
1496.696035006213
 30
0.0
 40
80.0
 41
0.8
 71
     4
 72
     1
  1
D10
  7
STYLE2
 73
     1
 44
1.0
1001
ACAD
1000
MTEXTBEGIN
1070
    73
1070
     1
1070
    44
1040
1.0
1070
    74
1070
     0
1000
MTEXTEND
  0
LWPOLYLINE
  5
26029
330
747D
100
AcDbEntity
  8
部品1
 48
50.0
100
AcDbPolyline
 90
        2
 70
     0
 43
8.0
 10
5570.622342476003
 20
1956.093103949187
 10
5984.76224430896
 20
1956.093103949187
  0
LEADER
  5
2602A
330
747D
100
AcDbEntity
  8
寸法
 48
50.0
100
AcDbLeader
  3
INABA_S50G
 71
     0
 73
     0
 74
     0
 75
     1
 40
100.0
 41
222.7272727272727
 76
     3
 10
5474.622342476003
 20
2056.347533343432
 30
0.0
 10
5528.508279503398
 20
2155.583106196606
 30
0.0
 10
5653.508279503398
 20
2155.583106196606
 30
0.0
1001
ACAD
1000
DSTYLE
1002
{
1070
    40
1040
1.0
1070
   272
1070
     1
1070
   279
1070
     1
1070
   341
1005
0
1002
}
  0
LINE
  5
2602B
330
747D
100
AcDbEntity
  8
細線
 48
50.0
100
AcDbLine
 10
5250.622342475996
 20
1570.939849711357
 30
0.0
 11
5331.775596713832
 21
1652.093103949186
 31
0.0
  0
LINE
  5
2602C
330
747D
100
AcDbEntity
  8
細線
 48
50.0
100
AcDbLine
 10
5458.488189953407
 20
1590.220318646308
 30
0.0
 11
5482.622342476009
 21
1614.354471168907
 31
0.0
  0
LINE
  5
2602D
330
747D
100
AcDbEntity
  8
細線
 48
50.0
100
AcDbLine
 10
5365.420206893077
 20
1524.093103949186
 30
0.0
 11
5482.622342476004
 21
1641.295239532112
 31
0.0
  0
LINE
  5
2602E
330
747D
100
AcDbEntity
  8
部品1
 48
50.0
100
AcDbLine
 10
5250.622342476003
 20
1412.093103949186
 30
0.0
 11
5250.622342476003
 21
1652.093103949186
 31
0.0
  0
LINE
  5
2602F
330
747D
100
AcDbEntity
  8
細線
 48
50.0
100
AcDbLine
 10
5607.887122161947
 20
1524.093103949186
 30
0.0
 11
5698.622342476004
 21
1614.828324263245
 31
0.0
  0
LINE
  5
26030
330
747D
100
AcDbEntity
  8
細線
 48
50.0
100
AcDbLine
 10
5580.946353798731
 20
1524.093103949186
 30
0.0
 11
5698.622342476004
 21
1641.769092626452
 31
0.0
  0
LINE
  5
26031
330
747D
100
AcDbEntity
  8
部品1
 48
50.0
100
AcDbLine
 10
5698.622342476004
 20
1652.093103949186
 30
0.0
 11
5698.622342476004
 21
1412.093103949186
 31
0.0
  0
LINE
  5
26032
330
747D
100
AcDbEntity
  8
部品1
 48
50.0
100
AcDbLine
 10
5498.622342476009
 20
1532.093103949186
 30
0.0
 11
5498.622342476004
 21
2056.347533343432
 31
0.0
  0
LINE
  5
26033
330
747D
100
AcDbEntity
  8
部品1
 48
50.0
100
AcDbLine
 10
5482.622342476009
 20
1532.093103949186
 30
0.0
 11
5482.622342475997
 21
2056.347533343432
 31
0.0
  0
LINE
  5
26034
330
747D
100
AcDbEntity
  8
細線
 48
50.0
100
AcDbLine
 10
5466.622342476004
 20
1571.413702805697
 30
0.0
 11
5482.622342476009
 21
1587.413702805698
 31
0.0
  0
LINE
  5
26035
330
747D
100
AcDbEntity
  8
細線
 48
50.0
100
AcDbLine
 10
5455.805181972017
 20
1284.093103949186
 30
0.0
 11
5490.1026786032
 21
1412.093103949186
 31
0.0
  0
LINE
  5
26036
330
747D
100
AcDbEntity
  8
部品1
 48
50.0
100
AcDbLine
 10
5778.622342476007
 20
1284.093103949186
 30
0.0
 11
5170.622342476005
 21
1284.093103949186
 31
0.0
  0
LINE
  5
26037
330
747D
100
AcDbEntity
  8
部品1
 48
50.0
100
AcDbLine
 10
5306.622342476003
 20
1508.093103949186
 30
0.0
 11
5642.622342476004
 21
1508.093103949186
 31
0.0
  0
LINE
  5
26038
330
747D
100
AcDbEntity
  8
部品1
 48
50.0
100
AcDbLine
 10
5306.622342476003
 20
1524.093103949186
 30
0.0
 11
5642.622342476004
 21
1524.093103949186
 31
0.0
  0
LINE
  5
26039
330
747D
100
AcDbEntity
  8
部品1
 48
50.0
100
AcDbLine
 10
5778.622342476007
 20
1412.093103949186
 30
0.0
 11
5170.622342476005
 21
1412.093103949186
 31
0.0
  0
CIRCLE
  5
2603A
330
747D
100
AcDbEntity
  8
部品1
 48
50.0
100
AcDbCircle
 10
5474.622342476004
 20
1532.093103949186
 30
0.0
 40
8.0
  0
LINE
  5
2603B
330
747D
100
AcDbEntity
  8
細線
 48
50.0
100
AcDbLine
 10
5468.946353798736
 20
1412.093103949186
 30
0.0
 11
5564.946353798736
 21
1508.093103949186
 31
0.0
  0
LINE
  5
2603C
330
747D
100
AcDbEntity
  8
細線
 48
50.0
100
AcDbLine
 10
5298.02909207752
 20
1284.093103949186
 30
0.0
 11
5332.326588708703
 21
1412.093103949186
 31
0.0
  0
LINE
  5
2603D
330
747D
100
AcDbEntity
  8
細線
 48
50.0
100
AcDbLine
 10
5376.917137024765
 20
1284.093103949184
 30
0.0
 11
5411.214633655948
 21
1412.093103949184
 31
0.0
  0
LINE
  5
2603E
330
747D
100
AcDbEntity
  8
細線
 48
50.0
100
AcDbLine
 10
5219.141047130261
 20
1284.093103949184
 30
0.0
 11
5253.438543761444
 21
1412.093103949184
 31
0.0
  0
LINE
  5
2603F
330
747D
100
AcDbEntity
  8
部品1
 48
50.0
100
AcDbLine
 10
5170.622342476005
 20
1284.093103949186
 30
0.0
 11
5170.622342476005
 21
1412.093103949186
 31
0.0
  0
LINE
  5
26040
330
747D
100
AcDbEntity
  8
細線
 48
50.0
100
AcDbLine
 10
5304.459872695866
 20
1308.093103949186
 30
0.0
 11
5310.890653314213
 21
1284.093103949186
 31
0.0
  0
LINE
  5
26041
330
747D
100
AcDbEntity
  8
細線
 48
50.0
100
AcDbLine
 10
5225.571827748615
 20
1308.093103949186
 30
0.0
 11
5232.002608366961
 21
1284.093103949186
 31
0.0
  0
LINE
  5
26042
330
747D
100
AcDbEntity
  8
細線
 48
50.0
100
AcDbLine
 10
5462.235962590371
 20
1308.093103949186
 30
0.0
 11
5468.666743208717
 21
1284.093103949186
 31
0.0
  0
LINE
  5
26043
330
747D
100
AcDbEntity
  8
細線
 48
50.0
100
AcDbLine
 10
5383.347917643118
 20
1308.093103949186
 30
0.0
 11
5389.778698261465
 21
1284.093103949186
 31
0.0
  0
LINE
  5
26044
330
747D
100
AcDbEntity
  8
細線
 48
50.0
100
AcDbLine
 10
5280.360975256287
 20
1412.093103949186
 30
0.0
 11
5376.360975256287
 21
1508.093103949186
 31
0.0
  0
LINE
  5
26045
330
747D
100
AcDbEntity
  8
細線
 48
50.0
100
AcDbLine
 10
5253.420206893077
 20
1412.093103949186
 30
0.0
 11
5349.420206893076
 21
1508.093103949186
 31
0.0
  0
LINE
  5
26046
330
747D
100
AcDbEntity
  8
部品1
 48
50.0
100
AcDbLine
 10
5306.622342476003
 20
1524.093103949186
 30
0.0
 11
5306.622342476003
 21
1508.093103949186
 31
0.0
  0
LINE
  5
26047
330
747D
100
AcDbEntity
  8
細線
 48
50.0
100
AcDbLine
 10
5247.007763143104
 20
1388.093103949186
 30
0.0
 11
5240.576982524756
 21
1412.093103949186
 31
0.0
  0
LINE
  5
26048
330
747D
100
AcDbEntity
  8
細線
 48
50.0
100
AcDbLine
 10
5170.622342476004
 20
1397.433024914966
 30
0.0
 11
5174.550498814199
 21
1412.093103949186
 31
0.0
  0
LINE
  5
26049
330
747D
100
AcDbEntity
  8
部品1
 48
50.0
100
AcDbLine
 10
5466.622342476004
 20
1590.220318646308
 30
0.0
 11
5450.622342476004
 21
1590.220318646308
 31
0.0
  0
CIRCLE
  5
2604A
330
747D
100
AcDbEntity
  8
部品1
 48
50.0
100
AcDbCircle
 10
5346.622342476003
 20
1532.093103949186
 30
0.0
 40
8.0
  0
LINE
  5
2604B
330
747D
100
AcDbEntity
  8
細線
 48
50.0
100
AcDbLine
 10
5419.301743619492
 20
1524.093103949186
 30
0.0
 11
5450.622342476004
 21
1555.413702805697
 31
0.0
  0
ARC
  5
2604C
330
747D
100
AcDbEntity
  8
部品1
 48
50.0
100
AcDbCircle
 10
5474.622342476004
 20
1532.093103949186
 30
0.0
 40
24.0
100
AcDbArc
 50
180.0
 51
199.4712206344713
  0
LINE
  5
2604D
330
747D
100
AcDbEntity
  8
細線
 48
50.0
100
AcDbLine
 10
5325.895808090354
 20
1388.093103949186
 30
0.0
 11
5319.465027472009
 21
1412.093103949186
 31
0.0
  0
LINE
  5
2604E
330
747D
100
AcDbEntity
  8
細線
 48
50.0
100
AcDbLine
 10
5404.783853037607
 20
1388.093103949186
 30
0.0
 11
5398.353072419261
 21
1412.093103949186
 31
0.0
  0
LINE
  5
2604F
330
747D
100
AcDbEntity
  8
細線
 48
50.0
100
AcDbLine
 10
5307.301743619492
 20
1412.093103949186
 30
0.0
 11
5403.301743619493
 21
1508.093103949186
 31
0.0
  0
LINE
  5
26050
330
747D
100
AcDbEntity
  8
部品1
 48
50.0
100
AcDbLine
 10
5450.622342476004
 20
1590.220318646308
 30
0.0
 11
5450.622342476004
 21
1532.093103949186
 31
0.0
  0
LINE
  5
26051
330
747D
100
AcDbEntity
  8
細線
 48
50.0
100
AcDbLine
 10
5392.360975256287
 20
1524.093103949186
 30
0.0
 11
5450.622342476004
 21
1582.354471168905
 31
0.0
  0
LINE
  5
26052
330
747D
100
AcDbEntity
  8
部品1
 48
50.0
100
AcDbLine
 10
5466.622342476004
 20
1590.220318646308
 30
0.0
 11
5466.622342476004
 21
1532.093103949186
 31
0.0
  0
LINE
  5
26053
330
747D
100
AcDbEntity
  8
部品1
 48
50.0
100
AcDbLine
 10
5778.622342476007
 20
1412.093103949186
 30
0.0
 11
5778.622342476007
 21
1284.093103949186
 31
0.0
  0
LINE
  5
26054
330
747D
100
AcDbEntity
  8
細線
 48
50.0
100
AcDbLine
 10
5692.469316813757
 20
1284.093103949186
 30
0.0
 11
5726.766813444942
 21
1412.093103949184
 31
0.0
  0
LINE
  5
26055
330
747D
100
AcDbEntity
  8
細線
 48
50.0
100
AcDbLine
 10
5534.693226919262
 20
1284.093103949186
 30
0.0
 11
5568.99072355045
 21
1412.093103949184
 31
0.0
  0
LINE
  5
26056
330
747D
100
AcDbEntity
  8
細線
 48
50.0
100
AcDbLine
 10
5613.581271866512
 20
1284.093103949184
 30
0.0
 11
5647.878768497697
 21
1412.093103949184
 31
0.0
  0
LINE
  5
26057
330
747D
100
AcDbEntity
  8
細線
 48
50.0
100
AcDbLine
 10
5620.012052484861
 20
1308.093103949186
 30
0.0
 11
5626.442833103209
 21
1284.093103949186
 31
0.0
  0
LINE
  5
26058
330
747D
100
AcDbEntity
  8
細線
 48
50.0
100
AcDbLine
 10
5541.124007537616
 20
1308.093103949186
 30
0.0
 11
5547.554788155963
 21
1284.093103949186
 31
0.0
  0
LINE
  5
26059
330
747D
100
AcDbEntity
  8
細線
 48
50.0
100
AcDbLine
 10
5698.900097432108
 20
1308.093103949186
 30
0.0
 11
5705.330878050457
 21
1284.093103949186
 31
0.0
  0
LINE
  5
2605A
330
747D
100
AcDbEntity
  8
細線
 48
50.0
100
AcDbLine
 10
5777.788142379356
 20
1308.093103949186
 30
0.0
 11
5778.622342476004
 21
1304.979826804822
 31
0.0
  0
LINE
  5
2605B
330
747D
100
AcDbEntity
  8
細線
 48
50.0
100
AcDbLine
 10
5771.357361761006
 20
1284.093103949184
 30
0.0
 11
5778.622342476004
 21
1311.206381093574
 31
0.0
  0
LINE
  5
2605C
330
747D
100
AcDbEntity
  8
細線
 48
50.0
100
AcDbLine
 10
5634.827890525151
 20
1524.093103949186
 30
0.0
 11
5698.622342476004
 21
1587.887555900037
 31
0.0
  0
CIRCLE
  5
2605D
330
747D
100
AcDbEntity
  8
部品1
 48
50.0
100
AcDbCircle
 10
5602.622342476004
 20
1532.093103949186
 30
0.0
 40
8.0
  0
ARC
  5
2605E
330
747D
100
AcDbEntity
  8
部品1
 48
50.0
100
AcDbCircle
 10
5474.622342476004
 20
1532.093103949186
 30
0.0
 40
24.0
100
AcDbArc
 50
340.5287793655287
 51
0.0
  0
LINE
  5
2605F
330
747D
100
AcDbEntity
  8
細線
 48
50.0
100
AcDbLine
 10
5483.67189798486
 20
1388.093103949186
 30
0.0
 11
5477.241117366513
 21
1412.093103949186
 31
0.0
  0
LINE
  5
26060
330
747D
100
AcDbEntity
  8
細線
 48
50.0
100
AcDbLine
 10
5562.559942932105
 20
1388.093103949186
 30
0.0
 11
5556.12916231376
 21
1412.093103949186
 31
0.0
  0
LINE
  5
26061
330
747D
100
AcDbEntity
  8
細線
 48
50.0
100
AcDbLine
 10
5495.887122161947
 20
1412.093103949186
 30
0.0
 11
5591.887122161947
 21
1508.093103949186
 31
0.0
  0
LINE
  5
26062
330
747D
100
AcDbEntity
  8
細線
 48
50.0
100
AcDbLine
 10
5522.82789052515
 20
1412.093103949186
 30
0.0
 11
5618.828778370288
 21
1508.093991794325
 31
0.0
  0
LINE
  5
26063
330
747D
100
AcDbEntity
  8
部品1
 48
50.0
100
AcDbLine
 10
5642.622342476004
 20
1524.093103949186
 30
0.0
 11
5642.622342476004
 21
1508.093103949186
 31
0.0
  0
LINE
  5
26064
330
747D
100
AcDbEntity
  8
細線
 48
50.0
100
AcDbLine
 10
5720.336032826597
 20
1388.093103949186
 30
0.0
 11
5713.90525220825
 21
1412.093103949186
 31
0.0
  0
LINE
  5
26065
330
747D
100
AcDbEntity
  8
細線
 48
50.0
100
AcDbLine
 10
5684.472500704397
 20
1412.093103949186
 30
0.0
 11
5698.622342476004
 21
1426.242945720793
 31
0.0
  0
LINE
  5
26066
330
747D
100
AcDbEntity
  8
細線
 48
50.0
100
AcDbLine
 10
5641.447987879351
 20
1388.093103949186
 30
0.0
 11
5635.017207261005
 21
1412.093103949186
 31
0.0
  0
LINE
  5
26067
330
747D
100
AcDbEntity
  8
細線
 48
50.0
100
AcDbLine
 10
5378.622342476004
 20
1725.880618074564
 30
0.0
 11
5482.622342476009
 21
1829.880618074566
 31
0.0
  0
LINE
  5
26068
330
747D
100
AcDbEntity
  8
細線
 48
50.0
100
AcDbLine
 10
5378.622342476004
 20
1752.821386437772
 30
0.0
 11
5482.622342476004
 21
1856.821386437772
 31
0.0
  0
LINE
  5
26069
330
747D
100
AcDbEntity
  8
細線
 48
50.0
100
AcDbLine
 10
5378.622342476004
 20
1698.939849711357
 30
0.0
 11
5482.622342476009
 21
1802.939849711357
 31
0.0
  0
LINE
  5
2606A
330
747D
100
AcDbEntity
  8
細線
 48
50.0
100
AcDbLine
 10
5466.622342476004
 20
2002.465996617017
 30
0.0
 11
5482.622342476004
 21
2018.465996617017
 31
0.0
  0
LINE
  5
2606B
330
747D
100
AcDbEntity
  8
細線
 48
50.0
100
AcDbLine
 10
5466.622342476004
 20
2029.406764980224
 30
0.0
 11
5482.622342476004
 21
2045.406764980224
 31
0.0
  0
LINE
  5
2606C
330
747D
100
AcDbEntity
  8
部品1
 48
50.0
100
AcDbLine
 10
5250.622342476003
 20
1652.093103949186
 30
0.0
 11
5378.622342476004
 21
1652.093103949186
 31
0.0
  0
LINE
  5
2606D
330
747D
100
AcDbEntity
  8
細線
 48
50.0
100
AcDbLine
 10
5250.622342475996
 20
1597.880618074561
 30
0.0
 11
5304.834828350628
 21
1652.093103949186
 31
0.0
  0
LINE
  5
2606E
330
747D
100
AcDbEntity
  8
細線
 48
50.0
100
AcDbLine
 10
5250.622342475996
 20
1624.821386437772
 30
0.0
 11
5277.894059987417
 21
1652.093103949186
 31
0.0
  0
LINE
  5
2606F
330
747D
100
AcDbEntity
  8
部品1
 48
50.0
100
AcDbLine
 10
5466.622342476004
 20
1998.220318646308
 30
0.0
 11
5450.622342476004
 21
1998.220318646312
 31
0.0
  0
LINE
  5
26070
330
747D
100
AcDbEntity
  8
細線
 48
50.0
100
AcDbLine
 10
5378.622342476004
 20
1914.465996617017
 30
0.0
 11
5462.376664505297
 21
1998.220318646308
 31
0.0
  0
LINE
  5
26071
330
747D
100
AcDbEntity
  8
細線
 48
50.0
100
AcDbLine
 10
5378.622342476004
 20
1941.406764980223
 30
0.0
 11
5450.622342476004
 21
2013.406764980224
 31
0.0
  0
LINE
  5
26072
330
747D
100
AcDbEntity
  8
部品1
 48
50.0
100
AcDbLine
 10
5450.622342476004
 20
1998.220318646312
 30
0.0
 11
5450.622342476004
 21
2056.347533343432
 31
0.0
  0
LINE
  5
26073
330
747D
100
AcDbEntity
  8
細線
 48
50.0
100
AcDbLine
 10
5378.622342476004
 20
1968.347533343431
 30
0.0
 11
5450.622342476004
 21
2040.347533343432
 31
0.0
  0
LINE
  5
26074
330
747D
100
AcDbEntity
  8
部品1
 48
50.0
100
AcDbLine
 10
5466.622342476004
 20
1998.220318646308
 30
0.0
 11
5466.622342476004
 21
2056.347533343432
 31
0.0
  0
LINE
  5
26075
330
747D
100
AcDbEntity
  8
細線
 48
50.0
100
AcDbLine
 10
5498.622342476009
 20
1818.939849711357
 30
0.0
 11
5570.622342475997
 21
1890.939849711357
 31
0.0
  0
LINE
  5
26076
330
747D
100
AcDbEntity
  8
部品1
 48
50.0
100
AcDbLine
 10
5570.622342476004
 20
1652.093103949186
 30
0.0
 11
5698.622342476004
 21
1652.093103949186
 31
0.0
  0
LINE
  5
26077
330
747D
100
AcDbEntity
  8
細線
 48
50.0
100
AcDbLine
 10
5498.622342476009
 20
1630.354471168907
 30
0.0
 11
5570.622342475997
 21
1702.354471168902
 31
0.0
  0
LINE
  5
26078
330
747D
100
AcDbEntity
  8
細線
 48
50.0
100
AcDbLine
 10
5498.622342476009
 20
1657.295239532115
 30
0.0
 11
5570.622342475997
 21
1729.295239532112
 31
0.0
  0
LINE
  5
26079
330
747D
100
AcDbEntity
  8
細線
 48
50.0
100
AcDbLine
 10
5498.622342476009
 20
1603.413702805697
 30
0.0
 11
5570.622342475997
 21
1675.413702805698
 31
0.0
  0
LINE
  5
2607A
330
747D
100
AcDbEntity
  8
細線
 48
50.0
100
AcDbLine
 10
5498.622342476004
 20
1872.821386437772
 30
0.0
 11
5570.622342476004
 21
1944.821386437772
 31
0.0
  0
LINE
  5
2607B
330
747D
100
AcDbEntity
  8
細線
 48
50.0
100
AcDbLine
 10
5498.622342476009
 20
1845.880618074567
 30
0.0
 11
5570.622342475997
 21
1917.880618074561
 31
0.0
  0
MTEXT
  5
2607C
102
{ACAD_REACTORS
330
26027
102
}
330
747D
100
AcDbEntity
  8
寸法
 62
     7
 48
50.0
100
AcDbMText
 10
5812.360798337254
 20
1234.744018217033
 30
0.0
 40
80.0
 41
0.8
 71
     4
 72
     1
  1
\A1;D10@300
  7
STYLE2
 73
     1
 44
1.0
1001
ACAD
1000
MTEXTBEGIN
1070
    73
1070
     1
1070
    44
1040
1.0
1070
    74
1070
     0
1000
MTEXTEND
  0
DIMENSION
  5
2607D
330
747D
100
AcDbEntity
  8
寸法
 48
50.0
100
AcDbDimension
  2
*D47
 10
5378.622342476003
 20
2615.760911865566
 30
0.0
 11
5474.622342476003
 21
2615.760911865566
 31
0.0
 70
   160
  1
120\P200\P280
 71
     5
 42
192.0
  3
INABA_S40G
100
AcDbAlignedDimension
 13
5570.622342476003
 23
2196.093103949186
 33
0.0
 14
5378.622342476003
 24
2196.093103949186
 34
0.0
100
AcDbRotatedDimension
1001
ACAD
1000
DSTYLE
1002
{
1070
   341
1005
0
1002
}
  0
LINE
  5
2607E
330
747D
100
AcDbEntity
  8
部品1
 48
50.0
100
AcDbLine
 10
5378.622342476004
 20
2196.093103949186
 30
0.0
 11
5570.622342476004
 21
2196.093103949186
 31
0.0
  0
LINE
  5
2607F
330
747D
100
AcDbEntity
  8
細線
 48
50.0
100
AcDbLine
 10
5378.622342476004
 20
2156.932911885884
 30
0.0
 11
5417.782534539307
 21
2196.093103949186
 31
0.0
  0
LINE
  5
26080
330
747D
100
AcDbEntity
  8
細線
 48
50.0
100
AcDbLine
 10
5378.622342476004
 20
2129.992143522676
 30
0.0
 11
5444.723302902513
 21
2196.093103949186
 31
0.0
  0
LINE
  5
26081
330
747D
100
AcDbEntity
  8
細線
 48
50.0
100
AcDbLine
 10
5378.622342476004
 20
2183.873680249091
 30
0.0
 11
5390.841766176098
 21
2196.093103949186
 31
0.0
  0
LINE
  5
26082
330
747D
100
AcDbEntity
  8
細線
 48
50.0
100
AcDbLine
 10
5498.17504974199
 20
2060.959472246208
 30
0.0
 11
5570.622342476004
 21
2133.406764980223
 31
0.0
  0
LINE
  5
26083
330
747D
100
AcDbEntity
  8
細線
 48
50.0
100
AcDbLine
 10
5487.114764978474
 20
2076.839955845902
 30
0.0
 11
5570.622342476004
 21
2160.347533343432
 31
0.0
  0
LINE
  5
26084
330
747D
100
AcDbEntity
  8
細線
 48
50.0
100
AcDbLine
 10
7363.061655653197
 20
2037.221386437774
 30
0.0
 11
7492.661655653195
 21
2166.821386437773
 31
0.0
  0
LINE
  5
26085
330
747D
100
AcDbEntity
  8
部品1
100
AcDbLine
 10
7492.661655653195
 20
1652.093103949186
 30
0.0
 11
7492.661655653195
 21
2196.093103949186
 31
0.0
  0
LINE
  5
26086
330
747D
100
AcDbEntity
  8
部品1
 48
50.0
100
AcDbLine
 10
7078.661655653196
 20
1652.093103949186
 30
0.0
 11
7078.661655653196
 21
2196.093103949186
 31
0.0
  0
LINE
  5
26087
330
747D
100
AcDbEntity
  8
細線
 48
50.0
100
AcDbLine
 10
7078.661655653196
 20
1968.347533343431
 30
0.0
 11
7237.061655653197
 21
2126.747533343429
 31
0.0
  0
LINE
  5
26088
330
747D
100
AcDbEntity
  8
細線
 48
50.0
100
AcDbLine
 10
7078.661655653196
 20
1941.406764980223
 30
0.0
 11
7237.061655653197
 21
2099.806764980222
 31
0.0
  0
LINE
  5
26089
330
747D
100
AcDbEntity
  8
細線
 48
50.0
100
AcDbLine
 10
7078.661655653196
 20
1914.465996617017
 30
0.0
 11
7237.061655653192
 21
2072.865996617009
 31
0.0
  0
TEXT
  5
2608A
330
747D
100
AcDbEntity
  8
部品1
 48
50.0
100
AcDbText
 10
6664.52175382024
 20
1967.332096232441
 30
0.0
 40
80.0
  1
▽G.L
  7
STYLE2
100
AcDbText
  0
LINE
  5
2608B
330
747D
100
AcDbEntity
  8
部品1
100
AcDbLine
 10
7309.061655653197
 20
1971.093103949186
 30
0.0
 11
7309.061655653192
 21
2245.253103949187
 31
0.0
  0
LINE
  5
2608C
330
747D
100
AcDbEntity
  8
部品1
100
AcDbLine
 10
7291.061655653196
 20
1971.093103949186
 30
0.0
 11
7291.061655653193
 21
2245.253103949187
 31
0.0
  0
LINE
  5
2608D
330
747D
100
AcDbEntity
  8
細線
 48
50.0
100
AcDbLine
 10
7363.061655653197
 20
1983.339849711345
 30
0.0
 11
7492.661655653195
 21
2112.939849711336
 31
0.0
  0
LINE
  5
2608E
330
747D
100
AcDbEntity
  8
細線
 48
50.0
100
AcDbLine
 10
7363.061655653197
 20
2010.280618074558
 30
0.0
 11
7492.661655653195
 21
2139.880618074554
 31
0.0
  0
LINE
  5
2608F
330
747D
100
AcDbEntity
  8
部品1
100
AcDbLine
 10
7363.061655653197
 20
1872.093103949186
 30
0.0
 11
7363.061655653197
 21
2196.093103949186
 31
0.0
  0
LINE
  5
26090
330
747D
100
AcDbEntity
  8
部品1
100
AcDbLine
 10
7237.06165565319
 20
1872.093103949186
 30
0.0
 11
7237.061655653197
 21
2196.093103949186
 31
0.0
  0
LINE
  5
26091
330
747D
100
AcDbEntity
  8
細線
 48
50.0
100
AcDbLine
 10
7078.661655653196
 20
1725.880618074564
 30
0.0
 11
7237.06165565319
 21
1884.280618074553
 31
0.0
  0
LINE
  5
26092
330
747D
100
AcDbEntity
  8
細線
 48
50.0
100
AcDbLine
 10
7078.661655653196
 20
1698.939849711357
 30
0.0
 11
7251.814909891033
 21
1872.093103949184
 31
0.0
  0
LINE
  5
26093
330
747D
100
AcDbEntity
  8
細線
 48
50.0
100
AcDbLine
 10
7078.661655653196
 20
1752.821386437772
 30
0.0
 11
7237.06165565319
 21
1911.221386437767
 31
0.0
  0
LINE
  5
26094
330
747D
100
AcDbEntity
  8
細線
 48
50.0
100
AcDbLine
 10
7007.341056796687
 20
1412.093103949186
 30
0.0
 11
7492.661655653195
 21
1897.413702805694
 31
0.0
  0
LINE
  5
26095
330
747D
100
AcDbEntity
  8
細線
 48
50.0
100
AcDbLine
 10
6980.400288433482
 20
1412.093103949186
 30
0.0
 11
7492.6616556532
 21
1924.3544711689
 31
0.0
  0
LINE
  5
26096
330
747D
100
AcDbEntity
  8
細線
 48
50.0
100
AcDbLine
 10
6953.459520070272
 20
1412.093103949186
 30
0.0
 11
7492.661655653195
 21
1951.295239532112
 31
0.0
  0
LINE
  5
26097
330
747D
100
AcDbEntity
  8
部品1
 48
50.0
100
AcDbLine
 10
7700.661655653199
 20
1412.093103949186
 30
0.0
 11
6870.6616556532
 21
1412.093103949186
 31
0.0
  0
LINE
  5
26098
330
747D
100
AcDbEntity
  8
部品1
 48
50.0
100
AcDbLine
 10
7700.661655653199
 20
1284.093103949186
 30
0.0
 11
6870.6616556532
 21
1284.093103949186
 31
0.0
  0
LINE
  5
26099
330
747D
100
AcDbEntity
  8
細線
 48
50.0
100
AcDbLine
 10
6950.661655653192
 20
1570.939849711357
 30
0.0
 11
7031.814909891027
 21
1652.093103949186
 31
0.0
  0
LINE
  5
2609A
330
747D
100
AcDbEntity
  8
部品1
 48
50.0
100
AcDbLine
 10
6950.661655653196
 20
1412.093103949186
 30
0.0
 11
6950.661655653196
 21
1652.093103949186
 31
0.0
  0
LINE
  5
2609B
330
747D
100
AcDbEntity
  8
細線
 48
50.0
100
AcDbLine
 10
6998.068405254715
 20
1284.093103949186
 30
0.0
 11
7032.365901885897
 21
1412.093103949186
 31
0.0
  0
LINE
  5
2609C
330
747D
100
AcDbEntity
  8
部品1
 48
50.0
100
AcDbLine
 10
6870.6616556532
 20
1284.093103949186
 30
0.0
 11
6870.6616556532
 21
1412.093103949186
 31
0.0
  0
LINE
  5
2609D
330
747D
100
AcDbEntity
  8
細線
 48
50.0
100
AcDbLine
 10
6919.180360307456
 20
1284.093103949184
 30
0.0
 11
6953.477856938639
 21
1412.093103949184
 31
0.0
  0
LINE
  5
2609E
330
747D
100
AcDbEntity
  8
細線
 48
50.0
100
AcDbLine
 10
7076.956450201961
 20
1284.093103949184
 30
0.0
 11
7111.253946833142
 21
1412.093103949184
 31
0.0
  0
LINE
  5
2609F
330
747D
100
AcDbEntity
  8
細線
 48
50.0
100
AcDbLine
 10
6925.611140925809
 20
1308.093103949186
 30
0.0
 11
6932.041921544156
 21
1284.093103949186
 31
0.0
  0
LINE
  5
260A0
330
747D
100
AcDbEntity
  8
細線
 48
50.0
100
AcDbLine
 10
7083.387230820313
 20
1308.093103949186
 30
0.0
 11
7089.81801143866
 21
1284.093103949186
 31
0.0
  0
LINE
  5
260A1
330
747D
100
AcDbEntity
  8
細線
 48
50.0
100
AcDbLine
 10
7004.499185873062
 20
1308.093103949186
 30
0.0
 11
7010.929966491407
 21
1284.093103949186
 31
0.0
  0
LINE
  5
260A2
330
747D
100
AcDbEntity
  8
細線
 48
50.0
100
AcDbLine
 10
6870.661655653197
 20
1397.433024914966
 30
0.0
 11
6874.589811991391
 21
1412.093103949186
 31
0.0
  0
LINE
  5
260A3
330
747D
100
AcDbEntity
  8
細線
 48
50.0
100
AcDbLine
 10
6947.047076320298
 20
1388.093103949186
 30
0.0
 11
6940.616295701953
 21
1412.093103949186
 31
0.0
  0
LINE
  5
260A4
330
747D
100
AcDbEntity
  8
細線
 48
50.0
100
AcDbLine
 10
7104.823166214803
 20
1388.093103949186
 30
0.0
 11
7098.392385596454
 21
1412.093103949186
 31
0.0
  0
LINE
  5
260A5
330
747D
100
AcDbEntity
  8
細線
 48
50.0
100
AcDbLine
 10
7025.935121267551
 20
1388.093103949186
 30
0.0
 11
7019.504340649203
 21
1412.093103949186
 31
0.0
  0
LWPOLYLINE
  5
260A6
330
747D
100
AcDbEntity
  8
部品1
 48
50.0
100
AcDbPolyline
 90
        2
 70
     0
 43
8.0
 10
6664.52175382024
 20
1956.093103949187
 10
7078.661655653196
 20
1956.093103949187
  0
LINE
  5
260A7
330
747D
100
AcDbEntity
  8
細線
 48
50.0
100
AcDbLine
 10
6950.661655653192
 20
1597.880618074561
 30
0.0
 11
7004.874141527821
 21
1652.093103949186
 31
0.0
  0
LINE
  5
260A8
330
747D
100
AcDbEntity
  8
部品1
 48
50.0
100
AcDbLine
 10
6950.661655653196
 20
1652.093103949186
 30
0.0
 11
7078.661655653196
 21
1652.093103949186
 31
0.0
  0
LINE
  5
260A9
330
747D
100
AcDbEntity
  8
細線
 48
50.0
100
AcDbLine
 10
6950.661655653192
 20
1624.821386437772
 30
0.0
 11
6977.933373164612
 21
1652.093103949186
 31
0.0
  0
LINE
  5
260AA
330
747D
100
AcDbEntity
  8
細線
 48
50.0
100
AcDbLine
 10
7195.926435339142
 20
1412.093103949186
 30
0.0
 11
7492.661655653195
 21
1708.828324263239
 31
0.0
  0
LINE
  5
260AB
330
747D
100
AcDbEntity
  8
細線
 48
50.0
100
AcDbLine
 10
7222.867203702346
 20
1412.093103949186
 30
0.0
 11
7492.661655653195
 21
1681.887555900043
 31
0.0
  0
LINE
  5
260AC
330
747D
100
AcDbEntity
  8
細線
 48
50.0
100
AcDbLine
 10
7168.985666975931
 20
1412.093103949186
 30
0.0
 11
7492.661655653195
 21
1735.769092626452
 31
0.0
  0
LINE
  5
260AD
330
747D
100
AcDbEntity
  8
細線
 48
50.0
100
AcDbLine
 10
7384.511813881589
 20
1412.093103949186
 30
0.0
 11
7620.661655653195
 21
1648.242945720794
 31
0.0
  0
LINE
  5
260AE
330
747D
100
AcDbEntity
  8
細線
 48
50.0
100
AcDbLine
 10
7411.452582244802
 20
1412.093103949186
 30
0.0
 11
7620.661655653195
 21
1621.302177357579
 31
0.0
  0
LINE
  5
260AF
330
747D
100
AcDbEntity
  8
部品1
 48
50.0
100
AcDbLine
 10
7620.661655653195
 20
1652.093103949186
 30
0.0
 11
7620.661655653195
 21
1412.093103949186
 31
0.0
  0
LINE
  5
260B0
330
747D
100
AcDbEntity
  8
細線
 48
50.0
100
AcDbLine
 10
7438.393350608007
 20
1412.093103949186
 30
0.0
 11
7620.661655653195
 21
1594.361408994382
 31
0.0
  0
LINE
  5
260B1
330
747D
100
AcDbEntity
  8
細線
 48
50.0
100
AcDbLine
 10
7313.620585043707
 20
1284.093103949184
 30
0.0
 11
7347.918081674889
 21
1412.093103949184
 31
0.0
  0
LINE
  5
260B2
330
747D
100
AcDbEntity
  8
細線
 48
50.0
100
AcDbLine
 10
7155.844495149212
 20
1284.093103949186
 30
0.0
 11
7190.141991780395
 21
1412.093103949186
 31
0.0
  0
LINE
  5
260B3
330
747D
100
AcDbEntity
  8
細線
 48
50.0
100
AcDbLine
 10
7234.732540096458
 20
1284.093103949186
 30
0.0
 11
7269.030036727643
 21
1412.093103949184
 31
0.0
  0
LINE
  5
260B4
330
747D
100
AcDbEntity
  8
細線
 48
50.0
100
AcDbLine
 10
7392.508629990949
 20
1284.093103949186
 30
0.0
 11
7426.806126622134
 21
1412.093103949184
 31
0.0
  0
LINE
  5
260B5
330
747D
100
AcDbEntity
  8
細線
 48
50.0
100
AcDbLine
 10
7241.163320714811
 20
1308.093103949186
 30
0.0
 11
7247.594101333158
 21
1284.093103949186
 31
0.0
  0
LINE
  5
260B6
330
747D
100
AcDbEntity
  8
細線
 48
50.0
100
AcDbLine
 10
7162.275275767564
 20
1308.093103949186
 30
0.0
 11
7168.706056385912
 21
1284.093103949186
 31
0.0
  0
LINE
  5
260B7
330
747D
100
AcDbEntity
  8
細線
 48
50.0
100
AcDbLine
 10
7398.939410609303
 20
1308.093103949186
 30
0.0
 11
7405.370191227648
 21
1284.093103949186
 31
0.0
  0
LINE
  5
260B8
330
747D
100
AcDbEntity
  8
細線
 48
50.0
100
AcDbLine
 10
7320.051365662057
 20
1308.093103949186
 30
0.0
 11
7326.482146280404
 21
1284.093103949186
 31
0.0
  0
LINE
  5
260B9
330
747D
100
AcDbEntity
  8
細線
 48
50.0
100
AcDbLine
 10
7262.599256109301
 20
1388.093103949186
 30
0.0
 11
7256.168475490951
 21
1412.093103949186
 31
0.0
  0
LINE
  5
260BA
330
747D
100
AcDbEntity
  8
細線
 48
50.0
100
AcDbLine
 10
7183.711211162052
 20
1388.093103949186
 30
0.0
 11
7177.280430543707
 21
1412.093103949186
 31
0.0
  0
LINE
  5
260BB
330
747D
100
AcDbEntity
  8
細線
 48
50.0
100
AcDbLine
 10
7341.487301056545
 20
1388.093103949186
 30
0.0
 11
7335.0565204382
 21
1412.093103949186
 31
0.0
  0
LINE
  5
260BC
330
747D
100
AcDbEntity
  8
細線
 48
50.0
100
AcDbLine
 10
7420.375346003791
 20
1388.093103949186
 30
0.0
 11
7413.944565385445
 21
1412.093103949186
 31
0.0
  0
LINE
  5
260BD
330
747D
100
AcDbEntity
  8
部品1
 48
50.0
100
AcDbLine
 10
7700.661655653199
 20
1412.093103949186
 30
0.0
 11
7700.661655653199
 21
1284.093103949186
 31
0.0
  0
LINE
  5
260BE
330
747D
100
AcDbEntity
  8
細線
 48
50.0
100
AcDbLine
 10
7629.172764832692
 20
1284.093103949184
 30
0.0
 11
7663.470261463877
 21
1412.093103949183
 31
0.0
  0
LINE
  5
260BF
330
747D
100
AcDbEntity
  8
細線
 48
50.0
100
AcDbLine
 10
7471.396674938198
 20
1284.093103949184
 30
0.0
 11
7505.694171569373
 21
1412.093103949186
 31
0.0
  0
LINE
  5
260C0
330
747D
100
AcDbEntity
  8
細線
 48
50.0
100
AcDbLine
 10
7550.284719885446
 20
1284.093103949183
 30
0.0
 11
7584.582216516633
 21
1412.093103949183
 31
0.0
  0
LINE
  5
260C1
330
747D
100
AcDbEntity
  8
細線
 48
50.0
100
AcDbLine
 10
7477.827455556547
 20
1308.093103949186
 30
0.0
 11
7484.258236174905
 21
1284.093103949186
 31
0.0
  0
LINE
  5
260C2
330
747D
100
AcDbEntity
  8
細線
 48
50.0
100
AcDbLine
 10
7556.715500503798
 20
1308.093103949184
 30
0.0
 11
7563.146281122143
 21
1284.093103949184
 31
0.0
  0
LINE
  5
260C3
330
747D
100
AcDbEntity
  8
細線
 48
50.0
100
AcDbLine
 10
7635.603545451042
 20
1308.093103949184
 30
0.0
 11
7642.034326069391
 21
1284.093103949184
 31
0.0
  0
LINE
  5
260C4
330
747D
100
AcDbEntity
  8
細線
 48
50.0
100
AcDbLine
 10
7499.26339095103
 20
1388.093103949186
 30
0.0
 11
7492.832610332683
 21
1412.093103949186
 31
0.0
  0
LINE
  5
260C5
330
747D
100
AcDbEntity
  8
細線
 48
50.0
100
AcDbLine
 10
7578.151435898286
 20
1388.093103949184
 30
0.0
 11
7571.720655279939
 21
1412.093103949184
 31
0.0
  0
LINE
  5
260C6
330
747D
100
AcDbEntity
  8
細線
 48
50.0
100
AcDbLine
 10
7657.039480845532
 20
1388.093103949184
 30
0.0
 11
7650.608700227185
 21
1412.093103949184
 31
0.0
  0
LINE
  5
260C7
330
747D
100
AcDbEntity
  8
部品1
100
AcDbLine
 10
7363.061655653197
 20
1872.093103949184
 30
0.0
 11
7237.06165565319
 21
1872.093103949184
 31
0.0
  0
LINE
  5
260C8
330
747D
100
AcDbEntity
  8
部品1
100
AcDbLine
 10
7345.061655653196
 20
1953.093103949186
 30
0.0
 11
7345.061655653196
 21
1971.093103949186
 31
0.0
  0
ARC
  5
260C9
330
747D
100
AcDbEntity
  8
部品1
100
AcDbCircle
 10
7309.061655653197
 20
1971.093103949186
 30
0.0
 40
18.0
100
AcDbArc
 50
180.0
 51
270.0
  0
LINE
  5
260CA
330
747D
100
AcDbEntity
  8
部品1
100
AcDbLine
 10
7309.061655653197
 20
1953.093103949186
 30
0.0
 11
7345.061655653196
 21
1953.093103949186
 31
0.0
  0
LINE
  5
260CB
330
747D
100
AcDbEntity
  8
部品1
100
AcDbLine
 10
7309.061655653197
 20
1971.093103949186
 30
0.0
 11
7345.061655653196
 21
1971.093103949186
 31
0.0
  0
LINE
  5
260CC
330
747D
100
AcDbEntity
  8
部品1
 48
50.0
100
AcDbLine
 10
7492.661655653195
 20
1652.093103949186
 30
0.0
 11
7620.661655653195
 21
1652.093103949186
 31
0.0
  0
LINE
  5
260CD
330
747D
100
AcDbEntity
  8
部品1
100
AcDbLine
 10
7098.461655653197
 20
2286.093103949186
 30
0.0
 11
7136.261655653199
 21
2286.093103949186
 31
0.0
  0
LINE
  5
260CE
330
747D
100
AcDbEntity
  8
細線
 48
50.0
100
AcDbLine
 10
7078.661655653196
 20
2156.932911885884
 30
0.0
 11
7117.821847716503
 21
2196.093103949186
 31
0.0
  0
LINE
  5
260CF
330
747D
100
AcDbEntity
  8
細線
 48
50.0
100
AcDbLine
 10
7078.661655653196
 20
2129.992143522676
 30
0.0
 11
7144.762616079707
 21
2196.093103949186
 31
0.0
  0
LINE
  5
260D0
330
747D
100
AcDbEntity
  8
部品1
 48
50.0
100
AcDbLine
 10
7078.661655653196
 20
2196.093103949186
 30
0.0
 11
7492.6616556532
 21
2196.093103949186
 31
0.0
  0
LINE
  5
260D1
330
747D
100
AcDbEntity
  8
部品1
100
AcDbLine
 10
7095.761655653198
 20
2275.293103949186
 30
0.0
 11
7095.761655653198
 21
2283.393103949186
 31
0.0
  0
ARC
  5
260D2
330
747D
100
AcDbEntity
  8
部品1
100
AcDbCircle
 10
7098.461655653197
 20
2283.393103949186
 30
0.0
 40
2.7
100
AcDbArc
 50
90.0
 51
180.0
  0
ARC
  5
260D3
330
747D
100
AcDbEntity
  8
部品1
100
AcDbCircle
 10
7087.661655653197
 20
2270.485007651894
 30
0.0
 40
2.7
100
AcDbArc
 50
104.0362434679059
 51
180.0
  0
LINE
  5
260D4
330
747D
100
AcDbEntity
  8
部品1
100
AcDbLine
 10
7087.006809465599
 20
2273.104392402286
 30
0.0
 11
7095.761655653198
 21
2275.293103949186
 31
0.0
  0
ARC
  5
260D5
330
747D
100
AcDbEntity
  8
部品1
100
AcDbCircle
 10
7087.661655653197
 20
2208.353103949186
 30
0.0
 40
2.7
100
AcDbArc
 50
180.0
 51
270.0
  0
LINE
  5
260D6
330
747D
100
AcDbEntity
  8
細線
 48
50.0
100
AcDbLine
 10
7078.661655653196
 20
2183.873680249091
 30
0.0
 11
7090.881079353291
 21
2196.093103949186
 31
0.0
  0
LINE
  5
260D7
330
747D
100
AcDbEntity
  8
部品1
100
AcDbLine
 10
7087.661655653197
 20
2205.653103949186
 30
0.0
 11
7099.361655653192
 21
2205.653103949186
 31
0.0
  0
LINE
  5
260D8
330
747D
100
AcDbEntity
  8
部品1
100
AcDbLine
 10
7084.961655653197
 20
2208.353103949186
 30
0.0
 11
7084.961655653197
 21
2270.485007651894
 31
0.0
  0
LINE
  5
260D9
330
747D
100
AcDbEntity
  8
部品1
100
AcDbLine
 10
7243.62165565319
 20
2205.653103949186
 30
0.0
 11
7444.961655653191
 21
2205.653103949186
 31
0.0
  0
LINE
  5
260DA
330
747D
100
AcDbEntity
  8
部品1
100
AcDbLine
 10
7136.261655653199
 20
2286.093103949186
 30
0.0
 11
7136.261655653199
 21
2294.193103949186
 31
0.0
  0
LINE
  5
260DB
330
747D
100
AcDbEntity
  8
部品1
100
AcDbLine
 10
7186.661655653196
 20
2304.993103949183
 30
0.0
 11
7186.661655653196
 21
2253.693103949187
 31
0.0
  0
LINE
  5
260DC
330
747D
100
AcDbEntity
  8
部品1
100
AcDbLine
 10
7210.061655653198
 20
2265.653103949187
 30
0.0
 11
7238.221655653197
 21
2265.653103949187
 31
0.0
  0
ARC
  5
260DD
330
747D
100
AcDbEntity
  8
部品1
100
AcDbCircle
 10
7210.061655653198
 20
2262.953103949187
 30
0.0
 40
2.7
100
AcDbArc
 50
90.0
 51
180.0
  0
ARC
  5
260DE
330
747D
100
AcDbEntity
  8
部品1
100
AcDbCircle
 10
7238.221655653197
 20
2262.953103949187
 30
0.0
 40
2.7
100
AcDbArc
 50
0.0
 51
90.0
  0
LINE
  5
260DF
330
747D
100
AcDbEntity
  8
部品1
100
AcDbLine
 10
7228.961655653198
 20
2250.993103949186
 30
0.0
 11
7228.961655653198
 21
2208.353103949186
 31
0.0
  0
LINE
  5
260E0
330
747D
100
AcDbEntity
  8
部品1
100
AcDbLine
 10
7214.561655653198
 20
2205.653103949186
 30
0.0
 11
7226.261655653198
 21
2205.653103949186
 31
0.0
  0
ARC
  5
260E1
330
747D
100
AcDbEntity
  8
部品1
100
AcDbCircle
 10
7243.62165565319
 20
2208.353103949186
 30
0.0
 40
2.7
100
AcDbArc
 50
180.0
 51
270.0
  0
ARC
  5
260E2
330
747D
100
AcDbEntity
  8
部品1
100
AcDbCircle
 10
7226.261655653198
 20
2208.353103949186
 30
0.0
 40
2.7
100
AcDbArc
 50
270.0
 51
0.0
  0
LINE
  5
260E3
330
747D
100
AcDbEntity
  8
部品1
100
AcDbLine
 10
7186.661655653196
 20
2253.693103949187
 30
0.0
 11
7226.261655653198
 21
2253.693103949187
 31
0.0
  0
ARC
  5
260E4
330
747D
100
AcDbEntity
  8
部品1
100
AcDbCircle
 10
7226.261655653198
 20
2250.993103949186
 30
0.0
 40
2.7
100
AcDbArc
 50
0.0
 51
90.0
  0
LINE
  5
260E5
330
747D
100
AcDbEntity
  8
部品1
100
AcDbLine
 10
7240.921655653197
 20
2262.953103949187
 30
0.0
 11
7240.921655653195
 21
2208.353103949186
 31
0.0
  0
LINE
  5
260E6
330
747D
100
AcDbEntity
  8
部品1
100
AcDbLine
 10
7207.361655653196
 20
2262.953103949187
 30
0.0
 11
7207.361655653196
 21
2245.853103949186
 31
0.0
  0
LINE
  5
260E7
330
747D
100
AcDbEntity
  8
細線
100
AcDbLine
 10
7305.461655653198
 20
2205.653103949186
 30
0.0
 11
7305.461655653198
 21
2248.853103949187
 31
0.0
  0
LINE
  5
260E8
330
747D
100
AcDbEntity
  8
細線
100
AcDbLine
 10
7294.661655653199
 20
2205.653103949186
 30
0.0
 11
7294.661655653195
 21
2248.853103949187
 31
0.0
  0
LINE
  5
260E9
330
747D
100
AcDbEntity
  8
部品1
100
AcDbLine
 10
7291.061655653196
 20
2245.253103949187
 30
0.0
 11
7309.061655653197
 21
2245.253103949187
 31
0.0
  0
LINE
  5
260EA
330
747D
100
AcDbEntity
  8
部品1
100
AcDbLine
 10
7294.661655653195
 20
2248.853103949187
 30
0.0
 11
7305.461655653198
 21
2248.853103949187
 31
0.0
  0
ELLIPSE
  5
260EB
330
747D
100
AcDbEntity
  8
部品1
 48
50.0
100
AcDbEllipse
 10
7300.061655653196
 20
2465.216392393459
 30
0.0
 11
40.0
 21
0.0
 31
0.0
210
0.0
220
0.0
230
1.0
 40
0.4
 41
0.0
 42
6.283185307179586
  0
ELLIPSE
  5
260EC
330
747D
100
AcDbEntity
  8
部品1
 48
50.0
100
AcDbEllipse
 10
7300.061655653196
 20
2455.616392393459
 30
0.0
 11
40.0
 21
0.0
 31
0.0
210
0.0
220
0.0
230
1.0
 40
0.4
 41
3.141592653589793
 42
6.283185307179586
  0
LINE
  5
260ED
330
747D
100
AcDbEntity
  8
部品1
 48
50.0
100
AcDbLine
 10
7260.061655653197
 20
2465.216392393459
 30
0.0
 11
7260.061655653197
 21
2455.616392393459
 31
0.0
  0
ARC
  5
260EE
330
747D
100
AcDbEntity
  8
部品1
100
AcDbCircle
 10
7183.961655653198
 20
2304.993103949183
 30
0.0
 40
2.7
100
AcDbArc
 50
0.0
 51
90.0
  0
ARC
  5
260EF
330
747D
100
AcDbEntity
  8
部品1
100
AcDbCircle
 10
7141.661655653196
 20
2304.993103949186
 30
0.0
 40
2.7
100
AcDbArc
 50
90.0
 51
180.0
  0
LINE
  5
260F0
330
747D
100
AcDbEntity
  8
部品1
100
AcDbLine
 10
7138.961655653197
 20
2296.893103949186
 30
0.0
 11
7138.961655653197
 21
2296.893103949186
 31
0.0
  0
LINE
  5
260F1
330
747D
100
AcDbEntity
  8
部品1
100
AcDbLine
 10
7138.961655653197
 20
2296.893103949186
 30
0.0
 11
7138.961655653197
 21
2304.993103949186
 31
0.0
  0
LINE
  5
260F2
330
747D
100
AcDbEntity
  8
部品1
100
AcDbLine
 10
7141.661655653196
 20
2307.693103949187
 30
0.0
 11
7183.961655653198
 21
2307.693103949183
 31
0.0
  0
ARC
  5
260F3
330
747D
100
AcDbEntity
  8
部品1
100
AcDbCircle
 10
7138.961655653197
 20
2294.193103949186
 30
0.0
 40
2.7
100
AcDbArc
 50
90.0
 51
180.0
  0
ELLIPSE
  5
260F4
330
747D
100
AcDbEntity
  8
部品1
 48
50.0
100
AcDbEllipse
 10
7300.061655653196
 20
2465.216392393459
 30
0.0
 11
18.4
 21
0.0
 31
0.0
210
0.0
220
0.0
230
1.0
 40
0.3478260869565217
 41
0.0
 42
6.283185307179586
  0
LINE
  5
260F5
330
747D
100
AcDbEntity
  8
部品1
 48
50.0
100
AcDbLine
 10
7340.061655653197
 20
2455.616392393459
 30
0.0
 11
7340.061655653197
 21
2465.216392393459
 31
0.0
  0
LINE
  5
260F6
330
747D
100
AcDbEntity
  8
部品1
 48
50.0
100
AcDbLine
 10
7268.061655653197
 20
2586.968385058329
 30
0.0
 11
7284.061655653196
 21
2578.968385058329
 31
0.0
  0
LINE
  5
260F7
330
747D
100
AcDbEntity
  8
部品1
 48
50.0
100
AcDbLine
 10
7268.061655653197
 20
2554.968385058329
 30
0.0
 11
7284.061655653196
 21
2546.968385058329
 31
0.0
  0
LINE
  5
260F8
330
747D
100
AcDbEntity
  8
部品1
 48
50.0
100
AcDbLine
 10
7268.061655653197
 20
2586.968385058329
 30
0.0
 11
7284.061655653196
 21
2594.968385058329
 31
0.0
  0
LINE
  5
260F9
330
747D
100
AcDbEntity
  8
部品1
 48
50.0
100
AcDbLine
 10
7268.061655653197
 20
2554.968385058329
 30
0.0
 11
7268.061655653197
 21
2586.968385058329
 31
0.0
  0
LINE
  5
260FA
330
747D
100
AcDbEntity
  8
部品1
 48
50.0
100
AcDbLine
 10
7284.061655653196
 20
2594.968385058329
 30
0.0
 11
7316.061655653196
 21
2594.968385058329
 31
0.0
  0
ELLIPSE
  5
260FB
330
747D
100
AcDbEntity
  8
細線
 48
50.0
100
AcDbEllipse
 10
7300.061655653196
 20
2586.968385058329
 30
0.0
 11
14.76670786606846
 21
0.0
 31
0.0
210
0.0
220
0.0
230
1.0
 40
0.2071254069489396
 41
0.0
 42
6.283185307179586
  0
LINE
  5
260FC
330
747D
100
AcDbEntity
  8
部品1
 48
50.0
100
AcDbLine
 10
7284.061655653196
 20
2546.968385058329
 30
0.0
 11
7316.061655653196
 21
2546.968385058329
 31
0.0
  0
LINE
  5
260FD
330
747D
100
AcDbEntity
  8
部品1
 48
50.0
100
AcDbLine
 10
7316.061655653196
 20
2546.968385058329
 30
0.0
 11
7332.061655653197
 21
2554.968385058329
 31
0.0
  0
LINE
  5
260FE
330
747D
100
AcDbEntity
  8
部品1
 48
50.0
100
AcDbLine
 10
7284.061655653196
 20
2578.968385058329
 30
0.0
 11
7316.061655653196
 21
2578.968385058329
 31
0.0
  0
LINE
  5
260FF
330
747D
100
AcDbEntity
  8
部品1
 48
50.0
100
AcDbLine
 10
7316.061655653196
 20
2578.968385058329
 30
0.0
 11
7332.061655653197
 21
2586.968385058329
 31
0.0
  0
LINE
  5
26100
330
747D
100
AcDbEntity
  8
細線
 48
50.0
100
AcDbLine
 10
7316.061655653196
 20
2546.968385058329
 30
0.0
 11
7316.061655653196
 21
2578.968385058329
 31
0.0
  0
LINE
  5
26101
330
747D
100
AcDbEntity
  8
部品1
 48
50.0
100
AcDbLine
 10
7332.061655653197
 20
2554.968385058329
 30
0.0
 11
7332.061655653197
 21
2586.968385058329
 31
0.0
  0
LINE
  5
26102
330
747D
100
AcDbEntity
  8
細線
 48
50.0
100
AcDbLine
 10
7284.061655653196
 20
2546.968385058329
 30
0.0
 11
7284.061655653196
 21
2578.968385058329
 31
0.0
  0
LINE
  5
26103
330
747D
100
AcDbEntity
  8
部品1
 48
50.0
100
AcDbLine
 10
7316.061655653196
 20
2594.968385058329
 30
0.0
 11
7332.061655653197
 21
2586.968385058329
 31
0.0
  0
TEXT
  5
26104
330
747D
100
AcDbEntity
  8
部品1
100
AcDbText
 10
7000.833904845127
 20
3415.879839198344
 30
0.0
 40
120.0
  1
基礎詳細
  7
STYLE2
100
AcDbText
  0
LINE
  5
26105
330
747D
100
AcDbEntity
  8
部品1
100
AcDbLine
 10
10378.93908905298
 20
631.1248015651244
 30
0.0
 11
10378.93908905299
 21
3595.431771149772
 31
0.0
  0
LINE
  5
26106
330
747D
100
AcDbEntity
  8
細線
100
AcDbLine
 10
9386.830921632741
 20
1956.093103949186
 30
0.0
 11
9192.197587955954
 21
2150.726437625969
 31
0.0
  0
LINE
  5
26107
330
747D
100
AcDbEntity
  8
部品1
100
AcDbLine
 10
9192.197587955954
 20
2196.093103949186
 30
0.0
 11
9672.197587955954
 21
2196.093103949186
 31
0.0
  0
LINE
  5
26108
330
747D
100
AcDbEntity
  8
細線
 48
50.0
100
AcDbLine
 10
9326.268472399213
 20
1736.394188295836
 30
0.0
 11
9360.565969030398
 21
1864.394188295835
 31
0.0
  0
LINE
  5
26109
330
747D
100
AcDbEntity
  8
部品1
100
AcDbLine
 10
9072.197587955953
 20
1736.394188295832
 30
0.0
 11
9792.197587955953
 21
1736.394188295836
 31
0.0
  0
LINE
  5
2610A
330
747D
100
AcDbEntity
  8
部品1
100
AcDbLine
 10
9072.197587955953
 20
1864.394188295836
 30
0.0
 11
9792.197587955953
 21
1864.394188295839
 31
0.0
  0
LINE
  5
2610B
330
747D
100
AcDbEntity
  8
細線
100
AcDbLine
 10
9253.116233449196
 20
1864.394188295836
 30
0.0
 11
9344.815149102542
 21
1956.093103949186
 31
0.0
  0
LWPOLYLINE
  5
2610C
330
747D
100
AcDbEntity
  8
部品1
 48
50.0
100
AcDbPolyline
 90
        2
 70
     0
 43
12.0
 10
8807.586325855565
 20
1956.093103949186
 10
10008.67862898719
 20
1956.093103949186
  0
LINE
  5
2610D
330
747D
100
AcDbEntity
  8
細線
100
AcDbLine
 10
9335.919233387306
 20
1956.093103949186
 30
0.0
 11
9192.197587955954
 21
2099.814749380539
 31
0.0
  0
TEXT
  5
2610E
330
747D
100
AcDbEntity
  8
部品1
 48
50.0
100
AcDbText
 10
8428.079501197451
 20
1689.293363311877
 30
0.0
 40
80.0
  1
ボルトの出
 50
90.0
  7
STYLE2
100
AcDbText
  0
LINE
  5
2610F
330
747D
100
AcDbEntity
  8
部品1
100
AcDbLine
 10
9192.197587955954
 20
1956.093103949186
 30
0.0
 11
9192.197587955954
 21
2196.093103949186
 31
0.0
  0
LINE
  5
26110
330
747D
100
AcDbEntity
  8
細線
 48
50.0
100
AcDbLine
 10
9168.492382504714
 20
1736.394188295835
 30
0.0
 11
9202.789879135897
 21
1864.394188295835
 31
0.0
  0
LINE
  5
26111
330
747D
100
AcDbEntity
  8
細線
 48
50.0
100
AcDbLine
 10
9247.380427451965
 20
1736.394188295836
 30
0.0
 11
9281.677924083149
 21
1864.394188295836
 31
0.0
  0
LINE
  5
26112
330
747D
100
AcDbEntity
  8
細線
 48
50.0
100
AcDbLine
 10
9089.604337557465
 20
1736.394188295836
 30
0.0
 11
9123.901834188652
 21
1864.394188295836
 31
0.0
  0
LINE
  5
26113
330
747D
100
AcDbEntity
  8
部品1
100
AcDbLine
 10
9072.197587955953
 20
1736.394188295832
 30
0.0
 11
9072.197587955953
 21
1956.093103949186
 31
0.0
  0
LINE
  5
26114
330
747D
100
AcDbEntity
  8
細線
 48
50.0
100
AcDbLine
 10
9174.923163123066
 20
1760.394188295836
 30
0.0
 11
9181.353943741415
 21
1736.394188295836
 31
0.0
  0
LINE
  5
26115
330
747D
100
AcDbEntity
  8
細線
 48
50.0
100
AcDbLine
 10
9096.035118175816
 20
1760.394188295836
 30
0.0
 11
9102.465898794163
 21
1736.394188295836
 31
0.0
  0
LINE
  5
26116
330
747D
100
AcDbEntity
  8
細線
 48
50.0
100
AcDbLine
 10
9253.811208070317
 20
1760.394188295836
 30
0.0
 11
9260.241988688663
 21
1736.394188295836
 31
0.0
  0
LINE
  5
26117
330
747D
100
AcDbEntity
  8
細線
 48
50.0
100
AcDbLine
 10
9332.699253017564
 20
1760.394188295836
 30
0.0
 11
9339.130033635912
 21
1736.394188295836
 31
0.0
  0
LINE
  5
26118
330
747D
100
AcDbEntity
  8
細線
 48
50.0
100
AcDbLine
 10
9117.471053570305
 20
1840.394188295836
 30
0.0
 11
9111.040272951957
 21
1864.394188295836
 31
0.0
  0
LINE
  5
26119
330
747D
100
AcDbEntity
  8
細線
 48
50.0
100
AcDbLine
 10
9275.247143464808
 20
1840.394188295836
 30
0.0
 11
9268.816362846461
 21
1864.394188295836
 31
0.0
  0
LINE
  5
2611A
330
747D
100
AcDbEntity
  8
細線
 48
50.0
100
AcDbLine
 10
9196.359098517554
 20
1840.394188295836
 30
0.0
 11
9189.928317899207
 21
1864.394188295836
 31
0.0
  0
LINE
  5
2611B
330
747D
100
AcDbEntity
  8
細線
100
AcDbLine
 10
9185.233982455285
 20
1864.394188295836
 30
0.0
 11
9276.932898108633
 21
1956.093103949186
 31
0.0
  0
LINE
  5
2611C
330
747D
100
AcDbEntity
  8
細線
100
AcDbLine
 10
9219.17510795224
 20
1864.394188295836
 30
0.0
 11
9310.874023605585
 21
1956.093103949186
 31
0.0
  0
LINE
  5
2611D
330
747D
100
AcDbEntity
  8
細線
100
AcDbLine
 10
9607.448237362945
 20
1956.093103949186
 30
0.0
 11
9367.448237362943
 21
2196.093103949186
 31
0.0
  0
LINE
  5
2611E
330
747D
100
AcDbEntity
  8
細線
100
AcDbLine
 10
9658.359925608372
 20
1956.093103949188
 30
0.0
 11
9418.359925608376
 21
2196.093103949186
 31
0.0
  0
LINE
  5
2611F
330
747D
100
AcDbEntity
  8
部品1
100
AcDbLine
 10
9672.197587955954
 20
2196.093103949186
 30
0.0
 11
9672.197587955954
 21
1956.093103949186
 31
0.0
  0
LINE
  5
26120
330
747D
100
AcDbEntity
  8
細線
 48
50.0
100
AcDbLine
 10
9641.820652188203
 20
1736.394188295833
 30
0.0
 11
9676.118148819387
 21
1864.394188295833
 31
0.0
  0
LINE
  5
26121
330
747D
100
AcDbEntity
  8
細線
100
AcDbLine
 10
9613.116233449197
 20
1864.394188295838
 30
0.0
 11
9704.815149102543
 21
1956.093103949186
 31
0.0
  0
LINE
  5
26122
330
747D
100
AcDbEntity
  8
細線
 48
50.0
100
AcDbLine
 10
9562.932607240952
 20
1736.394188295835
 30
0.0
 11
9597.230103872126
 21
1864.394188295836
 31
0.0
  0
LINE
  5
26123
330
747D
100
AcDbEntity
  8
細線
 48
50.0
100
AcDbLine
 10
9405.156517346462
 20
1736.394188295835
 30
0.0
 11
9439.454013977643
 21
1864.394188295835
 31
0.0
  0
LINE
  5
26124
330
747D
100
AcDbEntity
  8
細線
 48
50.0
100
AcDbLine
 10
9484.044562293703
 20
1736.394188295836
 30
0.0
 11
9518.34205892489
 21
1864.394188295835
 31
0.0
  0
LINE
  5
26125
330
747D
100
AcDbEntity
  8
細線
 48
50.0
100
AcDbLine
 10
9490.475342912057
 20
1760.394188295836
 30
0.0
 11
9496.906123530404
 21
1736.394188295836
 31
0.0
  0
LINE
  5
26126
330
747D
100
AcDbEntity
  8
細線
 48
50.0
100
AcDbLine
 10
9411.587297964812
 20
1760.394188295836
 30
0.0
 11
9418.018078583157
 21
1736.394188295836
 31
0.0
  0
LINE
  5
26127
330
747D
100
AcDbEntity
  8
細線
 48
50.0
100
AcDbLine
 10
9569.363387859302
 20
1760.394188295836
 30
0.0
 11
9575.79416847766
 21
1736.394188295836
 31
0.0
  0
LINE
  5
26128
330
747D
100
AcDbEntity
  8
細線
 48
50.0
100
AcDbLine
 10
9648.251432806553
 20
1760.394188295835
 30
0.0
 11
9654.682213424898
 21
1736.394188295835
 31
0.0
  0
LINE
  5
26129
330
747D
100
AcDbEntity
  8
細線
 48
50.0
100
AcDbLine
 10
9511.911278306547
 20
1840.394188295836
 30
0.0
 11
9505.480497688202
 21
1864.394188295836
 31
0.0
  0
LINE
  5
2612A
330
747D
100
AcDbEntity
  8
細線
 48
50.0
100
AcDbLine
 10
9433.023233359302
 20
1840.394188295836
 30
0.0
 11
9426.592452740955
 21
1864.394188295836
 31
0.0
  0
LINE
  5
2612B
330
747D
100
AcDbEntity
  8
細線
 48
50.0
100
AcDbLine
 10
9354.135188412053
 20
1840.394188295836
 30
0.0
 11
9347.704407793706
 21
1864.394188295836
 31
0.0
  0
LINE
  5
2612C
330
747D
100
AcDbEntity
  8
細線
100
AcDbLine
 10
9579.175107952243
 20
1864.394188295838
 30
0.0
 11
9670.874023605586
 21
1956.093103949186
 31
0.0
  0
LINE
  5
2612D
330
747D
100
AcDbEntity
  8
細線
 48
50.0
100
AcDbLine
 10
9590.799323253785
 20
1840.394188295836
 30
0.0
 11
9584.368542635438
 21
1864.394188295836
 31
0.0
  0
LINE
  5
2612E
330
747D
100
AcDbEntity
  8
細線
100
AcDbLine
 10
9545.233982455288
 20
1864.394188295838
 30
0.0
 11
9636.932898108632
 21
1956.093103949186
 31
0.0
  0
LINE
  5
2612F
330
747D
100
AcDbEntity
  8
細線
 48
50.0
100
AcDbLine
 10
9669.68736820104
 20
1840.394188295835
 30
0.0
 11
9663.256587582695
 21
1864.394188295835
 31
0.0
  0
LINE
  5
26130
330
747D
100
AcDbEntity
  8
細線
 48
50.0
100
AcDbLine
 10
9720.708697135448
 20
1736.394188295835
 30
0.0
 11
9755.006193766632
 21
1864.394188295833
 31
0.0
  0
LINE
  5
26131
330
747D
100
AcDbEntity
  8
部品1
100
AcDbLine
 10
9792.197587955953
 20
1956.093103949186
 30
0.0
 11
9792.197587955959
 21
1736.394188295836
 31
0.0
  0
LINE
  5
26132
330
747D
100
AcDbEntity
  8
細線
 48
50.0
100
AcDbLine
 10
9727.139477753798
 20
1760.394188295835
 30
0.0
 11
9733.570258372147
 21
1736.394188295835
 31
0.0
  0
LINE
  5
26133
330
747D
100
AcDbEntity
  8
細線
 48
50.0
100
AcDbLine
 10
9748.575413148287
 20
1840.394188295835
 30
0.0
 11
9742.144632529941
 21
1864.394188295835
 31
0.0
  0
LEADER
  5
26134
330
747D
100
AcDbEntity
  8
寸法
 48
50.0
100
AcDbLeader
  3
INABA_S50G
 73
     0
 74
     0
 75
     1
 40
120.0
 41
185.591883092037
 76
     3
 10
9602.921999571877
 20
2196.093103949186
 30
0.0
 10
9636.060206205522
 20
2368.239424630324
 30
0.0
 10
9761.060206205522
 20
2368.239424630324
 30
0.0
340
26135
1001
ACAD
1000
DSTYLE
1002
{
1070
    40
1040
1.0
1002
}
  0
MTEXT
  5
26135
102
{ACAD_REACTORS
330
26134
102
}
330
747D
100
AcDbEntity
  8
寸法
 62
     7
 48
50.0
100
AcDbMText
 10
9786.060206205522
 20
2453.239424630324
 30
0.0
 40
120.0
 41
0.8
 71
     4
 72
     1
  1
\A1;C.B
  7
STYLE1
 73
     1
 44
1.0
1001
ACAD
1000
MTEXTBEGIN
1070
    73
1070
     1
1070
    44
1040
1.0
1070
    74
1070
     0
1000
MTEXTEND
  0
TEXT
  5
261CA
330
747D
100
AcDbEntity
  8
文字
 62
     7
 48
50.0
100
AcDbText
 10
16307.78595799787
 20
0.1862994167712713
 30
0.0
 40
1.0
  1
at
  7
STYLE2
100
AcDbText
  0
ENDSEC
  0
SECTION
  2
OBJECTS
  0
DICTIONARY
  5
7471
330
0
100
AcDbDictionary
281
     1
  3
ACAD_COLOR
350
173D2
  3
ACAD_GROUP
350
7472
  3
ACAD_LAYOUT
350
173D3
  3
ACAD_MATERIAL
350
173D1
  3
ACAD_MLINESTYLE
350
7473
  3
ACAD_PLOTSETTINGS
350
173D4
  3
ACAD_PLOTSTYLENAME
350
173CF
  3
ACDBHEADERROUNDTRIPXREC
350
261DF
  3
AcDbVariableDictionary
350
25D58
  3
CONTENTDICTIONARY
350
E71C
  3
DRAWINGVARIABLESDICT
350
F3B9
  0
DICTIONARY
  5
1758F
330
7467
100
AcDbDictionary
280
     1
281
     1
  3
ACAD_LAYERSTATES
360
17590
  0
DICTIONARY
  5
173D2
102
{ACAD_REACTORS
330
7471
102
}
330
7471
100
AcDbDictionary
281
     1
  0
DICTIONARY
  5
7472
102
{ACAD_REACTORS
330
7471
102
}
330
7471
100
AcDbDictionary
281
     1
  3
*A1
350
1D2A9
  0
DICTIONARY
  5
173D3
102
{ACAD_REACTORS
330
7471
102
}
330
7471
100
AcDbDictionary
281
     1
  3
Model
350
173D5
  3
レイアウト1
350
173D6
  0
DICTIONARY
  5
173D1
102
{ACAD_REACTORS
330
7471
102
}
330
7471
100
AcDbDictionary
281
     1
  0
DICTIONARY
  5
7473
102
{ACAD_REACTORS
330
7471
102
}
330
7471
100
AcDbDictionary
281
     1
  3
STANDARD
350
7480
  0
DICTIONARY
  5
173D4
102
{ACAD_REACTORS
330
7471
102
}
330
7471
100
AcDbDictionary
281
     1
  0
ACDBDICTIONARYWDFLT
  5
173CF
102
{ACAD_REACTORS
330
7471
102
}
330
7471
100
AcDbDictionary
281
     1
  3
Normal
350
173D0
100
AcDbDictionaryWithDefault
340
173D0
  0
DICTIONARY
  5
261DF
102
{ACAD_REACTORS
330
7471
102
}
330
7471
100
AcDbDictionary
281
     1
  3
COLORDICT
350
261E1
  3
MATERIALDICT
350
261E0
  0
DICTIONARY
  5
25D58
102
{ACAD_REACTORS
330
7471
102
}
330
7471
100
AcDbDictionary
281
     1
  3
DIMASSOC
350
25D59
  3
PROJECTNAME
350
25D5A
  0
DICTIONARY
  5
E71C
102
{ACAD_REACTORS
330
7471
102
}
330
7471
100
AcDbDictionary
281
     1
  0
DICTIONARY
  5
F3B9
102
{ACAD_REACTORS
330
7471
102
}
330
7471
100
AcDbDictionary
281
     1
1001
DRAWINGVARIABLESXDATA
1000
POLARMODE
1000
1
  0
DICTIONARY
  5
17590
102
{ACAD_REACTORS
330
1758F
102
}
330
1758F
100
AcDbDictionary
281
     1
  0
GROUP
  5
1D2A9
102
{ACAD_REACTORS
330
7472
102
}
330
7472
100
AcDbGroup
300

 70
     1
 71
     1
  0
LAYOUT
  5
173D5
102
{ACAD_XDICTIONARY
360
261E2
102
}
102
{ACAD_REACTORS
330
173D3
102
}
330
173D3
100
AcDbPlotSettings
  1

  2
Microsoft Office Document Image Writer
  4

  6

 40
0.0
 41
0.0
 42
0.0
 43
0.0
 44
0.0
 45
0.0
 46
0.0
 47
0.0
 48
0.0
 49
0.0
140
0.0
141
0.0
142
1.0
143
1.0
 70
  1712
 72
     0
 73
     0
 74
     0
  7

 75
     0
147
1.0
148
0.0
149
0.0
100
AcDbLayout
  1
Model
 70
     1
 71
     0
 10
0.0
 20
0.0
 11
12.0
 21
9.0
 12
0.0
 22
0.0
 32
0.0
 14
0.0
 24
0.0
 34
0.0
 15
0.0
 25
0.0
 35
0.0
146
0.0
 13
0.0
 23
0.0
 33
0.0
 16
1.0
 26
0.0
 36
0.0
 17
0.0
 27
1.0
 37
0.0
 76
     0
330
747D
  0
LAYOUT
  5
173D6
102
{ACAD_XDICTIONARY
360
261E4
102
}
102
{ACAD_REACTORS
330
173D3
102
}
330
173D3
100
AcDbPlotSettings
  1

  2
Microsoft Office Document Image Writer
  4

  6

 40
0.0
 41
0.0
 42
0.0
 43
0.0
 44
0.0
 45
0.0
 46
0.0
 47
0.0
 48
0.0
 49
0.0
140
0.0
141
0.0
142
1.0
143
1.0
 70
   688
 72
     0
 73
     0
 74
     5
  7

 75
    16
147
1.0
148
0.0
149
0.0
100
AcDbLayout
  1
レイアウト1
 70
     0
 71
     1
 10
0.0
 20
0.0
 11
420.0
 21
297.0
 12
0.0
 22
0.0
 32
0.0
 14
1.000000000000000E+20
 24
1.000000000000000E+20
 34
1.000000000000000E+20
 15
-1.000000000000000E+20
 25
-1.000000000000000E+20
 35
-1.000000000000000E+20
146
0.0
 13
0.0
 23
0.0
 33
0.0
 16
1.0
 26
0.0
 36
0.0
 17
0.0
 27
1.0
 37
0.0
 76
     0
330
747A
  0
MLINESTYLE
  5
7480
102
{ACAD_REACTORS
330
7473
102
}
330
7473
100
AcDbMlineStyle
  2
STANDARD
 70
     0
  3

 62
     0
 51
90.0
 52
90.0
 71
     2
 49
0.5
 62
   256
  6
BYLAYER
 49
-0.5
 62
   256
  6
BYLAYER
  0
ACDBPLACEHOLDER
  5
173D0
102
{ACAD_REACTORS
330
173CF
102
}
330
173CF
  0
XRECORD
  5
261E1
102
{ACAD_REACTORS
330
261DF
102
}
330
261DF
100
AcDbXrecord
280
     1
340
173D2
  0
XRECORD
  5
261E0
102
{ACAD_REACTORS
330
261DF
102
}
330
261DF
100
AcDbXrecord
280
     1
340
173D1
  0
DICTIONARYVAR
  5
25D59
102
{ACAD_REACTORS
330
25D58
102
}
330
25D58
100
DictionaryVariables
280
     0
  1
1
  0
DICTIONARYVAR
  5
25D5A
102
{ACAD_REACTORS
330
25D58
102
}
330
25D58
100
DictionaryVariables
280
     0
  1

  0
DICTIONARY
  5
261E2
330
173D5
100
AcDbDictionary
280
     1
281
     1
  3
ACAD_XREC_ROUNDTRIP
360
261E3
  0
DICTIONARY
  5
261E4
330
173D6
100
AcDbDictionary
280
     1
281
     1
  3
ACAD_XREC_ROUNDTRIP
360
261E5
  0
XRECORD
  5
261E3
102
{ACAD_REACTORS
330
261E2
102
}
330
261E2
100
AcDbXrecord
280
     1
102
SHADEPLOT
 70
     0
102
SHADEPLOTRESLEVEL
 70
     2
102
SHADEPLOTCUSTOMDPI
 70
   300
  0
XRECORD
  5
261E5
102
{ACAD_REACTORS
330
261E4
102
}
330
261E4
100
AcDbXrecord
280
     1
102
SHADEPLOT
 70
     0
102
SHADEPLOTRESLEVEL
 70
     2
102
SHADEPLOTCUSTOMDPI
 70
   300
  0
ENDSEC
  0
EOF
