  0
SECTION
  2
HEADER
  9
$ACADVER
  1
AC1015
  9
$ACADMAINTVER
 70
    20
  9
$DWGCODEPAGE
  3
ANSI_932
  9
$INSBASE
 10
0.0
 20
0.0
 30
0.0
  9
$EXTMIN
 10
139.9999999999995
 20
-0.0182460377740923
 30
0.0
  9
$EXTMAX
 10
16308.99050345242
 20
11409.6
 30
0.0
  9
$LIMMIN
 10
0.0
 20
0.0
  9
$LIMMAX
 10
16800.0
 20
11880.0
  9
$ORTHOMODE
 70
     0
  9
$REGENMODE
 70
     1
  9
$FILLMODE
 70
     1
  9
$QTEXTMODE
 70
     0
  9
$MIRRTEXT
 70
     1
  9
$LTSCALE
 40
20.0
  9
$ATTMODE
 70
     1
  9
$TEXTSIZE
 40
4.0
  9
$TRACEWID
 40
1.0
  9
$TEXTSTYLE
  7
STYLE1
  9
$CLAYER
  8
細線
  9
$CELTYPE
  6
BYLAYER
  9
$CECOLOR
 62
   256
  9
$CELTSCALE
 40
50.0
  9
$DISPSILH
 70
     0
  9
$DIMSCALE
 40
40.0
  9
$DIMASZ
 40
2.5
  9
$DIMEXO
 40
0.5
  9
$DIMDLI
 40
7.0
  9
$DIMRND
 40
0.0
  9
$DIMDLE
 40
0.0
  9
$DIMEXE
 40
1.5
  9
$DIMTP
 40
0.0
  9
$DIMTM
 40
0.0
  9
$DIMTXT
 40
3.0
  9
$DIMCEN
 40
0.0
  9
$DIMTSZ
 40
0.0
  9
$DIMTOL
 70
     0
  9
$DIMLIM
 70
     0
  9
$DIMTIH
 70
     0
  9
$DIMTOH
 70
     0
  9
$DIMSE1
 70
     0
  9
$DIMSE2
 70
     0
  9
$DIMTAD
 70
     3
  9
$DIMZIN
 70
     8
  9
$DIMBLK
  1

  9
$DIMASO
 70
     1
  9
$DIMSHO
 70
     1
  9
$DIMPOST
  1

  9
$DIMAPOST
  1

  9
$DIMALT
 70
     0
  9
$DIMALTD
 70
     2
  9
$DIMALTF
 40
0.0394
  9
$DIMLFAC
 40
1.0
  9
$DIMTOFL
 70
     1
  9
$DIMTVP
 40
0.0
  9
$DIMTIX
 70
     1
  9
$DIMSOXD
 70
     0
  9
$DIMSAH
 70
     1
  9
$DIMBLK1
  1
DOTSMALL
  9
$DIMBLK2
  1
DOTSMALL
  9
$DIMSTYLE
  2
INABA_S40G
  9
$DIMCLRD
 70
     0
  9
$DIMCLRE
 70
     0
  9
$DIMCLRT
 70
     7
  9
$DIMTFAC
 40
1.0
  9
$DIMGAP
 40
1.0
  9
$DIMJUST
 70
     0
  9
$DIMSD1
 70
     0
  9
$DIMSD2
 70
     0
  9
$DIMTOLJ
 70
     1
  9
$DIMTZIN
 70
     0
  9
$DIMALTZ
 70
     0
  9
$DIMALTTZ
 70
     0
  9
$DIMUPT
 70
     0
  9
$DIMDEC
 70
     1
  9
$DIMTDEC
 70
     4
  9
$DIMALTU
 70
     2
  9
$DIMALTTD
 70
     2
  9
$DIMTXSTY
  7
STYLE1
  9
$DIMAUNIT
 70
     0
  9
$DIMADEC
 70
     0
  9
$DIMALTRND
 40
0.0
  9
$DIMAZIN
 70
     0
  9
$DIMDSEP
 70
    46
  9
$DIMATFIT
 70
     3
  9
$DIMFRAC
 70
     0
  9
$DIMLDRBLK
  1

  9
$DIMLUNIT
 70
     2
  9
$DIMLWD
 70
    -2
  9
$DIMLWE
 70
    -2
  9
$DIMTMOVE
 70
     0
  9
$LUNITS
 70
     2
  9
$LUPREC
 70
     1
  9
$SKETCHINC
 40
1.0
  9
$FILLETRAD
 40
3.0
  9
$AUNITS
 70
     0
  9
$AUPREC
 70
     0
  9
$MENU
  1
acad
  9
$ELEVATION
 40
0.0
  9
$PELEVATION
 40
0.0
  9
$THICKNESS
 40
0.0
  9
$LIMCHECK
 70
     0
  9
$CHAMFERA
 40
0.0
  9
$CHAMFERB
 40
0.0
  9
$CHAMFERC
 40
0.0
  9
$CHAMFERD
 40
0.0
  9
$SKPOLY
 70
     0
  9
$TDCREATE
 40
2451368.612993866
  9
$TDUCREATE
 40
2451368.237993866
  9
$TDUPDATE
 40
2455827.391209989
  9
$TDUUPDATE
 40
2455827.016209989
  9
$TDINDWG
 40
0.7845214468
  9
$TDUSRTIMER
 40
0.7845214468
  9
$USRTIMER
 70
     1
  9
$ANGBASE
 50
0.0
  9
$ANGDIR
 70
     0
  9
$PDMODE
 70
     3
  9
$PDSIZE
 40
2.0
  9
$PLINEWID
 40
0.0
  9
$SPLFRAME
 70
     0
  9
$SPLINETYPE
 70
     6
  9
$SPLINESEGS
 70
     8
  9
$HANDSEED
  5
25908
  9
$SURFTAB1
 70
     6
  9
$SURFTAB2
 70
     6
  9
$SURFTYPE
 70
     6
  9
$SURFU
 70
     6
  9
$SURFV
 70
     6
  9
$UCSBASE
  2

  9
$UCSNAME
  2

  9
$UCSORG
 10
0.0
 20
0.0
 30
0.0
  9
$UCSXDIR
 10
1.0
 20
0.0
 30
0.0
  9
$UCSYDIR
 10
0.0
 20
1.0
 30
0.0
  9
$UCSORTHOREF
  2

  9
$UCSORTHOVIEW
 70
     0
  9
$UCSORGTOP
 10
0.0
 20
0.0
 30
0.0
  9
$UCSORGBOTTOM
 10
0.0
 20
0.0
 30
0.0
  9
$UCSORGLEFT
 10
0.0
 20
0.0
 30
0.0
  9
$UCSORGRIGHT
 10
0.0
 20
0.0
 30
0.0
  9
$UCSORGFRONT
 10
0.0
 20
0.0
 30
0.0
  9
$UCSORGBACK
 10
0.0
 20
0.0
 30
0.0
  9
$PUCSBASE
  2

  9
$PUCSNAME
  2

  9
$PUCSORG
 10
0.0
 20
0.0
 30
0.0
  9
$PUCSXDIR
 10
1.0
 20
0.0
 30
0.0
  9
$PUCSYDIR
 10
0.0
 20
1.0
 30
0.0
  9
$PUCSORTHOREF
  2

  9
$PUCSORTHOVIEW
 70
     0
  9
$PUCSORGTOP
 10
0.0
 20
0.0
 30
0.0
  9
$PUCSORGBOTTOM
 10
0.0
 20
0.0
 30
0.0
  9
$PUCSORGLEFT
 10
0.0
 20
0.0
 30
0.0
  9
$PUCSORGRIGHT
 10
0.0
 20
0.0
 30
0.0
  9
$PUCSORGFRONT
 10
0.0
 20
0.0
 30
0.0
  9
$PUCSORGBACK
 10
0.0
 20
0.0
 30
0.0
  9
$USERI1
 70
     0
  9
$USERI2
 70
     0
  9
$USERI3
 70
     0
  9
$USERI4
 70
     0
  9
$USERI5
 70
     0
  9
$USERR1
 40
0.0
  9
$USERR2
 40
0.0
  9
$USERR3
 40
0.0
  9
$USERR4
 40
0.0
  9
$USERR5
 40
0.0
  9
$WORLDVIEW
 70
     1
  9
$SHADEDGE
 70
     3
  9
$SHADEDIF
 70
    70
  9
$TILEMODE
 70
     1
  9
$MAXACTVP
 70
    16
  9
$PINSBASE
 10
0.0
 20
0.0
 30
0.0
  9
$PLIMCHECK
 70
     0
  9
$PEXTMIN
 10
1.000000000000000E+20
 20
1.000000000000000E+20
 30
1.000000000000000E+20
  9
$PEXTMAX
 10
-1.000000000000000E+20
 20
-1.000000000000000E+20
 30
-1.000000000000000E+20
  9
$PLIMMIN
 10
0.0
 20
0.0
  9
$PLIMMAX
 10
420.0
 20
297.0
  9
$UNITMODE
 70
     0
  9
$VISRETAIN
 70
     0
  9
$PLINEGEN
 70
     0
  9
$PSLTSCALE
 70
     0
  9
$TREEDEPTH
 70
  3020
  9
$CMLSTYLE
  2
STANDARD
  9
$CMLJUST
 70
     0
  9
$CMLSCALE
 40
1.0
  9
$PROXYGRAPHICS
 70
     1
  9
$MEASUREMENT
 70
     1
  9
$CELWEIGHT
370
    -1
  9
$ENDCAPS
280
     0
  9
$JOINSTYLE
280
     0
  9
$LWDISPLAY
290
     0
  9
$INSUNITS
 70
     0
  9
$HYPERLINKBASE
  1

  9
$STYLESHEET
  1

  9
$XEDIT
290
     1
  9
$CEPSNTYPE
380
     0
  9
$PSTYLEMODE
290
     1
  9
$FINGERPRINTGUID
  2
{5EAC461A-2277-4BF8-9AB0-99C43BB394F0}
  9
$VERSIONGUID
  2
{638D1D9C-CFCC-413B-B82B-5167B5439AD4}
  9
$EXTNAMES
290
     1
  9
$PSVPSCALE
 40
0.0
  9
$OLESTARTUP
290
     0
  0
ENDSEC
  0
SECTION
  2
CLASSES
  0
CLASS
  1
ACDBDICTIONARYWDFLT
  2
AcDbDictionaryWithDefault
  3
ObjectDBX Classes
 90
        0
280
     0
281
     0
  0
CLASS
  1
DICTIONARYVAR
  2
AcDbDictionaryVar
  3
ObjectDBX Classes
 90
        0
280
     0
281
     0
  0
CLASS
  1
ACDBPLACEHOLDER
  2
AcDbPlaceHolder
  3
ObjectDBX Classes
 90
        0
280
     0
281
     0
  0
CLASS
  1
LAYOUT
  2
AcDbLayout
  3
ObjectDBX Classes
 90
        0
280
     0
281
     0
  0
ENDSEC
  0
SECTION
  2
TABLES
  0
TABLE
  2
VPORT
  5
746D
330
0
100
AcDbSymbolTable
 70
     2
  0
VPORT
  5
25900
330
746D
100
AcDbSymbolTableRecord
100
AcDbViewportTableRecord
  2
*Active
 70
     0
 10
0.0
 20
0.0
 11
1.0
 21
1.0
 12
8224.401894379873
 22
5855.776308371822
 13
0.0
 23
0.0
 14
10.0
 24
10.0
 15
10.0
 25
10.0
 16
0.0
 26
0.0
 36
1.0
 17
0.0
 27
0.0
 37
0.0
 40
11800.47982950347
 41
1.522222222222221
 42
50.0
 43
0.0
 44
0.0
 50
0.0
 51
0.0
 71
     0
 72
     0
 73
     1
 74
     0
 75
     0
 76
     0
 77
     0
 78
     0
281
     0
 65
     1
110
0.0
120
0.0
130
0.0
111
1.0
121
0.0
131
0.0
112
0.0
122
1.0
132
0.0
 79
     0
146
0.0
  0
ENDTAB
  0
TABLE
  2
LTYPE
  5
746A
330
0
100
AcDbSymbolTable
 70
     5
  0
LTYPE
  5
7477
330
746A
100
AcDbSymbolTableRecord
100
AcDbLinetypeTableRecord
  2
BYBLOCK
 70
     0
  3

 72
    65
 73
     0
 40
0.0
  0
LTYPE
  5
7478
330
746A
100
AcDbSymbolTableRecord
100
AcDbLinetypeTableRecord
  2
BYLAYER
 70
     0
  3

 72
    65
 73
     0
 40
0.0
  0
LTYPE
  5
7479
330
746A
100
AcDbSymbolTableRecord
100
AcDbLinetypeTableRecord
  2
CONTINUOUS
 70
     0
  3
Solid line
 72
    65
 73
     0
 40
0.0
  0
LTYPE
  5
7816
330
746A
100
AcDbSymbolTableRecord
100
AcDbLinetypeTableRecord
  2
CENTER
 70
     0
  3
____ _ ____ _ ____ _ ____ _ ____ _ ____ _ ____ 
 72
    65
 73
     4
 40
2.0
 49
1.25
 74
     0
 49
-0.25
 74
     0
 49
0.25
 74
     0
 49
-0.25
 74
     0
  0
LTYPE
  5
781A
330
746A
100
AcDbSymbolTableRecord
100
AcDbLinetypeTableRecord
  2
HIDDEN
 70
     0
  3
__ __ __ __ __ __ __ __ __ __ __ __ __ __ __ __
 72
    65
 73
     2
 40
0.375
 49
0.25
 74
     0
 49
-0.125
 74
     0
  0
LTYPE
  5
781B
330
746A
100
AcDbSymbolTableRecord
100
AcDbLinetypeTableRecord
  2
PHANTOM
 70
     0
  3
______  __  __  ______  __  __  ______  __  __ 
 72
    65
 73
     6
 40
2.5
 49
1.25
 74
     0
 49
-0.25
 74
     0
 49
0.25
 74
     0
 49
-0.25
 74
     0
 49
0.25
 74
     0
 49
-0.25
 74
     0
  0
LTYPE
  5
12CC3
330
746A
100
AcDbSymbolTableRecord
100
AcDbLinetypeTableRecord
  2
HIDDENX2
 70
     0
  3
Hidden (2x) ____ ____ ____ ____ ____ ____ ____
 72
    65
 73
     2
 40
19.05
 49
12.7
 74
     0
 49
-6.349999999999999
 74
     0
  0
ENDTAB
  0
TABLE
  2
LAYER
  5
7467
102
{ACAD_XDICTIONARY
360
1758F
102
}
330
0
100
AcDbSymbolTable
 70
    12
  0
LAYER
  5
7474
330
7467
100
AcDbSymbolTableRecord
100
AcDbLayerTableRecord
  2
0
 70
     0
 62
     7
  6
CONTINUOUS
370
    -3
390
173D0
  0
LAYER
  5
DEB2
330
7467
100
AcDbSymbolTableRecord
100
AcDbLayerTableRecord
  2
センター
 70
     0
 62
     3
  6
CENTER
370
    -3
390
173D0
  0
LAYER
  5
DEB3
330
7467
100
AcDbSymbolTableRecord
100
AcDbLayerTableRecord
  2
寸法
 70
     0
 62
     4
  6
CONTINUOUS
370
    -3
390
173D0
  0
LAYER
  5
DEB4
330
7467
100
AcDbSymbolTableRecord
100
AcDbLayerTableRecord
  2
部品1
 70
     0
 62
     7
  6
CONTINUOUS
370
    -3
390
173D0
  0
LAYER
  5
DEB5
330
7467
100
AcDbSymbolTableRecord
100
AcDbLayerTableRecord
  2
補助
 70
     0
 62
    -1
  6
CONTINUOUS
370
    -3
390
173D0
  0
LAYER
  5
DEB6
330
7467
100
AcDbSymbolTableRecord
100
AcDbLayerTableRecord
  2
文字
 70
     0
 62
     7
  6
CONTINUOUS
370
    -3
390
173D0
  0
LAYER
  5
F255
330
7467
100
AcDbSymbolTableRecord
100
AcDbLayerTableRecord
  2
DEFPOINTS
 70
     0
 62
     7
  6
CONTINUOUS
290
     0
370
    -3
390
173D0
  0
LAYER
  5
10B54
330
7467
100
AcDbSymbolTableRecord
100
AcDbLayerTableRecord
  2
仕様書枠
 70
     0
 62
   230
  6
CONTINUOUS
370
    -3
390
173D0
  0
LAYER
  5
11729
330
7467
100
AcDbSymbolTableRecord
100
AcDbLayerTableRecord
  2
Ｇ．Ｌ
 70
     0
 62
    30
  6
CONTINUOUS
370
    -3
390
173D0
  0
LAYER
  5
1173F
330
7467
100
AcDbSymbolTableRecord
100
AcDbLayerTableRecord
  2
細線
 70
     0
 62
     5
  6
CONTINUOUS
370
    -3
390
173D0
  0
LAYER
  5
12CC4
330
7467
100
AcDbSymbolTableRecord
100
AcDbLayerTableRecord
  2
想像線
 70
     0
 62
     6
  6
PHANTOM
370
    -3
390
173D0
  0
LAYER
  5
142E2
330
7467
100
AcDbSymbolTableRecord
100
AcDbLayerTableRecord
  2
破線
 70
     0
 62
     2
  6
HIDDEN
370
    -3
390
173D0
  0
ENDTAB
  0
TABLE
  2
STYLE
  5
7468
330
0
100
AcDbSymbolTable
 70
     7
  0
STYLE
  5
7475
330
7468
100
AcDbSymbolTableRecord
100
AcDbTextStyleTableRecord
  2
STANDARD
 70
     0
 40
0.0
 41
1.0
 50
0.0
 71
     0
 42
4.0
  3
txt
  4
C:\AutoCAD LT\bigfont.shx
  0
STYLE
  5
763C
330
7468
100
AcDbSymbolTableRecord
100
AcDbTextStyleTableRecord
  2
MSMINCHO
 70
     0
 40
0.0
 41
1.0
 50
0.0
 71
     0
 42
1.199999999999999
  3
C:\AutoCAD LT\msminch2.TTF
  4

  0
STYLE
  5
F706
330
7468
100
AcDbSymbolTableRecord
100
AcDbTextStyleTableRecord
  2
STYLE1
 70
     0
 40
0.0
 41
1.0
 50
0.0
 71
     0
 42
4.0
  3
isocp.shx
  4
bigfont.shx
  0
STYLE
  5
103BF
330
7468
100
AcDbSymbolTableRecord
100
AcDbTextStyleTableRecord
  2
STYLE2
 70
     0
 40
0.0
 41
1.0
 50
0.0
 71
     0
 42
100.0
  3
MS PGothic.ttf
  4

1001
ACAD
1000
MS PGothic
1071
    32818
  0
STYLE
  5
10BAA
330
7468
100
AcDbSymbolTableRecord
100
AcDbTextStyleTableRecord
  2
STYLE3
 70
     0
 40
0.0
 41
1.0
 50
0.0
 71
     0
 42
100.0
  3

  4

1001
ACAD
1000
DFPGothic-EB
1071
    32818
  0
STYLE
  5
11A15
330
7468
100
AcDbSymbolTableRecord
100
AcDbTextStyleTableRecord
  2
MSGOTHIC
 70
     0
 40
0.0
 41
1.0
 50
0.0
 71
     0
 42
3.5
  3
msgothi2.ttf
  4

  0
STYLE
  5
13E96
330
7468
100
AcDbSymbolTableRecord
100
AcDbTextStyleTableRecord
  2
MSPゴシック
 70
     0
 40
0.0
 41
1.0
 50
0.0
 71
     0
 42
4.0
  3
MS PGothic.ttf
  4

1001
ACAD
1000
MS PGothic
1071
    32818
  0
ENDTAB
  0
TABLE
  2
VIEW
  5
746B
330
0
100
AcDbSymbolTable
 70
     0
  0
ENDTAB
  0
TABLE
  2
UCS
  5
746C
330
0
100
AcDbSymbolTable
 70
     0
  0
ENDTAB
  0
TABLE
  2
APPID
  5
746E
330
0
100
AcDbSymbolTable
 70
     6
  0
APPID
  5
7476
330
746E
100
AcDbSymbolTableRecord
100
AcDbRegAppTableRecord
  2
ACAD
 70
     0
  0
APPID
  5
DEA9
330
746E
100
AcDbSymbolTableRecord
100
AcDbRegAppTableRecord
  2
CONTENTBLOCKICON
 70
     0
  0
APPID
  5
DEAA
330
746E
100
AcDbSymbolTableRecord
100
AcDbRegAppTableRecord
  2
CONTENTBLOCKDESCRIPTION
 70
     0
  0
APPID
  5
E71D
330
746E
100
AcDbSymbolTableRecord
100
AcDbRegAppTableRecord
  2
CONTENTTABDATA
 70
     0
  0
APPID
  5
E71E
330
746E
100
AcDbSymbolTableRecord
100
AcDbRegAppTableRecord
  2
CONTENTCURRENTTAB
 70
     0
  0
APPID
  5
F3BA
330
746E
100
AcDbSymbolTableRecord
100
AcDbRegAppTableRecord
  2
DRAWINGVARIABLESXDATA
 70
     0
  0
ENDTAB
  0
TABLE
  2
DIMSTYLE
  5
746F
330
0
100
AcDbSymbolTable
 70
     6
100
AcDbDimStyleTable
 71
     1
340
F71F
  0
DIMSTYLE
105
7484
330
746F
100
AcDbSymbolTableRecord
100
AcDbDimStyleTableRecord
  2
JIS
 70
     0
 41
2.5
 42
1.0
 43
7.0
 44
1.0
 73
     0
 74
     0
 77
     1
 78
     8
140
2.5
141
0.0
143
0.0394
147
0.0
172
     1
174
     1
175
     1
340
7475
  0
DIMSTYLE
105
F236
330
746F
100
AcDbSymbolTableRecord
100
AcDbDimStyleTableRecord
  2
INABA_S40
 70
     0
 40
40.0
 41
2.5
 42
0.5
 43
7.0
 44
1.5
 73
     0
 74
     0
 77
     3
 78
     8
140
3.0
141
0.0
143
0.0394
147
1.0
172
     1
173
     1
174
     1
175
     1
178
     7
289
     0
340
7475
341
DEAC
343
DEAC
344
DEAC
  0
DIMSTYLE
105
F71F
102
{ACAD_REACTORS
330
20DE1
330
20DFB
330
22741
330
2275B
330
23FDA
330
23FD9
330
24043
330
24E37
330
24E13
330
24DF8
330
24DF7
330
24DCB
330
24DC2
330
24DC1
330
24DBD
330
24DD1
330
24DC8
330
24DC6
330
24DD4
330
24DC5
330
24DCF
330
25723
330
25724
330
2572C
330
25733
330
25736
330
25796
102
}
330
746F
100
AcDbSymbolTableRecord
100
AcDbDimStyleTableRecord
  2
INABA_S40G
 70
     0
 40
40.0
 41
2.5
 42
0.5
 43
7.0
 44
1.5
 73
     0
 74
     0
 77
     3
 78
     8
140
3.0
141
0.0
143
0.0394
147
1.0
172
     1
173
     1
174
     1
178
     7
271
     1
340
F706
341
F770
343
F770
344
F770
  0
DIMSTYLE
105
142E3
330
746F
100
AcDbSymbolTableRecord
100
AcDbDimStyleTableRecord
  2
INABA_S1
 70
     0
 40
0.0
 41
2.5
 42
0.5
 43
7.0
 44
1.5
 73
     0
 74
     0
 77
     3
 78
     8
140
3.0
141
0.0
143
0.0394
146
0.5
147
0.5
172
     1
173
     1
176
   256
177
   256
178
     7
271
     2
272
     2
284
     8
288
     1
340
7475
341
DEAC
343
DEAC
344
DEAC
  0
DIMSTYLE
105
14463
330
746F
100
AcDbSymbolTableRecord
100
AcDbDimStyleTableRecord
  2
INABA_S30G
 70
     0
 40
30.0
 41
2.5
 42
0.5
 43
7.0
 44
1.5
 73
     0
 74
     0
 77
     3
 78
     8
140
3.0
141
0.0
143
0.0394
147
1.0
172
     1
173
     1
174
     1
175
     1
178
     7
271
     1
340
F706
341
F770
343
F770
344
F770
  0
DIMSTYLE
105
1758E
330
746F
100
AcDbSymbolTableRecord
100
AcDbDimStyleTableRecord
  2
INABA_S50G
 70
     0
 41
125.0
 42
25.0
 43
7.0
 44
75.0
 73
     0
 74
     0
 77
     3
 78
     8
140
150.0
141
0.0
143
0.0394
147
25.0
172
     1
173
     1
174
     1
175
     1
178
     7
271
     1
340
F706
341
F770
343
F770
344
F770
  0
ENDTAB
  0
TABLE
  2
BLOCK_RECORD
  5
7466
330
0
100
AcDbSymbolTable
 70
    46
  0
BLOCK_RECORD
  5
747D
330
7466
100
AcDbSymbolTableRecord
100
AcDbBlockTableRecord
  2
*MODEL_SPACE
340
173D5
  0
BLOCK_RECORD
  5
747A
330
7466
100
AcDbSymbolTableRecord
100
AcDbBlockTableRecord
  2
*PAPER_SPACE
340
173D6
  0
BLOCK_RECORD
  5
DEAC
330
7466
100
AcDbSymbolTableRecord
100
AcDbBlockTableRecord
  2
_OPEN
340
0
  0
BLOCK_RECORD
  5
F770
330
7466
100
AcDbSymbolTableRecord
100
AcDbBlockTableRecord
  2
_DOTSMALL
340
0
102
{BLKREFS
331
18C65
331
18C66
331
18C59
331
18C5A
331
18C4D
331
18C4E
331
18C41
331
18C42
331
18C35
331
18C36
331
18C29
331
18C2A
331
18C1D
331
18C1E
331
18C0F
331
18C10
331
18C03
331
18C04
331
18BF5
331
18BF6
331
18BE7
331
18BE8
331
18BD9
331
18BDA
331
18BCD
331
18BCE
331
2525B
331
2525C
331
2526E
331
2526F
331
25278
331
25279
331
2528A
331
2528B
331
25293
331
25294
331
252B8
331
252B9
331
252D3
331
252D4
331
25464
331
25465
331
25478
331
25479
331
2548D
331
2548E
331
25498
331
25499
331
254A3
331
254A4
331
254C8
331
254C9
331
254D1
331
254D2
331
254E5
331
254E6
331
254EE
331
254EF
331
254F7
331
254F8
331
25509
331
2550A
331
25512
331
25513
331
2554D
331
2554E
331
25591
331
25592
331
2589C
331
2589D
331
258A7
331
258A8
331
258B0
331
258B1
331
258B9
331
258BA
331
258C2
331
258C3
331
258CB
331
258CC
102
}
  0
BLOCK_RECORD
  5
164B4
330
7466
100
AcDbSymbolTableRecord
100
AcDbBlockTableRecord
  2
_DOT
340
0
102
{BLKREFS
331
18C73
331
18C74
102
}
  0
BLOCK_RECORD
  5
18BC8
330
7466
100
AcDbSymbolTableRecord
100
AcDbBlockTableRecord
  2
*D3
340
0
  0
BLOCK_RECORD
  5
18BD4
330
7466
100
AcDbSymbolTableRecord
100
AcDbBlockTableRecord
  2
*D4
340
0
  0
BLOCK_RECORD
  5
18BE0
330
7466
100
AcDbSymbolTableRecord
100
AcDbBlockTableRecord
  2
*D5
340
0
  0
BLOCK_RECORD
  5
18BEE
330
7466
100
AcDbSymbolTableRecord
100
AcDbBlockTableRecord
  2
*D6
340
0
  0
BLOCK_RECORD
  5
18BFC
330
7466
100
AcDbSymbolTableRecord
100
AcDbBlockTableRecord
  2
*D7
340
0
  0
BLOCK_RECORD
  5
18C0A
330
7466
100
AcDbSymbolTableRecord
100
AcDbBlockTableRecord
  2
*D8
340
0
  0
BLOCK_RECORD
  5
18C16
330
7466
100
AcDbSymbolTableRecord
100
AcDbBlockTableRecord
  2
*D9
340
0
  0
BLOCK_RECORD
  5
18C24
330
7466
100
AcDbSymbolTableRecord
100
AcDbBlockTableRecord
  2
*D10
340
0
  0
BLOCK_RECORD
  5
18C30
330
7466
100
AcDbSymbolTableRecord
100
AcDbBlockTableRecord
  2
*D11
340
0
  0
BLOCK_RECORD
  5
18C3C
330
7466
100
AcDbSymbolTableRecord
100
AcDbBlockTableRecord
  2
*D12
340
0
  0
BLOCK_RECORD
  5
18C48
330
7466
100
AcDbSymbolTableRecord
100
AcDbBlockTableRecord
  2
*D13
340
0
  0
BLOCK_RECORD
  5
18C54
330
7466
100
AcDbSymbolTableRecord
100
AcDbBlockTableRecord
  2
*D14
340
0
  0
BLOCK_RECORD
  5
18C60
330
7466
100
AcDbSymbolTableRecord
100
AcDbBlockTableRecord
  2
*D15
340
0
  0
BLOCK_RECORD
  5
18C6C
330
7466
100
AcDbSymbolTableRecord
100
AcDbBlockTableRecord
  2
*D16
340
0
  0
BLOCK_RECORD
  5
18C7A
330
7466
100
AcDbSymbolTableRecord
100
AcDbBlockTableRecord
  2
A$C3B1A506B
340
0
  0
BLOCK_RECORD
  5
1C4CA
330
7466
100
AcDbSymbolTableRecord
100
AcDbBlockTableRecord
  2
_NONE
340
0
  0
BLOCK_RECORD
  5
20DE2
330
7466
100
AcDbSymbolTableRecord
100
AcDbBlockTableRecord
  2
*D19
340
0
  0
BLOCK_RECORD
  5
20DFC
330
7466
100
AcDbSymbolTableRecord
100
AcDbBlockTableRecord
  2
*D20
340
0
  0
BLOCK_RECORD
  5
22742
330
7466
100
AcDbSymbolTableRecord
100
AcDbBlockTableRecord
  2
*D21
340
0
  0
BLOCK_RECORD
  5
2275C
330
7466
100
AcDbSymbolTableRecord
100
AcDbBlockTableRecord
  2
*D22
340
0
  0
BLOCK_RECORD
  5
240C4
330
7466
100
AcDbSymbolTableRecord
100
AcDbBlockTableRecord
  2
*D23
340
0
  0
BLOCK_RECORD
  5
240D1
330
7466
100
AcDbSymbolTableRecord
100
AcDbBlockTableRecord
  2
*D24
340
0
  0
BLOCK_RECORD
  5
240DE
330
7466
100
AcDbSymbolTableRecord
100
AcDbBlockTableRecord
  2
*D25
340
0
  0
BLOCK_RECORD
  5
24E55
330
7466
100
AcDbSymbolTableRecord
100
AcDbBlockTableRecord
  2
*D26
340
0
  0
BLOCK_RECORD
  5
24E62
330
7466
100
AcDbSymbolTableRecord
100
AcDbBlockTableRecord
  2
*D27
340
0
  0
BLOCK_RECORD
  5
24E79
330
7466
100
AcDbSymbolTableRecord
100
AcDbBlockTableRecord
  2
*D28
340
0
  0
BLOCK_RECORD
  5
24E9F
330
7466
100
AcDbSymbolTableRecord
100
AcDbBlockTableRecord
  2
*D29
340
0
  0
BLOCK_RECORD
  5
24EC6
330
7466
100
AcDbSymbolTableRecord
100
AcDbBlockTableRecord
  2
*D30
340
0
  0
BLOCK_RECORD
  5
24ED2
330
7466
100
AcDbSymbolTableRecord
100
AcDbBlockTableRecord
  2
*D31
340
0
  0
BLOCK_RECORD
  5
24EDD
330
7466
100
AcDbSymbolTableRecord
100
AcDbBlockTableRecord
  2
*D32
340
0
  0
BLOCK_RECORD
  5
24EE9
330
7466
100
AcDbSymbolTableRecord
100
AcDbBlockTableRecord
  2
*D33
340
0
  0
BLOCK_RECORD
  5
24EF5
330
7466
100
AcDbSymbolTableRecord
100
AcDbBlockTableRecord
  2
*D34
340
0
  0
BLOCK_RECORD
  5
24F01
330
7466
100
AcDbSymbolTableRecord
100
AcDbBlockTableRecord
  2
*D35
340
0
  0
BLOCK_RECORD
  5
24F0D
330
7466
100
AcDbSymbolTableRecord
100
AcDbBlockTableRecord
  2
*D36
340
0
  0
BLOCK_RECORD
  5
24F19
330
7466
100
AcDbSymbolTableRecord
100
AcDbBlockTableRecord
  2
*D37
340
0
  0
BLOCK_RECORD
  5
24F25
330
7466
100
AcDbSymbolTableRecord
100
AcDbBlockTableRecord
  2
*D38
340
0
  0
BLOCK_RECORD
  5
24F3E
330
7466
100
AcDbSymbolTableRecord
100
AcDbBlockTableRecord
  2
*D39
340
0
  0
BLOCK_RECORD
  5
2584F
330
7466
100
AcDbSymbolTableRecord
100
AcDbBlockTableRecord
  2
*D40
340
0
  0
BLOCK_RECORD
  5
2585B
330
7466
100
AcDbSymbolTableRecord
100
AcDbBlockTableRecord
  2
*D41
340
0
  0
BLOCK_RECORD
  5
25869
330
7466
100
AcDbSymbolTableRecord
100
AcDbBlockTableRecord
  2
*D42
340
0
  0
BLOCK_RECORD
  5
25875
330
7466
100
AcDbSymbolTableRecord
100
AcDbBlockTableRecord
  2
*D43
340
0
  0
BLOCK_RECORD
  5
25881
330
7466
100
AcDbSymbolTableRecord
100
AcDbBlockTableRecord
  2
*D44
340
0
  0
BLOCK_RECORD
  5
2588D
330
7466
100
AcDbSymbolTableRecord
100
AcDbBlockTableRecord
  2
*D45
340
0
  0
ENDTAB
  0
ENDSEC
  0
SECTION
  2
BLOCKS
  0
BLOCK
  5
7489
330
747D
100
AcDbEntity
  8
0
100
AcDbBlockBegin
  2
*MODEL_SPACE
 70
     0
 10
0.0
 20
0.0
 30
0.0
  3
*MODEL_SPACE
  1

  0
ENDBLK
  5
748A
330
747D
100
AcDbEntity
  8
0
100
AcDbBlockEnd
  0
BLOCK
  5
7487
330
747A
100
AcDbEntity
 67
     1
  8
0
100
AcDbBlockBegin
  2
*PAPER_SPACE
 70
     0
 10
0.0
 20
0.0
 30
0.0
  3
*PAPER_SPACE
  1

  0
ENDBLK
  5
7488
330
747A
100
AcDbEntity
 67
     1
  8
0
100
AcDbBlockEnd
  0
BLOCK
  5
DEAD
330
DEAC
100
AcDbEntity
  8
0
100
AcDbBlockBegin
  2
_OPEN
 70
     0
 10
0.0
 20
0.0
 30
0.0
  3
_OPEN
  1

  0
LINE
  5
DEAE
330
DEAC
100
AcDbEntity
  8
0
  6
ByBlock
 62
     0
100
AcDbLine
 10
-1.0
 20
0.1666666666666666
 30
0.0
 11
0.0
 21
0.0
 31
0.0
  0
LINE
  5
DEAF
330
DEAC
100
AcDbEntity
  8
0
  6
ByBlock
 62
     0
100
AcDbLine
 10
0.0
 20
0.0
 30
0.0
 11
-1.0
 21
-0.1666666666666666
 31
0.0
  0
LINE
  5
DEB0
330
DEAC
100
AcDbEntity
  8
0
  6
ByBlock
 62
     0
100
AcDbLine
 10
0.0
 20
0.0
 30
0.0
 11
-1.0
 21
0.0
 31
0.0
  0
ENDBLK
  5
DEB1
330
DEAC
100
AcDbEntity
  8
0
100
AcDbBlockEnd
  0
BLOCK
  5
F771
330
F770
100
AcDbEntity
  8
0
 48
50.0
100
AcDbBlockBegin
  2
_DOTSMALL
 70
     0
 10
0.0
 20
0.0
 30
0.0
  3
_DOTSMALL
  1

  0
LWPOLYLINE
  5
F772
330
F770
100
AcDbEntity
  8
0
  6
ByBlock
 62
     0
 48
50.0
100
AcDbPolyline
 90
        2
 70
     1
 43
0.5
 10
-0.0625
 20
0.0
 42
1.0
 10
0.0625
 20
0.0
 42
1.0
  0
ENDBLK
  5
F776
330
F770
100
AcDbEntity
  8
0
 48
50.0
100
AcDbBlockEnd
  0
BLOCK
  5
164BA
330
164B4
100
AcDbEntity
  8
0
 48
50.0
100
AcDbBlockBegin
  2
_DOT
 70
     0
 10
0.0
 20
0.0
 30
0.0
  3
_DOT
  1

  0
LWPOLYLINE
  5
164B5
330
164B4
100
AcDbEntity
  8
0
  6
ByBlock
 62
     0
 48
50.0
100
AcDbPolyline
 90
        2
 70
     1
 43
0.5
 10
-0.25
 20
0.0
 42
1.0
 10
0.25
 20
0.0
 42
1.0
  0
LINE
  5
164B9
330
164B4
100
AcDbEntity
  8
0
  6
ByBlock
 62
     0
 48
50.0
100
AcDbLine
 10
-0.5
 20
0.0
 30
0.0
 11
-1.0
 21
0.0
 31
0.0
  0
ENDBLK
  5
164BB
330
164B4
100
AcDbEntity
  8
0
 48
50.0
100
AcDbBlockEnd
  0
BLOCK
  5
18BC9
330
18BC8
100
AcDbEntity
  8
0
 48
50.0
100
AcDbBlockBegin
  2
*D3
 70
     1
 10
0.0
 20
0.0
 30
0.0
  3
*D3
  1

  0
LINE
  5
18BCA
330
18BC8
100
AcDbEntity
  8
寸法
 62
     0
 48
50.0
370
    -2
100
AcDbLine
 10
7649.896575106999
 20
9636.123139034717
 30
0.0
 11
8702.429862581047
 21
9636.123139034717
 31
0.0
  0
LINE
  5
18BCB
330
18BC8
100
AcDbEntity
  8
寸法
 62
     0
 48
50.0
370
    -2
100
AcDbLine
 10
7649.896575106973
 20
7846.123139034709
 30
0.0
 11
8702.429862581047
 21
7846.123139034709
 31
0.0
  0
LINE
  5
18BCC
330
18BC8
100
AcDbEntity
  8
寸法
 62
     0
 48
50.0
370
    -2
100
AcDbLine
 10
8642.429862581046
 20
9636.123139034717
 30
0.0
 11
8642.429862581046
 21
7846.123139034709
 31
0.0
  0
INSERT
  5
18BCD
330
18BC8
100
AcDbEntity
  8
寸法
 62
     0
 48
50.0
370
    -2
100
AcDbBlockReference
  2
_DOTSMALL
 10
8642.429862581046
 20
9636.123139034717
 30
0.0
 41
100.0
 42
100.0
 43
100.0
 50
90.0
  0
INSERT
  5
18BCE
330
18BC8
100
AcDbEntity
  8
寸法
 62
     0
 48
50.0
370
    -2
100
AcDbBlockReference
  2
_DOTSMALL
 10
8642.429862581046
 20
7846.123139034709
 30
0.0
 41
100.0
 42
100.0
 43
100.0
 50
270.0
  0
MTEXT
  5
18BCF
330
18BC8
100
AcDbEntity
  8
寸法
 62
     7
 48
50.0
100
AcDbMText
 10
8542.429862581045
 20
8741.123139034712
 30
0.0
 40
120.0
 41
0.0
 71
     5
 72
     1
  1
\A1;1790
  7
STYLE1
 11
0.0000000000000001
 21
1.0
 31
0.0
 73
     1
 44
1.0
1001
ACAD
1000
MTEXTBEGIN
1070
    73
1070
     1
1070
    44
1040
1.0
1070
    74
1070
     0
1000
MTEXTEND
  0
POINT
  5
18BD0
330
18BC8
100
AcDbEntity
  8
DEFPOINTS
 62
     0
 48
50.0
100
AcDbPoint
 10
7629.896575106998
 20
9636.123139034717
 30
0.0
  0
POINT
  5
18BD1
330
18BC8
100
AcDbEntity
  8
DEFPOINTS
 62
     0
 48
50.0
100
AcDbPoint
 10
7629.896575106974
 20
7846.123139034709
 30
0.0
  0
POINT
  5
18BD2
330
18BC8
100
AcDbEntity
  8
DEFPOINTS
 62
     0
 48
50.0
100
AcDbPoint
 10
8642.429862581046
 20
7846.123139034709
 30
0.0
  0
ENDBLK
  5
18BD3
330
18BC8
100
AcDbEntity
  8
0
 48
50.0
100
AcDbBlockEnd
  0
BLOCK
  5
18BD5
330
18BD4
100
AcDbEntity
  8
0
 48
50.0
100
AcDbBlockBegin
  2
*D4
 70
     1
 10
0.0
 20
0.0
 30
0.0
  3
*D4
  1

  0
LINE
  5
18BD6
330
18BD4
100
AcDbEntity
  8
寸法
 62
     0
 48
50.0
370
    -2
100
AcDbLine
 10
4214.896575106998
 20
9656.123139034622
 30
0.0
 11
4214.896575106998
 21
10211.93135865972
 31
0.0
  0
LINE
  5
18BD7
330
18BD4
100
AcDbEntity
  8
寸法
 62
     0
 48
50.0
370
    -2
100
AcDbLine
 10
7574.896575106999
 20
9656.123139034718
 30
0.0
 11
7574.896575106999
 21
10211.93135865972
 31
0.0
  0
LINE
  5
18BD8
330
18BD4
100
AcDbEntity
  8
寸法
 62
     0
 48
50.0
370
    -2
100
AcDbLine
 10
4214.896575106998
 20
10151.93135865972
 30
0.0
 11
7574.896575106999
 21
10151.93135865972
 31
0.0
  0
INSERT
  5
18BD9
330
18BD4
100
AcDbEntity
  8
寸法
 62
     0
 48
50.0
370
    -2
100
AcDbBlockReference
  2
_DOTSMALL
 10
4214.896575106998
 20
10151.93135865972
 30
0.0
 41
100.0
 42
100.0
 43
100.0
 50
180.0
  0
INSERT
  5
18BDA
330
18BD4
100
AcDbEntity
  8
寸法
 62
     0
 48
50.0
370
    -2
100
AcDbBlockReference
  2
_DOTSMALL
 10
7574.896575106999
 20
10151.93135865972
 30
0.0
 41
100.0
 42
100.0
 43
100.0
  0
MTEXT
  5
18BDB
330
18BD4
100
AcDbEntity
  8
寸法
 62
     7
 48
50.0
100
AcDbMText
 10
5894.896575106997
 20
10251.94316968334
 30
0.0
 40
120.0
 41
0.0
 71
     5
 72
     1
  1
\A1;8X420=3360
  7
STYLE1
 73
     1
 44
1.0
1001
ACAD
1000
MTEXTBEGIN
1070
    73
1070
     1
1070
    44
1040
1.0
1070
    74
1070
     0
1000
MTEXTEND
  0
POINT
  5
18BDC
330
18BD4
100
AcDbEntity
  8
DEFPOINTS
 62
     0
 48
50.0
100
AcDbPoint
 10
4214.896575106998
 20
9636.123139034623
 30
0.0
  0
POINT
  5
18BDD
330
18BD4
100
AcDbEntity
  8
DEFPOINTS
 62
     0
 48
50.0
100
AcDbPoint
 10
7574.896575106999
 20
9636.123139034717
 30
0.0
  0
POINT
  5
18BDE
330
18BD4
100
AcDbEntity
  8
DEFPOINTS
 62
     0
 48
50.0
100
AcDbPoint
 10
7574.896575106999
 20
10151.93135865972
 30
0.0
  0
ENDBLK
  5
18BDF
330
18BD4
100
AcDbEntity
  8
0
 48
50.0
100
AcDbBlockEnd
  0
BLOCK
  5
18BE1
330
18BE0
100
AcDbEntity
  8
0
 48
50.0
100
AcDbBlockBegin
  2
*D5
 70
     1
 10
0.0
 20
0.0
 30
0.0
  3
*D5
  1

  0
LINE
  5
18BE2
330
18BE0
100
AcDbEntity
  8
寸法
 62
     0
 48
50.0
370
    -2
100
AcDbLine
 10
7574.896575106999
 20
9656.123139034718
 30
0.0
 11
7574.896575106999
 21
10211.9313586597
 31
0.0
  0
LINE
  5
18BE3
330
18BE0
100
AcDbEntity
  8
寸法
 62
     0
 48
50.0
370
    -2
100
AcDbLine
 10
7629.896575106998
 20
9656.123139034718
 30
0.0
 11
7629.896575106998
 21
10211.9313586597
 31
0.0
  0
LINE
  5
18BE4
330
18BE0
100
AcDbEntity
  8
寸法
 62
     0
 48
50.0
370
    -2
100
AcDbLine
 10
7574.896575106999
 20
10151.9313586597
 30
0.0
 11
7474.896575106999
 21
10151.9313586597
 31
0.0
  0
LINE
  5
18BE5
330
18BE0
100
AcDbEntity
  8
寸法
 62
     0
 48
50.0
370
    -2
100
AcDbLine
 10
7629.896575106998
 20
10151.9313586597
 30
0.0
 11
8046.867137855477
 21
10151.9313586597
 31
0.0
  0
LINE
  5
18BE6
330
18BE0
100
AcDbEntity
  8
寸法
 62
     0
 48
50.0
370
    -2
100
AcDbLine
 10
7574.896575106999
 20
10151.9313586597
 30
0.0
 11
7629.896575106998
 21
10151.9313586597
 31
0.0
  0
INSERT
  5
18BE7
330
18BE0
100
AcDbEntity
  8
寸法
 62
     0
 48
50.0
370
    -2
100
AcDbBlockReference
  2
_DOTSMALL
 10
7574.896575106999
 20
10151.9313586597
 30
0.0
 41
100.0
 42
100.0
 43
100.0
  0
INSERT
  5
18BE8
330
18BE0
100
AcDbEntity
  8
寸法
 62
     0
 48
50.0
370
    -2
100
AcDbBlockReference
  2
_DOTSMALL
 10
7629.896575106998
 20
10151.9313586597
 30
0.0
 41
100.0
 42
100.0
 43
100.0
 50
180.0
  0
MTEXT
  5
18BE9
330
18BE0
100
AcDbEntity
  8
寸法
 62
     7
 48
50.0
100
AcDbMText
 10
7938.381856481237
 20
10251.9313586597
 30
0.0
 40
120.0
 41
0.0
 71
     5
 72
     1
  1
\A1;55
  7
STYLE1
 73
     1
 44
1.0
1001
ACAD
1000
MTEXTBEGIN
1070
    73
1070
     1
1070
    44
1040
1.0
1070
    74
1070
     0
1000
MTEXTEND
  0
POINT
  5
18BEA
330
18BE0
100
AcDbEntity
  8
DEFPOINTS
 62
     0
 48
50.0
100
AcDbPoint
 10
7574.896575106999
 20
9636.123139034717
 30
0.0
  0
POINT
  5
18BEB
330
18BE0
100
AcDbEntity
  8
DEFPOINTS
 62
     0
 48
50.0
100
AcDbPoint
 10
7629.896575106998
 20
9636.123139034717
 30
0.0
  0
POINT
  5
18BEC
330
18BE0
100
AcDbEntity
  8
DEFPOINTS
 62
     0
 48
50.0
100
AcDbPoint
 10
7629.896575106998
 20
10151.9313586597
 30
0.0
  0
ENDBLK
  5
18BED
330
18BE0
100
AcDbEntity
  8
0
 48
50.0
100
AcDbBlockEnd
  0
BLOCK
  5
18BEF
330
18BEE
100
AcDbEntity
  8
0
 48
50.0
100
AcDbBlockBegin
  2
*D6
 70
     1
 10
0.0
 20
0.0
 30
0.0
  3
*D6
  1

  0
LINE
  5
18BF0
330
18BEE
100
AcDbEntity
  8
寸法
 62
     0
 48
50.0
370
    -2
100
AcDbLine
 10
7649.896575106999
 20
9636.123139034717
 30
0.0
 11
8337.32292084141
 21
9636.123139034717
 31
0.0
  0
LINE
  5
18BF1
330
18BEE
100
AcDbEntity
  8
寸法
 62
     0
 48
50.0
370
    -2
100
AcDbLine
 10
7649.896575106999
 20
9581.123139034721
 30
0.0
 11
8337.32292084141
 21
9581.123139034721
 31
0.0
  0
LINE
  5
18BF2
330
18BEE
100
AcDbEntity
  8
寸法
 62
     0
 48
50.0
370
    -2
100
AcDbLine
 10
8277.322920841411
 20
9581.123139034721
 30
0.0
 11
8277.322920841411
 21
9481.123139034719
 31
0.0
  0
LINE
  5
18BF3
330
18BEE
100
AcDbEntity
  8
寸法
 62
     0
 48
50.0
370
    -2
100
AcDbLine
 10
8277.322920841411
 20
9636.123139034717
 30
0.0
 11
8277.322920841411
 21
10053.09370178319
 31
0.0
  0
LINE
  5
18BF4
330
18BEE
100
AcDbEntity
  8
寸法
 62
     0
 48
50.0
370
    -2
100
AcDbLine
 10
8277.322920841411
 20
9581.123139034721
 30
0.0
 11
8277.322920841411
 21
9636.123139034717
 31
0.0
  0
INSERT
  5
18BF5
330
18BEE
100
AcDbEntity
  8
寸法
 62
     0
 48
50.0
370
    -2
100
AcDbBlockReference
  2
_DOTSMALL
 10
8277.322920841411
 20
9581.123139034721
 30
0.0
 41
100.0
 42
100.0
 43
100.0
 50
90.0
  0
INSERT
  5
18BF6
330
18BEE
100
AcDbEntity
  8
寸法
 62
     0
 48
50.0
370
    -2
100
AcDbBlockReference
  2
_DOTSMALL
 10
8277.322920841411
 20
9636.123139034717
 30
0.0
 41
100.0
 42
100.0
 43
100.0
 50
270.0
  0
MTEXT
  5
18BF7
330
18BEE
100
AcDbEntity
  8
寸法
 62
     7
 48
50.0
100
AcDbMText
 10
8177.32292084141
 20
9944.608420408957
 30
0.0
 40
120.0
 41
0.0
 71
     5
 72
     1
  1
\A1;55
  7
STYLE1
 11
0.0000000000000001
 21
1.0
 31
0.0
 73
     1
 44
1.0
1001
ACAD
1000
MTEXTBEGIN
1070
    73
1070
     1
1070
    44
1040
1.0
1070
    74
1070
     0
1000
MTEXTEND
  0
POINT
  5
18BF8
330
18BEE
100
AcDbEntity
  8
DEFPOINTS
 62
     0
 48
50.0
100
AcDbPoint
 10
7629.896575106998
 20
9636.123139034717
 30
0.0
  0
POINT
  5
18BF9
330
18BEE
100
AcDbEntity
  8
DEFPOINTS
 62
     0
 48
50.0
100
AcDbPoint
 10
7629.896575106998
 20
9581.123139034721
 30
0.0
  0
POINT
  5
18BFA
330
18BEE
100
AcDbEntity
  8
DEFPOINTS
 62
     0
 48
50.0
100
AcDbPoint
 10
8277.322920841411
 20
9581.123139034721
 30
0.0
  0
ENDBLK
  5
18BFB
330
18BEE
100
AcDbEntity
  8
0
 48
50.0
100
AcDbBlockEnd
  0
BLOCK
  5
18BFD
330
18BFC
100
AcDbEntity
  8
0
 48
50.0
100
AcDbBlockBegin
  2
*D7
 70
     1
 10
0.0
 20
0.0
 30
0.0
  3
*D7
  1

  0
LINE
  5
18BFE
330
18BFC
100
AcDbEntity
  8
寸法
 62
     0
 48
50.0
370
    -2
100
AcDbLine
 10
4159.896575106963
 20
9656.123139034622
 30
0.0
 11
4159.896575106963
 21
10211.9313586596
 31
0.0
  0
LINE
  5
18BFF
330
18BFC
100
AcDbEntity
  8
寸法
 62
     0
 48
50.0
370
    -2
100
AcDbLine
 10
4214.896575106998
 20
9656.123139034622
 30
0.0
 11
4214.896575106998
 21
10211.9313586596
 31
0.0
  0
LINE
  5
18C00
330
18BFC
100
AcDbEntity
  8
寸法
 62
     0
 48
50.0
370
    -2
100
AcDbLine
 10
4214.896575106998
 20
10151.9313586596
 30
0.0
 11
4314.896575106998
 21
10151.9313586596
 31
0.0
  0
LINE
  5
18C01
330
18BFC
100
AcDbEntity
  8
寸法
 62
     0
 48
50.0
370
    -2
100
AcDbLine
 10
4159.896575106963
 20
10151.9313586596
 30
0.0
 11
3742.926012358486
 21
10151.9313586596
 31
0.0
  0
LINE
  5
18C02
330
18BFC
100
AcDbEntity
  8
寸法
 62
     0
 48
50.0
370
    -2
100
AcDbLine
 10
4214.896575106998
 20
10151.9313586596
 30
0.0
 11
4159.896575106963
 21
10151.9313586596
 31
0.0
  0
INSERT
  5
18C03
330
18BFC
100
AcDbEntity
  8
寸法
 62
     0
 48
50.0
370
    -2
100
AcDbBlockReference
  2
_DOTSMALL
 10
4214.896575106998
 20
10151.9313586596
 30
0.0
 41
100.0
 42
100.0
 43
100.0
 50
180.0
  0
INSERT
  5
18C04
330
18BFC
100
AcDbEntity
  8
寸法
 62
     0
 48
50.0
370
    -2
100
AcDbBlockReference
  2
_DOTSMALL
 10
4159.896575106963
 20
10151.9313586596
 30
0.0
 41
100.0
 42
100.0
 43
100.0
  0
MTEXT
  5
18C05
330
18BFC
100
AcDbEntity
  8
寸法
 62
     7
 48
50.0
100
AcDbMText
 10
3851.411293732725
 20
10251.9313586596
 30
0.0
 40
120.0
 41
0.0
 71
     5
 72
     1
  1
\A1;55
  7
STYLE1
 73
     1
 44
1.0
1001
ACAD
1000
MTEXTBEGIN
1070
    73
1070
     1
1070
    44
1040
1.0
1070
    74
1070
     0
1000
MTEXTEND
  0
POINT
  5
18C06
330
18BFC
100
AcDbEntity
  8
DEFPOINTS
 62
     0
 48
50.0
100
AcDbPoint
 10
4159.896575106963
 20
9636.123139034623
 30
0.0
  0
POINT
  5
18C07
330
18BFC
100
AcDbEntity
  8
DEFPOINTS
 62
     0
 48
50.0
100
AcDbPoint
 10
4214.896575106998
 20
9636.123139034623
 30
0.0
  0
POINT
  5
18C08
330
18BFC
100
AcDbEntity
  8
DEFPOINTS
 62
     0
 48
50.0
100
AcDbPoint
 10
4214.896575106998
 20
10151.9313586596
 30
0.0
  0
ENDBLK
  5
18C09
330
18BFC
100
AcDbEntity
  8
0
 48
50.0
100
AcDbBlockEnd
  0
BLOCK
  5
18C0B
330
18C0A
100
AcDbEntity
  8
0
 48
50.0
100
AcDbBlockBegin
  2
*D8
 70
     1
 10
0.0
 20
0.0
 30
0.0
  3
*D8
  1

  0
LINE
  5
18C0C
330
18C0A
100
AcDbEntity
  8
寸法
 62
     0
 48
50.0
370
    -2
100
AcDbLine
 10
4159.896575106992
 20
7826.123139034546
 30
0.0
 11
4159.896575106992
 21
6804.372203245664
 31
0.0
  0
LINE
  5
18C0D
330
18C0A
100
AcDbEntity
  8
寸法
 62
     0
 48
50.0
370
    -2
100
AcDbLine
 10
7629.896575106974
 20
7826.123139034674
 30
0.0
 11
7629.896575106974
 21
6804.372203245664
 31
0.0
  0
LINE
  5
18C0E
330
18C0A
100
AcDbEntity
  8
寸法
 62
     0
 48
50.0
370
    -2
100
AcDbLine
 10
4159.896575106992
 20
6864.372203245665
 30
0.0
 11
7629.896575106974
 21
6864.372203245665
 31
0.0
  0
INSERT
  5
18C0F
330
18C0A
100
AcDbEntity
  8
寸法
 62
     0
 48
50.0
370
    -2
100
AcDbBlockReference
  2
_DOTSMALL
 10
4159.896575106992
 20
6864.372203245665
 30
0.0
 41
100.0
 42
100.0
 43
100.0
 50
180.0
  0
INSERT
  5
18C10
330
18C0A
100
AcDbEntity
  8
寸法
 62
     0
 48
50.0
370
    -2
100
AcDbBlockReference
  2
_DOTSMALL
 10
7629.896575106974
 20
6864.372203245665
 30
0.0
 41
100.0
 42
100.0
 43
100.0
  0
MTEXT
  5
18C11
330
18C0A
100
AcDbEntity
  8
寸法
 62
     7
 48
50.0
100
AcDbMText
 10
5911.12376113973
 20
6964.372203245665
 30
0.0
 40
120.0
 41
0.0
 71
     5
 72
     1
  1
\A1;3470
  7
STYLE1
 73
     1
 44
1.0
1001
ACAD
1000
MTEXTBEGIN
1070
    73
1070
     1
1070
    44
1040
1.0
1070
    74
1070
     0
1000
MTEXTEND
  0
POINT
  5
18C12
330
18C0A
100
AcDbEntity
  8
DEFPOINTS
 62
     0
 48
50.0
100
AcDbPoint
 10
4159.896575106992
 20
7846.123139034546
 30
0.0
  0
POINT
  5
18C13
330
18C0A
100
AcDbEntity
  8
DEFPOINTS
 62
     0
 48
50.0
100
AcDbPoint
 10
7629.896575106974
 20
7846.123139034673
 30
0.0
  0
POINT
  5
18C14
330
18C0A
100
AcDbEntity
  8
DEFPOINTS
 62
     0
 48
50.0
100
AcDbPoint
 10
7629.896575106974
 20
6864.372203245665
 30
0.0
  0
ENDBLK
  5
18C15
330
18C0A
100
AcDbEntity
  8
0
 48
50.0
100
AcDbBlockEnd
  0
BLOCK
  5
18C17
330
18C16
100
AcDbEntity
  8
0
 48
50.0
100
AcDbBlockBegin
  2
*D9
 70
     1
 10
0.0
 20
0.0
 30
0.0
  3
*D9
  1

  0
LINE
  5
18C18
330
18C16
100
AcDbEntity
  8
寸法
 62
     0
 48
50.0
370
    -2
100
AcDbLine
 10
7649.896575106973
 20
7901.123139034706
 30
0.0
 11
8337.322920841385
 21
7901.123139034706
 31
0.0
  0
LINE
  5
18C19
330
18C16
100
AcDbEntity
  8
寸法
 62
     0
 48
50.0
370
    -2
100
AcDbLine
 10
7649.896575106973
 20
7846.123139034709
 30
0.0
 11
8337.322920841385
 21
7846.123139034709
 31
0.0
  0
LINE
  5
18C1A
330
18C16
100
AcDbEntity
  8
寸法
 62
     0
 48
50.0
370
    -2
100
AcDbLine
 10
8277.322920841385
 20
7901.123139034706
 30
0.0
 11
8277.322920841385
 21
8001.123139034707
 31
0.0
  0
LINE
  5
18C1B
330
18C16
100
AcDbEntity
  8
寸法
 62
     0
 48
50.0
370
    -2
100
AcDbLine
 10
8277.322920841385
 20
7846.123139034709
 30
0.0
 11
8277.322920841385
 21
7429.152576286229
 31
0.0
  0
LINE
  5
18C1C
330
18C16
100
AcDbEntity
  8
寸法
 62
     0
 48
50.0
370
    -2
100
AcDbLine
 10
8277.322920841385
 20
7901.123139034706
 30
0.0
 11
8277.322920841385
 21
7846.123139034709
 31
0.0
  0
INSERT
  5
18C1D
330
18C16
100
AcDbEntity
  8
寸法
 62
     0
 48
50.0
370
    -2
100
AcDbBlockReference
  2
_DOTSMALL
 10
8277.322920841385
 20
7901.123139034706
 30
0.0
 41
100.0
 42
100.0
 43
100.0
 50
270.0
  0
INSERT
  5
18C1E
330
18C16
100
AcDbEntity
  8
寸法
 62
     0
 48
50.0
370
    -2
100
AcDbBlockReference
  2
_DOTSMALL
 10
8277.322920841385
 20
7846.123139034709
 30
0.0
 41
100.0
 42
100.0
 43
100.0
 50
90.0
  0
MTEXT
  5
18C1F
330
18C16
100
AcDbEntity
  8
寸法
 62
     7
 48
50.0
100
AcDbMText
 10
8177.322920841383
 20
7537.637857660469
 30
0.0
 40
120.0
 41
0.0
 71
     5
 72
     1
  1
\A1;55
  7
STYLE1
 11
0.0000000000000001
 21
1.0
 31
0.0
 73
     1
 44
1.0
1001
ACAD
1000
MTEXTBEGIN
1070
    73
1070
     1
1070
    44
1040
1.0
1070
    74
1070
     0
1000
MTEXTEND
  0
POINT
  5
18C20
330
18C16
100
AcDbEntity
  8
DEFPOINTS
 62
     0
 48
50.0
100
AcDbPoint
 10
7629.896575106974
 20
7901.123139034706
 30
0.0
  0
POINT
  5
18C21
330
18C16
100
AcDbEntity
  8
DEFPOINTS
 62
     0
 48
50.0
100
AcDbPoint
 10
7629.896575106974
 20
7846.123139034709
 30
0.0
  0
POINT
  5
18C22
330
18C16
100
AcDbEntity
  8
DEFPOINTS
 62
     0
 48
50.0
100
AcDbPoint
 10
8277.322920841385
 20
7846.123139034709
 30
0.0
  0
ENDBLK
  5
18C23
330
18C16
100
AcDbEntity
  8
0
 48
50.0
100
AcDbBlockEnd
  0
BLOCK
  5
18C25
330
18C24
100
AcDbEntity
  8
0
 48
50.0
100
AcDbBlockBegin
  2
*D10
 70
     1
 10
0.0
 20
0.0
 30
0.0
  3
*D10
  1

  0
LINE
  5
18C26
330
18C24
100
AcDbEntity
  8
寸法
 62
     0
 48
50.0
370
    -2
100
AcDbLine
 10
6533.037591258376
 20
9136.123139034728
 30
0.0
 11
6465.083950562664
 21
8882.516699399049
 31
0.0
  0
LINE
  5
18C27
330
18C24
100
AcDbEntity
  8
寸法
 62
     0
 48
50.0
370
    -2
100
AcDbLine
 10
7596.037591258388
 20
9136.123139034721
 30
0.0
 11
7528.083950562677
 21
8882.516699399049
 31
0.0
  0
LINE
  5
18C28
330
18C24
100
AcDbEntity
  8
寸法
 62
     0
 48
50.0
370
    -2
100
AcDbLine
 10
6481.160902108531
 20
8942.51669939905
 30
0.0
 11
7544.160902108544
 21
8942.51669939905
 31
0.0
  0
INSERT
  5
18C29
330
18C24
100
AcDbEntity
  8
寸法
 62
     0
 48
50.0
370
    -2
100
AcDbBlockReference
  2
_DOTSMALL
 10
6481.160902108531
 20
8942.51669939905
 30
0.0
 41
100.0
 42
100.0
 43
100.0
 50
180.0
  0
INSERT
  5
18C2A
330
18C24
100
AcDbEntity
  8
寸法
 62
     0
 48
50.0
370
    -2
100
AcDbBlockReference
  2
_DOTSMALL
 10
7544.160902108544
 20
8942.51669939905
 30
0.0
 41
100.0
 42
100.0
 43
100.0
  0
MTEXT
  5
18C2B
330
18C24
100
AcDbEntity
  8
寸法
 62
     7
 48
50.0
100
AcDbMText
 10
7061.28653022935
 20
9042.516699399049
 30
0.0
 40
120.0
 41
0.0
 71
     5
 72
     1
  1
\A1;1063
  7
STYLE1
 73
     1
 44
1.0
1001
ACAD
1000
MTEXTBEGIN
1070
    73
1070
     1
1070
    44
1040
1.0
1070
    74
1070
     0
1000
MTEXTEND
  0
POINT
  5
18C2C
330
18C24
100
AcDbEntity
  8
DEFPOINTS
 62
     0
 48
50.0
100
AcDbPoint
 10
6538.396575106998
 20
9156.123139034727
 30
0.0
  0
POINT
  5
18C2D
330
18C24
100
AcDbEntity
  8
DEFPOINTS
 62
     0
 48
50.0
100
AcDbPoint
 10
7601.39657510701
 20
9156.12313903472
 30
0.0
  0
POINT
  5
18C2E
330
18C24
100
AcDbEntity
  8
DEFPOINTS
 62
     0
 48
50.0
100
AcDbPoint
 10
7544.160902108544
 20
8942.51669939905
 30
0.0
  0
ENDBLK
  5
18C2F
330
18C24
100
AcDbEntity
  8
0
 48
50.0
100
AcDbBlockEnd
  0
BLOCK
  5
18C31
330
18C30
100
AcDbEntity
  8
0
 48
50.0
100
AcDbBlockBegin
  2
*D11
 70
     1
 10
0.0
 20
0.0
 30
0.0
  3
*D11
  1

  0
LINE
  5
18C32
330
18C30
100
AcDbEntity
  8
寸法
 62
     0
 48
50.0
370
    -2
100
AcDbLine
 10
7621.396575106999
 20
9600.764155186094
 30
0.0
 11
8016.754300969024
 21
9494.828371819961
 31
0.0
  0
LINE
  5
18C33
330
18C30
100
AcDbEntity
  8
寸法
 62
     0
 48
50.0
370
    -2
100
AcDbLine
 10
7621.396575106999
 20
9150.764155186099
 30
0.0
 11
8016.754300969024
 21
9044.828371819964
 31
0.0
  0
LINE
  5
18C34
330
18C30
100
AcDbEntity
  8
寸法
 62
     0
 48
50.0
370
    -2
100
AcDbLine
 10
7956.754300969024
 20
9510.905323365827
 30
0.0
 11
7956.754300969024
 21
9060.90532336583
 31
0.0
  0
INSERT
  5
18C35
330
18C30
100
AcDbEntity
  8
寸法
 62
     0
 48
50.0
370
    -2
100
AcDbBlockReference
  2
_DOTSMALL
 10
7956.754300969024
 20
9510.905323365827
 30
0.0
 41
100.0
 42
100.0
 43
100.0
 50
90.0
  0
INSERT
  5
18C36
330
18C30
100
AcDbEntity
  8
寸法
 62
     0
 48
50.0
370
    -2
100
AcDbBlockReference
  2
_DOTSMALL
 10
7956.754300969024
 20
9060.90532336583
 30
0.0
 41
100.0
 42
100.0
 43
100.0
 50
270.0
  0
MTEXT
  5
18C37
330
18C30
100
AcDbEntity
  8
寸法
 62
     7
 48
50.0
100
AcDbMText
 10
7856.754300969022
 20
9285.905323365829
 30
0.0
 40
120.0
 41
0.0
 71
     5
 72
     1
  1
\A1;450
  7
STYLE1
 11
0.0000000000000001
 21
1.0
 31
0.0
 73
     1
 44
1.0
1001
ACAD
1000
MTEXTBEGIN
1070
    73
1070
     1
1070
    44
1040
1.0
1070
    74
1070
     0
1000
MTEXTEND
  0
POINT
  5
18C38
330
18C30
100
AcDbEntity
  8
DEFPOINTS
 62
     0
 48
50.0
100
AcDbPoint
 10
7601.396575106999
 20
9606.123139034718
 30
0.0
  0
POINT
  5
18C39
330
18C30
100
AcDbEntity
  8
DEFPOINTS
 62
     0
 48
50.0
100
AcDbPoint
 10
7601.396575106999
 20
9156.12313903472
 30
0.0
  0
POINT
  5
18C3A
330
18C30
100
AcDbEntity
  8
DEFPOINTS
 62
     0
 48
50.0
100
AcDbPoint
 10
7956.754300969024
 20
9060.90532336583
 30
0.0
  0
ENDBLK
  5
18C3B
330
18C30
100
AcDbEntity
  8
0
 48
50.0
100
AcDbBlockEnd
  0
BLOCK
  5
18C3D
330
18C3C
100
AcDbEntity
  8
0
 48
50.0
100
AcDbBlockBegin
  2
*D12
 70
     1
 10
0.0
 20
0.0
 30
0.0
  3
*D12
  1

  0
LINE
  5
18C3E
330
18C3C
100
AcDbEntity
  8
寸法
 62
     0
 48
50.0
370
    -2
100
AcDbLine
 10
7649.896575106999
 20
9581.123139034721
 30
0.0
 11
8337.32292084141
 21
9581.123139034721
 31
0.0
  0
LINE
  5
18C3F
330
18C3C
100
AcDbEntity
  8
寸法
 62
     0
 48
50.0
370
    -2
100
AcDbLine
 10
7649.896575106973
 20
7901.123139034706
 30
0.0
 11
8337.32292084141
 21
7901.123139034706
 31
0.0
  0
LINE
  5
18C40
330
18C3C
100
AcDbEntity
  8
寸法
 62
     0
 48
50.0
370
    -2
100
AcDbLine
 10
8277.322920841411
 20
9581.123139034721
 30
0.0
 11
8277.322920841411
 21
7901.123139034706
 31
0.0
  0
INSERT
  5
18C41
330
18C3C
100
AcDbEntity
  8
寸法
 62
     0
 48
50.0
370
    -2
100
AcDbBlockReference
  2
_DOTSMALL
 10
8277.322920841411
 20
9581.123139034721
 30
0.0
 41
100.0
 42
100.0
 43
100.0
 50
90.0
  0
INSERT
  5
18C42
330
18C3C
100
AcDbEntity
  8
寸法
 62
     0
 48
50.0
370
    -2
100
AcDbBlockReference
  2
_DOTSMALL
 10
8277.322920841411
 20
7901.123139034706
 30
0.0
 41
100.0
 42
100.0
 43
100.0
 50
270.0
  0
MTEXT
  5
18C43
330
18C3C
100
AcDbEntity
  8
寸法
 62
     7
 48
50.0
100
AcDbMText
 10
8177.311109817788
 20
8741.123139034712
 30
0.0
 40
120.0
 41
0.0
 71
     5
 72
     1
  1
\A1;4X420=1680
  7
STYLE1
 11
0.0000000000000001
 21
1.0
 31
0.0
 73
     1
 44
1.0
1001
ACAD
1000
MTEXTBEGIN
1070
    73
1070
     1
1070
    44
1040
1.0
1070
    74
1070
     0
1000
MTEXTEND
  0
POINT
  5
18C44
330
18C3C
100
AcDbEntity
  8
DEFPOINTS
 62
     0
 48
50.0
100
AcDbPoint
 10
7629.896575106998
 20
9581.123139034721
 30
0.0
  0
POINT
  5
18C45
330
18C3C
100
AcDbEntity
  8
DEFPOINTS
 62
     0
 48
50.0
100
AcDbPoint
 10
7629.896575106974
 20
7901.123139034706
 30
0.0
  0
POINT
  5
18C46
330
18C3C
100
AcDbEntity
  8
DEFPOINTS
 62
     0
 48
50.0
100
AcDbPoint
 10
8277.322920841411
 20
7901.123139034706
 30
0.0
  0
ENDBLK
  5
18C47
330
18C3C
100
AcDbEntity
  8
0
 48
50.0
100
AcDbBlockEnd
  0
BLOCK
  5
18C49
330
18C48
100
AcDbEntity
  8
0
 48
50.0
100
AcDbBlockBegin
  2
*D13
 70
     1
 10
0.0
 20
0.0
 30
0.0
  3
*D13
  1

  0
LINE
  5
18C4A
330
18C48
100
AcDbEntity
  8
寸法
 62
     0
 48
50.0
370
    -2
100
AcDbLine
 10
4183.037591258377
 20
9136.123139034619
 30
0.0
 11
4115.083950562663
 21
8882.516699398941
 31
0.0
  0
LINE
  5
18C4B
330
18C48
100
AcDbEntity
  8
寸法
 62
     0
 48
50.0
370
    -2
100
AcDbLine
 10
5246.037591258307
 20
9136.123139034671
 30
0.0
 11
5178.08395056258
 21
8882.516699398941
 31
0.0
  0
LINE
  5
18C4C
330
18C48
100
AcDbEntity
  8
寸法
 62
     0
 48
50.0
370
    -2
100
AcDbLine
 10
4131.160902108532
 20
8942.516699398941
 30
0.0
 11
5194.160902108448
 21
8942.516699398941
 31
0.0
  0
INSERT
  5
18C4D
330
18C48
100
AcDbEntity
  8
寸法
 62
     0
 48
50.0
370
    -2
100
AcDbBlockReference
  2
_DOTSMALL
 10
4131.160902108532
 20
8942.516699398941
 30
0.0
 41
100.0
 42
100.0
 43
100.0
 50
180.0
  0
INSERT
  5
18C4E
330
18C48
100
AcDbEntity
  8
寸法
 62
     0
 48
50.0
370
    -2
100
AcDbBlockReference
  2
_DOTSMALL
 10
5194.160902108448
 20
8942.516699398941
 30
0.0
 41
100.0
 42
100.0
 43
100.0
  0
MTEXT
  5
18C4F
330
18C48
100
AcDbEntity
  8
寸法
 62
     7
 48
50.0
100
AcDbMText
 10
4658.986452655306
 20
9042.516699398941
 30
0.0
 40
120.0
 41
0.0
 71
     5
 72
     1
  1
\A1;1063
  7
STYLE1
 73
     1
 44
1.0
1001
ACAD
1000
MTEXTBEGIN
1070
    73
1070
     1
1070
    44
1040
1.0
1070
    74
1070
     0
1000
MTEXTEND
  0
POINT
  5
18C50
330
18C48
100
AcDbEntity
  8
DEFPOINTS
 62
     0
 48
50.0
100
AcDbPoint
 10
4188.396575106999
 20
9156.123139034617
 30
0.0
  0
POINT
  5
18C51
330
18C48
100
AcDbEntity
  8
DEFPOINTS
 62
     0
 48
50.0
100
AcDbPoint
 10
5251.396575106929
 20
9156.123139034672
 30
0.0
  0
POINT
  5
18C52
330
18C48
100
AcDbEntity
  8
DEFPOINTS
 62
     0
 48
50.0
100
AcDbPoint
 10
5194.160902108448
 20
8942.516699398941
 30
0.0
  0
ENDBLK
  5
18C53
330
18C48
100
AcDbEntity
  8
0
 48
50.0
100
AcDbBlockEnd
  0
BLOCK
  5
18C55
330
18C54
100
AcDbEntity
  8
0
 48
50.0
100
AcDbBlockBegin
  2
*D14
 70
     1
 10
0.0
 20
0.0
 30
0.0
  3
*D14
  1

  0
LINE
  5
18C56
330
18C54
100
AcDbEntity
  8
寸法
 62
     0
 48
50.0
370
    -2
100
AcDbLine
 10
5274.037591258307
 20
9136.123139034669
 30
0.0
 11
5206.08395056258
 21
8882.516699398941
 31
0.0
  0
LINE
  5
18C57
330
18C54
100
AcDbEntity
  8
寸法
 62
     0
 48
50.0
370
    -2
100
AcDbLine
 10
6505.037591258377
 20
9136.123139034662
 30
0.0
 11
6437.083950562653
 21
8882.516699398941
 31
0.0
  0
LINE
  5
18C58
330
18C54
100
AcDbEntity
  8
寸法
 62
     0
 48
50.0
370
    -2
100
AcDbLine
 10
5222.160902108448
 20
8942.516699398941
 30
0.0
 11
6453.16090210852
 21
8942.516699398941
 31
0.0
  0
INSERT
  5
18C59
330
18C54
100
AcDbEntity
  8
寸法
 62
     0
 48
50.0
370
    -2
100
AcDbBlockReference
  2
_DOTSMALL
 10
5222.160902108448
 20
8942.516699398941
 30
0.0
 41
100.0
 42
100.0
 43
100.0
 50
180.0
  0
INSERT
  5
18C5A
330
18C54
100
AcDbEntity
  8
寸法
 62
     0
 48
50.0
370
    -2
100
AcDbBlockReference
  2
_DOTSMALL
 10
6453.16090210852
 20
8942.516699398941
 30
0.0
 41
100.0
 42
100.0
 43
100.0
  0
MTEXT
  5
18C5B
330
18C54
100
AcDbEntity
  8
寸法
 62
     7
 48
50.0
100
AcDbMText
 10
6081.244808320626
 20
9042.528510422561
 30
0.0
 40
120.0
 41
0.0
 71
     5
 72
     1
  1
\A1;1231
  7
STYLE1
 73
     1
 44
1.0
1001
ACAD
1000
MTEXTBEGIN
1070
    73
1070
     1
1070
    44
1040
1.0
1070
    74
1070
     0
1000
MTEXTEND
  0
POINT
  5
18C5C
330
18C54
100
AcDbEntity
  8
DEFPOINTS
 62
     0
 48
50.0
100
AcDbPoint
 10
5279.396575106929
 20
9156.123139034669
 30
0.0
  0
POINT
  5
18C5D
330
18C54
100
AcDbEntity
  8
DEFPOINTS
 62
     0
 48
50.0
100
AcDbPoint
 10
6510.396575106999
 20
9156.123139034662
 30
0.0
  0
POINT
  5
18C5E
330
18C54
100
AcDbEntity
  8
DEFPOINTS
 62
     0
 48
50.0
100
AcDbPoint
 10
6453.16090210852
 20
8942.516699398941
 30
0.0
  0
ENDBLK
  5
18C5F
330
18C54
100
AcDbEntity
  8
0
 48
50.0
100
AcDbBlockEnd
  0
BLOCK
  5
18C61
330
18C60
100
AcDbEntity
  8
0
 48
50.0
100
AcDbBlockBegin
  2
*D15
 70
     1
 10
0.0
 20
0.0
 30
0.0
  3
*D15
  1

  0
LINE
  5
18C62
330
18C60
100
AcDbEntity
  8
寸法
 62
     0
 48
50.0
370
    -2
100
AcDbLine
 10
5065.896575106966
 20
7749.123139034579
 30
0.0
 11
5065.896575106966
 21
7099.952920982538
 31
0.0
  0
LINE
  5
18C63
330
18C60
100
AcDbEntity
  8
寸法
 62
     0
 48
50.0
370
    -2
100
AcDbLine
 10
6331.896575106966
 20
7749.123139034579
 30
0.0
 11
6331.896575106966
 21
7099.952920982538
 31
0.0
  0
LINE
  5
18C64
330
18C60
100
AcDbEntity
  8
寸法
 62
     0
 48
50.0
370
    -2
100
AcDbLine
 10
5065.896575106966
 20
7159.952920982537
 30
0.0
 11
6331.896575106966
 21
7159.952920982537
 31
0.0
  0
INSERT
  5
18C65
330
18C60
100
AcDbEntity
  8
寸法
 62
     0
 48
50.0
370
    -2
100
AcDbBlockReference
  2
_DOTSMALL
 10
5065.896575106966
 20
7159.952920982537
 30
0.0
 41
100.0
 42
100.0
 43
100.0
 50
180.0
  0
INSERT
  5
18C66
330
18C60
100
AcDbEntity
  8
寸法
 62
     0
 48
50.0
370
    -2
100
AcDbBlockReference
  2
_DOTSMALL
 10
6331.896575106966
 20
7159.952920982537
 30
0.0
 41
100.0
 42
100.0
 43
100.0
  0
MTEXT
  5
18C67
330
18C60
100
AcDbEntity
  8
寸法
 62
     7
 48
50.0
100
AcDbMText
 10
5711.986008735934
 20
7359.964732006159
 30
0.0
 40
120.0
 41
0.0
 71
     5
 72
     1
  1
\A1;有効開口部間口\P1266
  7
STYLE1
 73
     1
 44
1.0
1001
ACAD
1000
MTEXTBEGIN
1070
    73
1070
     1
1070
    44
1040
1.0
1070
    74
1070
     0
1000
MTEXTEND
  0
POINT
  5
18C68
330
18C60
100
AcDbEntity
  8
DEFPOINTS
 62
     0
 48
50.0
100
AcDbPoint
 10
5065.896575106966
 20
7769.123139034579
 30
0.0
  0
POINT
  5
18C69
330
18C60
100
AcDbEntity
  8
DEFPOINTS
 62
     0
 48
50.0
100
AcDbPoint
 10
6331.896575106966
 20
7769.123139034579
 30
0.0
  0
POINT
  5
18C6A
330
18C60
100
AcDbEntity
  8
DEFPOINTS
 62
     0
 48
50.0
100
AcDbPoint
 10
6331.896575106966
 20
7159.952920982537
 30
0.0
  0
ENDBLK
  5
18C6B
330
18C60
100
AcDbEntity
  8
0
 48
50.0
100
AcDbBlockEnd
  0
BLOCK
  5
18C6D
330
18C6C
100
AcDbEntity
  8
0
 48
50.0
100
AcDbBlockBegin
  2
*D16
 70
     1
 10
0.0
 20
0.0
 30
0.0
  3
*D16
  1

  0
LINE
  5
18C6E
330
18C6C
100
AcDbEntity
  8
寸法
 62
     0
 48
50.0
370
    -2
100
AcDbLine
 10
7200.896575106966
 20
7846.123139034578
 30
0.0
 11
7457.192158500191
 21
7846.123139034578
 31
0.0
  0
LINE
  5
18C6F
330
18C6C
100
AcDbEntity
  8
寸法
 62
     0
 48
50.0
370
    -2
100
AcDbLine
 10
7199.896575106966
 20
7769.123139034579
 30
0.0
 11
7457.192158500191
 21
7769.123139034579
 31
0.0
  0
LINE
  5
18C70
330
18C6C
100
AcDbEntity
  8
寸法
 62
     0
 48
50.0
370
    -2
100
AcDbLine
 10
7417.192158500192
 20
7866.123139034579
 30
0.0
 11
7417.192158500192
 21
7886.123139034578
 31
0.0
  0
LINE
  5
18C71
330
18C6C
100
AcDbEntity
  8
寸法
 62
     0
 48
50.0
370
    -2
100
AcDbLine
 10
7417.192158500192
 20
7749.123139034579
 30
0.0
 11
7417.192158500192
 21
7533.123139034573
 31
0.0
  0
LINE
  5
18C72
330
18C6C
100
AcDbEntity
  8
寸法
 62
     0
 48
50.0
370
    -2
100
AcDbLine
 10
7417.192158500192
 20
7846.123139034578
 30
0.0
 11
7417.192158500192
 21
7769.123139034579
 31
0.0
  0
INSERT
  5
18C73
330
18C6C
100
AcDbEntity
  8
寸法
 62
     0
 48
50.0
370
    -2
100
AcDbBlockReference
  2
_DOT
 10
7417.192158500192
 20
7846.123139034578
 30
0.0
 41
20.0
 42
20.0
 43
20.0
 50
270.0
  0
INSERT
  5
18C74
330
18C6C
100
AcDbEntity
  8
寸法
 62
     0
 48
50.0
370
    -2
100
AcDbBlockReference
  2
_DOT
 10
7417.192158500192
 20
7769.123139034579
 30
0.0
 41
20.0
 42
20.0
 43
20.0
 50
90.0
  0
MTEXT
  5
18C75
330
18C6C
100
AcDbEntity
  8
寸法
 62
     7
 48
50.0
100
AcDbMText
 10
7325.192158500191
 20
7631.123139034575
 30
0.0
 40
120.0
 41
0.0
 71
     5
 72
     1
  1
\A1;77
  7
STYLE1
 11
0.0000000000000001
 21
1.0
 31
0.0
 73
     1
 44
1.0
1001
ACAD
1000
MTEXTBEGIN
1070
    73
1070
     1
1070
    44
1040
1.0
1070
    74
1070
     0
1000
MTEXTEND
  0
POINT
  5
18C76
330
18C6C
100
AcDbEntity
  8
DEFPOINTS
 62
     0
 48
50.0
100
AcDbPoint
 10
7180.896575106967
 20
7846.123139034578
 30
0.0
  0
POINT
  5
18C77
330
18C6C
100
AcDbEntity
  8
DEFPOINTS
 62
     0
 48
50.0
100
AcDbPoint
 10
7179.896575106965
 20
7769.123139034579
 30
0.0
  0
POINT
  5
18C78
330
18C6C
100
AcDbEntity
  8
DEFPOINTS
 62
     0
 48
50.0
100
AcDbPoint
 10
7417.192158500192
 20
7769.123139034579
 30
0.0
  0
ENDBLK
  5
18C79
330
18C6C
100
AcDbEntity
  8
0
 48
50.0
100
AcDbBlockEnd
  0
BLOCK
  5
18DA0
330
18C7A
100
AcDbEntity
  8
0
 48
50.0
100
AcDbBlockBegin
  2
A$C3B1A506B
 70
     0
 10
0.0
 20
0.0
 30
0.0
  3
A$C3B1A506B
  1

  0
MTEXT
  5
18C7B
330
18C7A
100
AcDbEntity
  8
寸法
 62
     7
 48
50.0
100
AcDbMText
 10
3342.250386887194
 20
2778.329429134012
 30
0.0
 40
96.0
 41
0.0
 71
     5
 72
     1
  1
棚 2段
  7
STYLE1
 73
     1
 44
1.0
1001
ACAD
1000
MTEXTBEGIN
1070
    73
1070
     1
1070
    44
1040
1.0
1070
    74
1070
     0
1000
MTEXTEND
  0
MTEXT
  5
18C7C
330
18C7A
100
AcDbEntity
  8
寸法
 62
     7
 48
50.0
100
AcDbMText
 10
2167.25038688716
 20
2778.329429133986
 30
0.0
 40
96.0
 41
0.0
 71
     5
 72
     1
  1
棚 2段
  7
STYLE1
 73
     1
 44
1.0
1001
ACAD
1000
MTEXTBEGIN
1070
    73
1070
     1
1070
    44
1040
1.0
1070
    74
1070
     0
1000
MTEXTEND
  0
MTEXT
  5
18C7D
330
18C7A
100
AcDbEntity
  8
寸法
 62
     7
 48
50.0
100
AcDbMText
 10
992.2503868871608
 20
2778.329429133935
 30
0.0
 40
96.0
 41
0.0
 71
     5
 72
     1
  1
棚 2段
  7
STYLE1
 73
     1
 44
1.0
1001
ACAD
1000
MTEXTBEGIN
1070
    73
1070
     1
1070
    44
1040
1.0
1070
    74
1070
     0
1000
MTEXTEND
  0
LINE
  5
18C7E
330
18C7A
100
AcDbEntity
  8
細線
 48
50.0
100
AcDbLine
 10
2771.970589276527
 20
1368.994384123192
 30
0.0
 11
3398.970589276523
 21
1368.994384123192
 31
0.0
  0
LINE
  5
18C7F
330
18C7A
100
AcDbEntity
  8
細線
 48
50.0
100
AcDbLine
 10
2117.970593930113
 20
1335.285615569113
 30
0.0
 11
3398.970589276523
 21
1335.285615569113
 31
0.0
  0
LINE
  5
18C80
330
18C7A
100
AcDbEntity
  8
細線
 48
50.0
100
AcDbLine
 10
2076.970593930115
 20
1364.690523565368
 30
0.0
 11
1322.970589276523
 21
1364.690523565367
 31
0.0
  0
LINE
  5
18C81
330
18C7A
100
AcDbEntity
  8
細線
100
AcDbLine
 10
3170.720579860066
 20
1388.494284088199
 30
0.0
 11
3173.052119381877
 21
1393.494286728162
 31
0.0
  0
LINE
  5
18C82
330
18C7A
100
AcDbEntity
  8
細線
100
AcDbLine
 10
3240.720589276525
 20
1388.494269174465
 30
0.0
 11
3238.389042800336
 21
1393.494286728144
 31
0.0
  0
LINE
  5
18C83
330
18C7A
100
AcDbEntity
  8
細線
100
AcDbLine
 10
3238.389042800336
 20
1393.494286728144
 30
0.0
 11
3173.052119381862
 21
1393.494286728133
 31
0.0
  0
LINE
  5
18C84
330
18C7A
100
AcDbEntity
  8
細線
100
AcDbLine
 10
3098.389042800336
 20
1393.494286728144
 30
0.0
 11
3033.052119381862
 21
1393.494286728133
 31
0.0
  0
LINE
  5
18C85
330
18C7A
100
AcDbEntity
  8
細線
100
AcDbLine
 10
3100.720589276523
 20
1388.494269174465
 30
0.0
 11
3098.389042800336
 21
1393.494286728144
 31
0.0
  0
LINE
  5
18C86
330
18C7A
100
AcDbEntity
  8
細線
100
AcDbLine
 10
3030.720579860066
 20
1388.494284088199
 30
0.0
 11
3033.052119381875
 21
1393.494286728162
 31
0.0
  0
LINE
  5
18C87
330
18C7A
100
AcDbEntity
  8
細線
100
AcDbLine
 10
2890.720589276525
 20
1388.494269174465
 30
0.0
 11
2893.052128798336
 21
1393.494271814428
 31
0.0
  0
LINE
  5
18C88
330
18C7A
100
AcDbEntity
  8
細線
100
AcDbLine
 10
2960.720598692984
 20
1388.494254260731
 30
0.0
 11
2958.389052216793
 21
1393.49427181441
 31
0.0
  0
LINE
  5
18C89
330
18C7A
100
AcDbEntity
  8
細線
100
AcDbLine
 10
2958.389052216795
 20
1393.49427181441
 30
0.0
 11
2893.052128798321
 21
1393.494271814399
 31
0.0
  0
LINE
  5
18C8A
330
18C7A
100
AcDbEntity
  8
細線
100
AcDbLine
 10
2667.139038146739
 20
1359.494298590735
 30
0.0
 11
2601.802114728263
 21
1359.494298590724
 31
0.0
  0
LINE
  5
18C8B
330
18C7A
100
AcDbEntity
  8
細線
100
AcDbLine
 10
2669.470584622926
 20
1354.494281037055
 30
0.0
 11
2667.139038146737
 21
1359.494298590735
 31
0.0
  0
LINE
  5
18C8C
330
18C7A
100
AcDbEntity
  8
細線
100
AcDbLine
 10
2599.470575206469
 20
1354.49429595079
 30
0.0
 11
2601.802114728278
 21
1359.494298590752
 31
0.0
  0
LINE
  5
18C8D
330
18C7A
100
AcDbEntity
  8
細線
 48
50.0
100
AcDbLine
 10
2440.853968524536
 20
1372.765132327548
 30
0.0
 11
2446.609486107205
 21
1354.494281037057
 31
0.0
  0
LINE
  5
18C8E
330
18C7A
100
AcDbEntity
  8
細線
 48
50.0
100
AcDbLine
 10
2429.925520044106
 20
1372.765132327546
 30
0.0
 11
2440.853968524536
 21
1372.765132327548
 31
0.0
  0
ARC
  5
18C8F
330
18C7A
100
AcDbEntity
  8
細線
 48
50.0
100
AcDbCircle
 10
2424.471163986787
 20
1374.265132327546
 30
0.0
 40
5.0
100
AcDbArc
 50
204.6243183520723
 51
335.3756816479278
  0
ARC
  5
18C90
330
18C7A
100
AcDbEntity
  8
細線
 48
50.0
100
AcDbCircle
 10
2429.925520044106
 20
1371.765132327546
 30
0.0
 40
1.0
100
AcDbArc
 50
90.0
 51
155.3756816479277
  0
ARC
  5
18C91
330
18C7A
100
AcDbEntity
  8
細線
 48
50.0
100
AcDbCircle
 10
2419.016807929469
 20
1371.765132327546
 30
0.0
 40
1.0
100
AcDbArc
 50
24.62431835207225
 51
90.0
  0
LINE
  5
18C92
330
18C7A
100
AcDbEntity
  8
細線
 48
50.0
100
AcDbLine
 10
2408.088359449037
 20
1372.765132327548
 30
0.0
 11
2419.016807929469
 21
1372.765132327546
 31
0.0
  0
LINE
  5
18C93
330
18C7A
100
AcDbEntity
  8
細線
 48
50.0
100
AcDbLine
 10
2402.33284186637
 20
1354.494281037054
 30
0.0
 11
2408.088359449037
 21
1372.765132327548
 31
0.0
  0
LINE
  5
18C94
330
18C7A
100
AcDbEntity
  8
細線
100
AcDbLine
 10
2458.070304175992
 20
1354.494278397076
 30
0.0
 11
2460.401843697802
 21
1359.494281037039
 31
0.0
  0
LINE
  5
18C95
330
18C7A
100
AcDbEntity
  8
細線
100
AcDbLine
 10
2528.070313592451
 20
1354.494263483342
 30
0.0
 11
2525.738767116262
 21
1359.494281037021
 31
0.0
  0
LINE
  5
18C96
330
18C7A
100
AcDbEntity
  8
細線
100
AcDbLine
 10
2525.738767116262
 20
1359.494281037021
 30
0.0
 11
2460.40184369779
 21
1359.49428103701
 31
0.0
  0
LINE
  5
18C97
330
18C7A
100
AcDbEntity
  8
細線
100
AcDbLine
 10
2387.139046332155
 20
1359.494281037021
 30
0.0
 11
2321.80212291368
 21
1359.49428103701
 31
0.0
  0
LINE
  5
18C98
330
18C7A
100
AcDbEntity
  8
細線
100
AcDbLine
 10
2389.470592808342
 20
1354.494263483342
 30
0.0
 11
2387.139046332153
 21
1359.494281037021
 31
0.0
  0
LINE
  5
18C99
330
18C7A
100
AcDbEntity
  8
細線
100
AcDbLine
 10
2319.470584622926
 20
1354.494281037054
 30
0.0
 11
2321.802122913694
 21
1359.494281037039
 31
0.0
  0
LINE
  5
18C9A
330
18C7A
100
AcDbEntity
  8
細線
100
AcDbLine
 10
2179.47061994182
 20
1354.494289224422
 30
0.0
 11
2181.802158232587
 21
1359.494289224407
 31
0.0
  0
LINE
  5
18C9B
330
18C7A
100
AcDbEntity
  8
細線
100
AcDbLine
 10
2249.470628127236
 20
1354.49427167071
 30
0.0
 11
2247.139081651047
 21
1359.494289224389
 31
0.0
  0
LINE
  5
18C9C
330
18C7A
100
AcDbEntity
  8
細線
100
AcDbLine
 10
2247.139081651047
 20
1359.494289224389
 30
0.0
 11
2181.802158232573
 21
1359.494289224378
 31
0.0
  0
LINE
  5
18C9D
330
18C7A
100
AcDbEntity
  8
細線
100
AcDbLine
 10
1807.970585744697
 20
1320.494460905133
 30
0.0
 11
1810.302124035464
 21
1325.494460905118
 31
0.0
  0
LINE
  5
18C9E
330
18C7A
100
AcDbEntity
  8
細線
100
AcDbLine
 10
1877.970593930113
 20
1320.494443351421
 30
0.0
 11
1875.639047453926
 21
1325.4944609051
 31
0.0
  0
LINE
  5
18C9F
330
18C7A
100
AcDbEntity
  8
細線
100
AcDbLine
 10
1875.639047453926
 20
1325.4944609051
 30
0.0
 11
1810.302124035452
 21
1325.494460905089
 31
0.0
  0
LINE
  5
18CA0
330
18C7A
100
AcDbEntity
  8
細線
100
AcDbLine
 10
2015.639047453926
 20
1325.4944609051
 30
0.0
 11
1950.302124035452
 21
1325.494460905089
 31
0.0
  0
LINE
  5
18CA1
330
18C7A
100
AcDbEntity
  8
細線
100
AcDbLine
 10
2017.970593930113
 20
1320.494443351421
 30
0.0
 11
2015.639047453924
 21
1325.4944609051
 31
0.0
  0
LINE
  5
18CA2
330
18C7A
100
AcDbEntity
  8
細線
100
AcDbLine
 10
1947.970585744697
 20
1320.494460905133
 30
0.0
 11
1950.302124035465
 21
1325.494460905118
 31
0.0
  0
LINE
  5
18CA3
330
18C7A
100
AcDbEntity
  8
細線
100
AcDbLine
 10
1735.639047453926
 20
1325.494460905098
 30
0.0
 11
1670.302124035454
 21
1325.494460905087
 31
0.0
  0
LINE
  5
18CA4
330
18C7A
100
AcDbEntity
  8
細線
100
AcDbLine
 10
1737.970593930113
 20
1320.494443351419
 30
0.0
 11
1735.639047453926
 21
1325.494460905098
 31
0.0
  0
LINE
  5
18CA5
330
18C7A
100
AcDbEntity
  8
細線
100
AcDbLine
 10
1667.970585744697
 20
1320.494460905131
 30
0.0
 11
1670.302124035465
 21
1325.494460905116
 31
0.0
  0
LINE
  5
18CA6
330
18C7A
100
AcDbEntity
  8
細線
100
AcDbLine
 10
1527.970593930113
 20
1320.494460905133
 30
0.0
 11
1530.302132220881
 21
1325.494460905118
 31
0.0
  0
LINE
  5
18CA7
330
18C7A
100
AcDbEntity
  8
細線
100
AcDbLine
 10
1597.970602115529
 20
1320.494443351421
 30
0.0
 11
1595.639055639342
 21
1325.4944609051
 31
0.0
  0
LINE
  5
18CA8
330
18C7A
100
AcDbEntity
  8
細線
100
AcDbLine
 10
1595.639055639342
 20
1325.4944609051
 30
0.0
 11
1530.302132220869
 21
1325.494460905089
 31
0.0
  0
ARC
  5
18CA9
330
18C7A
100
AcDbEntity
  8
部品1
 48
0.01
100
AcDbCircle
 10
1483.470482677778
 20
1319.493338720063
 30
0.0
 40
0.5
100
AcDbArc
 50
270.0
 51
0.0
  0
LINE
  5
18CAA
330
18C7A
100
AcDbEntity
  8
部品1
 48
0.01
100
AcDbLine
 10
1483.970482677778
 20
1320.493338720063
 30
0.0
 11
1483.970482677778
 21
1319.493338720063
 31
0.0
  0
LINE
  5
18CAB
330
18C7A
100
AcDbEntity
  8
部品1
 48
0.01
100
AcDbLine
 10
1483.970482677778
 20
1320.493338720063
 30
0.0
 11
1483.970482677778
 21
1319.493338720063
 31
0.0
  0
LINE
  5
18CAC
330
18C7A
100
AcDbEntity
  8
部品1
 48
0.01
100
AcDbLine
 10
1483.470482677778
 20
1318.993338720063
 30
0.0
 11
1476.857977247713
 21
1318.993338720062
 31
0.0
  0
ARC
  5
18CAD
330
18C7A
100
AcDbEntity
  8
部品1
100
AcDbCircle
 10
1476.926326800494
 20
1319.993338720062
 30
0.0
 40
1.0
100
AcDbArc
 50
160.5287793655865
 51
270.0
  0
ARC
  5
18CAE
330
18C7A
100
AcDbEntity
  8
部品1
100
AcDbCircle
 10
1451.470482677778
 20
1328.993338720062
 30
0.0
 40
26.0
100
AcDbArc
 50
340.5287793655865
 51
0.0
  0
LINE
  5
18CAF
330
18C7A
100
AcDbEntity
  8
部品1
100
AcDbLine
 10
1477.470482677778
 20
1328.993338720062
 30
0.0
 11
1477.470482677778
 21
1333.993338720061
 31
0.0
  0
ARC
  5
18CB0
330
18C7A
100
AcDbEntity
  8
部品1
 48
0.01
100
AcDbCircle
 10
1475.470482677778
 20
1333.993338720061
 30
0.0
 40
2.0
100
AcDbArc
 50
0.0
 51
90.0
  0
ARC
  5
18CB1
330
18C7A
100
AcDbEntity
  8
部品1
100
AcDbCircle
 10
1473.862091052968
 20
1332.993338720062
 30
0.0
 40
3.0
100
AcDbArc
 50
90.0
 51
141.6069559808035
  0
LINE
  5
18CB2
330
18C7A
100
AcDbEntity
  8
部品1
 48
0.01
100
AcDbLine
 10
1475.470482677778
 20
1335.993338720062
 30
0.0
 11
1473.862091052968
 21
1335.993338720062
 31
0.0
  0
ARC
  5
18CB3
330
18C7A
100
AcDbEntity
  8
部品1
100
AcDbCircle
 10
1455.399768463507
 20
1332.293338720065
 30
0.0
 40
3.0
100
AcDbArc
 50
254.0576313943215
 51
270.0
  0
ARC
  5
18CB4
330
18C7A
100
AcDbEntity
  8
部品1
100
AcDbCircle
 10
1462.541196892049
 20
1332.293338720065
 30
0.0
 40
3.0
100
AcDbArc
 50
270.0
 51
285.9423686056786
  0
LINE
  5
18CB5
330
18C7A
100
AcDbEntity
  8
部品1
100
AcDbLine
 10
1462.541196892049
 20
1329.293338720064
 30
0.0
 11
1455.399768463507
 21
1329.293338720064
 31
0.0
  0
ARC
  5
18CB6
330
18C7A
100
AcDbEntity
  8
部品1
100
AcDbCircle
 10
1458.970482677778
 20
1344.793338720065
 30
0.0
 40
16.0
100
AcDbArc
 50
285.9423686056786
 51
321.6069559808035
  0
LINE
  5
18CB7
330
18C7A
100
AcDbEntity
  8
部品1
 48
0.01
100
AcDbLine
 10
1442.470482677778
 20
1335.993338720062
 30
0.0
 11
1444.078874302588
 21
1335.993338720062
 31
0.0
  0
ARC
  5
18CB8
330
18C7A
100
AcDbEntity
  8
部品1
100
AcDbCircle
 10
1444.078874302588
 20
1332.993338720062
 30
0.0
 40
3.0
100
AcDbArc
 50
38.39304401919648
 51
90.0
  0
ARC
  5
18CB9
330
18C7A
100
AcDbEntity
  8
部品1
100
AcDbCircle
 10
1458.970482677778
 20
1344.793338720065
 30
0.0
 40
16.0
100
AcDbArc
 50
218.3930440191965
 51
254.0576313943215
  0
LINE
  5
18CBA
330
18C7A
100
AcDbEntity
  8
部品1
100
AcDbLine
 10
1440.470482677778
 20
1328.993338720062
 30
0.0
 11
1440.470482677778
 21
1333.993338720061
 31
0.0
  0
ARC
  5
18CBB
330
18C7A
100
AcDbEntity
  8
部品1
 48
0.01
100
AcDbCircle
 10
1442.470482677778
 20
1333.993338720061
 30
0.0
 40
2.0
100
AcDbArc
 50
90.0
 51
180.0
  0
ARC
  5
18CBC
330
18C7A
100
AcDbEntity
  8
部品1
100
AcDbCircle
 10
1466.470482677778
 20
1328.993338720062
 30
0.0
 40
26.0
100
AcDbArc
 50
180.0
 51
199.4712206344134
  0
ARC
  5
18CBD
330
18C7A
100
AcDbEntity
  8
部品1
 48
0.01
100
AcDbCircle
 10
1434.470482677778
 20
1319.493338720063
 30
0.0
 40
0.5
100
AcDbArc
 50
180.0
 51
270.0
  0
LINE
  5
18CBE
330
18C7A
100
AcDbEntity
  8
部品1
 48
0.01
100
AcDbLine
 10
1434.470482677778
 20
1318.993338720063
 30
0.0
 11
1441.014638555061
 21
1318.993338720062
 31
0.0
  0
LINE
  5
18CBF
330
18C7A
100
AcDbEntity
  8
部品1
 48
0.01
100
AcDbLine
 10
1433.970482677778
 20
1320.493338720063
 30
0.0
 11
1433.970482677778
 21
1319.493338720063
 31
0.0
  0
ARC
  5
18CC0
330
18C7A
100
AcDbEntity
  8
部品1
100
AcDbCircle
 10
1441.014638555061
 20
1319.993338720062
 30
0.0
 40
1.0
100
AcDbArc
 50
270.0
 51
19.47122063441346
  0
LINE
  5
18CC1
330
18C7A
100
AcDbEntity
  8
細線
100
AcDbLine
 10
1479.470482677785
 20
1338.493338720065
 30
0.0
 11
1438.470482677785
 21
1338.493338720058
 31
0.0
  0
LINE
  5
18CC2
330
18C7A
100
AcDbEntity
  8
細線
100
AcDbLine
 10
1438.470482677785
 20
1338.493338720058
 30
0.0
 11
1438.470482677785
 21
1320.49333872004
 31
0.0
  0
LINE
  5
18CC3
330
18C7A
100
AcDbEntity
  8
細線
100
AcDbLine
 10
1479.470482677785
 20
1338.493338720065
 30
0.0
 11
1479.470482677785
 21
1320.49333872004
 31
0.0
  0
LINE
  5
18CC4
330
18C7A
100
AcDbEntity
  8
細線
100
AcDbLine
 10
1322.970589276523
 20
1324.494269174465
 30
0.0
 11
1322.970589276523
 21
1320.494269174513
 31
0.0
  0
LINE
  5
18CC5
330
18C7A
100
AcDbEntity
  8
寸法
 48
50.0
100
AcDbLine
 10
1746.17359555837
 20
1170.531020743327
 30
0.0
 11
1694.767587648266
 21
1170.531020743327
 31
0.0
  0
LINE
  5
18CC6
330
18C7A
100
AcDbEntity
  8
寸法
 48
50.0
100
AcDbLine
 10
1694.767587648266
 20
1170.531020743327
 30
0.0
 11
1694.767587648266
 21
1201.841179395494
 31
0.0
  0
LINE
  5
18CC7
330
18C7A
100
AcDbEntity
  8
寸法
 48
50.0
100
AcDbLine
 10
1694.767587648266
 20
1201.841179395494
 30
0.0
 11
1665.006255656843
 21
1201.841179395494
 31
0.0
  0
LINE
  5
18CC8
330
18C7A
100
AcDbEntity
  8
寸法
 48
50.0
100
AcDbLine
 10
1665.006255656843
 20
1201.841179395494
 30
0.0
 11
1720.470591603318
 21
1239.420630324105
 31
0.0
  0
LINE
  5
18CC9
330
18C7A
100
AcDbEntity
  8
寸法
 48
50.0
100
AcDbLine
 10
1775.934927549793
 20
1201.841179395494
 30
0.0
 11
1720.470591603318
 21
1239.420630324105
 31
0.0
  0
LINE
  5
18CCA
330
18C7A
100
AcDbEntity
  8
寸法
 48
50.0
100
AcDbLine
 10
1746.17359555837
 20
1201.841179395494
 30
0.0
 11
1775.934927549793
 21
1201.841179395494
 31
0.0
  0
LINE
  5
18CCB
330
18C7A
100
AcDbEntity
  8
寸法
 48
50.0
100
AcDbLine
 10
1746.17359555837
 20
1170.531020743327
 30
0.0
 11
1746.17359555837
 21
1201.841179395494
 31
0.0
  0
LINE
  5
18CCC
330
18C7A
100
AcDbEntity
  8
寸法
 48
50.0
100
AcDbLine
 10
1694.767587648266
 20
1170.531020743327
 30
0.0
 11
1746.17359555837
 21
1170.531020743327
 31
0.0
  0
LINE
  5
18CCD
330
18C7A
100
AcDbEntity
  8
寸法
 48
50.0
100
AcDbLine
 10
2025.339129835225
 20
1227.676611498152
 30
0.0
 11
2025.339129835225
 21
1174.01297691636
 31
0.0
  0
LINE
  5
18CCE
330
18C7A
100
AcDbEntity
  8
寸法
 48
50.0
100
AcDbLine
 10
2114.623348430647
 20
1203.752977228664
 30
0.0
 11
2025.339129835225
 21
1227.676611498152
 31
0.0
  0
LINE
  5
18CCF
330
18C7A
100
AcDbEntity
  8
寸法
 48
50.0
100
AcDbLine
 10
1895.471408254923
 20
1203.752977228664
 30
0.0
 11
2114.623348430647
 21
1203.752977228664
 31
0.0
  0
DIMENSION
  5
18CD0
330
18C7A
100
AcDbEntity
  8
寸法
 48
50.0
100
AcDbDimension
  2
*D15
 10
2588.970589276523
 20
706.3240511224249
 30
0.0
 11
1969.060022905491
 21
706.3240511224249
 31
0.0
 12
-3742.925985830444
 22
-6453.628869860112
 32
0.0
 70
   128
  1
有効開口部間口\P<>
 71
     5
 42
1266.0
  3
INABA_S40G
100
AcDbAlignedDimension
 13
1322.970589276523
 23
1315.494269174465
 33
0.0
 14
2588.970589276523
 24
1315.494269174465
 34
0.0
100
AcDbRotatedDimension
1001
ACAD
1000
DSTYLE
1002
{
1070
   341
1005
0
1002
}
  0
LINE
  5
18CD1
330
18C7A
100
AcDbEntity
  8
部品1
100
AcDbLine
 10
3409.970589276524
 20
1392.494269174465
 30
0.0
 11
3437.970589276523
 21
1392.494269174465
 31
0.0
  0
DIMENSION
  5
18CD2
330
18C7A
100
AcDbEntity
  8
寸法
100
AcDbDimension
  2
*D16
 10
3674.266172669749
 20
1315.494269174465
 30
0.0
 11
3674.266172669748
 21
1177.494269174462
 31
0.0
 12
-3742.925985830444
 22
-6453.628869860112
 32
0.0
 70
   128
 71
     5
 42
77.0
  3
INABA_S40
100
AcDbAlignedDimension
 13
3437.970589276523
 23
1392.494269174465
 33
0.0
 14
3436.970589276523
 24
1315.494269174465
 34
0.0
 50
90.0
100
AcDbRotatedDimension
1001
ACAD
1000
DSTYLE
1002
{
1070
    41
1040
0.5
1070
    44
1040
1.0
1070
   147
1040
0.8
1070
   271
1070
     2
1070
   272
1070
     2
1070
   289
1070
     3
1070
   340
1005
F706
1070
   343
1005
164B4
1070
   344
1005
164B4
1002
}
  0
LINE
  5
18CD3
330
18C7A
100
AcDbEntity
  8
部品1
100
AcDbLine
 10
3437.970589276523
 20
1315.494269174465
 30
0.0
 11
3437.970589276523
 21
1392.494269174465
 31
0.0
  0
LINE
  5
18CD4
330
18C7A
100
AcDbEntity
  8
部品1
100
AcDbLine
 10
3398.970589276523
 20
1388.494269174465
 30
0.0
 11
3409.970589276524
 21
1388.494269174465
 31
0.0
  0
LINE
  5
18CD5
330
18C7A
100
AcDbEntity
  8
部品1
100
AcDbLine
 10
3407.970589276523
 20
1324.494269174465
 30
0.0
 11
3407.970589276523
 21
1315.494269174465
 31
0.0
  0
LINE
  5
18CD6
330
18C7A
100
AcDbEntity
  8
部品1
100
AcDbLine
 10
3398.970589276523
 20
1324.494269174465
 30
0.0
 11
3407.970589276523
 21
1324.494269174465
 31
0.0
  0
LINE
  5
18CD7
330
18C7A
100
AcDbEntity
  8
部品1
100
AcDbLine
 10
3398.970589276523
 20
1388.494269174465
 30
0.0
 11
3398.970589276523
 21
1324.494269174465
 31
0.0
  0
LINE
  5
18CD8
330
18C7A
100
AcDbEntity
  8
部品1
100
AcDbLine
 10
3409.970589276524
 20
1419.494269174465
 30
0.0
 11
3409.970589276524
 21
1388.494269174465
 31
0.0
  0
LINE
  5
18CD9
330
18C7A
100
AcDbEntity
  8
部品1
100
AcDbLine
 10
1322.970589276523
 20
1388.494269174465
 30
0.0
 11
1311.970589276523
 21
1388.494269174465
 31
0.0
  0
LINE
  5
18CDA
330
18C7A
100
AcDbEntity
  8
部品1
100
AcDbLine
 10
1283.970589276523
 20
1392.494269174465
 30
0.0
 11
1311.970589276523
 21
1392.494269174465
 31
0.0
  0
LINE
  5
18CDB
330
18C7A
100
AcDbEntity
  8
部品1
100
AcDbLine
 10
1313.970589276523
 20
1324.494269174465
 30
0.0
 11
1313.970589276523
 21
1315.494269174465
 31
0.0
  0
LINE
  5
18CDC
330
18C7A
100
AcDbEntity
  8
部品1
100
AcDbLine
 10
1322.970589276523
 20
1324.494269174465
 30
0.0
 11
1313.970589276523
 21
1324.494269174465
 31
0.0
  0
LINE
  5
18CDD
330
18C7A
100
AcDbEntity
  8
部品1
100
AcDbLine
 10
1313.970589276523
 20
1315.494269174465
 30
0.0
 11
1283.970589276523
 21
1315.494269174465
 31
0.0
  0
LINE
  5
18CDE
330
18C7A
100
AcDbEntity
  8
部品1
100
AcDbLine
 10
1283.970589276523
 20
1315.494269174465
 30
0.0
 11
1283.970589276523
 21
1392.494269174465
 31
0.0
  0
LINE
  5
18CDF
330
18C7A
100
AcDbEntity
  8
部品1
100
AcDbLine
 10
1322.970589276523
 20
1388.494269174465
 30
0.0
 11
1322.970589276523
 21
1324.494269174465
 31
0.0
  0
LINE
  5
18CE0
330
18C7A
100
AcDbEntity
  8
部品1
100
AcDbLine
 10
1311.970589276523
 20
1419.494269174462
 30
0.0
 11
1311.970589276523
 21
1388.494269174465
 31
0.0
  0
LINE
  5
18CE1
330
18C7A
100
AcDbEntity
  8
部品1
100
AcDbLine
 10
1311.970589276523
 20
1419.494269174462
 30
0.0
 11
3409.970589276524
 21
1419.494269174465
 31
0.0
  0
LINE
  5
18CE2
330
18C7A
100
AcDbEntity
  8
部品1
100
AcDbLine
 10
3407.970589276523
 20
1315.494269174465
 30
0.0
 11
3437.970589276523
 21
1315.494269174465
 31
0.0
  0
LINE
  5
18CE3
330
18C7A
100
AcDbEntity
  8
部品1
100
AcDbLine
 10
1313.970589276523
 20
1315.494269174465
 30
0.0
 11
3410.970589276523
 21
1315.494269174465
 31
0.0
  0
LINE
  5
18CE4
330
18C7A
100
AcDbEntity
  8
細線
  6
Continuous
 62
     5
100
AcDbLine
 10
2689.970589276527
 20
1354.494269174462
 30
0.0
 11
2689.970589276527
 21
1354.494269174462
 31
0.0
  0
LINE
  5
18CE5
330
18C7A
100
AcDbEntity
  8
細線
  6
Continuous
 62
     5
100
AcDbLine
 10
2682.470589276527
 20
1354.494269174462
 30
0.0
 11
2682.470589276527
 21
1354.494269174462
 31
0.0
  0
LINE
  5
18CE6
330
18C7A
100
AcDbEntity
  8
細線
  6
Continuous
 62
     5
100
AcDbLine
 10
2676.470589276527
 20
1354.494269174462
 30
0.0
 11
2676.470589276527
 21
1354.494269174462
 31
0.0
  0
LINE
  5
18CE7
330
18C7A
100
AcDbEntity
  8
細線
  6
Continuous
 62
     5
100
AcDbLine
 10
2743.970589276527
 20
1373.494269174462
 30
0.0
 11
2743.970589276527
 21
1373.494269174462
 31
0.0
  0
LINE
  5
18CE8
330
18C7A
100
AcDbEntity
  8
細線
 48
50.0
100
AcDbLine
 10
1336.970593930116
 20
1341.094443351418
 30
0.0
 11
1336.970593930113
 21
1349.490593759059
 31
0.0
  0
LINE
  5
18CE9
330
18C7A
100
AcDbEntity
  8
細線
 48
50.0
100
AcDbLine
 10
1336.970593930113
 20
1349.490593759059
 30
0.0
 11
1322.970589276523
 21
1349.490593759057
 31
0.0
  0
LINE
  5
18CEA
330
18C7A
100
AcDbEntity
  8
細線
 48
50.0
100
AcDbLine
 10
2087.970593930113
 20
1337.644443351419
 30
0.0
 11
2087.970593930113
 21
1342.494443351421
 31
0.0
  0
LINE
  5
18CEB
330
18C7A
100
AcDbEntity
  8
細線
 48
50.0
100
AcDbLine
 10
2087.970593930113
 20
1342.494443351421
 30
0.0
 11
2102.970593930113
 21
1342.494443351421
 31
0.0
  0
LINE
  5
18CEC
330
18C7A
100
AcDbEntity
  8
細線
 48
50.0
100
AcDbLine
 10
2102.970593930113
 20
1342.494443351421
 30
0.0
 11
2102.970593930115
 21
1349.494443351419
 31
0.0
  0
LINE
  5
18CED
330
18C7A
100
AcDbEntity
  8
細線
 48
50.0
100
AcDbLine
 10
2102.970593930115
 20
1349.494443351419
 30
0.0
 11
2117.970593930113
 21
1349.494443351419
 31
0.0
  0
LINE
  5
18CEE
330
18C7A
100
AcDbEntity
  8
細線
 48
50.0
100
AcDbLine
 10
2117.970593930113
 20
1349.494443351419
 30
0.0
 11
2117.970593930113
 21
1320.494443351421
 31
0.0
  0
LINE
  5
18CEF
330
18C7A
100
AcDbEntity
  8
細線
 48
50.0
100
AcDbLine
 10
1313.970589276523
 20
1320.491777694889
 30
0.0
 11
1527.970593930113
 21
1320.494460905133
 31
0.0
  0
LINE
  5
18CF0
330
18C7A
100
AcDbEntity
  8
細線
 48
50.0
100
AcDbLine
 10
2017.970593930113
 20
1320.494443351421
 30
0.0
 11
2117.970593930113
 21
1320.494443351421
 31
0.0
  0
LINE
  5
18CF1
330
18C7A
100
AcDbEntity
  8
細線
 48
50.0
100
AcDbLine
 10
1737.970593930113
 20
1320.494443351419
 30
0.0
 11
1807.970593930113
 21
1320.494443351423
 31
0.0
  0
LINE
  5
18CF2
330
18C7A
100
AcDbEntity
  8
細線
 48
50.0
100
AcDbLine
 10
1750.832558942642
 20
1320.494443351419
 30
0.0
 11
1756.588076525309
 21
1338.765294641913
 31
0.0
  0
LINE
  5
18CF3
330
18C7A
100
AcDbEntity
  8
細線
 48
50.0
100
AcDbLine
 10
1756.588076525309
 20
1338.765294641913
 30
0.0
 11
1767.516525005743
 21
1338.765294641911
 31
0.0
  0
ARC
  5
18CF4
330
18C7A
100
AcDbEntity
  8
細線
 48
50.0
100
AcDbCircle
 10
1767.516525005743
 20
1337.765294641911
 30
0.0
 40
1.0
100
AcDbArc
 50
24.62431835207225
 51
90.0
  0
ARC
  5
18CF5
330
18C7A
100
AcDbEntity
  8
細線
 48
50.0
100
AcDbCircle
 10
1778.425237120377
 20
1337.765294641911
 30
0.0
 40
1.0
100
AcDbArc
 50
90.0
 51
155.3756816479277
  0
ARC
  5
18CF6
330
18C7A
100
AcDbEntity
  8
細線
 48
50.0
100
AcDbCircle
 10
1772.970881063058
 20
1340.265294641911
 30
0.0
 40
5.0
100
AcDbArc
 50
204.6243183520723
 51
335.3756816479278
  0
LINE
  5
18CF7
330
18C7A
100
AcDbEntity
  8
細線
 48
50.0
100
AcDbLine
 10
1778.425237120377
 20
1338.765294641911
 30
0.0
 11
1789.35368560081
 21
1338.765294641913
 31
0.0
  0
LINE
  5
18CF8
330
18C7A
100
AcDbEntity
  8
細線
 48
50.0
100
AcDbLine
 10
1789.35368560081
 20
1338.765294641913
 30
0.0
 11
1795.109203183478
 21
1320.494443351423
 31
0.0
  0
LINE
  5
18CF9
330
18C7A
100
AcDbEntity
  8
細線
 48
50.0
100
AcDbLine
 10
2087.970593930113
 20
1341.094443351419
 30
0.0
 11
1336.970593930116
 21
1341.094443351418
 31
0.0
  0
LINE
  5
18CFA
330
18C7A
100
AcDbEntity
  8
細線
 48
50.0
100
AcDbLine
 10
1947.970593930113
 20
1320.494443351421
 30
0.0
 11
1877.970593930113
 21
1320.494443351421
 31
0.0
  0
LINE
  5
18CFB
330
18C7A
100
AcDbEntity
  8
細線
100
AcDbLine
 10
1667.970593930113
 20
1320.494443351421
 30
0.0
 11
1597.970602115529
 21
1320.494443351421
 31
0.0
  0
LINE
  5
18CFC
330
18C7A
100
AcDbEntity
  8
細線
 48
50.0
100
AcDbLine
 10
2741.970584622936
 20
1375.094487209288
 30
0.0
 11
2106.970593930113
 21
1375.094487209284
 31
0.0
  0
LINE
  5
18CFD
330
18C7A
100
AcDbEntity
  8
細線
 48
50.0
100
AcDbLine
 10
2106.970593930113
 20
1371.990637616925
 30
0.0
 11
2106.970593930113
 21
1376.490637616925
 31
0.0
  0
LINE
  5
18CFE
330
18C7A
100
AcDbEntity
  8
細線
 48
50.0
100
AcDbLine
 10
2106.970593930113
 20
1376.490637616925
 30
0.0
 11
2091.970593930113
 21
1376.490637616925
 31
0.0
  0
LINE
  5
18CFF
330
18C7A
100
AcDbEntity
  8
細線
 48
50.0
100
AcDbLine
 10
2091.970593930113
 20
1376.490637616925
 30
0.0
 11
2091.970593930113
 21
1383.490637616927
 31
0.0
  0
LINE
  5
18D00
330
18C7A
100
AcDbEntity
  8
細線
 48
50.0
100
AcDbLine
 10
2091.970593930113
 20
1383.490637616927
 30
0.0
 11
2076.970593930115
 21
1383.490637616924
 31
0.0
  0
LINE
  5
18D01
330
18C7A
100
AcDbEntity
  8
細線
 48
50.0
100
AcDbLine
 10
2076.970593930115
 20
1383.490637616924
 30
0.0
 11
2076.970593930115
 21
1345.890409513813
 31
0.0
  0
LINE
  5
18D02
330
18C7A
100
AcDbEntity
  8
細線
 48
50.0
100
AcDbLine
 10
2076.970593930115
 20
1345.890409513813
 30
0.0
 11
2096.970601231289
 21
1345.890451063353
 31
0.0
  0
LINE
  5
18D03
330
18C7A
100
AcDbEntity
  8
細線
 48
50.0
100
AcDbLine
 10
2096.970556362348
 20
1354.493912699161
 30
0.0
 11
2096.970601231289
 21
1345.890451063353
 31
0.0
  0
LINE
  5
18D04
330
18C7A
100
AcDbEntity
  8
細線
 48
50.0
100
AcDbLine
 10
2741.970584622936
 20
1371.644487209287
 30
0.0
 11
2741.970584622936
 21
1376.494487209284
 31
0.0
  0
LINE
  5
18D05
330
18C7A
100
AcDbEntity
  8
細線
 48
50.0
100
AcDbLine
 10
2741.970584622936
 20
1376.494487209284
 30
0.0
 11
2756.970584622934
 21
1376.494487209285
 31
0.0
  0
LINE
  5
18D06
330
18C7A
100
AcDbEntity
  8
細線
 48
50.0
100
AcDbLine
 10
2756.970584622934
 20
1376.494487209285
 30
0.0
 11
2756.970596256909
 21
1383.494487209331
 31
0.0
  0
LINE
  5
18D07
330
18C7A
100
AcDbEntity
  8
細線
 48
50.0
100
AcDbLine
 10
2756.970596256909
 20
1383.494487209331
 30
0.0
 11
2771.970594427439
 21
1383.494487209329
 31
0.0
  0
LINE
  5
18D08
330
18C7A
100
AcDbEntity
  8
細線
 48
50.0
100
AcDbLine
 10
2771.970594427439
 20
1383.494487209329
 30
0.0
 11
2771.970584125617
 21
1354.494281037055
 31
0.0
  0
LINE
  5
18D09
330
18C7A
100
AcDbEntity
  8
細線
 48
50.0
100
AcDbLine
 10
2458.070304175992
 20
1354.494278397076
 30
0.0
 11
2389.470863838818
 21
1354.494283787084
 31
0.0
  0
LINE
  5
18D0A
330
18C7A
100
AcDbEntity
  8
細線
 48
50.0
100
AcDbLine
 10
2096.970556362348
 20
1354.493912699161
 30
0.0
 11
2108.203245717057
 21
1354.494095652309
 31
0.0
  0
ARC
  5
18D0B
330
18C7A
100
AcDbEntity
  8
細線
 48
50.0
100
AcDbCircle
 10
2114.785538024393
 20
1353.294259565922
 30
0.0
 40
1.8
100
AcDbArc
 50
270.0006665777295
 51
345.000555481349
  0
LINE
  5
18D0C
330
18C7A
100
AcDbEntity
  8
細線
 48
50.0
100
AcDbLine
 10
2116.771971470473
 20
1353.753100023201
 30
0.0
 11
2116.524209028273
 21
1352.828402141094
 31
0.0
  0
LINE
  5
18D0D
330
18C7A
100
AcDbEntity
  8
細線
 48
50.0
100
AcDbLine
 10
2114.785558965548
 20
1351.494259566043
 30
0.0
 11
2111.155631546781
 21
1351.494217335563
 31
0.0
  0
ARC
  5
18D0E
330
18C7A
100
AcDbEntity
  8
細線
 48
50.0
100
AcDbCircle
 10
2111.155610605627
 20
1353.29421733544
 30
0.0
 40
1.8
100
AcDbArc
 50
195.0010443049965
 51
270.0006665777295
  0
LINE
  5
18D0F
330
18C7A
100
AcDbEntity
  8
細線
 48
50.0
100
AcDbLine
 10
2109.169183113368
 20
1353.752932303007
 30
0.0
 11
2109.416952609882
 21
1352.828311364425
 31
0.0
  0
ARC
  5
18D10
330
18C7A
100
AcDbEntity
  8
細線
 48
50.0
100
AcDbCircle
 10
2108.203262004622
 20
1353.494095652444
 30
0.0
 40
1.0
100
AcDbArc
 50
15.00104430499651
 51
90.00093320877969
  0
LINE
  5
18D11
330
18C7A
100
AcDbEntity
  8
細線
 48
50.0
100
AcDbLine
 10
2117.737892825577
 20
1354.494290342714
 30
0.0
 11
2118.679652976481
 21
1354.494296916564
 31
0.0
  0
ARC
  5
18D12
330
18C7A
100
AcDbEntity
  8
細線
 48
50.0
100
AcDbCircle
 10
2117.737899805961
 20
1353.49429034274
 30
0.0
 40
1.0
100
AcDbArc
 50
90.0003999466794
 51
165.000555481349
  0
LINE
  5
18D13
330
18C7A
100
AcDbEntity
  8
細線
 48
50.0
100
AcDbLine
 10
2669.470584622926
 20
1354.494281037055
 30
0.0
 11
2771.970584125617
 21
1354.494281037055
 31
0.0
  0
LINE
  5
18D14
330
18C7A
100
AcDbEntity
  8
細線
 48
50.0
100
AcDbLine
 10
2179.47061994182
 20
1354.494289224422
 30
0.0
 11
2118.370558714898
 21
1354.494296916564
 31
0.0
  0
LINE
  5
18D15
330
18C7A
100
AcDbEntity
  8
細線
 48
50.0
100
AcDbLine
 10
2599.470584622926
 20
1354.494281037057
 30
0.0
 11
2529.470584622926
 21
1354.494281037055
 31
0.0
  0
LINE
  5
18D16
330
18C7A
100
AcDbEntity
  8
細線
 48
50.0
100
AcDbLine
 10
2319.470584622926
 20
1354.494281037054
 30
0.0
 11
2249.470567335051
 21
1354.494281037057
 31
0.0
  0
ARC
  5
18D17
330
18C7A
100
AcDbEntity
  8
細線
 48
50.0
100
AcDbCircle
 10
2756.170589276533
 20
1387.694269174466
 30
0.0
 40
0.8
100
AcDbArc
 50
359.9997333689499
 51
89.99986668437072
  0
ARC
  5
18D18
330
18C7A
100
AcDbEntity
  8
細線
 48
50.0
100
AcDbCircle
 10
2763.770596101631
 20
1387.694280343081
 30
0.0
 40
0.8
100
AcDbArc
 50
90.00014387753465
 51
179.9997333689498
  0
LINE
  5
18D19
330
18C7A
100
AcDbEntity
  8
細線
 48
50.0
100
AcDbLine
 10
2756.170591137969
 20
1388.494269174465
 30
0.0
 11
2750.970589276525
 21
1388.494269174465
 31
0.0
  0
ARC
  5
18D1A
330
18C7A
100
AcDbEntity
  8
細線
 48
50.0
100
AcDbCircle
 10
2757.670589276524
 20
1386.194269174464
 30
0.0
 40
0.7
100
AcDbArc
 50
180.0
 51
270.0
  0
ARC
  5
18D1B
330
18C7A
100
AcDbEntity
  8
細線
 48
50.0
100
AcDbCircle
 10
2762.270589276524
 20
1386.194269174464
 30
0.0
 40
0.7
100
AcDbArc
 50
270.0
 51
0.0
  0
LINE
  5
18D1C
330
18C7A
100
AcDbEntity
  8
細線
 48
50.0
100
AcDbLine
 10
2762.970589276525
 20
1386.194269174464
 30
0.0
 11
2762.970596101639
 21
1387.694284065954
 31
0.0
  0
LINE
  5
18D1D
330
18C7A
100
AcDbEntity
  8
細線
 48
50.0
100
AcDbLine
 10
2757.670589276524
 20
1385.494269174465
 30
0.0
 11
2762.270589276524
 21
1385.494269174465
 31
0.0
  0
LINE
  5
18D1E
330
18C7A
100
AcDbEntity
  8
細線
 48
50.0
100
AcDbLine
 10
2756.970589276525
 20
1387.694269174466
 30
0.0
 11
2756.970589276525
 21
1386.194269174464
 31
0.0
  0
LINE
  5
18D1F
330
18C7A
100
AcDbEntity
  8
細線
 48
50.0
100
AcDbLine
 10
3382.570589276527
 20
1418.494269174465
 30
0.0
 11
2745.970589276525
 21
1418.494269174463
 31
0.0
  0
LINE
  5
18D20
330
18C7A
100
AcDbEntity
  8
細線
 48
50.0
100
AcDbLine
 10
3408.470589276525
 20
1413.494269174467
 30
0.0
 11
3392.570589276527
 21
1413.494269174465
 31
0.0
  0
LINE
  5
18D21
330
18C7A
100
AcDbEntity
  8
細線
 48
50.0
100
AcDbLine
 10
3392.570589276526
 20
1413.494269174465
 30
0.0
 11
3382.570589276527
 21
1418.494269174465
 31
0.0
  0
LINE
  5
18D22
330
18C7A
100
AcDbEntity
  8
細線
100
AcDbLine
 10
2993.470589276525
 20
1388.494269174465
 30
0.0
 11
2993.470589276525
 21
1417.794269174464
 31
0.0
  0
LINE
  5
18D23
330
18C7A
100
AcDbEntity
  8
細線
100
AcDbLine
 10
2993.470589276525
 20
1417.794269174464
 30
0.0
 11
3013.470589276525
 21
1417.794269174464
 31
0.0
  0
LINE
  5
18D24
330
18C7A
100
AcDbEntity
  8
細線
100
AcDbLine
 10
3013.470589276525
 20
1388.494269174465
 30
0.0
 11
3013.470589276525
 21
1417.794269174464
 31
0.0
  0
LINE
  5
18D25
330
18C7A
100
AcDbEntity
  8
細線
100
AcDbLine
 10
3170.720589276524
 20
1388.494269174465
 30
0.0
 11
3100.720589276523
 21
1388.494269174465
 31
0.0
  0
LINE
  5
18D26
330
18C7A
100
AcDbEntity
  8
細線
 48
50.0
100
AcDbLine
 10
2890.720589276525
 20
1388.494269174465
 30
0.0
 11
2763.766368849365
 21
1388.494269174465
 31
0.0
  0
LINE
  5
18D27
330
18C7A
100
AcDbEntity
  8
細線
100
AcDbLine
 10
3030.720589276525
 20
1388.494269174465
 30
0.0
 11
2960.720589276525
 21
1388.494269174465
 31
0.0
  0
LINE
  5
18D28
330
18C7A
100
AcDbEntity
  8
細線
 48
50.0
100
AcDbLine
 10
2750.970589276525
 20
1380.494269174465
 30
0.0
 11
2750.970589276525
 21
1388.494269174465
 31
0.0
  0
LINE
  5
18D29
330
18C7A
100
AcDbEntity
  8
細線
 48
50.0
100
AcDbLine
 10
2730.970589276524
 20
1380.494269174467
 30
0.0
 11
2750.970589276525
 21
1380.494269174465
 31
0.0
  0
LINE
  5
18D2A
330
18C7A
100
AcDbEntity
  8
細線
 48
50.0
100
AcDbLine
 10
2745.970589276525
 20
1418.494269174465
 30
0.0
 11
2745.970589276525
 21
1413.494269174465
 31
0.0
  0
LINE
  5
18D2B
330
18C7A
100
AcDbEntity
  8
細線
 48
50.0
100
AcDbLine
 10
2730.970589276525
 20
1418.494269174463
 30
0.0
 11
2745.970589276525
 21
1418.494269174465
 31
0.0
  0
LINE
  5
18D2C
330
18C7A
100
AcDbEntity
  8
細線
 48
50.0
100
AcDbLine
 10
2730.970589276524
 20
1380.494269174467
 30
0.0
 11
2730.970589276525
 21
1418.494269174463
 31
0.0
  0
LINE
  5
18D2D
330
18C7A
100
AcDbEntity
  8
細線
100
AcDbLine
 10
3398.970589276523
 20
1388.494269174465
 30
0.0
 11
3240.720589276525
 21
1388.494269174465
 31
0.0
  0
LINE
  5
18D2E
330
18C7A
100
AcDbEntity
  8
細線
 48
50.0
100
AcDbLine
 10
3408.470589276525
 20
1413.494269174467
 30
0.0
 11
3408.470589276524
 21
1388.494269174465
 31
0.0
  0
TEXT
  5
18D2F
330
18C7A
100
AcDbEntity
  8
部品1
100
AcDbText
 10
1860.154865991392
 20
46.99880823813145
 30
0.0
 40
135.0
  1
平面図
  7
STYLE2
100
AcDbText
  0
LWPOLYLINE
  5
18D30
330
18C7A
100
AcDbEntity
  8
部品1
100
AcDbPolyline
 90
        4
 70
     1
 43
0.0
 10
1770.23525616235
 20
239.8923374566548
 10
1770.23525616235
 20
0.0000159111223184
 10
2533.705922390791
 20
0.0000159111223184
 10
2533.705922390791
 20
239.8923374566548
  0
LINE
  5
18D31
330
18C7A
100
AcDbEntity
  8
部品1
100
AcDbLine
 10
1534.470589276487
 20
3154.494269174626
 30
0.0
 11
2769.470589276552
 21
3154.494269174626
 31
0.0
  0
LINE
  5
18D32
330
18C7A
100
AcDbEntity
  8
部品1
 48
50.0
100
AcDbLine
 10
1311.970589276523
 20
1420.494269174462
 30
0.0
 11
3411.970589276523
 21
1420.494269174465
 31
0.0
  0
LINE
  5
18D33
330
18C7A
100
AcDbEntity
  8
部品1
 48
50.0
100
AcDbLine
 10
471.9705892765232
 20
1392.494269174465
 30
0.0
 11
1311.970589276523
 21
1392.494269174465
 31
0.0
  0
DIMENSION
  5
18D34
330
18C7A
100
AcDbEntity
  8
寸法
100
AcDbDimension
  2
*D14
 10
2710.234916278077
 20
2488.887829538828
 30
0.0
 11
2338.318822490183
 21
2488.887829538828
 31
0.0
 12
-3742.925985830444
 22
-6453.628869860112
 32
0.0
 70
   128
 71
     5
 42
1231.00000000007
  3
INABA_S40G
100
AcDbAlignedDimension
 13
1536.470589276486
 23
2702.494269174557
 33
0.0
 14
2767.470589276556
 24
2702.494269174549
 34
0.0
100
AcDbRotatedDimension
1001
ACAD
1000
DSTYLE
1002
{
1002
}
  0
LINE
  5
18D35
330
18C7A
100
AcDbEntity
  8
部品1
100
AcDbLine
 10
1536.470589276487
 20
2702.494269174557
 30
0.0
 11
2767.470589276554
 21
2702.494269174615
 31
0.0
  0
LINE
  5
18D36
330
18C7A
100
AcDbEntity
  8
部品1
100
AcDbLine
 10
1536.470589276487
 20
3152.494269174557
 30
0.0
 11
2767.470589276556
 21
3152.494269174615
 31
0.0
  0
LINE
  5
18D37
330
18C7A
100
AcDbEntity
  8
細線
 48
50.0
100
AcDbLine
 10
1508.470589276487
 20
3152.494269174558
 30
0.0
 11
445.4705892765559
 21
2702.494269174509
 31
0.0
  0
LINE
  5
18D38
330
18C7A
100
AcDbEntity
  8
細線
 48
50.0
100
AcDbLine
 10
1508.470589276487
 20
2702.494269174558
 30
0.0
 11
445.4705892765542
 21
3152.494269174509
 31
0.0
  0
LINE
  5
18D39
330
18C7A
100
AcDbEntity
  8
部品1
100
AcDbLine
 10
1556.970589276487
 20
3172.494269174611
 30
0.0
 11
1556.970589276487
 21
3154.494269174611
 31
0.0
  0
LINE
  5
18D3A
330
18C7A
100
AcDbEntity
  8
部品1
100
AcDbLine
 10
1556.970589276487
 20
3172.494269174611
 30
0.0
 11
1550.970589276487
 21
3172.494269174611
 31
0.0
  0
LINE
  5
18D3B
330
18C7A
100
AcDbEntity
  8
部品1
100
AcDbLine
 10
1534.470589276487
 20
3146.494269174608
 30
0.0
 11
1509.470589276487
 21
3146.494269174611
 31
0.0
  0
LINE
  5
18D3C
330
18C7A
100
AcDbEntity
  8
部品1
100
AcDbLine
 10
1486.970589276487
 20
3172.494269174611
 30
0.0
 11
1486.970589276487
 21
3154.494269174611
 31
0.0
  0
LINE
  5
18D3D
330
18C7A
100
AcDbEntity
  8
部品1
100
AcDbLine
 10
1492.970589276487
 20
3172.494269174611
 30
0.0
 11
1486.970589276487
 21
3172.494269174611
 31
0.0
  0
LINE
  5
18D3E
330
18C7A
100
AcDbEntity
  8
部品1
100
AcDbLine
 10
1534.470589276487
 20
2702.494269174615
 30
0.0
 11
1509.470589276487
 21
2702.494269174615
 31
0.0
  0
LINE
  5
18D3F
330
18C7A
100
AcDbEntity
  8
部品1
 48
50.0
100
AcDbLine
 10
1536.470589276487
 20
3152.494269174611
 30
0.0
 11
1536.470589276487
 21
2702.494269174615
 31
0.0
  0
LINE
  5
18D40
330
18C7A
100
AcDbEntity
  8
部品1
 48
50.0
100
AcDbLine
 10
1508.470589276487
 20
3152.494269174607
 30
0.0
 11
1508.470589276487
 21
2702.494269174615
 31
0.0
  0
LINE
  5
18D41
330
18C7A
100
AcDbEntity
  8
部品1
 48
50.0
100
AcDbLine
 10
1534.470589276487
 20
3154.494269174618
 30
0.0
 11
1534.470589276487
 21
2702.494269174615
 31
0.0
  0
LINE
  5
18D42
330
18C7A
100
AcDbEntity
  8
部品1
 48
50.0
100
AcDbLine
 10
1509.470589276487
 20
3154.494269174615
 30
0.0
 11
1509.470589276487
 21
2702.494269174615
 31
0.0
  0
LINE
  5
18D43
330
18C7A
100
AcDbEntity
  8
部品1
100
AcDbLine
 10
3411.970589276556
 20
1392.494269174582
 30
0.0
 11
3411.970589276556
 21
1420.494269174596
 31
0.0
  0
LINE
  5
18D44
330
18C7A
100
AcDbEntity
  8
部品1
100
AcDbLine
 10
1311.970589276523
 20
1392.494269174596
 30
0.0
 11
1311.970589276523
 21
1420.494269174596
 31
0.0
  0
LINE
  5
18D45
330
18C7A
100
AcDbEntity
  8
部品1
100
AcDbLine
 10
891.9705892765232
 20
1392.494269174596
 30
0.0
 11
891.9705892765232
 21
1420.494269174596
 31
0.0
  0
LINE
  5
18D46
330
18C7A
100
AcDbEntity
  8
部品1
100
AcDbLine
 10
3411.97058927652
 20
3182.494269174477
 30
0.0
 11
3411.970589276523
 21
3154.494269174477
 31
0.0
  0
LINE
  5
18D47
330
18C7A
100
AcDbEntity
  8
部品1
100
AcDbLine
 10
2571.97058927652
 20
3182.494269174477
 30
0.0
 11
2571.970589276523
 21
3154.494269174477
 31
0.0
  0
LINE
  5
18D48
330
18C7A
100
AcDbEntity
  8
部品1
100
AcDbLine
 10
2991.97058927652
 20
3182.494269174477
 30
0.0
 11
2991.970589276523
 21
3154.494269174477
 31
0.0
  0
LINE
  5
18D49
330
18C7A
100
AcDbEntity
  8
部品1
100
AcDbLine
 10
2151.970589276519
 20
3182.494269174477
 30
0.0
 11
2151.970589276523
 21
3154.494269174477
 31
0.0
  0
LINE
  5
18D4A
330
18C7A
100
AcDbEntity
  8
部品1
100
AcDbLine
 10
1731.970589276519
 20
3182.494269174477
 30
0.0
 11
1731.970589276523
 21
3154.494269174477
 31
0.0
  0
LINE
  5
18D4B
330
18C7A
100
AcDbEntity
  8
部品1
100
AcDbLine
 10
1311.970589276519
 20
3182.494269174477
 30
0.0
 11
1311.970589276523
 21
3154.494269174477
 31
0.0
  0
LINE
  5
18D4C
330
18C7A
100
AcDbEntity
  8
部品1
100
AcDbLine
 10
891.9705892765195
 20
3182.494269174477
 30
0.0
 11
891.9705892765232
 21
3154.494269174477
 31
0.0
  0
LINE
  5
18D4D
330
18C7A
100
AcDbEntity
  8
部品1
100
AcDbLine
 10
471.9705892765232
 20
1392.494269174596
 30
0.0
 11
471.9705892765232
 21
1420.494269174596
 31
0.0
  0
LINE
  5
18D4E
330
18C7A
100
AcDbEntity
  8
部品1
100
AcDbLine
 10
444.9705892765305
 20
1420.494269174558
 30
0.0
 11
3858.970589276556
 21
1420.494269174596
 31
0.0
  0
LINE
  5
18D4F
330
18C7A
100
AcDbEntity
  8
部品1
100
AcDbLine
 10
3831.970589276556
 20
1392.494269174596
 30
0.0
 11
3831.970589276556
 21
1420.494269174596
 31
0.0
  0
LINE
  5
18D50
330
18C7A
100
AcDbEntity
  8
部品1
100
AcDbLine
 10
3858.970589276556
 20
1447.494269174593
 30
0.0
 11
3886.970589276556
 21
1447.494269174593
 31
0.0
  0
LINE
  5
18D51
330
18C7A
100
AcDbEntity
  8
部品1
100
AcDbLine
 10
3858.970589276556
 20
1867.494269174607
 30
0.0
 11
3886.970589276556
 21
1867.494269174607
 31
0.0
  0
LINE
  5
18D52
330
18C7A
100
AcDbEntity
  8
部品1
100
AcDbLine
 10
444.9705892765305
 20
1867.49426917448
 30
0.0
 11
416.9705892765305
 21
1867.49426917448
 31
0.0
  0
LINE
  5
18D53
330
18C7A
100
AcDbEntity
  8
部品1
100
AcDbLine
 10
3830.470589276541
 20
1867.49426917458
 30
0.0
 11
473.4705892765396
 21
1867.49426917448
 31
0.0
  0
LINE
  5
18D54
330
18C7A
100
AcDbEntity
  8
部品1
100
AcDbLine
 10
3830.470589276541
 20
2287.49426917458
 30
0.0
 11
473.4705892765396
 21
2287.49426917448
 31
0.0
  0
LINE
  5
18D55
330
18C7A
100
AcDbEntity
  8
部品1
100
AcDbLine
 10
444.9705892765305
 20
2287.49426917448
 30
0.0
 11
416.9705892765305
 21
2287.49426917448
 31
0.0
  0
LINE
  5
18D56
330
18C7A
100
AcDbEntity
  8
部品1
100
AcDbLine
 10
3858.970589276556
 20
2287.494269174608
 30
0.0
 11
3886.970589276556
 21
2287.494269174608
 31
0.0
  0
LINE
  5
18D57
330
18C7A
100
AcDbEntity
  8
部品1
 48
50.0
100
AcDbLine
 10
2151.970589276551
 20
2702.494269174586
 30
0.0
 11
2151.970589276581
 21
1448.994269174494
 31
0.0
  0
LINE
  5
18D58
330
18C7A
100
AcDbEntity
  8
破線
 48
10.0
100
AcDbLine
 10
2959.470589276535
 20
1472.494269174522
 30
0.0
 11
2176.970589276532
 21
1472.494269174505
 31
0.0
  0
LINE
  5
18D59
330
18C7A
100
AcDbEntity
  8
破線
 48
10.0
100
AcDbLine
 10
3009.47058927653
 20
1448.994269174509
 30
0.0
 11
3009.47058927653
 21
2702.494269174615
 31
0.0
  0
LINE
  5
18D5A
330
18C7A
100
AcDbEntity
  8
破線
 48
10.0
100
AcDbLine
 10
2959.470589276535
 20
1448.994269174505
 30
0.0
 11
2959.470589276531
 21
2702.494269174615
 31
0.0
  0
LINE
  5
18D5B
330
18C7A
100
AcDbEntity
  8
破線
 48
10.0
100
AcDbLine
 10
1344.47058927653
 20
1448.994269174509
 30
0.0
 11
1344.47058927653
 21
2702.494269174615
 31
0.0
  0
LINE
  5
18D5C
330
18C7A
100
AcDbEntity
  8
破線
 48
10.0
100
AcDbLine
 10
1294.470589276534
 20
1448.994269174505
 30
0.0
 11
1294.47058927653
 21
2702.494269174615
 31
0.0
  0
DIMENSION
  5
18D5D
330
18C7A
100
AcDbEntity
  8
寸法
100
AcDbDimension
  2
*D13
 10
1451.234916278005
 20
2488.887829538828
 30
0.0
 11
916.0604668248634
 21
2488.887829538828
 31
0.0
 12
-3742.925985830444
 22
-6453.628869860112
 32
0.0
 70
   128
 71
     5
 42
1062.99999999993
  3
INABA_S40G
100
AcDbAlignedDimension
 13
445.4705892765559
 23
2702.494269174505
 33
0.0
 14
1508.470589276486
 24
2702.494269174558
 34
0.0
100
AcDbRotatedDimension
1001
ACAD
1000
DSTYLE
1002
{
1002
}
  0
LINE
  5
18D5E
330
18C7A
100
AcDbEntity
  8
破線
 48
10.0
100
AcDbLine
 10
1294.470589276534
 20
1472.494269174469
 30
0.0
 11
496.9705892765414
 21
1472.494269174476
 31
0.0
  0
LINE
  5
18D5F
330
18C7A
100
AcDbEntity
  8
部品1
100
AcDbLine
 10
3831.970589276556
 20
3182.494269174604
 30
0.0
 11
3831.970589276556
 21
3154.494269174604
 31
0.0
  0
LINE
  5
18D60
330
18C7A
100
AcDbEntity
  8
部品1
100
AcDbLine
 10
3831.970589276556
 20
3182.494269174626
 30
0.0
 11
3831.970589276556
 21
3154.494269174626
 31
0.0
  0
LINE
  5
18D61
330
18C7A
100
AcDbEntity
  8
部品1
100
AcDbLine
 10
3858.970589276556
 20
3127.494269174607
 30
0.0
 11
3886.970589276556
 21
3127.494269174607
 31
0.0
  0
LINE
  5
18D62
330
18C7A
100
AcDbEntity
  8
部品1
100
AcDbLine
 10
3858.970589276556
 20
2707.494269174608
 30
0.0
 11
3886.970589276556
 21
2707.494269174608
 31
0.0
  0
LINE
  5
18D63
330
18C7A
100
AcDbEntity
  8
部品1
100
AcDbLine
 10
3858.470589276556
 20
3152.494269174604
 30
0.0
 11
3858.470589276556
 21
2702.494269174608
 31
0.0
  0
LINE
  5
18D64
330
18C7A
100
AcDbEntity
  8
部品1
100
AcDbLine
 10
3886.970589276533
 20
1447.494269174593
 30
0.0
 11
3886.970589276531
 21
1392.494269174596
 31
0.0
  0
LINE
  5
18D65
330
18C7A
100
AcDbEntity
  8
部品1
 48
50.0
100
AcDbLine
 10
3830.470589276556
 20
1448.994269174596
 30
0.0
 11
3858.970589276554
 21
1420.494269174596
 31
0.0
  0
LINE
  5
18D66
330
18C7A
100
AcDbEntity
  8
部品1
100
AcDbLine
 10
3886.970589276531
 20
1392.494269174596
 30
0.0
 11
3835.970589276531
 21
1392.494269174596
 31
0.0
  0
LINE
  5
18D67
330
18C7A
100
AcDbEntity
  8
部品1
100
AcDbLine
 10
3858.970589276533
 20
1447.494269174593
 30
0.0
 11
3886.970589276531
 21
1447.494269174593
 31
0.0
  0
LINE
  5
18D68
330
18C7A
100
AcDbEntity
  8
部品1
100
AcDbLine
 10
3886.970589276556
 20
3182.494269174604
 30
0.0
 11
3886.970589276531
 21
1392.494269174596
 31
0.0
  0
DIMENSION
  5
18D69
330
18C7A
100
AcDbEntity
  8
寸法
100
AcDbDimension
  2
*D12
 10
4534.396935010967
 20
1447.494269174593
 30
0.0
 11
4534.396935010965
 21
2287.4942691746
 31
0.0
 12
-3742.925985830444
 22
-6453.628869860112
 32
0.0
 70
   128
  1
4X420=<>
 71
     5
 42
1680.000000000014
  3
INABA_S40G
100
AcDbAlignedDimension
 13
3886.970589276556
 23
3127.494269174607
 33
0.0
 14
3886.970589276531
 24
1447.494269174593
 34
0.0
 50
90.0
100
AcDbRotatedDimension
1001
ACAD
1000
DSTYLE
1002
{
1002
}
  0
LINE
  5
18D6A
330
18C7A
100
AcDbEntity
  8
部品1
100
AcDbLine
 10
3858.970589276556
 20
3154.494269174604
 30
0.0
 11
3858.970589276534
 21
1420.494269174596
 31
0.0
  0
DIMENSION
  5
18D6B
330
18C7A
100
AcDbEntity
  8
寸法
100
AcDbDimension
  2
*D11
 10
4213.82831513858
 20
2607.276453505718
 30
0.0
 11
4113.828315138579
 21
2832.276453505718
 31
0.0
 12
-3742.925985830444
 22
-6453.628869860112
 32
0.0
 71
     5
 42
449.9999999999963
  3
INABA_S40G
100
AcDbAlignedDimension
 13
3858.470589276556
 23
3152.494269174604
 33
0.0
 14
3858.470589276556
 24
2702.494269174608
 34
0.0
 50
90.0
100
AcDbRotatedDimension
1001
ACAD
1000
DSTYLE
1002
{
1002
}
  0
LINE
  5
18D6C
330
18C7A
100
AcDbEntity
  8
部品1
100
AcDbLine
 10
3830.470589276547
 20
2702.494269174608
 30
0.0
 11
3830.470589276556
 21
1448.994269174596
 31
0.0
  0
LINE
  5
18D6D
330
18C7A
100
AcDbEntity
  8
破線
 48
10.0
100
AcDbLine
 10
3806.970589276549
 20
2702.494269174608
 30
0.0
 11
3806.970589276558
 21
1472.494269174593
 31
0.0
  0
LINE
  5
18D6E
330
18C7A
100
AcDbEntity
  8
部品1
100
AcDbLine
 10
2769.470589276556
 20
3146.494269174608
 30
0.0
 11
2794.470589276556
 21
3146.494269174611
 31
0.0
  0
LINE
  5
18D6F
330
18C7A
100
AcDbEntity
  8
部品1
100
AcDbLine
 10
2810.970589276556
 20
3172.494269174611
 30
0.0
 11
2816.970589276556
 21
3172.494269174611
 31
0.0
  0
LINE
  5
18D70
330
18C7A
100
AcDbEntity
  8
部品1
100
AcDbLine
 10
2816.970589276556
 20
3172.494269174611
 30
0.0
 11
2816.970589276556
 21
3154.494269174611
 31
0.0
  0
LINE
  5
18D71
330
18C7A
100
AcDbEntity
  8
部品1
100
AcDbLine
 10
2746.970589276556
 20
3172.494269174611
 30
0.0
 11
2752.970589276556
 21
3172.494269174611
 31
0.0
  0
LINE
  5
18D72
330
18C7A
100
AcDbEntity
  8
部品1
100
AcDbLine
 10
2746.970589276556
 20
3172.494269174611
 30
0.0
 11
2746.970589276556
 21
3154.494269174611
 31
0.0
  0
LINE
  5
18D73
330
18C7A
100
AcDbEntity
  8
部品1
100
AcDbLine
 10
2769.470589276556
 20
2702.494269174615
 30
0.0
 11
2794.470589276556
 21
2702.494269174615
 31
0.0
  0
LINE
  5
18D74
330
18C7A
100
AcDbEntity
  8
部品1
 48
50.0
100
AcDbLine
 10
2794.470589276556
 20
3154.494269174615
 30
0.0
 11
2794.470589276556
 21
2702.494269174615
 31
0.0
  0
LINE
  5
18D75
330
18C7A
100
AcDbEntity
  8
部品1
 48
50.0
100
AcDbLine
 10
2769.470589276554
 20
3154.494269174618
 30
0.0
 11
2769.470589276556
 21
2702.494269174615
 31
0.0
  0
LINE
  5
18D76
330
18C7A
100
AcDbEntity
  8
部品1
 48
50.0
100
AcDbLine
 10
2795.470589276556
 20
3152.494269174607
 30
0.0
 11
2795.470589276556
 21
2702.494269174615
 31
0.0
  0
LINE
  5
18D77
330
18C7A
100
AcDbEntity
  8
部品1
 48
50.0
100
AcDbLine
 10
2767.470589276556
 20
3152.494269174611
 30
0.0
 11
2767.470589276556
 21
2702.494269174615
 31
0.0
  0
LINE
  5
18D78
330
18C7A
100
AcDbEntity
  8
破線
 48
10.0
100
AcDbLine
 10
2176.97058927653
 20
1448.994269174509
 30
0.0
 11
2176.97058927653
 21
2702.494269174588
 31
0.0
  0
LINE
  5
18D79
330
18C7A
100
AcDbEntity
  8
破線
 48
10.0
100
AcDbLine
 10
2126.970589276534
 20
1448.994269174505
 30
0.0
 11
2126.970589276531
 21
2702.494269174586
 31
0.0
  0
LINE
  5
18D7A
330
18C7A
100
AcDbEntity
  8
部品1
100
AcDbLine
 10
2794.470589276556
 20
3154.494269174622
 30
0.0
 11
3858.970589276556
 21
3154.494269174604
 31
0.0
  0
LINE
  5
18D7B
330
18C7A
100
AcDbEntity
  8
細線
 48
50.0
100
AcDbLine
 10
3858.470589276556
 20
2702.494269174608
 30
0.0
 11
2795.470589276556
 21
3152.494269174607
 31
0.0
  0
LINE
  5
18D7C
330
18C7A
100
AcDbEntity
  8
部品1
100
AcDbLine
 10
2795.470589276555
 20
2702.494269174615
 30
0.0
 11
3858.470589276556
 21
2702.494269174608
 31
0.0
  0
LINE
  5
18D7D
330
18C7A
100
AcDbEntity
  8
部品1
100
AcDbLine
 10
2795.470589276556
 20
3152.494269174611
 30
0.0
 11
3858.470589276556
 21
3152.494269174604
 31
0.0
  0
LINE
  5
18D7E
330
18C7A
100
AcDbEntity
  8
細線
 48
50.0
100
AcDbLine
 10
3858.470589276556
 20
3152.494269174604
 30
0.0
 11
2795.470589276555
 21
2702.494269174615
 31
0.0
  0
DIMENSION
  5
18D7F
330
18C7A
100
AcDbEntity
  8
寸法
100
AcDbDimension
  2
*D10
 10
3801.234916278101
 20
2488.887829538937
 30
0.0
 11
3318.360544398907
 21
2488.887829538937
 31
0.0
 12
-3742.925985830444
 22
-6453.628869860112
 32
0.0
 70
   128
 71
     5
 42
1063.000000000012
  3
INABA_S40G
100
AcDbAlignedDimension
 13
2795.470589276555
 23
2702.494269174615
 33
0.0
 14
3858.470589276567
 24
2702.494269174608
 34
0.0
100
AcDbRotatedDimension
1001
ACAD
1000
DSTYLE
1002
{
1002
}
  0
LINE
  5
18D80
330
18C7A
100
AcDbEntity
  8
破線
 48
10.0
100
AcDbLine
 10
3806.970589276556
 20
1472.494269174594
 30
0.0
 11
3009.47058927653
 21
1472.494269174523
 31
0.0
  0
DIMENSION
  5
18D81
330
18C7A
100
AcDbEntity
  8
寸法
100
AcDbDimension
  2
*D9
 10
4534.396935010941
 20
1392.494269174596
 30
0.0
 11
4534.39693501094
 21
1084.008987800356
 31
0.0
 12
-3742.925985830444
 22
-6453.628869860112
 32
0.0
 70
   128
 71
     5
 42
54.99999999999636
  3
INABA_S40G
100
AcDbAlignedDimension
 13
3886.970589276531
 23
1447.494269174593
 33
0.0
 14
3886.970589276531
 24
1392.494269174596
 34
0.0
 50
90.0
100
AcDbRotatedDimension
1001
ACAD
1000
DSTYLE
1002
{
1002
}
  0
LINE
  5
18D82
330
18C7A
100
AcDbEntity
  8
部品1
100
AcDbLine
 10
471.9705892765196
 20
3182.494269174477
 30
0.0
 11
471.9705892765232
 21
3154.494269174477
 31
0.0
  0
LINE
  5
18D83
330
18C7A
100
AcDbEntity
  8
部品1
100
AcDbLine
 10
471.9705892765559
 20
3182.494269174509
 30
0.0
 11
471.9705892765559
 21
3154.494269174509
 31
0.0
  0
LINE
  5
18D84
330
18C7A
100
AcDbEntity
  8
部品1
100
AcDbLine
 10
444.9705892765232
 20
3127.49426917448
 30
0.0
 11
416.9705892765232
 21
3127.49426917448
 31
0.0
  0
LINE
  5
18D85
330
18C7A
100
AcDbEntity
  8
部品1
100
AcDbLine
 10
444.9705892765305
 20
2707.49426917448
 30
0.0
 11
416.9705892765305
 21
2707.49426917448
 31
0.0
  0
LINE
  5
18D86
330
18C7A
100
AcDbEntity
  8
部品1
 48
50.0
100
AcDbLine
 10
445.4705892765542
 20
3152.494269174506
 30
0.0
 11
445.4705892765559
 21
2702.494269174505
 31
0.0
  0
LINE
  5
18D87
330
18C7A
100
AcDbEntity
  8
部品1
 48
50.0
100
AcDbLine
 10
473.470589276545
 20
1448.994269174573
 30
0.0
 11
444.970589276545
 21
1420.494269174574
 31
0.0
  0
LINE
  5
18D88
330
18C7A
100
AcDbEntity
  8
部品1
100
AcDbLine
 10
471.9705892765232
 20
1392.494269174465
 30
0.0
 11
416.9705892765486
 21
1392.494269174465
 31
0.0
  0
LINE
  5
18D89
330
18C7A
100
AcDbEntity
  8
部品1
100
AcDbLine
 10
444.9705892765305
 20
1447.494269174429
 30
0.0
 11
416.9705892765469
 21
1447.494269174429
 31
0.0
  0
LINE
  5
18D8A
330
18C7A
100
AcDbEntity
  8
部品1
100
AcDbLine
 10
444.9705892765305
 20
1447.494269174465
 30
0.0
 11
416.9705892765469
 21
1447.494269174465
 31
0.0
  0
LINE
  5
18D8B
330
18C7A
100
AcDbEntity
  8
部品1
100
AcDbLine
 10
444.9705892765469
 20
1447.49426917448
 30
0.0
 11
416.9705892765469
 21
1447.49426917448
 31
0.0
  0
LINE
  5
18D8C
330
18C7A
100
AcDbEntity
  8
部品1
100
AcDbLine
 10
416.9705892765469
 20
1447.494269174429
 30
0.0
 11
416.9705892765486
 21
1392.494269174433
 31
0.0
  0
LINE
  5
18D8D
330
18C7A
100
AcDbEntity
  8
部品1
100
AcDbLine
 10
416.9705892765196
 20
3182.494269174477
 30
0.0
 11
416.9705892765486
 21
1392.494269174465
 31
0.0
  0
LINE
  5
18D8E
330
18C7A
100
AcDbEntity
  8
部品1
100
AcDbLine
 10
444.9705892765305
 20
1420.494269174556
 30
0.0
 11
444.9705892765559
 21
3154.494269174509
 31
0.0
  0
LINE
  5
18D8F
330
18C7A
100
AcDbEntity
  8
部品1
100
AcDbLine
 10
473.4705892765323
 20
2702.494269174608
 30
0.0
 11
473.470589276545
 21
1448.994269174571
 31
0.0
  0
LINE
  5
18D90
330
18C7A
100
AcDbEntity
  8
破線
 48
10.0
100
AcDbLine
 10
496.9705892765305
 20
2702.494269174608
 30
0.0
 11
496.9705892765451
 21
1472.494269174476
 31
0.0
  0
DIMENSION
  5
18D91
330
18C7A
100
AcDbEntity
  8
寸法
100
AcDbDimension
  2
*D8
 10
3886.970589276531
 20
410.7433333855515
 30
0.0
 11
2168.197775309287
 21
410.7433333855515
 31
0.0
 12
-3742.925985830444
 22
-6453.628869860112
 32
0.0
 70
   128
 71
     5
 42
3469.999999999982
  3
INABA_S40G
100
AcDbAlignedDimension
 13
416.9705892765486
 23
1392.494269174433
 33
0.0
 14
3886.970589276531
 24
1392.49426917456
 34
0.0
100
AcDbRotatedDimension
1001
ACAD
1000
DSTYLE
1002
{
1070
   341
1005
0
1002
}
  0
LINE
  5
18D92
330
18C7A
100
AcDbEntity
  8
部品1
100
AcDbLine
 10
444.9705892765559
 20
3154.494269174624
 30
0.0
 11
1509.470589276487
 21
3154.494269174626
 31
0.0
  0
LINE
  5
18D93
330
18C7A
100
AcDbEntity
  8
部品1
100
AcDbLine
 10
3886.970589276531
 20
1392.494269174596
 30
0.0
 11
3411.970589276556
 21
1392.494269174582
 31
0.0
  0
LINE
  5
18D94
330
18C7A
100
AcDbEntity
  8
部品1
100
AcDbLine
 10
416.9705892765559
 20
3182.494269174509
 30
0.0
 11
3886.970589276556
 21
3182.494269174604
 31
0.0
  0
LINE
  5
18D95
330
18C7A
100
AcDbEntity
  8
部品1
100
AcDbLine
 10
445.4705892765559
 20
2702.494269174509
 30
0.0
 11
1508.470589276487
 21
2702.494269174558
 31
0.0
  0
LINE
  5
18D96
330
18C7A
100
AcDbEntity
  8
細線
 48
50.0
100
AcDbLine
 10
2767.470589276556
 20
3152.494269174611
 30
0.0
 11
1536.470589276487
 21
2702.494269174558
 31
0.0
  0
LINE
  5
18D97
330
18C7A
100
AcDbEntity
  8
部品1
100
AcDbLine
 10
445.4705892765542
 20
3152.494269174509
 30
0.0
 11
1508.470589276485
 21
3152.494269174558
 31
0.0
  0
LINE
  5
18D98
330
18C7A
100
AcDbEntity
  8
細線
 48
50.0
100
AcDbLine
 10
2767.470589276554
 20
2702.494269174615
 30
0.0
 11
1536.470589276485
 21
3152.494269174558
 31
0.0
  0
LINE
  5
18D99
330
18C7A
100
AcDbEntity
  8
破線
 48
10.0
100
AcDbLine
 10
2126.970589276534
 20
1472.494269174502
 30
0.0
 11
1344.47058927653
 21
1472.494269174473
 31
0.0
  0
LINE
  5
18D9A
330
18C7A
100
AcDbEntity
  8
部品1
100
AcDbLine
 10
3830.470589276556
 20
1448.994269174596
 30
0.0
 11
473.4705892764487
 21
1448.994269174476
 31
0.0
  0
DIMENSION
  5
18D9B
330
18C7A
100
AcDbEntity
  8
寸法
100
AcDbDimension
  2
*D7
 10
471.970589276555
 20
3698.302488799491
 30
0.0
 11
108.4853079022819
 21
3698.302488799491
 31
0.0
 12
-3742.925985830444
 22
-6453.628869860112
 32
0.0
 70
   128
 71
     5
 42
55.00000000003456
  3
INABA_S40G
100
AcDbAlignedDimension
 13
416.9705892765205
 23
3182.494269174509
 33
0.0
 14
471.970589276555
 24
3182.494269174509
 34
0.0
100
AcDbRotatedDimension
1001
ACAD
1000
DSTYLE
1002
{
1002
}
  0
DIMENSION
  5
18D9C
330
18C7A
100
AcDbEntity
  8
寸法
100
AcDbDimension
  2
*D6
 10
4534.396935010967
 20
3127.494269174607
 30
0.0
 11
4534.396935010965
 21
3490.979550548844
 31
0.0
 12
-3742.925985830444
 22
-6453.628869860112
 32
0.0
 70
   128
 71
     5
 42
54.99999999999636
  3
INABA_S40G
100
AcDbAlignedDimension
 13
3886.970589276556
 23
3182.494269174604
 33
0.0
 14
3886.970589276556
 24
3127.494269174607
 34
0.0
 50
90.0
100
AcDbRotatedDimension
1001
ACAD
1000
DSTYLE
1002
{
1002
}
  0
DIMENSION
  5
18D9D
330
18C7A
100
AcDbEntity
  8
寸法
100
AcDbDimension
  2
*D5
 10
3886.970589276556
 20
3698.302488799589
 30
0.0
 11
4195.455870650794
 21
3698.302488799589
 31
0.0
 12
-3742.925985830444
 22
-6453.628869860112
 32
0.0
 70
   128
 71
     5
 42
55.0
  3
INABA_S40G
100
AcDbAlignedDimension
 13
3831.970589276556
 23
3182.494269174604
 33
0.0
 14
3886.970589276556
 24
3182.494269174604
 34
0.0
100
AcDbRotatedDimension
1001
ACAD
1000
DSTYLE
1002
{
1002
}
  0
DIMENSION
  5
18D9E
330
18C7A
100
AcDbEntity
  8
寸法
100
AcDbDimension
  2
*D4
 10
3831.970589276556
 20
3698.302488799607
 30
0.0
 11
2151.970589276555
 21
3698.302488799607
 31
0.0
 12
-3742.925985830444
 22
-6453.628869860112
 32
0.0
 70
   128
  1
8X420=<>
 71
     5
 42
3360.000000000001
  3
INABA_S40G
100
AcDbAlignedDimension
 13
471.970589276555
 23
3182.494269174509
 33
0.0
 14
3831.970589276556
 24
3182.494269174604
 34
0.0
100
AcDbRotatedDimension
1001
ACAD
1000
DSTYLE
1002
{
1002
}
  0
DIMENSION
  5
18D9F
330
18C7A
100
AcDbEntity
  8
寸法
100
AcDbDimension
  2
*D3
 10
4899.503876750603
 20
1392.494269174596
 30
0.0
 11
4899.503876750601
 21
2287.4942691746
 31
0.0
 12
-3742.925985830444
 22
-6453.628869860112
 32
0.0
 70
   128
 71
     5
 42
1790.000000000007
  3
INABA_S40G
100
AcDbAlignedDimension
 13
3886.970589276556
 23
3182.494269174604
 33
0.0
 14
3886.970589276531
 24
1392.494269174596
 34
0.0
 50
90.0
100
AcDbRotatedDimension
1001
ACAD
1000
DSTYLE
1002
{
1002
}
  0
ENDBLK
  5
18DA1
330
18C7A
100
AcDbEntity
  8
0
 48
50.0
100
AcDbBlockEnd
  0
BLOCK
  5
1C4CB
330
1C4CA
100
AcDbEntity
  8
0
 48
50.0
100
AcDbBlockBegin
  2
_NONE
 70
     0
 10
0.0
 20
0.0
 30
0.0
  3
_NONE
  1

  0
CIRCLE
  5
1C4CC
330
1C4CA
100
AcDbEntity
  8
0
  6
ByBlock
 62
     0
 48
50.0
100
AcDbCircle
 10
0.0
 20
0.0
 30
0.0
 40
0.25
  0
ENDBLK
  5
1C4CD
330
1C4CA
100
AcDbEntity
  8
0
 48
50.0
100
AcDbBlockEnd
  0
BLOCK
  5
20DEE
330
20DE2
100
AcDbEntity
  8
0
 48
50.0
100
AcDbBlockBegin
  2
*D19
 70
     1
 10
0.0
 20
0.0
 30
0.0
  3
*D19
  1

  0
LINE
  5
2545F
330
20DE2
100
AcDbEntity
  8
寸法
 62
     0
 48
50.0
370
    -2
100
AcDbLine
 10
9653.6
 20
7571.145815749162
 30
0.0
 11
9653.6
 21
8569.366137808083
 31
0.0
  0
LINE
  5
25460
330
20DE2
100
AcDbEntity
  8
寸法
 62
     0
 48
50.0
370
    -2
100
AcDbLine
 10
9698.6
 20
8297.412273843072
 30
0.0
 11
9698.6
 21
8569.366137808083
 31
0.0
  0
LINE
  5
25461
330
20DE2
100
AcDbEntity
  8
寸法
 62
     0
 48
50.0
370
    -2
100
AcDbLine
 10
9653.6
 20
8509.366137808084
 30
0.0
 11
9553.600000000001
 21
8509.366137808084
 31
0.0
  0
LINE
  5
25462
330
20DE2
100
AcDbEntity
  8
寸法
 62
     0
 48
50.0
370
    -2
100
AcDbLine
 10
9698.6
 20
8509.366137808084
 30
0.0
 11
10035.94924240492
 21
8509.366137808084
 31
0.0
  0
LINE
  5
25463
330
20DE2
100
AcDbEntity
  8
寸法
 62
     0
 48
50.0
370
    -2
100
AcDbLine
 10
9653.6
 20
8509.366137808084
 30
0.0
 11
9698.6
 21
8509.366137808084
 31
0.0
  0
INSERT
  5
25464
330
20DE2
100
AcDbEntity
  8
寸法
 62
     0
 48
50.0
370
    -2
100
AcDbBlockReference
  2
_DOTSMALL
 10
9653.6
 20
8509.366137808084
 30
0.0
 41
100.0
 42
100.0
 43
100.0
  0
INSERT
  5
25465
330
20DE2
100
AcDbEntity
  8
寸法
 62
     0
 48
50.0
370
    -2
100
AcDbBlockReference
  2
_DOTSMALL
 10
9698.6
 20
8509.366137808084
 30
0.0
 41
100.0
 42
100.0
 43
100.0
 50
180.0
  0
MTEXT
  5
25466
330
20DE2
100
AcDbEntity
  8
寸法
 62
     7
 48
50.0
100
AcDbMText
 10
9969.774621202461
 20
8609.366137808084
 30
0.0
 40
120.0
 41
0.0
 71
     5
 72
     1
  1
\A1;a
  7
STYLE1
 73
     1
 44
1.0
1001
ACAD
1000
MTEXTBEGIN
1070
    73
1070
     1
1070
    44
1040
1.0
1070
    74
1070
     0
1000
MTEXTEND
  0
POINT
  5
25467
330
20DE2
100
AcDbEntity
  8
DEFPOINTS
 62
     0
 48
50.0
100
AcDbPoint
 10
9653.6
 20
7551.145815749162
 30
0.0
  0
POINT
  5
25468
330
20DE2
100
AcDbEntity
  8
DEFPOINTS
 62
     0
 48
50.0
100
AcDbPoint
 10
9698.6
 20
8277.412273843072
 30
0.0
  0
POINT
  5
25469
330
20DE2
100
AcDbEntity
  8
DEFPOINTS
 62
     0
 48
50.0
100
AcDbPoint
 10
9698.6
 20
8509.366137808084
 30
0.0
  0
ENDBLK
  5
20DEF
330
20DE2
100
AcDbEntity
  8
0
 48
50.0
100
AcDbBlockEnd
  0
BLOCK
  5
20E08
330
20DFC
100
AcDbEntity
  8
0
 48
50.0
100
AcDbBlockBegin
  2
*D20
 70
     1
 10
0.0
 20
0.0
 30
0.0
  3
*D20
  1

  0
LINE
  5
25488
330
20DFC
100
AcDbEntity
  8
寸法
 62
     0
 48
50.0
370
    -2
100
AcDbLine
 10
6748.600000000005
 20
8297.412273843075
 30
0.0
 11
6748.600000000005
 21
8569.366137808083
 31
0.0
  0
LINE
  5
25489
330
20DFC
100
AcDbEntity
  8
寸法
 62
     0
 48
50.0
370
    -2
100
AcDbLine
 10
6793.600000000001
 20
7571.145815749162
 30
0.0
 11
6793.600000000001
 21
8569.366137808083
 31
0.0
  0
LINE
  5
2548A
330
20DFC
100
AcDbEntity
  8
寸法
 62
     0
 48
50.0
370
    -2
100
AcDbLine
 10
6793.600000000001
 20
8509.366137808084
 30
0.0
 11
6893.600000000001
 21
8509.366137808084
 31
0.0
  0
LINE
  5
2548B
330
20DFC
100
AcDbEntity
  8
寸法
 62
     0
 48
50.0
370
    -2
100
AcDbLine
 10
6748.600000000005
 20
8509.366137808084
 30
0.0
 11
6411.250757595083
 21
8509.366137808084
 31
0.0
  0
LINE
  5
2548C
330
20DFC
100
AcDbEntity
  8
寸法
 62
     0
 48
50.0
370
    -2
100
AcDbLine
 10
6793.600000000001
 20
8509.366137808084
 30
0.0
 11
6748.600000000005
 21
8509.366137808084
 31
0.0
  0
INSERT
  5
2548D
330
20DFC
100
AcDbEntity
  8
寸法
 62
     0
 48
50.0
370
    -2
100
AcDbBlockReference
  2
_DOTSMALL
 10
6793.600000000001
 20
8509.366137808084
 30
0.0
 41
100.0
 42
100.0
 43
100.0
 50
180.0
  0
INSERT
  5
2548E
330
20DFC
100
AcDbEntity
  8
寸法
 62
     0
 48
50.0
370
    -2
100
AcDbBlockReference
  2
_DOTSMALL
 10
6748.600000000005
 20
8509.366137808084
 30
0.0
 41
100.0
 42
100.0
 43
100.0
  0
MTEXT
  5
2548F
330
20DFC
100
AcDbEntity
  8
寸法
 62
     7
 48
50.0
100
AcDbMText
 10
6477.425378797541
 20
8609.366137808084
 30
0.0
 40
120.0
 41
0.0
 71
     5
 72
     1
  1
\A1;a
  7
STYLE1
 73
     1
 44
1.0
1001
ACAD
1000
MTEXTBEGIN
1070
    73
1070
     1
1070
    44
1040
1.0
1070
    74
1070
     0
1000
MTEXTEND
  0
POINT
  5
25490
330
20DFC
100
AcDbEntity
  8
DEFPOINTS
 62
     0
 48
50.0
100
AcDbPoint
 10
6748.600000000005
 20
8277.412273843074
 30
0.0
  0
POINT
  5
25491
330
20DFC
100
AcDbEntity
  8
DEFPOINTS
 62
     0
 48
50.0
100
AcDbPoint
 10
6793.600000000001
 20
7551.145815749162
 30
0.0
  0
POINT
  5
25492
330
20DFC
100
AcDbEntity
  8
DEFPOINTS
 62
     0
 48
50.0
100
AcDbPoint
 10
6793.600000000001
 20
8509.366137808084
 30
0.0
  0
ENDBLK
  5
20E09
330
20DFC
100
AcDbEntity
  8
0
 48
50.0
100
AcDbBlockEnd
  0
BLOCK
  5
2274E
330
22742
100
AcDbEntity
  8
0
 48
50.0
100
AcDbBlockBegin
  2
*D21
 70
     1
 10
0.0
 20
0.0
 30
0.0
  3
*D21
  1

  0
LINE
  5
25493
330
22742
100
AcDbEntity
  8
寸法
 62
     0
 48
50.0
370
    -2
100
AcDbLine
 10
6150.665006330069
 20
7626.145815749167
 30
0.0
 11
5858.721909610675
 21
7626.145815749168
 31
0.0
  0
LINE
  5
25494
330
22742
100
AcDbEntity
  8
寸法
 62
     0
 48
50.0
370
    -2
100
AcDbLine
 10
6773.6
 20
7551.145815749162
 30
0.0
 11
5858.721909610675
 21
7551.145815749163
 31
0.0
  0
LINE
  5
25495
330
22742
100
AcDbEntity
  8
寸法
 62
     0
 48
50.0
370
    -2
100
AcDbLine
 10
5918.721909610674
 20
7626.145815749168
 30
0.0
 11
5918.721909610674
 21
7726.145815749169
 31
0.0
  0
LINE
  5
25496
330
22742
100
AcDbEntity
  8
寸法
 62
     0
 48
50.0
370
    -2
100
AcDbLine
 10
5918.721909610674
 20
7551.145815749163
 30
0.0
 11
5918.721909610674
 21
7451.145815749163
 31
0.0
  0
LINE
  5
25497
330
22742
100
AcDbEntity
  8
寸法
 62
     0
 48
50.0
370
    -2
100
AcDbLine
 10
5918.721909610674
 20
7626.145815749168
 30
0.0
 11
5918.721909610674
 21
7551.145815749163
 31
0.0
  0
INSERT
  5
25498
330
22742
100
AcDbEntity
  8
寸法
 62
     0
 48
50.0
370
    -2
100
AcDbBlockReference
  2
_DOTSMALL
 10
5918.721909610674
 20
7626.145815749168
 30
0.0
 41
100.0
 42
100.0
 43
100.0
 50
270.0
  0
INSERT
  5
25499
330
22742
100
AcDbEntity
  8
寸法
 62
     0
 48
50.0
370
    -2
100
AcDbBlockReference
  2
_DOTSMALL
 10
5918.721909610674
 20
7551.145815749163
 30
0.0
 41
100.0
 42
100.0
 43
100.0
 50
90.0
  0
MTEXT
  5
2549A
330
22742
100
AcDbEntity
  8
寸法
 62
     7
 48
50.0
100
AcDbMText
 10
5818.721909610673
 20
7588.645815749167
 30
0.0
 40
120.0
 41
0.0
 71
     5
 72
     1
  1
\A1;c
  7
STYLE1
 11
0.0000000000000001
 21
1.0
 31
0.0
 73
     1
 44
1.0
1001
ACAD
1000
MTEXTBEGIN
1070
    73
1070
     1
1070
    44
1040
1.0
1070
    74
1070
     0
1000
MTEXTEND
  0
POINT
  5
2549B
330
22742
100
AcDbEntity
  8
DEFPOINTS
 62
     0
 48
50.0
100
AcDbPoint
 10
6170.665006330069
 20
7626.145815749167
 30
0.0
  0
POINT
  5
2549C
330
22742
100
AcDbEntity
  8
DEFPOINTS
 62
     0
 48
50.0
100
AcDbPoint
 10
6793.600000000001
 20
7551.145815749162
 30
0.0
  0
POINT
  5
2549D
330
22742
100
AcDbEntity
  8
DEFPOINTS
 62
     0
 48
50.0
100
AcDbPoint
 10
5918.721909610674
 20
7551.145815749163
 30
0.0
  0
ENDBLK
  5
2274F
330
22742
100
AcDbEntity
  8
0
 48
50.0
100
AcDbBlockEnd
  0
BLOCK
  5
22768
330
2275C
100
AcDbEntity
  8
0
 48
50.0
100
AcDbBlockBegin
  2
*D22
 70
     1
 10
0.0
 20
0.0
 30
0.0
  3
*D22
  1

  0
LINE
  5
2549E
330
2275C
100
AcDbEntity
  8
寸法
 62
     0
 48
50.0
370
    -2
100
AcDbLine
 10
6773.599999999999
 20
6011.145815749194
 30
0.0
 11
5858.721909610673
 21
6011.145815749195
 31
0.0
  0
LINE
  5
2549F
330
2275C
100
AcDbEntity
  8
寸法
 62
     0
 48
50.0
370
    -2
100
AcDbLine
 10
6150.665006330071
 20
5956.145815749219
 30
0.0
 11
5858.721909610673
 21
5956.14581574922
 31
0.0
  0
LINE
  5
254A0
330
2275C
100
AcDbEntity
  8
寸法
 62
     0
 48
50.0
370
    -2
100
AcDbLine
 10
5918.721909610673
 20
6011.145815749195
 30
0.0
 11
5918.721909610673
 21
6111.145815749194
 31
0.0
  0
LINE
  5
254A1
330
2275C
100
AcDbEntity
  8
寸法
 62
     0
 48
50.0
370
    -2
100
AcDbLine
 10
5918.721909610673
 20
5956.14581574922
 30
0.0
 11
5918.721909610673
 21
5856.145815749219
 31
0.0
  0
LINE
  5
254A2
330
2275C
100
AcDbEntity
  8
寸法
 62
     0
 48
50.0
370
    -2
100
AcDbLine
 10
5918.721909610673
 20
6011.145815749195
 30
0.0
 11
5918.721909610673
 21
5956.14581574922
 31
0.0
  0
INSERT
  5
254A3
330
2275C
100
AcDbEntity
  8
寸法
 62
     0
 48
50.0
370
    -2
100
AcDbBlockReference
  2
_DOTSMALL
 10
5918.721909610673
 20
6011.145815749195
 30
0.0
 41
100.0
 42
100.0
 43
100.0
 50
270.0
  0
INSERT
  5
254A4
330
2275C
100
AcDbEntity
  8
寸法
 62
     0
 48
50.0
370
    -2
100
AcDbBlockReference
  2
_DOTSMALL
 10
5918.721909610673
 20
5956.14581574922
 30
0.0
 41
100.0
 42
100.0
 43
100.0
 50
90.0
  0
MTEXT
  5
254A5
330
2275C
100
AcDbEntity
  8
寸法
 62
     7
 48
50.0
100
AcDbMText
 10
5818.721909610673
 20
5983.645815749208
 30
0.0
 40
120.0
 41
0.0
 71
     5
 72
     1
  1
\A1;b
  7
STYLE1
 11
0.0000000000000001
 21
1.0
 31
0.0
 73
     1
 44
1.0
1001
ACAD
1000
MTEXTBEGIN
1070
    73
1070
     1
1070
    44
1040
1.0
1070
    74
1070
     0
1000
MTEXTEND
  0
POINT
  5
254A6
330
2275C
100
AcDbEntity
  8
DEFPOINTS
 62
     0
 48
50.0
100
AcDbPoint
 10
6793.599999999999
 20
6011.145815749194
 30
0.0
  0
POINT
  5
254A7
330
2275C
100
AcDbEntity
  8
DEFPOINTS
 62
     0
 48
50.0
100
AcDbPoint
 10
6170.665006330072
 20
5956.145815749219
 30
0.0
  0
POINT
  5
254A8
330
2275C
100
AcDbEntity
  8
DEFPOINTS
 62
     0
 48
50.0
100
AcDbPoint
 10
5918.721909610673
 20
5956.14581574922
 30
0.0
  0
ENDBLK
  5
22769
330
2275C
100
AcDbEntity
  8
0
 48
50.0
100
AcDbBlockEnd
  0
BLOCK
  5
240CF
330
240C4
100
AcDbEntity
  8
0
 48
50.0
100
AcDbBlockBegin
  2
*D23
 70
     1
 10
0.0
 20
0.0
 30
0.0
  3
*D23
  1

  0
LINE
  5
2558D
330
240C4
100
AcDbEntity
  8
寸法
 62
     0
 48
50.0
370
    -2
100
AcDbLine
 10
9653.6
 20
7006.145815749198
 30
0.0
 11
9653.6
 21
7160.744428847272
 31
0.0
  0
LINE
  5
2558E
330
240C4
100
AcDbEntity
  8
寸法
 62
     0
 48
50.0
370
    -2
100
AcDbLine
 10
9533.599999999999
 20
7006.145815749198
 30
0.0
 11
9533.599999999999
 21
7160.744428847272
 31
0.0
  0
LINE
  5
2558F
330
240C4
100
AcDbEntity
  8
寸法
 62
     0
 48
50.0
370
    -2
100
AcDbLine
 10
9533.599999999999
 20
7100.744428847272
 30
0.0
 11
9653.6
 21
7100.744428847272
 31
0.0
  0
LINE
  5
25590
330
240C4
100
AcDbEntity
  8
寸法
 62
     0
 48
50.0
370
    -2
100
AcDbLine
 10
9653.6
 20
7100.744428847272
 30
0.0
 11
10059.7062992126
 21
7100.744428847272
 31
0.0
  0
INSERT
  5
25591
330
240C4
100
AcDbEntity
  8
寸法
 62
     0
 48
50.0
370
    -2
100
AcDbBlockReference
  2
_DOTSMALL
 10
9533.599999999999
 20
7100.744428847272
 30
0.0
 41
100.0
 42
100.0
 43
100.0
 50
180.0
  0
INSERT
  5
25592
330
240C4
100
AcDbEntity
  8
寸法
 62
     0
 48
50.0
370
    -2
100
AcDbBlockReference
  2
_DOTSMALL
 10
9653.6
 20
7100.744428847272
 30
0.0
 41
100.0
 42
100.0
 43
100.0
  0
MTEXT
  5
25593
330
240C4
100
AcDbEntity
  8
寸法
 62
     7
 48
50.0
100
AcDbMText
 10
9923.659055118113
 20
7200.756239870894
 30
0.0
 40
120.0
 41
0.0
 71
     5
 72
     1
  1
\A1;120
  7
STYLE1
 73
     1
 44
1.0
1001
ACAD
1000
MTEXTBEGIN
1070
    73
1070
     1
1070
    44
1040
1.0
1070
    74
1070
     0
1000
MTEXTEND
  0
POINT
  5
25594
330
240C4
100
AcDbEntity
  8
DEFPOINTS
 62
     0
 48
50.0
100
AcDbPoint
 10
9653.6
 20
6986.1458157492
 30
0.0
  0
POINT
  5
25595
330
240C4
100
AcDbEntity
  8
DEFPOINTS
 62
     0
 48
50.0
100
AcDbPoint
 10
9533.599999999999
 20
6986.145815749198
 30
0.0
  0
POINT
  5
25596
330
240C4
100
AcDbEntity
  8
DEFPOINTS
 62
     0
 48
50.0
100
AcDbPoint
 10
9533.599999999999
 20
7100.744428847272
 30
0.0
  0
ENDBLK
  5
240D0
330
240C4
100
AcDbEntity
  8
0
 48
50.0
100
AcDbBlockEnd
  0
BLOCK
  5
240DC
330
240D1
100
AcDbEntity
  8
0
 48
50.0
100
AcDbBlockBegin
  2
*D24
 70
     1
 10
0.0
 20
0.0
 30
0.0
  3
*D24
  1

  0
LINE
  5
25549
330
240D1
100
AcDbEntity
  8
寸法
 62
     0
 48
50.0
370
    -2
100
AcDbLine
 10
9053.599999999994
 20
6291.145815749176
 30
0.0
 11
8912.812020225658
 21
6291.145815749176
 31
0.0
  0
LINE
  5
2554A
330
240D1
100
AcDbEntity
  8
寸法
 62
     0
 48
50.0
370
    -2
100
AcDbLine
 10
9053.600000000001
 20
6011.14581574918
 30
0.0
 11
8912.812020225658
 21
6011.14581574918
 31
0.0
  0
LINE
  5
2554B
330
240D1
100
AcDbEntity
  8
寸法
 62
     0
 48
50.0
370
    -2
100
AcDbLine
 10
8972.812020225658
 20
6291.145815749176
 30
0.0
 11
8972.812020225658
 21
6011.14581574918
 31
0.0
  0
LINE
  5
2554C
330
240D1
100
AcDbEntity
  8
寸法
 62
     0
 48
50.0
370
    -2
100
AcDbLine
 10
8972.812020225658
 20
6011.14581574918
 30
0.0
 11
8972.812020225658
 21
5574.611366930274
 31
0.0
  0
INSERT
  5
2554D
330
240D1
100
AcDbEntity
  8
寸法
 62
     0
 48
50.0
370
    -2
100
AcDbBlockReference
  2
_DOTSMALL
 10
8972.812020225658
 20
6291.145815749176
 30
0.0
 41
100.0
 42
100.0
 43
100.0
 50
90.0
  0
INSERT
  5
2554E
330
240D1
100
AcDbEntity
  8
寸法
 62
     0
 48
50.0
370
    -2
100
AcDbBlockReference
  2
_DOTSMALL
 10
8972.812020225658
 20
6011.14581574918
 30
0.0
 41
100.0
 42
100.0
 43
100.0
 50
270.0
  0
MTEXT
  5
2554F
330
240D1
100
AcDbEntity
  8
寸法
 62
     7
 48
50.0
100
AcDbMText
 10
8872.800209202035
 20
5724.182233072008
 30
0.0
 40
120.0
 41
0.0
 71
     5
 72
     1
  1
\A1;280
  7
STYLE1
 11
0.0000000000000001
 21
1.0
 31
0.0
 73
     1
 44
1.0
1001
ACAD
1000
MTEXTBEGIN
1070
    73
1070
     1
1070
    44
1040
1.0
1070
    74
1070
     0
1000
MTEXTEND
  0
POINT
  5
25550
330
240D1
100
AcDbEntity
  8
DEFPOINTS
 62
     0
 48
50.0
100
AcDbPoint
 10
9073.599999999993
 20
6291.145815749176
 30
0.0
  0
POINT
  5
25551
330
240D1
100
AcDbEntity
  8
DEFPOINTS
 62
     0
 48
50.0
100
AcDbPoint
 10
9073.6
 20
6011.14581574918
 30
0.0
  0
POINT
  5
25552
330
240D1
100
AcDbEntity
  8
DEFPOINTS
 62
     0
 48
50.0
100
AcDbPoint
 10
8972.812020225658
 20
6011.14581574918
 30
0.0
  0
ENDBLK
  5
240DD
330
240D1
100
AcDbEntity
  8
0
 48
50.0
100
AcDbBlockEnd
  0
BLOCK
  5
240E9
330
240DE
100
AcDbEntity
  8
0
 48
50.0
100
AcDbBlockBegin
  2
*D25
 70
     1
 10
0.0
 20
0.0
 30
0.0
  3
*D25
  1

  0
LINE
  5
25474
330
240DE
100
AcDbEntity
  8
寸法
 62
     0
 48
50.0
370
    -2
100
AcDbLine
 10
9053.600000000001
 20
7551.145815749149
 30
0.0
 11
8912.812020225658
 21
7551.145815749149
 31
0.0
  0
LINE
  5
25475
330
240DE
100
AcDbEntity
  8
寸法
 62
     0
 48
50.0
370
    -2
100
AcDbLine
 10
9053.600000000008
 20
7351.145815749163
 30
0.0
 11
8912.812020225658
 21
7351.145815749163
 31
0.0
  0
LINE
  5
25476
330
240DE
100
AcDbEntity
  8
寸法
 62
     0
 48
50.0
370
    -2
100
AcDbLine
 10
8972.812020225658
 20
7351.145815749163
 30
0.0
 11
8972.812020225658
 21
7551.145815749149
 31
0.0
  0
LINE
  5
25477
330
240DE
100
AcDbEntity
  8
寸法
 62
     0
 48
50.0
370
    -2
100
AcDbLine
 10
8972.812020225658
 20
7551.145815749149
 30
0.0
 11
8972.812020225658
 21
7987.680264568052
 31
0.0
  0
INSERT
  5
25478
330
240DE
100
AcDbEntity
  8
寸法
 62
     0
 48
50.0
370
    -2
100
AcDbBlockReference
  2
_DOTSMALL
 10
8972.812020225658
 20
7351.145815749163
 30
0.0
 41
100.0
 42
100.0
 43
100.0
 50
270.0
  0
INSERT
  5
25479
330
240DE
100
AcDbEntity
  8
寸法
 62
     0
 48
50.0
370
    -2
100
AcDbBlockReference
  2
_DOTSMALL
 10
8972.812020225658
 20
7551.145815749149
 30
0.0
 41
100.0
 42
100.0
 43
100.0
 50
90.0
  0
MTEXT
  5
2547A
330
240DE
100
AcDbEntity
  8
寸法
 62
     7
 48
50.0
100
AcDbMText
 10
8872.800209202035
 20
7838.109398426318
 30
0.0
 40
120.0
 41
0.0
 71
     5
 72
     1
  1
\A1;200
  7
STYLE1
 11
0.0000000000000001
 21
1.0
 31
0.0
 73
     1
 44
1.0
1001
ACAD
1000
MTEXTBEGIN
1070
    73
1070
     1
1070
    44
1040
1.0
1070
    74
1070
     0
1000
MTEXTEND
  0
POINT
  5
2547B
330
240DE
100
AcDbEntity
  8
DEFPOINTS
 62
     0
 48
50.0
100
AcDbPoint
 10
9073.6
 20
7551.145815749149
 30
0.0
  0
POINT
  5
2547C
330
240DE
100
AcDbEntity
  8
DEFPOINTS
 62
     0
 48
50.0
100
AcDbPoint
 10
9073.600000000007
 20
7351.145815749163
 30
0.0
  0
POINT
  5
2547D
330
240DE
100
AcDbEntity
  8
DEFPOINTS
 62
     0
 48
50.0
100
AcDbPoint
 10
8972.812020225658
 20
7351.145815749163
 30
0.0
  0
ENDBLK
  5
240EA
330
240DE
100
AcDbEntity
  8
0
 48
50.0
100
AcDbBlockEnd
  0
BLOCK
  5
24E60
330
24E55
100
AcDbEntity
  8
0
 48
50.0
100
AcDbBlockBegin
  2
*D26
 70
     1
 10
0.0
 20
0.0
 30
0.0
  3
*D26
  1

  0
LINE
  5
25274
330
24E55
100
AcDbEntity
  8
寸法
 62
     0
 48
50.0
370
    -2
100
AcDbLine
 10
6916.600000000001
 20
7498.145815749161
 30
0.0
 11
6916.600000000001
 21
8337.412273843073
 31
0.0
  0
LINE
  5
25275
330
24E55
100
AcDbEntity
  8
寸法
 62
     0
 48
50.0
370
    -2
100
AcDbLine
 10
6793.600000000001
 20
7571.145815749162
 30
0.0
 11
6793.600000000001
 21
8337.412273843073
 31
0.0
  0
LINE
  5
25276
330
24E55
100
AcDbEntity
  8
寸法
 62
     0
 48
50.0
370
    -2
100
AcDbLine
 10
6916.600000000001
 20
8277.412273843072
 30
0.0
 11
6793.600000000001
 21
8277.412273843072
 31
0.0
  0
LINE
  5
25277
330
24E55
100
AcDbEntity
  8
寸法
 62
     0
 48
50.0
370
    -2
100
AcDbLine
 10
6793.600000000001
 20
8277.412273843072
 30
0.0
 11
6382.008116907964
 21
8277.412273843072
 31
0.0
  0
INSERT
  5
25278
330
24E55
100
AcDbEntity
  8
寸法
 62
     0
 48
50.0
370
    -2
100
AcDbBlockReference
  2
_DOTSMALL
 10
6916.600000000001
 20
8277.412273843072
 30
0.0
 41
100.0
 42
100.0
 43
100.0
  0
INSERT
  5
25279
330
24E55
100
AcDbEntity
  8
寸法
 62
     0
 48
50.0
370
    -2
100
AcDbBlockReference
  2
_DOTSMALL
 10
6793.600000000001
 20
8277.412273843072
 30
0.0
 41
100.0
 42
100.0
 43
100.0
 50
180.0
  0
MTEXT
  5
2527A
330
24E55
100
AcDbEntity
  8
寸法
 62
     7
 48
50.0
100
AcDbMText
 10
6520.493398282202
 20
8377.424084866694
 30
0.0
 40
120.0
 41
0.0
 71
     5
 72
     1
  1
\A1;123
  7
STYLE1
 73
     1
 44
1.0
1001
ACAD
1000
MTEXTBEGIN
1070
    73
1070
     1
1070
    44
1040
1.0
1070
    74
1070
     0
1000
MTEXTEND
  0
POINT
  5
2527B
330
24E55
100
AcDbEntity
  8
DEFPOINTS
 62
     0
 48
50.0
100
AcDbPoint
 10
6916.600000000001
 20
7478.145815749162
 30
0.0
  0
POINT
  5
2527C
330
24E55
100
AcDbEntity
  8
DEFPOINTS
 62
     0
 48
50.0
100
AcDbPoint
 10
6793.600000000001
 20
7551.145815749162
 30
0.0
  0
POINT
  5
2527D
330
24E55
100
AcDbEntity
  8
DEFPOINTS
 62
     0
 48
50.0
100
AcDbPoint
 10
6793.600000000001
 20
8277.412273843072
 30
0.0
  0
ENDBLK
  5
24E61
330
24E55
100
AcDbEntity
  8
0
 48
50.0
100
AcDbBlockEnd
  0
BLOCK
  5
24E6D
330
24E62
100
AcDbEntity
  8
0
 48
50.0
100
AcDbBlockBegin
  2
*D27
 70
     1
 10
0.0
 20
0.0
 30
0.0
  3
*D27
  1

  0
LINE
  5
2526A
330
24E62
100
AcDbEntity
  8
寸法
 62
     0
 48
50.0
370
    -2
100
AcDbLine
 10
6773.6
 20
7551.145815749162
 30
0.0
 11
6110.665006330072
 21
7551.145815749163
 31
0.0
  0
LINE
  5
2526B
330
24E62
100
AcDbEntity
  8
寸法
 62
     0
 48
50.0
370
    -2
100
AcDbLine
 10
6846.600000000001
 20
7428.145815749161
 30
0.0
 11
6110.665006330072
 21
7428.145815749163
 31
0.0
  0
LINE
  5
2526C
330
24E62
100
AcDbEntity
  8
寸法
 62
     0
 48
50.0
370
    -2
100
AcDbLine
 10
6170.665006330072
 20
7428.145815749161
 30
0.0
 11
6170.665006330072
 21
7551.145815749162
 31
0.0
  0
LINE
  5
2526D
330
24E62
100
AcDbEntity
  8
寸法
 62
     0
 48
50.0
370
    -2
100
AcDbLine
 10
6170.665006330072
 20
7551.145815749162
 30
0.0
 11
6170.665006330072
 21
7962.737698841199
 31
0.0
  0
INSERT
  5
2526E
330
24E62
100
AcDbEntity
  8
寸法
 62
     0
 48
50.0
370
    -2
100
AcDbBlockReference
  2
_DOTSMALL
 10
6170.665006330072
 20
7428.145815749161
 30
0.0
 41
100.0
 42
100.0
 43
100.0
 50
270.0
  0
INSERT
  5
2526F
330
24E62
100
AcDbEntity
  8
寸法
 62
     0
 48
50.0
370
    -2
100
AcDbBlockReference
  2
_DOTSMALL
 10
6170.665006330072
 20
7551.145815749162
 30
0.0
 41
100.0
 42
100.0
 43
100.0
 50
90.0
  0
MTEXT
  5
25270
330
24E62
100
AcDbEntity
  8
寸法
 62
     7
 48
50.0
100
AcDbMText
 10
6070.65319530645
 20
7824.252417466961
 30
0.0
 40
120.0
 41
0.0
 71
     5
 72
     1
  1
\A1;123
  7
STYLE1
 11
0.0000000000000001
 21
1.0
 31
0.0
 73
     1
 44
1.0
1001
ACAD
1000
MTEXTBEGIN
1070
    73
1070
     1
1070
    44
1040
1.0
1070
    74
1070
     0
1000
MTEXTEND
  0
POINT
  5
25271
330
24E62
100
AcDbEntity
  8
DEFPOINTS
 62
     0
 48
50.0
100
AcDbPoint
 10
6793.600000000001
 20
7551.145815749162
 30
0.0
  0
POINT
  5
25272
330
24E62
100
AcDbEntity
  8
DEFPOINTS
 62
     0
 48
50.0
100
AcDbPoint
 10
6866.600000000001
 20
7428.145815749161
 30
0.0
  0
POINT
  5
25273
330
24E62
100
AcDbEntity
  8
DEFPOINTS
 62
     0
 48
50.0
100
AcDbPoint
 10
6170.665006330072
 20
7428.145815749161
 30
0.0
  0
ENDBLK
  5
24E6E
330
24E62
100
AcDbEntity
  8
0
 48
50.0
100
AcDbBlockEnd
  0
BLOCK
  5
24E83
330
24E79
100
AcDbEntity
  8
0
 48
50.0
100
AcDbBlockBegin
  2
*D28
 70
     1
 10
0.0
 20
0.0
 30
0.0
  3
*D28
  1

  0
LINE
  5
2550F
330
24E79
100
AcDbEntity
  8
寸法
 62
     0
 48
50.0
370
    -2
100
AcDbLine
 10
9653.6
 20
7571.145815749162
 30
0.0
 11
9653.6
 21
8093.754632419409
 31
0.0
  0
LINE
  5
25510
330
24E79
100
AcDbEntity
  8
寸法
 62
     0
 48
50.0
370
    -2
100
AcDbLine
 10
8698.600000000007
 20
6888.145815749162
 30
0.0
 11
8698.600000000007
 21
8093.754632419409
 31
0.0
  0
LINE
  5
25511
330
24E79
100
AcDbEntity
  8
寸法
 62
     0
 48
50.0
370
    -2
100
AcDbLine
 10
9653.6
 20
8033.754632419411
 30
0.0
 11
8698.600000000007
 21
8033.754632419411
 31
0.0
  0
INSERT
  5
25512
330
24E79
100
AcDbEntity
  8
寸法
 62
     0
 48
50.0
370
    -2
100
AcDbBlockReference
  2
_DOTSMALL
 10
9653.6
 20
8033.754632419411
 30
0.0
 41
100.0
 42
100.0
 43
100.0
  0
INSERT
  5
25513
330
24E79
100
AcDbEntity
  8
寸法
 62
     0
 48
50.0
370
    -2
100
AcDbBlockReference
  2
_DOTSMALL
 10
8698.600000000007
 20
8033.754632419411
 30
0.0
 41
100.0
 42
100.0
 43
100.0
 50
180.0
  0
MTEXT
  5
25514
330
24E79
100
AcDbEntity
  8
寸法
 62
     7
 48
50.0
100
AcDbMText
 10
9176.100000000003
 20
8133.75463241941
 30
0.0
 40
120.0
 41
0.0
 71
     5
 72
     1
  1
\A1;955
  7
STYLE1
 73
     1
 44
1.0
1001
ACAD
1000
MTEXTBEGIN
1070
    73
1070
     1
1070
    44
1040
1.0
1070
    74
1070
     0
1000
MTEXTEND
  0
POINT
  5
25515
330
24E79
100
AcDbEntity
  8
DEFPOINTS
 62
     0
 48
50.0
100
AcDbPoint
 10
9653.6
 20
7551.145815749162
 30
0.0
  0
POINT
  5
25516
330
24E79
100
AcDbEntity
  8
DEFPOINTS
 62
     0
 48
50.0
100
AcDbPoint
 10
8698.600000000007
 20
6868.145815749162
 30
0.0
  0
POINT
  5
25517
330
24E79
100
AcDbEntity
  8
DEFPOINTS
 62
     0
 48
50.0
100
AcDbPoint
 10
8698.600000000007
 20
8033.754632419411
 30
0.0
  0
ENDBLK
  5
24E84
330
24E79
100
AcDbEntity
  8
0
 48
50.0
100
AcDbBlockEnd
  0
BLOCK
  5
24EAA
330
24E9F
100
AcDbEntity
  8
0
 48
50.0
100
AcDbBlockBegin
  2
*D29
 70
     1
 10
0.0
 20
0.0
 30
0.0
  3
*D29
  1

  0
LINE
  5
25257
330
24E9F
100
AcDbEntity
  8
寸法
 62
     0
 48
50.0
370
    -2
100
AcDbLine
 10
9653.6
 20
7571.145815749162
 30
0.0
 11
9653.6
 21
8337.412273843073
 31
0.0
  0
LINE
  5
25258
330
24E9F
100
AcDbEntity
  8
寸法
 62
     0
 48
50.0
370
    -2
100
AcDbLine
 10
9530.600000000001
 20
7498.145815749161
 30
0.0
 11
9530.600000000001
 21
8337.412273843073
 31
0.0
  0
LINE
  5
25259
330
24E9F
100
AcDbEntity
  8
寸法
 62
     0
 48
50.0
370
    -2
100
AcDbLine
 10
9530.600000000001
 20
8277.412273843072
 30
0.0
 11
9653.6
 21
8277.412273843072
 31
0.0
  0
LINE
  5
2525A
330
24E9F
100
AcDbEntity
  8
寸法
 62
     0
 48
50.0
370
    -2
100
AcDbLine
 10
9653.6
 20
8277.412273843072
 30
0.0
 11
10065.19188309203
 21
8277.412273843072
 31
0.0
  0
INSERT
  5
2525B
330
24E9F
100
AcDbEntity
  8
寸法
 62
     0
 48
50.0
370
    -2
100
AcDbBlockReference
  2
_DOTSMALL
 10
9530.600000000001
 20
8277.412273843072
 30
0.0
 41
100.0
 42
100.0
 43
100.0
 50
180.0
  0
INSERT
  5
2525C
330
24E9F
100
AcDbEntity
  8
寸法
 62
     0
 48
50.0
370
    -2
100
AcDbBlockReference
  2
_DOTSMALL
 10
9653.6
 20
8277.412273843072
 30
0.0
 41
100.0
 42
100.0
 43
100.0
  0
MTEXT
  5
2525D
330
24E9F
100
AcDbEntity
  8
寸法
 62
     7
 48
50.0
100
AcDbMText
 10
9926.706601717798
 20
8377.424084866694
 30
0.0
 40
120.0
 41
0.0
 71
     5
 72
     1
  1
\A1;123
  7
STYLE1
 73
     1
 44
1.0
1001
ACAD
1000
MTEXTBEGIN
1070
    73
1070
     1
1070
    44
1040
1.0
1070
    74
1070
     0
1000
MTEXTEND
  0
POINT
  5
2525E
330
24E9F
100
AcDbEntity
  8
DEFPOINTS
 62
     0
 48
50.0
100
AcDbPoint
 10
9653.6
 20
7551.145815749162
 30
0.0
  0
POINT
  5
2525F
330
24E9F
100
AcDbEntity
  8
DEFPOINTS
 62
     0
 48
50.0
100
AcDbPoint
 10
9530.600000000001
 20
7478.145815749162
 30
0.0
  0
POINT
  5
25260
330
24E9F
100
AcDbEntity
  8
DEFPOINTS
 62
     0
 48
50.0
100
AcDbPoint
 10
9530.600000000001
 20
8277.412273843072
 30
0.0
  0
ENDBLK
  5
24EAB
330
24E9F
100
AcDbEntity
  8
0
 48
50.0
100
AcDbBlockEnd
  0
BLOCK
  5
24ED0
330
24EC6
100
AcDbEntity
  8
0
 48
50.0
100
AcDbBlockBegin
  2
*D30
 70
     1
 10
0.0
 20
0.0
 30
0.0
  3
*D30
  1

  0
LINE
  5
25506
330
24EC6
100
AcDbEntity
  8
寸法
 62
     0
 48
50.0
370
    -2
100
AcDbLine
 10
7748.600000000007
 20
6888.145815749162
 30
0.0
 11
7748.600000000007
 21
8093.754632419409
 31
0.0
  0
LINE
  5
25507
330
24EC6
100
AcDbEntity
  8
寸法
 62
     0
 48
50.0
370
    -2
100
AcDbLine
 10
8698.600000000007
 20
6888.145815749162
 30
0.0
 11
8698.600000000007
 21
8093.754632419409
 31
0.0
  0
LINE
  5
25508
330
24EC6
100
AcDbEntity
  8
寸法
 62
     0
 48
50.0
370
    -2
100
AcDbLine
 10
7748.600000000007
 20
8033.754632419411
 30
0.0
 11
8698.600000000007
 21
8033.754632419411
 31
0.0
  0
INSERT
  5
25509
330
24EC6
100
AcDbEntity
  8
寸法
 62
     0
 48
50.0
370
    -2
100
AcDbBlockReference
  2
_DOTSMALL
 10
7748.600000000007
 20
8033.754632419411
 30
0.0
 41
100.0
 42
100.0
 43
100.0
 50
180.0
  0
INSERT
  5
2550A
330
24EC6
100
AcDbEntity
  8
寸法
 62
     0
 48
50.0
370
    -2
100
AcDbBlockReference
  2
_DOTSMALL
 10
8698.600000000007
 20
8033.754632419411
 30
0.0
 41
100.0
 42
100.0
 43
100.0
  0
MTEXT
  5
2550B
330
24EC6
100
AcDbEntity
  8
寸法
 62
     7
 48
50.0
100
AcDbMText
 10
8223.600000000008
 20
8133.75463241941
 30
0.0
 40
120.0
 41
0.0
 71
     5
 72
     1
  1
\A1;950
  7
STYLE1
 73
     1
 44
1.0
1001
ACAD
1000
MTEXTBEGIN
1070
    73
1070
     1
1070
    44
1040
1.0
1070
    74
1070
     0
1000
MTEXTEND
  0
POINT
  5
2550C
330
24EC6
100
AcDbEntity
  8
DEFPOINTS
 62
     0
 48
50.0
100
AcDbPoint
 10
7748.600000000007
 20
6868.145815749162
 30
0.0
  0
POINT
  5
2550D
330
24EC6
100
AcDbEntity
  8
DEFPOINTS
 62
     0
 48
50.0
100
AcDbPoint
 10
8698.600000000007
 20
6868.145815749162
 30
0.0
  0
POINT
  5
2550E
330
24EC6
100
AcDbEntity
  8
DEFPOINTS
 62
     0
 48
50.0
100
AcDbPoint
 10
8698.600000000007
 20
8033.754632419411
 30
0.0
  0
ENDBLK
  5
24ED1
330
24EC6
100
AcDbEntity
  8
0
 48
50.0
100
AcDbBlockEnd
  0
BLOCK
  5
24EDB
330
24ED2
100
AcDbEntity
  8
0
 48
50.0
100
AcDbBlockBegin
  2
*D31
 70
     1
 10
0.0
 20
0.0
 30
0.0
  3
*D31
  1

  0
LINE
  5
25290
330
24ED2
100
AcDbEntity
  8
寸法
 62
     0
 48
50.0
370
    -2
100
AcDbLine
 10
9530.600000000001
 20
7498.145815749161
 30
0.0
 11
9530.600000000001
 21
8337.412273843073
 31
0.0
  0
LINE
  5
25291
330
24ED2
100
AcDbEntity
  8
寸法
 62
     0
 48
50.0
370
    -2
100
AcDbLine
 10
6916.600000000001
 20
7498.145815749161
 30
0.0
 11
6916.600000000001
 21
8337.412273843073
 31
0.0
  0
LINE
  5
25292
330
24ED2
100
AcDbEntity
  8
寸法
 62
     0
 48
50.0
370
    -2
100
AcDbLine
 10
9530.600000000001
 20
8277.412273843072
 30
0.0
 11
6916.600000000001
 21
8277.412273843072
 31
0.0
  0
INSERT
  5
25293
330
24ED2
100
AcDbEntity
  8
寸法
 62
     0
 48
50.0
370
    -2
100
AcDbBlockReference
  2
_DOTSMALL
 10
9530.600000000001
 20
8277.412273843072
 30
0.0
 41
100.0
 42
100.0
 43
100.0
  0
INSERT
  5
25294
330
24ED2
100
AcDbEntity
  8
寸法
 62
     0
 48
50.0
370
    -2
100
AcDbBlockReference
  2
_DOTSMALL
 10
6916.600000000001
 20
8277.412273843072
 30
0.0
 41
100.0
 42
100.0
 43
100.0
 50
180.0
  0
MTEXT
  5
25295
330
24ED2
100
AcDbEntity
  8
寸法
 62
     7
 48
50.0
100
AcDbMText
 10
8223.600000000001
 20
8377.424084866694
 30
0.0
 40
120.0
 41
0.0
 71
     5
 72
     1
  1
\A1;2614
  7
STYLE1
 73
     1
 44
1.0
1001
ACAD
1000
MTEXTBEGIN
1070
    73
1070
     1
1070
    44
1040
1.0
1070
    74
1070
     0
1000
MTEXTEND
  0
POINT
  5
25296
330
24ED2
100
AcDbEntity
  8
DEFPOINTS
 62
     0
 48
50.0
100
AcDbPoint
 10
9530.600000000001
 20
7478.145815749162
 30
0.0
  0
POINT
  5
25297
330
24ED2
100
AcDbEntity
  8
DEFPOINTS
 62
     0
 48
50.0
100
AcDbPoint
 10
6916.600000000001
 20
7478.145815749162
 30
0.0
  0
POINT
  5
25298
330
24ED2
100
AcDbEntity
  8
DEFPOINTS
 62
     0
 48
50.0
100
AcDbPoint
 10
6916.600000000001
 20
8277.412273843072
 30
0.0
  0
ENDBLK
  5
24EDC
330
24ED2
100
AcDbEntity
  8
0
 48
50.0
100
AcDbBlockEnd
  0
BLOCK
  5
24EE7
330
24EDD
100
AcDbEntity
  8
0
 48
50.0
100
AcDbBlockBegin
  2
*D32
 70
     1
 10
0.0
 20
0.0
 30
0.0
  3
*D32
  1

  0
LINE
  5
25287
330
24EDD
100
AcDbEntity
  8
寸法
 62
     0
 48
50.0
370
    -2
100
AcDbLine
 10
6793.600000000001
 20
7571.145815749162
 30
0.0
 11
6793.600000000001
 21
8569.36613780808
 31
0.0
  0
LINE
  5
25288
330
24EDD
100
AcDbEntity
  8
寸法
 62
     0
 48
50.0
370
    -2
100
AcDbLine
 10
9653.6
 20
7571.145815749162
 30
0.0
 11
9653.6
 21
8569.36613780808
 31
0.0
  0
LINE
  5
25289
330
24EDD
100
AcDbEntity
  8
寸法
 62
     0
 48
50.0
370
    -2
100
AcDbLine
 10
6793.600000000001
 20
8509.366137808079
 30
0.0
 11
9653.6
 21
8509.366137808079
 31
0.0
  0
INSERT
  5
2528A
330
24EDD
100
AcDbEntity
  8
寸法
 62
     0
 48
50.0
370
    -2
100
AcDbBlockReference
  2
_DOTSMALL
 10
6793.600000000001
 20
8509.366137808079
 30
0.0
 41
100.0
 42
100.0
 43
100.0
 50
180.0
  0
INSERT
  5
2528B
330
24EDD
100
AcDbEntity
  8
寸法
 62
     0
 48
50.0
370
    -2
100
AcDbBlockReference
  2
_DOTSMALL
 10
9653.6
 20
8509.366137808079
 30
0.0
 41
100.0
 42
100.0
 43
100.0
  0
MTEXT
  5
2528C
330
24EDD
100
AcDbEntity
  8
寸法
 62
     7
 48
50.0
100
AcDbMText
 10
8223.600000000001
 20
8609.377948831701
 30
0.0
 40
120.0
 41
0.0
 71
     5
 72
     1
  1
\A1;2860
  7
STYLE1
 73
     1
 44
1.0
1001
ACAD
1000
MTEXTBEGIN
1070
    73
1070
     1
1070
    44
1040
1.0
1070
    74
1070
     0
1000
MTEXTEND
  0
POINT
  5
2528D
330
24EDD
100
AcDbEntity
  8
DEFPOINTS
 62
     0
 48
50.0
100
AcDbPoint
 10
6793.600000000001
 20
7551.145815749162
 30
0.0
  0
POINT
  5
2528E
330
24EDD
100
AcDbEntity
  8
DEFPOINTS
 62
     0
 48
50.0
100
AcDbPoint
 10
9653.6
 20
7551.145815749162
 30
0.0
  0
POINT
  5
2528F
330
24EDD
100
AcDbEntity
  8
DEFPOINTS
 62
     0
 48
50.0
100
AcDbPoint
 10
9653.6
 20
8509.366137808079
 30
0.0
  0
ENDBLK
  5
24EE8
330
24EDD
100
AcDbEntity
  8
0
 48
50.0
100
AcDbBlockEnd
  0
BLOCK
  5
24EF3
330
24EE9
100
AcDbEntity
  8
0
 48
50.0
100
AcDbBlockBegin
  2
*D33
 70
     1
 10
0.0
 20
0.0
 30
0.0
  3
*D33
  1

  0
LINE
  5
254EB
330
24EE9
100
AcDbEntity
  8
寸法
 62
     0
 48
50.0
370
    -2
100
AcDbLine
 10
7678.600000000007
 20
6818.145815749161
 30
0.0
 11
7216.285990614302
 21
6818.145815749161
 31
0.0
  0
LINE
  5
254EC
330
24EE9
100
AcDbEntity
  8
寸法
 62
     0
 48
50.0
370
    -2
100
AcDbLine
 10
7347.7654751409
 20
7551.145815749162
 30
0.0
 11
7216.285990614302
 21
7551.145815749162
 31
0.0
  0
LINE
  5
254ED
330
24EE9
100
AcDbEntity
  8
寸法
 62
     0
 48
50.0
370
    -2
100
AcDbLine
 10
7276.285990614302
 20
6818.145815749161
 30
0.0
 11
7276.285990614302
 21
7551.145815749162
 31
0.0
  0
INSERT
  5
254EE
330
24EE9
100
AcDbEntity
  8
寸法
 62
     0
 48
50.0
370
    -2
100
AcDbBlockReference
  2
_DOTSMALL
 10
7276.285990614302
 20
6818.145815749161
 30
0.0
 41
100.0
 42
100.0
 43
100.0
 50
270.0
  0
INSERT
  5
254EF
330
24EE9
100
AcDbEntity
  8
寸法
 62
     0
 48
50.0
370
    -2
100
AcDbBlockReference
  2
_DOTSMALL
 10
7276.285990614302
 20
7551.145815749162
 30
0.0
 41
100.0
 42
100.0
 43
100.0
 50
90.0
  0
MTEXT
  5
254F0
330
24EE9
100
AcDbEntity
  8
寸法
 62
     7
 48
50.0
100
AcDbMText
 10
7176.2859906143
 20
7110.740606443338
 30
0.0
 40
120.0
 41
0.0
 71
     5
 72
     1
  1
\A1;733
  7
STYLE1
 11
0.0000000000000001
 21
1.0
 31
0.0
 73
     1
 44
1.0
1001
ACAD
1000
MTEXTBEGIN
1070
    73
1070
     1
1070
    44
1040
1.0
1070
    74
1070
     0
1000
MTEXTEND
  0
POINT
  5
254F1
330
24EE9
100
AcDbEntity
  8
DEFPOINTS
 62
     0
 48
50.0
100
AcDbPoint
 10
7698.600000000007
 20
6818.145815749161
 30
0.0
  0
POINT
  5
254F2
330
24EE9
100
AcDbEntity
  8
DEFPOINTS
 62
     0
 48
50.0
100
AcDbPoint
 10
7367.765475140901
 20
7551.145815749162
 30
0.0
  0
POINT
  5
254F3
330
24EE9
100
AcDbEntity
  8
DEFPOINTS
 62
     0
 48
50.0
100
AcDbPoint
 10
7276.285990614302
 20
7551.145815749162
 30
0.0
  0
ENDBLK
  5
24EF4
330
24EE9
100
AcDbEntity
  8
0
 48
50.0
100
AcDbBlockEnd
  0
BLOCK
  5
24EFF
330
24EF5
100
AcDbEntity
  8
0
 48
50.0
100
AcDbBlockBegin
  2
*D34
 70
     1
 10
0.0
 20
0.0
 30
0.0
  3
*D34
  1

  0
LINE
  5
252B5
330
24EF5
100
AcDbEntity
  8
寸法
 62
     0
 48
50.0
370
    -2
100
AcDbLine
 10
6773.6
 20
7551.145815749162
 30
0.0
 11
5858.721909610675
 21
7551.145815749163
 31
0.0
  0
LINE
  5
252B6
330
24EF5
100
AcDbEntity
  8
寸法
 62
     0
 48
50.0
370
    -2
100
AcDbLine
 10
6773.6
 20
6011.145815749162
 30
0.0
 11
5858.721909610673
 21
6011.145815749163
 31
0.0
  0
LINE
  5
252B7
330
24EF5
100
AcDbEntity
  8
寸法
 62
     0
 48
50.0
370
    -2
100
AcDbLine
 10
5918.721909610674
 20
7551.145815749163
 30
0.0
 11
5918.721909610674
 21
6011.145815749163
 31
0.0
  0
INSERT
  5
252B8
330
24EF5
100
AcDbEntity
  8
寸法
 62
     0
 48
50.0
370
    -2
100
AcDbBlockReference
  2
_DOTSMALL
 10
5918.721909610674
 20
7551.145815749163
 30
0.0
 41
100.0
 42
100.0
 43
100.0
 50
90.0
  0
INSERT
  5
252B9
330
24EF5
100
AcDbEntity
  8
寸法
 62
     0
 48
50.0
370
    -2
100
AcDbBlockReference
  2
_DOTSMALL
 10
5918.721909610674
 20
6011.145815749163
 30
0.0
 41
100.0
 42
100.0
 43
100.0
 50
270.0
  0
MTEXT
  5
252BA
330
24EF5
100
AcDbEntity
  8
寸法
 62
     7
 48
50.0
100
AcDbMText
 10
5818.721909610673
 20
6818.645815749161
 30
0.0
 40
120.0
 41
0.0
 71
     5
 72
     1
  1
\A1;1540
  7
STYLE1
 11
0.0000000000000001
 21
1.0
 31
0.0
 73
     1
 44
1.0
1001
ACAD
1000
MTEXTBEGIN
1070
    73
1070
     1
1070
    44
1040
1.0
1070
    74
1070
     0
1000
MTEXTEND
  0
POINT
  5
252BB
330
24EF5
100
AcDbEntity
  8
DEFPOINTS
 62
     0
 48
50.0
100
AcDbPoint
 10
6793.600000000001
 20
7551.145815749162
 30
0.0
  0
POINT
  5
252BC
330
24EF5
100
AcDbEntity
  8
DEFPOINTS
 62
     0
 48
50.0
100
AcDbPoint
 10
6793.600000000001
 20
6011.145815749162
 30
0.0
  0
POINT
  5
252BD
330
24EF5
100
AcDbEntity
  8
DEFPOINTS
 62
     0
 48
50.0
100
AcDbPoint
 10
5918.721909610674
 20
6011.145815749163
 30
0.0
  0
ENDBLK
  5
24F00
330
24EF5
100
AcDbEntity
  8
0
 48
50.0
100
AcDbBlockEnd
  0
BLOCK
  5
24F0B
330
24F01
100
AcDbEntity
  8
0
 48
50.0
100
AcDbBlockBegin
  2
*D35
 70
     1
 10
0.0
 20
0.0
 30
0.0
  3
*D35
  1

  0
LINE
  5
254CE
330
24F01
100
AcDbEntity
  8
寸法
 62
     0
 48
50.0
370
    -2
100
AcDbLine
 10
6846.600000000001
 20
7428.145815749161
 30
0.0
 11
6110.665006330073
 21
7428.145815749163
 31
0.0
  0
LINE
  5
254CF
330
24F01
100
AcDbEntity
  8
寸法
 62
     0
 48
50.0
370
    -2
100
AcDbLine
 10
6846.600000000008
 20
6209.145815749165
 30
0.0
 11
6110.665006330073
 21
6209.145815749167
 31
0.0
  0
LINE
  5
254D0
330
24F01
100
AcDbEntity
  8
寸法
 62
     0
 48
50.0
370
    -2
100
AcDbLine
 10
6170.665006330073
 20
7428.145815749161
 30
0.0
 11
6170.665006330073
 21
6209.145815749165
 31
0.0
  0
INSERT
  5
254D1
330
24F01
100
AcDbEntity
  8
寸法
 62
     0
 48
50.0
370
    -2
100
AcDbBlockReference
  2
_DOTSMALL
 10
6170.665006330073
 20
7428.145815749161
 30
0.0
 41
100.0
 42
100.0
 43
100.0
 50
90.0
  0
INSERT
  5
254D2
330
24F01
100
AcDbEntity
  8
寸法
 62
     0
 48
50.0
370
    -2
100
AcDbBlockReference
  2
_DOTSMALL
 10
6170.665006330073
 20
6209.145815749165
 30
0.0
 41
100.0
 42
100.0
 43
100.0
 50
270.0
  0
MTEXT
  5
254D3
330
24F01
100
AcDbEntity
  8
寸法
 62
     7
 48
50.0
100
AcDbMText
 10
6070.65319530645
 20
6818.645815749161
 30
0.0
 40
120.0
 41
0.0
 71
     5
 72
     1
  1
\A1;1219
  7
STYLE1
 11
0.0000000000000001
 21
1.0
 31
0.0
 73
     1
 44
1.0
1001
ACAD
1000
MTEXTBEGIN
1070
    73
1070
     1
1070
    44
1040
1.0
1070
    74
1070
     0
1000
MTEXTEND
  0
POINT
  5
254D4
330
24F01
100
AcDbEntity
  8
DEFPOINTS
 62
     0
 48
50.0
100
AcDbPoint
 10
6866.600000000001
 20
7428.145815749161
 30
0.0
  0
POINT
  5
254D5
330
24F01
100
AcDbEntity
  8
DEFPOINTS
 62
     0
 48
50.0
100
AcDbPoint
 10
6866.600000000008
 20
6209.145815749165
 30
0.0
  0
POINT
  5
254D6
330
24F01
100
AcDbEntity
  8
DEFPOINTS
 62
     0
 48
50.0
100
AcDbPoint
 10
6170.665006330073
 20
6209.145815749165
 30
0.0
  0
ENDBLK
  5
24F0C
330
24F01
100
AcDbEntity
  8
0
 48
50.0
100
AcDbBlockEnd
  0
BLOCK
  5
24F17
330
24F0D
100
AcDbEntity
  8
0
 48
50.0
100
AcDbBlockBegin
  2
*D36
 70
     1
 10
0.0
 20
0.0
 30
0.0
  3
*D36
  1

  0
LINE
  5
254F4
330
24F0D
100
AcDbEntity
  8
寸法
 62
     0
 48
50.0
370
    -2
100
AcDbLine
 10
7748.600000000007
 20
6888.145815749162
 30
0.0
 11
7748.600000000007
 21
8093.754632419409
 31
0.0
  0
LINE
  5
254F5
330
24F0D
100
AcDbEntity
  8
寸法
 62
     0
 48
50.0
370
    -2
100
AcDbLine
 10
6793.600000000001
 20
7571.145815749162
 30
0.0
 11
6793.600000000001
 21
8093.754632419409
 31
0.0
  0
LINE
  5
254F6
330
24F0D
100
AcDbEntity
  8
寸法
 62
     0
 48
50.0
370
    -2
100
AcDbLine
 10
7748.600000000007
 20
8033.754632419411
 30
0.0
 11
6793.600000000001
 21
8033.754632419411
 31
0.0
  0
INSERT
  5
254F7
330
24F0D
100
AcDbEntity
  8
寸法
 62
     0
 48
50.0
370
    -2
100
AcDbBlockReference
  2
_DOTSMALL
 10
7748.600000000007
 20
8033.754632419411
 30
0.0
 41
100.0
 42
100.0
 43
100.0
  0
INSERT
  5
254F8
330
24F0D
100
AcDbEntity
  8
寸法
 62
     0
 48
50.0
370
    -2
100
AcDbBlockReference
  2
_DOTSMALL
 10
6793.600000000001
 20
8033.754632419411
 30
0.0
 41
100.0
 42
100.0
 43
100.0
 50
180.0
  0
MTEXT
  5
254F9
330
24F0D
100
AcDbEntity
  8
寸法
 62
     7
 48
50.0
100
AcDbMText
 10
7271.100000000004
 20
8133.75463241941
 30
0.0
 40
120.0
 41
0.0
 71
     5
 72
     1
  1
\A1;955
  7
STYLE1
 73
     1
 44
1.0
1001
ACAD
1000
MTEXTBEGIN
1070
    73
1070
     1
1070
    44
1040
1.0
1070
    74
1070
     0
1000
MTEXTEND
  0
POINT
  5
254FA
330
24F0D
100
AcDbEntity
  8
DEFPOINTS
 62
     0
 48
50.0
100
AcDbPoint
 10
7748.600000000007
 20
6868.145815749162
 30
0.0
  0
POINT
  5
254FB
330
24F0D
100
AcDbEntity
  8
DEFPOINTS
 62
     0
 48
50.0
100
AcDbPoint
 10
6793.600000000001
 20
7551.145815749162
 30
0.0
  0
POINT
  5
254FC
330
24F0D
100
AcDbEntity
  8
DEFPOINTS
 62
     0
 48
50.0
100
AcDbPoint
 10
6793.600000000001
 20
8033.754632419411
 30
0.0
  0
ENDBLK
  5
24F18
330
24F0D
100
AcDbEntity
  8
0
 48
50.0
100
AcDbBlockEnd
  0
BLOCK
  5
24F23
330
24F19
100
AcDbEntity
  8
0
 48
50.0
100
AcDbBlockBegin
  2
*D37
 70
     1
 10
0.0
 20
0.0
 30
0.0
  3
*D37
  1

  0
LINE
  5
252D0
330
24F19
100
AcDbEntity
  8
寸法
 62
     0
 48
50.0
370
    -2
100
AcDbLine
 10
6773.6
 20
6011.145815749145
 30
0.0
 11
6620.512673767878
 21
6011.145815749145
 31
0.0
  0
LINE
  5
252D1
330
24F19
100
AcDbEntity
  8
寸法
 62
     0
 48
50.0
370
    -2
100
AcDbLine
 10
7129.325326928806
 20
5291.145815749145
 30
0.0
 11
6620.512673767878
 21
5291.145815749145
 31
0.0
  0
LINE
  5
252D2
330
24F19
100
AcDbEntity
  8
寸法
 62
     0
 48
50.0
370
    -2
100
AcDbLine
 10
6680.512673767878
 20
6011.145815749145
 30
0.0
 11
6680.512673767878
 21
5291.145815749145
 31
0.0
  0
INSERT
  5
252D3
330
24F19
100
AcDbEntity
  8
寸法
 62
     0
 48
50.0
370
    -2
100
AcDbBlockReference
  2
_DOTSMALL
 10
6680.512673767878
 20
6011.145815749145
 30
0.0
 41
100.0
 42
100.0
 43
100.0
 50
90.0
  0
INSERT
  5
252D4
330
24F19
100
AcDbEntity
  8
寸法
 62
     0
 48
50.0
370
    -2
100
AcDbBlockReference
  2
_DOTSMALL
 10
6680.512673767878
 20
5291.145815749145
 30
0.0
 41
100.0
 42
100.0
 43
100.0
 50
270.0
  0
MTEXT
  5
252D5
330
24F19
100
AcDbEntity
  8
寸法
 62
     7
 48
50.0
100
AcDbMText
 10
6580.500862744255
 20
5651.145815749146
 30
0.0
 40
120.0
 41
0.0
 71
     5
 72
     1
  1
\A1;扉の出720
  7
STYLE1
 11
0.0000000000000001
 21
1.0
 31
0.0
 73
     1
 44
1.0
1001
ACAD
1000
MTEXTBEGIN
1070
    73
1070
     1
1070
    44
1040
1.0
1070
    74
1070
     0
1000
MTEXTEND
  0
POINT
  5
252D6
330
24F19
100
AcDbEntity
  8
DEFPOINTS
 62
     0
 48
50.0
100
AcDbPoint
 10
6793.600000000001
 20
6011.145815749145
 30
0.0
  0
POINT
  5
252D7
330
24F19
100
AcDbEntity
  8
DEFPOINTS
 62
     0
 48
50.0
100
AcDbPoint
 10
7149.325326928805
 20
5291.145815749145
 30
0.0
  0
POINT
  5
252D8
330
24F19
100
AcDbEntity
  8
DEFPOINTS
 62
     0
 48
50.0
100
AcDbPoint
 10
6680.512673767878
 20
5291.145815749145
 30
0.0
  0
ENDBLK
  5
24F24
330
24F19
100
AcDbEntity
  8
0
 48
50.0
100
AcDbBlockEnd
  0
BLOCK
  5
24F30
330
24F25
100
AcDbEntity
  8
0
 48
50.0
100
AcDbBlockBegin
  2
*D38
 70
     1
 10
0.0
 20
0.0
 30
0.0
  3
*D38
  1

  0
LINE
  5
254C4
330
24F25
100
AcDbEntity
  8
寸法
 62
     0
 48
50.0
370
    -2
100
AcDbLine
 10
6846.600000000008
 20
6209.145815749165
 30
0.0
 11
6110.665006330073
 21
6209.145815749167
 31
0.0
  0
LINE
  5
254C5
330
24F25
100
AcDbEntity
  8
寸法
 62
     0
 48
50.0
370
    -2
100
AcDbLine
 10
6773.6
 20
6011.145815749162
 30
0.0
 11
6110.665006330072
 21
6011.145815749163
 31
0.0
  0
LINE
  5
254C6
330
24F25
100
AcDbEntity
  8
寸法
 62
     0
 48
50.0
370
    -2
100
AcDbLine
 10
6170.665006330073
 20
6209.145815749165
 30
0.0
 11
6170.665006330072
 21
6011.145815749162
 31
0.0
  0
LINE
  5
254C7
330
24F25
100
AcDbEntity
  8
寸法
 62
     0
 48
50.0
370
    -2
100
AcDbLine
 10
6170.665006330072
 20
6011.145815749162
 30
0.0
 11
6170.665006330072
 21
5539.405207076911
 31
0.0
  0
INSERT
  5
254C8
330
24F25
100
AcDbEntity
  8
寸法
 62
     0
 48
50.0
370
    -2
100
AcDbBlockReference
  2
_DOTSMALL
 10
6170.665006330073
 20
6209.145815749165
 30
0.0
 41
100.0
 42
100.0
 43
100.0
 50
90.0
  0
INSERT
  5
254C9
330
24F25
100
AcDbEntity
  8
寸法
 62
     0
 48
50.0
370
    -2
100
AcDbBlockReference
  2
_DOTSMALL
 10
6170.665006330072
 20
6011.145815749162
 30
0.0
 41
100.0
 42
100.0
 43
100.0
 50
270.0
  0
MTEXT
  5
254CA
330
24F25
100
AcDbEntity
  8
寸法
 62
     7
 48
50.0
100
AcDbMText
 10
6070.665006330071
 20
5675.61486690657
 30
0.0
 40
120.0
 41
0.0
 71
     5
 72
     1
  1
\A1;198
  7
STYLE1
 11
0.0000000000000001
 21
1.0
 31
0.0
 73
     1
 44
1.0
1001
ACAD
1000
MTEXTBEGIN
1070
    73
1070
     1
1070
    44
1040
1.0
1070
    74
1070
     0
1000
MTEXTEND
  0
POINT
  5
254CB
330
24F25
100
AcDbEntity
  8
DEFPOINTS
 62
     0
 48
50.0
100
AcDbPoint
 10
6866.600000000008
 20
6209.145815749165
 30
0.0
  0
POINT
  5
254CC
330
24F25
100
AcDbEntity
  8
DEFPOINTS
 62
     0
 48
50.0
100
AcDbPoint
 10
6793.600000000001
 20
6011.145815749162
 30
0.0
  0
POINT
  5
254CD
330
24F25
100
AcDbEntity
  8
DEFPOINTS
 62
     0
 48
50.0
100
AcDbPoint
 10
6170.665006330072
 20
6011.145815749162
 30
0.0
  0
ENDBLK
  5
24F31
330
24F25
100
AcDbEntity
  8
0
 48
50.0
100
AcDbBlockEnd
  0
BLOCK
  5
24F48
330
24F3E
100
AcDbEntity
  8
0
 48
50.0
100
AcDbBlockBegin
  2
*D39
 70
     1
 10
0.0
 20
0.0
 30
0.0
  3
*D39
  1

  0
LINE
  5
254E2
330
24F3E
100
AcDbEntity
  8
寸法
 62
     0
 48
50.0
370
    -2
100
AcDbLine
 10
7347.7654751409
 20
6011.145815749173
 30
0.0
 11
7216.285990614301
 21
6011.145815749173
 31
0.0
  0
LINE
  5
254E3
330
24F3E
100
AcDbEntity
  8
寸法
 62
     0
 48
50.0
370
    -2
100
AcDbLine
 10
7678.600000000007
 20
6818.145815749161
 30
0.0
 11
7216.285990614302
 21
6818.145815749161
 31
0.0
  0
LINE
  5
254E4
330
24F3E
100
AcDbEntity
  8
寸法
 62
     0
 48
50.0
370
    -2
100
AcDbLine
 10
7276.285990614302
 20
6011.145815749173
 30
0.0
 11
7276.285990614302
 21
6818.145815749161
 31
0.0
  0
INSERT
  5
254E5
330
24F3E
100
AcDbEntity
  8
寸法
 62
     0
 48
50.0
370
    -2
100
AcDbBlockReference
  2
_DOTSMALL
 10
7276.285990614302
 20
6011.145815749173
 30
0.0
 41
100.0
 42
100.0
 43
100.0
 50
270.0
  0
INSERT
  5
254E6
330
24F3E
100
AcDbEntity
  8
寸法
 62
     0
 48
50.0
370
    -2
100
AcDbBlockReference
  2
_DOTSMALL
 10
7276.285990614302
 20
6818.145815749161
 30
0.0
 41
100.0
 42
100.0
 43
100.0
 50
90.0
  0
MTEXT
  5
254E7
330
24F3E
100
AcDbEntity
  8
寸法
 62
     7
 48
50.0
100
AcDbMText
 10
7176.2859906143
 20
6496.145815749162
 30
0.0
 40
120.0
 41
0.0
 71
     5
 72
     1
  1
\A1;807
  7
STYLE1
 11
0.0000000000000001
 21
1.0
 31
0.0
 73
     1
 44
1.0
1001
ACAD
1000
MTEXTBEGIN
1070
    73
1070
     1
1070
    44
1040
1.0
1070
    74
1070
     0
1000
MTEXTEND
  0
POINT
  5
254E8
330
24F3E
100
AcDbEntity
  8
DEFPOINTS
 62
     0
 48
50.0
100
AcDbPoint
 10
7367.765475140901
 20
6011.145815749173
 30
0.0
  0
POINT
  5
254E9
330
24F3E
100
AcDbEntity
  8
DEFPOINTS
 62
     0
 48
50.0
100
AcDbPoint
 10
7698.600000000007
 20
6818.145815749161
 30
0.0
  0
POINT
  5
254EA
330
24F3E
100
AcDbEntity
  8
DEFPOINTS
 62
     0
 48
50.0
100
AcDbPoint
 10
7276.285990614302
 20
6818.145815749161
 30
0.0
  0
ENDBLK
  5
24F49
330
24F3E
100
AcDbEntity
  8
0
 48
50.0
100
AcDbBlockEnd
  0
BLOCK
  5
25859
330
2584F
100
AcDbEntity
  8
0
 48
50.0
100
AcDbBlockBegin
  2
*D40
 70
     1
 10
0.0
 20
0.0
 30
0.0
  3
*D40
  1

  0
LINE
  5
25899
330
2584F
100
AcDbEntity
  8
寸法
 62
     0
 48
50.0
370
    -2
100
AcDbLine
 10
8122.419189109235
 20
2036.103467950854
 30
0.0
 11
8664.287788878079
 21
2036.103467950854
 31
0.0
  0
LINE
  5
2589A
330
2584F
100
AcDbEntity
  8
寸法
 62
     0
 48
50.0
370
    -2
100
AcDbLine
 10
8122.419189109235
 20
1712.103467950853
 30
0.0
 11
8664.287788878079
 21
1712.103467950853
 31
0.0
  0
LINE
  5
2589B
330
2584F
100
AcDbEntity
  8
寸法
 62
     0
 48
50.0
370
    -2
100
AcDbLine
 10
8604.28778887808
 20
2036.103467950854
 30
0.0
 11
8604.28778887808
 21
1712.103467950853
 31
0.0
  0
INSERT
  5
2589C
330
2584F
100
AcDbEntity
  8
寸法
 62
     0
 48
50.0
370
    -2
100
AcDbBlockReference
  2
_DOTSMALL
 10
8604.28778887808
 20
2036.103467950854
 30
0.0
 41
100.0
 42
100.0
 43
100.0
 50
90.0
  0
INSERT
  5
2589D
330
2584F
100
AcDbEntity
  8
寸法
 62
     0
 48
50.0
370
    -2
100
AcDbBlockReference
  2
_DOTSMALL
 10
8604.28778887808
 20
1712.103467950853
 30
0.0
 41
100.0
 42
100.0
 43
100.0
 50
270.0
  0
MTEXT
  5
2589E
330
2584F
100
AcDbEntity
  8
寸法
 62
     7
 48
50.0
100
AcDbMText
 10
8504.287788878079
 20
1874.103467950854
 30
0.0
 40
120.0
 41
0.0
 71
     5
 72
     1
  1
\A1;180
  7
STYLE1
 11
0.0000000000000001
 21
1.0
 31
0.0
 73
     1
 44
1.0
1001
ACAD
1000
MTEXTBEGIN
1070
    73
1070
     1
1070
    44
1040
1.0
1070
    74
1070
     0
1000
MTEXTEND
  0
POINT
  5
2589F
330
2584F
100
AcDbEntity
  8
DEFPOINTS
 62
     0
 48
50.0
100
AcDbPoint
 10
8102.419189109234
 20
2036.103467950854
 30
0.0
  0
POINT
  5
258A0
330
2584F
100
AcDbEntity
  8
DEFPOINTS
 62
     0
 48
50.0
100
AcDbPoint
 10
8102.419189109234
 20
1712.103467950853
 30
0.0
  0
POINT
  5
258A1
330
2584F
100
AcDbEntity
  8
DEFPOINTS
 62
     0
 48
50.0
100
AcDbPoint
 10
8604.28778887808
 20
1712.103467950853
 30
0.0
  0
ENDBLK
  5
2585A
330
2584F
100
AcDbEntity
  8
0
 48
50.0
100
AcDbBlockEnd
  0
BLOCK
  5
25867
330
2585B
100
AcDbEntity
  8
0
 48
50.0
100
AcDbBlockBegin
  2
*D41
 70
     1
 10
0.0
 20
0.0
 30
0.0
  3
*D41
  1

  0
LINE
  5
258A2
330
2585B
100
AcDbEntity
  8
寸法
 62
     0
 48
50.0
370
    -2
100
AcDbLine
 10
7935.219189109237
 20
2088.863467950855
 30
0.0
 11
8940.342454997106
 21
2088.863467950855
 31
0.0
  0
LINE
  5
258A3
330
2585B
100
AcDbEntity
  8
寸法
 62
     0
 48
50.0
370
    -2
100
AcDbLine
 10
8122.419189109235
 20
2036.103467950854
 30
0.0
 11
8940.342454997106
 21
2036.103467950854
 31
0.0
  0
LINE
  5
258A4
330
2585B
100
AcDbEntity
  8
寸法
 62
     0
 48
50.0
370
    -2
100
AcDbLine
 10
8880.342454997105
 20
2088.863467950855
 30
0.0
 11
8880.342454997105
 21
2188.863467950855
 31
0.0
  0
LINE
  5
258A5
330
2585B
100
AcDbEntity
  8
寸法
 62
     0
 48
50.0
370
    -2
100
AcDbLine
 10
8880.342454997105
 20
2036.103467950854
 30
0.0
 11
8880.342454997105
 21
1304.085661107887
 31
0.0
  0
LINE
  5
258A6
330
2585B
100
AcDbEntity
  8
寸法
 62
     0
 48
50.0
370
    -2
100
AcDbLine
 10
8880.342454997105
 20
2088.863467950855
 30
0.0
 11
8880.342454997105
 21
2036.103467950854
 31
0.0
  0
INSERT
  5
258A7
330
2585B
100
AcDbEntity
  8
寸法
 62
     0
 48
50.0
370
    -2
100
AcDbBlockReference
  2
_DOTSMALL
 10
8880.342454997105
 20
2088.863467950855
 30
0.0
 41
100.0
 42
100.0
 43
100.0
 50
270.0
  0
INSERT
  5
258A8
330
2585B
100
AcDbEntity
  8
寸法
 62
     0
 48
50.0
370
    -2
100
AcDbBlockReference
  2
_DOTSMALL
 10
8880.342454997105
 20
2036.103467950854
 30
0.0
 41
100.0
 42
100.0
 43
100.0
 50
90.0
  0
MTEXT
  5
258A9
330
2585B
100
AcDbEntity
  8
寸法
 62
     7
 48
50.0
100
AcDbMText
 10
8780.330643973483
 20
1570.094564529371
 30
0.0
 40
120.0
 41
0.0
 71
     5
 72
     1
  1
\A1;20～25
  7
STYLE1
 11
0.0000000000000001
 21
1.0
 31
0.0
 73
     1
 44
1.0
1001
ACAD
1000
MTEXTBEGIN
1070
    73
1070
     1
1070
    44
1040
1.0
1070
    74
1070
     0
1000
MTEXTEND
  0
POINT
  5
258AA
330
2585B
100
AcDbEntity
  8
DEFPOINTS
 62
     0
 48
50.0
100
AcDbPoint
 10
7915.219189109237
 20
2088.863467950855
 30
0.0
  0
POINT
  5
258AB
330
2585B
100
AcDbEntity
  8
DEFPOINTS
 62
     0
 48
50.0
100
AcDbPoint
 10
8102.419189109234
 20
2036.103467950854
 30
0.0
  0
POINT
  5
258AC
330
2585B
100
AcDbEntity
  8
DEFPOINTS
 62
     0
 48
50.0
100
AcDbPoint
 10
8880.342454997105
 20
2036.103467950854
 30
0.0
  0
ENDBLK
  5
25868
330
2585B
100
AcDbEntity
  8
0
 48
50.0
100
AcDbBlockEnd
  0
BLOCK
  5
25873
330
25869
100
AcDbEntity
  8
0
 48
50.0
100
AcDbBlockBegin
  2
*D42
 70
     1
 10
0.0
 20
0.0
 30
0.0
  3
*D42
  1

  0
LINE
  5
258AD
330
25869
100
AcDbEntity
  8
寸法
 62
     0
 48
50.0
370
    -2
100
AcDbLine
 10
5840.379875932041
 20
1492.103467950854
 30
0.0
 11
5657.959562199582
 21
1492.103467950854
 31
0.0
  0
LINE
  5
258AE
330
25869
100
AcDbEntity
  8
寸法
 62
     0
 48
50.0
370
    -2
100
AcDbLine
 10
5760.379875932045
 20
1252.103467950854
 30
0.0
 11
5657.959562199582
 21
1252.103467950854
 31
0.0
  0
LINE
  5
258AF
330
25869
100
AcDbEntity
  8
寸法
 62
     0
 48
50.0
370
    -2
100
AcDbLine
 10
5717.959562199582
 20
1492.103467950854
 30
0.0
 11
5717.959562199582
 21
1252.103467950854
 31
0.0
  0
INSERT
  5
258B0
330
25869
100
AcDbEntity
  8
寸法
 62
     0
 48
50.0
370
    -2
100
AcDbBlockReference
  2
_DOTSMALL
 10
5717.959562199582
 20
1492.103467950854
 30
0.0
 41
100.0
 42
100.0
 43
100.0
 50
90.0
  0
INSERT
  5
258B1
330
25869
100
AcDbEntity
  8
寸法
 62
     0
 48
50.0
370
    -2
100
AcDbBlockReference
  2
_DOTSMALL
 10
5717.959562199582
 20
1252.103467950854
 30
0.0
 41
100.0
 42
100.0
 43
100.0
 50
270.0
  0
MTEXT
  5
258B2
330
25869
100
AcDbEntity
  8
寸法
 62
     7
 48
50.0
100
AcDbMText
 10
5617.959562199582
 20
1372.103467950855
 30
0.0
 40
120.0
 41
0.0
 71
     5
 72
     1
  1
\A1;150
  7
STYLE1
 11
0.0000000000000001
 21
1.0
 31
0.0
 73
     1
 44
1.0
1001
ACAD
1000
MTEXTBEGIN
1070
    73
1070
     1
1070
    44
1040
1.0
1070
    74
1070
     0
1000
MTEXTEND
  0
POINT
  5
258B3
330
25869
100
AcDbEntity
  8
DEFPOINTS
 62
     0
 48
50.0
100
AcDbPoint
 10
5860.379875932042
 20
1492.103467950854
 30
0.0
  0
POINT
  5
258B4
330
25869
100
AcDbEntity
  8
DEFPOINTS
 62
     0
 48
50.0
100
AcDbPoint
 10
5780.379875932045
 20
1252.103467950854
 30
0.0
  0
POINT
  5
258B5
330
25869
100
AcDbEntity
  8
DEFPOINTS
 62
     0
 48
50.0
100
AcDbPoint
 10
5717.959562199582
 20
1252.103467950854
 30
0.0
  0
ENDBLK
  5
25874
330
25869
100
AcDbEntity
  8
0
 48
50.0
100
AcDbBlockEnd
  0
BLOCK
  5
2587F
330
25875
100
AcDbEntity
  8
0
 48
50.0
100
AcDbBlockBegin
  2
*D43
 70
     1
 10
0.0
 20
0.0
 30
0.0
  3
*D43
  1

  0
LINE
  5
258B6
330
25875
100
AcDbEntity
  8
寸法
 62
     0
 48
50.0
370
    -2
100
AcDbLine
 10
5968.379875932042
 20
2036.103467950854
 30
0.0
 11
5193.342637370301
 21
2036.103467950854
 31
0.0
  0
LINE
  5
258B7
330
25875
100
AcDbEntity
  8
寸法
 62
     0
 48
50.0
370
    -2
100
AcDbLine
 10
5760.379875932045
 20
1252.103467950854
 30
0.0
 11
5193.342637370301
 21
1252.103467950854
 31
0.0
  0
LINE
  5
258B8
330
25875
100
AcDbEntity
  8
寸法
 62
     0
 48
50.0
370
    -2
100
AcDbLine
 10
5253.342637370302
 20
2036.103467950854
 30
0.0
 11
5253.342637370302
 21
1252.103467950854
 31
0.0
  0
INSERT
  5
258B9
330
25875
100
AcDbEntity
  8
寸法
 62
     0
 48
50.0
370
    -2
100
AcDbBlockReference
  2
_DOTSMALL
 10
5253.342637370302
 20
2036.103467950854
 30
0.0
 41
100.0
 42
100.0
 43
100.0
 50
90.0
  0
INSERT
  5
258BA
330
25875
100
AcDbEntity
  8
寸法
 62
     0
 48
50.0
370
    -2
100
AcDbBlockReference
  2
_DOTSMALL
 10
5253.342637370302
 20
1252.103467950854
 30
0.0
 41
100.0
 42
100.0
 43
100.0
 50
270.0
  0
MTEXT
  5
258BB
330
25875
100
AcDbEntity
  8
寸法
 62
     7
 48
50.0
100
AcDbMText
 10
5153.342637370301
 20
1623.643617606855
 30
0.0
 40
120.0
 41
0.0
 71
     5
 72
     1
  1
\A1;540
  7
STYLE1
 11
0.0000000000000001
 21
1.0
 31
0.0
 73
     1
 44
1.0
1001
ACAD
1000
MTEXTBEGIN
1070
    73
1070
     1
1070
    44
1040
1.0
1070
    74
1070
     0
1000
MTEXTEND
  0
POINT
  5
258BC
330
25875
100
AcDbEntity
  8
DEFPOINTS
 62
     0
 48
50.0
100
AcDbPoint
 10
5988.379875932042
 20
2036.103467950854
 30
0.0
  0
POINT
  5
258BD
330
25875
100
AcDbEntity
  8
DEFPOINTS
 62
     0
 48
50.0
100
AcDbPoint
 10
5780.379875932045
 20
1252.103467950854
 30
0.0
  0
POINT
  5
258BE
330
25875
100
AcDbEntity
  8
DEFPOINTS
 62
     0
 48
50.0
100
AcDbPoint
 10
5253.342637370302
 20
1252.103467950854
 30
0.0
  0
ENDBLK
  5
25880
330
25875
100
AcDbEntity
  8
0
 48
50.0
100
AcDbBlockEnd
  0
BLOCK
  5
2588B
330
25881
100
AcDbEntity
  8
0
 48
50.0
100
AcDbBlockBegin
  2
*D44
 70
     1
 10
0.0
 20
0.0
 30
0.0
  3
*D44
  1

  0
LINE
  5
258BF
330
25881
100
AcDbEntity
  8
寸法
 62
     0
 48
50.0
370
    -2
100
AcDbLine
 10
5860.379875932042
 20
1104.103467950854
 30
0.0
 11
5860.379875932042
 21
653.6738299456938
 31
0.0
  0
LINE
  5
258C0
330
25881
100
AcDbEntity
  8
寸法
 62
     0
 48
50.0
370
    -2
100
AcDbLine
 10
6308.379875932041
 20
1104.103467950854
 30
0.0
 11
6308.379875932041
 21
653.6738299456938
 31
0.0
  0
LINE
  5
258C1
330
25881
100
AcDbEntity
  8
寸法
 62
     0
 48
50.0
370
    -2
100
AcDbLine
 10
5860.379875932042
 20
713.6738299456937
 30
0.0
 11
6308.379875932041
 21
713.6738299456937
 31
0.0
  0
INSERT
  5
258C2
330
25881
100
AcDbEntity
  8
寸法
 62
     0
 48
50.0
370
    -2
100
AcDbBlockReference
  2
_DOTSMALL
 10
5860.379875932042
 20
713.6738299456937
 30
0.0
 41
100.0
 42
100.0
 43
100.0
 50
180.0
  0
INSERT
  5
258C3
330
25881
100
AcDbEntity
  8
寸法
 62
     0
 48
50.0
370
    -2
100
AcDbBlockReference
  2
_DOTSMALL
 10
6308.379875932041
 20
713.6738299456937
 30
0.0
 41
100.0
 42
100.0
 43
100.0
  0
MTEXT
  5
258C4
330
25881
100
AcDbEntity
  8
寸法
 62
     7
 48
50.0
100
AcDbMText
 10
6064.283117253818
 20
813.6738299456938
 30
0.0
 40
120.0
 41
0.0
 71
     5
 72
     1
  1
\A1;300
  7
STYLE1
 73
     1
 44
1.0
1001
ACAD
1000
MTEXTBEGIN
1070
    73
1070
     1
1070
    44
1040
1.0
1070
    74
1070
     0
1000
MTEXTEND
  0
POINT
  5
258C5
330
25881
100
AcDbEntity
  8
DEFPOINTS
 62
     0
 48
50.0
100
AcDbPoint
 10
5860.379875932042
 20
1124.103467950854
 30
0.0
  0
POINT
  5
258C6
330
25881
100
AcDbEntity
  8
DEFPOINTS
 62
     0
 48
50.0
100
AcDbPoint
 10
6308.379875932041
 20
1124.103467950854
 30
0.0
  0
POINT
  5
258C7
330
25881
100
AcDbEntity
  8
DEFPOINTS
 62
     0
 48
50.0
100
AcDbPoint
 10
6308.379875932041
 20
713.6738299456937
 30
0.0
  0
ENDBLK
  5
2588C
330
25881
100
AcDbEntity
  8
0
 48
50.0
100
AcDbBlockEnd
  0
BLOCK
  5
25897
330
2588D
100
AcDbEntity
  8
0
 48
50.0
100
AcDbBlockBegin
  2
*D45
 70
     1
 10
0.0
 20
0.0
 30
0.0
  3
*D45
  1

  0
LINE
  5
258C8
330
2588D
100
AcDbEntity
  8
寸法
 62
     0
 48
50.0
370
    -2
100
AcDbLine
 10
6180.379875932041
 20
2056.103467950854
 30
0.0
 11
6180.379875932041
 21
2515.771275867234
 31
0.0
  0
LINE
  5
258C9
330
2588D
100
AcDbEntity
  8
寸法
 62
     0
 48
50.0
370
    -2
100
AcDbLine
 10
5988.379875932042
 20
2056.103467950854
 30
0.0
 11
5988.379875932042
 21
2515.771275867234
 31
0.0
  0
LINE
  5
258CA
330
2588D
100
AcDbEntity
  8
寸法
 62
     0
 48
50.0
370
    -2
100
AcDbLine
 10
6180.379875932041
 20
2455.771275867234
 30
0.0
 11
5988.379875932042
 21
2455.771275867234
 31
0.0
  0
INSERT
  5
258CB
330
2588D
100
AcDbEntity
  8
寸法
 62
     0
 48
50.0
370
    -2
100
AcDbBlockReference
  2
_DOTSMALL
 10
6180.379875932041
 20
2455.771275867234
 30
0.0
 41
100.0
 42
100.0
 43
100.0
  0
INSERT
  5
258CC
330
2588D
100
AcDbEntity
  8
寸法
 62
     0
 48
50.0
370
    -2
100
AcDbBlockReference
  2
_DOTSMALL
 10
5988.379875932042
 20
2455.771275867234
 30
0.0
 41
100.0
 42
100.0
 43
100.0
 50
180.0
  0
MTEXT
  5
258CD
330
2588D
100
AcDbEntity
  8
寸法
 62
     7
 48
50.0
100
AcDbMText
 10
6084.379875932041
 20
2755.8067089381
 30
0.0
 40
120.0
 41
0.0
 71
     5
 72
     1
  1
\A1;120\P200\P280
  7
STYLE1
 73
     1
 44
1.0
1001
ACAD
1000
MTEXTBEGIN
1070
    73
1070
     1
1070
    44
1040
1.0
1070
    74
1070
     0
1000
MTEXTEND
  0
POINT
  5
258CE
330
2588D
100
AcDbEntity
  8
DEFPOINTS
 62
     0
 48
50.0
100
AcDbPoint
 10
6180.379875932041
 20
2036.103467950854
 30
0.0
  0
POINT
  5
258CF
330
2588D
100
AcDbEntity
  8
DEFPOINTS
 62
     0
 48
50.0
100
AcDbPoint
 10
5988.379875932042
 20
2036.103467950854
 30
0.0
  0
POINT
  5
258D0
330
2588D
100
AcDbEntity
  8
DEFPOINTS
 62
     0
 48
50.0
100
AcDbPoint
 10
5988.379875932042
 20
2455.771275867234
 30
0.0
  0
ENDBLK
  5
25898
330
2588D
100
AcDbEntity
  8
0
 48
50.0
100
AcDbBlockEnd
  0
ENDSEC
  0
SECTION
  2
ENTITIES
  0
MTEXT
  5
763F
330
747D
100
AcDbEntity
  8
0
100
AcDbMText
 10
302.846345836809
 20
280.1983726409901
 30
0.0
 40
3.5
 41
5.323721266742722
 71
     1
 72
     5
  1

  7
MSMINCHO
 73
     1
 44
1.0
1001
ACAD
1000
MTEXTBEGIN
1070
    73
1070
     1
1070
    44
1040
1.0
1070
    74
1070
     0
1000
MTEXTEND
  0
LINE
  5
10B57
330
747D
100
AcDbEntity
  8
補助
  6
PHANTOM
 62
   230
 48
50.0
100
AcDbLine
 10
139.9999999999995
 20
11409.6
 30
0.0
 11
16307.2
 21
11409.6
 31
0.0
  0
LINE
  5
10B59
330
747D
100
AcDbEntity
  8
仕様書枠
  6
Continuous
 48
50.0
100
AcDbLine
 10
13107.2
 20
1200.0
 30
0.0
 11
13107.2
 21
-0.0000000000000729
 31
0.0
  0
LINE
  5
10B5D
330
747D
100
AcDbEntity
  8
仕様書枠
 48
50.0
100
AcDbLine
 10
140.0
 20
0.0
 30
0.0
 11
16307.2
 21
-0.0000000000000909
 31
0.0
  0
LINE
  5
10B5E
330
747D
100
AcDbEntity
  8
補助
  6
PHANTOM
 62
   230
 48
50.0
100
AcDbLine
 10
16307.2
 20
11409.6
 30
0.0
 11
16307.2
 21
1200.0
 31
0.0
  0
LINE
  5
10B6C
330
747D
100
AcDbEntity
  8
仕様書枠
 48
50.0
100
AcDbLine
 10
13107.2
 20
1200.0
 30
0.0
 11
16307.2
 21
1200.0
 31
0.0
  0
TEXT
  5
10B73
330
747D
100
AcDbEntity
  8
文字
 62
     7
 48
50.0
100
AcDbText
 10
13162.9790565769
 20
895.0906074299405
 30
0.0
 40
200.0
  1
基 礎 図
  7
STYLE2
100
AcDbText
  0
LINE
  5
10B7B
330
747D
100
AcDbEntity
  8
仕様書枠
 48
50.0
100
AcDbLine
 10
13107.2
 20
800.0
 30
0.0
 11
14251.2
 21
800.0
 31
0.0
  0
LINE
  5
10B88
330
747D
100
AcDbEntity
  8
仕様書枠
  6
Continuous
 48
50.0
100
AcDbLine
 10
14251.2
 20
1200.0
 30
0.0
 11
14251.2
 21
800.0
 31
0.0
  0
LINE
  5
16462
330
747D
100
AcDbEntity
  8
仕様書枠
 48
50.0
100
AcDbLine
 10
16307.2
 20
1200.0
 30
0.0
 11
16307.2
 21
-0.0000000000000909
 31
0.0
  0
LINE
  5
1903B
330
747D
100
AcDbEntity
  8
補助
  6
PHANTOM
 62
   230
 48
50.0
100
AcDbLine
 10
140.0
 20
0.0
 30
0.0
 11
139.9999999999995
 21
11409.6
 31
0.0
  0
LEADER
  5
1AC27
330
747D
100
AcDbEntity
  8
寸法
 48
50.0
100
AcDbLeader
  3
INABA_S50G
 73
     0
 74
     0
 75
     1
 40
120.0
 41
720.0000000000001
 76
     3
 10
9655.05985718447
 20
6815.097552284514
 30
0.0
 10
9811.833431570756
 20
6554.08363871668
 30
0.0
 10
9936.833431570756
 20
6554.08363871668
 30
0.0
340
1AC28
1001
ACAD
1000
DSTYLE
1002
{
1070
   341
1005
0
1070
    40
1040
1.0
1070
   343
1005
0
1070
   344
1005
0
1002
}
  0
MTEXT
  5
1AC28
102
{ACAD_REACTORS
330
1AC27
102
}
330
747D
100
AcDbEntity
  8
部品1
 62
     7
 48
50.0
100
AcDbMText
 10
10681.83343157075
 20
6639.083638716681
 30
0.0
 40
120.0
 41
0.0
 71
     6
 72
     1
  1
\A1;床下換気口
  7
STYLE1
 73
     1
 44
1.0
1001
ACAD
1000
MTEXTBEGIN
1070
    73
1070
     1
1070
    44
1040
1.0
1070
    74
1070
     0
1000
MTEXTEND
  0
TEXT
  5
1AC29
330
747D
100
AcDbEntity
  8
部品1
 48
50.0
100
AcDbText
 10
9997.648073703023
 20
5875.296993423513
 30
0.0
 40
80.0
  1
(a=45,b=55,c=75)
  7
STYLE1
100
AcDbText
  0
TEXT
  5
1AC2A
330
747D
100
AcDbEntity
  8
部品1
 48
50.0
100
AcDbText
 10
9839.069064948724
 20
5982.142214292268
 30
0.0
 40
80.0
  1
※a,b,cは屋根の出幅です。
  7
STYLE1
100
AcDbText
  0
MTEXT
  5
1AC2B
102
{ACAD_REACTORS
330
1AC2C
102
}
330
747D
100
AcDbEntity
  8
部品1
 62
     7
 48
50.0
100
AcDbMText
 10
10636.85626093733
 20
6161.452901225342
 30
0.0
 40
120.0
 41
0.0
 71
     6
 72
     1
  1
\A1;屋根の外寸
  7
STYLE1
 73
     1
 44
1.0
1001
ACAD
1000
MTEXTBEGIN
1070
    73
1070
     1
1070
    44
1040
1.0
1070
    74
1070
     0
1000
MTEXTEND
  0
LEADER
  5
1AC2C
330
747D
100
AcDbEntity
  8
寸法
 48
50.0
100
AcDbLeader
  3
INABA_S50G
 73
     0
 74
     0
 75
     1
 40
120.0
 41
672.0
 76
     3
 10
9698.916248745288
 20
6335.342244688918
 30
0.0
 10
9814.856260937327
 20
6076.452901225342
 30
0.0
 10
9939.856260937327
 20
6076.452901225342
 30
0.0
340
1AC2B
1001
ACAD
1000
DSTYLE
1002
{
1070
   341
1005
0
1070
    40
1040
1.0
1070
   343
1005
0
1070
   344
1005
0
1002
}
  0
TEXT
  5
1C7A1
330
747D
100
AcDbEntity
  8
文字
 62
     7
 48
50.0
100
AcDbText
 10
13188.16259899338
 20
79.80631269190417
 30
0.0
 40
80.0
  1
※布基礎には換気口を設けてください。
  7
STYLE2
100
AcDbText
  0
TEXT
  5
1C7E7
330
747D
100
AcDbEntity
  8
文字
 62
     7
 48
50.0
100
AcDbText
 10
13188.16259899338
 20
246.7109242801889
 30
0.0
 40
80.0
  1
※寒冷地等は地域の実情に合わせた基礎にして下さい。
  7
STYLE2
100
AcDbText
  0
TEXT
  5
1C7E8
330
747D
100
AcDbEntity
  8
文字
 62
     7
 48
50.0
100
AcDbText
 10
14325.79230300687
 20
499.5983841039506
 30
0.0
 40
160.0
  1
ＮＸＮ－１４ＤＬ－３
  7
STYLE2
100
AcDbText
  0
TEXT
  5
1C7EC
330
747D
100
AcDbEntity
  8
文字
 62
     7
 48
50.0
100
AcDbText
 10
14524.131837222
 20
1031.557706291229
 30
0.0
 40
100.0
  1
      <縮尺> S=1/40
  7
STYLE2
100
AcDbText
  0
TEXT
  5
1C7ED
330
747D
100
AcDbEntity
  8
文字
 62
     7
 48
50.0
100
AcDbText
 10
13201.43669998441
 20
477.2740661031257
 30
0.0
 40
160.0
  1
機種名
  7
STYLE2
100
AcDbText
  0
LINE
  5
1C7EF
330
747D
100
AcDbEntity
  8
文字
 62
     7
 48
50.0
100
AcDbLine
 10
13187.2
 20
400.0
 30
0.0
 11
16227.2
 21
400.0
 31
0.0
  0
MTEXT
  5
1D2D5
102
{ACAD_REACTORS
330
1D2D6
102
}
330
747D
100
AcDbEntity
  8
部品1
 62
     7
 48
50.0
100
AcDbMText
 10
10848.99523070988
 20
7866.75855999167
 30
0.0
 40
120.0
 41
0.0
 71
     6
 72
     1
  1
アンカーボルト
  7
STYLE1
 73
     1
 44
1.0
1001
ACAD
1000
MTEXTBEGIN
1070
    73
1070
     1
1070
    44
1040
1.0
1070
    74
1070
     0
1000
MTEXTEND
  0
LEADER
  5
1D2D6
330
747D
100
AcDbEntity
  8
寸法
 48
50.0
100
AcDbLeader
  3
INABA_S50G
 73
     0
 74
     0
 75
     1
 40
120.0
 41
994.3492424049171
 76
     3
 10
9530.680085756999
 20
7428.353660107873
 30
0.0
 10
9704.645988304966
 20
7781.758559991671
 30
0.0
 10
9829.645988304966
 20
7781.758559991671
 30
0.0
340
1D2D5
1001
ACAD
1000
DSTYLE
1002
{
1070
   341
1005
0
1070
    40
1040
1.0
1070
   343
1005
0
1070
   344
1005
0
1002
}
  0
MTEXT
  5
1D332
102
{ACAD_REACTORS
330
1D333
102
}
330
747D
100
AcDbEntity
  8
部品1
 62
     7
 48
50.0
100
AcDbMText
 10
9213.828697015694
 20
6641.736336682718
 30
0.0
 40
120.0
 41
0.0
 71
     6
 72
     1
  1
CB
  7
STYLE1
 73
     1
 44
1.0
1001
ACAD
1000
MTEXTBEGIN
1070
    73
1070
     1
1070
    44
1040
1.0
1070
    74
1070
     0
1000
MTEXTEND
  0
LEADER
  5
1D333
330
747D
100
AcDbEntity
  8
寸法
 48
50.0
100
AcDbLeader
  3
INABA_S50G
 73
     0
 74
     0
 75
     1
 40
120.0
 41
149.591883092037
 76
     3
 10
8786.954011061013
 20
6779.454650237544
 30
0.0
 10
8914.236813923656
 20
6556.736336682718
 30
0.0
 10
9039.236813923656
 20
6556.736336682718
 30
0.0
340
1D332
1001
ACAD
1000
DSTYLE
1002
{
1070
   341
1005
0
1070
    40
1040
1.0
1070
   343
1005
0
1070
   344
1005
0
1002
}
  0
DIMENSION
  5
20DE1
330
747D
100
AcDbEntity
  8
寸法
 48
50.0
100
AcDbDimension
  2
*D19
 10
9698.6
 20
8509.366137808084
 30
0.0
 11
9969.774621202461
 21
8509.366137808084
 31
0.0
 70
   160
  1
a
 71
     5
 42
45.0
  3
INABA_S40G
100
AcDbAlignedDimension
 13
9653.6
 23
7551.145815749162
 33
0.0
 14
9698.6
 24
8277.412273843072
 34
0.0
100
AcDbRotatedDimension
1001
ACAD
1000
DSTYLE
1002
{
1070
   341
1005
0
1002
}
  0
DIMENSION
  5
20DFB
330
747D
100
AcDbEntity
  8
寸法
 48
50.0
100
AcDbDimension
  2
*D20
 10
6793.600000000001
 20
8509.366137808084
 30
0.0
 11
6477.425378797541
 21
8509.366137808084
 31
0.0
 70
   160
  1
a
 71
     5
 42
44.99999999999636
  3
INABA_S40G
100
AcDbAlignedDimension
 13
6748.600000000005
 23
8277.412273843074
 33
0.0
 14
6793.600000000001
 24
7551.145815749162
 34
0.0
100
AcDbRotatedDimension
1001
ACAD
1000
DSTYLE
1002
{
1070
   341
1005
0
1002
}
  0
LINE
  5
22711
330
747D
100
AcDbEntity
  8
想像線
 48
10.0
100
AcDbLine
 10
9698.6
 20
7626.145815749165
 30
0.0
 11
6748.600000000002
 21
7626.145815749168
 31
0.0
  0
LINE
  5
22712
330
747D
100
AcDbEntity
  8
想像線
 48
10.0
100
AcDbLine
 10
6748.599999999999
 20
5956.145815749203
 30
0.0
 11
6748.600000000002
 21
7626.145815749167
 31
0.0
  0
LINE
  5
22713
330
747D
100
AcDbEntity
  8
想像線
 48
10.0
100
AcDbLine
 10
9698.6
 20
5956.145815749209
 30
0.0
 11
9698.6
 21
7626.145815749165
 31
0.0
  0
LINE
  5
22714
330
747D
100
AcDbEntity
  8
想像線
 48
10.0
100
AcDbLine
 10
9698.6
 20
5956.145815749209
 30
0.0
 11
6748.599999999996
 21
5956.1458157492
 31
0.0
  0
DIMENSION
  5
22741
330
747D
100
AcDbEntity
  8
寸法
 48
50.0
100
AcDbDimension
  2
*D21
 10
5918.721909610674
 20
7551.145815749163
 30
0.0
 11
5818.721909610673
 21
7588.645815749167
 31
0.0
 70
    32
  1
c
 71
     5
 42
75.00000000000636
  3
INABA_S40G
100
AcDbAlignedDimension
 13
6170.665006330069
 23
7626.145815749167
 33
0.0
 14
6793.600000000001
 24
7551.145815749162
 34
0.0
 50
90.0
100
AcDbRotatedDimension
1001
ACAD
1000
DSTYLE
1002
{
1070
   341
1005
0
1002
}
  0
DIMENSION
  5
2275B
330
747D
100
AcDbEntity
  8
寸法
 48
50.0
100
AcDbDimension
  2
*D22
 10
5918.721909610673
 20
5956.14581574922
 30
0.0
 11
5818.721909610673
 21
5983.645815749208
 31
0.0
 70
    32
  1
b
 71
     5
 42
54.99999999997453
  3
INABA_S40G
100
AcDbAlignedDimension
 13
6793.599999999999
 23
6011.145815749194
 33
0.0
 14
6170.665006330072
 24
5956.145815749219
 34
0.0
 50
90.0
100
AcDbRotatedDimension
1001
ACAD
1000
DSTYLE
1002
{
1070
   341
1005
0
1002
}
  0
DIMENSION
  5
23FD9
330
747D
100
AcDbEntity
  8
寸法
 48
50.0
100
AcDbDimension
  2
*D24
 10
8972.812020225658
 20
6011.14581574918
 30
0.0
 11
8972.812020225656
 21
5724.182233072008
 31
0.0
 70
   160
 71
     5
 42
279.9999999999964
  3
INABA_S40G
100
AcDbAlignedDimension
 13
9073.599999999993
 23
6291.145815749176
 33
0.0
 14
9073.6
 24
6011.14581574918
 34
0.0
 50
90.0
100
AcDbRotatedDimension
1001
ACAD
1000
DSTYLE
1002
{
1070
   341
1005
0
1002
}
  0
DIMENSION
  5
23FDA
330
747D
100
AcDbEntity
  8
寸法
 48
50.0
100
AcDbDimension
  2
*D25
 10
8972.812020225658
 20
7351.145815749163
 30
0.0
 11
8972.812020225656
 21
7838.109398426318
 31
0.0
 70
   160
 71
     5
 42
199.9999999999854
  3
INABA_S40G
100
AcDbAlignedDimension
 13
9073.6
 23
7551.145815749149
 33
0.0
 14
9073.600000000007
 24
7351.145815749163
 34
0.0
 50
90.0
100
AcDbRotatedDimension
1001
ACAD
1000
DSTYLE
1002
{
1070
   341
1005
0
1002
}
  0
DIMENSION
  5
24043
330
747D
100
AcDbEntity
  8
寸法
 48
50.0
100
AcDbDimension
  2
*D23
 10
9533.599999999999
 20
7100.744428847272
 30
0.0
 11
9923.659055118113
 21
7100.744428847272
 31
0.0
 70
   160
 71
     5
 42
120.0
  3
INABA_S40G
100
AcDbAlignedDimension
 13
9653.6
 23
6986.1458157492
 33
0.0
 14
9533.599999999999
 24
6986.145815749198
 34
0.0
100
AcDbRotatedDimension
1001
ACAD
1000
DSTYLE
1002
{
1070
   341
1005
0
1002
}
  0
LINE
  5
24DB9
330
747D
100
AcDbEntity
  8
部品1
 48
50.0
100
AcDbLine
 10
9533.600000000005
 20
7351.145815749162
 30
0.0
 11
6913.599999999995
 21
7351.145815749162
 31
0.0
  0
DIMENSION
  5
24DBD
330
747D
100
AcDbEntity
  8
寸法
 48
50.0
100
AcDbDimension
  2
*D30
 10
8698.600000000007
 20
8033.754632419411
 30
0.0
 11
8223.600000000008
 21
8133.75463241941
 31
0.0
 70
    32
 71
     5
 42
950.0
  3
INABA_S40G
100
AcDbAlignedDimension
 13
7748.600000000007
 23
6868.145815749162
 33
0.0
 14
8698.600000000007
 24
6868.145815749162
 34
0.0
100
AcDbRotatedDimension
1001
ACAD
1000
DSTYLE
1002
{
1070
   341
1005
0
1002
}
  0
TEXT
  5
24DBE
330
747D
100
AcDbEntity
  8
寸法
 48
50.0
100
AcDbText
 10
8562.652175744823
 20
6029.827106541899
 30
0.0
 40
120.0
  1
扉面
  7
STYLE1
100
AcDbText
  0
LINE
  5
24DBF
330
747D
100
AcDbEntity
  8
部品1
 48
50.0
100
AcDbLine
 10
9653.6
 20
6011.14581574918
 30
0.0
 11
6793.599999999996
 21
6011.145815749158
 31
0.0
  0
LINE
  5
24DC0
330
747D
100
AcDbEntity
  8
部品1
 48
50.0
100
AcDbLine
 10
9653.6
 20
7551.145815749162
 30
0.0
 11
6793.600000000001
 21
7551.145815749162
 31
0.0
  0
DIMENSION
  5
24DC1
330
747D
100
AcDbEntity
  8
寸法
 48
50.0
100
AcDbDimension
  2
*D31
 10
6916.600000000001
 20
8277.412273843072
 30
0.0
 11
8223.600000000001
 21
8377.424084866694
 31
0.0
 70
    32
 71
     5
 42
2614.0
  3
INABA_S40G
100
AcDbAlignedDimension
 13
9530.600000000001
 23
7478.145815749162
 33
0.0
 14
6916.600000000001
 24
7478.145815749162
 34
0.0
100
AcDbRotatedDimension
1001
ACAD
1000
DSTYLE
1002
{
1070
   341
1005
0
1002
}
  0
DIMENSION
  5
24DC2
330
747D
100
AcDbEntity
  8
寸法
 48
50.0
100
AcDbDimension
  2
*D32
 10
9653.6
 20
8509.366137808079
 30
0.0
 11
8223.600000000001
 21
8609.377948831701
 31
0.0
 70
    32
 71
     5
 42
2860.0
  3
INABA_S40G
100
AcDbAlignedDimension
 13
6793.600000000001
 23
7551.145815749162
 33
0.0
 14
9653.6
 24
7551.145815749162
 34
0.0
100
AcDbRotatedDimension
1001
ACAD
1000
DSTYLE
1002
{
1070
   341
1005
0
1002
}
  0
DIMENSION
  5
24DC5
330
747D
100
AcDbEntity
  8
寸法
 48
50.0
100
AcDbDimension
  2
*D33
 10
7276.285990614302
 20
7551.145815749162
 30
0.0
 11
7276.285990614301
 21
7110.740606443338
 31
0.0
 70
   160
 71
     5
 42
733.0
  3
INABA_S40G
100
AcDbAlignedDimension
 13
7698.600000000007
 23
6818.145815749161
 33
0.0
 14
7367.765475140901
 24
7551.145815749162
 34
0.0
 50
90.0
100
AcDbRotatedDimension
1001
ACAD
1000
DSTYLE
1002
{
1070
   341
1005
0
1002
}
  0
DIMENSION
  5
24DC6
330
747D
100
AcDbEntity
  8
寸法
 48
50.0
100
AcDbDimension
  2
*D34
 10
5918.721909610674
 20
6011.145815749163
 30
0.0
 11
5918.721909610673
 21
6818.645815749161
 31
0.0
 70
   160
 71
     5
 42
1540.0
  3
INABA_S40G
100
AcDbAlignedDimension
 13
6793.600000000001
 23
7551.145815749162
 33
0.0
 14
6793.600000000001
 24
6011.145815749162
 34
0.0
 50
90.0
100
AcDbRotatedDimension
1001
ACAD
1000
DSTYLE
1002
{
1070
   341
1005
0
1002
}
  0
LINE
  5
24DC7
102
{ACAD_REACTORS
330
2557E
102
}
330
747D
100
AcDbEntity
  8
部品1
 48
50.0
100
AcDbLine
 10
6793.600000000001
 20
6011.145815749162
 30
0.0
 11
6793.600000000001
 21
7551.145815749162
 31
0.0
  0
DIMENSION
  5
24DC8
330
747D
100
AcDbEntity
  8
寸法
 48
50.0
100
AcDbDimension
  2
*D35
 10
6170.665006330073
 20
6209.145815749165
 30
0.0
 11
6170.665006330072
 21
6818.645815749161
 31
0.0
 70
   160
 71
     5
 42
1218.999999999996
  3
INABA_S40G
100
AcDbAlignedDimension
 13
6866.600000000001
 23
7428.145815749161
 33
0.0
 14
6866.600000000008
 24
6209.145815749165
 34
0.0
 50
90.0
100
AcDbRotatedDimension
1001
ACAD
1000
DSTYLE
1002
{
1070
   341
1005
0
1002
}
  0
DIMENSION
  5
24DCB
330
747D
100
AcDbEntity
  8
寸法
 48
50.0
100
AcDbDimension
  2
*D36
 10
6793.600000000001
 20
8033.754632419411
 30
0.0
 11
7271.100000000004
 21
8133.75463241941
 31
0.0
 70
    32
 71
     5
 42
955.0000000000073
  3
INABA_S40G
100
AcDbAlignedDimension
 13
7748.600000000007
 23
6868.145815749162
 33
0.0
 14
6793.600000000001
 24
7551.145815749162
 34
0.0
100
AcDbRotatedDimension
1001
ACAD
1000
DSTYLE
1002
{
1070
   341
1005
0
1002
}
  0
LINE
  5
24DCC
102
{ACAD_REACTORS
330
2557E
102
}
330
747D
100
AcDbEntity
  8
部品1
 48
50.0
100
AcDbLine
 10
6913.599999999997
 20
6906.145815749177
 30
0.0
 11
6793.599999999988
 21
6906.145815749176
 31
0.0
  0
LINE
  5
24DCD
102
{ACAD_REACTORS
330
2557E
102
}
330
747D
100
AcDbEntity
  8
部品1
 48
50.0
100
AcDbLine
 10
6913.599999999998
 20
6706.145815749177
 30
0.0
 11
6793.599999999988
 21
6706.145815749176
 31
0.0
  0
DIMENSION
  5
24DCF
330
747D
100
AcDbEntity
  8
寸法
 48
50.0
100
AcDbDimension
  2
*D37
 10
6680.512673767878
 20
5291.145815749145
 30
0.0
 11
6680.512673767876
 21
5651.145815749146
 31
0.0
 70
   160
  1
扉の出<>
 71
     5
 42
720.0
  3
INABA_S40G
100
AcDbAlignedDimension
 13
6793.600000000001
 23
6011.145815749145
 33
0.0
 14
7149.325326928805
 24
5291.145815749145
 34
0.0
 50
90.0
100
AcDbRotatedDimension
1001
ACAD
1000
DSTYLE
1002
{
1070
   341
1005
0
1002
}
  0
ARC
  5
24DD0
330
747D
100
AcDbEntity
  8
想像線
 48
5.0
100
AcDbCircle
 10
7563.6
 20
6011.145815749105
 30
0.0
 40
720.0
100
AcDbArc
 50
180.0
 51
270.0
  0
DIMENSION
  5
24DD1
330
747D
100
AcDbEntity
  8
寸法
 48
50.0
100
AcDbDimension
  2
*D38
 10
6170.665006330072
 20
6011.145815749162
 30
0.0
 11
6170.665006330072
 21
5675.61486690657
 31
0.0
 70
   160
 71
     5
 42
198.0000000000036
  3
INABA_S40G
100
AcDbAlignedDimension
 13
6866.600000000008
 23
6209.145815749165
 33
0.0
 14
6793.600000000001
 24
6011.145815749162
 34
0.0
 50
90.0
100
AcDbRotatedDimension
1001
ACAD
1000
DSTYLE
1002
{
1070
   341
1005
0
1002
}
  0
LINE
  5
24DD3
330
747D
100
AcDbEntity
  8
想像線
 48
5.0
100
AcDbLine
 10
7563.6
 20
6011.145815749117
 30
0.0
 11
7563.6
 21
5291.145815749105
 31
0.0
  0
DIMENSION
  5
24DD4
330
747D
100
AcDbEntity
  8
寸法
 48
50.0
100
AcDbDimension
  2
*D39
 10
7276.285990614302
 20
6818.145815749161
 30
0.0
 11
7276.285990614301
 21
6496.145815749162
 31
0.0
 70
   160
 71
     5
 42
806.999999999989
  3
INABA_S40G
100
AcDbAlignedDimension
 13
7367.765475140901
 23
6011.145815749173
 33
0.0
 14
7698.600000000007
 24
6818.145815749161
 34
0.0
 50
90.0
100
AcDbRotatedDimension
1001
ACAD
1000
DSTYLE
1002
{
1070
   341
1005
0
1002
}
  0
LINE
  5
24DD5
330
747D
100
AcDbEntity
  8
細線
 48
50.0
100
AcDbLine
 10
7174.700523133073
 20
6011.14581574918
 30
0.0
 11
7373.599999999993
 21
6210.045292616102
 31
0.0
  0
LINE
  5
24DD6
330
747D
100
AcDbEntity
  8
細線
 48
50.0
100
AcDbLine
 10
7173.599999999997
 20
6054.946573221452
 30
0.0
 11
7373.599999999993
 21
6254.946573221446
 31
0.0
  0
LINE
  5
24DD7
330
747D
100
AcDbEntity
  8
細線
 48
50.0
100
AcDbLine
 10
7173.599999999997
 20
6099.847853826798
 30
0.0
 11
7364.897961922356
 21
6291.145815749164
 31
0.0
  0
LINE
  5
24DD8
330
747D
100
AcDbEntity
  8
細線
 48
50.0
100
AcDbLine
 10
7173.599999999995
 20
6144.749134432142
 30
0.0
 11
7319.996681317014
 21
6291.145815749161
 31
0.0
  0
LINE
  5
24DD9
330
747D
100
AcDbEntity
  8
細線
 48
50.0
100
AcDbLine
 10
7173.599999999995
 20
6189.65041503749
 30
0.0
 11
7275.09540071166
 21
6291.14581574916
 31
0.0
  0
LINE
  5
24DDA
330
747D
100
AcDbEntity
  8
部品1
 48
50.0
100
AcDbLine
 10
7173.599999999992
 20
6291.145815749161
 30
0.0
 11
7173.599999999999
 21
6011.14581574918
 31
0.0
  0
LINE
  5
24DDB
330
747D
100
AcDbEntity
  8
センター
 48
2.0
100
AcDbLine
 10
6916.600000000008
 20
6259.145815749165
 30
0.0
 11
6916.600000000008
 21
6159.145815749165
 31
0.0
  0
CIRCLE
  5
24DDC
330
747D
100
AcDbEntity
  8
部品1
 48
50.0
100
AcDbCircle
 10
6916.599999999992
 20
6209.145815749165
 30
0.0
 40
35.0
  0
LINE
  5
24DDD
330
747D
100
AcDbEntity
  8
センター
 48
2.0
100
AcDbLine
 10
6866.600000000008
 20
6209.145815749165
 30
0.0
 11
6966.600000000008
 21
6209.145815749165
 31
0.0
  0
LINE
  5
24DDE
330
747D
100
AcDbEntity
  8
細線
 48
50.0
100
AcDbLine
 10
7173.599999999993
 20
6234.551695642832
 30
0.0
 11
7230.194120106327
 21
6291.145815749161
 31
0.0
  0
LINE
  5
24DDF
330
747D
100
AcDbEntity
  8
細線
 48
50.0
100
AcDbLine
 10
7264.503084343765
 20
6011.145815749183
 30
0.0
 11
7373.6
 21
6120.242731405417
 31
0.0
  0
LINE
  5
24DE0
330
747D
100
AcDbEntity
  8
細線
 48
50.0
100
AcDbLine
 10
7309.404364949113
 20
6011.145815749183
 30
0.0
 11
7373.6
 21
6075.341450800071
 31
0.0
  0
LINE
  5
24DE1
330
747D
100
AcDbEntity
  8
細線
 48
50.0
100
AcDbLine
 10
7219.601803738417
 20
6011.145815749181
 30
0.0
 11
7373.599999999995
 21
6165.14401201076
 31
0.0
  0
LINE
  5
24DE2
330
747D
100
AcDbEntity
  8
部品1
 48
50.0
100
AcDbLine
 10
7373.599999999993
 20
6291.145815749161
 30
0.0
 11
7373.599999999999
 21
6011.145815749183
 31
0.0
  0
LINE
  5
24DE3
330
747D
100
AcDbEntity
  8
細線
 48
50.0
100
AcDbLine
 10
7354.30564555446
 20
6011.145815749185
 30
0.0
 11
7373.600000000002
 21
6030.440170194728
 31
0.0
  0
LINE
  5
24DE4
330
747D
100
AcDbEntity
  8
細線
 48
50.0
100
AcDbLine
 10
8259.404364949112
 20
6011.145815749183
 30
0.0
 11
8323.6
 21
6075.341450800071
 31
0.0
  0
LINE
  5
24DE5
330
747D
100
AcDbEntity
  8
細線
 48
50.0
100
AcDbLine
 10
8214.503084343766
 20
6011.145815749183
 30
0.0
 11
8323.6
 21
6120.242731405417
 31
0.0
  0
LINE
  5
24DE6
330
747D
100
AcDbEntity
  8
部品1
 48
50.0
100
AcDbLine
 10
8323.599999999991
 20
6291.145815749171
 30
0.0
 11
8323.599999999998
 21
6011.145815749183
 31
0.0
  0
LINE
  5
24DE7
330
747D
100
AcDbEntity
  8
部品1
 48
50.0
100
AcDbLine
 10
8123.599999999994
 20
6291.14581574917
 30
0.0
 11
8123.599999999999
 21
6011.14581574918
 31
0.0
  0
LINE
  5
24DE8
330
747D
100
AcDbEntity
  8
細線
 48
50.0
100
AcDbLine
 10
8123.599999999997
 20
6054.946573221452
 30
0.0
 11
8323.599999999993
 21
6254.946573221446
 31
0.0
  0
LINE
  5
24DE9
330
747D
100
AcDbEntity
  8
細線
 48
50.0
100
AcDbLine
 10
8124.700523133073
 20
6011.14581574918
 30
0.0
 11
8323.599999999993
 21
6210.045292616102
 31
0.0
  0
LINE
  5
24DEA
330
747D
100
AcDbEntity
  8
細線
 48
50.0
100
AcDbLine
 10
8169.601803738418
 20
6011.145815749181
 30
0.0
 11
8323.599999999995
 21
6165.14401201076
 31
0.0
  0
LINE
  5
24DEB
330
747D
100
AcDbEntity
  8
細線
 48
50.0
100
AcDbLine
 10
8304.30564555446
 20
6011.145815749185
 30
0.0
 11
8323.600000000002
 21
6030.440170194728
 31
0.0
  0
LINE
  5
24DEC
330
747D
100
AcDbEntity
  8
細線
 48
50.0
100
AcDbLine
 10
8123.599999999994
 20
6144.749134432142
 30
0.0
 11
8269.996681317023
 21
6291.14581574917
 31
0.0
  0
LINE
  5
24DED
330
747D
100
AcDbEntity
  8
細線
 48
50.0
100
AcDbLine
 10
8123.599999999997
 20
6099.847853826798
 30
0.0
 11
8314.897961922362
 21
6291.145815749171
 31
0.0
  0
LINE
  5
24DEE
330
747D
100
AcDbEntity
  8
細線
 48
50.0
100
AcDbLine
 10
8123.599999999994
 20
6234.551695642832
 30
0.0
 11
8180.194120106333
 21
6291.14581574917
 31
0.0
  0
LINE
  5
24DEF
330
747D
100
AcDbEntity
  8
細線
 48
50.0
100
AcDbLine
 10
8123.599999999994
 20
6189.65041503749
 30
0.0
 11
8225.095400711671
 21
6291.14581574917
 31
0.0
  0
LINE
  5
24DF0
330
747D
100
AcDbEntity
  8
部品1
 48
50.0
100
AcDbLine
 10
7848.600000000008
 20
6918.145815749162
 30
0.0
 11
7648.600000000008
 21
6918.145815749162
 31
0.0
  0
LINE
  5
24DF1
330
747D
100
AcDbEntity
  8
部品1
 48
50.0
100
AcDbLine
 10
7848.600000000008
 20
6718.145815749162
 30
0.0
 11
7648.600000000008
 21
6718.145815749162
 31
0.0
  0
LINE
  5
24DF2
330
747D
100
AcDbEntity
  8
センター
 48
2.0
100
AcDbLine
 10
7748.600000000007
 20
6868.145815749162
 30
0.0
 11
7748.600000000007
 21
6768.145815749162
 31
0.0
  0
LINE
  5
24DF3
330
747D
100
AcDbEntity
  8
部品1
 48
50.0
100
AcDbLine
 10
7648.600000000008
 20
6718.145815749162
 30
0.0
 11
7648.600000000008
 21
6918.145815749162
 31
0.0
  0
LINE
  5
24DF4
330
747D
100
AcDbEntity
  8
センター
 48
2.0
100
AcDbLine
 10
7698.600000000007
 20
6818.145815749161
 30
0.0
 11
7798.600000000007
 21
6818.145815749161
 31
0.0
  0
LINE
  5
24DF5
330
747D
100
AcDbEntity
  8
部品1
 48
50.0
100
AcDbLine
 10
7848.600000000008
 20
6718.145815749162
 30
0.0
 11
7848.600000000008
 21
6918.145815749162
 31
0.0
  0
DIMENSION
  5
24DF7
330
747D
100
AcDbEntity
  8
寸法
 48
50.0
100
AcDbDimension
  2
*D26
 10
6793.600000000001
 20
8277.412273843072
 30
0.0
 11
6520.493398282202
 21
8277.412273843072
 31
0.0
 70
   160
 71
     5
 42
123.0
  3
INABA_S40G
100
AcDbAlignedDimension
 13
6916.600000000001
 23
7478.145815749162
 33
0.0
 14
6793.600000000001
 24
7551.145815749162
 34
0.0
100
AcDbRotatedDimension
1001
ACAD
1000
DSTYLE
1002
{
1070
   341
1005
0
1002
}
  0
DIMENSION
  5
24DF8
330
747D
100
AcDbEntity
  8
寸法
 48
50.0
100
AcDbDimension
  2
*D27
 10
6170.665006330072
 20
7428.145815749161
 30
0.0
 11
6170.665006330072
 21
7824.252417466961
 31
0.0
 70
   160
 71
     5
 42
123.0
  3
INABA_S40G
100
AcDbAlignedDimension
 13
6793.600000000001
 23
7551.145815749162
 33
0.0
 14
6866.600000000001
 24
7428.145815749161
 34
0.0
 50
90.0
100
AcDbRotatedDimension
1001
ACAD
1000
DSTYLE
1002
{
1070
   341
1005
0
1002
}
  0
LINE
  5
24DFA
330
747D
100
AcDbEntity
  8
細線
 48
50.0
100
AcDbLine
 10
7173.6
 20
7488.070904723014
 30
0.0
 11
7236.674911026158
 21
7551.14581574917
 31
0.0
  0
LINE
  5
24DFB
330
747D
100
AcDbEntity
  8
細線
 48
50.0
100
AcDbLine
 10
7173.600000000004
 20
7398.268343512324
 30
0.0
 11
7326.47747223685
 21
7551.145815749173
 31
0.0
  0
LINE
  5
24DFC
330
747D
100
AcDbEntity
  8
細線
 48
50.0
100
AcDbLine
 10
7173.6
 20
7443.169624117669
 30
0.0
 11
7281.576191631502
 21
7551.145815749169
 31
0.0
  0
LINE
  5
24DFD
330
747D
100
AcDbEntity
  8
部品1
 48
50.0
100
AcDbLine
 10
7173.599999999997
 20
7551.14581574917
 30
0.0
 11
7173.600000000004
 21
7351.145815749162
 31
0.0
  0
LINE
  5
24DFE
330
747D
100
AcDbEntity
  8
部品1
 48
50.0
100
AcDbLine
 10
7373.599999999997
 20
7551.14581574917
 30
0.0
 11
7373.600000000005
 21
7351.145815749162
 31
0.0
  0
LINE
  5
24DFF
330
747D
100
AcDbEntity
  8
細線
 48
50.0
100
AcDbLine
 10
7173.600000000004
 20
7353.367062906982
 30
0.0
 11
7371.378752842194
 21
7551.145815749169
 31
0.0
  0
LINE
  5
24E00
330
747D
100
AcDbEntity
  8
センター
 48
2.0
100
AcDbLine
 10
6916.600000000001
 20
7478.145815749162
 30
0.0
 11
6916.600000000001
 21
7378.145815749161
 31
0.0
  0
CIRCLE
  5
24E01
330
747D
100
AcDbEntity
  8
部品1
 48
50.0
100
AcDbCircle
 10
6916.600000000001
 20
7428.145815749161
 30
0.0
 40
35.0
  0
LINE
  5
24E02
330
747D
100
AcDbEntity
  8
センター
 48
2.0
100
AcDbLine
 10
6866.600000000001
 20
7428.145815749161
 30
0.0
 11
6966.600000000001
 21
7428.145815749161
 31
0.0
  0
LINE
  5
24E03
330
747D
100
AcDbEntity
  8
細線
 48
50.0
100
AcDbLine
 10
7261.181314052878
 20
7351.14581574916
 30
0.0
 11
7373.6
 21
7463.564501696284
 31
0.0
  0
LINE
  5
24E04
330
747D
100
AcDbEntity
  8
細線
 48
50.0
100
AcDbLine
 10
7216.280033447531
 20
7351.14581574916
 30
0.0
 11
7373.599999999999
 21
7508.465782301628
 31
0.0
  0
LINE
  5
24E05
330
747D
100
AcDbEntity
  8
細線
 48
50.0
100
AcDbLine
 10
7350.983875263567
 20
7351.14581574916
 30
0.0
 11
7373.600000000002
 21
7373.761940485596
 31
0.0
  0
LINE
  5
24E06
330
747D
100
AcDbEntity
  8
細線
 48
50.0
100
AcDbLine
 10
7306.082594658224
 20
7351.14581574916
 30
0.0
 11
7373.6
 21
7418.663221090939
 31
0.0
  0
LINE
  5
24E07
330
747D
100
AcDbEntity
  8
細線
 48
50.0
100
AcDbLine
 10
7173.599999999999
 20
7532.972185328356
 30
0.0
 11
7191.773630420811
 21
7551.145815749173
 31
0.0
  0
LINE
  5
24E08
330
747D
100
AcDbEntity
  8
部品1
 48
50.0
100
AcDbLine
 10
8323.599999999997
 20
7551.14581574917
 30
0.0
 11
8323.600000000004
 21
7351.145815749162
 31
0.0
  0
LINE
  5
24E09
330
747D
100
AcDbEntity
  8
細線
 48
50.0
100
AcDbLine
 10
8123.600000000001
 20
7488.070904723014
 30
0.0
 11
8186.674911026157
 21
7551.14581574917
 31
0.0
  0
LINE
  5
24E0A
330
747D
100
AcDbEntity
  8
部品1
 48
50.0
100
AcDbLine
 10
8123.599999999997
 20
7551.14581574917
 30
0.0
 11
8123.600000000005
 21
7351.145815749162
 31
0.0
  0
LINE
  5
24E0B
330
747D
100
AcDbEntity
  8
細線
 48
50.0
100
AcDbLine
 10
8123.600000000005
 20
7353.367062906982
 30
0.0
 11
8321.378752842194
 21
7551.145815749169
 31
0.0
  0
LINE
  5
24E0C
330
747D
100
AcDbEntity
  8
細線
 48
50.0
100
AcDbLine
 10
8123.600000000001
 20
7443.169624117669
 30
0.0
 11
8231.576191631502
 21
7551.145815749169
 31
0.0
  0
LINE
  5
24E0D
330
747D
100
AcDbEntity
  8
細線
 48
50.0
100
AcDbLine
 10
8123.600000000005
 20
7398.268343512324
 30
0.0
 11
8276.47747223685
 21
7551.145815749173
 31
0.0
  0
LINE
  5
24E0E
330
747D
100
AcDbEntity
  8
細線
 48
50.0
100
AcDbLine
 10
8211.181314052877
 20
7351.14581574916
 30
0.0
 11
8323.6
 21
7463.564501696284
 31
0.0
  0
LINE
  5
24E0F
330
747D
100
AcDbEntity
  8
細線
 48
50.0
100
AcDbLine
 10
8166.280033447531
 20
7351.14581574916
 30
0.0
 11
8323.599999999998
 21
7508.465782301628
 31
0.0
  0
LINE
  5
24E10
330
747D
100
AcDbEntity
  8
細線
 48
50.0
100
AcDbLine
 10
8256.082594658224
 20
7351.14581574916
 30
0.0
 11
8323.6
 21
7418.663221090939
 31
0.0
  0
LINE
  5
24E11
330
747D
100
AcDbEntity
  8
細線
 48
50.0
100
AcDbLine
 10
8300.983875263566
 20
7351.14581574916
 30
0.0
 11
8323.600000000002
 21
7373.761940485596
 31
0.0
  0
LINE
  5
24E12
330
747D
100
AcDbEntity
  8
細線
 48
50.0
100
AcDbLine
 10
8123.599999999999
 20
7532.972185328356
 30
0.0
 11
8141.773630420813
 21
7551.145815749173
 31
0.0
  0
DIMENSION
  5
24E13
330
747D
100
AcDbEntity
  8
寸法
 48
50.0
100
AcDbDimension
  2
*D28
 10
8698.600000000007
 20
8033.754632419411
 30
0.0
 11
9176.100000000003
 21
8133.75463241941
 31
0.0
 70
    32
 71
     5
 42
954.9999999999927
  3
INABA_S40G
100
AcDbAlignedDimension
 13
9653.6
 23
7551.145815749162
 33
0.0
 14
8698.600000000007
 24
6868.145815749162
 34
0.0
100
AcDbRotatedDimension
1001
ACAD
1000
DSTYLE
1002
{
1070
   341
1005
0
1002
}
  0
LINE
  5
24E14
102
{ACAD_REACTORS
330
2558C
102
}
330
747D
100
AcDbEntity
  8
部品1
 48
50.0
100
AcDbLine
 10
9653.6
 20
6011.14581574918
 30
0.0
 11
9653.6
 21
7551.145815749162
 31
0.0
  0
LINE
  5
24E1E
330
747D
100
AcDbEntity
  8
細線
 48
50.0
100
AcDbLine
 10
9119.601803738417
 20
6011.145815749181
 30
0.0
 11
9273.599999999994
 21
6165.14401201076
 31
0.0
  0
LINE
  5
24E1F
330
747D
100
AcDbEntity
  8
細線
 48
50.0
100
AcDbLine
 10
9164.503084343765
 20
6011.145815749183
 30
0.0
 11
9273.6
 21
6120.242731405417
 31
0.0
  0
LINE
  5
24E20
330
747D
100
AcDbEntity
  8
細線
 48
50.0
100
AcDbLine
 10
9209.404364949113
 20
6011.145815749183
 30
0.0
 11
9273.6
 21
6075.341450800071
 31
0.0
  0
LINE
  5
24E21
330
747D
100
AcDbEntity
  8
細線
 48
50.0
100
AcDbLine
 10
9254.30564555446
 20
6011.145815749185
 30
0.0
 11
9273.600000000001
 21
6030.440170194728
 31
0.0
  0
LINE
  5
24E22
330
747D
100
AcDbEntity
  8
細線
 48
50.0
100
AcDbLine
 10
9074.700523133072
 20
6011.14581574918
 30
0.0
 11
9273.599999999992
 21
6210.045292616102
 31
0.0
  0
LINE
  5
24E23
330
747D
100
AcDbEntity
  8
細線
 48
50.0
100
AcDbLine
 10
9073.599999999997
 20
6054.946573221452
 30
0.0
 11
9273.599999999992
 21
6254.946573221446
 31
0.0
  0
LINE
  5
24E24
330
747D
100
AcDbEntity
  8
部品1
 48
50.0
100
AcDbLine
 10
9073.599999999993
 20
6291.145815749178
 30
0.0
 11
9073.599999999998
 21
6011.14581574918
 31
0.0
  0
LINE
  5
24E25
330
747D
100
AcDbEntity
  8
細線
 48
50.0
100
AcDbLine
 10
9073.599999999993
 20
6234.551695642832
 30
0.0
 11
9130.194120106343
 21
6291.145815749178
 31
0.0
  0
LINE
  5
24E26
330
747D
100
AcDbEntity
  8
細線
 48
50.0
100
AcDbLine
 10
9073.599999999997
 20
6099.847853826798
 30
0.0
 11
9264.89796192237
 21
6291.14581574918
 31
0.0
  0
LINE
  5
24E27
330
747D
100
AcDbEntity
  8
細線
 48
50.0
100
AcDbLine
 10
9073.599999999995
 20
6144.749134432142
 30
0.0
 11
9219.996681317031
 21
6291.145815749178
 31
0.0
  0
LINE
  5
24E28
330
747D
100
AcDbEntity
  8
細線
 48
50.0
100
AcDbLine
 10
9073.599999999995
 20
6189.65041503749
 30
0.0
 11
9175.095400711681
 21
6291.145815749177
 31
0.0
  0
LINE
  5
24E29
330
747D
100
AcDbEntity
  8
センター
 48
2.0
100
AcDbLine
 10
8648.600000000007
 20
6818.145815749161
 30
0.0
 11
8748.600000000008
 21
6818.145815749161
 31
0.0
  0
LINE
  5
24E2A
330
747D
100
AcDbEntity
  8
部品1
 48
50.0
100
AcDbLine
 10
8798.600000000007
 20
6718.145815749162
 30
0.0
 11
8598.600000000008
 21
6718.145815749162
 31
0.0
  0
LINE
  5
24E2B
330
747D
100
AcDbEntity
  8
部品1
 48
50.0
100
AcDbLine
 10
8798.600000000007
 20
6918.145815749162
 30
0.0
 11
8598.600000000008
 21
6918.145815749162
 31
0.0
  0
LINE
  5
24E2C
330
747D
100
AcDbEntity
  8
部品1
 48
50.0
100
AcDbLine
 10
8598.600000000008
 20
6718.145815749162
 30
0.0
 11
8598.600000000008
 21
6918.145815749162
 31
0.0
  0
LINE
  5
24E2D
330
747D
100
AcDbEntity
  8
部品1
 48
50.0
100
AcDbLine
 10
8798.600000000007
 20
6718.145815749162
 30
0.0
 11
8798.600000000007
 21
6918.145815749162
 31
0.0
  0
LINE
  5
24E2E
330
747D
100
AcDbEntity
  8
センター
 48
2.0
100
AcDbLine
 10
8698.600000000007
 20
6868.145815749162
 30
0.0
 11
8698.600000000007
 21
6768.145815749162
 31
0.0
  0
LINE
  5
24E2F
330
747D
100
AcDbEntity
  8
部品1
 48
50.0
100
AcDbLine
 10
9273.599999999992
 20
6291.145815749178
 30
0.0
 11
9273.6
 21
6011.145815749183
 31
0.0
  0
CIRCLE
  5
24E30
330
747D
100
AcDbEntity
  8
部品1
 48
50.0
100
AcDbCircle
 10
9530.600000000008
 20
6209.145815749165
 30
0.0
 40
35.0
  0
LINE
  5
24E31
330
747D
100
AcDbEntity
  8
センター
 48
2.0
100
AcDbLine
 10
9530.600000000008
 20
6259.145815749165
 30
0.0
 11
9530.600000000008
 21
6159.145815749165
 31
0.0
  0
LINE
  5
24E32
330
747D
100
AcDbEntity
  8
センター
 48
2.0
100
AcDbLine
 10
9480.600000000007
 20
6209.145815749165
 30
0.0
 11
9580.600000000009
 21
6209.145815749165
 31
0.0
  0
LINE
  5
24E33
102
{ACAD_REACTORS
330
2558C
102
}
330
747D
100
AcDbEntity
  8
部品1
 48
50.0
100
AcDbLine
 10
9653.599999999993
 20
6906.145815749198
 30
0.0
 11
9533.599999999999
 21
6906.145815749197
 31
0.0
  0
LINE
  5
24E34
102
{ACAD_REACTORS
330
2558C
102
}
330
747D
100
AcDbEntity
  8
部品1
 48
50.0
100
AcDbLine
 10
9653.599999999993
 20
6706.145815749199
 30
0.0
 11
9533.599999999998
 21
6706.145815749199
 31
0.0
  0
DIMENSION
  5
24E37
330
747D
100
AcDbEntity
  8
寸法
 48
50.0
100
AcDbDimension
  2
*D29
 10
9530.600000000001
 20
8277.412273843072
 30
0.0
 11
9926.706601717798
 21
8277.412273843072
 31
0.0
 70
   160
 71
     5
 42
123.0
  3
INABA_S40G
100
AcDbAlignedDimension
 13
9653.6
 23
7551.145815749162
 33
0.0
 14
9530.600000000001
 24
7478.145815749162
 34
0.0
100
AcDbRotatedDimension
1001
ACAD
1000
DSTYLE
1002
{
1070
   341
1005
0
1002
}
  0
LINE
  5
24E38
330
747D
100
AcDbEntity
  8
細線
 48
50.0
100
AcDbLine
 10
9116.28003344753
 20
7351.14581574916
 30
0.0
 11
9273.6
 21
7508.465782301628
 31
0.0
  0
LINE
  5
24E39
330
747D
100
AcDbEntity
  8
細線
 48
50.0
100
AcDbLine
 10
9073.600000000004
 20
7353.367062906982
 30
0.0
 11
9271.378752842194
 21
7551.145815749169
 31
0.0
  0
LINE
  5
24E3A
330
747D
100
AcDbEntity
  8
細線
 48
50.0
100
AcDbLine
 10
9161.181314052878
 20
7351.14581574916
 30
0.0
 11
9273.6
 21
7463.564501696284
 31
0.0
  0
LINE
  5
24E3B
330
747D
100
AcDbEntity
  8
細線
 48
50.0
100
AcDbLine
 10
9250.983875263568
 20
7351.14581574916
 30
0.0
 11
9273.600000000001
 21
7373.761940485596
 31
0.0
  0
LINE
  5
24E3C
330
747D
100
AcDbEntity
  8
細線
 48
50.0
100
AcDbLine
 10
9206.082594658225
 20
7351.14581574916
 30
0.0
 11
9273.6
 21
7418.663221090939
 31
0.0
  0
LINE
  5
24E3D
330
747D
100
AcDbEntity
  8
細線
 48
50.0
100
AcDbLine
 10
9073.600000000004
 20
7398.268343512324
 30
0.0
 11
9226.477472236849
 21
7551.145815749173
 31
0.0
  0
LINE
  5
24E3E
330
747D
100
AcDbEntity
  8
細線
 48
50.0
100
AcDbLine
 10
9073.6
 20
7443.169624117669
 30
0.0
 11
9181.576191631503
 21
7551.145815749169
 31
0.0
  0
LINE
  5
24E3F
330
747D
100
AcDbEntity
  8
細線
 48
50.0
100
AcDbLine
 10
9073.6
 20
7488.070904723014
 30
0.0
 11
9136.674911026158
 21
7551.14581574917
 31
0.0
  0
LINE
  5
24E40
330
747D
100
AcDbEntity
  8
部品1
 48
50.0
100
AcDbLine
 10
9073.599999999997
 20
7551.14581574917
 30
0.0
 11
9073.600000000004
 21
7351.145815749162
 31
0.0
  0
LINE
  5
24E42
330
747D
100
AcDbEntity
  8
細線
 48
50.0
100
AcDbLine
 10
9073.599999999998
 20
7532.972185328356
 30
0.0
 11
9091.773630420812
 21
7551.145815749173
 31
0.0
  0
LINE
  5
24E43
330
747D
100
AcDbEntity
  8
部品1
 48
50.0
100
AcDbLine
 10
9273.599999999998
 20
7551.14581574917
 30
0.0
 11
9273.600000000005
 21
7351.145815749162
 31
0.0
  0
CIRCLE
  5
24E45
330
747D
100
AcDbEntity
  8
部品1
 48
50.0
100
AcDbCircle
 10
9530.600000000001
 20
7428.145815749161
 30
0.0
 40
35.0
  0
LINE
  5
24E46
330
747D
100
AcDbEntity
  8
センター
 48
2.0
100
AcDbLine
 10
9530.600000000001
 20
7478.145815749162
 30
0.0
 11
9530.600000000001
 21
7378.145815749161
 31
0.0
  0
LINE
  5
24E47
330
747D
100
AcDbEntity
  8
センター
 48
2.0
100
AcDbLine
 10
9480.6
 20
7428.145815749161
 30
0.0
 11
9580.600000000002
 21
7428.145815749161
 31
0.0
  0
TEXT
  5
25528
330
747D
100
AcDbEntity
  8
文字
 62
     7
 48
50.0
100
AcDbText
 10
14267.69561199343
 20
838.2527270729188
 30
0.0
 40
100.0
  1
～一般型・多雪地型・豪雪地型～
  7
STYLE2
100
AcDbText
  0
LINE
  5
25548
330
747D
100
AcDbEntity
  8
部品1
 48
50.0
100
AcDbLine
 10
9533.599999999998
 20
6291.145815749183
 30
0.0
 11
6913.599999999999
 21
6291.145815749159
 31
0.0
  0
LINE
  5
25566
102
{ACAD_REACTORS
330
2558C
102
}
330
747D
100
AcDbEntity
  8
部品1
 48
50.0
100
AcDbLine
 10
9533.599999999998
 20
6291.145815749182
 30
0.0
 11
9533.600000000003
 21
7351.145815749163
 31
0.0
  0
LINE
  5
25567
102
{ACAD_REACTORS
330
2557E
102
}
330
747D
100
AcDbEntity
  8
部品1
 48
50.0
100
AcDbLine
 10
6913.599999999999
 20
6291.145815749158
 30
0.0
 11
6913.599999999997
 21
7351.145815749162
 31
0.0
  0
HATCH
  5
2557E
330
747D
100
AcDbEntity
  8
細線
 48
50.0
100
AcDbHatch
 10
0.0
 20
0.0
 30
0.0
210
0.0
220
0.0
230
1.0
  2
LINE
 70
     0
 71
     1
 91
        1
 92
        7
 72
     0
 73
     1
 93
        4
 10
6913.599999999997
 20
6906.145815749177
 10
6793.600000000001
 20
6906.145815749177
 10
6793.600000000001
 20
6706.145815749176
 10
6913.599999999998
 20
6706.145815749178
 97
        4
330
24DCC
330
24DC7
330
24DCD
330
25567
 75
     0
 76
     1
 52
45.0
 41
10.0
 77
     0
 78
     1
 53
45.0
 43
0.0
 44
0.0
 45
-22.45064030267288
 46
22.45064030267288
 79
     0
 47
3.030380042762258
 98
        1
 10
6853.787018311341
 20
6767.635421546071
  0
HATCH
  5
2558C
330
747D
100
AcDbEntity
  8
細線
 48
50.0
100
AcDbHatch
 10
0.0
 20
0.0
 30
0.0
210
0.0
220
0.0
230
1.0
  2
LINE
 70
     0
 71
     1
 91
        1
 92
        7
 72
     0
 73
     1
 93
        4
 10
9653.6
 20
6906.145815749198
 10
9533.599999999999
 20
6906.145815749197
 10
9533.599999999998
 20
6706.145815749199
 10
9653.6
 20
6706.145815749199
 97
        4
330
24E33
330
25566
330
24E34
330
24E14
 75
     0
 76
     1
 52
45.0
 41
10.0
 77
     0
 78
     1
 53
45.0
 43
0.0
 44
0.0
 45
-22.45064030267288
 46
22.45064030267288
 79
     0
 47
3.401251959121535
 98
        1
 10
9629.580510828775
 20
6784.754163805868
  0
LINE
  5
2571A
330
747D
100
AcDbEntity
  8
部品1
100
AcDbLine
 10
10988.69662250903
 20
3435.44213515144
 30
0.0
 11
4917.711437122777
 21
3435.44213515144
 31
0.0
  0
LINE
  5
2571B
330
747D
100
AcDbEntity
  8
部品1
100
AcDbLine
 10
10988.69662250903
 20
3195.442135151438
 30
0.0
 11
4917.711437122781
 21
3195.442135151438
 31
0.0
  0
LINE
  5
2571C
330
747D
100
AcDbEntity
  8
部品1
100
AcDbLine
 10
4917.711437122783
 20
471.1351655667922
 30
0.0
 11
10988.69662250903
 21
471.1351655667922
 31
0.0
  0
LEADER
  5
2571D
330
747D
100
AcDbEntity
  8
寸法
 48
50.0
100
AcDbLeader
  3
INABA_S50G
 73
     0
 74
     0
 75
     1
 40
102.2727272727273
 41
680.0000000000001
 76
     3
 10
7925.819189109235
 20
2434.978749059997
 30
0.0
 10
7960.173160222592
 20
2845.431560166538
 30
0.0
 10
8085.173160222593
 20
2845.431560166538
 30
0.0
340
2571E
1001
ACAD
1000
DSTYLE
1002
{
1070
   341
1005
0
1070
    40
1040
1.0
1070
   343
1005
0
1070
   344
1005
0
1002
}
  0
MTEXT
  5
2571E
102
{ACAD_REACTORS
330
2571D
102
}
330
747D
100
AcDbEntity
  8
部品1
 62
     7
 48
50.0
100
AcDbMText
 10
8110.173160222592
 20
2921.567923802902
 30
0.0
 40
80.0
 41
0.8
 71
     4
 72
     1
  1
\A1;ナット(市販品)
  7
STYLE2
 73
     1
 44
1.0
1001
ACAD
1000
MTEXTBEGIN
1070
    73
1070
     1
1070
    44
1040
1.0
1070
    74
1070
     0
1000
MTEXTEND
  0
LEADER
  5
2571F
330
747D
100
AcDbEntity
  8
寸法
 48
50.0
100
AcDbLeader
  3
INABA_S50G
 73
     0
 74
     0
 75
     1
 40
102.2727272727273
 41
906.8181818181818
 76
     3
 10
7949.819189109236
 20
2305.226756395134
 30
0.0
 10
7991.690779478074
 20
2660.46247740175
 30
0.0
 10
8116.690779478075
 20
2660.46247740175
 30
0.0
340
25720
1001
ACAD
1000
DSTYLE
1002
{
1070
   341
1005
0
1070
    40
1040
1.0
1070
   343
1005
0
1070
   344
1005
0
1002
}
  0
MTEXT
  5
25720
102
{ACAD_REACTORS
330
2571F
102
}
330
747D
100
AcDbEntity
  8
部品1
 62
     7
 48
50.0
100
AcDbMText
 10
8141.690779478073
 20
2736.598841038115
 30
0.0
 40
80.0
 41
0.8
 71
     4
 72
     1
  1
\A1;ワッシャー(市販品)
  7
STYLE2
 73
     1
 44
1.0
1001
ACAD
1000
MTEXTBEGIN
1070
    73
1070
     1
1070
    44
1040
1.0
1070
    74
1070
     0
1000
MTEXTEND
  0
LWPOLYLINE
  5
25721
330
747D
100
AcDbEntity
  8
部品1
 48
50.0
100
AcDbPolyline
 90
        2
 70
     0
 43
8.0
 10
8102.419189109234
 20
1796.103467950854
 10
8396.12165250862
 20
1796.103467950854
  0
TEXT
  5
25722
330
747D
100
AcDbEntity
  8
部品1
 48
50.0
100
AcDbText
 10
8106.772773393663
 20
2391.982148713054
 30
0.0
 40
80.0
  1
基礎ボルト(市販品)
  7
STYLE2
100
AcDbText
  0
DIMENSION
  5
25723
330
747D
100
AcDbEntity
  8
寸法
 48
50.0
100
AcDbDimension
  2
*D40
 10
8604.28778887808
 20
1712.103467950853
 30
0.0
 11
8504.287788878079
 21
1874.103467950854
 31
0.0
 70
    32
  1
180
 71
     5
 42
324.0000000000009
  3
INABA_S40G
100
AcDbAlignedDimension
 13
8102.419189109234
 23
2036.103467950854
 33
0.0
 14
8102.419189109234
 24
1712.103467950853
 34
0.0
 50
90.0
100
AcDbRotatedDimension
1001
ACAD
1000
DSTYLE
1002
{
1070
   341
1005
0
1002
}
  0
DIMENSION
  5
25724
330
747D
100
AcDbEntity
  8
寸法
 48
50.0
100
AcDbDimension
  2
*D41
 10
8880.342454997105
 20
2036.103467950854
 30
0.0
 11
8880.342454997105
 21
1570.094564529371
 31
0.0
 70
   160
  1
20～25
 71
     5
 42
52.76000000000113
  3
INABA_S40G
100
AcDbAlignedDimension
 13
7915.219189109237
 23
2088.863467950855
 33
0.0
 14
8102.419189109234
 24
2036.103467950854
 34
0.0
 50
90.0
100
AcDbRotatedDimension
1001
ACAD
1000
DSTYLE
1002
{
1070
   341
1005
0
1002
}
  0
MTEXT
  5
25725
102
{ACAD_REACTORS
330
25726
102
}
330
747D
100
AcDbEntity
  8
部品1
 62
     7
 48
50.0
100
AcDbMText
 10
8111.363651528554
 20
2300.486794104084
 30
0.0
 40
80.0
 41
0.8
 71
     4
 72
     1
  1
M10X160
  7
STYLE2
 73
     1
 44
1.0
1001
ACAD
1000
MTEXTBEGIN
1070
    73
1070
     1
1070
    44
1040
1.0
1070
    74
1070
     0
1000
MTEXTEND
  0
LEADER
  5
25726
330
747D
100
AcDbEntity
  8
寸法
 48
50.0
100
AcDbLeader
  3
INABA_S50G
 73
     0
 74
     0
 75
     1
 40
80.0
 41
435.0
 76
     3
 10
7918.819189109235
 20
2085.263467950855
 30
0.0
 10
7961.363651528555
 20
2235.486794104084
 30
0.0
 10
8086.363651528555
 20
2235.486794104084
 30
0.0
340
25725
1001
ACAD
1000
DSTYLE
1002
{
1070
   341
1005
0
1070
    40
1040
1.0
1070
   343
1005
0
1070
   344
1005
0
1002
}
  0
LINE
  5
25727
330
747D
100
AcDbEntity
  8
部品1
100
AcDbLine
 10
4917.711437122779
 20
3435.44213515144
 30
0.0
 11
4917.711437122781
 21
471.1351655667922
 31
0.0
  0
LEADER
  5
25728
330
747D
100
AcDbEntity
  8
寸法
 48
50.0
100
AcDbLeader
  3
INABA_S50G
 73
     0
 75
     1
 40
113.1818181818182
 41
608.6363636363635
 76
     3
 10
7878.555939247286
 20
1985.619141309133
 30
0.0
 10
7744.752110555939
 20
2836.998223665611
 30
0.0
 10
7619.752110555939
 20
2836.998223665611
 30
0.0
340
25729
1001
ACAD
1000
DSTYLE
1002
{
1070
   341
1005
0
1070
    40
1040
1.0
1070
   343
1005
0
1070
   344
1005
0
1002
}
  0
MTEXT
  5
25729
102
{ACAD_REACTORS
330
25728
102
}
330
747D
100
AcDbEntity
  8
寸法
 62
     7
 48
50.0
100
AcDbMText
 10
7594.752110555939
 20
2918.58913275652
 30
0.0
 40
80.0
 41
0.8
 71
     6
 72
     1
  1
\A1;φ70スリーブ
  7
STYLE2
 73
     1
 44
1.0
1001
ACAD
1000
MTEXTBEGIN
1070
    73
1070
     1
1070
    44
1040
1.0
1070
    74
1070
     0
1000
MTEXTEND
  0
LWPOLYLINE
  5
2572A
330
747D
100
AcDbEntity
  8
部品1
 48
50.0
100
AcDbPolyline
 90
        2
 70
     0
 43
8.0
 10
5574.239974099085
 20
1796.103467950854
 10
5988.379875932042
 20
1796.103467950854
  0
TEXT
  5
2572B
330
747D
100
AcDbEntity
  8
部品1
 48
50.0
100
AcDbText
 10
5574.239974099085
 20
1807.342460234109
 30
0.0
 40
80.0
  1
▽G.L
  7
STYLE2
100
AcDbText
  0
DIMENSION
  5
2572C
330
747D
100
AcDbEntity
  8
寸法
 48
50.0
100
AcDbDimension
  2
*D42
 10
5717.959562199582
 20
1252.103467950854
 30
0.0
 11
5717.959562199582
 21
1372.103467950855
 31
0.0
 70
   160
  1
150
 71
     5
 42
240.0
  3
INABA_S40G
100
AcDbAlignedDimension
 13
5860.379875932042
 23
1492.103467950854
 33
0.0
 14
5780.379875932045
 24
1252.103467950854
 34
0.0
 50
90.0
100
AcDbRotatedDimension
1001
ACAD
1000
DSTYLE
1002
{
1070
   341
1005
0
1002
}
  0
LEADER
  5
2572D
330
747D
100
AcDbEntity
  8
寸法
 48
50.0
100
AcDbLeader
  3
INABA_S50G
 71
     0
 73
     0
 75
     1
 40
100.0
 41
225.0
 76
     3
 10
5956.282828284185
 20
1372.103467950854
 30
0.0
 10
5834.444849736847
 20
1108.580774332417
 30
0.0
 10
5709.444849736847
 20
1108.580774332417
 30
0.0
1001
ACAD
1000
DSTYLE
1002
{
1070
    40
1040
1.0
1070
   272
1070
     1
1070
   279
1070
     1
1070
   341
1005
0
1002
}
  0
LEADER
  5
2572E
330
747D
100
AcDbEntity
  8
寸法
 48
50.0
100
AcDbLeader
  3
INABA_S50G
 71
     0
 73
     0
 75
     1
 40
100.0
 41
222.7272727272727
 76
     3
 10
6084.379875932041
 20
1372.103467950854
 30
0.0
 10
5862.567577294282
 20
928.2646217929741
 30
0.0
 10
5737.567577294282
 20
928.2646217929741
 30
0.0
1001
ACAD
1000
DSTYLE
1002
{
1070
    40
1040
1.0
1070
   272
1070
     1
1070
   279
1070
     1
1070
   341
1005
0
1002
}
  0
MTEXT
  5
2572F
102
{ACAD_REACTORS
330
25730
102
}
330
747D
100
AcDbEntity
  8
寸法
 62
     7
 48
50.0
100
AcDbMText
 10
5899.129821709237
 20
1637.404070768311
 30
0.0
 40
80.0
 41
0.8
 71
     6
 72
     1
  1
\A1;D10@300
  7
STYLE2
 73
     1
 44
1.0
1001
ACAD
1000
MTEXTBEGIN
1070
    73
1070
     1
1070
    44
1040
1.0
1070
    74
1070
     0
1000
MTEXTEND
  0
LEADER
  5
25730
330
747D
100
AcDbEntity
  8
寸法
 48
50.0
100
AcDbLeader
  3
INABA_S50G
 71
     0
 73
     0
 75
     1
 40
100.0
 41
540.3409090909091
 76
     3
 10
6092.379875932042
 20
1794.230682647977
 30
0.0
 10
6034.397639403343
 20
1572.760354107172
 30
0.0
 10
5909.397639403343
 20
1572.760354107172
 30
0.0
213
-9.732182305893367
223
-4.643716661138569
233
0.0
1001
ACAD
1000
DSTYLE
1002
{
1070
    40
1040
1.0
1070
   272
1070
     1
1070
   279
1070
     1
1070
   341
1005
0
1002
}
  0
LEADER
  5
25731
330
747D
100
AcDbEntity
  8
寸法
 48
50.0
100
AcDbLeader
  3
INABA_S50G
 71
     0
 73
     0
 75
     1
 40
130.1136363636363
 41
651.1363636363636
 76
     3
 10
6068.379875932041
 20
2036.103467950854
 30
0.0
 10
5955.955295768025
 20
2176.574233407442
 30
0.0
 10
5830.955295768025
 20
2176.574233407442
 30
0.0
1001
ACAD
1000
DSTYLE
1002
{
1070
    40
1040
1.0
1070
   272
1070
     1
1070
   279
1070
     1
1070
   341
1005
0
1002
}
  0
MTEXT
  5
25732
102
{ACAD_REACTORS
330
25731
102
}
330
747D
100
AcDbEntity
  8
寸法
 62
     7
 48
50.0
100
AcDbMText
 10
5768.281396448768
 20
2248.619687952896
 30
0.0
 40
80.0
 41
0.8
 71
     6
 72
     1
  1
\A1;金コテ押エ
  7
STYLE2
 73
     1
 44
1.0
1001
ACAD
1000
MTEXTBEGIN
1070
    73
1070
     1
1070
    44
1040
1.0
1070
    74
1070
     0
1000
MTEXTEND
  0
DIMENSION
  5
25733
330
747D
100
AcDbEntity
  8
寸法
 48
50.0
100
AcDbDimension
  2
*D43
 10
5253.342637370302
 20
1252.103467950854
 30
0.0
 11
5253.342637370302
 21
1623.643617606855
 31
0.0
 70
   160
  1
540
 71
     5
 42
784.0
  3
INABA_S40G
100
AcDbAlignedDimension
 13
5988.379875932042
 23
2036.103467950854
 33
0.0
 14
5780.379875932045
 24
1252.103467950854
 34
0.0
 50
90.0
100
AcDbRotatedDimension
1001
ACAD
1000
DSTYLE
1002
{
1070
   341
1005
0
1002
}
  0
MTEXT
  5
25734
102
{ACAD_REACTORS
330
2572E
102
}
330
747D
100
AcDbEntity
  8
寸法
 62
     7
 48
50.0
100
AcDbMText
 10
5717.567577294282
 20
988.2646217929741
 30
0.0
 40
80.0
 41
0.8
 71
     6
 72
     1
  1
D13
  7
STYLE2
 73
     1
 44
1.0
1001
ACAD
1000
MTEXTBEGIN
1070
    73
1070
     1
1070
    44
1040
1.0
1070
    74
1070
     0
1000
MTEXTEND
  0
MTEXT
  5
25735
102
{ACAD_REACTORS
330
2572D
102
}
330
747D
100
AcDbEntity
  8
寸法
 62
     7
 48
50.0
100
AcDbMText
 10
5689.444849736847
 20
1168.580774332417
 30
0.0
 40
80.0
 41
0.8
 71
     6
 72
     1
  1
D10
  7
STYLE2
 73
     1
 44
1.0
1001
ACAD
1000
MTEXTBEGIN
1070
    73
1070
     1
1070
    44
1040
1.0
1070
    74
1070
     0
1000
MTEXTEND
  0
DIMENSION
  5
25736
330
747D
100
AcDbEntity
  8
寸法
 48
50.0
100
AcDbDimension
  2
*D44
 10
6308.379875932041
 20
713.6738299456937
 30
0.0
 11
6064.283117253818
 21
713.6738299456937
 31
0.0
 70
   160
  1
300
 71
     5
 42
448.0
  3
INABA_S40G
100
AcDbAlignedDimension
 13
5860.379875932042
 23
1124.103467950854
 33
0.0
 14
6308.379875932041
 24
1124.103467950854
 34
0.0
100
AcDbRotatedDimension
1001
ACAD
1000
DSTYLE
1002
{
1070
   341
1005
0
1002
}
  0
MTEXT
  5
25737
102
{ACAD_REACTORS
330
25738
102
}
330
747D
100
AcDbEntity
  8
寸法
 62
     7
 48
50.0
100
AcDbMText
 10
7621.395116764296
 20
2557.904860849006
 30
0.0
 40
80.0
 41
0.8
 71
     6
 72
     1
  1
\A1;アンカープレート L
  7
STYLE2
 73
     1
 44
1.0
1001
ACAD
1000
MTEXTBEGIN
1070
    73
1070
     1
1070
    44
1040
1.0
1070
    74
1070
     0
1000
MTEXTEND
  0
LEADER
  5
25738
330
747D
100
AcDbEntity
  8
寸法
 48
50.0
100
AcDbLeader
  3
INABA_S50G
 73
     0
 75
     1
 40
106.3636363636363
 41
893.1818181818181
 76
     3
 10
7819.819189109236
 20
2105.663467950855
 30
0.0
 10
7771.395116764296
 20
2479.723042667187
 30
0.0
 10
7646.395116764296
 20
2479.723042667187
 30
0.0
340
25737
1001
ACAD
1000
DSTYLE
1002
{
1070
   341
1005
0
1070
    40
1040
1.0
1070
   343
1005
0
1070
   344
1005
0
1002
}
  0
LINE
  5
25739
330
747D
100
AcDbEntity
  8
細線
 48
50.0
100
AcDbLine
 10
6108.379875932042
 20
1874.476360618684
 30
0.0
 11
6180.379875932043
 21
1946.476360618684
 31
0.0
  0
ARC
  5
2573A
330
747D
100
AcDbEntity
  8
部品1
 48
50.0
100
AcDbCircle
 10
6084.379875932043
 20
1896.357897345099
 30
0.0
 40
24.0
100
AcDbArc
 50
0.0
 51
180.0
  0
CIRCLE
  5
2573B
330
747D
100
AcDbEntity
  8
部品1
 48
50.0
100
AcDbCircle
 10
6084.379875932043
 20
1896.357897345099
 30
0.0
 40
8.0
  0
LINE
  5
2573C
330
747D
100
AcDbEntity
  8
部品1
 48
50.0
100
AcDbLine
 10
5988.379875932043
 20
1492.103467950854
 30
0.0
 11
5988.379875932043
 21
2036.103467950854
 31
0.0
  0
LINE
  5
2573D
330
747D
100
AcDbEntity
  8
部品1
 48
50.0
100
AcDbLine
 10
6180.379875932043
 20
2036.103467950854
 30
0.0
 11
6180.379875932043
 21
1492.103467950854
 31
0.0
  0
MTEXT
  5
2573E
102
{ACAD_REACTORS
330
25743
102
}
330
747D
100
AcDbEntity
  8
寸法
 62
     7
 48
50.0
100
AcDbMText
 10
6263.265812959437
 20
2058.659367243665
 30
0.0
 40
80.0
 41
0.8
 71
     4
 72
     1
  1
D13
  7
STYLE2
 73
     1
 44
1.0
1001
ACAD
1000
MTEXTBEGIN
1070
    73
1070
     1
1070
    44
1040
1.0
1070
    74
1070
     0
1000
MTEXTEND
  0
LEADER
  5
2573F
330
747D
100
AcDbEntity
  8
寸法
 48
50.0
100
AcDbLeader
  3
INABA_S50G
 71
     0
 73
     0
 74
     0
 75
     1
 40
100.0
 41
225.0
 76
     3
 10
6212.282828284185
 20
1372.103467950854
 30
0.0
 10
6266.707535738727
 20
1276.706399007881
 30
0.0
 10
6391.707535738727
 20
1276.706399007881
 30
0.0
1001
ACAD
1000
DSTYLE
1002
{
1070
    40
1040
1.0
1070
   272
1070
     1
1070
   279
1070
     1
1070
   341
1005
0
1002
}
  0
LEADER
  5
25740
330
747D
100
AcDbEntity
  8
寸法
 48
50.0
100
AcDbLeader
  3
INABA_S50G
 71
     0
 73
     0
 74
     0
 75
     1
 40
100.0
 41
540.3409090909091
 76
     3
 10
6158.325044945216
 20
1355.362937537328
 30
0.0
 10
6277.118331793293
 20
1013.732119542431
 30
0.0
 10
6402.118331793293
 20
1013.732119542431
 30
0.0
213
0.0
223
-1.022262676269383
233
0.0
1001
ACAD
1000
DSTYLE
1002
{
1070
    40
1040
1.0
1070
   272
1070
     1
1070
   279
1070
     1
1070
   341
1005
0
1002
}
  0
MTEXT
  5
25741
102
{ACAD_REACTORS
330
2573F
102
}
330
747D
100
AcDbEntity
  8
寸法
 62
     7
 48
50.0
100
AcDbMText
 10
6411.707535738726
 20
1336.706399007881
 30
0.0
 40
80.0
 41
0.8
 71
     4
 72
     1
  1
D10
  7
STYLE2
 73
     1
 44
1.0
1001
ACAD
1000
MTEXTBEGIN
1070
    73
1070
     1
1070
    44
1040
1.0
1070
    74
1070
     0
1000
MTEXTEND
  0
LWPOLYLINE
  5
25742
330
747D
100
AcDbEntity
  8
部品1
 48
50.0
100
AcDbPolyline
 90
        2
 70
     0
 43
8.0
 10
6180.379875932041
 20
1796.103467950854
 10
6594.519777764999
 20
1796.103467950854
  0
LEADER
  5
25743
330
747D
100
AcDbEntity
  8
寸法
 48
50.0
100
AcDbLeader
  3
INABA_S50G
 71
     0
 73
     0
 74
     0
 75
     1
 40
100.0
 41
222.7272727272727
 76
     3
 10
6084.379875932041
 20
1896.357897345099
 30
0.0
 10
6138.265812959437
 20
1995.593470198273
 30
0.0
 10
6263.265812959437
 20
1995.593470198273
 30
0.0
1001
ACAD
1000
DSTYLE
1002
{
1070
    40
1040
1.0
1070
   272
1070
     1
1070
   279
1070
     1
1070
   341
1005
0
1002
}
  0
LINE
  5
25744
330
747D
100
AcDbEntity
  8
細線
 48
50.0
100
AcDbLine
 10
5860.379875932036
 20
1410.950213713025
 30
0.0
 11
5941.533130169871
 21
1492.103467950854
 31
0.0
  0
LINE
  5
25745
330
747D
100
AcDbEntity
  8
細線
 48
50.0
100
AcDbLine
 10
6068.245723409447
 20
1430.230682647976
 30
0.0
 11
6092.379875932048
 21
1454.364835170575
 31
0.0
  0
LINE
  5
25746
330
747D
100
AcDbEntity
  8
細線
 48
50.0
100
AcDbLine
 10
5975.177740349115
 20
1364.103467950854
 30
0.0
 11
6092.379875932042
 21
1481.305603533779
 31
0.0
  0
LINE
  5
25747
330
747D
100
AcDbEntity
  8
部品1
 48
50.0
100
AcDbLine
 10
5860.379875932043
 20
1252.103467950854
 30
0.0
 11
5860.379875932043
 21
1492.103467950854
 31
0.0
  0
LINE
  5
25748
330
747D
100
AcDbEntity
  8
細線
 48
50.0
100
AcDbLine
 10
6217.644655617986
 20
1364.103467950854
 30
0.0
 11
6308.379875932042
 21
1454.838688264913
 31
0.0
  0
LINE
  5
25749
330
747D
100
AcDbEntity
  8
細線
 48
50.0
100
AcDbLine
 10
6190.70388725477
 20
1364.103467950854
 30
0.0
 11
6308.379875932042
 21
1481.77945662812
 31
0.0
  0
LINE
  5
2574A
330
747D
100
AcDbEntity
  8
部品1
 48
50.0
100
AcDbLine
 10
6308.379875932042
 20
1492.103467950854
 30
0.0
 11
6308.379875932042
 21
1252.103467950854
 31
0.0
  0
LINE
  5
2574B
330
747D
100
AcDbEntity
  8
部品1
 48
50.0
100
AcDbLine
 10
6108.379875932048
 20
1372.103467950854
 30
0.0
 11
6108.379875932042
 21
1896.357897345099
 31
0.0
  0
LINE
  5
2574C
330
747D
100
AcDbEntity
  8
部品1
 48
50.0
100
AcDbLine
 10
6092.379875932048
 20
1372.103467950854
 30
0.0
 11
6092.379875932035
 21
1896.357897345099
 31
0.0
  0
LINE
  5
2574D
330
747D
100
AcDbEntity
  8
細線
 48
50.0
100
AcDbLine
 10
6076.379875932042
 20
1411.424066807365
 30
0.0
 11
6092.379875932048
 21
1427.424066807365
 31
0.0
  0
LINE
  5
2574E
330
747D
100
AcDbEntity
  8
細線
 48
50.0
100
AcDbLine
 10
6065.562715428057
 20
1124.103467950854
 30
0.0
 11
6099.86021205924
 21
1252.103467950854
 31
0.0
  0
LINE
  5
2574F
330
747D
100
AcDbEntity
  8
部品1
 48
50.0
100
AcDbLine
 10
6388.379875932046
 20
1124.103467950854
 30
0.0
 11
5780.379875932045
 21
1124.103467950854
 31
0.0
  0
LINE
  5
25750
330
747D
100
AcDbEntity
  8
部品1
 48
50.0
100
AcDbLine
 10
5916.379875932043
 20
1348.103467950854
 30
0.0
 11
6252.379875932042
 21
1348.103467950854
 31
0.0
  0
LINE
  5
25751
330
747D
100
AcDbEntity
  8
部品1
 48
50.0
100
AcDbLine
 10
5916.379875932043
 20
1364.103467950854
 30
0.0
 11
6252.379875932042
 21
1364.103467950854
 31
0.0
  0
LINE
  5
25752
330
747D
100
AcDbEntity
  8
部品1
 48
50.0
100
AcDbLine
 10
6388.379875932046
 20
1252.103467950854
 30
0.0
 11
5780.379875932045
 21
1252.103467950854
 31
0.0
  0
CIRCLE
  5
25753
330
747D
100
AcDbEntity
  8
部品1
 48
50.0
100
AcDbCircle
 10
6084.379875932043
 20
1372.103467950854
 30
0.0
 40
8.0
  0
LINE
  5
25754
330
747D
100
AcDbEntity
  8
細線
 48
50.0
100
AcDbLine
 10
6078.703887254775
 20
1252.103467950854
 30
0.0
 11
6174.703887254775
 21
1348.103467950854
 31
0.0
  0
LINE
  5
25755
330
747D
100
AcDbEntity
  8
細線
 48
50.0
100
AcDbLine
 10
5907.786625533558
 20
1124.103467950854
 30
0.0
 11
5942.084122164741
 21
1252.103467950854
 31
0.0
  0
LINE
  5
25756
330
747D
100
AcDbEntity
  8
細線
 48
50.0
100
AcDbLine
 10
5986.674670480804
 20
1124.103467950852
 30
0.0
 11
6020.972167111987
 21
1252.103467950852
 31
0.0
  0
LINE
  5
25757
330
747D
100
AcDbEntity
  8
細線
 48
50.0
100
AcDbLine
 10
5828.898580586301
 20
1124.103467950852
 30
0.0
 11
5863.196077217484
 21
1252.103467950852
 31
0.0
  0
LINE
  5
25758
330
747D
100
AcDbEntity
  8
部品1
 48
50.0
100
AcDbLine
 10
5780.379875932045
 20
1124.103467950854
 30
0.0
 11
5780.379875932045
 21
1252.103467950854
 31
0.0
  0
LINE
  5
25759
330
747D
100
AcDbEntity
  8
細線
 48
50.0
100
AcDbLine
 10
5914.217406151904
 20
1148.103467950854
 30
0.0
 11
5920.648186770252
 21
1124.103467950854
 31
0.0
  0
LINE
  5
2575A
330
747D
100
AcDbEntity
  8
細線
 48
50.0
100
AcDbLine
 10
5835.329361204653
 20
1148.103467950854
 30
0.0
 11
5841.760141823
 21
1124.103467950854
 31
0.0
  0
LINE
  5
2575B
330
747D
100
AcDbEntity
  8
細線
 48
50.0
100
AcDbLine
 10
6071.99349604641
 20
1148.103467950854
 30
0.0
 11
6078.424276664756
 21
1124.103467950854
 31
0.0
  0
LINE
  5
2575C
330
747D
100
AcDbEntity
  8
細線
 48
50.0
100
AcDbLine
 10
5993.105451099157
 20
1148.103467950854
 30
0.0
 11
5999.536231717502
 21
1124.103467950854
 31
0.0
  0
LINE
  5
2575D
330
747D
100
AcDbEntity
  8
細線
 48
50.0
100
AcDbLine
 10
5890.118508712326
 20
1252.103467950854
 30
0.0
 11
5986.118508712326
 21
1348.103467950854
 31
0.0
  0
LINE
  5
2575E
330
747D
100
AcDbEntity
  8
細線
 48
50.0
100
AcDbLine
 10
5863.177740349115
 20
1252.103467950854
 30
0.0
 11
5959.177740349115
 21
1348.103467950854
 31
0.0
  0
LINE
  5
2575F
330
747D
100
AcDbEntity
  8
部品1
 48
50.0
100
AcDbLine
 10
5916.379875932043
 20
1364.103467950854
 30
0.0
 11
5916.379875932043
 21
1348.103467950854
 31
0.0
  0
LINE
  5
25760
330
747D
100
AcDbEntity
  8
細線
 48
50.0
100
AcDbLine
 10
5856.765296599142
 20
1228.103467950854
 30
0.0
 11
5850.334515980795
 21
1252.103467950854
 31
0.0
  0
LINE
  5
25761
330
747D
100
AcDbEntity
  8
細線
 48
50.0
100
AcDbLine
 10
5780.379875932043
 20
1237.443388916634
 30
0.0
 11
5784.308032270239
 21
1252.103467950854
 31
0.0
  0
LINE
  5
25762
330
747D
100
AcDbEntity
  8
部品1
 48
50.0
100
AcDbLine
 10
6076.379875932042
 20
1430.230682647976
 30
0.0
 11
6060.379875932042
 21
1430.230682647976
 31
0.0
  0
CIRCLE
  5
25763
330
747D
100
AcDbEntity
  8
部品1
 48
50.0
100
AcDbCircle
 10
5956.379875932043
 20
1372.103467950854
 30
0.0
 40
8.0
  0
LINE
  5
25764
330
747D
100
AcDbEntity
  8
細線
 48
50.0
100
AcDbLine
 10
6029.059277075531
 20
1364.103467950854
 30
0.0
 11
6060.379875932042
 21
1395.424066807365
 31
0.0
  0
ARC
  5
25765
330
747D
100
AcDbEntity
  8
部品1
 48
50.0
100
AcDbCircle
 10
6084.379875932043
 20
1372.103467950854
 30
0.0
 40
24.0
100
AcDbArc
 50
180.0
 51
199.4712206344713
  0
LINE
  5
25766
330
747D
100
AcDbEntity
  8
細線
 48
50.0
100
AcDbLine
 10
5935.653341546394
 20
1228.103467950854
 30
0.0
 11
5929.222560928048
 21
1252.103467950854
 31
0.0
  0
LINE
  5
25767
330
747D
100
AcDbEntity
  8
細線
 48
50.0
100
AcDbLine
 10
6014.541386493647
 20
1228.103467950854
 30
0.0
 11
6008.1106058753
 21
1252.103467950854
 31
0.0
  0
LINE
  5
25768
330
747D
100
AcDbEntity
  8
細線
 48
50.0
100
AcDbLine
 10
5917.059277075531
 20
1252.103467950854
 30
0.0
 11
6013.059277075531
 21
1348.103467950854
 31
0.0
  0
LINE
  5
25769
330
747D
100
AcDbEntity
  8
部品1
 48
50.0
100
AcDbLine
 10
6060.379875932042
 20
1430.230682647976
 30
0.0
 11
6060.379875932042
 21
1372.103467950854
 31
0.0
  0
LINE
  5
2576A
330
747D
100
AcDbEntity
  8
細線
 48
50.0
100
AcDbLine
 10
6002.118508712325
 20
1364.103467950854
 30
0.0
 11
6060.379875932042
 21
1422.364835170572
 31
0.0
  0
LINE
  5
2576B
330
747D
100
AcDbEntity
  8
部品1
 48
50.0
100
AcDbLine
 10
6076.379875932042
 20
1430.230682647976
 30
0.0
 11
6076.379875932042
 21
1372.103467950854
 31
0.0
  0
LINE
  5
2576C
330
747D
100
AcDbEntity
  8
部品1
 48
50.0
100
AcDbLine
 10
6388.379875932046
 20
1252.103467950854
 30
0.0
 11
6388.379875932046
 21
1124.103467950854
 31
0.0
  0
LINE
  5
2576D
330
747D
100
AcDbEntity
  8
細線
 48
50.0
100
AcDbLine
 10
6302.226850269796
 20
1124.103467950854
 30
0.0
 11
6336.524346900981
 21
1252.103467950852
 31
0.0
  0
LINE
  5
2576E
330
747D
100
AcDbEntity
  8
細線
 48
50.0
100
AcDbLine
 10
6144.450760375302
 20
1124.103467950854
 30
0.0
 11
6178.748257006489
 21
1252.103467950852
 31
0.0
  0
LINE
  5
2576F
330
747D
100
AcDbEntity
  8
細線
 48
50.0
100
AcDbLine
 10
6223.338805322551
 20
1124.103467950852
 30
0.0
 11
6257.636301953736
 21
1252.103467950852
 31
0.0
  0
LINE
  5
25770
330
747D
100
AcDbEntity
  8
細線
 48
50.0
100
AcDbLine
 10
6229.7695859409
 20
1148.103467950854
 30
0.0
 11
6236.200366559248
 21
1124.103467950854
 31
0.0
  0
LINE
  5
25771
330
747D
100
AcDbEntity
  8
細線
 48
50.0
100
AcDbLine
 10
6150.881540993655
 20
1148.103467950854
 30
0.0
 11
6157.312321612001
 21
1124.103467950854
 31
0.0
  0
LINE
  5
25772
330
747D
100
AcDbEntity
  8
細線
 48
50.0
100
AcDbLine
 10
6308.657630888148
 20
1148.103467950854
 30
0.0
 11
6315.088411506495
 21
1124.103467950854
 31
0.0
  0
LINE
  5
25773
330
747D
100
AcDbEntity
  8
細線
 48
50.0
100
AcDbLine
 10
6387.545675835395
 20
1148.103467950854
 30
0.0
 11
6388.379875932042
 21
1144.990190806489
 31
0.0
  0
LINE
  5
25774
330
747D
100
AcDbEntity
  8
細線
 48
50.0
100
AcDbLine
 10
6381.114895217045
 20
1124.103467950852
 30
0.0
 11
6388.379875932042
 21
1151.216745095242
 31
0.0
  0
LINE
  5
25775
330
747D
100
AcDbEntity
  8
細線
 48
50.0
100
AcDbLine
 10
6244.58542398119
 20
1364.103467950854
 30
0.0
 11
6308.379875932042
 21
1427.897919901705
 31
0.0
  0
CIRCLE
  5
25776
330
747D
100
AcDbEntity
  8
部品1
 48
50.0
100
AcDbCircle
 10
6212.379875932043
 20
1372.103467950854
 30
0.0
 40
8.0
  0
ARC
  5
25777
330
747D
100
AcDbEntity
  8
部品1
 48
50.0
100
AcDbCircle
 10
6084.379875932043
 20
1372.103467950854
 30
0.0
 40
24.0
100
AcDbArc
 50
340.5287793655287
 51
0.0
  0
LINE
  5
25778
330
747D
100
AcDbEntity
  8
細線
 48
50.0
100
AcDbLine
 10
6093.429431440899
 20
1228.103467950854
 30
0.0
 11
6086.99865082255
 21
1252.103467950854
 31
0.0
  0
LINE
  5
25779
330
747D
100
AcDbEntity
  8
細線
 48
50.0
100
AcDbLine
 10
6172.317476388144
 20
1228.103467950854
 30
0.0
 11
6165.886695769798
 21
1252.103467950854
 31
0.0
  0
LINE
  5
2577A
330
747D
100
AcDbEntity
  8
細線
 48
50.0
100
AcDbLine
 10
6105.644655617986
 20
1252.103467950854
 30
0.0
 11
6201.644655617986
 21
1348.103467950854
 31
0.0
  0
LINE
  5
2577B
330
747D
100
AcDbEntity
  8
細線
 48
50.0
100
AcDbLine
 10
6132.58542398119
 20
1252.103467950854
 30
0.0
 11
6228.586311826327
 21
1348.104355795993
 31
0.0
  0
LINE
  5
2577C
330
747D
100
AcDbEntity
  8
部品1
 48
50.0
100
AcDbLine
 10
6252.379875932042
 20
1364.103467950854
 30
0.0
 11
6252.379875932042
 21
1348.103467950854
 31
0.0
  0
LINE
  5
2577D
330
747D
100
AcDbEntity
  8
細線
 48
50.0
100
AcDbLine
 10
6330.093566282637
 20
1228.103467950854
 30
0.0
 11
6323.662785664289
 21
1252.103467950854
 31
0.0
  0
LINE
  5
2577E
330
747D
100
AcDbEntity
  8
細線
 48
50.0
100
AcDbLine
 10
6294.230034160436
 20
1252.103467950854
 30
0.0
 11
6308.379875932042
 21
1266.25330972246
 31
0.0
  0
LINE
  5
2577F
330
747D
100
AcDbEntity
  8
細線
 48
50.0
100
AcDbLine
 10
6251.205521335389
 20
1228.103467950854
 30
0.0
 11
6244.774740717044
 21
1252.103467950854
 31
0.0
  0
LINE
  5
25780
330
747D
100
AcDbEntity
  8
細線
 48
50.0
100
AcDbLine
 10
5988.379875932043
 20
1565.890982076232
 30
0.0
 11
6092.379875932048
 21
1669.890982076234
 31
0.0
  0
LINE
  5
25781
330
747D
100
AcDbEntity
  8
細線
 48
50.0
100
AcDbLine
 10
5988.379875932043
 20
1592.83175043944
 30
0.0
 11
6092.379875932042
 21
1696.83175043944
 31
0.0
  0
LINE
  5
25782
330
747D
100
AcDbEntity
  8
細線
 48
50.0
100
AcDbLine
 10
5988.379875932043
 20
1538.950213713025
 30
0.0
 11
6092.379875932048
 21
1642.950213713025
 31
0.0
  0
LINE
  5
25783
330
747D
100
AcDbEntity
  8
細線
 48
50.0
100
AcDbLine
 10
6076.379875932042
 20
1842.476360618684
 30
0.0
 11
6092.379875932042
 21
1858.476360618684
 31
0.0
  0
LINE
  5
25784
330
747D
100
AcDbEntity
  8
細線
 48
50.0
100
AcDbLine
 10
6076.379875932042
 20
1869.417128981891
 30
0.0
 11
6092.379875932042
 21
1885.417128981891
 31
0.0
  0
LINE
  5
25785
330
747D
100
AcDbEntity
  8
部品1
 48
50.0
100
AcDbLine
 10
5860.379875932043
 20
1492.103467950854
 30
0.0
 11
5988.379875932043
 21
1492.103467950854
 31
0.0
  0
LINE
  5
25786
330
747D
100
AcDbEntity
  8
細線
 48
50.0
100
AcDbLine
 10
5860.379875932036
 20
1437.890982076229
 30
0.0
 11
5914.592361806668
 21
1492.103467950854
 31
0.0
  0
LINE
  5
25787
330
747D
100
AcDbEntity
  8
細線
 48
50.0
100
AcDbLine
 10
5860.379875932036
 20
1464.83175043944
 30
0.0
 11
5887.651593443457
 21
1492.103467950854
 31
0.0
  0
LINE
  5
25788
330
747D
100
AcDbEntity
  8
部品1
 48
50.0
100
AcDbLine
 10
6076.379875932042
 20
1838.230682647976
 30
0.0
 11
6060.379875932042
 21
1838.23068264798
 31
0.0
  0
LINE
  5
25789
330
747D
100
AcDbEntity
  8
細線
 48
50.0
100
AcDbLine
 10
5988.379875932043
 20
1754.476360618684
 30
0.0
 11
6072.134197961336
 21
1838.230682647976
 31
0.0
  0
LINE
  5
2578A
330
747D
100
AcDbEntity
  8
細線
 48
50.0
100
AcDbLine
 10
5988.379875932043
 20
1781.417128981891
 30
0.0
 11
6060.379875932042
 21
1853.417128981891
 31
0.0
  0
LINE
  5
2578B
330
747D
100
AcDbEntity
  8
部品1
 48
50.0
100
AcDbLine
 10
6060.379875932042
 20
1838.23068264798
 30
0.0
 11
6060.379875932042
 21
1896.357897345099
 31
0.0
  0
LINE
  5
2578C
330
747D
100
AcDbEntity
  8
細線
 48
50.0
100
AcDbLine
 10
5988.379875932043
 20
1808.357897345099
 30
0.0
 11
6060.379875932042
 21
1880.357897345099
 31
0.0
  0
LINE
  5
2578D
330
747D
100
AcDbEntity
  8
部品1
 48
50.0
100
AcDbLine
 10
6076.379875932042
 20
1838.230682647976
 30
0.0
 11
6076.379875932042
 21
1896.357897345099
 31
0.0
  0
LINE
  5
2578E
330
747D
100
AcDbEntity
  8
細線
 48
50.0
100
AcDbLine
 10
6108.379875932048
 20
1658.950213713025
 30
0.0
 11
6180.379875932035
 21
1730.950213713025
 31
0.0
  0
LINE
  5
2578F
330
747D
100
AcDbEntity
  8
部品1
 48
50.0
100
AcDbLine
 10
6180.379875932043
 20
1492.103467950854
 30
0.0
 11
6308.379875932042
 21
1492.103467950854
 31
0.0
  0
LINE
  5
25790
330
747D
100
AcDbEntity
  8
細線
 48
50.0
100
AcDbLine
 10
6108.379875932048
 20
1470.364835170575
 30
0.0
 11
6180.379875932035
 21
1542.36483517057
 31
0.0
  0
LINE
  5
25791
330
747D
100
AcDbEntity
  8
細線
 48
50.0
100
AcDbLine
 10
6108.379875932048
 20
1497.305603533783
 30
0.0
 11
6180.379875932035
 21
1569.305603533779
 31
0.0
  0
LINE
  5
25792
330
747D
100
AcDbEntity
  8
細線
 48
50.0
100
AcDbLine
 10
6108.379875932048
 20
1443.424066807365
 30
0.0
 11
6180.379875932035
 21
1515.424066807365
 31
0.0
  0
LINE
  5
25793
330
747D
100
AcDbEntity
  8
細線
 48
50.0
100
AcDbLine
 10
6108.379875932042
 20
1712.83175043944
 30
0.0
 11
6180.379875932043
 21
1784.83175043944
 31
0.0
  0
LINE
  5
25794
330
747D
100
AcDbEntity
  8
細線
 48
50.0
100
AcDbLine
 10
6108.379875932048
 20
1685.890982076234
 30
0.0
 11
6180.379875932035
 21
1757.890982076229
 31
0.0
  0
MTEXT
  5
25795
102
{ACAD_REACTORS
330
25740
102
}
330
747D
100
AcDbEntity
  8
寸法
 62
     7
 48
50.0
100
AcDbMText
 10
6422.118331793292
 20
1074.754382218701
 30
0.0
 40
80.0
 41
0.8
 71
     4
 72
     1
  1
\A1;D10@300
  7
STYLE2
 73
     1
 44
1.0
1001
ACAD
1000
MTEXTBEGIN
1070
    73
1070
     1
1070
    44
1040
1.0
1070
    74
1070
     0
1000
MTEXTEND
  0
DIMENSION
  5
25796
330
747D
100
AcDbEntity
  8
寸法
 48
50.0
100
AcDbDimension
  2
*D45
 10
5988.379875932042
 20
2455.771275867234
 30
0.0
 11
6084.379875932041
 21
2455.771275867234
 31
0.0
 70
   160
  1
120\P200\P280
 71
     5
 42
192.0
  3
INABA_S40G
100
AcDbAlignedDimension
 13
6180.379875932041
 23
2036.103467950854
 33
0.0
 14
5988.379875932042
 24
2036.103467950854
 34
0.0
100
AcDbRotatedDimension
1001
ACAD
1000
DSTYLE
1002
{
1070
   341
1005
0
1002
}
  0
LINE
  5
25797
330
747D
100
AcDbEntity
  8
部品1
 48
50.0
100
AcDbLine
 10
5988.379875932043
 20
2036.103467950854
 30
0.0
 11
6180.379875932043
 21
2036.103467950854
 31
0.0
  0
LINE
  5
25798
330
747D
100
AcDbEntity
  8
細線
 48
50.0
100
AcDbLine
 10
5988.379875932043
 20
1996.943275887552
 30
0.0
 11
6027.540067995346
 21
2036.103467950854
 31
0.0
  0
LINE
  5
25799
330
747D
100
AcDbEntity
  8
細線
 48
50.0
100
AcDbLine
 10
5988.379875932043
 20
1970.002507524344
 30
0.0
 11
6054.480836358552
 21
2036.103467950854
 31
0.0
  0
LINE
  5
2579A
330
747D
100
AcDbEntity
  8
細線
 48
50.0
100
AcDbLine
 10
5988.379875932043
 20
2023.884044250759
 30
0.0
 11
6000.599299632138
 21
2036.103467950854
 31
0.0
  0
LINE
  5
2579B
330
747D
100
AcDbEntity
  8
細線
 48
50.0
100
AcDbLine
 10
6107.932583198028
 20
1900.969836247876
 30
0.0
 11
6180.379875932043
 21
1973.417128981891
 31
0.0
  0
LINE
  5
2579C
330
747D
100
AcDbEntity
  8
細線
 48
50.0
100
AcDbLine
 10
6096.872298434512
 20
1916.85031984757
 30
0.0
 11
6180.379875932043
 21
2000.3578973451
 31
0.0
  0
LINE
  5
2579D
330
747D
100
AcDbEntity
  8
細線
 48
50.0
100
AcDbLine
 10
7972.819189109235
 20
1877.231750439442
 30
0.0
 11
8102.419189109234
 21
2006.831750439441
 31
0.0
  0
LINE
  5
2579E
330
747D
100
AcDbEntity
  8
部品1
100
AcDbLine
 10
8102.419189109234
 20
1492.103467950854
 30
0.0
 11
8102.419189109234
 21
2036.103467950854
 31
0.0
  0
LINE
  5
2579F
330
747D
100
AcDbEntity
  8
部品1
 48
50.0
100
AcDbLine
 10
7688.419189109236
 20
1492.103467950854
 30
0.0
 11
7688.419189109236
 21
2036.103467950854
 31
0.0
  0
LINE
  5
257A0
330
747D
100
AcDbEntity
  8
細線
 48
50.0
100
AcDbLine
 10
7688.419189109236
 20
1808.357897345099
 30
0.0
 11
7846.819189109236
 21
1966.757897345096
 31
0.0
  0
LINE
  5
257A1
330
747D
100
AcDbEntity
  8
細線
 48
50.0
100
AcDbLine
 10
7688.419189109236
 20
1781.417128981891
 30
0.0
 11
7846.819189109236
 21
1939.817128981889
 31
0.0
  0
LINE
  5
257A2
330
747D
100
AcDbEntity
  8
細線
 48
50.0
100
AcDbLine
 10
7688.419189109236
 20
1754.476360618684
 30
0.0
 11
7846.819189109232
 21
1912.876360618676
 31
0.0
  0
TEXT
  5
257A3
330
747D
100
AcDbEntity
  8
部品1
 48
50.0
100
AcDbText
 10
7274.279287276279
 20
1807.342460234109
 30
0.0
 40
80.0
  1
▽G.L
  7
STYLE2
100
AcDbText
  0
LINE
  5
257A4
330
747D
100
AcDbEntity
  8
部品1
100
AcDbLine
 10
7918.819189109235
 20
1811.103467950854
 30
0.0
 11
7918.819189109232
 21
2085.263467950855
 31
0.0
  0
LINE
  5
257A5
330
747D
100
AcDbEntity
  8
部品1
100
AcDbLine
 10
7900.819189109235
 20
1811.103467950854
 30
0.0
 11
7900.819189109232
 21
2085.263467950855
 31
0.0
  0
LINE
  5
257A6
330
747D
100
AcDbEntity
  8
細線
 48
50.0
100
AcDbLine
 10
7972.819189109235
 20
1823.350213713013
 30
0.0
 11
8102.419189109234
 21
1952.950213713004
 31
0.0
  0
LINE
  5
257A7
330
747D
100
AcDbEntity
  8
細線
 48
50.0
100
AcDbLine
 10
7972.819189109235
 20
1850.290982076225
 30
0.0
 11
8102.419189109234
 21
1979.890982076222
 31
0.0
  0
LINE
  5
257A8
330
747D
100
AcDbEntity
  8
部品1
100
AcDbLine
 10
7972.819189109235
 20
1712.103467950854
 30
0.0
 11
7972.819189109235
 21
2036.103467950854
 31
0.0
  0
LINE
  5
257A9
330
747D
100
AcDbEntity
  8
部品1
100
AcDbLine
 10
7846.819189109229
 20
1712.103467950854
 30
0.0
 11
7846.819189109236
 21
2036.103467950854
 31
0.0
  0
LINE
  5
257AA
330
747D
100
AcDbEntity
  8
細線
 48
50.0
100
AcDbLine
 10
7688.419189109236
 20
1565.890982076232
 30
0.0
 11
7846.819189109229
 21
1724.290982076221
 31
0.0
  0
LINE
  5
257AB
330
747D
100
AcDbEntity
  8
細線
 48
50.0
100
AcDbLine
 10
7688.419189109236
 20
1538.950213713025
 30
0.0
 11
7861.572443347071
 21
1712.103467950852
 31
0.0
  0
LINE
  5
257AC
330
747D
100
AcDbEntity
  8
細線
 48
50.0
100
AcDbLine
 10
7688.419189109236
 20
1592.83175043944
 30
0.0
 11
7846.819189109229
 21
1751.231750439435
 31
0.0
  0
LINE
  5
257AD
330
747D
100
AcDbEntity
  8
細線
 48
50.0
100
AcDbLine
 10
7617.098590252725
 20
1252.103467950854
 30
0.0
 11
8102.419189109234
 21
1737.424066807362
 31
0.0
  0
LINE
  5
257AE
330
747D
100
AcDbEntity
  8
細線
 48
50.0
100
AcDbLine
 10
7590.157821889521
 20
1252.103467950854
 30
0.0
 11
8102.419189109239
 21
1764.364835170568
 31
0.0
  0
LINE
  5
257AF
330
747D
100
AcDbEntity
  8
細線
 48
50.0
100
AcDbLine
 10
7563.217053526312
 20
1252.103467950854
 30
0.0
 11
8102.419189109234
 21
1791.305603533779
 31
0.0
  0
LINE
  5
257B0
330
747D
100
AcDbEntity
  8
部品1
 48
50.0
100
AcDbLine
 10
8310.419189109238
 20
1252.103467950854
 30
0.0
 11
7480.419189109238
 21
1252.103467950854
 31
0.0
  0
LINE
  5
257B1
330
747D
100
AcDbEntity
  8
部品1
 48
50.0
100
AcDbLine
 10
8310.419189109238
 20
1124.103467950854
 30
0.0
 11
7480.419189109238
 21
1124.103467950854
 31
0.0
  0
LINE
  5
257B2
330
747D
100
AcDbEntity
  8
細線
 48
50.0
100
AcDbLine
 10
7560.419189109231
 20
1410.950213713025
 30
0.0
 11
7641.572443347065
 21
1492.103467950854
 31
0.0
  0
LINE
  5
257B3
330
747D
100
AcDbEntity
  8
部品1
 48
50.0
100
AcDbLine
 10
7560.419189109236
 20
1252.103467950854
 30
0.0
 11
7560.419189109236
 21
1492.103467950854
 31
0.0
  0
LINE
  5
257B4
330
747D
100
AcDbEntity
  8
細線
 48
50.0
100
AcDbLine
 10
7607.825938710753
 20
1124.103467950854
 30
0.0
 11
7642.123435341936
 21
1252.103467950854
 31
0.0
  0
LINE
  5
257B5
330
747D
100
AcDbEntity
  8
部品1
 48
50.0
100
AcDbLine
 10
7480.419189109238
 20
1124.103467950854
 30
0.0
 11
7480.419189109238
 21
1252.103467950854
 31
0.0
  0
LINE
  5
257B6
330
747D
100
AcDbEntity
  8
細線
 48
50.0
100
AcDbLine
 10
7528.937893763495
 20
1124.103467950852
 30
0.0
 11
7563.235390394678
 21
1252.103467950852
 31
0.0
  0
LINE
  5
257B7
330
747D
100
AcDbEntity
  8
細線
 48
50.0
100
AcDbLine
 10
7686.713983657999
 20
1124.103467950852
 30
0.0
 11
7721.011480289181
 21
1252.103467950852
 31
0.0
  0
LINE
  5
257B8
330
747D
100
AcDbEntity
  8
細線
 48
50.0
100
AcDbLine
 10
7535.368674381849
 20
1148.103467950854
 30
0.0
 11
7541.799455000194
 21
1124.103467950854
 31
0.0
  0
LINE
  5
257B9
330
747D
100
AcDbEntity
  8
細線
 48
50.0
100
AcDbLine
 10
7693.144764276351
 20
1148.103467950854
 30
0.0
 11
7699.575544894699
 21
1124.103467950854
 31
0.0
  0
LINE
  5
257BA
330
747D
100
AcDbEntity
  8
細線
 48
50.0
100
AcDbLine
 10
7614.256719329102
 20
1148.103467950854
 30
0.0
 11
7620.687499947447
 21
1124.103467950854
 31
0.0
  0
LINE
  5
257BB
330
747D
100
AcDbEntity
  8
細線
 48
50.0
100
AcDbLine
 10
7480.419189109236
 20
1237.443388916634
 30
0.0
 11
7484.347345447431
 21
1252.103467950854
 31
0.0
  0
LINE
  5
257BC
330
747D
100
AcDbEntity
  8
細線
 48
50.0
100
AcDbLine
 10
7556.804609776337
 20
1228.103467950854
 30
0.0
 11
7550.37382915799
 21
1252.103467950854
 31
0.0
  0
LINE
  5
257BD
330
747D
100
AcDbEntity
  8
細線
 48
50.0
100
AcDbLine
 10
7714.58069967084
 20
1228.103467950854
 30
0.0
 11
7708.149919052492
 21
1252.103467950854
 31
0.0
  0
LINE
  5
257BE
330
747D
100
AcDbEntity
  8
細線
 48
50.0
100
AcDbLine
 10
7635.69265472359
 20
1228.103467950854
 30
0.0
 11
7629.261874105242
 21
1252.103467950854
 31
0.0
  0
LWPOLYLINE
  5
257BF
330
747D
100
AcDbEntity
  8
部品1
 48
50.0
100
AcDbPolyline
 90
        2
 70
     0
 43
8.0
 10
7274.279287276279
 20
1796.103467950854
 10
7688.419189109236
 20
1796.103467950854
  0
LINE
  5
257C0
330
747D
100
AcDbEntity
  8
細線
 48
50.0
100
AcDbLine
 10
7560.419189109231
 20
1437.890982076229
 30
0.0
 11
7614.63167498386
 21
1492.103467950854
 31
0.0
  0
LINE
  5
257C1
330
747D
100
AcDbEntity
  8
部品1
 48
50.0
100
AcDbLine
 10
7560.419189109236
 20
1492.103467950854
 30
0.0
 11
7688.419189109236
 21
1492.103467950854
 31
0.0
  0
LINE
  5
257C2
330
747D
100
AcDbEntity
  8
細線
 48
50.0
100
AcDbLine
 10
7560.419189109231
 20
1464.83175043944
 30
0.0
 11
7587.69090662065
 21
1492.103467950854
 31
0.0
  0
LINE
  5
257C3
330
747D
100
AcDbEntity
  8
細線
 48
50.0
100
AcDbLine
 10
7805.683968795181
 20
1252.103467950854
 30
0.0
 11
8102.419189109234
 21
1548.838688264906
 31
0.0
  0
LINE
  5
257C4
330
747D
100
AcDbEntity
  8
細線
 48
50.0
100
AcDbLine
 10
7832.624737158385
 20
1252.103467950854
 30
0.0
 11
8102.419189109234
 21
1521.897919901711
 31
0.0
  0
LINE
  5
257C5
330
747D
100
AcDbEntity
  8
細線
 48
50.0
100
AcDbLine
 10
7778.74320043197
 20
1252.103467950854
 30
0.0
 11
8102.419189109234
 21
1575.77945662812
 31
0.0
  0
LINE
  5
257C6
330
747D
100
AcDbEntity
  8
細線
 48
50.0
100
AcDbLine
 10
7994.269347337628
 20
1252.103467950854
 30
0.0
 11
8230.419189109234
 21
1488.253309722462
 31
0.0
  0
LINE
  5
257C7
330
747D
100
AcDbEntity
  8
細線
 48
50.0
100
AcDbLine
 10
8021.21011570084
 20
1252.103467950854
 30
0.0
 11
8230.419189109234
 21
1461.312541359247
 31
0.0
  0
LINE
  5
257C8
330
747D
100
AcDbEntity
  8
部品1
 48
50.0
100
AcDbLine
 10
8230.419189109234
 20
1492.103467950854
 30
0.0
 11
8230.419189109234
 21
1252.103467950854
 31
0.0
  0
LINE
  5
257C9
330
747D
100
AcDbEntity
  8
細線
 48
50.0
100
AcDbLine
 10
8048.150884064046
 20
1252.103467950854
 30
0.0
 11
8230.419189109234
 21
1434.37177299605
 31
0.0
  0
LINE
  5
257CA
330
747D
100
AcDbEntity
  8
細線
 48
50.0
100
AcDbLine
 10
7923.378118499747
 20
1124.103467950852
 30
0.0
 11
7957.675615130927
 21
1252.103467950852
 31
0.0
  0
LINE
  5
257CB
330
747D
100
AcDbEntity
  8
細線
 48
50.0
100
AcDbLine
 10
7765.60202860525
 20
1124.103467950854
 30
0.0
 11
7799.899525236433
 21
1252.103467950854
 31
0.0
  0
LINE
  5
257CC
330
747D
100
AcDbEntity
  8
細線
 48
50.0
100
AcDbLine
 10
7844.490073552496
 20
1124.103467950854
 30
0.0
 11
7878.787570183682
 21
1252.103467950852
 31
0.0
  0
LINE
  5
257CD
330
747D
100
AcDbEntity
  8
細線
 48
50.0
100
AcDbLine
 10
8002.266163446988
 20
1124.103467950854
 30
0.0
 11
8036.563660078172
 21
1252.103467950852
 31
0.0
  0
LINE
  5
257CE
330
747D
100
AcDbEntity
  8
細線
 48
50.0
100
AcDbLine
 10
7850.92085417085
 20
1148.103467950854
 30
0.0
 11
7857.351634789196
 21
1124.103467950854
 31
0.0
  0
LINE
  5
257CF
330
747D
100
AcDbEntity
  8
細線
 48
50.0
100
AcDbLine
 10
7772.032809223603
 20
1148.103467950854
 30
0.0
 11
7778.463589841951
 21
1124.103467950854
 31
0.0
  0
LINE
  5
257D0
330
747D
100
AcDbEntity
  8
細線
 48
50.0
100
AcDbLine
 10
8008.696944065341
 20
1148.103467950854
 30
0.0
 11
8015.127724683686
 21
1124.103467950854
 31
0.0
  0
LINE
  5
257D1
330
747D
100
AcDbEntity
  8
細線
 48
50.0
100
AcDbLine
 10
7929.808899118096
 20
1148.103467950854
 30
0.0
 11
7936.239679736442
 21
1124.103467950854
 31
0.0
  0
LINE
  5
257D2
330
747D
100
AcDbEntity
  8
細線
 48
50.0
100
AcDbLine
 10
7872.356789565341
 20
1228.103467950854
 30
0.0
 11
7865.926008946989
 21
1252.103467950854
 31
0.0
  0
LINE
  5
257D3
330
747D
100
AcDbEntity
  8
細線
 48
50.0
100
AcDbLine
 10
7793.468744618092
 20
1228.103467950854
 30
0.0
 11
7787.037963999745
 21
1252.103467950854
 31
0.0
  0
LINE
  5
257D4
330
747D
100
AcDbEntity
  8
細線
 48
50.0
100
AcDbLine
 10
7951.244834512585
 20
1228.103467950854
 30
0.0
 11
7944.81405389424
 21
1252.103467950854
 31
0.0
  0
LINE
  5
257D5
330
747D
100
AcDbEntity
  8
細線
 48
50.0
100
AcDbLine
 10
8030.132879459831
 20
1228.103467950854
 30
0.0
 11
8023.702098841484
 21
1252.103467950854
 31
0.0
  0
LINE
  5
257D6
330
747D
100
AcDbEntity
  8
部品1
 48
50.0
100
AcDbLine
 10
8310.419189109238
 20
1252.103467950854
 30
0.0
 11
8310.419189109238
 21
1124.103467950854
 31
0.0
  0
LINE
  5
257D7
330
747D
100
AcDbEntity
  8
細線
 48
50.0
100
AcDbLine
 10
8238.930298288732
 20
1124.103467950852
 30
0.0
 11
8273.227794919916
 21
1252.103467950851
 31
0.0
  0
LINE
  5
257D8
330
747D
100
AcDbEntity
  8
細線
 48
50.0
100
AcDbLine
 10
8081.154208394236
 20
1124.103467950852
 30
0.0
 11
8115.451705025412
 21
1252.103467950854
 31
0.0
  0
LINE
  5
257D9
330
747D
100
AcDbEntity
  8
細線
 48
50.0
100
AcDbLine
 10
8160.042253341485
 20
1124.103467950851
 30
0.0
 11
8194.339749972671
 21
1252.103467950851
 31
0.0
  0
LINE
  5
257DA
330
747D
100
AcDbEntity
  8
細線
 48
50.0
100
AcDbLine
 10
8087.584989012587
 20
1148.103467950854
 30
0.0
 11
8094.015769630944
 21
1124.103467950854
 31
0.0
  0
LINE
  5
257DB
330
747D
100
AcDbEntity
  8
細線
 48
50.0
100
AcDbLine
 10
8166.473033959835
 20
1148.103467950852
 30
0.0
 11
8172.903814578182
 21
1124.103467950852
 31
0.0
  0
LINE
  5
257DC
330
747D
100
AcDbEntity
  8
細線
 48
50.0
100
AcDbLine
 10
8245.36107890708
 20
1148.103467950852
 30
0.0
 11
8251.791859525431
 21
1124.103467950852
 31
0.0
  0
LINE
  5
257DD
330
747D
100
AcDbEntity
  8
細線
 48
50.0
100
AcDbLine
 10
8109.020924407069
 20
1228.103467950854
 30
0.0
 11
8102.590143788722
 21
1252.103467950854
 31
0.0
  0
LINE
  5
257DE
330
747D
100
AcDbEntity
  8
細線
 48
50.0
100
AcDbLine
 10
8187.908969354324
 20
1228.103467950852
 30
0.0
 11
8181.478188735978
 21
1252.103467950852
 31
0.0
  0
LINE
  5
257DF
330
747D
100
AcDbEntity
  8
細線
 48
50.0
100
AcDbLine
 10
8266.797014301571
 20
1228.103467950852
 30
0.0
 11
8260.366233683225
 21
1252.103467950852
 31
0.0
  0
LINE
  5
257E0
330
747D
100
AcDbEntity
  8
部品1
100
AcDbLine
 10
7972.819189109235
 20
1712.103467950852
 30
0.0
 11
7846.819189109229
 21
1712.103467950852
 31
0.0
  0
LINE
  5
257E1
330
747D
100
AcDbEntity
  8
部品1
100
AcDbLine
 10
7954.819189109236
 20
1793.103467950854
 30
0.0
 11
7954.819189109236
 21
1811.103467950854
 31
0.0
  0
ARC
  5
257E2
330
747D
100
AcDbEntity
  8
部品1
100
AcDbCircle
 10
7918.819189109235
 20
1811.103467950854
 30
0.0
 40
18.0
100
AcDbArc
 50
180.0
 51
270.0
  0
LINE
  5
257E3
330
747D
100
AcDbEntity
  8
部品1
100
AcDbLine
 10
7918.819189109235
 20
1793.103467950854
 30
0.0
 11
7954.819189109236
 21
1793.103467950854
 31
0.0
  0
LINE
  5
257E4
330
747D
100
AcDbEntity
  8
部品1
100
AcDbLine
 10
7918.819189109235
 20
1811.103467950854
 30
0.0
 11
7954.819189109236
 21
1811.103467950854
 31
0.0
  0
LINE
  5
257E5
330
747D
100
AcDbEntity
  8
部品1
 48
50.0
100
AcDbLine
 10
8102.419189109234
 20
1492.103467950854
 30
0.0
 11
8230.419189109234
 21
1492.103467950854
 31
0.0
  0
LINE
  5
257E6
330
747D
100
AcDbEntity
  8
部品1
100
AcDbLine
 10
7708.219189109236
 20
2126.103467950854
 30
0.0
 11
7746.019189109238
 21
2126.103467950854
 31
0.0
  0
LINE
  5
257E7
330
747D
100
AcDbEntity
  8
細線
 48
50.0
100
AcDbLine
 10
7688.419189109236
 20
1996.943275887552
 30
0.0
 11
7727.579381172542
 21
2036.103467950854
 31
0.0
  0
LINE
  5
257E8
330
747D
100
AcDbEntity
  8
細線
 48
50.0
100
AcDbLine
 10
7688.419189109236
 20
1970.002507524344
 30
0.0
 11
7754.520149535746
 21
2036.103467950854
 31
0.0
  0
LINE
  5
257E9
330
747D
100
AcDbEntity
  8
部品1
 48
50.0
100
AcDbLine
 10
7688.419189109236
 20
2036.103467950854
 30
0.0
 11
8102.419189109239
 21
2036.103467950854
 31
0.0
  0
LINE
  5
257EA
330
747D
100
AcDbEntity
  8
部品1
100
AcDbLine
 10
7705.519189109238
 20
2115.303467950853
 30
0.0
 11
7705.519189109238
 21
2123.403467950854
 31
0.0
  0
ARC
  5
257EB
330
747D
100
AcDbEntity
  8
部品1
100
AcDbCircle
 10
7708.219189109236
 20
2123.403467950854
 30
0.0
 40
2.7
100
AcDbArc
 50
90.0
 51
180.0
  0
ARC
  5
257EC
330
747D
100
AcDbEntity
  8
部品1
100
AcDbCircle
 10
7697.419189109234
 20
2110.495371653562
 30
0.0
 40
2.7
100
AcDbArc
 50
104.0362434679067
 51
180.0
  0
LINE
  5
257ED
330
747D
100
AcDbEntity
  8
部品1
100
AcDbLine
 10
7696.764342921638
 20
2113.114756403954
 30
0.0
 11
7705.519189109238
 21
2115.303467950853
 31
0.0
  0
ARC
  5
257EE
330
747D
100
AcDbEntity
  8
部品1
100
AcDbCircle
 10
7697.419189109234
 20
2048.363467950854
 30
0.0
 40
2.7
100
AcDbArc
 50
180.0
 51
270.0
  0
LINE
  5
257EF
330
747D
100
AcDbEntity
  8
細線
 48
50.0
100
AcDbLine
 10
7688.419189109236
 20
2023.884044250759
 30
0.0
 11
7700.63861280933
 21
2036.103467950854
 31
0.0
  0
LINE
  5
257F0
330
747D
100
AcDbEntity
  8
部品1
100
AcDbLine
 10
7697.419189109234
 20
2045.663467950854
 30
0.0
 11
7709.11918910923
 21
2045.663467950854
 31
0.0
  0
LINE
  5
257F1
330
747D
100
AcDbEntity
  8
部品1
100
AcDbLine
 10
7694.719189109235
 20
2048.363467950854
 30
0.0
 11
7694.719189109235
 21
2110.495371653562
 31
0.0
  0
LINE
  5
257F2
330
747D
100
AcDbEntity
  8
部品1
100
AcDbLine
 10
7853.379189109229
 20
2045.663467950854
 30
0.0
 11
8054.71918910923
 21
2045.663467950854
 31
0.0
  0
LINE
  5
257F3
330
747D
100
AcDbEntity
  8
部品1
100
AcDbLine
 10
7746.019189109238
 20
2126.103467950854
 30
0.0
 11
7746.019189109238
 21
2134.203467950854
 31
0.0
  0
LINE
  5
257F4
330
747D
100
AcDbEntity
  8
部品1
100
AcDbLine
 10
7796.419189109236
 20
2145.003467950851
 30
0.0
 11
7796.419189109236
 21
2093.703467950854
 31
0.0
  0
LINE
  5
257F5
330
747D
100
AcDbEntity
  8
部品1
100
AcDbLine
 10
7819.819189109236
 20
2105.663467950854
 30
0.0
 11
7847.979189109236
 21
2105.663467950854
 31
0.0
  0
ARC
  5
257F6
330
747D
100
AcDbEntity
  8
部品1
100
AcDbCircle
 10
7819.819189109236
 20
2102.963467950854
 30
0.0
 40
2.7
100
AcDbArc
 50
90.0
 51
180.0
  0
ARC
  5
257F7
330
747D
100
AcDbEntity
  8
部品1
100
AcDbCircle
 10
7847.979189109236
 20
2102.963467950854
 30
0.0
 40
2.7
100
AcDbArc
 50
0.0
 51
90.0
  0
LINE
  5
257F8
330
747D
100
AcDbEntity
  8
部品1
100
AcDbLine
 10
7838.719189109237
 20
2091.003467950853
 30
0.0
 11
7838.719189109237
 21
2048.363467950854
 31
0.0
  0
LINE
  5
257F9
330
747D
100
AcDbEntity
  8
部品1
100
AcDbLine
 10
7824.319189109235
 20
2045.663467950854
 30
0.0
 11
7836.019189109237
 21
2045.663467950854
 31
0.0
  0
ARC
  5
257FA
330
747D
100
AcDbEntity
  8
部品1
100
AcDbCircle
 10
7853.379189109229
 20
2048.363467950854
 30
0.0
 40
2.7
100
AcDbArc
 50
180.0
 51
270.0
  0
ARC
  5
257FB
330
747D
100
AcDbEntity
  8
部品1
100
AcDbCircle
 10
7836.019189109237
 20
2048.363467950854
 30
0.0
 40
2.7
100
AcDbArc
 50
270.0
 51
0.0
  0
LINE
  5
257FC
330
747D
100
AcDbEntity
  8
部品1
100
AcDbLine
 10
7796.419189109236
 20
2093.703467950854
 30
0.0
 11
7836.019189109237
 21
2093.703467950854
 31
0.0
  0
ARC
  5
257FD
330
747D
100
AcDbEntity
  8
部品1
100
AcDbCircle
 10
7836.019189109237
 20
2091.003467950853
 30
0.0
 40
2.7
100
AcDbArc
 50
0.0
 51
90.0
  0
LINE
  5
257FE
330
747D
100
AcDbEntity
  8
部品1
100
AcDbLine
 10
7850.679189109236
 20
2102.963467950854
 30
0.0
 11
7850.679189109233
 21
2048.363467950854
 31
0.0
  0
LINE
  5
257FF
330
747D
100
AcDbEntity
  8
部品1
100
AcDbLine
 10
7817.119189109234
 20
2102.963467950854
 30
0.0
 11
7817.119189109234
 21
2085.863467950854
 31
0.0
  0
LINE
  5
25800
330
747D
100
AcDbEntity
  8
細線
100
AcDbLine
 10
7915.219189109237
 20
2045.663467950854
 30
0.0
 11
7915.219189109237
 21
2088.863467950854
 31
0.0
  0
LINE
  5
25801
330
747D
100
AcDbEntity
  8
細線
100
AcDbLine
 10
7904.419189109238
 20
2045.663467950854
 30
0.0
 11
7904.419189109233
 21
2088.863467950854
 31
0.0
  0
LINE
  5
25802
330
747D
100
AcDbEntity
  8
部品1
100
AcDbLine
 10
7900.819189109235
 20
2085.263467950855
 30
0.0
 11
7918.819189109235
 21
2085.263467950855
 31
0.0
  0
LINE
  5
25803
330
747D
100
AcDbEntity
  8
部品1
100
AcDbLine
 10
7904.419189109233
 20
2088.863467950854
 30
0.0
 11
7915.219189109237
 21
2088.863467950854
 31
0.0
  0
ELLIPSE
  5
25804
330
747D
100
AcDbEntity
  8
部品1
 48
50.0
100
AcDbEllipse
 10
7909.819189109235
 20
2305.226756395127
 30
0.0
 11
40.0
 21
0.0
 31
0.0
210
0.0
220
0.0
230
1.0
 40
0.4
 41
0.0
 42
6.283185307179586
  0
ELLIPSE
  5
25805
330
747D
100
AcDbEntity
  8
部品1
 48
50.0
100
AcDbEllipse
 10
7909.819189109235
 20
2295.626756395127
 30
0.0
 11
40.0
 21
0.0
 31
0.0
210
0.0
220
0.0
230
1.0
 40
0.4
 41
3.141592653589793
 42
6.283185307179586
  0
LINE
  5
25806
330
747D
100
AcDbEntity
  8
部品1
 48
50.0
100
AcDbLine
 10
7869.819189109236
 20
2305.226756395127
 30
0.0
 11
7869.819189109236
 21
2295.626756395126
 31
0.0
  0
ARC
  5
25807
330
747D
100
AcDbEntity
  8
部品1
100
AcDbCircle
 10
7793.719189109236
 20
2145.003467950851
 30
0.0
 40
2.7
100
AcDbArc
 50
0.0
 51
90.0
  0
ARC
  5
25808
330
747D
100
AcDbEntity
  8
部品1
100
AcDbCircle
 10
7751.419189109235
 20
2145.003467950854
 30
0.0
 40
2.7
100
AcDbArc
 50
90.0
 51
180.0
  0
LINE
  5
25809
330
747D
100
AcDbEntity
  8
部品1
100
AcDbLine
 10
7748.719189109237
 20
2136.903467950854
 30
0.0
 11
7748.719189109237
 21
2136.903467950854
 31
0.0
  0
LINE
  5
2580A
330
747D
100
AcDbEntity
  8
部品1
100
AcDbLine
 10
7748.719189109237
 20
2136.903467950854
 30
0.0
 11
7748.719189109237
 21
2145.003467950854
 31
0.0
  0
LINE
  5
2580B
330
747D
100
AcDbEntity
  8
部品1
100
AcDbLine
 10
7751.419189109235
 20
2147.703467950854
 30
0.0
 11
7793.719189109236
 21
2147.703467950851
 31
0.0
  0
ARC
  5
2580C
330
747D
100
AcDbEntity
  8
部品1
100
AcDbCircle
 10
7748.719189109237
 20
2134.203467950854
 30
0.0
 40
2.7
100
AcDbArc
 50
90.0
 51
180.0
  0
ELLIPSE
  5
2580D
330
747D
100
AcDbEntity
  8
部品1
 48
50.0
100
AcDbEllipse
 10
7909.819189109235
 20
2305.226756395127
 30
0.0
 11
18.4
 21
0.0
 31
0.0
210
0.0
220
0.0
230
1.0
 40
0.3478260869565217
 41
0.0
 42
6.283185307179586
  0
LINE
  5
2580E
330
747D
100
AcDbEntity
  8
部品1
 48
50.0
100
AcDbLine
 10
7949.819189109236
 20
2295.626756395126
 30
0.0
 11
7949.819189109236
 21
2305.226756395127
 31
0.0
  0
LINE
  5
2580F
330
747D
100
AcDbEntity
  8
部品1
 48
50.0
100
AcDbLine
 10
7877.819189109236
 20
2426.978749059997
 30
0.0
 11
7893.819189109236
 21
2418.978749059997
 31
0.0
  0
LINE
  5
25810
330
747D
100
AcDbEntity
  8
部品1
 48
50.0
100
AcDbLine
 10
7877.819189109236
 20
2394.978749059997
 30
0.0
 11
7893.819189109236
 21
2386.978749059997
 31
0.0
  0
LINE
  5
25811
330
747D
100
AcDbEntity
  8
部品1
 48
50.0
100
AcDbLine
 10
7877.819189109236
 20
2426.978749059997
 30
0.0
 11
7893.819189109236
 21
2434.978749059997
 31
0.0
  0
LINE
  5
25812
330
747D
100
AcDbEntity
  8
部品1
 48
50.0
100
AcDbLine
 10
7877.819189109236
 20
2394.978749059997
 30
0.0
 11
7877.819189109236
 21
2426.978749059997
 31
0.0
  0
LINE
  5
25813
330
747D
100
AcDbEntity
  8
部品1
 48
50.0
100
AcDbLine
 10
7893.819189109236
 20
2434.978749059997
 30
0.0
 11
7925.819189109235
 21
2434.978749059997
 31
0.0
  0
ELLIPSE
  5
25814
330
747D
100
AcDbEntity
  8
細線
 48
50.0
100
AcDbEllipse
 10
7909.819189109235
 20
2426.978749059997
 30
0.0
 11
14.76670786606846
 21
0.0
 31
0.0
210
0.0
220
0.0
230
1.0
 40
0.2071254069489396
 41
0.0
 42
6.283185307179586
  0
LINE
  5
25815
330
747D
100
AcDbEntity
  8
部品1
 48
50.0
100
AcDbLine
 10
7893.819189109236
 20
2386.978749059997
 30
0.0
 11
7925.819189109235
 21
2386.978749059997
 31
0.0
  0
LINE
  5
25816
330
747D
100
AcDbEntity
  8
部品1
 48
50.0
100
AcDbLine
 10
7925.819189109235
 20
2386.978749059997
 30
0.0
 11
7941.819189109236
 21
2394.978749059997
 31
0.0
  0
LINE
  5
25817
330
747D
100
AcDbEntity
  8
部品1
 48
50.0
100
AcDbLine
 10
7893.819189109236
 20
2418.978749059997
 30
0.0
 11
7925.819189109235
 21
2418.978749059997
 31
0.0
  0
LINE
  5
25818
330
747D
100
AcDbEntity
  8
部品1
 48
50.0
100
AcDbLine
 10
7925.819189109235
 20
2418.978749059997
 30
0.0
 11
7941.819189109236
 21
2426.978749059997
 31
0.0
  0
LINE
  5
25819
330
747D
100
AcDbEntity
  8
細線
 48
50.0
100
AcDbLine
 10
7925.819189109235
 20
2386.978749059997
 30
0.0
 11
7925.819189109235
 21
2418.978749059997
 31
0.0
  0
LINE
  5
2581A
330
747D
100
AcDbEntity
  8
部品1
 48
50.0
100
AcDbLine
 10
7941.819189109236
 20
2394.978749059997
 30
0.0
 11
7941.819189109236
 21
2426.978749059997
 31
0.0
  0
LINE
  5
2581B
330
747D
100
AcDbEntity
  8
細線
 48
50.0
100
AcDbLine
 10
7893.819189109236
 20
2386.978749059997
 30
0.0
 11
7893.819189109236
 21
2418.978749059997
 31
0.0
  0
LINE
  5
2581C
330
747D
100
AcDbEntity
  8
部品1
 48
50.0
100
AcDbLine
 10
7925.819189109235
 20
2434.978749059997
 30
0.0
 11
7941.819189109236
 21
2426.978749059997
 31
0.0
  0
TEXT
  5
2581D
330
747D
100
AcDbEntity
  8
部品1
100
AcDbText
 10
7610.591438301167
 20
3255.890203200011
 30
0.0
 40
120.0
  1
基礎詳細
  7
STYLE2
100
AcDbText
  0
LINE
  5
2581E
330
747D
100
AcDbEntity
  8
部品1
100
AcDbLine
 10
10988.69662250902
 20
471.1351655667922
 30
0.0
 11
10988.69662250903
 21
3435.44213515144
 31
0.0
  0
LINE
  5
2581F
330
747D
100
AcDbEntity
  8
細線
100
AcDbLine
 10
9996.58845508878
 20
1796.103467950854
 30
0.0
 11
9801.955121411992
 21
1990.736801627637
 31
0.0
  0
LINE
  5
25820
330
747D
100
AcDbEntity
  8
部品1
100
AcDbLine
 10
9801.955121411992
 20
2036.103467950854
 30
0.0
 11
10281.95512141199
 21
2036.103467950854
 31
0.0
  0
LINE
  5
25821
330
747D
100
AcDbEntity
  8
細線
 48
50.0
100
AcDbLine
 10
9936.026005855254
 20
1576.404552297504
 30
0.0
 11
9970.323502486436
 21
1704.404552297503
 31
0.0
  0
LINE
  5
25822
330
747D
100
AcDbEntity
  8
部品1
100
AcDbLine
 10
9681.955121411993
 20
1576.4045522975
 30
0.0
 11
10401.95512141199
 21
1576.404552297504
 31
0.0
  0
LINE
  5
25823
330
747D
100
AcDbEntity
  8
部品1
100
AcDbLine
 10
9681.955121411993
 20
1704.404552297504
 30
0.0
 11
10401.95512141199
 21
1704.404552297506
 31
0.0
  0
LINE
  5
25824
330
747D
100
AcDbEntity
  8
細線
100
AcDbLine
 10
9862.873766905236
 20
1704.404552297504
 30
0.0
 11
9954.57268255858
 21
1796.103467950854
 31
0.0
  0
LWPOLYLINE
  5
25825
330
747D
100
AcDbEntity
  8
部品1
 48
50.0
100
AcDbPolyline
 90
        2
 70
     0
 43
12.0
 10
9417.343859311605
 20
1796.103467950854
 10
10618.43616244323
 20
1796.103467950854
  0
LINE
  5
25826
330
747D
100
AcDbEntity
  8
細線
100
AcDbLine
 10
9945.676766843346
 20
1796.103467950854
 30
0.0
 11
9801.955121411992
 21
1939.825113382207
 31
0.0
  0
TEXT
  5
25827
330
747D
100
AcDbEntity
  8
部品1
 48
50.0
100
AcDbText
 10
9037.83703465349
 20
1529.303727313545
 30
0.0
 40
80.0
  1
ボルトの出
 50
90.0
  7
STYLE2
100
AcDbText
  0
LINE
  5
25828
330
747D
100
AcDbEntity
  8
部品1
100
AcDbLine
 10
9801.955121411992
 20
1796.103467950854
 30
0.0
 11
9801.955121411992
 21
2036.103467950854
 31
0.0
  0
LINE
  5
25829
330
747D
100
AcDbEntity
  8
細線
 48
50.0
100
AcDbLine
 10
9778.249915960754
 20
1576.404552297503
 30
0.0
 11
9812.547412591936
 21
1704.404552297503
 31
0.0
  0
LINE
  5
2582A
330
747D
100
AcDbEntity
  8
細線
 48
50.0
100
AcDbLine
 10
9857.137960908005
 20
1576.404552297504
 30
0.0
 11
9891.435457539188
 21
1704.404552297504
 31
0.0
  0
LINE
  5
2582B
330
747D
100
AcDbEntity
  8
細線
 48
50.0
100
AcDbLine
 10
9699.361871013506
 20
1576.404552297504
 30
0.0
 11
9733.65936764469
 21
1704.404552297504
 31
0.0
  0
LINE
  5
2582C
330
747D
100
AcDbEntity
  8
部品1
100
AcDbLine
 10
9681.955121411993
 20
1576.4045522975
 30
0.0
 11
9681.955121411993
 21
1796.103467950854
 31
0.0
  0
LINE
  5
2582D
330
747D
100
AcDbEntity
  8
細線
 48
50.0
100
AcDbLine
 10
9784.680696579105
 20
1600.404552297504
 30
0.0
 11
9791.111477197453
 21
1576.404552297504
 31
0.0
  0
LINE
  5
2582E
330
747D
100
AcDbEntity
  8
細線
 48
50.0
100
AcDbLine
 10
9705.792651631854
 20
1600.404552297504
 30
0.0
 11
9712.223432250201
 21
1576.404552297504
 31
0.0
  0
LINE
  5
2582F
330
747D
100
AcDbEntity
  8
細線
 48
50.0
100
AcDbLine
 10
9863.568741526357
 20
1600.404552297504
 30
0.0
 11
9869.999522144702
 21
1576.404552297504
 31
0.0
  0
LINE
  5
25830
330
747D
100
AcDbEntity
  8
細線
 48
50.0
100
AcDbLine
 10
9942.456786473602
 20
1600.404552297504
 30
0.0
 11
9948.887567091951
 21
1576.404552297504
 31
0.0
  0
LINE
  5
25831
330
747D
100
AcDbEntity
  8
細線
 48
50.0
100
AcDbLine
 10
9727.228587026345
 20
1680.404552297504
 30
0.0
 11
9720.797806407995
 21
1704.404552297504
 31
0.0
  0
LINE
  5
25832
330
747D
100
AcDbEntity
  8
細線
 48
50.0
100
AcDbLine
 10
9885.004676920846
 20
1680.404552297504
 30
0.0
 11
9878.5738963025
 21
1704.404552297504
 31
0.0
  0
LINE
  5
25833
330
747D
100
AcDbEntity
  8
細線
 48
50.0
100
AcDbLine
 10
9806.116631973594
 20
1680.404552297504
 30
0.0
 11
9799.685851355247
 21
1704.404552297504
 31
0.0
  0
LINE
  5
25834
330
747D
100
AcDbEntity
  8
細線
100
AcDbLine
 10
9794.991515911323
 20
1704.404552297504
 30
0.0
 11
9886.690431564673
 21
1796.103467950854
 31
0.0
  0
LINE
  5
25835
330
747D
100
AcDbEntity
  8
細線
100
AcDbLine
 10
9828.932641408279
 20
1704.404552297504
 30
0.0
 11
9920.631557061625
 21
1796.103467950854
 31
0.0
  0
LINE
  5
25836
330
747D
100
AcDbEntity
  8
細線
100
AcDbLine
 10
10217.20577081898
 20
1796.103467950854
 30
0.0
 11
9977.205770818983
 21
2036.103467950854
 31
0.0
  0
LINE
  5
25837
330
747D
100
AcDbEntity
  8
細線
100
AcDbLine
 10
10268.11745906441
 20
1796.103467950856
 30
0.0
 11
10028.11745906441
 21
2036.103467950854
 31
0.0
  0
LINE
  5
25838
330
747D
100
AcDbEntity
  8
部品1
100
AcDbLine
 10
10281.95512141199
 20
2036.103467950854
 30
0.0
 11
10281.95512141199
 21
1796.103467950854
 31
0.0
  0
LINE
  5
25839
330
747D
100
AcDbEntity
  8
細線
 48
50.0
100
AcDbLine
 10
10251.57818564424
 20
1576.404552297501
 30
0.0
 11
10285.87568227542
 21
1704.404552297501
 31
0.0
  0
LINE
  5
2583A
330
747D
100
AcDbEntity
  8
細線
100
AcDbLine
 10
10222.87376690523
 20
1704.404552297505
 30
0.0
 11
10314.57268255858
 21
1796.103467950854
 31
0.0
  0
LINE
  5
2583B
330
747D
100
AcDbEntity
  8
細線
 48
50.0
100
AcDbLine
 10
10172.69014069699
 20
1576.404552297503
 30
0.0
 11
10206.98763732816
 21
1704.404552297504
 31
0.0
  0
LINE
  5
2583C
330
747D
100
AcDbEntity
  8
細線
 48
50.0
100
AcDbLine
 10
10014.9140508025
 20
1576.404552297503
 30
0.0
 11
10049.21154743368
 21
1704.404552297503
 31
0.0
  0
LINE
  5
2583D
330
747D
100
AcDbEntity
  8
細線
 48
50.0
100
AcDbLine
 10
10093.80209574974
 20
1576.404552297504
 30
0.0
 11
10128.09959238093
 21
1704.404552297503
 31
0.0
  0
LINE
  5
2583E
330
747D
100
AcDbEntity
  8
細線
 48
50.0
100
AcDbLine
 10
10100.23287636809
 20
1600.404552297504
 30
0.0
 11
10106.66365698644
 21
1576.404552297504
 31
0.0
  0
LINE
  5
2583F
330
747D
100
AcDbEntity
  8
細線
 48
50.0
100
AcDbLine
 10
10021.34483142085
 20
1600.404552297504
 30
0.0
 11
10027.7756120392
 21
1576.404552297504
 31
0.0
  0
LINE
  5
25840
330
747D
100
AcDbEntity
  8
細線
 48
50.0
100
AcDbLine
 10
10179.12092131534
 20
1600.404552297504
 30
0.0
 11
10185.5517019337
 21
1576.404552297504
 31
0.0
  0
LINE
  5
25841
330
747D
100
AcDbEntity
  8
細線
 48
50.0
100
AcDbLine
 10
10258.00896626259
 20
1600.404552297503
 30
0.0
 11
10264.43974688094
 21
1576.404552297503
 31
0.0
  0
LINE
  5
25842
330
747D
100
AcDbEntity
  8
細線
 48
50.0
100
AcDbLine
 10
10121.66881176258
 20
1680.404552297504
 30
0.0
 11
10115.23803114424
 21
1704.404552297504
 31
0.0
  0
LINE
  5
25843
330
747D
100
AcDbEntity
  8
細線
 48
50.0
100
AcDbLine
 10
10042.78076681534
 20
1680.404552297504
 30
0.0
 11
10036.34998619699
 21
1704.404552297504
 31
0.0
  0
LINE
  5
25844
330
747D
100
AcDbEntity
  8
細線
 48
50.0
100
AcDbLine
 10
9963.892721868091
 20
1680.404552297504
 30
0.0
 11
9957.461941249746
 21
1704.404552297504
 31
0.0
  0
LINE
  5
25845
330
747D
100
AcDbEntity
  8
細線
100
AcDbLine
 10
10188.93264140828
 20
1704.404552297505
 30
0.0
 11
10280.63155706162
 21
1796.103467950854
 31
0.0
  0
LINE
  5
25846
330
747D
100
AcDbEntity
  8
細線
 48
50.0
100
AcDbLine
 10
10200.55685670982
 20
1680.404552297504
 30
0.0
 11
10194.12607609148
 21
1704.404552297504
 31
0.0
  0
LINE
  5
25847
330
747D
100
AcDbEntity
  8
細線
100
AcDbLine
 10
10154.99151591132
 20
1704.404552297505
 30
0.0
 11
10246.69043156467
 21
1796.103467950854
 31
0.0
  0
LINE
  5
25848
330
747D
100
AcDbEntity
  8
細線
 48
50.0
100
AcDbLine
 10
10279.44490165708
 20
1680.404552297503
 30
0.0
 11
10273.01412103873
 21
1704.404552297503
 31
0.0
  0
LINE
  5
25849
330
747D
100
AcDbEntity
  8
細線
 48
50.0
100
AcDbLine
 10
10330.46623059148
 20
1576.404552297503
 30
0.0
 11
10364.76372722267
 21
1704.404552297501
 31
0.0
  0
LINE
  5
2584A
330
747D
100
AcDbEntity
  8
部品1
100
AcDbLine
 10
10401.95512141199
 20
1796.103467950854
 30
0.0
 11
10401.95512141199
 21
1576.404552297504
 31
0.0
  0
LINE
  5
2584B
330
747D
100
AcDbEntity
  8
細線
 48
50.0
100
AcDbLine
 10
10336.89701120983
 20
1600.404552297503
 30
0.0
 11
10343.32779182818
 21
1576.404552297503
 31
0.0
  0
LINE
  5
2584C
330
747D
100
AcDbEntity
  8
細線
 48
50.0
100
AcDbLine
 10
10358.33294660432
 20
1680.404552297503
 30
0.0
 11
10351.90216598598
 21
1704.404552297503
 31
0.0
  0
LEADER
  5
2584D
330
747D
100
AcDbEntity
  8
寸法
 48
50.0
100
AcDbLeader
  3
INABA_S50G
 73
     0
 74
     0
 75
     1
 40
120.0
 41
185.591883092037
 76
     3
 10
10212.67953302791
 20
2036.103467950854
 30
0.0
 10
10245.81773966156
 20
2208.249788631992
 30
0.0
 10
10370.81773966156
 20
2208.249788631992
 30
0.0
340
2584E
1001
ACAD
1000
DSTYLE
1002
{
1070
    40
1040
1.0
1002
}
  0
MTEXT
  5
2584E
102
{ACAD_REACTORS
330
2584D
102
}
330
747D
100
AcDbEntity
  8
寸法
 62
     7
 48
50.0
100
AcDbMText
 10
10395.81773966156
 20
2293.249788631992
 30
0.0
 40
120.0
 41
0.8
 71
     4
 72
     1
  1
\A1;C.B
  7
STYLE1
 73
     1
 44
1.0
1001
ACAD
1000
MTEXTBEGIN
1070
    73
1070
     1
1070
    44
1040
1.0
1070
    74
1070
     0
1000
MTEXTEND
  0
TEXT
  5
258EB
330
747D
100
AcDbEntity
  8
文字
 62
     7
 48
50.0
100
AcDbText
 10
16307.78595799787
 20
0.1862994167713623
 30
0.0
 40
1.0
  1
at
  7
STYLE2
100
AcDbText
  0
ENDSEC
  0
SECTION
  2
OBJECTS
  0
DICTIONARY
  5
7471
330
0
100
AcDbDictionary
281
     1
  3
ACAD_COLOR
350
173D2
  3
ACAD_GROUP
350
7472
  3
ACAD_LAYOUT
350
173D3
  3
ACAD_MATERIAL
350
173D1
  3
ACAD_MLINESTYLE
350
7473
  3
ACAD_PLOTSETTINGS
350
173D4
  3
ACAD_PLOTSTYLENAME
350
173CF
  3
ACDBHEADERROUNDTRIPXREC
350
25901
  3
AcDbVariableDictionary
350
254B8
  3
CONTENTDICTIONARY
350
E71C
  3
DRAWINGVARIABLESDICT
350
F3B9
  0
DICTIONARY
  5
1758F
330
7467
100
AcDbDictionary
280
     1
281
     1
  3
ACAD_LAYERSTATES
360
17590
  0
DICTIONARY
  5
173D2
102
{ACAD_REACTORS
330
7471
102
}
330
7471
100
AcDbDictionary
281
     1
  0
DICTIONARY
  5
7472
102
{ACAD_REACTORS
330
7471
102
}
330
7471
100
AcDbDictionary
281
     1
  3
*A1
350
1D2A9
  0
DICTIONARY
  5
173D3
102
{ACAD_REACTORS
330
7471
102
}
330
7471
100
AcDbDictionary
281
     1
  3
Model
350
173D5
  3
レイアウト1
350
173D6
  0
DICTIONARY
  5
173D1
102
{ACAD_REACTORS
330
7471
102
}
330
7471
100
AcDbDictionary
281
     1
  0
DICTIONARY
  5
7473
102
{ACAD_REACTORS
330
7471
102
}
330
7471
100
AcDbDictionary
281
     1
  3
STANDARD
350
7480
  0
DICTIONARY
  5
173D4
102
{ACAD_REACTORS
330
7471
102
}
330
7471
100
AcDbDictionary
281
     1
  0
ACDBDICTIONARYWDFLT
  5
173CF
102
{ACAD_REACTORS
330
7471
102
}
330
7471
100
AcDbDictionary
281
     1
  3
Normal
350
173D0
100
AcDbDictionaryWithDefault
340
173D0
  0
DICTIONARY
  5
25901
102
{ACAD_REACTORS
330
7471
102
}
330
7471
100
AcDbDictionary
281
     1
  3
COLORDICT
350
25903
  3
MATERIALDICT
350
25902
  0
DICTIONARY
  5
254B8
102
{ACAD_REACTORS
330
7471
102
}
330
7471
100
AcDbDictionary
281
     1
  3
DIMASSOC
350
254B9
  3
PROJECTNAME
350
254BA
  0
DICTIONARY
  5
E71C
102
{ACAD_REACTORS
330
7471
102
}
330
7471
100
AcDbDictionary
281
     1
  0
DICTIONARY
  5
F3B9
102
{ACAD_REACTORS
330
7471
102
}
330
7471
100
AcDbDictionary
281
     1
1001
DRAWINGVARIABLESXDATA
1000
POLARMODE
1000
1
  0
DICTIONARY
  5
17590
102
{ACAD_REACTORS
330
1758F
102
}
330
1758F
100
AcDbDictionary
281
     1
  0
GROUP
  5
1D2A9
102
{ACAD_REACTORS
330
7472
102
}
330
7472
100
AcDbGroup
300

 70
     1
 71
     1
  0
LAYOUT
  5
173D5
102
{ACAD_XDICTIONARY
360
25904
102
}
102
{ACAD_REACTORS
330
173D3
102
}
330
173D3
100
AcDbPlotSettings
  1

  2
Microsoft Office Document Image Writer
  4

  6

 40
0.0
 41
0.0
 42
0.0
 43
0.0
 44
0.0
 45
0.0
 46
0.0
 47
0.0
 48
0.0
 49
0.0
140
0.0
141
0.0
142
1.0
143
1.0
 70
  1712
 72
     0
 73
     0
 74
     0
  7

 75
     0
147
1.0
148
0.0
149
0.0
100
AcDbLayout
  1
Model
 70
     1
 71
     0
 10
0.0
 20
0.0
 11
12.0
 21
9.0
 12
0.0
 22
0.0
 32
0.0
 14
0.0
 24
0.0
 34
0.0
 15
0.0
 25
0.0
 35
0.0
146
0.0
 13
0.0
 23
0.0
 33
0.0
 16
1.0
 26
0.0
 36
0.0
 17
0.0
 27
1.0
 37
0.0
 76
     0
330
747D
  0
LAYOUT
  5
173D6
102
{ACAD_XDICTIONARY
360
25906
102
}
102
{ACAD_REACTORS
330
173D3
102
}
330
173D3
100
AcDbPlotSettings
  1

  2
Microsoft Office Document Image Writer
  4

  6

 40
0.0
 41
0.0
 42
0.0
 43
0.0
 44
0.0
 45
0.0
 46
0.0
 47
0.0
 48
0.0
 49
0.0
140
0.0
141
0.0
142
1.0
143
1.0
 70
   688
 72
     0
 73
     0
 74
     5
  7

 75
    16
147
1.0
148
0.0
149
0.0
100
AcDbLayout
  1
レイアウト1
 70
     0
 71
     1
 10
0.0
 20
0.0
 11
420.0
 21
297.0
 12
0.0
 22
0.0
 32
0.0
 14
1.000000000000000E+20
 24
1.000000000000000E+20
 34
1.000000000000000E+20
 15
-1.000000000000000E+20
 25
-1.000000000000000E+20
 35
-1.000000000000000E+20
146
0.0
 13
0.0
 23
0.0
 33
0.0
 16
1.0
 26
0.0
 36
0.0
 17
0.0
 27
1.0
 37
0.0
 76
     0
330
747A
  0
MLINESTYLE
  5
7480
102
{ACAD_REACTORS
330
7473
102
}
330
7473
100
AcDbMlineStyle
  2
STANDARD
 70
     0
  3

 62
     0
 51
90.0
 52
90.0
 71
     2
 49
0.5
 62
   256
  6
BYLAYER
 49
-0.5
 62
   256
  6
BYLAYER
  0
ACDBPLACEHOLDER
  5
173D0
102
{ACAD_REACTORS
330
173CF
102
}
330
173CF
  0
XRECORD
  5
25903
102
{ACAD_REACTORS
330
25901
102
}
330
25901
100
AcDbXrecord
280
     1
340
173D2
  0
XRECORD
  5
25902
102
{ACAD_REACTORS
330
25901
102
}
330
25901
100
AcDbXrecord
280
     1
340
173D1
  0
DICTIONARYVAR
  5
254B9
102
{ACAD_REACTORS
330
254B8
102
}
330
254B8
100
DictionaryVariables
280
     0
  1
1
  0
DICTIONARYVAR
  5
254BA
102
{ACAD_REACTORS
330
254B8
102
}
330
254B8
100
DictionaryVariables
280
     0
  1

  0
DICTIONARY
  5
25904
330
173D5
100
AcDbDictionary
280
     1
281
     1
  3
ACAD_XREC_ROUNDTRIP
360
25905
  0
DICTIONARY
  5
25906
330
173D6
100
AcDbDictionary
280
     1
281
     1
  3
ACAD_XREC_ROUNDTRIP
360
25907
  0
XRECORD
  5
25905
102
{ACAD_REACTORS
330
25904
102
}
330
25904
100
AcDbXrecord
280
     1
102
SHADEPLOT
 70
     0
102
SHADEPLOTRESLEVEL
 70
     2
102
SHADEPLOTCUSTOMDPI
 70
   300
  0
XRECORD
  5
25907
102
{ACAD_REACTORS
330
25906
102
}
330
25906
100
AcDbXrecord
280
     1
102
SHADEPLOT
 70
     0
102
SHADEPLOTRESLEVEL
 70
     2
102
SHADEPLOTCUSTOMDPI
 70
   300
  0
ENDSEC
  0
EOF
