  0
SECTION
  2
HEADER
  9
$ACADVER
  1
AC1015
  9
$ACADMAINTVER
 70
    20
  9
$DWGCODEPAGE
  3
ANSI_932
  9
$INSBASE
 10
0.0
 20
0.0
 30
0.0
  9
$EXTMIN
 10
139.9999999999995
 20
-0.1475096728185732
 30
0.0
  9
$EXTMAX
 10
16308.60278288039
 20
11409.6
 30
0.0
  9
$LIMMIN
 10
0.0
 20
0.0
  9
$LIMMAX
 10
16800.0
 20
11880.0
  9
$ORTHOMODE
 70
     0
  9
$REGENMODE
 70
     1
  9
$FILLMODE
 70
     1
  9
$QTEXTMODE
 70
     0
  9
$MIRRTEXT
 70
     1
  9
$LTSCALE
 40
20.0
  9
$ATTMODE
 70
     1
  9
$TEXTSIZE
 40
4.0
  9
$TRACEWID
 40
1.0
  9
$TEXTSTYLE
  7
STYLE1
  9
$CLAYER
  8
細線
  9
$CELTYPE
  6
BYLAYER
  9
$CECOLOR
 62
   256
  9
$CELTSCALE
 40
50.0
  9
$DISPSILH
 70
     0
  9
$DIMSCALE
 40
40.0
  9
$DIMASZ
 40
2.5
  9
$DIMEXO
 40
0.5
  9
$DIMDLI
 40
7.0
  9
$DIMRND
 40
0.0
  9
$DIMDLE
 40
0.0
  9
$DIMEXE
 40
1.5
  9
$DIMTP
 40
0.0
  9
$DIMTM
 40
0.0
  9
$DIMTXT
 40
3.0
  9
$DIMCEN
 40
0.0
  9
$DIMTSZ
 40
0.0
  9
$DIMTOL
 70
     0
  9
$DIMLIM
 70
     0
  9
$DIMTIH
 70
     0
  9
$DIMTOH
 70
     0
  9
$DIMSE1
 70
     0
  9
$DIMSE2
 70
     0
  9
$DIMTAD
 70
     3
  9
$DIMZIN
 70
     8
  9
$DIMBLK
  1

  9
$DIMASO
 70
     1
  9
$DIMSHO
 70
     1
  9
$DIMPOST
  1

  9
$DIMAPOST
  1

  9
$DIMALT
 70
     0
  9
$DIMALTD
 70
     2
  9
$DIMALTF
 40
0.0394
  9
$DIMLFAC
 40
1.0
  9
$DIMTOFL
 70
     1
  9
$DIMTVP
 40
0.0
  9
$DIMTIX
 70
     1
  9
$DIMSOXD
 70
     0
  9
$DIMSAH
 70
     1
  9
$DIMBLK1
  1
DOTSMALL
  9
$DIMBLK2
  1
DOTSMALL
  9
$DIMSTYLE
  2
INABA_S40G
  9
$DIMCLRD
 70
     0
  9
$DIMCLRE
 70
     0
  9
$DIMCLRT
 70
     7
  9
$DIMTFAC
 40
1.0
  9
$DIMGAP
 40
1.0
  9
$DIMJUST
 70
     0
  9
$DIMSD1
 70
     0
  9
$DIMSD2
 70
     0
  9
$DIMTOLJ
 70
     1
  9
$DIMTZIN
 70
     0
  9
$DIMALTZ
 70
     0
  9
$DIMALTTZ
 70
     0
  9
$DIMUPT
 70
     0
  9
$DIMDEC
 70
     1
  9
$DIMTDEC
 70
     4
  9
$DIMALTU
 70
     2
  9
$DIMALTTD
 70
     2
  9
$DIMTXSTY
  7
STYLE1
  9
$DIMAUNIT
 70
     0
  9
$DIMADEC
 70
     0
  9
$DIMALTRND
 40
0.0
  9
$DIMAZIN
 70
     0
  9
$DIMDSEP
 70
    46
  9
$DIMATFIT
 70
     3
  9
$DIMFRAC
 70
     0
  9
$DIMLDRBLK
  1

  9
$DIMLUNIT
 70
     2
  9
$DIMLWD
 70
    -2
  9
$DIMLWE
 70
    -2
  9
$DIMTMOVE
 70
     0
  9
$LUNITS
 70
     2
  9
$LUPREC
 70
     1
  9
$SKETCHINC
 40
1.0
  9
$FILLETRAD
 40
3.0
  9
$AUNITS
 70
     0
  9
$AUPREC
 70
     0
  9
$MENU
  1
acad
  9
$ELEVATION
 40
0.0
  9
$PELEVATION
 40
0.0
  9
$THICKNESS
 40
0.0
  9
$LIMCHECK
 70
     0
  9
$CHAMFERA
 40
0.0
  9
$CHAMFERB
 40
0.0
  9
$CHAMFERC
 40
0.0
  9
$CHAMFERD
 40
0.0
  9
$SKPOLY
 70
     0
  9
$TDCREATE
 40
2451368.612993866
  9
$TDUCREATE
 40
2451368.237993866
  9
$TDUPDATE
 40
2455827.391179063
  9
$TDUUPDATE
 40
2455827.016179063
  9
$TDINDWG
 40
0.7919759954
  9
$TDUSRTIMER
 40
0.7919759954
  9
$USRTIMER
 70
     1
  9
$ANGBASE
 50
0.0
  9
$ANGDIR
 70
     0
  9
$PDMODE
 70
     3
  9
$PDSIZE
 40
2.0
  9
$PLINEWID
 40
0.0
  9
$SPLFRAME
 70
     0
  9
$SPLINETYPE
 70
     6
  9
$SPLINESEGS
 70
     8
  9
$HANDSEED
  5
25221
  9
$SURFTAB1
 70
     6
  9
$SURFTAB2
 70
     6
  9
$SURFTYPE
 70
     6
  9
$SURFU
 70
     6
  9
$SURFV
 70
     6
  9
$UCSBASE
  2

  9
$UCSNAME
  2

  9
$UCSORG
 10
0.0
 20
0.0
 30
0.0
  9
$UCSXDIR
 10
1.0
 20
0.0
 30
0.0
  9
$UCSYDIR
 10
0.0
 20
1.0
 30
0.0
  9
$UCSORTHOREF
  2

  9
$UCSORTHOVIEW
 70
     0
  9
$UCSORGTOP
 10
0.0
 20
0.0
 30
0.0
  9
$UCSORGBOTTOM
 10
0.0
 20
0.0
 30
0.0
  9
$UCSORGLEFT
 10
0.0
 20
0.0
 30
0.0
  9
$UCSORGRIGHT
 10
0.0
 20
0.0
 30
0.0
  9
$UCSORGFRONT
 10
0.0
 20
0.0
 30
0.0
  9
$UCSORGBACK
 10
0.0
 20
0.0
 30
0.0
  9
$PUCSBASE
  2

  9
$PUCSNAME
  2

  9
$PUCSORG
 10
0.0
 20
0.0
 30
0.0
  9
$PUCSXDIR
 10
1.0
 20
0.0
 30
0.0
  9
$PUCSYDIR
 10
0.0
 20
1.0
 30
0.0
  9
$PUCSORTHOREF
  2

  9
$PUCSORTHOVIEW
 70
     0
  9
$PUCSORGTOP
 10
0.0
 20
0.0
 30
0.0
  9
$PUCSORGBOTTOM
 10
0.0
 20
0.0
 30
0.0
  9
$PUCSORGLEFT
 10
0.0
 20
0.0
 30
0.0
  9
$PUCSORGRIGHT
 10
0.0
 20
0.0
 30
0.0
  9
$PUCSORGFRONT
 10
0.0
 20
0.0
 30
0.0
  9
$PUCSORGBACK
 10
0.0
 20
0.0
 30
0.0
  9
$USERI1
 70
     0
  9
$USERI2
 70
     0
  9
$USERI3
 70
     0
  9
$USERI4
 70
     0
  9
$USERI5
 70
     0
  9
$USERR1
 40
0.0
  9
$USERR2
 40
0.0
  9
$USERR3
 40
0.0
  9
$USERR4
 40
0.0
  9
$USERR5
 40
0.0
  9
$WORLDVIEW
 70
     1
  9
$SHADEDGE
 70
     3
  9
$SHADEDIF
 70
    70
  9
$TILEMODE
 70
     1
  9
$MAXACTVP
 70
    16
  9
$PINSBASE
 10
0.0
 20
0.0
 30
0.0
  9
$PLIMCHECK
 70
     0
  9
$PEXTMIN
 10
1.000000000000000E+20
 20
1.000000000000000E+20
 30
1.000000000000000E+20
  9
$PEXTMAX
 10
-1.000000000000000E+20
 20
-1.000000000000000E+20
 30
-1.000000000000000E+20
  9
$PLIMMIN
 10
0.0
 20
0.0
  9
$PLIMMAX
 10
420.0
 20
297.0
  9
$UNITMODE
 70
     0
  9
$VISRETAIN
 70
     0
  9
$PLINEGEN
 70
     0
  9
$PSLTSCALE
 70
     0
  9
$TREEDEPTH
 70
  3020
  9
$CMLSTYLE
  2
STANDARD
  9
$CMLJUST
 70
     0
  9
$CMLSCALE
 40
1.0
  9
$PROXYGRAPHICS
 70
     1
  9
$MEASUREMENT
 70
     1
  9
$CELWEIGHT
370
    -1
  9
$ENDCAPS
280
     0
  9
$JOINSTYLE
280
     0
  9
$LWDISPLAY
290
     0
  9
$INSUNITS
 70
     0
  9
$HYPERLINKBASE
  1

  9
$STYLESHEET
  1

  9
$XEDIT
290
     1
  9
$CEPSNTYPE
380
     0
  9
$PSTYLEMODE
290
     1
  9
$FINGERPRINTGUID
  2
{5EAC461A-2277-4BF8-9AB0-99C43BB394F0}
  9
$VERSIONGUID
  2
{A15C8791-0757-4000-AD5B-A7B8B4843039}
  9
$EXTNAMES
290
     1
  9
$PSVPSCALE
 40
0.0
  9
$OLESTARTUP
290
     0
  0
ENDSEC
  0
SECTION
  2
CLASSES
  0
CLASS
  1
ACDBDICTIONARYWDFLT
  2
AcDbDictionaryWithDefault
  3
ObjectDBX Classes
 90
        0
280
     0
281
     0
  0
CLASS
  1
DICTIONARYVAR
  2
AcDbDictionaryVar
  3
ObjectDBX Classes
 90
        0
280
     0
281
     0
  0
CLASS
  1
ACDBPLACEHOLDER
  2
AcDbPlaceHolder
  3
ObjectDBX Classes
 90
        0
280
     0
281
     0
  0
CLASS
  1
LAYOUT
  2
AcDbLayout
  3
ObjectDBX Classes
 90
        0
280
     0
281
     0
  0
ENDSEC
  0
SECTION
  2
TABLES
  0
TABLE
  2
VPORT
  5
746D
330
0
100
AcDbSymbolTable
 70
     2
  0
VPORT
  5
25219
330
746D
100
AcDbSymbolTableRecord
100
AcDbViewportTableRecord
  2
*Active
 70
     0
 10
0.0
 20
0.0
 11
1.0
 21
1.0
 12
8224.401894379873
 22
5855.776308371822
 13
0.0
 23
0.0
 14
10.0
 24
10.0
 15
10.0
 25
10.0
 16
0.0
 26
0.0
 36
1.0
 17
0.0
 27
0.0
 37
0.0
 40
11800.47982950347
 41
1.522222222222221
 42
50.0
 43
0.0
 44
0.0
 50
0.0
 51
0.0
 71
     0
 72
     0
 73
     1
 74
     0
 75
     0
 76
     0
 77
     0
 78
     0
281
     0
 65
     1
110
0.0
120
0.0
130
0.0
111
1.0
121
0.0
131
0.0
112
0.0
122
1.0
132
0.0
 79
     0
146
0.0
  0
ENDTAB
  0
TABLE
  2
LTYPE
  5
746A
330
0
100
AcDbSymbolTable
 70
     5
  0
LTYPE
  5
7477
330
746A
100
AcDbSymbolTableRecord
100
AcDbLinetypeTableRecord
  2
BYBLOCK
 70
     0
  3

 72
    65
 73
     0
 40
0.0
  0
LTYPE
  5
7478
330
746A
100
AcDbSymbolTableRecord
100
AcDbLinetypeTableRecord
  2
BYLAYER
 70
     0
  3

 72
    65
 73
     0
 40
0.0
  0
LTYPE
  5
7479
330
746A
100
AcDbSymbolTableRecord
100
AcDbLinetypeTableRecord
  2
CONTINUOUS
 70
     0
  3
Solid line
 72
    65
 73
     0
 40
0.0
  0
LTYPE
  5
7816
330
746A
100
AcDbSymbolTableRecord
100
AcDbLinetypeTableRecord
  2
CENTER
 70
     0
  3
____ _ ____ _ ____ _ ____ _ ____ _ ____ _ ____ 
 72
    65
 73
     4
 40
2.0
 49
1.25
 74
     0
 49
-0.25
 74
     0
 49
0.25
 74
     0
 49
-0.25
 74
     0
  0
LTYPE
  5
781A
330
746A
100
AcDbSymbolTableRecord
100
AcDbLinetypeTableRecord
  2
HIDDEN
 70
     0
  3
__ __ __ __ __ __ __ __ __ __ __ __ __ __ __ __
 72
    65
 73
     2
 40
0.375
 49
0.25
 74
     0
 49
-0.125
 74
     0
  0
LTYPE
  5
781B
330
746A
100
AcDbSymbolTableRecord
100
AcDbLinetypeTableRecord
  2
PHANTOM
 70
     0
  3
______  __  __  ______  __  __  ______  __  __ 
 72
    65
 73
     6
 40
2.5
 49
1.25
 74
     0
 49
-0.25
 74
     0
 49
0.25
 74
     0
 49
-0.25
 74
     0
 49
0.25
 74
     0
 49
-0.25
 74
     0
  0
LTYPE
  5
12CC3
330
746A
100
AcDbSymbolTableRecord
100
AcDbLinetypeTableRecord
  2
HIDDENX2
 70
     0
  3
Hidden (2x) ____ ____ ____ ____ ____ ____ ____
 72
    65
 73
     2
 40
19.05
 49
12.7
 74
     0
 49
-6.349999999999999
 74
     0
  0
ENDTAB
  0
TABLE
  2
LAYER
  5
7467
102
{ACAD_XDICTIONARY
360
1758F
102
}
330
0
100
AcDbSymbolTable
 70
    12
  0
LAYER
  5
7474
330
7467
100
AcDbSymbolTableRecord
100
AcDbLayerTableRecord
  2
0
 70
     0
 62
     7
  6
CONTINUOUS
370
    -3
390
173D0
  0
LAYER
  5
DEB2
330
7467
100
AcDbSymbolTableRecord
100
AcDbLayerTableRecord
  2
センター
 70
     0
 62
     3
  6
CENTER
370
    -3
390
173D0
  0
LAYER
  5
DEB3
330
7467
100
AcDbSymbolTableRecord
100
AcDbLayerTableRecord
  2
寸法
 70
     0
 62
     4
  6
CONTINUOUS
370
    -3
390
173D0
  0
LAYER
  5
DEB4
330
7467
100
AcDbSymbolTableRecord
100
AcDbLayerTableRecord
  2
部品1
 70
     0
 62
     7
  6
CONTINUOUS
370
    -3
390
173D0
  0
LAYER
  5
DEB5
330
7467
100
AcDbSymbolTableRecord
100
AcDbLayerTableRecord
  2
補助
 70
     0
 62
    -1
  6
CONTINUOUS
370
    -3
390
173D0
  0
LAYER
  5
DEB6
330
7467
100
AcDbSymbolTableRecord
100
AcDbLayerTableRecord
  2
文字
 70
     0
 62
     7
  6
CONTINUOUS
370
    -3
390
173D0
  0
LAYER
  5
F255
330
7467
100
AcDbSymbolTableRecord
100
AcDbLayerTableRecord
  2
DEFPOINTS
 70
     0
 62
     7
  6
CONTINUOUS
290
     0
370
    -3
390
173D0
  0
LAYER
  5
10B54
330
7467
100
AcDbSymbolTableRecord
100
AcDbLayerTableRecord
  2
仕様書枠
 70
     0
 62
   230
  6
CONTINUOUS
370
    -3
390
173D0
  0
LAYER
  5
11729
330
7467
100
AcDbSymbolTableRecord
100
AcDbLayerTableRecord
  2
Ｇ．Ｌ
 70
     0
 62
    30
  6
CONTINUOUS
370
    -3
390
173D0
  0
LAYER
  5
1173F
330
7467
100
AcDbSymbolTableRecord
100
AcDbLayerTableRecord
  2
細線
 70
     0
 62
     5
  6
CONTINUOUS
370
    -3
390
173D0
  0
LAYER
  5
12CC4
330
7467
100
AcDbSymbolTableRecord
100
AcDbLayerTableRecord
  2
想像線
 70
     0
 62
     6
  6
PHANTOM
370
    -3
390
173D0
  0
LAYER
  5
142E2
330
7467
100
AcDbSymbolTableRecord
100
AcDbLayerTableRecord
  2
破線
 70
     0
 62
     2
  6
HIDDEN
370
    -3
390
173D0
  0
ENDTAB
  0
TABLE
  2
STYLE
  5
7468
330
0
100
AcDbSymbolTable
 70
     7
  0
STYLE
  5
7475
330
7468
100
AcDbSymbolTableRecord
100
AcDbTextStyleTableRecord
  2
STANDARD
 70
     0
 40
0.0
 41
1.0
 50
0.0
 71
     0
 42
4.0
  3
txt
  4
C:\AutoCAD LT\bigfont.shx
  0
STYLE
  5
763C
330
7468
100
AcDbSymbolTableRecord
100
AcDbTextStyleTableRecord
  2
MSMINCHO
 70
     0
 40
0.0
 41
1.0
 50
0.0
 71
     0
 42
1.199999999999999
  3
C:\AutoCAD LT\msminch2.TTF
  4

  0
STYLE
  5
F706
330
7468
100
AcDbSymbolTableRecord
100
AcDbTextStyleTableRecord
  2
STYLE1
 70
     0
 40
0.0
 41
1.0
 50
0.0
 71
     0
 42
4.0
  3
isocp.shx
  4
bigfont.shx
  0
STYLE
  5
103BF
330
7468
100
AcDbSymbolTableRecord
100
AcDbTextStyleTableRecord
  2
STYLE2
 70
     0
 40
0.0
 41
1.0
 50
0.0
 71
     0
 42
100.0
  3
MS PGothic.ttf
  4

1001
ACAD
1000
MS PGothic
1071
    32818
  0
STYLE
  5
10BAA
330
7468
100
AcDbSymbolTableRecord
100
AcDbTextStyleTableRecord
  2
STYLE3
 70
     0
 40
0.0
 41
1.0
 50
0.0
 71
     0
 42
100.0
  3

  4

1001
ACAD
1000
DFPGothic-EB
1071
    32818
  0
STYLE
  5
11A15
330
7468
100
AcDbSymbolTableRecord
100
AcDbTextStyleTableRecord
  2
MSGOTHIC
 70
     0
 40
0.0
 41
1.0
 50
0.0
 71
     0
 42
3.5
  3
msgothi2.ttf
  4

  0
STYLE
  5
13E96
330
7468
100
AcDbSymbolTableRecord
100
AcDbTextStyleTableRecord
  2
MSPゴシック
 70
     0
 40
0.0
 41
1.0
 50
0.0
 71
     0
 42
4.0
  3
MS PGothic.ttf
  4

1001
ACAD
1000
MS PGothic
1071
    32818
  0
ENDTAB
  0
TABLE
  2
VIEW
  5
746B
330
0
100
AcDbSymbolTable
 70
     0
  0
ENDTAB
  0
TABLE
  2
UCS
  5
746C
330
0
100
AcDbSymbolTable
 70
     0
  0
ENDTAB
  0
TABLE
  2
APPID
  5
746E
330
0
100
AcDbSymbolTable
 70
     6
  0
APPID
  5
7476
330
746E
100
AcDbSymbolTableRecord
100
AcDbRegAppTableRecord
  2
ACAD
 70
     0
  0
APPID
  5
DEA9
330
746E
100
AcDbSymbolTableRecord
100
AcDbRegAppTableRecord
  2
CONTENTBLOCKICON
 70
     0
  0
APPID
  5
DEAA
330
746E
100
AcDbSymbolTableRecord
100
AcDbRegAppTableRecord
  2
CONTENTBLOCKDESCRIPTION
 70
     0
  0
APPID
  5
E71D
330
746E
100
AcDbSymbolTableRecord
100
AcDbRegAppTableRecord
  2
CONTENTTABDATA
 70
     0
  0
APPID
  5
E71E
330
746E
100
AcDbSymbolTableRecord
100
AcDbRegAppTableRecord
  2
CONTENTCURRENTTAB
 70
     0
  0
APPID
  5
F3BA
330
746E
100
AcDbSymbolTableRecord
100
AcDbRegAppTableRecord
  2
DRAWINGVARIABLESXDATA
 70
     0
  0
ENDTAB
  0
TABLE
  2
DIMSTYLE
  5
746F
330
0
100
AcDbSymbolTable
 70
     6
100
AcDbDimStyleTable
 71
     1
340
F71F
  0
DIMSTYLE
105
7484
330
746F
100
AcDbSymbolTableRecord
100
AcDbDimStyleTableRecord
  2
JIS
 70
     0
 41
2.5
 42
1.0
 43
7.0
 44
1.0
 73
     0
 74
     0
 77
     1
 78
     8
140
2.5
141
0.0
143
0.0394
147
0.0
172
     1
174
     1
175
     1
340
7475
  0
DIMSTYLE
105
F236
330
746F
100
AcDbSymbolTableRecord
100
AcDbDimStyleTableRecord
  2
INABA_S40
 70
     0
 40
40.0
 41
2.5
 42
0.5
 43
7.0
 44
1.5
 73
     0
 74
     0
 77
     3
 78
     8
140
3.0
141
0.0
143
0.0394
147
1.0
172
     1
173
     1
174
     1
175
     1
178
     7
289
     0
340
7475
341
DEAC
343
DEAC
344
DEAC
  0
DIMSTYLE
105
F71F
102
{ACAD_REACTORS
330
20DE1
330
20DFB
330
22741
330
2275B
330
23FDA
330
23FD9
330
24043
330
2468E
330
24663
330
2463B
330
24635
330
24634
330
24633
330
24661
330
2463E
330
2463D
330
24644
330
24642
330
24646
330
24638
330
24FFD
330
24FFE
330
25006
330
2500D
330
25010
330
25070
102
}
330
746F
100
AcDbSymbolTableRecord
100
AcDbDimStyleTableRecord
  2
INABA_S40G
 70
     0
 40
40.0
 41
2.5
 42
0.5
 43
7.0
 44
1.5
 73
     0
 74
     0
 77
     3
 78
     8
140
3.0
141
0.0
143
0.0394
147
1.0
172
     1
173
     1
174
     1
178
     7
271
     1
340
F706
341
F770
343
F770
344
F770
  0
DIMSTYLE
105
142E3
330
746F
100
AcDbSymbolTableRecord
100
AcDbDimStyleTableRecord
  2
INABA_S1
 70
     0
 40
0.0
 41
2.5
 42
0.5
 43
7.0
 44
1.5
 73
     0
 74
     0
 77
     3
 78
     8
140
3.0
141
0.0
143
0.0394
146
0.5
147
0.5
172
     1
173
     1
176
   256
177
   256
178
     7
271
     2
272
     2
284
     8
288
     1
340
7475
341
DEAC
343
DEAC
344
DEAC
  0
DIMSTYLE
105
14463
330
746F
100
AcDbSymbolTableRecord
100
AcDbDimStyleTableRecord
  2
INABA_S30G
 70
     0
 40
30.0
 41
2.5
 42
0.5
 43
7.0
 44
1.5
 73
     0
 74
     0
 77
     3
 78
     8
140
3.0
141
0.0
143
0.0394
147
1.0
172
     1
173
     1
174
     1
175
     1
178
     7
271
     1
340
F706
341
F770
343
F770
344
F770
  0
DIMSTYLE
105
1758E
330
746F
100
AcDbSymbolTableRecord
100
AcDbDimStyleTableRecord
  2
INABA_S50G
 70
     0
 41
125.0
 42
25.0
 43
7.0
 44
75.0
 73
     0
 74
     0
 77
     3
 78
     8
140
150.0
141
0.0
143
0.0394
147
25.0
172
     1
173
     1
174
     1
175
     1
178
     7
271
     1
340
F706
341
F770
343
F770
344
F770
  0
ENDTAB
  0
TABLE
  2
BLOCK_RECORD
  5
7466
330
0
100
AcDbSymbolTable
 70
    47
  0
BLOCK_RECORD
  5
747D
330
7466
100
AcDbSymbolTableRecord
100
AcDbBlockTableRecord
  2
*MODEL_SPACE
340
173D5
  0
BLOCK_RECORD
  5
747A
330
7466
100
AcDbSymbolTableRecord
100
AcDbBlockTableRecord
  2
*PAPER_SPACE
340
173D6
  0
BLOCK_RECORD
  5
DEAC
330
7466
100
AcDbSymbolTableRecord
100
AcDbBlockTableRecord
  2
_OPEN
340
0
  0
BLOCK_RECORD
  5
F770
330
7466
100
AcDbSymbolTableRecord
100
AcDbBlockTableRecord
  2
_DOTSMALL
340
0
102
{BLKREFS
331
18C65
331
18C66
331
18C59
331
18C5A
331
18C4D
331
18C4E
331
18C41
331
18C42
331
18C35
331
18C36
331
18C29
331
18C2A
331
18C1D
331
18C1E
331
18C0F
331
18C10
331
18C03
331
18C04
331
18BF5
331
18BF6
331
18BE7
331
18BE8
331
18BD9
331
18BDA
331
18BCD
331
18BCE
331
24B56
331
24B57
331
24B60
331
24B61
331
24B6A
331
24B6B
331
24B7C
331
24B7D
331
24B98
331
24B99
331
24BB3
331
24BB4
331
24BBC
331
24BBD
331
24BD9
331
24BDA
331
24BEE
331
24BEF
331
24BF9
331
24BFA
331
24C04
331
24C05
331
24C0F
331
24C10
331
24C34
331
24C35
331
24C3D
331
24C3E
331
24C51
331
24C52
331
24C5A
331
24C5B
331
24E14
331
24E15
331
24E1D
331
24E1E
331
24E58
331
24E59
331
25176
331
25177
331
25181
331
25182
331
2518A
331
2518B
331
25193
331
25194
331
2519C
331
2519D
331
251A5
331
251A6
331
251E3
331
251E4
102
}
  0
BLOCK_RECORD
  5
164B4
330
7466
100
AcDbSymbolTableRecord
100
AcDbBlockTableRecord
  2
_DOT
340
0
102
{BLKREFS
331
18C73
331
18C74
102
}
  0
BLOCK_RECORD
  5
18BC8
330
7466
100
AcDbSymbolTableRecord
100
AcDbBlockTableRecord
  2
*D3
340
0
  0
BLOCK_RECORD
  5
18BD4
330
7466
100
AcDbSymbolTableRecord
100
AcDbBlockTableRecord
  2
*D4
340
0
  0
BLOCK_RECORD
  5
18BE0
330
7466
100
AcDbSymbolTableRecord
100
AcDbBlockTableRecord
  2
*D5
340
0
  0
BLOCK_RECORD
  5
18BEE
330
7466
100
AcDbSymbolTableRecord
100
AcDbBlockTableRecord
  2
*D6
340
0
  0
BLOCK_RECORD
  5
18BFC
330
7466
100
AcDbSymbolTableRecord
100
AcDbBlockTableRecord
  2
*D7
340
0
  0
BLOCK_RECORD
  5
18C0A
330
7466
100
AcDbSymbolTableRecord
100
AcDbBlockTableRecord
  2
*D8
340
0
  0
BLOCK_RECORD
  5
18C16
330
7466
100
AcDbSymbolTableRecord
100
AcDbBlockTableRecord
  2
*D9
340
0
  0
BLOCK_RECORD
  5
18C24
330
7466
100
AcDbSymbolTableRecord
100
AcDbBlockTableRecord
  2
*D10
340
0
  0
BLOCK_RECORD
  5
18C30
330
7466
100
AcDbSymbolTableRecord
100
AcDbBlockTableRecord
  2
*D11
340
0
  0
BLOCK_RECORD
  5
18C3C
330
7466
100
AcDbSymbolTableRecord
100
AcDbBlockTableRecord
  2
*D12
340
0
  0
BLOCK_RECORD
  5
18C48
330
7466
100
AcDbSymbolTableRecord
100
AcDbBlockTableRecord
  2
*D13
340
0
  0
BLOCK_RECORD
  5
18C54
330
7466
100
AcDbSymbolTableRecord
100
AcDbBlockTableRecord
  2
*D14
340
0
  0
BLOCK_RECORD
  5
18C60
330
7466
100
AcDbSymbolTableRecord
100
AcDbBlockTableRecord
  2
*D15
340
0
  0
BLOCK_RECORD
  5
18C6C
330
7466
100
AcDbSymbolTableRecord
100
AcDbBlockTableRecord
  2
*D16
340
0
  0
BLOCK_RECORD
  5
18C7A
330
7466
100
AcDbSymbolTableRecord
100
AcDbBlockTableRecord
  2
A$C3B1A506B
340
0
  0
BLOCK_RECORD
  5
1C4CA
330
7466
100
AcDbSymbolTableRecord
100
AcDbBlockTableRecord
  2
_NONE
340
0
  0
BLOCK_RECORD
  5
20DE2
330
7466
100
AcDbSymbolTableRecord
100
AcDbBlockTableRecord
  2
*D19
340
0
  0
BLOCK_RECORD
  5
20DFC
330
7466
100
AcDbSymbolTableRecord
100
AcDbBlockTableRecord
  2
*D20
340
0
  0
BLOCK_RECORD
  5
22742
330
7466
100
AcDbSymbolTableRecord
100
AcDbBlockTableRecord
  2
*D21
340
0
  0
BLOCK_RECORD
  5
2275C
330
7466
100
AcDbSymbolTableRecord
100
AcDbBlockTableRecord
  2
*D22
340
0
  0
BLOCK_RECORD
  5
240C4
330
7466
100
AcDbSymbolTableRecord
100
AcDbBlockTableRecord
  2
*D23
340
0
  0
BLOCK_RECORD
  5
240D1
330
7466
100
AcDbSymbolTableRecord
100
AcDbBlockTableRecord
  2
*D24
340
0
  0
BLOCK_RECORD
  5
240DE
330
7466
100
AcDbSymbolTableRecord
100
AcDbBlockTableRecord
  2
*D25
340
0
  0
BLOCK_RECORD
  5
246B8
330
7466
100
AcDbSymbolTableRecord
100
AcDbBlockTableRecord
  2
*D26
340
0
  0
BLOCK_RECORD
  5
246C4
330
7466
100
AcDbSymbolTableRecord
100
AcDbBlockTableRecord
  2
*D27
340
0
  0
BLOCK_RECORD
  5
246CF
330
7466
100
AcDbSymbolTableRecord
100
AcDbBlockTableRecord
  2
*D28
340
0
  0
BLOCK_RECORD
  5
246DB
330
7466
100
AcDbSymbolTableRecord
100
AcDbBlockTableRecord
  2
*D29
340
0
  0
BLOCK_RECORD
  5
246E7
330
7466
100
AcDbSymbolTableRecord
100
AcDbBlockTableRecord
  2
*D30
340
0
  0
BLOCK_RECORD
  5
246F3
330
7466
100
AcDbSymbolTableRecord
100
AcDbBlockTableRecord
  2
*D31
340
0
  0
BLOCK_RECORD
  5
246FF
330
7466
100
AcDbSymbolTableRecord
100
AcDbBlockTableRecord
  2
*D32
340
0
  0
BLOCK_RECORD
  5
24717
330
7466
100
AcDbSymbolTableRecord
100
AcDbBlockTableRecord
  2
*D33
340
0
  0
BLOCK_RECORD
  5
24724
330
7466
100
AcDbSymbolTableRecord
100
AcDbBlockTableRecord
  2
*D34
340
0
  0
BLOCK_RECORD
  5
24730
330
7466
100
AcDbSymbolTableRecord
100
AcDbBlockTableRecord
  2
*D35
340
0
  0
BLOCK_RECORD
  5
24746
330
7466
100
AcDbSymbolTableRecord
100
AcDbBlockTableRecord
  2
*D36
340
0
  0
BLOCK_RECORD
  5
24760
330
7466
100
AcDbSymbolTableRecord
100
AcDbBlockTableRecord
  2
*D37
340
0
  0
BLOCK_RECORD
  5
2477A
330
7466
100
AcDbSymbolTableRecord
100
AcDbBlockTableRecord
  2
*D38
340
0
  0
BLOCK_RECORD
  5
25129
330
7466
100
AcDbSymbolTableRecord
100
AcDbBlockTableRecord
  2
*D39
340
0
  0
BLOCK_RECORD
  5
25135
330
7466
100
AcDbSymbolTableRecord
100
AcDbBlockTableRecord
  2
*D40
340
0
  0
BLOCK_RECORD
  5
25143
330
7466
100
AcDbSymbolTableRecord
100
AcDbBlockTableRecord
  2
*D41
340
0
  0
BLOCK_RECORD
  5
2514F
330
7466
100
AcDbSymbolTableRecord
100
AcDbBlockTableRecord
  2
*D42
340
0
  0
BLOCK_RECORD
  5
2515B
330
7466
100
AcDbSymbolTableRecord
100
AcDbBlockTableRecord
  2
*D43
340
0
  0
BLOCK_RECORD
  5
25167
330
7466
100
AcDbSymbolTableRecord
100
AcDbBlockTableRecord
  2
*D44
340
0
  0
BLOCK_RECORD
  5
251F3
330
7466
100
AcDbSymbolTableRecord
100
AcDbBlockTableRecord
  2
A$C448D7BA6
340
0
  0
BLOCK_RECORD
  5
251FA
330
7466
100
AcDbSymbolTableRecord
100
AcDbBlockTableRecord
  2
A$C282A6DFC
340
0
  0
ENDTAB
  0
ENDSEC
  0
SECTION
  2
BLOCKS
  0
BLOCK
  5
7489
330
747D
100
AcDbEntity
  8
0
100
AcDbBlockBegin
  2
*MODEL_SPACE
 70
     0
 10
0.0
 20
0.0
 30
0.0
  3
*MODEL_SPACE
  1

  0
ENDBLK
  5
748A
330
747D
100
AcDbEntity
  8
0
100
AcDbBlockEnd
  0
BLOCK
  5
7487
330
747A
100
AcDbEntity
 67
     1
  8
0
100
AcDbBlockBegin
  2
*PAPER_SPACE
 70
     0
 10
0.0
 20
0.0
 30
0.0
  3
*PAPER_SPACE
  1

  0
ENDBLK
  5
7488
330
747A
100
AcDbEntity
 67
     1
  8
0
100
AcDbBlockEnd
  0
BLOCK
  5
DEAD
330
DEAC
100
AcDbEntity
  8
0
100
AcDbBlockBegin
  2
_OPEN
 70
     0
 10
0.0
 20
0.0
 30
0.0
  3
_OPEN
  1

  0
LINE
  5
DEAE
330
DEAC
100
AcDbEntity
  8
0
  6
ByBlock
 62
     0
100
AcDbLine
 10
-1.0
 20
0.1666666666666666
 30
0.0
 11
0.0
 21
0.0
 31
0.0
  0
LINE
  5
DEAF
330
DEAC
100
AcDbEntity
  8
0
  6
ByBlock
 62
     0
100
AcDbLine
 10
0.0
 20
0.0
 30
0.0
 11
-1.0
 21
-0.1666666666666666
 31
0.0
  0
LINE
  5
DEB0
330
DEAC
100
AcDbEntity
  8
0
  6
ByBlock
 62
     0
100
AcDbLine
 10
0.0
 20
0.0
 30
0.0
 11
-1.0
 21
0.0
 31
0.0
  0
ENDBLK
  5
DEB1
330
DEAC
100
AcDbEntity
  8
0
100
AcDbBlockEnd
  0
BLOCK
  5
F771
330
F770
100
AcDbEntity
  8
0
 48
50.0
100
AcDbBlockBegin
  2
_DOTSMALL
 70
     0
 10
0.0
 20
0.0
 30
0.0
  3
_DOTSMALL
  1

  0
LWPOLYLINE
  5
F772
330
F770
100
AcDbEntity
  8
0
  6
ByBlock
 62
     0
 48
50.0
100
AcDbPolyline
 90
        2
 70
     1
 43
0.5
 10
-0.0625
 20
0.0
 42
1.0
 10
0.0625
 20
0.0
 42
1.0
  0
ENDBLK
  5
F776
330
F770
100
AcDbEntity
  8
0
 48
50.0
100
AcDbBlockEnd
  0
BLOCK
  5
164BA
330
164B4
100
AcDbEntity
  8
0
 48
50.0
100
AcDbBlockBegin
  2
_DOT
 70
     0
 10
0.0
 20
0.0
 30
0.0
  3
_DOT
  1

  0
LWPOLYLINE
  5
164B5
330
164B4
100
AcDbEntity
  8
0
  6
ByBlock
 62
     0
 48
50.0
100
AcDbPolyline
 90
        2
 70
     1
 43
0.5
 10
-0.25
 20
0.0
 42
1.0
 10
0.25
 20
0.0
 42
1.0
  0
LINE
  5
164B9
330
164B4
100
AcDbEntity
  8
0
  6
ByBlock
 62
     0
 48
50.0
100
AcDbLine
 10
-0.5
 20
0.0
 30
0.0
 11
-1.0
 21
0.0
 31
0.0
  0
ENDBLK
  5
164BB
330
164B4
100
AcDbEntity
  8
0
 48
50.0
100
AcDbBlockEnd
  0
BLOCK
  5
18BC9
330
18BC8
100
AcDbEntity
  8
0
 48
50.0
100
AcDbBlockBegin
  2
*D3
 70
     1
 10
0.0
 20
0.0
 30
0.0
  3
*D3
  1

  0
LINE
  5
18BCA
330
18BC8
100
AcDbEntity
  8
寸法
 62
     0
 48
50.0
370
    -2
100
AcDbLine
 10
7649.896575106999
 20
9636.123139034717
 30
0.0
 11
8702.429862581047
 21
9636.123139034717
 31
0.0
  0
LINE
  5
18BCB
330
18BC8
100
AcDbEntity
  8
寸法
 62
     0
 48
50.0
370
    -2
100
AcDbLine
 10
7649.896575106973
 20
7846.123139034709
 30
0.0
 11
8702.429862581047
 21
7846.123139034709
 31
0.0
  0
LINE
  5
18BCC
330
18BC8
100
AcDbEntity
  8
寸法
 62
     0
 48
50.0
370
    -2
100
AcDbLine
 10
8642.429862581046
 20
9636.123139034717
 30
0.0
 11
8642.429862581046
 21
7846.123139034709
 31
0.0
  0
INSERT
  5
18BCD
330
18BC8
100
AcDbEntity
  8
寸法
 62
     0
 48
50.0
370
    -2
100
AcDbBlockReference
  2
_DOTSMALL
 10
8642.429862581046
 20
9636.123139034717
 30
0.0
 41
100.0
 42
100.0
 43
100.0
 50
90.0
  0
INSERT
  5
18BCE
330
18BC8
100
AcDbEntity
  8
寸法
 62
     0
 48
50.0
370
    -2
100
AcDbBlockReference
  2
_DOTSMALL
 10
8642.429862581046
 20
7846.123139034709
 30
0.0
 41
100.0
 42
100.0
 43
100.0
 50
270.0
  0
MTEXT
  5
18BCF
330
18BC8
100
AcDbEntity
  8
寸法
 62
     7
 48
50.0
100
AcDbMText
 10
8542.429862581045
 20
8741.123139034712
 30
0.0
 40
120.0
 41
0.0
 71
     5
 72
     1
  1
\A1;1790
  7
STYLE1
 11
0.0000000000000001
 21
1.0
 31
0.0
 73
     1
 44
1.0
1001
ACAD
1000
MTEXTBEGIN
1070
    73
1070
     1
1070
    44
1040
1.0
1070
    74
1070
     0
1000
MTEXTEND
  0
POINT
  5
18BD0
330
18BC8
100
AcDbEntity
  8
DEFPOINTS
 62
     0
 48
50.0
100
AcDbPoint
 10
7629.896575106998
 20
9636.123139034717
 30
0.0
  0
POINT
  5
18BD1
330
18BC8
100
AcDbEntity
  8
DEFPOINTS
 62
     0
 48
50.0
100
AcDbPoint
 10
7629.896575106974
 20
7846.123139034709
 30
0.0
  0
POINT
  5
18BD2
330
18BC8
100
AcDbEntity
  8
DEFPOINTS
 62
     0
 48
50.0
100
AcDbPoint
 10
8642.429862581046
 20
7846.123139034709
 30
0.0
  0
ENDBLK
  5
18BD3
330
18BC8
100
AcDbEntity
  8
0
 48
50.0
100
AcDbBlockEnd
  0
BLOCK
  5
18BD5
330
18BD4
100
AcDbEntity
  8
0
 48
50.0
100
AcDbBlockBegin
  2
*D4
 70
     1
 10
0.0
 20
0.0
 30
0.0
  3
*D4
  1

  0
LINE
  5
18BD6
330
18BD4
100
AcDbEntity
  8
寸法
 62
     0
 48
50.0
370
    -2
100
AcDbLine
 10
4214.896575106998
 20
9656.123139034622
 30
0.0
 11
4214.896575106998
 21
10211.93135865972
 31
0.0
  0
LINE
  5
18BD7
330
18BD4
100
AcDbEntity
  8
寸法
 62
     0
 48
50.0
370
    -2
100
AcDbLine
 10
7574.896575106999
 20
9656.123139034718
 30
0.0
 11
7574.896575106999
 21
10211.93135865972
 31
0.0
  0
LINE
  5
18BD8
330
18BD4
100
AcDbEntity
  8
寸法
 62
     0
 48
50.0
370
    -2
100
AcDbLine
 10
4214.896575106998
 20
10151.93135865972
 30
0.0
 11
7574.896575106999
 21
10151.93135865972
 31
0.0
  0
INSERT
  5
18BD9
330
18BD4
100
AcDbEntity
  8
寸法
 62
     0
 48
50.0
370
    -2
100
AcDbBlockReference
  2
_DOTSMALL
 10
4214.896575106998
 20
10151.93135865972
 30
0.0
 41
100.0
 42
100.0
 43
100.0
 50
180.0
  0
INSERT
  5
18BDA
330
18BD4
100
AcDbEntity
  8
寸法
 62
     0
 48
50.0
370
    -2
100
AcDbBlockReference
  2
_DOTSMALL
 10
7574.896575106999
 20
10151.93135865972
 30
0.0
 41
100.0
 42
100.0
 43
100.0
  0
MTEXT
  5
18BDB
330
18BD4
100
AcDbEntity
  8
寸法
 62
     7
 48
50.0
100
AcDbMText
 10
5894.896575106997
 20
10251.94316968334
 30
0.0
 40
120.0
 41
0.0
 71
     5
 72
     1
  1
\A1;8X420=3360
  7
STYLE1
 73
     1
 44
1.0
1001
ACAD
1000
MTEXTBEGIN
1070
    73
1070
     1
1070
    44
1040
1.0
1070
    74
1070
     0
1000
MTEXTEND
  0
POINT
  5
18BDC
330
18BD4
100
AcDbEntity
  8
DEFPOINTS
 62
     0
 48
50.0
100
AcDbPoint
 10
4214.896575106998
 20
9636.123139034623
 30
0.0
  0
POINT
  5
18BDD
330
18BD4
100
AcDbEntity
  8
DEFPOINTS
 62
     0
 48
50.0
100
AcDbPoint
 10
7574.896575106999
 20
9636.123139034717
 30
0.0
  0
POINT
  5
18BDE
330
18BD4
100
AcDbEntity
  8
DEFPOINTS
 62
     0
 48
50.0
100
AcDbPoint
 10
7574.896575106999
 20
10151.93135865972
 30
0.0
  0
ENDBLK
  5
18BDF
330
18BD4
100
AcDbEntity
  8
0
 48
50.0
100
AcDbBlockEnd
  0
BLOCK
  5
18BE1
330
18BE0
100
AcDbEntity
  8
0
 48
50.0
100
AcDbBlockBegin
  2
*D5
 70
     1
 10
0.0
 20
0.0
 30
0.0
  3
*D5
  1

  0
LINE
  5
18BE2
330
18BE0
100
AcDbEntity
  8
寸法
 62
     0
 48
50.0
370
    -2
100
AcDbLine
 10
7574.896575106999
 20
9656.123139034718
 30
0.0
 11
7574.896575106999
 21
10211.9313586597
 31
0.0
  0
LINE
  5
18BE3
330
18BE0
100
AcDbEntity
  8
寸法
 62
     0
 48
50.0
370
    -2
100
AcDbLine
 10
7629.896575106998
 20
9656.123139034718
 30
0.0
 11
7629.896575106998
 21
10211.9313586597
 31
0.0
  0
LINE
  5
18BE4
330
18BE0
100
AcDbEntity
  8
寸法
 62
     0
 48
50.0
370
    -2
100
AcDbLine
 10
7574.896575106999
 20
10151.9313586597
 30
0.0
 11
7474.896575106999
 21
10151.9313586597
 31
0.0
  0
LINE
  5
18BE5
330
18BE0
100
AcDbEntity
  8
寸法
 62
     0
 48
50.0
370
    -2
100
AcDbLine
 10
7629.896575106998
 20
10151.9313586597
 30
0.0
 11
8046.867137855477
 21
10151.9313586597
 31
0.0
  0
LINE
  5
18BE6
330
18BE0
100
AcDbEntity
  8
寸法
 62
     0
 48
50.0
370
    -2
100
AcDbLine
 10
7574.896575106999
 20
10151.9313586597
 30
0.0
 11
7629.896575106998
 21
10151.9313586597
 31
0.0
  0
INSERT
  5
18BE7
330
18BE0
100
AcDbEntity
  8
寸法
 62
     0
 48
50.0
370
    -2
100
AcDbBlockReference
  2
_DOTSMALL
 10
7574.896575106999
 20
10151.9313586597
 30
0.0
 41
100.0
 42
100.0
 43
100.0
  0
INSERT
  5
18BE8
330
18BE0
100
AcDbEntity
  8
寸法
 62
     0
 48
50.0
370
    -2
100
AcDbBlockReference
  2
_DOTSMALL
 10
7629.896575106998
 20
10151.9313586597
 30
0.0
 41
100.0
 42
100.0
 43
100.0
 50
180.0
  0
MTEXT
  5
18BE9
330
18BE0
100
AcDbEntity
  8
寸法
 62
     7
 48
50.0
100
AcDbMText
 10
7938.381856481237
 20
10251.9313586597
 30
0.0
 40
120.0
 41
0.0
 71
     5
 72
     1
  1
\A1;55
  7
STYLE1
 73
     1
 44
1.0
1001
ACAD
1000
MTEXTBEGIN
1070
    73
1070
     1
1070
    44
1040
1.0
1070
    74
1070
     0
1000
MTEXTEND
  0
POINT
  5
18BEA
330
18BE0
100
AcDbEntity
  8
DEFPOINTS
 62
     0
 48
50.0
100
AcDbPoint
 10
7574.896575106999
 20
9636.123139034717
 30
0.0
  0
POINT
  5
18BEB
330
18BE0
100
AcDbEntity
  8
DEFPOINTS
 62
     0
 48
50.0
100
AcDbPoint
 10
7629.896575106998
 20
9636.123139034717
 30
0.0
  0
POINT
  5
18BEC
330
18BE0
100
AcDbEntity
  8
DEFPOINTS
 62
     0
 48
50.0
100
AcDbPoint
 10
7629.896575106998
 20
10151.9313586597
 30
0.0
  0
ENDBLK
  5
18BED
330
18BE0
100
AcDbEntity
  8
0
 48
50.0
100
AcDbBlockEnd
  0
BLOCK
  5
18BEF
330
18BEE
100
AcDbEntity
  8
0
 48
50.0
100
AcDbBlockBegin
  2
*D6
 70
     1
 10
0.0
 20
0.0
 30
0.0
  3
*D6
  1

  0
LINE
  5
18BF0
330
18BEE
100
AcDbEntity
  8
寸法
 62
     0
 48
50.0
370
    -2
100
AcDbLine
 10
7649.896575106999
 20
9636.123139034717
 30
0.0
 11
8337.32292084141
 21
9636.123139034717
 31
0.0
  0
LINE
  5
18BF1
330
18BEE
100
AcDbEntity
  8
寸法
 62
     0
 48
50.0
370
    -2
100
AcDbLine
 10
7649.896575106999
 20
9581.123139034721
 30
0.0
 11
8337.32292084141
 21
9581.123139034721
 31
0.0
  0
LINE
  5
18BF2
330
18BEE
100
AcDbEntity
  8
寸法
 62
     0
 48
50.0
370
    -2
100
AcDbLine
 10
8277.322920841411
 20
9581.123139034721
 30
0.0
 11
8277.322920841411
 21
9481.123139034719
 31
0.0
  0
LINE
  5
18BF3
330
18BEE
100
AcDbEntity
  8
寸法
 62
     0
 48
50.0
370
    -2
100
AcDbLine
 10
8277.322920841411
 20
9636.123139034717
 30
0.0
 11
8277.322920841411
 21
10053.09370178319
 31
0.0
  0
LINE
  5
18BF4
330
18BEE
100
AcDbEntity
  8
寸法
 62
     0
 48
50.0
370
    -2
100
AcDbLine
 10
8277.322920841411
 20
9581.123139034721
 30
0.0
 11
8277.322920841411
 21
9636.123139034717
 31
0.0
  0
INSERT
  5
18BF5
330
18BEE
100
AcDbEntity
  8
寸法
 62
     0
 48
50.0
370
    -2
100
AcDbBlockReference
  2
_DOTSMALL
 10
8277.322920841411
 20
9581.123139034721
 30
0.0
 41
100.0
 42
100.0
 43
100.0
 50
90.0
  0
INSERT
  5
18BF6
330
18BEE
100
AcDbEntity
  8
寸法
 62
     0
 48
50.0
370
    -2
100
AcDbBlockReference
  2
_DOTSMALL
 10
8277.322920841411
 20
9636.123139034717
 30
0.0
 41
100.0
 42
100.0
 43
100.0
 50
270.0
  0
MTEXT
  5
18BF7
330
18BEE
100
AcDbEntity
  8
寸法
 62
     7
 48
50.0
100
AcDbMText
 10
8177.32292084141
 20
9944.608420408957
 30
0.0
 40
120.0
 41
0.0
 71
     5
 72
     1
  1
\A1;55
  7
STYLE1
 11
0.0000000000000001
 21
1.0
 31
0.0
 73
     1
 44
1.0
1001
ACAD
1000
MTEXTBEGIN
1070
    73
1070
     1
1070
    44
1040
1.0
1070
    74
1070
     0
1000
MTEXTEND
  0
POINT
  5
18BF8
330
18BEE
100
AcDbEntity
  8
DEFPOINTS
 62
     0
 48
50.0
100
AcDbPoint
 10
7629.896575106998
 20
9636.123139034717
 30
0.0
  0
POINT
  5
18BF9
330
18BEE
100
AcDbEntity
  8
DEFPOINTS
 62
     0
 48
50.0
100
AcDbPoint
 10
7629.896575106998
 20
9581.123139034721
 30
0.0
  0
POINT
  5
18BFA
330
18BEE
100
AcDbEntity
  8
DEFPOINTS
 62
     0
 48
50.0
100
AcDbPoint
 10
8277.322920841411
 20
9581.123139034721
 30
0.0
  0
ENDBLK
  5
18BFB
330
18BEE
100
AcDbEntity
  8
0
 48
50.0
100
AcDbBlockEnd
  0
BLOCK
  5
18BFD
330
18BFC
100
AcDbEntity
  8
0
 48
50.0
100
AcDbBlockBegin
  2
*D7
 70
     1
 10
0.0
 20
0.0
 30
0.0
  3
*D7
  1

  0
LINE
  5
18BFE
330
18BFC
100
AcDbEntity
  8
寸法
 62
     0
 48
50.0
370
    -2
100
AcDbLine
 10
4159.896575106963
 20
9656.123139034622
 30
0.0
 11
4159.896575106963
 21
10211.9313586596
 31
0.0
  0
LINE
  5
18BFF
330
18BFC
100
AcDbEntity
  8
寸法
 62
     0
 48
50.0
370
    -2
100
AcDbLine
 10
4214.896575106998
 20
9656.123139034622
 30
0.0
 11
4214.896575106998
 21
10211.9313586596
 31
0.0
  0
LINE
  5
18C00
330
18BFC
100
AcDbEntity
  8
寸法
 62
     0
 48
50.0
370
    -2
100
AcDbLine
 10
4214.896575106998
 20
10151.9313586596
 30
0.0
 11
4314.896575106998
 21
10151.9313586596
 31
0.0
  0
LINE
  5
18C01
330
18BFC
100
AcDbEntity
  8
寸法
 62
     0
 48
50.0
370
    -2
100
AcDbLine
 10
4159.896575106963
 20
10151.9313586596
 30
0.0
 11
3742.926012358486
 21
10151.9313586596
 31
0.0
  0
LINE
  5
18C02
330
18BFC
100
AcDbEntity
  8
寸法
 62
     0
 48
50.0
370
    -2
100
AcDbLine
 10
4214.896575106998
 20
10151.9313586596
 30
0.0
 11
4159.896575106963
 21
10151.9313586596
 31
0.0
  0
INSERT
  5
18C03
330
18BFC
100
AcDbEntity
  8
寸法
 62
     0
 48
50.0
370
    -2
100
AcDbBlockReference
  2
_DOTSMALL
 10
4214.896575106998
 20
10151.9313586596
 30
0.0
 41
100.0
 42
100.0
 43
100.0
 50
180.0
  0
INSERT
  5
18C04
330
18BFC
100
AcDbEntity
  8
寸法
 62
     0
 48
50.0
370
    -2
100
AcDbBlockReference
  2
_DOTSMALL
 10
4159.896575106963
 20
10151.9313586596
 30
0.0
 41
100.0
 42
100.0
 43
100.0
  0
MTEXT
  5
18C05
330
18BFC
100
AcDbEntity
  8
寸法
 62
     7
 48
50.0
100
AcDbMText
 10
3851.411293732725
 20
10251.9313586596
 30
0.0
 40
120.0
 41
0.0
 71
     5
 72
     1
  1
\A1;55
  7
STYLE1
 73
     1
 44
1.0
1001
ACAD
1000
MTEXTBEGIN
1070
    73
1070
     1
1070
    44
1040
1.0
1070
    74
1070
     0
1000
MTEXTEND
  0
POINT
  5
18C06
330
18BFC
100
AcDbEntity
  8
DEFPOINTS
 62
     0
 48
50.0
100
AcDbPoint
 10
4159.896575106963
 20
9636.123139034623
 30
0.0
  0
POINT
  5
18C07
330
18BFC
100
AcDbEntity
  8
DEFPOINTS
 62
     0
 48
50.0
100
AcDbPoint
 10
4214.896575106998
 20
9636.123139034623
 30
0.0
  0
POINT
  5
18C08
330
18BFC
100
AcDbEntity
  8
DEFPOINTS
 62
     0
 48
50.0
100
AcDbPoint
 10
4214.896575106998
 20
10151.9313586596
 30
0.0
  0
ENDBLK
  5
18C09
330
18BFC
100
AcDbEntity
  8
0
 48
50.0
100
AcDbBlockEnd
  0
BLOCK
  5
18C0B
330
18C0A
100
AcDbEntity
  8
0
 48
50.0
100
AcDbBlockBegin
  2
*D8
 70
     1
 10
0.0
 20
0.0
 30
0.0
  3
*D8
  1

  0
LINE
  5
18C0C
330
18C0A
100
AcDbEntity
  8
寸法
 62
     0
 48
50.0
370
    -2
100
AcDbLine
 10
4159.896575106992
 20
7826.123139034546
 30
0.0
 11
4159.896575106992
 21
6804.372203245664
 31
0.0
  0
LINE
  5
18C0D
330
18C0A
100
AcDbEntity
  8
寸法
 62
     0
 48
50.0
370
    -2
100
AcDbLine
 10
7629.896575106974
 20
7826.123139034674
 30
0.0
 11
7629.896575106974
 21
6804.372203245664
 31
0.0
  0
LINE
  5
18C0E
330
18C0A
100
AcDbEntity
  8
寸法
 62
     0
 48
50.0
370
    -2
100
AcDbLine
 10
4159.896575106992
 20
6864.372203245665
 30
0.0
 11
7629.896575106974
 21
6864.372203245665
 31
0.0
  0
INSERT
  5
18C0F
330
18C0A
100
AcDbEntity
  8
寸法
 62
     0
 48
50.0
370
    -2
100
AcDbBlockReference
  2
_DOTSMALL
 10
4159.896575106992
 20
6864.372203245665
 30
0.0
 41
100.0
 42
100.0
 43
100.0
 50
180.0
  0
INSERT
  5
18C10
330
18C0A
100
AcDbEntity
  8
寸法
 62
     0
 48
50.0
370
    -2
100
AcDbBlockReference
  2
_DOTSMALL
 10
7629.896575106974
 20
6864.372203245665
 30
0.0
 41
100.0
 42
100.0
 43
100.0
  0
MTEXT
  5
18C11
330
18C0A
100
AcDbEntity
  8
寸法
 62
     7
 48
50.0
100
AcDbMText
 10
5911.12376113973
 20
6964.372203245665
 30
0.0
 40
120.0
 41
0.0
 71
     5
 72
     1
  1
\A1;3470
  7
STYLE1
 73
     1
 44
1.0
1001
ACAD
1000
MTEXTBEGIN
1070
    73
1070
     1
1070
    44
1040
1.0
1070
    74
1070
     0
1000
MTEXTEND
  0
POINT
  5
18C12
330
18C0A
100
AcDbEntity
  8
DEFPOINTS
 62
     0
 48
50.0
100
AcDbPoint
 10
4159.896575106992
 20
7846.123139034546
 30
0.0
  0
POINT
  5
18C13
330
18C0A
100
AcDbEntity
  8
DEFPOINTS
 62
     0
 48
50.0
100
AcDbPoint
 10
7629.896575106974
 20
7846.123139034673
 30
0.0
  0
POINT
  5
18C14
330
18C0A
100
AcDbEntity
  8
DEFPOINTS
 62
     0
 48
50.0
100
AcDbPoint
 10
7629.896575106974
 20
6864.372203245665
 30
0.0
  0
ENDBLK
  5
18C15
330
18C0A
100
AcDbEntity
  8
0
 48
50.0
100
AcDbBlockEnd
  0
BLOCK
  5
18C17
330
18C16
100
AcDbEntity
  8
0
 48
50.0
100
AcDbBlockBegin
  2
*D9
 70
     1
 10
0.0
 20
0.0
 30
0.0
  3
*D9
  1

  0
LINE
  5
18C18
330
18C16
100
AcDbEntity
  8
寸法
 62
     0
 48
50.0
370
    -2
100
AcDbLine
 10
7649.896575106973
 20
7901.123139034706
 30
0.0
 11
8337.322920841385
 21
7901.123139034706
 31
0.0
  0
LINE
  5
18C19
330
18C16
100
AcDbEntity
  8
寸法
 62
     0
 48
50.0
370
    -2
100
AcDbLine
 10
7649.896575106973
 20
7846.123139034709
 30
0.0
 11
8337.322920841385
 21
7846.123139034709
 31
0.0
  0
LINE
  5
18C1A
330
18C16
100
AcDbEntity
  8
寸法
 62
     0
 48
50.0
370
    -2
100
AcDbLine
 10
8277.322920841385
 20
7901.123139034706
 30
0.0
 11
8277.322920841385
 21
8001.123139034707
 31
0.0
  0
LINE
  5
18C1B
330
18C16
100
AcDbEntity
  8
寸法
 62
     0
 48
50.0
370
    -2
100
AcDbLine
 10
8277.322920841385
 20
7846.123139034709
 30
0.0
 11
8277.322920841385
 21
7429.152576286229
 31
0.0
  0
LINE
  5
18C1C
330
18C16
100
AcDbEntity
  8
寸法
 62
     0
 48
50.0
370
    -2
100
AcDbLine
 10
8277.322920841385
 20
7901.123139034706
 30
0.0
 11
8277.322920841385
 21
7846.123139034709
 31
0.0
  0
INSERT
  5
18C1D
330
18C16
100
AcDbEntity
  8
寸法
 62
     0
 48
50.0
370
    -2
100
AcDbBlockReference
  2
_DOTSMALL
 10
8277.322920841385
 20
7901.123139034706
 30
0.0
 41
100.0
 42
100.0
 43
100.0
 50
270.0
  0
INSERT
  5
18C1E
330
18C16
100
AcDbEntity
  8
寸法
 62
     0
 48
50.0
370
    -2
100
AcDbBlockReference
  2
_DOTSMALL
 10
8277.322920841385
 20
7846.123139034709
 30
0.0
 41
100.0
 42
100.0
 43
100.0
 50
90.0
  0
MTEXT
  5
18C1F
330
18C16
100
AcDbEntity
  8
寸法
 62
     7
 48
50.0
100
AcDbMText
 10
8177.322920841383
 20
7537.637857660469
 30
0.0
 40
120.0
 41
0.0
 71
     5
 72
     1
  1
\A1;55
  7
STYLE1
 11
0.0000000000000001
 21
1.0
 31
0.0
 73
     1
 44
1.0
1001
ACAD
1000
MTEXTBEGIN
1070
    73
1070
     1
1070
    44
1040
1.0
1070
    74
1070
     0
1000
MTEXTEND
  0
POINT
  5
18C20
330
18C16
100
AcDbEntity
  8
DEFPOINTS
 62
     0
 48
50.0
100
AcDbPoint
 10
7629.896575106974
 20
7901.123139034706
 30
0.0
  0
POINT
  5
18C21
330
18C16
100
AcDbEntity
  8
DEFPOINTS
 62
     0
 48
50.0
100
AcDbPoint
 10
7629.896575106974
 20
7846.123139034709
 30
0.0
  0
POINT
  5
18C22
330
18C16
100
AcDbEntity
  8
DEFPOINTS
 62
     0
 48
50.0
100
AcDbPoint
 10
8277.322920841385
 20
7846.123139034709
 30
0.0
  0
ENDBLK
  5
18C23
330
18C16
100
AcDbEntity
  8
0
 48
50.0
100
AcDbBlockEnd
  0
BLOCK
  5
18C25
330
18C24
100
AcDbEntity
  8
0
 48
50.0
100
AcDbBlockBegin
  2
*D10
 70
     1
 10
0.0
 20
0.0
 30
0.0
  3
*D10
  1

  0
LINE
  5
18C26
330
18C24
100
AcDbEntity
  8
寸法
 62
     0
 48
50.0
370
    -2
100
AcDbLine
 10
6533.037591258376
 20
9136.123139034728
 30
0.0
 11
6465.083950562664
 21
8882.516699399049
 31
0.0
  0
LINE
  5
18C27
330
18C24
100
AcDbEntity
  8
寸法
 62
     0
 48
50.0
370
    -2
100
AcDbLine
 10
7596.037591258388
 20
9136.123139034721
 30
0.0
 11
7528.083950562677
 21
8882.516699399049
 31
0.0
  0
LINE
  5
18C28
330
18C24
100
AcDbEntity
  8
寸法
 62
     0
 48
50.0
370
    -2
100
AcDbLine
 10
6481.160902108531
 20
8942.51669939905
 30
0.0
 11
7544.160902108544
 21
8942.51669939905
 31
0.0
  0
INSERT
  5
18C29
330
18C24
100
AcDbEntity
  8
寸法
 62
     0
 48
50.0
370
    -2
100
AcDbBlockReference
  2
_DOTSMALL
 10
6481.160902108531
 20
8942.51669939905
 30
0.0
 41
100.0
 42
100.0
 43
100.0
 50
180.0
  0
INSERT
  5
18C2A
330
18C24
100
AcDbEntity
  8
寸法
 62
     0
 48
50.0
370
    -2
100
AcDbBlockReference
  2
_DOTSMALL
 10
7544.160902108544
 20
8942.51669939905
 30
0.0
 41
100.0
 42
100.0
 43
100.0
  0
MTEXT
  5
18C2B
330
18C24
100
AcDbEntity
  8
寸法
 62
     7
 48
50.0
100
AcDbMText
 10
7061.28653022935
 20
9042.516699399049
 30
0.0
 40
120.0
 41
0.0
 71
     5
 72
     1
  1
\A1;1063
  7
STYLE1
 73
     1
 44
1.0
1001
ACAD
1000
MTEXTBEGIN
1070
    73
1070
     1
1070
    44
1040
1.0
1070
    74
1070
     0
1000
MTEXTEND
  0
POINT
  5
18C2C
330
18C24
100
AcDbEntity
  8
DEFPOINTS
 62
     0
 48
50.0
100
AcDbPoint
 10
6538.396575106998
 20
9156.123139034727
 30
0.0
  0
POINT
  5
18C2D
330
18C24
100
AcDbEntity
  8
DEFPOINTS
 62
     0
 48
50.0
100
AcDbPoint
 10
7601.39657510701
 20
9156.12313903472
 30
0.0
  0
POINT
  5
18C2E
330
18C24
100
AcDbEntity
  8
DEFPOINTS
 62
     0
 48
50.0
100
AcDbPoint
 10
7544.160902108544
 20
8942.51669939905
 30
0.0
  0
ENDBLK
  5
18C2F
330
18C24
100
AcDbEntity
  8
0
 48
50.0
100
AcDbBlockEnd
  0
BLOCK
  5
18C31
330
18C30
100
AcDbEntity
  8
0
 48
50.0
100
AcDbBlockBegin
  2
*D11
 70
     1
 10
0.0
 20
0.0
 30
0.0
  3
*D11
  1

  0
LINE
  5
18C32
330
18C30
100
AcDbEntity
  8
寸法
 62
     0
 48
50.0
370
    -2
100
AcDbLine
 10
7621.396575106999
 20
9600.764155186094
 30
0.0
 11
8016.754300969024
 21
9494.828371819961
 31
0.0
  0
LINE
  5
18C33
330
18C30
100
AcDbEntity
  8
寸法
 62
     0
 48
50.0
370
    -2
100
AcDbLine
 10
7621.396575106999
 20
9150.764155186099
 30
0.0
 11
8016.754300969024
 21
9044.828371819964
 31
0.0
  0
LINE
  5
18C34
330
18C30
100
AcDbEntity
  8
寸法
 62
     0
 48
50.0
370
    -2
100
AcDbLine
 10
7956.754300969024
 20
9510.905323365827
 30
0.0
 11
7956.754300969024
 21
9060.90532336583
 31
0.0
  0
INSERT
  5
18C35
330
18C30
100
AcDbEntity
  8
寸法
 62
     0
 48
50.0
370
    -2
100
AcDbBlockReference
  2
_DOTSMALL
 10
7956.754300969024
 20
9510.905323365827
 30
0.0
 41
100.0
 42
100.0
 43
100.0
 50
90.0
  0
INSERT
  5
18C36
330
18C30
100
AcDbEntity
  8
寸法
 62
     0
 48
50.0
370
    -2
100
AcDbBlockReference
  2
_DOTSMALL
 10
7956.754300969024
 20
9060.90532336583
 30
0.0
 41
100.0
 42
100.0
 43
100.0
 50
270.0
  0
MTEXT
  5
18C37
330
18C30
100
AcDbEntity
  8
寸法
 62
     7
 48
50.0
100
AcDbMText
 10
7856.754300969022
 20
9285.905323365829
 30
0.0
 40
120.0
 41
0.0
 71
     5
 72
     1
  1
\A1;450
  7
STYLE1
 11
0.0000000000000001
 21
1.0
 31
0.0
 73
     1
 44
1.0
1001
ACAD
1000
MTEXTBEGIN
1070
    73
1070
     1
1070
    44
1040
1.0
1070
    74
1070
     0
1000
MTEXTEND
  0
POINT
  5
18C38
330
18C30
100
AcDbEntity
  8
DEFPOINTS
 62
     0
 48
50.0
100
AcDbPoint
 10
7601.396575106999
 20
9606.123139034718
 30
0.0
  0
POINT
  5
18C39
330
18C30
100
AcDbEntity
  8
DEFPOINTS
 62
     0
 48
50.0
100
AcDbPoint
 10
7601.396575106999
 20
9156.12313903472
 30
0.0
  0
POINT
  5
18C3A
330
18C30
100
AcDbEntity
  8
DEFPOINTS
 62
     0
 48
50.0
100
AcDbPoint
 10
7956.754300969024
 20
9060.90532336583
 30
0.0
  0
ENDBLK
  5
18C3B
330
18C30
100
AcDbEntity
  8
0
 48
50.0
100
AcDbBlockEnd
  0
BLOCK
  5
18C3D
330
18C3C
100
AcDbEntity
  8
0
 48
50.0
100
AcDbBlockBegin
  2
*D12
 70
     1
 10
0.0
 20
0.0
 30
0.0
  3
*D12
  1

  0
LINE
  5
18C3E
330
18C3C
100
AcDbEntity
  8
寸法
 62
     0
 48
50.0
370
    -2
100
AcDbLine
 10
7649.896575106999
 20
9581.123139034721
 30
0.0
 11
8337.32292084141
 21
9581.123139034721
 31
0.0
  0
LINE
  5
18C3F
330
18C3C
100
AcDbEntity
  8
寸法
 62
     0
 48
50.0
370
    -2
100
AcDbLine
 10
7649.896575106973
 20
7901.123139034706
 30
0.0
 11
8337.32292084141
 21
7901.123139034706
 31
0.0
  0
LINE
  5
18C40
330
18C3C
100
AcDbEntity
  8
寸法
 62
     0
 48
50.0
370
    -2
100
AcDbLine
 10
8277.322920841411
 20
9581.123139034721
 30
0.0
 11
8277.322920841411
 21
7901.123139034706
 31
0.0
  0
INSERT
  5
18C41
330
18C3C
100
AcDbEntity
  8
寸法
 62
     0
 48
50.0
370
    -2
100
AcDbBlockReference
  2
_DOTSMALL
 10
8277.322920841411
 20
9581.123139034721
 30
0.0
 41
100.0
 42
100.0
 43
100.0
 50
90.0
  0
INSERT
  5
18C42
330
18C3C
100
AcDbEntity
  8
寸法
 62
     0
 48
50.0
370
    -2
100
AcDbBlockReference
  2
_DOTSMALL
 10
8277.322920841411
 20
7901.123139034706
 30
0.0
 41
100.0
 42
100.0
 43
100.0
 50
270.0
  0
MTEXT
  5
18C43
330
18C3C
100
AcDbEntity
  8
寸法
 62
     7
 48
50.0
100
AcDbMText
 10
8177.311109817788
 20
8741.123139034712
 30
0.0
 40
120.0
 41
0.0
 71
     5
 72
     1
  1
\A1;4X420=1680
  7
STYLE1
 11
0.0000000000000001
 21
1.0
 31
0.0
 73
     1
 44
1.0
1001
ACAD
1000
MTEXTBEGIN
1070
    73
1070
     1
1070
    44
1040
1.0
1070
    74
1070
     0
1000
MTEXTEND
  0
POINT
  5
18C44
330
18C3C
100
AcDbEntity
  8
DEFPOINTS
 62
     0
 48
50.0
100
AcDbPoint
 10
7629.896575106998
 20
9581.123139034721
 30
0.0
  0
POINT
  5
18C45
330
18C3C
100
AcDbEntity
  8
DEFPOINTS
 62
     0
 48
50.0
100
AcDbPoint
 10
7629.896575106974
 20
7901.123139034706
 30
0.0
  0
POINT
  5
18C46
330
18C3C
100
AcDbEntity
  8
DEFPOINTS
 62
     0
 48
50.0
100
AcDbPoint
 10
8277.322920841411
 20
7901.123139034706
 30
0.0
  0
ENDBLK
  5
18C47
330
18C3C
100
AcDbEntity
  8
0
 48
50.0
100
AcDbBlockEnd
  0
BLOCK
  5
18C49
330
18C48
100
AcDbEntity
  8
0
 48
50.0
100
AcDbBlockBegin
  2
*D13
 70
     1
 10
0.0
 20
0.0
 30
0.0
  3
*D13
  1

  0
LINE
  5
18C4A
330
18C48
100
AcDbEntity
  8
寸法
 62
     0
 48
50.0
370
    -2
100
AcDbLine
 10
4183.037591258377
 20
9136.123139034619
 30
0.0
 11
4115.083950562663
 21
8882.516699398941
 31
0.0
  0
LINE
  5
18C4B
330
18C48
100
AcDbEntity
  8
寸法
 62
     0
 48
50.0
370
    -2
100
AcDbLine
 10
5246.037591258307
 20
9136.123139034671
 30
0.0
 11
5178.08395056258
 21
8882.516699398941
 31
0.0
  0
LINE
  5
18C4C
330
18C48
100
AcDbEntity
  8
寸法
 62
     0
 48
50.0
370
    -2
100
AcDbLine
 10
4131.160902108532
 20
8942.516699398941
 30
0.0
 11
5194.160902108448
 21
8942.516699398941
 31
0.0
  0
INSERT
  5
18C4D
330
18C48
100
AcDbEntity
  8
寸法
 62
     0
 48
50.0
370
    -2
100
AcDbBlockReference
  2
_DOTSMALL
 10
4131.160902108532
 20
8942.516699398941
 30
0.0
 41
100.0
 42
100.0
 43
100.0
 50
180.0
  0
INSERT
  5
18C4E
330
18C48
100
AcDbEntity
  8
寸法
 62
     0
 48
50.0
370
    -2
100
AcDbBlockReference
  2
_DOTSMALL
 10
5194.160902108448
 20
8942.516699398941
 30
0.0
 41
100.0
 42
100.0
 43
100.0
  0
MTEXT
  5
18C4F
330
18C48
100
AcDbEntity
  8
寸法
 62
     7
 48
50.0
100
AcDbMText
 10
4658.986452655306
 20
9042.516699398941
 30
0.0
 40
120.0
 41
0.0
 71
     5
 72
     1
  1
\A1;1063
  7
STYLE1
 73
     1
 44
1.0
1001
ACAD
1000
MTEXTBEGIN
1070
    73
1070
     1
1070
    44
1040
1.0
1070
    74
1070
     0
1000
MTEXTEND
  0
POINT
  5
18C50
330
18C48
100
AcDbEntity
  8
DEFPOINTS
 62
     0
 48
50.0
100
AcDbPoint
 10
4188.396575106999
 20
9156.123139034617
 30
0.0
  0
POINT
  5
18C51
330
18C48
100
AcDbEntity
  8
DEFPOINTS
 62
     0
 48
50.0
100
AcDbPoint
 10
5251.396575106929
 20
9156.123139034672
 30
0.0
  0
POINT
  5
18C52
330
18C48
100
AcDbEntity
  8
DEFPOINTS
 62
     0
 48
50.0
100
AcDbPoint
 10
5194.160902108448
 20
8942.516699398941
 30
0.0
  0
ENDBLK
  5
18C53
330
18C48
100
AcDbEntity
  8
0
 48
50.0
100
AcDbBlockEnd
  0
BLOCK
  5
18C55
330
18C54
100
AcDbEntity
  8
0
 48
50.0
100
AcDbBlockBegin
  2
*D14
 70
     1
 10
0.0
 20
0.0
 30
0.0
  3
*D14
  1

  0
LINE
  5
18C56
330
18C54
100
AcDbEntity
  8
寸法
 62
     0
 48
50.0
370
    -2
100
AcDbLine
 10
5274.037591258307
 20
9136.123139034669
 30
0.0
 11
5206.08395056258
 21
8882.516699398941
 31
0.0
  0
LINE
  5
18C57
330
18C54
100
AcDbEntity
  8
寸法
 62
     0
 48
50.0
370
    -2
100
AcDbLine
 10
6505.037591258377
 20
9136.123139034662
 30
0.0
 11
6437.083950562653
 21
8882.516699398941
 31
0.0
  0
LINE
  5
18C58
330
18C54
100
AcDbEntity
  8
寸法
 62
     0
 48
50.0
370
    -2
100
AcDbLine
 10
5222.160902108448
 20
8942.516699398941
 30
0.0
 11
6453.16090210852
 21
8942.516699398941
 31
0.0
  0
INSERT
  5
18C59
330
18C54
100
AcDbEntity
  8
寸法
 62
     0
 48
50.0
370
    -2
100
AcDbBlockReference
  2
_DOTSMALL
 10
5222.160902108448
 20
8942.516699398941
 30
0.0
 41
100.0
 42
100.0
 43
100.0
 50
180.0
  0
INSERT
  5
18C5A
330
18C54
100
AcDbEntity
  8
寸法
 62
     0
 48
50.0
370
    -2
100
AcDbBlockReference
  2
_DOTSMALL
 10
6453.16090210852
 20
8942.516699398941
 30
0.0
 41
100.0
 42
100.0
 43
100.0
  0
MTEXT
  5
18C5B
330
18C54
100
AcDbEntity
  8
寸法
 62
     7
 48
50.0
100
AcDbMText
 10
6081.244808320626
 20
9042.528510422561
 30
0.0
 40
120.0
 41
0.0
 71
     5
 72
     1
  1
\A1;1231
  7
STYLE1
 73
     1
 44
1.0
1001
ACAD
1000
MTEXTBEGIN
1070
    73
1070
     1
1070
    44
1040
1.0
1070
    74
1070
     0
1000
MTEXTEND
  0
POINT
  5
18C5C
330
18C54
100
AcDbEntity
  8
DEFPOINTS
 62
     0
 48
50.0
100
AcDbPoint
 10
5279.396575106929
 20
9156.123139034669
 30
0.0
  0
POINT
  5
18C5D
330
18C54
100
AcDbEntity
  8
DEFPOINTS
 62
     0
 48
50.0
100
AcDbPoint
 10
6510.396575106999
 20
9156.123139034662
 30
0.0
  0
POINT
  5
18C5E
330
18C54
100
AcDbEntity
  8
DEFPOINTS
 62
     0
 48
50.0
100
AcDbPoint
 10
6453.16090210852
 20
8942.516699398941
 30
0.0
  0
ENDBLK
  5
18C5F
330
18C54
100
AcDbEntity
  8
0
 48
50.0
100
AcDbBlockEnd
  0
BLOCK
  5
18C61
330
18C60
100
AcDbEntity
  8
0
 48
50.0
100
AcDbBlockBegin
  2
*D15
 70
     1
 10
0.0
 20
0.0
 30
0.0
  3
*D15
  1

  0
LINE
  5
18C62
330
18C60
100
AcDbEntity
  8
寸法
 62
     0
 48
50.0
370
    -2
100
AcDbLine
 10
5065.896575106966
 20
7749.123139034579
 30
0.0
 11
5065.896575106966
 21
7099.952920982538
 31
0.0
  0
LINE
  5
18C63
330
18C60
100
AcDbEntity
  8
寸法
 62
     0
 48
50.0
370
    -2
100
AcDbLine
 10
6331.896575106966
 20
7749.123139034579
 30
0.0
 11
6331.896575106966
 21
7099.952920982538
 31
0.0
  0
LINE
  5
18C64
330
18C60
100
AcDbEntity
  8
寸法
 62
     0
 48
50.0
370
    -2
100
AcDbLine
 10
5065.896575106966
 20
7159.952920982537
 30
0.0
 11
6331.896575106966
 21
7159.952920982537
 31
0.0
  0
INSERT
  5
18C65
330
18C60
100
AcDbEntity
  8
寸法
 62
     0
 48
50.0
370
    -2
100
AcDbBlockReference
  2
_DOTSMALL
 10
5065.896575106966
 20
7159.952920982537
 30
0.0
 41
100.0
 42
100.0
 43
100.0
 50
180.0
  0
INSERT
  5
18C66
330
18C60
100
AcDbEntity
  8
寸法
 62
     0
 48
50.0
370
    -2
100
AcDbBlockReference
  2
_DOTSMALL
 10
6331.896575106966
 20
7159.952920982537
 30
0.0
 41
100.0
 42
100.0
 43
100.0
  0
MTEXT
  5
18C67
330
18C60
100
AcDbEntity
  8
寸法
 62
     7
 48
50.0
100
AcDbMText
 10
5711.986008735934
 20
7359.964732006159
 30
0.0
 40
120.0
 41
0.0
 71
     5
 72
     1
  1
\A1;有効開口部間口\P1266
  7
STYLE1
 73
     1
 44
1.0
1001
ACAD
1000
MTEXTBEGIN
1070
    73
1070
     1
1070
    44
1040
1.0
1070
    74
1070
     0
1000
MTEXTEND
  0
POINT
  5
18C68
330
18C60
100
AcDbEntity
  8
DEFPOINTS
 62
     0
 48
50.0
100
AcDbPoint
 10
5065.896575106966
 20
7769.123139034579
 30
0.0
  0
POINT
  5
18C69
330
18C60
100
AcDbEntity
  8
DEFPOINTS
 62
     0
 48
50.0
100
AcDbPoint
 10
6331.896575106966
 20
7769.123139034579
 30
0.0
  0
POINT
  5
18C6A
330
18C60
100
AcDbEntity
  8
DEFPOINTS
 62
     0
 48
50.0
100
AcDbPoint
 10
6331.896575106966
 20
7159.952920982537
 30
0.0
  0
ENDBLK
  5
18C6B
330
18C60
100
AcDbEntity
  8
0
 48
50.0
100
AcDbBlockEnd
  0
BLOCK
  5
18C6D
330
18C6C
100
AcDbEntity
  8
0
 48
50.0
100
AcDbBlockBegin
  2
*D16
 70
     1
 10
0.0
 20
0.0
 30
0.0
  3
*D16
  1

  0
LINE
  5
18C6E
330
18C6C
100
AcDbEntity
  8
寸法
 62
     0
 48
50.0
370
    -2
100
AcDbLine
 10
7200.896575106966
 20
7846.123139034578
 30
0.0
 11
7457.192158500191
 21
7846.123139034578
 31
0.0
  0
LINE
  5
18C6F
330
18C6C
100
AcDbEntity
  8
寸法
 62
     0
 48
50.0
370
    -2
100
AcDbLine
 10
7199.896575106966
 20
7769.123139034579
 30
0.0
 11
7457.192158500191
 21
7769.123139034579
 31
0.0
  0
LINE
  5
18C70
330
18C6C
100
AcDbEntity
  8
寸法
 62
     0
 48
50.0
370
    -2
100
AcDbLine
 10
7417.192158500192
 20
7866.123139034579
 30
0.0
 11
7417.192158500192
 21
7886.123139034578
 31
0.0
  0
LINE
  5
18C71
330
18C6C
100
AcDbEntity
  8
寸法
 62
     0
 48
50.0
370
    -2
100
AcDbLine
 10
7417.192158500192
 20
7749.123139034579
 30
0.0
 11
7417.192158500192
 21
7533.123139034573
 31
0.0
  0
LINE
  5
18C72
330
18C6C
100
AcDbEntity
  8
寸法
 62
     0
 48
50.0
370
    -2
100
AcDbLine
 10
7417.192158500192
 20
7846.123139034578
 30
0.0
 11
7417.192158500192
 21
7769.123139034579
 31
0.0
  0
INSERT
  5
18C73
330
18C6C
100
AcDbEntity
  8
寸法
 62
     0
 48
50.0
370
    -2
100
AcDbBlockReference
  2
_DOT
 10
7417.192158500192
 20
7846.123139034578
 30
0.0
 41
20.0
 42
20.0
 43
20.0
 50
270.0
  0
INSERT
  5
18C74
330
18C6C
100
AcDbEntity
  8
寸法
 62
     0
 48
50.0
370
    -2
100
AcDbBlockReference
  2
_DOT
 10
7417.192158500192
 20
7769.123139034579
 30
0.0
 41
20.0
 42
20.0
 43
20.0
 50
90.0
  0
MTEXT
  5
18C75
330
18C6C
100
AcDbEntity
  8
寸法
 62
     7
 48
50.0
100
AcDbMText
 10
7325.192158500191
 20
7631.123139034575
 30
0.0
 40
120.0
 41
0.0
 71
     5
 72
     1
  1
\A1;77
  7
STYLE1
 11
0.0000000000000001
 21
1.0
 31
0.0
 73
     1
 44
1.0
1001
ACAD
1000
MTEXTBEGIN
1070
    73
1070
     1
1070
    44
1040
1.0
1070
    74
1070
     0
1000
MTEXTEND
  0
POINT
  5
18C76
330
18C6C
100
AcDbEntity
  8
DEFPOINTS
 62
     0
 48
50.0
100
AcDbPoint
 10
7180.896575106967
 20
7846.123139034578
 30
0.0
  0
POINT
  5
18C77
330
18C6C
100
AcDbEntity
  8
DEFPOINTS
 62
     0
 48
50.0
100
AcDbPoint
 10
7179.896575106965
 20
7769.123139034579
 30
0.0
  0
POINT
  5
18C78
330
18C6C
100
AcDbEntity
  8
DEFPOINTS
 62
     0
 48
50.0
100
AcDbPoint
 10
7417.192158500192
 20
7769.123139034579
 30
0.0
  0
ENDBLK
  5
18C79
330
18C6C
100
AcDbEntity
  8
0
 48
50.0
100
AcDbBlockEnd
  0
BLOCK
  5
18DA0
330
18C7A
100
AcDbEntity
  8
0
 48
50.0
100
AcDbBlockBegin
  2
A$C3B1A506B
 70
     0
 10
0.0
 20
0.0
 30
0.0
  3
A$C3B1A506B
  1

  0
MTEXT
  5
18C7B
330
18C7A
100
AcDbEntity
  8
寸法
 62
     7
 48
50.0
100
AcDbMText
 10
3342.250386887194
 20
2778.329429134012
 30
0.0
 40
96.0
 41
0.0
 71
     5
 72
     1
  1
棚 2段
  7
STYLE1
 73
     1
 44
1.0
1001
ACAD
1000
MTEXTBEGIN
1070
    73
1070
     1
1070
    44
1040
1.0
1070
    74
1070
     0
1000
MTEXTEND
  0
MTEXT
  5
18C7C
330
18C7A
100
AcDbEntity
  8
寸法
 62
     7
 48
50.0
100
AcDbMText
 10
2167.25038688716
 20
2778.329429133986
 30
0.0
 40
96.0
 41
0.0
 71
     5
 72
     1
  1
棚 2段
  7
STYLE1
 73
     1
 44
1.0
1001
ACAD
1000
MTEXTBEGIN
1070
    73
1070
     1
1070
    44
1040
1.0
1070
    74
1070
     0
1000
MTEXTEND
  0
MTEXT
  5
18C7D
330
18C7A
100
AcDbEntity
  8
寸法
 62
     7
 48
50.0
100
AcDbMText
 10
992.2503868871608
 20
2778.329429133935
 30
0.0
 40
96.0
 41
0.0
 71
     5
 72
     1
  1
棚 2段
  7
STYLE1
 73
     1
 44
1.0
1001
ACAD
1000
MTEXTBEGIN
1070
    73
1070
     1
1070
    44
1040
1.0
1070
    74
1070
     0
1000
MTEXTEND
  0
LINE
  5
18C7E
330
18C7A
100
AcDbEntity
  8
細線
 48
50.0
100
AcDbLine
 10
2771.970589276527
 20
1368.994384123192
 30
0.0
 11
3398.970589276523
 21
1368.994384123192
 31
0.0
  0
LINE
  5
18C7F
330
18C7A
100
AcDbEntity
  8
細線
 48
50.0
100
AcDbLine
 10
2117.970593930113
 20
1335.285615569113
 30
0.0
 11
3398.970589276523
 21
1335.285615569113
 31
0.0
  0
LINE
  5
18C80
330
18C7A
100
AcDbEntity
  8
細線
 48
50.0
100
AcDbLine
 10
2076.970593930115
 20
1364.690523565368
 30
0.0
 11
1322.970589276523
 21
1364.690523565367
 31
0.0
  0
LINE
  5
18C81
330
18C7A
100
AcDbEntity
  8
細線
100
AcDbLine
 10
3170.720579860066
 20
1388.494284088199
 30
0.0
 11
3173.052119381877
 21
1393.494286728162
 31
0.0
  0
LINE
  5
18C82
330
18C7A
100
AcDbEntity
  8
細線
100
AcDbLine
 10
3240.720589276525
 20
1388.494269174465
 30
0.0
 11
3238.389042800336
 21
1393.494286728144
 31
0.0
  0
LINE
  5
18C83
330
18C7A
100
AcDbEntity
  8
細線
100
AcDbLine
 10
3238.389042800336
 20
1393.494286728144
 30
0.0
 11
3173.052119381862
 21
1393.494286728133
 31
0.0
  0
LINE
  5
18C84
330
18C7A
100
AcDbEntity
  8
細線
100
AcDbLine
 10
3098.389042800336
 20
1393.494286728144
 30
0.0
 11
3033.052119381862
 21
1393.494286728133
 31
0.0
  0
LINE
  5
18C85
330
18C7A
100
AcDbEntity
  8
細線
100
AcDbLine
 10
3100.720589276523
 20
1388.494269174465
 30
0.0
 11
3098.389042800336
 21
1393.494286728144
 31
0.0
  0
LINE
  5
18C86
330
18C7A
100
AcDbEntity
  8
細線
100
AcDbLine
 10
3030.720579860066
 20
1388.494284088199
 30
0.0
 11
3033.052119381875
 21
1393.494286728162
 31
0.0
  0
LINE
  5
18C87
330
18C7A
100
AcDbEntity
  8
細線
100
AcDbLine
 10
2890.720589276525
 20
1388.494269174465
 30
0.0
 11
2893.052128798336
 21
1393.494271814428
 31
0.0
  0
LINE
  5
18C88
330
18C7A
100
AcDbEntity
  8
細線
100
AcDbLine
 10
2960.720598692984
 20
1388.494254260731
 30
0.0
 11
2958.389052216793
 21
1393.49427181441
 31
0.0
  0
LINE
  5
18C89
330
18C7A
100
AcDbEntity
  8
細線
100
AcDbLine
 10
2958.389052216795
 20
1393.49427181441
 30
0.0
 11
2893.052128798321
 21
1393.494271814399
 31
0.0
  0
LINE
  5
18C8A
330
18C7A
100
AcDbEntity
  8
細線
100
AcDbLine
 10
2667.139038146739
 20
1359.494298590735
 30
0.0
 11
2601.802114728263
 21
1359.494298590724
 31
0.0
  0
LINE
  5
18C8B
330
18C7A
100
AcDbEntity
  8
細線
100
AcDbLine
 10
2669.470584622926
 20
1354.494281037055
 30
0.0
 11
2667.139038146737
 21
1359.494298590735
 31
0.0
  0
LINE
  5
18C8C
330
18C7A
100
AcDbEntity
  8
細線
100
AcDbLine
 10
2599.470575206469
 20
1354.49429595079
 30
0.0
 11
2601.802114728278
 21
1359.494298590752
 31
0.0
  0
LINE
  5
18C8D
330
18C7A
100
AcDbEntity
  8
細線
 48
50.0
100
AcDbLine
 10
2440.853968524536
 20
1372.765132327548
 30
0.0
 11
2446.609486107205
 21
1354.494281037057
 31
0.0
  0
LINE
  5
18C8E
330
18C7A
100
AcDbEntity
  8
細線
 48
50.0
100
AcDbLine
 10
2429.925520044106
 20
1372.765132327546
 30
0.0
 11
2440.853968524536
 21
1372.765132327548
 31
0.0
  0
ARC
  5
18C8F
330
18C7A
100
AcDbEntity
  8
細線
 48
50.0
100
AcDbCircle
 10
2424.471163986787
 20
1374.265132327546
 30
0.0
 40
5.0
100
AcDbArc
 50
204.6243183520723
 51
335.3756816479278
  0
ARC
  5
18C90
330
18C7A
100
AcDbEntity
  8
細線
 48
50.0
100
AcDbCircle
 10
2429.925520044106
 20
1371.765132327546
 30
0.0
 40
1.0
100
AcDbArc
 50
90.0
 51
155.3756816479277
  0
ARC
  5
18C91
330
18C7A
100
AcDbEntity
  8
細線
 48
50.0
100
AcDbCircle
 10
2419.016807929469
 20
1371.765132327546
 30
0.0
 40
1.0
100
AcDbArc
 50
24.62431835207225
 51
90.0
  0
LINE
  5
18C92
330
18C7A
100
AcDbEntity
  8
細線
 48
50.0
100
AcDbLine
 10
2408.088359449037
 20
1372.765132327548
 30
0.0
 11
2419.016807929469
 21
1372.765132327546
 31
0.0
  0
LINE
  5
18C93
330
18C7A
100
AcDbEntity
  8
細線
 48
50.0
100
AcDbLine
 10
2402.33284186637
 20
1354.494281037054
 30
0.0
 11
2408.088359449037
 21
1372.765132327548
 31
0.0
  0
LINE
  5
18C94
330
18C7A
100
AcDbEntity
  8
細線
100
AcDbLine
 10
2458.070304175992
 20
1354.494278397076
 30
0.0
 11
2460.401843697802
 21
1359.494281037039
 31
0.0
  0
LINE
  5
18C95
330
18C7A
100
AcDbEntity
  8
細線
100
AcDbLine
 10
2528.070313592451
 20
1354.494263483342
 30
0.0
 11
2525.738767116262
 21
1359.494281037021
 31
0.0
  0
LINE
  5
18C96
330
18C7A
100
AcDbEntity
  8
細線
100
AcDbLine
 10
2525.738767116262
 20
1359.494281037021
 30
0.0
 11
2460.40184369779
 21
1359.49428103701
 31
0.0
  0
LINE
  5
18C97
330
18C7A
100
AcDbEntity
  8
細線
100
AcDbLine
 10
2387.139046332155
 20
1359.494281037021
 30
0.0
 11
2321.80212291368
 21
1359.49428103701
 31
0.0
  0
LINE
  5
18C98
330
18C7A
100
AcDbEntity
  8
細線
100
AcDbLine
 10
2389.470592808342
 20
1354.494263483342
 30
0.0
 11
2387.139046332153
 21
1359.494281037021
 31
0.0
  0
LINE
  5
18C99
330
18C7A
100
AcDbEntity
  8
細線
100
AcDbLine
 10
2319.470584622926
 20
1354.494281037054
 30
0.0
 11
2321.802122913694
 21
1359.494281037039
 31
0.0
  0
LINE
  5
18C9A
330
18C7A
100
AcDbEntity
  8
細線
100
AcDbLine
 10
2179.47061994182
 20
1354.494289224422
 30
0.0
 11
2181.802158232587
 21
1359.494289224407
 31
0.0
  0
LINE
  5
18C9B
330
18C7A
100
AcDbEntity
  8
細線
100
AcDbLine
 10
2249.470628127236
 20
1354.49427167071
 30
0.0
 11
2247.139081651047
 21
1359.494289224389
 31
0.0
  0
LINE
  5
18C9C
330
18C7A
100
AcDbEntity
  8
細線
100
AcDbLine
 10
2247.139081651047
 20
1359.494289224389
 30
0.0
 11
2181.802158232573
 21
1359.494289224378
 31
0.0
  0
LINE
  5
18C9D
330
18C7A
100
AcDbEntity
  8
細線
100
AcDbLine
 10
1807.970585744697
 20
1320.494460905133
 30
0.0
 11
1810.302124035464
 21
1325.494460905118
 31
0.0
  0
LINE
  5
18C9E
330
18C7A
100
AcDbEntity
  8
細線
100
AcDbLine
 10
1877.970593930113
 20
1320.494443351421
 30
0.0
 11
1875.639047453926
 21
1325.4944609051
 31
0.0
  0
LINE
  5
18C9F
330
18C7A
100
AcDbEntity
  8
細線
100
AcDbLine
 10
1875.639047453926
 20
1325.4944609051
 30
0.0
 11
1810.302124035452
 21
1325.494460905089
 31
0.0
  0
LINE
  5
18CA0
330
18C7A
100
AcDbEntity
  8
細線
100
AcDbLine
 10
2015.639047453926
 20
1325.4944609051
 30
0.0
 11
1950.302124035452
 21
1325.494460905089
 31
0.0
  0
LINE
  5
18CA1
330
18C7A
100
AcDbEntity
  8
細線
100
AcDbLine
 10
2017.970593930113
 20
1320.494443351421
 30
0.0
 11
2015.639047453924
 21
1325.4944609051
 31
0.0
  0
LINE
  5
18CA2
330
18C7A
100
AcDbEntity
  8
細線
100
AcDbLine
 10
1947.970585744697
 20
1320.494460905133
 30
0.0
 11
1950.302124035465
 21
1325.494460905118
 31
0.0
  0
LINE
  5
18CA3
330
18C7A
100
AcDbEntity
  8
細線
100
AcDbLine
 10
1735.639047453926
 20
1325.494460905098
 30
0.0
 11
1670.302124035454
 21
1325.494460905087
 31
0.0
  0
LINE
  5
18CA4
330
18C7A
100
AcDbEntity
  8
細線
100
AcDbLine
 10
1737.970593930113
 20
1320.494443351419
 30
0.0
 11
1735.639047453926
 21
1325.494460905098
 31
0.0
  0
LINE
  5
18CA5
330
18C7A
100
AcDbEntity
  8
細線
100
AcDbLine
 10
1667.970585744697
 20
1320.494460905131
 30
0.0
 11
1670.302124035465
 21
1325.494460905116
 31
0.0
  0
LINE
  5
18CA6
330
18C7A
100
AcDbEntity
  8
細線
100
AcDbLine
 10
1527.970593930113
 20
1320.494460905133
 30
0.0
 11
1530.302132220881
 21
1325.494460905118
 31
0.0
  0
LINE
  5
18CA7
330
18C7A
100
AcDbEntity
  8
細線
100
AcDbLine
 10
1597.970602115529
 20
1320.494443351421
 30
0.0
 11
1595.639055639342
 21
1325.4944609051
 31
0.0
  0
LINE
  5
18CA8
330
18C7A
100
AcDbEntity
  8
細線
100
AcDbLine
 10
1595.639055639342
 20
1325.4944609051
 30
0.0
 11
1530.302132220869
 21
1325.494460905089
 31
0.0
  0
ARC
  5
18CA9
330
18C7A
100
AcDbEntity
  8
部品1
 48
0.01
100
AcDbCircle
 10
1483.470482677778
 20
1319.493338720063
 30
0.0
 40
0.5
100
AcDbArc
 50
270.0
 51
0.0
  0
LINE
  5
18CAA
330
18C7A
100
AcDbEntity
  8
部品1
 48
0.01
100
AcDbLine
 10
1483.970482677778
 20
1320.493338720063
 30
0.0
 11
1483.970482677778
 21
1319.493338720063
 31
0.0
  0
LINE
  5
18CAB
330
18C7A
100
AcDbEntity
  8
部品1
 48
0.01
100
AcDbLine
 10
1483.970482677778
 20
1320.493338720063
 30
0.0
 11
1483.970482677778
 21
1319.493338720063
 31
0.0
  0
LINE
  5
18CAC
330
18C7A
100
AcDbEntity
  8
部品1
 48
0.01
100
AcDbLine
 10
1483.470482677778
 20
1318.993338720063
 30
0.0
 11
1476.857977247713
 21
1318.993338720062
 31
0.0
  0
ARC
  5
18CAD
330
18C7A
100
AcDbEntity
  8
部品1
100
AcDbCircle
 10
1476.926326800494
 20
1319.993338720062
 30
0.0
 40
1.0
100
AcDbArc
 50
160.5287793655865
 51
270.0
  0
ARC
  5
18CAE
330
18C7A
100
AcDbEntity
  8
部品1
100
AcDbCircle
 10
1451.470482677778
 20
1328.993338720062
 30
0.0
 40
26.0
100
AcDbArc
 50
340.5287793655865
 51
0.0
  0
LINE
  5
18CAF
330
18C7A
100
AcDbEntity
  8
部品1
100
AcDbLine
 10
1477.470482677778
 20
1328.993338720062
 30
0.0
 11
1477.470482677778
 21
1333.993338720061
 31
0.0
  0
ARC
  5
18CB0
330
18C7A
100
AcDbEntity
  8
部品1
 48
0.01
100
AcDbCircle
 10
1475.470482677778
 20
1333.993338720061
 30
0.0
 40
2.0
100
AcDbArc
 50
0.0
 51
90.0
  0
ARC
  5
18CB1
330
18C7A
100
AcDbEntity
  8
部品1
100
AcDbCircle
 10
1473.862091052968
 20
1332.993338720062
 30
0.0
 40
3.0
100
AcDbArc
 50
90.0
 51
141.6069559808035
  0
LINE
  5
18CB2
330
18C7A
100
AcDbEntity
  8
部品1
 48
0.01
100
AcDbLine
 10
1475.470482677778
 20
1335.993338720062
 30
0.0
 11
1473.862091052968
 21
1335.993338720062
 31
0.0
  0
ARC
  5
18CB3
330
18C7A
100
AcDbEntity
  8
部品1
100
AcDbCircle
 10
1455.399768463507
 20
1332.293338720065
 30
0.0
 40
3.0
100
AcDbArc
 50
254.0576313943215
 51
270.0
  0
ARC
  5
18CB4
330
18C7A
100
AcDbEntity
  8
部品1
100
AcDbCircle
 10
1462.541196892049
 20
1332.293338720065
 30
0.0
 40
3.0
100
AcDbArc
 50
270.0
 51
285.9423686056786
  0
LINE
  5
18CB5
330
18C7A
100
AcDbEntity
  8
部品1
100
AcDbLine
 10
1462.541196892049
 20
1329.293338720064
 30
0.0
 11
1455.399768463507
 21
1329.293338720064
 31
0.0
  0
ARC
  5
18CB6
330
18C7A
100
AcDbEntity
  8
部品1
100
AcDbCircle
 10
1458.970482677778
 20
1344.793338720065
 30
0.0
 40
16.0
100
AcDbArc
 50
285.9423686056786
 51
321.6069559808035
  0
LINE
  5
18CB7
330
18C7A
100
AcDbEntity
  8
部品1
 48
0.01
100
AcDbLine
 10
1442.470482677778
 20
1335.993338720062
 30
0.0
 11
1444.078874302588
 21
1335.993338720062
 31
0.0
  0
ARC
  5
18CB8
330
18C7A
100
AcDbEntity
  8
部品1
100
AcDbCircle
 10
1444.078874302588
 20
1332.993338720062
 30
0.0
 40
3.0
100
AcDbArc
 50
38.39304401919648
 51
90.0
  0
ARC
  5
18CB9
330
18C7A
100
AcDbEntity
  8
部品1
100
AcDbCircle
 10
1458.970482677778
 20
1344.793338720065
 30
0.0
 40
16.0
100
AcDbArc
 50
218.3930440191965
 51
254.0576313943215
  0
LINE
  5
18CBA
330
18C7A
100
AcDbEntity
  8
部品1
100
AcDbLine
 10
1440.470482677778
 20
1328.993338720062
 30
0.0
 11
1440.470482677778
 21
1333.993338720061
 31
0.0
  0
ARC
  5
18CBB
330
18C7A
100
AcDbEntity
  8
部品1
 48
0.01
100
AcDbCircle
 10
1442.470482677778
 20
1333.993338720061
 30
0.0
 40
2.0
100
AcDbArc
 50
90.0
 51
180.0
  0
ARC
  5
18CBC
330
18C7A
100
AcDbEntity
  8
部品1
100
AcDbCircle
 10
1466.470482677778
 20
1328.993338720062
 30
0.0
 40
26.0
100
AcDbArc
 50
180.0
 51
199.4712206344134
  0
ARC
  5
18CBD
330
18C7A
100
AcDbEntity
  8
部品1
 48
0.01
100
AcDbCircle
 10
1434.470482677778
 20
1319.493338720063
 30
0.0
 40
0.5
100
AcDbArc
 50
180.0
 51
270.0
  0
LINE
  5
18CBE
330
18C7A
100
AcDbEntity
  8
部品1
 48
0.01
100
AcDbLine
 10
1434.470482677778
 20
1318.993338720063
 30
0.0
 11
1441.014638555061
 21
1318.993338720062
 31
0.0
  0
LINE
  5
18CBF
330
18C7A
100
AcDbEntity
  8
部品1
 48
0.01
100
AcDbLine
 10
1433.970482677778
 20
1320.493338720063
 30
0.0
 11
1433.970482677778
 21
1319.493338720063
 31
0.0
  0
ARC
  5
18CC0
330
18C7A
100
AcDbEntity
  8
部品1
100
AcDbCircle
 10
1441.014638555061
 20
1319.993338720062
 30
0.0
 40
1.0
100
AcDbArc
 50
270.0
 51
19.47122063441346
  0
LINE
  5
18CC1
330
18C7A
100
AcDbEntity
  8
細線
100
AcDbLine
 10
1479.470482677785
 20
1338.493338720065
 30
0.0
 11
1438.470482677785
 21
1338.493338720058
 31
0.0
  0
LINE
  5
18CC2
330
18C7A
100
AcDbEntity
  8
細線
100
AcDbLine
 10
1438.470482677785
 20
1338.493338720058
 30
0.0
 11
1438.470482677785
 21
1320.49333872004
 31
0.0
  0
LINE
  5
18CC3
330
18C7A
100
AcDbEntity
  8
細線
100
AcDbLine
 10
1479.470482677785
 20
1338.493338720065
 30
0.0
 11
1479.470482677785
 21
1320.49333872004
 31
0.0
  0
LINE
  5
18CC4
330
18C7A
100
AcDbEntity
  8
細線
100
AcDbLine
 10
1322.970589276523
 20
1324.494269174465
 30
0.0
 11
1322.970589276523
 21
1320.494269174513
 31
0.0
  0
LINE
  5
18CC5
330
18C7A
100
AcDbEntity
  8
寸法
 48
50.0
100
AcDbLine
 10
1746.17359555837
 20
1170.531020743327
 30
0.0
 11
1694.767587648266
 21
1170.531020743327
 31
0.0
  0
LINE
  5
18CC6
330
18C7A
100
AcDbEntity
  8
寸法
 48
50.0
100
AcDbLine
 10
1694.767587648266
 20
1170.531020743327
 30
0.0
 11
1694.767587648266
 21
1201.841179395494
 31
0.0
  0
LINE
  5
18CC7
330
18C7A
100
AcDbEntity
  8
寸法
 48
50.0
100
AcDbLine
 10
1694.767587648266
 20
1201.841179395494
 30
0.0
 11
1665.006255656843
 21
1201.841179395494
 31
0.0
  0
LINE
  5
18CC8
330
18C7A
100
AcDbEntity
  8
寸法
 48
50.0
100
AcDbLine
 10
1665.006255656843
 20
1201.841179395494
 30
0.0
 11
1720.470591603318
 21
1239.420630324105
 31
0.0
  0
LINE
  5
18CC9
330
18C7A
100
AcDbEntity
  8
寸法
 48
50.0
100
AcDbLine
 10
1775.934927549793
 20
1201.841179395494
 30
0.0
 11
1720.470591603318
 21
1239.420630324105
 31
0.0
  0
LINE
  5
18CCA
330
18C7A
100
AcDbEntity
  8
寸法
 48
50.0
100
AcDbLine
 10
1746.17359555837
 20
1201.841179395494
 30
0.0
 11
1775.934927549793
 21
1201.841179395494
 31
0.0
  0
LINE
  5
18CCB
330
18C7A
100
AcDbEntity
  8
寸法
 48
50.0
100
AcDbLine
 10
1746.17359555837
 20
1170.531020743327
 30
0.0
 11
1746.17359555837
 21
1201.841179395494
 31
0.0
  0
LINE
  5
18CCC
330
18C7A
100
AcDbEntity
  8
寸法
 48
50.0
100
AcDbLine
 10
1694.767587648266
 20
1170.531020743327
 30
0.0
 11
1746.17359555837
 21
1170.531020743327
 31
0.0
  0
LINE
  5
18CCD
330
18C7A
100
AcDbEntity
  8
寸法
 48
50.0
100
AcDbLine
 10
2025.339129835225
 20
1227.676611498152
 30
0.0
 11
2025.339129835225
 21
1174.01297691636
 31
0.0
  0
LINE
  5
18CCE
330
18C7A
100
AcDbEntity
  8
寸法
 48
50.0
100
AcDbLine
 10
2114.623348430647
 20
1203.752977228664
 30
0.0
 11
2025.339129835225
 21
1227.676611498152
 31
0.0
  0
LINE
  5
18CCF
330
18C7A
100
AcDbEntity
  8
寸法
 48
50.0
100
AcDbLine
 10
1895.471408254923
 20
1203.752977228664
 30
0.0
 11
2114.623348430647
 21
1203.752977228664
 31
0.0
  0
DIMENSION
  5
18CD0
330
18C7A
100
AcDbEntity
  8
寸法
 48
50.0
100
AcDbDimension
  2
*D15
 10
2588.970589276523
 20
706.3240511224249
 30
0.0
 11
1969.060022905491
 21
706.3240511224249
 31
0.0
 12
-3742.925985830444
 22
-6453.628869860112
 32
0.0
 70
   128
  1
有効開口部間口\P<>
 71
     5
 42
1266.0
  3
INABA_S40G
100
AcDbAlignedDimension
 13
1322.970589276523
 23
1315.494269174465
 33
0.0
 14
2588.970589276523
 24
1315.494269174465
 34
0.0
100
AcDbRotatedDimension
1001
ACAD
1000
DSTYLE
1002
{
1070
   341
1005
0
1002
}
  0
LINE
  5
18CD1
330
18C7A
100
AcDbEntity
  8
部品1
100
AcDbLine
 10
3409.970589276524
 20
1392.494269174465
 30
0.0
 11
3437.970589276523
 21
1392.494269174465
 31
0.0
  0
DIMENSION
  5
18CD2
330
18C7A
100
AcDbEntity
  8
寸法
100
AcDbDimension
  2
*D16
 10
3674.266172669749
 20
1315.494269174465
 30
0.0
 11
3674.266172669748
 21
1177.494269174462
 31
0.0
 12
-3742.925985830444
 22
-6453.628869860112
 32
0.0
 70
   128
 71
     5
 42
77.0
  3
INABA_S40
100
AcDbAlignedDimension
 13
3437.970589276523
 23
1392.494269174465
 33
0.0
 14
3436.970589276523
 24
1315.494269174465
 34
0.0
 50
90.0
100
AcDbRotatedDimension
1001
ACAD
1000
DSTYLE
1002
{
1070
    41
1040
0.5
1070
    44
1040
1.0
1070
   147
1040
0.8
1070
   271
1070
     2
1070
   272
1070
     2
1070
   289
1070
     3
1070
   340
1005
F706
1070
   343
1005
164B4
1070
   344
1005
164B4
1002
}
  0
LINE
  5
18CD3
330
18C7A
100
AcDbEntity
  8
部品1
100
AcDbLine
 10
3437.970589276523
 20
1315.494269174465
 30
0.0
 11
3437.970589276523
 21
1392.494269174465
 31
0.0
  0
LINE
  5
18CD4
330
18C7A
100
AcDbEntity
  8
部品1
100
AcDbLine
 10
3398.970589276523
 20
1388.494269174465
 30
0.0
 11
3409.970589276524
 21
1388.494269174465
 31
0.0
  0
LINE
  5
18CD5
330
18C7A
100
AcDbEntity
  8
部品1
100
AcDbLine
 10
3407.970589276523
 20
1324.494269174465
 30
0.0
 11
3407.970589276523
 21
1315.494269174465
 31
0.0
  0
LINE
  5
18CD6
330
18C7A
100
AcDbEntity
  8
部品1
100
AcDbLine
 10
3398.970589276523
 20
1324.494269174465
 30
0.0
 11
3407.970589276523
 21
1324.494269174465
 31
0.0
  0
LINE
  5
18CD7
330
18C7A
100
AcDbEntity
  8
部品1
100
AcDbLine
 10
3398.970589276523
 20
1388.494269174465
 30
0.0
 11
3398.970589276523
 21
1324.494269174465
 31
0.0
  0
LINE
  5
18CD8
330
18C7A
100
AcDbEntity
  8
部品1
100
AcDbLine
 10
3409.970589276524
 20
1419.494269174465
 30
0.0
 11
3409.970589276524
 21
1388.494269174465
 31
0.0
  0
LINE
  5
18CD9
330
18C7A
100
AcDbEntity
  8
部品1
100
AcDbLine
 10
1322.970589276523
 20
1388.494269174465
 30
0.0
 11
1311.970589276523
 21
1388.494269174465
 31
0.0
  0
LINE
  5
18CDA
330
18C7A
100
AcDbEntity
  8
部品1
100
AcDbLine
 10
1283.970589276523
 20
1392.494269174465
 30
0.0
 11
1311.970589276523
 21
1392.494269174465
 31
0.0
  0
LINE
  5
18CDB
330
18C7A
100
AcDbEntity
  8
部品1
100
AcDbLine
 10
1313.970589276523
 20
1324.494269174465
 30
0.0
 11
1313.970589276523
 21
1315.494269174465
 31
0.0
  0
LINE
  5
18CDC
330
18C7A
100
AcDbEntity
  8
部品1
100
AcDbLine
 10
1322.970589276523
 20
1324.494269174465
 30
0.0
 11
1313.970589276523
 21
1324.494269174465
 31
0.0
  0
LINE
  5
18CDD
330
18C7A
100
AcDbEntity
  8
部品1
100
AcDbLine
 10
1313.970589276523
 20
1315.494269174465
 30
0.0
 11
1283.970589276523
 21
1315.494269174465
 31
0.0
  0
LINE
  5
18CDE
330
18C7A
100
AcDbEntity
  8
部品1
100
AcDbLine
 10
1283.970589276523
 20
1315.494269174465
 30
0.0
 11
1283.970589276523
 21
1392.494269174465
 31
0.0
  0
LINE
  5
18CDF
330
18C7A
100
AcDbEntity
  8
部品1
100
AcDbLine
 10
1322.970589276523
 20
1388.494269174465
 30
0.0
 11
1322.970589276523
 21
1324.494269174465
 31
0.0
  0
LINE
  5
18CE0
330
18C7A
100
AcDbEntity
  8
部品1
100
AcDbLine
 10
1311.970589276523
 20
1419.494269174462
 30
0.0
 11
1311.970589276523
 21
1388.494269174465
 31
0.0
  0
LINE
  5
18CE1
330
18C7A
100
AcDbEntity
  8
部品1
100
AcDbLine
 10
1311.970589276523
 20
1419.494269174462
 30
0.0
 11
3409.970589276524
 21
1419.494269174465
 31
0.0
  0
LINE
  5
18CE2
330
18C7A
100
AcDbEntity
  8
部品1
100
AcDbLine
 10
3407.970589276523
 20
1315.494269174465
 30
0.0
 11
3437.970589276523
 21
1315.494269174465
 31
0.0
  0
LINE
  5
18CE3
330
18C7A
100
AcDbEntity
  8
部品1
100
AcDbLine
 10
1313.970589276523
 20
1315.494269174465
 30
0.0
 11
3410.970589276523
 21
1315.494269174465
 31
0.0
  0
LINE
  5
18CE4
330
18C7A
100
AcDbEntity
  8
細線
  6
Continuous
 62
     5
100
AcDbLine
 10
2689.970589276527
 20
1354.494269174462
 30
0.0
 11
2689.970589276527
 21
1354.494269174462
 31
0.0
  0
LINE
  5
18CE5
330
18C7A
100
AcDbEntity
  8
細線
  6
Continuous
 62
     5
100
AcDbLine
 10
2682.470589276527
 20
1354.494269174462
 30
0.0
 11
2682.470589276527
 21
1354.494269174462
 31
0.0
  0
LINE
  5
18CE6
330
18C7A
100
AcDbEntity
  8
細線
  6
Continuous
 62
     5
100
AcDbLine
 10
2676.470589276527
 20
1354.494269174462
 30
0.0
 11
2676.470589276527
 21
1354.494269174462
 31
0.0
  0
LINE
  5
18CE7
330
18C7A
100
AcDbEntity
  8
細線
  6
Continuous
 62
     5
100
AcDbLine
 10
2743.970589276527
 20
1373.494269174462
 30
0.0
 11
2743.970589276527
 21
1373.494269174462
 31
0.0
  0
LINE
  5
18CE8
330
18C7A
100
AcDbEntity
  8
細線
 48
50.0
100
AcDbLine
 10
1336.970593930116
 20
1341.094443351418
 30
0.0
 11
1336.970593930113
 21
1349.490593759059
 31
0.0
  0
LINE
  5
18CE9
330
18C7A
100
AcDbEntity
  8
細線
 48
50.0
100
AcDbLine
 10
1336.970593930113
 20
1349.490593759059
 30
0.0
 11
1322.970589276523
 21
1349.490593759057
 31
0.0
  0
LINE
  5
18CEA
330
18C7A
100
AcDbEntity
  8
細線
 48
50.0
100
AcDbLine
 10
2087.970593930113
 20
1337.644443351419
 30
0.0
 11
2087.970593930113
 21
1342.494443351421
 31
0.0
  0
LINE
  5
18CEB
330
18C7A
100
AcDbEntity
  8
細線
 48
50.0
100
AcDbLine
 10
2087.970593930113
 20
1342.494443351421
 30
0.0
 11
2102.970593930113
 21
1342.494443351421
 31
0.0
  0
LINE
  5
18CEC
330
18C7A
100
AcDbEntity
  8
細線
 48
50.0
100
AcDbLine
 10
2102.970593930113
 20
1342.494443351421
 30
0.0
 11
2102.970593930115
 21
1349.494443351419
 31
0.0
  0
LINE
  5
18CED
330
18C7A
100
AcDbEntity
  8
細線
 48
50.0
100
AcDbLine
 10
2102.970593930115
 20
1349.494443351419
 30
0.0
 11
2117.970593930113
 21
1349.494443351419
 31
0.0
  0
LINE
  5
18CEE
330
18C7A
100
AcDbEntity
  8
細線
 48
50.0
100
AcDbLine
 10
2117.970593930113
 20
1349.494443351419
 30
0.0
 11
2117.970593930113
 21
1320.494443351421
 31
0.0
  0
LINE
  5
18CEF
330
18C7A
100
AcDbEntity
  8
細線
 48
50.0
100
AcDbLine
 10
1313.970589276523
 20
1320.491777694889
 30
0.0
 11
1527.970593930113
 21
1320.494460905133
 31
0.0
  0
LINE
  5
18CF0
330
18C7A
100
AcDbEntity
  8
細線
 48
50.0
100
AcDbLine
 10
2017.970593930113
 20
1320.494443351421
 30
0.0
 11
2117.970593930113
 21
1320.494443351421
 31
0.0
  0
LINE
  5
18CF1
330
18C7A
100
AcDbEntity
  8
細線
 48
50.0
100
AcDbLine
 10
1737.970593930113
 20
1320.494443351419
 30
0.0
 11
1807.970593930113
 21
1320.494443351423
 31
0.0
  0
LINE
  5
18CF2
330
18C7A
100
AcDbEntity
  8
細線
 48
50.0
100
AcDbLine
 10
1750.832558942642
 20
1320.494443351419
 30
0.0
 11
1756.588076525309
 21
1338.765294641913
 31
0.0
  0
LINE
  5
18CF3
330
18C7A
100
AcDbEntity
  8
細線
 48
50.0
100
AcDbLine
 10
1756.588076525309
 20
1338.765294641913
 30
0.0
 11
1767.516525005743
 21
1338.765294641911
 31
0.0
  0
ARC
  5
18CF4
330
18C7A
100
AcDbEntity
  8
細線
 48
50.0
100
AcDbCircle
 10
1767.516525005743
 20
1337.765294641911
 30
0.0
 40
1.0
100
AcDbArc
 50
24.62431835207225
 51
90.0
  0
ARC
  5
18CF5
330
18C7A
100
AcDbEntity
  8
細線
 48
50.0
100
AcDbCircle
 10
1778.425237120377
 20
1337.765294641911
 30
0.0
 40
1.0
100
AcDbArc
 50
90.0
 51
155.3756816479277
  0
ARC
  5
18CF6
330
18C7A
100
AcDbEntity
  8
細線
 48
50.0
100
AcDbCircle
 10
1772.970881063058
 20
1340.265294641911
 30
0.0
 40
5.0
100
AcDbArc
 50
204.6243183520723
 51
335.3756816479278
  0
LINE
  5
18CF7
330
18C7A
100
AcDbEntity
  8
細線
 48
50.0
100
AcDbLine
 10
1778.425237120377
 20
1338.765294641911
 30
0.0
 11
1789.35368560081
 21
1338.765294641913
 31
0.0
  0
LINE
  5
18CF8
330
18C7A
100
AcDbEntity
  8
細線
 48
50.0
100
AcDbLine
 10
1789.35368560081
 20
1338.765294641913
 30
0.0
 11
1795.109203183478
 21
1320.494443351423
 31
0.0
  0
LINE
  5
18CF9
330
18C7A
100
AcDbEntity
  8
細線
 48
50.0
100
AcDbLine
 10
2087.970593930113
 20
1341.094443351419
 30
0.0
 11
1336.970593930116
 21
1341.094443351418
 31
0.0
  0
LINE
  5
18CFA
330
18C7A
100
AcDbEntity
  8
細線
 48
50.0
100
AcDbLine
 10
1947.970593930113
 20
1320.494443351421
 30
0.0
 11
1877.970593930113
 21
1320.494443351421
 31
0.0
  0
LINE
  5
18CFB
330
18C7A
100
AcDbEntity
  8
細線
100
AcDbLine
 10
1667.970593930113
 20
1320.494443351421
 30
0.0
 11
1597.970602115529
 21
1320.494443351421
 31
0.0
  0
LINE
  5
18CFC
330
18C7A
100
AcDbEntity
  8
細線
 48
50.0
100
AcDbLine
 10
2741.970584622936
 20
1375.094487209288
 30
0.0
 11
2106.970593930113
 21
1375.094487209284
 31
0.0
  0
LINE
  5
18CFD
330
18C7A
100
AcDbEntity
  8
細線
 48
50.0
100
AcDbLine
 10
2106.970593930113
 20
1371.990637616925
 30
0.0
 11
2106.970593930113
 21
1376.490637616925
 31
0.0
  0
LINE
  5
18CFE
330
18C7A
100
AcDbEntity
  8
細線
 48
50.0
100
AcDbLine
 10
2106.970593930113
 20
1376.490637616925
 30
0.0
 11
2091.970593930113
 21
1376.490637616925
 31
0.0
  0
LINE
  5
18CFF
330
18C7A
100
AcDbEntity
  8
細線
 48
50.0
100
AcDbLine
 10
2091.970593930113
 20
1376.490637616925
 30
0.0
 11
2091.970593930113
 21
1383.490637616927
 31
0.0
  0
LINE
  5
18D00
330
18C7A
100
AcDbEntity
  8
細線
 48
50.0
100
AcDbLine
 10
2091.970593930113
 20
1383.490637616927
 30
0.0
 11
2076.970593930115
 21
1383.490637616924
 31
0.0
  0
LINE
  5
18D01
330
18C7A
100
AcDbEntity
  8
細線
 48
50.0
100
AcDbLine
 10
2076.970593930115
 20
1383.490637616924
 30
0.0
 11
2076.970593930115
 21
1345.890409513813
 31
0.0
  0
LINE
  5
18D02
330
18C7A
100
AcDbEntity
  8
細線
 48
50.0
100
AcDbLine
 10
2076.970593930115
 20
1345.890409513813
 30
0.0
 11
2096.970601231289
 21
1345.890451063353
 31
0.0
  0
LINE
  5
18D03
330
18C7A
100
AcDbEntity
  8
細線
 48
50.0
100
AcDbLine
 10
2096.970556362348
 20
1354.493912699161
 30
0.0
 11
2096.970601231289
 21
1345.890451063353
 31
0.0
  0
LINE
  5
18D04
330
18C7A
100
AcDbEntity
  8
細線
 48
50.0
100
AcDbLine
 10
2741.970584622936
 20
1371.644487209287
 30
0.0
 11
2741.970584622936
 21
1376.494487209284
 31
0.0
  0
LINE
  5
18D05
330
18C7A
100
AcDbEntity
  8
細線
 48
50.0
100
AcDbLine
 10
2741.970584622936
 20
1376.494487209284
 30
0.0
 11
2756.970584622934
 21
1376.494487209285
 31
0.0
  0
LINE
  5
18D06
330
18C7A
100
AcDbEntity
  8
細線
 48
50.0
100
AcDbLine
 10
2756.970584622934
 20
1376.494487209285
 30
0.0
 11
2756.970596256909
 21
1383.494487209331
 31
0.0
  0
LINE
  5
18D07
330
18C7A
100
AcDbEntity
  8
細線
 48
50.0
100
AcDbLine
 10
2756.970596256909
 20
1383.494487209331
 30
0.0
 11
2771.970594427439
 21
1383.494487209329
 31
0.0
  0
LINE
  5
18D08
330
18C7A
100
AcDbEntity
  8
細線
 48
50.0
100
AcDbLine
 10
2771.970594427439
 20
1383.494487209329
 30
0.0
 11
2771.970584125617
 21
1354.494281037055
 31
0.0
  0
LINE
  5
18D09
330
18C7A
100
AcDbEntity
  8
細線
 48
50.0
100
AcDbLine
 10
2458.070304175992
 20
1354.494278397076
 30
0.0
 11
2389.470863838818
 21
1354.494283787084
 31
0.0
  0
LINE
  5
18D0A
330
18C7A
100
AcDbEntity
  8
細線
 48
50.0
100
AcDbLine
 10
2096.970556362348
 20
1354.493912699161
 30
0.0
 11
2108.203245717057
 21
1354.494095652309
 31
0.0
  0
ARC
  5
18D0B
330
18C7A
100
AcDbEntity
  8
細線
 48
50.0
100
AcDbCircle
 10
2114.785538024393
 20
1353.294259565922
 30
0.0
 40
1.8
100
AcDbArc
 50
270.0006665777295
 51
345.000555481349
  0
LINE
  5
18D0C
330
18C7A
100
AcDbEntity
  8
細線
 48
50.0
100
AcDbLine
 10
2116.771971470473
 20
1353.753100023201
 30
0.0
 11
2116.524209028273
 21
1352.828402141094
 31
0.0
  0
LINE
  5
18D0D
330
18C7A
100
AcDbEntity
  8
細線
 48
50.0
100
AcDbLine
 10
2114.785558965548
 20
1351.494259566043
 30
0.0
 11
2111.155631546781
 21
1351.494217335563
 31
0.0
  0
ARC
  5
18D0E
330
18C7A
100
AcDbEntity
  8
細線
 48
50.0
100
AcDbCircle
 10
2111.155610605627
 20
1353.29421733544
 30
0.0
 40
1.8
100
AcDbArc
 50
195.0010443049965
 51
270.0006665777295
  0
LINE
  5
18D0F
330
18C7A
100
AcDbEntity
  8
細線
 48
50.0
100
AcDbLine
 10
2109.169183113368
 20
1353.752932303007
 30
0.0
 11
2109.416952609882
 21
1352.828311364425
 31
0.0
  0
ARC
  5
18D10
330
18C7A
100
AcDbEntity
  8
細線
 48
50.0
100
AcDbCircle
 10
2108.203262004622
 20
1353.494095652444
 30
0.0
 40
1.0
100
AcDbArc
 50
15.00104430499651
 51
90.00093320877969
  0
LINE
  5
18D11
330
18C7A
100
AcDbEntity
  8
細線
 48
50.0
100
AcDbLine
 10
2117.737892825577
 20
1354.494290342714
 30
0.0
 11
2118.679652976481
 21
1354.494296916564
 31
0.0
  0
ARC
  5
18D12
330
18C7A
100
AcDbEntity
  8
細線
 48
50.0
100
AcDbCircle
 10
2117.737899805961
 20
1353.49429034274
 30
0.0
 40
1.0
100
AcDbArc
 50
90.0003999466794
 51
165.000555481349
  0
LINE
  5
18D13
330
18C7A
100
AcDbEntity
  8
細線
 48
50.0
100
AcDbLine
 10
2669.470584622926
 20
1354.494281037055
 30
0.0
 11
2771.970584125617
 21
1354.494281037055
 31
0.0
  0
LINE
  5
18D14
330
18C7A
100
AcDbEntity
  8
細線
 48
50.0
100
AcDbLine
 10
2179.47061994182
 20
1354.494289224422
 30
0.0
 11
2118.370558714898
 21
1354.494296916564
 31
0.0
  0
LINE
  5
18D15
330
18C7A
100
AcDbEntity
  8
細線
 48
50.0
100
AcDbLine
 10
2599.470584622926
 20
1354.494281037057
 30
0.0
 11
2529.470584622926
 21
1354.494281037055
 31
0.0
  0
LINE
  5
18D16
330
18C7A
100
AcDbEntity
  8
細線
 48
50.0
100
AcDbLine
 10
2319.470584622926
 20
1354.494281037054
 30
0.0
 11
2249.470567335051
 21
1354.494281037057
 31
0.0
  0
ARC
  5
18D17
330
18C7A
100
AcDbEntity
  8
細線
 48
50.0
100
AcDbCircle
 10
2756.170589276533
 20
1387.694269174466
 30
0.0
 40
0.8
100
AcDbArc
 50
359.9997333689499
 51
89.99986668437072
  0
ARC
  5
18D18
330
18C7A
100
AcDbEntity
  8
細線
 48
50.0
100
AcDbCircle
 10
2763.770596101631
 20
1387.694280343081
 30
0.0
 40
0.8
100
AcDbArc
 50
90.00014387753465
 51
179.9997333689498
  0
LINE
  5
18D19
330
18C7A
100
AcDbEntity
  8
細線
 48
50.0
100
AcDbLine
 10
2756.170591137969
 20
1388.494269174465
 30
0.0
 11
2750.970589276525
 21
1388.494269174465
 31
0.0
  0
ARC
  5
18D1A
330
18C7A
100
AcDbEntity
  8
細線
 48
50.0
100
AcDbCircle
 10
2757.670589276524
 20
1386.194269174464
 30
0.0
 40
0.7
100
AcDbArc
 50
180.0
 51
270.0
  0
ARC
  5
18D1B
330
18C7A
100
AcDbEntity
  8
細線
 48
50.0
100
AcDbCircle
 10
2762.270589276524
 20
1386.194269174464
 30
0.0
 40
0.7
100
AcDbArc
 50
270.0
 51
0.0
  0
LINE
  5
18D1C
330
18C7A
100
AcDbEntity
  8
細線
 48
50.0
100
AcDbLine
 10
2762.970589276525
 20
1386.194269174464
 30
0.0
 11
2762.970596101639
 21
1387.694284065954
 31
0.0
  0
LINE
  5
18D1D
330
18C7A
100
AcDbEntity
  8
細線
 48
50.0
100
AcDbLine
 10
2757.670589276524
 20
1385.494269174465
 30
0.0
 11
2762.270589276524
 21
1385.494269174465
 31
0.0
  0
LINE
  5
18D1E
330
18C7A
100
AcDbEntity
  8
細線
 48
50.0
100
AcDbLine
 10
2756.970589276525
 20
1387.694269174466
 30
0.0
 11
2756.970589276525
 21
1386.194269174464
 31
0.0
  0
LINE
  5
18D1F
330
18C7A
100
AcDbEntity
  8
細線
 48
50.0
100
AcDbLine
 10
3382.570589276527
 20
1418.494269174465
 30
0.0
 11
2745.970589276525
 21
1418.494269174463
 31
0.0
  0
LINE
  5
18D20
330
18C7A
100
AcDbEntity
  8
細線
 48
50.0
100
AcDbLine
 10
3408.470589276525
 20
1413.494269174467
 30
0.0
 11
3392.570589276527
 21
1413.494269174465
 31
0.0
  0
LINE
  5
18D21
330
18C7A
100
AcDbEntity
  8
細線
 48
50.0
100
AcDbLine
 10
3392.570589276526
 20
1413.494269174465
 30
0.0
 11
3382.570589276527
 21
1418.494269174465
 31
0.0
  0
LINE
  5
18D22
330
18C7A
100
AcDbEntity
  8
細線
100
AcDbLine
 10
2993.470589276525
 20
1388.494269174465
 30
0.0
 11
2993.470589276525
 21
1417.794269174464
 31
0.0
  0
LINE
  5
18D23
330
18C7A
100
AcDbEntity
  8
細線
100
AcDbLine
 10
2993.470589276525
 20
1417.794269174464
 30
0.0
 11
3013.470589276525
 21
1417.794269174464
 31
0.0
  0
LINE
  5
18D24
330
18C7A
100
AcDbEntity
  8
細線
100
AcDbLine
 10
3013.470589276525
 20
1388.494269174465
 30
0.0
 11
3013.470589276525
 21
1417.794269174464
 31
0.0
  0
LINE
  5
18D25
330
18C7A
100
AcDbEntity
  8
細線
100
AcDbLine
 10
3170.720589276524
 20
1388.494269174465
 30
0.0
 11
3100.720589276523
 21
1388.494269174465
 31
0.0
  0
LINE
  5
18D26
330
18C7A
100
AcDbEntity
  8
細線
 48
50.0
100
AcDbLine
 10
2890.720589276525
 20
1388.494269174465
 30
0.0
 11
2763.766368849365
 21
1388.494269174465
 31
0.0
  0
LINE
  5
18D27
330
18C7A
100
AcDbEntity
  8
細線
100
AcDbLine
 10
3030.720589276525
 20
1388.494269174465
 30
0.0
 11
2960.720589276525
 21
1388.494269174465
 31
0.0
  0
LINE
  5
18D28
330
18C7A
100
AcDbEntity
  8
細線
 48
50.0
100
AcDbLine
 10
2750.970589276525
 20
1380.494269174465
 30
0.0
 11
2750.970589276525
 21
1388.494269174465
 31
0.0
  0
LINE
  5
18D29
330
18C7A
100
AcDbEntity
  8
細線
 48
50.0
100
AcDbLine
 10
2730.970589276524
 20
1380.494269174467
 30
0.0
 11
2750.970589276525
 21
1380.494269174465
 31
0.0
  0
LINE
  5
18D2A
330
18C7A
100
AcDbEntity
  8
細線
 48
50.0
100
AcDbLine
 10
2745.970589276525
 20
1418.494269174465
 30
0.0
 11
2745.970589276525
 21
1413.494269174465
 31
0.0
  0
LINE
  5
18D2B
330
18C7A
100
AcDbEntity
  8
細線
 48
50.0
100
AcDbLine
 10
2730.970589276525
 20
1418.494269174463
 30
0.0
 11
2745.970589276525
 21
1418.494269174465
 31
0.0
  0
LINE
  5
18D2C
330
18C7A
100
AcDbEntity
  8
細線
 48
50.0
100
AcDbLine
 10
2730.970589276524
 20
1380.494269174467
 30
0.0
 11
2730.970589276525
 21
1418.494269174463
 31
0.0
  0
LINE
  5
18D2D
330
18C7A
100
AcDbEntity
  8
細線
100
AcDbLine
 10
3398.970589276523
 20
1388.494269174465
 30
0.0
 11
3240.720589276525
 21
1388.494269174465
 31
0.0
  0
LINE
  5
18D2E
330
18C7A
100
AcDbEntity
  8
細線
 48
50.0
100
AcDbLine
 10
3408.470589276525
 20
1413.494269174467
 30
0.0
 11
3408.470589276524
 21
1388.494269174465
 31
0.0
  0
TEXT
  5
18D2F
330
18C7A
100
AcDbEntity
  8
部品1
100
AcDbText
 10
1860.154865991392
 20
46.99880823813145
 30
0.0
 40
135.0
  1
平面図
  7
STYLE2
100
AcDbText
  0
LWPOLYLINE
  5
18D30
330
18C7A
100
AcDbEntity
  8
部品1
100
AcDbPolyline
 90
        4
 70
     1
 43
0.0
 10
1770.23525616235
 20
239.8923374566548
 10
1770.23525616235
 20
0.0000159111223184
 10
2533.705922390791
 20
0.0000159111223184
 10
2533.705922390791
 20
239.8923374566548
  0
LINE
  5
18D31
330
18C7A
100
AcDbEntity
  8
部品1
100
AcDbLine
 10
1534.470589276487
 20
3154.494269174626
 30
0.0
 11
2769.470589276552
 21
3154.494269174626
 31
0.0
  0
LINE
  5
18D32
330
18C7A
100
AcDbEntity
  8
部品1
 48
50.0
100
AcDbLine
 10
1311.970589276523
 20
1420.494269174462
 30
0.0
 11
3411.970589276523
 21
1420.494269174465
 31
0.0
  0
LINE
  5
18D33
330
18C7A
100
AcDbEntity
  8
部品1
 48
50.0
100
AcDbLine
 10
471.9705892765232
 20
1392.494269174465
 30
0.0
 11
1311.970589276523
 21
1392.494269174465
 31
0.0
  0
DIMENSION
  5
18D34
330
18C7A
100
AcDbEntity
  8
寸法
100
AcDbDimension
  2
*D14
 10
2710.234916278077
 20
2488.887829538828
 30
0.0
 11
2338.318822490183
 21
2488.887829538828
 31
0.0
 12
-3742.925985830444
 22
-6453.628869860112
 32
0.0
 70
   128
 71
     5
 42
1231.00000000007
  3
INABA_S40G
100
AcDbAlignedDimension
 13
1536.470589276486
 23
2702.494269174557
 33
0.0
 14
2767.470589276556
 24
2702.494269174549
 34
0.0
100
AcDbRotatedDimension
1001
ACAD
1000
DSTYLE
1002
{
1002
}
  0
LINE
  5
18D35
330
18C7A
100
AcDbEntity
  8
部品1
100
AcDbLine
 10
1536.470589276487
 20
2702.494269174557
 30
0.0
 11
2767.470589276554
 21
2702.494269174615
 31
0.0
  0
LINE
  5
18D36
330
18C7A
100
AcDbEntity
  8
部品1
100
AcDbLine
 10
1536.470589276487
 20
3152.494269174557
 30
0.0
 11
2767.470589276556
 21
3152.494269174615
 31
0.0
  0
LINE
  5
18D37
330
18C7A
100
AcDbEntity
  8
細線
 48
50.0
100
AcDbLine
 10
1508.470589276487
 20
3152.494269174558
 30
0.0
 11
445.4705892765559
 21
2702.494269174509
 31
0.0
  0
LINE
  5
18D38
330
18C7A
100
AcDbEntity
  8
細線
 48
50.0
100
AcDbLine
 10
1508.470589276487
 20
2702.494269174558
 30
0.0
 11
445.4705892765542
 21
3152.494269174509
 31
0.0
  0
LINE
  5
18D39
330
18C7A
100
AcDbEntity
  8
部品1
100
AcDbLine
 10
1556.970589276487
 20
3172.494269174611
 30
0.0
 11
1556.970589276487
 21
3154.494269174611
 31
0.0
  0
LINE
  5
18D3A
330
18C7A
100
AcDbEntity
  8
部品1
100
AcDbLine
 10
1556.970589276487
 20
3172.494269174611
 30
0.0
 11
1550.970589276487
 21
3172.494269174611
 31
0.0
  0
LINE
  5
18D3B
330
18C7A
100
AcDbEntity
  8
部品1
100
AcDbLine
 10
1534.470589276487
 20
3146.494269174608
 30
0.0
 11
1509.470589276487
 21
3146.494269174611
 31
0.0
  0
LINE
  5
18D3C
330
18C7A
100
AcDbEntity
  8
部品1
100
AcDbLine
 10
1486.970589276487
 20
3172.494269174611
 30
0.0
 11
1486.970589276487
 21
3154.494269174611
 31
0.0
  0
LINE
  5
18D3D
330
18C7A
100
AcDbEntity
  8
部品1
100
AcDbLine
 10
1492.970589276487
 20
3172.494269174611
 30
0.0
 11
1486.970589276487
 21
3172.494269174611
 31
0.0
  0
LINE
  5
18D3E
330
18C7A
100
AcDbEntity
  8
部品1
100
AcDbLine
 10
1534.470589276487
 20
2702.494269174615
 30
0.0
 11
1509.470589276487
 21
2702.494269174615
 31
0.0
  0
LINE
  5
18D3F
330
18C7A
100
AcDbEntity
  8
部品1
 48
50.0
100
AcDbLine
 10
1536.470589276487
 20
3152.494269174611
 30
0.0
 11
1536.470589276487
 21
2702.494269174615
 31
0.0
  0
LINE
  5
18D40
330
18C7A
100
AcDbEntity
  8
部品1
 48
50.0
100
AcDbLine
 10
1508.470589276487
 20
3152.494269174607
 30
0.0
 11
1508.470589276487
 21
2702.494269174615
 31
0.0
  0
LINE
  5
18D41
330
18C7A
100
AcDbEntity
  8
部品1
 48
50.0
100
AcDbLine
 10
1534.470589276487
 20
3154.494269174618
 30
0.0
 11
1534.470589276487
 21
2702.494269174615
 31
0.0
  0
LINE
  5
18D42
330
18C7A
100
AcDbEntity
  8
部品1
 48
50.0
100
AcDbLine
 10
1509.470589276487
 20
3154.494269174615
 30
0.0
 11
1509.470589276487
 21
2702.494269174615
 31
0.0
  0
LINE
  5
18D43
330
18C7A
100
AcDbEntity
  8
部品1
100
AcDbLine
 10
3411.970589276556
 20
1392.494269174582
 30
0.0
 11
3411.970589276556
 21
1420.494269174596
 31
0.0
  0
LINE
  5
18D44
330
18C7A
100
AcDbEntity
  8
部品1
100
AcDbLine
 10
1311.970589276523
 20
1392.494269174596
 30
0.0
 11
1311.970589276523
 21
1420.494269174596
 31
0.0
  0
LINE
  5
18D45
330
18C7A
100
AcDbEntity
  8
部品1
100
AcDbLine
 10
891.9705892765232
 20
1392.494269174596
 30
0.0
 11
891.9705892765232
 21
1420.494269174596
 31
0.0
  0
LINE
  5
18D46
330
18C7A
100
AcDbEntity
  8
部品1
100
AcDbLine
 10
3411.97058927652
 20
3182.494269174477
 30
0.0
 11
3411.970589276523
 21
3154.494269174477
 31
0.0
  0
LINE
  5
18D47
330
18C7A
100
AcDbEntity
  8
部品1
100
AcDbLine
 10
2571.97058927652
 20
3182.494269174477
 30
0.0
 11
2571.970589276523
 21
3154.494269174477
 31
0.0
  0
LINE
  5
18D48
330
18C7A
100
AcDbEntity
  8
部品1
100
AcDbLine
 10
2991.97058927652
 20
3182.494269174477
 30
0.0
 11
2991.970589276523
 21
3154.494269174477
 31
0.0
  0
LINE
  5
18D49
330
18C7A
100
AcDbEntity
  8
部品1
100
AcDbLine
 10
2151.970589276519
 20
3182.494269174477
 30
0.0
 11
2151.970589276523
 21
3154.494269174477
 31
0.0
  0
LINE
  5
18D4A
330
18C7A
100
AcDbEntity
  8
部品1
100
AcDbLine
 10
1731.970589276519
 20
3182.494269174477
 30
0.0
 11
1731.970589276523
 21
3154.494269174477
 31
0.0
  0
LINE
  5
18D4B
330
18C7A
100
AcDbEntity
  8
部品1
100
AcDbLine
 10
1311.970589276519
 20
3182.494269174477
 30
0.0
 11
1311.970589276523
 21
3154.494269174477
 31
0.0
  0
LINE
  5
18D4C
330
18C7A
100
AcDbEntity
  8
部品1
100
AcDbLine
 10
891.9705892765195
 20
3182.494269174477
 30
0.0
 11
891.9705892765232
 21
3154.494269174477
 31
0.0
  0
LINE
  5
18D4D
330
18C7A
100
AcDbEntity
  8
部品1
100
AcDbLine
 10
471.9705892765232
 20
1392.494269174596
 30
0.0
 11
471.9705892765232
 21
1420.494269174596
 31
0.0
  0
LINE
  5
18D4E
330
18C7A
100
AcDbEntity
  8
部品1
100
AcDbLine
 10
444.9705892765305
 20
1420.494269174558
 30
0.0
 11
3858.970589276556
 21
1420.494269174596
 31
0.0
  0
LINE
  5
18D4F
330
18C7A
100
AcDbEntity
  8
部品1
100
AcDbLine
 10
3831.970589276556
 20
1392.494269174596
 30
0.0
 11
3831.970589276556
 21
1420.494269174596
 31
0.0
  0
LINE
  5
18D50
330
18C7A
100
AcDbEntity
  8
部品1
100
AcDbLine
 10
3858.970589276556
 20
1447.494269174593
 30
0.0
 11
3886.970589276556
 21
1447.494269174593
 31
0.0
  0
LINE
  5
18D51
330
18C7A
100
AcDbEntity
  8
部品1
100
AcDbLine
 10
3858.970589276556
 20
1867.494269174607
 30
0.0
 11
3886.970589276556
 21
1867.494269174607
 31
0.0
  0
LINE
  5
18D52
330
18C7A
100
AcDbEntity
  8
部品1
100
AcDbLine
 10
444.9705892765305
 20
1867.49426917448
 30
0.0
 11
416.9705892765305
 21
1867.49426917448
 31
0.0
  0
LINE
  5
18D53
330
18C7A
100
AcDbEntity
  8
部品1
100
AcDbLine
 10
3830.470589276541
 20
1867.49426917458
 30
0.0
 11
473.4705892765396
 21
1867.49426917448
 31
0.0
  0
LINE
  5
18D54
330
18C7A
100
AcDbEntity
  8
部品1
100
AcDbLine
 10
3830.470589276541
 20
2287.49426917458
 30
0.0
 11
473.4705892765396
 21
2287.49426917448
 31
0.0
  0
LINE
  5
18D55
330
18C7A
100
AcDbEntity
  8
部品1
100
AcDbLine
 10
444.9705892765305
 20
2287.49426917448
 30
0.0
 11
416.9705892765305
 21
2287.49426917448
 31
0.0
  0
LINE
  5
18D56
330
18C7A
100
AcDbEntity
  8
部品1
100
AcDbLine
 10
3858.970589276556
 20
2287.494269174608
 30
0.0
 11
3886.970589276556
 21
2287.494269174608
 31
0.0
  0
LINE
  5
18D57
330
18C7A
100
AcDbEntity
  8
部品1
 48
50.0
100
AcDbLine
 10
2151.970589276551
 20
2702.494269174586
 30
0.0
 11
2151.970589276581
 21
1448.994269174494
 31
0.0
  0
LINE
  5
18D58
330
18C7A
100
AcDbEntity
  8
破線
 48
10.0
100
AcDbLine
 10
2959.470589276535
 20
1472.494269174522
 30
0.0
 11
2176.970589276532
 21
1472.494269174505
 31
0.0
  0
LINE
  5
18D59
330
18C7A
100
AcDbEntity
  8
破線
 48
10.0
100
AcDbLine
 10
3009.47058927653
 20
1448.994269174509
 30
0.0
 11
3009.47058927653
 21
2702.494269174615
 31
0.0
  0
LINE
  5
18D5A
330
18C7A
100
AcDbEntity
  8
破線
 48
10.0
100
AcDbLine
 10
2959.470589276535
 20
1448.994269174505
 30
0.0
 11
2959.470589276531
 21
2702.494269174615
 31
0.0
  0
LINE
  5
18D5B
330
18C7A
100
AcDbEntity
  8
破線
 48
10.0
100
AcDbLine
 10
1344.47058927653
 20
1448.994269174509
 30
0.0
 11
1344.47058927653
 21
2702.494269174615
 31
0.0
  0
LINE
  5
18D5C
330
18C7A
100
AcDbEntity
  8
破線
 48
10.0
100
AcDbLine
 10
1294.470589276534
 20
1448.994269174505
 30
0.0
 11
1294.47058927653
 21
2702.494269174615
 31
0.0
  0
DIMENSION
  5
18D5D
330
18C7A
100
AcDbEntity
  8
寸法
100
AcDbDimension
  2
*D13
 10
1451.234916278005
 20
2488.887829538828
 30
0.0
 11
916.0604668248634
 21
2488.887829538828
 31
0.0
 12
-3742.925985830444
 22
-6453.628869860112
 32
0.0
 70
   128
 71
     5
 42
1062.99999999993
  3
INABA_S40G
100
AcDbAlignedDimension
 13
445.4705892765559
 23
2702.494269174505
 33
0.0
 14
1508.470589276486
 24
2702.494269174558
 34
0.0
100
AcDbRotatedDimension
1001
ACAD
1000
DSTYLE
1002
{
1002
}
  0
LINE
  5
18D5E
330
18C7A
100
AcDbEntity
  8
破線
 48
10.0
100
AcDbLine
 10
1294.470589276534
 20
1472.494269174469
 30
0.0
 11
496.9705892765414
 21
1472.494269174476
 31
0.0
  0
LINE
  5
18D5F
330
18C7A
100
AcDbEntity
  8
部品1
100
AcDbLine
 10
3831.970589276556
 20
3182.494269174604
 30
0.0
 11
3831.970589276556
 21
3154.494269174604
 31
0.0
  0
LINE
  5
18D60
330
18C7A
100
AcDbEntity
  8
部品1
100
AcDbLine
 10
3831.970589276556
 20
3182.494269174626
 30
0.0
 11
3831.970589276556
 21
3154.494269174626
 31
0.0
  0
LINE
  5
18D61
330
18C7A
100
AcDbEntity
  8
部品1
100
AcDbLine
 10
3858.970589276556
 20
3127.494269174607
 30
0.0
 11
3886.970589276556
 21
3127.494269174607
 31
0.0
  0
LINE
  5
18D62
330
18C7A
100
AcDbEntity
  8
部品1
100
AcDbLine
 10
3858.970589276556
 20
2707.494269174608
 30
0.0
 11
3886.970589276556
 21
2707.494269174608
 31
0.0
  0
LINE
  5
18D63
330
18C7A
100
AcDbEntity
  8
部品1
100
AcDbLine
 10
3858.470589276556
 20
3152.494269174604
 30
0.0
 11
3858.470589276556
 21
2702.494269174608
 31
0.0
  0
LINE
  5
18D64
330
18C7A
100
AcDbEntity
  8
部品1
100
AcDbLine
 10
3886.970589276533
 20
1447.494269174593
 30
0.0
 11
3886.970589276531
 21
1392.494269174596
 31
0.0
  0
LINE
  5
18D65
330
18C7A
100
AcDbEntity
  8
部品1
 48
50.0
100
AcDbLine
 10
3830.470589276556
 20
1448.994269174596
 30
0.0
 11
3858.970589276554
 21
1420.494269174596
 31
0.0
  0
LINE
  5
18D66
330
18C7A
100
AcDbEntity
  8
部品1
100
AcDbLine
 10
3886.970589276531
 20
1392.494269174596
 30
0.0
 11
3835.970589276531
 21
1392.494269174596
 31
0.0
  0
LINE
  5
18D67
330
18C7A
100
AcDbEntity
  8
部品1
100
AcDbLine
 10
3858.970589276533
 20
1447.494269174593
 30
0.0
 11
3886.970589276531
 21
1447.494269174593
 31
0.0
  0
LINE
  5
18D68
330
18C7A
100
AcDbEntity
  8
部品1
100
AcDbLine
 10
3886.970589276556
 20
3182.494269174604
 30
0.0
 11
3886.970589276531
 21
1392.494269174596
 31
0.0
  0
DIMENSION
  5
18D69
330
18C7A
100
AcDbEntity
  8
寸法
100
AcDbDimension
  2
*D12
 10
4534.396935010967
 20
1447.494269174593
 30
0.0
 11
4534.396935010965
 21
2287.4942691746
 31
0.0
 12
-3742.925985830444
 22
-6453.628869860112
 32
0.0
 70
   128
  1
4X420=<>
 71
     5
 42
1680.000000000014
  3
INABA_S40G
100
AcDbAlignedDimension
 13
3886.970589276556
 23
3127.494269174607
 33
0.0
 14
3886.970589276531
 24
1447.494269174593
 34
0.0
 50
90.0
100
AcDbRotatedDimension
1001
ACAD
1000
DSTYLE
1002
{
1002
}
  0
LINE
  5
18D6A
330
18C7A
100
AcDbEntity
  8
部品1
100
AcDbLine
 10
3858.970589276556
 20
3154.494269174604
 30
0.0
 11
3858.970589276534
 21
1420.494269174596
 31
0.0
  0
DIMENSION
  5
18D6B
330
18C7A
100
AcDbEntity
  8
寸法
100
AcDbDimension
  2
*D11
 10
4213.82831513858
 20
2607.276453505718
 30
0.0
 11
4113.828315138579
 21
2832.276453505718
 31
0.0
 12
-3742.925985830444
 22
-6453.628869860112
 32
0.0
 71
     5
 42
449.9999999999963
  3
INABA_S40G
100
AcDbAlignedDimension
 13
3858.470589276556
 23
3152.494269174604
 33
0.0
 14
3858.470589276556
 24
2702.494269174608
 34
0.0
 50
90.0
100
AcDbRotatedDimension
1001
ACAD
1000
DSTYLE
1002
{
1002
}
  0
LINE
  5
18D6C
330
18C7A
100
AcDbEntity
  8
部品1
100
AcDbLine
 10
3830.470589276547
 20
2702.494269174608
 30
0.0
 11
3830.470589276556
 21
1448.994269174596
 31
0.0
  0
LINE
  5
18D6D
330
18C7A
100
AcDbEntity
  8
破線
 48
10.0
100
AcDbLine
 10
3806.970589276549
 20
2702.494269174608
 30
0.0
 11
3806.970589276558
 21
1472.494269174593
 31
0.0
  0
LINE
  5
18D6E
330
18C7A
100
AcDbEntity
  8
部品1
100
AcDbLine
 10
2769.470589276556
 20
3146.494269174608
 30
0.0
 11
2794.470589276556
 21
3146.494269174611
 31
0.0
  0
LINE
  5
18D6F
330
18C7A
100
AcDbEntity
  8
部品1
100
AcDbLine
 10
2810.970589276556
 20
3172.494269174611
 30
0.0
 11
2816.970589276556
 21
3172.494269174611
 31
0.0
  0
LINE
  5
18D70
330
18C7A
100
AcDbEntity
  8
部品1
100
AcDbLine
 10
2816.970589276556
 20
3172.494269174611
 30
0.0
 11
2816.970589276556
 21
3154.494269174611
 31
0.0
  0
LINE
  5
18D71
330
18C7A
100
AcDbEntity
  8
部品1
100
AcDbLine
 10
2746.970589276556
 20
3172.494269174611
 30
0.0
 11
2752.970589276556
 21
3172.494269174611
 31
0.0
  0
LINE
  5
18D72
330
18C7A
100
AcDbEntity
  8
部品1
100
AcDbLine
 10
2746.970589276556
 20
3172.494269174611
 30
0.0
 11
2746.970589276556
 21
3154.494269174611
 31
0.0
  0
LINE
  5
18D73
330
18C7A
100
AcDbEntity
  8
部品1
100
AcDbLine
 10
2769.470589276556
 20
2702.494269174615
 30
0.0
 11
2794.470589276556
 21
2702.494269174615
 31
0.0
  0
LINE
  5
18D74
330
18C7A
100
AcDbEntity
  8
部品1
 48
50.0
100
AcDbLine
 10
2794.470589276556
 20
3154.494269174615
 30
0.0
 11
2794.470589276556
 21
2702.494269174615
 31
0.0
  0
LINE
  5
18D75
330
18C7A
100
AcDbEntity
  8
部品1
 48
50.0
100
AcDbLine
 10
2769.470589276554
 20
3154.494269174618
 30
0.0
 11
2769.470589276556
 21
2702.494269174615
 31
0.0
  0
LINE
  5
18D76
330
18C7A
100
AcDbEntity
  8
部品1
 48
50.0
100
AcDbLine
 10
2795.470589276556
 20
3152.494269174607
 30
0.0
 11
2795.470589276556
 21
2702.494269174615
 31
0.0
  0
LINE
  5
18D77
330
18C7A
100
AcDbEntity
  8
部品1
 48
50.0
100
AcDbLine
 10
2767.470589276556
 20
3152.494269174611
 30
0.0
 11
2767.470589276556
 21
2702.494269174615
 31
0.0
  0
LINE
  5
18D78
330
18C7A
100
AcDbEntity
  8
破線
 48
10.0
100
AcDbLine
 10
2176.97058927653
 20
1448.994269174509
 30
0.0
 11
2176.97058927653
 21
2702.494269174588
 31
0.0
  0
LINE
  5
18D79
330
18C7A
100
AcDbEntity
  8
破線
 48
10.0
100
AcDbLine
 10
2126.970589276534
 20
1448.994269174505
 30
0.0
 11
2126.970589276531
 21
2702.494269174586
 31
0.0
  0
LINE
  5
18D7A
330
18C7A
100
AcDbEntity
  8
部品1
100
AcDbLine
 10
2794.470589276556
 20
3154.494269174622
 30
0.0
 11
3858.970589276556
 21
3154.494269174604
 31
0.0
  0
LINE
  5
18D7B
330
18C7A
100
AcDbEntity
  8
細線
 48
50.0
100
AcDbLine
 10
3858.470589276556
 20
2702.494269174608
 30
0.0
 11
2795.470589276556
 21
3152.494269174607
 31
0.0
  0
LINE
  5
18D7C
330
18C7A
100
AcDbEntity
  8
部品1
100
AcDbLine
 10
2795.470589276555
 20
2702.494269174615
 30
0.0
 11
3858.470589276556
 21
2702.494269174608
 31
0.0
  0
LINE
  5
18D7D
330
18C7A
100
AcDbEntity
  8
部品1
100
AcDbLine
 10
2795.470589276556
 20
3152.494269174611
 30
0.0
 11
3858.470589276556
 21
3152.494269174604
 31
0.0
  0
LINE
  5
18D7E
330
18C7A
100
AcDbEntity
  8
細線
 48
50.0
100
AcDbLine
 10
3858.470589276556
 20
3152.494269174604
 30
0.0
 11
2795.470589276555
 21
2702.494269174615
 31
0.0
  0
DIMENSION
  5
18D7F
330
18C7A
100
AcDbEntity
  8
寸法
100
AcDbDimension
  2
*D10
 10
3801.234916278101
 20
2488.887829538937
 30
0.0
 11
3318.360544398907
 21
2488.887829538937
 31
0.0
 12
-3742.925985830444
 22
-6453.628869860112
 32
0.0
 70
   128
 71
     5
 42
1063.000000000012
  3
INABA_S40G
100
AcDbAlignedDimension
 13
2795.470589276555
 23
2702.494269174615
 33
0.0
 14
3858.470589276567
 24
2702.494269174608
 34
0.0
100
AcDbRotatedDimension
1001
ACAD
1000
DSTYLE
1002
{
1002
}
  0
LINE
  5
18D80
330
18C7A
100
AcDbEntity
  8
破線
 48
10.0
100
AcDbLine
 10
3806.970589276556
 20
1472.494269174594
 30
0.0
 11
3009.47058927653
 21
1472.494269174523
 31
0.0
  0
DIMENSION
  5
18D81
330
18C7A
100
AcDbEntity
  8
寸法
100
AcDbDimension
  2
*D9
 10
4534.396935010941
 20
1392.494269174596
 30
0.0
 11
4534.39693501094
 21
1084.008987800356
 31
0.0
 12
-3742.925985830444
 22
-6453.628869860112
 32
0.0
 70
   128
 71
     5
 42
54.99999999999636
  3
INABA_S40G
100
AcDbAlignedDimension
 13
3886.970589276531
 23
1447.494269174593
 33
0.0
 14
3886.970589276531
 24
1392.494269174596
 34
0.0
 50
90.0
100
AcDbRotatedDimension
1001
ACAD
1000
DSTYLE
1002
{
1002
}
  0
LINE
  5
18D82
330
18C7A
100
AcDbEntity
  8
部品1
100
AcDbLine
 10
471.9705892765196
 20
3182.494269174477
 30
0.0
 11
471.9705892765232
 21
3154.494269174477
 31
0.0
  0
LINE
  5
18D83
330
18C7A
100
AcDbEntity
  8
部品1
100
AcDbLine
 10
471.9705892765559
 20
3182.494269174509
 30
0.0
 11
471.9705892765559
 21
3154.494269174509
 31
0.0
  0
LINE
  5
18D84
330
18C7A
100
AcDbEntity
  8
部品1
100
AcDbLine
 10
444.9705892765232
 20
3127.49426917448
 30
0.0
 11
416.9705892765232
 21
3127.49426917448
 31
0.0
  0
LINE
  5
18D85
330
18C7A
100
AcDbEntity
  8
部品1
100
AcDbLine
 10
444.9705892765305
 20
2707.49426917448
 30
0.0
 11
416.9705892765305
 21
2707.49426917448
 31
0.0
  0
LINE
  5
18D86
330
18C7A
100
AcDbEntity
  8
部品1
 48
50.0
100
AcDbLine
 10
445.4705892765542
 20
3152.494269174506
 30
0.0
 11
445.4705892765559
 21
2702.494269174505
 31
0.0
  0
LINE
  5
18D87
330
18C7A
100
AcDbEntity
  8
部品1
 48
50.0
100
AcDbLine
 10
473.470589276545
 20
1448.994269174573
 30
0.0
 11
444.970589276545
 21
1420.494269174574
 31
0.0
  0
LINE
  5
18D88
330
18C7A
100
AcDbEntity
  8
部品1
100
AcDbLine
 10
471.9705892765232
 20
1392.494269174465
 30
0.0
 11
416.9705892765486
 21
1392.494269174465
 31
0.0
  0
LINE
  5
18D89
330
18C7A
100
AcDbEntity
  8
部品1
100
AcDbLine
 10
444.9705892765305
 20
1447.494269174429
 30
0.0
 11
416.9705892765469
 21
1447.494269174429
 31
0.0
  0
LINE
  5
18D8A
330
18C7A
100
AcDbEntity
  8
部品1
100
AcDbLine
 10
444.9705892765305
 20
1447.494269174465
 30
0.0
 11
416.9705892765469
 21
1447.494269174465
 31
0.0
  0
LINE
  5
18D8B
330
18C7A
100
AcDbEntity
  8
部品1
100
AcDbLine
 10
444.9705892765469
 20
1447.49426917448
 30
0.0
 11
416.9705892765469
 21
1447.49426917448
 31
0.0
  0
LINE
  5
18D8C
330
18C7A
100
AcDbEntity
  8
部品1
100
AcDbLine
 10
416.9705892765469
 20
1447.494269174429
 30
0.0
 11
416.9705892765486
 21
1392.494269174433
 31
0.0
  0
LINE
  5
18D8D
330
18C7A
100
AcDbEntity
  8
部品1
100
AcDbLine
 10
416.9705892765196
 20
3182.494269174477
 30
0.0
 11
416.9705892765486
 21
1392.494269174465
 31
0.0
  0
LINE
  5
18D8E
330
18C7A
100
AcDbEntity
  8
部品1
100
AcDbLine
 10
444.9705892765305
 20
1420.494269174556
 30
0.0
 11
444.9705892765559
 21
3154.494269174509
 31
0.0
  0
LINE
  5
18D8F
330
18C7A
100
AcDbEntity
  8
部品1
100
AcDbLine
 10
473.4705892765323
 20
2702.494269174608
 30
0.0
 11
473.470589276545
 21
1448.994269174571
 31
0.0
  0
LINE
  5
18D90
330
18C7A
100
AcDbEntity
  8
破線
 48
10.0
100
AcDbLine
 10
496.9705892765305
 20
2702.494269174608
 30
0.0
 11
496.9705892765451
 21
1472.494269174476
 31
0.0
  0
DIMENSION
  5
18D91
330
18C7A
100
AcDbEntity
  8
寸法
100
AcDbDimension
  2
*D8
 10
3886.970589276531
 20
410.7433333855515
 30
0.0
 11
2168.197775309287
 21
410.7433333855515
 31
0.0
 12
-3742.925985830444
 22
-6453.628869860112
 32
0.0
 70
   128
 71
     5
 42
3469.999999999982
  3
INABA_S40G
100
AcDbAlignedDimension
 13
416.9705892765486
 23
1392.494269174433
 33
0.0
 14
3886.970589276531
 24
1392.49426917456
 34
0.0
100
AcDbRotatedDimension
1001
ACAD
1000
DSTYLE
1002
{
1070
   341
1005
0
1002
}
  0
LINE
  5
18D92
330
18C7A
100
AcDbEntity
  8
部品1
100
AcDbLine
 10
444.9705892765559
 20
3154.494269174624
 30
0.0
 11
1509.470589276487
 21
3154.494269174626
 31
0.0
  0
LINE
  5
18D93
330
18C7A
100
AcDbEntity
  8
部品1
100
AcDbLine
 10
3886.970589276531
 20
1392.494269174596
 30
0.0
 11
3411.970589276556
 21
1392.494269174582
 31
0.0
  0
LINE
  5
18D94
330
18C7A
100
AcDbEntity
  8
部品1
100
AcDbLine
 10
416.9705892765559
 20
3182.494269174509
 30
0.0
 11
3886.970589276556
 21
3182.494269174604
 31
0.0
  0
LINE
  5
18D95
330
18C7A
100
AcDbEntity
  8
部品1
100
AcDbLine
 10
445.4705892765559
 20
2702.494269174509
 30
0.0
 11
1508.470589276487
 21
2702.494269174558
 31
0.0
  0
LINE
  5
18D96
330
18C7A
100
AcDbEntity
  8
細線
 48
50.0
100
AcDbLine
 10
2767.470589276556
 20
3152.494269174611
 30
0.0
 11
1536.470589276487
 21
2702.494269174558
 31
0.0
  0
LINE
  5
18D97
330
18C7A
100
AcDbEntity
  8
部品1
100
AcDbLine
 10
445.4705892765542
 20
3152.494269174509
 30
0.0
 11
1508.470589276485
 21
3152.494269174558
 31
0.0
  0
LINE
  5
18D98
330
18C7A
100
AcDbEntity
  8
細線
 48
50.0
100
AcDbLine
 10
2767.470589276554
 20
2702.494269174615
 30
0.0
 11
1536.470589276485
 21
3152.494269174558
 31
0.0
  0
LINE
  5
18D99
330
18C7A
100
AcDbEntity
  8
破線
 48
10.0
100
AcDbLine
 10
2126.970589276534
 20
1472.494269174502
 30
0.0
 11
1344.47058927653
 21
1472.494269174473
 31
0.0
  0
LINE
  5
18D9A
330
18C7A
100
AcDbEntity
  8
部品1
100
AcDbLine
 10
3830.470589276556
 20
1448.994269174596
 30
0.0
 11
473.4705892764487
 21
1448.994269174476
 31
0.0
  0
DIMENSION
  5
18D9B
330
18C7A
100
AcDbEntity
  8
寸法
100
AcDbDimension
  2
*D7
 10
471.970589276555
 20
3698.302488799491
 30
0.0
 11
108.4853079022819
 21
3698.302488799491
 31
0.0
 12
-3742.925985830444
 22
-6453.628869860112
 32
0.0
 70
   128
 71
     5
 42
55.00000000003456
  3
INABA_S40G
100
AcDbAlignedDimension
 13
416.9705892765205
 23
3182.494269174509
 33
0.0
 14
471.970589276555
 24
3182.494269174509
 34
0.0
100
AcDbRotatedDimension
1001
ACAD
1000
DSTYLE
1002
{
1002
}
  0
DIMENSION
  5
18D9C
330
18C7A
100
AcDbEntity
  8
寸法
100
AcDbDimension
  2
*D6
 10
4534.396935010967
 20
3127.494269174607
 30
0.0
 11
4534.396935010965
 21
3490.979550548844
 31
0.0
 12
-3742.925985830444
 22
-6453.628869860112
 32
0.0
 70
   128
 71
     5
 42
54.99999999999636
  3
INABA_S40G
100
AcDbAlignedDimension
 13
3886.970589276556
 23
3182.494269174604
 33
0.0
 14
3886.970589276556
 24
3127.494269174607
 34
0.0
 50
90.0
100
AcDbRotatedDimension
1001
ACAD
1000
DSTYLE
1002
{
1002
}
  0
DIMENSION
  5
18D9D
330
18C7A
100
AcDbEntity
  8
寸法
100
AcDbDimension
  2
*D5
 10
3886.970589276556
 20
3698.302488799589
 30
0.0
 11
4195.455870650794
 21
3698.302488799589
 31
0.0
 12
-3742.925985830444
 22
-6453.628869860112
 32
0.0
 70
   128
 71
     5
 42
55.0
  3
INABA_S40G
100
AcDbAlignedDimension
 13
3831.970589276556
 23
3182.494269174604
 33
0.0
 14
3886.970589276556
 24
3182.494269174604
 34
0.0
100
AcDbRotatedDimension
1001
ACAD
1000
DSTYLE
1002
{
1002
}
  0
DIMENSION
  5
18D9E
330
18C7A
100
AcDbEntity
  8
寸法
100
AcDbDimension
  2
*D4
 10
3831.970589276556
 20
3698.302488799607
 30
0.0
 11
2151.970589276555
 21
3698.302488799607
 31
0.0
 12
-3742.925985830444
 22
-6453.628869860112
 32
0.0
 70
   128
  1
8X420=<>
 71
     5
 42
3360.000000000001
  3
INABA_S40G
100
AcDbAlignedDimension
 13
471.970589276555
 23
3182.494269174509
 33
0.0
 14
3831.970589276556
 24
3182.494269174604
 34
0.0
100
AcDbRotatedDimension
1001
ACAD
1000
DSTYLE
1002
{
1002
}
  0
DIMENSION
  5
18D9F
330
18C7A
100
AcDbEntity
  8
寸法
100
AcDbDimension
  2
*D3
 10
4899.503876750603
 20
1392.494269174596
 30
0.0
 11
4899.503876750601
 21
2287.4942691746
 31
0.0
 12
-3742.925985830444
 22
-6453.628869860112
 32
0.0
 70
   128
 71
     5
 42
1790.000000000007
  3
INABA_S40G
100
AcDbAlignedDimension
 13
3886.970589276556
 23
3182.494269174604
 33
0.0
 14
3886.970589276531
 24
1392.494269174596
 34
0.0
 50
90.0
100
AcDbRotatedDimension
1001
ACAD
1000
DSTYLE
1002
{
1002
}
  0
ENDBLK
  5
18DA1
330
18C7A
100
AcDbEntity
  8
0
 48
50.0
100
AcDbBlockEnd
  0
BLOCK
  5
1C4CB
330
1C4CA
100
AcDbEntity
  8
0
 48
50.0
100
AcDbBlockBegin
  2
_NONE
 70
     0
 10
0.0
 20
0.0
 30
0.0
  3
_NONE
  1

  0
CIRCLE
  5
1C4CC
330
1C4CA
100
AcDbEntity
  8
0
  6
ByBlock
 62
     0
 48
50.0
100
AcDbCircle
 10
0.0
 20
0.0
 30
0.0
 40
0.25
  0
ENDBLK
  5
1C4CD
330
1C4CA
100
AcDbEntity
  8
0
 48
50.0
100
AcDbBlockEnd
  0
BLOCK
  5
20DEE
330
20DE2
100
AcDbEntity
  8
0
 48
50.0
100
AcDbBlockBegin
  2
*D19
 70
     1
 10
0.0
 20
0.0
 30
0.0
  3
*D19
  1

  0
LINE
  5
24C0A
330
20DE2
100
AcDbEntity
  8
寸法
 62
     0
 48
50.0
370
    -2
100
AcDbLine
 10
9178.600000000001
 20
7746.655401773442
 30
0.0
 11
9178.600000000001
 21
8744.875723832363
 31
0.0
  0
LINE
  5
24C0B
330
20DE2
100
AcDbEntity
  8
寸法
 62
     0
 48
50.0
370
    -2
100
AcDbLine
 10
9223.600000000001
 20
8472.921859867353
 30
0.0
 11
9223.600000000001
 21
8744.875723832363
 31
0.0
  0
LINE
  5
24C0C
330
20DE2
100
AcDbEntity
  8
寸法
 62
     0
 48
50.0
370
    -2
100
AcDbLine
 10
9178.600000000001
 20
8684.875723832362
 30
0.0
 11
9078.599999999999
 21
8684.875723832362
 31
0.0
  0
LINE
  5
24C0D
330
20DE2
100
AcDbEntity
  8
寸法
 62
     0
 48
50.0
370
    -2
100
AcDbLine
 10
9223.600000000001
 20
8684.875723832362
 30
0.0
 11
9560.94924240492
 21
8684.875723832362
 31
0.0
  0
LINE
  5
24C0E
330
20DE2
100
AcDbEntity
  8
寸法
 62
     0
 48
50.0
370
    -2
100
AcDbLine
 10
9178.600000000001
 20
8684.875723832362
 30
0.0
 11
9223.600000000001
 21
8684.875723832362
 31
0.0
  0
INSERT
  5
24C0F
330
20DE2
100
AcDbEntity
  8
寸法
 62
     0
 48
50.0
370
    -2
100
AcDbBlockReference
  2
_DOTSMALL
 10
9178.600000000001
 20
8684.875723832362
 30
0.0
 41
100.0
 42
100.0
 43
100.0
  0
INSERT
  5
24C10
330
20DE2
100
AcDbEntity
  8
寸法
 62
     0
 48
50.0
370
    -2
100
AcDbBlockReference
  2
_DOTSMALL
 10
9223.600000000001
 20
8684.875723832362
 30
0.0
 41
100.0
 42
100.0
 43
100.0
 50
180.0
  0
MTEXT
  5
24C11
330
20DE2
100
AcDbEntity
  8
寸法
 62
     7
 48
50.0
100
AcDbMText
 10
9494.774621202459
 20
8784.875723832362
 30
0.0
 40
120.0
 41
0.0
 71
     5
 72
     1
  1
\A1;a
  7
STYLE1
 73
     1
 44
1.0
1001
ACAD
1000
MTEXTBEGIN
1070
    73
1070
     1
1070
    44
1040
1.0
1070
    74
1070
     0
1000
MTEXTEND
  0
POINT
  5
24C12
330
20DE2
100
AcDbEntity
  8
DEFPOINTS
 62
     0
 48
50.0
100
AcDbPoint
 10
9178.600000000001
 20
7726.655401773442
 30
0.0
  0
POINT
  5
24C13
330
20DE2
100
AcDbEntity
  8
DEFPOINTS
 62
     0
 48
50.0
100
AcDbPoint
 10
9223.600000000001
 20
8452.921859867352
 30
0.0
  0
POINT
  5
24C14
330
20DE2
100
AcDbEntity
  8
DEFPOINTS
 62
     0
 48
50.0
100
AcDbPoint
 10
9223.600000000001
 20
8684.875723832362
 30
0.0
  0
ENDBLK
  5
20DEF
330
20DE2
100
AcDbEntity
  8
0
 48
50.0
100
AcDbBlockEnd
  0
BLOCK
  5
20E08
330
20DFC
100
AcDbEntity
  8
0
 48
50.0
100
AcDbBlockBegin
  2
*D20
 70
     1
 10
0.0
 20
0.0
 30
0.0
  3
*D20
  1

  0
LINE
  5
24BFF
330
20DFC
100
AcDbEntity
  8
寸法
 62
     0
 48
50.0
370
    -2
100
AcDbLine
 10
7223.600000000004
 20
8472.921859867353
 30
0.0
 11
7223.600000000004
 21
8744.875723832363
 31
0.0
  0
LINE
  5
24C00
330
20DFC
100
AcDbEntity
  8
寸法
 62
     0
 48
50.0
370
    -2
100
AcDbLine
 10
7268.600000000001
 20
7746.655401773442
 30
0.0
 11
7268.600000000001
 21
8744.875723832363
 31
0.0
  0
LINE
  5
24C01
330
20DFC
100
AcDbEntity
  8
寸法
 62
     0
 48
50.0
370
    -2
100
AcDbLine
 10
7268.600000000001
 20
8684.875723832362
 30
0.0
 11
7368.6
 21
8684.875723832362
 31
0.0
  0
LINE
  5
24C02
330
20DFC
100
AcDbEntity
  8
寸法
 62
     0
 48
50.0
370
    -2
100
AcDbLine
 10
7223.600000000004
 20
8684.875723832362
 30
0.0
 11
6886.250757595083
 21
8684.875723832362
 31
0.0
  0
LINE
  5
24C03
330
20DFC
100
AcDbEntity
  8
寸法
 62
     0
 48
50.0
370
    -2
100
AcDbLine
 10
7268.600000000001
 20
8684.875723832362
 30
0.0
 11
7223.600000000004
 21
8684.875723832362
 31
0.0
  0
INSERT
  5
24C04
330
20DFC
100
AcDbEntity
  8
寸法
 62
     0
 48
50.0
370
    -2
100
AcDbBlockReference
  2
_DOTSMALL
 10
7268.600000000001
 20
8684.875723832362
 30
0.0
 41
100.0
 42
100.0
 43
100.0
 50
180.0
  0
INSERT
  5
24C05
330
20DFC
100
AcDbEntity
  8
寸法
 62
     0
 48
50.0
370
    -2
100
AcDbBlockReference
  2
_DOTSMALL
 10
7223.600000000004
 20
8684.875723832362
 30
0.0
 41
100.0
 42
100.0
 43
100.0
  0
MTEXT
  5
24C06
330
20DFC
100
AcDbEntity
  8
寸法
 62
     7
 48
50.0
100
AcDbMText
 10
6952.425378797541
 20
8784.875723832362
 30
0.0
 40
120.0
 41
0.0
 71
     5
 72
     1
  1
\A1;a
  7
STYLE1
 73
     1
 44
1.0
1001
ACAD
1000
MTEXTBEGIN
1070
    73
1070
     1
1070
    44
1040
1.0
1070
    74
1070
     0
1000
MTEXTEND
  0
POINT
  5
24C07
330
20DFC
100
AcDbEntity
  8
DEFPOINTS
 62
     0
 48
50.0
100
AcDbPoint
 10
7223.600000000004
 20
8452.921859867354
 30
0.0
  0
POINT
  5
24C08
330
20DFC
100
AcDbEntity
  8
DEFPOINTS
 62
     0
 48
50.0
100
AcDbPoint
 10
7268.600000000001
 20
7726.655401773442
 30
0.0
  0
POINT
  5
24C09
330
20DFC
100
AcDbEntity
  8
DEFPOINTS
 62
     0
 48
50.0
100
AcDbPoint
 10
7268.600000000001
 20
8684.875723832362
 30
0.0
  0
ENDBLK
  5
20E09
330
20DFC
100
AcDbEntity
  8
0
 48
50.0
100
AcDbBlockEnd
  0
BLOCK
  5
2274E
330
22742
100
AcDbEntity
  8
0
 48
50.0
100
AcDbBlockBegin
  2
*D21
 70
     1
 10
0.0
 20
0.0
 30
0.0
  3
*D21
  1

  0
LINE
  5
24BF4
330
22742
100
AcDbEntity
  8
寸法
 62
     0
 48
50.0
370
    -2
100
AcDbLine
 10
6625.66500633007
 20
7801.655401773448
 30
0.0
 11
6333.721909610675
 21
7801.655401773448
 31
0.0
  0
LINE
  5
24BF5
330
22742
100
AcDbEntity
  8
寸法
 62
     0
 48
50.0
370
    -2
100
AcDbLine
 10
7248.6
 20
7726.655401773442
 30
0.0
 11
6333.721909610675
 21
7726.655401773442
 31
0.0
  0
LINE
  5
24BF6
330
22742
100
AcDbEntity
  8
寸法
 62
     0
 48
50.0
370
    -2
100
AcDbLine
 10
6393.721909610674
 20
7801.655401773448
 30
0.0
 11
6393.721909610674
 21
7901.655401773448
 31
0.0
  0
LINE
  5
24BF7
330
22742
100
AcDbEntity
  8
寸法
 62
     0
 48
50.0
370
    -2
100
AcDbLine
 10
6393.721909610674
 20
7726.655401773442
 30
0.0
 11
6393.721909610674
 21
7626.655401773442
 31
0.0
  0
LINE
  5
24BF8
330
22742
100
AcDbEntity
  8
寸法
 62
     0
 48
50.0
370
    -2
100
AcDbLine
 10
6393.721909610674
 20
7801.655401773448
 30
0.0
 11
6393.721909610674
 21
7726.655401773442
 31
0.0
  0
INSERT
  5
24BF9
330
22742
100
AcDbEntity
  8
寸法
 62
     0
 48
50.0
370
    -2
100
AcDbBlockReference
  2
_DOTSMALL
 10
6393.721909610674
 20
7801.655401773448
 30
0.0
 41
100.0
 42
100.0
 43
100.0
 50
270.0
  0
INSERT
  5
24BFA
330
22742
100
AcDbEntity
  8
寸法
 62
     0
 48
50.0
370
    -2
100
AcDbBlockReference
  2
_DOTSMALL
 10
6393.721909610674
 20
7726.655401773442
 30
0.0
 41
100.0
 42
100.0
 43
100.0
 50
90.0
  0
MTEXT
  5
24BFB
330
22742
100
AcDbEntity
  8
寸法
 62
     7
 48
50.0
100
AcDbMText
 10
6293.721909610674
 20
7764.155401773447
 30
0.0
 40
120.0
 41
0.0
 71
     5
 72
     1
  1
\A1;c
  7
STYLE1
 11
0.0000000000000001
 21
1.0
 31
0.0
 73
     1
 44
1.0
1001
ACAD
1000
MTEXTBEGIN
1070
    73
1070
     1
1070
    44
1040
1.0
1070
    74
1070
     0
1000
MTEXTEND
  0
POINT
  5
24BFC
330
22742
100
AcDbEntity
  8
DEFPOINTS
 62
     0
 48
50.0
100
AcDbPoint
 10
6645.665006330069
 20
7801.655401773448
 30
0.0
  0
POINT
  5
24BFD
330
22742
100
AcDbEntity
  8
DEFPOINTS
 62
     0
 48
50.0
100
AcDbPoint
 10
7268.600000000001
 20
7726.655401773442
 30
0.0
  0
POINT
  5
24BFE
330
22742
100
AcDbEntity
  8
DEFPOINTS
 62
     0
 48
50.0
100
AcDbPoint
 10
6393.721909610674
 20
7726.655401773442
 30
0.0
  0
ENDBLK
  5
2274F
330
22742
100
AcDbEntity
  8
0
 48
50.0
100
AcDbBlockEnd
  0
BLOCK
  5
22768
330
2275C
100
AcDbEntity
  8
0
 48
50.0
100
AcDbBlockBegin
  2
*D22
 70
     1
 10
0.0
 20
0.0
 30
0.0
  3
*D22
  1

  0
LINE
  5
24BE9
330
2275C
100
AcDbEntity
  8
寸法
 62
     0
 48
50.0
370
    -2
100
AcDbLine
 10
7248.599999999999
 20
6186.655401773474
 30
0.0
 11
6333.721909610673
 21
6186.655401773474
 31
0.0
  0
LINE
  5
24BEA
330
2275C
100
AcDbEntity
  8
寸法
 62
     0
 48
50.0
370
    -2
100
AcDbLine
 10
6625.665006330071
 20
6131.655401773499
 30
0.0
 11
6333.721909610673
 21
6131.655401773499
 31
0.0
  0
LINE
  5
24BEB
330
2275C
100
AcDbEntity
  8
寸法
 62
     0
 48
50.0
370
    -2
100
AcDbLine
 10
6393.721909610674
 20
6186.655401773474
 30
0.0
 11
6393.721909610674
 21
6286.655401773473
 31
0.0
  0
LINE
  5
24BEC
330
2275C
100
AcDbEntity
  8
寸法
 62
     0
 48
50.0
370
    -2
100
AcDbLine
 10
6393.721909610673
 20
6131.655401773499
 30
0.0
 11
6393.721909610673
 21
6031.655401773498
 31
0.0
  0
LINE
  5
24BED
330
2275C
100
AcDbEntity
  8
寸法
 62
     0
 48
50.0
370
    -2
100
AcDbLine
 10
6393.721909610674
 20
6186.655401773474
 30
0.0
 11
6393.721909610673
 21
6131.655401773499
 31
0.0
  0
INSERT
  5
24BEE
330
2275C
100
AcDbEntity
  8
寸法
 62
     0
 48
50.0
370
    -2
100
AcDbBlockReference
  2
_DOTSMALL
 10
6393.721909610674
 20
6186.655401773474
 30
0.0
 41
100.0
 42
100.0
 43
100.0
 50
270.0
  0
INSERT
  5
24BEF
330
2275C
100
AcDbEntity
  8
寸法
 62
     0
 48
50.0
370
    -2
100
AcDbBlockReference
  2
_DOTSMALL
 10
6393.721909610673
 20
6131.655401773499
 30
0.0
 41
100.0
 42
100.0
 43
100.0
 50
90.0
  0
MTEXT
  5
24BF0
330
2275C
100
AcDbEntity
  8
寸法
 62
     7
 48
50.0
100
AcDbMText
 10
6293.721909610672
 20
6159.155401773488
 30
0.0
 40
120.0
 41
0.0
 71
     5
 72
     1
  1
\A1;b
  7
STYLE1
 11
0.0000000000000001
 21
1.0
 31
0.0
 73
     1
 44
1.0
1001
ACAD
1000
MTEXTBEGIN
1070
    73
1070
     1
1070
    44
1040
1.0
1070
    74
1070
     0
1000
MTEXTEND
  0
POINT
  5
24BF1
330
2275C
100
AcDbEntity
  8
DEFPOINTS
 62
     0
 48
50.0
100
AcDbPoint
 10
7268.599999999999
 20
6186.655401773474
 30
0.0
  0
POINT
  5
24BF2
330
2275C
100
AcDbEntity
  8
DEFPOINTS
 62
     0
 48
50.0
100
AcDbPoint
 10
6645.665006330071
 20
6131.655401773499
 30
0.0
  0
POINT
  5
24BF3
330
2275C
100
AcDbEntity
  8
DEFPOINTS
 62
     0
 48
50.0
100
AcDbPoint
 10
6393.721909610673
 20
6131.655401773499
 30
0.0
  0
ENDBLK
  5
22769
330
2275C
100
AcDbEntity
  8
0
 48
50.0
100
AcDbBlockEnd
  0
BLOCK
  5
240CF
330
240C4
100
AcDbEntity
  8
0
 48
50.0
100
AcDbBlockBegin
  2
*D23
 70
     1
 10
0.0
 20
0.0
 30
0.0
  3
*D23
  1

  0
LINE
  5
251DF
330
240C4
100
AcDbEntity
  8
寸法
 62
     0
 48
50.0
370
    -2
100
AcDbLine
 10
9178.600000000001
 20
7181.655401773479
 30
0.0
 11
9178.600000000001
 21
7336.254014871553
 31
0.0
  0
LINE
  5
251E0
330
240C4
100
AcDbEntity
  8
寸法
 62
     0
 48
50.0
370
    -2
100
AcDbLine
 10
9058.6
 20
7181.655401773479
 30
0.0
 11
9058.6
 21
7336.254014871553
 31
0.0
  0
LINE
  5
251E1
330
240C4
100
AcDbEntity
  8
寸法
 62
     0
 48
50.0
370
    -2
100
AcDbLine
 10
9058.6
 20
7276.254014871553
 30
0.0
 11
9178.600000000001
 21
7276.254014871553
 31
0.0
  0
LINE
  5
251E2
330
240C4
100
AcDbEntity
  8
寸法
 62
     0
 48
50.0
370
    -2
100
AcDbLine
 10
9178.600000000001
 20
7276.254014871553
 30
0.0
 11
9584.7062992126
 21
7276.254014871553
 31
0.0
  0
INSERT
  5
251E3
330
240C4
100
AcDbEntity
  8
寸法
 62
     0
 48
50.0
370
    -2
100
AcDbBlockReference
  2
_DOTSMALL
 10
9058.6
 20
7276.254014871553
 30
0.0
 41
100.0
 42
100.0
 43
100.0
 50
180.0
  0
INSERT
  5
251E4
330
240C4
100
AcDbEntity
  8
寸法
 62
     0
 48
50.0
370
    -2
100
AcDbBlockReference
  2
_DOTSMALL
 10
9178.600000000001
 20
7276.254014871553
 30
0.0
 41
100.0
 42
100.0
 43
100.0
  0
MTEXT
  5
251E5
330
240C4
100
AcDbEntity
  8
寸法
 62
     7
 48
50.0
100
AcDbMText
 10
9448.659055118111
 20
7376.265825895174
 30
0.0
 40
120.0
 41
0.0
 71
     5
 72
     1
  1
\A1;120
  7
STYLE1
 73
     1
 44
1.0
1001
ACAD
1000
MTEXTBEGIN
1070
    73
1070
     1
1070
    44
1040
1.0
1070
    74
1070
     0
1000
MTEXTEND
  0
POINT
  5
251E6
330
240C4
100
AcDbEntity
  8
DEFPOINTS
 62
     0
 48
50.0
100
AcDbPoint
 10
9178.600000000001
 20
7161.655401773479
 30
0.0
  0
POINT
  5
251E7
330
240C4
100
AcDbEntity
  8
DEFPOINTS
 62
     0
 48
50.0
100
AcDbPoint
 10
9058.6
 20
7161.655401773479
 30
0.0
  0
POINT
  5
251E8
330
240C4
100
AcDbEntity
  8
DEFPOINTS
 62
     0
 48
50.0
100
AcDbPoint
 10
9058.6
 20
7276.254014871553
 30
0.0
  0
ENDBLK
  5
240D0
330
240C4
100
AcDbEntity
  8
0
 48
50.0
100
AcDbBlockEnd
  0
BLOCK
  5
240DC
330
240D1
100
AcDbEntity
  8
0
 48
50.0
100
AcDbBlockBegin
  2
*D24
 70
     1
 10
0.0
 20
0.0
 30
0.0
  3
*D24
  1

  0
LINE
  5
24E54
330
240D1
100
AcDbEntity
  8
寸法
 62
     0
 48
50.0
370
    -2
100
AcDbLine
 10
8578.599999999992
 20
6466.655401773451
 30
0.0
 11
8437.812020225658
 21
6466.655401773451
 31
0.0
  0
LINE
  5
24E55
330
240D1
100
AcDbEntity
  8
寸法
 62
     0
 48
50.0
370
    -2
100
AcDbLine
 10
8578.599999999999
 20
6186.65540177346
 30
0.0
 11
8437.812020225658
 21
6186.65540177346
 31
0.0
  0
LINE
  5
24E56
330
240D1
100
AcDbEntity
  8
寸法
 62
     0
 48
50.0
370
    -2
100
AcDbLine
 10
8497.812020225657
 20
6466.655401773451
 30
0.0
 11
8497.812020225657
 21
6186.65540177346
 31
0.0
  0
LINE
  5
24E57
330
240D1
100
AcDbEntity
  8
寸法
 62
     0
 48
50.0
370
    -2
100
AcDbLine
 10
8497.812020225657
 20
6186.65540177346
 30
0.0
 11
8497.812020225657
 21
5750.120952954554
 31
0.0
  0
INSERT
  5
24E58
330
240D1
100
AcDbEntity
  8
寸法
 62
     0
 48
50.0
370
    -2
100
AcDbBlockReference
  2
_DOTSMALL
 10
8497.812020225657
 20
6466.655401773451
 30
0.0
 41
100.0
 42
100.0
 43
100.0
 50
90.0
  0
INSERT
  5
24E59
330
240D1
100
AcDbEntity
  8
寸法
 62
     0
 48
50.0
370
    -2
100
AcDbBlockReference
  2
_DOTSMALL
 10
8497.812020225657
 20
6186.65540177346
 30
0.0
 41
100.0
 42
100.0
 43
100.0
 50
270.0
  0
MTEXT
  5
24E5A
330
240D1
100
AcDbEntity
  8
寸法
 62
     7
 48
50.0
100
AcDbMText
 10
8397.800209202035
 20
5899.691819096288
 30
0.0
 40
120.0
 41
0.0
 71
     5
 72
     1
  1
\A1;280
  7
STYLE1
 11
0.0000000000000001
 21
1.0
 31
0.0
 73
     1
 44
1.0
1001
ACAD
1000
MTEXTBEGIN
1070
    73
1070
     1
1070
    44
1040
1.0
1070
    74
1070
     0
1000
MTEXTEND
  0
POINT
  5
24E5B
330
240D1
100
AcDbEntity
  8
DEFPOINTS
 62
     0
 48
50.0
100
AcDbPoint
 10
8598.599999999994
 20
6466.655401773451
 30
0.0
  0
POINT
  5
24E5C
330
240D1
100
AcDbEntity
  8
DEFPOINTS
 62
     0
 48
50.0
100
AcDbPoint
 10
8598.599999999999
 20
6186.65540177346
 30
0.0
  0
POINT
  5
24E5D
330
240D1
100
AcDbEntity
  8
DEFPOINTS
 62
     0
 48
50.0
100
AcDbPoint
 10
8497.812020225657
 20
6186.65540177346
 30
0.0
  0
ENDBLK
  5
240DD
330
240D1
100
AcDbEntity
  8
0
 48
50.0
100
AcDbBlockEnd
  0
BLOCK
  5
240E9
330
240DE
100
AcDbEntity
  8
0
 48
50.0
100
AcDbBlockBegin
  2
*D25
 70
     1
 10
0.0
 20
0.0
 30
0.0
  3
*D25
  1

  0
LINE
  5
24BD5
330
240DE
100
AcDbEntity
  8
寸法
 62
     0
 48
50.0
370
    -2
100
AcDbLine
 10
8578.599999999998
 20
7726.655401773429
 30
0.0
 11
8437.812020225658
 21
7726.655401773429
 31
0.0
  0
LINE
  5
24BD6
330
240DE
100
AcDbEntity
  8
寸法
 62
     0
 48
50.0
370
    -2
100
AcDbLine
 10
8578.600000000005
 20
7526.655401773443
 30
0.0
 11
8437.812020225658
 21
7526.655401773443
 31
0.0
  0
LINE
  5
24BD7
330
240DE
100
AcDbEntity
  8
寸法
 62
     0
 48
50.0
370
    -2
100
AcDbLine
 10
8497.812020225657
 20
7526.655401773443
 30
0.0
 11
8497.812020225657
 21
7726.655401773429
 31
0.0
  0
LINE
  5
24BD8
330
240DE
100
AcDbEntity
  8
寸法
 62
     0
 48
50.0
370
    -2
100
AcDbLine
 10
8497.812020225657
 20
7726.655401773429
 30
0.0
 11
8497.812020225657
 21
8163.189850592331
 31
0.0
  0
INSERT
  5
24BD9
330
240DE
100
AcDbEntity
  8
寸法
 62
     0
 48
50.0
370
    -2
100
AcDbBlockReference
  2
_DOTSMALL
 10
8497.812020225657
 20
7526.655401773443
 30
0.0
 41
100.0
 42
100.0
 43
100.0
 50
270.0
  0
INSERT
  5
24BDA
330
240DE
100
AcDbEntity
  8
寸法
 62
     0
 48
50.0
370
    -2
100
AcDbBlockReference
  2
_DOTSMALL
 10
8497.812020225657
 20
7726.655401773429
 30
0.0
 41
100.0
 42
100.0
 43
100.0
 50
90.0
  0
MTEXT
  5
24BDB
330
240DE
100
AcDbEntity
  8
寸法
 62
     7
 48
50.0
100
AcDbMText
 10
8397.800209202035
 20
8013.6189844506
 30
0.0
 40
120.0
 41
0.0
 71
     5
 72
     1
  1
\A1;200
  7
STYLE1
 11
0.0000000000000001
 21
1.0
 31
0.0
 73
     1
 44
1.0
1001
ACAD
1000
MTEXTBEGIN
1070
    73
1070
     1
1070
    44
1040
1.0
1070
    74
1070
     0
1000
MTEXTEND
  0
POINT
  5
24BDC
330
240DE
100
AcDbEntity
  8
DEFPOINTS
 62
     0
 48
50.0
100
AcDbPoint
 10
8598.599999999997
 20
7726.655401773429
 30
0.0
  0
POINT
  5
24BDD
330
240DE
100
AcDbEntity
  8
DEFPOINTS
 62
     0
 48
50.0
100
AcDbPoint
 10
8598.600000000004
 20
7526.655401773443
 30
0.0
  0
POINT
  5
24BDE
330
240DE
100
AcDbEntity
  8
DEFPOINTS
 62
     0
 48
50.0
100
AcDbPoint
 10
8497.812020225657
 20
7526.655401773443
 30
0.0
  0
ENDBLK
  5
240EA
330
240DE
100
AcDbEntity
  8
0
 48
50.0
100
AcDbBlockEnd
  0
BLOCK
  5
246C2
330
246B8
100
AcDbEntity
  8
0
 48
50.0
100
AcDbBlockBegin
  2
*D26
 70
     1
 10
0.0
 20
0.0
 30
0.0
  3
*D26
  1

  0
LINE
  5
24E1A
330
246B8
100
AcDbEntity
  8
寸法
 62
     0
 48
50.0
370
    -2
100
AcDbLine
 10
9178.600000000001
 20
7746.655401773442
 30
0.0
 11
9178.600000000001
 21
8269.264218443691
 31
0.0
  0
LINE
  5
24E1B
330
246B8
100
AcDbEntity
  8
寸法
 62
     0
 48
50.0
370
    -2
100
AcDbLine
 10
8223.600000000008
 20
7063.655401773441
 30
0.0
 11
8223.600000000008
 21
8269.264218443691
 31
0.0
  0
LINE
  5
24E1C
330
246B8
100
AcDbEntity
  8
寸法
 62
     0
 48
50.0
370
    -2
100
AcDbLine
 10
9178.600000000001
 20
8209.26421844369
 30
0.0
 11
8223.600000000008
 21
8209.26421844369
 31
0.0
  0
INSERT
  5
24E1D
330
246B8
100
AcDbEntity
  8
寸法
 62
     0
 48
50.0
370
    -2
100
AcDbBlockReference
  2
_DOTSMALL
 10
9178.600000000001
 20
8209.26421844369
 30
0.0
 41
100.0
 42
100.0
 43
100.0
  0
INSERT
  5
24E1E
330
246B8
100
AcDbEntity
  8
寸法
 62
     0
 48
50.0
370
    -2
100
AcDbBlockReference
  2
_DOTSMALL
 10
8223.600000000008
 20
8209.26421844369
 30
0.0
 41
100.0
 42
100.0
 43
100.0
 50
180.0
  0
MTEXT
  5
24E1F
330
246B8
100
AcDbEntity
  8
寸法
 62
     7
 48
50.0
100
AcDbMText
 10
8701.100000000003
 20
8309.26421844369
 30
0.0
 40
120.0
 41
0.0
 71
     5
 72
     1
  1
\A1;955
  7
STYLE1
 73
     1
 44
1.0
1001
ACAD
1000
MTEXTBEGIN
1070
    73
1070
     1
1070
    44
1040
1.0
1070
    74
1070
     0
1000
MTEXTEND
  0
POINT
  5
24E20
330
246B8
100
AcDbEntity
  8
DEFPOINTS
 62
     0
 48
50.0
100
AcDbPoint
 10
9178.600000000001
 20
7726.655401773442
 30
0.0
  0
POINT
  5
24E21
330
246B8
100
AcDbEntity
  8
DEFPOINTS
 62
     0
 48
50.0
100
AcDbPoint
 10
8223.600000000008
 20
7043.655401773442
 30
0.0
  0
POINT
  5
24E22
330
246B8
100
AcDbEntity
  8
DEFPOINTS
 62
     0
 48
50.0
100
AcDbPoint
 10
8223.600000000008
 20
8209.26421844369
 30
0.0
  0
ENDBLK
  5
246C3
330
246B8
100
AcDbEntity
  8
0
 48
50.0
100
AcDbBlockEnd
  0
BLOCK
  5
246CD
330
246C4
100
AcDbEntity
  8
0
 48
50.0
100
AcDbBlockBegin
  2
*D27
 70
     1
 10
0.0
 20
0.0
 30
0.0
  3
*D27
  1

  0
LINE
  5
24BB9
330
246C4
100
AcDbEntity
  8
寸法
 62
     0
 48
50.0
370
    -2
100
AcDbLine
 10
9055.600000000001
 20
7673.655401773442
 30
0.0
 11
9055.600000000001
 21
8512.921859867352
 31
0.0
  0
LINE
  5
24BBA
330
246C4
100
AcDbEntity
  8
寸法
 62
     0
 48
50.0
370
    -2
100
AcDbLine
 10
7391.600000000001
 20
7673.655401773442
 30
0.0
 11
7391.600000000001
 21
8512.921859867352
 31
0.0
  0
LINE
  5
24BBB
330
246C4
100
AcDbEntity
  8
寸法
 62
     0
 48
50.0
370
    -2
100
AcDbLine
 10
9055.600000000001
 20
8452.921859867352
 30
0.0
 11
7391.600000000001
 21
8452.921859867352
 31
0.0
  0
INSERT
  5
24BBC
330
246C4
100
AcDbEntity
  8
寸法
 62
     0
 48
50.0
370
    -2
100
AcDbBlockReference
  2
_DOTSMALL
 10
9055.600000000001
 20
8452.921859867352
 30
0.0
 41
100.0
 42
100.0
 43
100.0
  0
INSERT
  5
24BBD
330
246C4
100
AcDbEntity
  8
寸法
 62
     0
 48
50.0
370
    -2
100
AcDbBlockReference
  2
_DOTSMALL
 10
7391.600000000001
 20
8452.921859867352
 30
0.0
 41
100.0
 42
100.0
 43
100.0
 50
180.0
  0
MTEXT
  5
24BBE
330
246C4
100
AcDbEntity
  8
寸法
 62
     7
 48
50.0
100
AcDbMText
 10
8223.600000000001
 20
8552.921859867351
 30
0.0
 40
120.0
 41
0.0
 71
     5
 72
     1
  1
\A1;1664
  7
STYLE1
 73
     1
 44
1.0
1001
ACAD
1000
MTEXTBEGIN
1070
    73
1070
     1
1070
    44
1040
1.0
1070
    74
1070
     0
1000
MTEXTEND
  0
POINT
  5
24BBF
330
246C4
100
AcDbEntity
  8
DEFPOINTS
 62
     0
 48
50.0
100
AcDbPoint
 10
9055.600000000001
 20
7653.655401773441
 30
0.0
  0
POINT
  5
24BC0
330
246C4
100
AcDbEntity
  8
DEFPOINTS
 62
     0
 48
50.0
100
AcDbPoint
 10
7391.600000000001
 20
7653.655401773441
 30
0.0
  0
POINT
  5
24BC1
330
246C4
100
AcDbEntity
  8
DEFPOINTS
 62
     0
 48
50.0
100
AcDbPoint
 10
7391.600000000001
 20
8452.921859867352
 30
0.0
  0
ENDBLK
  5
246CE
330
246C4
100
AcDbEntity
  8
0
 48
50.0
100
AcDbBlockEnd
  0
BLOCK
  5
246D9
330
246CF
100
AcDbEntity
  8
0
 48
50.0
100
AcDbBlockBegin
  2
*D28
 70
     1
 10
0.0
 20
0.0
 30
0.0
  3
*D28
  1

  0
LINE
  5
24BB0
330
246CF
100
AcDbEntity
  8
寸法
 62
     0
 48
50.0
370
    -2
100
AcDbLine
 10
7268.600000000001
 20
7746.655401773442
 30
0.0
 11
7268.600000000001
 21
8744.875723832359
 31
0.0
  0
LINE
  5
24BB1
330
246CF
100
AcDbEntity
  8
寸法
 62
     0
 48
50.0
370
    -2
100
AcDbLine
 10
9178.600000000001
 20
7746.655401773442
 30
0.0
 11
9178.600000000001
 21
8744.875723832359
 31
0.0
  0
LINE
  5
24BB2
330
246CF
100
AcDbEntity
  8
寸法
 62
     0
 48
50.0
370
    -2
100
AcDbLine
 10
7268.600000000001
 20
8684.875723832361
 30
0.0
 11
9178.600000000001
 21
8684.875723832361
 31
0.0
  0
INSERT
  5
24BB3
330
246CF
100
AcDbEntity
  8
寸法
 62
     0
 48
50.0
370
    -2
100
AcDbBlockReference
  2
_DOTSMALL
 10
7268.600000000001
 20
8684.875723832361
 30
0.0
 41
100.0
 42
100.0
 43
100.0
 50
180.0
  0
INSERT
  5
24BB4
330
246CF
100
AcDbEntity
  8
寸法
 62
     0
 48
50.0
370
    -2
100
AcDbBlockReference
  2
_DOTSMALL
 10
9178.600000000001
 20
8684.875723832361
 30
0.0
 41
100.0
 42
100.0
 43
100.0
  0
MTEXT
  5
24BB5
330
246CF
100
AcDbEntity
  8
寸法
 62
     7
 48
50.0
100
AcDbMText
 10
8223.600000000001
 20
8784.87572383236
 30
0.0
 40
120.0
 41
0.0
 71
     5
 72
     1
  1
\A1;1910
  7
STYLE1
 73
     1
 44
1.0
1001
ACAD
1000
MTEXTBEGIN
1070
    73
1070
     1
1070
    44
1040
1.0
1070
    74
1070
     0
1000
MTEXTEND
  0
POINT
  5
24BB6
330
246CF
100
AcDbEntity
  8
DEFPOINTS
 62
     0
 48
50.0
100
AcDbPoint
 10
7268.600000000001
 20
7726.655401773442
 30
0.0
  0
POINT
  5
24BB7
330
246CF
100
AcDbEntity
  8
DEFPOINTS
 62
     0
 48
50.0
100
AcDbPoint
 10
9178.600000000001
 20
7726.655401773442
 30
0.0
  0
POINT
  5
24BB8
330
246CF
100
AcDbEntity
  8
DEFPOINTS
 62
     0
 48
50.0
100
AcDbPoint
 10
9178.600000000001
 20
8684.875723832361
 30
0.0
  0
ENDBLK
  5
246DA
330
246CF
100
AcDbEntity
  8
0
 48
50.0
100
AcDbBlockEnd
  0
BLOCK
  5
246E5
330
246DB
100
AcDbEntity
  8
0
 48
50.0
100
AcDbBlockBegin
  2
*D29
 70
     1
 10
0.0
 20
0.0
 30
0.0
  3
*D29
  1

  0
LINE
  5
24C57
330
246DB
100
AcDbEntity
  8
寸法
 62
     0
 48
50.0
370
    -2
100
AcDbLine
 10
8153.600000000007
 20
6993.655401773442
 30
0.0
 11
7691.285990614303
 21
6993.655401773442
 31
0.0
  0
LINE
  5
24C58
330
246DB
100
AcDbEntity
  8
寸法
 62
     0
 48
50.0
370
    -2
100
AcDbLine
 10
7822.765475140901
 20
7726.655401773442
 30
0.0
 11
7691.285990614303
 21
7726.655401773442
 31
0.0
  0
LINE
  5
24C59
330
246DB
100
AcDbEntity
  8
寸法
 62
     0
 48
50.0
370
    -2
100
AcDbLine
 10
7751.285990614302
 20
6993.655401773442
 30
0.0
 11
7751.285990614302
 21
7726.655401773442
 31
0.0
  0
INSERT
  5
24C5A
330
246DB
100
AcDbEntity
  8
寸法
 62
     0
 48
50.0
370
    -2
100
AcDbBlockReference
  2
_DOTSMALL
 10
7751.285990614302
 20
6993.655401773442
 30
0.0
 41
100.0
 42
100.0
 43
100.0
 50
270.0
  0
INSERT
  5
24C5B
330
246DB
100
AcDbEntity
  8
寸法
 62
     0
 48
50.0
370
    -2
100
AcDbBlockReference
  2
_DOTSMALL
 10
7751.285990614302
 20
7726.655401773442
 30
0.0
 41
100.0
 42
100.0
 43
100.0
 50
90.0
  0
MTEXT
  5
24C5C
330
246DB
100
AcDbEntity
  8
寸法
 62
     7
 48
50.0
100
AcDbMText
 10
7651.285990614301
 20
7289.250192467618
 30
0.0
 40
120.0
 41
0.0
 71
     5
 72
     1
  1
\A1;733
  7
STYLE1
 11
0.0000000000000001
 21
1.0
 31
0.0
 73
     1
 44
1.0
1001
ACAD
1000
MTEXTBEGIN
1070
    73
1070
     1
1070
    44
1040
1.0
1070
    74
1070
     0
1000
MTEXTEND
  0
POINT
  5
24C5D
330
246DB
100
AcDbEntity
  8
DEFPOINTS
 62
     0
 48
50.0
100
AcDbPoint
 10
8173.600000000007
 20
6993.655401773442
 30
0.0
  0
POINT
  5
24C5E
330
246DB
100
AcDbEntity
  8
DEFPOINTS
 62
     0
 48
50.0
100
AcDbPoint
 10
7842.7654751409
 20
7726.655401773442
 30
0.0
  0
POINT
  5
24C5F
330
246DB
100
AcDbEntity
  8
DEFPOINTS
 62
     0
 48
50.0
100
AcDbPoint
 10
7751.285990614302
 20
7726.655401773442
 30
0.0
  0
ENDBLK
  5
246E6
330
246DB
100
AcDbEntity
  8
0
 48
50.0
100
AcDbBlockEnd
  0
BLOCK
  5
246F1
330
246E7
100
AcDbEntity
  8
0
 48
50.0
100
AcDbBlockBegin
  2
*D30
 70
     1
 10
0.0
 20
0.0
 30
0.0
  3
*D30
  1

  0
LINE
  5
24E11
330
246E7
100
AcDbEntity
  8
寸法
 62
     0
 48
50.0
370
    -2
100
AcDbLine
 10
8223.600000000008
 20
7063.655401773441
 30
0.0
 11
8223.600000000008
 21
8269.264218443691
 31
0.0
  0
LINE
  5
24E12
330
246E7
100
AcDbEntity
  8
寸法
 62
     0
 48
50.0
370
    -2
100
AcDbLine
 10
7268.600000000001
 20
7746.655401773442
 30
0.0
 11
7268.600000000001
 21
8269.264218443691
 31
0.0
  0
LINE
  5
24E13
330
246E7
100
AcDbEntity
  8
寸法
 62
     0
 48
50.0
370
    -2
100
AcDbLine
 10
8223.600000000008
 20
8209.26421844369
 30
0.0
 11
7268.600000000001
 21
8209.26421844369
 31
0.0
  0
INSERT
  5
24E14
330
246E7
100
AcDbEntity
  8
寸法
 62
     0
 48
50.0
370
    -2
100
AcDbBlockReference
  2
_DOTSMALL
 10
8223.600000000008
 20
8209.26421844369
 30
0.0
 41
100.0
 42
100.0
 43
100.0
  0
INSERT
  5
24E15
330
246E7
100
AcDbEntity
  8
寸法
 62
     0
 48
50.0
370
    -2
100
AcDbBlockReference
  2
_DOTSMALL
 10
7268.600000000001
 20
8209.26421844369
 30
0.0
 41
100.0
 42
100.0
 43
100.0
 50
180.0
  0
MTEXT
  5
24E16
330
246E7
100
AcDbEntity
  8
寸法
 62
     7
 48
50.0
100
AcDbMText
 10
7746.100000000004
 20
8309.26421844369
 30
0.0
 40
120.0
 41
0.0
 71
     5
 72
     1
  1
\A1;955
  7
STYLE1
 73
     1
 44
1.0
1001
ACAD
1000
MTEXTBEGIN
1070
    73
1070
     1
1070
    44
1040
1.0
1070
    74
1070
     0
1000
MTEXTEND
  0
POINT
  5
24E17
330
246E7
100
AcDbEntity
  8
DEFPOINTS
 62
     0
 48
50.0
100
AcDbPoint
 10
8223.600000000008
 20
7043.655401773442
 30
0.0
  0
POINT
  5
24E18
330
246E7
100
AcDbEntity
  8
DEFPOINTS
 62
     0
 48
50.0
100
AcDbPoint
 10
7268.600000000001
 20
7726.655401773442
 30
0.0
  0
POINT
  5
24E19
330
246E7
100
AcDbEntity
  8
DEFPOINTS
 62
     0
 48
50.0
100
AcDbPoint
 10
7268.600000000001
 20
8209.26421844369
 30
0.0
  0
ENDBLK
  5
246F2
330
246E7
100
AcDbEntity
  8
0
 48
50.0
100
AcDbBlockEnd
  0
BLOCK
  5
246FD
330
246F3
100
AcDbEntity
  8
0
 48
50.0
100
AcDbBlockBegin
  2
*D31
 70
     1
 10
0.0
 20
0.0
 30
0.0
  3
*D31
  1

  0
LINE
  5
24B95
330
246F3
100
AcDbEntity
  8
寸法
 62
     0
 48
50.0
370
    -2
100
AcDbLine
 10
7248.6
 20
7726.655401773442
 30
0.0
 11
6333.721909610675
 21
7726.655401773442
 31
0.0
  0
LINE
  5
24B96
330
246F3
100
AcDbEntity
  8
寸法
 62
     0
 48
50.0
370
    -2
100
AcDbLine
 10
7248.6
 20
6186.655401773442
 30
0.0
 11
6333.721909610675
 21
6186.655401773442
 31
0.0
  0
LINE
  5
24B97
330
246F3
100
AcDbEntity
  8
寸法
 62
     0
 48
50.0
370
    -2
100
AcDbLine
 10
6393.721909610674
 20
7726.655401773442
 30
0.0
 11
6393.721909610674
 21
6186.655401773442
 31
0.0
  0
INSERT
  5
24B98
330
246F3
100
AcDbEntity
  8
寸法
 62
     0
 48
50.0
370
    -2
100
AcDbBlockReference
  2
_DOTSMALL
 10
6393.721909610674
 20
7726.655401773442
 30
0.0
 41
100.0
 42
100.0
 43
100.0
 50
90.0
  0
INSERT
  5
24B99
330
246F3
100
AcDbEntity
  8
寸法
 62
     0
 48
50.0
370
    -2
100
AcDbBlockReference
  2
_DOTSMALL
 10
6393.721909610674
 20
6186.655401773442
 30
0.0
 41
100.0
 42
100.0
 43
100.0
 50
270.0
  0
MTEXT
  5
24B9A
330
246F3
100
AcDbEntity
  8
寸法
 62
     7
 48
50.0
100
AcDbMText
 10
6293.721909610673
 20
6994.155401773442
 30
0.0
 40
120.0
 41
0.0
 71
     5
 72
     1
  1
\A1;1540
  7
STYLE1
 11
0.0000000000000001
 21
1.0
 31
0.0
 73
     1
 44
1.0
1001
ACAD
1000
MTEXTBEGIN
1070
    73
1070
     1
1070
    44
1040
1.0
1070
    74
1070
     0
1000
MTEXTEND
  0
POINT
  5
24B9B
330
246F3
100
AcDbEntity
  8
DEFPOINTS
 62
     0
 48
50.0
100
AcDbPoint
 10
7268.600000000001
 20
7726.655401773442
 30
0.0
  0
POINT
  5
24B9C
330
246F3
100
AcDbEntity
  8
DEFPOINTS
 62
     0
 48
50.0
100
AcDbPoint
 10
7268.600000000001
 20
6186.655401773442
 30
0.0
  0
POINT
  5
24B9D
330
246F3
100
AcDbEntity
  8
DEFPOINTS
 62
     0
 48
50.0
100
AcDbPoint
 10
6393.721909610674
 20
6186.655401773442
 30
0.0
  0
ENDBLK
  5
246FE
330
246F3
100
AcDbEntity
  8
0
 48
50.0
100
AcDbBlockEnd
  0
BLOCK
  5
24709
330
246FF
100
AcDbEntity
  8
0
 48
50.0
100
AcDbBlockBegin
  2
*D32
 70
     1
 10
0.0
 20
0.0
 30
0.0
  3
*D32
  1

  0
LINE
  5
24C3A
330
246FF
100
AcDbEntity
  8
寸法
 62
     0
 48
50.0
370
    -2
100
AcDbLine
 10
7321.6
 20
7603.655401773441
 30
0.0
 11
6585.665006330073
 21
7603.655401773441
 31
0.0
  0
LINE
  5
24C3B
330
246FF
100
AcDbEntity
  8
寸法
 62
     0
 48
50.0
370
    -2
100
AcDbLine
 10
7321.600000000008
 20
6384.655401773446
 30
0.0
 11
6585.665006330073
 21
6384.655401773446
 31
0.0
  0
LINE
  5
24C3C
330
246FF
100
AcDbEntity
  8
寸法
 62
     0
 48
50.0
370
    -2
100
AcDbLine
 10
6645.665006330073
 20
7603.655401773441
 30
0.0
 11
6645.665006330073
 21
6384.655401773446
 31
0.0
  0
INSERT
  5
24C3D
330
246FF
100
AcDbEntity
  8
寸法
 62
     0
 48
50.0
370
    -2
100
AcDbBlockReference
  2
_DOTSMALL
 10
6645.665006330073
 20
7603.655401773441
 30
0.0
 41
100.0
 42
100.0
 43
100.0
 50
90.0
  0
INSERT
  5
24C3E
330
246FF
100
AcDbEntity
  8
寸法
 62
     0
 48
50.0
370
    -2
100
AcDbBlockReference
  2
_DOTSMALL
 10
6645.665006330073
 20
6384.655401773446
 30
0.0
 41
100.0
 42
100.0
 43
100.0
 50
270.0
  0
MTEXT
  5
24C3F
330
246FF
100
AcDbEntity
  8
寸法
 62
     7
 48
50.0
100
AcDbMText
 10
6545.653195306449
 20
6994.155401773442
 30
0.0
 40
120.0
 41
0.0
 71
     5
 72
     1
  1
\A1;1219
  7
STYLE1
 11
0.0000000000000001
 21
1.0
 31
0.0
 73
     1
 44
1.0
1001
ACAD
1000
MTEXTBEGIN
1070
    73
1070
     1
1070
    44
1040
1.0
1070
    74
1070
     0
1000
MTEXTEND
  0
POINT
  5
24C40
330
246FF
100
AcDbEntity
  8
DEFPOINTS
 62
     0
 48
50.0
100
AcDbPoint
 10
7341.600000000001
 20
7603.655401773441
 30
0.0
  0
POINT
  5
24C41
330
246FF
100
AcDbEntity
  8
DEFPOINTS
 62
     0
 48
50.0
100
AcDbPoint
 10
7341.600000000008
 20
6384.655401773446
 30
0.0
  0
POINT
  5
24C42
330
246FF
100
AcDbEntity
  8
DEFPOINTS
 62
     0
 48
50.0
100
AcDbPoint
 10
6645.665006330073
 20
6384.655401773446
 30
0.0
  0
ENDBLK
  5
2470A
330
246FF
100
AcDbEntity
  8
0
 48
50.0
100
AcDbBlockEnd
  0
BLOCK
  5
24722
330
24717
100
AcDbEntity
  8
0
 48
50.0
100
AcDbBlockBegin
  2
*D33
 70
     1
 10
0.0
 20
0.0
 30
0.0
  3
*D33
  1

  0
LINE
  5
24C30
330
24717
100
AcDbEntity
  8
寸法
 62
     0
 48
50.0
370
    -2
100
AcDbLine
 10
7321.600000000008
 20
6384.655401773446
 30
0.0
 11
6585.665006330073
 21
6384.655401773446
 31
0.0
  0
LINE
  5
24C31
330
24717
100
AcDbEntity
  8
寸法
 62
     0
 48
50.0
370
    -2
100
AcDbLine
 10
7248.6
 20
6186.655401773442
 30
0.0
 11
6585.665006330073
 21
6186.655401773442
 31
0.0
  0
LINE
  5
24C32
330
24717
100
AcDbEntity
  8
寸法
 62
     0
 48
50.0
370
    -2
100
AcDbLine
 10
6645.665006330073
 20
6384.655401773446
 30
0.0
 11
6645.665006330073
 21
6186.655401773442
 31
0.0
  0
LINE
  5
24C33
330
24717
100
AcDbEntity
  8
寸法
 62
     0
 48
50.0
370
    -2
100
AcDbLine
 10
6645.665006330073
 20
6186.655401773442
 30
0.0
 11
6645.665006330073
 21
5714.914793101191
 31
0.0
  0
INSERT
  5
24C34
330
24717
100
AcDbEntity
  8
寸法
 62
     0
 48
50.0
370
    -2
100
AcDbBlockReference
  2
_DOTSMALL
 10
6645.665006330073
 20
6384.655401773446
 30
0.0
 41
100.0
 42
100.0
 43
100.0
 50
90.0
  0
INSERT
  5
24C35
330
24717
100
AcDbEntity
  8
寸法
 62
     0
 48
50.0
370
    -2
100
AcDbBlockReference
  2
_DOTSMALL
 10
6645.665006330073
 20
6186.655401773442
 30
0.0
 41
100.0
 42
100.0
 43
100.0
 50
270.0
  0
MTEXT
  5
24C36
330
24717
100
AcDbEntity
  8
寸法
 62
     7
 48
50.0
100
AcDbMText
 10
6545.665006330072
 20
5851.12445293085
 30
0.0
 40
120.0
 41
0.0
 71
     5
 72
     1
  1
\A1;198
  7
STYLE1
 11
0.0000000000000001
 21
1.0
 31
0.0
 73
     1
 44
1.0
1001
ACAD
1000
MTEXTBEGIN
1070
    73
1070
     1
1070
    44
1040
1.0
1070
    74
1070
     0
1000
MTEXTEND
  0
POINT
  5
24C37
330
24717
100
AcDbEntity
  8
DEFPOINTS
 62
     0
 48
50.0
100
AcDbPoint
 10
7341.600000000008
 20
6384.655401773446
 30
0.0
  0
POINT
  5
24C38
330
24717
100
AcDbEntity
  8
DEFPOINTS
 62
     0
 48
50.0
100
AcDbPoint
 10
7268.600000000001
 20
6186.655401773442
 30
0.0
  0
POINT
  5
24C39
330
24717
100
AcDbEntity
  8
DEFPOINTS
 62
     0
 48
50.0
100
AcDbPoint
 10
6645.665006330073
 20
6186.655401773442
 30
0.0
  0
ENDBLK
  5
24723
330
24717
100
AcDbEntity
  8
0
 48
50.0
100
AcDbBlockEnd
  0
BLOCK
  5
2472E
330
24724
100
AcDbEntity
  8
0
 48
50.0
100
AcDbBlockBegin
  2
*D34
 70
     1
 10
0.0
 20
0.0
 30
0.0
  3
*D34
  1

  0
LINE
  5
24B79
330
24724
100
AcDbEntity
  8
寸法
 62
     0
 48
50.0
370
    -2
100
AcDbLine
 10
7248.6
 20
6186.655401773438
 30
0.0
 11
7095.512673767878
 21
6186.655401773438
 31
0.0
  0
LINE
  5
24B7A
330
24724
100
AcDbEntity
  8
寸法
 62
     0
 48
50.0
370
    -2
100
AcDbLine
 10
7604.325326928806
 20
5466.655401773437
 30
0.0
 11
7095.512673767878
 21
5466.655401773437
 31
0.0
  0
LINE
  5
24B7B
330
24724
100
AcDbEntity
  8
寸法
 62
     0
 48
50.0
370
    -2
100
AcDbLine
 10
7155.512673767879
 20
6186.655401773438
 30
0.0
 11
7155.512673767877
 21
5466.655401773437
 31
0.0
  0
INSERT
  5
24B7C
330
24724
100
AcDbEntity
  8
寸法
 62
     0
 48
50.0
370
    -2
100
AcDbBlockReference
  2
_DOTSMALL
 10
7155.512673767879
 20
6186.655401773438
 30
0.0
 41
100.0
 42
100.0
 43
100.0
 50
90.0
  0
INSERT
  5
24B7D
330
24724
100
AcDbEntity
  8
寸法
 62
     0
 48
50.0
370
    -2
100
AcDbBlockReference
  2
_DOTSMALL
 10
7155.512673767877
 20
5466.655401773437
 30
0.0
 41
100.0
 42
100.0
 43
100.0
 50
270.0
  0
MTEXT
  5
24B7E
330
24724
100
AcDbEntity
  8
寸法
 62
     7
 48
50.0
100
AcDbMText
 10
7055.500862744255
 20
5826.655401773439
 30
0.0
 40
120.0
 41
0.0
 71
     5
 72
     1
  1
\A1;扉の出720
  7
STYLE1
 11
0.0000000000000001
 21
1.0
 31
0.0
 73
     1
 44
1.0
1001
ACAD
1000
MTEXTBEGIN
1070
    73
1070
     1
1070
    44
1040
1.0
1070
    74
1070
     0
1000
MTEXTEND
  0
POINT
  5
24B7F
330
24724
100
AcDbEntity
  8
DEFPOINTS
 62
     0
 48
50.0
100
AcDbPoint
 10
7268.600000000001
 20
6186.655401773438
 30
0.0
  0
POINT
  5
24B80
330
24724
100
AcDbEntity
  8
DEFPOINTS
 62
     0
 48
50.0
100
AcDbPoint
 10
7624.325326928804
 20
5466.655401773437
 30
0.0
  0
POINT
  5
24B81
330
24724
100
AcDbEntity
  8
DEFPOINTS
 62
     0
 48
50.0
100
AcDbPoint
 10
7155.512673767877
 20
5466.655401773437
 30
0.0
  0
ENDBLK
  5
2472F
330
24724
100
AcDbEntity
  8
0
 48
50.0
100
AcDbBlockEnd
  0
BLOCK
  5
2473A
330
24730
100
AcDbEntity
  8
0
 48
50.0
100
AcDbBlockBegin
  2
*D35
 70
     1
 10
0.0
 20
0.0
 30
0.0
  3
*D35
  1

  0
LINE
  5
24C4E
330
24730
100
AcDbEntity
  8
寸法
 62
     0
 48
50.0
370
    -2
100
AcDbLine
 10
7822.765475140901
 20
6186.655401773453
 30
0.0
 11
7691.285990614303
 21
6186.655401773453
 31
0.0
  0
LINE
  5
24C4F
330
24730
100
AcDbEntity
  8
寸法
 62
     0
 48
50.0
370
    -2
100
AcDbLine
 10
8153.600000000007
 20
6993.655401773442
 30
0.0
 11
7691.285990614303
 21
6993.655401773442
 31
0.0
  0
LINE
  5
24C50
330
24730
100
AcDbEntity
  8
寸法
 62
     0
 48
50.0
370
    -2
100
AcDbLine
 10
7751.285990614302
 20
6186.655401773453
 30
0.0
 11
7751.285990614302
 21
6993.655401773442
 31
0.0
  0
INSERT
  5
24C51
330
24730
100
AcDbEntity
  8
寸法
 62
     0
 48
50.0
370
    -2
100
AcDbBlockReference
  2
_DOTSMALL
 10
7751.285990614302
 20
6186.655401773453
 30
0.0
 41
100.0
 42
100.0
 43
100.0
 50
270.0
  0
INSERT
  5
24C52
330
24730
100
AcDbEntity
  8
寸法
 62
     0
 48
50.0
370
    -2
100
AcDbBlockReference
  2
_DOTSMALL
 10
7751.285990614302
 20
6993.655401773442
 30
0.0
 41
100.0
 42
100.0
 43
100.0
 50
90.0
  0
MTEXT
  5
24C53
330
24730
100
AcDbEntity
  8
寸法
 62
     7
 48
50.0
100
AcDbMText
 10
7651.285990614301
 20
6591.655401773441
 30
0.0
 40
120.0
 41
0.0
 71
     5
 72
     1
  1
\A1;807
  7
STYLE1
 11
0.0000000000000001
 21
1.0
 31
0.0
 73
     1
 44
1.0
1001
ACAD
1000
MTEXTBEGIN
1070
    73
1070
     1
1070
    44
1040
1.0
1070
    74
1070
     0
1000
MTEXTEND
  0
POINT
  5
24C54
330
24730
100
AcDbEntity
  8
DEFPOINTS
 62
     0
 48
50.0
100
AcDbPoint
 10
7842.7654751409
 20
6186.655401773453
 30
0.0
  0
POINT
  5
24C55
330
24730
100
AcDbEntity
  8
DEFPOINTS
 62
     0
 48
50.0
100
AcDbPoint
 10
8173.600000000007
 20
6993.655401773442
 30
0.0
  0
POINT
  5
24C56
330
24730
100
AcDbEntity
  8
DEFPOINTS
 62
     0
 48
50.0
100
AcDbPoint
 10
7751.285990614302
 20
6993.655401773442
 30
0.0
  0
ENDBLK
  5
2473B
330
24730
100
AcDbEntity
  8
0
 48
50.0
100
AcDbBlockEnd
  0
BLOCK
  5
24751
330
24746
100
AcDbEntity
  8
0
 48
50.0
100
AcDbBlockBegin
  2
*D36
 70
     1
 10
0.0
 20
0.0
 30
0.0
  3
*D36
  1

  0
LINE
  5
24B66
330
24746
100
AcDbEntity
  8
寸法
 62
     0
 48
50.0
370
    -2
100
AcDbLine
 10
7248.6
 20
7726.655401773442
 30
0.0
 11
6585.665006330072
 21
7726.655401773442
 31
0.0
  0
LINE
  5
24B67
330
24746
100
AcDbEntity
  8
寸法
 62
     0
 48
50.0
370
    -2
100
AcDbLine
 10
7321.6
 20
7603.655401773441
 30
0.0
 11
6585.665006330072
 21
7603.655401773441
 31
0.0
  0
LINE
  5
24B68
330
24746
100
AcDbEntity
  8
寸法
 62
     0
 48
50.0
370
    -2
100
AcDbLine
 10
6645.665006330073
 20
7603.655401773441
 30
0.0
 11
6645.665006330073
 21
7726.655401773442
 31
0.0
  0
LINE
  5
24B69
330
24746
100
AcDbEntity
  8
寸法
 62
     0
 48
50.0
370
    -2
100
AcDbLine
 10
6645.665006330073
 20
7726.655401773442
 30
0.0
 11
6645.665006330073
 21
8138.247284865478
 31
0.0
  0
INSERT
  5
24B6A
330
24746
100
AcDbEntity
  8
寸法
 62
     0
 48
50.0
370
    -2
100
AcDbBlockReference
  2
_DOTSMALL
 10
6645.665006330073
 20
7603.655401773441
 30
0.0
 41
100.0
 42
100.0
 43
100.0
 50
270.0
  0
INSERT
  5
24B6B
330
24746
100
AcDbEntity
  8
寸法
 62
     0
 48
50.0
370
    -2
100
AcDbBlockReference
  2
_DOTSMALL
 10
6645.665006330073
 20
7726.655401773442
 30
0.0
 41
100.0
 42
100.0
 43
100.0
 50
90.0
  0
MTEXT
  5
24B6C
330
24746
100
AcDbEntity
  8
寸法
 62
     7
 48
50.0
100
AcDbMText
 10
6545.653195306449
 20
7999.762003491241
 30
0.0
 40
120.0
 41
0.0
 71
     5
 72
     1
  1
\A1;123
  7
STYLE1
 11
0.0000000000000001
 21
1.0
 31
0.0
 73
     1
 44
1.0
1001
ACAD
1000
MTEXTBEGIN
1070
    73
1070
     1
1070
    44
1040
1.0
1070
    74
1070
     0
1000
MTEXTEND
  0
POINT
  5
24B6D
330
24746
100
AcDbEntity
  8
DEFPOINTS
 62
     0
 48
50.0
100
AcDbPoint
 10
7268.600000000001
 20
7726.655401773442
 30
0.0
  0
POINT
  5
24B6E
330
24746
100
AcDbEntity
  8
DEFPOINTS
 62
     0
 48
50.0
100
AcDbPoint
 10
7341.600000000001
 20
7603.655401773441
 30
0.0
  0
POINT
  5
24B6F
330
24746
100
AcDbEntity
  8
DEFPOINTS
 62
     0
 48
50.0
100
AcDbPoint
 10
6645.665006330073
 20
7603.655401773441
 30
0.0
  0
ENDBLK
  5
24752
330
24746
100
AcDbEntity
  8
0
 48
50.0
100
AcDbBlockEnd
  0
BLOCK
  5
2476B
330
24760
100
AcDbEntity
  8
0
 48
50.0
100
AcDbBlockBegin
  2
*D37
 70
     1
 10
0.0
 20
0.0
 30
0.0
  3
*D37
  1

  0
LINE
  5
24B5C
330
24760
100
AcDbEntity
  8
寸法
 62
     0
 48
50.0
370
    -2
100
AcDbLine
 10
7391.600000000001
 20
7673.655401773442
 30
0.0
 11
7391.600000000001
 21
8512.921859867352
 31
0.0
  0
LINE
  5
24B5D
330
24760
100
AcDbEntity
  8
寸法
 62
     0
 48
50.0
370
    -2
100
AcDbLine
 10
7268.600000000001
 20
7746.655401773442
 30
0.0
 11
7268.600000000001
 21
8512.921859867352
 31
0.0
  0
LINE
  5
24B5E
330
24760
100
AcDbEntity
  8
寸法
 62
     0
 48
50.0
370
    -2
100
AcDbLine
 10
7391.600000000001
 20
8452.921859867352
 30
0.0
 11
7268.600000000001
 21
8452.921859867352
 31
0.0
  0
LINE
  5
24B5F
330
24760
100
AcDbEntity
  8
寸法
 62
     0
 48
50.0
370
    -2
100
AcDbLine
 10
7268.600000000001
 20
8452.921859867352
 30
0.0
 11
6857.008116907962
 21
8452.921859867352
 31
0.0
  0
INSERT
  5
24B60
330
24760
100
AcDbEntity
  8
寸法
 62
     0
 48
50.0
370
    -2
100
AcDbBlockReference
  2
_DOTSMALL
 10
7391.600000000001
 20
8452.921859867352
 30
0.0
 41
100.0
 42
100.0
 43
100.0
  0
INSERT
  5
24B61
330
24760
100
AcDbEntity
  8
寸法
 62
     0
 48
50.0
370
    -2
100
AcDbBlockReference
  2
_DOTSMALL
 10
7268.600000000001
 20
8452.921859867352
 30
0.0
 41
100.0
 42
100.0
 43
100.0
 50
180.0
  0
MTEXT
  5
24B62
330
24760
100
AcDbEntity
  8
寸法
 62
     7
 48
50.0
100
AcDbMText
 10
6995.493398282203
 20
8552.933670890974
 30
0.0
 40
120.0
 41
0.0
 71
     5
 72
     1
  1
\A1;123
  7
STYLE1
 73
     1
 44
1.0
1001
ACAD
1000
MTEXTBEGIN
1070
    73
1070
     1
1070
    44
1040
1.0
1070
    74
1070
     0
1000
MTEXTEND
  0
POINT
  5
24B63
330
24760
100
AcDbEntity
  8
DEFPOINTS
 62
     0
 48
50.0
100
AcDbPoint
 10
7391.600000000001
 20
7653.655401773441
 30
0.0
  0
POINT
  5
24B64
330
24760
100
AcDbEntity
  8
DEFPOINTS
 62
     0
 48
50.0
100
AcDbPoint
 10
7268.600000000001
 20
7726.655401773442
 30
0.0
  0
POINT
  5
24B65
330
24760
100
AcDbEntity
  8
DEFPOINTS
 62
     0
 48
50.0
100
AcDbPoint
 10
7268.600000000001
 20
8452.921859867352
 30
0.0
  0
ENDBLK
  5
2476C
330
24760
100
AcDbEntity
  8
0
 48
50.0
100
AcDbBlockEnd
  0
BLOCK
  5
24785
330
2477A
100
AcDbEntity
  8
0
 48
50.0
100
AcDbBlockBegin
  2
*D38
 70
     1
 10
0.0
 20
0.0
 30
0.0
  3
*D38
  1

  0
LINE
  5
24B52
330
2477A
100
AcDbEntity
  8
寸法
 62
     0
 48
50.0
370
    -2
100
AcDbLine
 10
9178.600000000001
 20
7746.655401773442
 30
0.0
 11
9178.600000000001
 21
8512.921859867352
 31
0.0
  0
LINE
  5
24B53
330
2477A
100
AcDbEntity
  8
寸法
 62
     0
 48
50.0
370
    -2
100
AcDbLine
 10
9055.600000000001
 20
7673.655401773442
 30
0.0
 11
9055.600000000001
 21
8512.921859867352
 31
0.0
  0
LINE
  5
24B54
330
2477A
100
AcDbEntity
  8
寸法
 62
     0
 48
50.0
370
    -2
100
AcDbLine
 10
9055.600000000001
 20
8452.921859867352
 30
0.0
 11
9178.600000000001
 21
8452.921859867352
 31
0.0
  0
LINE
  5
24B55
330
2477A
100
AcDbEntity
  8
寸法
 62
     0
 48
50.0
370
    -2
100
AcDbLine
 10
9178.600000000001
 20
8452.921859867352
 30
0.0
 11
9590.191883092037
 21
8452.921859867352
 31
0.0
  0
INSERT
  5
24B56
330
2477A
100
AcDbEntity
  8
寸法
 62
     0
 48
50.0
370
    -2
100
AcDbBlockReference
  2
_DOTSMALL
 10
9055.600000000001
 20
8452.921859867352
 30
0.0
 41
100.0
 42
100.0
 43
100.0
 50
180.0
  0
INSERT
  5
24B57
330
2477A
100
AcDbEntity
  8
寸法
 62
     0
 48
50.0
370
    -2
100
AcDbBlockReference
  2
_DOTSMALL
 10
9178.600000000001
 20
8452.921859867352
 30
0.0
 41
100.0
 42
100.0
 43
100.0
  0
MTEXT
  5
24B58
330
2477A
100
AcDbEntity
  8
寸法
 62
     7
 48
50.0
100
AcDbMText
 10
9451.706601717798
 20
8552.933670890974
 30
0.0
 40
120.0
 41
0.0
 71
     5
 72
     1
  1
\A1;123
  7
STYLE1
 73
     1
 44
1.0
1001
ACAD
1000
MTEXTBEGIN
1070
    73
1070
     1
1070
    44
1040
1.0
1070
    74
1070
     0
1000
MTEXTEND
  0
POINT
  5
24B59
330
2477A
100
AcDbEntity
  8
DEFPOINTS
 62
     0
 48
50.0
100
AcDbPoint
 10
9178.600000000001
 20
7726.655401773442
 30
0.0
  0
POINT
  5
24B5A
330
2477A
100
AcDbEntity
  8
DEFPOINTS
 62
     0
 48
50.0
100
AcDbPoint
 10
9055.600000000001
 20
7653.655401773441
 30
0.0
  0
POINT
  5
24B5B
330
2477A
100
AcDbEntity
  8
DEFPOINTS
 62
     0
 48
50.0
100
AcDbPoint
 10
9055.600000000001
 20
8452.921859867352
 30
0.0
  0
ENDBLK
  5
24786
330
2477A
100
AcDbEntity
  8
0
 48
50.0
100
AcDbBlockEnd
  0
BLOCK
  5
25133
330
25129
100
AcDbEntity
  8
0
 48
50.0
100
AcDbBlockBegin
  2
*D39
 70
     1
 10
0.0
 20
0.0
 30
0.0
  3
*D39
  1

  0
LINE
  5
25173
330
25129
100
AcDbEntity
  8
寸法
 62
     0
 48
50.0
370
    -2
100
AcDbLine
 10
8352.319316964422
 20
2036.410691881693
 30
0.0
 11
8894.187916733265
 21
2036.410691881692
 31
0.0
  0
LINE
  5
25174
330
25129
100
AcDbEntity
  8
寸法
 62
     0
 48
50.0
370
    -2
100
AcDbLine
 10
8352.319316964422
 20
1712.410691881691
 30
0.0
 11
8894.187916733265
 21
1712.410691881691
 31
0.0
  0
LINE
  5
25175
330
25129
100
AcDbEntity
  8
寸法
 62
     0
 48
50.0
370
    -2
100
AcDbLine
 10
8834.187916733267
 20
2036.410691881692
 30
0.0
 11
8834.187916733267
 21
1712.410691881691
 31
0.0
  0
INSERT
  5
25176
330
25129
100
AcDbEntity
  8
寸法
 62
     0
 48
50.0
370
    -2
100
AcDbBlockReference
  2
_DOTSMALL
 10
8834.187916733267
 20
2036.410691881692
 30
0.0
 41
100.0
 42
100.0
 43
100.0
 50
90.0
  0
INSERT
  5
25177
330
25129
100
AcDbEntity
  8
寸法
 62
     0
 48
50.0
370
    -2
100
AcDbBlockReference
  2
_DOTSMALL
 10
8834.187916733267
 20
1712.410691881691
 30
0.0
 41
100.0
 42
100.0
 43
100.0
 50
270.0
  0
MTEXT
  5
25178
330
25129
100
AcDbEntity
  8
寸法
 62
     7
 48
50.0
100
AcDbMText
 10
8734.187916733267
 20
1874.410691881693
 30
0.0
 40
120.0
 41
0.0
 71
     5
 72
     1
  1
\A1;180
  7
STYLE1
 11
0.0000000000000001
 21
1.0
 31
0.0
 73
     1
 44
1.0
1001
ACAD
1000
MTEXTBEGIN
1070
    73
1070
     1
1070
    44
1040
1.0
1070
    74
1070
     0
1000
MTEXTEND
  0
POINT
  5
25179
330
25129
100
AcDbEntity
  8
DEFPOINTS
 62
     0
 48
50.0
100
AcDbPoint
 10
8332.319316964422
 20
2036.410691881693
 30
0.0
  0
POINT
  5
2517A
330
25129
100
AcDbEntity
  8
DEFPOINTS
 62
     0
 48
50.0
100
AcDbPoint
 10
8332.319316964422
 20
1712.410691881691
 30
0.0
  0
POINT
  5
2517B
330
25129
100
AcDbEntity
  8
DEFPOINTS
 62
     0
 48
50.0
100
AcDbPoint
 10
8834.187916733267
 20
1712.410691881691
 30
0.0
  0
ENDBLK
  5
25134
330
25129
100
AcDbEntity
  8
0
 48
50.0
100
AcDbBlockEnd
  0
BLOCK
  5
25141
330
25135
100
AcDbEntity
  8
0
 48
50.0
100
AcDbBlockBegin
  2
*D40
 70
     1
 10
0.0
 20
0.0
 30
0.0
  3
*D40
  1

  0
LINE
  5
2517C
330
25135
100
AcDbEntity
  8
寸法
 62
     0
 48
50.0
370
    -2
100
AcDbLine
 10
8165.119316964425
 20
2089.170691881694
 30
0.0
 11
9170.242582852294
 21
2089.170691881694
 31
0.0
  0
LINE
  5
2517D
330
25135
100
AcDbEntity
  8
寸法
 62
     0
 48
50.0
370
    -2
100
AcDbLine
 10
8352.319316964422
 20
2036.410691881693
 30
0.0
 11
9170.242582852294
 21
2036.410691881692
 31
0.0
  0
LINE
  5
2517E
330
25135
100
AcDbEntity
  8
寸法
 62
     0
 48
50.0
370
    -2
100
AcDbLine
 10
9110.242582852293
 20
2089.170691881694
 30
0.0
 11
9110.242582852293
 21
2189.170691881693
 31
0.0
  0
LINE
  5
2517F
330
25135
100
AcDbEntity
  8
寸法
 62
     0
 48
50.0
370
    -2
100
AcDbLine
 10
9110.242582852293
 20
2036.410691881692
 30
0.0
 11
9110.242582852293
 21
1304.392885038726
 31
0.0
  0
LINE
  5
25180
330
25135
100
AcDbEntity
  8
寸法
 62
     0
 48
50.0
370
    -2
100
AcDbLine
 10
9110.242582852293
 20
2089.170691881694
 30
0.0
 11
9110.242582852293
 21
2036.410691881692
 31
0.0
  0
INSERT
  5
25181
330
25135
100
AcDbEntity
  8
寸法
 62
     0
 48
50.0
370
    -2
100
AcDbBlockReference
  2
_DOTSMALL
 10
9110.242582852293
 20
2089.170691881694
 30
0.0
 41
100.0
 42
100.0
 43
100.0
 50
270.0
  0
INSERT
  5
25182
330
25135
100
AcDbEntity
  8
寸法
 62
     0
 48
50.0
370
    -2
100
AcDbBlockReference
  2
_DOTSMALL
 10
9110.242582852293
 20
2036.410691881692
 30
0.0
 41
100.0
 42
100.0
 43
100.0
 50
90.0
  0
MTEXT
  5
25183
330
25135
100
AcDbEntity
  8
寸法
 62
     7
 48
50.0
100
AcDbMText
 10
9010.230771828672
 20
1570.40178846021
 30
0.0
 40
120.0
 41
0.0
 71
     5
 72
     1
  1
\A1;20～25
  7
STYLE1
 11
0.0000000000000001
 21
1.0
 31
0.0
 73
     1
 44
1.0
1001
ACAD
1000
MTEXTBEGIN
1070
    73
1070
     1
1070
    44
1040
1.0
1070
    74
1070
     0
1000
MTEXTEND
  0
POINT
  5
25184
330
25135
100
AcDbEntity
  8
DEFPOINTS
 62
     0
 48
50.0
100
AcDbPoint
 10
8145.119316964425
 20
2089.170691881694
 30
0.0
  0
POINT
  5
25185
330
25135
100
AcDbEntity
  8
DEFPOINTS
 62
     0
 48
50.0
100
AcDbPoint
 10
8332.319316964422
 20
2036.410691881693
 30
0.0
  0
POINT
  5
25186
330
25135
100
AcDbEntity
  8
DEFPOINTS
 62
     0
 48
50.0
100
AcDbPoint
 10
9110.242582852293
 20
2036.410691881692
 30
0.0
  0
ENDBLK
  5
25142
330
25135
100
AcDbEntity
  8
0
 48
50.0
100
AcDbBlockEnd
  0
BLOCK
  5
2514D
330
25143
100
AcDbEntity
  8
0
 48
50.0
100
AcDbBlockBegin
  2
*D41
 70
     1
 10
0.0
 20
0.0
 30
0.0
  3
*D41
  1

  0
LINE
  5
25187
330
25143
100
AcDbEntity
  8
寸法
 62
     0
 48
50.0
370
    -2
100
AcDbLine
 10
6070.280003787229
 20
1492.410691881692
 30
0.0
 11
5887.85969005477
 21
1492.410691881692
 31
0.0
  0
LINE
  5
25188
330
25143
100
AcDbEntity
  8
寸法
 62
     0
 48
50.0
370
    -2
100
AcDbLine
 10
5990.280003787233
 20
1252.410691881692
 30
0.0
 11
5887.85969005477
 21
1252.410691881692
 31
0.0
  0
LINE
  5
25189
330
25143
100
AcDbEntity
  8
寸法
 62
     0
 48
50.0
370
    -2
100
AcDbLine
 10
5947.859690054769
 20
1492.410691881692
 30
0.0
 11
5947.859690054769
 21
1252.410691881692
 31
0.0
  0
INSERT
  5
2518A
330
25143
100
AcDbEntity
  8
寸法
 62
     0
 48
50.0
370
    -2
100
AcDbBlockReference
  2
_DOTSMALL
 10
5947.859690054769
 20
1492.410691881692
 30
0.0
 41
100.0
 42
100.0
 43
100.0
 50
90.0
  0
INSERT
  5
2518B
330
25143
100
AcDbEntity
  8
寸法
 62
     0
 48
50.0
370
    -2
100
AcDbBlockReference
  2
_DOTSMALL
 10
5947.859690054769
 20
1252.410691881692
 30
0.0
 41
100.0
 42
100.0
 43
100.0
 50
270.0
  0
MTEXT
  5
2518C
330
25143
100
AcDbEntity
  8
寸法
 62
     7
 48
50.0
100
AcDbMText
 10
5847.85969005477
 20
1372.410691881693
 30
0.0
 40
120.0
 41
0.0
 71
     5
 72
     1
  1
\A1;150
  7
STYLE1
 11
0.0000000000000001
 21
1.0
 31
0.0
 73
     1
 44
1.0
1001
ACAD
1000
MTEXTBEGIN
1070
    73
1070
     1
1070
    44
1040
1.0
1070
    74
1070
     0
1000
MTEXTEND
  0
POINT
  5
2518D
330
25143
100
AcDbEntity
  8
DEFPOINTS
 62
     0
 48
50.0
100
AcDbPoint
 10
6090.28000378723
 20
1492.410691881692
 30
0.0
  0
POINT
  5
2518E
330
25143
100
AcDbEntity
  8
DEFPOINTS
 62
     0
 48
50.0
100
AcDbPoint
 10
6010.280003787233
 20
1252.410691881692
 30
0.0
  0
POINT
  5
2518F
330
25143
100
AcDbEntity
  8
DEFPOINTS
 62
     0
 48
50.0
100
AcDbPoint
 10
5947.859690054769
 20
1252.410691881692
 30
0.0
  0
ENDBLK
  5
2514E
330
25143
100
AcDbEntity
  8
0
 48
50.0
100
AcDbBlockEnd
  0
BLOCK
  5
25159
330
2514F
100
AcDbEntity
  8
0
 48
50.0
100
AcDbBlockBegin
  2
*D42
 70
     1
 10
0.0
 20
0.0
 30
0.0
  3
*D42
  1

  0
LINE
  5
25190
330
2514F
100
AcDbEntity
  8
寸法
 62
     0
 48
50.0
370
    -2
100
AcDbLine
 10
6198.280003787229
 20
2036.410691881693
 30
0.0
 11
5423.242765225489
 21
2036.410691881693
 31
0.0
  0
LINE
  5
25191
330
2514F
100
AcDbEntity
  8
寸法
 62
     0
 48
50.0
370
    -2
100
AcDbLine
 10
5990.280003787233
 20
1252.410691881692
 30
0.0
 11
5423.242765225489
 21
1252.410691881692
 31
0.0
  0
LINE
  5
25192
330
2514F
100
AcDbEntity
  8
寸法
 62
     0
 48
50.0
370
    -2
100
AcDbLine
 10
5483.242765225489
 20
2036.410691881693
 30
0.0
 11
5483.242765225489
 21
1252.410691881692
 31
0.0
  0
INSERT
  5
25193
330
2514F
100
AcDbEntity
  8
寸法
 62
     0
 48
50.0
370
    -2
100
AcDbBlockReference
  2
_DOTSMALL
 10
5483.242765225489
 20
2036.410691881693
 30
0.0
 41
100.0
 42
100.0
 43
100.0
 50
90.0
  0
INSERT
  5
25194
330
2514F
100
AcDbEntity
  8
寸法
 62
     0
 48
50.0
370
    -2
100
AcDbBlockReference
  2
_DOTSMALL
 10
5483.242765225489
 20
1252.410691881692
 30
0.0
 41
100.0
 42
100.0
 43
100.0
 50
270.0
  0
MTEXT
  5
25195
330
2514F
100
AcDbEntity
  8
寸法
 62
     7
 48
50.0
100
AcDbMText
 10
5383.242765225489
 20
1623.950841537693
 30
0.0
 40
120.0
 41
0.0
 71
     5
 72
     1
  1
\A1;540
  7
STYLE1
 11
0.0000000000000001
 21
1.0
 31
0.0
 73
     1
 44
1.0
1001
ACAD
1000
MTEXTBEGIN
1070
    73
1070
     1
1070
    44
1040
1.0
1070
    74
1070
     0
1000
MTEXTEND
  0
POINT
  5
25196
330
2514F
100
AcDbEntity
  8
DEFPOINTS
 62
     0
 48
50.0
100
AcDbPoint
 10
6218.28000378723
 20
2036.410691881693
 30
0.0
  0
POINT
  5
25197
330
2514F
100
AcDbEntity
  8
DEFPOINTS
 62
     0
 48
50.0
100
AcDbPoint
 10
6010.280003787233
 20
1252.410691881692
 30
0.0
  0
POINT
  5
25198
330
2514F
100
AcDbEntity
  8
DEFPOINTS
 62
     0
 48
50.0
100
AcDbPoint
 10
5483.242765225489
 20
1252.410691881692
 30
0.0
  0
ENDBLK
  5
2515A
330
2514F
100
AcDbEntity
  8
0
 48
50.0
100
AcDbBlockEnd
  0
BLOCK
  5
25165
330
2515B
100
AcDbEntity
  8
0
 48
50.0
100
AcDbBlockBegin
  2
*D43
 70
     1
 10
0.0
 20
0.0
 30
0.0
  3
*D43
  1

  0
LINE
  5
25199
330
2515B
100
AcDbEntity
  8
寸法
 62
     0
 48
50.0
370
    -2
100
AcDbLine
 10
6090.28000378723
 20
1104.410691881692
 30
0.0
 11
6090.28000378723
 21
653.9810538765323
 31
0.0
  0
LINE
  5
2519A
330
2515B
100
AcDbEntity
  8
寸法
 62
     0
 48
50.0
370
    -2
100
AcDbLine
 10
6538.28000378723
 20
1104.410691881692
 30
0.0
 11
6538.28000378723
 21
653.9810538765323
 31
0.0
  0
LINE
  5
2519B
330
2515B
100
AcDbEntity
  8
寸法
 62
     0
 48
50.0
370
    -2
100
AcDbLine
 10
6090.28000378723
 20
713.9810538765323
 30
0.0
 11
6538.28000378723
 21
713.9810538765323
 31
0.0
  0
INSERT
  5
2519C
330
2515B
100
AcDbEntity
  8
寸法
 62
     0
 48
50.0
370
    -2
100
AcDbBlockReference
  2
_DOTSMALL
 10
6090.28000378723
 20
713.9810538765323
 30
0.0
 41
100.0
 42
100.0
 43
100.0
 50
180.0
  0
INSERT
  5
2519D
330
2515B
100
AcDbEntity
  8
寸法
 62
     0
 48
50.0
370
    -2
100
AcDbBlockReference
  2
_DOTSMALL
 10
6538.28000378723
 20
713.9810538765323
 30
0.0
 41
100.0
 42
100.0
 43
100.0
  0
MTEXT
  5
2519E
330
2515B
100
AcDbEntity
  8
寸法
 62
     7
 48
50.0
100
AcDbMText
 10
6294.183245109006
 20
813.9810538765322
 30
0.0
 40
120.0
 41
0.0
 71
     5
 72
     1
  1
\A1;300
  7
STYLE1
 73
     1
 44
1.0
1001
ACAD
1000
MTEXTBEGIN
1070
    73
1070
     1
1070
    44
1040
1.0
1070
    74
1070
     0
1000
MTEXTEND
  0
POINT
  5
2519F
330
2515B
100
AcDbEntity
  8
DEFPOINTS
 62
     0
 48
50.0
100
AcDbPoint
 10
6090.28000378723
 20
1124.410691881692
 30
0.0
  0
POINT
  5
251A0
330
2515B
100
AcDbEntity
  8
DEFPOINTS
 62
     0
 48
50.0
100
AcDbPoint
 10
6538.28000378723
 20
1124.410691881692
 30
0.0
  0
POINT
  5
251A1
330
2515B
100
AcDbEntity
  8
DEFPOINTS
 62
     0
 48
50.0
100
AcDbPoint
 10
6538.28000378723
 20
713.9810538765323
 30
0.0
  0
ENDBLK
  5
25166
330
2515B
100
AcDbEntity
  8
0
 48
50.0
100
AcDbBlockEnd
  0
BLOCK
  5
25171
330
25167
100
AcDbEntity
  8
0
 48
50.0
100
AcDbBlockBegin
  2
*D44
 70
     1
 10
0.0
 20
0.0
 30
0.0
  3
*D44
  1

  0
LINE
  5
251A2
330
25167
100
AcDbEntity
  8
寸法
 62
     0
 48
50.0
370
    -2
100
AcDbLine
 10
6410.28000378723
 20
2056.410691881692
 30
0.0
 11
6410.28000378723
 21
2516.078499798073
 31
0.0
  0
LINE
  5
251A3
330
25167
100
AcDbEntity
  8
寸法
 62
     0
 48
50.0
370
    -2
100
AcDbLine
 10
6218.28000378723
 20
2056.410691881692
 30
0.0
 11
6218.28000378723
 21
2516.078499798073
 31
0.0
  0
LINE
  5
251A4
330
25167
100
AcDbEntity
  8
寸法
 62
     0
 48
50.0
370
    -2
100
AcDbLine
 10
6410.28000378723
 20
2456.078499798073
 30
0.0
 11
6218.28000378723
 21
2456.078499798073
 31
0.0
  0
INSERT
  5
251A5
330
25167
100
AcDbEntity
  8
寸法
 62
     0
 48
50.0
370
    -2
100
AcDbBlockReference
  2
_DOTSMALL
 10
6410.28000378723
 20
2456.078499798073
 30
0.0
 41
100.0
 42
100.0
 43
100.0
  0
INSERT
  5
251A6
330
25167
100
AcDbEntity
  8
寸法
 62
     0
 48
50.0
370
    -2
100
AcDbBlockReference
  2
_DOTSMALL
 10
6218.28000378723
 20
2456.078499798073
 30
0.0
 41
100.0
 42
100.0
 43
100.0
 50
180.0
  0
MTEXT
  5
251A7
330
25167
100
AcDbEntity
  8
寸法
 62
     7
 48
50.0
100
AcDbMText
 10
6314.28000378723
 20
2756.113932868939
 30
0.0
 40
120.0
 41
0.0
 71
     5
 72
     1
  1
\A1;120\P200\P280
  7
STYLE1
 73
     1
 44
1.0
1001
ACAD
1000
MTEXTBEGIN
1070
    73
1070
     1
1070
    44
1040
1.0
1070
    74
1070
     0
1000
MTEXTEND
  0
POINT
  5
251A8
330
25167
100
AcDbEntity
  8
DEFPOINTS
 62
     0
 48
50.0
100
AcDbPoint
 10
6410.28000378723
 20
2036.410691881693
 30
0.0
  0
POINT
  5
251A9
330
25167
100
AcDbEntity
  8
DEFPOINTS
 62
     0
 48
50.0
100
AcDbPoint
 10
6218.28000378723
 20
2036.410691881693
 30
0.0
  0
POINT
  5
251AA
330
25167
100
AcDbEntity
  8
DEFPOINTS
 62
     0
 48
50.0
100
AcDbPoint
 10
6218.28000378723
 20
2456.078499798073
 30
0.0
  0
ENDBLK
  5
25172
330
25167
100
AcDbEntity
  8
0
 48
50.0
100
AcDbBlockEnd
  0
BLOCK
  5
251F5
330
251F3
100
AcDbEntity
  8
0
 48
50.0
100
AcDbBlockBegin
  2
A$C448D7BA6
 70
     0
 10
0.0
 20
0.0
 30
0.0
  3
A$C448D7BA6
  1

  0
TEXT
  5
251F4
330
251F3
100
AcDbEntity
  8
文字
 62
     7
 48
50.0
100
AcDbText
 10
35.50908680176326
 20
55.45779010549631
 30
0.0
 40
160.0
  1
ＮＸＮ－１４ＤＬ－２
  7
STYLE2
100
AcDbText
  0
ENDBLK
  5
251F6
330
251F3
100
AcDbEntity
  8
0
 48
50.0
100
AcDbBlockEnd
  0
BLOCK
  5
251FC
330
251FA
100
AcDbEntity
  8
0
 48
50.0
100
AcDbBlockBegin
  2
A$C282A6DFC
 70
     0
 10
0.0
 20
0.0
 30
0.0
  3
A$C282A6DFC
  1

  0
TEXT
  5
251FB
330
251FA
100
AcDbEntity
  8
文字
 62
     7
 48
50.0
100
AcDbText
 10
35.50908680176326
 20
55.45779010549631
 30
0.0
 40
160.0
  1
ＮＸＮ－１４ＤＬ－２
  7
STYLE2
100
AcDbText
  0
ENDBLK
  5
251FD
330
251FA
100
AcDbEntity
  8
0
 48
50.0
100
AcDbBlockEnd
  0
ENDSEC
  0
SECTION
  2
ENTITIES
  0
MTEXT
  5
763F
330
747D
100
AcDbEntity
  8
0
100
AcDbMText
 10
302.846345836809
 20
280.1983726409901
 30
0.0
 40
3.5
 41
5.323721266742722
 71
     1
 72
     5
  1

  7
MSMINCHO
 73
     1
 44
1.0
1001
ACAD
1000
MTEXTBEGIN
1070
    73
1070
     1
1070
    44
1040
1.0
1070
    74
1070
     0
1000
MTEXTEND
  0
LINE
  5
10B57
330
747D
100
AcDbEntity
  8
補助
  6
PHANTOM
 62
   230
 48
50.0
100
AcDbLine
 10
139.9999999999995
 20
11409.6
 30
0.0
 11
16307.2
 21
11409.6
 31
0.0
  0
LINE
  5
10B59
330
747D
100
AcDbEntity
  8
仕様書枠
  6
Continuous
 48
50.0
100
AcDbLine
 10
13107.2
 20
1200.0
 30
0.0
 11
13107.2
 21
-0.0000000000000729
 31
0.0
  0
LINE
  5
10B5D
330
747D
100
AcDbEntity
  8
仕様書枠
 48
50.0
100
AcDbLine
 10
140.0
 20
0.0
 30
0.0
 11
16307.2
 21
-0.0000000000000909
 31
0.0
  0
LINE
  5
10B5E
330
747D
100
AcDbEntity
  8
補助
  6
PHANTOM
 62
   230
 48
50.0
100
AcDbLine
 10
16307.2
 20
11409.6
 30
0.0
 11
16307.2
 21
1200.0
 31
0.0
  0
LINE
  5
10B6C
330
747D
100
AcDbEntity
  8
仕様書枠
 48
50.0
100
AcDbLine
 10
13107.2
 20
1200.0
 30
0.0
 11
16307.2
 21
1200.0
 31
0.0
  0
TEXT
  5
10B73
330
747D
100
AcDbEntity
  8
文字
 62
     7
 48
50.0
100
AcDbText
 10
13162.9790565769
 20
895.0906074299405
 30
0.0
 40
200.0
  1
基 礎 図
  7
STYLE2
100
AcDbText
  0
LINE
  5
10B7B
330
747D
100
AcDbEntity
  8
仕様書枠
 48
50.0
100
AcDbLine
 10
13107.2
 20
800.0
 30
0.0
 11
14251.2
 21
800.0
 31
0.0
  0
LINE
  5
10B88
330
747D
100
AcDbEntity
  8
仕様書枠
  6
Continuous
 48
50.0
100
AcDbLine
 10
14251.2
 20
1200.0
 30
0.0
 11
14251.2
 21
800.0
 31
0.0
  0
LINE
  5
16462
330
747D
100
AcDbEntity
  8
仕様書枠
 48
50.0
100
AcDbLine
 10
16307.2
 20
1200.0
 30
0.0
 11
16307.2
 21
-0.0000000000000909
 31
0.0
  0
LINE
  5
1903B
330
747D
100
AcDbEntity
  8
補助
  6
PHANTOM
 62
   230
 48
50.0
100
AcDbLine
 10
140.0
 20
0.0
 30
0.0
 11
139.9999999999995
 21
11409.6
 31
0.0
  0
LEADER
  5
1AC27
330
747D
100
AcDbEntity
  8
寸法
 48
50.0
100
AcDbLeader
  3
INABA_S50G
 73
     0
 74
     0
 75
     1
 40
120.0
 41
720.0000000000001
 76
     3
 10
9180.05985718447
 20
7032.642338227687
 30
0.0
 10
9336.833431570756
 20
6771.628424659855
 30
0.0
 10
9461.833431570756
 20
6771.628424659855
 30
0.0
340
1AC28
1001
ACAD
1000
DSTYLE
1002
{
1070
   341
1005
0
1070
    40
1040
1.0
1070
   343
1005
0
1070
   344
1005
0
1002
}
  0
MTEXT
  5
1AC28
102
{ACAD_REACTORS
330
1AC27
102
}
330
747D
100
AcDbEntity
  8
部品1
 62
     7
 48
50.0
100
AcDbMText
 10
10206.83343157075
 20
6856.628424659854
 30
0.0
 40
120.0
 41
0.0
 71
     6
 72
     1
  1
\A1;床下換気口
  7
STYLE1
 73
     1
 44
1.0
1001
ACAD
1000
MTEXTBEGIN
1070
    73
1070
     1
1070
    44
1040
1.0
1070
    74
1070
     0
1000
MTEXTEND
  0
TEXT
  5
1AC29
330
747D
100
AcDbEntity
  8
部品1
 48
50.0
100
AcDbText
 10
9527.430138461177
 20
6050.806579447794
 30
0.0
 40
80.0
  1
(a=45,b=55,c=75)
  7
STYLE1
100
AcDbText
  0
TEXT
  5
1AC2A
330
747D
100
AcDbEntity
  8
部品1
 48
50.0
100
AcDbText
 10
9368.851129706879
 20
6157.651800316547
 30
0.0
 40
80.0
  1
※a,b,cは屋根の出幅です。
  7
STYLE1
100
AcDbText
  0
MTEXT
  5
1AC2B
102
{ACAD_REACTORS
330
1AC2C
102
}
330
747D
100
AcDbEntity
  8
部品1
 62
     7
 48
50.0
100
AcDbMText
 10
10166.63832569548
 20
6336.962487249622
 30
0.0
 40
120.0
 41
0.0
 71
     6
 72
     1
  1
\A1;屋根の外寸
  7
STYLE1
 73
     1
 44
1.0
1001
ACAD
1000
MTEXTBEGIN
1070
    73
1070
     1
1070
    44
1040
1.0
1070
    74
1070
     0
1000
MTEXTEND
  0
LEADER
  5
1AC2C
330
747D
100
AcDbEntity
  8
寸法
 48
50.0
100
AcDbLeader
  3
INABA_S50G
 73
     0
 74
     0
 75
     1
 40
120.0
 41
672.0
 76
     3
 10
9228.698313503441
 20
6510.851830713199
 30
0.0
 10
9344.638325695482
 20
6251.962487249622
 30
0.0
 10
9469.638325695482
 20
6251.962487249622
 30
0.0
340
1AC2B
1001
ACAD
1000
DSTYLE
1002
{
1070
   341
1005
0
1070
    40
1040
1.0
1070
   343
1005
0
1070
   344
1005
0
1002
}
  0
TEXT
  5
1C7A1
330
747D
100
AcDbEntity
  8
文字
 62
     7
 48
50.0
100
AcDbText
 10
13188.16259899338
 20
79.80631269190417
 30
0.0
 40
80.0
  1
※布基礎には換気口を設けてください。
  7
STYLE2
100
AcDbText
  0
TEXT
  5
1C7E7
330
747D
100
AcDbEntity
  8
文字
 62
     7
 48
50.0
100
AcDbText
 10
13188.16259899338
 20
246.7109242801889
 30
0.0
 40
80.0
  1
※寒冷地等は地域の実情に合わせた基礎にして下さい。
  7
STYLE2
100
AcDbText
  0
TEXT
  5
1C7E8
330
747D
100
AcDbEntity
  8
文字
 62
     7
 48
50.0
100
AcDbText
 10
14325.79230300687
 20
499.5983841039506
 30
0.0
 40
160.0
  1
ＮＸＮ－１４ＤＬ－２
  7
STYLE2
100
AcDbText
  0
TEXT
  5
1C7EC
330
747D
100
AcDbEntity
  8
文字
 62
     7
 48
50.0
100
AcDbText
 10
14524.131837222
 20
1031.557706291229
 30
0.0
 40
100.0
  1
      <縮尺> S=1/40
  7
STYLE2
100
AcDbText
  0
TEXT
  5
1C7ED
330
747D
100
AcDbEntity
  8
文字
 62
     7
 48
50.0
100
AcDbText
 10
13201.43669998441
 20
477.2740661031257
 30
0.0
 40
160.0
  1
機種名
  7
STYLE2
100
AcDbText
  0
LINE
  5
1C7EF
330
747D
100
AcDbEntity
  8
文字
 62
     7
 48
50.0
100
AcDbLine
 10
13187.2
 20
400.0
 30
0.0
 11
16227.2
 21
400.0
 31
0.0
  0
MTEXT
  5
1D2D5
102
{ACAD_REACTORS
330
1D2D6
102
}
330
747D
100
AcDbEntity
  8
部品1
 62
     7
 48
50.0
100
AcDbMText
 10
10373.99523070988
 20
8042.268146015951
 30
0.0
 40
120.0
 41
0.0
 71
     6
 72
     1
  1
アンカーボルト
  7
STYLE1
 73
     1
 44
1.0
1001
ACAD
1000
MTEXTBEGIN
1070
    73
1070
     1
1070
    44
1040
1.0
1070
    74
1070
     0
1000
MTEXTEND
  0
LEADER
  5
1D2D6
330
747D
100
AcDbEntity
  8
寸法
 48
50.0
100
AcDbLeader
  3
INABA_S50G
 73
     0
 74
     0
 75
     1
 40
120.0
 41
994.3492424049171
 76
     3
 10
9055.680085757
 20
7603.863246132153
 30
0.0
 10
9229.645988304964
 20
7957.268146015952
 30
0.0
 10
9354.645988304964
 20
7957.268146015952
 30
0.0
340
1D2D5
1001
ACAD
1000
DSTYLE
1002
{
1070
   341
1005
0
1070
    40
1040
1.0
1070
   343
1005
0
1070
   344
1005
0
1002
}
  0
MTEXT
  5
1D332
102
{ACAD_REACTORS
330
1D333
102
}
330
747D
100
AcDbEntity
  8
部品1
 62
     7
 48
50.0
100
AcDbMText
 10
8738.828697015694
 20
6817.245922706999
 30
0.0
 40
120.0
 41
0.0
 71
     6
 72
     1
  1
CB
  7
STYLE1
 73
     1
 44
1.0
1001
ACAD
1000
MTEXTBEGIN
1070
    73
1070
     1
1070
    44
1040
1.0
1070
    74
1070
     0
1000
MTEXTEND
  0
LEADER
  5
1D333
330
747D
100
AcDbEntity
  8
寸法
 48
50.0
100
AcDbLeader
  3
INABA_S50G
 73
     0
 74
     0
 75
     1
 40
120.0
 41
149.591883092037
 76
     3
 10
8311.954011061013
 20
6954.964236261824
 30
0.0
 10
8439.236813923656
 20
6732.245922706998
 30
0.0
 10
8564.236813923656
 20
6732.245922706998
 30
0.0
340
1D332
1001
ACAD
1000
DSTYLE
1002
{
1070
   341
1005
0
1070
    40
1040
1.0
1070
   343
1005
0
1070
   344
1005
0
1002
}
  0
DIMENSION
  5
20DE1
330
747D
100
AcDbEntity
  8
寸法
 48
50.0
100
AcDbDimension
  2
*D19
 10
9223.600000000001
 20
8684.875723832362
 30
0.0
 11
9494.774621202459
 21
8684.875723832362
 31
0.0
 70
   160
  1
a
 71
     5
 42
45.0
  3
INABA_S40G
100
AcDbAlignedDimension
 13
9178.600000000001
 23
7726.655401773442
 33
0.0
 14
9223.600000000001
 24
8452.921859867352
 34
0.0
100
AcDbRotatedDimension
1001
ACAD
1000
DSTYLE
1002
{
1070
   341
1005
0
1002
}
  0
DIMENSION
  5
20DFB
330
747D
100
AcDbEntity
  8
寸法
 48
50.0
100
AcDbDimension
  2
*D20
 10
7268.600000000001
 20
8684.875723832362
 30
0.0
 11
6952.425378797541
 21
8684.875723832362
 31
0.0
 70
   160
  1
a
 71
     5
 42
44.99999999999636
  3
INABA_S40G
100
AcDbAlignedDimension
 13
7223.600000000004
 23
8452.921859867354
 33
0.0
 14
7268.600000000001
 24
7726.655401773442
 34
0.0
100
AcDbRotatedDimension
1001
ACAD
1000
DSTYLE
1002
{
1070
   341
1005
0
1002
}
  0
LINE
  5
22711
330
747D
100
AcDbEntity
  8
想像線
 48
10.0
100
AcDbLine
 10
9223.600000000001
 20
7801.655401773444
 30
0.0
 11
7223.600000000002
 21
7801.655401773448
 31
0.0
  0
LINE
  5
22712
330
747D
100
AcDbEntity
  8
想像線
 48
10.0
100
AcDbLine
 10
7223.599999999999
 20
6131.655401773484
 30
0.0
 11
7223.600000000002
 21
7801.655401773448
 31
0.0
  0
LINE
  5
22713
330
747D
100
AcDbEntity
  8
想像線
 48
10.0
100
AcDbLine
 10
9223.600000000001
 20
6131.655401773489
 30
0.0
 11
9223.600000000001
 21
7801.655401773444
 31
0.0
  0
LINE
  5
22714
330
747D
100
AcDbEntity
  8
想像線
 48
10.0
100
AcDbLine
 10
9223.600000000001
 20
6131.655401773489
 30
0.0
 11
7223.599999999999
 21
6131.655401773485
 31
0.0
  0
DIMENSION
  5
22741
330
747D
100
AcDbEntity
  8
寸法
 48
50.0
100
AcDbDimension
  2
*D21
 10
6393.721909610674
 20
7726.655401773442
 30
0.0
 11
6293.721909610674
 21
7764.155401773447
 31
0.0
 70
    32
  1
c
 71
     5
 42
75.00000000000636
  3
INABA_S40G
100
AcDbAlignedDimension
 13
6645.665006330069
 23
7801.655401773448
 33
0.0
 14
7268.600000000001
 24
7726.655401773442
 34
0.0
 50
90.0
100
AcDbRotatedDimension
1001
ACAD
1000
DSTYLE
1002
{
1070
   341
1005
0
1002
}
  0
DIMENSION
  5
2275B
330
747D
100
AcDbEntity
  8
寸法
 48
50.0
100
AcDbDimension
  2
*D22
 10
6393.721909610673
 20
6131.655401773499
 30
0.0
 11
6293.721909610672
 21
6159.155401773488
 31
0.0
 70
    32
  1
b
 71
     5
 42
54.99999999997453
  3
INABA_S40G
100
AcDbAlignedDimension
 13
7268.599999999999
 23
6186.655401773474
 33
0.0
 14
6645.665006330071
 24
6131.655401773499
 34
0.0
 50
90.0
100
AcDbRotatedDimension
1001
ACAD
1000
DSTYLE
1002
{
1070
   341
1005
0
1002
}
  0
DIMENSION
  5
23FD9
330
747D
100
AcDbEntity
  8
寸法
 48
50.0
100
AcDbDimension
  2
*D24
 10
8497.812020225657
 20
6186.65540177346
 30
0.0
 11
8497.812020225657
 21
5899.691819096288
 31
0.0
 70
   160
 71
     5
 42
279.9999999999918
  3
INABA_S40G
100
AcDbAlignedDimension
 13
8598.599999999994
 23
6466.655401773451
 33
0.0
 14
8598.599999999999
 24
6186.65540177346
 34
0.0
 50
90.0
100
AcDbRotatedDimension
1001
ACAD
1000
DSTYLE
1002
{
1070
   341
1005
0
1002
}
  0
DIMENSION
  5
23FDA
330
747D
100
AcDbEntity
  8
寸法
 48
50.0
100
AcDbDimension
  2
*D25
 10
8497.812020225657
 20
7526.655401773443
 30
0.0
 11
8497.812020225657
 21
8013.6189844506
 31
0.0
 70
   160
 71
     5
 42
199.9999999999854
  3
INABA_S40G
100
AcDbAlignedDimension
 13
8598.599999999997
 23
7726.655401773429
 33
0.0
 14
8598.600000000004
 24
7526.655401773443
 34
0.0
 50
90.0
100
AcDbRotatedDimension
1001
ACAD
1000
DSTYLE
1002
{
1070
   341
1005
0
1002
}
  0
DIMENSION
  5
24043
330
747D
100
AcDbEntity
  8
寸法
 48
50.0
100
AcDbDimension
  2
*D23
 10
9058.6
 20
7276.254014871553
 30
0.0
 11
9448.659055118111
 21
7276.254014871553
 31
0.0
 70
   160
 71
     5
 42
120.0
  3
INABA_S40G
100
AcDbAlignedDimension
 13
9178.600000000001
 23
7161.655401773479
 33
0.0
 14
9058.6
 24
7161.655401773479
 34
0.0
100
AcDbRotatedDimension
1001
ACAD
1000
DSTYLE
1002
{
1070
   341
1005
0
1002
}
  0
LINE
  5
2462D
330
747D
100
AcDbEntity
  8
部品1
 48
50.0
100
AcDbLine
 10
9058.6
 20
7526.655401773442
 30
0.0
 11
7388.599999999996
 21
7526.655401773442
 31
0.0
  0
LINE
  5
24631
330
747D
100
AcDbEntity
  8
部品1
 48
50.0
100
AcDbLine
 10
9178.600000000001
 20
6186.65540177346
 30
0.0
 11
7268.599999999996
 21
6186.655401773438
 31
0.0
  0
LINE
  5
24632
330
747D
100
AcDbEntity
  8
部品1
 48
50.0
100
AcDbLine
 10
9178.600000000001
 20
7726.655401773442
 30
0.0
 11
7268.600000000001
 21
7726.655401773442
 31
0.0
  0
DIMENSION
  5
24633
330
747D
100
AcDbEntity
  8
寸法
 48
50.0
100
AcDbDimension
  2
*D26
 10
8223.600000000008
 20
8209.26421844369
 30
0.0
 11
8701.100000000003
 21
8309.26421844369
 31
0.0
 70
    32
 71
     5
 42
954.9999999999927
  3
INABA_S40G
100
AcDbAlignedDimension
 13
9178.600000000001
 23
7726.655401773442
 33
0.0
 14
8223.600000000008
 24
7043.655401773442
 34
0.0
100
AcDbRotatedDimension
1001
ACAD
1000
DSTYLE
1002
{
1070
   341
1005
0
1002
}
  0
DIMENSION
  5
24634
330
747D
100
AcDbEntity
  8
寸法
 48
50.0
100
AcDbDimension
  2
*D27
 10
7391.600000000001
 20
8452.921859867352
 30
0.0
 11
8223.600000000001
 21
8552.921859867351
 31
0.0
 70
    32
 71
     5
 42
1664.0
  3
INABA_S40G
100
AcDbAlignedDimension
 13
9055.600000000001
 23
7653.655401773441
 33
0.0
 14
7391.600000000001
 24
7653.655401773441
 34
0.0
100
AcDbRotatedDimension
1001
ACAD
1000
DSTYLE
1002
{
1070
   341
1005
0
1002
}
  0
DIMENSION
  5
24635
330
747D
100
AcDbEntity
  8
寸法
 48
50.0
100
AcDbDimension
  2
*D28
 10
9178.600000000001
 20
8684.875723832361
 30
0.0
 11
8223.600000000001
 21
8784.87572383236
 31
0.0
 70
    32
 71
     5
 42
1910.0
  3
INABA_S40G
100
AcDbAlignedDimension
 13
7268.600000000001
 23
7726.655401773442
 33
0.0
 14
9178.600000000001
 24
7726.655401773442
 34
0.0
100
AcDbRotatedDimension
1001
ACAD
1000
DSTYLE
1002
{
1070
   341
1005
0
1002
}
  0
DIMENSION
  5
24638
330
747D
100
AcDbEntity
  8
寸法
 48
50.0
100
AcDbDimension
  2
*D29
 10
7751.285990614302
 20
7726.655401773442
 30
0.0
 11
7751.285990614301
 21
7289.250192467618
 31
0.0
 70
   160
 71
     5
 42
733.0
  3
INABA_S40G
100
AcDbAlignedDimension
 13
8173.600000000007
 23
6993.655401773442
 33
0.0
 14
7842.7654751409
 24
7726.655401773442
 34
0.0
 50
90.0
100
AcDbRotatedDimension
1001
ACAD
1000
DSTYLE
1002
{
1070
   341
1005
0
1002
}
  0
DIMENSION
  5
2463B
330
747D
100
AcDbEntity
  8
寸法
 48
50.0
100
AcDbDimension
  2
*D30
 10
7268.600000000001
 20
8209.26421844369
 30
0.0
 11
7746.100000000004
 21
8309.26421844369
 31
0.0
 70
    32
 71
     5
 42
955.0000000000073
  3
INABA_S40G
100
AcDbAlignedDimension
 13
8223.600000000008
 23
7043.655401773442
 33
0.0
 14
7268.600000000001
 24
7726.655401773442
 34
0.0
100
AcDbRotatedDimension
1001
ACAD
1000
DSTYLE
1002
{
1070
   341
1005
0
1002
}
  0
LINE
  5
2463C
102
{ACAD_REACTORS
330
251DE
102
}
330
747D
100
AcDbEntity
  8
部品1
 48
50.0
100
AcDbLine
 10
7268.600000000001
 20
6186.655401773442
 30
0.0
 11
7268.600000000001
 21
7726.655401773442
 31
0.0
  0
DIMENSION
  5
2463D
330
747D
100
AcDbEntity
  8
寸法
 48
50.0
100
AcDbDimension
  2
*D31
 10
6393.721909610674
 20
6186.655401773442
 30
0.0
 11
6393.721909610673
 21
6994.155401773442
 31
0.0
 70
   160
 71
     5
 42
1540.0
  3
INABA_S40G
100
AcDbAlignedDimension
 13
7268.600000000001
 23
7726.655401773442
 33
0.0
 14
7268.600000000001
 24
6186.655401773442
 34
0.0
 50
90.0
100
AcDbRotatedDimension
1001
ACAD
1000
DSTYLE
1002
{
1070
   341
1005
0
1002
}
  0
DIMENSION
  5
2463E
330
747D
100
AcDbEntity
  8
寸法
 48
50.0
100
AcDbDimension
  2
*D32
 10
6645.665006330073
 20
6384.655401773446
 30
0.0
 11
6645.665006330071
 21
6994.155401773442
 31
0.0
 70
   160
 71
     5
 42
1218.999999999996
  3
INABA_S40G
100
AcDbAlignedDimension
 13
7341.600000000001
 23
7603.655401773441
 33
0.0
 14
7341.600000000008
 24
6384.655401773446
 34
0.0
 50
90.0
100
AcDbRotatedDimension
1001
ACAD
1000
DSTYLE
1002
{
1070
   341
1005
0
1002
}
  0
DIMENSION
  5
24642
330
747D
100
AcDbEntity
  8
寸法
 48
50.0
100
AcDbDimension
  2
*D33
 10
6645.665006330073
 20
6186.655401773442
 30
0.0
 11
6645.665006330071
 21
5851.12445293085
 31
0.0
 70
   160
 71
     5
 42
198.0000000000036
  3
INABA_S40G
100
AcDbAlignedDimension
 13
7341.600000000008
 23
6384.655401773446
 33
0.0
 14
7268.600000000001
 24
6186.655401773442
 34
0.0
 50
90.0
100
AcDbRotatedDimension
1001
ACAD
1000
DSTYLE
1002
{
1070
   341
1005
0
1002
}
  0
LINE
  5
24643
330
747D
100
AcDbEntity
  8
想像線
 48
5.0
100
AcDbLine
 10
8038.6
 20
6186.655401773416
 30
0.0
 11
8038.6
 21
5466.655401773405
 31
0.0
  0
DIMENSION
  5
24644
330
747D
100
AcDbEntity
  8
寸法
 48
50.0
100
AcDbDimension
  2
*D34
 10
7155.512673767877
 20
5466.655401773437
 30
0.0
 11
7155.512673767876
 21
5826.655401773439
 31
0.0
 70
   160
  1
扉の出<>
 71
     5
 42
720.0
  3
INABA_S40G
100
AcDbAlignedDimension
 13
7268.600000000001
 23
6186.655401773438
 33
0.0
 14
7624.325326928804
 24
5466.655401773437
 34
0.0
 50
90.0
100
AcDbRotatedDimension
1001
ACAD
1000
DSTYLE
1002
{
1070
   341
1005
0
1002
}
  0
ARC
  5
24645
330
747D
100
AcDbEntity
  8
想像線
 48
5.0
100
AcDbCircle
 10
8038.6
 20
6186.655401773405
 30
0.0
 40
720.0
100
AcDbArc
 50
180.0
 51
270.0
  0
DIMENSION
  5
24646
330
747D
100
AcDbEntity
  8
寸法
 48
50.0
100
AcDbDimension
  2
*D35
 10
7751.285990614302
 20
6993.655401773442
 30
0.0
 11
7751.285990614301
 21
6591.655401773441
 31
0.0
 70
   160
 71
     5
 42
806.999999999989
  3
INABA_S40G
100
AcDbAlignedDimension
 13
7842.7654751409
 23
6186.655401773453
 33
0.0
 14
8173.600000000007
 24
6993.655401773442
 34
0.0
 50
90.0
100
AcDbRotatedDimension
1001
ACAD
1000
DSTYLE
1002
{
1070
   341
1005
0
1002
}
  0
CIRCLE
  5
24647
330
747D
100
AcDbEntity
  8
部品1
 48
50.0
100
AcDbCircle
 10
7391.599999999993
 20
6384.655401773446
 30
0.0
 40
35.0
  0
LINE
  5
24648
330
747D
100
AcDbEntity
  8
センター
 48
2.0
100
AcDbLine
 10
7341.600000000008
 20
6384.655401773446
 30
0.0
 11
7441.600000000008
 21
6384.655401773446
 31
0.0
  0
LINE
  5
24649
330
747D
100
AcDbEntity
  8
センター
 48
2.0
100
AcDbLine
 10
7391.600000000008
 20
6434.655401773444
 30
0.0
 11
7391.600000000008
 21
6334.655401773446
 31
0.0
  0
LINE
  5
2464B
102
{ACAD_REACTORS
330
251DE
102
}
330
747D
100
AcDbEntity
  8
部品1
 48
50.0
100
AcDbLine
 10
7388.6
 20
6881.655401773471
 30
0.0
 11
7268.599999999988
 21
6881.65540177347
 31
0.0
  0
LINE
  5
2464C
102
{ACAD_REACTORS
330
251DE
102
}
330
747D
100
AcDbEntity
  8
部品1
 48
50.0
100
AcDbLine
 10
7388.599999999998
 20
7081.65540177347
 30
0.0
 11
7268.599999999988
 21
7081.65540177347
 31
0.0
  0
LINE
  5
2464D
330
747D
100
AcDbEntity
  8
細線
 48
50.0
100
AcDbLine
 10
7784.404364949113
 20
6186.655401773464
 30
0.0
 11
7848.600000000001
 21
6250.851036824351
 31
0.0
  0
LINE
  5
2464E
330
747D
100
AcDbEntity
  8
細線
 48
50.0
100
AcDbLine
 10
7739.503084343765
 20
6186.655401773464
 30
0.0
 11
7848.600000000001
 21
6295.752317429696
 31
0.0
  0
LINE
  5
2464F
330
747D
100
AcDbEntity
  8
細線
 48
50.0
100
AcDbLine
 10
7694.601803738418
 20
6186.655401773461
 30
0.0
 11
7848.599999999994
 21
6340.653598035039
 31
0.0
  0
LINE
  5
24650
330
747D
100
AcDbEntity
  8
細線
 48
50.0
100
AcDbLine
 10
7649.700523133073
 20
6186.65540177346
 30
0.0
 11
7848.599999999994
 21
6385.554878640381
 31
0.0
  0
LINE
  5
24651
330
747D
100
AcDbEntity
  8
細線
 48
50.0
100
AcDbLine
 10
7648.599999999998
 20
6230.456159245733
 30
0.0
 11
7848.599999999994
 21
6430.456159245726
 31
0.0
  0
LINE
  5
24652
330
747D
100
AcDbEntity
  8
部品1
 48
50.0
100
AcDbLine
 10
7848.599999999992
 20
6466.655401773443
 30
0.0
 11
7848.599999999999
 21
6186.655401773464
 31
0.0
  0
LINE
  5
24653
330
747D
100
AcDbEntity
  8
部品1
 48
50.0
100
AcDbLine
 10
7648.599999999992
 20
6466.655401773441
 30
0.0
 11
7648.599999999999
 21
6186.65540177346
 31
0.0
  0
LINE
  5
24654
330
747D
100
AcDbEntity
  8
細線
 48
50.0
100
AcDbLine
 10
7829.30564555446
 20
6186.655401773465
 30
0.0
 11
7848.600000000002
 21
6205.949756219008
 31
0.0
  0
LINE
  5
24655
330
747D
100
AcDbEntity
  8
細線
 48
50.0
100
AcDbLine
 10
7648.599999999994
 20
6365.16000106177
 30
0.0
 11
7750.095400711661
 21
6466.655401773441
 31
0.0
  0
LINE
  5
24656
330
747D
100
AcDbEntity
  8
細線
 48
50.0
100
AcDbLine
 10
7648.599999999993
 20
6410.061281667113
 30
0.0
 11
7705.194120106324
 21
6466.65540177344
 31
0.0
  0
LINE
  5
24657
330
747D
100
AcDbEntity
  8
細線
 48
50.0
100
AcDbLine
 10
7648.599999999998
 20
6275.357439851077
 30
0.0
 11
7839.897961922355
 21
6466.655401773443
 31
0.0
  0
LINE
  5
24658
330
747D
100
AcDbEntity
  8
細線
 48
50.0
100
AcDbLine
 10
7648.599999999994
 20
6320.258720456422
 30
0.0
 11
7794.996681317016
 21
6466.655401773443
 31
0.0
  0
TEXT
  5
24659
330
747D
100
AcDbEntity
  8
寸法
 48
50.0
100
AcDbText
 10
8092.708034017926
 20
6205.33669256618
 30
0.0
 40
120.0
  1
扉面
  7
STYLE1
100
AcDbText
  0
LINE
  5
2465A
330
747D
100
AcDbEntity
  8
センター
 48
2.0
100
AcDbLine
 10
8173.600000000007
 20
6993.655401773442
 30
0.0
 11
8273.600000000007
 21
6993.655401773442
 31
0.0
  0
LINE
  5
2465B
330
747D
100
AcDbEntity
  8
部品1
 48
50.0
100
AcDbLine
 10
8323.600000000007
 20
6893.655401773442
 30
0.0
 11
8123.600000000008
 21
6893.655401773442
 31
0.0
  0
LINE
  5
2465C
330
747D
100
AcDbEntity
  8
部品1
 48
50.0
100
AcDbLine
 10
8323.600000000007
 20
7093.655401773443
 30
0.0
 11
8123.600000000008
 21
7093.655401773443
 31
0.0
  0
LINE
  5
2465D
330
747D
100
AcDbEntity
  8
センター
 48
2.0
100
AcDbLine
 10
8223.600000000008
 20
7043.655401773442
 30
0.0
 11
8223.600000000008
 21
6943.655401773442
 31
0.0
  0
LINE
  5
2465E
330
747D
100
AcDbEntity
  8
部品1
 48
50.0
100
AcDbLine
 10
8123.600000000008
 20
6893.655401773442
 30
0.0
 11
8123.600000000008
 21
7093.655401773443
 31
0.0
  0
LINE
  5
2465F
330
747D
100
AcDbEntity
  8
部品1
 48
50.0
100
AcDbLine
 10
8323.600000000007
 20
6893.655401773442
 30
0.0
 11
8323.600000000007
 21
7093.655401773443
 31
0.0
  0
DIMENSION
  5
24661
330
747D
100
AcDbEntity
  8
寸法
 48
50.0
100
AcDbDimension
  2
*D36
 10
6645.665006330073
 20
7603.655401773441
 30
0.0
 11
6645.665006330071
 21
7999.762003491241
 31
0.0
 70
   160
 71
     5
 42
123.0
  3
INABA_S40G
100
AcDbAlignedDimension
 13
7268.600000000001
 23
7726.655401773442
 33
0.0
 14
7341.600000000001
 24
7603.655401773441
 34
0.0
 50
90.0
100
AcDbRotatedDimension
1001
ACAD
1000
DSTYLE
1002
{
1070
   341
1005
0
1002
}
  0
DIMENSION
  5
24663
330
747D
100
AcDbEntity
  8
寸法
 48
50.0
100
AcDbDimension
  2
*D37
 10
7268.600000000001
 20
8452.921859867352
 30
0.0
 11
6995.493398282203
 21
8452.921859867352
 31
0.0
 70
   160
 71
     5
 42
123.0
  3
INABA_S40G
100
AcDbAlignedDimension
 13
7391.600000000001
 23
7653.655401773441
 33
0.0
 14
7268.600000000001
 24
7726.655401773442
 34
0.0
100
AcDbRotatedDimension
1001
ACAD
1000
DSTYLE
1002
{
1070
   341
1005
0
1002
}
  0
LINE
  5
24664
330
747D
100
AcDbEntity
  8
センター
 48
2.0
100
AcDbLine
 10
7341.600000000001
 20
7603.655401773441
 30
0.0
 11
7441.600000000001
 21
7603.655401773441
 31
0.0
  0
CIRCLE
  5
24665
330
747D
100
AcDbEntity
  8
部品1
 48
50.0
100
AcDbCircle
 10
7391.600000000001
 20
7603.655401773441
 30
0.0
 40
35.0
  0
LINE
  5
24666
330
747D
100
AcDbEntity
  8
センター
 48
2.0
100
AcDbLine
 10
7391.600000000001
 20
7653.655401773441
 30
0.0
 11
7391.600000000001
 21
7553.655401773442
 31
0.0
  0
LINE
  5
24667
330
747D
100
AcDbEntity
  8
細線
 48
50.0
100
AcDbLine
 10
7648.600000000005
 20
7528.876648931262
 30
0.0
 11
7846.378752842195
 21
7726.655401773449
 31
0.0
  0
LINE
  5
24668
330
747D
100
AcDbEntity
  8
細線
 48
50.0
100
AcDbLine
 10
7648.600000000005
 20
7573.777929536603
 30
0.0
 11
7801.47747223685
 21
7726.655401773452
 31
0.0
  0
LINE
  5
24669
330
747D
100
AcDbEntity
  8
細線
 48
50.0
100
AcDbLine
 10
7648.6
 20
7618.679210141948
 30
0.0
 11
7756.576191631502
 21
7726.655401773449
 31
0.0
  0
LINE
  5
2466A
330
747D
100
AcDbEntity
  8
細線
 48
50.0
100
AcDbLine
 10
7648.6
 20
7663.580490747294
 30
0.0
 11
7711.674911026157
 21
7726.655401773451
 31
0.0
  0
LINE
  5
2466B
330
747D
100
AcDbEntity
  8
部品1
 48
50.0
100
AcDbLine
 10
7848.599999999997
 20
7726.655401773451
 30
0.0
 11
7848.600000000004
 21
7526.655401773442
 31
0.0
  0
LINE
  5
2466C
330
747D
100
AcDbEntity
  8
部品1
 48
50.0
100
AcDbLine
 10
7648.599999999998
 20
7726.655401773451
 30
0.0
 11
7648.600000000005
 21
7526.655401773442
 31
0.0
  0
LINE
  5
2466D
330
747D
100
AcDbEntity
  8
細線
 48
50.0
100
AcDbLine
 10
7825.983875263567
 20
7526.655401773439
 30
0.0
 11
7848.600000000002
 21
7549.271526509876
 31
0.0
  0
LINE
  5
2466E
330
747D
100
AcDbEntity
  8
細線
 48
50.0
100
AcDbLine
 10
7781.082594658224
 20
7526.655401773439
 30
0.0
 11
7848.600000000001
 21
7594.17280711522
 31
0.0
  0
LINE
  5
2466F
330
747D
100
AcDbEntity
  8
細線
 48
50.0
100
AcDbLine
 10
7736.181314052878
 20
7526.655401773439
 30
0.0
 11
7848.600000000001
 21
7639.074087720564
 31
0.0
  0
LINE
  5
24670
330
747D
100
AcDbEntity
  8
細線
 48
50.0
100
AcDbLine
 10
7691.28003344753
 20
7526.655401773439
 30
0.0
 11
7848.599999999999
 21
7683.975368325907
 31
0.0
  0
LINE
  5
24671
330
747D
100
AcDbEntity
  8
細線
 48
50.0
100
AcDbLine
 10
7648.599999999999
 20
7708.481771352636
 30
0.0
 11
7666.773630420812
 21
7726.655401773452
 31
0.0
  0
LINE
  5
24672
102
{ACAD_REACTORS
330
251C5
102
}
330
747D
100
AcDbEntity
  8
部品1
 48
50.0
100
AcDbLine
 10
9178.600000000001
 20
6186.65540177346
 30
0.0
 11
9178.600000000001
 21
7726.655401773442
 31
0.0
  0
LINE
  5
2467B
330
747D
100
AcDbEntity
  8
細線
 48
50.0
100
AcDbLine
 10
8689.503084343765
 20
6186.655401773464
 30
0.0
 11
8798.6
 21
6295.752317429696
 31
0.0
  0
LINE
  5
2467C
330
747D
100
AcDbEntity
  8
細線
 48
50.0
100
AcDbLine
 10
8734.404364949112
 20
6186.655401773464
 30
0.0
 11
8798.6
 21
6250.851036824351
 31
0.0
  0
LINE
  5
2467D
330
747D
100
AcDbEntity
  8
細線
 48
50.0
100
AcDbLine
 10
8644.601803738417
 20
6186.655401773461
 30
0.0
 11
8798.599999999995
 21
6340.653598035039
 31
0.0
  0
LINE
  5
2467E
330
747D
100
AcDbEntity
  8
部品1
 48
50.0
100
AcDbLine
 10
8798.599999999991
 20
6466.655401773452
 30
0.0
 11
8798.599999999998
 21
6186.655401773464
 31
0.0
  0
LINE
  5
2467F
330
747D
100
AcDbEntity
  8
部品1
 48
50.0
100
AcDbLine
 10
8598.599999999988
 20
6466.655401773451
 30
0.0
 11
8598.599999999999
 21
6186.65540177346
 31
0.0
  0
LINE
  5
24680
330
747D
100
AcDbEntity
  8
細線
 48
50.0
100
AcDbLine
 10
8599.700523133073
 20
6186.65540177346
 30
0.0
 11
8798.599999999993
 21
6385.554878640381
 31
0.0
  0
LINE
  5
24681
330
747D
100
AcDbEntity
  8
細線
 48
50.0
100
AcDbLine
 10
8598.599999999997
 20
6230.456159245733
 30
0.0
 11
8798.599999999993
 21
6430.456159245726
 31
0.0
  0
LINE
  5
24682
330
747D
100
AcDbEntity
  8
細線
 48
50.0
100
AcDbLine
 10
8779.30564555446
 20
6186.655401773465
 30
0.0
 11
8798.600000000002
 21
6205.949756219008
 31
0.0
  0
LINE
  5
24683
330
747D
100
AcDbEntity
  8
細線
 48
50.0
100
AcDbLine
 10
8598.599999999997
 20
6275.357439851077
 30
0.0
 11
8789.897961922362
 21
6466.655401773454
 31
0.0
  0
LINE
  5
24684
330
747D
100
AcDbEntity
  8
細線
 48
50.0
100
AcDbLine
 10
8598.599999999995
 20
6320.258720456422
 30
0.0
 11
8744.996681317024
 21
6466.655401773452
 31
0.0
  0
LINE
  5
24685
330
747D
100
AcDbEntity
  8
細線
 48
50.0
100
AcDbLine
 10
8598.599999999995
 20
6365.16000106177
 30
0.0
 11
8700.095400711671
 21
6466.655401773451
 31
0.0
  0
LINE
  5
24686
330
747D
100
AcDbEntity
  8
細線
 48
50.0
100
AcDbLine
 10
8598.599999999994
 20
6410.061281667113
 30
0.0
 11
8655.194120106335
 21
6466.65540177345
 31
0.0
  0
CIRCLE
  5
24687
330
747D
100
AcDbEntity
  8
部品1
 48
50.0
100
AcDbCircle
 10
9055.600000000008
 20
6384.655401773446
 30
0.0
 40
35.0
  0
LINE
  5
24688
330
747D
100
AcDbEntity
  8
センター
 48
2.0
100
AcDbLine
 10
9005.600000000008
 20
6384.655401773446
 30
0.0
 11
9105.600000000007
 21
6384.655401773446
 31
0.0
  0
LINE
  5
24689
330
747D
100
AcDbEntity
  8
センター
 48
2.0
100
AcDbLine
 10
9055.600000000008
 20
6434.655401773444
 30
0.0
 11
9055.600000000008
 21
6334.655401773446
 31
0.0
  0
LINE
  5
2468A
102
{ACAD_REACTORS
330
251C5
102
}
330
747D
100
AcDbEntity
  8
部品1
 48
50.0
100
AcDbLine
 10
9178.59999999999
 20
7081.655401773478
 30
0.0
 11
9058.600000000003
 21
7081.65540177348
 31
0.0
  0
LINE
  5
2468B
102
{ACAD_REACTORS
330
251C5
102
}
330
747D
100
AcDbEntity
  8
部品1
 48
50.0
100
AcDbLine
 10
9178.59999999999
 20
6881.655401773478
 30
0.0
 11
9058.600000000003
 21
6881.655401773478
 31
0.0
  0
DIMENSION
  5
2468E
330
747D
100
AcDbEntity
  8
寸法
 48
50.0
100
AcDbDimension
  2
*D38
 10
9055.600000000001
 20
8452.921859867352
 30
0.0
 11
9451.706601717798
 21
8452.921859867352
 31
0.0
 70
   160
 71
     5
 42
123.0
  3
INABA_S40G
100
AcDbAlignedDimension
 13
9178.600000000001
 23
7726.655401773442
 33
0.0
 14
9055.600000000001
 24
7653.655401773441
 34
0.0
100
AcDbRotatedDimension
1001
ACAD
1000
DSTYLE
1002
{
1070
   341
1005
0
1002
}
  0
LINE
  5
24690
330
747D
100
AcDbEntity
  8
細線
 48
50.0
100
AcDbLine
 10
8598.600000000001
 20
7663.580490747294
 30
0.0
 11
8661.674911026159
 21
7726.655401773451
 31
0.0
  0
LINE
  5
24691
330
747D
100
AcDbEntity
  8
細線
 48
50.0
100
AcDbLine
 10
8598.600000000004
 20
7573.777929536603
 30
0.0
 11
8751.47747223685
 21
7726.655401773452
 31
0.0
  0
LINE
  5
24692
330
747D
100
AcDbEntity
  8
細線
 48
50.0
100
AcDbLine
 10
8598.600000000001
 20
7618.679210141948
 30
0.0
 11
8706.576191631503
 21
7726.655401773449
 31
0.0
  0
LINE
  5
24693
330
747D
100
AcDbEntity
  8
部品1
 48
50.0
100
AcDbLine
 10
8598.599999999997
 20
7726.655401773451
 30
0.0
 11
8598.600000000004
 21
7526.655401773442
 31
0.0
  0
LINE
  5
24694
330
747D
100
AcDbEntity
  8
部品1
 48
50.0
100
AcDbLine
 10
8798.599999999998
 20
7726.655401773451
 30
0.0
 11
8798.600000000005
 21
7526.655401773442
 31
0.0
  0
LINE
  5
24695
330
747D
100
AcDbEntity
  8
細線
 48
50.0
100
AcDbLine
 10
8598.600000000004
 20
7528.876648931262
 30
0.0
 11
8796.378752842194
 21
7726.655401773449
 31
0.0
  0
LINE
  5
24696
330
747D
100
AcDbEntity
  8
細線
 48
50.0
100
AcDbLine
 10
8641.280033447531
 20
7526.655401773439
 30
0.0
 11
8798.599999999998
 21
7683.975368325907
 31
0.0
  0
LINE
  5
24697
330
747D
100
AcDbEntity
  8
細線
 48
50.0
100
AcDbLine
 10
8686.181314052879
 20
7526.655401773439
 30
0.0
 11
8798.6
 21
7639.074087720564
 31
0.0
  0
LINE
  5
24698
330
747D
100
AcDbEntity
  8
細線
 48
50.0
100
AcDbLine
 10
8775.983875263568
 20
7526.655401773439
 30
0.0
 11
8798.600000000002
 21
7549.271526509876
 31
0.0
  0
LINE
  5
24699
330
747D
100
AcDbEntity
  8
細線
 48
50.0
100
AcDbLine
 10
8731.082594658223
 20
7526.655401773439
 30
0.0
 11
8798.6
 21
7594.17280711522
 31
0.0
  0
LINE
  5
2469A
330
747D
100
AcDbEntity
  8
センター
 48
2.0
100
AcDbLine
 10
9005.600000000001
 20
7603.655401773441
 30
0.0
 11
9105.6
 21
7603.655401773441
 31
0.0
  0
CIRCLE
  5
2469B
330
747D
100
AcDbEntity
  8
部品1
 48
50.0
100
AcDbCircle
 10
9055.600000000001
 20
7603.655401773441
 30
0.0
 40
35.0
  0
LINE
  5
2469C
330
747D
100
AcDbEntity
  8
センター
 48
2.0
100
AcDbLine
 10
9055.600000000001
 20
7653.655401773441
 30
0.0
 11
9055.600000000001
 21
7553.655401773442
 31
0.0
  0
LINE
  5
2469D
330
747D
100
AcDbEntity
  8
細線
 48
50.0
100
AcDbLine
 10
8598.599999999999
 20
7708.481771352636
 30
0.0
 11
8616.773630420812
 21
7726.655401773452
 31
0.0
  0
TEXT
  5
24E33
330
747D
100
AcDbEntity
  8
文字
 62
     7
 48
50.0
100
AcDbText
 10
14267.69561199343
 20
838.2527270729188
 30
0.0
 40
100.0
  1
～一般型・多雪地型・豪雪地型～
  7
STYLE2
100
AcDbText
  0
LINE
  5
24E53
330
747D
100
AcDbEntity
  8
部品1
 48
50.0
100
AcDbLine
 10
9058.6
 20
6466.655401773455
 30
0.0
 11
7388.600000000001
 21
6466.655401773438
 31
0.0
  0
LINE
  5
24FF4
330
747D
100
AcDbEntity
  8
部品1
100
AcDbLine
 10
11218.59675036422
 20
3435.749359082278
 30
0.0
 11
5147.611564977965
 21
3435.749359082278
 31
0.0
  0
LINE
  5
24FF5
330
747D
100
AcDbEntity
  8
部品1
100
AcDbLine
 10
11218.59675036422
 20
3195.749359082276
 30
0.0
 11
5147.611564977968
 21
3195.749359082276
 31
0.0
  0
LINE
  5
24FF6
330
747D
100
AcDbEntity
  8
部品1
100
AcDbLine
 10
5147.611564977971
 20
471.4423894976307
 30
0.0
 11
11218.59675036422
 21
471.4423894976307
 31
0.0
  0
LEADER
  5
24FF7
330
747D
100
AcDbEntity
  8
寸法
 48
50.0
100
AcDbLeader
  3
INABA_S50G
 73
     0
 74
     0
 75
     1
 40
102.2727272727273
 41
680.0000000000001
 76
     3
 10
8155.719316964423
 20
2435.285972990835
 30
0.0
 10
8190.07328807778
 20
2845.738784097376
 30
0.0
 10
8315.07328807778
 20
2845.738784097376
 30
0.0
340
24FF8
1001
ACAD
1000
DSTYLE
1002
{
1070
   341
1005
0
1070
    40
1040
1.0
1070
   343
1005
0
1070
   344
1005
0
1002
}
  0
MTEXT
  5
24FF8
102
{ACAD_REACTORS
330
24FF7
102
}
330
747D
100
AcDbEntity
  8
部品1
 62
     7
 48
50.0
100
AcDbMText
 10
8340.07328807778
 20
2921.87514773374
 30
0.0
 40
80.0
 41
0.8
 71
     4
 72
     1
  1
\A1;ナット(市販品)
  7
STYLE2
 73
     1
 44
1.0
1001
ACAD
1000
MTEXTBEGIN
1070
    73
1070
     1
1070
    44
1040
1.0
1070
    74
1070
     0
1000
MTEXTEND
  0
LEADER
  5
24FF9
330
747D
100
AcDbEntity
  8
寸法
 48
50.0
100
AcDbLeader
  3
INABA_S50G
 73
     0
 74
     0
 75
     1
 40
102.2727272727273
 41
906.8181818181818
 76
     3
 10
8179.719316964423
 20
2305.533980325972
 30
0.0
 10
8221.590907333263
 20
2660.769701332589
 30
0.0
 10
8346.590907333263
 20
2660.769701332589
 30
0.0
340
24FFA
1001
ACAD
1000
DSTYLE
1002
{
1070
   341
1005
0
1070
    40
1040
1.0
1070
   343
1005
0
1070
   344
1005
0
1002
}
  0
MTEXT
  5
24FFA
102
{ACAD_REACTORS
330
24FF9
102
}
330
747D
100
AcDbEntity
  8
部品1
 62
     7
 48
50.0
100
AcDbMText
 10
8371.590907333262
 20
2736.906064968953
 30
0.0
 40
80.0
 41
0.8
 71
     4
 72
     1
  1
\A1;ワッシャー(市販品)
  7
STYLE2
 73
     1
 44
1.0
1001
ACAD
1000
MTEXTBEGIN
1070
    73
1070
     1
1070
    44
1040
1.0
1070
    74
1070
     0
1000
MTEXTEND
  0
LWPOLYLINE
  5
24FFB
330
747D
100
AcDbEntity
  8
部品1
 48
50.0
100
AcDbPolyline
 90
        2
 70
     0
 43
8.0
 10
8332.319316964422
 20
1796.410691881693
 10
8626.021780363808
 20
1796.410691881693
  0
TEXT
  5
24FFC
330
747D
100
AcDbEntity
  8
部品1
 48
50.0
100
AcDbText
 10
8336.672901248851
 20
2392.289372643892
 30
0.0
 40
80.0
  1
基礎ボルト(市販品)
  7
STYLE2
100
AcDbText
  0
DIMENSION
  5
24FFD
330
747D
100
AcDbEntity
  8
寸法
 48
50.0
100
AcDbDimension
  2
*D39
 10
8834.187916733267
 20
1712.410691881691
 30
0.0
 11
8734.187916733267
 21
1874.410691881693
 31
0.0
 70
    32
  1
180
 71
     5
 42
324.0000000000009
  3
INABA_S40G
100
AcDbAlignedDimension
 13
8332.319316964422
 23
2036.410691881693
 33
0.0
 14
8332.319316964422
 24
1712.410691881691
 34
0.0
 50
90.0
100
AcDbRotatedDimension
1001
ACAD
1000
DSTYLE
1002
{
1070
   341
1005
0
1002
}
  0
DIMENSION
  5
24FFE
330
747D
100
AcDbEntity
  8
寸法
 48
50.0
100
AcDbDimension
  2
*D40
 10
9110.242582852293
 20
2036.410691881692
 30
0.0
 11
9110.242582852293
 21
1570.40178846021
 31
0.0
 70
   160
  1
20～25
 71
     5
 42
52.76000000000113
  3
INABA_S40G
100
AcDbAlignedDimension
 13
8145.119316964425
 23
2089.170691881694
 33
0.0
 14
8332.319316964422
 24
2036.410691881693
 34
0.0
 50
90.0
100
AcDbRotatedDimension
1001
ACAD
1000
DSTYLE
1002
{
1070
   341
1005
0
1002
}
  0
MTEXT
  5
24FFF
102
{ACAD_REACTORS
330
25000
102
}
330
747D
100
AcDbEntity
  8
部品1
 62
     7
 48
50.0
100
AcDbMText
 10
8341.263779383742
 20
2300.794018034922
 30
0.0
 40
80.0
 41
0.8
 71
     4
 72
     1
  1
M10X160
  7
STYLE2
 73
     1
 44
1.0
1001
ACAD
1000
MTEXTBEGIN
1070
    73
1070
     1
1070
    44
1040
1.0
1070
    74
1070
     0
1000
MTEXTEND
  0
LEADER
  5
25000
330
747D
100
AcDbEntity
  8
寸法
 48
50.0
100
AcDbLeader
  3
INABA_S50G
 73
     0
 74
     0
 75
     1
 40
80.0
 41
435.0
 76
     3
 10
8148.719316964422
 20
2085.570691881693
 30
0.0
 10
8191.263779383742
 20
2235.794018034923
 30
0.0
 10
8316.263779383742
 20
2235.794018034923
 30
0.0
340
24FFF
1001
ACAD
1000
DSTYLE
1002
{
1070
   341
1005
0
1070
    40
1040
1.0
1070
   343
1005
0
1070
   344
1005
0
1002
}
  0
LINE
  5
25001
330
747D
100
AcDbEntity
  8
部品1
100
AcDbLine
 10
5147.611564977967
 20
3435.749359082278
 30
0.0
 11
5147.611564977968
 21
471.4423894976307
 31
0.0
  0
LEADER
  5
25002
330
747D
100
AcDbEntity
  8
寸法
 48
50.0
100
AcDbLeader
  3
INABA_S50G
 73
     0
 75
     1
 40
113.1818181818182
 41
608.6363636363635
 76
     3
 10
8108.456067102473
 20
1985.926365239971
 30
0.0
 10
7974.652238411126
 20
2837.305447596449
 30
0.0
 10
7849.652238411126
 20
2837.305447596449
 30
0.0
340
25003
1001
ACAD
1000
DSTYLE
1002
{
1070
   341
1005
0
1070
    40
1040
1.0
1070
   343
1005
0
1070
   344
1005
0
1002
}
  0
MTEXT
  5
25003
102
{ACAD_REACTORS
330
25002
102
}
330
747D
100
AcDbEntity
  8
寸法
 62
     7
 48
50.0
100
AcDbMText
 10
7824.652238411125
 20
2918.896356687358
 30
0.0
 40
80.0
 41
0.8
 71
     6
 72
     1
  1
\A1;φ70スリーブ
  7
STYLE2
 73
     1
 44
1.0
1001
ACAD
1000
MTEXTBEGIN
1070
    73
1070
     1
1070
    44
1040
1.0
1070
    74
1070
     0
1000
MTEXTEND
  0
LWPOLYLINE
  5
25004
330
747D
100
AcDbEntity
  8
部品1
 48
50.0
100
AcDbPolyline
 90
        2
 70
     0
 43
8.0
 10
5804.140101954272
 20
1796.410691881693
 10
6218.28000378723
 20
1796.410691881693
  0
TEXT
  5
25005
330
747D
100
AcDbEntity
  8
部品1
 48
50.0
100
AcDbText
 10
5804.140101954272
 20
1807.649684164948
 30
0.0
 40
80.0
  1
▽G.L
  7
STYLE2
100
AcDbText
  0
DIMENSION
  5
25006
330
747D
100
AcDbEntity
  8
寸法
 48
50.0
100
AcDbDimension
  2
*D41
 10
5947.859690054769
 20
1252.410691881692
 30
0.0
 11
5947.859690054769
 21
1372.410691881693
 31
0.0
 70
   160
  1
150
 71
     5
 42
240.0
  3
INABA_S40G
100
AcDbAlignedDimension
 13
6090.28000378723
 23
1492.410691881692
 33
0.0
 14
6010.280003787233
 24
1252.410691881692
 34
0.0
 50
90.0
100
AcDbRotatedDimension
1001
ACAD
1000
DSTYLE
1002
{
1070
   341
1005
0
1002
}
  0
LEADER
  5
25007
330
747D
100
AcDbEntity
  8
寸法
 48
50.0
100
AcDbLeader
  3
INABA_S50G
 71
     0
 73
     0
 75
     1
 40
100.0
 41
225.0
 76
     3
 10
6186.182956139372
 20
1372.410691881692
 30
0.0
 10
6064.344977592035
 20
1108.887998263256
 30
0.0
 10
5939.344977592035
 20
1108.887998263256
 30
0.0
1001
ACAD
1000
DSTYLE
1002
{
1070
    40
1040
1.0
1070
   272
1070
     1
1070
   279
1070
     1
1070
   341
1005
0
1002
}
  0
LEADER
  5
25008
330
747D
100
AcDbEntity
  8
寸法
 48
50.0
100
AcDbLeader
  3
INABA_S50G
 71
     0
 73
     0
 75
     1
 40
100.0
 41
222.7272727272727
 76
     3
 10
6314.28000378723
 20
1372.410691881692
 30
0.0
 10
6092.46770514947
 20
928.5718457238127
 30
0.0
 10
5967.46770514947
 20
928.5718457238127
 30
0.0
1001
ACAD
1000
DSTYLE
1002
{
1070
    40
1040
1.0
1070
   272
1070
     1
1070
   279
1070
     1
1070
   341
1005
0
1002
}
  0
MTEXT
  5
25009
102
{ACAD_REACTORS
330
2500A
102
}
330
747D
100
AcDbEntity
  8
寸法
 62
     7
 48
50.0
100
AcDbMText
 10
6129.029949564425
 20
1637.711294699149
 30
0.0
 40
80.0
 41
0.8
 71
     6
 72
     1
  1
\A1;D10@300
  7
STYLE2
 73
     1
 44
1.0
1001
ACAD
1000
MTEXTBEGIN
1070
    73
1070
     1
1070
    44
1040
1.0
1070
    74
1070
     0
1000
MTEXTEND
  0
LEADER
  5
2500A
330
747D
100
AcDbEntity
  8
寸法
 48
50.0
100
AcDbLeader
  3
INABA_S50G
 71
     0
 73
     0
 75
     1
 40
100.0
 41
540.3409090909091
 76
     3
 10
6322.28000378723
 20
1794.537906578815
 30
0.0
 10
6264.297767258531
 20
1573.067578038011
 30
0.0
 10
6139.297767258531
 20
1573.067578038011
 30
0.0
213
-9.732182305893367
223
-4.643716661138569
233
0.0
1001
ACAD
1000
DSTYLE
1002
{
1070
    40
1040
1.0
1070
   272
1070
     1
1070
   279
1070
     1
1070
   341
1005
0
1002
}
  0
LEADER
  5
2500B
330
747D
100
AcDbEntity
  8
寸法
 48
50.0
100
AcDbLeader
  3
INABA_S50G
 71
     0
 73
     0
 75
     1
 40
130.1136363636363
 41
651.1363636363636
 76
     3
 10
6298.28000378723
 20
2036.410691881693
 30
0.0
 10
6185.855423623213
 20
2176.88145733828
 30
0.0
 10
6060.855423623213
 20
2176.88145733828
 30
0.0
1001
ACAD
1000
DSTYLE
1002
{
1070
    40
1040
1.0
1070
   272
1070
     1
1070
   279
1070
     1
1070
   341
1005
0
1002
}
  0
MTEXT
  5
2500C
102
{ACAD_REACTORS
330
2500B
102
}
330
747D
100
AcDbEntity
  8
寸法
 62
     7
 48
50.0
100
AcDbMText
 10
5998.181524303956
 20
2248.926911883735
 30
0.0
 40
80.0
 41
0.8
 71
     6
 72
     1
  1
\A1;金コテ押エ
  7
STYLE2
 73
     1
 44
1.0
1001
ACAD
1000
MTEXTBEGIN
1070
    73
1070
     1
1070
    44
1040
1.0
1070
    74
1070
     0
1000
MTEXTEND
  0
DIMENSION
  5
2500D
330
747D
100
AcDbEntity
  8
寸法
 48
50.0
100
AcDbDimension
  2
*D42
 10
5483.242765225489
 20
1252.410691881692
 30
0.0
 11
5483.242765225489
 21
1623.950841537693
 31
0.0
 70
   160
  1
540
 71
     5
 42
784.0
  3
INABA_S40G
100
AcDbAlignedDimension
 13
6218.28000378723
 23
2036.410691881693
 33
0.0
 14
6010.280003787233
 24
1252.410691881692
 34
0.0
 50
90.0
100
AcDbRotatedDimension
1001
ACAD
1000
DSTYLE
1002
{
1070
   341
1005
0
1002
}
  0
MTEXT
  5
2500E
102
{ACAD_REACTORS
330
25008
102
}
330
747D
100
AcDbEntity
  8
寸法
 62
     7
 48
50.0
100
AcDbMText
 10
5947.46770514947
 20
988.5718457238127
 30
0.0
 40
80.0
 41
0.8
 71
     6
 72
     1
  1
D13
  7
STYLE2
 73
     1
 44
1.0
1001
ACAD
1000
MTEXTBEGIN
1070
    73
1070
     1
1070
    44
1040
1.0
1070
    74
1070
     0
1000
MTEXTEND
  0
MTEXT
  5
2500F
102
{ACAD_REACTORS
330
25007
102
}
330
747D
100
AcDbEntity
  8
寸法
 62
     7
 48
50.0
100
AcDbMText
 10
5919.344977592036
 20
1168.887998263256
 30
0.0
 40
80.0
 41
0.8
 71
     6
 72
     1
  1
D10
  7
STYLE2
 73
     1
 44
1.0
1001
ACAD
1000
MTEXTBEGIN
1070
    73
1070
     1
1070
    44
1040
1.0
1070
    74
1070
     0
1000
MTEXTEND
  0
DIMENSION
  5
25010
330
747D
100
AcDbEntity
  8
寸法
 48
50.0
100
AcDbDimension
  2
*D43
 10
6538.28000378723
 20
713.9810538765323
 30
0.0
 11
6294.183245109006
 21
713.9810538765323
 31
0.0
 70
   160
  1
300
 71
     5
 42
448.0
  3
INABA_S40G
100
AcDbAlignedDimension
 13
6090.28000378723
 23
1124.410691881692
 33
0.0
 14
6538.28000378723
 24
1124.410691881692
 34
0.0
100
AcDbRotatedDimension
1001
ACAD
1000
DSTYLE
1002
{
1070
   341
1005
0
1002
}
  0
MTEXT
  5
25011
102
{ACAD_REACTORS
330
25012
102
}
330
747D
100
AcDbEntity
  8
寸法
 62
     7
 48
50.0
100
AcDbMText
 10
7851.295244619485
 20
2558.212084779845
 30
0.0
 40
80.0
 41
0.8
 71
     6
 72
     1
  1
\A1;アンカープレート L
  7
STYLE2
 73
     1
 44
1.0
1001
ACAD
1000
MTEXTBEGIN
1070
    73
1070
     1
1070
    44
1040
1.0
1070
    74
1070
     0
1000
MTEXTEND
  0
LEADER
  5
25012
330
747D
100
AcDbEntity
  8
寸法
 48
50.0
100
AcDbLeader
  3
INABA_S50G
 73
     0
 75
     1
 40
106.3636363636363
 41
893.1818181818181
 76
     3
 10
8049.719316964424
 20
2105.970691881694
 30
0.0
 10
8001.295244619484
 20
2480.030266598026
 30
0.0
 10
7876.295244619484
 20
2480.030266598026
 30
0.0
340
25011
1001
ACAD
1000
DSTYLE
1002
{
1070
   341
1005
0
1070
    40
1040
1.0
1070
   343
1005
0
1070
   344
1005
0
1002
}
  0
LINE
  5
25013
330
747D
100
AcDbEntity
  8
細線
 48
50.0
100
AcDbLine
 10
6338.280003787231
 20
1874.783584549523
 30
0.0
 11
6410.28000378723
 21
1946.783584549523
 31
0.0
  0
ARC
  5
25014
330
747D
100
AcDbEntity
  8
部品1
 48
50.0
100
AcDbCircle
 10
6314.280003787231
 20
1896.665121275938
 30
0.0
 40
24.0
100
AcDbArc
 50
0.0
 51
180.0
  0
CIRCLE
  5
25015
330
747D
100
AcDbEntity
  8
部品1
 48
50.0
100
AcDbCircle
 10
6314.280003787231
 20
1896.665121275938
 30
0.0
 40
8.0
  0
LINE
  5
25016
330
747D
100
AcDbEntity
  8
部品1
 48
50.0
100
AcDbLine
 10
6218.280003787231
 20
1492.410691881692
 30
0.0
 11
6218.280003787231
 21
2036.410691881693
 31
0.0
  0
LINE
  5
25017
330
747D
100
AcDbEntity
  8
部品1
 48
50.0
100
AcDbLine
 10
6410.28000378723
 20
2036.410691881693
 30
0.0
 11
6410.28000378723
 21
1492.410691881692
 31
0.0
  0
MTEXT
  5
25018
102
{ACAD_REACTORS
330
2501D
102
}
330
747D
100
AcDbEntity
  8
寸法
 62
     7
 48
50.0
100
AcDbMText
 10
6493.165940814624
 20
2058.966591174503
 30
0.0
 40
80.0
 41
0.8
 71
     4
 72
     1
  1
D13
  7
STYLE2
 73
     1
 44
1.0
1001
ACAD
1000
MTEXTBEGIN
1070
    73
1070
     1
1070
    44
1040
1.0
1070
    74
1070
     0
1000
MTEXTEND
  0
LEADER
  5
25019
330
747D
100
AcDbEntity
  8
寸法
 48
50.0
100
AcDbLeader
  3
INABA_S50G
 71
     0
 73
     0
 74
     0
 75
     1
 40
100.0
 41
225.0
 76
     3
 10
6442.182956139372
 20
1372.410691881692
 30
0.0
 10
6496.607663593914
 20
1277.01362293872
 30
0.0
 10
6621.607663593914
 20
1277.01362293872
 30
0.0
1001
ACAD
1000
DSTYLE
1002
{
1070
    40
1040
1.0
1070
   272
1070
     1
1070
   279
1070
     1
1070
   341
1005
0
1002
}
  0
LEADER
  5
2501A
330
747D
100
AcDbEntity
  8
寸法
 48
50.0
100
AcDbLeader
  3
INABA_S50G
 71
     0
 73
     0
 74
     0
 75
     1
 40
100.0
 41
540.3409090909091
 76
     3
 10
6388.225172800404
 20
1355.670161468167
 30
0.0
 10
6507.018459648481
 20
1014.039343473269
 30
0.0
 10
6632.018459648481
 20
1014.039343473269
 30
0.0
213
0.0
223
-1.022262676269383
233
0.0
1001
ACAD
1000
DSTYLE
1002
{
1070
    40
1040
1.0
1070
   272
1070
     1
1070
   279
1070
     1
1070
   341
1005
0
1002
}
  0
MTEXT
  5
2501B
102
{ACAD_REACTORS
330
25019
102
}
330
747D
100
AcDbEntity
  8
寸法
 62
     7
 48
50.0
100
AcDbMText
 10
6641.607663593915
 20
1337.01362293872
 30
0.0
 40
80.0
 41
0.8
 71
     4
 72
     1
  1
D10
  7
STYLE2
 73
     1
 44
1.0
1001
ACAD
1000
MTEXTBEGIN
1070
    73
1070
     1
1070
    44
1040
1.0
1070
    74
1070
     0
1000
MTEXTEND
  0
LWPOLYLINE
  5
2501C
330
747D
100
AcDbEntity
  8
部品1
 48
50.0
100
AcDbPolyline
 90
        2
 70
     0
 43
8.0
 10
6410.28000378723
 20
1796.410691881693
 10
6824.419905620186
 20
1796.410691881693
  0
LEADER
  5
2501D
330
747D
100
AcDbEntity
  8
寸法
 48
50.0
100
AcDbLeader
  3
INABA_S50G
 71
     0
 73
     0
 74
     0
 75
     1
 40
100.0
 41
222.7272727272727
 76
     3
 10
6314.28000378723
 20
1896.665121275938
 30
0.0
 10
6368.165940814624
 20
1995.900694129112
 30
0.0
 10
6493.165940814624
 20
1995.900694129112
 30
0.0
1001
ACAD
1000
DSTYLE
1002
{
1070
    40
1040
1.0
1070
   272
1070
     1
1070
   279
1070
     1
1070
   341
1005
0
1002
}
  0
LINE
  5
2501E
330
747D
100
AcDbEntity
  8
細線
 48
50.0
100
AcDbLine
 10
6090.280003787223
 20
1411.257437643863
 30
0.0
 11
6171.433258025058
 21
1492.410691881692
 31
0.0
  0
LINE
  5
2501F
330
747D
100
AcDbEntity
  8
細線
 48
50.0
100
AcDbLine
 10
6298.145851264634
 20
1430.537906578815
 30
0.0
 11
6322.280003787236
 21
1454.672059101413
 31
0.0
  0
LINE
  5
25020
330
747D
100
AcDbEntity
  8
細線
 48
50.0
100
AcDbLine
 10
6205.077868204303
 20
1364.410691881692
 30
0.0
 11
6322.280003787231
 21
1481.612827464618
 31
0.0
  0
LINE
  5
25021
330
747D
100
AcDbEntity
  8
部品1
 48
50.0
100
AcDbLine
 10
6090.28000378723
 20
1252.410691881692
 30
0.0
 11
6090.28000378723
 21
1492.410691881692
 31
0.0
  0
LINE
  5
25022
330
747D
100
AcDbEntity
  8
細線
 48
50.0
100
AcDbLine
 10
6447.544783473174
 20
1364.410691881692
 30
0.0
 11
6538.28000378723
 21
1455.145912195751
 31
0.0
  0
LINE
  5
25023
330
747D
100
AcDbEntity
  8
細線
 48
50.0
100
AcDbLine
 10
6420.604015109958
 20
1364.410691881692
 30
0.0
 11
6538.28000378723
 21
1482.086680558958
 31
0.0
  0
LINE
  5
25024
330
747D
100
AcDbEntity
  8
部品1
 48
50.0
100
AcDbLine
 10
6538.28000378723
 20
1492.410691881692
 30
0.0
 11
6538.28000378723
 21
1252.410691881692
 31
0.0
  0
LINE
  5
25025
330
747D
100
AcDbEntity
  8
部品1
 48
50.0
100
AcDbLine
 10
6338.280003787236
 20
1372.410691881692
 30
0.0
 11
6338.280003787231
 21
1896.665121275938
 31
0.0
  0
LINE
  5
25026
330
747D
100
AcDbEntity
  8
部品1
 48
50.0
100
AcDbLine
 10
6322.280003787236
 20
1372.410691881692
 30
0.0
 11
6322.280003787223
 21
1896.665121275938
 31
0.0
  0
LINE
  5
25027
330
747D
100
AcDbEntity
  8
細線
 48
50.0
100
AcDbLine
 10
6306.280003787231
 20
1411.731290738203
 30
0.0
 11
6322.280003787236
 21
1427.731290738203
 31
0.0
  0
LINE
  5
25028
330
747D
100
AcDbEntity
  8
細線
 48
50.0
100
AcDbLine
 10
6295.462843283244
 20
1124.410691881692
 30
0.0
 11
6329.760339914427
 21
1252.410691881692
 31
0.0
  0
LINE
  5
25029
330
747D
100
AcDbEntity
  8
部品1
 48
50.0
100
AcDbLine
 10
6618.280003787234
 20
1124.410691881692
 30
0.0
 11
6010.280003787232
 21
1124.410691881692
 31
0.0
  0
LINE
  5
2502A
330
747D
100
AcDbEntity
  8
部品1
 48
50.0
100
AcDbLine
 10
6146.28000378723
 20
1348.410691881692
 30
0.0
 11
6482.28000378723
 21
1348.410691881692
 31
0.0
  0
LINE
  5
2502B
330
747D
100
AcDbEntity
  8
部品1
 48
50.0
100
AcDbLine
 10
6146.28000378723
 20
1364.410691881692
 30
0.0
 11
6482.28000378723
 21
1364.410691881692
 31
0.0
  0
LINE
  5
2502C
330
747D
100
AcDbEntity
  8
部品1
 48
50.0
100
AcDbLine
 10
6618.280003787234
 20
1252.410691881692
 30
0.0
 11
6010.280003787232
 21
1252.410691881692
 31
0.0
  0
CIRCLE
  5
2502D
330
747D
100
AcDbEntity
  8
部品1
 48
50.0
100
AcDbCircle
 10
6314.280003787231
 20
1372.410691881692
 30
0.0
 40
8.0
  0
LINE
  5
2502E
330
747D
100
AcDbEntity
  8
細線
 48
50.0
100
AcDbLine
 10
6308.604015109963
 20
1252.410691881692
 30
0.0
 11
6404.604015109963
 21
1348.410691881692
 31
0.0
  0
LINE
  5
2502F
330
747D
100
AcDbEntity
  8
細線
 48
50.0
100
AcDbLine
 10
6137.686753388746
 20
1124.410691881692
 30
0.0
 11
6171.984250019929
 21
1252.410691881692
 31
0.0
  0
LINE
  5
25030
330
747D
100
AcDbEntity
  8
細線
 48
50.0
100
AcDbLine
 10
6216.574798335991
 20
1124.41069188169
 30
0.0
 11
6250.872294967175
 21
1252.410691881691
 31
0.0
  0
LINE
  5
25031
330
747D
100
AcDbEntity
  8
細線
 48
50.0
100
AcDbLine
 10
6058.798708441488
 20
1124.41069188169
 30
0.0
 11
6093.096205072671
 21
1252.410691881691
 31
0.0
  0
LINE
  5
25032
330
747D
100
AcDbEntity
  8
部品1
 48
50.0
100
AcDbLine
 10
6010.280003787232
 20
1124.410691881692
 30
0.0
 11
6010.280003787232
 21
1252.410691881692
 31
0.0
  0
LINE
  5
25033
330
747D
100
AcDbEntity
  8
細線
 48
50.0
100
AcDbLine
 10
6144.117534007092
 20
1148.410691881692
 30
0.0
 11
6150.54831462544
 21
1124.410691881692
 31
0.0
  0
LINE
  5
25034
330
747D
100
AcDbEntity
  8
細線
 48
50.0
100
AcDbLine
 10
6065.229489059841
 20
1148.410691881692
 30
0.0
 11
6071.660269678187
 21
1124.410691881692
 31
0.0
  0
LINE
  5
25035
330
747D
100
AcDbEntity
  8
細線
 48
50.0
100
AcDbLine
 10
6301.893623901598
 20
1148.410691881692
 30
0.0
 11
6308.324404519943
 21
1124.410691881692
 31
0.0
  0
LINE
  5
25036
330
747D
100
AcDbEntity
  8
細線
 48
50.0
100
AcDbLine
 10
6223.005578954345
 20
1148.410691881692
 30
0.0
 11
6229.436359572691
 21
1124.410691881692
 31
0.0
  0
LINE
  5
25037
330
747D
100
AcDbEntity
  8
細線
 48
50.0
100
AcDbLine
 10
6120.018636567514
 20
1252.410691881692
 30
0.0
 11
6216.018636567514
 21
1348.410691881692
 31
0.0
  0
LINE
  5
25038
330
747D
100
AcDbEntity
  8
細線
 48
50.0
100
AcDbLine
 10
6093.077868204303
 20
1252.410691881692
 30
0.0
 11
6189.077868204303
 21
1348.410691881692
 31
0.0
  0
LINE
  5
25039
330
747D
100
AcDbEntity
  8
部品1
 48
50.0
100
AcDbLine
 10
6146.28000378723
 20
1364.410691881692
 30
0.0
 11
6146.28000378723
 21
1348.410691881692
 31
0.0
  0
LINE
  5
2503A
330
747D
100
AcDbEntity
  8
細線
 48
50.0
100
AcDbLine
 10
6086.665424454331
 20
1228.410691881692
 30
0.0
 11
6080.234643835982
 21
1252.410691881692
 31
0.0
  0
LINE
  5
2503B
330
747D
100
AcDbEntity
  8
細線
 48
50.0
100
AcDbLine
 10
6010.28000378723
 20
1237.750612847472
 30
0.0
 11
6014.208160125426
 21
1252.410691881692
 31
0.0
  0
LINE
  5
2503C
330
747D
100
AcDbEntity
  8
部品1
 48
50.0
100
AcDbLine
 10
6306.280003787231
 20
1430.537906578815
 30
0.0
 11
6290.280003787231
 21
1430.537906578815
 31
0.0
  0
CIRCLE
  5
2503D
330
747D
100
AcDbEntity
  8
部品1
 48
50.0
100
AcDbCircle
 10
6186.28000378723
 20
1372.410691881692
 30
0.0
 40
8.0
  0
LINE
  5
2503E
330
747D
100
AcDbEntity
  8
細線
 48
50.0
100
AcDbLine
 10
6258.959404930719
 20
1364.410691881692
 30
0.0
 11
6290.280003787231
 21
1395.731290738204
 31
0.0
  0
ARC
  5
2503F
330
747D
100
AcDbEntity
  8
部品1
 48
50.0
100
AcDbCircle
 10
6314.280003787231
 20
1372.410691881692
 30
0.0
 40
24.0
100
AcDbArc
 50
180.0
 51
199.4712206344713
  0
LINE
  5
25040
330
747D
100
AcDbEntity
  8
細線
 48
50.0
100
AcDbLine
 10
6165.553469401581
 20
1228.410691881692
 30
0.0
 11
6159.122688783235
 21
1252.410691881692
 31
0.0
  0
LINE
  5
25041
330
747D
100
AcDbEntity
  8
細線
 48
50.0
100
AcDbLine
 10
6244.441514348834
 20
1228.410691881692
 30
0.0
 11
6238.010733730488
 21
1252.410691881692
 31
0.0
  0
LINE
  5
25042
330
747D
100
AcDbEntity
  8
細線
 48
50.0
100
AcDbLine
 10
6146.959404930719
 20
1252.410691881692
 30
0.0
 11
6242.959404930719
 21
1348.410691881692
 31
0.0
  0
LINE
  5
25043
330
747D
100
AcDbEntity
  8
部品1
 48
50.0
100
AcDbLine
 10
6290.280003787231
 20
1430.537906578815
 30
0.0
 11
6290.280003787231
 21
1372.410691881692
 31
0.0
  0
LINE
  5
25044
330
747D
100
AcDbEntity
  8
細線
 48
50.0
100
AcDbLine
 10
6232.018636567513
 20
1364.410691881692
 30
0.0
 11
6290.280003787231
 21
1422.672059101411
 31
0.0
  0
LINE
  5
25045
330
747D
100
AcDbEntity
  8
部品1
 48
50.0
100
AcDbLine
 10
6306.280003787231
 20
1430.537906578815
 30
0.0
 11
6306.280003787231
 21
1372.410691881692
 31
0.0
  0
LINE
  5
25046
330
747D
100
AcDbEntity
  8
部品1
 48
50.0
100
AcDbLine
 10
6618.280003787234
 20
1252.410691881692
 30
0.0
 11
6618.280003787234
 21
1124.410691881692
 31
0.0
  0
LINE
  5
25047
330
747D
100
AcDbEntity
  8
細線
 48
50.0
100
AcDbLine
 10
6532.126978124984
 20
1124.410691881692
 30
0.0
 11
6566.424474756169
 21
1252.410691881691
 31
0.0
  0
LINE
  5
25048
330
747D
100
AcDbEntity
  8
細線
 48
50.0
100
AcDbLine
 10
6374.350888230489
 20
1124.410691881692
 30
0.0
 11
6408.648384861677
 21
1252.410691881691
 31
0.0
  0
LINE
  5
25049
330
747D
100
AcDbEntity
  8
細線
 48
50.0
100
AcDbLine
 10
6453.238933177738
 20
1124.41069188169
 30
0.0
 11
6487.536429808923
 21
1252.410691881691
 31
0.0
  0
LINE
  5
2504A
330
747D
100
AcDbEntity
  8
細線
 48
50.0
100
AcDbLine
 10
6459.669713796088
 20
1148.410691881692
 30
0.0
 11
6466.100494414437
 21
1124.410691881692
 31
0.0
  0
LINE
  5
2504B
330
747D
100
AcDbEntity
  8
細線
 48
50.0
100
AcDbLine
 10
6380.781668848843
 20
1148.410691881692
 30
0.0
 11
6387.212449467188
 21
1124.410691881692
 31
0.0
  0
LINE
  5
2504C
330
747D
100
AcDbEntity
  8
細線
 48
50.0
100
AcDbLine
 10
6538.557758743336
 20
1148.410691881692
 30
0.0
 11
6544.988539361684
 21
1124.410691881692
 31
0.0
  0
LINE
  5
2504D
330
747D
100
AcDbEntity
  8
細線
 48
50.0
100
AcDbLine
 10
6617.445803690583
 20
1148.410691881692
 30
0.0
 11
6618.28000378723
 21
1145.297414737328
 31
0.0
  0
LINE
  5
2504E
330
747D
100
AcDbEntity
  8
細線
 48
50.0
100
AcDbLine
 10
6611.015023072233
 20
1124.41069188169
 30
0.0
 11
6618.28000378723
 21
1151.52396902608
 31
0.0
  0
LINE
  5
2504F
330
747D
100
AcDbEntity
  8
細線
 48
50.0
100
AcDbLine
 10
6474.485551836377
 20
1364.410691881692
 30
0.0
 11
6538.28000378723
 21
1428.205143832543
 31
0.0
  0
CIRCLE
  5
25050
330
747D
100
AcDbEntity
  8
部品1
 48
50.0
100
AcDbCircle
 10
6442.280003787231
 20
1372.410691881692
 30
0.0
 40
8.0
  0
ARC
  5
25051
330
747D
100
AcDbEntity
  8
部品1
 48
50.0
100
AcDbCircle
 10
6314.280003787231
 20
1372.410691881692
 30
0.0
 40
24.0
100
AcDbArc
 50
340.5287793655287
 51
0.0
  0
LINE
  5
25052
330
747D
100
AcDbEntity
  8
細線
 48
50.0
100
AcDbLine
 10
6323.329559296087
 20
1228.410691881692
 30
0.0
 11
6316.898778677739
 21
1252.410691881692
 31
0.0
  0
LINE
  5
25053
330
747D
100
AcDbEntity
  8
細線
 48
50.0
100
AcDbLine
 10
6402.217604243332
 20
1228.410691881692
 30
0.0
 11
6395.786823624986
 21
1252.410691881692
 31
0.0
  0
LINE
  5
25054
330
747D
100
AcDbEntity
  8
細線
 48
50.0
100
AcDbLine
 10
6335.544783473174
 20
1252.410691881692
 30
0.0
 11
6431.544783473174
 21
1348.410691881692
 31
0.0
  0
LINE
  5
25055
330
747D
100
AcDbEntity
  8
細線
 48
50.0
100
AcDbLine
 10
6362.485551836377
 20
1252.410691881692
 30
0.0
 11
6458.486439681514
 21
1348.411579726831
 31
0.0
  0
LINE
  5
25056
330
747D
100
AcDbEntity
  8
部品1
 48
50.0
100
AcDbLine
 10
6482.28000378723
 20
1364.410691881692
 30
0.0
 11
6482.28000378723
 21
1348.410691881692
 31
0.0
  0
LINE
  5
25057
330
747D
100
AcDbEntity
  8
細線
 48
50.0
100
AcDbLine
 10
6559.993694137824
 20
1228.410691881692
 30
0.0
 11
6553.562913519477
 21
1252.410691881692
 31
0.0
  0
LINE
  5
25058
330
747D
100
AcDbEntity
  8
細線
 48
50.0
100
AcDbLine
 10
6524.130162015623
 20
1252.410691881692
 30
0.0
 11
6538.28000378723
 21
1266.560533653299
 31
0.0
  0
LINE
  5
25059
330
747D
100
AcDbEntity
  8
細線
 48
50.0
100
AcDbLine
 10
6481.105649190578
 20
1228.410691881692
 30
0.0
 11
6474.674868572231
 21
1252.410691881692
 31
0.0
  0
LINE
  5
2505A
330
747D
100
AcDbEntity
  8
細線
 48
50.0
100
AcDbLine
 10
6218.280003787231
 20
1566.19820600707
 30
0.0
 11
6322.280003787236
 21
1670.198206007073
 31
0.0
  0
LINE
  5
2505B
330
747D
100
AcDbEntity
  8
細線
 48
50.0
100
AcDbLine
 10
6218.280003787231
 20
1593.138974370278
 30
0.0
 11
6322.280003787231
 21
1697.138974370278
 31
0.0
  0
LINE
  5
2505C
330
747D
100
AcDbEntity
  8
細線
 48
50.0
100
AcDbLine
 10
6218.280003787231
 20
1539.257437643863
 30
0.0
 11
6322.280003787236
 21
1643.257437643863
 31
0.0
  0
LINE
  5
2505D
330
747D
100
AcDbEntity
  8
細線
 48
50.0
100
AcDbLine
 10
6306.280003787231
 20
1842.783584549523
 30
0.0
 11
6322.280003787231
 21
1858.783584549523
 31
0.0
  0
LINE
  5
2505E
330
747D
100
AcDbEntity
  8
細線
 48
50.0
100
AcDbLine
 10
6306.280003787231
 20
1869.72435291273
 30
0.0
 11
6322.280003787231
 21
1885.72435291273
 31
0.0
  0
LINE
  5
2505F
330
747D
100
AcDbEntity
  8
部品1
 48
50.0
100
AcDbLine
 10
6090.28000378723
 20
1492.410691881692
 30
0.0
 11
6218.280003787231
 21
1492.410691881692
 31
0.0
  0
LINE
  5
25060
330
747D
100
AcDbEntity
  8
細線
 48
50.0
100
AcDbLine
 10
6090.280003787223
 20
1438.198206007068
 30
0.0
 11
6144.492489661855
 21
1492.410691881692
 31
0.0
  0
LINE
  5
25061
330
747D
100
AcDbEntity
  8
細線
 48
50.0
100
AcDbLine
 10
6090.280003787223
 20
1465.138974370278
 30
0.0
 11
6117.551721298644
 21
1492.410691881692
 31
0.0
  0
LINE
  5
25062
330
747D
100
AcDbEntity
  8
部品1
 48
50.0
100
AcDbLine
 10
6306.280003787231
 20
1838.537906578815
 30
0.0
 11
6290.280003787231
 21
1838.537906578818
 31
0.0
  0
LINE
  5
25063
330
747D
100
AcDbEntity
  8
細線
 48
50.0
100
AcDbLine
 10
6218.280003787231
 20
1754.783584549523
 30
0.0
 11
6302.034325816524
 21
1838.537906578815
 31
0.0
  0
LINE
  5
25064
330
747D
100
AcDbEntity
  8
細線
 48
50.0
100
AcDbLine
 10
6218.280003787231
 20
1781.72435291273
 30
0.0
 11
6290.280003787231
 21
1853.72435291273
 31
0.0
  0
LINE
  5
25065
330
747D
100
AcDbEntity
  8
部品1
 48
50.0
100
AcDbLine
 10
6290.280003787231
 20
1838.537906578818
 30
0.0
 11
6290.280003787231
 21
1896.665121275938
 31
0.0
  0
LINE
  5
25066
330
747D
100
AcDbEntity
  8
細線
 48
50.0
100
AcDbLine
 10
6218.280003787231
 20
1808.665121275938
 30
0.0
 11
6290.280003787231
 21
1880.665121275938
 31
0.0
  0
LINE
  5
25067
330
747D
100
AcDbEntity
  8
部品1
 48
50.0
100
AcDbLine
 10
6306.280003787231
 20
1838.537906578815
 30
0.0
 11
6306.280003787231
 21
1896.665121275938
 31
0.0
  0
LINE
  5
25068
330
747D
100
AcDbEntity
  8
細線
 48
50.0
100
AcDbLine
 10
6338.280003787236
 20
1659.257437643863
 30
0.0
 11
6410.280003787223
 21
1731.257437643863
 31
0.0
  0
LINE
  5
25069
330
747D
100
AcDbEntity
  8
部品1
 48
50.0
100
AcDbLine
 10
6410.28000378723
 20
1492.410691881692
 30
0.0
 11
6538.28000378723
 21
1492.410691881692
 31
0.0
  0
LINE
  5
2506A
330
747D
100
AcDbEntity
  8
細線
 48
50.0
100
AcDbLine
 10
6338.280003787236
 20
1470.672059101413
 30
0.0
 11
6410.280003787223
 21
1542.672059101408
 31
0.0
  0
LINE
  5
2506B
330
747D
100
AcDbEntity
  8
細線
 48
50.0
100
AcDbLine
 10
6338.280003787236
 20
1497.612827464621
 30
0.0
 11
6410.280003787223
 21
1569.612827464618
 31
0.0
  0
LINE
  5
2506C
330
747D
100
AcDbEntity
  8
細線
 48
50.0
100
AcDbLine
 10
6338.280003787236
 20
1443.731290738204
 30
0.0
 11
6410.280003787223
 21
1515.731290738204
 31
0.0
  0
LINE
  5
2506D
330
747D
100
AcDbEntity
  8
細線
 48
50.0
100
AcDbLine
 10
6338.280003787231
 20
1713.138974370278
 30
0.0
 11
6410.28000378723
 21
1785.138974370278
 31
0.0
  0
LINE
  5
2506E
330
747D
100
AcDbEntity
  8
細線
 48
50.0
100
AcDbLine
 10
6338.280003787236
 20
1686.198206007073
 30
0.0
 11
6410.280003787223
 21
1758.198206007068
 31
0.0
  0
MTEXT
  5
2506F
102
{ACAD_REACTORS
330
2501A
102
}
330
747D
100
AcDbEntity
  8
寸法
 62
     7
 48
50.0
100
AcDbMText
 10
6652.018459648481
 20
1075.061606149539
 30
0.0
 40
80.0
 41
0.8
 71
     4
 72
     1
  1
\A1;D10@300
  7
STYLE2
 73
     1
 44
1.0
1001
ACAD
1000
MTEXTBEGIN
1070
    73
1070
     1
1070
    44
1040
1.0
1070
    74
1070
     0
1000
MTEXTEND
  0
DIMENSION
  5
25070
330
747D
100
AcDbEntity
  8
寸法
 48
50.0
100
AcDbDimension
  2
*D44
 10
6218.28000378723
 20
2456.078499798073
 30
0.0
 11
6314.28000378723
 21
2456.078499798073
 31
0.0
 70
   160
  1
120\P200\P280
 71
     5
 42
192.0
  3
INABA_S40G
100
AcDbAlignedDimension
 13
6410.28000378723
 23
2036.410691881693
 33
0.0
 14
6218.28000378723
 24
2036.410691881693
 34
0.0
100
AcDbRotatedDimension
1001
ACAD
1000
DSTYLE
1002
{
1070
   341
1005
0
1002
}
  0
LINE
  5
25071
330
747D
100
AcDbEntity
  8
部品1
 48
50.0
100
AcDbLine
 10
6218.280003787231
 20
2036.410691881693
 30
0.0
 11
6410.28000378723
 21
2036.410691881693
 31
0.0
  0
LINE
  5
25072
330
747D
100
AcDbEntity
  8
細線
 48
50.0
100
AcDbLine
 10
6218.280003787231
 20
1997.25049981839
 30
0.0
 11
6257.440195850534
 21
2036.410691881693
 31
0.0
  0
LINE
  5
25073
330
747D
100
AcDbEntity
  8
細線
 48
50.0
100
AcDbLine
 10
6218.280003787231
 20
1970.309731455182
 30
0.0
 11
6284.380964213739
 21
2036.410691881693
 31
0.0
  0
LINE
  5
25074
330
747D
100
AcDbEntity
  8
細線
 48
50.0
100
AcDbLine
 10
6218.280003787231
 20
2024.191268181597
 30
0.0
 11
6230.499427487325
 21
2036.410691881693
 31
0.0
  0
LINE
  5
25075
330
747D
100
AcDbEntity
  8
細線
 48
50.0
100
AcDbLine
 10
6337.832711053216
 20
1901.277060178714
 30
0.0
 11
6410.28000378723
 21
1973.72435291273
 31
0.0
  0
LINE
  5
25076
330
747D
100
AcDbEntity
  8
細線
 48
50.0
100
AcDbLine
 10
6326.7724262897
 20
1917.157543778408
 30
0.0
 11
6410.28000378723
 21
2000.665121275938
 31
0.0
  0
LINE
  5
25077
330
747D
100
AcDbEntity
  8
細線
 48
50.0
100
AcDbLine
 10
8202.719316964424
 20
1877.538974370281
 30
0.0
 11
8332.319316964422
 21
2007.138974370279
 31
0.0
  0
LINE
  5
25078
330
747D
100
AcDbEntity
  8
部品1
100
AcDbLine
 10
8332.319316964422
 20
1492.410691881692
 30
0.0
 11
8332.319316964422
 21
2036.410691881693
 31
0.0
  0
LINE
  5
25079
330
747D
100
AcDbEntity
  8
部品1
 48
50.0
100
AcDbLine
 10
7918.319316964423
 20
1492.410691881692
 30
0.0
 11
7918.319316964423
 21
2036.410691881693
 31
0.0
  0
LINE
  5
2507A
330
747D
100
AcDbEntity
  8
細線
 48
50.0
100
AcDbLine
 10
7918.319316964423
 20
1808.665121275938
 30
0.0
 11
8076.719316964423
 21
1967.065121275935
 31
0.0
  0
LINE
  5
2507B
330
747D
100
AcDbEntity
  8
細線
 48
50.0
100
AcDbLine
 10
7918.319316964423
 20
1781.72435291273
 30
0.0
 11
8076.719316964423
 21
1940.124352912728
 31
0.0
  0
LINE
  5
2507C
330
747D
100
AcDbEntity
  8
細線
 48
50.0
100
AcDbLine
 10
7918.319316964423
 20
1754.783584549523
 30
0.0
 11
8076.719316964419
 21
1913.183584549515
 31
0.0
  0
TEXT
  5
2507D
330
747D
100
AcDbEntity
  8
部品1
 48
50.0
100
AcDbText
 10
7504.179415131467
 20
1807.649684164948
 30
0.0
 40
80.0
  1
▽G.L
  7
STYLE2
100
AcDbText
  0
LINE
  5
2507E
330
747D
100
AcDbEntity
  8
部品1
100
AcDbLine
 10
8148.719316964422
 20
1811.410691881692
 30
0.0
 11
8148.71931696442
 21
2085.570691881693
 31
0.0
  0
LINE
  5
2507F
330
747D
100
AcDbEntity
  8
部品1
100
AcDbLine
 10
8130.719316964423
 20
1811.410691881692
 30
0.0
 11
8130.71931696442
 21
2085.570691881693
 31
0.0
  0
LINE
  5
25080
330
747D
100
AcDbEntity
  8
細線
 48
50.0
100
AcDbLine
 10
8202.719316964424
 20
1823.657437643851
 30
0.0
 11
8332.319316964422
 21
1953.257437643842
 31
0.0
  0
LINE
  5
25081
330
747D
100
AcDbEntity
  8
細線
 48
50.0
100
AcDbLine
 10
8202.719316964424
 20
1850.598206007063
 30
0.0
 11
8332.319316964422
 21
1980.19820600706
 31
0.0
  0
LINE
  5
25082
330
747D
100
AcDbEntity
  8
部品1
100
AcDbLine
 10
8202.719316964424
 20
1712.410691881692
 30
0.0
 11
8202.719316964424
 21
2036.410691881693
 31
0.0
  0
LINE
  5
25083
330
747D
100
AcDbEntity
  8
部品1
100
AcDbLine
 10
8076.719316964416
 20
1712.410691881692
 30
0.0
 11
8076.719316964423
 21
2036.410691881693
 31
0.0
  0
LINE
  5
25084
330
747D
100
AcDbEntity
  8
細線
 48
50.0
100
AcDbLine
 10
7918.319316964423
 20
1566.19820600707
 30
0.0
 11
8076.719316964416
 21
1724.598206007059
 31
0.0
  0
LINE
  5
25085
330
747D
100
AcDbEntity
  8
細線
 48
50.0
100
AcDbLine
 10
7918.319316964423
 20
1539.257437643863
 30
0.0
 11
8091.472571202258
 21
1712.41069188169
 31
0.0
  0
LINE
  5
25086
330
747D
100
AcDbEntity
  8
細線
 48
50.0
100
AcDbLine
 10
7918.319316964423
 20
1593.138974370278
 30
0.0
 11
8076.719316964416
 21
1751.538974370274
 31
0.0
  0
LINE
  5
25087
330
747D
100
AcDbEntity
  8
細線
 48
50.0
100
AcDbLine
 10
7846.998718107913
 20
1252.410691881692
 30
0.0
 11
8332.319316964422
 21
1737.7312907382
 31
0.0
  0
LINE
  5
25088
330
747D
100
AcDbEntity
  8
細線
 48
50.0
100
AcDbLine
 10
7820.057949744708
 20
1252.410691881692
 30
0.0
 11
8332.319316964426
 21
1764.672059101406
 31
0.0
  0
LINE
  5
25089
330
747D
100
AcDbEntity
  8
細線
 48
50.0
100
AcDbLine
 10
7793.1171813815
 20
1252.410691881692
 30
0.0
 11
8332.319316964422
 21
1791.612827464618
 31
0.0
  0
LINE
  5
2508A
330
747D
100
AcDbEntity
  8
部品1
 48
50.0
100
AcDbLine
 10
8540.319316964426
 20
1252.410691881692
 30
0.0
 11
7710.319316964427
 21
1252.410691881692
 31
0.0
  0
LINE
  5
2508B
330
747D
100
AcDbEntity
  8
部品1
 48
50.0
100
AcDbLine
 10
8540.319316964426
 20
1124.410691881692
 30
0.0
 11
7710.319316964427
 21
1124.410691881692
 31
0.0
  0
LINE
  5
2508C
330
747D
100
AcDbEntity
  8
細線
 48
50.0
100
AcDbLine
 10
7790.31931696442
 20
1411.257437643863
 30
0.0
 11
7871.472571202253
 21
1492.410691881692
 31
0.0
  0
LINE
  5
2508D
330
747D
100
AcDbEntity
  8
部品1
 48
50.0
100
AcDbLine
 10
7790.319316964422
 20
1252.410691881692
 30
0.0
 11
7790.319316964422
 21
1492.410691881692
 31
0.0
  0
LINE
  5
2508E
330
747D
100
AcDbEntity
  8
細線
 48
50.0
100
AcDbLine
 10
7837.726066565941
 20
1124.410691881692
 30
0.0
 11
7872.023563197124
 21
1252.410691881692
 31
0.0
  0
LINE
  5
2508F
330
747D
100
AcDbEntity
  8
部品1
 48
50.0
100
AcDbLine
 10
7710.319316964427
 20
1124.410691881692
 30
0.0
 11
7710.319316964427
 21
1252.410691881692
 31
0.0
  0
LINE
  5
25090
330
747D
100
AcDbEntity
  8
細線
 48
50.0
100
AcDbLine
 10
7758.838021618682
 20
1124.41069188169
 30
0.0
 11
7793.135518249866
 21
1252.410691881691
 31
0.0
  0
LINE
  5
25091
330
747D
100
AcDbEntity
  8
細線
 48
50.0
100
AcDbLine
 10
7916.614111513188
 20
1124.41069188169
 30
0.0
 11
7950.91160814437
 21
1252.410691881691
 31
0.0
  0
LINE
  5
25092
330
747D
100
AcDbEntity
  8
細線
 48
50.0
100
AcDbLine
 10
7765.268802237035
 20
1148.410691881692
 30
0.0
 11
7771.699582855382
 21
1124.410691881692
 31
0.0
  0
LINE
  5
25093
330
747D
100
AcDbEntity
  8
細線
 48
50.0
100
AcDbLine
 10
7923.04489213154
 20
1148.410691881692
 30
0.0
 11
7929.475672749887
 21
1124.410691881692
 31
0.0
  0
LINE
  5
25094
330
747D
100
AcDbEntity
  8
細線
 48
50.0
100
AcDbLine
 10
7844.156847184288
 20
1148.410691881692
 30
0.0
 11
7850.587627802635
 21
1124.410691881692
 31
0.0
  0
LINE
  5
25095
330
747D
100
AcDbEntity
  8
細線
 48
50.0
100
AcDbLine
 10
7710.319316964422
 20
1237.750612847472
 30
0.0
 11
7714.247473302619
 21
1252.410691881692
 31
0.0
  0
LINE
  5
25096
330
747D
100
AcDbEntity
  8
細線
 48
50.0
100
AcDbLine
 10
7786.704737631525
 20
1228.410691881692
 30
0.0
 11
7780.273957013179
 21
1252.410691881692
 31
0.0
  0
LINE
  5
25097
330
747D
100
AcDbEntity
  8
細線
 48
50.0
100
AcDbLine
 10
7944.480827526028
 20
1228.410691881692
 30
0.0
 11
7938.05004690768
 21
1252.410691881692
 31
0.0
  0
LINE
  5
25098
330
747D
100
AcDbEntity
  8
細線
 48
50.0
100
AcDbLine
 10
7865.592782578777
 20
1228.410691881692
 30
0.0
 11
7859.162001960429
 21
1252.410691881692
 31
0.0
  0
LWPOLYLINE
  5
25099
330
747D
100
AcDbEntity
  8
部品1
 48
50.0
100
AcDbPolyline
 90
        2
 70
     0
 43
8.0
 10
7504.179415131467
 20
1796.410691881693
 10
7918.319316964423
 20
1796.410691881693
  0
LINE
  5
2509A
330
747D
100
AcDbEntity
  8
細線
 48
50.0
100
AcDbLine
 10
7790.31931696442
 20
1438.198206007068
 30
0.0
 11
7844.531802839047
 21
1492.410691881692
 31
0.0
  0
LINE
  5
2509B
330
747D
100
AcDbEntity
  8
部品1
 48
50.0
100
AcDbLine
 10
7790.319316964422
 20
1492.410691881692
 30
0.0
 11
7918.319316964423
 21
1492.410691881692
 31
0.0
  0
LINE
  5
2509C
330
747D
100
AcDbEntity
  8
細線
 48
50.0
100
AcDbLine
 10
7790.31931696442
 20
1465.138974370278
 30
0.0
 11
7817.591034475839
 21
1492.410691881692
 31
0.0
  0
LINE
  5
2509D
330
747D
100
AcDbEntity
  8
細線
 48
50.0
100
AcDbLine
 10
8035.584096650369
 20
1252.410691881692
 30
0.0
 11
8332.319316964422
 21
1549.145912195745
 31
0.0
  0
LINE
  5
2509E
330
747D
100
AcDbEntity
  8
細線
 48
50.0
100
AcDbLine
 10
8062.524865013573
 20
1252.410691881692
 30
0.0
 11
8332.319316964422
 21
1522.20514383255
 31
0.0
  0
LINE
  5
2509F
330
747D
100
AcDbEntity
  8
細線
 48
50.0
100
AcDbLine
 10
8008.643328287158
 20
1252.410691881692
 30
0.0
 11
8332.319316964422
 21
1576.086680558958
 31
0.0
  0
LINE
  5
250A0
330
747D
100
AcDbEntity
  8
細線
 48
50.0
100
AcDbLine
 10
8224.169475192814
 20
1252.410691881692
 30
0.0
 11
8460.319316964421
 21
1488.5605336533
 31
0.0
  0
LINE
  5
250A1
330
747D
100
AcDbEntity
  8
細線
 48
50.0
100
AcDbLine
 10
8251.110243556027
 20
1252.410691881692
 30
0.0
 11
8460.319316964421
 21
1461.619765290085
 31
0.0
  0
LINE
  5
250A2
330
747D
100
AcDbEntity
  8
部品1
 48
50.0
100
AcDbLine
 10
8460.319316964421
 20
1492.410691881692
 30
0.0
 11
8460.319316964421
 21
1252.410691881692
 31
0.0
  0
LINE
  5
250A3
330
747D
100
AcDbEntity
  8
細線
 48
50.0
100
AcDbLine
 10
8278.051011919233
 20
1252.410691881692
 30
0.0
 11
8460.319316964421
 21
1434.678996926888
 31
0.0
  0
LINE
  5
250A4
330
747D
100
AcDbEntity
  8
細線
 48
50.0
100
AcDbLine
 10
8153.278246354934
 20
1124.41069188169
 30
0.0
 11
8187.575742986116
 21
1252.410691881691
 31
0.0
  0
LINE
  5
250A5
330
747D
100
AcDbEntity
  8
細線
 48
50.0
100
AcDbLine
 10
7995.502156460439
 20
1124.410691881692
 30
0.0
 11
8029.799653091622
 21
1252.410691881692
 31
0.0
  0
LINE
  5
250A6
330
747D
100
AcDbEntity
  8
細線
 48
50.0
100
AcDbLine
 10
8074.390201407686
 20
1124.410691881692
 30
0.0
 11
8108.687698038869
 21
1252.410691881691
 31
0.0
  0
LINE
  5
250A7
330
747D
100
AcDbEntity
  8
細線
 48
50.0
100
AcDbLine
 10
8232.166291302176
 20
1124.410691881692
 30
0.0
 11
8266.463787933361
 21
1252.410691881691
 31
0.0
  0
LINE
  5
250A8
330
747D
100
AcDbEntity
  8
細線
 48
50.0
100
AcDbLine
 10
8080.820982026038
 20
1148.410691881692
 30
0.0
 11
8087.251762644383
 21
1124.410691881692
 31
0.0
  0
LINE
  5
250A9
330
747D
100
AcDbEntity
  8
細線
 48
50.0
100
AcDbLine
 10
8001.932937078789
 20
1148.410691881692
 30
0.0
 11
8008.363717697138
 21
1124.410691881692
 31
0.0
  0
LINE
  5
250AA
330
747D
100
AcDbEntity
  8
細線
 48
50.0
100
AcDbLine
 10
8238.597071920528
 20
1148.410691881692
 30
0.0
 11
8245.027852538875
 21
1124.410691881692
 31
0.0
  0
LINE
  5
250AB
330
747D
100
AcDbEntity
  8
細線
 48
50.0
100
AcDbLine
 10
8159.709026973283
 20
1148.410691881692
 30
0.0
 11
8166.13980759163
 21
1124.410691881692
 31
0.0
  0
LINE
  5
250AC
330
747D
100
AcDbEntity
  8
細線
 48
50.0
100
AcDbLine
 10
8102.256917420527
 20
1228.410691881692
 30
0.0
 11
8095.826136802179
 21
1252.410691881692
 31
0.0
  0
LINE
  5
250AD
330
747D
100
AcDbEntity
  8
細線
 48
50.0
100
AcDbLine
 10
8023.36887247328
 20
1228.410691881692
 30
0.0
 11
8016.938091854934
 21
1252.410691881692
 31
0.0
  0
LINE
  5
250AE
330
747D
100
AcDbEntity
  8
細線
 48
50.0
100
AcDbLine
 10
8181.144962367772
 20
1228.410691881692
 30
0.0
 11
8174.714181749427
 21
1252.410691881692
 31
0.0
  0
LINE
  5
250AF
330
747D
100
AcDbEntity
  8
細線
 48
50.0
100
AcDbLine
 10
8260.033007315017
 20
1228.410691881692
 30
0.0
 11
8253.602226696672
 21
1252.410691881692
 31
0.0
  0
LINE
  5
250B0
330
747D
100
AcDbEntity
  8
部品1
 48
50.0
100
AcDbLine
 10
8540.319316964426
 20
1252.410691881692
 30
0.0
 11
8540.319316964426
 21
1124.410691881692
 31
0.0
  0
LINE
  5
250B1
330
747D
100
AcDbEntity
  8
細線
 48
50.0
100
AcDbLine
 10
8468.830426143918
 20
1124.41069188169
 30
0.0
 11
8503.127922775105
 21
1252.41069188169
 31
0.0
  0
LINE
  5
250B2
330
747D
100
AcDbEntity
  8
細線
 48
50.0
100
AcDbLine
 10
8311.054336249425
 20
1124.41069188169
 30
0.0
 11
8345.351832880599
 21
1252.410691881692
 31
0.0
  0
LINE
  5
250B3
330
747D
100
AcDbEntity
  8
細線
 48
50.0
100
AcDbLine
 10
8389.942381196673
 20
1124.410691881689
 30
0.0
 11
8424.239877827858
 21
1252.41069188169
 31
0.0
  0
LINE
  5
250B4
330
747D
100
AcDbEntity
  8
細線
 48
50.0
100
AcDbLine
 10
8317.485116867775
 20
1148.410691881692
 30
0.0
 11
8323.915897486131
 21
1124.410691881692
 31
0.0
  0
LINE
  5
250B5
330
747D
100
AcDbEntity
  8
細線
 48
50.0
100
AcDbLine
 10
8396.373161815024
 20
1148.41069188169
 30
0.0
 11
8402.80394243337
 21
1124.41069188169
 31
0.0
  0
LINE
  5
250B6
330
747D
100
AcDbEntity
  8
細線
 48
50.0
100
AcDbLine
 10
8475.261206762269
 20
1148.41069188169
 30
0.0
 11
8481.691987380619
 21
1124.41069188169
 31
0.0
  0
LINE
  5
250B7
330
747D
100
AcDbEntity
  8
細線
 48
50.0
100
AcDbLine
 10
8338.921052262255
 20
1228.410691881692
 30
0.0
 11
8332.49027164391
 21
1252.410691881692
 31
0.0
  0
LINE
  5
250B8
330
747D
100
AcDbEntity
  8
細線
 48
50.0
100
AcDbLine
 10
8417.809097209511
 20
1228.410691881691
 30
0.0
 11
8411.378316591166
 21
1252.410691881691
 31
0.0
  0
LINE
  5
250B9
330
747D
100
AcDbEntity
  8
細線
 48
50.0
100
AcDbLine
 10
8496.697142156758
 20
1228.410691881691
 30
0.0
 11
8490.266361538411
 21
1252.410691881691
 31
0.0
  0
LINE
  5
250BA
330
747D
100
AcDbEntity
  8
部品1
100
AcDbLine
 10
8202.719316964424
 20
1712.41069188169
 30
0.0
 11
8076.719316964416
 21
1712.41069188169
 31
0.0
  0
LINE
  5
250BB
330
747D
100
AcDbEntity
  8
部品1
100
AcDbLine
 10
8184.719316964423
 20
1793.410691881692
 30
0.0
 11
8184.719316964423
 21
1811.410691881692
 31
0.0
  0
ARC
  5
250BC
330
747D
100
AcDbEntity
  8
部品1
100
AcDbCircle
 10
8148.719316964422
 20
1811.410691881692
 30
0.0
 40
18.0
100
AcDbArc
 50
180.0
 51
270.0
  0
LINE
  5
250BD
330
747D
100
AcDbEntity
  8
部品1
100
AcDbLine
 10
8148.719316964422
 20
1793.410691881692
 30
0.0
 11
8184.719316964423
 21
1793.410691881692
 31
0.0
  0
LINE
  5
250BE
330
747D
100
AcDbEntity
  8
部品1
100
AcDbLine
 10
8148.719316964422
 20
1811.410691881692
 30
0.0
 11
8184.719316964423
 21
1811.410691881692
 31
0.0
  0
LINE
  5
250BF
330
747D
100
AcDbEntity
  8
部品1
 48
50.0
100
AcDbLine
 10
8332.319316964422
 20
1492.410691881692
 30
0.0
 11
8460.319316964421
 21
1492.410691881692
 31
0.0
  0
LINE
  5
250C0
330
747D
100
AcDbEntity
  8
部品1
100
AcDbLine
 10
7938.119316964423
 20
2126.410691881693
 30
0.0
 11
7975.919316964425
 21
2126.410691881693
 31
0.0
  0
LINE
  5
250C1
330
747D
100
AcDbEntity
  8
細線
 48
50.0
100
AcDbLine
 10
7918.319316964423
 20
1997.25049981839
 30
0.0
 11
7957.479509027731
 21
2036.410691881693
 31
0.0
  0
LINE
  5
250C2
330
747D
100
AcDbEntity
  8
細線
 48
50.0
100
AcDbLine
 10
7918.319316964423
 20
1970.309731455182
 30
0.0
 11
7984.420277390935
 21
2036.410691881693
 31
0.0
  0
LINE
  5
250C3
330
747D
100
AcDbEntity
  8
部品1
 48
50.0
100
AcDbLine
 10
7918.319316964423
 20
2036.410691881693
 30
0.0
 11
8332.319316964426
 21
2036.410691881693
 31
0.0
  0
LINE
  5
250C4
330
747D
100
AcDbEntity
  8
部品1
100
AcDbLine
 10
7935.419316964424
 20
2115.610691881693
 30
0.0
 11
7935.419316964424
 21
2123.710691881693
 31
0.0
  0
ARC
  5
250C5
330
747D
100
AcDbEntity
  8
部品1
100
AcDbCircle
 10
7938.119316964423
 20
2123.710691881693
 30
0.0
 40
2.7
100
AcDbArc
 50
90.0
 51
180.0
  0
ARC
  5
250C6
330
747D
100
AcDbEntity
  8
部品1
100
AcDbCircle
 10
7927.319316964423
 20
2110.8025955844
 30
0.0
 40
2.7
100
AcDbArc
 50
104.0362434679067
 51
180.0
  0
LINE
  5
250C7
330
747D
100
AcDbEntity
  8
部品1
100
AcDbLine
 10
7926.664470776825
 20
2113.421980334793
 30
0.0
 11
7935.419316964424
 21
2115.610691881693
 31
0.0
  0
ARC
  5
250C8
330
747D
100
AcDbEntity
  8
部品1
100
AcDbCircle
 10
7927.319316964423
 20
2048.670691881693
 30
0.0
 40
2.7
100
AcDbArc
 50
180.0
 51
270.0
  0
LINE
  5
250C9
330
747D
100
AcDbEntity
  8
細線
 48
50.0
100
AcDbLine
 10
7918.319316964423
 20
2024.191268181597
 30
0.0
 11
7930.538740664518
 21
2036.410691881693
 31
0.0
  0
LINE
  5
250CA
330
747D
100
AcDbEntity
  8
部品1
100
AcDbLine
 10
7927.319316964423
 20
2045.970691881693
 30
0.0
 11
7939.019316964418
 21
2045.970691881693
 31
0.0
  0
LINE
  5
250CB
330
747D
100
AcDbEntity
  8
部品1
100
AcDbLine
 10
7924.619316964424
 20
2048.670691881693
 30
0.0
 11
7924.619316964424
 21
2110.8025955844
 31
0.0
  0
LINE
  5
250CC
330
747D
100
AcDbEntity
  8
部品1
100
AcDbLine
 10
8083.279316964418
 20
2045.970691881693
 30
0.0
 11
8284.619316964418
 21
2045.970691881693
 31
0.0
  0
LINE
  5
250CD
330
747D
100
AcDbEntity
  8
部品1
100
AcDbLine
 10
7975.919316964425
 20
2126.410691881693
 30
0.0
 11
7975.919316964425
 21
2134.510691881693
 31
0.0
  0
LINE
  5
250CE
330
747D
100
AcDbEntity
  8
部品1
100
AcDbLine
 10
8026.319316964423
 20
2145.310691881689
 30
0.0
 11
8026.319316964423
 21
2094.010691881693
 31
0.0
  0
LINE
  5
250CF
330
747D
100
AcDbEntity
  8
部品1
100
AcDbLine
 10
8049.719316964424
 20
2105.970691881693
 30
0.0
 11
8077.879316964423
 21
2105.970691881693
 31
0.0
  0
ARC
  5
250D0
330
747D
100
AcDbEntity
  8
部品1
100
AcDbCircle
 10
8049.719316964424
 20
2103.270691881693
 30
0.0
 40
2.7
100
AcDbArc
 50
90.0
 51
180.0
  0
ARC
  5
250D1
330
747D
100
AcDbEntity
  8
部品1
100
AcDbCircle
 10
8077.879316964423
 20
2103.270691881693
 30
0.0
 40
2.7
100
AcDbArc
 50
0.0
 51
90.0
  0
LINE
  5
250D2
330
747D
100
AcDbEntity
  8
部品1
100
AcDbLine
 10
8068.619316964426
 20
2091.310691881692
 30
0.0
 11
8068.619316964426
 21
2048.670691881693
 31
0.0
  0
LINE
  5
250D3
330
747D
100
AcDbEntity
  8
部品1
100
AcDbLine
 10
8054.219316964424
 20
2045.970691881693
 30
0.0
 11
8065.919316964423
 21
2045.970691881693
 31
0.0
  0
ARC
  5
250D4
330
747D
100
AcDbEntity
  8
部品1
100
AcDbCircle
 10
8083.279316964418
 20
2048.670691881693
 30
0.0
 40
2.7
100
AcDbArc
 50
180.0
 51
270.0
  0
ARC
  5
250D5
330
747D
100
AcDbEntity
  8
部品1
100
AcDbCircle
 10
8065.919316964423
 20
2048.670691881693
 30
0.0
 40
2.7
100
AcDbArc
 50
270.0
 51
0.0
  0
LINE
  5
250D6
330
747D
100
AcDbEntity
  8
部品1
100
AcDbLine
 10
8026.319316964423
 20
2094.010691881693
 30
0.0
 11
8065.919316964423
 21
2094.010691881693
 31
0.0
  0
ARC
  5
250D7
330
747D
100
AcDbEntity
  8
部品1
100
AcDbCircle
 10
8065.919316964423
 20
2091.310691881692
 30
0.0
 40
2.7
100
AcDbArc
 50
0.0
 51
90.0
  0
LINE
  5
250D8
330
747D
100
AcDbEntity
  8
部品1
100
AcDbLine
 10
8080.579316964424
 20
2103.270691881693
 30
0.0
 11
8080.579316964421
 21
2048.670691881693
 31
0.0
  0
LINE
  5
250D9
330
747D
100
AcDbEntity
  8
部品1
100
AcDbLine
 10
8047.019316964423
 20
2103.270691881693
 30
0.0
 11
8047.019316964423
 21
2086.170691881693
 31
0.0
  0
LINE
  5
250DA
330
747D
100
AcDbEntity
  8
細線
100
AcDbLine
 10
8145.119316964425
 20
2045.970691881693
 30
0.0
 11
8145.119316964425
 21
2089.170691881693
 31
0.0
  0
LINE
  5
250DB
330
747D
100
AcDbEntity
  8
細線
100
AcDbLine
 10
8134.319316964425
 20
2045.970691881693
 30
0.0
 11
8134.319316964422
 21
2089.170691881693
 31
0.0
  0
LINE
  5
250DC
330
747D
100
AcDbEntity
  8
部品1
100
AcDbLine
 10
8130.719316964423
 20
2085.570691881693
 30
0.0
 11
8148.719316964422
 21
2085.570691881693
 31
0.0
  0
LINE
  5
250DD
330
747D
100
AcDbEntity
  8
部品1
100
AcDbLine
 10
8134.319316964422
 20
2089.170691881693
 30
0.0
 11
8145.119316964425
 21
2089.170691881693
 31
0.0
  0
ELLIPSE
  5
250DE
330
747D
100
AcDbEntity
  8
部品1
 48
50.0
100
AcDbEllipse
 10
8139.719316964423
 20
2305.533980325965
 30
0.0
 11
40.0
 21
0.0
 31
0.0
210
0.0
220
0.0
230
1.0
 40
0.4
 41
0.0
 42
6.283185307179586
  0
ELLIPSE
  5
250DF
330
747D
100
AcDbEntity
  8
部品1
 48
50.0
100
AcDbEllipse
 10
8139.719316964423
 20
2295.933980325965
 30
0.0
 11
40.0
 21
0.0
 31
0.0
210
0.0
220
0.0
230
1.0
 40
0.4
 41
3.141592653589793
 42
6.283185307179586
  0
LINE
  5
250E0
330
747D
100
AcDbEntity
  8
部品1
 48
50.0
100
AcDbLine
 10
8099.719316964423
 20
2305.533980325965
 30
0.0
 11
8099.719316964423
 21
2295.933980325965
 31
0.0
  0
ARC
  5
250E1
330
747D
100
AcDbEntity
  8
部品1
100
AcDbCircle
 10
8023.619316964424
 20
2145.310691881689
 30
0.0
 40
2.7
100
AcDbArc
 50
0.0
 51
90.0
  0
ARC
  5
250E2
330
747D
100
AcDbEntity
  8
部品1
100
AcDbCircle
 10
7981.319316964423
 20
2145.310691881692
 30
0.0
 40
2.7
100
AcDbArc
 50
90.0
 51
180.0
  0
LINE
  5
250E3
330
747D
100
AcDbEntity
  8
部品1
100
AcDbLine
 10
7978.619316964423
 20
2137.210691881692
 30
0.0
 11
7978.619316964423
 21
2137.210691881692
 31
0.0
  0
LINE
  5
250E4
330
747D
100
AcDbEntity
  8
部品1
100
AcDbLine
 10
7978.619316964423
 20
2137.210691881692
 30
0.0
 11
7978.619316964423
 21
2145.310691881692
 31
0.0
  0
LINE
  5
250E5
330
747D
100
AcDbEntity
  8
部品1
100
AcDbLine
 10
7981.319316964423
 20
2148.010691881693
 30
0.0
 11
8023.619316964424
 21
2148.010691881689
 31
0.0
  0
ARC
  5
250E6
330
747D
100
AcDbEntity
  8
部品1
100
AcDbCircle
 10
7978.619316964423
 20
2134.510691881693
 30
0.0
 40
2.7
100
AcDbArc
 50
90.0
 51
180.0
  0
ELLIPSE
  5
250E7
330
747D
100
AcDbEntity
  8
部品1
 48
50.0
100
AcDbEllipse
 10
8139.719316964423
 20
2305.533980325965
 30
0.0
 11
18.4
 21
0.0
 31
0.0
210
0.0
220
0.0
230
1.0
 40
0.3478260869565217
 41
0.0
 42
6.283185307179586
  0
LINE
  5
250E8
330
747D
100
AcDbEntity
  8
部品1
 48
50.0
100
AcDbLine
 10
8179.719316964423
 20
2295.933980325965
 30
0.0
 11
8179.719316964423
 21
2305.533980325965
 31
0.0
  0
LINE
  5
250E9
330
747D
100
AcDbEntity
  8
部品1
 48
50.0
100
AcDbLine
 10
8107.719316964423
 20
2427.285972990835
 30
0.0
 11
8123.719316964423
 21
2419.285972990835
 31
0.0
  0
LINE
  5
250EA
330
747D
100
AcDbEntity
  8
部品1
 48
50.0
100
AcDbLine
 10
8107.719316964423
 20
2395.285972990835
 30
0.0
 11
8123.719316964423
 21
2387.285972990835
 31
0.0
  0
LINE
  5
250EB
330
747D
100
AcDbEntity
  8
部品1
 48
50.0
100
AcDbLine
 10
8107.719316964423
 20
2427.285972990835
 30
0.0
 11
8123.719316964423
 21
2435.285972990835
 31
0.0
  0
LINE
  5
250EC
330
747D
100
AcDbEntity
  8
部品1
 48
50.0
100
AcDbLine
 10
8107.719316964423
 20
2395.285972990835
 30
0.0
 11
8107.719316964423
 21
2427.285972990835
 31
0.0
  0
LINE
  5
250ED
330
747D
100
AcDbEntity
  8
部品1
 48
50.0
100
AcDbLine
 10
8123.719316964423
 20
2435.285972990835
 30
0.0
 11
8155.719316964423
 21
2435.285972990835
 31
0.0
  0
ELLIPSE
  5
250EE
330
747D
100
AcDbEntity
  8
細線
 48
50.0
100
AcDbEllipse
 10
8139.719316964423
 20
2427.285972990835
 30
0.0
 11
14.76670786606846
 21
0.0
 31
0.0
210
0.0
220
0.0
230
1.0
 40
0.2071254069489396
 41
0.0
 42
6.283185307179586
  0
LINE
  5
250EF
330
747D
100
AcDbEntity
  8
部品1
 48
50.0
100
AcDbLine
 10
8123.719316964423
 20
2387.285972990835
 30
0.0
 11
8155.719316964423
 21
2387.285972990835
 31
0.0
  0
LINE
  5
250F0
330
747D
100
AcDbEntity
  8
部品1
 48
50.0
100
AcDbLine
 10
8155.719316964423
 20
2387.285972990835
 30
0.0
 11
8171.719316964423
 21
2395.285972990835
 31
0.0
  0
LINE
  5
250F1
330
747D
100
AcDbEntity
  8
部品1
 48
50.0
100
AcDbLine
 10
8123.719316964423
 20
2419.285972990835
 30
0.0
 11
8155.719316964423
 21
2419.285972990835
 31
0.0
  0
LINE
  5
250F2
330
747D
100
AcDbEntity
  8
部品1
 48
50.0
100
AcDbLine
 10
8155.719316964423
 20
2419.285972990835
 30
0.0
 11
8171.719316964423
 21
2427.285972990835
 31
0.0
  0
LINE
  5
250F3
330
747D
100
AcDbEntity
  8
細線
 48
50.0
100
AcDbLine
 10
8155.719316964423
 20
2387.285972990835
 30
0.0
 11
8155.719316964423
 21
2419.285972990835
 31
0.0
  0
LINE
  5
250F4
330
747D
100
AcDbEntity
  8
部品1
 48
50.0
100
AcDbLine
 10
8171.719316964423
 20
2395.285972990835
 30
0.0
 11
8171.719316964423
 21
2427.285972990835
 31
0.0
  0
LINE
  5
250F5
330
747D
100
AcDbEntity
  8
細線
 48
50.0
100
AcDbLine
 10
8123.719316964423
 20
2387.285972990835
 30
0.0
 11
8123.719316964423
 21
2419.285972990835
 31
0.0
  0
LINE
  5
250F6
330
747D
100
AcDbEntity
  8
部品1
 48
50.0
100
AcDbLine
 10
8155.719316964423
 20
2435.285972990835
 30
0.0
 11
8171.719316964423
 21
2427.285972990835
 31
0.0
  0
TEXT
  5
250F7
330
747D
100
AcDbEntity
  8
部品1
100
AcDbText
 10
7840.491566156355
 20
3256.19742713085
 30
0.0
 40
120.0
  1
基礎詳細
  7
STYLE2
100
AcDbText
  0
LINE
  5
250F8
330
747D
100
AcDbEntity
  8
部品1
100
AcDbLine
 10
11218.59675036421
 20
471.4423894976307
 30
0.0
 11
11218.59675036422
 21
3435.749359082278
 31
0.0
  0
LINE
  5
250F9
330
747D
100
AcDbEntity
  8
細線
100
AcDbLine
 10
10226.48858294396
 20
1796.410691881692
 30
0.0
 11
10031.85524926718
 21
1991.044025558475
 31
0.0
  0
LINE
  5
250FA
330
747D
100
AcDbEntity
  8
部品1
100
AcDbLine
 10
10031.85524926718
 20
2036.410691881693
 30
0.0
 11
10511.85524926718
 21
2036.410691881693
 31
0.0
  0
LINE
  5
250FB
330
747D
100
AcDbEntity
  8
細線
 48
50.0
100
AcDbLine
 10
10165.92613371044
 20
1576.711776228342
 30
0.0
 11
10200.22363034162
 21
1704.711776228341
 31
0.0
  0
LINE
  5
250FC
330
747D
100
AcDbEntity
  8
部品1
100
AcDbLine
 10
9911.855249267182
 20
1576.711776228339
 30
0.0
 11
10631.85524926718
 21
1576.711776228342
 31
0.0
  0
LINE
  5
250FD
330
747D
100
AcDbEntity
  8
部品1
100
AcDbLine
 10
9911.855249267182
 20
1704.711776228342
 30
0.0
 11
10631.85524926718
 21
1704.711776228345
 31
0.0
  0
LINE
  5
250FE
330
747D
100
AcDbEntity
  8
細線
100
AcDbLine
 10
10092.77389476042
 20
1704.711776228342
 30
0.0
 11
10184.47281041377
 21
1796.410691881692
 31
0.0
  0
LWPOLYLINE
  5
250FF
330
747D
100
AcDbEntity
  8
部品1
 48
50.0
100
AcDbPolyline
 90
        2
 70
     0
 43
12.0
 10
9647.243987166792
 20
1796.410691881692
 10
10848.33629029842
 20
1796.410691881692
  0
LINE
  5
25100
330
747D
100
AcDbEntity
  8
細線
100
AcDbLine
 10
10175.57689469853
 20
1796.410691881692
 30
0.0
 11
10031.85524926718
 21
1940.132337313045
 31
0.0
  0
TEXT
  5
25101
330
747D
100
AcDbEntity
  8
部品1
 48
50.0
100
AcDbText
 10
9267.737162508678
 20
1529.610951244383
 30
0.0
 40
80.0
  1
ボルトの出
 50
90.0
  7
STYLE2
100
AcDbText
  0
LINE
  5
25102
330
747D
100
AcDbEntity
  8
部品1
100
AcDbLine
 10
10031.85524926718
 20
1796.410691881692
 30
0.0
 11
10031.85524926718
 21
2036.410691881693
 31
0.0
  0
LINE
  5
25103
330
747D
100
AcDbEntity
  8
細線
 48
50.0
100
AcDbLine
 10
10008.15004381594
 20
1576.711776228341
 30
0.0
 11
10042.44754044712
 21
1704.711776228341
 31
0.0
  0
LINE
  5
25104
330
747D
100
AcDbEntity
  8
細線
 48
50.0
100
AcDbLine
 10
10087.03808876319
 20
1576.711776228342
 30
0.0
 11
10121.33558539437
 21
1704.711776228342
 31
0.0
  0
LINE
  5
25105
330
747D
100
AcDbEntity
  8
細線
 48
50.0
100
AcDbLine
 10
9929.261998868694
 20
1576.711776228342
 30
0.0
 11
9963.559495499879
 21
1704.711776228342
 31
0.0
  0
LINE
  5
25106
330
747D
100
AcDbEntity
  8
部品1
100
AcDbLine
 10
9911.855249267182
 20
1576.711776228339
 30
0.0
 11
9911.855249267182
 21
1796.410691881692
 31
0.0
  0
LINE
  5
25107
330
747D
100
AcDbEntity
  8
細線
 48
50.0
100
AcDbLine
 10
10014.58082443429
 20
1600.711776228342
 30
0.0
 11
10021.01160505264
 21
1576.711776228342
 31
0.0
  0
LINE
  5
25108
330
747D
100
AcDbEntity
  8
細線
 48
50.0
100
AcDbLine
 10
9935.692779487043
 20
1600.711776228342
 30
0.0
 11
9942.12356010539
 21
1576.711776228342
 31
0.0
  0
LINE
  5
25109
330
747D
100
AcDbEntity
  8
細線
 48
50.0
100
AcDbLine
 10
10093.46886938154
 20
1600.711776228342
 30
0.0
 11
10099.89964999989
 21
1576.711776228342
 31
0.0
  0
LINE
  5
2510A
330
747D
100
AcDbEntity
  8
細線
 48
50.0
100
AcDbLine
 10
10172.35691432879
 20
1600.711776228342
 30
0.0
 11
10178.78769494714
 21
1576.711776228342
 31
0.0
  0
LINE
  5
2510B
330
747D
100
AcDbEntity
  8
細線
 48
50.0
100
AcDbLine
 10
9957.128714881532
 20
1680.711776228342
 30
0.0
 11
9950.697934263182
 21
1704.711776228342
 31
0.0
  0
LINE
  5
2510C
330
747D
100
AcDbEntity
  8
細線
 48
50.0
100
AcDbLine
 10
10114.90480477603
 20
1680.711776228342
 30
0.0
 11
10108.47402415768
 21
1704.711776228342
 31
0.0
  0
LINE
  5
2510D
330
747D
100
AcDbEntity
  8
細線
 48
50.0
100
AcDbLine
 10
10036.01675982878
 20
1680.711776228342
 30
0.0
 11
10029.58597921043
 21
1704.711776228342
 31
0.0
  0
LINE
  5
2510E
330
747D
100
AcDbEntity
  8
細線
100
AcDbLine
 10
10024.89164376651
 20
1704.711776228342
 30
0.0
 11
10116.59055941986
 21
1796.410691881692
 31
0.0
  0
LINE
  5
2510F
330
747D
100
AcDbEntity
  8
細線
100
AcDbLine
 10
10058.83276926346
 20
1704.711776228342
 30
0.0
 11
10150.53168491681
 21
1796.410691881692
 31
0.0
  0
LINE
  5
25110
330
747D
100
AcDbEntity
  8
細線
100
AcDbLine
 10
10447.10589867417
 20
1796.410691881692
 30
0.0
 11
10207.10589867417
 21
2036.410691881693
 31
0.0
  0
LINE
  5
25111
330
747D
100
AcDbEntity
  8
細線
100
AcDbLine
 10
10498.0175869196
 20
1796.410691881694
 30
0.0
 11
10258.0175869196
 21
2036.410691881693
 31
0.0
  0
LINE
  5
25112
330
747D
100
AcDbEntity
  8
部品1
100
AcDbLine
 10
10511.85524926718
 20
2036.410691881693
 30
0.0
 11
10511.85524926718
 21
1796.410691881692
 31
0.0
  0
LINE
  5
25113
330
747D
100
AcDbEntity
  8
細線
 48
50.0
100
AcDbLine
 10
10481.47831349943
 20
1576.711776228339
 30
0.0
 11
10515.77581013061
 21
1704.711776228339
 31
0.0
  0
LINE
  5
25114
330
747D
100
AcDbEntity
  8
細線
100
AcDbLine
 10
10452.77389476042
 20
1704.711776228344
 30
0.0
 11
10544.47281041377
 21
1796.410691881692
 31
0.0
  0
LINE
  5
25115
330
747D
100
AcDbEntity
  8
細線
 48
50.0
100
AcDbLine
 10
10402.59026855218
 20
1576.711776228341
 30
0.0
 11
10436.88776518335
 21
1704.711776228342
 31
0.0
  0
LINE
  5
25116
330
747D
100
AcDbEntity
  8
細線
 48
50.0
100
AcDbLine
 10
10244.81417865769
 20
1576.711776228341
 30
0.0
 11
10279.11167528887
 21
1704.711776228341
 31
0.0
  0
LINE
  5
25117
330
747D
100
AcDbEntity
  8
細線
 48
50.0
100
AcDbLine
 10
10323.70222360493
 20
1576.711776228342
 30
0.0
 11
10357.99972023611
 21
1704.711776228341
 31
0.0
  0
LINE
  5
25118
330
747D
100
AcDbEntity
  8
細線
 48
50.0
100
AcDbLine
 10
10330.13300422328
 20
1600.711776228342
 30
0.0
 11
10336.56378484163
 21
1576.711776228342
 31
0.0
  0
LINE
  5
25119
330
747D
100
AcDbEntity
  8
細線
 48
50.0
100
AcDbLine
 10
10251.24495927604
 20
1600.711776228342
 30
0.0
 11
10257.67573989438
 21
1576.711776228342
 31
0.0
  0
LINE
  5
2511A
330
747D
100
AcDbEntity
  8
細線
 48
50.0
100
AcDbLine
 10
10409.02104917053
 20
1600.711776228342
 30
0.0
 11
10415.45182978888
 21
1576.711776228342
 31
0.0
  0
LINE
  5
2511B
330
747D
100
AcDbEntity
  8
細線
 48
50.0
100
AcDbLine
 10
10487.90909411777
 20
1600.711776228341
 30
0.0
 11
10494.33987473612
 21
1576.711776228341
 31
0.0
  0
LINE
  5
2511C
330
747D
100
AcDbEntity
  8
細線
 48
50.0
100
AcDbLine
 10
10351.56893961777
 20
1680.711776228342
 30
0.0
 11
10345.13815899942
 21
1704.711776228342
 31
0.0
  0
LINE
  5
2511D
330
747D
100
AcDbEntity
  8
細線
 48
50.0
100
AcDbLine
 10
10272.68089467052
 20
1680.711776228342
 30
0.0
 11
10266.25011405218
 21
1704.711776228342
 31
0.0
  0
LINE
  5
2511E
330
747D
100
AcDbEntity
  8
細線
 48
50.0
100
AcDbLine
 10
10193.79284972328
 20
1680.711776228342
 30
0.0
 11
10187.36206910493
 21
1704.711776228342
 31
0.0
  0
LINE
  5
2511F
330
747D
100
AcDbEntity
  8
細線
100
AcDbLine
 10
10418.83276926347
 20
1704.711776228344
 30
0.0
 11
10510.53168491681
 21
1796.410691881692
 31
0.0
  0
LINE
  5
25120
330
747D
100
AcDbEntity
  8
細線
 48
50.0
100
AcDbLine
 10
10430.45698456501
 20
1680.711776228342
 30
0.0
 11
10424.02620394666
 21
1704.711776228342
 31
0.0
  0
LINE
  5
25121
330
747D
100
AcDbEntity
  8
細線
100
AcDbLine
 10
10384.89164376651
 20
1704.711776228344
 30
0.0
 11
10476.59055941986
 21
1796.410691881692
 31
0.0
  0
LINE
  5
25122
330
747D
100
AcDbEntity
  8
細線
 48
50.0
100
AcDbLine
 10
10509.34502951226
 20
1680.711776228341
 30
0.0
 11
10502.91424889392
 21
1704.711776228341
 31
0.0
  0
LINE
  5
25123
330
747D
100
AcDbEntity
  8
細線
 48
50.0
100
AcDbLine
 10
10560.36635844667
 20
1576.711776228341
 30
0.0
 11
10594.66385507786
 21
1704.711776228339
 31
0.0
  0
LINE
  5
25124
330
747D
100
AcDbEntity
  8
部品1
100
AcDbLine
 10
10631.85524926718
 20
1796.410691881692
 30
0.0
 11
10631.85524926718
 21
1576.711776228342
 31
0.0
  0
LINE
  5
25125
330
747D
100
AcDbEntity
  8
細線
 48
50.0
100
AcDbLine
 10
10566.79713906502
 20
1600.711776228341
 30
0.0
 11
10573.22791968337
 21
1576.711776228341
 31
0.0
  0
LINE
  5
25126
330
747D
100
AcDbEntity
  8
細線
 48
50.0
100
AcDbLine
 10
10588.23307445951
 20
1680.711776228341
 30
0.0
 11
10581.80229384116
 21
1704.711776228341
 31
0.0
  0
LEADER
  5
25127
330
747D
100
AcDbEntity
  8
寸法
 48
50.0
100
AcDbLeader
  3
INABA_S50G
 73
     0
 74
     0
 75
     1
 40
120.0
 41
185.591883092037
 76
     3
 10
10442.5796608831
 20
2036.410691881693
 30
0.0
 10
10475.71786751675
 20
2208.55701256283
 30
0.0
 10
10600.71786751675
 20
2208.55701256283
 30
0.0
340
25128
1001
ACAD
1000
DSTYLE
1002
{
1070
    40
1040
1.0
1002
}
  0
MTEXT
  5
25128
102
{ACAD_REACTORS
330
25127
102
}
330
747D
100
AcDbEntity
  8
寸法
 62
     7
 48
50.0
100
AcDbMText
 10
10625.71786751675
 20
2293.55701256283
 30
0.0
 40
120.0
 41
0.8
 71
     4
 72
     1
  1
\A1;C.B
  7
STYLE1
 73
     1
 44
1.0
1001
ACAD
1000
MTEXTBEGIN
1070
    73
1070
     1
1070
    44
1040
1.0
1070
    74
1070
     0
1000
MTEXTEND
  0
LINE
  5
251AB
102
{ACAD_REACTORS
330
251C5
102
}
330
747D
100
AcDbEntity
  8
部品1
 48
50.0
100
AcDbLine
 10
9058.6
 20
6466.655401773455
 30
0.0
 11
9058.6
 21
7526.655401773442
 31
0.0
  0
LINE
  5
251AC
102
{ACAD_REACTORS
330
251DE
102
}
330
747D
100
AcDbEntity
  8
部品1
 48
50.0
100
AcDbLine
 10
7388.600000000001
 20
6466.655401773438
 30
0.0
 11
7388.599999999996
 21
7526.655401773439
 31
0.0
  0
HATCH
  5
251C5
330
747D
100
AcDbEntity
  8
細線
 48
50.0
100
AcDbHatch
 10
0.0
 20
0.0
 30
0.0
210
0.0
220
0.0
230
1.0
  2
LINE
 70
     0
 71
     1
 91
        1
 92
        7
 72
     0
 73
     1
 93
        4
 10
9178.600000000001
 20
7081.655401773478
 10
9058.6
 20
7081.655401773478
 10
9058.6
 20
6881.65540177348
 10
9178.600000000001
 20
6881.655401773477
 97
        4
330
2468A
330
251AB
330
2468B
330
24672
 75
     0
 76
     1
 52
45.0
 41
10.0
 77
     0
 78
     1
 53
45.0
 43
0.0
 44
0.0
 45
-22.45064030267288
 46
22.45064030267288
 79
     0
 47
3.426566281752706
 98
        1
 10
9087.466423509075
 20
7018.07272638485
  0
HATCH
  5
251DE
330
747D
100
AcDbEntity
  8
細線
 48
50.0
100
AcDbHatch
 10
0.0
 20
0.0
 30
0.0
210
0.0
220
0.0
230
1.0
  2
LINE
 70
     0
 71
     1
 91
        1
 92
        7
 72
     0
 73
     1
 93
        4
 10
7388.599999999998
 20
7081.65540177347
 10
7268.599999999999
 20
7081.65540177347
 10
7268.599999999999
 20
6881.65540177347
 10
7388.6
 20
6881.65540177347
 97
        4
330
2464C
330
2463C
330
2464B
330
251AC
 75
     0
 76
     1
 52
45.0
 41
10.0
 77
     0
 78
     1
 53
45.0
 43
0.0
 44
0.0
 45
-22.45064030267288
 46
22.45064030267288
 79
     0
 47
3.426566281752706
 98
        1
 10
7352.816294422948
 20
6966.674241389167
  0
TEXT
  5
25204
330
747D
100
AcDbEntity
  8
文字
 62
     7
 48
50.0
100
AcDbText
 10
16307.39823742585
 20
0.0570357817268814
 30
0.0
 40
1.0
  1
at
  7
STYLE2
100
AcDbText
  0
ENDSEC
  0
SECTION
  2
OBJECTS
  0
DICTIONARY
  5
7471
330
0
100
AcDbDictionary
281
     1
  3
ACAD_COLOR
350
173D2
  3
ACAD_GROUP
350
7472
  3
ACAD_LAYOUT
350
173D3
  3
ACAD_MATERIAL
350
173D1
  3
ACAD_MLINESTYLE
350
7473
  3
ACAD_PLOTSETTINGS
350
173D4
  3
ACAD_PLOTSTYLENAME
350
173CF
  3
ACDBHEADERROUNDTRIPXREC
350
2521A
  3
AcDbVariableDictionary
350
24C23
  3
CONTENTDICTIONARY
350
E71C
  3
DRAWINGVARIABLESDICT
350
F3B9
  0
DICTIONARY
  5
1758F
330
7467
100
AcDbDictionary
280
     1
281
     1
  3
ACAD_LAYERSTATES
360
17590
  0
DICTIONARY
  5
173D2
102
{ACAD_REACTORS
330
7471
102
}
330
7471
100
AcDbDictionary
281
     1
  0
DICTIONARY
  5
7472
102
{ACAD_REACTORS
330
7471
102
}
330
7471
100
AcDbDictionary
281
     1
  3
*A1
350
1D2A9
  3
*A2
350
24DC8
  0
DICTIONARY
  5
173D3
102
{ACAD_REACTORS
330
7471
102
}
330
7471
100
AcDbDictionary
281
     1
  3
Model
350
173D5
  3
レイアウト1
350
173D6
  0
DICTIONARY
  5
173D1
102
{ACAD_REACTORS
330
7471
102
}
330
7471
100
AcDbDictionary
281
     1
  0
DICTIONARY
  5
7473
102
{ACAD_REACTORS
330
7471
102
}
330
7471
100
AcDbDictionary
281
     1
  3
STANDARD
350
7480
  0
DICTIONARY
  5
173D4
102
{ACAD_REACTORS
330
7471
102
}
330
7471
100
AcDbDictionary
281
     1
  0
ACDBDICTIONARYWDFLT
  5
173CF
102
{ACAD_REACTORS
330
7471
102
}
330
7471
100
AcDbDictionary
281
     1
  3
Normal
350
173D0
100
AcDbDictionaryWithDefault
340
173D0
  0
DICTIONARY
  5
2521A
102
{ACAD_REACTORS
330
7471
102
}
330
7471
100
AcDbDictionary
281
     1
  3
COLORDICT
350
2521C
  3
MATERIALDICT
350
2521B
  0
DICTIONARY
  5
24C23
102
{ACAD_REACTORS
330
7471
102
}
330
7471
100
AcDbDictionary
281
     1
  3
DIMASSOC
350
24C24
  3
PROJECTNAME
350
24C25
  0
DICTIONARY
  5
E71C
102
{ACAD_REACTORS
330
7471
102
}
330
7471
100
AcDbDictionary
281
     1
  0
DICTIONARY
  5
F3B9
102
{ACAD_REACTORS
330
7471
102
}
330
7471
100
AcDbDictionary
281
     1
1001
DRAWINGVARIABLESXDATA
1000
POLARMODE
1000
1
  0
DICTIONARY
  5
17590
102
{ACAD_REACTORS
330
1758F
102
}
330
1758F
100
AcDbDictionary
281
     1
  0
GROUP
  5
1D2A9
102
{ACAD_REACTORS
330
7472
102
}
330
7472
100
AcDbGroup
300

 70
     1
 71
     1
  0
GROUP
  5
24DC8
102
{ACAD_REACTORS
330
7472
102
}
330
7472
100
AcDbGroup
300

 70
     1
 71
     1
  0
LAYOUT
  5
173D5
102
{ACAD_XDICTIONARY
360
2521D
102
}
102
{ACAD_REACTORS
330
173D3
102
}
330
173D3
100
AcDbPlotSettings
  1

  2
Microsoft Office Document Image Writer
  4

  6

 40
0.0
 41
0.0
 42
0.0
 43
0.0
 44
0.0
 45
0.0
 46
0.0
 47
0.0
 48
0.0
 49
0.0
140
0.0
141
0.0
142
1.0
143
1.0
 70
  1712
 72
     0
 73
     0
 74
     0
  7

 75
     0
147
1.0
148
0.0
149
0.0
100
AcDbLayout
  1
Model
 70
     1
 71
     0
 10
0.0
 20
0.0
 11
12.0
 21
9.0
 12
0.0
 22
0.0
 32
0.0
 14
0.0
 24
0.0
 34
0.0
 15
0.0
 25
0.0
 35
0.0
146
0.0
 13
0.0
 23
0.0
 33
0.0
 16
1.0
 26
0.0
 36
0.0
 17
0.0
 27
1.0
 37
0.0
 76
     0
330
747D
  0
LAYOUT
  5
173D6
102
{ACAD_XDICTIONARY
360
2521F
102
}
102
{ACAD_REACTORS
330
173D3
102
}
330
173D3
100
AcDbPlotSettings
  1

  2
Microsoft Office Document Image Writer
  4

  6

 40
0.0
 41
0.0
 42
0.0
 43
0.0
 44
0.0
 45
0.0
 46
0.0
 47
0.0
 48
0.0
 49
0.0
140
0.0
141
0.0
142
1.0
143
1.0
 70
   688
 72
     0
 73
     0
 74
     5
  7

 75
    16
147
1.0
148
0.0
149
0.0
100
AcDbLayout
  1
レイアウト1
 70
     0
 71
     1
 10
0.0
 20
0.0
 11
420.0
 21
297.0
 12
0.0
 22
0.0
 32
0.0
 14
1.000000000000000E+20
 24
1.000000000000000E+20
 34
1.000000000000000E+20
 15
-1.000000000000000E+20
 25
-1.000000000000000E+20
 35
-1.000000000000000E+20
146
0.0
 13
0.0
 23
0.0
 33
0.0
 16
1.0
 26
0.0
 36
0.0
 17
0.0
 27
1.0
 37
0.0
 76
     0
330
747A
  0
MLINESTYLE
  5
7480
102
{ACAD_REACTORS
330
7473
102
}
330
7473
100
AcDbMlineStyle
  2
STANDARD
 70
     0
  3

 62
     0
 51
90.0
 52
90.0
 71
     2
 49
0.5
 62
   256
  6
BYLAYER
 49
-0.5
 62
   256
  6
BYLAYER
  0
ACDBPLACEHOLDER
  5
173D0
102
{ACAD_REACTORS
330
173CF
102
}
330
173CF
  0
XRECORD
  5
2521C
102
{ACAD_REACTORS
330
2521A
102
}
330
2521A
100
AcDbXrecord
280
     1
340
173D2
  0
XRECORD
  5
2521B
102
{ACAD_REACTORS
330
2521A
102
}
330
2521A
100
AcDbXrecord
280
     1
340
173D1
  0
DICTIONARYVAR
  5
24C24
102
{ACAD_REACTORS
330
24C23
102
}
330
24C23
100
DictionaryVariables
280
     0
  1
1
  0
DICTIONARYVAR
  5
24C25
102
{ACAD_REACTORS
330
24C23
102
}
330
24C23
100
DictionaryVariables
280
     0
  1

  0
DICTIONARY
  5
2521D
330
173D5
100
AcDbDictionary
280
     1
281
     1
  3
ACAD_XREC_ROUNDTRIP
360
2521E
  0
DICTIONARY
  5
2521F
330
173D6
100
AcDbDictionary
280
     1
281
     1
  3
ACAD_XREC_ROUNDTRIP
360
25220
  0
XRECORD
  5
2521E
102
{ACAD_REACTORS
330
2521D
102
}
330
2521D
100
AcDbXrecord
280
     1
102
SHADEPLOT
 70
     0
102
SHADEPLOTRESLEVEL
 70
     2
102
SHADEPLOTCUSTOMDPI
 70
   300
  0
XRECORD
  5
25220
102
{ACAD_REACTORS
330
2521F
102
}
330
2521F
100
AcDbXrecord
280
     1
102
SHADEPLOT
 70
     0
102
SHADEPLOTRESLEVEL
 70
     2
102
SHADEPLOTCUSTOMDPI
 70
   300
  0
ENDSEC
  0
EOF
