  0
SECTION
  2
HEADER
  9
$ACADVER
  1
AC1015
  9
$ACADMAINTVER
 70
    20
  9
$DWGCODEPAGE
  3
ANSI_932
  9
$INSBASE
 10
0.0
 20
0.0
 30
0.0
  9
$EXTMIN
 10
139.9999999999995
 20
-0.0182460377740923
 30
0.0
  9
$EXTMAX
 10
16308.99050345242
 20
11409.6
 30
0.0
  9
$LIMMIN
 10
0.0
 20
0.0
  9
$LIMMAX
 10
16800.0
 20
11880.0
  9
$ORTHOMODE
 70
     0
  9
$REGENMODE
 70
     1
  9
$FILLMODE
 70
     1
  9
$QTEXTMODE
 70
     0
  9
$MIRRTEXT
 70
     1
  9
$LTSCALE
 40
20.0
  9
$ATTMODE
 70
     1
  9
$TEXTSIZE
 40
4.0
  9
$TRACEWID
 40
1.0
  9
$TEXTSTYLE
  7
STYLE1
  9
$CLAYER
  8
細線
  9
$CELTYPE
  6
BYLAYER
  9
$CECOLOR
 62
   256
  9
$CELTSCALE
 40
50.0
  9
$DISPSILH
 70
     0
  9
$DIMSCALE
 40
40.0
  9
$DIMASZ
 40
2.5
  9
$DIMEXO
 40
0.5
  9
$DIMDLI
 40
7.0
  9
$DIMRND
 40
0.0
  9
$DIMDLE
 40
0.0
  9
$DIMEXE
 40
1.5
  9
$DIMTP
 40
0.0
  9
$DIMTM
 40
0.0
  9
$DIMTXT
 40
3.0
  9
$DIMCEN
 40
0.0
  9
$DIMTSZ
 40
0.0
  9
$DIMTOL
 70
     0
  9
$DIMLIM
 70
     0
  9
$DIMTIH
 70
     0
  9
$DIMTOH
 70
     0
  9
$DIMSE1
 70
     0
  9
$DIMSE2
 70
     0
  9
$DIMTAD
 70
     3
  9
$DIMZIN
 70
     8
  9
$DIMBLK
  1

  9
$DIMASO
 70
     1
  9
$DIMSHO
 70
     1
  9
$DIMPOST
  1

  9
$DIMAPOST
  1

  9
$DIMALT
 70
     0
  9
$DIMALTD
 70
     2
  9
$DIMALTF
 40
0.0394
  9
$DIMLFAC
 40
1.0
  9
$DIMTOFL
 70
     1
  9
$DIMTVP
 40
0.0
  9
$DIMTIX
 70
     1
  9
$DIMSOXD
 70
     0
  9
$DIMSAH
 70
     1
  9
$DIMBLK1
  1
DOTSMALL
  9
$DIMBLK2
  1
DOTSMALL
  9
$DIMSTYLE
  2
INABA_S40G
  9
$DIMCLRD
 70
     0
  9
$DIMCLRE
 70
     0
  9
$DIMCLRT
 70
     7
  9
$DIMTFAC
 40
1.0
  9
$DIMGAP
 40
1.0
  9
$DIMJUST
 70
     0
  9
$DIMSD1
 70
     0
  9
$DIMSD2
 70
     0
  9
$DIMTOLJ
 70
     1
  9
$DIMTZIN
 70
     0
  9
$DIMALTZ
 70
     0
  9
$DIMALTTZ
 70
     0
  9
$DIMUPT
 70
     0
  9
$DIMDEC
 70
     1
  9
$DIMTDEC
 70
     4
  9
$DIMALTU
 70
     2
  9
$DIMALTTD
 70
     2
  9
$DIMTXSTY
  7
STYLE1
  9
$DIMAUNIT
 70
     0
  9
$DIMADEC
 70
     0
  9
$DIMALTRND
 40
0.0
  9
$DIMAZIN
 70
     0
  9
$DIMDSEP
 70
    46
  9
$DIMATFIT
 70
     3
  9
$DIMFRAC
 70
     0
  9
$DIMLDRBLK
  1

  9
$DIMLUNIT
 70
     2
  9
$DIMLWD
 70
    -2
  9
$DIMLWE
 70
    -2
  9
$DIMTMOVE
 70
     0
  9
$LUNITS
 70
     2
  9
$LUPREC
 70
     1
  9
$SKETCHINC
 40
1.0
  9
$FILLETRAD
 40
3.0
  9
$AUNITS
 70
     0
  9
$AUPREC
 70
     0
  9
$MENU
  1
acad
  9
$ELEVATION
 40
0.0
  9
$PELEVATION
 40
0.0
  9
$THICKNESS
 40
0.0
  9
$LIMCHECK
 70
     0
  9
$CHAMFERA
 40
0.0
  9
$CHAMFERB
 40
0.0
  9
$CHAMFERC
 40
0.0
  9
$CHAMFERD
 40
0.0
  9
$SKPOLY
 70
     0
  9
$TDCREATE
 40
2451368.612993866
  9
$TDUCREATE
 40
2451368.237993866
  9
$TDUPDATE
 40
2455827.391459375
  9
$TDUUPDATE
 40
2455827.016459375
  9
$TDINDWG
 40
0.8210429514
  9
$TDUSRTIMER
 40
0.8210429514
  9
$USRTIMER
 70
     1
  9
$ANGBASE
 50
0.0
  9
$ANGDIR
 70
     0
  9
$PDMODE
 70
     3
  9
$PDSIZE
 40
2.0
  9
$PLINEWID
 40
0.0
  9
$SPLFRAME
 70
     0
  9
$SPLINETYPE
 70
     6
  9
$SPLINESEGS
 70
     8
  9
$HANDSEED
  5
2F1CE
  9
$SURFTAB1
 70
     6
  9
$SURFTAB2
 70
     6
  9
$SURFTYPE
 70
     6
  9
$SURFU
 70
     6
  9
$SURFV
 70
     6
  9
$UCSBASE
  2

  9
$UCSNAME
  2

  9
$UCSORG
 10
0.0
 20
0.0
 30
0.0
  9
$UCSXDIR
 10
1.0
 20
0.0
 30
0.0
  9
$UCSYDIR
 10
0.0
 20
1.0
 30
0.0
  9
$UCSORTHOREF
  2

  9
$UCSORTHOVIEW
 70
     0
  9
$UCSORGTOP
 10
0.0
 20
0.0
 30
0.0
  9
$UCSORGBOTTOM
 10
0.0
 20
0.0
 30
0.0
  9
$UCSORGLEFT
 10
0.0
 20
0.0
 30
0.0
  9
$UCSORGRIGHT
 10
0.0
 20
0.0
 30
0.0
  9
$UCSORGFRONT
 10
0.0
 20
0.0
 30
0.0
  9
$UCSORGBACK
 10
0.0
 20
0.0
 30
0.0
  9
$PUCSBASE
  2

  9
$PUCSNAME
  2

  9
$PUCSORG
 10
0.0
 20
0.0
 30
0.0
  9
$PUCSXDIR
 10
1.0
 20
0.0
 30
0.0
  9
$PUCSYDIR
 10
0.0
 20
1.0
 30
0.0
  9
$PUCSORTHOREF
  2

  9
$PUCSORTHOVIEW
 70
     0
  9
$PUCSORGTOP
 10
0.0
 20
0.0
 30
0.0
  9
$PUCSORGBOTTOM
 10
0.0
 20
0.0
 30
0.0
  9
$PUCSORGLEFT
 10
0.0
 20
0.0
 30
0.0
  9
$PUCSORGRIGHT
 10
0.0
 20
0.0
 30
0.0
  9
$PUCSORGFRONT
 10
0.0
 20
0.0
 30
0.0
  9
$PUCSORGBACK
 10
0.0
 20
0.0
 30
0.0
  9
$USERI1
 70
     0
  9
$USERI2
 70
     0
  9
$USERI3
 70
     0
  9
$USERI4
 70
     0
  9
$USERI5
 70
     0
  9
$USERR1
 40
0.0
  9
$USERR2
 40
0.0
  9
$USERR3
 40
0.0
  9
$USERR4
 40
0.0
  9
$USERR5
 40
0.0
  9
$WORLDVIEW
 70
     1
  9
$SHADEDGE
 70
     3
  9
$SHADEDIF
 70
    70
  9
$TILEMODE
 70
     1
  9
$MAXACTVP
 70
    16
  9
$PINSBASE
 10
0.0
 20
0.0
 30
0.0
  9
$PLIMCHECK
 70
     0
  9
$PEXTMIN
 10
1.000000000000000E+20
 20
1.000000000000000E+20
 30
1.000000000000000E+20
  9
$PEXTMAX
 10
-1.000000000000000E+20
 20
-1.000000000000000E+20
 30
-1.000000000000000E+20
  9
$PLIMMIN
 10
0.0
 20
0.0
  9
$PLIMMAX
 10
420.0
 20
297.0
  9
$UNITMODE
 70
     0
  9
$VISRETAIN
 70
     0
  9
$PLINEGEN
 70
     0
  9
$PSLTSCALE
 70
     0
  9
$TREEDEPTH
 70
  3020
  9
$CMLSTYLE
  2
STANDARD
  9
$CMLJUST
 70
     0
  9
$CMLSCALE
 40
1.0
  9
$PROXYGRAPHICS
 70
     1
  9
$MEASUREMENT
 70
     1
  9
$CELWEIGHT
370
    -1
  9
$ENDCAPS
280
     0
  9
$JOINSTYLE
280
     0
  9
$LWDISPLAY
290
     0
  9
$INSUNITS
 70
     0
  9
$HYPERLINKBASE
  1

  9
$STYLESHEET
  1

  9
$XEDIT
290
     1
  9
$CEPSNTYPE
380
     0
  9
$PSTYLEMODE
290
     1
  9
$FINGERPRINTGUID
  2
{5EAC461A-2277-4BF8-9AB0-99C43BB394F0}
  9
$VERSIONGUID
  2
{085B91C7-7814-465F-9955-9ED184ED5DF5}
  9
$EXTNAMES
290
     1
  9
$PSVPSCALE
 40
0.0
  9
$OLESTARTUP
290
     0
  0
ENDSEC
  0
SECTION
  2
CLASSES
  0
CLASS
  1
ACDBDICTIONARYWDFLT
  2
AcDbDictionaryWithDefault
  3
ObjectDBX Classes
 90
        0
280
     0
281
     0
  0
CLASS
  1
DICTIONARYVAR
  2
AcDbDictionaryVar
  3
ObjectDBX Classes
 90
        0
280
     0
281
     0
  0
CLASS
  1
ACDBPLACEHOLDER
  2
AcDbPlaceHolder
  3
ObjectDBX Classes
 90
        0
280
     0
281
     0
  0
CLASS
  1
LAYOUT
  2
AcDbLayout
  3
ObjectDBX Classes
 90
        0
280
     0
281
     0
  0
ENDSEC
  0
SECTION
  2
TABLES
  0
TABLE
  2
VPORT
  5
746D
330
0
100
AcDbSymbolTable
 70
     2
  0
VPORT
  5
2F1C6
330
746D
100
AcDbSymbolTableRecord
100
AcDbViewportTableRecord
  2
*Active
 70
     0
 10
0.0
 20
0.0
 11
1.0
 21
1.0
 12
8224.401894379875
 22
5855.693501556149
 13
0.0
 23
0.0
 14
10.0
 24
10.0
 15
10.0
 25
10.0
 16
0.0
 26
0.0
 36
1.0
 17
0.0
 27
0.0
 37
0.0
 40
11800.71517913436
 41
1.522222222222222
 42
50.0
 43
0.0
 44
0.0
 50
0.0
 51
0.0
 71
     0
 72
     0
 73
     1
 74
     0
 75
     0
 76
     0
 77
     0
 78
     0
281
     0
 65
     1
110
0.0
120
0.0
130
0.0
111
1.0
121
0.0
131
0.0
112
0.0
122
1.0
132
0.0
 79
     0
146
0.0
  0
ENDTAB
  0
TABLE
  2
LTYPE
  5
746A
330
0
100
AcDbSymbolTable
 70
     5
  0
LTYPE
  5
7477
330
746A
100
AcDbSymbolTableRecord
100
AcDbLinetypeTableRecord
  2
BYBLOCK
 70
     0
  3

 72
    65
 73
     0
 40
0.0
  0
LTYPE
  5
7478
330
746A
100
AcDbSymbolTableRecord
100
AcDbLinetypeTableRecord
  2
BYLAYER
 70
     0
  3

 72
    65
 73
     0
 40
0.0
  0
LTYPE
  5
7479
330
746A
100
AcDbSymbolTableRecord
100
AcDbLinetypeTableRecord
  2
CONTINUOUS
 70
     0
  3
Solid line
 72
    65
 73
     0
 40
0.0
  0
LTYPE
  5
7816
330
746A
100
AcDbSymbolTableRecord
100
AcDbLinetypeTableRecord
  2
CENTER
 70
     0
  3
____ _ ____ _ ____ _ ____ _ ____ _ ____ _ ____ 
 72
    65
 73
     4
 40
2.0
 49
1.25
 74
     0
 49
-0.25
 74
     0
 49
0.25
 74
     0
 49
-0.25
 74
     0
  0
LTYPE
  5
781A
330
746A
100
AcDbSymbolTableRecord
100
AcDbLinetypeTableRecord
  2
HIDDEN
 70
     0
  3
__ __ __ __ __ __ __ __ __ __ __ __ __ __ __ __
 72
    65
 73
     2
 40
0.375
 49
0.25
 74
     0
 49
-0.125
 74
     0
  0
LTYPE
  5
781B
330
746A
100
AcDbSymbolTableRecord
100
AcDbLinetypeTableRecord
  2
PHANTOM
 70
     0
  3
______  __  __  ______  __  __  ______  __  __ 
 72
    65
 73
     6
 40
2.5
 49
1.25
 74
     0
 49
-0.25
 74
     0
 49
0.25
 74
     0
 49
-0.25
 74
     0
 49
0.25
 74
     0
 49
-0.25
 74
     0
  0
LTYPE
  5
12CC3
330
746A
100
AcDbSymbolTableRecord
100
AcDbLinetypeTableRecord
  2
HIDDENX2
 70
     0
  3
Hidden (2x) ____ ____ ____ ____ ____ ____ ____
 72
    65
 73
     2
 40
19.05
 49
12.7
 74
     0
 49
-6.349999999999999
 74
     0
  0
ENDTAB
  0
TABLE
  2
LAYER
  5
7467
102
{ACAD_XDICTIONARY
360
1758F
102
}
330
0
100
AcDbSymbolTable
 70
    12
  0
LAYER
  5
7474
330
7467
100
AcDbSymbolTableRecord
100
AcDbLayerTableRecord
  2
0
 70
     0
 62
     7
  6
CONTINUOUS
370
    -3
390
173D0
  0
LAYER
  5
DEB2
330
7467
100
AcDbSymbolTableRecord
100
AcDbLayerTableRecord
  2
センター
 70
     0
 62
     3
  6
CENTER
370
    -3
390
173D0
  0
LAYER
  5
DEB3
330
7467
100
AcDbSymbolTableRecord
100
AcDbLayerTableRecord
  2
寸法
 70
     0
 62
     4
  6
CONTINUOUS
370
    -3
390
173D0
  0
LAYER
  5
DEB4
330
7467
100
AcDbSymbolTableRecord
100
AcDbLayerTableRecord
  2
部品1
 70
     0
 62
     7
  6
CONTINUOUS
370
    -3
390
173D0
  0
LAYER
  5
DEB5
330
7467
100
AcDbSymbolTableRecord
100
AcDbLayerTableRecord
  2
補助
 70
     0
 62
    -1
  6
CONTINUOUS
370
    -3
390
173D0
  0
LAYER
  5
DEB6
330
7467
100
AcDbSymbolTableRecord
100
AcDbLayerTableRecord
  2
文字
 70
     0
 62
     7
  6
CONTINUOUS
370
    -3
390
173D0
  0
LAYER
  5
F255
330
7467
100
AcDbSymbolTableRecord
100
AcDbLayerTableRecord
  2
DEFPOINTS
 70
     0
 62
     7
  6
CONTINUOUS
290
     0
370
    -3
390
173D0
  0
LAYER
  5
10B54
330
7467
100
AcDbSymbolTableRecord
100
AcDbLayerTableRecord
  2
仕様書枠
 70
     0
 62
   230
  6
CONTINUOUS
370
    -3
390
173D0
  0
LAYER
  5
11729
330
7467
100
AcDbSymbolTableRecord
100
AcDbLayerTableRecord
  2
Ｇ．Ｌ
 70
     0
 62
    30
  6
CONTINUOUS
370
    -3
390
173D0
  0
LAYER
  5
1173F
330
7467
100
AcDbSymbolTableRecord
100
AcDbLayerTableRecord
  2
細線
 70
     0
 62
     5
  6
CONTINUOUS
370
    -3
390
173D0
  0
LAYER
  5
12CC4
330
7467
100
AcDbSymbolTableRecord
100
AcDbLayerTableRecord
  2
想像線
 70
     0
 62
     6
  6
PHANTOM
370
    -3
390
173D0
  0
LAYER
  5
142E2
330
7467
100
AcDbSymbolTableRecord
100
AcDbLayerTableRecord
  2
破線
 70
     0
 62
     2
  6
HIDDEN
370
    -3
390
173D0
  0
ENDTAB
  0
TABLE
  2
STYLE
  5
7468
330
0
100
AcDbSymbolTable
 70
     7
  0
STYLE
  5
7475
330
7468
100
AcDbSymbolTableRecord
100
AcDbTextStyleTableRecord
  2
STANDARD
 70
     0
 40
0.0
 41
1.0
 50
0.0
 71
     0
 42
4.0
  3
txt
  4
C:\AutoCAD LT\bigfont.shx
  0
STYLE
  5
763C
330
7468
100
AcDbSymbolTableRecord
100
AcDbTextStyleTableRecord
  2
MSMINCHO
 70
     0
 40
0.0
 41
1.0
 50
0.0
 71
     0
 42
1.199999999999999
  3
C:\AutoCAD LT\msminch2.TTF
  4

  0
STYLE
  5
F706
330
7468
100
AcDbSymbolTableRecord
100
AcDbTextStyleTableRecord
  2
STYLE1
 70
     0
 40
0.0
 41
1.0
 50
0.0
 71
     0
 42
4.0
  3
isocp.shx
  4
bigfont.shx
  0
STYLE
  5
103BF
330
7468
100
AcDbSymbolTableRecord
100
AcDbTextStyleTableRecord
  2
STYLE2
 70
     0
 40
0.0
 41
1.0
 50
0.0
 71
     0
 42
100.0
  3
MS PGothic.ttf
  4

1001
ACAD
1000
MS PGothic
1071
    32818
  0
STYLE
  5
10BAA
330
7468
100
AcDbSymbolTableRecord
100
AcDbTextStyleTableRecord
  2
STYLE3
 70
     0
 40
0.0
 41
1.0
 50
0.0
 71
     0
 42
100.0
  3

  4

1001
ACAD
1000
DFPGothic-EB
1071
    32818
  0
STYLE
  5
11A15
330
7468
100
AcDbSymbolTableRecord
100
AcDbTextStyleTableRecord
  2
MSGOTHIC
 70
     0
 40
0.0
 41
1.0
 50
0.0
 71
     0
 42
3.5
  3
msgothi2.ttf
  4

  0
STYLE
  5
13E96
330
7468
100
AcDbSymbolTableRecord
100
AcDbTextStyleTableRecord
  2
MSPゴシック
 70
     0
 40
0.0
 41
1.0
 50
0.0
 71
     0
 42
4.0
  3
MS PGothic.ttf
  4

1001
ACAD
1000
MS PGothic
1071
    32818
  0
ENDTAB
  0
TABLE
  2
VIEW
  5
746B
330
0
100
AcDbSymbolTable
 70
     0
  0
ENDTAB
  0
TABLE
  2
UCS
  5
746C
330
0
100
AcDbSymbolTable
 70
     0
  0
ENDTAB
  0
TABLE
  2
APPID
  5
746E
330
0
100
AcDbSymbolTable
 70
     6
  0
APPID
  5
7476
330
746E
100
AcDbSymbolTableRecord
100
AcDbRegAppTableRecord
  2
ACAD
 70
     0
  0
APPID
  5
DEA9
330
746E
100
AcDbSymbolTableRecord
100
AcDbRegAppTableRecord
  2
CONTENTBLOCKICON
 70
     0
  0
APPID
  5
DEAA
330
746E
100
AcDbSymbolTableRecord
100
AcDbRegAppTableRecord
  2
CONTENTBLOCKDESCRIPTION
 70
     0
  0
APPID
  5
E71D
330
746E
100
AcDbSymbolTableRecord
100
AcDbRegAppTableRecord
  2
CONTENTTABDATA
 70
     0
  0
APPID
  5
E71E
330
746E
100
AcDbSymbolTableRecord
100
AcDbRegAppTableRecord
  2
CONTENTCURRENTTAB
 70
     0
  0
APPID
  5
F3BA
330
746E
100
AcDbSymbolTableRecord
100
AcDbRegAppTableRecord
  2
DRAWINGVARIABLESXDATA
 70
     0
  0
ENDTAB
  0
TABLE
  2
DIMSTYLE
  5
746F
330
0
100
AcDbSymbolTable
 70
     6
100
AcDbDimStyleTable
 71
     1
340
F71F
  0
DIMSTYLE
105
7484
330
746F
100
AcDbSymbolTableRecord
100
AcDbDimStyleTableRecord
  2
JIS
 70
     0
 41
2.5
 42
1.0
 43
7.0
 44
1.0
 73
     0
 74
     0
 77
     1
 78
     8
140
2.5
141
0.0
143
0.0394
147
0.0
172
     1
174
     1
175
     1
340
7475
  0
DIMSTYLE
105
F236
330
746F
100
AcDbSymbolTableRecord
100
AcDbDimStyleTableRecord
  2
INABA_S40
 70
     0
 40
40.0
 41
2.5
 42
0.5
 43
7.0
 44
1.5
 73
     0
 74
     0
 77
     3
 78
     8
140
3.0
141
0.0
143
0.0394
147
1.0
172
     1
173
     1
174
     1
175
     1
178
     7
289
     0
340
7475
341
DEAC
343
DEAC
344
DEAC
  0
DIMSTYLE
105
F71F
102
{ACAD_REACTORS
330
2DF30
330
2DF2F
330
2DEB6
330
2DEB5
330
2DEB1
330
2DEB0
330
2DE37
330
2DE36
330
2DE35
330
2DDE6
330
2DDE4
330
2DDE3
330
2DDE2
330
2DDE1
330
2DDDB
330
2DDDA
330
2DDDE
330
2DDEF
330
2DDEE
330
2DDE5
330
2DDDF
330
2DDE9
330
2DDE8
330
2E937
330
2E938
330
2E93D
330
2E93E
330
2E93F
330
2E940
330
2E941
330
2EFE4
330
2EFE5
330
2EFED
330
2EFF4
330
2EFF7
330
2F057
102
}
330
746F
100
AcDbSymbolTableRecord
100
AcDbDimStyleTableRecord
  2
INABA_S40G
 70
     0
 40
40.0
 41
2.5
 42
0.5
 43
7.0
 44
1.5
 73
     0
 74
     0
 77
     3
 78
     8
140
3.0
141
0.0
143
0.0394
147
1.0
172
     1
173
     1
174
     1
178
     7
271
     1
340
F706
341
F770
343
F770
344
F770
  0
DIMSTYLE
105
142E3
330
746F
100
AcDbSymbolTableRecord
100
AcDbDimStyleTableRecord
  2
INABA_S1
 70
     0
 40
0.0
 41
2.5
 42
0.5
 43
7.0
 44
1.5
 73
     0
 74
     0
 77
     3
 78
     8
140
3.0
141
0.0
143
0.0394
146
0.5
147
0.5
172
     1
173
     1
176
   256
177
   256
178
     7
271
     2
272
     2
284
     8
288
     1
340
7475
341
DEAC
343
DEAC
344
DEAC
  0
DIMSTYLE
105
14463
330
746F
100
AcDbSymbolTableRecord
100
AcDbDimStyleTableRecord
  2
INABA_S30G
 70
     0
 40
30.0
 41
2.5
 42
0.5
 43
7.0
 44
1.5
 73
     0
 74
     0
 77
     3
 78
     8
140
3.0
141
0.0
143
0.0394
147
1.0
172
     1
173
     1
174
     1
175
     1
178
     7
271
     1
340
F706
341
F770
343
F770
344
F770
  0
DIMSTYLE
105
1758E
330
746F
100
AcDbSymbolTableRecord
100
AcDbDimStyleTableRecord
  2
INABA_S50G
 70
     0
 41
125.0
 42
25.0
 43
7.0
 44
75.0
 73
     0
 74
     0
 77
     3
 78
     8
140
150.0
141
0.0
143
0.0394
147
25.0
172
     1
173
     1
174
     1
175
     1
178
     7
271
     1
340
F706
341
F770
343
F770
344
F770
  0
ENDTAB
  0
TABLE
  2
BLOCK_RECORD
  5
7466
330
0
100
AcDbSymbolTable
 70
    55
  0
BLOCK_RECORD
  5
747D
330
7466
100
AcDbSymbolTableRecord
100
AcDbBlockTableRecord
  2
*MODEL_SPACE
340
173D5
  0
BLOCK_RECORD
  5
747A
330
7466
100
AcDbSymbolTableRecord
100
AcDbBlockTableRecord
  2
*PAPER_SPACE
340
173D6
  0
BLOCK_RECORD
  5
DEAC
330
7466
100
AcDbSymbolTableRecord
100
AcDbBlockTableRecord
  2
_OPEN
340
0
  0
BLOCK_RECORD
  5
F770
330
7466
100
AcDbSymbolTableRecord
100
AcDbBlockTableRecord
  2
_DOTSMALL
340
0
102
{BLKREFS
331
18C65
331
18C66
331
18C59
331
18C5A
331
18C4D
331
18C4E
331
18C41
331
18C42
331
18C35
331
18C36
331
18C29
331
18C2A
331
18C1D
331
18C1E
331
18C0F
331
18C10
331
18C03
331
18C04
331
18BF5
331
18BF6
331
18BE7
331
18BE8
331
18BD9
331
18BDA
331
18BCD
331
18BCE
331
2E42D
331
2E42E
331
2E448
331
2E449
331
2E45A
331
2E45B
331
2E494
331
2E495
331
2E4A6
331
2E4A7
331
2E4C1
331
2E4C2
331
2E4CA
331
2E4CB
331
2E4E7
331
2E4E8
331
2E4FA
331
2E4FB
331
2EBAA
331
2EBAB
331
2EBBF
331
2EBC0
331
2EBCA
331
2EBCB
331
2EBD5
331
2EBD6
331
2EBE0
331
2EBE1
331
2EC07
331
2EC08
331
2EC11
331
2EC12
331
2EC36
331
2EC37
331
2EC51
331
2EC52
331
2EC63
331
2EC64
331
2EC6C
331
2EC6D
331
2EC90
331
2EC91
331
2ECA2
331
2ECA3
331
2ECB4
331
2ECB5
331
2ECC6
331
2ECC7
331
2ECCF
331
2ECD0
331
2ECD8
331
2ECD9
331
2ECE1
331
2ECE2
331
2ECEA
331
2ECEB
331
2EDB7
331
2EDB8
331
2EE21
331
2EE22
331
2F15D
331
2F15E
331
2F168
331
2F169
331
2F171
331
2F172
331
2F17A
331
2F17B
331
2F183
331
2F184
331
2F18C
331
2F18D
102
}
  0
BLOCK_RECORD
  5
164B4
330
7466
100
AcDbSymbolTableRecord
100
AcDbBlockTableRecord
  2
_DOT
340
0
102
{BLKREFS
331
18C73
331
18C74
102
}
  0
BLOCK_RECORD
  5
18BC8
330
7466
100
AcDbSymbolTableRecord
100
AcDbBlockTableRecord
  2
*D3
340
0
  0
BLOCK_RECORD
  5
18BD4
330
7466
100
AcDbSymbolTableRecord
100
AcDbBlockTableRecord
  2
*D4
340
0
  0
BLOCK_RECORD
  5
18BE0
330
7466
100
AcDbSymbolTableRecord
100
AcDbBlockTableRecord
  2
*D5
340
0
  0
BLOCK_RECORD
  5
18BEE
330
7466
100
AcDbSymbolTableRecord
100
AcDbBlockTableRecord
  2
*D6
340
0
  0
BLOCK_RECORD
  5
18BFC
330
7466
100
AcDbSymbolTableRecord
100
AcDbBlockTableRecord
  2
*D7
340
0
  0
BLOCK_RECORD
  5
18C0A
330
7466
100
AcDbSymbolTableRecord
100
AcDbBlockTableRecord
  2
*D8
340
0
  0
BLOCK_RECORD
  5
18C16
330
7466
100
AcDbSymbolTableRecord
100
AcDbBlockTableRecord
  2
*D9
340
0
  0
BLOCK_RECORD
  5
18C24
330
7466
100
AcDbSymbolTableRecord
100
AcDbBlockTableRecord
  2
*D10
340
0
  0
BLOCK_RECORD
  5
18C30
330
7466
100
AcDbSymbolTableRecord
100
AcDbBlockTableRecord
  2
*D11
340
0
  0
BLOCK_RECORD
  5
18C3C
330
7466
100
AcDbSymbolTableRecord
100
AcDbBlockTableRecord
  2
*D12
340
0
  0
BLOCK_RECORD
  5
18C48
330
7466
100
AcDbSymbolTableRecord
100
AcDbBlockTableRecord
  2
*D13
340
0
  0
BLOCK_RECORD
  5
18C54
330
7466
100
AcDbSymbolTableRecord
100
AcDbBlockTableRecord
  2
*D14
340
0
  0
BLOCK_RECORD
  5
18C60
330
7466
100
AcDbSymbolTableRecord
100
AcDbBlockTableRecord
  2
*D15
340
0
  0
BLOCK_RECORD
  5
18C6C
330
7466
100
AcDbSymbolTableRecord
100
AcDbBlockTableRecord
  2
*D16
340
0
  0
BLOCK_RECORD
  5
18C7A
330
7466
100
AcDbSymbolTableRecord
100
AcDbBlockTableRecord
  2
A$C3B1A506B
340
0
  0
BLOCK_RECORD
  5
1C4CA
330
7466
100
AcDbSymbolTableRecord
100
AcDbBlockTableRecord
  2
_NONE
340
0
  0
BLOCK_RECORD
  5
2DF76
330
7466
100
AcDbSymbolTableRecord
100
AcDbBlockTableRecord
  2
*D19
340
0
  0
BLOCK_RECORD
  5
2DF82
330
7466
100
AcDbSymbolTableRecord
100
AcDbBlockTableRecord
  2
*D20
340
0
  0
BLOCK_RECORD
  5
2DF8E
330
7466
100
AcDbSymbolTableRecord
100
AcDbBlockTableRecord
  2
*D21
340
0
  0
BLOCK_RECORD
  5
2DF9A
330
7466
100
AcDbSymbolTableRecord
100
AcDbBlockTableRecord
  2
*D22
340
0
  0
BLOCK_RECORD
  5
2DFB4
330
7466
100
AcDbSymbolTableRecord
100
AcDbBlockTableRecord
  2
*D23
340
0
  0
BLOCK_RECORD
  5
2DFBF
330
7466
100
AcDbSymbolTableRecord
100
AcDbBlockTableRecord
  2
*D24
340
0
  0
BLOCK_RECORD
  5
2DFCA
330
7466
100
AcDbSymbolTableRecord
100
AcDbBlockTableRecord
  2
*D25
340
0
  0
BLOCK_RECORD
  5
2DFD5
330
7466
100
AcDbSymbolTableRecord
100
AcDbBlockTableRecord
  2
*D26
340
0
  0
BLOCK_RECORD
  5
2DFE2
330
7466
100
AcDbSymbolTableRecord
100
AcDbBlockTableRecord
  2
*D27
340
0
  0
BLOCK_RECORD
  5
2DFEF
330
7466
100
AcDbSymbolTableRecord
100
AcDbBlockTableRecord
  2
*D28
340
0
  0
BLOCK_RECORD
  5
2E008
330
7466
100
AcDbSymbolTableRecord
100
AcDbBlockTableRecord
  2
*D29
340
0
  0
BLOCK_RECORD
  5
2E014
330
7466
100
AcDbSymbolTableRecord
100
AcDbBlockTableRecord
  2
*D30
340
0
  0
BLOCK_RECORD
  5
2E020
330
7466
100
AcDbSymbolTableRecord
100
AcDbBlockTableRecord
  2
*D31
340
0
  0
BLOCK_RECORD
  5
2E02C
330
7466
100
AcDbSymbolTableRecord
100
AcDbBlockTableRecord
  2
*D32
340
0
  0
BLOCK_RECORD
  5
2E05B
330
7466
100
AcDbSymbolTableRecord
100
AcDbBlockTableRecord
  2
*D33
340
0
  0
BLOCK_RECORD
  5
2E067
330
7466
100
AcDbSymbolTableRecord
100
AcDbBlockTableRecord
  2
*D34
340
0
  0
BLOCK_RECORD
  5
2E072
330
7466
100
AcDbSymbolTableRecord
100
AcDbBlockTableRecord
  2
*D35
340
0
  0
BLOCK_RECORD
  5
2E07E
330
7466
100
AcDbSymbolTableRecord
100
AcDbBlockTableRecord
  2
*D36
340
0
  0
BLOCK_RECORD
  5
2E08A
330
7466
100
AcDbSymbolTableRecord
100
AcDbBlockTableRecord
  2
*D37
340
0
  0
BLOCK_RECORD
  5
2E096
330
7466
100
AcDbSymbolTableRecord
100
AcDbBlockTableRecord
  2
*D38
340
0
  0
BLOCK_RECORD
  5
2E0A2
330
7466
100
AcDbSymbolTableRecord
100
AcDbBlockTableRecord
  2
*D39
340
0
  0
BLOCK_RECORD
  5
2E0AE
330
7466
100
AcDbSymbolTableRecord
100
AcDbBlockTableRecord
  2
*D40
340
0
  0
BLOCK_RECORD
  5
2E0BB
330
7466
100
AcDbSymbolTableRecord
100
AcDbBlockTableRecord
  2
*D41
340
0
  0
BLOCK_RECORD
  5
2EA2E
330
7466
100
AcDbSymbolTableRecord
100
AcDbBlockTableRecord
  2
*D42
340
0
  0
BLOCK_RECORD
  5
2EA3C
330
7466
100
AcDbSymbolTableRecord
100
AcDbBlockTableRecord
  2
*D43
340
0
  0
BLOCK_RECORD
  5
2EA4A
330
7466
100
AcDbSymbolTableRecord
100
AcDbBlockTableRecord
  2
*D44
340
0
  0
BLOCK_RECORD
  5
2EA58
330
7466
100
AcDbSymbolTableRecord
100
AcDbBlockTableRecord
  2
*D45
340
0
  0
BLOCK_RECORD
  5
2EA66
330
7466
100
AcDbSymbolTableRecord
100
AcDbBlockTableRecord
  2
*D46
340
0
  0
BLOCK_RECORD
  5
2EA73
330
7466
100
AcDbSymbolTableRecord
100
AcDbBlockTableRecord
  2
*D47
340
0
  0
BLOCK_RECORD
  5
2EA80
330
7466
100
AcDbSymbolTableRecord
100
AcDbBlockTableRecord
  2
*D48
340
0
  0
BLOCK_RECORD
  5
2F110
330
7466
100
AcDbSymbolTableRecord
100
AcDbBlockTableRecord
  2
*D49
340
0
  0
BLOCK_RECORD
  5
2F11C
330
7466
100
AcDbSymbolTableRecord
100
AcDbBlockTableRecord
  2
*D50
340
0
  0
BLOCK_RECORD
  5
2F12A
330
7466
100
AcDbSymbolTableRecord
100
AcDbBlockTableRecord
  2
*D51
340
0
  0
BLOCK_RECORD
  5
2F136
330
7466
100
AcDbSymbolTableRecord
100
AcDbBlockTableRecord
  2
*D52
340
0
  0
BLOCK_RECORD
  5
2F142
330
7466
100
AcDbSymbolTableRecord
100
AcDbBlockTableRecord
  2
*D53
340
0
  0
BLOCK_RECORD
  5
2F14E
330
7466
100
AcDbSymbolTableRecord
100
AcDbBlockTableRecord
  2
*D54
340
0
  0
ENDTAB
  0
ENDSEC
  0
SECTION
  2
BLOCKS
  0
BLOCK
  5
7489
330
747D
100
AcDbEntity
  8
0
100
AcDbBlockBegin
  2
*MODEL_SPACE
 70
     0
 10
0.0
 20
0.0
 30
0.0
  3
*MODEL_SPACE
  1

  0
ENDBLK
  5
748A
330
747D
100
AcDbEntity
  8
0
100
AcDbBlockEnd
  0
BLOCK
  5
7487
330
747A
100
AcDbEntity
 67
     1
  8
0
100
AcDbBlockBegin
  2
*PAPER_SPACE
 70
     0
 10
0.0
 20
0.0
 30
0.0
  3
*PAPER_SPACE
  1

  0
ENDBLK
  5
7488
330
747A
100
AcDbEntity
 67
     1
  8
0
100
AcDbBlockEnd
  0
BLOCK
  5
DEAD
330
DEAC
100
AcDbEntity
  8
0
100
AcDbBlockBegin
  2
_OPEN
 70
     0
 10
0.0
 20
0.0
 30
0.0
  3
_OPEN
  1

  0
LINE
  5
DEAE
330
DEAC
100
AcDbEntity
  8
0
  6
ByBlock
 62
     0
100
AcDbLine
 10
-1.0
 20
0.1666666666666666
 30
0.0
 11
0.0
 21
0.0
 31
0.0
  0
LINE
  5
DEAF
330
DEAC
100
AcDbEntity
  8
0
  6
ByBlock
 62
     0
100
AcDbLine
 10
0.0
 20
0.0
 30
0.0
 11
-1.0
 21
-0.1666666666666666
 31
0.0
  0
LINE
  5
DEB0
330
DEAC
100
AcDbEntity
  8
0
  6
ByBlock
 62
     0
100
AcDbLine
 10
0.0
 20
0.0
 30
0.0
 11
-1.0
 21
0.0
 31
0.0
  0
ENDBLK
  5
DEB1
330
DEAC
100
AcDbEntity
  8
0
100
AcDbBlockEnd
  0
BLOCK
  5
F771
330
F770
100
AcDbEntity
  8
0
 48
50.0
100
AcDbBlockBegin
  2
_DOTSMALL
 70
     0
 10
0.0
 20
0.0
 30
0.0
  3
_DOTSMALL
  1

  0
LWPOLYLINE
  5
F772
330
F770
100
AcDbEntity
  8
0
  6
ByBlock
 62
     0
 48
50.0
100
AcDbPolyline
 90
        2
 70
     1
 43
0.5
 10
-0.0625
 20
0.0
 42
1.0
 10
0.0625
 20
0.0
 42
1.0
  0
ENDBLK
  5
F776
330
F770
100
AcDbEntity
  8
0
 48
50.0
100
AcDbBlockEnd
  0
BLOCK
  5
164BA
330
164B4
100
AcDbEntity
  8
0
 48
50.0
100
AcDbBlockBegin
  2
_DOT
 70
     0
 10
0.0
 20
0.0
 30
0.0
  3
_DOT
  1

  0
LWPOLYLINE
  5
164B5
330
164B4
100
AcDbEntity
  8
0
  6
ByBlock
 62
     0
 48
50.0
100
AcDbPolyline
 90
        2
 70
     1
 43
0.5
 10
-0.25
 20
0.0
 42
1.0
 10
0.25
 20
0.0
 42
1.0
  0
LINE
  5
164B9
330
164B4
100
AcDbEntity
  8
0
  6
ByBlock
 62
     0
 48
50.0
100
AcDbLine
 10
-0.5
 20
0.0
 30
0.0
 11
-1.0
 21
0.0
 31
0.0
  0
ENDBLK
  5
164BB
330
164B4
100
AcDbEntity
  8
0
 48
50.0
100
AcDbBlockEnd
  0
BLOCK
  5
18BC9
330
18BC8
100
AcDbEntity
  8
0
 48
50.0
100
AcDbBlockBegin
  2
*D3
 70
     1
 10
0.0
 20
0.0
 30
0.0
  3
*D3
  1

  0
LINE
  5
18BCA
330
18BC8
100
AcDbEntity
  8
寸法
 62
     0
 48
50.0
370
    -2
100
AcDbLine
 10
7649.896575106999
 20
9636.123139034717
 30
0.0
 11
8702.429862581047
 21
9636.123139034717
 31
0.0
  0
LINE
  5
18BCB
330
18BC8
100
AcDbEntity
  8
寸法
 62
     0
 48
50.0
370
    -2
100
AcDbLine
 10
7649.896575106973
 20
7846.123139034709
 30
0.0
 11
8702.429862581047
 21
7846.123139034709
 31
0.0
  0
LINE
  5
18BCC
330
18BC8
100
AcDbEntity
  8
寸法
 62
     0
 48
50.0
370
    -2
100
AcDbLine
 10
8642.429862581046
 20
9636.123139034717
 30
0.0
 11
8642.429862581046
 21
7846.123139034709
 31
0.0
  0
INSERT
  5
18BCD
330
18BC8
100
AcDbEntity
  8
寸法
 62
     0
 48
50.0
370
    -2
100
AcDbBlockReference
  2
_DOTSMALL
 10
8642.429862581046
 20
9636.123139034717
 30
0.0
 41
100.0
 42
100.0
 43
100.0
 50
90.0
  0
INSERT
  5
18BCE
330
18BC8
100
AcDbEntity
  8
寸法
 62
     0
 48
50.0
370
    -2
100
AcDbBlockReference
  2
_DOTSMALL
 10
8642.429862581046
 20
7846.123139034709
 30
0.0
 41
100.0
 42
100.0
 43
100.0
 50
270.0
  0
MTEXT
  5
18BCF
330
18BC8
100
AcDbEntity
  8
寸法
 62
     7
 48
50.0
100
AcDbMText
 10
8542.429862581045
 20
8741.123139034712
 30
0.0
 40
120.0
 41
0.0
 71
     5
 72
     1
  1
\A1;1790
  7
STYLE1
 11
0.0000000000000001
 21
1.0
 31
0.0
 73
     1
 44
1.0
1001
ACAD
1000
MTEXTBEGIN
1070
    73
1070
     1
1070
    44
1040
1.0
1070
    74
1070
     0
1000
MTEXTEND
  0
POINT
  5
18BD0
330
18BC8
100
AcDbEntity
  8
DEFPOINTS
 62
     0
 48
50.0
100
AcDbPoint
 10
7629.896575106998
 20
9636.123139034717
 30
0.0
  0
POINT
  5
18BD1
330
18BC8
100
AcDbEntity
  8
DEFPOINTS
 62
     0
 48
50.0
100
AcDbPoint
 10
7629.896575106974
 20
7846.123139034709
 30
0.0
  0
POINT
  5
18BD2
330
18BC8
100
AcDbEntity
  8
DEFPOINTS
 62
     0
 48
50.0
100
AcDbPoint
 10
8642.429862581046
 20
7846.123139034709
 30
0.0
  0
ENDBLK
  5
18BD3
330
18BC8
100
AcDbEntity
  8
0
 48
50.0
100
AcDbBlockEnd
  0
BLOCK
  5
18BD5
330
18BD4
100
AcDbEntity
  8
0
 48
50.0
100
AcDbBlockBegin
  2
*D4
 70
     1
 10
0.0
 20
0.0
 30
0.0
  3
*D4
  1

  0
LINE
  5
18BD6
330
18BD4
100
AcDbEntity
  8
寸法
 62
     0
 48
50.0
370
    -2
100
AcDbLine
 10
4214.896575106998
 20
9656.123139034622
 30
0.0
 11
4214.896575106998
 21
10211.93135865972
 31
0.0
  0
LINE
  5
18BD7
330
18BD4
100
AcDbEntity
  8
寸法
 62
     0
 48
50.0
370
    -2
100
AcDbLine
 10
7574.896575106999
 20
9656.123139034718
 30
0.0
 11
7574.896575106999
 21
10211.93135865972
 31
0.0
  0
LINE
  5
18BD8
330
18BD4
100
AcDbEntity
  8
寸法
 62
     0
 48
50.0
370
    -2
100
AcDbLine
 10
4214.896575106998
 20
10151.93135865972
 30
0.0
 11
7574.896575106999
 21
10151.93135865972
 31
0.0
  0
INSERT
  5
18BD9
330
18BD4
100
AcDbEntity
  8
寸法
 62
     0
 48
50.0
370
    -2
100
AcDbBlockReference
  2
_DOTSMALL
 10
4214.896575106998
 20
10151.93135865972
 30
0.0
 41
100.0
 42
100.0
 43
100.0
 50
180.0
  0
INSERT
  5
18BDA
330
18BD4
100
AcDbEntity
  8
寸法
 62
     0
 48
50.0
370
    -2
100
AcDbBlockReference
  2
_DOTSMALL
 10
7574.896575106999
 20
10151.93135865972
 30
0.0
 41
100.0
 42
100.0
 43
100.0
  0
MTEXT
  5
18BDB
330
18BD4
100
AcDbEntity
  8
寸法
 62
     7
 48
50.0
100
AcDbMText
 10
5894.896575106997
 20
10251.94316968334
 30
0.0
 40
120.0
 41
0.0
 71
     5
 72
     1
  1
\A1;8X420=3360
  7
STYLE1
 73
     1
 44
1.0
1001
ACAD
1000
MTEXTBEGIN
1070
    73
1070
     1
1070
    44
1040
1.0
1070
    74
1070
     0
1000
MTEXTEND
  0
POINT
  5
18BDC
330
18BD4
100
AcDbEntity
  8
DEFPOINTS
 62
     0
 48
50.0
100
AcDbPoint
 10
4214.896575106998
 20
9636.123139034623
 30
0.0
  0
POINT
  5
18BDD
330
18BD4
100
AcDbEntity
  8
DEFPOINTS
 62
     0
 48
50.0
100
AcDbPoint
 10
7574.896575106999
 20
9636.123139034717
 30
0.0
  0
POINT
  5
18BDE
330
18BD4
100
AcDbEntity
  8
DEFPOINTS
 62
     0
 48
50.0
100
AcDbPoint
 10
7574.896575106999
 20
10151.93135865972
 30
0.0
  0
ENDBLK
  5
18BDF
330
18BD4
100
AcDbEntity
  8
0
 48
50.0
100
AcDbBlockEnd
  0
BLOCK
  5
18BE1
330
18BE0
100
AcDbEntity
  8
0
 48
50.0
100
AcDbBlockBegin
  2
*D5
 70
     1
 10
0.0
 20
0.0
 30
0.0
  3
*D5
  1

  0
LINE
  5
18BE2
330
18BE0
100
AcDbEntity
  8
寸法
 62
     0
 48
50.0
370
    -2
100
AcDbLine
 10
7574.896575106999
 20
9656.123139034718
 30
0.0
 11
7574.896575106999
 21
10211.9313586597
 31
0.0
  0
LINE
  5
18BE3
330
18BE0
100
AcDbEntity
  8
寸法
 62
     0
 48
50.0
370
    -2
100
AcDbLine
 10
7629.896575106998
 20
9656.123139034718
 30
0.0
 11
7629.896575106998
 21
10211.9313586597
 31
0.0
  0
LINE
  5
18BE4
330
18BE0
100
AcDbEntity
  8
寸法
 62
     0
 48
50.0
370
    -2
100
AcDbLine
 10
7574.896575106999
 20
10151.9313586597
 30
0.0
 11
7474.896575106999
 21
10151.9313586597
 31
0.0
  0
LINE
  5
18BE5
330
18BE0
100
AcDbEntity
  8
寸法
 62
     0
 48
50.0
370
    -2
100
AcDbLine
 10
7629.896575106998
 20
10151.9313586597
 30
0.0
 11
8046.867137855477
 21
10151.9313586597
 31
0.0
  0
LINE
  5
18BE6
330
18BE0
100
AcDbEntity
  8
寸法
 62
     0
 48
50.0
370
    -2
100
AcDbLine
 10
7574.896575106999
 20
10151.9313586597
 30
0.0
 11
7629.896575106998
 21
10151.9313586597
 31
0.0
  0
INSERT
  5
18BE7
330
18BE0
100
AcDbEntity
  8
寸法
 62
     0
 48
50.0
370
    -2
100
AcDbBlockReference
  2
_DOTSMALL
 10
7574.896575106999
 20
10151.9313586597
 30
0.0
 41
100.0
 42
100.0
 43
100.0
  0
INSERT
  5
18BE8
330
18BE0
100
AcDbEntity
  8
寸法
 62
     0
 48
50.0
370
    -2
100
AcDbBlockReference
  2
_DOTSMALL
 10
7629.896575106998
 20
10151.9313586597
 30
0.0
 41
100.0
 42
100.0
 43
100.0
 50
180.0
  0
MTEXT
  5
18BE9
330
18BE0
100
AcDbEntity
  8
寸法
 62
     7
 48
50.0
100
AcDbMText
 10
7938.381856481237
 20
10251.9313586597
 30
0.0
 40
120.0
 41
0.0
 71
     5
 72
     1
  1
\A1;55
  7
STYLE1
 73
     1
 44
1.0
1001
ACAD
1000
MTEXTBEGIN
1070
    73
1070
     1
1070
    44
1040
1.0
1070
    74
1070
     0
1000
MTEXTEND
  0
POINT
  5
18BEA
330
18BE0
100
AcDbEntity
  8
DEFPOINTS
 62
     0
 48
50.0
100
AcDbPoint
 10
7574.896575106999
 20
9636.123139034717
 30
0.0
  0
POINT
  5
18BEB
330
18BE0
100
AcDbEntity
  8
DEFPOINTS
 62
     0
 48
50.0
100
AcDbPoint
 10
7629.896575106998
 20
9636.123139034717
 30
0.0
  0
POINT
  5
18BEC
330
18BE0
100
AcDbEntity
  8
DEFPOINTS
 62
     0
 48
50.0
100
AcDbPoint
 10
7629.896575106998
 20
10151.9313586597
 30
0.0
  0
ENDBLK
  5
18BED
330
18BE0
100
AcDbEntity
  8
0
 48
50.0
100
AcDbBlockEnd
  0
BLOCK
  5
18BEF
330
18BEE
100
AcDbEntity
  8
0
 48
50.0
100
AcDbBlockBegin
  2
*D6
 70
     1
 10
0.0
 20
0.0
 30
0.0
  3
*D6
  1

  0
LINE
  5
18BF0
330
18BEE
100
AcDbEntity
  8
寸法
 62
     0
 48
50.0
370
    -2
100
AcDbLine
 10
7649.896575106999
 20
9636.123139034717
 30
0.0
 11
8337.32292084141
 21
9636.123139034717
 31
0.0
  0
LINE
  5
18BF1
330
18BEE
100
AcDbEntity
  8
寸法
 62
     0
 48
50.0
370
    -2
100
AcDbLine
 10
7649.896575106999
 20
9581.123139034721
 30
0.0
 11
8337.32292084141
 21
9581.123139034721
 31
0.0
  0
LINE
  5
18BF2
330
18BEE
100
AcDbEntity
  8
寸法
 62
     0
 48
50.0
370
    -2
100
AcDbLine
 10
8277.322920841411
 20
9581.123139034721
 30
0.0
 11
8277.322920841411
 21
9481.123139034719
 31
0.0
  0
LINE
  5
18BF3
330
18BEE
100
AcDbEntity
  8
寸法
 62
     0
 48
50.0
370
    -2
100
AcDbLine
 10
8277.322920841411
 20
9636.123139034717
 30
0.0
 11
8277.322920841411
 21
10053.09370178319
 31
0.0
  0
LINE
  5
18BF4
330
18BEE
100
AcDbEntity
  8
寸法
 62
     0
 48
50.0
370
    -2
100
AcDbLine
 10
8277.322920841411
 20
9581.123139034721
 30
0.0
 11
8277.322920841411
 21
9636.123139034717
 31
0.0
  0
INSERT
  5
18BF5
330
18BEE
100
AcDbEntity
  8
寸法
 62
     0
 48
50.0
370
    -2
100
AcDbBlockReference
  2
_DOTSMALL
 10
8277.322920841411
 20
9581.123139034721
 30
0.0
 41
100.0
 42
100.0
 43
100.0
 50
90.0
  0
INSERT
  5
18BF6
330
18BEE
100
AcDbEntity
  8
寸法
 62
     0
 48
50.0
370
    -2
100
AcDbBlockReference
  2
_DOTSMALL
 10
8277.322920841411
 20
9636.123139034717
 30
0.0
 41
100.0
 42
100.0
 43
100.0
 50
270.0
  0
MTEXT
  5
18BF7
330
18BEE
100
AcDbEntity
  8
寸法
 62
     7
 48
50.0
100
AcDbMText
 10
8177.32292084141
 20
9944.608420408957
 30
0.0
 40
120.0
 41
0.0
 71
     5
 72
     1
  1
\A1;55
  7
STYLE1
 11
0.0000000000000001
 21
1.0
 31
0.0
 73
     1
 44
1.0
1001
ACAD
1000
MTEXTBEGIN
1070
    73
1070
     1
1070
    44
1040
1.0
1070
    74
1070
     0
1000
MTEXTEND
  0
POINT
  5
18BF8
330
18BEE
100
AcDbEntity
  8
DEFPOINTS
 62
     0
 48
50.0
100
AcDbPoint
 10
7629.896575106998
 20
9636.123139034717
 30
0.0
  0
POINT
  5
18BF9
330
18BEE
100
AcDbEntity
  8
DEFPOINTS
 62
     0
 48
50.0
100
AcDbPoint
 10
7629.896575106998
 20
9581.123139034721
 30
0.0
  0
POINT
  5
18BFA
330
18BEE
100
AcDbEntity
  8
DEFPOINTS
 62
     0
 48
50.0
100
AcDbPoint
 10
8277.322920841411
 20
9581.123139034721
 30
0.0
  0
ENDBLK
  5
18BFB
330
18BEE
100
AcDbEntity
  8
0
 48
50.0
100
AcDbBlockEnd
  0
BLOCK
  5
18BFD
330
18BFC
100
AcDbEntity
  8
0
 48
50.0
100
AcDbBlockBegin
  2
*D7
 70
     1
 10
0.0
 20
0.0
 30
0.0
  3
*D7
  1

  0
LINE
  5
18BFE
330
18BFC
100
AcDbEntity
  8
寸法
 62
     0
 48
50.0
370
    -2
100
AcDbLine
 10
4159.896575106963
 20
9656.123139034622
 30
0.0
 11
4159.896575106963
 21
10211.9313586596
 31
0.0
  0
LINE
  5
18BFF
330
18BFC
100
AcDbEntity
  8
寸法
 62
     0
 48
50.0
370
    -2
100
AcDbLine
 10
4214.896575106998
 20
9656.123139034622
 30
0.0
 11
4214.896575106998
 21
10211.9313586596
 31
0.0
  0
LINE
  5
18C00
330
18BFC
100
AcDbEntity
  8
寸法
 62
     0
 48
50.0
370
    -2
100
AcDbLine
 10
4214.896575106998
 20
10151.9313586596
 30
0.0
 11
4314.896575106998
 21
10151.9313586596
 31
0.0
  0
LINE
  5
18C01
330
18BFC
100
AcDbEntity
  8
寸法
 62
     0
 48
50.0
370
    -2
100
AcDbLine
 10
4159.896575106963
 20
10151.9313586596
 30
0.0
 11
3742.926012358486
 21
10151.9313586596
 31
0.0
  0
LINE
  5
18C02
330
18BFC
100
AcDbEntity
  8
寸法
 62
     0
 48
50.0
370
    -2
100
AcDbLine
 10
4214.896575106998
 20
10151.9313586596
 30
0.0
 11
4159.896575106963
 21
10151.9313586596
 31
0.0
  0
INSERT
  5
18C03
330
18BFC
100
AcDbEntity
  8
寸法
 62
     0
 48
50.0
370
    -2
100
AcDbBlockReference
  2
_DOTSMALL
 10
4214.896575106998
 20
10151.9313586596
 30
0.0
 41
100.0
 42
100.0
 43
100.0
 50
180.0
  0
INSERT
  5
18C04
330
18BFC
100
AcDbEntity
  8
寸法
 62
     0
 48
50.0
370
    -2
100
AcDbBlockReference
  2
_DOTSMALL
 10
4159.896575106963
 20
10151.9313586596
 30
0.0
 41
100.0
 42
100.0
 43
100.0
  0
MTEXT
  5
18C05
330
18BFC
100
AcDbEntity
  8
寸法
 62
     7
 48
50.0
100
AcDbMText
 10
3851.411293732725
 20
10251.9313586596
 30
0.0
 40
120.0
 41
0.0
 71
     5
 72
     1
  1
\A1;55
  7
STYLE1
 73
     1
 44
1.0
1001
ACAD
1000
MTEXTBEGIN
1070
    73
1070
     1
1070
    44
1040
1.0
1070
    74
1070
     0
1000
MTEXTEND
  0
POINT
  5
18C06
330
18BFC
100
AcDbEntity
  8
DEFPOINTS
 62
     0
 48
50.0
100
AcDbPoint
 10
4159.896575106963
 20
9636.123139034623
 30
0.0
  0
POINT
  5
18C07
330
18BFC
100
AcDbEntity
  8
DEFPOINTS
 62
     0
 48
50.0
100
AcDbPoint
 10
4214.896575106998
 20
9636.123139034623
 30
0.0
  0
POINT
  5
18C08
330
18BFC
100
AcDbEntity
  8
DEFPOINTS
 62
     0
 48
50.0
100
AcDbPoint
 10
4214.896575106998
 20
10151.9313586596
 30
0.0
  0
ENDBLK
  5
18C09
330
18BFC
100
AcDbEntity
  8
0
 48
50.0
100
AcDbBlockEnd
  0
BLOCK
  5
18C0B
330
18C0A
100
AcDbEntity
  8
0
 48
50.0
100
AcDbBlockBegin
  2
*D8
 70
     1
 10
0.0
 20
0.0
 30
0.0
  3
*D8
  1

  0
LINE
  5
18C0C
330
18C0A
100
AcDbEntity
  8
寸法
 62
     0
 48
50.0
370
    -2
100
AcDbLine
 10
4159.896575106992
 20
7826.123139034546
 30
0.0
 11
4159.896575106992
 21
6804.372203245664
 31
0.0
  0
LINE
  5
18C0D
330
18C0A
100
AcDbEntity
  8
寸法
 62
     0
 48
50.0
370
    -2
100
AcDbLine
 10
7629.896575106974
 20
7826.123139034674
 30
0.0
 11
7629.896575106974
 21
6804.372203245664
 31
0.0
  0
LINE
  5
18C0E
330
18C0A
100
AcDbEntity
  8
寸法
 62
     0
 48
50.0
370
    -2
100
AcDbLine
 10
4159.896575106992
 20
6864.372203245665
 30
0.0
 11
7629.896575106974
 21
6864.372203245665
 31
0.0
  0
INSERT
  5
18C0F
330
18C0A
100
AcDbEntity
  8
寸法
 62
     0
 48
50.0
370
    -2
100
AcDbBlockReference
  2
_DOTSMALL
 10
4159.896575106992
 20
6864.372203245665
 30
0.0
 41
100.0
 42
100.0
 43
100.0
 50
180.0
  0
INSERT
  5
18C10
330
18C0A
100
AcDbEntity
  8
寸法
 62
     0
 48
50.0
370
    -2
100
AcDbBlockReference
  2
_DOTSMALL
 10
7629.896575106974
 20
6864.372203245665
 30
0.0
 41
100.0
 42
100.0
 43
100.0
  0
MTEXT
  5
18C11
330
18C0A
100
AcDbEntity
  8
寸法
 62
     7
 48
50.0
100
AcDbMText
 10
5911.12376113973
 20
6964.372203245665
 30
0.0
 40
120.0
 41
0.0
 71
     5
 72
     1
  1
\A1;3470
  7
STYLE1
 73
     1
 44
1.0
1001
ACAD
1000
MTEXTBEGIN
1070
    73
1070
     1
1070
    44
1040
1.0
1070
    74
1070
     0
1000
MTEXTEND
  0
POINT
  5
18C12
330
18C0A
100
AcDbEntity
  8
DEFPOINTS
 62
     0
 48
50.0
100
AcDbPoint
 10
4159.896575106992
 20
7846.123139034546
 30
0.0
  0
POINT
  5
18C13
330
18C0A
100
AcDbEntity
  8
DEFPOINTS
 62
     0
 48
50.0
100
AcDbPoint
 10
7629.896575106974
 20
7846.123139034673
 30
0.0
  0
POINT
  5
18C14
330
18C0A
100
AcDbEntity
  8
DEFPOINTS
 62
     0
 48
50.0
100
AcDbPoint
 10
7629.896575106974
 20
6864.372203245665
 30
0.0
  0
ENDBLK
  5
18C15
330
18C0A
100
AcDbEntity
  8
0
 48
50.0
100
AcDbBlockEnd
  0
BLOCK
  5
18C17
330
18C16
100
AcDbEntity
  8
0
 48
50.0
100
AcDbBlockBegin
  2
*D9
 70
     1
 10
0.0
 20
0.0
 30
0.0
  3
*D9
  1

  0
LINE
  5
18C18
330
18C16
100
AcDbEntity
  8
寸法
 62
     0
 48
50.0
370
    -2
100
AcDbLine
 10
7649.896575106973
 20
7901.123139034706
 30
0.0
 11
8337.322920841385
 21
7901.123139034706
 31
0.0
  0
LINE
  5
18C19
330
18C16
100
AcDbEntity
  8
寸法
 62
     0
 48
50.0
370
    -2
100
AcDbLine
 10
7649.896575106973
 20
7846.123139034709
 30
0.0
 11
8337.322920841385
 21
7846.123139034709
 31
0.0
  0
LINE
  5
18C1A
330
18C16
100
AcDbEntity
  8
寸法
 62
     0
 48
50.0
370
    -2
100
AcDbLine
 10
8277.322920841385
 20
7901.123139034706
 30
0.0
 11
8277.322920841385
 21
8001.123139034707
 31
0.0
  0
LINE
  5
18C1B
330
18C16
100
AcDbEntity
  8
寸法
 62
     0
 48
50.0
370
    -2
100
AcDbLine
 10
8277.322920841385
 20
7846.123139034709
 30
0.0
 11
8277.322920841385
 21
7429.152576286229
 31
0.0
  0
LINE
  5
18C1C
330
18C16
100
AcDbEntity
  8
寸法
 62
     0
 48
50.0
370
    -2
100
AcDbLine
 10
8277.322920841385
 20
7901.123139034706
 30
0.0
 11
8277.322920841385
 21
7846.123139034709
 31
0.0
  0
INSERT
  5
18C1D
330
18C16
100
AcDbEntity
  8
寸法
 62
     0
 48
50.0
370
    -2
100
AcDbBlockReference
  2
_DOTSMALL
 10
8277.322920841385
 20
7901.123139034706
 30
0.0
 41
100.0
 42
100.0
 43
100.0
 50
270.0
  0
INSERT
  5
18C1E
330
18C16
100
AcDbEntity
  8
寸法
 62
     0
 48
50.0
370
    -2
100
AcDbBlockReference
  2
_DOTSMALL
 10
8277.322920841385
 20
7846.123139034709
 30
0.0
 41
100.0
 42
100.0
 43
100.0
 50
90.0
  0
MTEXT
  5
18C1F
330
18C16
100
AcDbEntity
  8
寸法
 62
     7
 48
50.0
100
AcDbMText
 10
8177.322920841383
 20
7537.637857660469
 30
0.0
 40
120.0
 41
0.0
 71
     5
 72
     1
  1
\A1;55
  7
STYLE1
 11
0.0000000000000001
 21
1.0
 31
0.0
 73
     1
 44
1.0
1001
ACAD
1000
MTEXTBEGIN
1070
    73
1070
     1
1070
    44
1040
1.0
1070
    74
1070
     0
1000
MTEXTEND
  0
POINT
  5
18C20
330
18C16
100
AcDbEntity
  8
DEFPOINTS
 62
     0
 48
50.0
100
AcDbPoint
 10
7629.896575106974
 20
7901.123139034706
 30
0.0
  0
POINT
  5
18C21
330
18C16
100
AcDbEntity
  8
DEFPOINTS
 62
     0
 48
50.0
100
AcDbPoint
 10
7629.896575106974
 20
7846.123139034709
 30
0.0
  0
POINT
  5
18C22
330
18C16
100
AcDbEntity
  8
DEFPOINTS
 62
     0
 48
50.0
100
AcDbPoint
 10
8277.322920841385
 20
7846.123139034709
 30
0.0
  0
ENDBLK
  5
18C23
330
18C16
100
AcDbEntity
  8
0
 48
50.0
100
AcDbBlockEnd
  0
BLOCK
  5
18C25
330
18C24
100
AcDbEntity
  8
0
 48
50.0
100
AcDbBlockBegin
  2
*D10
 70
     1
 10
0.0
 20
0.0
 30
0.0
  3
*D10
  1

  0
LINE
  5
18C26
330
18C24
100
AcDbEntity
  8
寸法
 62
     0
 48
50.0
370
    -2
100
AcDbLine
 10
6533.037591258376
 20
9136.123139034728
 30
0.0
 11
6465.083950562664
 21
8882.516699399049
 31
0.0
  0
LINE
  5
18C27
330
18C24
100
AcDbEntity
  8
寸法
 62
     0
 48
50.0
370
    -2
100
AcDbLine
 10
7596.037591258388
 20
9136.123139034721
 30
0.0
 11
7528.083950562677
 21
8882.516699399049
 31
0.0
  0
LINE
  5
18C28
330
18C24
100
AcDbEntity
  8
寸法
 62
     0
 48
50.0
370
    -2
100
AcDbLine
 10
6481.160902108531
 20
8942.51669939905
 30
0.0
 11
7544.160902108544
 21
8942.51669939905
 31
0.0
  0
INSERT
  5
18C29
330
18C24
100
AcDbEntity
  8
寸法
 62
     0
 48
50.0
370
    -2
100
AcDbBlockReference
  2
_DOTSMALL
 10
6481.160902108531
 20
8942.51669939905
 30
0.0
 41
100.0
 42
100.0
 43
100.0
 50
180.0
  0
INSERT
  5
18C2A
330
18C24
100
AcDbEntity
  8
寸法
 62
     0
 48
50.0
370
    -2
100
AcDbBlockReference
  2
_DOTSMALL
 10
7544.160902108544
 20
8942.51669939905
 30
0.0
 41
100.0
 42
100.0
 43
100.0
  0
MTEXT
  5
18C2B
330
18C24
100
AcDbEntity
  8
寸法
 62
     7
 48
50.0
100
AcDbMText
 10
7061.28653022935
 20
9042.516699399049
 30
0.0
 40
120.0
 41
0.0
 71
     5
 72
     1
  1
\A1;1063
  7
STYLE1
 73
     1
 44
1.0
1001
ACAD
1000
MTEXTBEGIN
1070
    73
1070
     1
1070
    44
1040
1.0
1070
    74
1070
     0
1000
MTEXTEND
  0
POINT
  5
18C2C
330
18C24
100
AcDbEntity
  8
DEFPOINTS
 62
     0
 48
50.0
100
AcDbPoint
 10
6538.396575106998
 20
9156.123139034727
 30
0.0
  0
POINT
  5
18C2D
330
18C24
100
AcDbEntity
  8
DEFPOINTS
 62
     0
 48
50.0
100
AcDbPoint
 10
7601.39657510701
 20
9156.12313903472
 30
0.0
  0
POINT
  5
18C2E
330
18C24
100
AcDbEntity
  8
DEFPOINTS
 62
     0
 48
50.0
100
AcDbPoint
 10
7544.160902108544
 20
8942.51669939905
 30
0.0
  0
ENDBLK
  5
18C2F
330
18C24
100
AcDbEntity
  8
0
 48
50.0
100
AcDbBlockEnd
  0
BLOCK
  5
18C31
330
18C30
100
AcDbEntity
  8
0
 48
50.0
100
AcDbBlockBegin
  2
*D11
 70
     1
 10
0.0
 20
0.0
 30
0.0
  3
*D11
  1

  0
LINE
  5
18C32
330
18C30
100
AcDbEntity
  8
寸法
 62
     0
 48
50.0
370
    -2
100
AcDbLine
 10
7621.396575106999
 20
9600.764155186094
 30
0.0
 11
8016.754300969024
 21
9494.828371819961
 31
0.0
  0
LINE
  5
18C33
330
18C30
100
AcDbEntity
  8
寸法
 62
     0
 48
50.0
370
    -2
100
AcDbLine
 10
7621.396575106999
 20
9150.764155186099
 30
0.0
 11
8016.754300969024
 21
9044.828371819964
 31
0.0
  0
LINE
  5
18C34
330
18C30
100
AcDbEntity
  8
寸法
 62
     0
 48
50.0
370
    -2
100
AcDbLine
 10
7956.754300969024
 20
9510.905323365827
 30
0.0
 11
7956.754300969024
 21
9060.90532336583
 31
0.0
  0
INSERT
  5
18C35
330
18C30
100
AcDbEntity
  8
寸法
 62
     0
 48
50.0
370
    -2
100
AcDbBlockReference
  2
_DOTSMALL
 10
7956.754300969024
 20
9510.905323365827
 30
0.0
 41
100.0
 42
100.0
 43
100.0
 50
90.0
  0
INSERT
  5
18C36
330
18C30
100
AcDbEntity
  8
寸法
 62
     0
 48
50.0
370
    -2
100
AcDbBlockReference
  2
_DOTSMALL
 10
7956.754300969024
 20
9060.90532336583
 30
0.0
 41
100.0
 42
100.0
 43
100.0
 50
270.0
  0
MTEXT
  5
18C37
330
18C30
100
AcDbEntity
  8
寸法
 62
     7
 48
50.0
100
AcDbMText
 10
7856.754300969022
 20
9285.905323365829
 30
0.0
 40
120.0
 41
0.0
 71
     5
 72
     1
  1
\A1;450
  7
STYLE1
 11
0.0000000000000001
 21
1.0
 31
0.0
 73
     1
 44
1.0
1001
ACAD
1000
MTEXTBEGIN
1070
    73
1070
     1
1070
    44
1040
1.0
1070
    74
1070
     0
1000
MTEXTEND
  0
POINT
  5
18C38
330
18C30
100
AcDbEntity
  8
DEFPOINTS
 62
     0
 48
50.0
100
AcDbPoint
 10
7601.396575106999
 20
9606.123139034718
 30
0.0
  0
POINT
  5
18C39
330
18C30
100
AcDbEntity
  8
DEFPOINTS
 62
     0
 48
50.0
100
AcDbPoint
 10
7601.396575106999
 20
9156.12313903472
 30
0.0
  0
POINT
  5
18C3A
330
18C30
100
AcDbEntity
  8
DEFPOINTS
 62
     0
 48
50.0
100
AcDbPoint
 10
7956.754300969024
 20
9060.90532336583
 30
0.0
  0
ENDBLK
  5
18C3B
330
18C30
100
AcDbEntity
  8
0
 48
50.0
100
AcDbBlockEnd
  0
BLOCK
  5
18C3D
330
18C3C
100
AcDbEntity
  8
0
 48
50.0
100
AcDbBlockBegin
  2
*D12
 70
     1
 10
0.0
 20
0.0
 30
0.0
  3
*D12
  1

  0
LINE
  5
18C3E
330
18C3C
100
AcDbEntity
  8
寸法
 62
     0
 48
50.0
370
    -2
100
AcDbLine
 10
7649.896575106999
 20
9581.123139034721
 30
0.0
 11
8337.32292084141
 21
9581.123139034721
 31
0.0
  0
LINE
  5
18C3F
330
18C3C
100
AcDbEntity
  8
寸法
 62
     0
 48
50.0
370
    -2
100
AcDbLine
 10
7649.896575106973
 20
7901.123139034706
 30
0.0
 11
8337.32292084141
 21
7901.123139034706
 31
0.0
  0
LINE
  5
18C40
330
18C3C
100
AcDbEntity
  8
寸法
 62
     0
 48
50.0
370
    -2
100
AcDbLine
 10
8277.322920841411
 20
9581.123139034721
 30
0.0
 11
8277.322920841411
 21
7901.123139034706
 31
0.0
  0
INSERT
  5
18C41
330
18C3C
100
AcDbEntity
  8
寸法
 62
     0
 48
50.0
370
    -2
100
AcDbBlockReference
  2
_DOTSMALL
 10
8277.322920841411
 20
9581.123139034721
 30
0.0
 41
100.0
 42
100.0
 43
100.0
 50
90.0
  0
INSERT
  5
18C42
330
18C3C
100
AcDbEntity
  8
寸法
 62
     0
 48
50.0
370
    -2
100
AcDbBlockReference
  2
_DOTSMALL
 10
8277.322920841411
 20
7901.123139034706
 30
0.0
 41
100.0
 42
100.0
 43
100.0
 50
270.0
  0
MTEXT
  5
18C43
330
18C3C
100
AcDbEntity
  8
寸法
 62
     7
 48
50.0
100
AcDbMText
 10
8177.311109817788
 20
8741.123139034712
 30
0.0
 40
120.0
 41
0.0
 71
     5
 72
     1
  1
\A1;4X420=1680
  7
STYLE1
 11
0.0000000000000001
 21
1.0
 31
0.0
 73
     1
 44
1.0
1001
ACAD
1000
MTEXTBEGIN
1070
    73
1070
     1
1070
    44
1040
1.0
1070
    74
1070
     0
1000
MTEXTEND
  0
POINT
  5
18C44
330
18C3C
100
AcDbEntity
  8
DEFPOINTS
 62
     0
 48
50.0
100
AcDbPoint
 10
7629.896575106998
 20
9581.123139034721
 30
0.0
  0
POINT
  5
18C45
330
18C3C
100
AcDbEntity
  8
DEFPOINTS
 62
     0
 48
50.0
100
AcDbPoint
 10
7629.896575106974
 20
7901.123139034706
 30
0.0
  0
POINT
  5
18C46
330
18C3C
100
AcDbEntity
  8
DEFPOINTS
 62
     0
 48
50.0
100
AcDbPoint
 10
8277.322920841411
 20
7901.123139034706
 30
0.0
  0
ENDBLK
  5
18C47
330
18C3C
100
AcDbEntity
  8
0
 48
50.0
100
AcDbBlockEnd
  0
BLOCK
  5
18C49
330
18C48
100
AcDbEntity
  8
0
 48
50.0
100
AcDbBlockBegin
  2
*D13
 70
     1
 10
0.0
 20
0.0
 30
0.0
  3
*D13
  1

  0
LINE
  5
18C4A
330
18C48
100
AcDbEntity
  8
寸法
 62
     0
 48
50.0
370
    -2
100
AcDbLine
 10
4183.037591258377
 20
9136.123139034619
 30
0.0
 11
4115.083950562663
 21
8882.516699398941
 31
0.0
  0
LINE
  5
18C4B
330
18C48
100
AcDbEntity
  8
寸法
 62
     0
 48
50.0
370
    -2
100
AcDbLine
 10
5246.037591258307
 20
9136.123139034671
 30
0.0
 11
5178.08395056258
 21
8882.516699398941
 31
0.0
  0
LINE
  5
18C4C
330
18C48
100
AcDbEntity
  8
寸法
 62
     0
 48
50.0
370
    -2
100
AcDbLine
 10
4131.160902108532
 20
8942.516699398941
 30
0.0
 11
5194.160902108448
 21
8942.516699398941
 31
0.0
  0
INSERT
  5
18C4D
330
18C48
100
AcDbEntity
  8
寸法
 62
     0
 48
50.0
370
    -2
100
AcDbBlockReference
  2
_DOTSMALL
 10
4131.160902108532
 20
8942.516699398941
 30
0.0
 41
100.0
 42
100.0
 43
100.0
 50
180.0
  0
INSERT
  5
18C4E
330
18C48
100
AcDbEntity
  8
寸法
 62
     0
 48
50.0
370
    -2
100
AcDbBlockReference
  2
_DOTSMALL
 10
5194.160902108448
 20
8942.516699398941
 30
0.0
 41
100.0
 42
100.0
 43
100.0
  0
MTEXT
  5
18C4F
330
18C48
100
AcDbEntity
  8
寸法
 62
     7
 48
50.0
100
AcDbMText
 10
4658.986452655306
 20
9042.516699398941
 30
0.0
 40
120.0
 41
0.0
 71
     5
 72
     1
  1
\A1;1063
  7
STYLE1
 73
     1
 44
1.0
1001
ACAD
1000
MTEXTBEGIN
1070
    73
1070
     1
1070
    44
1040
1.0
1070
    74
1070
     0
1000
MTEXTEND
  0
POINT
  5
18C50
330
18C48
100
AcDbEntity
  8
DEFPOINTS
 62
     0
 48
50.0
100
AcDbPoint
 10
4188.396575106999
 20
9156.123139034617
 30
0.0
  0
POINT
  5
18C51
330
18C48
100
AcDbEntity
  8
DEFPOINTS
 62
     0
 48
50.0
100
AcDbPoint
 10
5251.396575106929
 20
9156.123139034672
 30
0.0
  0
POINT
  5
18C52
330
18C48
100
AcDbEntity
  8
DEFPOINTS
 62
     0
 48
50.0
100
AcDbPoint
 10
5194.160902108448
 20
8942.516699398941
 30
0.0
  0
ENDBLK
  5
18C53
330
18C48
100
AcDbEntity
  8
0
 48
50.0
100
AcDbBlockEnd
  0
BLOCK
  5
18C55
330
18C54
100
AcDbEntity
  8
0
 48
50.0
100
AcDbBlockBegin
  2
*D14
 70
     1
 10
0.0
 20
0.0
 30
0.0
  3
*D14
  1

  0
LINE
  5
18C56
330
18C54
100
AcDbEntity
  8
寸法
 62
     0
 48
50.0
370
    -2
100
AcDbLine
 10
5274.037591258307
 20
9136.123139034669
 30
0.0
 11
5206.08395056258
 21
8882.516699398941
 31
0.0
  0
LINE
  5
18C57
330
18C54
100
AcDbEntity
  8
寸法
 62
     0
 48
50.0
370
    -2
100
AcDbLine
 10
6505.037591258377
 20
9136.123139034662
 30
0.0
 11
6437.083950562653
 21
8882.516699398941
 31
0.0
  0
LINE
  5
18C58
330
18C54
100
AcDbEntity
  8
寸法
 62
     0
 48
50.0
370
    -2
100
AcDbLine
 10
5222.160902108448
 20
8942.516699398941
 30
0.0
 11
6453.16090210852
 21
8942.516699398941
 31
0.0
  0
INSERT
  5
18C59
330
18C54
100
AcDbEntity
  8
寸法
 62
     0
 48
50.0
370
    -2
100
AcDbBlockReference
  2
_DOTSMALL
 10
5222.160902108448
 20
8942.516699398941
 30
0.0
 41
100.0
 42
100.0
 43
100.0
 50
180.0
  0
INSERT
  5
18C5A
330
18C54
100
AcDbEntity
  8
寸法
 62
     0
 48
50.0
370
    -2
100
AcDbBlockReference
  2
_DOTSMALL
 10
6453.16090210852
 20
8942.516699398941
 30
0.0
 41
100.0
 42
100.0
 43
100.0
  0
MTEXT
  5
18C5B
330
18C54
100
AcDbEntity
  8
寸法
 62
     7
 48
50.0
100
AcDbMText
 10
6081.244808320626
 20
9042.528510422561
 30
0.0
 40
120.0
 41
0.0
 71
     5
 72
     1
  1
\A1;1231
  7
STYLE1
 73
     1
 44
1.0
1001
ACAD
1000
MTEXTBEGIN
1070
    73
1070
     1
1070
    44
1040
1.0
1070
    74
1070
     0
1000
MTEXTEND
  0
POINT
  5
18C5C
330
18C54
100
AcDbEntity
  8
DEFPOINTS
 62
     0
 48
50.0
100
AcDbPoint
 10
5279.396575106929
 20
9156.123139034669
 30
0.0
  0
POINT
  5
18C5D
330
18C54
100
AcDbEntity
  8
DEFPOINTS
 62
     0
 48
50.0
100
AcDbPoint
 10
6510.396575106999
 20
9156.123139034662
 30
0.0
  0
POINT
  5
18C5E
330
18C54
100
AcDbEntity
  8
DEFPOINTS
 62
     0
 48
50.0
100
AcDbPoint
 10
6453.16090210852
 20
8942.516699398941
 30
0.0
  0
ENDBLK
  5
18C5F
330
18C54
100
AcDbEntity
  8
0
 48
50.0
100
AcDbBlockEnd
  0
BLOCK
  5
18C61
330
18C60
100
AcDbEntity
  8
0
 48
50.0
100
AcDbBlockBegin
  2
*D15
 70
     1
 10
0.0
 20
0.0
 30
0.0
  3
*D15
  1

  0
LINE
  5
18C62
330
18C60
100
AcDbEntity
  8
寸法
 62
     0
 48
50.0
370
    -2
100
AcDbLine
 10
5065.896575106966
 20
7749.123139034579
 30
0.0
 11
5065.896575106966
 21
7099.952920982538
 31
0.0
  0
LINE
  5
18C63
330
18C60
100
AcDbEntity
  8
寸法
 62
     0
 48
50.0
370
    -2
100
AcDbLine
 10
6331.896575106966
 20
7749.123139034579
 30
0.0
 11
6331.896575106966
 21
7099.952920982538
 31
0.0
  0
LINE
  5
18C64
330
18C60
100
AcDbEntity
  8
寸法
 62
     0
 48
50.0
370
    -2
100
AcDbLine
 10
5065.896575106966
 20
7159.952920982537
 30
0.0
 11
6331.896575106966
 21
7159.952920982537
 31
0.0
  0
INSERT
  5
18C65
330
18C60
100
AcDbEntity
  8
寸法
 62
     0
 48
50.0
370
    -2
100
AcDbBlockReference
  2
_DOTSMALL
 10
5065.896575106966
 20
7159.952920982537
 30
0.0
 41
100.0
 42
100.0
 43
100.0
 50
180.0
  0
INSERT
  5
18C66
330
18C60
100
AcDbEntity
  8
寸法
 62
     0
 48
50.0
370
    -2
100
AcDbBlockReference
  2
_DOTSMALL
 10
6331.896575106966
 20
7159.952920982537
 30
0.0
 41
100.0
 42
100.0
 43
100.0
  0
MTEXT
  5
18C67
330
18C60
100
AcDbEntity
  8
寸法
 62
     7
 48
50.0
100
AcDbMText
 10
5711.986008735934
 20
7359.964732006159
 30
0.0
 40
120.0
 41
0.0
 71
     5
 72
     1
  1
\A1;有効開口部間口\P1266
  7
STYLE1
 73
     1
 44
1.0
1001
ACAD
1000
MTEXTBEGIN
1070
    73
1070
     1
1070
    44
1040
1.0
1070
    74
1070
     0
1000
MTEXTEND
  0
POINT
  5
18C68
330
18C60
100
AcDbEntity
  8
DEFPOINTS
 62
     0
 48
50.0
100
AcDbPoint
 10
5065.896575106966
 20
7769.123139034579
 30
0.0
  0
POINT
  5
18C69
330
18C60
100
AcDbEntity
  8
DEFPOINTS
 62
     0
 48
50.0
100
AcDbPoint
 10
6331.896575106966
 20
7769.123139034579
 30
0.0
  0
POINT
  5
18C6A
330
18C60
100
AcDbEntity
  8
DEFPOINTS
 62
     0
 48
50.0
100
AcDbPoint
 10
6331.896575106966
 20
7159.952920982537
 30
0.0
  0
ENDBLK
  5
18C6B
330
18C60
100
AcDbEntity
  8
0
 48
50.0
100
AcDbBlockEnd
  0
BLOCK
  5
18C6D
330
18C6C
100
AcDbEntity
  8
0
 48
50.0
100
AcDbBlockBegin
  2
*D16
 70
     1
 10
0.0
 20
0.0
 30
0.0
  3
*D16
  1

  0
LINE
  5
18C6E
330
18C6C
100
AcDbEntity
  8
寸法
 62
     0
 48
50.0
370
    -2
100
AcDbLine
 10
7200.896575106966
 20
7846.123139034578
 30
0.0
 11
7457.192158500191
 21
7846.123139034578
 31
0.0
  0
LINE
  5
18C6F
330
18C6C
100
AcDbEntity
  8
寸法
 62
     0
 48
50.0
370
    -2
100
AcDbLine
 10
7199.896575106966
 20
7769.123139034579
 30
0.0
 11
7457.192158500191
 21
7769.123139034579
 31
0.0
  0
LINE
  5
18C70
330
18C6C
100
AcDbEntity
  8
寸法
 62
     0
 48
50.0
370
    -2
100
AcDbLine
 10
7417.192158500192
 20
7866.123139034579
 30
0.0
 11
7417.192158500192
 21
7886.123139034578
 31
0.0
  0
LINE
  5
18C71
330
18C6C
100
AcDbEntity
  8
寸法
 62
     0
 48
50.0
370
    -2
100
AcDbLine
 10
7417.192158500192
 20
7749.123139034579
 30
0.0
 11
7417.192158500192
 21
7533.123139034573
 31
0.0
  0
LINE
  5
18C72
330
18C6C
100
AcDbEntity
  8
寸法
 62
     0
 48
50.0
370
    -2
100
AcDbLine
 10
7417.192158500192
 20
7846.123139034578
 30
0.0
 11
7417.192158500192
 21
7769.123139034579
 31
0.0
  0
INSERT
  5
18C73
330
18C6C
100
AcDbEntity
  8
寸法
 62
     0
 48
50.0
370
    -2
100
AcDbBlockReference
  2
_DOT
 10
7417.192158500192
 20
7846.123139034578
 30
0.0
 41
20.0
 42
20.0
 43
20.0
 50
270.0
  0
INSERT
  5
18C74
330
18C6C
100
AcDbEntity
  8
寸法
 62
     0
 48
50.0
370
    -2
100
AcDbBlockReference
  2
_DOT
 10
7417.192158500192
 20
7769.123139034579
 30
0.0
 41
20.0
 42
20.0
 43
20.0
 50
90.0
  0
MTEXT
  5
18C75
330
18C6C
100
AcDbEntity
  8
寸法
 62
     7
 48
50.0
100
AcDbMText
 10
7325.192158500191
 20
7631.123139034575
 30
0.0
 40
120.0
 41
0.0
 71
     5
 72
     1
  1
\A1;77
  7
STYLE1
 11
0.0000000000000001
 21
1.0
 31
0.0
 73
     1
 44
1.0
1001
ACAD
1000
MTEXTBEGIN
1070
    73
1070
     1
1070
    44
1040
1.0
1070
    74
1070
     0
1000
MTEXTEND
  0
POINT
  5
18C76
330
18C6C
100
AcDbEntity
  8
DEFPOINTS
 62
     0
 48
50.0
100
AcDbPoint
 10
7180.896575106967
 20
7846.123139034578
 30
0.0
  0
POINT
  5
18C77
330
18C6C
100
AcDbEntity
  8
DEFPOINTS
 62
     0
 48
50.0
100
AcDbPoint
 10
7179.896575106965
 20
7769.123139034579
 30
0.0
  0
POINT
  5
18C78
330
18C6C
100
AcDbEntity
  8
DEFPOINTS
 62
     0
 48
50.0
100
AcDbPoint
 10
7417.192158500192
 20
7769.123139034579
 30
0.0
  0
ENDBLK
  5
18C79
330
18C6C
100
AcDbEntity
  8
0
 48
50.0
100
AcDbBlockEnd
  0
BLOCK
  5
18DA0
330
18C7A
100
AcDbEntity
  8
0
 48
50.0
100
AcDbBlockBegin
  2
A$C3B1A506B
 70
     0
 10
0.0
 20
0.0
 30
0.0
  3
A$C3B1A506B
  1

  0
MTEXT
  5
18C7B
330
18C7A
100
AcDbEntity
  8
寸法
 62
     7
 48
50.0
100
AcDbMText
 10
3342.250386887194
 20
2778.329429134012
 30
0.0
 40
96.0
 41
0.0
 71
     5
 72
     1
  1
棚 2段
  7
STYLE1
 73
     1
 44
1.0
1001
ACAD
1000
MTEXTBEGIN
1070
    73
1070
     1
1070
    44
1040
1.0
1070
    74
1070
     0
1000
MTEXTEND
  0
MTEXT
  5
18C7C
330
18C7A
100
AcDbEntity
  8
寸法
 62
     7
 48
50.0
100
AcDbMText
 10
2167.25038688716
 20
2778.329429133986
 30
0.0
 40
96.0
 41
0.0
 71
     5
 72
     1
  1
棚 2段
  7
STYLE1
 73
     1
 44
1.0
1001
ACAD
1000
MTEXTBEGIN
1070
    73
1070
     1
1070
    44
1040
1.0
1070
    74
1070
     0
1000
MTEXTEND
  0
MTEXT
  5
18C7D
330
18C7A
100
AcDbEntity
  8
寸法
 62
     7
 48
50.0
100
AcDbMText
 10
992.2503868871608
 20
2778.329429133935
 30
0.0
 40
96.0
 41
0.0
 71
     5
 72
     1
  1
棚 2段
  7
STYLE1
 73
     1
 44
1.0
1001
ACAD
1000
MTEXTBEGIN
1070
    73
1070
     1
1070
    44
1040
1.0
1070
    74
1070
     0
1000
MTEXTEND
  0
LINE
  5
18C7E
330
18C7A
100
AcDbEntity
  8
細線
 48
50.0
100
AcDbLine
 10
2771.970589276527
 20
1368.994384123192
 30
0.0
 11
3398.970589276523
 21
1368.994384123192
 31
0.0
  0
LINE
  5
18C7F
330
18C7A
100
AcDbEntity
  8
細線
 48
50.0
100
AcDbLine
 10
2117.970593930113
 20
1335.285615569113
 30
0.0
 11
3398.970589276523
 21
1335.285615569113
 31
0.0
  0
LINE
  5
18C80
330
18C7A
100
AcDbEntity
  8
細線
 48
50.0
100
AcDbLine
 10
2076.970593930115
 20
1364.690523565368
 30
0.0
 11
1322.970589276523
 21
1364.690523565367
 31
0.0
  0
LINE
  5
18C81
330
18C7A
100
AcDbEntity
  8
細線
100
AcDbLine
 10
3170.720579860066
 20
1388.494284088199
 30
0.0
 11
3173.052119381877
 21
1393.494286728162
 31
0.0
  0
LINE
  5
18C82
330
18C7A
100
AcDbEntity
  8
細線
100
AcDbLine
 10
3240.720589276525
 20
1388.494269174465
 30
0.0
 11
3238.389042800336
 21
1393.494286728144
 31
0.0
  0
LINE
  5
18C83
330
18C7A
100
AcDbEntity
  8
細線
100
AcDbLine
 10
3238.389042800336
 20
1393.494286728144
 30
0.0
 11
3173.052119381862
 21
1393.494286728133
 31
0.0
  0
LINE
  5
18C84
330
18C7A
100
AcDbEntity
  8
細線
100
AcDbLine
 10
3098.389042800336
 20
1393.494286728144
 30
0.0
 11
3033.052119381862
 21
1393.494286728133
 31
0.0
  0
LINE
  5
18C85
330
18C7A
100
AcDbEntity
  8
細線
100
AcDbLine
 10
3100.720589276523
 20
1388.494269174465
 30
0.0
 11
3098.389042800336
 21
1393.494286728144
 31
0.0
  0
LINE
  5
18C86
330
18C7A
100
AcDbEntity
  8
細線
100
AcDbLine
 10
3030.720579860066
 20
1388.494284088199
 30
0.0
 11
3033.052119381875
 21
1393.494286728162
 31
0.0
  0
LINE
  5
18C87
330
18C7A
100
AcDbEntity
  8
細線
100
AcDbLine
 10
2890.720589276525
 20
1388.494269174465
 30
0.0
 11
2893.052128798336
 21
1393.494271814428
 31
0.0
  0
LINE
  5
18C88
330
18C7A
100
AcDbEntity
  8
細線
100
AcDbLine
 10
2960.720598692984
 20
1388.494254260731
 30
0.0
 11
2958.389052216793
 21
1393.49427181441
 31
0.0
  0
LINE
  5
18C89
330
18C7A
100
AcDbEntity
  8
細線
100
AcDbLine
 10
2958.389052216795
 20
1393.49427181441
 30
0.0
 11
2893.052128798321
 21
1393.494271814399
 31
0.0
  0
LINE
  5
18C8A
330
18C7A
100
AcDbEntity
  8
細線
100
AcDbLine
 10
2667.139038146739
 20
1359.494298590735
 30
0.0
 11
2601.802114728263
 21
1359.494298590724
 31
0.0
  0
LINE
  5
18C8B
330
18C7A
100
AcDbEntity
  8
細線
100
AcDbLine
 10
2669.470584622926
 20
1354.494281037055
 30
0.0
 11
2667.139038146737
 21
1359.494298590735
 31
0.0
  0
LINE
  5
18C8C
330
18C7A
100
AcDbEntity
  8
細線
100
AcDbLine
 10
2599.470575206469
 20
1354.49429595079
 30
0.0
 11
2601.802114728278
 21
1359.494298590752
 31
0.0
  0
LINE
  5
18C8D
330
18C7A
100
AcDbEntity
  8
細線
 48
50.0
100
AcDbLine
 10
2440.853968524536
 20
1372.765132327548
 30
0.0
 11
2446.609486107205
 21
1354.494281037057
 31
0.0
  0
LINE
  5
18C8E
330
18C7A
100
AcDbEntity
  8
細線
 48
50.0
100
AcDbLine
 10
2429.925520044106
 20
1372.765132327546
 30
0.0
 11
2440.853968524536
 21
1372.765132327548
 31
0.0
  0
ARC
  5
18C8F
330
18C7A
100
AcDbEntity
  8
細線
 48
50.0
100
AcDbCircle
 10
2424.471163986787
 20
1374.265132327546
 30
0.0
 40
5.0
100
AcDbArc
 50
204.6243183520723
 51
335.3756816479278
  0
ARC
  5
18C90
330
18C7A
100
AcDbEntity
  8
細線
 48
50.0
100
AcDbCircle
 10
2429.925520044106
 20
1371.765132327546
 30
0.0
 40
1.0
100
AcDbArc
 50
90.0
 51
155.3756816479277
  0
ARC
  5
18C91
330
18C7A
100
AcDbEntity
  8
細線
 48
50.0
100
AcDbCircle
 10
2419.016807929469
 20
1371.765132327546
 30
0.0
 40
1.0
100
AcDbArc
 50
24.62431835207225
 51
90.0
  0
LINE
  5
18C92
330
18C7A
100
AcDbEntity
  8
細線
 48
50.0
100
AcDbLine
 10
2408.088359449037
 20
1372.765132327548
 30
0.0
 11
2419.016807929469
 21
1372.765132327546
 31
0.0
  0
LINE
  5
18C93
330
18C7A
100
AcDbEntity
  8
細線
 48
50.0
100
AcDbLine
 10
2402.33284186637
 20
1354.494281037054
 30
0.0
 11
2408.088359449037
 21
1372.765132327548
 31
0.0
  0
LINE
  5
18C94
330
18C7A
100
AcDbEntity
  8
細線
100
AcDbLine
 10
2458.070304175992
 20
1354.494278397076
 30
0.0
 11
2460.401843697802
 21
1359.494281037039
 31
0.0
  0
LINE
  5
18C95
330
18C7A
100
AcDbEntity
  8
細線
100
AcDbLine
 10
2528.070313592451
 20
1354.494263483342
 30
0.0
 11
2525.738767116262
 21
1359.494281037021
 31
0.0
  0
LINE
  5
18C96
330
18C7A
100
AcDbEntity
  8
細線
100
AcDbLine
 10
2525.738767116262
 20
1359.494281037021
 30
0.0
 11
2460.40184369779
 21
1359.49428103701
 31
0.0
  0
LINE
  5
18C97
330
18C7A
100
AcDbEntity
  8
細線
100
AcDbLine
 10
2387.139046332155
 20
1359.494281037021
 30
0.0
 11
2321.80212291368
 21
1359.49428103701
 31
0.0
  0
LINE
  5
18C98
330
18C7A
100
AcDbEntity
  8
細線
100
AcDbLine
 10
2389.470592808342
 20
1354.494263483342
 30
0.0
 11
2387.139046332153
 21
1359.494281037021
 31
0.0
  0
LINE
  5
18C99
330
18C7A
100
AcDbEntity
  8
細線
100
AcDbLine
 10
2319.470584622926
 20
1354.494281037054
 30
0.0
 11
2321.802122913694
 21
1359.494281037039
 31
0.0
  0
LINE
  5
18C9A
330
18C7A
100
AcDbEntity
  8
細線
100
AcDbLine
 10
2179.47061994182
 20
1354.494289224422
 30
0.0
 11
2181.802158232587
 21
1359.494289224407
 31
0.0
  0
LINE
  5
18C9B
330
18C7A
100
AcDbEntity
  8
細線
100
AcDbLine
 10
2249.470628127236
 20
1354.49427167071
 30
0.0
 11
2247.139081651047
 21
1359.494289224389
 31
0.0
  0
LINE
  5
18C9C
330
18C7A
100
AcDbEntity
  8
細線
100
AcDbLine
 10
2247.139081651047
 20
1359.494289224389
 30
0.0
 11
2181.802158232573
 21
1359.494289224378
 31
0.0
  0
LINE
  5
18C9D
330
18C7A
100
AcDbEntity
  8
細線
100
AcDbLine
 10
1807.970585744697
 20
1320.494460905133
 30
0.0
 11
1810.302124035464
 21
1325.494460905118
 31
0.0
  0
LINE
  5
18C9E
330
18C7A
100
AcDbEntity
  8
細線
100
AcDbLine
 10
1877.970593930113
 20
1320.494443351421
 30
0.0
 11
1875.639047453926
 21
1325.4944609051
 31
0.0
  0
LINE
  5
18C9F
330
18C7A
100
AcDbEntity
  8
細線
100
AcDbLine
 10
1875.639047453926
 20
1325.4944609051
 30
0.0
 11
1810.302124035452
 21
1325.494460905089
 31
0.0
  0
LINE
  5
18CA0
330
18C7A
100
AcDbEntity
  8
細線
100
AcDbLine
 10
2015.639047453926
 20
1325.4944609051
 30
0.0
 11
1950.302124035452
 21
1325.494460905089
 31
0.0
  0
LINE
  5
18CA1
330
18C7A
100
AcDbEntity
  8
細線
100
AcDbLine
 10
2017.970593930113
 20
1320.494443351421
 30
0.0
 11
2015.639047453924
 21
1325.4944609051
 31
0.0
  0
LINE
  5
18CA2
330
18C7A
100
AcDbEntity
  8
細線
100
AcDbLine
 10
1947.970585744697
 20
1320.494460905133
 30
0.0
 11
1950.302124035465
 21
1325.494460905118
 31
0.0
  0
LINE
  5
18CA3
330
18C7A
100
AcDbEntity
  8
細線
100
AcDbLine
 10
1735.639047453926
 20
1325.494460905098
 30
0.0
 11
1670.302124035454
 21
1325.494460905087
 31
0.0
  0
LINE
  5
18CA4
330
18C7A
100
AcDbEntity
  8
細線
100
AcDbLine
 10
1737.970593930113
 20
1320.494443351419
 30
0.0
 11
1735.639047453926
 21
1325.494460905098
 31
0.0
  0
LINE
  5
18CA5
330
18C7A
100
AcDbEntity
  8
細線
100
AcDbLine
 10
1667.970585744697
 20
1320.494460905131
 30
0.0
 11
1670.302124035465
 21
1325.494460905116
 31
0.0
  0
LINE
  5
18CA6
330
18C7A
100
AcDbEntity
  8
細線
100
AcDbLine
 10
1527.970593930113
 20
1320.494460905133
 30
0.0
 11
1530.302132220881
 21
1325.494460905118
 31
0.0
  0
LINE
  5
18CA7
330
18C7A
100
AcDbEntity
  8
細線
100
AcDbLine
 10
1597.970602115529
 20
1320.494443351421
 30
0.0
 11
1595.639055639342
 21
1325.4944609051
 31
0.0
  0
LINE
  5
18CA8
330
18C7A
100
AcDbEntity
  8
細線
100
AcDbLine
 10
1595.639055639342
 20
1325.4944609051
 30
0.0
 11
1530.302132220869
 21
1325.494460905089
 31
0.0
  0
ARC
  5
18CA9
330
18C7A
100
AcDbEntity
  8
部品1
 48
0.01
100
AcDbCircle
 10
1483.470482677778
 20
1319.493338720063
 30
0.0
 40
0.5
100
AcDbArc
 50
270.0
 51
0.0
  0
LINE
  5
18CAA
330
18C7A
100
AcDbEntity
  8
部品1
 48
0.01
100
AcDbLine
 10
1483.970482677778
 20
1320.493338720063
 30
0.0
 11
1483.970482677778
 21
1319.493338720063
 31
0.0
  0
LINE
  5
18CAB
330
18C7A
100
AcDbEntity
  8
部品1
 48
0.01
100
AcDbLine
 10
1483.970482677778
 20
1320.493338720063
 30
0.0
 11
1483.970482677778
 21
1319.493338720063
 31
0.0
  0
LINE
  5
18CAC
330
18C7A
100
AcDbEntity
  8
部品1
 48
0.01
100
AcDbLine
 10
1483.470482677778
 20
1318.993338720063
 30
0.0
 11
1476.857977247713
 21
1318.993338720062
 31
0.0
  0
ARC
  5
18CAD
330
18C7A
100
AcDbEntity
  8
部品1
100
AcDbCircle
 10
1476.926326800494
 20
1319.993338720062
 30
0.0
 40
1.0
100
AcDbArc
 50
160.5287793655865
 51
270.0
  0
ARC
  5
18CAE
330
18C7A
100
AcDbEntity
  8
部品1
100
AcDbCircle
 10
1451.470482677778
 20
1328.993338720062
 30
0.0
 40
26.0
100
AcDbArc
 50
340.5287793655865
 51
0.0
  0
LINE
  5
18CAF
330
18C7A
100
AcDbEntity
  8
部品1
100
AcDbLine
 10
1477.470482677778
 20
1328.993338720062
 30
0.0
 11
1477.470482677778
 21
1333.993338720061
 31
0.0
  0
ARC
  5
18CB0
330
18C7A
100
AcDbEntity
  8
部品1
 48
0.01
100
AcDbCircle
 10
1475.470482677778
 20
1333.993338720061
 30
0.0
 40
2.0
100
AcDbArc
 50
0.0
 51
90.0
  0
ARC
  5
18CB1
330
18C7A
100
AcDbEntity
  8
部品1
100
AcDbCircle
 10
1473.862091052968
 20
1332.993338720062
 30
0.0
 40
3.0
100
AcDbArc
 50
90.0
 51
141.6069559808035
  0
LINE
  5
18CB2
330
18C7A
100
AcDbEntity
  8
部品1
 48
0.01
100
AcDbLine
 10
1475.470482677778
 20
1335.993338720062
 30
0.0
 11
1473.862091052968
 21
1335.993338720062
 31
0.0
  0
ARC
  5
18CB3
330
18C7A
100
AcDbEntity
  8
部品1
100
AcDbCircle
 10
1455.399768463507
 20
1332.293338720065
 30
0.0
 40
3.0
100
AcDbArc
 50
254.0576313943215
 51
270.0
  0
ARC
  5
18CB4
330
18C7A
100
AcDbEntity
  8
部品1
100
AcDbCircle
 10
1462.541196892049
 20
1332.293338720065
 30
0.0
 40
3.0
100
AcDbArc
 50
270.0
 51
285.9423686056786
  0
LINE
  5
18CB5
330
18C7A
100
AcDbEntity
  8
部品1
100
AcDbLine
 10
1462.541196892049
 20
1329.293338720064
 30
0.0
 11
1455.399768463507
 21
1329.293338720064
 31
0.0
  0
ARC
  5
18CB6
330
18C7A
100
AcDbEntity
  8
部品1
100
AcDbCircle
 10
1458.970482677778
 20
1344.793338720065
 30
0.0
 40
16.0
100
AcDbArc
 50
285.9423686056786
 51
321.6069559808035
  0
LINE
  5
18CB7
330
18C7A
100
AcDbEntity
  8
部品1
 48
0.01
100
AcDbLine
 10
1442.470482677778
 20
1335.993338720062
 30
0.0
 11
1444.078874302588
 21
1335.993338720062
 31
0.0
  0
ARC
  5
18CB8
330
18C7A
100
AcDbEntity
  8
部品1
100
AcDbCircle
 10
1444.078874302588
 20
1332.993338720062
 30
0.0
 40
3.0
100
AcDbArc
 50
38.39304401919648
 51
90.0
  0
ARC
  5
18CB9
330
18C7A
100
AcDbEntity
  8
部品1
100
AcDbCircle
 10
1458.970482677778
 20
1344.793338720065
 30
0.0
 40
16.0
100
AcDbArc
 50
218.3930440191965
 51
254.0576313943215
  0
LINE
  5
18CBA
330
18C7A
100
AcDbEntity
  8
部品1
100
AcDbLine
 10
1440.470482677778
 20
1328.993338720062
 30
0.0
 11
1440.470482677778
 21
1333.993338720061
 31
0.0
  0
ARC
  5
18CBB
330
18C7A
100
AcDbEntity
  8
部品1
 48
0.01
100
AcDbCircle
 10
1442.470482677778
 20
1333.993338720061
 30
0.0
 40
2.0
100
AcDbArc
 50
90.0
 51
180.0
  0
ARC
  5
18CBC
330
18C7A
100
AcDbEntity
  8
部品1
100
AcDbCircle
 10
1466.470482677778
 20
1328.993338720062
 30
0.0
 40
26.0
100
AcDbArc
 50
180.0
 51
199.4712206344134
  0
ARC
  5
18CBD
330
18C7A
100
AcDbEntity
  8
部品1
 48
0.01
100
AcDbCircle
 10
1434.470482677778
 20
1319.493338720063
 30
0.0
 40
0.5
100
AcDbArc
 50
180.0
 51
270.0
  0
LINE
  5
18CBE
330
18C7A
100
AcDbEntity
  8
部品1
 48
0.01
100
AcDbLine
 10
1434.470482677778
 20
1318.993338720063
 30
0.0
 11
1441.014638555061
 21
1318.993338720062
 31
0.0
  0
LINE
  5
18CBF
330
18C7A
100
AcDbEntity
  8
部品1
 48
0.01
100
AcDbLine
 10
1433.970482677778
 20
1320.493338720063
 30
0.0
 11
1433.970482677778
 21
1319.493338720063
 31
0.0
  0
ARC
  5
18CC0
330
18C7A
100
AcDbEntity
  8
部品1
100
AcDbCircle
 10
1441.014638555061
 20
1319.993338720062
 30
0.0
 40
1.0
100
AcDbArc
 50
270.0
 51
19.47122063441346
  0
LINE
  5
18CC1
330
18C7A
100
AcDbEntity
  8
細線
100
AcDbLine
 10
1479.470482677785
 20
1338.493338720065
 30
0.0
 11
1438.470482677785
 21
1338.493338720058
 31
0.0
  0
LINE
  5
18CC2
330
18C7A
100
AcDbEntity
  8
細線
100
AcDbLine
 10
1438.470482677785
 20
1338.493338720058
 30
0.0
 11
1438.470482677785
 21
1320.49333872004
 31
0.0
  0
LINE
  5
18CC3
330
18C7A
100
AcDbEntity
  8
細線
100
AcDbLine
 10
1479.470482677785
 20
1338.493338720065
 30
0.0
 11
1479.470482677785
 21
1320.49333872004
 31
0.0
  0
LINE
  5
18CC4
330
18C7A
100
AcDbEntity
  8
細線
100
AcDbLine
 10
1322.970589276523
 20
1324.494269174465
 30
0.0
 11
1322.970589276523
 21
1320.494269174513
 31
0.0
  0
LINE
  5
18CC5
330
18C7A
100
AcDbEntity
  8
寸法
 48
50.0
100
AcDbLine
 10
1746.17359555837
 20
1170.531020743327
 30
0.0
 11
1694.767587648266
 21
1170.531020743327
 31
0.0
  0
LINE
  5
18CC6
330
18C7A
100
AcDbEntity
  8
寸法
 48
50.0
100
AcDbLine
 10
1694.767587648266
 20
1170.531020743327
 30
0.0
 11
1694.767587648266
 21
1201.841179395494
 31
0.0
  0
LINE
  5
18CC7
330
18C7A
100
AcDbEntity
  8
寸法
 48
50.0
100
AcDbLine
 10
1694.767587648266
 20
1201.841179395494
 30
0.0
 11
1665.006255656843
 21
1201.841179395494
 31
0.0
  0
LINE
  5
18CC8
330
18C7A
100
AcDbEntity
  8
寸法
 48
50.0
100
AcDbLine
 10
1665.006255656843
 20
1201.841179395494
 30
0.0
 11
1720.470591603318
 21
1239.420630324105
 31
0.0
  0
LINE
  5
18CC9
330
18C7A
100
AcDbEntity
  8
寸法
 48
50.0
100
AcDbLine
 10
1775.934927549793
 20
1201.841179395494
 30
0.0
 11
1720.470591603318
 21
1239.420630324105
 31
0.0
  0
LINE
  5
18CCA
330
18C7A
100
AcDbEntity
  8
寸法
 48
50.0
100
AcDbLine
 10
1746.17359555837
 20
1201.841179395494
 30
0.0
 11
1775.934927549793
 21
1201.841179395494
 31
0.0
  0
LINE
  5
18CCB
330
18C7A
100
AcDbEntity
  8
寸法
 48
50.0
100
AcDbLine
 10
1746.17359555837
 20
1170.531020743327
 30
0.0
 11
1746.17359555837
 21
1201.841179395494
 31
0.0
  0
LINE
  5
18CCC
330
18C7A
100
AcDbEntity
  8
寸法
 48
50.0
100
AcDbLine
 10
1694.767587648266
 20
1170.531020743327
 30
0.0
 11
1746.17359555837
 21
1170.531020743327
 31
0.0
  0
LINE
  5
18CCD
330
18C7A
100
AcDbEntity
  8
寸法
 48
50.0
100
AcDbLine
 10
2025.339129835225
 20
1227.676611498152
 30
0.0
 11
2025.339129835225
 21
1174.01297691636
 31
0.0
  0
LINE
  5
18CCE
330
18C7A
100
AcDbEntity
  8
寸法
 48
50.0
100
AcDbLine
 10
2114.623348430647
 20
1203.752977228664
 30
0.0
 11
2025.339129835225
 21
1227.676611498152
 31
0.0
  0
LINE
  5
18CCF
330
18C7A
100
AcDbEntity
  8
寸法
 48
50.0
100
AcDbLine
 10
1895.471408254923
 20
1203.752977228664
 30
0.0
 11
2114.623348430647
 21
1203.752977228664
 31
0.0
  0
DIMENSION
  5
18CD0
330
18C7A
100
AcDbEntity
  8
寸法
 48
50.0
100
AcDbDimension
  2
*D15
 10
2588.970589276523
 20
706.3240511224249
 30
0.0
 11
1969.060022905491
 21
706.3240511224249
 31
0.0
 12
-3742.925985830444
 22
-6453.628869860112
 32
0.0
 70
   128
  1
有効開口部間口\P<>
 71
     5
 42
1266.0
  3
INABA_S40G
100
AcDbAlignedDimension
 13
1322.970589276523
 23
1315.494269174465
 33
0.0
 14
2588.970589276523
 24
1315.494269174465
 34
0.0
100
AcDbRotatedDimension
1001
ACAD
1000
DSTYLE
1002
{
1070
   341
1005
0
1002
}
  0
LINE
  5
18CD1
330
18C7A
100
AcDbEntity
  8
部品1
100
AcDbLine
 10
3409.970589276524
 20
1392.494269174465
 30
0.0
 11
3437.970589276523
 21
1392.494269174465
 31
0.0
  0
DIMENSION
  5
18CD2
330
18C7A
100
AcDbEntity
  8
寸法
100
AcDbDimension
  2
*D16
 10
3674.266172669749
 20
1315.494269174465
 30
0.0
 11
3674.266172669748
 21
1177.494269174462
 31
0.0
 12
-3742.925985830444
 22
-6453.628869860112
 32
0.0
 70
   128
 71
     5
 42
77.0
  3
INABA_S40
100
AcDbAlignedDimension
 13
3437.970589276523
 23
1392.494269174465
 33
0.0
 14
3436.970589276523
 24
1315.494269174465
 34
0.0
 50
90.0
100
AcDbRotatedDimension
1001
ACAD
1000
DSTYLE
1002
{
1070
    41
1040
0.5
1070
    44
1040
1.0
1070
   147
1040
0.8
1070
   271
1070
     2
1070
   272
1070
     2
1070
   289
1070
     3
1070
   340
1005
F706
1070
   343
1005
164B4
1070
   344
1005
164B4
1002
}
  0
LINE
  5
18CD3
330
18C7A
100
AcDbEntity
  8
部品1
100
AcDbLine
 10
3437.970589276523
 20
1315.494269174465
 30
0.0
 11
3437.970589276523
 21
1392.494269174465
 31
0.0
  0
LINE
  5
18CD4
330
18C7A
100
AcDbEntity
  8
部品1
100
AcDbLine
 10
3398.970589276523
 20
1388.494269174465
 30
0.0
 11
3409.970589276524
 21
1388.494269174465
 31
0.0
  0
LINE
  5
18CD5
330
18C7A
100
AcDbEntity
  8
部品1
100
AcDbLine
 10
3407.970589276523
 20
1324.494269174465
 30
0.0
 11
3407.970589276523
 21
1315.494269174465
 31
0.0
  0
LINE
  5
18CD6
330
18C7A
100
AcDbEntity
  8
部品1
100
AcDbLine
 10
3398.970589276523
 20
1324.494269174465
 30
0.0
 11
3407.970589276523
 21
1324.494269174465
 31
0.0
  0
LINE
  5
18CD7
330
18C7A
100
AcDbEntity
  8
部品1
100
AcDbLine
 10
3398.970589276523
 20
1388.494269174465
 30
0.0
 11
3398.970589276523
 21
1324.494269174465
 31
0.0
  0
LINE
  5
18CD8
330
18C7A
100
AcDbEntity
  8
部品1
100
AcDbLine
 10
3409.970589276524
 20
1419.494269174465
 30
0.0
 11
3409.970589276524
 21
1388.494269174465
 31
0.0
  0
LINE
  5
18CD9
330
18C7A
100
AcDbEntity
  8
部品1
100
AcDbLine
 10
1322.970589276523
 20
1388.494269174465
 30
0.0
 11
1311.970589276523
 21
1388.494269174465
 31
0.0
  0
LINE
  5
18CDA
330
18C7A
100
AcDbEntity
  8
部品1
100
AcDbLine
 10
1283.970589276523
 20
1392.494269174465
 30
0.0
 11
1311.970589276523
 21
1392.494269174465
 31
0.0
  0
LINE
  5
18CDB
330
18C7A
100
AcDbEntity
  8
部品1
100
AcDbLine
 10
1313.970589276523
 20
1324.494269174465
 30
0.0
 11
1313.970589276523
 21
1315.494269174465
 31
0.0
  0
LINE
  5
18CDC
330
18C7A
100
AcDbEntity
  8
部品1
100
AcDbLine
 10
1322.970589276523
 20
1324.494269174465
 30
0.0
 11
1313.970589276523
 21
1324.494269174465
 31
0.0
  0
LINE
  5
18CDD
330
18C7A
100
AcDbEntity
  8
部品1
100
AcDbLine
 10
1313.970589276523
 20
1315.494269174465
 30
0.0
 11
1283.970589276523
 21
1315.494269174465
 31
0.0
  0
LINE
  5
18CDE
330
18C7A
100
AcDbEntity
  8
部品1
100
AcDbLine
 10
1283.970589276523
 20
1315.494269174465
 30
0.0
 11
1283.970589276523
 21
1392.494269174465
 31
0.0
  0
LINE
  5
18CDF
330
18C7A
100
AcDbEntity
  8
部品1
100
AcDbLine
 10
1322.970589276523
 20
1388.494269174465
 30
0.0
 11
1322.970589276523
 21
1324.494269174465
 31
0.0
  0
LINE
  5
18CE0
330
18C7A
100
AcDbEntity
  8
部品1
100
AcDbLine
 10
1311.970589276523
 20
1419.494269174462
 30
0.0
 11
1311.970589276523
 21
1388.494269174465
 31
0.0
  0
LINE
  5
18CE1
330
18C7A
100
AcDbEntity
  8
部品1
100
AcDbLine
 10
1311.970589276523
 20
1419.494269174462
 30
0.0
 11
3409.970589276524
 21
1419.494269174465
 31
0.0
  0
LINE
  5
18CE2
330
18C7A
100
AcDbEntity
  8
部品1
100
AcDbLine
 10
3407.970589276523
 20
1315.494269174465
 30
0.0
 11
3437.970589276523
 21
1315.494269174465
 31
0.0
  0
LINE
  5
18CE3
330
18C7A
100
AcDbEntity
  8
部品1
100
AcDbLine
 10
1313.970589276523
 20
1315.494269174465
 30
0.0
 11
3410.970589276523
 21
1315.494269174465
 31
0.0
  0
LINE
  5
18CE4
330
18C7A
100
AcDbEntity
  8
細線
  6
Continuous
 62
     5
100
AcDbLine
 10
2689.970589276527
 20
1354.494269174462
 30
0.0
 11
2689.970589276527
 21
1354.494269174462
 31
0.0
  0
LINE
  5
18CE5
330
18C7A
100
AcDbEntity
  8
細線
  6
Continuous
 62
     5
100
AcDbLine
 10
2682.470589276527
 20
1354.494269174462
 30
0.0
 11
2682.470589276527
 21
1354.494269174462
 31
0.0
  0
LINE
  5
18CE6
330
18C7A
100
AcDbEntity
  8
細線
  6
Continuous
 62
     5
100
AcDbLine
 10
2676.470589276527
 20
1354.494269174462
 30
0.0
 11
2676.470589276527
 21
1354.494269174462
 31
0.0
  0
LINE
  5
18CE7
330
18C7A
100
AcDbEntity
  8
細線
  6
Continuous
 62
     5
100
AcDbLine
 10
2743.970589276527
 20
1373.494269174462
 30
0.0
 11
2743.970589276527
 21
1373.494269174462
 31
0.0
  0
LINE
  5
18CE8
330
18C7A
100
AcDbEntity
  8
細線
 48
50.0
100
AcDbLine
 10
1336.970593930116
 20
1341.094443351418
 30
0.0
 11
1336.970593930113
 21
1349.490593759059
 31
0.0
  0
LINE
  5
18CE9
330
18C7A
100
AcDbEntity
  8
細線
 48
50.0
100
AcDbLine
 10
1336.970593930113
 20
1349.490593759059
 30
0.0
 11
1322.970589276523
 21
1349.490593759057
 31
0.0
  0
LINE
  5
18CEA
330
18C7A
100
AcDbEntity
  8
細線
 48
50.0
100
AcDbLine
 10
2087.970593930113
 20
1337.644443351419
 30
0.0
 11
2087.970593930113
 21
1342.494443351421
 31
0.0
  0
LINE
  5
18CEB
330
18C7A
100
AcDbEntity
  8
細線
 48
50.0
100
AcDbLine
 10
2087.970593930113
 20
1342.494443351421
 30
0.0
 11
2102.970593930113
 21
1342.494443351421
 31
0.0
  0
LINE
  5
18CEC
330
18C7A
100
AcDbEntity
  8
細線
 48
50.0
100
AcDbLine
 10
2102.970593930113
 20
1342.494443351421
 30
0.0
 11
2102.970593930115
 21
1349.494443351419
 31
0.0
  0
LINE
  5
18CED
330
18C7A
100
AcDbEntity
  8
細線
 48
50.0
100
AcDbLine
 10
2102.970593930115
 20
1349.494443351419
 30
0.0
 11
2117.970593930113
 21
1349.494443351419
 31
0.0
  0
LINE
  5
18CEE
330
18C7A
100
AcDbEntity
  8
細線
 48
50.0
100
AcDbLine
 10
2117.970593930113
 20
1349.494443351419
 30
0.0
 11
2117.970593930113
 21
1320.494443351421
 31
0.0
  0
LINE
  5
18CEF
330
18C7A
100
AcDbEntity
  8
細線
 48
50.0
100
AcDbLine
 10
1313.970589276523
 20
1320.491777694889
 30
0.0
 11
1527.970593930113
 21
1320.494460905133
 31
0.0
  0
LINE
  5
18CF0
330
18C7A
100
AcDbEntity
  8
細線
 48
50.0
100
AcDbLine
 10
2017.970593930113
 20
1320.494443351421
 30
0.0
 11
2117.970593930113
 21
1320.494443351421
 31
0.0
  0
LINE
  5
18CF1
330
18C7A
100
AcDbEntity
  8
細線
 48
50.0
100
AcDbLine
 10
1737.970593930113
 20
1320.494443351419
 30
0.0
 11
1807.970593930113
 21
1320.494443351423
 31
0.0
  0
LINE
  5
18CF2
330
18C7A
100
AcDbEntity
  8
細線
 48
50.0
100
AcDbLine
 10
1750.832558942642
 20
1320.494443351419
 30
0.0
 11
1756.588076525309
 21
1338.765294641913
 31
0.0
  0
LINE
  5
18CF3
330
18C7A
100
AcDbEntity
  8
細線
 48
50.0
100
AcDbLine
 10
1756.588076525309
 20
1338.765294641913
 30
0.0
 11
1767.516525005743
 21
1338.765294641911
 31
0.0
  0
ARC
  5
18CF4
330
18C7A
100
AcDbEntity
  8
細線
 48
50.0
100
AcDbCircle
 10
1767.516525005743
 20
1337.765294641911
 30
0.0
 40
1.0
100
AcDbArc
 50
24.62431835207225
 51
90.0
  0
ARC
  5
18CF5
330
18C7A
100
AcDbEntity
  8
細線
 48
50.0
100
AcDbCircle
 10
1778.425237120377
 20
1337.765294641911
 30
0.0
 40
1.0
100
AcDbArc
 50
90.0
 51
155.3756816479277
  0
ARC
  5
18CF6
330
18C7A
100
AcDbEntity
  8
細線
 48
50.0
100
AcDbCircle
 10
1772.970881063058
 20
1340.265294641911
 30
0.0
 40
5.0
100
AcDbArc
 50
204.6243183520723
 51
335.3756816479278
  0
LINE
  5
18CF7
330
18C7A
100
AcDbEntity
  8
細線
 48
50.0
100
AcDbLine
 10
1778.425237120377
 20
1338.765294641911
 30
0.0
 11
1789.35368560081
 21
1338.765294641913
 31
0.0
  0
LINE
  5
18CF8
330
18C7A
100
AcDbEntity
  8
細線
 48
50.0
100
AcDbLine
 10
1789.35368560081
 20
1338.765294641913
 30
0.0
 11
1795.109203183478
 21
1320.494443351423
 31
0.0
  0
LINE
  5
18CF9
330
18C7A
100
AcDbEntity
  8
細線
 48
50.0
100
AcDbLine
 10
2087.970593930113
 20
1341.094443351419
 30
0.0
 11
1336.970593930116
 21
1341.094443351418
 31
0.0
  0
LINE
  5
18CFA
330
18C7A
100
AcDbEntity
  8
細線
 48
50.0
100
AcDbLine
 10
1947.970593930113
 20
1320.494443351421
 30
0.0
 11
1877.970593930113
 21
1320.494443351421
 31
0.0
  0
LINE
  5
18CFB
330
18C7A
100
AcDbEntity
  8
細線
100
AcDbLine
 10
1667.970593930113
 20
1320.494443351421
 30
0.0
 11
1597.970602115529
 21
1320.494443351421
 31
0.0
  0
LINE
  5
18CFC
330
18C7A
100
AcDbEntity
  8
細線
 48
50.0
100
AcDbLine
 10
2741.970584622936
 20
1375.094487209288
 30
0.0
 11
2106.970593930113
 21
1375.094487209284
 31
0.0
  0
LINE
  5
18CFD
330
18C7A
100
AcDbEntity
  8
細線
 48
50.0
100
AcDbLine
 10
2106.970593930113
 20
1371.990637616925
 30
0.0
 11
2106.970593930113
 21
1376.490637616925
 31
0.0
  0
LINE
  5
18CFE
330
18C7A
100
AcDbEntity
  8
細線
 48
50.0
100
AcDbLine
 10
2106.970593930113
 20
1376.490637616925
 30
0.0
 11
2091.970593930113
 21
1376.490637616925
 31
0.0
  0
LINE
  5
18CFF
330
18C7A
100
AcDbEntity
  8
細線
 48
50.0
100
AcDbLine
 10
2091.970593930113
 20
1376.490637616925
 30
0.0
 11
2091.970593930113
 21
1383.490637616927
 31
0.0
  0
LINE
  5
18D00
330
18C7A
100
AcDbEntity
  8
細線
 48
50.0
100
AcDbLine
 10
2091.970593930113
 20
1383.490637616927
 30
0.0
 11
2076.970593930115
 21
1383.490637616924
 31
0.0
  0
LINE
  5
18D01
330
18C7A
100
AcDbEntity
  8
細線
 48
50.0
100
AcDbLine
 10
2076.970593930115
 20
1383.490637616924
 30
0.0
 11
2076.970593930115
 21
1345.890409513813
 31
0.0
  0
LINE
  5
18D02
330
18C7A
100
AcDbEntity
  8
細線
 48
50.0
100
AcDbLine
 10
2076.970593930115
 20
1345.890409513813
 30
0.0
 11
2096.970601231289
 21
1345.890451063353
 31
0.0
  0
LINE
  5
18D03
330
18C7A
100
AcDbEntity
  8
細線
 48
50.0
100
AcDbLine
 10
2096.970556362348
 20
1354.493912699161
 30
0.0
 11
2096.970601231289
 21
1345.890451063353
 31
0.0
  0
LINE
  5
18D04
330
18C7A
100
AcDbEntity
  8
細線
 48
50.0
100
AcDbLine
 10
2741.970584622936
 20
1371.644487209287
 30
0.0
 11
2741.970584622936
 21
1376.494487209284
 31
0.0
  0
LINE
  5
18D05
330
18C7A
100
AcDbEntity
  8
細線
 48
50.0
100
AcDbLine
 10
2741.970584622936
 20
1376.494487209284
 30
0.0
 11
2756.970584622934
 21
1376.494487209285
 31
0.0
  0
LINE
  5
18D06
330
18C7A
100
AcDbEntity
  8
細線
 48
50.0
100
AcDbLine
 10
2756.970584622934
 20
1376.494487209285
 30
0.0
 11
2756.970596256909
 21
1383.494487209331
 31
0.0
  0
LINE
  5
18D07
330
18C7A
100
AcDbEntity
  8
細線
 48
50.0
100
AcDbLine
 10
2756.970596256909
 20
1383.494487209331
 30
0.0
 11
2771.970594427439
 21
1383.494487209329
 31
0.0
  0
LINE
  5
18D08
330
18C7A
100
AcDbEntity
  8
細線
 48
50.0
100
AcDbLine
 10
2771.970594427439
 20
1383.494487209329
 30
0.0
 11
2771.970584125617
 21
1354.494281037055
 31
0.0
  0
LINE
  5
18D09
330
18C7A
100
AcDbEntity
  8
細線
 48
50.0
100
AcDbLine
 10
2458.070304175992
 20
1354.494278397076
 30
0.0
 11
2389.470863838818
 21
1354.494283787084
 31
0.0
  0
LINE
  5
18D0A
330
18C7A
100
AcDbEntity
  8
細線
 48
50.0
100
AcDbLine
 10
2096.970556362348
 20
1354.493912699161
 30
0.0
 11
2108.203245717057
 21
1354.494095652309
 31
0.0
  0
ARC
  5
18D0B
330
18C7A
100
AcDbEntity
  8
細線
 48
50.0
100
AcDbCircle
 10
2114.785538024393
 20
1353.294259565922
 30
0.0
 40
1.8
100
AcDbArc
 50
270.0006665777295
 51
345.000555481349
  0
LINE
  5
18D0C
330
18C7A
100
AcDbEntity
  8
細線
 48
50.0
100
AcDbLine
 10
2116.771971470473
 20
1353.753100023201
 30
0.0
 11
2116.524209028273
 21
1352.828402141094
 31
0.0
  0
LINE
  5
18D0D
330
18C7A
100
AcDbEntity
  8
細線
 48
50.0
100
AcDbLine
 10
2114.785558965548
 20
1351.494259566043
 30
0.0
 11
2111.155631546781
 21
1351.494217335563
 31
0.0
  0
ARC
  5
18D0E
330
18C7A
100
AcDbEntity
  8
細線
 48
50.0
100
AcDbCircle
 10
2111.155610605627
 20
1353.29421733544
 30
0.0
 40
1.8
100
AcDbArc
 50
195.0010443049965
 51
270.0006665777295
  0
LINE
  5
18D0F
330
18C7A
100
AcDbEntity
  8
細線
 48
50.0
100
AcDbLine
 10
2109.169183113368
 20
1353.752932303007
 30
0.0
 11
2109.416952609882
 21
1352.828311364425
 31
0.0
  0
ARC
  5
18D10
330
18C7A
100
AcDbEntity
  8
細線
 48
50.0
100
AcDbCircle
 10
2108.203262004622
 20
1353.494095652444
 30
0.0
 40
1.0
100
AcDbArc
 50
15.00104430499651
 51
90.00093320877969
  0
LINE
  5
18D11
330
18C7A
100
AcDbEntity
  8
細線
 48
50.0
100
AcDbLine
 10
2117.737892825577
 20
1354.494290342714
 30
0.0
 11
2118.679652976481
 21
1354.494296916564
 31
0.0
  0
ARC
  5
18D12
330
18C7A
100
AcDbEntity
  8
細線
 48
50.0
100
AcDbCircle
 10
2117.737899805961
 20
1353.49429034274
 30
0.0
 40
1.0
100
AcDbArc
 50
90.0003999466794
 51
165.000555481349
  0
LINE
  5
18D13
330
18C7A
100
AcDbEntity
  8
細線
 48
50.0
100
AcDbLine
 10
2669.470584622926
 20
1354.494281037055
 30
0.0
 11
2771.970584125617
 21
1354.494281037055
 31
0.0
  0
LINE
  5
18D14
330
18C7A
100
AcDbEntity
  8
細線
 48
50.0
100
AcDbLine
 10
2179.47061994182
 20
1354.494289224422
 30
0.0
 11
2118.370558714898
 21
1354.494296916564
 31
0.0
  0
LINE
  5
18D15
330
18C7A
100
AcDbEntity
  8
細線
 48
50.0
100
AcDbLine
 10
2599.470584622926
 20
1354.494281037057
 30
0.0
 11
2529.470584622926
 21
1354.494281037055
 31
0.0
  0
LINE
  5
18D16
330
18C7A
100
AcDbEntity
  8
細線
 48
50.0
100
AcDbLine
 10
2319.470584622926
 20
1354.494281037054
 30
0.0
 11
2249.470567335051
 21
1354.494281037057
 31
0.0
  0
ARC
  5
18D17
330
18C7A
100
AcDbEntity
  8
細線
 48
50.0
100
AcDbCircle
 10
2756.170589276533
 20
1387.694269174466
 30
0.0
 40
0.8
100
AcDbArc
 50
359.9997333689499
 51
89.99986668437072
  0
ARC
  5
18D18
330
18C7A
100
AcDbEntity
  8
細線
 48
50.0
100
AcDbCircle
 10
2763.770596101631
 20
1387.694280343081
 30
0.0
 40
0.8
100
AcDbArc
 50
90.00014387753465
 51
179.9997333689498
  0
LINE
  5
18D19
330
18C7A
100
AcDbEntity
  8
細線
 48
50.0
100
AcDbLine
 10
2756.170591137969
 20
1388.494269174465
 30
0.0
 11
2750.970589276525
 21
1388.494269174465
 31
0.0
  0
ARC
  5
18D1A
330
18C7A
100
AcDbEntity
  8
細線
 48
50.0
100
AcDbCircle
 10
2757.670589276524
 20
1386.194269174464
 30
0.0
 40
0.7
100
AcDbArc
 50
180.0
 51
270.0
  0
ARC
  5
18D1B
330
18C7A
100
AcDbEntity
  8
細線
 48
50.0
100
AcDbCircle
 10
2762.270589276524
 20
1386.194269174464
 30
0.0
 40
0.7
100
AcDbArc
 50
270.0
 51
0.0
  0
LINE
  5
18D1C
330
18C7A
100
AcDbEntity
  8
細線
 48
50.0
100
AcDbLine
 10
2762.970589276525
 20
1386.194269174464
 30
0.0
 11
2762.970596101639
 21
1387.694284065954
 31
0.0
  0
LINE
  5
18D1D
330
18C7A
100
AcDbEntity
  8
細線
 48
50.0
100
AcDbLine
 10
2757.670589276524
 20
1385.494269174465
 30
0.0
 11
2762.270589276524
 21
1385.494269174465
 31
0.0
  0
LINE
  5
18D1E
330
18C7A
100
AcDbEntity
  8
細線
 48
50.0
100
AcDbLine
 10
2756.970589276525
 20
1387.694269174466
 30
0.0
 11
2756.970589276525
 21
1386.194269174464
 31
0.0
  0
LINE
  5
18D1F
330
18C7A
100
AcDbEntity
  8
細線
 48
50.0
100
AcDbLine
 10
3382.570589276527
 20
1418.494269174465
 30
0.0
 11
2745.970589276525
 21
1418.494269174463
 31
0.0
  0
LINE
  5
18D20
330
18C7A
100
AcDbEntity
  8
細線
 48
50.0
100
AcDbLine
 10
3408.470589276525
 20
1413.494269174467
 30
0.0
 11
3392.570589276527
 21
1413.494269174465
 31
0.0
  0
LINE
  5
18D21
330
18C7A
100
AcDbEntity
  8
細線
 48
50.0
100
AcDbLine
 10
3392.570589276526
 20
1413.494269174465
 30
0.0
 11
3382.570589276527
 21
1418.494269174465
 31
0.0
  0
LINE
  5
18D22
330
18C7A
100
AcDbEntity
  8
細線
100
AcDbLine
 10
2993.470589276525
 20
1388.494269174465
 30
0.0
 11
2993.470589276525
 21
1417.794269174464
 31
0.0
  0
LINE
  5
18D23
330
18C7A
100
AcDbEntity
  8
細線
100
AcDbLine
 10
2993.470589276525
 20
1417.794269174464
 30
0.0
 11
3013.470589276525
 21
1417.794269174464
 31
0.0
  0
LINE
  5
18D24
330
18C7A
100
AcDbEntity
  8
細線
100
AcDbLine
 10
3013.470589276525
 20
1388.494269174465
 30
0.0
 11
3013.470589276525
 21
1417.794269174464
 31
0.0
  0
LINE
  5
18D25
330
18C7A
100
AcDbEntity
  8
細線
100
AcDbLine
 10
3170.720589276524
 20
1388.494269174465
 30
0.0
 11
3100.720589276523
 21
1388.494269174465
 31
0.0
  0
LINE
  5
18D26
330
18C7A
100
AcDbEntity
  8
細線
 48
50.0
100
AcDbLine
 10
2890.720589276525
 20
1388.494269174465
 30
0.0
 11
2763.766368849365
 21
1388.494269174465
 31
0.0
  0
LINE
  5
18D27
330
18C7A
100
AcDbEntity
  8
細線
100
AcDbLine
 10
3030.720589276525
 20
1388.494269174465
 30
0.0
 11
2960.720589276525
 21
1388.494269174465
 31
0.0
  0
LINE
  5
18D28
330
18C7A
100
AcDbEntity
  8
細線
 48
50.0
100
AcDbLine
 10
2750.970589276525
 20
1380.494269174465
 30
0.0
 11
2750.970589276525
 21
1388.494269174465
 31
0.0
  0
LINE
  5
18D29
330
18C7A
100
AcDbEntity
  8
細線
 48
50.0
100
AcDbLine
 10
2730.970589276524
 20
1380.494269174467
 30
0.0
 11
2750.970589276525
 21
1380.494269174465
 31
0.0
  0
LINE
  5
18D2A
330
18C7A
100
AcDbEntity
  8
細線
 48
50.0
100
AcDbLine
 10
2745.970589276525
 20
1418.494269174465
 30
0.0
 11
2745.970589276525
 21
1413.494269174465
 31
0.0
  0
LINE
  5
18D2B
330
18C7A
100
AcDbEntity
  8
細線
 48
50.0
100
AcDbLine
 10
2730.970589276525
 20
1418.494269174463
 30
0.0
 11
2745.970589276525
 21
1418.494269174465
 31
0.0
  0
LINE
  5
18D2C
330
18C7A
100
AcDbEntity
  8
細線
 48
50.0
100
AcDbLine
 10
2730.970589276524
 20
1380.494269174467
 30
0.0
 11
2730.970589276525
 21
1418.494269174463
 31
0.0
  0
LINE
  5
18D2D
330
18C7A
100
AcDbEntity
  8
細線
100
AcDbLine
 10
3398.970589276523
 20
1388.494269174465
 30
0.0
 11
3240.720589276525
 21
1388.494269174465
 31
0.0
  0
LINE
  5
18D2E
330
18C7A
100
AcDbEntity
  8
細線
 48
50.0
100
AcDbLine
 10
3408.470589276525
 20
1413.494269174467
 30
0.0
 11
3408.470589276524
 21
1388.494269174465
 31
0.0
  0
TEXT
  5
18D2F
330
18C7A
100
AcDbEntity
  8
部品1
100
AcDbText
 10
1860.154865991392
 20
46.99880823813145
 30
0.0
 40
135.0
  1
平面図
  7
STYLE2
100
AcDbText
  0
LWPOLYLINE
  5
18D30
330
18C7A
100
AcDbEntity
  8
部品1
100
AcDbPolyline
 90
        4
 70
     1
 43
0.0
 10
1770.23525616235
 20
239.8923374566548
 10
1770.23525616235
 20
0.0000159111223184
 10
2533.705922390791
 20
0.0000159111223184
 10
2533.705922390791
 20
239.8923374566548
  0
LINE
  5
18D31
330
18C7A
100
AcDbEntity
  8
部品1
100
AcDbLine
 10
1534.470589276487
 20
3154.494269174626
 30
0.0
 11
2769.470589276552
 21
3154.494269174626
 31
0.0
  0
LINE
  5
18D32
330
18C7A
100
AcDbEntity
  8
部品1
 48
50.0
100
AcDbLine
 10
1311.970589276523
 20
1420.494269174462
 30
0.0
 11
3411.970589276523
 21
1420.494269174465
 31
0.0
  0
LINE
  5
18D33
330
18C7A
100
AcDbEntity
  8
部品1
 48
50.0
100
AcDbLine
 10
471.9705892765232
 20
1392.494269174465
 30
0.0
 11
1311.970589276523
 21
1392.494269174465
 31
0.0
  0
DIMENSION
  5
18D34
330
18C7A
100
AcDbEntity
  8
寸法
100
AcDbDimension
  2
*D14
 10
2710.234916278077
 20
2488.887829538828
 30
0.0
 11
2338.318822490183
 21
2488.887829538828
 31
0.0
 12
-3742.925985830444
 22
-6453.628869860112
 32
0.0
 70
   128
 71
     5
 42
1231.00000000007
  3
INABA_S40G
100
AcDbAlignedDimension
 13
1536.470589276486
 23
2702.494269174557
 33
0.0
 14
2767.470589276556
 24
2702.494269174549
 34
0.0
100
AcDbRotatedDimension
1001
ACAD
1000
DSTYLE
1002
{
1002
}
  0
LINE
  5
18D35
330
18C7A
100
AcDbEntity
  8
部品1
100
AcDbLine
 10
1536.470589276487
 20
2702.494269174557
 30
0.0
 11
2767.470589276554
 21
2702.494269174615
 31
0.0
  0
LINE
  5
18D36
330
18C7A
100
AcDbEntity
  8
部品1
100
AcDbLine
 10
1536.470589276487
 20
3152.494269174557
 30
0.0
 11
2767.470589276556
 21
3152.494269174615
 31
0.0
  0
LINE
  5
18D37
330
18C7A
100
AcDbEntity
  8
細線
 48
50.0
100
AcDbLine
 10
1508.470589276487
 20
3152.494269174558
 30
0.0
 11
445.4705892765559
 21
2702.494269174509
 31
0.0
  0
LINE
  5
18D38
330
18C7A
100
AcDbEntity
  8
細線
 48
50.0
100
AcDbLine
 10
1508.470589276487
 20
2702.494269174558
 30
0.0
 11
445.4705892765542
 21
3152.494269174509
 31
0.0
  0
LINE
  5
18D39
330
18C7A
100
AcDbEntity
  8
部品1
100
AcDbLine
 10
1556.970589276487
 20
3172.494269174611
 30
0.0
 11
1556.970589276487
 21
3154.494269174611
 31
0.0
  0
LINE
  5
18D3A
330
18C7A
100
AcDbEntity
  8
部品1
100
AcDbLine
 10
1556.970589276487
 20
3172.494269174611
 30
0.0
 11
1550.970589276487
 21
3172.494269174611
 31
0.0
  0
LINE
  5
18D3B
330
18C7A
100
AcDbEntity
  8
部品1
100
AcDbLine
 10
1534.470589276487
 20
3146.494269174608
 30
0.0
 11
1509.470589276487
 21
3146.494269174611
 31
0.0
  0
LINE
  5
18D3C
330
18C7A
100
AcDbEntity
  8
部品1
100
AcDbLine
 10
1486.970589276487
 20
3172.494269174611
 30
0.0
 11
1486.970589276487
 21
3154.494269174611
 31
0.0
  0
LINE
  5
18D3D
330
18C7A
100
AcDbEntity
  8
部品1
100
AcDbLine
 10
1492.970589276487
 20
3172.494269174611
 30
0.0
 11
1486.970589276487
 21
3172.494269174611
 31
0.0
  0
LINE
  5
18D3E
330
18C7A
100
AcDbEntity
  8
部品1
100
AcDbLine
 10
1534.470589276487
 20
2702.494269174615
 30
0.0
 11
1509.470589276487
 21
2702.494269174615
 31
0.0
  0
LINE
  5
18D3F
330
18C7A
100
AcDbEntity
  8
部品1
 48
50.0
100
AcDbLine
 10
1536.470589276487
 20
3152.494269174611
 30
0.0
 11
1536.470589276487
 21
2702.494269174615
 31
0.0
  0
LINE
  5
18D40
330
18C7A
100
AcDbEntity
  8
部品1
 48
50.0
100
AcDbLine
 10
1508.470589276487
 20
3152.494269174607
 30
0.0
 11
1508.470589276487
 21
2702.494269174615
 31
0.0
  0
LINE
  5
18D41
330
18C7A
100
AcDbEntity
  8
部品1
 48
50.0
100
AcDbLine
 10
1534.470589276487
 20
3154.494269174618
 30
0.0
 11
1534.470589276487
 21
2702.494269174615
 31
0.0
  0
LINE
  5
18D42
330
18C7A
100
AcDbEntity
  8
部品1
 48
50.0
100
AcDbLine
 10
1509.470589276487
 20
3154.494269174615
 30
0.0
 11
1509.470589276487
 21
2702.494269174615
 31
0.0
  0
LINE
  5
18D43
330
18C7A
100
AcDbEntity
  8
部品1
100
AcDbLine
 10
3411.970589276556
 20
1392.494269174582
 30
0.0
 11
3411.970589276556
 21
1420.494269174596
 31
0.0
  0
LINE
  5
18D44
330
18C7A
100
AcDbEntity
  8
部品1
100
AcDbLine
 10
1311.970589276523
 20
1392.494269174596
 30
0.0
 11
1311.970589276523
 21
1420.494269174596
 31
0.0
  0
LINE
  5
18D45
330
18C7A
100
AcDbEntity
  8
部品1
100
AcDbLine
 10
891.9705892765232
 20
1392.494269174596
 30
0.0
 11
891.9705892765232
 21
1420.494269174596
 31
0.0
  0
LINE
  5
18D46
330
18C7A
100
AcDbEntity
  8
部品1
100
AcDbLine
 10
3411.97058927652
 20
3182.494269174477
 30
0.0
 11
3411.970589276523
 21
3154.494269174477
 31
0.0
  0
LINE
  5
18D47
330
18C7A
100
AcDbEntity
  8
部品1
100
AcDbLine
 10
2571.97058927652
 20
3182.494269174477
 30
0.0
 11
2571.970589276523
 21
3154.494269174477
 31
0.0
  0
LINE
  5
18D48
330
18C7A
100
AcDbEntity
  8
部品1
100
AcDbLine
 10
2991.97058927652
 20
3182.494269174477
 30
0.0
 11
2991.970589276523
 21
3154.494269174477
 31
0.0
  0
LINE
  5
18D49
330
18C7A
100
AcDbEntity
  8
部品1
100
AcDbLine
 10
2151.970589276519
 20
3182.494269174477
 30
0.0
 11
2151.970589276523
 21
3154.494269174477
 31
0.0
  0
LINE
  5
18D4A
330
18C7A
100
AcDbEntity
  8
部品1
100
AcDbLine
 10
1731.970589276519
 20
3182.494269174477
 30
0.0
 11
1731.970589276523
 21
3154.494269174477
 31
0.0
  0
LINE
  5
18D4B
330
18C7A
100
AcDbEntity
  8
部品1
100
AcDbLine
 10
1311.970589276519
 20
3182.494269174477
 30
0.0
 11
1311.970589276523
 21
3154.494269174477
 31
0.0
  0
LINE
  5
18D4C
330
18C7A
100
AcDbEntity
  8
部品1
100
AcDbLine
 10
891.9705892765195
 20
3182.494269174477
 30
0.0
 11
891.9705892765232
 21
3154.494269174477
 31
0.0
  0
LINE
  5
18D4D
330
18C7A
100
AcDbEntity
  8
部品1
100
AcDbLine
 10
471.9705892765232
 20
1392.494269174596
 30
0.0
 11
471.9705892765232
 21
1420.494269174596
 31
0.0
  0
LINE
  5
18D4E
330
18C7A
100
AcDbEntity
  8
部品1
100
AcDbLine
 10
444.9705892765305
 20
1420.494269174558
 30
0.0
 11
3858.970589276556
 21
1420.494269174596
 31
0.0
  0
LINE
  5
18D4F
330
18C7A
100
AcDbEntity
  8
部品1
100
AcDbLine
 10
3831.970589276556
 20
1392.494269174596
 30
0.0
 11
3831.970589276556
 21
1420.494269174596
 31
0.0
  0
LINE
  5
18D50
330
18C7A
100
AcDbEntity
  8
部品1
100
AcDbLine
 10
3858.970589276556
 20
1447.494269174593
 30
0.0
 11
3886.970589276556
 21
1447.494269174593
 31
0.0
  0
LINE
  5
18D51
330
18C7A
100
AcDbEntity
  8
部品1
100
AcDbLine
 10
3858.970589276556
 20
1867.494269174607
 30
0.0
 11
3886.970589276556
 21
1867.494269174607
 31
0.0
  0
LINE
  5
18D52
330
18C7A
100
AcDbEntity
  8
部品1
100
AcDbLine
 10
444.9705892765305
 20
1867.49426917448
 30
0.0
 11
416.9705892765305
 21
1867.49426917448
 31
0.0
  0
LINE
  5
18D53
330
18C7A
100
AcDbEntity
  8
部品1
100
AcDbLine
 10
3830.470589276541
 20
1867.49426917458
 30
0.0
 11
473.4705892765396
 21
1867.49426917448
 31
0.0
  0
LINE
  5
18D54
330
18C7A
100
AcDbEntity
  8
部品1
100
AcDbLine
 10
3830.470589276541
 20
2287.49426917458
 30
0.0
 11
473.4705892765396
 21
2287.49426917448
 31
0.0
  0
LINE
  5
18D55
330
18C7A
100
AcDbEntity
  8
部品1
100
AcDbLine
 10
444.9705892765305
 20
2287.49426917448
 30
0.0
 11
416.9705892765305
 21
2287.49426917448
 31
0.0
  0
LINE
  5
18D56
330
18C7A
100
AcDbEntity
  8
部品1
100
AcDbLine
 10
3858.970589276556
 20
2287.494269174608
 30
0.0
 11
3886.970589276556
 21
2287.494269174608
 31
0.0
  0
LINE
  5
18D57
330
18C7A
100
AcDbEntity
  8
部品1
 48
50.0
100
AcDbLine
 10
2151.970589276551
 20
2702.494269174586
 30
0.0
 11
2151.970589276581
 21
1448.994269174494
 31
0.0
  0
LINE
  5
18D58
330
18C7A
100
AcDbEntity
  8
破線
 48
10.0
100
AcDbLine
 10
2959.470589276535
 20
1472.494269174522
 30
0.0
 11
2176.970589276532
 21
1472.494269174505
 31
0.0
  0
LINE
  5
18D59
330
18C7A
100
AcDbEntity
  8
破線
 48
10.0
100
AcDbLine
 10
3009.47058927653
 20
1448.994269174509
 30
0.0
 11
3009.47058927653
 21
2702.494269174615
 31
0.0
  0
LINE
  5
18D5A
330
18C7A
100
AcDbEntity
  8
破線
 48
10.0
100
AcDbLine
 10
2959.470589276535
 20
1448.994269174505
 30
0.0
 11
2959.470589276531
 21
2702.494269174615
 31
0.0
  0
LINE
  5
18D5B
330
18C7A
100
AcDbEntity
  8
破線
 48
10.0
100
AcDbLine
 10
1344.47058927653
 20
1448.994269174509
 30
0.0
 11
1344.47058927653
 21
2702.494269174615
 31
0.0
  0
LINE
  5
18D5C
330
18C7A
100
AcDbEntity
  8
破線
 48
10.0
100
AcDbLine
 10
1294.470589276534
 20
1448.994269174505
 30
0.0
 11
1294.47058927653
 21
2702.494269174615
 31
0.0
  0
DIMENSION
  5
18D5D
330
18C7A
100
AcDbEntity
  8
寸法
100
AcDbDimension
  2
*D13
 10
1451.234916278005
 20
2488.887829538828
 30
0.0
 11
916.0604668248634
 21
2488.887829538828
 31
0.0
 12
-3742.925985830444
 22
-6453.628869860112
 32
0.0
 70
   128
 71
     5
 42
1062.99999999993
  3
INABA_S40G
100
AcDbAlignedDimension
 13
445.4705892765559
 23
2702.494269174505
 33
0.0
 14
1508.470589276486
 24
2702.494269174558
 34
0.0
100
AcDbRotatedDimension
1001
ACAD
1000
DSTYLE
1002
{
1002
}
  0
LINE
  5
18D5E
330
18C7A
100
AcDbEntity
  8
破線
 48
10.0
100
AcDbLine
 10
1294.470589276534
 20
1472.494269174469
 30
0.0
 11
496.9705892765414
 21
1472.494269174476
 31
0.0
  0
LINE
  5
18D5F
330
18C7A
100
AcDbEntity
  8
部品1
100
AcDbLine
 10
3831.970589276556
 20
3182.494269174604
 30
0.0
 11
3831.970589276556
 21
3154.494269174604
 31
0.0
  0
LINE
  5
18D60
330
18C7A
100
AcDbEntity
  8
部品1
100
AcDbLine
 10
3831.970589276556
 20
3182.494269174626
 30
0.0
 11
3831.970589276556
 21
3154.494269174626
 31
0.0
  0
LINE
  5
18D61
330
18C7A
100
AcDbEntity
  8
部品1
100
AcDbLine
 10
3858.970589276556
 20
3127.494269174607
 30
0.0
 11
3886.970589276556
 21
3127.494269174607
 31
0.0
  0
LINE
  5
18D62
330
18C7A
100
AcDbEntity
  8
部品1
100
AcDbLine
 10
3858.970589276556
 20
2707.494269174608
 30
0.0
 11
3886.970589276556
 21
2707.494269174608
 31
0.0
  0
LINE
  5
18D63
330
18C7A
100
AcDbEntity
  8
部品1
100
AcDbLine
 10
3858.470589276556
 20
3152.494269174604
 30
0.0
 11
3858.470589276556
 21
2702.494269174608
 31
0.0
  0
LINE
  5
18D64
330
18C7A
100
AcDbEntity
  8
部品1
100
AcDbLine
 10
3886.970589276533
 20
1447.494269174593
 30
0.0
 11
3886.970589276531
 21
1392.494269174596
 31
0.0
  0
LINE
  5
18D65
330
18C7A
100
AcDbEntity
  8
部品1
 48
50.0
100
AcDbLine
 10
3830.470589276556
 20
1448.994269174596
 30
0.0
 11
3858.970589276554
 21
1420.494269174596
 31
0.0
  0
LINE
  5
18D66
330
18C7A
100
AcDbEntity
  8
部品1
100
AcDbLine
 10
3886.970589276531
 20
1392.494269174596
 30
0.0
 11
3835.970589276531
 21
1392.494269174596
 31
0.0
  0
LINE
  5
18D67
330
18C7A
100
AcDbEntity
  8
部品1
100
AcDbLine
 10
3858.970589276533
 20
1447.494269174593
 30
0.0
 11
3886.970589276531
 21
1447.494269174593
 31
0.0
  0
LINE
  5
18D68
330
18C7A
100
AcDbEntity
  8
部品1
100
AcDbLine
 10
3886.970589276556
 20
3182.494269174604
 30
0.0
 11
3886.970589276531
 21
1392.494269174596
 31
0.0
  0
DIMENSION
  5
18D69
330
18C7A
100
AcDbEntity
  8
寸法
100
AcDbDimension
  2
*D12
 10
4534.396935010967
 20
1447.494269174593
 30
0.0
 11
4534.396935010965
 21
2287.4942691746
 31
0.0
 12
-3742.925985830444
 22
-6453.628869860112
 32
0.0
 70
   128
  1
4X420=<>
 71
     5
 42
1680.000000000014
  3
INABA_S40G
100
AcDbAlignedDimension
 13
3886.970589276556
 23
3127.494269174607
 33
0.0
 14
3886.970589276531
 24
1447.494269174593
 34
0.0
 50
90.0
100
AcDbRotatedDimension
1001
ACAD
1000
DSTYLE
1002
{
1002
}
  0
LINE
  5
18D6A
330
18C7A
100
AcDbEntity
  8
部品1
100
AcDbLine
 10
3858.970589276556
 20
3154.494269174604
 30
0.0
 11
3858.970589276534
 21
1420.494269174596
 31
0.0
  0
DIMENSION
  5
18D6B
330
18C7A
100
AcDbEntity
  8
寸法
100
AcDbDimension
  2
*D11
 10
4213.82831513858
 20
2607.276453505718
 30
0.0
 11
4113.828315138579
 21
2832.276453505718
 31
0.0
 12
-3742.925985830444
 22
-6453.628869860112
 32
0.0
 71
     5
 42
449.9999999999963
  3
INABA_S40G
100
AcDbAlignedDimension
 13
3858.470589276556
 23
3152.494269174604
 33
0.0
 14
3858.470589276556
 24
2702.494269174608
 34
0.0
 50
90.0
100
AcDbRotatedDimension
1001
ACAD
1000
DSTYLE
1002
{
1002
}
  0
LINE
  5
18D6C
330
18C7A
100
AcDbEntity
  8
部品1
100
AcDbLine
 10
3830.470589276547
 20
2702.494269174608
 30
0.0
 11
3830.470589276556
 21
1448.994269174596
 31
0.0
  0
LINE
  5
18D6D
330
18C7A
100
AcDbEntity
  8
破線
 48
10.0
100
AcDbLine
 10
3806.970589276549
 20
2702.494269174608
 30
0.0
 11
3806.970589276558
 21
1472.494269174593
 31
0.0
  0
LINE
  5
18D6E
330
18C7A
100
AcDbEntity
  8
部品1
100
AcDbLine
 10
2769.470589276556
 20
3146.494269174608
 30
0.0
 11
2794.470589276556
 21
3146.494269174611
 31
0.0
  0
LINE
  5
18D6F
330
18C7A
100
AcDbEntity
  8
部品1
100
AcDbLine
 10
2810.970589276556
 20
3172.494269174611
 30
0.0
 11
2816.970589276556
 21
3172.494269174611
 31
0.0
  0
LINE
  5
18D70
330
18C7A
100
AcDbEntity
  8
部品1
100
AcDbLine
 10
2816.970589276556
 20
3172.494269174611
 30
0.0
 11
2816.970589276556
 21
3154.494269174611
 31
0.0
  0
LINE
  5
18D71
330
18C7A
100
AcDbEntity
  8
部品1
100
AcDbLine
 10
2746.970589276556
 20
3172.494269174611
 30
0.0
 11
2752.970589276556
 21
3172.494269174611
 31
0.0
  0
LINE
  5
18D72
330
18C7A
100
AcDbEntity
  8
部品1
100
AcDbLine
 10
2746.970589276556
 20
3172.494269174611
 30
0.0
 11
2746.970589276556
 21
3154.494269174611
 31
0.0
  0
LINE
  5
18D73
330
18C7A
100
AcDbEntity
  8
部品1
100
AcDbLine
 10
2769.470589276556
 20
2702.494269174615
 30
0.0
 11
2794.470589276556
 21
2702.494269174615
 31
0.0
  0
LINE
  5
18D74
330
18C7A
100
AcDbEntity
  8
部品1
 48
50.0
100
AcDbLine
 10
2794.470589276556
 20
3154.494269174615
 30
0.0
 11
2794.470589276556
 21
2702.494269174615
 31
0.0
  0
LINE
  5
18D75
330
18C7A
100
AcDbEntity
  8
部品1
 48
50.0
100
AcDbLine
 10
2769.470589276554
 20
3154.494269174618
 30
0.0
 11
2769.470589276556
 21
2702.494269174615
 31
0.0
  0
LINE
  5
18D76
330
18C7A
100
AcDbEntity
  8
部品1
 48
50.0
100
AcDbLine
 10
2795.470589276556
 20
3152.494269174607
 30
0.0
 11
2795.470589276556
 21
2702.494269174615
 31
0.0
  0
LINE
  5
18D77
330
18C7A
100
AcDbEntity
  8
部品1
 48
50.0
100
AcDbLine
 10
2767.470589276556
 20
3152.494269174611
 30
0.0
 11
2767.470589276556
 21
2702.494269174615
 31
0.0
  0
LINE
  5
18D78
330
18C7A
100
AcDbEntity
  8
破線
 48
10.0
100
AcDbLine
 10
2176.97058927653
 20
1448.994269174509
 30
0.0
 11
2176.97058927653
 21
2702.494269174588
 31
0.0
  0
LINE
  5
18D79
330
18C7A
100
AcDbEntity
  8
破線
 48
10.0
100
AcDbLine
 10
2126.970589276534
 20
1448.994269174505
 30
0.0
 11
2126.970589276531
 21
2702.494269174586
 31
0.0
  0
LINE
  5
18D7A
330
18C7A
100
AcDbEntity
  8
部品1
100
AcDbLine
 10
2794.470589276556
 20
3154.494269174622
 30
0.0
 11
3858.970589276556
 21
3154.494269174604
 31
0.0
  0
LINE
  5
18D7B
330
18C7A
100
AcDbEntity
  8
細線
 48
50.0
100
AcDbLine
 10
3858.470589276556
 20
2702.494269174608
 30
0.0
 11
2795.470589276556
 21
3152.494269174607
 31
0.0
  0
LINE
  5
18D7C
330
18C7A
100
AcDbEntity
  8
部品1
100
AcDbLine
 10
2795.470589276555
 20
2702.494269174615
 30
0.0
 11
3858.470589276556
 21
2702.494269174608
 31
0.0
  0
LINE
  5
18D7D
330
18C7A
100
AcDbEntity
  8
部品1
100
AcDbLine
 10
2795.470589276556
 20
3152.494269174611
 30
0.0
 11
3858.470589276556
 21
3152.494269174604
 31
0.0
  0
LINE
  5
18D7E
330
18C7A
100
AcDbEntity
  8
細線
 48
50.0
100
AcDbLine
 10
3858.470589276556
 20
3152.494269174604
 30
0.0
 11
2795.470589276555
 21
2702.494269174615
 31
0.0
  0
DIMENSION
  5
18D7F
330
18C7A
100
AcDbEntity
  8
寸法
100
AcDbDimension
  2
*D10
 10
3801.234916278101
 20
2488.887829538937
 30
0.0
 11
3318.360544398907
 21
2488.887829538937
 31
0.0
 12
-3742.925985830444
 22
-6453.628869860112
 32
0.0
 70
   128
 71
     5
 42
1063.000000000012
  3
INABA_S40G
100
AcDbAlignedDimension
 13
2795.470589276555
 23
2702.494269174615
 33
0.0
 14
3858.470589276567
 24
2702.494269174608
 34
0.0
100
AcDbRotatedDimension
1001
ACAD
1000
DSTYLE
1002
{
1002
}
  0
LINE
  5
18D80
330
18C7A
100
AcDbEntity
  8
破線
 48
10.0
100
AcDbLine
 10
3806.970589276556
 20
1472.494269174594
 30
0.0
 11
3009.47058927653
 21
1472.494269174523
 31
0.0
  0
DIMENSION
  5
18D81
330
18C7A
100
AcDbEntity
  8
寸法
100
AcDbDimension
  2
*D9
 10
4534.396935010941
 20
1392.494269174596
 30
0.0
 11
4534.39693501094
 21
1084.008987800356
 31
0.0
 12
-3742.925985830444
 22
-6453.628869860112
 32
0.0
 70
   128
 71
     5
 42
54.99999999999636
  3
INABA_S40G
100
AcDbAlignedDimension
 13
3886.970589276531
 23
1447.494269174593
 33
0.0
 14
3886.970589276531
 24
1392.494269174596
 34
0.0
 50
90.0
100
AcDbRotatedDimension
1001
ACAD
1000
DSTYLE
1002
{
1002
}
  0
LINE
  5
18D82
330
18C7A
100
AcDbEntity
  8
部品1
100
AcDbLine
 10
471.9705892765196
 20
3182.494269174477
 30
0.0
 11
471.9705892765232
 21
3154.494269174477
 31
0.0
  0
LINE
  5
18D83
330
18C7A
100
AcDbEntity
  8
部品1
100
AcDbLine
 10
471.9705892765559
 20
3182.494269174509
 30
0.0
 11
471.9705892765559
 21
3154.494269174509
 31
0.0
  0
LINE
  5
18D84
330
18C7A
100
AcDbEntity
  8
部品1
100
AcDbLine
 10
444.9705892765232
 20
3127.49426917448
 30
0.0
 11
416.9705892765232
 21
3127.49426917448
 31
0.0
  0
LINE
  5
18D85
330
18C7A
100
AcDbEntity
  8
部品1
100
AcDbLine
 10
444.9705892765305
 20
2707.49426917448
 30
0.0
 11
416.9705892765305
 21
2707.49426917448
 31
0.0
  0
LINE
  5
18D86
330
18C7A
100
AcDbEntity
  8
部品1
 48
50.0
100
AcDbLine
 10
445.4705892765542
 20
3152.494269174506
 30
0.0
 11
445.4705892765559
 21
2702.494269174505
 31
0.0
  0
LINE
  5
18D87
330
18C7A
100
AcDbEntity
  8
部品1
 48
50.0
100
AcDbLine
 10
473.470589276545
 20
1448.994269174573
 30
0.0
 11
444.970589276545
 21
1420.494269174574
 31
0.0
  0
LINE
  5
18D88
330
18C7A
100
AcDbEntity
  8
部品1
100
AcDbLine
 10
471.9705892765232
 20
1392.494269174465
 30
0.0
 11
416.9705892765486
 21
1392.494269174465
 31
0.0
  0
LINE
  5
18D89
330
18C7A
100
AcDbEntity
  8
部品1
100
AcDbLine
 10
444.9705892765305
 20
1447.494269174429
 30
0.0
 11
416.9705892765469
 21
1447.494269174429
 31
0.0
  0
LINE
  5
18D8A
330
18C7A
100
AcDbEntity
  8
部品1
100
AcDbLine
 10
444.9705892765305
 20
1447.494269174465
 30
0.0
 11
416.9705892765469
 21
1447.494269174465
 31
0.0
  0
LINE
  5
18D8B
330
18C7A
100
AcDbEntity
  8
部品1
100
AcDbLine
 10
444.9705892765469
 20
1447.49426917448
 30
0.0
 11
416.9705892765469
 21
1447.49426917448
 31
0.0
  0
LINE
  5
18D8C
330
18C7A
100
AcDbEntity
  8
部品1
100
AcDbLine
 10
416.9705892765469
 20
1447.494269174429
 30
0.0
 11
416.9705892765486
 21
1392.494269174433
 31
0.0
  0
LINE
  5
18D8D
330
18C7A
100
AcDbEntity
  8
部品1
100
AcDbLine
 10
416.9705892765196
 20
3182.494269174477
 30
0.0
 11
416.9705892765486
 21
1392.494269174465
 31
0.0
  0
LINE
  5
18D8E
330
18C7A
100
AcDbEntity
  8
部品1
100
AcDbLine
 10
444.9705892765305
 20
1420.494269174556
 30
0.0
 11
444.9705892765559
 21
3154.494269174509
 31
0.0
  0
LINE
  5
18D8F
330
18C7A
100
AcDbEntity
  8
部品1
100
AcDbLine
 10
473.4705892765323
 20
2702.494269174608
 30
0.0
 11
473.470589276545
 21
1448.994269174571
 31
0.0
  0
LINE
  5
18D90
330
18C7A
100
AcDbEntity
  8
破線
 48
10.0
100
AcDbLine
 10
496.9705892765305
 20
2702.494269174608
 30
0.0
 11
496.9705892765451
 21
1472.494269174476
 31
0.0
  0
DIMENSION
  5
18D91
330
18C7A
100
AcDbEntity
  8
寸法
100
AcDbDimension
  2
*D8
 10
3886.970589276531
 20
410.7433333855515
 30
0.0
 11
2168.197775309287
 21
410.7433333855515
 31
0.0
 12
-3742.925985830444
 22
-6453.628869860112
 32
0.0
 70
   128
 71
     5
 42
3469.999999999982
  3
INABA_S40G
100
AcDbAlignedDimension
 13
416.9705892765486
 23
1392.494269174433
 33
0.0
 14
3886.970589276531
 24
1392.49426917456
 34
0.0
100
AcDbRotatedDimension
1001
ACAD
1000
DSTYLE
1002
{
1070
   341
1005
0
1002
}
  0
LINE
  5
18D92
330
18C7A
100
AcDbEntity
  8
部品1
100
AcDbLine
 10
444.9705892765559
 20
3154.494269174624
 30
0.0
 11
1509.470589276487
 21
3154.494269174626
 31
0.0
  0
LINE
  5
18D93
330
18C7A
100
AcDbEntity
  8
部品1
100
AcDbLine
 10
3886.970589276531
 20
1392.494269174596
 30
0.0
 11
3411.970589276556
 21
1392.494269174582
 31
0.0
  0
LINE
  5
18D94
330
18C7A
100
AcDbEntity
  8
部品1
100
AcDbLine
 10
416.9705892765559
 20
3182.494269174509
 30
0.0
 11
3886.970589276556
 21
3182.494269174604
 31
0.0
  0
LINE
  5
18D95
330
18C7A
100
AcDbEntity
  8
部品1
100
AcDbLine
 10
445.4705892765559
 20
2702.494269174509
 30
0.0
 11
1508.470589276487
 21
2702.494269174558
 31
0.0
  0
LINE
  5
18D96
330
18C7A
100
AcDbEntity
  8
細線
 48
50.0
100
AcDbLine
 10
2767.470589276556
 20
3152.494269174611
 30
0.0
 11
1536.470589276487
 21
2702.494269174558
 31
0.0
  0
LINE
  5
18D97
330
18C7A
100
AcDbEntity
  8
部品1
100
AcDbLine
 10
445.4705892765542
 20
3152.494269174509
 30
0.0
 11
1508.470589276485
 21
3152.494269174558
 31
0.0
  0
LINE
  5
18D98
330
18C7A
100
AcDbEntity
  8
細線
 48
50.0
100
AcDbLine
 10
2767.470589276554
 20
2702.494269174615
 30
0.0
 11
1536.470589276485
 21
3152.494269174558
 31
0.0
  0
LINE
  5
18D99
330
18C7A
100
AcDbEntity
  8
破線
 48
10.0
100
AcDbLine
 10
2126.970589276534
 20
1472.494269174502
 30
0.0
 11
1344.47058927653
 21
1472.494269174473
 31
0.0
  0
LINE
  5
18D9A
330
18C7A
100
AcDbEntity
  8
部品1
100
AcDbLine
 10
3830.470589276556
 20
1448.994269174596
 30
0.0
 11
473.4705892764487
 21
1448.994269174476
 31
0.0
  0
DIMENSION
  5
18D9B
330
18C7A
100
AcDbEntity
  8
寸法
100
AcDbDimension
  2
*D7
 10
471.970589276555
 20
3698.302488799491
 30
0.0
 11
108.4853079022819
 21
3698.302488799491
 31
0.0
 12
-3742.925985830444
 22
-6453.628869860112
 32
0.0
 70
   128
 71
     5
 42
55.00000000003456
  3
INABA_S40G
100
AcDbAlignedDimension
 13
416.9705892765205
 23
3182.494269174509
 33
0.0
 14
471.970589276555
 24
3182.494269174509
 34
0.0
100
AcDbRotatedDimension
1001
ACAD
1000
DSTYLE
1002
{
1002
}
  0
DIMENSION
  5
18D9C
330
18C7A
100
AcDbEntity
  8
寸法
100
AcDbDimension
  2
*D6
 10
4534.396935010967
 20
3127.494269174607
 30
0.0
 11
4534.396935010965
 21
3490.979550548844
 31
0.0
 12
-3742.925985830444
 22
-6453.628869860112
 32
0.0
 70
   128
 71
     5
 42
54.99999999999636
  3
INABA_S40G
100
AcDbAlignedDimension
 13
3886.970589276556
 23
3182.494269174604
 33
0.0
 14
3886.970589276556
 24
3127.494269174607
 34
0.0
 50
90.0
100
AcDbRotatedDimension
1001
ACAD
1000
DSTYLE
1002
{
1002
}
  0
DIMENSION
  5
18D9D
330
18C7A
100
AcDbEntity
  8
寸法
100
AcDbDimension
  2
*D5
 10
3886.970589276556
 20
3698.302488799589
 30
0.0
 11
4195.455870650794
 21
3698.302488799589
 31
0.0
 12
-3742.925985830444
 22
-6453.628869860112
 32
0.0
 70
   128
 71
     5
 42
55.0
  3
INABA_S40G
100
AcDbAlignedDimension
 13
3831.970589276556
 23
3182.494269174604
 33
0.0
 14
3886.970589276556
 24
3182.494269174604
 34
0.0
100
AcDbRotatedDimension
1001
ACAD
1000
DSTYLE
1002
{
1002
}
  0
DIMENSION
  5
18D9E
330
18C7A
100
AcDbEntity
  8
寸法
100
AcDbDimension
  2
*D4
 10
3831.970589276556
 20
3698.302488799607
 30
0.0
 11
2151.970589276555
 21
3698.302488799607
 31
0.0
 12
-3742.925985830444
 22
-6453.628869860112
 32
0.0
 70
   128
  1
8X420=<>
 71
     5
 42
3360.000000000001
  3
INABA_S40G
100
AcDbAlignedDimension
 13
471.970589276555
 23
3182.494269174509
 33
0.0
 14
3831.970589276556
 24
3182.494269174604
 34
0.0
100
AcDbRotatedDimension
1001
ACAD
1000
DSTYLE
1002
{
1002
}
  0
DIMENSION
  5
18D9F
330
18C7A
100
AcDbEntity
  8
寸法
100
AcDbDimension
  2
*D3
 10
4899.503876750603
 20
1392.494269174596
 30
0.0
 11
4899.503876750601
 21
2287.4942691746
 31
0.0
 12
-3742.925985830444
 22
-6453.628869860112
 32
0.0
 70
   128
 71
     5
 42
1790.000000000007
  3
INABA_S40G
100
AcDbAlignedDimension
 13
3886.970589276556
 23
3182.494269174604
 33
0.0
 14
3886.970589276531
 24
1392.494269174596
 34
0.0
 50
90.0
100
AcDbRotatedDimension
1001
ACAD
1000
DSTYLE
1002
{
1002
}
  0
ENDBLK
  5
18DA1
330
18C7A
100
AcDbEntity
  8
0
 48
50.0
100
AcDbBlockEnd
  0
BLOCK
  5
1C4CB
330
1C4CA
100
AcDbEntity
  8
0
 48
50.0
100
AcDbBlockBegin
  2
_NONE
 70
     0
 10
0.0
 20
0.0
 30
0.0
  3
_NONE
  1

  0
CIRCLE
  5
1C4CC
330
1C4CA
100
AcDbEntity
  8
0
  6
ByBlock
 62
     0
 48
50.0
100
AcDbCircle
 10
0.0
 20
0.0
 30
0.0
 40
0.25
  0
ENDBLK
  5
1C4CD
330
1C4CA
100
AcDbEntity
  8
0
 48
50.0
100
AcDbBlockEnd
  0
BLOCK
  5
2DF80
330
2DF76
100
AcDbEntity
  8
0
 48
50.0
100
AcDbBlockBegin
  2
*D19
 70
     1
 10
0.0
 20
0.0
 30
0.0
  3
*D19
  1

  0
LINE
  5
2E4BE
330
2DF76
100
AcDbEntity
  8
寸法
 62
     0
 48
50.0
370
    -2
100
AcDbLine
 10
2993.599999999999
 20
7643.97068131056
 30
0.0
 11
2993.599999999999
 21
8642.191003369479
 31
0.0
  0
LINE
  5
2E4BF
330
2DF76
100
AcDbEntity
  8
寸法
 62
     0
 48
50.0
370
    -2
100
AcDbLine
 10
13453.6
 20
7643.97068131056
 30
0.0
 11
13453.6
 21
8642.191003369479
 31
0.0
  0
LINE
  5
2E4C0
330
2DF76
100
AcDbEntity
  8
寸法
 62
     0
 48
50.0
370
    -2
100
AcDbLine
 10
2993.599999999999
 20
8582.191003369478
 30
0.0
 11
13453.6
 21
8582.191003369478
 31
0.0
  0
INSERT
  5
2E4C1
330
2DF76
100
AcDbEntity
  8
寸法
 62
     0
 48
50.0
370
    -2
100
AcDbBlockReference
  2
_DOTSMALL
 10
2993.599999999999
 20
8582.191003369478
 30
0.0
 41
100.0
 42
100.0
 43
100.0
 50
180.0
  0
INSERT
  5
2E4C2
330
2DF76
100
AcDbEntity
  8
寸法
 62
     0
 48
50.0
370
    -2
100
AcDbBlockReference
  2
_DOTSMALL
 10
13453.6
 20
8582.191003369478
 30
0.0
 41
100.0
 42
100.0
 43
100.0
  0
MTEXT
  5
2E4C3
330
2DF76
100
AcDbEntity
  8
寸法
 62
     7
 48
50.0
100
AcDbMText
 10
8223.600000000001
 20
8682.19100336948
 30
0.0
 40
120.0
 41
0.0
 71
     5
 72
     1
  1
\A1;N X 950+10
  7
STYLE1
 73
     1
 44
1.0
1001
ACAD
1000
MTEXTBEGIN
1070
    73
1070
     1
1070
    44
1040
1.0
1070
    74
1070
     0
1000
MTEXTEND
  0
POINT
  5
2E4C4
330
2DF76
100
AcDbEntity
  8
DEFPOINTS
 62
     0
 48
50.0
100
AcDbPoint
 10
2993.599999999999
 20
7623.970681310559
 30
0.0
  0
POINT
  5
2E4C5
330
2DF76
100
AcDbEntity
  8
DEFPOINTS
 62
     0
 48
50.0
100
AcDbPoint
 10
13453.6
 20
7623.970681310559
 30
0.0
  0
POINT
  5
2E4C6
330
2DF76
100
AcDbEntity
  8
DEFPOINTS
 62
     0
 48
50.0
100
AcDbPoint
 10
13453.6
 20
8582.191003369478
 30
0.0
  0
ENDBLK
  5
2DF81
330
2DF76
100
AcDbEntity
  8
0
 48
50.0
100
AcDbBlockEnd
  0
BLOCK
  5
2DF8C
330
2DF82
100
AcDbEntity
  8
0
 48
50.0
100
AcDbBlockBegin
  2
*D20
 70
     1
 10
0.0
 20
0.0
 30
0.0
  3
*D20
  1

  0
LINE
  5
2EC8D
330
2DF82
100
AcDbEntity
  8
寸法
 62
     0
 48
50.0
370
    -2
100
AcDbLine
 10
8698.600000000006
 20
6960.97068131056
 30
0.0
 11
8698.600000000006
 21
8166.579497980809
 31
0.0
  0
LINE
  5
2EC8E
330
2DF82
100
AcDbEntity
  8
寸法
 62
     0
 48
50.0
370
    -2
100
AcDbLine
 10
7748.600000000006
 20
6960.97068131056
 30
0.0
 11
7748.600000000006
 21
8166.579497980809
 31
0.0
  0
LINE
  5
2EC8F
330
2DF82
100
AcDbEntity
  8
寸法
 62
     0
 48
50.0
370
    -2
100
AcDbLine
 10
8698.600000000006
 20
8106.579497980808
 30
0.0
 11
7748.600000000006
 21
8106.579497980808
 31
0.0
  0
INSERT
  5
2EC90
330
2DF82
100
AcDbEntity
  8
寸法
 62
     0
 48
50.0
370
    -2
100
AcDbBlockReference
  2
_DOTSMALL
 10
8698.600000000006
 20
8106.579497980808
 30
0.0
 41
100.0
 42
100.0
 43
100.0
  0
INSERT
  5
2EC91
330
2DF82
100
AcDbEntity
  8
寸法
 62
     0
 48
50.0
370
    -2
100
AcDbBlockReference
  2
_DOTSMALL
 10
7748.600000000006
 20
8106.579497980808
 30
0.0
 41
100.0
 42
100.0
 43
100.0
 50
180.0
  0
MTEXT
  5
2EC92
330
2DF82
100
AcDbEntity
  8
寸法
 62
     7
 48
50.0
100
AcDbMText
 10
8223.600000000006
 20
8206.579497980809
 30
0.0
 40
120.0
 41
0.0
 71
     5
 72
     1
  1
\A1;950
  7
STYLE1
 73
     1
 44
1.0
1001
ACAD
1000
MTEXTBEGIN
1070
    73
1070
     1
1070
    44
1040
1.0
1070
    74
1070
     0
1000
MTEXTEND
  0
POINT
  5
2EC93
330
2DF82
100
AcDbEntity
  8
DEFPOINTS
 62
     0
 48
50.0
100
AcDbPoint
 10
8698.600000000006
 20
6940.97068131056
 30
0.0
  0
POINT
  5
2EC94
330
2DF82
100
AcDbEntity
  8
DEFPOINTS
 62
     0
 48
50.0
100
AcDbPoint
 10
7748.600000000006
 20
6940.97068131056
 30
0.0
  0
POINT
  5
2EC95
330
2DF82
100
AcDbEntity
  8
DEFPOINTS
 62
     0
 48
50.0
100
AcDbPoint
 10
7748.600000000006
 20
8106.579497980808
 30
0.0
  0
ENDBLK
  5
2DF8D
330
2DF82
100
AcDbEntity
  8
0
 48
50.0
100
AcDbBlockEnd
  0
BLOCK
  5
2DF98
330
2DF8E
100
AcDbEntity
  8
0
 48
50.0
100
AcDbBlockBegin
  2
*D21
 70
     1
 10
0.0
 20
0.0
 30
0.0
  3
*D21
  1

  0
LINE
  5
2E4C7
330
2DF8E
100
AcDbEntity
  8
寸法
 62
     0
 48
50.0
370
    -2
100
AcDbLine
 10
2973.600000000002
 20
6083.970681310557
 30
0.0
 11
2820.512673767881
 21
6083.970681310557
 31
0.0
  0
LINE
  5
2E4C8
330
2DF8E
100
AcDbEntity
  8
寸法
 62
     0
 48
50.0
370
    -2
100
AcDbLine
 10
3329.325326928807
 20
5363.970681310557
 30
0.0
 11
2820.512673767881
 21
5363.970681310557
 31
0.0
  0
LINE
  5
2E4C9
330
2DF8E
100
AcDbEntity
  8
寸法
 62
     0
 48
50.0
370
    -2
100
AcDbLine
 10
2880.512673767881
 20
6083.970681310557
 30
0.0
 11
2880.512673767881
 21
5363.970681310557
 31
0.0
  0
INSERT
  5
2E4CA
330
2DF8E
100
AcDbEntity
  8
寸法
 62
     0
 48
50.0
370
    -2
100
AcDbBlockReference
  2
_DOTSMALL
 10
2880.512673767881
 20
6083.970681310557
 30
0.0
 41
100.0
 42
100.0
 43
100.0
 50
90.0
  0
INSERT
  5
2E4CB
330
2DF8E
100
AcDbEntity
  8
寸法
 62
     0
 48
50.0
370
    -2
100
AcDbBlockReference
  2
_DOTSMALL
 10
2880.512673767881
 20
5363.970681310557
 30
0.0
 41
100.0
 42
100.0
 43
100.0
 50
270.0
  0
MTEXT
  5
2E4CC
330
2DF8E
100
AcDbEntity
  8
寸法
 62
     7
 48
50.0
100
AcDbMText
 10
2780.500862744258
 20
5723.970681310557
 30
0.0
 40
120.0
 41
0.0
 71
     5
 72
     1
  1
\A1;扉の出720
  7
STYLE1
 11
0.0000000000000001
 21
1.0
 31
0.0
 73
     1
 44
1.0
1001
ACAD
1000
MTEXTBEGIN
1070
    73
1070
     1
1070
    44
1040
1.0
1070
    74
1070
     0
1000
MTEXTEND
  0
POINT
  5
2E4CD
330
2DF8E
100
AcDbEntity
  8
DEFPOINTS
 62
     0
 48
50.0
100
AcDbPoint
 10
2993.600000000002
 20
6083.970681310557
 30
0.0
  0
POINT
  5
2E4CE
330
2DF8E
100
AcDbEntity
  8
DEFPOINTS
 62
     0
 48
50.0
100
AcDbPoint
 10
3349.325326928807
 20
5363.970681310557
 30
0.0
  0
POINT
  5
2E4CF
330
2DF8E
100
AcDbEntity
  8
DEFPOINTS
 62
     0
 48
50.0
100
AcDbPoint
 10
2880.512673767881
 20
5363.970681310557
 30
0.0
  0
ENDBLK
  5
2DF99
330
2DF8E
100
AcDbEntity
  8
0
 48
50.0
100
AcDbBlockEnd
  0
BLOCK
  5
2DFA5
330
2DF9A
100
AcDbEntity
  8
0
 48
50.0
100
AcDbBlockBegin
  2
*D22
 70
     1
 10
0.0
 20
0.0
 30
0.0
  3
*D22
  1

  0
LINE
  5
2EC0D
330
2DF9A
100
AcDbEntity
  8
寸法
 62
     0
 48
50.0
370
    -2
100
AcDbLine
 10
3046.600000000006
 20
6281.970681310564
 30
0.0
 11
2310.66500633007
 21
6281.970681310564
 31
0.0
  0
LINE
  5
2EC0E
330
2DF9A
100
AcDbEntity
  8
寸法
 62
     0
 48
50.0
370
    -2
100
AcDbLine
 10
2973.599999999999
 20
6083.97068131056
 30
0.0
 11
2310.66500633007
 21
6083.97068131056
 31
0.0
  0
LINE
  5
2EC0F
330
2DF9A
100
AcDbEntity
  8
寸法
 62
     0
 48
50.0
370
    -2
100
AcDbLine
 10
2370.66500633007
 20
6281.970681310564
 30
0.0
 11
2370.66500633007
 21
6083.97068131056
 31
0.0
  0
LINE
  5
2EC10
330
2DF9A
100
AcDbEntity
  8
寸法
 62
     0
 48
50.0
370
    -2
100
AcDbLine
 10
2370.66500633007
 20
6083.97068131056
 30
0.0
 11
2370.66500633007
 21
5612.230072638311
 31
0.0
  0
INSERT
  5
2EC11
330
2DF9A
100
AcDbEntity
  8
寸法
 62
     0
 48
50.0
370
    -2
100
AcDbBlockReference
  2
_DOTSMALL
 10
2370.66500633007
 20
6281.970681310564
 30
0.0
 41
100.0
 42
100.0
 43
100.0
 50
90.0
  0
INSERT
  5
2EC12
330
2DF9A
100
AcDbEntity
  8
寸法
 62
     0
 48
50.0
370
    -2
100
AcDbBlockReference
  2
_DOTSMALL
 10
2370.66500633007
 20
6083.97068131056
 30
0.0
 41
100.0
 42
100.0
 43
100.0
 50
270.0
  0
MTEXT
  5
2EC13
330
2DF9A
100
AcDbEntity
  8
寸法
 62
     7
 48
50.0
100
AcDbMText
 10
2270.665006330069
 20
5748.439732467968
 30
0.0
 40
120.0
 41
0.0
 71
     5
 72
     1
  1
\A1;198
  7
STYLE1
 11
0.0000000000000001
 21
1.0
 31
0.0
 73
     1
 44
1.0
1001
ACAD
1000
MTEXTBEGIN
1070
    73
1070
     1
1070
    44
1040
1.0
1070
    74
1070
     0
1000
MTEXTEND
  0
POINT
  5
2EC14
330
2DF9A
100
AcDbEntity
  8
DEFPOINTS
 62
     0
 48
50.0
100
AcDbPoint
 10
3066.600000000006
 20
6281.970681310564
 30
0.0
  0
POINT
  5
2EC15
330
2DF9A
100
AcDbEntity
  8
DEFPOINTS
 62
     0
 48
50.0
100
AcDbPoint
 10
2993.599999999999
 20
6083.97068131056
 30
0.0
  0
POINT
  5
2EC16
330
2DF9A
100
AcDbEntity
  8
DEFPOINTS
 62
     0
 48
50.0
100
AcDbPoint
 10
2370.66500633007
 20
6083.97068131056
 30
0.0
  0
ENDBLK
  5
2DFA6
330
2DF9A
100
AcDbEntity
  8
0
 48
50.0
100
AcDbBlockEnd
  0
BLOCK
  5
2DFBD
330
2DFB4
100
AcDbEntity
  8
0
 48
50.0
100
AcDbBlockBegin
  2
*D23
 70
     1
 10
0.0
 20
0.0
 30
0.0
  3
*D23
  1

  0
LINE
  5
2ECC3
330
2DFB4
100
AcDbEntity
  8
寸法
 62
     0
 48
50.0
370
    -2
100
AcDbLine
 10
5848.600000000006
 20
6960.97068131056
 30
0.0
 11
5848.600000000006
 21
8166.579497980809
 31
0.0
  0
LINE
  5
2ECC4
330
2DFB4
100
AcDbEntity
  8
寸法
 62
     0
 48
50.0
370
    -2
100
AcDbLine
 10
4898.600000000006
 20
6960.97068131056
 30
0.0
 11
4898.600000000006
 21
8166.579497980809
 31
0.0
  0
LINE
  5
2ECC5
330
2DFB4
100
AcDbEntity
  8
寸法
 62
     0
 48
50.0
370
    -2
100
AcDbLine
 10
5848.600000000006
 20
8106.579497980808
 30
0.0
 11
4898.600000000006
 21
8106.579497980808
 31
0.0
  0
INSERT
  5
2ECC6
330
2DFB4
100
AcDbEntity
  8
寸法
 62
     0
 48
50.0
370
    -2
100
AcDbBlockReference
  2
_DOTSMALL
 10
5848.600000000006
 20
8106.579497980808
 30
0.0
 41
100.0
 42
100.0
 43
100.0
  0
INSERT
  5
2ECC7
330
2DFB4
100
AcDbEntity
  8
寸法
 62
     0
 48
50.0
370
    -2
100
AcDbBlockReference
  2
_DOTSMALL
 10
4898.600000000006
 20
8106.579497980808
 30
0.0
 41
100.0
 42
100.0
 43
100.0
 50
180.0
  0
MTEXT
  5
2ECC8
330
2DFB4
100
AcDbEntity
  8
寸法
 62
     7
 48
50.0
100
AcDbMText
 10
5373.600000000006
 20
8206.579497980809
 30
0.0
 40
120.0
 41
0.0
 71
     5
 72
     1
  1
\A1;950
  7
STYLE1
 73
     1
 44
1.0
1001
ACAD
1000
MTEXTBEGIN
1070
    73
1070
     1
1070
    44
1040
1.0
1070
    74
1070
     0
1000
MTEXTEND
  0
POINT
  5
2ECC9
330
2DFB4
100
AcDbEntity
  8
DEFPOINTS
 62
     0
 48
50.0
100
AcDbPoint
 10
5848.600000000006
 20
6940.97068131056
 30
0.0
  0
POINT
  5
2ECCA
330
2DFB4
100
AcDbEntity
  8
DEFPOINTS
 62
     0
 48
50.0
100
AcDbPoint
 10
4898.600000000006
 20
6940.97068131056
 30
0.0
  0
POINT
  5
2ECCB
330
2DFB4
100
AcDbEntity
  8
DEFPOINTS
 62
     0
 48
50.0
100
AcDbPoint
 10
4898.600000000006
 20
8106.579497980808
 30
0.0
  0
ENDBLK
  5
2DFBE
330
2DFB4
100
AcDbEntity
  8
0
 48
50.0
100
AcDbBlockEnd
  0
BLOCK
  5
2DFC8
330
2DFBF
100
AcDbEntity
  8
0
 48
50.0
100
AcDbBlockBegin
  2
*D24
 70
     1
 10
0.0
 20
0.0
 30
0.0
  3
*D24
  1

  0
LINE
  5
2E4A3
330
2DFBF
100
AcDbEntity
  8
寸法
 62
     0
 48
50.0
370
    -2
100
AcDbLine
 10
5730.599999999999
 20
7570.970681310561
 30
0.0
 11
5730.599999999999
 21
8410.23713940447
 31
0.0
  0
LINE
  5
2E4A4
330
2DFBF
100
AcDbEntity
  8
寸法
 62
     0
 48
50.0
370
    -2
100
AcDbLine
 10
3116.599999999999
 20
7570.970681310561
 30
0.0
 11
3116.599999999999
 21
8410.23713940447
 31
0.0
  0
LINE
  5
2E4A5
330
2DFBF
100
AcDbEntity
  8
寸法
 62
     0
 48
50.0
370
    -2
100
AcDbLine
 10
5730.599999999999
 20
8350.237139404471
 30
0.0
 11
3116.599999999999
 21
8350.237139404471
 31
0.0
  0
INSERT
  5
2E4A6
330
2DFBF
100
AcDbEntity
  8
寸法
 62
     0
 48
50.0
370
    -2
100
AcDbBlockReference
  2
_DOTSMALL
 10
5730.599999999999
 20
8350.237139404471
 30
0.0
 41
100.0
 42
100.0
 43
100.0
  0
INSERT
  5
2E4A7
330
2DFBF
100
AcDbEntity
  8
寸法
 62
     0
 48
50.0
370
    -2
100
AcDbBlockReference
  2
_DOTSMALL
 10
3116.599999999999
 20
8350.237139404471
 30
0.0
 41
100.0
 42
100.0
 43
100.0
 50
180.0
  0
MTEXT
  5
2E4A8
330
2DFBF
100
AcDbEntity
  8
寸法
 62
     7
 48
50.0
100
AcDbMText
 10
4423.599999999998
 20
8450.248950428093
 30
0.0
 40
120.0
 41
0.0
 71
     5
 72
     1
  1
\A1;2614
  7
STYLE1
 73
     1
 44
1.0
1001
ACAD
1000
MTEXTBEGIN
1070
    73
1070
     1
1070
    44
1040
1.0
1070
    74
1070
     0
1000
MTEXTEND
  0
POINT
  5
2E4A9
330
2DFBF
100
AcDbEntity
  8
DEFPOINTS
 62
     0
 48
50.0
100
AcDbPoint
 10
5730.599999999999
 20
7550.970681310561
 30
0.0
  0
POINT
  5
2E4AA
330
2DFBF
100
AcDbEntity
  8
DEFPOINTS
 62
     0
 48
50.0
100
AcDbPoint
 10
3116.599999999999
 20
7550.970681310561
 30
0.0
  0
POINT
  5
2E4AB
330
2DFBF
100
AcDbEntity
  8
DEFPOINTS
 62
     0
 48
50.0
100
AcDbPoint
 10
3116.599999999999
 20
8350.237139404471
 30
0.0
  0
ENDBLK
  5
2DFC9
330
2DFBF
100
AcDbEntity
  8
0
 48
50.0
100
AcDbBlockEnd
  0
BLOCK
  5
2DFD3
330
2DFCA
100
AcDbEntity
  8
0
 48
50.0
100
AcDbBlockBegin
  2
*D25
 70
     1
 10
0.0
 20
0.0
 30
0.0
  3
*D25
  1

  0
LINE
  5
2ECD5
330
2DFCA
100
AcDbEntity
  8
寸法
 62
     0
 48
50.0
370
    -2
100
AcDbLine
 10
4898.600000000006
 20
6960.97068131056
 30
0.0
 11
4898.600000000006
 21
8166.579497980809
 31
0.0
  0
LINE
  5
2ECD6
330
2DFCA
100
AcDbEntity
  8
寸法
 62
     0
 48
50.0
370
    -2
100
AcDbLine
 10
3948.600000000006
 20
6960.97068131056
 30
0.0
 11
3948.600000000006
 21
8166.579497980809
 31
0.0
  0
LINE
  5
2ECD7
330
2DFCA
100
AcDbEntity
  8
寸法
 62
     0
 48
50.0
370
    -2
100
AcDbLine
 10
4898.600000000006
 20
8106.579497980808
 30
0.0
 11
3948.600000000006
 21
8106.579497980808
 31
0.0
  0
INSERT
  5
2ECD8
330
2DFCA
100
AcDbEntity
  8
寸法
 62
     0
 48
50.0
370
    -2
100
AcDbBlockReference
  2
_DOTSMALL
 10
4898.600000000006
 20
8106.579497980808
 30
0.0
 41
100.0
 42
100.0
 43
100.0
  0
INSERT
  5
2ECD9
330
2DFCA
100
AcDbEntity
  8
寸法
 62
     0
 48
50.0
370
    -2
100
AcDbBlockReference
  2
_DOTSMALL
 10
3948.600000000006
 20
8106.579497980808
 30
0.0
 41
100.0
 42
100.0
 43
100.0
 50
180.0
  0
MTEXT
  5
2ECDA
330
2DFCA
100
AcDbEntity
  8
寸法
 62
     7
 48
50.0
100
AcDbMText
 10
4423.600000000006
 20
8206.579497980809
 30
0.0
 40
120.0
 41
0.0
 71
     5
 72
     1
  1
\A1;950
  7
STYLE1
 73
     1
 44
1.0
1001
ACAD
1000
MTEXTBEGIN
1070
    73
1070
     1
1070
    44
1040
1.0
1070
    74
1070
     0
1000
MTEXTEND
  0
POINT
  5
2ECDB
330
2DFCA
100
AcDbEntity
  8
DEFPOINTS
 62
     0
 48
50.0
100
AcDbPoint
 10
4898.600000000006
 20
6940.97068131056
 30
0.0
  0
POINT
  5
2ECDC
330
2DFCA
100
AcDbEntity
  8
DEFPOINTS
 62
     0
 48
50.0
100
AcDbPoint
 10
3948.600000000006
 20
6940.97068131056
 30
0.0
  0
POINT
  5
2ECDD
330
2DFCA
100
AcDbEntity
  8
DEFPOINTS
 62
     0
 48
50.0
100
AcDbPoint
 10
3948.600000000006
 20
8106.579497980808
 30
0.0
  0
ENDBLK
  5
2DFD4
330
2DFCA
100
AcDbEntity
  8
0
 48
50.0
100
AcDbBlockEnd
  0
BLOCK
  5
2DFE0
330
2DFD5
100
AcDbEntity
  8
0
 48
50.0
100
AcDbBlockBegin
  2
*D26
 70
     1
 10
0.0
 20
0.0
 30
0.0
  3
*D26
  1

  0
LINE
  5
2E490
330
2DFD5
100
AcDbEntity
  8
寸法
 62
     0
 48
50.0
370
    -2
100
AcDbLine
 10
3116.599999999999
 20
7570.970681310561
 30
0.0
 11
3116.599999999999
 21
8410.23713940447
 31
0.0
  0
LINE
  5
2E491
330
2DFD5
100
AcDbEntity
  8
寸法
 62
     0
 48
50.0
370
    -2
100
AcDbLine
 10
2993.599999999999
 20
7643.97068131056
 30
0.0
 11
2993.599999999999
 21
8410.23713940447
 31
0.0
  0
LINE
  5
2E492
330
2DFD5
100
AcDbEntity
  8
寸法
 62
     0
 48
50.0
370
    -2
100
AcDbLine
 10
3116.599999999999
 20
8350.237139404471
 30
0.0
 11
2993.599999999999
 21
8350.237139404471
 31
0.0
  0
LINE
  5
2E493
330
2DFD5
100
AcDbEntity
  8
寸法
 62
     0
 48
50.0
370
    -2
100
AcDbLine
 10
2993.599999999999
 20
8350.237139404471
 30
0.0
 11
2582.008116907962
 21
8350.237139404471
 31
0.0
  0
INSERT
  5
2E494
330
2DFD5
100
AcDbEntity
  8
寸法
 62
     0
 48
50.0
370
    -2
100
AcDbBlockReference
  2
_DOTSMALL
 10
3116.599999999999
 20
8350.237139404471
 30
0.0
 41
100.0
 42
100.0
 43
100.0
  0
INSERT
  5
2E495
330
2DFD5
100
AcDbEntity
  8
寸法
 62
     0
 48
50.0
370
    -2
100
AcDbBlockReference
  2
_DOTSMALL
 10
2993.599999999999
 20
8350.237139404471
 30
0.0
 41
100.0
 42
100.0
 43
100.0
 50
180.0
  0
MTEXT
  5
2E496
330
2DFD5
100
AcDbEntity
  8
寸法
 62
     7
 48
50.0
100
AcDbMText
 10
2720.493398282201
 20
8450.248950428093
 30
0.0
 40
120.0
 41
0.0
 71
     5
 72
     1
  1
\A1;123
  7
STYLE1
 73
     1
 44
1.0
1001
ACAD
1000
MTEXTBEGIN
1070
    73
1070
     1
1070
    44
1040
1.0
1070
    74
1070
     0
1000
MTEXTEND
  0
POINT
  5
2E497
330
2DFD5
100
AcDbEntity
  8
DEFPOINTS
 62
     0
 48
50.0
100
AcDbPoint
 10
3116.599999999999
 20
7550.970681310561
 30
0.0
  0
POINT
  5
2E498
330
2DFD5
100
AcDbEntity
  8
DEFPOINTS
 62
     0
 48
50.0
100
AcDbPoint
 10
2993.599999999999
 20
7623.970681310559
 30
0.0
  0
POINT
  5
2E499
330
2DFD5
100
AcDbEntity
  8
DEFPOINTS
 62
     0
 48
50.0
100
AcDbPoint
 10
2993.599999999999
 20
8350.237139404471
 30
0.0
  0
ENDBLK
  5
2DFE1
330
2DFD5
100
AcDbEntity
  8
0
 48
50.0
100
AcDbBlockEnd
  0
BLOCK
  5
2DFED
330
2DFE2
100
AcDbEntity
  8
0
 48
50.0
100
AcDbBlockBegin
  2
*D27
 70
     1
 10
0.0
 20
0.0
 30
0.0
  3
*D27
  1

  0
LINE
  5
2E4F6
330
2DFE2
100
AcDbEntity
  8
寸法
 62
     0
 48
50.0
370
    -2
100
AcDbLine
 10
2973.599999999999
 20
7623.970681310559
 30
0.0
 11
2310.665006330071
 21
7623.970681310559
 31
0.0
  0
LINE
  5
2E4F7
330
2DFE2
100
AcDbEntity
  8
寸法
 62
     0
 48
50.0
370
    -2
100
AcDbLine
 10
3046.599999999999
 20
7500.970681310561
 30
0.0
 11
2310.665006330071
 21
7500.970681310561
 31
0.0
  0
LINE
  5
2E4F8
330
2DFE2
100
AcDbEntity
  8
寸法
 62
     0
 48
50.0
370
    -2
100
AcDbLine
 10
2370.665006330071
 20
7500.970681310561
 30
0.0
 11
2370.665006330071
 21
7623.970681310559
 31
0.0
  0
LINE
  5
2E4F9
330
2DFE2
100
AcDbEntity
  8
寸法
 62
     0
 48
50.0
370
    -2
100
AcDbLine
 10
2370.665006330071
 20
7623.970681310559
 30
0.0
 11
2370.665006330071
 21
8035.562564402598
 31
0.0
  0
INSERT
  5
2E4FA
330
2DFE2
100
AcDbEntity
  8
寸法
 62
     0
 48
50.0
370
    -2
100
AcDbBlockReference
  2
_DOTSMALL
 10
2370.665006330071
 20
7500.970681310561
 30
0.0
 41
100.0
 42
100.0
 43
100.0
 50
270.0
  0
INSERT
  5
2E4FB
330
2DFE2
100
AcDbEntity
  8
寸法
 62
     0
 48
50.0
370
    -2
100
AcDbBlockReference
  2
_DOTSMALL
 10
2370.665006330071
 20
7623.970681310559
 30
0.0
 41
100.0
 42
100.0
 43
100.0
 50
90.0
  0
MTEXT
  5
2E4FC
330
2DFE2
100
AcDbEntity
  8
寸法
 62
     7
 48
50.0
100
AcDbMText
 10
2270.653195306447
 20
7897.077283028359
 30
0.0
 40
120.0
 41
0.0
 71
     5
 72
     1
  1
\A1;123
  7
STYLE1
 11
0.0000000000000001
 21
1.0
 31
0.0
 73
     1
 44
1.0
1001
ACAD
1000
MTEXTBEGIN
1070
    73
1070
     1
1070
    44
1040
1.0
1070
    74
1070
     0
1000
MTEXTEND
  0
POINT
  5
2E4FD
330
2DFE2
100
AcDbEntity
  8
DEFPOINTS
 62
     0
 48
50.0
100
AcDbPoint
 10
2993.599999999999
 20
7623.970681310559
 30
0.0
  0
POINT
  5
2E4FE
330
2DFE2
100
AcDbEntity
  8
DEFPOINTS
 62
     0
 48
50.0
100
AcDbPoint
 10
3066.599999999999
 20
7500.970681310561
 30
0.0
  0
POINT
  5
2E4FF
330
2DFE2
100
AcDbEntity
  8
DEFPOINTS
 62
     0
 48
50.0
100
AcDbPoint
 10
2370.665006330071
 20
7500.970681310561
 30
0.0
  0
ENDBLK
  5
2DFEE
330
2DFE2
100
AcDbEntity
  8
0
 48
50.0
100
AcDbBlockEnd
  0
BLOCK
  5
2DFF9
330
2DFEF
100
AcDbEntity
  8
0
 48
50.0
100
AcDbBlockBegin
  2
*D28
 70
     1
 10
0.0
 20
0.0
 30
0.0
  3
*D28
  1

  0
LINE
  5
2ECCC
330
2DFEF
100
AcDbEntity
  8
寸法
 62
     0
 48
50.0
370
    -2
100
AcDbLine
 10
3948.600000000006
 20
6960.97068131056
 30
0.0
 11
3948.600000000006
 21
8166.579497980809
 31
0.0
  0
LINE
  5
2ECCD
330
2DFEF
100
AcDbEntity
  8
寸法
 62
     0
 48
50.0
370
    -2
100
AcDbLine
 10
2993.599999999999
 20
7643.97068131056
 30
0.0
 11
2993.599999999999
 21
8166.579497980809
 31
0.0
  0
LINE
  5
2ECCE
330
2DFEF
100
AcDbEntity
  8
寸法
 62
     0
 48
50.0
370
    -2
100
AcDbLine
 10
3948.600000000006
 20
8106.579497980808
 30
0.0
 11
2993.599999999999
 21
8106.579497980808
 31
0.0
  0
INSERT
  5
2ECCF
330
2DFEF
100
AcDbEntity
  8
寸法
 62
     0
 48
50.0
370
    -2
100
AcDbBlockReference
  2
_DOTSMALL
 10
3948.600000000006
 20
8106.579497980808
 30
0.0
 41
100.0
 42
100.0
 43
100.0
  0
INSERT
  5
2ECD0
330
2DFEF
100
AcDbEntity
  8
寸法
 62
     0
 48
50.0
370
    -2
100
AcDbBlockReference
  2
_DOTSMALL
 10
2993.599999999999
 20
8106.579497980808
 30
0.0
 41
100.0
 42
100.0
 43
100.0
 50
180.0
  0
MTEXT
  5
2ECD1
330
2DFEF
100
AcDbEntity
  8
寸法
 62
     7
 48
50.0
100
AcDbMText
 10
3471.100000000002
 20
8206.579497980809
 30
0.0
 40
120.0
 41
0.0
 71
     5
 72
     1
  1
\A1;955
  7
STYLE1
 73
     1
 44
1.0
1001
ACAD
1000
MTEXTBEGIN
1070
    73
1070
     1
1070
    44
1040
1.0
1070
    74
1070
     0
1000
MTEXTEND
  0
POINT
  5
2ECD2
330
2DFEF
100
AcDbEntity
  8
DEFPOINTS
 62
     0
 48
50.0
100
AcDbPoint
 10
3948.600000000006
 20
6940.97068131056
 30
0.0
  0
POINT
  5
2ECD3
330
2DFEF
100
AcDbEntity
  8
DEFPOINTS
 62
     0
 48
50.0
100
AcDbPoint
 10
2993.599999999999
 20
7623.970681310559
 30
0.0
  0
POINT
  5
2ECD4
330
2DFEF
100
AcDbEntity
  8
DEFPOINTS
 62
     0
 48
50.0
100
AcDbPoint
 10
2993.599999999999
 20
8106.579497980808
 30
0.0
  0
ENDBLK
  5
2DFFA
330
2DFEF
100
AcDbEntity
  8
0
 48
50.0
100
AcDbBlockEnd
  0
BLOCK
  5
2E012
330
2E008
100
AcDbEntity
  8
0
 48
50.0
100
AcDbBlockBegin
  2
*D29
 70
     1
 10
0.0
 20
0.0
 30
0.0
  3
*D29
  1

  0
LINE
  5
2ECE7
330
2E008
100
AcDbEntity
  8
寸法
 62
     0
 48
50.0
370
    -2
100
AcDbLine
 10
3878.600000000006
 20
6890.97068131056
 30
0.0
 11
3416.2859906143
 21
6890.97068131056
 31
0.0
  0
LINE
  5
2ECE8
330
2E008
100
AcDbEntity
  8
寸法
 62
     0
 48
50.0
370
    -2
100
AcDbLine
 10
3547.765475140899
 20
7623.970681310559
 30
0.0
 11
3416.2859906143
 21
7623.970681310559
 31
0.0
  0
LINE
  5
2ECE9
330
2E008
100
AcDbEntity
  8
寸法
 62
     0
 48
50.0
370
    -2
100
AcDbLine
 10
3476.285990614299
 20
6890.97068131056
 30
0.0
 11
3476.2859906143
 21
7623.970681310559
 31
0.0
  0
INSERT
  5
2ECEA
330
2E008
100
AcDbEntity
  8
寸法
 62
     0
 48
50.0
370
    -2
100
AcDbBlockReference
  2
_DOTSMALL
 10
3476.285990614299
 20
6890.97068131056
 30
0.0
 41
100.0
 42
100.0
 43
100.0
 50
270.0
  0
INSERT
  5
2ECEB
330
2E008
100
AcDbEntity
  8
寸法
 62
     0
 48
50.0
370
    -2
100
AcDbBlockReference
  2
_DOTSMALL
 10
3476.2859906143
 20
7623.970681310559
 30
0.0
 41
100.0
 42
100.0
 43
100.0
 50
90.0
  0
MTEXT
  5
2ECEC
330
2E008
100
AcDbEntity
  8
寸法
 62
     7
 48
50.0
100
AcDbMText
 10
3376.285990614299
 20
7183.565472004737
 30
0.0
 40
120.0
 41
0.0
 71
     5
 72
     1
  1
\A1;733
  7
STYLE1
 11
0.0000000000000001
 21
1.0
 31
0.0
 73
     1
 44
1.0
1001
ACAD
1000
MTEXTBEGIN
1070
    73
1070
     1
1070
    44
1040
1.0
1070
    74
1070
     0
1000
MTEXTEND
  0
POINT
  5
2ECED
330
2E008
100
AcDbEntity
  8
DEFPOINTS
 62
     0
 48
50.0
100
AcDbPoint
 10
3898.600000000006
 20
6890.97068131056
 30
0.0
  0
POINT
  5
2ECEE
330
2E008
100
AcDbEntity
  8
DEFPOINTS
 62
     0
 48
50.0
100
AcDbPoint
 10
3567.7654751409
 20
7623.970681310559
 30
0.0
  0
POINT
  5
2ECEF
330
2E008
100
AcDbEntity
  8
DEFPOINTS
 62
     0
 48
50.0
100
AcDbPoint
 10
3476.2859906143
 20
7623.970681310559
 30
0.0
  0
ENDBLK
  5
2E013
330
2E008
100
AcDbEntity
  8
0
 48
50.0
100
AcDbBlockEnd
  0
BLOCK
  5
2E01E
330
2E014
100
AcDbEntity
  8
0
 48
50.0
100
AcDbBlockBegin
  2
*D30
 70
     1
 10
0.0
 20
0.0
 30
0.0
  3
*D30
  1

  0
LINE
  5
2ECDE
330
2E014
100
AcDbEntity
  8
寸法
 62
     0
 48
50.0
370
    -2
100
AcDbLine
 10
3547.765475140899
 20
6083.970681310571
 30
0.0
 11
3416.2859906143
 21
6083.970681310571
 31
0.0
  0
LINE
  5
2ECDF
330
2E014
100
AcDbEntity
  8
寸法
 62
     0
 48
50.0
370
    -2
100
AcDbLine
 10
3878.600000000006
 20
6890.97068131056
 30
0.0
 11
3416.2859906143
 21
6890.97068131056
 31
0.0
  0
LINE
  5
2ECE0
330
2E014
100
AcDbEntity
  8
寸法
 62
     0
 48
50.0
370
    -2
100
AcDbLine
 10
3476.285990614299
 20
6083.970681310571
 30
0.0
 11
3476.285990614299
 21
6890.97068131056
 31
0.0
  0
INSERT
  5
2ECE1
330
2E014
100
AcDbEntity
  8
寸法
 62
     0
 48
50.0
370
    -2
100
AcDbBlockReference
  2
_DOTSMALL
 10
3476.285990614299
 20
6083.970681310571
 30
0.0
 41
100.0
 42
100.0
 43
100.0
 50
270.0
  0
INSERT
  5
2ECE2
330
2E014
100
AcDbEntity
  8
寸法
 62
     0
 48
50.0
370
    -2
100
AcDbBlockReference
  2
_DOTSMALL
 10
3476.285990614299
 20
6890.97068131056
 30
0.0
 41
100.0
 42
100.0
 43
100.0
 50
90.0
  0
MTEXT
  5
2ECE3
330
2E014
100
AcDbEntity
  8
寸法
 62
     7
 48
50.0
100
AcDbMText
 10
3376.285990614299
 20
6568.97068131056
 30
0.0
 40
120.0
 41
0.0
 71
     5
 72
     1
  1
\A1;807
  7
STYLE1
 11
0.0000000000000001
 21
1.0
 31
0.0
 73
     1
 44
1.0
1001
ACAD
1000
MTEXTBEGIN
1070
    73
1070
     1
1070
    44
1040
1.0
1070
    74
1070
     0
1000
MTEXTEND
  0
POINT
  5
2ECE4
330
2E014
100
AcDbEntity
  8
DEFPOINTS
 62
     0
 48
50.0
100
AcDbPoint
 10
3567.7654751409
 20
6083.970681310571
 30
0.0
  0
POINT
  5
2ECE5
330
2E014
100
AcDbEntity
  8
DEFPOINTS
 62
     0
 48
50.0
100
AcDbPoint
 10
3898.600000000006
 20
6890.97068131056
 30
0.0
  0
POINT
  5
2ECE6
330
2E014
100
AcDbEntity
  8
DEFPOINTS
 62
     0
 48
50.0
100
AcDbPoint
 10
3476.285990614299
 20
6890.97068131056
 30
0.0
  0
ENDBLK
  5
2E01F
330
2E014
100
AcDbEntity
  8
0
 48
50.0
100
AcDbBlockEnd
  0
BLOCK
  5
2E02A
330
2E020
100
AcDbEntity
  8
0
 48
50.0
100
AcDbBlockBegin
  2
*D31
 70
     1
 10
0.0
 20
0.0
 30
0.0
  3
*D31
  1

  0
LINE
  5
2EC04
330
2E020
100
AcDbEntity
  8
寸法
 62
     0
 48
50.0
370
    -2
100
AcDbLine
 10
3046.599999999999
 20
7500.970681310561
 30
0.0
 11
2310.665006330071
 21
7500.970681310561
 31
0.0
  0
LINE
  5
2EC05
330
2E020
100
AcDbEntity
  8
寸法
 62
     0
 48
50.0
370
    -2
100
AcDbLine
 10
3046.600000000006
 20
6281.970681310564
 30
0.0
 11
2310.66500633007
 21
6281.970681310564
 31
0.0
  0
LINE
  5
2EC06
330
2E020
100
AcDbEntity
  8
寸法
 62
     0
 48
50.0
370
    -2
100
AcDbLine
 10
2370.665006330071
 20
7500.970681310561
 30
0.0
 11
2370.66500633007
 21
6281.970681310564
 31
0.0
  0
INSERT
  5
2EC07
330
2E020
100
AcDbEntity
  8
寸法
 62
     0
 48
50.0
370
    -2
100
AcDbBlockReference
  2
_DOTSMALL
 10
2370.665006330071
 20
7500.970681310561
 30
0.0
 41
100.0
 42
100.0
 43
100.0
 50
90.0
  0
INSERT
  5
2EC08
330
2E020
100
AcDbEntity
  8
寸法
 62
     0
 48
50.0
370
    -2
100
AcDbBlockReference
  2
_DOTSMALL
 10
2370.66500633007
 20
6281.970681310564
 30
0.0
 41
100.0
 42
100.0
 43
100.0
 50
270.0
  0
MTEXT
  5
2EC09
330
2E020
100
AcDbEntity
  8
寸法
 62
     7
 48
50.0
100
AcDbMText
 10
2270.653195306447
 20
6891.470681310561
 30
0.0
 40
120.0
 41
0.0
 71
     5
 72
     1
  1
\A1;1219
  7
STYLE1
 11
0.0000000000000001
 21
1.0
 31
0.0
 73
     1
 44
1.0
1001
ACAD
1000
MTEXTBEGIN
1070
    73
1070
     1
1070
    44
1040
1.0
1070
    74
1070
     0
1000
MTEXTEND
  0
POINT
  5
2EC0A
330
2E020
100
AcDbEntity
  8
DEFPOINTS
 62
     0
 48
50.0
100
AcDbPoint
 10
3066.599999999999
 20
7500.970681310561
 30
0.0
  0
POINT
  5
2EC0B
330
2E020
100
AcDbEntity
  8
DEFPOINTS
 62
     0
 48
50.0
100
AcDbPoint
 10
3066.600000000006
 20
6281.970681310564
 30
0.0
  0
POINT
  5
2EC0C
330
2E020
100
AcDbEntity
  8
DEFPOINTS
 62
     0
 48
50.0
100
AcDbPoint
 10
2370.66500633007
 20
6281.970681310564
 30
0.0
  0
ENDBLK
  5
2E02B
330
2E020
100
AcDbEntity
  8
0
 48
50.0
100
AcDbBlockEnd
  0
BLOCK
  5
2E036
330
2E02C
100
AcDbEntity
  8
0
 48
50.0
100
AcDbBlockBegin
  2
*D32
 70
     1
 10
0.0
 20
0.0
 30
0.0
  3
*D32
  1

  0
LINE
  5
2E4E4
330
2E02C
100
AcDbEntity
  8
寸法
 62
     0
 48
50.0
370
    -2
100
AcDbLine
 10
2973.599999999999
 20
7623.970681310559
 30
0.0
 11
2058.721909610673
 21
7623.970681310559
 31
0.0
  0
LINE
  5
2E4E5
330
2E02C
100
AcDbEntity
  8
寸法
 62
     0
 48
50.0
370
    -2
100
AcDbLine
 10
2973.599999999999
 20
6083.97068131056
 30
0.0
 11
2058.721909610672
 21
6083.97068131056
 31
0.0
  0
LINE
  5
2E4E6
330
2E02C
100
AcDbEntity
  8
寸法
 62
     0
 48
50.0
370
    -2
100
AcDbLine
 10
2118.721909610672
 20
7623.970681310559
 30
0.0
 11
2118.721909610672
 21
6083.97068131056
 31
0.0
  0
INSERT
  5
2E4E7
330
2E02C
100
AcDbEntity
  8
寸法
 62
     0
 48
50.0
370
    -2
100
AcDbBlockReference
  2
_DOTSMALL
 10
2118.721909610672
 20
7623.970681310559
 30
0.0
 41
100.0
 42
100.0
 43
100.0
 50
90.0
  0
INSERT
  5
2E4E8
330
2E02C
100
AcDbEntity
  8
寸法
 62
     0
 48
50.0
370
    -2
100
AcDbBlockReference
  2
_DOTSMALL
 10
2118.721909610672
 20
6083.97068131056
 30
0.0
 41
100.0
 42
100.0
 43
100.0
 50
270.0
  0
MTEXT
  5
2E4E9
330
2E02C
100
AcDbEntity
  8
寸法
 62
     7
 48
50.0
100
AcDbMText
 10
2018.721909610671
 20
6891.470681310561
 30
0.0
 40
120.0
 41
0.0
 71
     5
 72
     1
  1
\A1;1540
  7
STYLE1
 11
0.0000000000000001
 21
1.0
 31
0.0
 73
     1
 44
1.0
1001
ACAD
1000
MTEXTBEGIN
1070
    73
1070
     1
1070
    44
1040
1.0
1070
    74
1070
     0
1000
MTEXTEND
  0
POINT
  5
2E4EA
330
2E02C
100
AcDbEntity
  8
DEFPOINTS
 62
     0
 48
50.0
100
AcDbPoint
 10
2993.599999999999
 20
7623.970681310559
 30
0.0
  0
POINT
  5
2E4EB
330
2E02C
100
AcDbEntity
  8
DEFPOINTS
 62
     0
 48
50.0
100
AcDbPoint
 10
2993.599999999999
 20
6083.97068131056
 30
0.0
  0
POINT
  5
2E4EC
330
2E02C
100
AcDbEntity
  8
DEFPOINTS
 62
     0
 48
50.0
100
AcDbPoint
 10
2118.721909610672
 20
6083.97068131056
 30
0.0
  0
ENDBLK
  5
2E037
330
2E02C
100
AcDbEntity
  8
0
 48
50.0
100
AcDbBlockEnd
  0
BLOCK
  5
2E065
330
2E05B
100
AcDbEntity
  8
0
 48
50.0
100
AcDbBlockBegin
  2
*D33
 70
     1
 10
0.0
 20
0.0
 30
0.0
  3
*D33
  1

  0
LINE
  5
2ECB1
330
2E05B
100
AcDbEntity
  8
寸法
 62
     0
 48
50.0
370
    -2
100
AcDbLine
 10
6798.600000000006
 20
6960.97068131056
 30
0.0
 11
6798.600000000006
 21
8166.579497980809
 31
0.0
  0
LINE
  5
2ECB2
330
2E05B
100
AcDbEntity
  8
寸法
 62
     0
 48
50.0
370
    -2
100
AcDbLine
 10
5848.600000000006
 20
6960.97068131056
 30
0.0
 11
5848.600000000006
 21
8166.579497980809
 31
0.0
  0
LINE
  5
2ECB3
330
2E05B
100
AcDbEntity
  8
寸法
 62
     0
 48
50.0
370
    -2
100
AcDbLine
 10
6798.600000000006
 20
8106.579497980808
 30
0.0
 11
5848.600000000006
 21
8106.579497980808
 31
0.0
  0
INSERT
  5
2ECB4
330
2E05B
100
AcDbEntity
  8
寸法
 62
     0
 48
50.0
370
    -2
100
AcDbBlockReference
  2
_DOTSMALL
 10
6798.600000000006
 20
8106.579497980808
 30
0.0
 41
100.0
 42
100.0
 43
100.0
  0
INSERT
  5
2ECB5
330
2E05B
100
AcDbEntity
  8
寸法
 62
     0
 48
50.0
370
    -2
100
AcDbBlockReference
  2
_DOTSMALL
 10
5848.600000000006
 20
8106.579497980808
 30
0.0
 41
100.0
 42
100.0
 43
100.0
 50
180.0
  0
MTEXT
  5
2ECB6
330
2E05B
100
AcDbEntity
  8
寸法
 62
     7
 48
50.0
100
AcDbMText
 10
6323.600000000006
 20
8206.579497980809
 30
0.0
 40
120.0
 41
0.0
 71
     5
 72
     1
  1
\A1;950
  7
STYLE1
 73
     1
 44
1.0
1001
ACAD
1000
MTEXTBEGIN
1070
    73
1070
     1
1070
    44
1040
1.0
1070
    74
1070
     0
1000
MTEXTEND
  0
POINT
  5
2ECB7
330
2E05B
100
AcDbEntity
  8
DEFPOINTS
 62
     0
 48
50.0
100
AcDbPoint
 10
6798.600000000006
 20
6940.97068131056
 30
0.0
  0
POINT
  5
2ECB8
330
2E05B
100
AcDbEntity
  8
DEFPOINTS
 62
     0
 48
50.0
100
AcDbPoint
 10
5848.600000000006
 20
6940.97068131056
 30
0.0
  0
POINT
  5
2ECB9
330
2E05B
100
AcDbEntity
  8
DEFPOINTS
 62
     0
 48
50.0
100
AcDbPoint
 10
5848.600000000006
 20
8106.579497980808
 30
0.0
  0
ENDBLK
  5
2E066
330
2E05B
100
AcDbEntity
  8
0
 48
50.0
100
AcDbBlockEnd
  0
BLOCK
  5
2E070
330
2E067
100
AcDbEntity
  8
0
 48
50.0
100
AcDbBlockBegin
  2
*D34
 70
     1
 10
0.0
 20
0.0
 30
0.0
  3
*D34
  1

  0
LINE
  5
2EC9F
330
2E067
100
AcDbEntity
  8
寸法
 62
     0
 48
50.0
370
    -2
100
AcDbLine
 10
7748.600000000006
 20
6960.97068131056
 30
0.0
 11
7748.600000000006
 21
8166.579497980809
 31
0.0
  0
LINE
  5
2ECA0
330
2E067
100
AcDbEntity
  8
寸法
 62
     0
 48
50.0
370
    -2
100
AcDbLine
 10
6798.600000000006
 20
6960.97068131056
 30
0.0
 11
6798.600000000006
 21
8166.579497980809
 31
0.0
  0
LINE
  5
2ECA1
330
2E067
100
AcDbEntity
  8
寸法
 62
     0
 48
50.0
370
    -2
100
AcDbLine
 10
7748.600000000006
 20
8106.579497980808
 30
0.0
 11
6798.600000000006
 21
8106.579497980808
 31
0.0
  0
INSERT
  5
2ECA2
330
2E067
100
AcDbEntity
  8
寸法
 62
     0
 48
50.0
370
    -2
100
AcDbBlockReference
  2
_DOTSMALL
 10
7748.600000000006
 20
8106.579497980808
 30
0.0
 41
100.0
 42
100.0
 43
100.0
  0
INSERT
  5
2ECA3
330
2E067
100
AcDbEntity
  8
寸法
 62
     0
 48
50.0
370
    -2
100
AcDbBlockReference
  2
_DOTSMALL
 10
6798.600000000006
 20
8106.579497980808
 30
0.0
 41
100.0
 42
100.0
 43
100.0
 50
180.0
  0
MTEXT
  5
2ECA4
330
2E067
100
AcDbEntity
  8
寸法
 62
     7
 48
50.0
100
AcDbMText
 10
7273.600000000006
 20
8206.579497980809
 30
0.0
 40
120.0
 41
0.0
 71
     5
 72
     1
  1
\A1;950
  7
STYLE1
 73
     1
 44
1.0
1001
ACAD
1000
MTEXTBEGIN
1070
    73
1070
     1
1070
    44
1040
1.0
1070
    74
1070
     0
1000
MTEXTEND
  0
POINT
  5
2ECA5
330
2E067
100
AcDbEntity
  8
DEFPOINTS
 62
     0
 48
50.0
100
AcDbPoint
 10
7748.600000000006
 20
6940.97068131056
 30
0.0
  0
POINT
  5
2ECA6
330
2E067
100
AcDbEntity
  8
DEFPOINTS
 62
     0
 48
50.0
100
AcDbPoint
 10
6798.600000000006
 20
6940.97068131056
 30
0.0
  0
POINT
  5
2ECA7
330
2E067
100
AcDbEntity
  8
DEFPOINTS
 62
     0
 48
50.0
100
AcDbPoint
 10
6798.600000000006
 20
8106.579497980808
 30
0.0
  0
ENDBLK
  5
2E071
330
2E067
100
AcDbEntity
  8
0
 48
50.0
100
AcDbBlockEnd
  0
BLOCK
  5
2E07C
330
2E072
100
AcDbEntity
  8
0
 48
50.0
100
AcDbBlockBegin
  2
*D35
 70
     1
 10
0.0
 20
0.0
 30
0.0
  3
*D35
  1

  0
LINE
  5
2E457
330
2E072
100
AcDbEntity
  8
寸法
 62
     0
 48
50.0
370
    -2
100
AcDbLine
 10
7630.599999999998
 20
7570.970681310561
 30
0.0
 11
7630.599999999998
 21
8410.23713940447
 31
0.0
  0
LINE
  5
2E458
330
2E072
100
AcDbEntity
  8
寸法
 62
     0
 48
50.0
370
    -2
100
AcDbLine
 10
5730.599999999999
 20
7570.970681310561
 30
0.0
 11
5730.599999999999
 21
8410.23713940447
 31
0.0
  0
LINE
  5
2E459
330
2E072
100
AcDbEntity
  8
寸法
 62
     0
 48
50.0
370
    -2
100
AcDbLine
 10
7630.599999999998
 20
8350.237139404471
 30
0.0
 11
5730.599999999999
 21
8350.237139404471
 31
0.0
  0
INSERT
  5
2E45A
330
2E072
100
AcDbEntity
  8
寸法
 62
     0
 48
50.0
370
    -2
100
AcDbBlockReference
  2
_DOTSMALL
 10
7630.599999999998
 20
8350.237139404471
 30
0.0
 41
100.0
 42
100.0
 43
100.0
  0
INSERT
  5
2E45B
330
2E072
100
AcDbEntity
  8
寸法
 62
     0
 48
50.0
370
    -2
100
AcDbBlockReference
  2
_DOTSMALL
 10
5730.599999999999
 20
8350.237139404471
 30
0.0
 41
100.0
 42
100.0
 43
100.0
 50
180.0
  0
MTEXT
  5
2E45C
330
2E072
100
AcDbEntity
  8
寸法
 62
     7
 48
50.0
100
AcDbMText
 10
6680.599999999998
 20
8450.237139404471
 30
0.0
 40
120.0
 41
0.0
 71
     5
 72
     1
  1
\A1;1900
  7
STYLE1
 73
     1
 44
1.0
1001
ACAD
1000
MTEXTBEGIN
1070
    73
1070
     1
1070
    44
1040
1.0
1070
    74
1070
     0
1000
MTEXTEND
  0
POINT
  5
2E45D
330
2E072
100
AcDbEntity
  8
DEFPOINTS
 62
     0
 48
50.0
100
AcDbPoint
 10
7630.599999999998
 20
7550.970681310561
 30
0.0
  0
POINT
  5
2E45E
330
2E072
100
AcDbEntity
  8
DEFPOINTS
 62
     0
 48
50.0
100
AcDbPoint
 10
5730.599999999999
 20
7550.970681310561
 30
0.0
  0
POINT
  5
2E45F
330
2E072
100
AcDbEntity
  8
DEFPOINTS
 62
     0
 48
50.0
100
AcDbPoint
 10
5730.599999999999
 20
8350.237139404471
 30
0.0
  0
ENDBLK
  5
2E07D
330
2E072
100
AcDbEntity
  8
0
 48
50.0
100
AcDbBlockEnd
  0
BLOCK
  5
2E088
330
2E07E
100
AcDbEntity
  8
0
 48
50.0
100
AcDbBlockBegin
  2
*D36
 70
     1
 10
0.0
 20
0.0
 30
0.0
  3
*D36
  1

  0
LINE
  5
2EC4E
330
2E07E
100
AcDbEntity
  8
寸法
 62
     0
 48
50.0
370
    -2
100
AcDbLine
 10
12498.6
 20
6960.97068131056
 30
0.0
 11
12498.6
 21
8166.579497980809
 31
0.0
  0
LINE
  5
2EC4F
330
2E07E
100
AcDbEntity
  8
寸法
 62
     0
 48
50.0
370
    -2
100
AcDbLine
 10
11548.6
 20
6960.97068131056
 30
0.0
 11
11548.6
 21
8166.579497980809
 31
0.0
  0
LINE
  5
2EC50
330
2E07E
100
AcDbEntity
  8
寸法
 62
     0
 48
50.0
370
    -2
100
AcDbLine
 10
12498.6
 20
8106.579497980808
 30
0.0
 11
11548.6
 21
8106.579497980808
 31
0.0
  0
INSERT
  5
2EC51
330
2E07E
100
AcDbEntity
  8
寸法
 62
     0
 48
50.0
370
    -2
100
AcDbBlockReference
  2
_DOTSMALL
 10
12498.6
 20
8106.579497980808
 30
0.0
 41
100.0
 42
100.0
 43
100.0
  0
INSERT
  5
2EC52
330
2E07E
100
AcDbEntity
  8
寸法
 62
     0
 48
50.0
370
    -2
100
AcDbBlockReference
  2
_DOTSMALL
 10
11548.6
 20
8106.579497980808
 30
0.0
 41
100.0
 42
100.0
 43
100.0
 50
180.0
  0
MTEXT
  5
2EC53
330
2E07E
100
AcDbEntity
  8
寸法
 62
     7
 48
50.0
100
AcDbMText
 10
12023.6
 20
8206.579497980809
 30
0.0
 40
120.0
 41
0.0
 71
     5
 72
     1
  1
\A1;950
  7
STYLE1
 73
     1
 44
1.0
1001
ACAD
1000
MTEXTBEGIN
1070
    73
1070
     1
1070
    44
1040
1.0
1070
    74
1070
     0
1000
MTEXTEND
  0
POINT
  5
2EC54
330
2E07E
100
AcDbEntity
  8
DEFPOINTS
 62
     0
 48
50.0
100
AcDbPoint
 10
12498.6
 20
6940.97068131056
 30
0.0
  0
POINT
  5
2EC55
330
2E07E
100
AcDbEntity
  8
DEFPOINTS
 62
     0
 48
50.0
100
AcDbPoint
 10
11548.6
 20
6940.97068131056
 30
0.0
  0
POINT
  5
2EC56
330
2E07E
100
AcDbEntity
  8
DEFPOINTS
 62
     0
 48
50.0
100
AcDbPoint
 10
11548.6
 20
8106.579497980808
 30
0.0
  0
ENDBLK
  5
2E089
330
2E07E
100
AcDbEntity
  8
0
 48
50.0
100
AcDbBlockEnd
  0
BLOCK
  5
2E094
330
2E08A
100
AcDbEntity
  8
0
 48
50.0
100
AcDbBlockBegin
  2
*D37
 70
     1
 10
0.0
 20
0.0
 30
0.0
  3
*D37
  1

  0
LINE
  5
2E445
330
2E08A
100
AcDbEntity
  8
寸法
 62
     0
 48
50.0
370
    -2
100
AcDbLine
 10
13330.6
 20
7570.970681310561
 30
0.0
 11
13330.6
 21
8410.23713940447
 31
0.0
  0
LINE
  5
2E446
330
2E08A
100
AcDbEntity
  8
寸法
 62
     0
 48
50.0
370
    -2
100
AcDbLine
 10
10480.6
 20
7570.970681310561
 30
0.0
 11
10480.6
 21
8410.23713940447
 31
0.0
  0
LINE
  5
2E447
330
2E08A
100
AcDbEntity
  8
寸法
 62
     0
 48
50.0
370
    -2
100
AcDbLine
 10
13330.6
 20
8350.237139404471
 30
0.0
 11
10480.6
 21
8350.237139404471
 31
0.0
  0
INSERT
  5
2E448
330
2E08A
100
AcDbEntity
  8
寸法
 62
     0
 48
50.0
370
    -2
100
AcDbBlockReference
  2
_DOTSMALL
 10
13330.6
 20
8350.237139404471
 30
0.0
 41
100.0
 42
100.0
 43
100.0
  0
INSERT
  5
2E449
330
2E08A
100
AcDbEntity
  8
寸法
 62
     0
 48
50.0
370
    -2
100
AcDbBlockReference
  2
_DOTSMALL
 10
10480.6
 20
8350.237139404471
 30
0.0
 41
100.0
 42
100.0
 43
100.0
 50
180.0
  0
MTEXT
  5
2E44A
330
2E08A
100
AcDbEntity
  8
寸法
 62
     7
 48
50.0
100
AcDbMText
 10
11905.6
 20
8450.248950428093
 30
0.0
 40
120.0
 41
0.0
 71
     5
 72
     1
  1
\A1;2850
  7
STYLE1
 73
     1
 44
1.0
1001
ACAD
1000
MTEXTBEGIN
1070
    73
1070
     1
1070
    44
1040
1.0
1070
    74
1070
     0
1000
MTEXTEND
  0
POINT
  5
2E44B
330
2E08A
100
AcDbEntity
  8
DEFPOINTS
 62
     0
 48
50.0
100
AcDbPoint
 10
13330.6
 20
7550.970681310561
 30
0.0
  0
POINT
  5
2E44C
330
2E08A
100
AcDbEntity
  8
DEFPOINTS
 62
     0
 48
50.0
100
AcDbPoint
 10
10480.6
 20
7550.970681310561
 30
0.0
  0
POINT
  5
2E44D
330
2E08A
100
AcDbEntity
  8
DEFPOINTS
 62
     0
 48
50.0
100
AcDbPoint
 10
10480.6
 20
8350.237139404471
 30
0.0
  0
ENDBLK
  5
2E095
330
2E08A
100
AcDbEntity
  8
0
 48
50.0
100
AcDbBlockEnd
  0
BLOCK
  5
2E0A0
330
2E096
100
AcDbEntity
  8
0
 48
50.0
100
AcDbBlockBegin
  2
*D38
 70
     1
 10
0.0
 20
0.0
 30
0.0
  3
*D38
  1

  0
LINE
  5
2EC69
330
2E096
100
AcDbEntity
  8
寸法
 62
     0
 48
50.0
370
    -2
100
AcDbLine
 10
10598.6
 20
6960.97068131056
 30
0.0
 11
10598.6
 21
8166.579497980809
 31
0.0
  0
LINE
  5
2EC6A
330
2E096
100
AcDbEntity
  8
寸法
 62
     0
 48
50.0
370
    -2
100
AcDbLine
 10
9648.600000000007
 20
6960.97068131056
 30
0.0
 11
9648.600000000007
 21
8166.579497980809
 31
0.0
  0
LINE
  5
2EC6B
330
2E096
100
AcDbEntity
  8
寸法
 62
     0
 48
50.0
370
    -2
100
AcDbLine
 10
10598.6
 20
8106.579497980808
 30
0.0
 11
9648.600000000007
 21
8106.579497980808
 31
0.0
  0
INSERT
  5
2EC6C
330
2E096
100
AcDbEntity
  8
寸法
 62
     0
 48
50.0
370
    -2
100
AcDbBlockReference
  2
_DOTSMALL
 10
10598.6
 20
8106.579497980808
 30
0.0
 41
100.0
 42
100.0
 43
100.0
  0
INSERT
  5
2EC6D
330
2E096
100
AcDbEntity
  8
寸法
 62
     0
 48
50.0
370
    -2
100
AcDbBlockReference
  2
_DOTSMALL
 10
9648.600000000007
 20
8106.579497980808
 30
0.0
 41
100.0
 42
100.0
 43
100.0
 50
180.0
  0
MTEXT
  5
2EC6E
330
2E096
100
AcDbEntity
  8
寸法
 62
     7
 48
50.0
100
AcDbMText
 10
10123.6
 20
8206.579497980809
 30
0.0
 40
120.0
 41
0.0
 71
     5
 72
     1
  1
\A1;950
  7
STYLE1
 73
     1
 44
1.0
1001
ACAD
1000
MTEXTBEGIN
1070
    73
1070
     1
1070
    44
1040
1.0
1070
    74
1070
     0
1000
MTEXTEND
  0
POINT
  5
2EC6F
330
2E096
100
AcDbEntity
  8
DEFPOINTS
 62
     0
 48
50.0
100
AcDbPoint
 10
10598.6
 20
6940.97068131056
 30
0.0
  0
POINT
  5
2EC70
330
2E096
100
AcDbEntity
  8
DEFPOINTS
 62
     0
 48
50.0
100
AcDbPoint
 10
9648.600000000007
 20
6940.97068131056
 30
0.0
  0
POINT
  5
2EC71
330
2E096
100
AcDbEntity
  8
DEFPOINTS
 62
     0
 48
50.0
100
AcDbPoint
 10
9648.600000000007
 20
8106.579497980808
 30
0.0
  0
ENDBLK
  5
2E0A1
330
2E096
100
AcDbEntity
  8
0
 48
50.0
100
AcDbBlockEnd
  0
BLOCK
  5
2E0AC
330
2E0A2
100
AcDbEntity
  8
0
 48
50.0
100
AcDbBlockBegin
  2
*D39
 70
     1
 10
0.0
 20
0.0
 30
0.0
  3
*D39
  1

  0
LINE
  5
2EC60
330
2E0A2
100
AcDbEntity
  8
寸法
 62
     0
 48
50.0
370
    -2
100
AcDbLine
 10
11548.6
 20
6960.97068131056
 30
0.0
 11
11548.6
 21
8166.579497980809
 31
0.0
  0
LINE
  5
2EC61
330
2E0A2
100
AcDbEntity
  8
寸法
 62
     0
 48
50.0
370
    -2
100
AcDbLine
 10
10598.6
 20
6960.97068131056
 30
0.0
 11
10598.6
 21
8166.579497980809
 31
0.0
  0
LINE
  5
2EC62
330
2E0A2
100
AcDbEntity
  8
寸法
 62
     0
 48
50.0
370
    -2
100
AcDbLine
 10
11548.6
 20
8106.579497980808
 30
0.0
 11
10598.6
 21
8106.579497980808
 31
0.0
  0
INSERT
  5
2EC63
330
2E0A2
100
AcDbEntity
  8
寸法
 62
     0
 48
50.0
370
    -2
100
AcDbBlockReference
  2
_DOTSMALL
 10
11548.6
 20
8106.579497980808
 30
0.0
 41
100.0
 42
100.0
 43
100.0
  0
INSERT
  5
2EC64
330
2E0A2
100
AcDbEntity
  8
寸法
 62
     0
 48
50.0
370
    -2
100
AcDbBlockReference
  2
_DOTSMALL
 10
10598.6
 20
8106.579497980808
 30
0.0
 41
100.0
 42
100.0
 43
100.0
 50
180.0
  0
MTEXT
  5
2EC65
330
2E0A2
100
AcDbEntity
  8
寸法
 62
     7
 48
50.0
100
AcDbMText
 10
11073.6
 20
8206.579497980809
 30
0.0
 40
120.0
 41
0.0
 71
     5
 72
     1
  1
\A1;950
  7
STYLE1
 73
     1
 44
1.0
1001
ACAD
1000
MTEXTBEGIN
1070
    73
1070
     1
1070
    44
1040
1.0
1070
    74
1070
     0
1000
MTEXTEND
  0
POINT
  5
2EC66
330
2E0A2
100
AcDbEntity
  8
DEFPOINTS
 62
     0
 48
50.0
100
AcDbPoint
 10
11548.6
 20
6940.97068131056
 30
0.0
  0
POINT
  5
2EC67
330
2E0A2
100
AcDbEntity
  8
DEFPOINTS
 62
     0
 48
50.0
100
AcDbPoint
 10
10598.6
 20
6940.97068131056
 30
0.0
  0
POINT
  5
2EC68
330
2E0A2
100
AcDbEntity
  8
DEFPOINTS
 62
     0
 48
50.0
100
AcDbPoint
 10
10598.6
 20
8106.579497980808
 30
0.0
  0
ENDBLK
  5
2E0AD
330
2E0A2
100
AcDbEntity
  8
0
 48
50.0
100
AcDbBlockEnd
  0
BLOCK
  5
2E0B9
330
2E0AE
100
AcDbEntity
  8
0
 48
50.0
100
AcDbBlockBegin
  2
*D40
 70
     1
 10
0.0
 20
0.0
 30
0.0
  3
*D40
  1

  0
LINE
  5
2E429
330
2E0AE
100
AcDbEntity
  8
寸法
 62
     0
 48
50.0
370
    -2
100
AcDbLine
 10
13453.6
 20
7643.97068131056
 30
0.0
 11
13453.6
 21
8410.23713940447
 31
0.0
  0
LINE
  5
2E42A
330
2E0AE
100
AcDbEntity
  8
寸法
 62
     0
 48
50.0
370
    -2
100
AcDbLine
 10
13330.6
 20
7570.970681310561
 30
0.0
 11
13330.6
 21
8410.23713940447
 31
0.0
  0
LINE
  5
2E42B
330
2E0AE
100
AcDbEntity
  8
寸法
 62
     0
 48
50.0
370
    -2
100
AcDbLine
 10
13330.6
 20
8350.237139404471
 30
0.0
 11
13453.6
 21
8350.237139404471
 31
0.0
  0
LINE
  5
2E42C
330
2E0AE
100
AcDbEntity
  8
寸法
 62
     0
 48
50.0
370
    -2
100
AcDbLine
 10
13453.6
 20
8350.237139404471
 30
0.0
 11
13865.19188309204
 21
8350.237139404471
 31
0.0
  0
INSERT
  5
2E42D
330
2E0AE
100
AcDbEntity
  8
寸法
 62
     0
 48
50.0
370
    -2
100
AcDbBlockReference
  2
_DOTSMALL
 10
13330.6
 20
8350.237139404471
 30
0.0
 41
100.0
 42
100.0
 43
100.0
 50
180.0
  0
INSERT
  5
2E42E
330
2E0AE
100
AcDbEntity
  8
寸法
 62
     0
 48
50.0
370
    -2
100
AcDbBlockReference
  2
_DOTSMALL
 10
13453.6
 20
8350.237139404471
 30
0.0
 41
100.0
 42
100.0
 43
100.0
  0
MTEXT
  5
2E42F
330
2E0AE
100
AcDbEntity
  8
寸法
 62
     7
 48
50.0
100
AcDbMText
 10
13726.7066017178
 20
8450.248950428093
 30
0.0
 40
120.0
 41
0.0
 71
     5
 72
     1
  1
\A1;123
  7
STYLE1
 73
     1
 44
1.0
1001
ACAD
1000
MTEXTBEGIN
1070
    73
1070
     1
1070
    44
1040
1.0
1070
    74
1070
     0
1000
MTEXTEND
  0
POINT
  5
2E430
330
2E0AE
100
AcDbEntity
  8
DEFPOINTS
 62
     0
 48
50.0
100
AcDbPoint
 10
13453.6
 20
7623.970681310559
 30
0.0
  0
POINT
  5
2E431
330
2E0AE
100
AcDbEntity
  8
DEFPOINTS
 62
     0
 48
50.0
100
AcDbPoint
 10
13330.6
 20
7550.970681310561
 30
0.0
  0
POINT
  5
2E432
330
2E0AE
100
AcDbEntity
  8
DEFPOINTS
 62
     0
 48
50.0
100
AcDbPoint
 10
13330.6
 20
8350.237139404471
 30
0.0
  0
ENDBLK
  5
2E0BA
330
2E0AE
100
AcDbEntity
  8
0
 48
50.0
100
AcDbBlockEnd
  0
BLOCK
  5
2E0C5
330
2E0BB
100
AcDbEntity
  8
0
 48
50.0
100
AcDbBlockBegin
  2
*D41
 70
     1
 10
0.0
 20
0.0
 30
0.0
  3
*D41
  1

  0
LINE
  5
2EC33
330
2E0BB
100
AcDbEntity
  8
寸法
 62
     0
 48
50.0
370
    -2
100
AcDbLine
 10
13453.6
 20
7643.97068131056
 30
0.0
 11
13453.6
 21
8166.579497980809
 31
0.0
  0
LINE
  5
2EC34
330
2E0BB
100
AcDbEntity
  8
寸法
 62
     0
 48
50.0
370
    -2
100
AcDbLine
 10
12498.6
 20
6960.97068131056
 30
0.0
 11
12498.6
 21
8166.579497980809
 31
0.0
  0
LINE
  5
2EC35
330
2E0BB
100
AcDbEntity
  8
寸法
 62
     0
 48
50.0
370
    -2
100
AcDbLine
 10
13453.6
 20
8106.579497980808
 30
0.0
 11
12498.6
 21
8106.579497980808
 31
0.0
  0
INSERT
  5
2EC36
330
2E0BB
100
AcDbEntity
  8
寸法
 62
     0
 48
50.0
370
    -2
100
AcDbBlockReference
  2
_DOTSMALL
 10
13453.6
 20
8106.579497980808
 30
0.0
 41
100.0
 42
100.0
 43
100.0
  0
INSERT
  5
2EC37
330
2E0BB
100
AcDbEntity
  8
寸法
 62
     0
 48
50.0
370
    -2
100
AcDbBlockReference
  2
_DOTSMALL
 10
12498.6
 20
8106.579497980808
 30
0.0
 41
100.0
 42
100.0
 43
100.0
 50
180.0
  0
MTEXT
  5
2EC38
330
2E0BB
100
AcDbEntity
  8
寸法
 62
     7
 48
50.0
100
AcDbMText
 10
12976.1
 20
8206.579497980809
 30
0.0
 40
120.0
 41
0.0
 71
     5
 72
     1
  1
\A1;955
  7
STYLE1
 73
     1
 44
1.0
1001
ACAD
1000
MTEXTBEGIN
1070
    73
1070
     1
1070
    44
1040
1.0
1070
    74
1070
     0
1000
MTEXTEND
  0
POINT
  5
2EC39
330
2E0BB
100
AcDbEntity
  8
DEFPOINTS
 62
     0
 48
50.0
100
AcDbPoint
 10
13453.6
 20
7623.970681310559
 30
0.0
  0
POINT
  5
2EC3A
330
2E0BB
100
AcDbEntity
  8
DEFPOINTS
 62
     0
 48
50.0
100
AcDbPoint
 10
12498.6
 20
6940.97068131056
 30
0.0
  0
POINT
  5
2EC3B
330
2E0BB
100
AcDbEntity
  8
DEFPOINTS
 62
     0
 48
50.0
100
AcDbPoint
 10
12498.6
 20
8106.579497980808
 30
0.0
  0
ENDBLK
  5
2E0C6
330
2E0BB
100
AcDbEntity
  8
0
 48
50.0
100
AcDbBlockEnd
  0
BLOCK
  5
2EA3A
330
2EA2E
100
AcDbEntity
  8
0
 48
50.0
100
AcDbBlockBegin
  2
*D42
 70
     1
 10
0.0
 20
0.0
 30
0.0
  3
*D42
  1

  0
LINE
  5
2EBBA
330
2EA2E
100
AcDbEntity
  8
寸法
 62
     0
 48
50.0
370
    -2
100
AcDbLine
 10
13453.6
 20
7643.97068131056
 30
0.0
 11
13453.6
 21
8642.191003369482
 31
0.0
  0
LINE
  5
2EBBB
330
2EA2E
100
AcDbEntity
  8
寸法
 62
     0
 48
50.0
370
    -2
100
AcDbLine
 10
13498.6
 20
8370.237139404471
 30
0.0
 11
13498.6
 21
8642.191003369482
 31
0.0
  0
LINE
  5
2EBBC
330
2EA2E
100
AcDbEntity
  8
寸法
 62
     0
 48
50.0
370
    -2
100
AcDbLine
 10
13453.6
 20
8582.191003369482
 30
0.0
 11
13353.6
 21
8582.191003369482
 31
0.0
  0
LINE
  5
2EBBD
330
2EA2E
100
AcDbEntity
  8
寸法
 62
     0
 48
50.0
370
    -2
100
AcDbLine
 10
13498.6
 20
8582.191003369482
 30
0.0
 11
13835.94924240492
 21
8582.191003369482
 31
0.0
  0
LINE
  5
2EBBE
330
2EA2E
100
AcDbEntity
  8
寸法
 62
     0
 48
50.0
370
    -2
100
AcDbLine
 10
13453.6
 20
8582.191003369482
 30
0.0
 11
13498.6
 21
8582.191003369482
 31
0.0
  0
INSERT
  5
2EBBF
330
2EA2E
100
AcDbEntity
  8
寸法
 62
     0
 48
50.0
370
    -2
100
AcDbBlockReference
  2
_DOTSMALL
 10
13453.6
 20
8582.191003369482
 30
0.0
 41
100.0
 42
100.0
 43
100.0
  0
INSERT
  5
2EBC0
330
2EA2E
100
AcDbEntity
  8
寸法
 62
     0
 48
50.0
370
    -2
100
AcDbBlockReference
  2
_DOTSMALL
 10
13498.6
 20
8582.191003369482
 30
0.0
 41
100.0
 42
100.0
 43
100.0
 50
180.0
  0
MTEXT
  5
2EBC1
330
2EA2E
100
AcDbEntity
  8
寸法
 62
     7
 48
50.0
100
AcDbMText
 10
13769.77462120246
 20
8682.191003369482
 30
0.0
 40
120.0
 41
0.0
 71
     5
 72
     1
  1
\A1;a
  7
STYLE1
 73
     1
 44
1.0
1001
ACAD
1000
MTEXTBEGIN
1070
    73
1070
     1
1070
    44
1040
1.0
1070
    74
1070
     0
1000
MTEXTEND
  0
POINT
  5
2EBC2
330
2EA2E
100
AcDbEntity
  8
DEFPOINTS
 62
     0
 48
50.0
100
AcDbPoint
 10
13453.6
 20
7623.970681310559
 30
0.0
  0
POINT
  5
2EBC3
330
2EA2E
100
AcDbEntity
  8
DEFPOINTS
 62
     0
 48
50.0
100
AcDbPoint
 10
13498.6
 20
8350.237139404471
 30
0.0
  0
POINT
  5
2EBC4
330
2EA2E
100
AcDbEntity
  8
DEFPOINTS
 62
     0
 48
50.0
100
AcDbPoint
 10
13498.6
 20
8582.191003369482
 30
0.0
  0
ENDBLK
  5
2EA3B
330
2EA2E
100
AcDbEntity
  8
0
 48
50.0
100
AcDbBlockEnd
  0
BLOCK
  5
2EA48
330
2EA3C
100
AcDbEntity
  8
0
 48
50.0
100
AcDbBlockBegin
  2
*D43
 70
     1
 10
0.0
 20
0.0
 30
0.0
  3
*D43
  1

  0
LINE
  5
2EBC5
330
2EA3C
100
AcDbEntity
  8
寸法
 62
     0
 48
50.0
370
    -2
100
AcDbLine
 10
2948.599999999999
 20
8370.237139404473
 30
0.0
 11
2948.599999999999
 21
8642.191003369482
 31
0.0
  0
LINE
  5
2EBC6
330
2EA3C
100
AcDbEntity
  8
寸法
 62
     0
 48
50.0
370
    -2
100
AcDbLine
 10
2993.599999999999
 20
7643.97068131056
 30
0.0
 11
2993.599999999999
 21
8642.191003369482
 31
0.0
  0
LINE
  5
2EBC7
330
2EA3C
100
AcDbEntity
  8
寸法
 62
     0
 48
50.0
370
    -2
100
AcDbLine
 10
2993.599999999999
 20
8582.191003369482
 30
0.0
 11
3093.599999999999
 21
8582.191003369482
 31
0.0
  0
LINE
  5
2EBC8
330
2EA3C
100
AcDbEntity
  8
寸法
 62
     0
 48
50.0
370
    -2
100
AcDbLine
 10
2948.599999999999
 20
8582.191003369482
 30
0.0
 11
2611.25075759508
 21
8582.191003369482
 31
0.0
  0
LINE
  5
2EBC9
330
2EA3C
100
AcDbEntity
  8
寸法
 62
     0
 48
50.0
370
    -2
100
AcDbLine
 10
2993.599999999999
 20
8582.191003369482
 30
0.0
 11
2948.599999999999
 21
8582.191003369482
 31
0.0
  0
INSERT
  5
2EBCA
330
2EA3C
100
AcDbEntity
  8
寸法
 62
     0
 48
50.0
370
    -2
100
AcDbBlockReference
  2
_DOTSMALL
 10
2993.599999999999
 20
8582.191003369482
 30
0.0
 41
100.0
 42
100.0
 43
100.0
 50
180.0
  0
INSERT
  5
2EBCB
330
2EA3C
100
AcDbEntity
  8
寸法
 62
     0
 48
50.0
370
    -2
100
AcDbBlockReference
  2
_DOTSMALL
 10
2948.599999999999
 20
8582.191003369482
 30
0.0
 41
100.0
 42
100.0
 43
100.0
  0
MTEXT
  5
2EBCC
330
2EA3C
100
AcDbEntity
  8
寸法
 62
     7
 48
50.0
100
AcDbMText
 10
2677.42537879754
 20
8682.191003369482
 30
0.0
 40
120.0
 41
0.0
 71
     5
 72
     1
  1
\A1;a
  7
STYLE1
 73
     1
 44
1.0
1001
ACAD
1000
MTEXTBEGIN
1070
    73
1070
     1
1070
    44
1040
1.0
1070
    74
1070
     0
1000
MTEXTEND
  0
POINT
  5
2EBCD
330
2EA3C
100
AcDbEntity
  8
DEFPOINTS
 62
     0
 48
50.0
100
AcDbPoint
 10
2948.599999999999
 20
8350.237139404473
 30
0.0
  0
POINT
  5
2EBCE
330
2EA3C
100
AcDbEntity
  8
DEFPOINTS
 62
     0
 48
50.0
100
AcDbPoint
 10
2993.599999999999
 20
7623.970681310559
 30
0.0
  0
POINT
  5
2EBCF
330
2EA3C
100
AcDbEntity
  8
DEFPOINTS
 62
     0
 48
50.0
100
AcDbPoint
 10
2993.599999999999
 20
8582.191003369482
 30
0.0
  0
ENDBLK
  5
2EA49
330
2EA3C
100
AcDbEntity
  8
0
 48
50.0
100
AcDbBlockEnd
  0
BLOCK
  5
2EA56
330
2EA4A
100
AcDbEntity
  8
0
 48
50.0
100
AcDbBlockBegin
  2
*D44
 70
     1
 10
0.0
 20
0.0
 30
0.0
  3
*D44
  1

  0
LINE
  5
2EBD0
330
2EA4A
100
AcDbEntity
  8
寸法
 62
     0
 48
50.0
370
    -2
100
AcDbLine
 10
2350.66500633007
 20
7698.970681310566
 30
0.0
 11
2058.721909610671
 21
7698.970681310566
 31
0.0
  0
LINE
  5
2EBD1
330
2EA4A
100
AcDbEntity
  8
寸法
 62
     0
 48
50.0
370
    -2
100
AcDbLine
 10
2973.599999999999
 20
7623.970681310559
 30
0.0
 11
2058.721909610671
 21
7623.970681310559
 31
0.0
  0
LINE
  5
2EBD2
330
2EA4A
100
AcDbEntity
  8
寸法
 62
     0
 48
50.0
370
    -2
100
AcDbLine
 10
2118.721909610671
 20
7698.970681310566
 30
0.0
 11
2118.721909610671
 21
7798.970681310565
 31
0.0
  0
LINE
  5
2EBD3
330
2EA4A
100
AcDbEntity
  8
寸法
 62
     0
 48
50.0
370
    -2
100
AcDbLine
 10
2118.721909610671
 20
7623.970681310559
 30
0.0
 11
2118.721909610671
 21
7523.97068131056
 31
0.0
  0
LINE
  5
2EBD4
330
2EA4A
100
AcDbEntity
  8
寸法
 62
     0
 48
50.0
370
    -2
100
AcDbLine
 10
2118.721909610671
 20
7698.970681310566
 30
0.0
 11
2118.721909610671
 21
7623.970681310559
 31
0.0
  0
INSERT
  5
2EBD5
330
2EA4A
100
AcDbEntity
  8
寸法
 62
     0
 48
50.0
370
    -2
100
AcDbBlockReference
  2
_DOTSMALL
 10
2118.721909610671
 20
7698.970681310566
 30
0.0
 41
100.0
 42
100.0
 43
100.0
 50
270.0
  0
INSERT
  5
2EBD6
330
2EA4A
100
AcDbEntity
  8
寸法
 62
     0
 48
50.0
370
    -2
100
AcDbBlockReference
  2
_DOTSMALL
 10
2118.721909610671
 20
7623.970681310559
 30
0.0
 41
100.0
 42
100.0
 43
100.0
 50
90.0
  0
MTEXT
  5
2EBD7
330
2EA4A
100
AcDbEntity
  8
寸法
 62
     7
 48
50.0
100
AcDbMText
 10
2018.72190961067
 20
7661.470681310564
 30
0.0
 40
120.0
 41
0.0
 71
     5
 72
     1
  1
\A1;c
  7
STYLE1
 11
0.0000000000000001
 21
1.0
 31
0.0
 73
     1
 44
1.0
1001
ACAD
1000
MTEXTBEGIN
1070
    73
1070
     1
1070
    44
1040
1.0
1070
    74
1070
     0
1000
MTEXTEND
  0
POINT
  5
2EBD8
330
2EA4A
100
AcDbEntity
  8
DEFPOINTS
 62
     0
 48
50.0
100
AcDbPoint
 10
2370.66500633007
 20
7698.970681310566
 30
0.0
  0
POINT
  5
2EBD9
330
2EA4A
100
AcDbEntity
  8
DEFPOINTS
 62
     0
 48
50.0
100
AcDbPoint
 10
2993.599999999999
 20
7623.970681310559
 30
0.0
  0
POINT
  5
2EBDA
330
2EA4A
100
AcDbEntity
  8
DEFPOINTS
 62
     0
 48
50.0
100
AcDbPoint
 10
2118.721909610671
 20
7623.970681310559
 30
0.0
  0
ENDBLK
  5
2EA57
330
2EA4A
100
AcDbEntity
  8
0
 48
50.0
100
AcDbBlockEnd
  0
BLOCK
  5
2EA64
330
2EA58
100
AcDbEntity
  8
0
 48
50.0
100
AcDbBlockBegin
  2
*D45
 70
     1
 10
0.0
 20
0.0
 30
0.0
  3
*D45
  1

  0
LINE
  5
2EBDB
330
2EA58
100
AcDbEntity
  8
寸法
 62
     0
 48
50.0
370
    -2
100
AcDbLine
 10
2973.599999999999
 20
6083.970681310591
 30
0.0
 11
2058.721909610671
 21
6083.970681310591
 31
0.0
  0
LINE
  5
2EBDC
330
2EA58
100
AcDbEntity
  8
寸法
 62
     0
 48
50.0
370
    -2
100
AcDbLine
 10
2350.66500633007
 20
6028.970681310617
 30
0.0
 11
2058.721909610671
 21
6028.970681310617
 31
0.0
  0
LINE
  5
2EBDD
330
2EA58
100
AcDbEntity
  8
寸法
 62
     0
 48
50.0
370
    -2
100
AcDbLine
 10
2118.721909610671
 20
6083.970681310591
 30
0.0
 11
2118.721909610671
 21
6183.970681310591
 31
0.0
  0
LINE
  5
2EBDE
330
2EA58
100
AcDbEntity
  8
寸法
 62
     0
 48
50.0
370
    -2
100
AcDbLine
 10
2118.721909610671
 20
6028.970681310617
 30
0.0
 11
2118.721909610671
 21
5928.970681310617
 31
0.0
  0
LINE
  5
2EBDF
330
2EA58
100
AcDbEntity
  8
寸法
 62
     0
 48
50.0
370
    -2
100
AcDbLine
 10
2118.721909610671
 20
6083.970681310591
 30
0.0
 11
2118.721909610671
 21
6028.970681310617
 31
0.0
  0
INSERT
  5
2EBE0
330
2EA58
100
AcDbEntity
  8
寸法
 62
     0
 48
50.0
370
    -2
100
AcDbBlockReference
  2
_DOTSMALL
 10
2118.721909610671
 20
6083.970681310591
 30
0.0
 41
100.0
 42
100.0
 43
100.0
 50
270.0
  0
INSERT
  5
2EBE1
330
2EA58
100
AcDbEntity
  8
寸法
 62
     0
 48
50.0
370
    -2
100
AcDbBlockReference
  2
_DOTSMALL
 10
2118.721909610671
 20
6028.970681310617
 30
0.0
 41
100.0
 42
100.0
 43
100.0
 50
90.0
  0
MTEXT
  5
2EBE2
330
2EA58
100
AcDbEntity
  8
寸法
 62
     7
 48
50.0
100
AcDbMText
 10
2018.72190961067
 20
6056.470681310605
 30
0.0
 40
120.0
 41
0.0
 71
     5
 72
     1
  1
\A1;b
  7
STYLE1
 11
0.0000000000000001
 21
1.0
 31
0.0
 73
     1
 44
1.0
1001
ACAD
1000
MTEXTBEGIN
1070
    73
1070
     1
1070
    44
1040
1.0
1070
    74
1070
     0
1000
MTEXTEND
  0
POINT
  5
2EBE3
330
2EA58
100
AcDbEntity
  8
DEFPOINTS
 62
     0
 48
50.0
100
AcDbPoint
 10
2993.599999999999
 20
6083.970681310591
 30
0.0
  0
POINT
  5
2EBE4
330
2EA58
100
AcDbEntity
  8
DEFPOINTS
 62
     0
 48
50.0
100
AcDbPoint
 10
2370.66500633007
 20
6028.970681310617
 30
0.0
  0
POINT
  5
2EBE5
330
2EA58
100
AcDbEntity
  8
DEFPOINTS
 62
     0
 48
50.0
100
AcDbPoint
 10
2118.721909610671
 20
6028.970681310617
 30
0.0
  0
ENDBLK
  5
2EA65
330
2EA58
100
AcDbEntity
  8
0
 48
50.0
100
AcDbBlockEnd
  0
BLOCK
  5
2EA71
330
2EA66
100
AcDbEntity
  8
0
 48
50.0
100
AcDbBlockBegin
  2
*D46
 70
     1
 10
0.0
 20
0.0
 30
0.0
  3
*D46
  1

  0
LINE
  5
2EDB3
330
2EA66
100
AcDbEntity
  8
寸法
 62
     0
 48
50.0
370
    -2
100
AcDbLine
 10
12853.6
 20
6363.970681310571
 30
0.0
 11
12712.81202022566
 21
6363.970681310571
 31
0.0
  0
LINE
  5
2EDB4
330
2EA66
100
AcDbEntity
  8
寸法
 62
     0
 48
50.0
370
    -2
100
AcDbLine
 10
12853.6
 20
6083.970681310578
 30
0.0
 11
12712.81202022566
 21
6083.970681310578
 31
0.0
  0
LINE
  5
2EDB5
330
2EA66
100
AcDbEntity
  8
寸法
 62
     0
 48
50.0
370
    -2
100
AcDbLine
 10
12772.81202022566
 20
6363.970681310571
 30
0.0
 11
12772.81202022566
 21
6083.970681310578
 31
0.0
  0
LINE
  5
2EDB6
330
2EA66
100
AcDbEntity
  8
寸法
 62
     0
 48
50.0
370
    -2
100
AcDbLine
 10
12772.81202022566
 20
6083.970681310578
 30
0.0
 11
12772.81202022566
 21
5647.436232491672
 31
0.0
  0
INSERT
  5
2EDB7
330
2EA66
100
AcDbEntity
  8
寸法
 62
     0
 48
50.0
370
    -2
100
AcDbBlockReference
  2
_DOTSMALL
 10
12772.81202022566
 20
6363.970681310571
 30
0.0
 41
100.0
 42
100.0
 43
100.0
 50
90.0
  0
INSERT
  5
2EDB8
330
2EA66
100
AcDbEntity
  8
寸法
 62
     0
 48
50.0
370
    -2
100
AcDbBlockReference
  2
_DOTSMALL
 10
12772.81202022566
 20
6083.970681310578
 30
0.0
 41
100.0
 42
100.0
 43
100.0
 50
270.0
  0
MTEXT
  5
2EDB9
330
2EA66
100
AcDbEntity
  8
寸法
 62
     7
 48
50.0
100
AcDbMText
 10
12672.80020920203
 20
5797.007098633407
 30
0.0
 40
120.0
 41
0.0
 71
     5
 72
     1
  1
\A1;280
  7
STYLE1
 11
0.0000000000000001
 21
1.0
 31
0.0
 73
     1
 44
1.0
1001
ACAD
1000
MTEXTBEGIN
1070
    73
1070
     1
1070
    44
1040
1.0
1070
    74
1070
     0
1000
MTEXTEND
  0
POINT
  5
2EDBA
330
2EA66
100
AcDbEntity
  8
DEFPOINTS
 62
     0
 48
50.0
100
AcDbPoint
 10
12873.6
 20
6363.970681310571
 30
0.0
  0
POINT
  5
2EDBB
330
2EA66
100
AcDbEntity
  8
DEFPOINTS
 62
     0
 48
50.0
100
AcDbPoint
 10
12873.6
 20
6083.970681310578
 30
0.0
  0
POINT
  5
2EDBC
330
2EA66
100
AcDbEntity
  8
DEFPOINTS
 62
     0
 48
50.0
100
AcDbPoint
 10
12772.81202022566
 20
6083.970681310578
 30
0.0
  0
ENDBLK
  5
2EA72
330
2EA66
100
AcDbEntity
  8
0
 48
50.0
100
AcDbBlockEnd
  0
BLOCK
  5
2EA7E
330
2EA73
100
AcDbEntity
  8
0
 48
50.0
100
AcDbBlockBegin
  2
*D47
 70
     1
 10
0.0
 20
0.0
 30
0.0
  3
*D47
  1

  0
LINE
  5
2EBA6
330
2EA73
100
AcDbEntity
  8
寸法
 62
     0
 48
50.0
370
    -2
100
AcDbLine
 10
12853.6
 20
7623.970681310549
 30
0.0
 11
12712.81202022566
 21
7623.970681310549
 31
0.0
  0
LINE
  5
2EBA7
330
2EA73
100
AcDbEntity
  8
寸法
 62
     0
 48
50.0
370
    -2
100
AcDbLine
 10
12853.60000000001
 20
7423.970681310563
 30
0.0
 11
12712.81202022566
 21
7423.970681310563
 31
0.0
  0
LINE
  5
2EBA8
330
2EA73
100
AcDbEntity
  8
寸法
 62
     0
 48
50.0
370
    -2
100
AcDbLine
 10
12772.81202022566
 20
7423.970681310563
 30
0.0
 11
12772.81202022566
 21
7623.970681310549
 31
0.0
  0
LINE
  5
2EBA9
330
2EA73
100
AcDbEntity
  8
寸法
 62
     0
 48
50.0
370
    -2
100
AcDbLine
 10
12772.81202022566
 20
7623.970681310549
 30
0.0
 11
12772.81202022566
 21
8060.505130129449
 31
0.0
  0
INSERT
  5
2EBAA
330
2EA73
100
AcDbEntity
  8
寸法
 62
     0
 48
50.0
370
    -2
100
AcDbBlockReference
  2
_DOTSMALL
 10
12772.81202022566
 20
7423.970681310563
 30
0.0
 41
100.0
 42
100.0
 43
100.0
 50
270.0
  0
INSERT
  5
2EBAB
330
2EA73
100
AcDbEntity
  8
寸法
 62
     0
 48
50.0
370
    -2
100
AcDbBlockReference
  2
_DOTSMALL
 10
12772.81202022566
 20
7623.970681310549
 30
0.0
 41
100.0
 42
100.0
 43
100.0
 50
90.0
  0
MTEXT
  5
2EBAC
330
2EA73
100
AcDbEntity
  8
寸法
 62
     7
 48
50.0
100
AcDbMText
 10
12672.80020920203
 20
7910.934263987718
 30
0.0
 40
120.0
 41
0.0
 71
     5
 72
     1
  1
\A1;200
  7
STYLE1
 11
0.0000000000000001
 21
1.0
 31
0.0
 73
     1
 44
1.0
1001
ACAD
1000
MTEXTBEGIN
1070
    73
1070
     1
1070
    44
1040
1.0
1070
    74
1070
     0
1000
MTEXTEND
  0
POINT
  5
2EBAD
330
2EA73
100
AcDbEntity
  8
DEFPOINTS
 62
     0
 48
50.0
100
AcDbPoint
 10
12873.6
 20
7623.970681310549
 30
0.0
  0
POINT
  5
2EBAE
330
2EA73
100
AcDbEntity
  8
DEFPOINTS
 62
     0
 48
50.0
100
AcDbPoint
 10
12873.60000000001
 20
7423.970681310563
 30
0.0
  0
POINT
  5
2EBAF
330
2EA73
100
AcDbEntity
  8
DEFPOINTS
 62
     0
 48
50.0
100
AcDbPoint
 10
12772.81202022566
 20
7423.970681310563
 30
0.0
  0
ENDBLK
  5
2EA7F
330
2EA73
100
AcDbEntity
  8
0
 48
50.0
100
AcDbBlockEnd
  0
BLOCK
  5
2EA8B
330
2EA80
100
AcDbEntity
  8
0
 48
50.0
100
AcDbBlockBegin
  2
*D48
 70
     1
 10
0.0
 20
0.0
 30
0.0
  3
*D48
  1

  0
LINE
  5
2EE1D
330
2EA80
100
AcDbEntity
  8
寸法
 62
     0
 48
50.0
370
    -2
100
AcDbLine
 10
13453.6
 20
7078.970681310597
 30
0.0
 11
13453.6
 21
7233.569294408671
 31
0.0
  0
LINE
  5
2EE1E
330
2EA80
100
AcDbEntity
  8
寸法
 62
     0
 48
50.0
370
    -2
100
AcDbLine
 10
13333.6
 20
7078.970681310597
 30
0.0
 11
13333.6
 21
7233.569294408671
 31
0.0
  0
LINE
  5
2EE1F
330
2EA80
100
AcDbEntity
  8
寸法
 62
     0
 48
50.0
370
    -2
100
AcDbLine
 10
13333.6
 20
7173.569294408672
 30
0.0
 11
13453.6
 21
7173.569294408672
 31
0.0
  0
LINE
  5
2EE20
330
2EA80
100
AcDbEntity
  8
寸法
 62
     0
 48
50.0
370
    -2
100
AcDbLine
 10
13453.6
 20
7173.569294408672
 30
0.0
 11
13859.7062992126
 21
7173.569294408672
 31
0.0
  0
INSERT
  5
2EE21
330
2EA80
100
AcDbEntity
  8
寸法
 62
     0
 48
50.0
370
    -2
100
AcDbBlockReference
  2
_DOTSMALL
 10
13333.6
 20
7173.569294408672
 30
0.0
 41
100.0
 42
100.0
 43
100.0
 50
180.0
  0
INSERT
  5
2EE22
330
2EA80
100
AcDbEntity
  8
寸法
 62
     0
 48
50.0
370
    -2
100
AcDbBlockReference
  2
_DOTSMALL
 10
13453.6
 20
7173.569294408672
 30
0.0
 41
100.0
 42
100.0
 43
100.0
  0
MTEXT
  5
2EE23
330
2EA80
100
AcDbEntity
  8
寸法
 62
     7
 48
50.0
100
AcDbMText
 10
13723.65905511812
 20
7273.581105432294
 30
0.0
 40
120.0
 41
0.0
 71
     5
 72
     1
  1
\A1;120
  7
STYLE1
 73
     1
 44
1.0
1001
ACAD
1000
MTEXTBEGIN
1070
    73
1070
     1
1070
    44
1040
1.0
1070
    74
1070
     0
1000
MTEXTEND
  0
POINT
  5
2EE24
330
2EA80
100
AcDbEntity
  8
DEFPOINTS
 62
     0
 48
50.0
100
AcDbPoint
 10
13453.6
 20
7058.970681310596
 30
0.0
  0
POINT
  5
2EE25
330
2EA80
100
AcDbEntity
  8
DEFPOINTS
 62
     0
 48
50.0
100
AcDbPoint
 10
13333.6
 20
7058.970681310596
 30
0.0
  0
POINT
  5
2EE26
330
2EA80
100
AcDbEntity
  8
DEFPOINTS
 62
     0
 48
50.0
100
AcDbPoint
 10
13333.6
 20
7173.569294408672
 30
0.0
  0
ENDBLK
  5
2EA8C
330
2EA80
100
AcDbEntity
  8
0
 48
50.0
100
AcDbBlockEnd
  0
BLOCK
  5
2F11A
330
2F110
100
AcDbEntity
  8
0
 48
50.0
100
AcDbBlockBegin
  2
*D49
 70
     1
 10
0.0
 20
0.0
 30
0.0
  3
*D49
  1

  0
LINE
  5
2F15A
330
2F110
100
AcDbEntity
  8
寸法
 62
     0
 48
50.0
370
    -2
100
AcDbLine
 10
7565.316644327038
 20
1940.295456145579
 30
0.0
 11
8107.185244095884
 21
1940.295456145579
 31
0.0
  0
LINE
  5
2F15B
330
2F110
100
AcDbEntity
  8
寸法
 62
     0
 48
50.0
370
    -2
100
AcDbLine
 10
7565.316644327038
 20
1616.295456145578
 30
0.0
 11
8107.185244095884
 21
1616.295456145578
 31
0.0
  0
LINE
  5
2F15C
330
2F110
100
AcDbEntity
  8
寸法
 62
     0
 48
50.0
370
    -2
100
AcDbLine
 10
8047.185244095883
 20
1940.295456145579
 30
0.0
 11
8047.185244095883
 21
1616.295456145578
 31
0.0
  0
INSERT
  5
2F15D
330
2F110
100
AcDbEntity
  8
寸法
 62
     0
 48
50.0
370
    -2
100
AcDbBlockReference
  2
_DOTSMALL
 10
8047.185244095883
 20
1940.295456145579
 30
0.0
 41
100.0
 42
100.0
 43
100.0
 50
90.0
  0
INSERT
  5
2F15E
330
2F110
100
AcDbEntity
  8
寸法
 62
     0
 48
50.0
370
    -2
100
AcDbBlockReference
  2
_DOTSMALL
 10
8047.185244095883
 20
1616.295456145578
 30
0.0
 41
100.0
 42
100.0
 43
100.0
 50
270.0
  0
MTEXT
  5
2F15F
330
2F110
100
AcDbEntity
  8
寸法
 62
     7
 48
50.0
100
AcDbMText
 10
7947.185244095883
 20
1778.295456145579
 30
0.0
 40
120.0
 41
0.0
 71
     5
 72
     1
  1
\A1;180
  7
STYLE1
 11
0.0000000000000001
 21
1.0
 31
0.0
 73
     1
 44
1.0
1001
ACAD
1000
MTEXTBEGIN
1070
    73
1070
     1
1070
    44
1040
1.0
1070
    74
1070
     0
1000
MTEXTEND
  0
POINT
  5
2F160
330
2F110
100
AcDbEntity
  8
DEFPOINTS
 62
     0
 48
50.0
100
AcDbPoint
 10
7545.316644327039
 20
1940.295456145579
 30
0.0
  0
POINT
  5
2F161
330
2F110
100
AcDbEntity
  8
DEFPOINTS
 62
     0
 48
50.0
100
AcDbPoint
 10
7545.316644327039
 20
1616.295456145578
 30
0.0
  0
POINT
  5
2F162
330
2F110
100
AcDbEntity
  8
DEFPOINTS
 62
     0
 48
50.0
100
AcDbPoint
 10
8047.185244095883
 20
1616.295456145578
 30
0.0
  0
ENDBLK
  5
2F11B
330
2F110
100
AcDbEntity
  8
0
 48
50.0
100
AcDbBlockEnd
  0
BLOCK
  5
2F128
330
2F11C
100
AcDbEntity
  8
0
 48
50.0
100
AcDbBlockBegin
  2
*D50
 70
     1
 10
0.0
 20
0.0
 30
0.0
  3
*D50
  1

  0
LINE
  5
2F163
330
2F11C
100
AcDbEntity
  8
寸法
 62
     0
 48
50.0
370
    -2
100
AcDbLine
 10
7378.11664432704
 20
1993.05545614558
 30
0.0
 11
8383.239910214909
 21
1993.05545614558
 31
0.0
  0
LINE
  5
2F164
330
2F11C
100
AcDbEntity
  8
寸法
 62
     0
 48
50.0
370
    -2
100
AcDbLine
 10
7565.316644327038
 20
1940.295456145579
 30
0.0
 11
8383.239910214909
 21
1940.295456145579
 31
0.0
  0
LINE
  5
2F165
330
2F11C
100
AcDbEntity
  8
寸法
 62
     0
 48
50.0
370
    -2
100
AcDbLine
 10
8323.23991021491
 20
1993.05545614558
 30
0.0
 11
8323.23991021491
 21
2093.05545614558
 31
0.0
  0
LINE
  5
2F166
330
2F11C
100
AcDbEntity
  8
寸法
 62
     0
 48
50.0
370
    -2
100
AcDbLine
 10
8323.23991021491
 20
1940.295456145579
 30
0.0
 11
8323.23991021491
 21
1208.277649302613
 31
0.0
  0
LINE
  5
2F167
330
2F11C
100
AcDbEntity
  8
寸法
 62
     0
 48
50.0
370
    -2
100
AcDbLine
 10
8323.23991021491
 20
1993.05545614558
 30
0.0
 11
8323.23991021491
 21
1940.295456145579
 31
0.0
  0
INSERT
  5
2F168
330
2F11C
100
AcDbEntity
  8
寸法
 62
     0
 48
50.0
370
    -2
100
AcDbBlockReference
  2
_DOTSMALL
 10
8323.23991021491
 20
1993.05545614558
 30
0.0
 41
100.0
 42
100.0
 43
100.0
 50
270.0
  0
INSERT
  5
2F169
330
2F11C
100
AcDbEntity
  8
寸法
 62
     0
 48
50.0
370
    -2
100
AcDbBlockReference
  2
_DOTSMALL
 10
8323.23991021491
 20
1940.295456145579
 30
0.0
 41
100.0
 42
100.0
 43
100.0
 50
90.0
  0
MTEXT
  5
2F16A
330
2F11C
100
AcDbEntity
  8
寸法
 62
     7
 48
50.0
100
AcDbMText
 10
8223.228099191288
 20
1474.286552724096
 30
0.0
 40
120.0
 41
0.0
 71
     5
 72
     1
  1
\A1;20～25
  7
STYLE1
 11
0.0000000000000001
 21
1.0
 31
0.0
 73
     1
 44
1.0
1001
ACAD
1000
MTEXTBEGIN
1070
    73
1070
     1
1070
    44
1040
1.0
1070
    74
1070
     0
1000
MTEXTEND
  0
POINT
  5
2F16B
330
2F11C
100
AcDbEntity
  8
DEFPOINTS
 62
     0
 48
50.0
100
AcDbPoint
 10
7358.116644327042
 20
1993.05545614558
 30
0.0
  0
POINT
  5
2F16C
330
2F11C
100
AcDbEntity
  8
DEFPOINTS
 62
     0
 48
50.0
100
AcDbPoint
 10
7545.316644327039
 20
1940.295456145579
 30
0.0
  0
POINT
  5
2F16D
330
2F11C
100
AcDbEntity
  8
DEFPOINTS
 62
     0
 48
50.0
100
AcDbPoint
 10
8323.23991021491
 20
1940.295456145579
 30
0.0
  0
ENDBLK
  5
2F129
330
2F11C
100
AcDbEntity
  8
0
 48
50.0
100
AcDbBlockEnd
  0
BLOCK
  5
2F134
330
2F12A
100
AcDbEntity
  8
0
 48
50.0
100
AcDbBlockBegin
  2
*D51
 70
     1
 10
0.0
 20
0.0
 30
0.0
  3
*D51
  1

  0
LINE
  5
2F16E
330
2F12A
100
AcDbEntity
  8
寸法
 62
     0
 48
50.0
370
    -2
100
AcDbLine
 10
5283.277331149846
 20
1396.295456145579
 30
0.0
 11
5100.857017417387
 21
1396.295456145579
 31
0.0
  0
LINE
  5
2F16F
330
2F12A
100
AcDbEntity
  8
寸法
 62
     0
 48
50.0
370
    -2
100
AcDbLine
 10
5203.277331149849
 20
1156.295456145579
 30
0.0
 11
5100.857017417387
 21
1156.295456145579
 31
0.0
  0
LINE
  5
2F170
330
2F12A
100
AcDbEntity
  8
寸法
 62
     0
 48
50.0
370
    -2
100
AcDbLine
 10
5160.857017417386
 20
1396.295456145579
 30
0.0
 11
5160.857017417386
 21
1156.295456145579
 31
0.0
  0
INSERT
  5
2F171
330
2F12A
100
AcDbEntity
  8
寸法
 62
     0
 48
50.0
370
    -2
100
AcDbBlockReference
  2
_DOTSMALL
 10
5160.857017417386
 20
1396.295456145579
 30
0.0
 41
100.0
 42
100.0
 43
100.0
 50
90.0
  0
INSERT
  5
2F172
330
2F12A
100
AcDbEntity
  8
寸法
 62
     0
 48
50.0
370
    -2
100
AcDbBlockReference
  2
_DOTSMALL
 10
5160.857017417386
 20
1156.295456145579
 30
0.0
 41
100.0
 42
100.0
 43
100.0
 50
270.0
  0
MTEXT
  5
2F173
330
2F12A
100
AcDbEntity
  8
寸法
 62
     7
 48
50.0
100
AcDbMText
 10
5060.857017417387
 20
1276.29545614558
 30
0.0
 40
120.0
 41
0.0
 71
     5
 72
     1
  1
\A1;150
  7
STYLE1
 11
0.0000000000000001
 21
1.0
 31
0.0
 73
     1
 44
1.0
1001
ACAD
1000
MTEXTBEGIN
1070
    73
1070
     1
1070
    44
1040
1.0
1070
    74
1070
     0
1000
MTEXTEND
  0
POINT
  5
2F174
330
2F12A
100
AcDbEntity
  8
DEFPOINTS
 62
     0
 48
50.0
100
AcDbPoint
 10
5303.277331149846
 20
1396.295456145579
 30
0.0
  0
POINT
  5
2F175
330
2F12A
100
AcDbEntity
  8
DEFPOINTS
 62
     0
 48
50.0
100
AcDbPoint
 10
5223.27733114985
 20
1156.295456145579
 30
0.0
  0
POINT
  5
2F176
330
2F12A
100
AcDbEntity
  8
DEFPOINTS
 62
     0
 48
50.0
100
AcDbPoint
 10
5160.857017417386
 20
1156.295456145579
 30
0.0
  0
ENDBLK
  5
2F135
330
2F12A
100
AcDbEntity
  8
0
 48
50.0
100
AcDbBlockEnd
  0
BLOCK
  5
2F140
330
2F136
100
AcDbEntity
  8
0
 48
50.0
100
AcDbBlockBegin
  2
*D52
 70
     1
 10
0.0
 20
0.0
 30
0.0
  3
*D52
  1

  0
LINE
  5
2F177
330
2F136
100
AcDbEntity
  8
寸法
 62
     0
 48
50.0
370
    -2
100
AcDbLine
 10
5411.277331149846
 20
1940.295456145579
 30
0.0
 11
4636.240092588105
 21
1940.295456145579
 31
0.0
  0
LINE
  5
2F178
330
2F136
100
AcDbEntity
  8
寸法
 62
     0
 48
50.0
370
    -2
100
AcDbLine
 10
5203.277331149849
 20
1156.295456145579
 30
0.0
 11
4636.240092588105
 21
1156.295456145579
 31
0.0
  0
LINE
  5
2F179
330
2F136
100
AcDbEntity
  8
寸法
 62
     0
 48
50.0
370
    -2
100
AcDbLine
 10
4696.240092588105
 20
1940.295456145579
 30
0.0
 11
4696.240092588105
 21
1156.295456145579
 31
0.0
  0
INSERT
  5
2F17A
330
2F136
100
AcDbEntity
  8
寸法
 62
     0
 48
50.0
370
    -2
100
AcDbBlockReference
  2
_DOTSMALL
 10
4696.240092588105
 20
1940.295456145579
 30
0.0
 41
100.0
 42
100.0
 43
100.0
 50
90.0
  0
INSERT
  5
2F17B
330
2F136
100
AcDbEntity
  8
寸法
 62
     0
 48
50.0
370
    -2
100
AcDbBlockReference
  2
_DOTSMALL
 10
4696.240092588105
 20
1156.295456145579
 30
0.0
 41
100.0
 42
100.0
 43
100.0
 50
270.0
  0
MTEXT
  5
2F17C
330
2F136
100
AcDbEntity
  8
寸法
 62
     7
 48
50.0
100
AcDbMText
 10
4596.240092588105
 20
1527.83560580158
 30
0.0
 40
120.0
 41
0.0
 71
     5
 72
     1
  1
\A1;540
  7
STYLE1
 11
0.0000000000000001
 21
1.0
 31
0.0
 73
     1
 44
1.0
1001
ACAD
1000
MTEXTBEGIN
1070
    73
1070
     1
1070
    44
1040
1.0
1070
    74
1070
     0
1000
MTEXTEND
  0
POINT
  5
2F17D
330
2F136
100
AcDbEntity
  8
DEFPOINTS
 62
     0
 48
50.0
100
AcDbPoint
 10
5431.277331149846
 20
1940.295456145579
 30
0.0
  0
POINT
  5
2F17E
330
2F136
100
AcDbEntity
  8
DEFPOINTS
 62
     0
 48
50.0
100
AcDbPoint
 10
5223.27733114985
 20
1156.295456145579
 30
0.0
  0
POINT
  5
2F17F
330
2F136
100
AcDbEntity
  8
DEFPOINTS
 62
     0
 48
50.0
100
AcDbPoint
 10
4696.240092588105
 20
1156.295456145579
 30
0.0
  0
ENDBLK
  5
2F141
330
2F136
100
AcDbEntity
  8
0
 48
50.0
100
AcDbBlockEnd
  0
BLOCK
  5
2F14C
330
2F142
100
AcDbEntity
  8
0
 48
50.0
100
AcDbBlockBegin
  2
*D53
 70
     1
 10
0.0
 20
0.0
 30
0.0
  3
*D53
  1

  0
LINE
  5
2F180
330
2F142
100
AcDbEntity
  8
寸法
 62
     0
 48
50.0
370
    -2
100
AcDbLine
 10
5303.277331149846
 20
1008.295456145579
 30
0.0
 11
5303.277331149846
 21
557.8658181404189
 31
0.0
  0
LINE
  5
2F181
330
2F142
100
AcDbEntity
  8
寸法
 62
     0
 48
50.0
370
    -2
100
AcDbLine
 10
5751.277331149846
 20
1008.295456145579
 30
0.0
 11
5751.277331149846
 21
557.8658181404189
 31
0.0
  0
LINE
  5
2F182
330
2F142
100
AcDbEntity
  8
寸法
 62
     0
 48
50.0
370
    -2
100
AcDbLine
 10
5303.277331149846
 20
617.8658181404188
 30
0.0
 11
5751.277331149846
 21
617.8658181404188
 31
0.0
  0
INSERT
  5
2F183
330
2F142
100
AcDbEntity
  8
寸法
 62
     0
 48
50.0
370
    -2
100
AcDbBlockReference
  2
_DOTSMALL
 10
5303.277331149846
 20
617.8658181404188
 30
0.0
 41
100.0
 42
100.0
 43
100.0
 50
180.0
  0
INSERT
  5
2F184
330
2F142
100
AcDbEntity
  8
寸法
 62
     0
 48
50.0
370
    -2
100
AcDbBlockReference
  2
_DOTSMALL
 10
5751.277331149846
 20
617.8658181404188
 30
0.0
 41
100.0
 42
100.0
 43
100.0
  0
MTEXT
  5
2F185
330
2F142
100
AcDbEntity
  8
寸法
 62
     7
 48
50.0
100
AcDbMText
 10
5507.180572471622
 20
717.8658181404188
 30
0.0
 40
120.0
 41
0.0
 71
     5
 72
     1
  1
\A1;300
  7
STYLE1
 73
     1
 44
1.0
1001
ACAD
1000
MTEXTBEGIN
1070
    73
1070
     1
1070
    44
1040
1.0
1070
    74
1070
     0
1000
MTEXTEND
  0
POINT
  5
2F186
330
2F142
100
AcDbEntity
  8
DEFPOINTS
 62
     0
 48
50.0
100
AcDbPoint
 10
5303.277331149846
 20
1028.295456145579
 30
0.0
  0
POINT
  5
2F187
330
2F142
100
AcDbEntity
  8
DEFPOINTS
 62
     0
 48
50.0
100
AcDbPoint
 10
5751.277331149846
 20
1028.295456145579
 30
0.0
  0
POINT
  5
2F188
330
2F142
100
AcDbEntity
  8
DEFPOINTS
 62
     0
 48
50.0
100
AcDbPoint
 10
5751.277331149846
 20
617.8658181404188
 30
0.0
  0
ENDBLK
  5
2F14D
330
2F142
100
AcDbEntity
  8
0
 48
50.0
100
AcDbBlockEnd
  0
BLOCK
  5
2F158
330
2F14E
100
AcDbEntity
  8
0
 48
50.0
100
AcDbBlockBegin
  2
*D54
 70
     1
 10
0.0
 20
0.0
 30
0.0
  3
*D54
  1

  0
LINE
  5
2F189
330
2F14E
100
AcDbEntity
  8
寸法
 62
     0
 48
50.0
370
    -2
100
AcDbLine
 10
5623.277331149846
 20
1960.295456145579
 30
0.0
 11
5623.277331149846
 21
2419.963264061959
 31
0.0
  0
LINE
  5
2F18A
330
2F14E
100
AcDbEntity
  8
寸法
 62
     0
 48
50.0
370
    -2
100
AcDbLine
 10
5431.277331149846
 20
1960.295456145579
 30
0.0
 11
5431.277331149846
 21
2419.963264061959
 31
0.0
  0
LINE
  5
2F18B
330
2F14E
100
AcDbEntity
  8
寸法
 62
     0
 48
50.0
370
    -2
100
AcDbLine
 10
5623.277331149846
 20
2359.963264061959
 30
0.0
 11
5431.277331149846
 21
2359.963264061959
 31
0.0
  0
INSERT
  5
2F18C
330
2F14E
100
AcDbEntity
  8
寸法
 62
     0
 48
50.0
370
    -2
100
AcDbBlockReference
  2
_DOTSMALL
 10
5623.277331149846
 20
2359.963264061959
 30
0.0
 41
100.0
 42
100.0
 43
100.0
  0
INSERT
  5
2F18D
330
2F14E
100
AcDbEntity
  8
寸法
 62
     0
 48
50.0
370
    -2
100
AcDbBlockReference
  2
_DOTSMALL
 10
5431.277331149846
 20
2359.963264061959
 30
0.0
 41
100.0
 42
100.0
 43
100.0
 50
180.0
  0
MTEXT
  5
2F18E
330
2F14E
100
AcDbEntity
  8
寸法
 62
     7
 48
50.0
100
AcDbMText
 10
5527.277331149846
 20
2659.998697132825
 30
0.0
 40
120.0
 41
0.0
 71
     5
 72
     1
  1
\A1;120\P200\P280
  7
STYLE1
 73
     1
 44
1.0
1001
ACAD
1000
MTEXTBEGIN
1070
    73
1070
     1
1070
    44
1040
1.0
1070
    74
1070
     0
1000
MTEXTEND
  0
POINT
  5
2F18F
330
2F14E
100
AcDbEntity
  8
DEFPOINTS
 62
     0
 48
50.0
100
AcDbPoint
 10
5623.277331149846
 20
1940.295456145579
 30
0.0
  0
POINT
  5
2F190
330
2F14E
100
AcDbEntity
  8
DEFPOINTS
 62
     0
 48
50.0
100
AcDbPoint
 10
5431.277331149846
 20
1940.295456145579
 30
0.0
  0
POINT
  5
2F191
330
2F14E
100
AcDbEntity
  8
DEFPOINTS
 62
     0
 48
50.0
100
AcDbPoint
 10
5431.277331149846
 20
2359.963264061959
 30
0.0
  0
ENDBLK
  5
2F159
330
2F14E
100
AcDbEntity
  8
0
 48
50.0
100
AcDbBlockEnd
  0
ENDSEC
  0
SECTION
  2
ENTITIES
  0
MTEXT
  5
763F
330
747D
100
AcDbEntity
  8
0
100
AcDbMText
 10
302.846345836809
 20
280.1983726409901
 30
0.0
 40
3.5
 41
5.323721266742722
 71
     1
 72
     5
  1

  7
MSMINCHO
 73
     1
 44
1.0
1001
ACAD
1000
MTEXTBEGIN
1070
    73
1070
     1
1070
    44
1040
1.0
1070
    74
1070
     0
1000
MTEXTEND
  0
LINE
  5
10B57
330
747D
100
AcDbEntity
  8
補助
  6
PHANTOM
 62
   230
 48
50.0
100
AcDbLine
 10
139.9999999999995
 20
11409.6
 30
0.0
 11
16307.2
 21
11409.6
 31
0.0
  0
LINE
  5
10B59
330
747D
100
AcDbEntity
  8
仕様書枠
  6
Continuous
 48
50.0
100
AcDbLine
 10
13107.2
 20
1200.0
 30
0.0
 11
13107.2
 21
-0.0000000000000729
 31
0.0
  0
LINE
  5
10B5D
330
747D
100
AcDbEntity
  8
仕様書枠
 48
50.0
100
AcDbLine
 10
140.0
 20
0.0
 30
0.0
 11
16307.2
 21
-0.0000000000000909
 31
0.0
  0
LINE
  5
10B5E
330
747D
100
AcDbEntity
  8
補助
  6
PHANTOM
 62
   230
 48
50.0
100
AcDbLine
 10
16307.2
 20
11409.6
 30
0.0
 11
16307.2
 21
1200.0
 31
0.0
  0
LINE
  5
10B6C
330
747D
100
AcDbEntity
  8
仕様書枠
 48
50.0
100
AcDbLine
 10
13107.2
 20
1200.0
 30
0.0
 11
16307.2
 21
1200.0
 31
0.0
  0
TEXT
  5
10B73
330
747D
100
AcDbEntity
  8
文字
 62
     7
 48
50.0
100
AcDbText
 10
13162.9790565769
 20
895.0906074299405
 30
0.0
 40
200.0
  1
基 礎 図
  7
STYLE2
100
AcDbText
  0
LINE
  5
10B7B
330
747D
100
AcDbEntity
  8
仕様書枠
 48
50.0
100
AcDbLine
 10
13107.2
 20
800.0
 30
0.0
 11
14251.2
 21
800.0
 31
0.0
  0
LINE
  5
10B88
330
747D
100
AcDbEntity
  8
仕様書枠
  6
Continuous
 48
50.0
100
AcDbLine
 10
14251.2
 20
1200.0
 30
0.0
 11
14251.2
 21
800.0
 31
0.0
  0
LINE
  5
16462
330
747D
100
AcDbEntity
  8
仕様書枠
 48
50.0
100
AcDbLine
 10
16307.2
 20
1200.0
 30
0.0
 11
16307.2
 21
-0.0000000000000909
 31
0.0
  0
LINE
  5
1903B
330
747D
100
AcDbEntity
  8
補助
  6
PHANTOM
 62
   230
 48
50.0
100
AcDbLine
 10
140.0
 20
0.0
 30
0.0
 11
139.9999999999995
 21
11409.6
 31
0.0
  0
TEXT
  5
1C7A1
330
747D
100
AcDbEntity
  8
文字
 62
     7
 48
50.0
100
AcDbText
 10
13188.16259899338
 20
79.80631269190417
 30
0.0
 40
80.0
  1
※布基礎には換気口を設けてください。
  7
STYLE2
100
AcDbText
  0
TEXT
  5
1C7E7
330
747D
100
AcDbEntity
  8
文字
 62
     7
 48
50.0
100
AcDbText
 10
13188.16259899338
 20
246.7109242801889
 30
0.0
 40
80.0
  1
※寒冷地等は地域の実情に合わせた基礎にして下さい。
  7
STYLE2
100
AcDbText
  0
TEXT
  5
1C7EC
330
747D
100
AcDbEntity
  8
文字
 62
     7
 48
50.0
100
AcDbText
 10
14524.131837222
 20
1031.557706291229
 30
0.0
 40
100.0
  1
      <縮尺> S=1/40
  7
STYLE2
100
AcDbText
  0
TEXT
  5
1C7ED
330
747D
100
AcDbEntity
  8
文字
 62
     7
 48
50.0
100
AcDbText
 10
13201.43669998441
 20
477.2740661031257
 30
0.0
 40
160.0
  1
機種名
  7
STYLE2
100
AcDbText
  0
LINE
  5
1C7EF
330
747D
100
AcDbEntity
  8
文字
 62
     7
 48
50.0
100
AcDbLine
 10
13187.2
 20
400.0
 30
0.0
 11
16227.2
 21
400.0
 31
0.0
  0
TEXT
  5
271E7
330
747D
100
AcDbEntity
  8
部品1
100
AcDbText
 10
6896.551502705768
 20
5273.072859500072
 30
0.0
 40
135.0
  1
11連棟・14連棟・17連棟・20連棟
  7
STYLE2
100
AcDbText
  0
TEXT
  5
27754
330
747D
100
AcDbEntity
  8
文字
 62
     7
 48
50.0
100
AcDbText
 10
14271.39351435261
 20
483.8967129911416
 30
0.0
 40
160.0
  1
ＮＸＮ－１４ＤＬ-Ｎ
  7
STYLE2
100
AcDbText
  0
MTEXT
  5
2D57F
330
747D
100
AcDbEntity
  8
寸法
 62
     7
 48
50.0
100
AcDbMText
 10
10085.74277923954
 20
8452.985461860857
 30
0.0
 40
120.0
 41
0.0
 71
     5
 72
     1
  1
\A1;2850
  7
STYLE1
 73
     1
 44
1.0
1001
ACAD
1000
MTEXTBEGIN
1070
    73
1070
     1
1070
    44
1040
1.0
1070
    74
1070
     0
1000
MTEXTEND
  0
MTEXT
  5
2D580
330
747D
100
AcDbEntity
  8
寸法
 62
     7
 48
50.0
100
AcDbMText
 10
9482.407549112981
 20
8205.138243366475
 30
0.0
 40
120.0
 41
0.0
 71
     5
 72
     1
  1
\A1;950
  7
STYLE1
 73
     1
 44
1.0
1001
ACAD
1000
MTEXTBEGIN
1070
    73
1070
     1
1070
    44
1040
1.0
1070
    74
1070
     0
1000
MTEXTEND
  0
MTEXT
  5
2D581
330
747D
100
AcDbEntity
  8
寸法
 62
     7
 48
50.0
100
AcDbMText
 10
8860.726270679171
 20
8205.138243366475
 30
0.0
 40
120.0
 41
0.0
 71
     5
 72
     1
  1
\A1;950
  7
STYLE1
 73
     1
 44
1.0
1001
ACAD
1000
MTEXTBEGIN
1070
    73
1070
     1
1070
    44
1040
1.0
1070
    74
1070
     0
1000
MTEXTEND
  0
MTEXT
  5
2D582
330
747D
100
AcDbEntity
  8
寸法
 62
     7
 48
50.0
100
AcDbMText
 10
8010.98800340552
 20
8452.985461860857
 30
0.0
 40
120.0
 41
0.0
 71
     5
 72
     1
  1
\A1;2850
  7
STYLE1
 73
     1
 44
1.0
1001
ACAD
1000
MTEXTBEGIN
1070
    73
1070
     1
1070
    44
1040
1.0
1070
    74
1070
     0
1000
MTEXTEND
  0
LINE
  5
2DDCF
330
747D
100
AcDbEntity
  8
細線
 48
50.0
100
AcDbLine
 10
8256.082594658227
 20
7423.970681310558
 30
0.0
 11
8323.600000000002
 21
7491.48808665234
 31
0.0
  0
LINE
  5
2DDD0
330
747D
100
AcDbEntity
  8
細線
 48
50.0
100
AcDbLine
 10
8211.181314052868
 20
7423.970681310563
 30
0.0
 11
8323.6
 21
7536.389367257676
 31
0.0
  0
LINE
  5
2DDD1
330
747D
100
AcDbEntity
  8
細線
 48
50.0
100
AcDbLine
 10
8166.28003344754
 20
7423.970681310563
 30
0.0
 11
8323.6
 21
7581.290647863022
 31
0.0
  0
LINE
  5
2DDD2
330
747D
100
AcDbEntity
  8
細線
 48
50.0
100
AcDbLine
 10
8123.600000000008
 20
7426.19192846838
 30
0.0
 11
8321.378752842196
 21
7623.970681310564
 31
0.0
  0
LINE
  5
2DDD4
330
747D
100
AcDbEntity
  8
部品1
 48
50.0
100
AcDbLine
 10
9238.995155783406
 20
7423.97068131056
 30
0.0
 11
3113.599999999995
 21
7423.97068131056
 31
0.0
  0
LINE
  5
2DDD5
330
747D
100
AcDbEntity
  8
寸法
 48
50.0
100
AcDbLine
 10
7630.599985198223
 20
8350.237127102428
 30
0.0
 11
8330.644540020294
 21
8350.237127102428
 31
0.0
  0
LINE
  5
2DDD7
330
747D
100
AcDbEntity
  8
部品1
 48
50.0
100
AcDbLine
 10
9119.601803738406
 20
6083.970681310571
 30
0.0
 11
2993.599999999995
 21
6083.970681310557
 31
0.0
  0
LINE
  5
2DDD8
330
747D
100
AcDbEntity
  8
部品1
 48
50.0
100
AcDbLine
 10
9265.200704228631
 20
7623.970681310559
 30
0.0
 11
2993.599999999999
 21
7623.970681310559
 31
0.0
  0
DIMENSION
  5
2DDDA
330
747D
100
AcDbEntity
  8
寸法
 48
50.0
100
AcDbDimension
  2
*D19
 10
13453.6
 20
8582.191003369478
 30
0.0
 11
8223.600000000001
 21
8682.19100336948
 31
0.0
 70
    32
  1
N X 950+10
 71
     5
 42
10460.0
  3
INABA_S40G
100
AcDbAlignedDimension
 13
2993.599999999999
 23
7623.970681310559
 33
0.0
 14
13453.6
 24
7623.970681310559
 34
0.0
100
AcDbRotatedDimension
1001
ACAD
1000
DSTYLE
1002
{
1070
   341
1005
0
1002
}
  0
DIMENSION
  5
2DDDB
330
747D
100
AcDbEntity
  8
寸法
 48
50.0
100
AcDbDimension
  2
*D20
 10
7748.600000000006
 20
8106.579497980808
 30
0.0
 11
8223.600000000006
 21
8206.579497980809
 31
0.0
 70
    32
 71
     5
 42
950.0
  3
INABA_S40G
100
AcDbAlignedDimension
 13
8698.600000000006
 23
6940.97068131056
 33
0.0
 14
7748.600000000006
 24
6940.97068131056
 34
0.0
100
AcDbRotatedDimension
1001
ACAD
1000
DSTYLE
1002
{
1070
   341
1005
0
1002
}
  0
LINE
  5
2DDDC
330
747D
100
AcDbEntity
  8
想像線
 48
5.0
100
AcDbLine
 10
3763.600000000002
 20
6083.970681310574
 30
0.0
 11
3763.600000000002
 21
5363.970681310564
 31
0.0
  0
ARC
  5
2DDDD
330
747D
100
AcDbEntity
  8
想像線
 48
5.0
100
AcDbCircle
 10
3763.600000000002
 20
6083.970681310564
 30
0.0
 40
720.0
100
AcDbArc
 50
180.0
 51
270.0
  0
DIMENSION
  5
2DDDE
330
747D
100
AcDbEntity
  8
寸法
 48
50.0
100
AcDbDimension
  2
*D21
 10
2880.512673767881
 20
5363.970681310557
 30
0.0
 11
2880.51267376788
 21
5723.970681310557
 31
0.0
 70
   160
  1
扉の出<>
 71
     5
 42
720.0
  3
INABA_S40G
100
AcDbAlignedDimension
 13
2993.600000000002
 23
6083.970681310557
 33
0.0
 14
3349.325326928807
 24
5363.970681310557
 34
0.0
 50
90.0
100
AcDbRotatedDimension
1001
ACAD
1000
DSTYLE
1002
{
1070
   341
1005
0
1002
}
  0
DIMENSION
  5
2DDDF
330
747D
100
AcDbEntity
  8
寸法
 48
50.0
100
AcDbDimension
  2
*D22
 10
2370.66500633007
 20
6083.97068131056
 30
0.0
 11
2370.66500633007
 21
5748.439732467968
 31
0.0
 70
   160
 71
     5
 42
198.0000000000036
  3
INABA_S40G
100
AcDbAlignedDimension
 13
3066.600000000006
 23
6281.970681310564
 33
0.0
 14
2993.599999999999
 24
6083.97068131056
 34
0.0
 50
90.0
100
AcDbRotatedDimension
1001
ACAD
1000
DSTYLE
1002
{
1070
   341
1005
0
1002
}
  0
DIMENSION
  5
2DDE1
330
747D
100
AcDbEntity
  8
寸法
 48
50.0
100
AcDbDimension
  2
*D23
 10
4898.600000000006
 20
8106.579497980808
 30
0.0
 11
5373.600000000006
 21
8206.579497980809
 31
0.0
 70
    32
 71
     5
 42
950.0
  3
INABA_S40G
100
AcDbAlignedDimension
 13
5848.600000000006
 23
6940.97068131056
 33
0.0
 14
4898.600000000006
 24
6940.97068131056
 34
0.0
100
AcDbRotatedDimension
1001
ACAD
1000
DSTYLE
1002
{
1070
   341
1005
0
1002
}
  0
DIMENSION
  5
2DDE2
330
747D
100
AcDbEntity
  8
寸法
 48
50.0
100
AcDbDimension
  2
*D24
 10
3116.599999999999
 20
8350.237139404471
 30
0.0
 11
4423.599999999998
 21
8450.248950428093
 31
0.0
 70
    32
 71
     5
 42
2614.0
  3
INABA_S40G
100
AcDbAlignedDimension
 13
5730.599999999999
 23
7550.970681310561
 33
0.0
 14
3116.599999999999
 24
7550.970681310561
 34
0.0
100
AcDbRotatedDimension
1001
ACAD
1000
DSTYLE
1002
{
1070
   341
1005
0
1002
}
  0
DIMENSION
  5
2DDE3
330
747D
100
AcDbEntity
  8
寸法
 48
50.0
100
AcDbDimension
  2
*D25
 10
3948.600000000006
 20
8106.579497980808
 30
0.0
 11
4423.600000000006
 21
8206.579497980809
 31
0.0
 70
    32
 71
     5
 42
950.0
  3
INABA_S40G
100
AcDbAlignedDimension
 13
4898.600000000006
 23
6940.97068131056
 33
0.0
 14
3948.600000000006
 24
6940.97068131056
 34
0.0
100
AcDbRotatedDimension
1001
ACAD
1000
DSTYLE
1002
{
1070
   341
1005
0
1002
}
  0
DIMENSION
  5
2DDE4
330
747D
100
AcDbEntity
  8
寸法
 48
50.0
100
AcDbDimension
  2
*D26
 10
2993.599999999999
 20
8350.237139404471
 30
0.0
 11
2720.493398282201
 21
8350.237139404471
 31
0.0
 70
   160
 71
     5
 42
123.0
  3
INABA_S40G
100
AcDbAlignedDimension
 13
3116.599999999999
 23
7550.970681310561
 33
0.0
 14
2993.599999999999
 24
7623.970681310559
 34
0.0
100
AcDbRotatedDimension
1001
ACAD
1000
DSTYLE
1002
{
1070
   341
1005
0
1002
}
  0
DIMENSION
  5
2DDE5
330
747D
100
AcDbEntity
  8
寸法
 48
50.0
100
AcDbDimension
  2
*D27
 10
2370.665006330071
 20
7500.970681310561
 30
0.0
 11
2370.66500633007
 21
7897.077283028359
 31
0.0
 70
   160
 71
     5
 42
123.0
  3
INABA_S40G
100
AcDbAlignedDimension
 13
2993.599999999999
 23
7623.970681310559
 33
0.0
 14
3066.599999999999
 24
7500.970681310561
 34
0.0
 50
90.0
100
AcDbRotatedDimension
1001
ACAD
1000
DSTYLE
1002
{
1070
   341
1005
0
1002
}
  0
DIMENSION
  5
2DDE6
330
747D
100
AcDbEntity
  8
寸法
 48
50.0
100
AcDbDimension
  2
*D28
 10
2993.599999999999
 20
8106.579497980808
 30
0.0
 11
3471.100000000002
 21
8206.579497980809
 31
0.0
 70
    32
 71
     5
 42
955.0000000000073
  3
INABA_S40G
100
AcDbAlignedDimension
 13
3948.600000000006
 23
6940.97068131056
 33
0.0
 14
2993.599999999999
 24
7623.970681310559
 34
0.0
100
AcDbRotatedDimension
1001
ACAD
1000
DSTYLE
1002
{
1070
   341
1005
0
1002
}
  0
DIMENSION
  5
2DDE8
330
747D
100
AcDbEntity
  8
寸法
 48
50.0
100
AcDbDimension
  2
*D29
 10
3476.2859906143
 20
7623.970681310559
 30
0.0
 11
3476.285990614299
 21
7183.565472004737
 31
0.0
 70
   160
 71
     5
 42
733.0
  3
INABA_S40G
100
AcDbAlignedDimension
 13
3898.600000000006
 23
6890.97068131056
 33
0.0
 14
3567.7654751409
 24
7623.970681310559
 34
0.0
 50
90.0
100
AcDbRotatedDimension
1001
ACAD
1000
DSTYLE
1002
{
1070
   341
1005
0
1002
}
  0
DIMENSION
  5
2DDE9
330
747D
100
AcDbEntity
  8
寸法
 48
50.0
100
AcDbDimension
  2
*D30
 10
3476.285990614299
 20
6890.97068131056
 30
0.0
 11
3476.285990614299
 21
6568.97068131056
 31
0.0
 70
   160
 71
     5
 42
806.999999999989
  3
INABA_S40G
100
AcDbAlignedDimension
 13
3567.7654751409
 23
6083.970681310571
 33
0.0
 14
3898.600000000006
 24
6890.97068131056
 34
0.0
 50
90.0
100
AcDbRotatedDimension
1001
ACAD
1000
DSTYLE
1002
{
1070
   341
1005
0
1002
}
  0
LINE
  5
2DDEB
102
{ACAD_REACTORS
330
2EE4A
102
}
330
747D
100
AcDbEntity
  8
部品1
 48
50.0
100
AcDbLine
 10
2993.599999999999
 20
6083.97068131056
 30
0.0
 11
2993.599999999999
 21
7623.970681310559
 31
0.0
  0
DIMENSION
  5
2DDEE
330
747D
100
AcDbEntity
  8
寸法
 48
50.0
100
AcDbDimension
  2
*D31
 10
2370.66500633007
 20
6281.970681310564
 30
0.0
 11
2370.66500633007
 21
6891.470681310561
 31
0.0
 70
   160
 71
     5
 42
1218.999999999996
  3
INABA_S40G
100
AcDbAlignedDimension
 13
3066.599999999999
 23
7500.970681310561
 33
0.0
 14
3066.600000000006
 24
6281.970681310564
 34
0.0
 50
90.0
100
AcDbRotatedDimension
1001
ACAD
1000
DSTYLE
1002
{
1070
   341
1005
0
1002
}
  0
DIMENSION
  5
2DDEF
330
747D
100
AcDbEntity
  8
寸法
 48
50.0
100
AcDbDimension
  2
*D32
 10
2118.721909610672
 20
6083.97068131056
 30
0.0
 11
2118.721909610671
 21
6891.470681310561
 31
0.0
 70
   160
 71
     5
 42
1540.0
  3
INABA_S40G
100
AcDbAlignedDimension
 13
2993.599999999999
 23
7623.970681310559
 33
0.0
 14
2993.599999999999
 24
6083.97068131056
 34
0.0
 50
90.0
100
AcDbRotatedDimension
1001
ACAD
1000
DSTYLE
1002
{
1070
   341
1005
0
1002
}
  0
LINE
  5
2DDF1
330
747D
100
AcDbEntity
  8
センター
 48
2.0
100
AcDbLine
 10
3116.600000000006
 20
6331.970681310564
 30
0.0
 11
3116.600000000006
 21
6231.970681310563
 31
0.0
  0
CIRCLE
  5
2DDF2
330
747D
100
AcDbEntity
  8
部品1
 48
50.0
100
AcDbCircle
 10
3116.599999999992
 20
6281.970681310564
 30
0.0
 40
35.0
  0
LINE
  5
2DDF3
330
747D
100
AcDbEntity
  8
センター
 48
2.0
100
AcDbLine
 10
3066.600000000006
 20
6281.970681310564
 30
0.0
 11
3166.600000000006
 21
6281.970681310564
 31
0.0
  0
LINE
  5
2DDF4
102
{ACAD_REACTORS
330
2EE4A
102
}
330
747D
100
AcDbEntity
  8
部品1
 48
50.0
100
AcDbLine
 10
3113.599999999998
 20
6778.970681310584
 30
0.0
 11
2993.599999999992
 21
6778.970681310582
 31
0.0
  0
LINE
  5
2DDF6
102
{ACAD_REACTORS
330
2EE4A
102
}
330
747D
100
AcDbEntity
  8
部品1
 48
50.0
100
AcDbLine
 10
3113.599999999997
 20
6978.970681310582
 30
0.0
 11
2993.599999999992
 21
6978.970681310582
 31
0.0
  0
LINE
  5
2DDF7
330
747D
100
AcDbEntity
  8
センター
 48
2.0
100
AcDbLine
 10
3066.599999999999
 20
7500.970681310561
 30
0.0
 11
3166.599999999999
 21
7500.970681310561
 31
0.0
  0
CIRCLE
  5
2DDF8
330
747D
100
AcDbEntity
  8
部品1
 48
50.0
100
AcDbCircle
 10
3116.599999999999
 20
7500.970681310561
 30
0.0
 40
35.0
  0
LINE
  5
2DDF9
330
747D
100
AcDbEntity
  8
センター
 48
2.0
100
AcDbLine
 10
3116.599999999999
 20
7550.970681310561
 30
0.0
 11
3116.599999999999
 21
7450.970681310561
 31
0.0
  0
LINE
  5
2DDFA
330
747D
100
AcDbEntity
  8
部品1
 48
50.0
100
AcDbLine
 10
4798.600000000006
 20
6790.97068131056
 30
0.0
 11
4798.600000000006
 21
6990.97068131056
 31
0.0
  0
LINE
  5
2DDFB
330
747D
100
AcDbEntity
  8
部品1
 48
50.0
100
AcDbLine
 10
4998.600000000006
 20
6790.97068131056
 30
0.0
 11
4998.600000000006
 21
6990.97068131056
 31
0.0
  0
LINE
  5
2DDFC
330
747D
100
AcDbEntity
  8
部品1
 48
50.0
100
AcDbLine
 10
3848.600000000006
 20
6790.97068131056
 30
0.0
 11
3848.600000000006
 21
6990.97068131056
 31
0.0
  0
LINE
  5
2DDFD
330
747D
100
AcDbEntity
  8
部品1
 48
50.0
100
AcDbLine
 10
4048.600000000006
 20
6790.97068131056
 30
0.0
 11
4048.600000000006
 21
6990.97068131056
 31
0.0
  0
LINE
  5
2DDFE
330
747D
100
AcDbEntity
  8
部品1
 48
50.0
100
AcDbLine
 10
3573.599999999999
 20
6363.970681310557
 30
0.0
 11
3573.599999999998
 21
6083.97068131059
 31
0.0
  0
LINE
  5
2DDFF
330
747D
100
AcDbEntity
  8
部品1
 48
50.0
100
AcDbLine
 10
3373.599999999999
 20
6363.970681310558
 30
0.0
 11
3373.599999999998
 21
6083.970681310586
 31
0.0
  0
LINE
  5
2DE00
330
747D
100
AcDbEntity
  8
細線
 48
50.0
100
AcDbLine
 10
3419.60180373842
 20
6083.970681310584
 30
0.0
 11
3573.599999999998
 21
6237.968877572161
 31
0.0
  0
LINE
  5
2DE01
330
747D
100
AcDbEntity
  8
細線
 48
50.0
100
AcDbLine
 10
3374.700523133075
 20
6083.970681310582
 30
0.0
 11
3573.599999999998
 21
6282.870158177509
 31
0.0
  0
LINE
  5
2DE02
330
747D
100
AcDbEntity
  8
細線
 48
50.0
100
AcDbLine
 10
3373.599999999998
 20
6127.771438782854
 30
0.0
 11
3573.600000000001
 21
6327.771438782857
 31
0.0
  0
LINE
  5
2DE03
330
747D
100
AcDbEntity
  8
細線
 48
50.0
100
AcDbLine
 10
3373.599999999998
 20
6172.6727193882
 30
0.0
 11
3564.897961922357
 21
6363.970681310558
 31
0.0
  0
LINE
  5
2DE04
330
747D
100
AcDbEntity
  8
細線
 48
50.0
100
AcDbLine
 10
3373.600000000001
 20
6217.573999993545
 30
0.0
 11
3519.996681316996
 21
6363.970681310559
 31
0.0
  0
LINE
  5
2DE05
330
747D
100
AcDbEntity
  8
細線
 48
50.0
100
AcDbLine
 10
3464.503084343768
 20
6083.970681310584
 30
0.0
 11
3573.600000000002
 21
6193.06759696682
 31
0.0
  0
LINE
  5
2DE06
330
747D
100
AcDbEntity
  8
細線
 48
50.0
100
AcDbLine
 10
3509.404364949114
 20
6083.970681310586
 30
0.0
 11
3573.600000000004
 21
6148.166316361476
 31
0.0
  0
LINE
  5
2DE07
330
747D
100
AcDbEntity
  8
細線
 48
50.0
100
AcDbLine
 10
3554.305645554461
 20
6083.970681310588
 30
0.0
 11
3573.600000000004
 21
6103.26503575613
 31
0.0
  0
LINE
  5
2DE08
330
747D
100
AcDbEntity
  8
細線
 48
50.0
100
AcDbLine
 10
3373.599999999998
 20
6307.376561204243
 30
0.0
 11
3430.194120106309
 21
6363.970681310558
 31
0.0
  0
LINE
  5
2DE09
330
747D
100
AcDbEntity
  8
細線
 48
50.0
100
AcDbLine
 10
3373.599999999998
 20
6262.475280598898
 30
0.0
 11
3475.095400711661
 21
6363.970681310557
 31
0.0
  0
LINE
  5
2DE0A
330
747D
100
AcDbEntity
  8
部品1
 48
50.0
100
AcDbLine
 10
4048.600000000006
 20
6790.97068131056
 30
0.0
 11
3848.600000000006
 21
6790.97068131056
 31
0.0
  0
LINE
  5
2DE17
330
747D
100
AcDbEntity
  8
部品1
 48
50.0
100
AcDbLine
 10
4998.600000000006
 20
6790.97068131056
 30
0.0
 11
4798.600000000006
 21
6790.97068131056
 31
0.0
  0
LINE
  5
2DE18
330
747D
100
AcDbEntity
  8
部品1
 48
50.0
100
AcDbLine
 10
4048.600000000006
 20
6990.97068131056
 30
0.0
 11
3848.600000000006
 21
6990.97068131056
 31
0.0
  0
LINE
  5
2DE19
330
747D
100
AcDbEntity
  8
センター
 48
2.0
100
AcDbLine
 10
3898.600000000006
 20
6890.97068131056
 30
0.0
 11
3998.600000000006
 21
6890.97068131056
 31
0.0
  0
LINE
  5
2DE1A
330
747D
100
AcDbEntity
  8
センター
 48
2.0
100
AcDbLine
 10
3948.600000000006
 20
6940.97068131056
 30
0.0
 11
3948.600000000006
 21
6840.97068131056
 31
0.0
  0
LINE
  5
2DE1B
330
747D
100
AcDbEntity
  8
細線
 48
50.0
100
AcDbLine
 10
3373.600000000001
 20
7605.797050889751
 30
0.0
 11
3391.773630420812
 21
7623.970681310564
 31
0.0
  0
LINE
  5
2DE1C
330
747D
100
AcDbEntity
  8
細線
 48
50.0
100
AcDbLine
 10
3373.600000000003
 20
7560.895770284408
 30
0.0
 11
3436.674911026159
 21
7623.970681310564
 31
0.0
  0
LINE
  5
2DE1D
330
747D
100
AcDbEntity
  8
細線
 48
50.0
100
AcDbLine
 10
3373.600000000004
 20
7515.994489679066
 30
0.0
 11
3481.576191631504
 21
7623.970681310564
 31
0.0
  0
LINE
  5
2DE1E
330
747D
100
AcDbEntity
  8
細線
 48
50.0
100
AcDbLine
 10
3550.983875263562
 20
7423.970681310563
 30
0.0
 11
3573.600000000006
 21
7446.586806047
 31
0.0
  0
LINE
  5
2DE1F
330
747D
100
AcDbEntity
  8
細線
 48
50.0
100
AcDbLine
 10
3506.082594658226
 20
7423.970681310558
 30
0.0
 11
3573.600000000002
 21
7491.48808665234
 31
0.0
  0
LINE
  5
2DE20
330
747D
100
AcDbEntity
  8
部品1
 48
50.0
100
AcDbLine
 10
3373.599999999998
 20
7623.970681310568
 30
0.0
 11
3373.600000000008
 21
7423.970681310563
 31
0.0
  0
LINE
  5
2DE21
330
747D
100
AcDbEntity
  8
部品1
 48
50.0
100
AcDbLine
 10
3573.599999999998
 20
7623.970681310568
 30
0.0
 11
3573.600000000006
 21
7423.970681310563
 31
0.0
  0
LINE
  5
2DE22
330
747D
100
AcDbEntity
  8
細線
 48
50.0
100
AcDbLine
 10
3373.600000000006
 20
7471.093209073725
 30
0.0
 11
3526.477472236849
 21
7623.970681310564
 31
0.0
  0
LINE
  5
2DE23
330
747D
100
AcDbEntity
  8
細線
 48
50.0
100
AcDbLine
 10
3373.60000000001
 20
7426.19192846838
 30
0.0
 11
3571.378752842196
 21
7623.970681310564
 31
0.0
  0
LINE
  5
2DE24
330
747D
100
AcDbEntity
  8
細線
 48
50.0
100
AcDbLine
 10
3416.28003344754
 20
7423.970681310563
 30
0.0
 11
3573.600000000001
 21
7581.290647863022
 31
0.0
  0
LINE
  5
2DE25
330
747D
100
AcDbEntity
  8
細線
 48
50.0
100
AcDbLine
 10
3461.181314052868
 20
7423.970681310563
 30
0.0
 11
3573.600000000001
 21
7536.389367257676
 31
0.0
  0
LINE
  5
2DE26
330
747D
100
AcDbEntity
  8
部品1
 48
50.0
100
AcDbLine
 10
4998.600000000006
 20
6990.97068131056
 30
0.0
 11
4798.600000000006
 21
6990.97068131056
 31
0.0
  0
LINE
  5
2DE27
330
747D
100
AcDbEntity
  8
センター
 48
2.0
100
AcDbLine
 10
4898.600000000006
 20
6940.97068131056
 30
0.0
 11
4898.600000000006
 21
6840.97068131056
 31
0.0
  0
LINE
  5
2DE28
330
747D
100
AcDbEntity
  8
センター
 48
2.0
100
AcDbLine
 10
4848.600000000006
 20
6890.97068131056
 30
0.0
 11
4948.600000000006
 21
6890.97068131056
 31
0.0
  0
LINE
  5
2DE29
330
747D
100
AcDbEntity
  8
細線
 48
50.0
100
AcDbLine
 10
4323.600000000004
 20
7515.994489679066
 30
0.0
 11
4431.576191631504
 21
7623.970681310564
 31
0.0
  0
LINE
  5
2DE2A
330
747D
100
AcDbEntity
  8
細線
 48
50.0
100
AcDbLine
 10
4366.28003344754
 20
7423.970681310563
 30
0.0
 11
4523.6
 21
7581.290647863022
 31
0.0
  0
LINE
  5
2DE2B
330
747D
100
AcDbEntity
  8
細線
 48
50.0
100
AcDbLine
 10
4323.600000000009
 20
7426.19192846838
 30
0.0
 11
4521.378752842196
 21
7623.970681310564
 31
0.0
  0
LINE
  5
2DE2C
330
747D
100
AcDbEntity
  8
細線
 48
50.0
100
AcDbLine
 10
4323.600000000006
 20
7471.093209073725
 30
0.0
 11
4476.477472236849
 21
7623.970681310564
 31
0.0
  0
LINE
  5
2DE2D
330
747D
100
AcDbEntity
  8
細線
 48
50.0
100
AcDbLine
 10
4323.600000000002
 20
7560.895770284408
 30
0.0
 11
4386.674911026158
 21
7623.970681310564
 31
0.0
  0
LINE
  5
2DE2E
330
747D
100
AcDbEntity
  8
細線
 48
50.0
100
AcDbLine
 10
4323.6
 20
7605.797050889751
 30
0.0
 11
4341.773630420812
 21
7623.970681310564
 31
0.0
  0
LINE
  5
2DE2F
330
747D
100
AcDbEntity
  8
部品1
 48
50.0
100
AcDbLine
 10
4323.599999999998
 20
7623.970681310568
 30
0.0
 11
4323.600000000007
 21
7423.970681310563
 31
0.0
  0
LINE
  5
2DE30
330
747D
100
AcDbEntity
  8
細線
 48
50.0
100
AcDbLine
 10
4500.983875263562
 20
7423.970681310563
 30
0.0
 11
4523.600000000006
 21
7446.586806047
 31
0.0
  0
LINE
  5
2DE31
330
747D
100
AcDbEntity
  8
部品1
 48
50.0
100
AcDbLine
 10
4523.599999999998
 20
7623.970681310568
 30
0.0
 11
4523.600000000006
 21
7423.970681310563
 31
0.0
  0
LINE
  5
2DE32
330
747D
100
AcDbEntity
  8
細線
 48
50.0
100
AcDbLine
 10
4411.181314052868
 20
7423.970681310563
 30
0.0
 11
4523.6
 21
7536.389367257676
 31
0.0
  0
LINE
  5
2DE33
330
747D
100
AcDbEntity
  8
細線
 48
50.0
100
AcDbLine
 10
4456.082594658226
 20
7423.970681310558
 30
0.0
 11
4523.600000000002
 21
7491.48808665234
 31
0.0
  0
DIMENSION
  5
2DE35
330
747D
100
AcDbEntity
  8
寸法
 48
50.0
100
AcDbDimension
  2
*D33
 10
5848.600000000006
 20
8106.579497980808
 30
0.0
 11
6323.600000000006
 21
8206.579497980809
 31
0.0
 70
    32
 71
     5
 42
950.0
  3
INABA_S40G
100
AcDbAlignedDimension
 13
6798.600000000006
 23
6940.97068131056
 33
0.0
 14
5848.600000000006
 24
6940.97068131056
 34
0.0
100
AcDbRotatedDimension
1001
ACAD
1000
DSTYLE
1002
{
1070
   341
1005
0
1002
}
  0
DIMENSION
  5
2DE36
330
747D
100
AcDbEntity
  8
寸法
 48
50.0
100
AcDbDimension
  2
*D34
 10
6798.600000000006
 20
8106.579497980808
 30
0.0
 11
7273.600000000006
 21
8206.579497980809
 31
0.0
 70
    32
 71
     5
 42
950.0
  3
INABA_S40G
100
AcDbAlignedDimension
 13
7748.600000000006
 23
6940.97068131056
 33
0.0
 14
6798.600000000006
 24
6940.97068131056
 34
0.0
100
AcDbRotatedDimension
1001
ACAD
1000
DSTYLE
1002
{
1070
   341
1005
0
1002
}
  0
DIMENSION
  5
2DE37
330
747D
100
AcDbEntity
  8
寸法
 48
50.0
100
AcDbDimension
  2
*D35
 10
5730.599999999999
 20
8350.237139404471
 30
0.0
 11
6680.599999999998
 21
8450.237139404471
 31
0.0
 70
    32
 71
     5
 42
1900.0
  3
INABA_S40G
100
AcDbAlignedDimension
 13
7630.599999999998
 23
7550.970681310561
 33
0.0
 14
5730.599999999999
 24
7550.970681310561
 34
0.0
100
AcDbRotatedDimension
1001
ACAD
1000
DSTYLE
1002
{
1070
   341
1005
0
1002
}
  0
LINE
  5
2DE38
330
747D
100
AcDbEntity
  8
部品1
 48
50.0
100
AcDbLine
 10
5748.600000000006
 20
6790.97068131056
 30
0.0
 11
5748.600000000006
 21
6990.97068131056
 31
0.0
  0
LINE
  5
2DE39
330
747D
100
AcDbEntity
  8
部品1
 48
50.0
100
AcDbLine
 10
5948.600000000006
 20
6790.97068131056
 30
0.0
 11
5948.600000000006
 21
6990.97068131056
 31
0.0
  0
LINE
  5
2DE3A
330
747D
100
AcDbEntity
  8
部品1
 48
50.0
100
AcDbLine
 10
5948.600000000006
 20
6790.97068131056
 30
0.0
 11
5748.600000000006
 21
6790.97068131056
 31
0.0
  0
LINE
  5
2DE42
330
747D
100
AcDbEntity
  8
センター
 48
2.0
100
AcDbLine
 10
5730.600000000006
 20
6331.970681310564
 30
0.0
 11
5730.600000000006
 21
6231.970681310563
 31
0.0
  0
CIRCLE
  5
2DE43
330
747D
100
AcDbEntity
  8
部品1
 48
50.0
100
AcDbCircle
 10
5730.600000000006
 20
6281.970681310564
 30
0.0
 40
35.0
  0
LINE
  5
2DE49
330
747D
100
AcDbEntity
  8
センター
 48
2.0
100
AcDbLine
 10
5680.600000000006
 20
6281.970681310564
 30
0.0
 11
5780.600000000006
 21
6281.970681310564
 31
0.0
  0
LINE
  5
2DE56
330
747D
100
AcDbEntity
  8
部品1
 48
50.0
100
AcDbLine
 10
5948.600000000006
 20
6990.97068131056
 30
0.0
 11
5748.600000000006
 21
6990.97068131056
 31
0.0
  0
LINE
  5
2DE57
330
747D
100
AcDbEntity
  8
センター
 48
2.0
100
AcDbLine
 10
5798.600000000006
 20
6890.97068131056
 30
0.0
 11
5898.600000000006
 21
6890.97068131056
 31
0.0
  0
LINE
  5
2DE58
330
747D
100
AcDbEntity
  8
細線
 48
50.0
100
AcDbLine
 10
5406.082594658226
 20
7423.970681310558
 30
0.0
 11
5473.600000000002
 21
7491.48808665234
 31
0.0
  0
LINE
  5
2DE59
330
747D
100
AcDbEntity
  8
細線
 48
50.0
100
AcDbLine
 10
5316.28003344754
 20
7423.970681310563
 30
0.0
 11
5473.600000000001
 21
7581.290647863022
 31
0.0
  0
LINE
  5
2DE5A
330
747D
100
AcDbEntity
  8
細線
 48
50.0
100
AcDbLine
 10
5361.181314052868
 20
7423.970681310563
 30
0.0
 11
5473.600000000001
 21
7536.389367257676
 31
0.0
  0
LINE
  5
2DE5B
330
747D
100
AcDbEntity
  8
細線
 48
50.0
100
AcDbLine
 10
5273.600000000006
 20
7471.093209073725
 30
0.0
 11
5426.477472236849
 21
7623.970681310564
 31
0.0
  0
LINE
  5
2DE5C
330
747D
100
AcDbEntity
  8
細線
 48
50.0
100
AcDbLine
 10
5273.600000000009
 20
7426.19192846838
 30
0.0
 11
5471.378752842196
 21
7623.970681310564
 31
0.0
  0
LINE
  5
2DE5D
330
747D
100
AcDbEntity
  8
部品1
 48
50.0
100
AcDbLine
 10
5273.599999999999
 20
7623.970681310568
 30
0.0
 11
5273.600000000008
 21
7423.970681310563
 31
0.0
  0
LINE
  5
2DE5E
330
747D
100
AcDbEntity
  8
細線
 48
50.0
100
AcDbLine
 10
5273.6
 20
7605.797050889751
 30
0.0
 11
5291.773630420812
 21
7623.970681310564
 31
0.0
  0
LINE
  5
2DE5F
330
747D
100
AcDbEntity
  8
細線
 48
50.0
100
AcDbLine
 10
5273.600000000002
 20
7560.895770284408
 30
0.0
 11
5336.674911026159
 21
7623.970681310564
 31
0.0
  0
LINE
  5
2DE60
330
747D
100
AcDbEntity
  8
細線
 48
50.0
100
AcDbLine
 10
5273.600000000004
 20
7515.994489679066
 30
0.0
 11
5381.576191631504
 21
7623.970681310564
 31
0.0
  0
LINE
  5
2DE61
330
747D
100
AcDbEntity
  8
細線
 48
50.0
100
AcDbLine
 10
5450.983875263562
 20
7423.970681310563
 30
0.0
 11
5473.600000000006
 21
7446.586806047
 31
0.0
  0
LINE
  5
2DE62
330
747D
100
AcDbEntity
  8
部品1
 48
50.0
100
AcDbLine
 10
5473.599999999999
 20
7623.970681310568
 30
0.0
 11
5473.600000000006
 21
7423.970681310563
 31
0.0
  0
LINE
  5
2DE63
330
747D
100
AcDbEntity
  8
センター
 48
2.0
100
AcDbLine
 10
5680.599999999998
 20
7500.970681310561
 30
0.0
 11
5780.599999999998
 21
7500.970681310561
 31
0.0
  0
LINE
  5
2DE64
330
747D
100
AcDbEntity
  8
センター
 48
2.0
100
AcDbLine
 10
5730.599999999999
 20
7550.970681310561
 30
0.0
 11
5730.599999999999
 21
7450.970681310561
 31
0.0
  0
CIRCLE
  5
2DE65
330
747D
100
AcDbEntity
  8
部品1
 48
50.0
100
AcDbCircle
 10
5730.599999999999
 20
7500.970681310561
 30
0.0
 40
35.0
  0
LINE
  5
2DE66
330
747D
100
AcDbEntity
  8
センター
 48
2.0
100
AcDbLine
 10
5848.600000000006
 20
6940.97068131056
 30
0.0
 11
5848.600000000006
 21
6840.97068131056
 31
0.0
  0
LINE
  5
2DE67
330
747D
100
AcDbEntity
  8
細線
 48
50.0
100
AcDbLine
 10
6223.600000000002
 20
7560.895770284408
 30
0.0
 11
6286.674911026159
 21
7623.970681310564
 31
0.0
  0
LINE
  5
2DE68
330
747D
100
AcDbEntity
  8
細線
 48
50.0
100
AcDbLine
 10
6223.600000000001
 20
7605.797050889751
 30
0.0
 11
6241.773630420812
 21
7623.970681310564
 31
0.0
  0
LINE
  5
2DE69
330
747D
100
AcDbEntity
  8
細線
 48
50.0
100
AcDbLine
 10
6223.600000000004
 20
7515.994489679066
 30
0.0
 11
6331.576191631504
 21
7623.970681310564
 31
0.0
  0
LINE
  5
2DE6A
330
747D
100
AcDbEntity
  8
細線
 48
50.0
100
AcDbLine
 10
6223.60000000001
 20
7426.19192846838
 30
0.0
 11
6421.378752842196
 21
7623.970681310564
 31
0.0
  0
LINE
  5
2DE6B
330
747D
100
AcDbEntity
  8
細線
 48
50.0
100
AcDbLine
 10
6223.600000000006
 20
7471.093209073725
 30
0.0
 11
6376.47747223685
 21
7623.970681310564
 31
0.0
  0
LINE
  5
2DE6C
330
747D
100
AcDbEntity
  8
部品1
 48
50.0
100
AcDbLine
 10
6223.599999999999
 20
7623.970681310568
 30
0.0
 11
6223.600000000008
 21
7423.970681310563
 31
0.0
  0
LINE
  5
2DE6D
330
747D
100
AcDbEntity
  8
細線
 48
50.0
100
AcDbLine
 10
6400.983875263563
 20
7423.970681310563
 30
0.0
 11
6423.600000000006
 21
7446.586806047
 31
0.0
  0
LINE
  5
2DE6E
330
747D
100
AcDbEntity
  8
細線
 48
50.0
100
AcDbLine
 10
6356.082594658226
 20
7423.970681310558
 30
0.0
 11
6423.600000000002
 21
7491.48808665234
 31
0.0
  0
LINE
  5
2DE6F
330
747D
100
AcDbEntity
  8
部品1
 48
50.0
100
AcDbLine
 10
6423.599999999999
 20
7623.970681310568
 30
0.0
 11
6423.600000000006
 21
7423.970681310563
 31
0.0
  0
LINE
  5
2DE70
330
747D
100
AcDbEntity
  8
細線
 48
50.0
100
AcDbLine
 10
6311.181314052869
 20
7423.970681310563
 30
0.0
 11
6423.6
 21
7536.389367257676
 31
0.0
  0
LINE
  5
2DE71
330
747D
100
AcDbEntity
  8
細線
 48
50.0
100
AcDbLine
 10
6266.280033447539
 20
7423.970681310563
 30
0.0
 11
6423.6
 21
7581.290647863022
 31
0.0
  0
LINE
  5
2DE72
330
747D
100
AcDbEntity
  8
部品1
 48
50.0
100
AcDbLine
 10
7848.600000000006
 20
6790.97068131056
 30
0.0
 11
7848.600000000006
 21
6990.97068131056
 31
0.0
  0
LINE
  5
2DE73
330
747D
100
AcDbEntity
  8
部品1
 48
50.0
100
AcDbLine
 10
6898.600000000006
 20
6790.97068131056
 30
0.0
 11
6898.600000000006
 21
6990.97068131056
 31
0.0
  0
LINE
  5
2DE74
330
747D
100
AcDbEntity
  8
部品1
 48
50.0
100
AcDbLine
 10
7648.600000000006
 20
6790.97068131056
 30
0.0
 11
7648.600000000006
 21
6990.97068131056
 31
0.0
  0
LINE
  5
2DE75
330
747D
100
AcDbEntity
  8
部品1
 48
50.0
100
AcDbLine
 10
6698.600000000006
 20
6790.97068131056
 30
0.0
 11
6698.600000000006
 21
6990.97068131056
 31
0.0
  0
LINE
  5
2DE80
330
747D
100
AcDbEntity
  8
部品1
 48
50.0
100
AcDbLine
 10
6898.600000000006
 20
6790.97068131056
 30
0.0
 11
6698.600000000006
 21
6790.97068131056
 31
0.0
  0
LINE
  5
2DE86
330
747D
100
AcDbEntity
  8
センター
 48
2.0
100
AcDbLine
 10
7630.600000000005
 20
6331.970681310564
 30
0.0
 11
7630.600000000005
 21
6231.970681310563
 31
0.0
  0
CIRCLE
  5
2DE87
330
747D
100
AcDbEntity
  8
部品1
 48
50.0
100
AcDbCircle
 10
7630.600000000005
 20
6281.970681310564
 30
0.0
 40
35.0
  0
LINE
  5
2DE88
330
747D
100
AcDbEntity
  8
センター
 48
2.0
100
AcDbLine
 10
7580.600000000005
 20
6281.970681310564
 30
0.0
 11
7680.600000000005
 21
6281.970681310564
 31
0.0
  0
LINE
  5
2DE89
330
747D
100
AcDbEntity
  8
部品1
 48
50.0
100
AcDbLine
 10
7848.600000000006
 20
6790.97068131056
 30
0.0
 11
7648.600000000006
 21
6790.97068131056
 31
0.0
  0
LINE
  5
2DE8C
330
747D
100
AcDbEntity
  8
部品1
 48
50.0
100
AcDbLine
 10
6898.600000000006
 20
6990.97068131056
 30
0.0
 11
6698.600000000006
 21
6990.97068131056
 31
0.0
  0
LINE
  5
2DE8D
330
747D
100
AcDbEntity
  8
センター
 48
2.0
100
AcDbLine
 10
6798.600000000006
 20
6940.97068131056
 30
0.0
 11
6798.600000000006
 21
6840.97068131056
 31
0.0
  0
LINE
  5
2DE8E
330
747D
100
AcDbEntity
  8
センター
 48
2.0
100
AcDbLine
 10
6748.600000000006
 20
6890.97068131056
 30
0.0
 11
6848.600000000006
 21
6890.97068131056
 31
0.0
  0
LINE
  5
2DE8F
330
747D
100
AcDbEntity
  8
細線
 48
50.0
100
AcDbLine
 10
7173.600000000004
 20
7515.994489679066
 30
0.0
 11
7281.576191631504
 21
7623.970681310564
 31
0.0
  0
LINE
  5
2DE90
330
747D
100
AcDbEntity
  8
細線
 48
50.0
100
AcDbLine
 10
7173.600000000006
 20
7471.093209073725
 30
0.0
 11
7326.47747223685
 21
7623.970681310564
 31
0.0
  0
LINE
  5
2DE91
330
747D
100
AcDbEntity
  8
細線
 48
50.0
100
AcDbLine
 10
7216.280033447539
 20
7423.970681310563
 30
0.0
 11
7373.6
 21
7581.290647863022
 31
0.0
  0
LINE
  5
2DE92
330
747D
100
AcDbEntity
  8
細線
 48
50.0
100
AcDbLine
 10
7261.181314052868
 20
7423.970681310563
 30
0.0
 11
7373.6
 21
7536.389367257676
 31
0.0
  0
LINE
  5
2DE93
330
747D
100
AcDbEntity
  8
細線
 48
50.0
100
AcDbLine
 10
7173.600000000009
 20
7426.19192846838
 30
0.0
 11
7371.378752842196
 21
7623.970681310564
 31
0.0
  0
LINE
  5
2DE94
330
747D
100
AcDbEntity
  8
細線
 48
50.0
100
AcDbLine
 10
7173.6
 20
7605.797050889751
 30
0.0
 11
7191.773630420811
 21
7623.970681310564
 31
0.0
  0
LINE
  5
2DE95
330
747D
100
AcDbEntity
  8
細線
 48
50.0
100
AcDbLine
 10
7173.600000000002
 20
7560.895770284408
 30
0.0
 11
7236.67491102616
 21
7623.970681310564
 31
0.0
  0
LINE
  5
2DE96
330
747D
100
AcDbEntity
  8
部品1
 48
50.0
100
AcDbLine
 10
7173.599999999999
 20
7623.970681310568
 30
0.0
 11
7173.600000000007
 21
7423.970681310563
 31
0.0
  0
LINE
  5
2DE97
330
747D
100
AcDbEntity
  8
細線
 48
50.0
100
AcDbLine
 10
7350.983875263563
 20
7423.970681310563
 30
0.0
 11
7373.600000000006
 21
7446.586806047
 31
0.0
  0
LINE
  5
2DE98
330
747D
100
AcDbEntity
  8
部品1
 48
50.0
100
AcDbLine
 10
7373.599999999999
 20
7623.970681310568
 30
0.0
 11
7373.600000000006
 21
7423.970681310563
 31
0.0
  0
LINE
  5
2DE99
330
747D
100
AcDbEntity
  8
細線
 48
50.0
100
AcDbLine
 10
7306.082594658227
 20
7423.970681310558
 30
0.0
 11
7373.600000000002
 21
7491.48808665234
 31
0.0
  0
LINE
  5
2DE9A
330
747D
100
AcDbEntity
  8
部品1
 48
50.0
100
AcDbLine
 10
7848.600000000006
 20
6990.97068131056
 30
0.0
 11
7648.600000000006
 21
6990.97068131056
 31
0.0
  0
LINE
  5
2DE9B
330
747D
100
AcDbEntity
  8
センター
 48
2.0
100
AcDbLine
 10
7698.600000000006
 20
6890.97068131056
 30
0.0
 11
7798.600000000006
 21
6890.97068131056
 31
0.0
  0
LINE
  5
2DE9C
330
747D
100
AcDbEntity
  8
センター
 48
2.0
100
AcDbLine
 10
7748.600000000006
 20
6940.97068131056
 30
0.0
 11
7748.600000000006
 21
6840.97068131056
 31
0.0
  0
LINE
  5
2DE9D
330
747D
100
AcDbEntity
  8
センター
 48
2.0
100
AcDbLine
 10
7580.599999999998
 20
7500.970681310561
 30
0.0
 11
7680.599999999998
 21
7500.970681310561
 31
0.0
  0
CIRCLE
  5
2DE9E
330
747D
100
AcDbEntity
  8
部品1
 48
50.0
100
AcDbCircle
 10
7630.599999999998
 20
7500.970681310561
 30
0.0
 40
35.0
  0
LINE
  5
2DE9F
330
747D
100
AcDbEntity
  8
センター
 48
2.0
100
AcDbLine
 10
7630.599999999998
 20
7550.970681310561
 30
0.0
 11
7630.599999999998
 21
7450.970681310561
 31
0.0
  0
LINE
  5
2DEA0
330
747D
100
AcDbEntity
  8
細線
 48
50.0
100
AcDbLine
 10
8123.600000000001
 20
7605.797050889751
 30
0.0
 11
8141.773630420813
 21
7623.970681310564
 31
0.0
  0
LINE
  5
2DEA1
330
747D
100
AcDbEntity
  8
部品1
 48
50.0
100
AcDbLine
 10
8123.599999999999
 20
7623.970681310568
 30
0.0
 11
8123.600000000008
 21
7423.970681310563
 31
0.0
  0
LINE
  5
2DEA2
330
747D
100
AcDbEntity
  8
細線
 48
50.0
100
AcDbLine
 10
8123.600000000006
 20
7471.093209073725
 30
0.0
 11
8276.47747223685
 21
7623.970681310564
 31
0.0
  0
LINE
  5
2DEA3
330
747D
100
AcDbEntity
  8
細線
 48
50.0
100
AcDbLine
 10
8123.600000000001
 20
7560.895770284408
 30
0.0
 11
8186.674911026159
 21
7623.970681310564
 31
0.0
  0
LINE
  5
2DEA4
330
747D
100
AcDbEntity
  8
細線
 48
50.0
100
AcDbLine
 10
8123.600000000005
 20
7515.994489679066
 30
0.0
 11
8231.576191631504
 21
7623.970681310564
 31
0.0
  0
LINE
  5
2DEAB
330
747D
100
AcDbEntity
  8
部品1
 48
50.0
100
AcDbLine
 10
13333.6
 20
7423.97068131056
 30
0.0
 11
9206.082594658228
 21
7423.97068131056
 31
0.0
  0
LINE
  5
2DEAD
330
747D
100
AcDbEntity
  8
部品1
 48
50.0
100
AcDbLine
 10
11648.6
 20
6990.97068131056
 30
0.0
 11
11448.6
 21
6990.97068131056
 31
0.0
  0
LINE
  5
2DEAE
330
747D
100
AcDbEntity
  8
センター
 48
2.0
100
AcDbLine
 10
11498.6
 20
6890.97068131056
 30
0.0
 11
11598.6
 21
6890.97068131056
 31
0.0
  0
LINE
  5
2DEAF
330
747D
100
AcDbEntity
  8
部品1
 48
50.0
100
AcDbLine
 10
11648.6
 20
6790.97068131056
 30
0.0
 11
11448.6
 21
6790.97068131056
 31
0.0
  0
DIMENSION
  5
2DEB0
330
747D
100
AcDbEntity
  8
寸法
 48
50.0
100
AcDbDimension
  2
*D36
 10
11548.6
 20
8106.579497980808
 30
0.0
 11
12023.6
 21
8206.579497980809
 31
0.0
 70
    32
 71
     5
 42
950.0
  3
INABA_S40G
100
AcDbAlignedDimension
 13
12498.6
 23
6940.97068131056
 33
0.0
 14
11548.6
 24
6940.97068131056
 34
0.0
100
AcDbRotatedDimension
1001
ACAD
1000
DSTYLE
1002
{
1070
   341
1005
0
1002
}
  0
DIMENSION
  5
2DEB1
330
747D
100
AcDbEntity
  8
寸法
 48
50.0
100
AcDbDimension
  2
*D37
 10
10480.6
 20
8350.237139404471
 30
0.0
 11
11905.6
 21
8450.248950428093
 31
0.0
 70
    32
 71
     5
 42
2850.000000000004
  3
INABA_S40G
100
AcDbAlignedDimension
 13
13330.6
 23
7550.970681310561
 33
0.0
 14
10480.6
 24
7550.970681310561
 34
0.0
100
AcDbRotatedDimension
1001
ACAD
1000
DSTYLE
1002
{
1070
   341
1005
0
1002
}
  0
LINE
  5
2DEB3
330
747D
100
AcDbEntity
  8
部品1
 48
50.0
100
AcDbLine
 10
13453.6
 20
6083.970681310578
 30
0.0
 11
9103.759885354412
 21
6083.970681310568
 31
0.0
  0
LINE
  5
2DEB4
330
747D
100
AcDbEntity
  8
部品1
 48
50.0
100
AcDbLine
 10
13453.6
 20
7623.970681310559
 30
0.0
 11
9226.477472236846
 21
7623.970681310559
 31
0.0
  0
DIMENSION
  5
2DEB5
330
747D
100
AcDbEntity
  8
寸法
 48
50.0
100
AcDbDimension
  2
*D38
 10
9648.600000000007
 20
8106.579497980808
 30
0.0
 11
10123.6
 21
8206.579497980809
 31
0.0
 70
    32
 71
     5
 42
950.0
  3
INABA_S40G
100
AcDbAlignedDimension
 13
10598.6
 23
6940.97068131056
 33
0.0
 14
9648.600000000007
 24
6940.97068131056
 34
0.0
100
AcDbRotatedDimension
1001
ACAD
1000
DSTYLE
1002
{
1070
   341
1005
0
1002
}
  0
DIMENSION
  5
2DEB6
330
747D
100
AcDbEntity
  8
寸法
 48
50.0
100
AcDbDimension
  2
*D39
 10
10598.6
 20
8106.579497980808
 30
0.0
 11
11073.6
 21
8206.579497980809
 31
0.0
 70
    32
 71
     5
 42
949.9999999999964
  3
INABA_S40G
100
AcDbAlignedDimension
 13
11548.6
 23
6940.97068131056
 33
0.0
 14
10598.6
 24
6940.97068131056
 34
0.0
100
AcDbRotatedDimension
1001
ACAD
1000
DSTYLE
1002
{
1070
   341
1005
0
1002
}
  0
LINE
  5
2DEB9
330
747D
100
AcDbEntity
  8
部品1
 48
50.0
100
AcDbLine
 10
9748.600000000006
 20
6790.97068131056
 30
0.0
 11
9748.600000000006
 21
6990.97068131056
 31
0.0
  0
LINE
  5
2DEBA
330
747D
100
AcDbEntity
  8
部品1
 48
50.0
100
AcDbLine
 10
9548.600000000005
 20
6790.97068131056
 30
0.0
 11
9548.600000000005
 21
6990.97068131056
 31
0.0
  0
LINE
  5
2DEBB
330
747D
100
AcDbEntity
  8
部品1
 48
50.0
100
AcDbLine
 10
8598.600000000006
 20
6790.97068131056
 30
0.0
 11
8598.600000000006
 21
6990.97068131056
 31
0.0
  0
LINE
  5
2DEBC
330
747D
100
AcDbEntity
  8
部品1
 48
50.0
100
AcDbLine
 10
8798.600000000005
 20
6790.97068131056
 30
0.0
 11
8798.600000000005
 21
6990.97068131056
 31
0.0
  0
TEXT
  5
2DEC2
330
747D
100
AcDbEntity
  8
寸法
 48
50.0
100
AcDbText
 10
8558.603290504997
 20
6102.651972103299
 30
0.0
 40
120.0
  1
扉面
  7
STYLE1
100
AcDbText
  0
LINE
  5
2DEC6
330
747D
100
AcDbEntity
  8
部品1
 48
50.0
100
AcDbLine
 10
8798.600000000005
 20
6790.97068131056
 30
0.0
 11
8598.600000000006
 21
6790.97068131056
 31
0.0
  0
LINE
  5
2DECA
330
747D
100
AcDbEntity
  8
部品1
 48
50.0
100
AcDbLine
 10
9273.6
 20
6363.970681310568
 30
0.0
 11
9273.6
 21
6083.97068131059
 31
0.0
  0
LINE
  5
2DED4
330
747D
100
AcDbEntity
  8
部品1
 48
50.0
100
AcDbLine
 10
9748.600000000006
 20
6790.97068131056
 30
0.0
 11
9548.600000000005
 21
6790.97068131056
 31
0.0
  0
LINE
  5
2DEDC
330
747D
100
AcDbEntity
  8
部品1
 48
50.0
100
AcDbLine
 10
8798.600000000005
 20
6990.97068131056
 30
0.0
 11
8598.600000000006
 21
6990.97068131056
 31
0.0
  0
LINE
  5
2DEDD
330
747D
100
AcDbEntity
  8
センター
 48
2.0
100
AcDbLine
 10
8648.600000000007
 20
6890.97068131056
 30
0.0
 11
8748.600000000006
 21
6890.97068131056
 31
0.0
  0
LINE
  5
2DEDE
330
747D
100
AcDbEntity
  8
センター
 48
2.0
100
AcDbLine
 10
8698.600000000006
 20
6940.97068131056
 30
0.0
 11
8698.600000000006
 21
6840.97068131056
 31
0.0
  0
LINE
  5
2DEDF
330
747D
100
AcDbEntity
  8
細線
 48
50.0
100
AcDbLine
 10
8300.983875263563
 20
7423.970681310563
 30
0.0
 11
8323.600000000006
 21
7446.586806047
 31
0.0
  0
LINE
  5
2DEE0
330
747D
100
AcDbEntity
  8
部品1
 48
50.0
100
AcDbLine
 10
8323.599999999998
 20
7623.970681310568
 30
0.0
 11
8323.600000000006
 21
7423.970681310563
 31
0.0
  0
LINE
  5
2DEE2
330
747D
100
AcDbEntity
  8
部品1
 48
50.0
100
AcDbLine
 10
9073.599999999998
 20
7623.970681310568
 30
0.0
 11
9073.600000000007
 21
7423.970681310563
 31
0.0
  0
LINE
  5
2DEE5
330
747D
100
AcDbEntity
  8
部品1
 48
50.0
100
AcDbLine
 10
9748.600000000006
 20
6990.97068131056
 30
0.0
 11
9548.600000000005
 21
6990.97068131056
 31
0.0
  0
LINE
  5
2DEE6
330
747D
100
AcDbEntity
  8
センター
 48
2.0
100
AcDbLine
 10
9648.600000000007
 20
6940.97068131056
 30
0.0
 11
9648.600000000007
 21
6840.97068131056
 31
0.0
  0
LINE
  5
2DEE7
330
747D
100
AcDbEntity
  8
センター
 48
2.0
100
AcDbLine
 10
9598.600000000006
 20
6890.97068131056
 30
0.0
 11
9698.600000000006
 21
6890.97068131056
 31
0.0
  0
LINE
  5
2DEEB
330
747D
100
AcDbEntity
  8
部品1
 48
50.0
100
AcDbLine
 10
11448.6
 20
6790.97068131056
 30
0.0
 11
11448.6
 21
6990.97068131056
 31
0.0
  0
LINE
  5
2DEEC
330
747D
100
AcDbEntity
  8
部品1
 48
50.0
100
AcDbLine
 10
10498.6
 20
6790.97068131056
 30
0.0
 11
10498.6
 21
6990.97068131056
 31
0.0
  0
LINE
  5
2DEED
330
747D
100
AcDbEntity
  8
部品1
 48
50.0
100
AcDbLine
 10
10698.6
 20
6790.97068131056
 30
0.0
 11
10698.6
 21
6990.97068131056
 31
0.0
  0
LINE
  5
2DEEE
330
747D
100
AcDbEntity
  8
部品1
 48
50.0
100
AcDbLine
 10
10223.6
 20
6363.97068131057
 30
0.0
 11
10223.6
 21
6083.97068131059
 31
0.0
  0
LINE
  5
2DEEF
330
747D
100
AcDbEntity
  8
細線
 48
50.0
100
AcDbLine
 10
10023.6
 20
6217.573999993545
 30
0.0
 11
10169.99668131701
 21
6363.970681310573
 31
0.0
  0
LINE
  5
2DEF0
330
747D
100
AcDbEntity
  8
細線
 48
50.0
100
AcDbLine
 10
10023.6
 20
6172.6727193882
 30
0.0
 11
10214.89796192237
 21
6363.970681310572
 31
0.0
  0
LINE
  5
2DEF1
330
747D
100
AcDbEntity
  8
部品1
 48
50.0
100
AcDbLine
 10
10023.59999999999
 20
6363.970681310571
 30
0.0
 11
10023.6
 21
6083.970681310586
 31
0.0
  0
LINE
  5
2DEF2
330
747D
100
AcDbEntity
  8
細線
 48
50.0
100
AcDbLine
 10
10069.60180373842
 20
6083.970681310584
 30
0.0
 11
10223.6
 21
6237.968877572161
 31
0.0
  0
LINE
  5
2DEF3
330
747D
100
AcDbEntity
  8
細線
 48
50.0
100
AcDbLine
 10
10023.6
 20
6127.771438782854
 30
0.0
 11
10223.6
 21
6327.771438782857
 31
0.0
  0
LINE
  5
2DEF4
330
747D
100
AcDbEntity
  8
細線
 48
50.0
100
AcDbLine
 10
10024.70052313307
 20
6083.970681310582
 30
0.0
 11
10223.6
 21
6282.870158177509
 31
0.0
  0
LINE
  5
2DEF5
330
747D
100
AcDbEntity
  8
センター
 48
2.0
100
AcDbLine
 10
10480.6
 20
6331.970681310564
 30
0.0
 11
10480.6
 21
6231.970681310563
 31
0.0
  0
CIRCLE
  5
2DEF6
330
747D
100
AcDbEntity
  8
部品1
 48
50.0
100
AcDbCircle
 10
10480.6
 20
6281.970681310564
 30
0.0
 40
35.0
  0
LINE
  5
2DEF7
330
747D
100
AcDbEntity
  8
細線
 48
50.0
100
AcDbLine
 10
10114.50308434376
 20
6083.970681310584
 30
0.0
 11
10223.6
 21
6193.06759696682
 31
0.0
  0
LINE
  5
2DEF8
330
747D
100
AcDbEntity
  8
細線
 48
50.0
100
AcDbLine
 10
10159.40436494911
 20
6083.970681310586
 30
0.0
 11
10223.6
 21
6148.166316361476
 31
0.0
  0
LINE
  5
2DEF9
330
747D
100
AcDbEntity
  8
細線
 48
50.0
100
AcDbLine
 10
10204.30564555446
 20
6083.970681310588
 30
0.0
 11
10223.6
 21
6103.26503575613
 31
0.0
  0
LINE
  5
2DEFA
330
747D
100
AcDbEntity
  8
細線
 48
50.0
100
AcDbLine
 10
10023.6
 20
6307.376561204243
 30
0.0
 11
10080.19412010632
 21
6363.970681310571
 31
0.0
  0
LINE
  5
2DEFB
330
747D
100
AcDbEntity
  8
細線
 48
50.0
100
AcDbLine
 10
10023.6
 20
6262.475280598898
 30
0.0
 11
10125.09540071167
 21
6363.970681310572
 31
0.0
  0
LINE
  5
2DEFC
330
747D
100
AcDbEntity
  8
センター
 48
2.0
100
AcDbLine
 10
10430.6
 20
6281.970681310564
 30
0.0
 11
10530.6
 21
6281.970681310564
 31
0.0
  0
LINE
  5
2DEFD
330
747D
100
AcDbEntity
  8
部品1
 48
50.0
100
AcDbLine
 10
10698.6
 20
6790.97068131056
 30
0.0
 11
10498.6
 21
6790.97068131056
 31
0.0
  0
LINE
  5
2DF0A
330
747D
100
AcDbEntity
  8
部品1
 48
50.0
100
AcDbLine
 10
10698.6
 20
6990.97068131056
 30
0.0
 11
10498.6
 21
6990.97068131056
 31
0.0
  0
LINE
  5
2DF0B
330
747D
100
AcDbEntity
  8
センター
 48
2.0
100
AcDbLine
 10
10548.6
 20
6890.97068131056
 30
0.0
 11
10648.6
 21
6890.97068131056
 31
0.0
  0
LINE
  5
2DF0C
330
747D
100
AcDbEntity
  8
センター
 48
2.0
100
AcDbLine
 10
10598.6
 20
6940.97068131056
 30
0.0
 11
10598.6
 21
6840.97068131056
 31
0.0
  0
LINE
  5
2DF0D
330
747D
100
AcDbEntity
  8
細線
 48
50.0
100
AcDbLine
 10
10023.6
 20
7471.093209073725
 30
0.0
 11
10176.47747223685
 21
7623.970681310564
 31
0.0
  0
LINE
  5
2DF0E
330
747D
100
AcDbEntity
  8
細線
 48
50.0
100
AcDbLine
 10
10111.18131405287
 20
7423.970681310563
 30
0.0
 11
10223.6
 21
7536.389367257676
 31
0.0
  0
LINE
  5
2DF0F
330
747D
100
AcDbEntity
  8
細線
 48
50.0
100
AcDbLine
 10
10066.28003344754
 20
7423.970681310563
 30
0.0
 11
10223.6
 21
7581.290647863022
 31
0.0
  0
LINE
  5
2DF10
330
747D
100
AcDbEntity
  8
細線
 48
50.0
100
AcDbLine
 10
10023.60000000001
 20
7426.19192846838
 30
0.0
 11
10221.37875284219
 21
7623.970681310564
 31
0.0
  0
LINE
  5
2DF11
330
747D
100
AcDbEntity
  8
細線
 48
50.0
100
AcDbLine
 10
10023.6
 20
7605.797050889751
 30
0.0
 11
10041.77363042081
 21
7623.970681310564
 31
0.0
  0
LINE
  5
2DF12
330
747D
100
AcDbEntity
  8
細線
 48
50.0
100
AcDbLine
 10
10023.6
 20
7560.895770284408
 30
0.0
 11
10086.67491102616
 21
7623.970681310564
 31
0.0
  0
LINE
  5
2DF13
330
747D
100
AcDbEntity
  8
細線
 48
50.0
100
AcDbLine
 10
10023.6
 20
7515.994489679066
 30
0.0
 11
10131.5761916315
 21
7623.970681310564
 31
0.0
  0
LINE
  5
2DF14
330
747D
100
AcDbEntity
  8
部品1
 48
50.0
100
AcDbLine
 10
10023.6
 20
7623.970681310568
 30
0.0
 11
10023.60000000001
 21
7423.970681310563
 31
0.0
  0
LINE
  5
2DF15
330
747D
100
AcDbEntity
  8
部品1
 48
50.0
100
AcDbLine
 10
10223.6
 20
7623.970681310568
 30
0.0
 11
10223.6
 21
7423.970681310563
 31
0.0
  0
LINE
  5
2DF16
330
747D
100
AcDbEntity
  8
細線
 48
50.0
100
AcDbLine
 10
10156.08259465822
 20
7423.970681310558
 30
0.0
 11
10223.6
 21
7491.48808665234
 31
0.0
  0
LINE
  5
2DF17
330
747D
100
AcDbEntity
  8
細線
 48
50.0
100
AcDbLine
 10
10200.98387526356
 20
7423.970681310563
 30
0.0
 11
10223.6
 21
7446.586806047
 31
0.0
  0
LINE
  5
2DF18
330
747D
100
AcDbEntity
  8
センター
 48
2.0
100
AcDbLine
 10
10430.6
 20
7500.970681310561
 30
0.0
 11
10530.6
 21
7500.970681310561
 31
0.0
  0
LINE
  5
2DF19
330
747D
100
AcDbEntity
  8
センター
 48
2.0
100
AcDbLine
 10
10480.6
 20
7550.970681310561
 30
0.0
 11
10480.6
 21
7450.970681310561
 31
0.0
  0
CIRCLE
  5
2DF1A
330
747D
100
AcDbEntity
  8
部品1
 48
50.0
100
AcDbCircle
 10
10480.6
 20
7500.970681310561
 30
0.0
 40
35.0
  0
LINE
  5
2DF1D
330
747D
100
AcDbEntity
  8
センター
 48
2.0
100
AcDbLine
 10
11548.6
 20
6940.97068131056
 30
0.0
 11
11548.6
 21
6840.97068131056
 31
0.0
  0
LINE
  5
2DF1E
330
747D
100
AcDbEntity
  8
細線
 48
50.0
100
AcDbLine
 10
11150.98387526356
 20
7423.970681310563
 30
0.0
 11
11173.6
 21
7446.586806047
 31
0.0
  0
LINE
  5
2DF1F
330
747D
100
AcDbEntity
  8
細線
 48
50.0
100
AcDbLine
 10
11106.08259465822
 20
7423.970681310558
 30
0.0
 11
11173.6
 21
7491.48808665234
 31
0.0
  0
LINE
  5
2DF20
330
747D
100
AcDbEntity
  8
細線
 48
50.0
100
AcDbLine
 10
11061.18131405287
 20
7423.970681310563
 30
0.0
 11
11173.6
 21
7536.389367257676
 31
0.0
  0
LINE
  5
2DF21
330
747D
100
AcDbEntity
  8
細線
 48
50.0
100
AcDbLine
 10
10973.60000000001
 20
7426.19192846838
 30
0.0
 11
11171.37875284219
 21
7623.970681310564
 31
0.0
  0
LINE
  5
2DF22
330
747D
100
AcDbEntity
  8
細線
 48
50.0
100
AcDbLine
 10
11016.28003344754
 20
7423.970681310563
 30
0.0
 11
11173.6
 21
7581.290647863022
 31
0.0
  0
LINE
  5
2DF23
330
747D
100
AcDbEntity
  8
細線
 48
50.0
100
AcDbLine
 10
10973.6
 20
7605.797050889751
 30
0.0
 11
10991.77363042081
 21
7623.970681310564
 31
0.0
  0
LINE
  5
2DF24
330
747D
100
AcDbEntity
  8
部品1
 48
50.0
100
AcDbLine
 10
10973.6
 20
7623.970681310568
 30
0.0
 11
10973.60000000001
 21
7423.970681310563
 31
0.0
  0
LINE
  5
2DF25
330
747D
100
AcDbEntity
  8
細線
 48
50.0
100
AcDbLine
 10
10973.6
 20
7471.093209073725
 30
0.0
 11
11126.47747223685
 21
7623.970681310564
 31
0.0
  0
LINE
  5
2DF26
330
747D
100
AcDbEntity
  8
細線
 48
50.0
100
AcDbLine
 10
10973.6
 20
7515.994489679066
 30
0.0
 11
11081.5761916315
 21
7623.970681310564
 31
0.0
  0
LINE
  5
2DF27
330
747D
100
AcDbEntity
  8
細線
 48
50.0
100
AcDbLine
 10
10973.6
 20
7560.895770284408
 30
0.0
 11
11036.67491102616
 21
7623.970681310564
 31
0.0
  0
LINE
  5
2DF28
330
747D
100
AcDbEntity
  8
部品1
 48
50.0
100
AcDbLine
 10
11173.6
 20
7623.970681310568
 30
0.0
 11
11173.6
 21
7423.970681310563
 31
0.0
  0
LINE
  5
2DF29
330
747D
100
AcDbEntity
  8
寸法
 48
50.0
100
AcDbLine
 10
9780.555430376153
 20
8350.237127102541
 30
0.0
 11
10480.59998519822
 21
8350.237127102541
 31
0.0
  0
LINE
  5
2DF2B
330
747D
100
AcDbEntity
  8
寸法
 48
50.0
100
AcDbLine
 10
8698.599985198232
 20
8106.579485678762
 30
0.0
 11
8978.599985198231
 21
8106.579485678762
 31
0.0
  0
LINE
  5
2DF2D
330
747D
100
AcDbEntity
  8
寸法
 48
50.0
100
AcDbLine
 10
9368.59998519823
 20
8106.579485678878
 30
0.0
 11
9648.599985198231
 21
8106.579485678878
 31
0.0
  0
DIMENSION
  5
2DF2F
330
747D
100
AcDbEntity
  8
寸法
 48
50.0
100
AcDbDimension
  2
*D40
 10
13330.6
 20
8350.237139404471
 30
0.0
 11
13726.7066017178
 21
8350.237139404471
 31
0.0
 70
   160
 71
     5
 42
123.0
  3
INABA_S40G
100
AcDbAlignedDimension
 13
13453.6
 23
7623.970681310559
 33
0.0
 14
13330.6
 24
7550.970681310561
 34
0.0
100
AcDbRotatedDimension
1001
ACAD
1000
DSTYLE
1002
{
1070
   341
1005
0
1002
}
  0
DIMENSION
  5
2DF30
330
747D
100
AcDbEntity
  8
寸法
 48
50.0
100
AcDbDimension
  2
*D41
 10
12498.6
 20
8106.579497980808
 30
0.0
 11
12976.1
 21
8206.579497980809
 31
0.0
 70
    32
 71
     5
 42
955.0
  3
INABA_S40G
100
AcDbAlignedDimension
 13
13453.6
 23
7623.970681310559
 33
0.0
 14
12498.6
 24
6940.97068131056
 34
0.0
100
AcDbRotatedDimension
1001
ACAD
1000
DSTYLE
1002
{
1070
   341
1005
0
1002
}
  0
LINE
  5
2DF32
330
747D
100
AcDbEntity
  8
部品1
 48
50.0
100
AcDbLine
 10
12598.6
 20
6790.97068131056
 30
0.0
 11
12598.6
 21
6990.97068131056
 31
0.0
  0
LINE
  5
2DF33
330
747D
100
AcDbEntity
  8
部品1
 48
50.0
100
AcDbLine
 10
12398.6
 20
6790.97068131056
 30
0.0
 11
12398.6
 21
6990.97068131056
 31
0.0
  0
LINE
  5
2DF34
330
747D
100
AcDbEntity
  8
部品1
 48
50.0
100
AcDbLine
 10
11648.6
 20
6790.97068131056
 30
0.0
 11
11648.6
 21
6990.97068131056
 31
0.0
  0
LINE
  5
2DF4B
330
747D
100
AcDbEntity
  8
部品1
 48
50.0
100
AcDbLine
 10
12598.6
 20
6790.97068131056
 30
0.0
 11
12398.6
 21
6790.97068131056
 31
0.0
  0
LINE
  5
2DF4E
330
747D
100
AcDbEntity
  8
細線
 48
50.0
100
AcDbLine
 10
11923.6
 20
7515.994489679063
 30
0.0
 11
12031.5761916315
 21
7623.970681310563
 31
0.0
  0
LINE
  5
2DF4F
330
747D
100
AcDbEntity
  8
細線
 48
50.0
100
AcDbLine
 10
11923.6
 20
7560.895770284405
 30
0.0
 11
11986.67491102616
 21
7623.970681310563
 31
0.0
  0
LINE
  5
2DF50
330
747D
100
AcDbEntity
  8
細線
 48
50.0
100
AcDbLine
 10
11923.60000000001
 20
7426.191928468377
 30
0.0
 11
12121.3787528422
 21
7623.970681310563
 31
0.0
  0
LINE
  5
2DF51
330
747D
100
AcDbEntity
  8
細線
 48
50.0
100
AcDbLine
 10
11966.28003344754
 20
7423.97068131056
 30
0.0
 11
12123.6
 21
7581.290647863021
 31
0.0
  0
LINE
  5
2DF52
330
747D
100
AcDbEntity
  8
細線
 48
50.0
100
AcDbLine
 10
11923.6
 20
7471.093209073723
 30
0.0
 11
12076.47747223685
 21
7623.970681310563
 31
0.0
  0
LINE
  5
2DF53
330
747D
100
AcDbEntity
  8
部品1
 48
50.0
100
AcDbLine
 10
11923.6
 20
7623.970681310566
 30
0.0
 11
11923.6
 21
7423.97068131056
 31
0.0
  0
LINE
  5
2DF54
330
747D
100
AcDbEntity
  8
細線
 48
50.0
100
AcDbLine
 10
11923.6
 20
7605.797050889748
 30
0.0
 11
11941.77363042081
 21
7623.970681310563
 31
0.0
  0
LINE
  5
2DF55
330
747D
100
AcDbEntity
  8
細線
 48
50.0
100
AcDbLine
 10
12100.98387526356
 20
7423.97068131056
 30
0.0
 11
12123.6
 21
7446.586806046998
 31
0.0
  0
LINE
  5
2DF56
330
747D
100
AcDbEntity
  8
細線
 48
50.0
100
AcDbLine
 10
12056.08259465822
 20
7423.970681310557
 30
0.0
 11
12123.6
 21
7491.488086652338
 31
0.0
  0
LINE
  5
2DF57
330
747D
100
AcDbEntity
  8
部品1
 48
50.0
100
AcDbLine
 10
12123.6
 20
7623.970681310566
 30
0.0
 11
12123.6
 21
7423.97068131056
 31
0.0
  0
LINE
  5
2DF58
330
747D
100
AcDbEntity
  8
細線
 48
50.0
100
AcDbLine
 10
12011.18131405287
 20
7423.97068131056
 30
0.0
 11
12123.6
 21
7536.389367257673
 31
0.0
  0
LINE
  5
2DF59
330
747D
100
AcDbEntity
  8
部品1
 48
50.0
100
AcDbLine
 10
12598.6
 20
6990.97068131056
 30
0.0
 11
12398.6
 21
6990.97068131056
 31
0.0
  0
LINE
  5
2DF5A
330
747D
100
AcDbEntity
  8
センター
 48
2.0
100
AcDbLine
 10
12498.6
 20
6940.97068131056
 30
0.0
 11
12498.6
 21
6840.97068131056
 31
0.0
  0
LINE
  5
2DF5B
330
747D
100
AcDbEntity
  8
センター
 48
2.0
100
AcDbLine
 10
12448.6
 20
6890.97068131056
 30
0.0
 11
12548.6
 21
6890.97068131056
 31
0.0
  0
LINE
  5
2DF5C
330
747D
100
AcDbEntity
  8
細線
 48
50.0
100
AcDbLine
 10
12873.6
 20
7471.093209073723
 30
0.0
 11
13026.47747223685
 21
7623.970681310563
 31
0.0
  0
LINE
  5
2DF5D
330
747D
100
AcDbEntity
  8
細線
 48
50.0
100
AcDbLine
 10
12916.28003344754
 20
7423.97068131056
 30
0.0
 11
13073.6
 21
7581.290647863021
 31
0.0
  0
LINE
  5
2DF5E
330
747D
100
AcDbEntity
  8
細線
 48
50.0
100
AcDbLine
 10
12873.60000000001
 20
7426.191928468377
 30
0.0
 11
13071.37875284219
 21
7623.970681310563
 31
0.0
  0
LINE
  5
2DF5F
330
747D
100
AcDbEntity
  8
細線
 48
50.0
100
AcDbLine
 10
12961.18131405287
 20
7423.97068131056
 30
0.0
 11
13073.6
 21
7536.389367257673
 31
0.0
  0
LINE
  5
2DF60
330
747D
100
AcDbEntity
  8
細線
 48
50.0
100
AcDbLine
 10
13006.08259465822
 20
7423.970681310557
 30
0.0
 11
13073.6
 21
7491.488086652338
 31
0.0
  0
LINE
  5
2DF61
330
747D
100
AcDbEntity
  8
細線
 48
50.0
100
AcDbLine
 10
12873.6
 20
7560.895770284405
 30
0.0
 11
12936.67491102616
 21
7623.970681310563
 31
0.0
  0
LINE
  5
2DF62
330
747D
100
AcDbEntity
  8
細線
 48
50.0
100
AcDbLine
 10
12873.6
 20
7515.994489679063
 30
0.0
 11
12981.5761916315
 21
7623.970681310563
 31
0.0
  0
LINE
  5
2DF63
330
747D
100
AcDbEntity
  8
部品1
 48
50.0
100
AcDbLine
 10
12873.6
 20
7623.970681310566
 30
0.0
 11
12873.6
 21
7423.97068131056
 31
0.0
  0
LINE
  5
2DF64
330
747D
100
AcDbEntity
  8
細線
 48
50.0
100
AcDbLine
 10
12873.6
 20
7605.797050889748
 30
0.0
 11
12891.77363042081
 21
7623.970681310563
 31
0.0
  0
LINE
  5
2DF65
330
747D
100
AcDbEntity
  8
部品1
 48
50.0
100
AcDbLine
 10
13073.6
 20
7623.970681310566
 30
0.0
 11
13073.6
 21
7423.97068131056
 31
0.0
  0
LINE
  5
2DF66
330
747D
100
AcDbEntity
  8
細線
 48
50.0
100
AcDbLine
 10
13050.98387526356
 20
7423.97068131056
 30
0.0
 11
13073.6
 21
7446.586806046998
 31
0.0
  0
LINE
  5
2DF6C
102
{ACAD_REACTORS
330
2EE57
102
}
330
747D
100
AcDbEntity
  8
部品1
 48
50.0
100
AcDbLine
 10
13453.6
 20
6083.970681310578
 30
0.0
 11
13453.6
 21
7623.970681310559
 31
0.0
  0
LINE
  5
2DF6D
330
747D
100
AcDbEntity
  8
センター
 48
2.0
100
AcDbLine
 10
13330.6
 20
6331.970681310564
 30
0.0
 11
13330.6
 21
6231.970681310563
 31
0.0
  0
CIRCLE
  5
2DF6E
330
747D
100
AcDbEntity
  8
部品1
 48
50.0
100
AcDbCircle
 10
13330.6
 20
6281.970681310564
 30
0.0
 40
35.0
  0
LINE
  5
2DF6F
330
747D
100
AcDbEntity
  8
センター
 48
2.0
100
AcDbLine
 10
13280.6
 20
6281.970681310564
 30
0.0
 11
13380.6
 21
6281.970681310564
 31
0.0
  0
LINE
  5
2DF70
102
{ACAD_REACTORS
330
2EE57
102
}
330
747D
100
AcDbEntity
  8
部品1
 48
50.0
100
AcDbLine
 10
13453.59999999999
 20
6778.970681310582
 30
0.0
 11
13333.6
 21
6778.970681310582
 31
0.0
  0
LINE
  5
2DF72
102
{ACAD_REACTORS
330
2EE57
102
}
330
747D
100
AcDbEntity
  8
部品1
 48
50.0
100
AcDbLine
 10
13453.59999999999
 20
6978.970681310582
 30
0.0
 11
13333.6
 21
6978.970681310582
 31
0.0
  0
LINE
  5
2DF73
330
747D
100
AcDbEntity
  8
センター
 48
2.0
100
AcDbLine
 10
13280.6
 20
7500.970681310561
 30
0.0
 11
13380.6
 21
7500.970681310561
 31
0.0
  0
CIRCLE
  5
2DF74
330
747D
100
AcDbEntity
  8
部品1
 48
50.0
100
AcDbCircle
 10
13330.6
 20
7500.970681310561
 30
0.0
 40
35.0
  0
LINE
  5
2DF75
330
747D
100
AcDbEntity
  8
センター
 48
2.0
100
AcDbLine
 10
13330.6
 20
7550.970681310561
 30
0.0
 11
13330.6
 21
7450.970681310561
 31
0.0
  0
LEADER
  5
2E92D
330
747D
100
AcDbEntity
  8
寸法
 48
50.0
100
AcDbLeader
  3
INABA_S50G
 73
     0
 74
     0
 75
     1
 40
120.0
 41
720.0000000000001
 76
     3
 10
13455.05985718447
 20
6887.922417845913
 30
0.0
 10
13611.83343157076
 20
6626.90850427808
 30
0.0
 10
13736.83343157076
 20
6626.90850427808
 30
0.0
340
2E92E
1001
ACAD
1000
DSTYLE
1002
{
1070
   341
1005
0
1070
    40
1040
1.0
1070
   343
1005
0
1070
   344
1005
0
1002
}
  0
MTEXT
  5
2E92E
102
{ACAD_REACTORS
330
2E92D
102
}
330
747D
100
AcDbEntity
  8
部品1
 62
     7
 48
50.0
100
AcDbMText
 10
14481.83343157076
 20
6711.908504278081
 30
0.0
 40
120.0
 41
0.0
 71
     6
 72
     1
  1
\A1;床下換気口
  7
STYLE1
 73
     1
 44
1.0
1001
ACAD
1000
MTEXTBEGIN
1070
    73
1070
     1
1070
    44
1040
1.0
1070
    74
1070
     0
1000
MTEXTEND
  0
TEXT
  5
2E92F
330
747D
100
AcDbEntity
  8
部品1
 48
50.0
100
AcDbText
 10
13797.64807370302
 20
5948.121858984912
 30
0.0
 40
80.0
  1
(a=45,b=55,c=75)
  7
STYLE1
100
AcDbText
  0
TEXT
  5
2E930
330
747D
100
AcDbEntity
  8
部品1
 48
50.0
100
AcDbText
 10
13639.06906494872
 20
6054.967079853667
 30
0.0
 40
80.0
  1
※a,b,cは屋根の出幅です。
  7
STYLE1
100
AcDbText
  0
MTEXT
  5
2E931
102
{ACAD_REACTORS
330
2E932
102
}
330
747D
100
AcDbEntity
  8
部品1
 62
     7
 48
50.0
100
AcDbMText
 10
14436.85626093733
 20
6234.277766786742
 30
0.0
 40
120.0
 41
0.0
 71
     6
 72
     1
  1
\A1;屋根の外寸
  7
STYLE1
 73
     1
 44
1.0
1001
ACAD
1000
MTEXTBEGIN
1070
    73
1070
     1
1070
    44
1040
1.0
1070
    74
1070
     0
1000
MTEXTEND
  0
LEADER
  5
2E932
330
747D
100
AcDbEntity
  8
寸法
 48
50.0
100
AcDbLeader
  3
INABA_S50G
 73
     0
 74
     0
 75
     1
 40
120.0
 41
672.0
 76
     3
 10
13498.91624874529
 20
6408.167110250317
 30
0.0
 10
13614.85626093733
 20
6149.277766786742
 30
0.0
 10
13739.85626093733
 20
6149.277766786742
 30
0.0
340
2E931
1001
ACAD
1000
DSTYLE
1002
{
1070
   341
1005
0
1070
    40
1040
1.0
1070
   343
1005
0
1070
   344
1005
0
1002
}
  0
MTEXT
  5
2E933
102
{ACAD_REACTORS
330
2E934
102
}
330
747D
100
AcDbEntity
  8
部品1
 62
     7
 48
50.0
100
AcDbMText
 10
14648.99523070988
 20
7939.58342555307
 30
0.0
 40
120.0
 41
0.0
 71
     6
 72
     1
  1
アンカーボルト
  7
STYLE1
 73
     1
 44
1.0
1001
ACAD
1000
MTEXTBEGIN
1070
    73
1070
     1
1070
    44
1040
1.0
1070
    74
1070
     0
1000
MTEXTEND
  0
LEADER
  5
2E934
330
747D
100
AcDbEntity
  8
寸法
 48
50.0
100
AcDbLeader
  3
INABA_S50G
 73
     0
 74
     0
 75
     1
 40
120.0
 41
994.3492424049171
 76
     3
 10
13330.680085757
 20
7501.178525669273
 30
0.0
 10
13504.64598830496
 20
7854.58342555307
 30
0.0
 10
13629.64598830497
 20
7854.58342555307
 30
0.0
340
2E933
1001
ACAD
1000
DSTYLE
1002
{
1070
   341
1005
0
1070
    40
1040
1.0
1070
   343
1005
0
1070
   344
1005
0
1002
}
  0
MTEXT
  5
2E935
102
{ACAD_REACTORS
330
2E936
102
}
330
747D
100
AcDbEntity
  8
部品1
 62
     7
 48
50.0
100
AcDbMText
 10
13013.82869701569
 20
6714.561202244119
 30
0.0
 40
120.0
 41
0.0
 71
     6
 72
     1
  1
CB
  7
STYLE1
 73
     1
 44
1.0
1001
ACAD
1000
MTEXTBEGIN
1070
    73
1070
     1
1070
    44
1040
1.0
1070
    74
1070
     0
1000
MTEXTEND
  0
LEADER
  5
2E936
330
747D
100
AcDbEntity
  8
寸法
 48
50.0
100
AcDbLeader
  3
INABA_S50G
 73
     0
 74
     0
 75
     1
 40
120.0
 41
149.591883092037
 76
     3
 10
12586.95401106101
 20
6852.279515798944
 30
0.0
 10
12714.23681392366
 20
6629.561202244119
 30
0.0
 10
12839.23681392366
 20
6629.561202244119
 30
0.0
340
2E935
1001
ACAD
1000
DSTYLE
1002
{
1070
   341
1005
0
1070
    40
1040
1.0
1070
   343
1005
0
1070
   344
1005
0
1002
}
  0
DIMENSION
  5
2E937
330
747D
100
AcDbEntity
  8
寸法
 48
50.0
100
AcDbDimension
  2
*D42
 10
13498.6
 20
8582.191003369482
 30
0.0
 11
13769.77462120246
 21
8582.191003369482
 31
0.0
 70
   160
  1
a
 71
     5
 42
45.0
  3
INABA_S40G
100
AcDbAlignedDimension
 13
13453.6
 23
7623.970681310559
 33
0.0
 14
13498.6
 24
8350.237139404471
 34
0.0
100
AcDbRotatedDimension
1001
ACAD
1000
DSTYLE
1002
{
1070
   341
1005
0
1002
}
  0
DIMENSION
  5
2E938
330
747D
100
AcDbEntity
  8
寸法
 48
50.0
100
AcDbDimension
  2
*D43
 10
2993.599999999999
 20
8582.191003369482
 30
0.0
 11
2677.42537879754
 21
8582.191003369482
 31
0.0
 70
   160
  1
a
 71
     5
 42
45.0
  3
INABA_S40G
100
AcDbAlignedDimension
 13
2948.599999999999
 23
8350.237139404473
 33
0.0
 14
2993.599999999999
 24
7623.970681310559
 34
0.0
100
AcDbRotatedDimension
1001
ACAD
1000
DSTYLE
1002
{
1070
   341
1005
0
1002
}
  0
LINE
  5
2E939
330
747D
100
AcDbEntity
  8
想像線
 48
10.0
100
AcDbLine
 10
13498.6
 20
7698.970681310564
 30
0.0
 11
9275.027784895595
 21
7698.970681310573
 31
0.0
  0
LINE
  5
2E93A
330
747D
100
AcDbEntity
  8
想像線
 48
10.0
100
AcDbLine
 10
2948.599999999999
 20
6028.970681310602
 30
0.0
 11
2948.599999999999
 21
7698.970681310566
 31
0.0
  0
LINE
  5
2E93B
330
747D
100
AcDbEntity
  8
想像線
 48
10.0
100
AcDbLine
 10
13498.6
 20
6028.970681310608
 30
0.0
 11
13498.6
 21
7698.970681310564
 31
0.0
  0
LINE
  5
2E93C
330
747D
100
AcDbEntity
  8
想像線
 48
10.0
100
AcDbLine
 10
13498.6
 20
6028.970681310608
 30
0.0
 11
9056.211455377955
 21
6028.970681310598
 31
0.0
  0
DIMENSION
  5
2E93D
330
747D
100
AcDbEntity
  8
寸法
 48
50.0
100
AcDbDimension
  2
*D44
 10
2118.721909610671
 20
7623.970681310559
 30
0.0
 11
2018.72190961067
 21
7661.470681310564
 31
0.0
 70
    32
  1
c
 71
     5
 42
75.00000000000546
  3
INABA_S40G
100
AcDbAlignedDimension
 13
2370.66500633007
 23
7698.970681310566
 33
0.0
 14
2993.599999999999
 24
7623.970681310559
 34
0.0
 50
90.0
100
AcDbRotatedDimension
1001
ACAD
1000
DSTYLE
1002
{
1070
   341
1005
0
1002
}
  0
DIMENSION
  5
2E93E
330
747D
100
AcDbEntity
  8
寸法
 48
50.0
100
AcDbDimension
  2
*D45
 10
2118.721909610671
 20
6028.970681310617
 30
0.0
 11
2018.72190961067
 21
6056.470681310605
 31
0.0
 70
    32
  1
b
 71
     5
 42
54.99999999997453
  3
INABA_S40G
100
AcDbAlignedDimension
 13
2993.599999999999
 23
6083.970681310591
 33
0.0
 14
2370.66500633007
 24
6028.970681310617
 34
0.0
 50
90.0
100
AcDbRotatedDimension
1001
ACAD
1000
DSTYLE
1002
{
1070
   341
1005
0
1002
}
  0
DIMENSION
  5
2E93F
330
747D
100
AcDbEntity
  8
寸法
 48
50.0
100
AcDbDimension
  2
*D46
 10
12772.81202022566
 20
6083.970681310578
 30
0.0
 11
12772.81202022566
 21
5797.007098633407
 31
0.0
 70
   160
 71
     5
 42
279.9999999999927
  3
INABA_S40G
100
AcDbAlignedDimension
 13
12873.6
 23
6363.970681310571
 33
0.0
 14
12873.6
 24
6083.970681310578
 34
0.0
 50
90.0
100
AcDbRotatedDimension
1001
ACAD
1000
DSTYLE
1002
{
1070
   341
1005
0
1002
}
  0
DIMENSION
  5
2E940
330
747D
100
AcDbEntity
  8
寸法
 48
50.0
100
AcDbDimension
  2
*D47
 10
12772.81202022566
 20
7423.970681310563
 30
0.0
 11
12772.81202022566
 21
7910.934263987718
 31
0.0
 70
   160
 71
     5
 42
199.9999999999854
  3
INABA_S40G
100
AcDbAlignedDimension
 13
12873.6
 23
7623.970681310549
 33
0.0
 14
12873.60000000001
 24
7423.970681310563
 34
0.0
 50
90.0
100
AcDbRotatedDimension
1001
ACAD
1000
DSTYLE
1002
{
1070
   341
1005
0
1002
}
  0
DIMENSION
  5
2E941
330
747D
100
AcDbEntity
  8
寸法
 48
50.0
100
AcDbDimension
  2
*D48
 10
13333.6
 20
7173.569294408672
 30
0.0
 11
13723.65905511812
 21
7173.569294408672
 31
0.0
 70
   160
 71
     5
 42
120.0
  3
INABA_S40G
100
AcDbAlignedDimension
 13
13453.6
 23
7058.970681310596
 33
0.0
 14
13333.6
 24
7058.970681310596
 34
0.0
100
AcDbRotatedDimension
1001
ACAD
1000
DSTYLE
1002
{
1070
   341
1005
0
1002
}
  0
LINE
  5
2EBE6
330
747D
100
AcDbEntity
  8
想像線
 48
10.0
100
AcDbLine
 10
9056.211455377955
 20
6028.970681310598
 30
0.0
 11
2948.599999999999
 21
6028.970681310583
 31
0.0
  0
LINE
  5
2EBE7
330
747D
100
AcDbEntity
  8
想像線
 48
10.0
100
AcDbLine
 10
9275.027784895595
 20
7698.970681310573
 30
0.0
 11
2948.599999999999
 21
7698.970681310581
 31
0.0
  0
TEXT
  5
2EC27
330
747D
100
AcDbEntity
  8
文字
 62
     7
 48
50.0
100
AcDbText
 10
7512.450692732925
 20
4519.642642030584
 30
0.0
 40
200.0
  1
〈参 考 図〉
  7
STYLE2
100
AcDbText
  0
TEXT
  5
2ED00
330
747D
100
AcDbEntity
  8
文字
 62
     7
 48
50.0
100
AcDbText
 10
14267.69561199343
 20
838.2527270729188
 30
0.0
 40
100.0
  1
～一般型・多雪地型・豪雪地型～
  7
STYLE2
100
AcDbText
  0
LINE
  5
2ED21
330
747D
100
AcDbEntity
  8
部品1
 48
50.0
100
AcDbLine
 10
9100.105749023702
 20
6363.970681310569
 30
0.0
 11
3113.6
 21
6363.970681310557
 31
0.0
  0
LINE
  5
2ED22
330
747D
100
AcDbEntity
  8
細線
 48
50.0
100
AcDbLine
 10
4323.599999999998
 20
6262.475280598898
 30
0.0
 11
4425.09540071166
 21
6363.970681310557
 31
0.0
  0
LINE
  5
2ED23
330
747D
100
AcDbEntity
  8
細線
 48
50.0
100
AcDbLine
 10
4323.599999999998
 20
6307.376561204243
 30
0.0
 11
4380.194120106309
 21
6363.970681310558
 31
0.0
  0
LINE
  5
2ED24
330
747D
100
AcDbEntity
  8
細線
 48
50.0
100
AcDbLine
 10
4504.305645554461
 20
6083.970681310588
 30
0.0
 11
4523.600000000004
 21
6103.26503575613
 31
0.0
  0
LINE
  5
2ED25
330
747D
100
AcDbEntity
  8
細線
 48
50.0
100
AcDbLine
 10
4459.404364949114
 20
6083.970681310586
 30
0.0
 11
4523.600000000004
 21
6148.166316361476
 31
0.0
  0
LINE
  5
2ED26
330
747D
100
AcDbEntity
  8
細線
 48
50.0
100
AcDbLine
 10
4414.503084343767
 20
6083.970681310584
 30
0.0
 11
4523.600000000002
 21
6193.06759696682
 31
0.0
  0
LINE
  5
2ED27
330
747D
100
AcDbEntity
  8
細線
 48
50.0
100
AcDbLine
 10
4323.6
 20
6217.573999993545
 30
0.0
 11
4469.996681316995
 21
6363.970681310559
 31
0.0
  0
LINE
  5
2ED28
330
747D
100
AcDbEntity
  8
細線
 48
50.0
100
AcDbLine
 10
4323.599999999998
 20
6172.6727193882
 30
0.0
 11
4514.897961922357
 21
6363.970681310558
 31
0.0
  0
LINE
  5
2ED29
330
747D
100
AcDbEntity
  8
細線
 48
50.0
100
AcDbLine
 10
4323.599999999998
 20
6127.771438782854
 30
0.0
 11
4523.6
 21
6327.771438782857
 31
0.0
  0
LINE
  5
2ED2A
330
747D
100
AcDbEntity
  8
細線
 48
50.0
100
AcDbLine
 10
4324.700523133075
 20
6083.970681310582
 30
0.0
 11
4523.599999999998
 21
6282.870158177509
 31
0.0
  0
LINE
  5
2ED2B
330
747D
100
AcDbEntity
  8
細線
 48
50.0
100
AcDbLine
 10
4369.60180373842
 20
6083.970681310584
 30
0.0
 11
4523.599999999998
 21
6237.968877572161
 31
0.0
  0
LINE
  5
2ED2C
330
747D
100
AcDbEntity
  8
部品1
 48
50.0
100
AcDbLine
 10
4323.599999999998
 20
6363.970681310558
 30
0.0
 11
4323.599999999998
 21
6083.970681310586
 31
0.0
  0
LINE
  5
2ED2D
330
747D
100
AcDbEntity
  8
部品1
 48
50.0
100
AcDbLine
 10
4523.599999999998
 20
6363.970681310557
 30
0.0
 11
4523.599999999998
 21
6083.97068131059
 31
0.0
  0
LINE
  5
2ED2E
330
747D
100
AcDbEntity
  8
細線
 48
50.0
100
AcDbLine
 10
5273.599999999999
 20
6262.475280598898
 30
0.0
 11
5375.095400711661
 21
6363.970681310557
 31
0.0
  0
LINE
  5
2ED2F
330
747D
100
AcDbEntity
  8
細線
 48
50.0
100
AcDbLine
 10
5273.599999999999
 20
6307.376561204243
 30
0.0
 11
5330.194120106309
 21
6363.970681310558
 31
0.0
  0
LINE
  5
2ED30
330
747D
100
AcDbEntity
  8
細線
 48
50.0
100
AcDbLine
 10
5454.305645554462
 20
6083.970681310588
 30
0.0
 11
5473.600000000004
 21
6103.26503575613
 31
0.0
  0
LINE
  5
2ED31
330
747D
100
AcDbEntity
  8
細線
 48
50.0
100
AcDbLine
 10
5409.404364949114
 20
6083.970681310586
 30
0.0
 11
5473.600000000004
 21
6148.166316361476
 31
0.0
  0
LINE
  5
2ED32
330
747D
100
AcDbEntity
  8
細線
 48
50.0
100
AcDbLine
 10
5364.503084343767
 20
6083.970681310584
 30
0.0
 11
5473.600000000002
 21
6193.06759696682
 31
0.0
  0
LINE
  5
2ED33
330
747D
100
AcDbEntity
  8
細線
 48
50.0
100
AcDbLine
 10
5273.6
 20
6217.573999993545
 30
0.0
 11
5419.996681316995
 21
6363.970681310559
 31
0.0
  0
LINE
  5
2ED34
330
747D
100
AcDbEntity
  8
細線
 48
50.0
100
AcDbLine
 10
5273.599999999999
 20
6172.6727193882
 30
0.0
 11
5464.897961922357
 21
6363.970681310558
 31
0.0
  0
LINE
  5
2ED35
330
747D
100
AcDbEntity
  8
細線
 48
50.0
100
AcDbLine
 10
5273.599999999999
 20
6127.771438782854
 30
0.0
 11
5473.600000000001
 21
6327.771438782857
 31
0.0
  0
LINE
  5
2ED36
330
747D
100
AcDbEntity
  8
細線
 48
50.0
100
AcDbLine
 10
5274.700523133075
 20
6083.970681310582
 30
0.0
 11
5473.599999999999
 21
6282.870158177509
 31
0.0
  0
LINE
  5
2ED37
330
747D
100
AcDbEntity
  8
細線
 48
50.0
100
AcDbLine
 10
5319.60180373842
 20
6083.970681310584
 30
0.0
 11
5473.599999999999
 21
6237.968877572161
 31
0.0
  0
LINE
  5
2ED38
330
747D
100
AcDbEntity
  8
部品1
 48
50.0
100
AcDbLine
 10
5273.599999999999
 20
6363.970681310558
 30
0.0
 11
5273.599999999999
 21
6083.970681310586
 31
0.0
  0
LINE
  5
2ED39
330
747D
100
AcDbEntity
  8
部品1
 48
50.0
100
AcDbLine
 10
5473.599999999999
 20
6363.970681310557
 30
0.0
 11
5473.599999999999
 21
6083.97068131059
 31
0.0
  0
LINE
  5
2ED3A
330
747D
100
AcDbEntity
  8
細線
 48
50.0
100
AcDbLine
 10
6223.599999999999
 20
6262.475280598898
 30
0.0
 11
6325.095400711661
 21
6363.970681310557
 31
0.0
  0
LINE
  5
2ED3B
330
747D
100
AcDbEntity
  8
細線
 48
50.0
100
AcDbLine
 10
6223.599999999999
 20
6307.376561204243
 30
0.0
 11
6280.194120106309
 21
6363.970681310558
 31
0.0
  0
LINE
  5
2ED3C
330
747D
100
AcDbEntity
  8
細線
 48
50.0
100
AcDbLine
 10
6404.305645554462
 20
6083.970681310588
 30
0.0
 11
6423.600000000004
 21
6103.26503575613
 31
0.0
  0
LINE
  5
2ED3D
330
747D
100
AcDbEntity
  8
細線
 48
50.0
100
AcDbLine
 10
6359.404364949114
 20
6083.970681310586
 30
0.0
 11
6423.600000000004
 21
6148.166316361476
 31
0.0
  0
LINE
  5
2ED3E
330
747D
100
AcDbEntity
  8
細線
 48
50.0
100
AcDbLine
 10
6314.503084343767
 20
6083.970681310584
 30
0.0
 11
6423.600000000002
 21
6193.06759696682
 31
0.0
  0
LINE
  5
2ED3F
330
747D
100
AcDbEntity
  8
細線
 48
50.0
100
AcDbLine
 10
6223.600000000001
 20
6217.573999993545
 30
0.0
 11
6369.996681316996
 21
6363.970681310559
 31
0.0
  0
LINE
  5
2ED40
330
747D
100
AcDbEntity
  8
細線
 48
50.0
100
AcDbLine
 10
6223.599999999999
 20
6172.6727193882
 30
0.0
 11
6414.897961922356
 21
6363.970681310558
 31
0.0
  0
LINE
  5
2ED41
330
747D
100
AcDbEntity
  8
細線
 48
50.0
100
AcDbLine
 10
6223.599999999999
 20
6127.771438782854
 30
0.0
 11
6423.6
 21
6327.771438782857
 31
0.0
  0
LINE
  5
2ED42
330
747D
100
AcDbEntity
  8
細線
 48
50.0
100
AcDbLine
 10
6224.700523133075
 20
6083.970681310582
 30
0.0
 11
6423.599999999999
 21
6282.870158177509
 31
0.0
  0
LINE
  5
2ED43
330
747D
100
AcDbEntity
  8
細線
 48
50.0
100
AcDbLine
 10
6269.60180373842
 20
6083.970681310584
 30
0.0
 11
6423.599999999999
 21
6237.968877572161
 31
0.0
  0
LINE
  5
2ED44
330
747D
100
AcDbEntity
  8
部品1
 48
50.0
100
AcDbLine
 10
6223.599999999999
 20
6363.970681310558
 30
0.0
 11
6223.599999999999
 21
6083.970681310586
 31
0.0
  0
LINE
  5
2ED45
330
747D
100
AcDbEntity
  8
部品1
 48
50.0
100
AcDbLine
 10
6423.599999999999
 20
6363.970681310557
 30
0.0
 11
6423.599999999999
 21
6083.97068131059
 31
0.0
  0
LINE
  5
2ED46
330
747D
100
AcDbEntity
  8
細線
 48
50.0
100
AcDbLine
 10
7173.599999999999
 20
6262.475280598898
 30
0.0
 11
7275.09540071166
 21
6363.970681310557
 31
0.0
  0
LINE
  5
2ED47
330
747D
100
AcDbEntity
  8
細線
 48
50.0
100
AcDbLine
 10
7173.599999999999
 20
6307.376561204243
 30
0.0
 11
7230.194120106308
 21
6363.970681310558
 31
0.0
  0
LINE
  5
2ED48
330
747D
100
AcDbEntity
  8
細線
 48
50.0
100
AcDbLine
 10
7354.305645554461
 20
6083.970681310588
 30
0.0
 11
7373.600000000005
 21
6103.26503575613
 31
0.0
  0
LINE
  5
2ED49
330
747D
100
AcDbEntity
  8
細線
 48
50.0
100
AcDbLine
 10
7309.404364949114
 20
6083.970681310586
 30
0.0
 11
7373.600000000005
 21
6148.166316361476
 31
0.0
  0
LINE
  5
2ED4A
330
747D
100
AcDbEntity
  8
細線
 48
50.0
100
AcDbLine
 10
7264.503084343767
 20
6083.970681310584
 30
0.0
 11
7373.600000000002
 21
6193.06759696682
 31
0.0
  0
LINE
  5
2ED4B
330
747D
100
AcDbEntity
  8
細線
 48
50.0
100
AcDbLine
 10
7173.6
 20
6217.573999993545
 30
0.0
 11
7319.996681316997
 21
6363.970681310559
 31
0.0
  0
LINE
  5
2ED4C
330
747D
100
AcDbEntity
  8
細線
 48
50.0
100
AcDbLine
 10
7173.599999999999
 20
6172.6727193882
 30
0.0
 11
7364.897961922356
 21
6363.970681310558
 31
0.0
  0
LINE
  5
2ED4D
330
747D
100
AcDbEntity
  8
細線
 48
50.0
100
AcDbLine
 10
7173.599999999999
 20
6127.771438782854
 30
0.0
 11
7373.6
 21
6327.771438782857
 31
0.0
  0
LINE
  5
2ED4E
330
747D
100
AcDbEntity
  8
細線
 48
50.0
100
AcDbLine
 10
7174.700523133075
 20
6083.970681310582
 30
0.0
 11
7373.599999999999
 21
6282.870158177509
 31
0.0
  0
LINE
  5
2ED4F
330
747D
100
AcDbEntity
  8
細線
 48
50.0
100
AcDbLine
 10
7219.60180373842
 20
6083.970681310584
 30
0.0
 11
7373.599999999999
 21
6237.968877572161
 31
0.0
  0
LINE
  5
2ED50
330
747D
100
AcDbEntity
  8
部品1
 48
50.0
100
AcDbLine
 10
7173.599999999999
 20
6363.970681310558
 30
0.0
 11
7173.599999999999
 21
6083.970681310586
 31
0.0
  0
LINE
  5
2ED51
330
747D
100
AcDbEntity
  8
部品1
 48
50.0
100
AcDbLine
 10
7373.599999999999
 20
6363.970681310557
 30
0.0
 11
7373.599999999999
 21
6083.97068131059
 31
0.0
  0
LINE
  5
2ED82
330
747D
100
AcDbEntity
  8
部品1
 48
50.0
100
AcDbLine
 10
8323.599999999998
 20
6363.970681310557
 30
0.0
 11
8323.599999999998
 21
6083.97068131059
 31
0.0
  0
LINE
  5
2ED83
330
747D
100
AcDbEntity
  8
部品1
 48
50.0
100
AcDbLine
 10
8123.599999999999
 20
6363.970681310558
 30
0.0
 11
8123.599999999999
 21
6083.970681310586
 31
0.0
  0
LINE
  5
2ED84
330
747D
100
AcDbEntity
  8
細線
 48
50.0
100
AcDbLine
 10
8169.601803738421
 20
6083.970681310584
 30
0.0
 11
8323.599999999998
 21
6237.968877572161
 31
0.0
  0
LINE
  5
2ED85
330
747D
100
AcDbEntity
  8
細線
 48
50.0
100
AcDbLine
 10
8124.700523133075
 20
6083.970681310582
 30
0.0
 11
8323.599999999998
 21
6282.870158177509
 31
0.0
  0
LINE
  5
2ED86
330
747D
100
AcDbEntity
  8
細線
 48
50.0
100
AcDbLine
 10
8123.599999999999
 20
6127.771438782854
 30
0.0
 11
8323.6
 21
6327.771438782857
 31
0.0
  0
LINE
  5
2ED87
330
747D
100
AcDbEntity
  8
細線
 48
50.0
100
AcDbLine
 10
8123.599999999999
 20
6172.6727193882
 30
0.0
 11
8314.897961922358
 21
6363.970681310558
 31
0.0
  0
LINE
  5
2ED88
330
747D
100
AcDbEntity
  8
細線
 48
50.0
100
AcDbLine
 10
8123.600000000001
 20
6217.573999993545
 30
0.0
 11
8269.996681316996
 21
6363.970681310559
 31
0.0
  0
LINE
  5
2ED89
330
747D
100
AcDbEntity
  8
細線
 48
50.0
100
AcDbLine
 10
8214.503084343766
 20
6083.970681310584
 30
0.0
 11
8323.600000000002
 21
6193.06759696682
 31
0.0
  0
LINE
  5
2ED8A
330
747D
100
AcDbEntity
  8
細線
 48
50.0
100
AcDbLine
 10
8259.404364949114
 20
6083.970681310586
 30
0.0
 11
8323.600000000004
 21
6148.166316361476
 31
0.0
  0
LINE
  5
2ED8B
330
747D
100
AcDbEntity
  8
細線
 48
50.0
100
AcDbLine
 10
8304.305645554462
 20
6083.970681310588
 30
0.0
 11
8323.600000000004
 21
6103.26503575613
 31
0.0
  0
LINE
  5
2ED8C
330
747D
100
AcDbEntity
  8
細線
 48
50.0
100
AcDbLine
 10
8123.599999999999
 20
6307.376561204243
 30
0.0
 11
8180.194120106309
 21
6363.970681310558
 31
0.0
  0
LINE
  5
2ED8D
330
747D
100
AcDbEntity
  8
細線
 48
50.0
100
AcDbLine
 10
8123.599999999999
 20
6262.475280598898
 30
0.0
 11
8225.09540071166
 21
6363.970681310557
 31
0.0
  0
LINE
  5
2ED8E
330
747D
100
AcDbEntity
  8
部品1
 48
50.0
100
AcDbLine
 10
13333.6
 20
6363.970681310576
 30
0.0
 11
9073.6
 21
6363.970681310569
 31
0.0
  0
LINE
  5
2ED8F
330
747D
100
AcDbEntity
  8
細線
 48
50.0
100
AcDbLine
 10
10973.6
 20
6262.475280598898
 30
0.0
 11
11075.09540071167
 21
6363.970681310572
 31
0.0
  0
LINE
  5
2ED90
330
747D
100
AcDbEntity
  8
細線
 48
50.0
100
AcDbLine
 10
10973.6
 20
6307.376561204243
 30
0.0
 11
11030.19412010632
 21
6363.970681310571
 31
0.0
  0
LINE
  5
2ED91
330
747D
100
AcDbEntity
  8
細線
 48
50.0
100
AcDbLine
 10
11154.30564555446
 20
6083.970681310588
 30
0.0
 11
11173.6
 21
6103.26503575613
 31
0.0
  0
LINE
  5
2ED92
330
747D
100
AcDbEntity
  8
細線
 48
50.0
100
AcDbLine
 10
11109.40436494911
 20
6083.970681310586
 30
0.0
 11
11173.6
 21
6148.166316361476
 31
0.0
  0
LINE
  5
2ED93
330
747D
100
AcDbEntity
  8
細線
 48
50.0
100
AcDbLine
 10
11064.50308434377
 20
6083.970681310584
 30
0.0
 11
11173.6
 21
6193.06759696682
 31
0.0
  0
LINE
  5
2ED94
330
747D
100
AcDbEntity
  8
細線
 48
50.0
100
AcDbLine
 10
10974.70052313307
 20
6083.970681310582
 30
0.0
 11
11173.6
 21
6282.870158177509
 31
0.0
  0
LINE
  5
2ED95
330
747D
100
AcDbEntity
  8
細線
 48
50.0
100
AcDbLine
 10
10973.6
 20
6127.771438782854
 30
0.0
 11
11173.6
 21
6327.771438782857
 31
0.0
  0
LINE
  5
2ED96
330
747D
100
AcDbEntity
  8
細線
 48
50.0
100
AcDbLine
 10
11019.60180373842
 20
6083.970681310584
 30
0.0
 11
11173.6
 21
6237.968877572161
 31
0.0
  0
LINE
  5
2ED97
330
747D
100
AcDbEntity
  8
部品1
 48
50.0
100
AcDbLine
 10
10973.59999999999
 20
6363.970681310571
 30
0.0
 11
10973.6
 21
6083.970681310586
 31
0.0
  0
LINE
  5
2ED98
330
747D
100
AcDbEntity
  8
細線
 48
50.0
100
AcDbLine
 10
10973.6
 20
6172.6727193882
 30
0.0
 11
11164.89796192237
 21
6363.970681310572
 31
0.0
  0
LINE
  5
2ED99
330
747D
100
AcDbEntity
  8
細線
 48
50.0
100
AcDbLine
 10
10973.6
 20
6217.573999993545
 30
0.0
 11
11119.99668131701
 21
6363.970681310573
 31
0.0
  0
LINE
  5
2ED9A
330
747D
100
AcDbEntity
  8
部品1
 48
50.0
100
AcDbLine
 10
11173.6
 20
6363.97068131057
 30
0.0
 11
11173.6
 21
6083.97068131059
 31
0.0
  0
LINE
  5
2ED9B
330
747D
100
AcDbEntity
  8
細線
 48
50.0
100
AcDbLine
 10
11923.6
 20
6262.475280598898
 30
0.0
 11
12025.09540071167
 21
6363.970681310572
 31
0.0
  0
LINE
  5
2ED9C
330
747D
100
AcDbEntity
  8
細線
 48
50.0
100
AcDbLine
 10
11923.6
 20
6307.376561204243
 30
0.0
 11
11980.19412010632
 21
6363.970681310571
 31
0.0
  0
LINE
  5
2ED9D
330
747D
100
AcDbEntity
  8
細線
 48
50.0
100
AcDbLine
 10
12104.30564555446
 20
6083.970681310588
 30
0.0
 11
12123.6
 21
6103.26503575613
 31
0.0
  0
LINE
  5
2ED9E
330
747D
100
AcDbEntity
  8
細線
 48
50.0
100
AcDbLine
 10
12059.40436494911
 20
6083.970681310586
 30
0.0
 11
12123.6
 21
6148.166316361476
 31
0.0
  0
LINE
  5
2ED9F
330
747D
100
AcDbEntity
  8
細線
 48
50.0
100
AcDbLine
 10
12014.50308434377
 20
6083.970681310584
 30
0.0
 11
12123.6
 21
6193.06759696682
 31
0.0
  0
LINE
  5
2EDA0
330
747D
100
AcDbEntity
  8
細線
 48
50.0
100
AcDbLine
 10
11924.70052313307
 20
6083.970681310582
 30
0.0
 11
12123.6
 21
6282.870158177509
 31
0.0
  0
LINE
  5
2EDA1
330
747D
100
AcDbEntity
  8
細線
 48
50.0
100
AcDbLine
 10
11923.6
 20
6127.771438782854
 30
0.0
 11
12123.6
 21
6327.771438782857
 31
0.0
  0
LINE
  5
2EDA2
330
747D
100
AcDbEntity
  8
細線
 48
50.0
100
AcDbLine
 10
11969.60180373842
 20
6083.970681310584
 30
0.0
 11
12123.6
 21
6237.968877572161
 31
0.0
  0
LINE
  5
2EDA3
330
747D
100
AcDbEntity
  8
部品1
 48
50.0
100
AcDbLine
 10
11923.59999999999
 20
6363.970681310571
 30
0.0
 11
11923.6
 21
6083.970681310586
 31
0.0
  0
LINE
  5
2EDA4
330
747D
100
AcDbEntity
  8
細線
 48
50.0
100
AcDbLine
 10
11923.6
 20
6172.6727193882
 30
0.0
 11
12114.89796192237
 21
6363.970681310572
 31
0.0
  0
LINE
  5
2EDA5
330
747D
100
AcDbEntity
  8
細線
 48
50.0
100
AcDbLine
 10
11923.6
 20
6217.573999993545
 30
0.0
 11
12069.99668131701
 21
6363.970681310573
 31
0.0
  0
LINE
  5
2EDA6
330
747D
100
AcDbEntity
  8
部品1
 48
50.0
100
AcDbLine
 10
12123.6
 20
6363.97068131057
 30
0.0
 11
12123.6
 21
6083.97068131059
 31
0.0
  0
LINE
  5
2EDA7
330
747D
100
AcDbEntity
  8
細線
 48
50.0
100
AcDbLine
 10
12873.6
 20
6262.475280598898
 30
0.0
 11
12975.09540071167
 21
6363.970681310572
 31
0.0
  0
LINE
  5
2EDA8
330
747D
100
AcDbEntity
  8
細線
 48
50.0
100
AcDbLine
 10
12873.6
 20
6307.376561204243
 30
0.0
 11
12930.19412010632
 21
6363.970681310571
 31
0.0
  0
LINE
  5
2EDA9
330
747D
100
AcDbEntity
  8
細線
 48
50.0
100
AcDbLine
 10
13054.30564555446
 20
6083.970681310588
 30
0.0
 11
13073.6
 21
6103.26503575613
 31
0.0
  0
LINE
  5
2EDAA
330
747D
100
AcDbEntity
  8
細線
 48
50.0
100
AcDbLine
 10
13009.40436494911
 20
6083.970681310586
 30
0.0
 11
13073.6
 21
6148.166316361476
 31
0.0
  0
LINE
  5
2EDAB
330
747D
100
AcDbEntity
  8
細線
 48
50.0
100
AcDbLine
 10
12964.50308434377
 20
6083.970681310584
 30
0.0
 11
13073.6
 21
6193.06759696682
 31
0.0
  0
LINE
  5
2EDAC
330
747D
100
AcDbEntity
  8
細線
 48
50.0
100
AcDbLine
 10
12874.70052313307
 20
6083.970681310582
 30
0.0
 11
13073.6
 21
6282.870158177509
 31
0.0
  0
LINE
  5
2EDAD
330
747D
100
AcDbEntity
  8
細線
 48
50.0
100
AcDbLine
 10
12873.6
 20
6127.771438782854
 30
0.0
 11
13073.6
 21
6327.771438782857
 31
0.0
  0
LINE
  5
2EDAE
330
747D
100
AcDbEntity
  8
細線
 48
50.0
100
AcDbLine
 10
12919.60180373842
 20
6083.970681310584
 30
0.0
 11
13073.6
 21
6237.968877572161
 31
0.0
  0
LINE
  5
2EDAF
330
747D
100
AcDbEntity
  8
部品1
 48
50.0
100
AcDbLine
 10
12873.6
 20
6363.970681310571
 30
0.0
 11
12873.6
 21
6083.970681310586
 31
0.0
  0
LINE
  5
2EDB0
330
747D
100
AcDbEntity
  8
細線
 48
50.0
100
AcDbLine
 10
12873.6
 20
6172.6727193882
 30
0.0
 11
13064.89796192237
 21
6363.970681310572
 31
0.0
  0
LINE
  5
2EDB1
330
747D
100
AcDbEntity
  8
細線
 48
50.0
100
AcDbLine
 10
12873.6
 20
6217.573999993545
 30
0.0
 11
13019.99668131701
 21
6363.970681310573
 31
0.0
  0
LINE
  5
2EDB2
330
747D
100
AcDbEntity
  8
部品1
 48
50.0
100
AcDbLine
 10
13073.6
 20
6363.97068131057
 30
0.0
 11
13073.6
 21
6083.97068131059
 31
0.0
  0
SPLINE
  5
2EDD6
330
747D
100
AcDbEntity
  8
部品1
 48
50.0
100
AcDbSpline
210
0.0
220
0.0
230
1.0
 70
     8
 71
     3
 72
    10
 73
     6
 74
     4
 42
0.0000000001
 43
0.0000000001
 44
0.0000000001
 40
0.0
 40
0.0
 40
0.0
 40
0.0
 40
203.1413039717394
 40
420.5363205048489
 40
686.5018404766874
 40
686.5018404766874
 40
686.5018404766874
 40
686.5018404766874
 10
9318.499495537784
 20
7068.899635722392
 30
0.0
 10
9219.666670940666
 20
7045.81624004771
 30
0.0
 10
9015.06626920772
 20
6998.029767813886
 30
0.0
 10
9454.025657675527
 20
6833.3142466965
 30
0.0
 10
9198.988424304642
 20
6792.450739003138
 30
0.0
 10
9058.656094164216
 20
6769.965899528812
 30
0.0
 11
9318.499495537784
 21
7068.899635722392
 31
0.0
 11
9132.486998322232
 21
6987.25565089208
 31
0.0
 11
9308.86077689848
 21
6860.161656367684
 31
0.0
 11
9058.656094164216
 21
6769.965899528812
 31
0.0
  0
LINE
  5
2EDD7
330
747D
100
AcDbEntity
  8
部品1
 48
50.0
100
AcDbLine
 10
9445.072310310061
 20
7915.998698754011
 30
0.0
 11
8946.924319198842
 21
5877.163423923223
 31
0.0
  0
LINE
  5
2EDE9
330
747D
100
AcDbEntity
  8
細線
 48
50.0
100
AcDbLine
 10
9073.599999999998
 20
6262.475280598895
 30
0.0
 11
9175.095400711676
 21
6363.97068131057
 31
0.0
  0
LINE
  5
2EDEA
330
747D
100
AcDbEntity
  8
細線
 48
50.0
100
AcDbLine
 10
9073.599999999998
 20
6307.37656120424
 30
0.0
 11
9130.194120106326
 21
6363.970681310569
 31
0.0
  0
LINE
  5
2EDEB
330
747D
100
AcDbEntity
  8
細線
 48
50.0
100
AcDbLine
 10
9254.305645554461
 20
6083.970681310586
 30
0.0
 11
9273.600000000005
 21
6103.265035756129
 31
0.0
  0
LINE
  5
2EDEC
330
747D
100
AcDbEntity
  8
細線
 48
50.0
100
AcDbLine
 10
9209.404364949113
 20
6083.970681310584
 30
0.0
 11
9273.600000000005
 21
6148.166316361474
 31
0.0
  0
LINE
  5
2EDED
330
747D
100
AcDbEntity
  8
細線
 48
50.0
100
AcDbLine
 10
9164.503084343767
 20
6083.970681310582
 30
0.0
 11
9273.600000000001
 21
6193.067596966817
 31
0.0
  0
LINE
  5
2EDEE
330
747D
100
AcDbEntity
  8
細線
 48
50.0
100
AcDbLine
 10
9074.700523133074
 20
6083.970681310581
 30
0.0
 11
9273.6
 21
6282.870158177508
 31
0.0
  0
LINE
  5
2EDEF
330
747D
100
AcDbEntity
  8
細線
 48
50.0
100
AcDbLine
 10
9073.599999999998
 20
6127.771438782853
 30
0.0
 11
9273.6
 21
6327.771438782854
 31
0.0
  0
LINE
  5
2EDF0
330
747D
100
AcDbEntity
  8
細線
 48
50.0
100
AcDbLine
 10
9119.60180373842
 20
6083.970681310582
 30
0.0
 11
9273.6
 21
6237.968877572159
 31
0.0
  0
LINE
  5
2EDF1
330
747D
100
AcDbEntity
  8
部品1
 48
50.0
100
AcDbLine
 10
9073.599999999997
 20
6363.970681310569
 30
0.0
 11
9073.599999999998
 21
6083.970681310584
 31
0.0
  0
LINE
  5
2EDF2
330
747D
100
AcDbEntity
  8
細線
 48
50.0
100
AcDbLine
 10
9073.599999999998
 20
6172.672719388198
 30
0.0
 11
9264.897961922372
 21
6363.97068131057
 31
0.0
  0
LINE
  5
2EDF3
330
747D
100
AcDbEntity
  8
細線
 48
50.0
100
AcDbLine
 10
9073.6
 20
6217.573999993543
 30
0.0
 11
9219.996681317011
 21
6363.970681310571
 31
0.0
  0
LINE
  5
2EE05
330
747D
100
AcDbEntity
  8
細線
 48
50.0
100
AcDbLine
 10
9250.983875263562
 20
7423.970681310518
 30
0.0
 11
9273.600000000007
 21
7446.586806046956
 31
0.0
  0
LINE
  5
2EE06
330
747D
100
AcDbEntity
  8
細線
 48
50.0
100
AcDbLine
 10
9206.082594658226
 20
7423.970681310514
 30
0.0
 11
9273.600000000001
 21
7491.488086652296
 31
0.0
  0
LINE
  5
2EE07
330
747D
100
AcDbEntity
  8
部品1
 48
50.0
100
AcDbLine
 10
9273.6
 20
7623.970681310524
 30
0.0
 11
9273.600000000007
 21
7423.970681310518
 31
0.0
  0
LINE
  5
2EE09
330
747D
100
AcDbEntity
  8
細線
 48
50.0
100
AcDbLine
 10
9073.600000000004
 20
7515.994489679022
 30
0.0
 11
9181.576191631505
 21
7623.97068131052
 31
0.0
  0
LINE
  5
2EE0A
330
747D
100
AcDbEntity
  8
細線
 48
50.0
100
AcDbLine
 10
9073.600000000002
 20
7560.895770284364
 30
0.0
 11
9136.67491102616
 21
7623.97068131052
 31
0.0
  0
LINE
  5
2EE0B
330
747D
100
AcDbEntity
  8
細線
 48
50.0
100
AcDbLine
 10
9073.6
 20
7605.797050889707
 30
0.0
 11
9091.773630420812
 21
7623.97068131052
 31
0.0
  0
LINE
  5
2EE0C
330
747D
100
AcDbEntity
  8
細線
 48
50.0
100
AcDbLine
 10
9073.600000000009
 20
7426.191928468336
 30
0.0
 11
9271.378752842196
 21
7623.97068131052
 31
0.0
  0
LINE
  5
2EE0D
330
747D
100
AcDbEntity
  8
細線
 48
50.0
100
AcDbLine
 10
9116.280033447539
 20
7423.970681310518
 30
0.0
 11
9273.6
 21
7581.29064786298
 31
0.0
  0
LINE
  5
2EE0E
330
747D
100
AcDbEntity
  8
細線
 48
50.0
100
AcDbLine
 10
9161.181314052868
 20
7423.970681310518
 30
0.0
 11
9273.6
 21
7536.389367257632
 31
0.0
  0
LINE
  5
2EE0F
330
747D
100
AcDbEntity
  8
細線
 48
50.0
100
AcDbLine
 10
9073.600000000006
 20
7471.09320907368
 30
0.0
 11
9226.477472236849
 21
7623.97068131052
 31
0.0
  0
LINE
  5
2EE1B
102
{ACAD_REACTORS
330
2EE57
102
}
330
747D
100
AcDbEntity
  8
部品1
 48
50.0
100
AcDbLine
 10
13333.6
 20
6363.970681310579
 30
0.0
 11
13333.6
 21
7423.970681310563
 31
0.0
  0
LINE
  5
2EE1C
102
{ACAD_REACTORS
330
2EE4A
102
}
330
747D
100
AcDbEntity
  8
部品1
 48
50.0
100
AcDbLine
 10
3113.6
 20
6363.97068131056
 30
0.0
 11
3113.599999999995
 21
7423.97068131056
 31
0.0
  0
HATCH
  5
2EE4A
330
747D
100
AcDbEntity
  8
細線
 48
50.0
100
AcDbHatch
 10
0.0
 20
0.0
 30
0.0
210
0.0
220
0.0
230
1.0
  2
LINE
 70
     0
 71
     1
 91
        1
 92
        7
 72
     0
 73
     1
 93
        4
 10
3113.599999999997
 20
6978.970681310582
 10
2993.599999999999
 20
6978.970681310582
 10
2993.599999999999
 20
6778.970681310582
 10
3113.599999999998
 20
6778.970681310584
 97
        4
330
2DDF6
330
2DDEB
330
2DDF4
330
2EE1C
 75
     0
 76
     1
 52
45.0
 41
10.0
 77
     0
 78
     1
 53
45.0
 43
0.0
 44
0.0
 45
-22.45064030267288
 46
22.45064030267288
 79
     0
 47
9.99341881204825
 98
        1
 10
3054.069893967448
 20
6868.637097587551
  0
HATCH
  5
2EE57
330
747D
100
AcDbEntity
  8
細線
 48
50.0
100
AcDbHatch
 10
0.0
 20
0.0
 30
0.0
210
0.0
220
0.0
230
1.0
  2
LINE
 70
     0
 71
     1
 91
        1
 92
        7
 72
     0
 73
     1
 93
        4
 10
13453.6
 20
6978.970681310582
 10
13333.6
 20
6978.970681310582
 10
13333.6
 20
6778.970681310582
 10
13453.6
 20
6778.970681310582
 97
        4
330
2DF72
330
2EE1B
330
2DF70
330
2DF6C
 75
     0
 76
     1
 52
45.0
 41
10.0
 77
     0
 78
     1
 53
45.0
 43
0.0
 44
0.0
 45
-22.45064030267288
 46
22.45064030267288
 79
     0
 47
1.913223607042061
 98
        1
 10
13417.62613683515
 20
6843.967234579896
  0
LINE
  5
2EFDB
330
747D
100
AcDbEntity
  8
部品1
100
AcDbLine
 10
10431.59407772684
 20
3339.634123346165
 30
0.0
 11
4360.608892340581
 21
3339.634123346165
 31
0.0
  0
LINE
  5
2EFDC
330
747D
100
AcDbEntity
  8
部品1
100
AcDbLine
 10
10431.59407772683
 20
3099.634123346163
 30
0.0
 11
4360.608892340585
 21
3099.634123346163
 31
0.0
  0
LINE
  5
2EFDD
330
747D
100
AcDbEntity
  8
部品1
100
AcDbLine
 10
4360.608892340587
 20
375.3271537615173
 30
0.0
 11
10431.59407772683
 21
375.3271537615173
 31
0.0
  0
LEADER
  5
2EFDE
330
747D
100
AcDbEntity
  8
寸法
 48
50.0
100
AcDbLeader
  3
INABA_S50G
 73
     0
 74
     0
 75
     1
 40
102.2727272727273
 41
680.0000000000001
 76
     3
 10
7368.71664432704
 20
2339.170737254722
 30
0.0
 10
7403.070615440396
 20
2749.623548361263
 30
0.0
 10
7528.070615440396
 20
2749.623548361263
 30
0.0
340
2EFDF
1001
ACAD
1000
DSTYLE
1002
{
1070
   341
1005
0
1070
    40
1040
1.0
1070
   343
1005
0
1070
   344
1005
0
1002
}
  0
MTEXT
  5
2EFDF
102
{ACAD_REACTORS
330
2EFDE
102
}
330
747D
100
AcDbEntity
  8
部品1
 62
     7
 48
50.0
100
AcDbMText
 10
7553.070615440396
 20
2825.759911997627
 30
0.0
 40
80.0
 41
0.8
 71
     4
 72
     1
  1
\A1;ナット(市販品)
  7
STYLE2
 73
     1
 44
1.0
1001
ACAD
1000
MTEXTBEGIN
1070
    73
1070
     1
1070
    44
1040
1.0
1070
    74
1070
     0
1000
MTEXTEND
  0
LEADER
  5
2EFE0
330
747D
100
AcDbEntity
  8
寸法
 48
50.0
100
AcDbLeader
  3
INABA_S50G
 73
     0
 74
     0
 75
     1
 40
102.2727272727273
 41
906.8181818181818
 76
     3
 10
7392.716644327039
 20
2209.418744589859
 30
0.0
 10
7434.588234695879
 20
2564.654465596476
 30
0.0
 10
7559.588234695879
 20
2564.654465596476
 30
0.0
340
2EFE1
1001
ACAD
1000
DSTYLE
1002
{
1070
   341
1005
0
1070
    40
1040
1.0
1070
   343
1005
0
1070
   344
1005
0
1002
}
  0
MTEXT
  5
2EFE1
102
{ACAD_REACTORS
330
2EFE0
102
}
330
747D
100
AcDbEntity
  8
部品1
 62
     7
 48
50.0
100
AcDbMText
 10
7584.588234695878
 20
2640.79082923284
 30
0.0
 40
80.0
 41
0.8
 71
     4
 72
     1
  1
\A1;ワッシャー(市販品)
  7
STYLE2
 73
     1
 44
1.0
1001
ACAD
1000
MTEXTBEGIN
1070
    73
1070
     1
1070
    44
1040
1.0
1070
    74
1070
     0
1000
MTEXTEND
  0
LWPOLYLINE
  5
2EFE2
330
747D
100
AcDbEntity
  8
部品1
 48
50.0
100
AcDbPolyline
 90
        2
 70
     0
 43
8.0
 10
7545.316644327039
 20
1700.29545614558
 10
7839.019107726425
 20
1700.29545614558
  0
TEXT
  5
2EFE3
330
747D
100
AcDbEntity
  8
部品1
 48
50.0
100
AcDbText
 10
7549.670228611467
 20
2296.174136907779
 30
0.0
 40
80.0
  1
基礎ボルト(市販品)
  7
STYLE2
100
AcDbText
  0
DIMENSION
  5
2EFE4
330
747D
100
AcDbEntity
  8
寸法
 48
50.0
100
AcDbDimension
  2
*D49
 10
8047.185244095883
 20
1616.295456145578
 30
0.0
 11
7947.185244095883
 21
1778.295456145579
 31
0.0
 70
    32
  1
180
 71
     5
 42
324.0000000000009
  3
INABA_S40G
100
AcDbAlignedDimension
 13
7545.316644327039
 23
1940.295456145579
 33
0.0
 14
7545.316644327039
 24
1616.295456145578
 34
0.0
 50
90.0
100
AcDbRotatedDimension
1001
ACAD
1000
DSTYLE
1002
{
1070
   341
1005
0
1002
}
  0
DIMENSION
  5
2EFE5
330
747D
100
AcDbEntity
  8
寸法
 48
50.0
100
AcDbDimension
  2
*D50
 10
8323.23991021491
 20
1940.295456145579
 30
0.0
 11
8323.23991021491
 21
1474.286552724096
 31
0.0
 70
   160
  1
20～25
 71
     5
 42
52.76000000000113
  3
INABA_S40G
100
AcDbAlignedDimension
 13
7358.116644327042
 23
1993.05545614558
 33
0.0
 14
7545.316644327039
 24
1940.295456145579
 34
0.0
 50
90.0
100
AcDbRotatedDimension
1001
ACAD
1000
DSTYLE
1002
{
1070
   341
1005
0
1002
}
  0
MTEXT
  5
2EFE6
102
{ACAD_REACTORS
330
2EFE7
102
}
330
747D
100
AcDbEntity
  8
部品1
 62
     7
 48
50.0
100
AcDbMText
 10
7554.261106746358
 20
2204.678782298809
 30
0.0
 40
80.0
 41
0.8
 71
     4
 72
     1
  1
M10X160
  7
STYLE2
 73
     1
 44
1.0
1001
ACAD
1000
MTEXTBEGIN
1070
    73
1070
     1
1070
    44
1040
1.0
1070
    74
1070
     0
1000
MTEXTEND
  0
LEADER
  5
2EFE7
330
747D
100
AcDbEntity
  8
寸法
 48
50.0
100
AcDbLeader
  3
INABA_S50G
 73
     0
 74
     0
 75
     1
 40
80.0
 41
435.0
 76
     3
 10
7361.71664432704
 20
1989.45545614558
 30
0.0
 10
7404.261106746358
 20
2139.678782298809
 30
0.0
 10
7529.261106746358
 20
2139.678782298809
 30
0.0
340
2EFE6
1001
ACAD
1000
DSTYLE
1002
{
1070
   341
1005
0
1070
    40
1040
1.0
1070
   343
1005
0
1070
   344
1005
0
1002
}
  0
LINE
  5
2EFE8
330
747D
100
AcDbEntity
  8
部品1
100
AcDbLine
 10
4360.608892340583
 20
3339.634123346165
 30
0.0
 11
4360.608892340585
 21
375.3271537615173
 31
0.0
  0
LEADER
  5
2EFE9
330
747D
100
AcDbEntity
  8
寸法
 48
50.0
100
AcDbLeader
  3
INABA_S50G
 73
     0
 75
     1
 40
113.1818181818182
 41
608.6363636363635
 76
     3
 10
7321.453394465091
 20
1889.811129503858
 30
0.0
 10
7187.649565773742
 20
2741.190211860336
 30
0.0
 10
7062.649565773742
 20
2741.190211860336
 30
0.0
340
2EFEA
1001
ACAD
1000
DSTYLE
1002
{
1070
   341
1005
0
1070
    40
1040
1.0
1070
   343
1005
0
1070
   344
1005
0
1002
}
  0
MTEXT
  5
2EFEA
102
{ACAD_REACTORS
330
2EFE9
102
}
330
747D
100
AcDbEntity
  8
寸法
 62
     7
 48
50.0
100
AcDbMText
 10
7037.649565773742
 20
2822.781120951245
 30
0.0
 40
80.0
 41
0.8
 71
     6
 72
     1
  1
\A1;φ70スリーブ
  7
STYLE2
 73
     1
 44
1.0
1001
ACAD
1000
MTEXTBEGIN
1070
    73
1070
     1
1070
    44
1040
1.0
1070
    74
1070
     0
1000
MTEXTEND
  0
LWPOLYLINE
  5
2EFEB
330
747D
100
AcDbEntity
  8
部品1
 48
50.0
100
AcDbPolyline
 90
        2
 70
     0
 43
8.0
 10
5017.137429316889
 20
1700.29545614558
 10
5431.277331149846
 20
1700.29545614558
  0
TEXT
  5
2EFEC
330
747D
100
AcDbEntity
  8
部品1
 48
50.0
100
AcDbText
 10
5017.137429316889
 20
1711.534448428834
 30
0.0
 40
80.0
  1
▽G.L
  7
STYLE2
100
AcDbText
  0
DIMENSION
  5
2EFED
330
747D
100
AcDbEntity
  8
寸法
 48
50.0
100
AcDbDimension
  2
*D51
 10
5160.857017417386
 20
1156.295456145579
 30
0.0
 11
5160.857017417386
 21
1276.29545614558
 31
0.0
 70
   160
  1
150
 71
     5
 42
240.0
  3
INABA_S40G
100
AcDbAlignedDimension
 13
5303.277331149846
 23
1396.295456145579
 33
0.0
 14
5223.27733114985
 24
1156.295456145579
 34
0.0
 50
90.0
100
AcDbRotatedDimension
1001
ACAD
1000
DSTYLE
1002
{
1070
   341
1005
0
1002
}
  0
LEADER
  5
2EFEE
330
747D
100
AcDbEntity
  8
寸法
 48
50.0
100
AcDbLeader
  3
INABA_S50G
 71
     0
 73
     0
 75
     1
 40
100.0
 41
225.0
 76
     3
 10
5399.180283501989
 20
1276.295456145579
 30
0.0
 10
5277.342304954652
 20
1012.772762527142
 30
0.0
 10
5152.342304954652
 20
1012.772762527142
 30
0.0
1001
ACAD
1000
DSTYLE
1002
{
1070
    40
1040
1.0
1070
   272
1070
     1
1070
   279
1070
     1
1070
   341
1005
0
1002
}
  0
LEADER
  5
2EFEF
330
747D
100
AcDbEntity
  8
寸法
 48
50.0
100
AcDbLeader
  3
INABA_S50G
 71
     0
 73
     0
 75
     1
 40
100.0
 41
222.7272727272727
 76
     3
 10
5527.277331149846
 20
1276.295456145579
 30
0.0
 10
5305.465032512087
 20
832.4566099876992
 30
0.0
 10
5180.465032512087
 20
832.4566099876992
 30
0.0
1001
ACAD
1000
DSTYLE
1002
{
1070
    40
1040
1.0
1070
   272
1070
     1
1070
   279
1070
     1
1070
   341
1005
0
1002
}
  0
MTEXT
  5
2EFF0
102
{ACAD_REACTORS
330
2EFF1
102
}
330
747D
100
AcDbEntity
  8
寸法
 62
     7
 48
50.0
100
AcDbMText
 10
5342.027276927041
 20
1541.596058963036
 30
0.0
 40
80.0
 41
0.8
 71
     6
 72
     1
  1
\A1;D10@300
  7
STYLE2
 73
     1
 44
1.0
1001
ACAD
1000
MTEXTBEGIN
1070
    73
1070
     1
1070
    44
1040
1.0
1070
    74
1070
     0
1000
MTEXTEND
  0
LEADER
  5
2EFF1
330
747D
100
AcDbEntity
  8
寸法
 48
50.0
100
AcDbLeader
  3
INABA_S50G
 71
     0
 73
     0
 75
     1
 40
100.0
 41
540.3409090909091
 76
     3
 10
5535.277331149845
 20
1698.422670842702
 30
0.0
 10
5477.295094621148
 20
1476.952342301897
 30
0.0
 10
5352.295094621148
 20
1476.952342301897
 30
0.0
213
-9.732182305893367
223
-4.643716661138569
233
0.0
1001
ACAD
1000
DSTYLE
1002
{
1070
    40
1040
1.0
1070
   272
1070
     1
1070
   279
1070
     1
1070
   341
1005
0
1002
}
  0
LEADER
  5
2EFF2
330
747D
100
AcDbEntity
  8
寸法
 48
50.0
100
AcDbLeader
  3
INABA_S50G
 71
     0
 73
     0
 75
     1
 40
130.1136363636363
 41
651.1363636363636
 76
     3
 10
5511.277331149845
 20
1940.295456145579
 30
0.0
 10
5398.852750985829
 20
2080.766221602167
 30
0.0
 10
5273.852750985829
 20
2080.766221602167
 30
0.0
1001
ACAD
1000
DSTYLE
1002
{
1070
    40
1040
1.0
1070
   272
1070
     1
1070
   279
1070
     1
1070
   341
1005
0
1002
}
  0
MTEXT
  5
2EFF3
102
{ACAD_REACTORS
330
2EFF2
102
}
330
747D
100
AcDbEntity
  8
寸法
 62
     7
 48
50.0
100
AcDbMText
 10
5211.178851666574
 20
2152.811676147621
 30
0.0
 40
80.0
 41
0.8
 71
     6
 72
     1
  1
\A1;金コテ押エ
  7
STYLE2
 73
     1
 44
1.0
1001
ACAD
1000
MTEXTBEGIN
1070
    73
1070
     1
1070
    44
1040
1.0
1070
    74
1070
     0
1000
MTEXTEND
  0
DIMENSION
  5
2EFF4
330
747D
100
AcDbEntity
  8
寸法
 48
50.0
100
AcDbDimension
  2
*D52
 10
4696.240092588105
 20
1156.295456145579
 30
0.0
 11
4696.240092588105
 21
1527.83560580158
 31
0.0
 70
   160
  1
540
 71
     5
 42
784.0
  3
INABA_S40G
100
AcDbAlignedDimension
 13
5431.277331149846
 23
1940.295456145579
 33
0.0
 14
5223.27733114985
 24
1156.295456145579
 34
0.0
 50
90.0
100
AcDbRotatedDimension
1001
ACAD
1000
DSTYLE
1002
{
1070
   341
1005
0
1002
}
  0
MTEXT
  5
2EFF5
102
{ACAD_REACTORS
330
2EFEF
102
}
330
747D
100
AcDbEntity
  8
寸法
 62
     7
 48
50.0
100
AcDbMText
 10
5160.465032512086
 20
892.4566099876992
 30
0.0
 40
80.0
 41
0.8
 71
     6
 72
     1
  1
D13
  7
STYLE2
 73
     1
 44
1.0
1001
ACAD
1000
MTEXTBEGIN
1070
    73
1070
     1
1070
    44
1040
1.0
1070
    74
1070
     0
1000
MTEXTEND
  0
MTEXT
  5
2EFF6
102
{ACAD_REACTORS
330
2EFEE
102
}
330
747D
100
AcDbEntity
  8
寸法
 62
     7
 48
50.0
100
AcDbMText
 10
5132.342304954652
 20
1072.772762527143
 30
0.0
 40
80.0
 41
0.8
 71
     6
 72
     1
  1
D10
  7
STYLE2
 73
     1
 44
1.0
1001
ACAD
1000
MTEXTBEGIN
1070
    73
1070
     1
1070
    44
1040
1.0
1070
    74
1070
     0
1000
MTEXTEND
  0
DIMENSION
  5
2EFF7
330
747D
100
AcDbEntity
  8
寸法
 48
50.0
100
AcDbDimension
  2
*D53
 10
5751.277331149846
 20
617.8658181404188
 30
0.0
 11
5507.180572471622
 21
617.8658181404188
 31
0.0
 70
   160
  1
300
 71
     5
 42
448.0
  3
INABA_S40G
100
AcDbAlignedDimension
 13
5303.277331149846
 23
1028.295456145579
 33
0.0
 14
5751.277331149846
 24
1028.295456145579
 34
0.0
100
AcDbRotatedDimension
1001
ACAD
1000
DSTYLE
1002
{
1070
   341
1005
0
1002
}
  0
MTEXT
  5
2EFF8
102
{ACAD_REACTORS
330
2EFF9
102
}
330
747D
100
AcDbEntity
  8
寸法
 62
     7
 48
50.0
100
AcDbMText
 10
7064.2925719821
 20
2462.096849043731
 30
0.0
 40
80.0
 41
0.8
 71
     6
 72
     1
  1
\A1;アンカープレート L
  7
STYLE2
 73
     1
 44
1.0
1001
ACAD
1000
MTEXTBEGIN
1070
    73
1070
     1
1070
    44
1040
1.0
1070
    74
1070
     0
1000
MTEXTEND
  0
LEADER
  5
2EFF9
330
747D
100
AcDbEntity
  8
寸法
 48
50.0
100
AcDbLeader
  3
INABA_S50G
 73
     0
 75
     1
 40
106.3636363636363
 41
893.1818181818181
 76
     3
 10
7262.716644327039
 20
2009.85545614558
 30
0.0
 10
7214.292571982101
 20
2383.915030861913
 30
0.0
 10
7089.292571982101
 20
2383.915030861913
 30
0.0
340
2EFF8
1001
ACAD
1000
DSTYLE
1002
{
1070
   341
1005
0
1070
    40
1040
1.0
1070
   343
1005
0
1070
   344
1005
0
1002
}
  0
LINE
  5
2EFFA
330
747D
100
AcDbEntity
  8
細線
 48
50.0
100
AcDbLine
 10
5551.277331149847
 20
1778.668348813409
 30
0.0
 11
5623.277331149846
 21
1850.668348813409
 31
0.0
  0
ARC
  5
2EFFB
330
747D
100
AcDbEntity
  8
部品1
 48
50.0
100
AcDbCircle
 10
5527.277331149846
 20
1800.549885539824
 30
0.0
 40
24.0
100
AcDbArc
 50
0.0
 51
180.0
  0
CIRCLE
  5
2EFFC
330
747D
100
AcDbEntity
  8
部品1
 48
50.0
100
AcDbCircle
 10
5527.277331149846
 20
1800.549885539824
 30
0.0
 40
8.0
  0
LINE
  5
2EFFD
330
747D
100
AcDbEntity
  8
部品1
 48
50.0
100
AcDbLine
 10
5431.277331149846
 20
1396.295456145579
 30
0.0
 11
5431.277331149846
 21
1940.295456145579
 31
0.0
  0
LINE
  5
2EFFE
330
747D
100
AcDbEntity
  8
部品1
 48
50.0
100
AcDbLine
 10
5623.277331149846
 20
1940.295456145579
 30
0.0
 11
5623.277331149846
 21
1396.295456145579
 31
0.0
  0
MTEXT
  5
2EFFF
102
{ACAD_REACTORS
330
2F004
102
}
330
747D
100
AcDbEntity
  8
寸法
 62
     7
 48
50.0
100
AcDbMText
 10
5706.163268177241
 20
1962.85135543839
 30
0.0
 40
80.0
 41
0.8
 71
     4
 72
     1
  1
D13
  7
STYLE2
 73
     1
 44
1.0
1001
ACAD
1000
MTEXTBEGIN
1070
    73
1070
     1
1070
    44
1040
1.0
1070
    74
1070
     0
1000
MTEXTEND
  0
LEADER
  5
2F000
330
747D
100
AcDbEntity
  8
寸法
 48
50.0
100
AcDbLeader
  3
INABA_S50G
 71
     0
 73
     0
 74
     0
 75
     1
 40
100.0
 41
225.0
 76
     3
 10
5655.180283501989
 20
1276.295456145579
 30
0.0
 10
5709.604990956531
 20
1180.898387202606
 30
0.0
 10
5834.604990956531
 20
1180.898387202606
 30
0.0
1001
ACAD
1000
DSTYLE
1002
{
1070
    40
1040
1.0
1070
   272
1070
     1
1070
   279
1070
     1
1070
   341
1005
0
1002
}
  0
LEADER
  5
2F001
330
747D
100
AcDbEntity
  8
寸法
 48
50.0
100
AcDbLeader
  3
INABA_S50G
 71
     0
 73
     0
 74
     0
 75
     1
 40
100.0
 41
540.3409090909091
 76
     3
 10
5601.222500163021
 20
1259.554925732053
 30
0.0
 10
5720.015787011097
 20
917.9241077371562
 30
0.0
 10
5845.015787011097
 20
917.9241077371562
 30
0.0
213
0.0
223
-1.022262676269383
233
0.0
1001
ACAD
1000
DSTYLE
1002
{
1070
    40
1040
1.0
1070
   272
1070
     1
1070
   279
1070
     1
1070
   341
1005
0
1002
}
  0
MTEXT
  5
2F002
102
{ACAD_REACTORS
330
2F000
102
}
330
747D
100
AcDbEntity
  8
寸法
 62
     7
 48
50.0
100
AcDbMText
 10
5854.604990956531
 20
1240.898387202606
 30
0.0
 40
80.0
 41
0.8
 71
     4
 72
     1
  1
D10
  7
STYLE2
 73
     1
 44
1.0
1001
ACAD
1000
MTEXTBEGIN
1070
    73
1070
     1
1070
    44
1040
1.0
1070
    74
1070
     0
1000
MTEXTEND
  0
LWPOLYLINE
  5
2F003
330
747D
100
AcDbEntity
  8
部品1
 48
50.0
100
AcDbPolyline
 90
        2
 70
     0
 43
8.0
 10
5623.277331149846
 20
1700.29545614558
 10
6037.417232982804
 20
1700.29545614558
  0
LEADER
  5
2F004
330
747D
100
AcDbEntity
  8
寸法
 48
50.0
100
AcDbLeader
  3
INABA_S50G
 71
     0
 73
     0
 74
     0
 75
     1
 40
100.0
 41
222.7272727272727
 76
     3
 10
5527.277331149846
 20
1800.549885539824
 30
0.0
 10
5581.163268177241
 20
1899.785458392998
 30
0.0
 10
5706.163268177241
 20
1899.785458392998
 30
0.0
1001
ACAD
1000
DSTYLE
1002
{
1070
    40
1040
1.0
1070
   272
1070
     1
1070
   279
1070
     1
1070
   341
1005
0
1002
}
  0
LINE
  5
2F005
330
747D
100
AcDbEntity
  8
細線
 48
50.0
100
AcDbLine
 10
5303.277331149839
 20
1315.14220190775
 30
0.0
 11
5384.430585387675
 21
1396.295456145579
 31
0.0
  0
LINE
  5
2F006
330
747D
100
AcDbEntity
  8
細線
 48
50.0
100
AcDbLine
 10
5511.14317862725
 20
1334.422670842701
 30
0.0
 11
5535.277331149853
 21
1358.5568233653
 31
0.0
  0
LINE
  5
2F007
330
747D
100
AcDbEntity
  8
細線
 48
50.0
100
AcDbLine
 10
5418.075195566919
 20
1268.295456145579
 30
0.0
 11
5535.277331149846
 21
1385.497591728504
 31
0.0
  0
LINE
  5
2F008
330
747D
100
AcDbEntity
  8
部品1
 48
50.0
100
AcDbLine
 10
5303.277331149846
 20
1156.295456145579
 30
0.0
 11
5303.277331149846
 21
1396.295456145579
 31
0.0
  0
LINE
  5
2F009
330
747D
100
AcDbEntity
  8
細線
 48
50.0
100
AcDbLine
 10
5660.542110835791
 20
1268.295456145579
 30
0.0
 11
5751.277331149847
 21
1359.030676459638
 31
0.0
  0
LINE
  5
2F00A
330
747D
100
AcDbEntity
  8
細線
 48
50.0
100
AcDbLine
 10
5633.601342472574
 20
1268.295456145579
 30
0.0
 11
5751.277331149847
 21
1385.971444822845
 31
0.0
  0
LINE
  5
2F00B
330
747D
100
AcDbEntity
  8
部品1
 48
50.0
100
AcDbLine
 10
5751.277331149847
 20
1396.295456145579
 30
0.0
 11
5751.277331149847
 21
1156.295456145579
 31
0.0
  0
LINE
  5
2F00C
330
747D
100
AcDbEntity
  8
部品1
 48
50.0
100
AcDbLine
 10
5551.277331149852
 20
1276.295456145579
 30
0.0
 11
5551.277331149847
 21
1800.549885539824
 31
0.0
  0
LINE
  5
2F00D
330
747D
100
AcDbEntity
  8
部品1
 48
50.0
100
AcDbLine
 10
5535.277331149853
 20
1276.295456145579
 30
0.0
 11
5535.277331149839
 21
1800.549885539824
 31
0.0
  0
LINE
  5
2F00E
330
747D
100
AcDbEntity
  8
細線
 48
50.0
100
AcDbLine
 10
5519.277331149847
 20
1315.61605500209
 30
0.0
 11
5535.277331149853
 21
1331.61605500209
 31
0.0
  0
LINE
  5
2F00F
330
747D
100
AcDbEntity
  8
細線
 48
50.0
100
AcDbLine
 10
5508.460170645861
 20
1028.295456145579
 30
0.0
 11
5542.757667277044
 21
1156.295456145579
 31
0.0
  0
LINE
  5
2F010
330
747D
100
AcDbEntity
  8
部品1
 48
50.0
100
AcDbLine
 10
5831.27733114985
 20
1028.295456145579
 30
0.0
 11
5223.277331149848
 21
1028.295456145579
 31
0.0
  0
LINE
  5
2F011
330
747D
100
AcDbEntity
  8
部品1
 48
50.0
100
AcDbLine
 10
5359.277331149847
 20
1252.295456145579
 30
0.0
 11
5695.277331149847
 21
1252.295456145579
 31
0.0
  0
LINE
  5
2F012
330
747D
100
AcDbEntity
  8
部品1
 48
50.0
100
AcDbLine
 10
5359.277331149847
 20
1268.295456145579
 30
0.0
 11
5695.277331149847
 21
1268.295456145579
 31
0.0
  0
LINE
  5
2F013
330
747D
100
AcDbEntity
  8
部品1
 48
50.0
100
AcDbLine
 10
5831.27733114985
 20
1156.295456145579
 30
0.0
 11
5223.277331149848
 21
1156.295456145579
 31
0.0
  0
CIRCLE
  5
2F014
330
747D
100
AcDbEntity
  8
部品1
 48
50.0
100
AcDbCircle
 10
5527.277331149846
 20
1276.295456145579
 30
0.0
 40
8.0
  0
LINE
  5
2F015
330
747D
100
AcDbEntity
  8
細線
 48
50.0
100
AcDbLine
 10
5521.60134247258
 20
1156.295456145579
 30
0.0
 11
5617.601342472579
 21
1252.295456145579
 31
0.0
  0
LINE
  5
2F016
330
747D
100
AcDbEntity
  8
細線
 48
50.0
100
AcDbLine
 10
5350.684080751363
 20
1028.295456145579
 30
0.0
 11
5384.981577382546
 21
1156.295456145579
 31
0.0
  0
LINE
  5
2F017
330
747D
100
AcDbEntity
  8
細線
 48
50.0
100
AcDbLine
 10
5429.572125698609
 20
1028.295456145577
 30
0.0
 11
5463.869622329792
 21
1156.295456145577
 31
0.0
  0
LINE
  5
2F018
330
747D
100
AcDbEntity
  8
細線
 48
50.0
100
AcDbLine
 10
5271.796035804104
 20
1028.295456145577
 30
0.0
 11
5306.093532435287
 21
1156.295456145577
 31
0.0
  0
LINE
  5
2F019
330
747D
100
AcDbEntity
  8
部品1
 48
50.0
100
AcDbLine
 10
5223.277331149848
 20
1028.295456145579
 30
0.0
 11
5223.277331149848
 21
1156.295456145579
 31
0.0
  0
LINE
  5
2F01A
330
747D
100
AcDbEntity
  8
細線
 48
50.0
100
AcDbLine
 10
5357.114861369709
 20
1052.295456145579
 30
0.0
 11
5363.545641988057
 21
1028.295456145579
 31
0.0
  0
LINE
  5
2F01B
330
747D
100
AcDbEntity
  8
細線
 48
50.0
100
AcDbLine
 10
5278.226816422458
 20
1052.295456145579
 30
0.0
 11
5284.657597040804
 21
1028.295456145579
 31
0.0
  0
LINE
  5
2F01C
330
747D
100
AcDbEntity
  8
細線
 48
50.0
100
AcDbLine
 10
5514.890951264214
 20
1052.295456145579
 30
0.0
 11
5521.32173188256
 21
1028.295456145579
 31
0.0
  0
LINE
  5
2F01D
330
747D
100
AcDbEntity
  8
細線
 48
50.0
100
AcDbLine
 10
5436.002906316961
 20
1052.295456145579
 30
0.0
 11
5442.433686935308
 21
1028.295456145579
 31
0.0
  0
LINE
  5
2F01E
330
747D
100
AcDbEntity
  8
細線
 48
50.0
100
AcDbLine
 10
5333.015963930129
 20
1156.295456145579
 30
0.0
 11
5429.01596393013
 21
1252.295456145579
 31
0.0
  0
LINE
  5
2F01F
330
747D
100
AcDbEntity
  8
細線
 48
50.0
100
AcDbLine
 10
5306.075195566919
 20
1156.295456145579
 30
0.0
 11
5402.075195566919
 21
1252.295456145579
 31
0.0
  0
LINE
  5
2F020
330
747D
100
AcDbEntity
  8
部品1
 48
50.0
100
AcDbLine
 10
5359.277331149847
 20
1268.295456145579
 30
0.0
 11
5359.277331149847
 21
1252.295456145579
 31
0.0
  0
LINE
  5
2F021
330
747D
100
AcDbEntity
  8
細線
 48
50.0
100
AcDbLine
 10
5299.662751816947
 20
1132.295456145579
 30
0.0
 11
5293.2319711986
 21
1156.295456145579
 31
0.0
  0
LINE
  5
2F022
330
747D
100
AcDbEntity
  8
細線
 48
50.0
100
AcDbLine
 10
5223.277331149847
 20
1141.635377111359
 30
0.0
 11
5227.205487488042
 21
1156.295456145579
 31
0.0
  0
LINE
  5
2F023
330
747D
100
AcDbEntity
  8
部品1
 48
50.0
100
AcDbLine
 10
5519.277331149847
 20
1334.422670842701
 30
0.0
 11
5503.277331149846
 21
1334.422670842701
 31
0.0
  0
CIRCLE
  5
2F024
330
747D
100
AcDbEntity
  8
部品1
 48
50.0
100
AcDbCircle
 10
5399.277331149846
 20
1276.295456145579
 30
0.0
 40
8.0
  0
LINE
  5
2F025
330
747D
100
AcDbEntity
  8
細線
 48
50.0
100
AcDbLine
 10
5471.956732293335
 20
1268.295456145579
 30
0.0
 11
5503.277331149846
 21
1299.61605500209
 31
0.0
  0
ARC
  5
2F026
330
747D
100
AcDbEntity
  8
部品1
 48
50.0
100
AcDbCircle
 10
5527.277331149846
 20
1276.295456145579
 30
0.0
 40
24.0
100
AcDbArc
 50
180.0
 51
199.4712206344713
  0
LINE
  5
2F027
330
747D
100
AcDbEntity
  8
細線
 48
50.0
100
AcDbLine
 10
5378.550796764198
 20
1132.295456145579
 30
0.0
 11
5372.120016145852
 21
1156.295456145579
 31
0.0
  0
LINE
  5
2F028
330
747D
100
AcDbEntity
  8
細線
 48
50.0
100
AcDbLine
 10
5457.43884171145
 20
1132.295456145579
 30
0.0
 11
5451.008061093105
 21
1156.295456145579
 31
0.0
  0
LINE
  5
2F029
330
747D
100
AcDbEntity
  8
細線
 48
50.0
100
AcDbLine
 10
5359.956732293335
 20
1156.295456145579
 30
0.0
 11
5455.956732293335
 21
1252.295456145579
 31
0.0
  0
LINE
  5
2F02A
330
747D
100
AcDbEntity
  8
部品1
 48
50.0
100
AcDbLine
 10
5503.277331149846
 20
1334.422670842701
 30
0.0
 11
5503.277331149846
 21
1276.295456145579
 31
0.0
  0
LINE
  5
2F02B
330
747D
100
AcDbEntity
  8
細線
 48
50.0
100
AcDbLine
 10
5445.01596393013
 20
1268.295456145579
 30
0.0
 11
5503.277331149846
 21
1326.556823365298
 31
0.0
  0
LINE
  5
2F02C
330
747D
100
AcDbEntity
  8
部品1
 48
50.0
100
AcDbLine
 10
5519.277331149847
 20
1334.422670842701
 30
0.0
 11
5519.277331149847
 21
1276.295456145579
 31
0.0
  0
LINE
  5
2F02D
330
747D
100
AcDbEntity
  8
部品1
 48
50.0
100
AcDbLine
 10
5831.27733114985
 20
1156.295456145579
 30
0.0
 11
5831.27733114985
 21
1028.295456145579
 31
0.0
  0
LINE
  5
2F02E
330
747D
100
AcDbEntity
  8
細線
 48
50.0
100
AcDbLine
 10
5745.1243054876
 20
1028.295456145579
 30
0.0
 11
5779.421802118785
 21
1156.295456145577
 31
0.0
  0
LINE
  5
2F02F
330
747D
100
AcDbEntity
  8
細線
 48
50.0
100
AcDbLine
 10
5587.348215593106
 20
1028.295456145579
 30
0.0
 11
5621.645712224292
 21
1156.295456145577
 31
0.0
  0
LINE
  5
2F030
330
747D
100
AcDbEntity
  8
細線
 48
50.0
100
AcDbLine
 10
5666.236260540355
 20
1028.295456145577
 30
0.0
 11
5700.53375717154
 21
1156.295456145577
 31
0.0
  0
LINE
  5
2F031
330
747D
100
AcDbEntity
  8
細線
 48
50.0
100
AcDbLine
 10
5672.667041158705
 20
1052.295456145579
 30
0.0
 11
5679.097821777053
 21
1028.295456145579
 31
0.0
  0
LINE
  5
2F032
330
747D
100
AcDbEntity
  8
細線
 48
50.0
100
AcDbLine
 10
5593.778996211459
 20
1052.295456145579
 30
0.0
 11
5600.209776829806
 21
1028.295456145579
 31
0.0
  0
LINE
  5
2F033
330
747D
100
AcDbEntity
  8
細線
 48
50.0
100
AcDbLine
 10
5751.555086105952
 20
1052.295456145579
 30
0.0
 11
5757.9858667243
 21
1028.295456145579
 31
0.0
  0
LINE
  5
2F034
330
747D
100
AcDbEntity
  8
細線
 48
50.0
100
AcDbLine
 10
5830.443131053199
 20
1052.295456145579
 30
0.0
 11
5831.277331149847
 21
1049.182179001214
 31
0.0
  0
LINE
  5
2F035
330
747D
100
AcDbEntity
  8
細線
 48
50.0
100
AcDbLine
 10
5824.012350434849
 20
1028.295456145577
 30
0.0
 11
5831.277331149847
 21
1055.408733289967
 31
0.0
  0
LINE
  5
2F036
330
747D
100
AcDbEntity
  8
細線
 48
50.0
100
AcDbLine
 10
5687.482879198994
 20
1268.295456145579
 30
0.0
 11
5751.277331149847
 21
1332.08990809643
 31
0.0
  0
CIRCLE
  5
2F037
330
747D
100
AcDbEntity
  8
部品1
 48
50.0
100
AcDbCircle
 10
5655.277331149846
 20
1276.295456145579
 30
0.0
 40
8.0
  0
ARC
  5
2F038
330
747D
100
AcDbEntity
  8
部品1
 48
50.0
100
AcDbCircle
 10
5527.277331149846
 20
1276.295456145579
 30
0.0
 40
24.0
100
AcDbArc
 50
340.5287793655287
 51
0.0
  0
LINE
  5
2F039
330
747D
100
AcDbEntity
  8
細線
 48
50.0
100
AcDbLine
 10
5536.326886658703
 20
1132.295456145579
 30
0.0
 11
5529.896106040355
 21
1156.295456145579
 31
0.0
  0
LINE
  5
2F03A
330
747D
100
AcDbEntity
  8
細線
 48
50.0
100
AcDbLine
 10
5615.214931605948
 20
1132.295456145579
 30
0.0
 11
5608.784150987602
 21
1156.295456145579
 31
0.0
  0
LINE
  5
2F03B
330
747D
100
AcDbEntity
  8
細線
 48
50.0
100
AcDbLine
 10
5548.54211083579
 20
1156.295456145579
 30
0.0
 11
5644.54211083579
 21
1252.295456145579
 31
0.0
  0
LINE
  5
2F03C
330
747D
100
AcDbEntity
  8
細線
 48
50.0
100
AcDbLine
 10
5575.482879198994
 20
1156.295456145579
 30
0.0
 11
5671.483767044131
 21
1252.296343990718
 31
0.0
  0
LINE
  5
2F03D
330
747D
100
AcDbEntity
  8
部品1
 48
50.0
100
AcDbLine
 10
5695.277331149847
 20
1268.295456145579
 30
0.0
 11
5695.277331149847
 21
1252.295456145579
 31
0.0
  0
LINE
  5
2F03E
330
747D
100
AcDbEntity
  8
細線
 48
50.0
100
AcDbLine
 10
5772.991021500441
 20
1132.295456145579
 30
0.0
 11
5766.560240882093
 21
1156.295456145579
 31
0.0
  0
LINE
  5
2F03F
330
747D
100
AcDbEntity
  8
細線
 48
50.0
100
AcDbLine
 10
5737.127489378241
 20
1156.295456145579
 30
0.0
 11
5751.277331149847
 21
1170.445297917185
 31
0.0
  0
LINE
  5
2F040
330
747D
100
AcDbEntity
  8
細線
 48
50.0
100
AcDbLine
 10
5694.102976553193
 20
1132.295456145579
 30
0.0
 11
5687.672195934847
 21
1156.295456145579
 31
0.0
  0
LINE
  5
2F041
330
747D
100
AcDbEntity
  8
細線
 48
50.0
100
AcDbLine
 10
5431.277331149846
 20
1470.082970270957
 30
0.0
 11
5535.277331149853
 21
1574.08297027096
 31
0.0
  0
LINE
  5
2F042
330
747D
100
AcDbEntity
  8
細線
 48
50.0
100
AcDbLine
 10
5431.277331149846
 20
1497.023738634165
 30
0.0
 11
5535.277331149846
 21
1601.023738634165
 31
0.0
  0
LINE
  5
2F043
330
747D
100
AcDbEntity
  8
細線
 48
50.0
100
AcDbLine
 10
5431.277331149846
 20
1443.14220190775
 30
0.0
 11
5535.277331149853
 21
1547.14220190775
 31
0.0
  0
LINE
  5
2F044
330
747D
100
AcDbEntity
  8
細線
 48
50.0
100
AcDbLine
 10
5519.277331149847
 20
1746.668348813409
 30
0.0
 11
5535.277331149846
 21
1762.668348813409
 31
0.0
  0
LINE
  5
2F045
330
747D
100
AcDbEntity
  8
細線
 48
50.0
100
AcDbLine
 10
5519.277331149847
 20
1773.609117176616
 30
0.0
 11
5535.277331149846
 21
1789.609117176616
 31
0.0
  0
LINE
  5
2F046
330
747D
100
AcDbEntity
  8
部品1
 48
50.0
100
AcDbLine
 10
5303.277331149846
 20
1396.295456145579
 30
0.0
 11
5431.277331149846
 21
1396.295456145579
 31
0.0
  0
LINE
  5
2F047
330
747D
100
AcDbEntity
  8
細線
 48
50.0
100
AcDbLine
 10
5303.277331149839
 20
1342.082970270954
 30
0.0
 11
5357.489817024472
 21
1396.295456145579
 31
0.0
  0
LINE
  5
2F048
330
747D
100
AcDbEntity
  8
細線
 48
50.0
100
AcDbLine
 10
5303.277331149839
 20
1369.023738634165
 30
0.0
 11
5330.549048661261
 21
1396.295456145579
 31
0.0
  0
LINE
  5
2F049
330
747D
100
AcDbEntity
  8
部品1
 48
50.0
100
AcDbLine
 10
5519.277331149847
 20
1742.422670842701
 30
0.0
 11
5503.277331149846
 21
1742.422670842705
 31
0.0
  0
LINE
  5
2F04A
330
747D
100
AcDbEntity
  8
細線
 48
50.0
100
AcDbLine
 10
5431.277331149846
 20
1658.668348813409
 30
0.0
 11
5515.03165317914
 21
1742.422670842701
 31
0.0
  0
LINE
  5
2F04B
330
747D
100
AcDbEntity
  8
細線
 48
50.0
100
AcDbLine
 10
5431.277331149846
 20
1685.609117176617
 30
0.0
 11
5503.277331149846
 21
1757.609117176616
 31
0.0
  0
LINE
  5
2F04C
330
747D
100
AcDbEntity
  8
部品1
 48
50.0
100
AcDbLine
 10
5503.277331149846
 20
1742.422670842705
 30
0.0
 11
5503.277331149846
 21
1800.549885539824
 31
0.0
  0
LINE
  5
2F04D
330
747D
100
AcDbEntity
  8
細線
 48
50.0
100
AcDbLine
 10
5431.277331149846
 20
1712.549885539824
 30
0.0
 11
5503.277331149846
 21
1784.549885539824
 31
0.0
  0
LINE
  5
2F04E
330
747D
100
AcDbEntity
  8
部品1
 48
50.0
100
AcDbLine
 10
5519.277331149847
 20
1742.422670842701
 30
0.0
 11
5519.277331149847
 21
1800.549885539824
 31
0.0
  0
LINE
  5
2F04F
330
747D
100
AcDbEntity
  8
細線
 48
50.0
100
AcDbLine
 10
5551.277331149852
 20
1563.14220190775
 30
0.0
 11
5623.277331149839
 21
1635.14220190775
 31
0.0
  0
LINE
  5
2F050
330
747D
100
AcDbEntity
  8
部品1
 48
50.0
100
AcDbLine
 10
5623.277331149846
 20
1396.295456145579
 30
0.0
 11
5751.277331149847
 21
1396.295456145579
 31
0.0
  0
LINE
  5
2F051
330
747D
100
AcDbEntity
  8
細線
 48
50.0
100
AcDbLine
 10
5551.277331149852
 20
1374.5568233653
 30
0.0
 11
5623.277331149839
 21
1446.556823365295
 31
0.0
  0
LINE
  5
2F052
330
747D
100
AcDbEntity
  8
細線
 48
50.0
100
AcDbLine
 10
5551.277331149852
 20
1401.497591728508
 30
0.0
 11
5623.277331149839
 21
1473.497591728504
 31
0.0
  0
LINE
  5
2F053
330
747D
100
AcDbEntity
  8
細線
 48
50.0
100
AcDbLine
 10
5551.277331149852
 20
1347.61605500209
 30
0.0
 11
5623.277331149839
 21
1419.61605500209
 31
0.0
  0
LINE
  5
2F054
330
747D
100
AcDbEntity
  8
細線
 48
50.0
100
AcDbLine
 10
5551.277331149847
 20
1617.023738634165
 30
0.0
 11
5623.277331149846
 21
1689.023738634165
 31
0.0
  0
LINE
  5
2F055
330
747D
100
AcDbEntity
  8
細線
 48
50.0
100
AcDbLine
 10
5551.277331149852
 20
1590.08297027096
 30
0.0
 11
5623.277331149839
 21
1662.082970270954
 31
0.0
  0
MTEXT
  5
2F056
102
{ACAD_REACTORS
330
2F001
102
}
330
747D
100
AcDbEntity
  8
寸法
 62
     7
 48
50.0
100
AcDbMText
 10
5865.015787011097
 20
978.9463704134259
 30
0.0
 40
80.0
 41
0.8
 71
     4
 72
     1
  1
\A1;D10@300
  7
STYLE2
 73
     1
 44
1.0
1001
ACAD
1000
MTEXTBEGIN
1070
    73
1070
     1
1070
    44
1040
1.0
1070
    74
1070
     0
1000
MTEXTEND
  0
DIMENSION
  5
2F057
330
747D
100
AcDbEntity
  8
寸法
 48
50.0
100
AcDbDimension
  2
*D54
 10
5431.277331149846
 20
2359.963264061959
 30
0.0
 11
5527.277331149846
 21
2359.963264061959
 31
0.0
 70
   160
  1
120\P200\P280
 71
     5
 42
192.0
  3
INABA_S40G
100
AcDbAlignedDimension
 13
5623.277331149846
 23
1940.295456145579
 33
0.0
 14
5431.277331149846
 24
1940.295456145579
 34
0.0
100
AcDbRotatedDimension
1001
ACAD
1000
DSTYLE
1002
{
1070
   341
1005
0
1002
}
  0
LINE
  5
2F058
330
747D
100
AcDbEntity
  8
部品1
 48
50.0
100
AcDbLine
 10
5431.277331149846
 20
1940.295456145579
 30
0.0
 11
5623.277331149846
 21
1940.295456145579
 31
0.0
  0
LINE
  5
2F059
330
747D
100
AcDbEntity
  8
細線
 48
50.0
100
AcDbLine
 10
5431.277331149846
 20
1901.135264082277
 30
0.0
 11
5470.43752321315
 21
1940.295456145579
 31
0.0
  0
LINE
  5
2F05A
330
747D
100
AcDbEntity
  8
細線
 48
50.0
100
AcDbLine
 10
5431.277331149846
 20
1874.194495719069
 30
0.0
 11
5497.378291576356
 21
1940.295456145579
 31
0.0
  0
LINE
  5
2F05B
330
747D
100
AcDbEntity
  8
細線
 48
50.0
100
AcDbLine
 10
5431.277331149846
 20
1928.076032445484
 30
0.0
 11
5443.496754849942
 21
1940.295456145579
 31
0.0
  0
LINE
  5
2F05C
330
747D
100
AcDbEntity
  8
細線
 48
50.0
100
AcDbLine
 10
5550.830038415833
 20
1805.161824442601
 30
0.0
 11
5623.277331149846
 21
1877.609117176616
 31
0.0
  0
LINE
  5
2F05D
330
747D
100
AcDbEntity
  8
細線
 48
50.0
100
AcDbLine
 10
5539.769753652317
 20
1821.042308042295
 30
0.0
 11
5623.277331149846
 21
1904.549885539825
 31
0.0
  0
LINE
  5
2F05E
330
747D
100
AcDbEntity
  8
細線
 48
50.0
100
AcDbLine
 10
7415.71664432704
 20
1781.423738634167
 30
0.0
 11
7545.316644327039
 21
1911.023738634166
 31
0.0
  0
LINE
  5
2F05F
330
747D
100
AcDbEntity
  8
部品1
100
AcDbLine
 10
7545.316644327039
 20
1396.295456145579
 30
0.0
 11
7545.316644327039
 21
1940.295456145579
 31
0.0
  0
LINE
  5
2F060
330
747D
100
AcDbEntity
  8
部品1
 48
50.0
100
AcDbLine
 10
7131.316644327039
 20
1396.295456145579
 30
0.0
 11
7131.316644327039
 21
1940.295456145579
 31
0.0
  0
LINE
  5
2F061
330
747D
100
AcDbEntity
  8
細線
 48
50.0
100
AcDbLine
 10
7131.316644327039
 20
1712.549885539824
 30
0.0
 11
7289.71664432704
 21
1870.949885539821
 31
0.0
  0
LINE
  5
2F062
330
747D
100
AcDbEntity
  8
細線
 48
50.0
100
AcDbLine
 10
7131.316644327039
 20
1685.609117176617
 30
0.0
 11
7289.71664432704
 21
1844.009117176614
 31
0.0
  0
LINE
  5
2F063
330
747D
100
AcDbEntity
  8
細線
 48
50.0
100
AcDbLine
 10
7131.316644327039
 20
1658.668348813409
 30
0.0
 11
7289.716644327036
 21
1817.068348813402
 31
0.0
  0
TEXT
  5
2F064
330
747D
100
AcDbEntity
  8
部品1
 48
50.0
100
AcDbText
 10
6717.176742494084
 20
1711.534448428834
 30
0.0
 40
80.0
  1
▽G.L
  7
STYLE2
100
AcDbText
  0
LINE
  5
2F065
330
747D
100
AcDbEntity
  8
部品1
100
AcDbLine
 10
7361.71664432704
 20
1715.295456145579
 30
0.0
 11
7361.716644327036
 21
1989.45545614558
 31
0.0
  0
LINE
  5
2F066
330
747D
100
AcDbEntity
  8
部品1
100
AcDbLine
 10
7343.71664432704
 20
1715.295456145579
 30
0.0
 11
7343.716644327035
 21
1989.45545614558
 31
0.0
  0
LINE
  5
2F067
330
747D
100
AcDbEntity
  8
細線
 48
50.0
100
AcDbLine
 10
7415.71664432704
 20
1727.542201907738
 30
0.0
 11
7545.316644327039
 21
1857.142201907729
 31
0.0
  0
LINE
  5
2F068
330
747D
100
AcDbEntity
  8
細線
 48
50.0
100
AcDbLine
 10
7415.71664432704
 20
1754.48297027095
 30
0.0
 11
7545.316644327039
 21
1884.082970270947
 31
0.0
  0
LINE
  5
2F069
330
747D
100
AcDbEntity
  8
部品1
100
AcDbLine
 10
7415.71664432704
 20
1616.295456145579
 30
0.0
 11
7415.71664432704
 21
1940.295456145579
 31
0.0
  0
LINE
  5
2F06A
330
747D
100
AcDbEntity
  8
部品1
100
AcDbLine
 10
7289.716644327032
 20
1616.295456145579
 30
0.0
 11
7289.71664432704
 21
1940.295456145579
 31
0.0
  0
LINE
  5
2F06B
330
747D
100
AcDbEntity
  8
細線
 48
50.0
100
AcDbLine
 10
7131.316644327039
 20
1470.082970270957
 30
0.0
 11
7289.716644327032
 21
1628.482970270946
 31
0.0
  0
LINE
  5
2F06C
330
747D
100
AcDbEntity
  8
細線
 48
50.0
100
AcDbLine
 10
7131.316644327039
 20
1443.14220190775
 30
0.0
 11
7304.469898564876
 21
1616.295456145577
 31
0.0
  0
LINE
  5
2F06D
330
747D
100
AcDbEntity
  8
細線
 48
50.0
100
AcDbLine
 10
7131.316644327039
 20
1497.023738634165
 30
0.0
 11
7289.716644327032
 21
1655.42373863416
 31
0.0
  0
LINE
  5
2F06E
330
747D
100
AcDbEntity
  8
細線
 48
50.0
100
AcDbLine
 10
7059.99604547053
 20
1156.295456145579
 30
0.0
 11
7545.316644327039
 21
1641.616055002087
 31
0.0
  0
LINE
  5
2F06F
330
747D
100
AcDbEntity
  8
細線
 48
50.0
100
AcDbLine
 10
7033.055277107324
 20
1156.295456145579
 30
0.0
 11
7545.316644327042
 21
1668.556823365293
 31
0.0
  0
LINE
  5
2F070
330
747D
100
AcDbEntity
  8
細線
 48
50.0
100
AcDbLine
 10
7006.114508744116
 20
1156.295456145579
 30
0.0
 11
7545.316644327039
 21
1695.497591728505
 31
0.0
  0
LINE
  5
2F071
330
747D
100
AcDbEntity
  8
部品1
 48
50.0
100
AcDbLine
 10
7753.316644327042
 20
1156.295456145579
 30
0.0
 11
6923.316644327043
 21
1156.295456145579
 31
0.0
  0
LINE
  5
2F072
330
747D
100
AcDbEntity
  8
部品1
 48
50.0
100
AcDbLine
 10
7753.316644327042
 20
1028.295456145579
 30
0.0
 11
6923.316644327043
 21
1028.295456145579
 31
0.0
  0
LINE
  5
2F073
330
747D
100
AcDbEntity
  8
細線
 48
50.0
100
AcDbLine
 10
7003.316644327036
 20
1315.14220190775
 30
0.0
 11
7084.469898564869
 21
1396.295456145579
 31
0.0
  0
LINE
  5
2F074
330
747D
100
AcDbEntity
  8
部品1
 48
50.0
100
AcDbLine
 10
7003.316644327039
 20
1156.295456145579
 30
0.0
 11
7003.316644327039
 21
1396.295456145579
 31
0.0
  0
LINE
  5
2F075
330
747D
100
AcDbEntity
  8
細線
 48
50.0
100
AcDbLine
 10
7050.723393928556
 20
1028.295456145579
 30
0.0
 11
7085.020890559739
 21
1156.295456145579
 31
0.0
  0
LINE
  5
2F076
330
747D
100
AcDbEntity
  8
部品1
 48
50.0
100
AcDbLine
 10
6923.316644327043
 20
1028.295456145579
 30
0.0
 11
6923.316644327043
 21
1156.295456145579
 31
0.0
  0
LINE
  5
2F077
330
747D
100
AcDbEntity
  8
細線
 48
50.0
100
AcDbLine
 10
6971.8353489813
 20
1028.295456145577
 30
0.0
 11
7006.132845612483
 21
1156.295456145577
 31
0.0
  0
LINE
  5
2F078
330
747D
100
AcDbEntity
  8
細線
 48
50.0
100
AcDbLine
 10
7129.611438875804
 20
1028.295456145577
 30
0.0
 11
7163.908935506985
 21
1156.295456145577
 31
0.0
  0
LINE
  5
2F079
330
747D
100
AcDbEntity
  8
細線
 48
50.0
100
AcDbLine
 10
6978.266129599652
 20
1052.295456145579
 30
0.0
 11
6984.696910217998
 21
1028.295456145579
 31
0.0
  0
LINE
  5
2F07A
330
747D
100
AcDbEntity
  8
細線
 48
50.0
100
AcDbLine
 10
7136.042219494156
 20
1052.295456145579
 30
0.0
 11
7142.473000112504
 21
1028.295456145579
 31
0.0
  0
LINE
  5
2F07B
330
747D
100
AcDbEntity
  8
細線
 48
50.0
100
AcDbLine
 10
7057.154174546905
 20
1052.295456145579
 30
0.0
 11
7063.584955165251
 21
1028.295456145579
 31
0.0
  0
LINE
  5
2F07C
330
747D
100
AcDbEntity
  8
細線
 48
50.0
100
AcDbLine
 10
6923.316644327039
 20
1141.635377111359
 30
0.0
 11
6927.244800665235
 21
1156.295456145579
 31
0.0
  0
LINE
  5
2F07D
330
747D
100
AcDbEntity
  8
細線
 48
50.0
100
AcDbLine
 10
6999.702064994142
 20
1132.295456145579
 30
0.0
 11
6993.271284375795
 21
1156.295456145579
 31
0.0
  0
LINE
  5
2F07E
330
747D
100
AcDbEntity
  8
細線
 48
50.0
100
AcDbLine
 10
7157.478154888645
 20
1132.295456145579
 30
0.0
 11
7151.047374270297
 21
1156.295456145579
 31
0.0
  0
LINE
  5
2F07F
330
747D
100
AcDbEntity
  8
細線
 48
50.0
100
AcDbLine
 10
7078.590109941394
 20
1132.295456145579
 30
0.0
 11
7072.159329323047
 21
1156.295456145579
 31
0.0
  0
LWPOLYLINE
  5
2F080
330
747D
100
AcDbEntity
  8
部品1
 48
50.0
100
AcDbPolyline
 90
        2
 70
     0
 43
8.0
 10
6717.176742494084
 20
1700.29545614558
 10
7131.316644327039
 20
1700.29545614558
  0
LINE
  5
2F081
330
747D
100
AcDbEntity
  8
細線
 48
50.0
100
AcDbLine
 10
7003.316644327036
 20
1342.082970270954
 30
0.0
 11
7057.529130201664
 21
1396.295456145579
 31
0.0
  0
LINE
  5
2F082
330
747D
100
AcDbEntity
  8
部品1
 48
50.0
100
AcDbLine
 10
7003.316644327039
 20
1396.295456145579
 30
0.0
 11
7131.316644327039
 21
1396.295456145579
 31
0.0
  0
LINE
  5
2F083
330
747D
100
AcDbEntity
  8
細線
 48
50.0
100
AcDbLine
 10
7003.316644327036
 20
1369.023738634165
 30
0.0
 11
7030.588361838455
 21
1396.295456145579
 31
0.0
  0
LINE
  5
2F084
330
747D
100
AcDbEntity
  8
細線
 48
50.0
100
AcDbLine
 10
7248.581424012986
 20
1156.295456145579
 30
0.0
 11
7545.316644327039
 21
1453.030676459631
 31
0.0
  0
LINE
  5
2F085
330
747D
100
AcDbEntity
  8
細線
 48
50.0
100
AcDbLine
 10
7275.52219237619
 20
1156.295456145579
 30
0.0
 11
7545.316644327039
 21
1426.089908096436
 31
0.0
  0
LINE
  5
2F086
330
747D
100
AcDbEntity
  8
細線
 48
50.0
100
AcDbLine
 10
7221.640655649775
 20
1156.295456145579
 30
0.0
 11
7545.316644327039
 21
1479.971444822845
 31
0.0
  0
LINE
  5
2F087
330
747D
100
AcDbEntity
  8
細線
 48
50.0
100
AcDbLine
 10
7437.166802555431
 20
1156.295456145579
 30
0.0
 11
7673.316644327039
 21
1392.445297917187
 31
0.0
  0
LINE
  5
2F088
330
747D
100
AcDbEntity
  8
細線
 48
50.0
100
AcDbLine
 10
7464.107570918644
 20
1156.295456145579
 30
0.0
 11
7673.316644327039
 21
1365.504529553972
 31
0.0
  0
LINE
  5
2F089
330
747D
100
AcDbEntity
  8
部品1
 48
50.0
100
AcDbLine
 10
7673.316644327039
 20
1396.295456145579
 30
0.0
 11
7673.316644327039
 21
1156.295456145579
 31
0.0
  0
LINE
  5
2F08A
330
747D
100
AcDbEntity
  8
細線
 48
50.0
100
AcDbLine
 10
7491.048339281849
 20
1156.295456145579
 30
0.0
 11
7673.316644327039
 21
1338.563761190775
 31
0.0
  0
LINE
  5
2F08B
330
747D
100
AcDbEntity
  8
細線
 48
50.0
100
AcDbLine
 10
7366.27557371755
 20
1028.295456145577
 30
0.0
 11
7400.573070348731
 21
1156.295456145577
 31
0.0
  0
LINE
  5
2F08C
330
747D
100
AcDbEntity
  8
細線
 48
50.0
100
AcDbLine
 10
7208.499483823056
 20
1028.295456145579
 30
0.0
 11
7242.796980454238
 21
1156.295456145579
 31
0.0
  0
LINE
  5
2F08D
330
747D
100
AcDbEntity
  8
細線
 48
50.0
100
AcDbLine
 10
7287.387528770302
 20
1028.295456145579
 30
0.0
 11
7321.685025401485
 21
1156.295456145577
 31
0.0
  0
LINE
  5
2F08E
330
747D
100
AcDbEntity
  8
細線
 48
50.0
100
AcDbLine
 10
7445.163618664792
 20
1028.295456145579
 30
0.0
 11
7479.461115295977
 21
1156.295456145577
 31
0.0
  0
LINE
  5
2F08F
330
747D
100
AcDbEntity
  8
細線
 48
50.0
100
AcDbLine
 10
7293.818309388655
 20
1052.295456145579
 30
0.0
 11
7300.249090007001
 21
1028.295456145579
 31
0.0
  0
LINE
  5
2F090
330
747D
100
AcDbEntity
  8
細線
 48
50.0
100
AcDbLine
 10
7214.930264441406
 20
1052.295456145579
 30
0.0
 11
7221.361045059754
 21
1028.295456145579
 31
0.0
  0
LINE
  5
2F091
330
747D
100
AcDbEntity
  8
細線
 48
50.0
100
AcDbLine
 10
7451.594399283145
 20
1052.295456145579
 30
0.0
 11
7458.025179901492
 21
1028.295456145579
 31
0.0
  0
LINE
  5
2F092
330
747D
100
AcDbEntity
  8
細線
 48
50.0
100
AcDbLine
 10
7372.7063543359
 20
1052.295456145579
 30
0.0
 11
7379.137134954246
 21
1028.295456145579
 31
0.0
  0
LINE
  5
2F093
330
747D
100
AcDbEntity
  8
細線
 48
50.0
100
AcDbLine
 10
7315.254244783144
 20
1132.295456145579
 30
0.0
 11
7308.823464164794
 21
1156.295456145579
 31
0.0
  0
LINE
  5
2F094
330
747D
100
AcDbEntity
  8
細線
 48
50.0
100
AcDbLine
 10
7236.366199835896
 20
1132.295456145579
 30
0.0
 11
7229.93541921755
 21
1156.295456145579
 31
0.0
  0
LINE
  5
2F095
330
747D
100
AcDbEntity
  8
細線
 48
50.0
100
AcDbLine
 10
7394.142289730389
 20
1132.295456145579
 30
0.0
 11
7387.711509112043
 21
1156.295456145579
 31
0.0
  0
LINE
  5
2F096
330
747D
100
AcDbEntity
  8
細線
 48
50.0
100
AcDbLine
 10
7473.030334677635
 20
1132.295456145579
 30
0.0
 11
7466.599554059289
 21
1156.295456145579
 31
0.0
  0
LINE
  5
2F097
330
747D
100
AcDbEntity
  8
部品1
 48
50.0
100
AcDbLine
 10
7753.316644327042
 20
1156.295456145579
 30
0.0
 11
7753.316644327042
 21
1028.295456145579
 31
0.0
  0
LINE
  5
2F098
330
747D
100
AcDbEntity
  8
細線
 48
50.0
100
AcDbLine
 10
7681.827753506535
 20
1028.295456145577
 30
0.0
 11
7716.125250137721
 21
1156.295456145576
 31
0.0
  0
LINE
  5
2F099
330
747D
100
AcDbEntity
  8
細線
 48
50.0
100
AcDbLine
 10
7524.051663612041
 20
1028.295456145577
 30
0.0
 11
7558.349160243214
 21
1156.295456145579
 31
0.0
  0
LINE
  5
2F09A
330
747D
100
AcDbEntity
  8
細線
 48
50.0
100
AcDbLine
 10
7602.93970855929
 20
1028.295456145576
 30
0.0
 11
7637.237205190475
 21
1156.295456145576
 31
0.0
  0
LINE
  5
2F09B
330
747D
100
AcDbEntity
  8
細線
 48
50.0
100
AcDbLine
 10
7530.482444230391
 20
1052.295456145579
 30
0.0
 11
7536.913224848747
 21
1028.295456145579
 31
0.0
  0
LINE
  5
2F09C
330
747D
100
AcDbEntity
  8
細線
 48
50.0
100
AcDbLine
 10
7609.370489177639
 20
1052.295456145577
 30
0.0
 11
7615.801269795986
 21
1028.295456145577
 31
0.0
  0
LINE
  5
2F09D
330
747D
100
AcDbEntity
  8
細線
 48
50.0
100
AcDbLine
 10
7688.258534124885
 20
1052.295456145577
 30
0.0
 11
7694.689314743235
 21
1028.295456145577
 31
0.0
  0
LINE
  5
2F09E
330
747D
100
AcDbEntity
  8
細線
 48
50.0
100
AcDbLine
 10
7551.918379624872
 20
1132.295456145579
 30
0.0
 11
7545.487599006526
 21
1156.295456145579
 31
0.0
  0
LINE
  5
2F09F
330
747D
100
AcDbEntity
  8
細線
 48
50.0
100
AcDbLine
 10
7630.80642457213
 20
1132.295456145577
 30
0.0
 11
7624.375643953783
 21
1156.295456145577
 31
0.0
  0
LINE
  5
2F0A0
330
747D
100
AcDbEntity
  8
細線
 48
50.0
100
AcDbLine
 10
7709.694469519374
 20
1132.295456145577
 30
0.0
 11
7703.263688901028
 21
1156.295456145577
 31
0.0
  0
LINE
  5
2F0A1
330
747D
100
AcDbEntity
  8
部品1
100
AcDbLine
 10
7415.71664432704
 20
1616.295456145577
 30
0.0
 11
7289.716644327032
 21
1616.295456145577
 31
0.0
  0
LINE
  5
2F0A2
330
747D
100
AcDbEntity
  8
部品1
100
AcDbLine
 10
7397.71664432704
 20
1697.295456145579
 30
0.0
 11
7397.71664432704
 21
1715.295456145579
 31
0.0
  0
ARC
  5
2F0A3
330
747D
100
AcDbEntity
  8
部品1
100
AcDbCircle
 10
7361.71664432704
 20
1715.295456145579
 30
0.0
 40
18.0
100
AcDbArc
 50
180.0
 51
270.0
  0
LINE
  5
2F0A4
330
747D
100
AcDbEntity
  8
部品1
100
AcDbLine
 10
7361.71664432704
 20
1697.295456145579
 30
0.0
 11
7397.71664432704
 21
1697.295456145579
 31
0.0
  0
LINE
  5
2F0A5
330
747D
100
AcDbEntity
  8
部品1
100
AcDbLine
 10
7361.71664432704
 20
1715.295456145579
 30
0.0
 11
7397.71664432704
 21
1715.295456145579
 31
0.0
  0
LINE
  5
2F0A6
330
747D
100
AcDbEntity
  8
部品1
 48
50.0
100
AcDbLine
 10
7545.316644327039
 20
1396.295456145579
 30
0.0
 11
7673.316644327039
 21
1396.295456145579
 31
0.0
  0
LINE
  5
2F0A7
330
747D
100
AcDbEntity
  8
部品1
100
AcDbLine
 10
7151.116644327041
 20
2030.295456145579
 30
0.0
 11
7188.916644327041
 21
2030.295456145579
 31
0.0
  0
LINE
  5
2F0A8
330
747D
100
AcDbEntity
  8
細線
 48
50.0
100
AcDbLine
 10
7131.316644327039
 20
1901.135264082277
 30
0.0
 11
7170.476836390347
 21
1940.295456145579
 31
0.0
  0
LINE
  5
2F0A9
330
747D
100
AcDbEntity
  8
細線
 48
50.0
100
AcDbLine
 10
7131.316644327039
 20
1874.194495719069
 30
0.0
 11
7197.41760475355
 21
1940.295456145579
 31
0.0
  0
LINE
  5
2F0AA
330
747D
100
AcDbEntity
  8
部品1
 48
50.0
100
AcDbLine
 10
7131.316644327039
 20
1940.295456145579
 30
0.0
 11
7545.316644327042
 21
1940.295456145579
 31
0.0
  0
LINE
  5
2F0AB
330
747D
100
AcDbEntity
  8
部品1
100
AcDbLine
 10
7148.416644327041
 20
2019.495456145579
 30
0.0
 11
7148.416644327041
 21
2027.595456145579
 31
0.0
  0
ARC
  5
2F0AC
330
747D
100
AcDbEntity
  8
部品1
100
AcDbCircle
 10
7151.116644327041
 20
2027.595456145579
 30
0.0
 40
2.7
100
AcDbArc
 50
90.0
 51
180.0
  0
ARC
  5
2F0AD
330
747D
100
AcDbEntity
  8
部品1
100
AcDbCircle
 10
7140.31664432704
 20
2014.687359848287
 30
0.0
 40
2.7
100
AcDbArc
 50
104.0362434679067
 51
180.0
  0
LINE
  5
2F0AE
330
747D
100
AcDbEntity
  8
部品1
100
AcDbLine
 10
7139.661798139442
 20
2017.306744598679
 30
0.0
 11
7148.416644327041
 21
2019.495456145579
 31
0.0
  0
ARC
  5
2F0AF
330
747D
100
AcDbEntity
  8
部品1
100
AcDbCircle
 10
7140.31664432704
 20
1952.555456145579
 30
0.0
 40
2.7
100
AcDbArc
 50
180.0
 51
270.0
  0
LINE
  5
2F0B0
330
747D
100
AcDbEntity
  8
細線
 48
50.0
100
AcDbLine
 10
7131.316644327039
 20
1928.076032445484
 30
0.0
 11
7143.536068027135
 21
1940.295456145579
 31
0.0
  0
LINE
  5
2F0B1
330
747D
100
AcDbEntity
  8
部品1
100
AcDbLine
 10
7140.31664432704
 20
1949.855456145579
 30
0.0
 11
7152.016644327034
 21
1949.855456145579
 31
0.0
  0
LINE
  5
2F0B2
330
747D
100
AcDbEntity
  8
部品1
100
AcDbLine
 10
7137.616644327041
 20
1952.555456145579
 30
0.0
 11
7137.616644327041
 21
2014.687359848287
 31
0.0
  0
LINE
  5
2F0B3
330
747D
100
AcDbEntity
  8
部品1
100
AcDbLine
 10
7296.276644327034
 20
1949.855456145579
 30
0.0
 11
7497.616644327035
 21
1949.855456145579
 31
0.0
  0
LINE
  5
2F0B4
330
747D
100
AcDbEntity
  8
部品1
100
AcDbLine
 10
7188.916644327041
 20
2030.295456145579
 30
0.0
 11
7188.916644327041
 21
2038.395456145579
 31
0.0
  0
LINE
  5
2F0B5
330
747D
100
AcDbEntity
  8
部品1
100
AcDbLine
 10
7239.316644327039
 20
2049.195456145576
 30
0.0
 11
7239.316644327039
 21
1997.895456145579
 31
0.0
  0
LINE
  5
2F0B6
330
747D
100
AcDbEntity
  8
部品1
100
AcDbLine
 10
7262.716644327039
 20
2009.855456145579
 30
0.0
 11
7290.876644327039
 21
2009.855456145579
 31
0.0
  0
ARC
  5
2F0B7
330
747D
100
AcDbEntity
  8
部品1
100
AcDbCircle
 10
7262.716644327039
 20
2007.155456145579
 30
0.0
 40
2.7
100
AcDbArc
 50
90.0
 51
180.0
  0
ARC
  5
2F0B8
330
747D
100
AcDbEntity
  8
部品1
100
AcDbCircle
 10
7290.876644327039
 20
2007.155456145579
 30
0.0
 40
2.7
100
AcDbArc
 50
0.0
 51
90.0
  0
LINE
  5
2F0B9
330
747D
100
AcDbEntity
  8
部品1
100
AcDbLine
 10
7281.616644327042
 20
1995.195456145578
 30
0.0
 11
7281.616644327042
 21
1952.555456145579
 31
0.0
  0
LINE
  5
2F0BA
330
747D
100
AcDbEntity
  8
部品1
100
AcDbLine
 10
7267.21664432704
 20
1949.855456145579
 30
0.0
 11
7278.91664432704
 21
1949.855456145579
 31
0.0
  0
ARC
  5
2F0BB
330
747D
100
AcDbEntity
  8
部品1
100
AcDbCircle
 10
7296.276644327034
 20
1952.555456145579
 30
0.0
 40
2.7
100
AcDbArc
 50
180.0
 51
270.0
  0
ARC
  5
2F0BC
330
747D
100
AcDbEntity
  8
部品1
100
AcDbCircle
 10
7278.91664432704
 20
1952.555456145579
 30
0.0
 40
2.7
100
AcDbArc
 50
270.0
 51
0.0
  0
LINE
  5
2F0BD
330
747D
100
AcDbEntity
  8
部品1
100
AcDbLine
 10
7239.316644327039
 20
1997.895456145579
 30
0.0
 11
7278.91664432704
 21
1997.895456145579
 31
0.0
  0
ARC
  5
2F0BE
330
747D
100
AcDbEntity
  8
部品1
100
AcDbCircle
 10
7278.91664432704
 20
1995.195456145578
 30
0.0
 40
2.7
100
AcDbArc
 50
0.0
 51
90.0
  0
LINE
  5
2F0BF
330
747D
100
AcDbEntity
  8
部品1
100
AcDbLine
 10
7293.576644327041
 20
2007.155456145579
 30
0.0
 11
7293.576644327036
 21
1952.555456145579
 31
0.0
  0
LINE
  5
2F0C0
330
747D
100
AcDbEntity
  8
部品1
100
AcDbLine
 10
7260.016644327039
 20
2007.155456145579
 30
0.0
 11
7260.016644327039
 21
1990.055456145579
 31
0.0
  0
LINE
  5
2F0C1
330
747D
100
AcDbEntity
  8
細線
100
AcDbLine
 10
7358.116644327042
 20
1949.855456145579
 30
0.0
 11
7358.116644327042
 21
1993.055456145579
 31
0.0
  0
LINE
  5
2F0C2
330
747D
100
AcDbEntity
  8
細線
100
AcDbLine
 10
7347.316644327041
 20
1949.855456145579
 30
0.0
 11
7347.316644327039
 21
1993.055456145579
 31
0.0
  0
LINE
  5
2F0C3
330
747D
100
AcDbEntity
  8
部品1
100
AcDbLine
 10
7343.71664432704
 20
1989.45545614558
 30
0.0
 11
7361.71664432704
 21
1989.45545614558
 31
0.0
  0
LINE
  5
2F0C4
330
747D
100
AcDbEntity
  8
部品1
100
AcDbLine
 10
7347.316644327039
 20
1993.055456145579
 30
0.0
 11
7358.116644327042
 21
1993.055456145579
 31
0.0
  0
ELLIPSE
  5
2F0C5
330
747D
100
AcDbEntity
  8
部品1
 48
50.0
100
AcDbEllipse
 10
7352.71664432704
 20
2209.418744589852
 30
0.0
 11
40.0
 21
0.0
 31
0.0
210
0.0
220
0.0
230
1.0
 40
0.4
 41
0.0
 42
6.283185307179586
  0
ELLIPSE
  5
2F0C6
330
747D
100
AcDbEntity
  8
部品1
 48
50.0
100
AcDbEllipse
 10
7352.71664432704
 20
2199.818744589852
 30
0.0
 11
40.0
 21
0.0
 31
0.0
210
0.0
220
0.0
230
1.0
 40
0.4
 41
3.141592653589793
 42
6.283185307179586
  0
LINE
  5
2F0C7
330
747D
100
AcDbEntity
  8
部品1
 48
50.0
100
AcDbLine
 10
7312.716644327039
 20
2209.418744589852
 30
0.0
 11
7312.716644327039
 21
2199.818744589851
 31
0.0
  0
ARC
  5
2F0C8
330
747D
100
AcDbEntity
  8
部品1
100
AcDbCircle
 10
7236.61664432704
 20
2049.195456145576
 30
0.0
 40
2.7
100
AcDbArc
 50
0.0
 51
90.0
  0
ARC
  5
2F0C9
330
747D
100
AcDbEntity
  8
部品1
100
AcDbCircle
 10
7194.31664432704
 20
2049.195456145579
 30
0.0
 40
2.7
100
AcDbArc
 50
90.0
 51
180.0
  0
LINE
  5
2F0CA
330
747D
100
AcDbEntity
  8
部品1
100
AcDbLine
 10
7191.61664432704
 20
2041.095456145579
 30
0.0
 11
7191.61664432704
 21
2041.095456145579
 31
0.0
  0
LINE
  5
2F0CB
330
747D
100
AcDbEntity
  8
部品1
100
AcDbLine
 10
7191.61664432704
 20
2041.095456145579
 30
0.0
 11
7191.61664432704
 21
2049.195456145579
 31
0.0
  0
LINE
  5
2F0CC
330
747D
100
AcDbEntity
  8
部品1
100
AcDbLine
 10
7194.31664432704
 20
2051.895456145579
 30
0.0
 11
7236.61664432704
 21
2051.895456145576
 31
0.0
  0
ARC
  5
2F0CD
330
747D
100
AcDbEntity
  8
部品1
100
AcDbCircle
 10
7191.61664432704
 20
2038.395456145579
 30
0.0
 40
2.7
100
AcDbArc
 50
90.0
 51
180.0
  0
ELLIPSE
  5
2F0CE
330
747D
100
AcDbEntity
  8
部品1
 48
50.0
100
AcDbEllipse
 10
7352.71664432704
 20
2209.418744589852
 30
0.0
 11
18.4
 21
0.0
 31
0.0
210
0.0
220
0.0
230
1.0
 40
0.3478260869565217
 41
0.0
 42
6.283185307179586
  0
LINE
  5
2F0CF
330
747D
100
AcDbEntity
  8
部品1
 48
50.0
100
AcDbLine
 10
7392.716644327039
 20
2199.818744589851
 30
0.0
 11
7392.716644327039
 21
2209.418744589852
 31
0.0
  0
LINE
  5
2F0D0
330
747D
100
AcDbEntity
  8
部品1
 48
50.0
100
AcDbLine
 10
7320.716644327039
 20
2331.170737254722
 30
0.0
 11
7336.71664432704
 21
2323.170737254722
 31
0.0
  0
LINE
  5
2F0D1
330
747D
100
AcDbEntity
  8
部品1
 48
50.0
100
AcDbLine
 10
7320.716644327039
 20
2299.170737254722
 30
0.0
 11
7336.71664432704
 21
2291.170737254722
 31
0.0
  0
LINE
  5
2F0D2
330
747D
100
AcDbEntity
  8
部品1
 48
50.0
100
AcDbLine
 10
7320.716644327039
 20
2331.170737254722
 30
0.0
 11
7336.71664432704
 21
2339.170737254722
 31
0.0
  0
LINE
  5
2F0D3
330
747D
100
AcDbEntity
  8
部品1
 48
50.0
100
AcDbLine
 10
7320.716644327039
 20
2299.170737254722
 30
0.0
 11
7320.716644327039
 21
2331.170737254722
 31
0.0
  0
LINE
  5
2F0D4
330
747D
100
AcDbEntity
  8
部品1
 48
50.0
100
AcDbLine
 10
7336.71664432704
 20
2339.170737254722
 30
0.0
 11
7368.71664432704
 21
2339.170737254722
 31
0.0
  0
ELLIPSE
  5
2F0D5
330
747D
100
AcDbEntity
  8
細線
 48
50.0
100
AcDbEllipse
 10
7352.71664432704
 20
2331.170737254722
 30
0.0
 11
14.76670786606846
 21
0.0
 31
0.0
210
0.0
220
0.0
230
1.0
 40
0.2071254069489396
 41
0.0
 42
6.283185307179586
  0
LINE
  5
2F0D6
330
747D
100
AcDbEntity
  8
部品1
 48
50.0
100
AcDbLine
 10
7336.71664432704
 20
2291.170737254722
 30
0.0
 11
7368.71664432704
 21
2291.170737254722
 31
0.0
  0
LINE
  5
2F0D7
330
747D
100
AcDbEntity
  8
部品1
 48
50.0
100
AcDbLine
 10
7368.71664432704
 20
2291.170737254722
 30
0.0
 11
7384.716644327039
 21
2299.170737254722
 31
0.0
  0
LINE
  5
2F0D8
330
747D
100
AcDbEntity
  8
部品1
 48
50.0
100
AcDbLine
 10
7336.71664432704
 20
2323.170737254722
 30
0.0
 11
7368.71664432704
 21
2323.170737254722
 31
0.0
  0
LINE
  5
2F0D9
330
747D
100
AcDbEntity
  8
部品1
 48
50.0
100
AcDbLine
 10
7368.71664432704
 20
2323.170737254722
 30
0.0
 11
7384.716644327039
 21
2331.170737254722
 31
0.0
  0
LINE
  5
2F0DA
330
747D
100
AcDbEntity
  8
細線
 48
50.0
100
AcDbLine
 10
7368.71664432704
 20
2291.170737254722
 30
0.0
 11
7368.71664432704
 21
2323.170737254722
 31
0.0
  0
LINE
  5
2F0DB
330
747D
100
AcDbEntity
  8
部品1
 48
50.0
100
AcDbLine
 10
7384.716644327039
 20
2299.170737254722
 30
0.0
 11
7384.716644327039
 21
2331.170737254722
 31
0.0
  0
LINE
  5
2F0DC
330
747D
100
AcDbEntity
  8
細線
 48
50.0
100
AcDbLine
 10
7336.71664432704
 20
2291.170737254722
 30
0.0
 11
7336.71664432704
 21
2323.170737254722
 31
0.0
  0
LINE
  5
2F0DD
330
747D
100
AcDbEntity
  8
部品1
 48
50.0
100
AcDbLine
 10
7368.71664432704
 20
2339.170737254722
 30
0.0
 11
7384.716644327039
 21
2331.170737254722
 31
0.0
  0
TEXT
  5
2F0DE
330
747D
100
AcDbEntity
  8
部品1
100
AcDbText
 10
7053.488893518971
 20
3160.082191394737
 30
0.0
 40
120.0
  1
基礎詳細
  7
STYLE2
100
AcDbText
  0
LINE
  5
2F0DF
330
747D
100
AcDbEntity
  8
部品1
100
AcDbLine
 10
10431.59407772683
 20
375.3271537615173
 30
0.0
 11
10431.59407772684
 21
3339.634123346165
 31
0.0
  0
LINE
  5
2F0E0
330
747D
100
AcDbEntity
  8
細線
100
AcDbLine
 10
9439.485910306583
 20
1700.295456145579
 30
0.0
 11
9244.852576629797
 21
1894.928789822362
 31
0.0
  0
LINE
  5
2F0E1
330
747D
100
AcDbEntity
  8
部品1
100
AcDbLine
 10
9244.852576629797
 20
1940.295456145579
 30
0.0
 11
9724.852576629798
 21
1940.295456145579
 31
0.0
  0
LINE
  5
2F0E2
330
747D
100
AcDbEntity
  8
細線
 48
50.0
100
AcDbLine
 10
9378.923461073055
 20
1480.596540492229
 30
0.0
 11
9413.220957704242
 21
1608.596540492228
 31
0.0
  0
LINE
  5
2F0E3
330
747D
100
AcDbEntity
  8
部品1
100
AcDbLine
 10
9124.852576629796
 20
1480.596540492225
 30
0.0
 11
9844.852576629797
 21
1480.596540492229
 31
0.0
  0
LINE
  5
2F0E4
330
747D
100
AcDbEntity
  8
部品1
100
AcDbLine
 10
9124.852576629796
 20
1608.596540492229
 30
0.0
 11
9844.852576629797
 21
1608.596540492231
 31
0.0
  0
LINE
  5
2F0E5
330
747D
100
AcDbEntity
  8
細線
100
AcDbLine
 10
9305.771222123039
 20
1608.596540492229
 30
0.0
 11
9397.470137776386
 21
1700.295456145579
 31
0.0
  0
LWPOLYLINE
  5
2F0E6
330
747D
100
AcDbEntity
  8
部品1
 48
50.0
100
AcDbPolyline
 90
        2
 70
     0
 43
12.0
 10
8860.241314529408
 20
1700.295456145579
 10
10061.33361766103
 20
1700.295456145579
  0
LINE
  5
2F0E7
330
747D
100
AcDbEntity
  8
細線
100
AcDbLine
 10
9388.57422206115
 20
1700.295456145579
 30
0.0
 11
9244.852576629797
 21
1844.017101576932
 31
0.0
  0
TEXT
  5
2F0E8
330
747D
100
AcDbEntity
  8
部品1
 48
50.0
100
AcDbText
 10
8480.734489871293
 20
1433.49571550827
 30
0.0
 40
80.0
  1
ボルトの出
 50
90.0
  7
STYLE2
100
AcDbText
  0
LINE
  5
2F0E9
330
747D
100
AcDbEntity
  8
部品1
100
AcDbLine
 10
9244.852576629797
 20
1700.295456145579
 30
0.0
 11
9244.852576629797
 21
1940.295456145579
 31
0.0
  0
LINE
  5
2F0EA
330
747D
100
AcDbEntity
  8
細線
 48
50.0
100
AcDbLine
 10
9221.147371178558
 20
1480.596540492228
 30
0.0
 11
9255.444867809741
 21
1608.596540492228
 31
0.0
  0
LINE
  5
2F0EB
330
747D
100
AcDbEntity
  8
細線
 48
50.0
100
AcDbLine
 10
9300.035416125806
 20
1480.596540492229
 30
0.0
 11
9334.332912756993
 21
1608.596540492229
 31
0.0
  0
LINE
  5
2F0EC
330
747D
100
AcDbEntity
  8
細線
 48
50.0
100
AcDbLine
 10
9142.259326231309
 20
1480.596540492229
 30
0.0
 11
9176.556822862494
 21
1608.596540492229
 31
0.0
  0
LINE
  5
2F0ED
330
747D
100
AcDbEntity
  8
部品1
100
AcDbLine
 10
9124.852576629796
 20
1480.596540492225
 30
0.0
 11
9124.852576629796
 21
1700.295456145579
 31
0.0
  0
LINE
  5
2F0EE
330
747D
100
AcDbEntity
  8
細線
 48
50.0
100
AcDbLine
 10
9227.578151796908
 20
1504.596540492229
 30
0.0
 11
9234.008932415257
 21
1480.596540492229
 31
0.0
  0
LINE
  5
2F0EF
330
747D
100
AcDbEntity
  8
細線
 48
50.0
100
AcDbLine
 10
9148.690106849659
 20
1504.596540492229
 30
0.0
 11
9155.120887468006
 21
1480.596540492229
 31
0.0
  0
LINE
  5
2F0F0
330
747D
100
AcDbEntity
  8
細線
 48
50.0
100
AcDbLine
 10
9306.46619674416
 20
1504.596540492229
 30
0.0
 11
9312.896977362507
 21
1480.596540492229
 31
0.0
  0
LINE
  5
2F0F1
330
747D
100
AcDbEntity
  8
細線
 48
50.0
100
AcDbLine
 10
9385.354241691407
 20
1504.596540492229
 30
0.0
 11
9391.785022309756
 21
1480.596540492229
 31
0.0
  0
LINE
  5
2F0F2
330
747D
100
AcDbEntity
  8
細線
 48
50.0
100
AcDbLine
 10
9170.126042244147
 20
1584.596540492229
 30
0.0
 11
9163.695261625798
 21
1608.596540492229
 31
0.0
  0
LINE
  5
2F0F3
330
747D
100
AcDbEntity
  8
細線
 48
50.0
100
AcDbLine
 10
9327.90213213865
 20
1584.596540492229
 30
0.0
 11
9321.471351520305
 21
1608.596540492229
 31
0.0
  0
LINE
  5
2F0F4
330
747D
100
AcDbEntity
  8
細線
 48
50.0
100
AcDbLine
 10
9249.014087191397
 20
1584.596540492229
 30
0.0
 11
9242.583306573051
 21
1608.596540492229
 31
0.0
  0
LINE
  5
2F0F5
330
747D
100
AcDbEntity
  8
細線
100
AcDbLine
 10
9237.888971129127
 20
1608.596540492229
 30
0.0
 11
9329.587886782475
 21
1700.295456145579
 31
0.0
  0
LINE
  5
2F0F6
330
747D
100
AcDbEntity
  8
細線
100
AcDbLine
 10
9271.830096626082
 20
1608.596540492229
 30
0.0
 11
9363.529012279428
 21
1700.295456145579
 31
0.0
  0
LINE
  5
2F0F7
330
747D
100
AcDbEntity
  8
細線
100
AcDbLine
 10
9660.103226036788
 20
1700.295456145579
 30
0.0
 11
9420.103226036786
 21
1940.295456145579
 31
0.0
  0
LINE
  5
2F0F8
330
747D
100
AcDbEntity
  8
細線
100
AcDbLine
 10
9711.014914282216
 20
1700.295456145581
 30
0.0
 11
9471.014914282219
 21
1940.295456145579
 31
0.0
  0
LINE
  5
2F0F9
330
747D
100
AcDbEntity
  8
部品1
100
AcDbLine
 10
9724.852576629798
 20
1940.295456145579
 30
0.0
 11
9724.852576629798
 21
1700.295456145579
 31
0.0
  0
LINE
  5
2F0FA
330
747D
100
AcDbEntity
  8
細線
 48
50.0
100
AcDbLine
 10
9694.475640862044
 20
1480.596540492226
 30
0.0
 11
9728.773137493231
 21
1608.596540492226
 31
0.0
  0
LINE
  5
2F0FB
330
747D
100
AcDbEntity
  8
細線
100
AcDbLine
 10
9665.771222123041
 20
1608.596540492231
 30
0.0
 11
9757.470137776387
 21
1700.295456145579
 31
0.0
  0
LINE
  5
2F0FC
330
747D
100
AcDbEntity
  8
細線
 48
50.0
100
AcDbLine
 10
9615.587595914796
 20
1480.596540492228
 30
0.0
 11
9649.885092545972
 21
1608.596540492229
 31
0.0
  0
LINE
  5
2F0FD
330
747D
100
AcDbEntity
  8
細線
 48
50.0
100
AcDbLine
 10
9457.811506020306
 20
1480.596540492228
 30
0.0
 11
9492.109002651487
 21
1608.596540492228
 31
0.0
  0
LINE
  5
2F0FE
330
747D
100
AcDbEntity
  8
細線
 48
50.0
100
AcDbLine
 10
9536.699550967547
 20
1480.596540492229
 30
0.0
 11
9570.997047598732
 21
1608.596540492228
 31
0.0
  0
LINE
  5
2F0FF
330
747D
100
AcDbEntity
  8
細線
 48
50.0
100
AcDbLine
 10
9543.130331585901
 20
1504.596540492229
 30
0.0
 11
9549.561112204246
 21
1480.596540492229
 31
0.0
  0
LINE
  5
2F100
330
747D
100
AcDbEntity
  8
細線
 48
50.0
100
AcDbLine
 10
9464.242286638656
 20
1504.596540492229
 30
0.0
 11
9470.673067257001
 21
1480.596540492229
 31
0.0
  0
LINE
  5
2F101
330
747D
100
AcDbEntity
  8
細線
 48
50.0
100
AcDbLine
 10
9622.018376533146
 20
1504.596540492229
 30
0.0
 11
9628.449157151504
 21
1480.596540492229
 31
0.0
  0
LINE
  5
2F102
330
747D
100
AcDbEntity
  8
細線
 48
50.0
100
AcDbLine
 10
9700.906421480397
 20
1504.596540492228
 30
0.0
 11
9707.337202098742
 21
1480.596540492228
 31
0.0
  0
LINE
  5
2F103
330
747D
100
AcDbEntity
  8
細線
 48
50.0
100
AcDbLine
 10
9564.56626698039
 20
1584.596540492229
 30
0.0
 11
9558.135486362044
 21
1608.596540492229
 31
0.0
  0
LINE
  5
2F104
330
747D
100
AcDbEntity
  8
細線
 48
50.0
100
AcDbLine
 10
9485.678222033143
 20
1584.596540492229
 30
0.0
 11
9479.247441414798
 21
1608.596540492229
 31
0.0
  0
LINE
  5
2F105
330
747D
100
AcDbEntity
  8
細線
 48
50.0
100
AcDbLine
 10
9406.790177085895
 20
1584.596540492229
 30
0.0
 11
9400.359396467548
 21
1608.596540492229
 31
0.0
  0
LINE
  5
2F106
330
747D
100
AcDbEntity
  8
細線
100
AcDbLine
 10
9631.830096626087
 20
1608.596540492231
 30
0.0
 11
9723.529012279428
 21
1700.295456145579
 31
0.0
  0
LINE
  5
2F107
330
747D
100
AcDbEntity
  8
細線
 48
50.0
100
AcDbLine
 10
9643.454311927628
 20
1584.596540492229
 30
0.0
 11
9637.023531309282
 21
1608.596540492229
 31
0.0
  0
LINE
  5
2F108
330
747D
100
AcDbEntity
  8
細線
100
AcDbLine
 10
9597.88897112913
 20
1608.596540492231
 30
0.0
 11
9689.587886782476
 21
1700.295456145579
 31
0.0
  0
LINE
  5
2F109
330
747D
100
AcDbEntity
  8
細線
 48
50.0
100
AcDbLine
 10
9722.342356874884
 20
1584.596540492228
 30
0.0
 11
9715.911576256537
 21
1608.596540492228
 31
0.0
  0
LINE
  5
2F10A
330
747D
100
AcDbEntity
  8
細線
 48
50.0
100
AcDbLine
 10
9773.363685809291
 20
1480.596540492228
 30
0.0
 11
9807.661182440476
 21
1608.596540492226
 31
0.0
  0
LINE
  5
2F10B
330
747D
100
AcDbEntity
  8
部品1
100
AcDbLine
 10
9844.852576629797
 20
1700.295456145579
 30
0.0
 11
9844.852576629801
 21
1480.596540492229
 31
0.0
  0
LINE
  5
2F10C
330
747D
100
AcDbEntity
  8
細線
 48
50.0
100
AcDbLine
 10
9779.79446642764
 20
1504.596540492228
 30
0.0
 11
9786.22524704599
 21
1480.596540492228
 31
0.0
  0
LINE
  5
2F10D
330
747D
100
AcDbEntity
  8
細線
 48
50.0
100
AcDbLine
 10
9801.230401822131
 20
1584.596540492228
 30
0.0
 11
9794.799621203784
 21
1608.596540492228
 31
0.0
  0
LEADER
  5
2F10E
330
747D
100
AcDbEntity
  8
寸法
 48
50.0
100
AcDbLeader
  3
INABA_S50G
 73
     0
 74
     0
 75
     1
 40
120.0
 41
185.591883092037
 76
     3
 10
9655.576988245721
 20
1940.295456145579
 30
0.0
 10
9688.715194879366
 20
2112.441776826717
 30
0.0
 10
9813.715194879366
 20
2112.441776826717
 30
0.0
340
2F10F
1001
ACAD
1000
DSTYLE
1002
{
1070
    40
1040
1.0
1002
}
  0
MTEXT
  5
2F10F
102
{ACAD_REACTORS
330
2F10E
102
}
330
747D
100
AcDbEntity
  8
寸法
 62
     7
 48
50.0
100
AcDbMText
 10
9838.715194879366
 20
2197.441776826717
 30
0.0
 40
120.0
 41
0.8
 71
     4
 72
     1
  1
\A1;C.B
  7
STYLE1
 73
     1
 44
1.0
1001
ACAD
1000
MTEXTBEGIN
1070
    73
1070
     1
1070
    44
1040
1.0
1070
    74
1070
     0
1000
MTEXTEND
  0
TEXT
  5
2F1A0
330
747D
100
AcDbEntity
  8
文字
 62
     7
 48
50.0
100
AcDbText
 10
16307.78595799787
 20
0.1862994167713623
 30
0.0
 40
1.0
  1
at
  7
STYLE2
100
AcDbText
  0
ENDSEC
  0
SECTION
  2
OBJECTS
  0
DICTIONARY
  5
7471
330
0
100
AcDbDictionary
281
     1
  3
ACAD_COLOR
350
173D2
  3
ACAD_GROUP
350
7472
  3
ACAD_LAYOUT
350
173D3
  3
ACAD_MATERIAL
350
173D1
  3
ACAD_MLINESTYLE
350
7473
  3
ACAD_PLOTSETTINGS
350
173D4
  3
ACAD_PLOTSTYLENAME
350
173CF
  3
ACDBHEADERROUNDTRIPXREC
350
2F1C7
  3
AcDbVariableDictionary
350
2EBF8
  3
CONTENTDICTIONARY
350
E71C
  3
DRAWINGVARIABLESDICT
350
F3B9
  0
DICTIONARY
  5
1758F
330
7467
100
AcDbDictionary
280
     1
281
     1
  3
ACAD_LAYERSTATES
360
17590
  0
DICTIONARY
  5
173D2
102
{ACAD_REACTORS
330
7471
102
}
330
7471
100
AcDbDictionary
281
     1
  0
DICTIONARY
  5
7472
102
{ACAD_REACTORS
330
7471
102
}
330
7471
100
AcDbDictionary
281
     1
  3
*A1
350
1D2A9
  0
DICTIONARY
  5
173D3
102
{ACAD_REACTORS
330
7471
102
}
330
7471
100
AcDbDictionary
281
     1
  3
Model
350
173D5
  3
レイアウト1
350
173D6
  0
DICTIONARY
  5
173D1
102
{ACAD_REACTORS
330
7471
102
}
330
7471
100
AcDbDictionary
281
     1
  0
DICTIONARY
  5
7473
102
{ACAD_REACTORS
330
7471
102
}
330
7471
100
AcDbDictionary
281
     1
  3
STANDARD
350
7480
  0
DICTIONARY
  5
173D4
102
{ACAD_REACTORS
330
7471
102
}
330
7471
100
AcDbDictionary
281
     1
  0
ACDBDICTIONARYWDFLT
  5
173CF
102
{ACAD_REACTORS
330
7471
102
}
330
7471
100
AcDbDictionary
281
     1
  3
Normal
350
173D0
100
AcDbDictionaryWithDefault
340
173D0
  0
DICTIONARY
  5
2F1C7
102
{ACAD_REACTORS
330
7471
102
}
330
7471
100
AcDbDictionary
281
     1
  3
COLORDICT
350
2F1C9
  3
MATERIALDICT
350
2F1C8
  0
DICTIONARY
  5
2EBF8
102
{ACAD_REACTORS
330
7471
102
}
330
7471
100
AcDbDictionary
281
     1
  3
DIMASSOC
350
2EBF9
  3
PROJECTNAME
350
2EBFA
  0
DICTIONARY
  5
E71C
102
{ACAD_REACTORS
330
7471
102
}
330
7471
100
AcDbDictionary
281
     1
  0
DICTIONARY
  5
F3B9
102
{ACAD_REACTORS
330
7471
102
}
330
7471
100
AcDbDictionary
281
     1
1001
DRAWINGVARIABLESXDATA
1000
POLARMODE
1000
1
  0
DICTIONARY
  5
17590
102
{ACAD_REACTORS
330
1758F
102
}
330
1758F
100
AcDbDictionary
281
     1
  0
GROUP
  5
1D2A9
102
{ACAD_REACTORS
330
7472
102
}
330
7472
100
AcDbGroup
300

 70
     1
 71
     1
  0
LAYOUT
  5
173D5
102
{ACAD_XDICTIONARY
360
2F1CA
102
}
102
{ACAD_REACTORS
330
173D3
102
}
330
173D3
100
AcDbPlotSettings
  1

  2
Microsoft Office Document Image Writer
  4

  6

 40
0.0
 41
0.0
 42
0.0
 43
0.0
 44
0.0
 45
0.0
 46
0.0
 47
0.0
 48
0.0
 49
0.0
140
0.0
141
0.0
142
1.0
143
1.0
 70
  1712
 72
     0
 73
     0
 74
     0
  7

 75
     0
147
1.0
148
0.0
149
0.0
100
AcDbLayout
  1
Model
 70
     1
 71
     0
 10
0.0
 20
0.0
 11
12.0
 21
9.0
 12
0.0
 22
0.0
 32
0.0
 14
0.0
 24
0.0
 34
0.0
 15
0.0
 25
0.0
 35
0.0
146
0.0
 13
0.0
 23
0.0
 33
0.0
 16
1.0
 26
0.0
 36
0.0
 17
0.0
 27
1.0
 37
0.0
 76
     0
330
747D
  0
LAYOUT
  5
173D6
102
{ACAD_XDICTIONARY
360
2F1CC
102
}
102
{ACAD_REACTORS
330
173D3
102
}
330
173D3
100
AcDbPlotSettings
  1

  2
Microsoft Office Document Image Writer
  4

  6

 40
0.0
 41
0.0
 42
0.0
 43
0.0
 44
0.0
 45
0.0
 46
0.0
 47
0.0
 48
0.0
 49
0.0
140
0.0
141
0.0
142
1.0
143
1.0
 70
   688
 72
     0
 73
     0
 74
     5
  7

 75
    16
147
1.0
148
0.0
149
0.0
100
AcDbLayout
  1
レイアウト1
 70
     0
 71
     1
 10
0.0
 20
0.0
 11
420.0
 21
297.0
 12
0.0
 22
0.0
 32
0.0
 14
1.000000000000000E+20
 24
1.000000000000000E+20
 34
1.000000000000000E+20
 15
-1.000000000000000E+20
 25
-1.000000000000000E+20
 35
-1.000000000000000E+20
146
0.0
 13
0.0
 23
0.0
 33
0.0
 16
1.0
 26
0.0
 36
0.0
 17
0.0
 27
1.0
 37
0.0
 76
     0
330
747A
  0
MLINESTYLE
  5
7480
102
{ACAD_REACTORS
330
7473
102
}
330
7473
100
AcDbMlineStyle
  2
STANDARD
 70
     0
  3

 62
     0
 51
90.0
 52
90.0
 71
     2
 49
0.5
 62
   256
  6
BYLAYER
 49
-0.5
 62
   256
  6
BYLAYER
  0
ACDBPLACEHOLDER
  5
173D0
102
{ACAD_REACTORS
330
173CF
102
}
330
173CF
  0
XRECORD
  5
2F1C9
102
{ACAD_REACTORS
330
2F1C7
102
}
330
2F1C7
100
AcDbXrecord
280
     1
340
173D2
  0
XRECORD
  5
2F1C8
102
{ACAD_REACTORS
330
2F1C7
102
}
330
2F1C7
100
AcDbXrecord
280
     1
340
173D1
  0
DICTIONARYVAR
  5
2EBF9
102
{ACAD_REACTORS
330
2EBF8
102
}
330
2EBF8
100
DictionaryVariables
280
     0
  1
1
  0
DICTIONARYVAR
  5
2EBFA
102
{ACAD_REACTORS
330
2EBF8
102
}
330
2EBF8
100
DictionaryVariables
280
     0
  1

  0
DICTIONARY
  5
2F1CA
330
173D5
100
AcDbDictionary
280
     1
281
     1
  3
ACAD_XREC_ROUNDTRIP
360
2F1CB
  0
DICTIONARY
  5
2F1CC
330
173D6
100
AcDbDictionary
280
     1
281
     1
  3
ACAD_XREC_ROUNDTRIP
360
2F1CD
  0
XRECORD
  5
2F1CB
102
{ACAD_REACTORS
330
2F1CA
102
}
330
2F1CA
100
AcDbXrecord
280
     1
102
SHADEPLOT
 70
     0
102
SHADEPLOTRESLEVEL
 70
     2
102
SHADEPLOTCUSTOMDPI
 70
   300
  0
XRECORD
  5
2F1CD
102
{ACAD_REACTORS
330
2F1CC
102
}
330
2F1CC
100
AcDbXrecord
280
     1
102
SHADEPLOT
 70
     0
102
SHADEPLOTRESLEVEL
 70
     2
102
SHADEPLOTCUSTOMDPI
 70
   300
  0
ENDSEC
  0
EOF
