  0
SECTION
  2
HEADER
  9
$ACADVER
  1
AC1015
  9
$ACADMAINTVER
 70
    20
  9
$DWGCODEPAGE
  3
ANSI_932
  9
$INSBASE
 10
0.0
 20
0.0
 30
0.0
  9
$EXTMIN
 10
139.9999999999995
 20
-0.0182460377741832
 30
0.0
  9
$EXTMAX
 10
16308.99050345242
 20
11409.6
 30
0.0
  9
$LIMMIN
 10
0.0
 20
0.0
  9
$LIMMAX
 10
16800.0
 20
11880.0
  9
$ORTHOMODE
 70
     0
  9
$REGENMODE
 70
     1
  9
$FILLMODE
 70
     1
  9
$QTEXTMODE
 70
     0
  9
$MIRRTEXT
 70
     1
  9
$LTSCALE
 40
20.0
  9
$ATTMODE
 70
     1
  9
$TEXTSIZE
 40
4.0
  9
$TRACEWID
 40
1.0
  9
$TEXTSTYLE
  7
STYLE1
  9
$CLAYER
  8
細線
  9
$CELTYPE
  6
BYLAYER
  9
$CECOLOR
 62
   256
  9
$CELTSCALE
 40
50.0
  9
$DISPSILH
 70
     0
  9
$DIMSCALE
 40
40.0
  9
$DIMASZ
 40
2.5
  9
$DIMEXO
 40
0.5
  9
$DIMDLI
 40
7.0
  9
$DIMRND
 40
0.0
  9
$DIMDLE
 40
0.0
  9
$DIMEXE
 40
1.5
  9
$DIMTP
 40
0.0
  9
$DIMTM
 40
0.0
  9
$DIMTXT
 40
3.0
  9
$DIMCEN
 40
0.0
  9
$DIMTSZ
 40
0.0
  9
$DIMTOL
 70
     0
  9
$DIMLIM
 70
     0
  9
$DIMTIH
 70
     0
  9
$DIMTOH
 70
     0
  9
$DIMSE1
 70
     0
  9
$DIMSE2
 70
     0
  9
$DIMTAD
 70
     3
  9
$DIMZIN
 70
     8
  9
$DIMBLK
  1

  9
$DIMASO
 70
     1
  9
$DIMSHO
 70
     1
  9
$DIMPOST
  1

  9
$DIMAPOST
  1

  9
$DIMALT
 70
     0
  9
$DIMALTD
 70
     2
  9
$DIMALTF
 40
0.0394
  9
$DIMLFAC
 40
1.0
  9
$DIMTOFL
 70
     1
  9
$DIMTVP
 40
0.0
  9
$DIMTIX
 70
     1
  9
$DIMSOXD
 70
     0
  9
$DIMSAH
 70
     1
  9
$DIMBLK1
  1
DOTSMALL
  9
$DIMBLK2
  1
DOTSMALL
  9
$DIMSTYLE
  2
INABA_S40G
  9
$DIMCLRD
 70
     0
  9
$DIMCLRE
 70
     0
  9
$DIMCLRT
 70
     7
  9
$DIMTFAC
 40
1.0
  9
$DIMGAP
 40
1.0
  9
$DIMJUST
 70
     0
  9
$DIMSD1
 70
     0
  9
$DIMSD2
 70
     0
  9
$DIMTOLJ
 70
     1
  9
$DIMTZIN
 70
     0
  9
$DIMALTZ
 70
     0
  9
$DIMALTTZ
 70
     0
  9
$DIMUPT
 70
     0
  9
$DIMDEC
 70
     1
  9
$DIMTDEC
 70
     4
  9
$DIMALTU
 70
     2
  9
$DIMALTTD
 70
     2
  9
$DIMTXSTY
  7
STYLE1
  9
$DIMAUNIT
 70
     0
  9
$DIMADEC
 70
     0
  9
$DIMALTRND
 40
0.0
  9
$DIMAZIN
 70
     0
  9
$DIMDSEP
 70
    46
  9
$DIMATFIT
 70
     3
  9
$DIMFRAC
 70
     0
  9
$DIMLDRBLK
  1

  9
$DIMLUNIT
 70
     2
  9
$DIMLWD
 70
    -2
  9
$DIMLWE
 70
    -2
  9
$DIMTMOVE
 70
     0
  9
$LUNITS
 70
     2
  9
$LUPREC
 70
     1
  9
$SKETCHINC
 40
1.0
  9
$FILLETRAD
 40
3.0
  9
$AUNITS
 70
     0
  9
$AUPREC
 70
     0
  9
$MENU
  1
acad
  9
$ELEVATION
 40
0.0
  9
$PELEVATION
 40
0.0
  9
$THICKNESS
 40
0.0
  9
$LIMCHECK
 70
     0
  9
$CHAMFERA
 40
0.0
  9
$CHAMFERB
 40
0.0
  9
$CHAMFERC
 40
0.0
  9
$CHAMFERD
 40
0.0
  9
$SKPOLY
 70
     0
  9
$TDCREATE
 40
2451368.612993866
  9
$TDUCREATE
 40
2451368.237993866
  9
$TDUPDATE
 40
2455827.391427905
  9
$TDUUPDATE
 40
2455827.016427905
  9
$TDINDWG
 40
0.8584629398
  9
$TDUSRTIMER
 40
0.8584629398
  9
$USRTIMER
 70
     1
  9
$ANGBASE
 50
0.0
  9
$ANGDIR
 70
     0
  9
$PDMODE
 70
     3
  9
$PDSIZE
 40
2.0
  9
$PLINEWID
 40
0.0
  9
$SPLFRAME
 70
     0
  9
$SPLINETYPE
 70
     6
  9
$SPLINESEGS
 70
     8
  9
$HANDSEED
  5
29163
  9
$SURFTAB1
 70
     6
  9
$SURFTAB2
 70
     6
  9
$SURFTYPE
 70
     6
  9
$SURFU
 70
     6
  9
$SURFV
 70
     6
  9
$UCSBASE
  2

  9
$UCSNAME
  2

  9
$UCSORG
 10
0.0
 20
0.0
 30
0.0
  9
$UCSXDIR
 10
1.0
 20
0.0
 30
0.0
  9
$UCSYDIR
 10
0.0
 20
1.0
 30
0.0
  9
$UCSORTHOREF
  2

  9
$UCSORTHOVIEW
 70
     0
  9
$UCSORGTOP
 10
0.0
 20
0.0
 30
0.0
  9
$UCSORGBOTTOM
 10
0.0
 20
0.0
 30
0.0
  9
$UCSORGLEFT
 10
0.0
 20
0.0
 30
0.0
  9
$UCSORGRIGHT
 10
0.0
 20
0.0
 30
0.0
  9
$UCSORGFRONT
 10
0.0
 20
0.0
 30
0.0
  9
$UCSORGBACK
 10
0.0
 20
0.0
 30
0.0
  9
$PUCSBASE
  2

  9
$PUCSNAME
  2

  9
$PUCSORG
 10
0.0
 20
0.0
 30
0.0
  9
$PUCSXDIR
 10
1.0
 20
0.0
 30
0.0
  9
$PUCSYDIR
 10
0.0
 20
1.0
 30
0.0
  9
$PUCSORTHOREF
  2

  9
$PUCSORTHOVIEW
 70
     0
  9
$PUCSORGTOP
 10
0.0
 20
0.0
 30
0.0
  9
$PUCSORGBOTTOM
 10
0.0
 20
0.0
 30
0.0
  9
$PUCSORGLEFT
 10
0.0
 20
0.0
 30
0.0
  9
$PUCSORGRIGHT
 10
0.0
 20
0.0
 30
0.0
  9
$PUCSORGFRONT
 10
0.0
 20
0.0
 30
0.0
  9
$PUCSORGBACK
 10
0.0
 20
0.0
 30
0.0
  9
$USERI1
 70
     0
  9
$USERI2
 70
     0
  9
$USERI3
 70
     0
  9
$USERI4
 70
     0
  9
$USERI5
 70
     0
  9
$USERR1
 40
0.0
  9
$USERR2
 40
0.0
  9
$USERR3
 40
0.0
  9
$USERR4
 40
0.0
  9
$USERR5
 40
0.0
  9
$WORLDVIEW
 70
     1
  9
$SHADEDGE
 70
     3
  9
$SHADEDIF
 70
    70
  9
$TILEMODE
 70
     1
  9
$MAXACTVP
 70
    16
  9
$PINSBASE
 10
0.0
 20
0.0
 30
0.0
  9
$PLIMCHECK
 70
     0
  9
$PEXTMIN
 10
1.000000000000000E+20
 20
1.000000000000000E+20
 30
1.000000000000000E+20
  9
$PEXTMAX
 10
-1.000000000000000E+20
 20
-1.000000000000000E+20
 30
-1.000000000000000E+20
  9
$PLIMMIN
 10
0.0
 20
0.0
  9
$PLIMMAX
 10
420.0
 20
297.0
  9
$UNITMODE
 70
     0
  9
$VISRETAIN
 70
     0
  9
$PLINEGEN
 70
     0
  9
$PSLTSCALE
 70
     0
  9
$TREEDEPTH
 70
  3020
  9
$CMLSTYLE
  2
STANDARD
  9
$CMLJUST
 70
     0
  9
$CMLSCALE
 40
1.0
  9
$PROXYGRAPHICS
 70
     1
  9
$MEASUREMENT
 70
     1
  9
$CELWEIGHT
370
    -1
  9
$ENDCAPS
280
     0
  9
$JOINSTYLE
280
     0
  9
$LWDISPLAY
290
     0
  9
$INSUNITS
 70
     0
  9
$HYPERLINKBASE
  1

  9
$STYLESHEET
  1
inaba.ctb
  9
$XEDIT
290
     1
  9
$CEPSNTYPE
380
     0
  9
$PSTYLEMODE
290
     1
  9
$FINGERPRINTGUID
  2
{5EAC461A-2277-4BF8-9AB0-99C43BB394F0}
  9
$VERSIONGUID
  2
{5CC3BC04-ACF1-41CE-BB38-E9C681051030}
  9
$EXTNAMES
290
     1
  9
$PSVPSCALE
 40
0.0
  9
$OLESTARTUP
290
     0
  0
ENDSEC
  0
SECTION
  2
CLASSES
  0
CLASS
  1
ACDBDICTIONARYWDFLT
  2
AcDbDictionaryWithDefault
  3
ObjectDBX Classes
 90
        0
280
     0
281
     0
  0
CLASS
  1
DICTIONARYVAR
  2
AcDbDictionaryVar
  3
ObjectDBX Classes
 90
        0
280
     0
281
     0
  0
CLASS
  1
ACDBPLACEHOLDER
  2
AcDbPlaceHolder
  3
ObjectDBX Classes
 90
        0
280
     0
281
     0
  0
CLASS
  1
LAYOUT
  2
AcDbLayout
  3
ObjectDBX Classes
 90
        0
280
     0
281
     0
  0
ENDSEC
  0
SECTION
  2
TABLES
  0
TABLE
  2
VPORT
  5
746D
330
0
100
AcDbSymbolTable
 70
     2
  0
VPORT
  5
2915B
330
746D
100
AcDbSymbolTableRecord
100
AcDbViewportTableRecord
  2
*Active
 70
     0
 10
0.0
 20
0.0
 11
1.0
 21
1.0
 12
8224.401894379873
 22
5855.814192697659
 13
0.0
 23
0.0
 14
10.0
 24
10.0
 15
10.0
 25
10.0
 16
0.0
 26
0.0
 36
1.0
 17
0.0
 27
0.0
 37
0.0
 40
11803.44234011325
 41
1.522222222222222
 42
50.0
 43
0.0
 44
0.0
 50
0.0
 51
0.0
 71
     0
 72
     0
 73
     1
 74
     0
 75
     0
 76
     0
 77
     0
 78
     0
281
     0
 65
     1
110
0.0
120
0.0
130
0.0
111
1.0
121
0.0
131
0.0
112
0.0
122
1.0
132
0.0
 79
     0
146
0.0
  0
ENDTAB
  0
TABLE
  2
LTYPE
  5
746A
330
0
100
AcDbSymbolTable
 70
     5
  0
LTYPE
  5
7477
330
746A
100
AcDbSymbolTableRecord
100
AcDbLinetypeTableRecord
  2
BYBLOCK
 70
     0
  3

 72
    65
 73
     0
 40
0.0
  0
LTYPE
  5
7478
330
746A
100
AcDbSymbolTableRecord
100
AcDbLinetypeTableRecord
  2
BYLAYER
 70
     0
  3

 72
    65
 73
     0
 40
0.0
  0
LTYPE
  5
7479
330
746A
100
AcDbSymbolTableRecord
100
AcDbLinetypeTableRecord
  2
CONTINUOUS
 70
     0
  3
Solid line
 72
    65
 73
     0
 40
0.0
  0
LTYPE
  5
7816
330
746A
100
AcDbSymbolTableRecord
100
AcDbLinetypeTableRecord
  2
CENTER
 70
     0
  3
____ _ ____ _ ____ _ ____ _ ____ _ ____ _ ____ 
 72
    65
 73
     4
 40
2.0
 49
1.25
 74
     0
 49
-0.25
 74
     0
 49
0.25
 74
     0
 49
-0.25
 74
     0
  0
LTYPE
  5
781A
330
746A
100
AcDbSymbolTableRecord
100
AcDbLinetypeTableRecord
  2
HIDDEN
 70
     0
  3
__ __ __ __ __ __ __ __ __ __ __ __ __ __ __ __
 72
    65
 73
     2
 40
0.375
 49
0.25
 74
     0
 49
-0.125
 74
     0
  0
LTYPE
  5
781B
330
746A
100
AcDbSymbolTableRecord
100
AcDbLinetypeTableRecord
  2
PHANTOM
 70
     0
  3
______  __  __  ______  __  __  ______  __  __ 
 72
    65
 73
     6
 40
2.5
 49
1.25
 74
     0
 49
-0.25
 74
     0
 49
0.25
 74
     0
 49
-0.25
 74
     0
 49
0.25
 74
     0
 49
-0.25
 74
     0
  0
LTYPE
  5
12CC3
330
746A
100
AcDbSymbolTableRecord
100
AcDbLinetypeTableRecord
  2
HIDDENX2
 70
     0
  3
Hidden (2x) ____ ____ ____ ____ ____ ____ ____
 72
    65
 73
     2
 40
19.05
 49
12.7
 74
     0
 49
-6.349999999999999
 74
     0
  0
ENDTAB
  0
TABLE
  2
LAYER
  5
7467
102
{ACAD_XDICTIONARY
360
1758F
102
}
330
0
100
AcDbSymbolTable
 70
    12
  0
LAYER
  5
7474
330
7467
100
AcDbSymbolTableRecord
100
AcDbLayerTableRecord
  2
0
 70
     0
 62
     7
  6
CONTINUOUS
370
    -3
390
173D0
  0
LAYER
  5
DEB2
330
7467
100
AcDbSymbolTableRecord
100
AcDbLayerTableRecord
  2
センター
 70
     0
 62
     3
  6
CENTER
370
    -3
390
173D0
  0
LAYER
  5
DEB3
330
7467
100
AcDbSymbolTableRecord
100
AcDbLayerTableRecord
  2
寸法
 70
     0
 62
     4
  6
CONTINUOUS
370
    -3
390
173D0
  0
LAYER
  5
DEB4
330
7467
100
AcDbSymbolTableRecord
100
AcDbLayerTableRecord
  2
部品1
 70
     0
 62
     7
  6
CONTINUOUS
370
    -3
390
173D0
  0
LAYER
  5
DEB5
330
7467
100
AcDbSymbolTableRecord
100
AcDbLayerTableRecord
  2
補助
 70
     0
 62
    -1
  6
CONTINUOUS
370
    -3
390
173D0
  0
LAYER
  5
DEB6
330
7467
100
AcDbSymbolTableRecord
100
AcDbLayerTableRecord
  2
文字
 70
     0
 62
     7
  6
CONTINUOUS
370
    -3
390
173D0
  0
LAYER
  5
F255
330
7467
100
AcDbSymbolTableRecord
100
AcDbLayerTableRecord
  2
DEFPOINTS
 70
     0
 62
     7
  6
CONTINUOUS
290
     0
370
    -3
390
173D0
  0
LAYER
  5
10B54
330
7467
100
AcDbSymbolTableRecord
100
AcDbLayerTableRecord
  2
仕様書枠
 70
     0
 62
   230
  6
CONTINUOUS
370
    -3
390
173D0
  0
LAYER
  5
11729
330
7467
100
AcDbSymbolTableRecord
100
AcDbLayerTableRecord
  2
Ｇ．Ｌ
 70
     0
 62
    30
  6
CONTINUOUS
370
    -3
390
173D0
  0
LAYER
  5
1173F
330
7467
100
AcDbSymbolTableRecord
100
AcDbLayerTableRecord
  2
細線
 70
     0
 62
     5
  6
CONTINUOUS
370
    -3
390
173D0
  0
LAYER
  5
12CC4
330
7467
100
AcDbSymbolTableRecord
100
AcDbLayerTableRecord
  2
想像線
 70
     0
 62
     6
  6
PHANTOM
370
    -3
390
173D0
  0
LAYER
  5
142E2
330
7467
100
AcDbSymbolTableRecord
100
AcDbLayerTableRecord
  2
破線
 70
     0
 62
     2
  6
HIDDEN
370
    -3
390
173D0
  0
ENDTAB
  0
TABLE
  2
STYLE
  5
7468
330
0
100
AcDbSymbolTable
 70
     7
  0
STYLE
  5
7475
330
7468
100
AcDbSymbolTableRecord
100
AcDbTextStyleTableRecord
  2
STANDARD
 70
     0
 40
0.0
 41
1.0
 50
0.0
 71
     0
 42
4.0
  3
txt
  4
C:\AutoCAD LT\bigfont.shx
  0
STYLE
  5
763C
330
7468
100
AcDbSymbolTableRecord
100
AcDbTextStyleTableRecord
  2
MSMINCHO
 70
     0
 40
0.0
 41
1.0
 50
0.0
 71
     0
 42
1.199999999999999
  3
C:\AutoCAD LT\msminch2.TTF
  4

  0
STYLE
  5
F706
330
7468
100
AcDbSymbolTableRecord
100
AcDbTextStyleTableRecord
  2
STYLE1
 70
     0
 40
0.0
 41
1.0
 50
0.0
 71
     0
 42
4.0
  3
isocp.shx
  4
bigfont.shx
  0
STYLE
  5
103BF
330
7468
100
AcDbSymbolTableRecord
100
AcDbTextStyleTableRecord
  2
STYLE2
 70
     0
 40
0.0
 41
1.0
 50
0.0
 71
     0
 42
100.0
  3
MS PGothic.ttf
  4

1001
ACAD
1000
MS PGothic
1071
    32818
  0
STYLE
  5
10BAA
330
7468
100
AcDbSymbolTableRecord
100
AcDbTextStyleTableRecord
  2
STYLE3
 70
     0
 40
0.0
 41
1.0
 50
0.0
 71
     0
 42
100.0
  3

  4

1001
ACAD
1000
DFPGothic-EB
1071
    32818
  0
STYLE
  5
11A15
330
7468
100
AcDbSymbolTableRecord
100
AcDbTextStyleTableRecord
  2
MSGOTHIC
 70
     0
 40
0.0
 41
1.0
 50
0.0
 71
     0
 42
3.5
  3
msgothi2.ttf
  4

  0
STYLE
  5
13E96
330
7468
100
AcDbSymbolTableRecord
100
AcDbTextStyleTableRecord
  2
MSPゴシック
 70
     0
 40
0.0
 41
1.0
 50
0.0
 71
     0
 42
4.0
  3
MS PGothic.ttf
  4

1001
ACAD
1000
MS PGothic
1071
    32818
  0
ENDTAB
  0
TABLE
  2
VIEW
  5
746B
330
0
100
AcDbSymbolTable
 70
     0
  0
ENDTAB
  0
TABLE
  2
UCS
  5
746C
330
0
100
AcDbSymbolTable
 70
     0
  0
ENDTAB
  0
TABLE
  2
APPID
  5
746E
330
0
100
AcDbSymbolTable
 70
     6
  0
APPID
  5
7476
330
746E
100
AcDbSymbolTableRecord
100
AcDbRegAppTableRecord
  2
ACAD
 70
     0
  0
APPID
  5
DEA9
330
746E
100
AcDbSymbolTableRecord
100
AcDbRegAppTableRecord
  2
CONTENTBLOCKICON
 70
     0
  0
APPID
  5
DEAA
330
746E
100
AcDbSymbolTableRecord
100
AcDbRegAppTableRecord
  2
CONTENTBLOCKDESCRIPTION
 70
     0
  0
APPID
  5
E71D
330
746E
100
AcDbSymbolTableRecord
100
AcDbRegAppTableRecord
  2
CONTENTTABDATA
 70
     0
  0
APPID
  5
E71E
330
746E
100
AcDbSymbolTableRecord
100
AcDbRegAppTableRecord
  2
CONTENTCURRENTTAB
 70
     0
  0
APPID
  5
F3BA
330
746E
100
AcDbSymbolTableRecord
100
AcDbRegAppTableRecord
  2
DRAWINGVARIABLESXDATA
 70
     0
  0
ENDTAB
  0
TABLE
  2
DIMSTYLE
  5
746F
330
0
100
AcDbSymbolTable
 70
     6
100
AcDbDimStyleTable
 71
     1
340
F71F
  0
DIMSTYLE
105
7484
330
746F
100
AcDbSymbolTableRecord
100
AcDbDimStyleTableRecord
  2
JIS
 70
     0
 41
2.5
 42
1.0
 43
7.0
 44
1.0
 73
     0
 74
     0
 77
     1
 78
     8
140
2.5
141
0.0
143
0.0394
147
0.0
172
     1
174
     1
175
     1
340
7475
  0
DIMSTYLE
105
F236
330
746F
100
AcDbSymbolTableRecord
100
AcDbDimStyleTableRecord
  2
INABA_S40
 70
     0
 40
40.0
 41
2.5
 42
0.5
 43
7.0
 44
1.5
 73
     0
 74
     0
 77
     3
 78
     8
140
3.0
141
0.0
143
0.0394
147
1.0
172
     1
173
     1
174
     1
175
     1
178
     7
289
     0
340
7475
341
DEAC
343
DEAC
344
DEAC
  0
DIMSTYLE
105
F71F
102
{ACAD_REACTORS
330
20DE1
330
20DFB
330
22741
330
2275B
330
23FDA
330
23FD9
330
24043
330
28518
330
284E7
330
28481
330
28480
330
2847C
330
2847B
330
28457
330
28436
330
28435
330
28434
330
283C6
330
283C0
330
283BE
330
283BD
330
283BC
330
283BB
330
283B5
330
283B4
330
283CB
330
283CD
330
283C2
330
283C1
330
283D2
330
283BF
330
28F8B
330
28F8C
330
28F94
330
28F9B
330
28F9E
330
28FFE
102
}
330
746F
100
AcDbSymbolTableRecord
100
AcDbDimStyleTableRecord
  2
INABA_S40G
 70
     0
 40
40.0
 41
2.5
 42
0.5
 43
7.0
 44
1.5
 73
     0
 74
     0
 77
     3
 78
     8
140
3.0
141
0.0
143
0.0394
147
1.0
172
     1
173
     1
174
     1
178
     7
271
     1
340
F706
341
F770
343
F770
344
F770
  0
DIMSTYLE
105
142E3
330
746F
100
AcDbSymbolTableRecord
100
AcDbDimStyleTableRecord
  2
INABA_S1
 70
     0
 40
0.0
 41
2.5
 42
0.5
 43
7.0
 44
1.5
 73
     0
 74
     0
 77
     3
 78
     8
140
3.0
141
0.0
143
0.0394
146
0.5
147
0.5
172
     1
173
     1
176
   256
177
   256
178
     7
271
     2
272
     2
284
     8
288
     1
340
7475
341
DEAC
343
DEAC
344
DEAC
  0
DIMSTYLE
105
14463
330
746F
100
AcDbSymbolTableRecord
100
AcDbDimStyleTableRecord
  2
INABA_S30G
 70
     0
 40
30.0
 41
2.5
 42
0.5
 43
7.0
 44
1.5
 73
     0
 74
     0
 77
     3
 78
     8
140
3.0
141
0.0
143
0.0394
147
1.0
172
     1
173
     1
174
     1
175
     1
178
     7
271
     1
340
F706
341
F770
343
F770
344
F770
  0
DIMSTYLE
105
1758E
330
746F
100
AcDbSymbolTableRecord
100
AcDbDimStyleTableRecord
  2
INABA_S50G
 70
     0
 41
125.0
 42
25.0
 43
7.0
 44
75.0
 73
     0
 74
     0
 77
     3
 78
     8
140
150.0
141
0.0
143
0.0394
147
25.0
172
     1
173
     1
174
     1
175
     1
178
     7
271
     1
340
F706
341
F770
343
F770
344
F770
  0
ENDTAB
  0
TABLE
  2
BLOCK_RECORD
  5
7466
330
0
100
AcDbSymbolTable
 70
    56
  0
BLOCK_RECORD
  5
747D
330
7466
100
AcDbSymbolTableRecord
100
AcDbBlockTableRecord
  2
*MODEL_SPACE
340
173D5
  0
BLOCK_RECORD
  5
747A
330
7466
100
AcDbSymbolTableRecord
100
AcDbBlockTableRecord
  2
*PAPER_SPACE
340
173D6
  0
BLOCK_RECORD
  5
DEAC
330
7466
100
AcDbSymbolTableRecord
100
AcDbBlockTableRecord
  2
_OPEN
340
0
  0
BLOCK_RECORD
  5
F770
330
7466
100
AcDbSymbolTableRecord
100
AcDbBlockTableRecord
  2
_DOTSMALL
340
0
102
{BLKREFS
331
18C65
331
18C66
331
18C59
331
18C5A
331
18C4D
331
18C4E
331
18C41
331
18C42
331
18C35
331
18C36
331
18C29
331
18C2A
331
18C1D
331
18C1E
331
18C0F
331
18C10
331
18C03
331
18C04
331
18BF5
331
18BF6
331
18BE7
331
18BE8
331
18BD9
331
18BDA
331
18BCD
331
18BCE
331
28AF5
331
28AF6
331
28AFE
331
28AFF
331
28B2B
331
28B2C
331
28B35
331
28B36
331
28B3F
331
28B40
331
28B48
331
28B49
331
28B7E
331
28B7F
331
28B90
331
28B91
331
28B99
331
28B9A
331
28BB5
331
28BB6
331
28BDC
331
28BDD
331
28BE6
331
28BE7
331
28BFB
331
28BFC
331
28C06
331
28C07
331
28C11
331
28C12
331
28C35
331
28C36
331
28C3E
331
28C3F
331
28C63
331
28C64
331
28C7E
331
28C7F
331
28C90
331
28C91
331
28CA2
331
28CA3
331
28CB4
331
28CB5
331
28CC6
331
28CC7
331
28CD8
331
28CD9
331
28CEA
331
28CEB
331
28CF3
331
28CF4
331
28CFC
331
28CFD
331
28D05
331
28D06
331
28D0E
331
28D0F
331
28DC2
331
28DC3
331
28DF9
331
28DFA
331
29104
331
29105
331
2910F
331
29110
331
29118
331
29119
331
29121
331
29122
331
2912A
331
2912B
331
29133
331
29134
102
}
  0
BLOCK_RECORD
  5
164B4
330
7466
100
AcDbSymbolTableRecord
100
AcDbBlockTableRecord
  2
_DOT
340
0
102
{BLKREFS
331
18C73
331
18C74
102
}
  0
BLOCK_RECORD
  5
18BC8
330
7466
100
AcDbSymbolTableRecord
100
AcDbBlockTableRecord
  2
*D3
340
0
  0
BLOCK_RECORD
  5
18BD4
330
7466
100
AcDbSymbolTableRecord
100
AcDbBlockTableRecord
  2
*D4
340
0
  0
BLOCK_RECORD
  5
18BE0
330
7466
100
AcDbSymbolTableRecord
100
AcDbBlockTableRecord
  2
*D5
340
0
  0
BLOCK_RECORD
  5
18BEE
330
7466
100
AcDbSymbolTableRecord
100
AcDbBlockTableRecord
  2
*D6
340
0
  0
BLOCK_RECORD
  5
18BFC
330
7466
100
AcDbSymbolTableRecord
100
AcDbBlockTableRecord
  2
*D7
340
0
  0
BLOCK_RECORD
  5
18C0A
330
7466
100
AcDbSymbolTableRecord
100
AcDbBlockTableRecord
  2
*D8
340
0
  0
BLOCK_RECORD
  5
18C16
330
7466
100
AcDbSymbolTableRecord
100
AcDbBlockTableRecord
  2
*D9
340
0
  0
BLOCK_RECORD
  5
18C24
330
7466
100
AcDbSymbolTableRecord
100
AcDbBlockTableRecord
  2
*D10
340
0
  0
BLOCK_RECORD
  5
18C30
330
7466
100
AcDbSymbolTableRecord
100
AcDbBlockTableRecord
  2
*D11
340
0
  0
BLOCK_RECORD
  5
18C3C
330
7466
100
AcDbSymbolTableRecord
100
AcDbBlockTableRecord
  2
*D12
340
0
  0
BLOCK_RECORD
  5
18C48
330
7466
100
AcDbSymbolTableRecord
100
AcDbBlockTableRecord
  2
*D13
340
0
  0
BLOCK_RECORD
  5
18C54
330
7466
100
AcDbSymbolTableRecord
100
AcDbBlockTableRecord
  2
*D14
340
0
  0
BLOCK_RECORD
  5
18C60
330
7466
100
AcDbSymbolTableRecord
100
AcDbBlockTableRecord
  2
*D15
340
0
  0
BLOCK_RECORD
  5
18C6C
330
7466
100
AcDbSymbolTableRecord
100
AcDbBlockTableRecord
  2
*D16
340
0
  0
BLOCK_RECORD
  5
18C7A
330
7466
100
AcDbSymbolTableRecord
100
AcDbBlockTableRecord
  2
A$C3B1A506B
340
0
  0
BLOCK_RECORD
  5
1C4CA
330
7466
100
AcDbSymbolTableRecord
100
AcDbBlockTableRecord
  2
_NONE
340
0
  0
BLOCK_RECORD
  5
20DE2
330
7466
100
AcDbSymbolTableRecord
100
AcDbBlockTableRecord
  2
*D19
340
0
  0
BLOCK_RECORD
  5
20DFC
330
7466
100
AcDbSymbolTableRecord
100
AcDbBlockTableRecord
  2
*D20
340
0
  0
BLOCK_RECORD
  5
22742
330
7466
100
AcDbSymbolTableRecord
100
AcDbBlockTableRecord
  2
*D21
340
0
  0
BLOCK_RECORD
  5
2275C
330
7466
100
AcDbSymbolTableRecord
100
AcDbBlockTableRecord
  2
*D22
340
0
  0
BLOCK_RECORD
  5
240C4
330
7466
100
AcDbSymbolTableRecord
100
AcDbBlockTableRecord
  2
*D23
340
0
  0
BLOCK_RECORD
  5
240D1
330
7466
100
AcDbSymbolTableRecord
100
AcDbBlockTableRecord
  2
*D24
340
0
  0
BLOCK_RECORD
  5
240DE
330
7466
100
AcDbSymbolTableRecord
100
AcDbBlockTableRecord
  2
*D25
340
0
  0
BLOCK_RECORD
  5
28528
330
7466
100
AcDbSymbolTableRecord
100
AcDbBlockTableRecord
  2
*D26
340
0
  0
BLOCK_RECORD
  5
28541
330
7466
100
AcDbSymbolTableRecord
100
AcDbBlockTableRecord
  2
*D27
340
0
  0
BLOCK_RECORD
  5
2855B
330
7466
100
AcDbSymbolTableRecord
100
AcDbBlockTableRecord
  2
*D28
340
0
  0
BLOCK_RECORD
  5
28566
330
7466
100
AcDbSymbolTableRecord
100
AcDbBlockTableRecord
  2
*D29
340
0
  0
BLOCK_RECORD
  5
28572
330
7466
100
AcDbSymbolTableRecord
100
AcDbBlockTableRecord
  2
*D30
340
0
  0
BLOCK_RECORD
  5
2857E
330
7466
100
AcDbSymbolTableRecord
100
AcDbBlockTableRecord
  2
*D31
340
0
  0
BLOCK_RECORD
  5
28589
330
7466
100
AcDbSymbolTableRecord
100
AcDbBlockTableRecord
  2
*D32
340
0
  0
BLOCK_RECORD
  5
28595
330
7466
100
AcDbSymbolTableRecord
100
AcDbBlockTableRecord
  2
*D33
340
0
  0
BLOCK_RECORD
  5
285A0
330
7466
100
AcDbSymbolTableRecord
100
AcDbBlockTableRecord
  2
*D34
340
0
  0
BLOCK_RECORD
  5
285AC
330
7466
100
AcDbSymbolTableRecord
100
AcDbBlockTableRecord
  2
*D35
340
0
  0
BLOCK_RECORD
  5
285B8
330
7466
100
AcDbSymbolTableRecord
100
AcDbBlockTableRecord
  2
*D36
340
0
  0
BLOCK_RECORD
  5
285C4
330
7466
100
AcDbSymbolTableRecord
100
AcDbBlockTableRecord
  2
*D37
340
0
  0
BLOCK_RECORD
  5
285D0
330
7466
100
AcDbSymbolTableRecord
100
AcDbBlockTableRecord
  2
*D38
340
0
  0
BLOCK_RECORD
  5
285E8
330
7466
100
AcDbSymbolTableRecord
100
AcDbBlockTableRecord
  2
*D39
340
0
  0
BLOCK_RECORD
  5
285F4
330
7466
100
AcDbSymbolTableRecord
100
AcDbBlockTableRecord
  2
*D40
340
0
  0
BLOCK_RECORD
  5
2860D
330
7466
100
AcDbSymbolTableRecord
100
AcDbBlockTableRecord
  2
*D41
340
0
  0
BLOCK_RECORD
  5
28619
330
7466
100
AcDbSymbolTableRecord
100
AcDbBlockTableRecord
  2
*D42
340
0
  0
BLOCK_RECORD
  5
28624
330
7466
100
AcDbSymbolTableRecord
100
AcDbBlockTableRecord
  2
*D43
340
0
  0
BLOCK_RECORD
  5
28631
330
7466
100
AcDbSymbolTableRecord
100
AcDbBlockTableRecord
  2
*D44
340
0
  0
BLOCK_RECORD
  5
28655
330
7466
100
AcDbSymbolTableRecord
100
AcDbBlockTableRecord
  2
*D45
340
0
  0
BLOCK_RECORD
  5
2866D
330
7466
100
AcDbSymbolTableRecord
100
AcDbBlockTableRecord
  2
*D46
340
0
  0
BLOCK_RECORD
  5
28679
330
7466
100
AcDbSymbolTableRecord
100
AcDbBlockTableRecord
  2
*D47
340
0
  0
BLOCK_RECORD
  5
28685
330
7466
100
AcDbSymbolTableRecord
100
AcDbBlockTableRecord
  2
*D48
340
0
  0
BLOCK_RECORD
  5
28691
330
7466
100
AcDbSymbolTableRecord
100
AcDbBlockTableRecord
  2
*D49
340
0
  0
BLOCK_RECORD
  5
290B7
330
7466
100
AcDbSymbolTableRecord
100
AcDbBlockTableRecord
  2
*D50
340
0
  0
BLOCK_RECORD
  5
290C3
330
7466
100
AcDbSymbolTableRecord
100
AcDbBlockTableRecord
  2
*D51
340
0
  0
BLOCK_RECORD
  5
290D1
330
7466
100
AcDbSymbolTableRecord
100
AcDbBlockTableRecord
  2
*D52
340
0
  0
BLOCK_RECORD
  5
290DD
330
7466
100
AcDbSymbolTableRecord
100
AcDbBlockTableRecord
  2
*D53
340
0
  0
BLOCK_RECORD
  5
290E9
330
7466
100
AcDbSymbolTableRecord
100
AcDbBlockTableRecord
  2
*D54
340
0
  0
BLOCK_RECORD
  5
290F5
330
7466
100
AcDbSymbolTableRecord
100
AcDbBlockTableRecord
  2
*D55
340
0
  0
ENDTAB
  0
ENDSEC
  0
SECTION
  2
BLOCKS
  0
BLOCK
  5
7489
330
747D
100
AcDbEntity
  8
0
100
AcDbBlockBegin
  2
*MODEL_SPACE
 70
     0
 10
0.0
 20
0.0
 30
0.0
  3
*MODEL_SPACE
  1

  0
ENDBLK
  5
748A
330
747D
100
AcDbEntity
  8
0
100
AcDbBlockEnd
  0
BLOCK
  5
7487
330
747A
100
AcDbEntity
 67
     1
  8
0
100
AcDbBlockBegin
  2
*PAPER_SPACE
 70
     0
 10
0.0
 20
0.0
 30
0.0
  3
*PAPER_SPACE
  1

  0
ENDBLK
  5
7488
330
747A
100
AcDbEntity
 67
     1
  8
0
100
AcDbBlockEnd
  0
BLOCK
  5
DEAD
330
DEAC
100
AcDbEntity
  8
0
100
AcDbBlockBegin
  2
_OPEN
 70
     0
 10
0.0
 20
0.0
 30
0.0
  3
_OPEN
  1

  0
LINE
  5
DEAE
330
DEAC
100
AcDbEntity
  8
0
  6
ByBlock
 62
     0
100
AcDbLine
 10
-1.0
 20
0.1666666666666666
 30
0.0
 11
0.0
 21
0.0
 31
0.0
  0
LINE
  5
DEAF
330
DEAC
100
AcDbEntity
  8
0
  6
ByBlock
 62
     0
100
AcDbLine
 10
0.0
 20
0.0
 30
0.0
 11
-1.0
 21
-0.1666666666666666
 31
0.0
  0
LINE
  5
DEB0
330
DEAC
100
AcDbEntity
  8
0
  6
ByBlock
 62
     0
100
AcDbLine
 10
0.0
 20
0.0
 30
0.0
 11
-1.0
 21
0.0
 31
0.0
  0
ENDBLK
  5
DEB1
330
DEAC
100
AcDbEntity
  8
0
100
AcDbBlockEnd
  0
BLOCK
  5
F771
330
F770
100
AcDbEntity
  8
0
 48
50.0
100
AcDbBlockBegin
  2
_DOTSMALL
 70
     0
 10
0.0
 20
0.0
 30
0.0
  3
_DOTSMALL
  1

  0
LWPOLYLINE
  5
F772
330
F770
100
AcDbEntity
  8
0
  6
ByBlock
 62
     0
 48
50.0
100
AcDbPolyline
 90
        2
 70
     1
 43
0.5
 10
-0.0625
 20
0.0
 42
1.0
 10
0.0625
 20
0.0
 42
1.0
  0
ENDBLK
  5
F776
330
F770
100
AcDbEntity
  8
0
 48
50.0
100
AcDbBlockEnd
  0
BLOCK
  5
164BA
330
164B4
100
AcDbEntity
  8
0
 48
50.0
100
AcDbBlockBegin
  2
_DOT
 70
     0
 10
0.0
 20
0.0
 30
0.0
  3
_DOT
  1

  0
LWPOLYLINE
  5
164B5
330
164B4
100
AcDbEntity
  8
0
  6
ByBlock
 62
     0
 48
50.0
100
AcDbPolyline
 90
        2
 70
     1
 43
0.5
 10
-0.25
 20
0.0
 42
1.0
 10
0.25
 20
0.0
 42
1.0
  0
LINE
  5
164B9
330
164B4
100
AcDbEntity
  8
0
  6
ByBlock
 62
     0
 48
50.0
100
AcDbLine
 10
-0.5
 20
0.0
 30
0.0
 11
-1.0
 21
0.0
 31
0.0
  0
ENDBLK
  5
164BB
330
164B4
100
AcDbEntity
  8
0
 48
50.0
100
AcDbBlockEnd
  0
BLOCK
  5
18BC9
330
18BC8
100
AcDbEntity
  8
0
 48
50.0
100
AcDbBlockBegin
  2
*D3
 70
     1
 10
0.0
 20
0.0
 30
0.0
  3
*D3
  1

  0
LINE
  5
18BCA
330
18BC8
100
AcDbEntity
  8
寸法
 62
     0
 48
50.0
370
    -2
100
AcDbLine
 10
7649.896575106999
 20
9636.123139034717
 30
0.0
 11
8702.429862581047
 21
9636.123139034717
 31
0.0
  0
LINE
  5
18BCB
330
18BC8
100
AcDbEntity
  8
寸法
 62
     0
 48
50.0
370
    -2
100
AcDbLine
 10
7649.896575106973
 20
7846.123139034709
 30
0.0
 11
8702.429862581047
 21
7846.123139034709
 31
0.0
  0
LINE
  5
18BCC
330
18BC8
100
AcDbEntity
  8
寸法
 62
     0
 48
50.0
370
    -2
100
AcDbLine
 10
8642.429862581046
 20
9636.123139034717
 30
0.0
 11
8642.429862581046
 21
7846.123139034709
 31
0.0
  0
INSERT
  5
18BCD
330
18BC8
100
AcDbEntity
  8
寸法
 62
     0
 48
50.0
370
    -2
100
AcDbBlockReference
  2
_DOTSMALL
 10
8642.429862581046
 20
9636.123139034717
 30
0.0
 41
100.0
 42
100.0
 43
100.0
 50
90.0
  0
INSERT
  5
18BCE
330
18BC8
100
AcDbEntity
  8
寸法
 62
     0
 48
50.0
370
    -2
100
AcDbBlockReference
  2
_DOTSMALL
 10
8642.429862581046
 20
7846.123139034709
 30
0.0
 41
100.0
 42
100.0
 43
100.0
 50
270.0
  0
MTEXT
  5
18BCF
330
18BC8
100
AcDbEntity
  8
寸法
 62
     7
 48
50.0
100
AcDbMText
 10
8542.429862581045
 20
8741.123139034712
 30
0.0
 40
120.0
 41
0.0
 71
     5
 72
     1
  1
\A1;1790
  7
STYLE1
 11
0.0000000000000001
 21
1.0
 31
0.0
 73
     1
 44
1.0
1001
ACAD
1000
MTEXTBEGIN
1070
    73
1070
     1
1070
    44
1040
1.0
1070
    74
1070
     0
1000
MTEXTEND
  0
POINT
  5
18BD0
330
18BC8
100
AcDbEntity
  8
DEFPOINTS
 62
     0
 48
50.0
100
AcDbPoint
 10
7629.896575106998
 20
9636.123139034717
 30
0.0
  0
POINT
  5
18BD1
330
18BC8
100
AcDbEntity
  8
DEFPOINTS
 62
     0
 48
50.0
100
AcDbPoint
 10
7629.896575106974
 20
7846.123139034709
 30
0.0
  0
POINT
  5
18BD2
330
18BC8
100
AcDbEntity
  8
DEFPOINTS
 62
     0
 48
50.0
100
AcDbPoint
 10
8642.429862581046
 20
7846.123139034709
 30
0.0
  0
ENDBLK
  5
18BD3
330
18BC8
100
AcDbEntity
  8
0
 48
50.0
100
AcDbBlockEnd
  0
BLOCK
  5
18BD5
330
18BD4
100
AcDbEntity
  8
0
 48
50.0
100
AcDbBlockBegin
  2
*D4
 70
     1
 10
0.0
 20
0.0
 30
0.0
  3
*D4
  1

  0
LINE
  5
18BD6
330
18BD4
100
AcDbEntity
  8
寸法
 62
     0
 48
50.0
370
    -2
100
AcDbLine
 10
4214.896575106998
 20
9656.123139034622
 30
0.0
 11
4214.896575106998
 21
10211.93135865972
 31
0.0
  0
LINE
  5
18BD7
330
18BD4
100
AcDbEntity
  8
寸法
 62
     0
 48
50.0
370
    -2
100
AcDbLine
 10
7574.896575106999
 20
9656.123139034718
 30
0.0
 11
7574.896575106999
 21
10211.93135865972
 31
0.0
  0
LINE
  5
18BD8
330
18BD4
100
AcDbEntity
  8
寸法
 62
     0
 48
50.0
370
    -2
100
AcDbLine
 10
4214.896575106998
 20
10151.93135865972
 30
0.0
 11
7574.896575106999
 21
10151.93135865972
 31
0.0
  0
INSERT
  5
18BD9
330
18BD4
100
AcDbEntity
  8
寸法
 62
     0
 48
50.0
370
    -2
100
AcDbBlockReference
  2
_DOTSMALL
 10
4214.896575106998
 20
10151.93135865972
 30
0.0
 41
100.0
 42
100.0
 43
100.0
 50
180.0
  0
INSERT
  5
18BDA
330
18BD4
100
AcDbEntity
  8
寸法
 62
     0
 48
50.0
370
    -2
100
AcDbBlockReference
  2
_DOTSMALL
 10
7574.896575106999
 20
10151.93135865972
 30
0.0
 41
100.0
 42
100.0
 43
100.0
  0
MTEXT
  5
18BDB
330
18BD4
100
AcDbEntity
  8
寸法
 62
     7
 48
50.0
100
AcDbMText
 10
5894.896575106997
 20
10251.94316968334
 30
0.0
 40
120.0
 41
0.0
 71
     5
 72
     1
  1
\A1;8X420=3360
  7
STYLE1
 73
     1
 44
1.0
1001
ACAD
1000
MTEXTBEGIN
1070
    73
1070
     1
1070
    44
1040
1.0
1070
    74
1070
     0
1000
MTEXTEND
  0
POINT
  5
18BDC
330
18BD4
100
AcDbEntity
  8
DEFPOINTS
 62
     0
 48
50.0
100
AcDbPoint
 10
4214.896575106998
 20
9636.123139034623
 30
0.0
  0
POINT
  5
18BDD
330
18BD4
100
AcDbEntity
  8
DEFPOINTS
 62
     0
 48
50.0
100
AcDbPoint
 10
7574.896575106999
 20
9636.123139034717
 30
0.0
  0
POINT
  5
18BDE
330
18BD4
100
AcDbEntity
  8
DEFPOINTS
 62
     0
 48
50.0
100
AcDbPoint
 10
7574.896575106999
 20
10151.93135865972
 30
0.0
  0
ENDBLK
  5
18BDF
330
18BD4
100
AcDbEntity
  8
0
 48
50.0
100
AcDbBlockEnd
  0
BLOCK
  5
18BE1
330
18BE0
100
AcDbEntity
  8
0
 48
50.0
100
AcDbBlockBegin
  2
*D5
 70
     1
 10
0.0
 20
0.0
 30
0.0
  3
*D5
  1

  0
LINE
  5
18BE2
330
18BE0
100
AcDbEntity
  8
寸法
 62
     0
 48
50.0
370
    -2
100
AcDbLine
 10
7574.896575106999
 20
9656.123139034718
 30
0.0
 11
7574.896575106999
 21
10211.9313586597
 31
0.0
  0
LINE
  5
18BE3
330
18BE0
100
AcDbEntity
  8
寸法
 62
     0
 48
50.0
370
    -2
100
AcDbLine
 10
7629.896575106998
 20
9656.123139034718
 30
0.0
 11
7629.896575106998
 21
10211.9313586597
 31
0.0
  0
LINE
  5
18BE4
330
18BE0
100
AcDbEntity
  8
寸法
 62
     0
 48
50.0
370
    -2
100
AcDbLine
 10
7574.896575106999
 20
10151.9313586597
 30
0.0
 11
7474.896575106999
 21
10151.9313586597
 31
0.0
  0
LINE
  5
18BE5
330
18BE0
100
AcDbEntity
  8
寸法
 62
     0
 48
50.0
370
    -2
100
AcDbLine
 10
7629.896575106998
 20
10151.9313586597
 30
0.0
 11
8046.867137855477
 21
10151.9313586597
 31
0.0
  0
LINE
  5
18BE6
330
18BE0
100
AcDbEntity
  8
寸法
 62
     0
 48
50.0
370
    -2
100
AcDbLine
 10
7574.896575106999
 20
10151.9313586597
 30
0.0
 11
7629.896575106998
 21
10151.9313586597
 31
0.0
  0
INSERT
  5
18BE7
330
18BE0
100
AcDbEntity
  8
寸法
 62
     0
 48
50.0
370
    -2
100
AcDbBlockReference
  2
_DOTSMALL
 10
7574.896575106999
 20
10151.9313586597
 30
0.0
 41
100.0
 42
100.0
 43
100.0
  0
INSERT
  5
18BE8
330
18BE0
100
AcDbEntity
  8
寸法
 62
     0
 48
50.0
370
    -2
100
AcDbBlockReference
  2
_DOTSMALL
 10
7629.896575106998
 20
10151.9313586597
 30
0.0
 41
100.0
 42
100.0
 43
100.0
 50
180.0
  0
MTEXT
  5
18BE9
330
18BE0
100
AcDbEntity
  8
寸法
 62
     7
 48
50.0
100
AcDbMText
 10
7938.381856481237
 20
10251.9313586597
 30
0.0
 40
120.0
 41
0.0
 71
     5
 72
     1
  1
\A1;55
  7
STYLE1
 73
     1
 44
1.0
1001
ACAD
1000
MTEXTBEGIN
1070
    73
1070
     1
1070
    44
1040
1.0
1070
    74
1070
     0
1000
MTEXTEND
  0
POINT
  5
18BEA
330
18BE0
100
AcDbEntity
  8
DEFPOINTS
 62
     0
 48
50.0
100
AcDbPoint
 10
7574.896575106999
 20
9636.123139034717
 30
0.0
  0
POINT
  5
18BEB
330
18BE0
100
AcDbEntity
  8
DEFPOINTS
 62
     0
 48
50.0
100
AcDbPoint
 10
7629.896575106998
 20
9636.123139034717
 30
0.0
  0
POINT
  5
18BEC
330
18BE0
100
AcDbEntity
  8
DEFPOINTS
 62
     0
 48
50.0
100
AcDbPoint
 10
7629.896575106998
 20
10151.9313586597
 30
0.0
  0
ENDBLK
  5
18BED
330
18BE0
100
AcDbEntity
  8
0
 48
50.0
100
AcDbBlockEnd
  0
BLOCK
  5
18BEF
330
18BEE
100
AcDbEntity
  8
0
 48
50.0
100
AcDbBlockBegin
  2
*D6
 70
     1
 10
0.0
 20
0.0
 30
0.0
  3
*D6
  1

  0
LINE
  5
18BF0
330
18BEE
100
AcDbEntity
  8
寸法
 62
     0
 48
50.0
370
    -2
100
AcDbLine
 10
7649.896575106999
 20
9636.123139034717
 30
0.0
 11
8337.32292084141
 21
9636.123139034717
 31
0.0
  0
LINE
  5
18BF1
330
18BEE
100
AcDbEntity
  8
寸法
 62
     0
 48
50.0
370
    -2
100
AcDbLine
 10
7649.896575106999
 20
9581.123139034721
 30
0.0
 11
8337.32292084141
 21
9581.123139034721
 31
0.0
  0
LINE
  5
18BF2
330
18BEE
100
AcDbEntity
  8
寸法
 62
     0
 48
50.0
370
    -2
100
AcDbLine
 10
8277.322920841411
 20
9581.123139034721
 30
0.0
 11
8277.322920841411
 21
9481.123139034719
 31
0.0
  0
LINE
  5
18BF3
330
18BEE
100
AcDbEntity
  8
寸法
 62
     0
 48
50.0
370
    -2
100
AcDbLine
 10
8277.322920841411
 20
9636.123139034717
 30
0.0
 11
8277.322920841411
 21
10053.09370178319
 31
0.0
  0
LINE
  5
18BF4
330
18BEE
100
AcDbEntity
  8
寸法
 62
     0
 48
50.0
370
    -2
100
AcDbLine
 10
8277.322920841411
 20
9581.123139034721
 30
0.0
 11
8277.322920841411
 21
9636.123139034717
 31
0.0
  0
INSERT
  5
18BF5
330
18BEE
100
AcDbEntity
  8
寸法
 62
     0
 48
50.0
370
    -2
100
AcDbBlockReference
  2
_DOTSMALL
 10
8277.322920841411
 20
9581.123139034721
 30
0.0
 41
100.0
 42
100.0
 43
100.0
 50
90.0
  0
INSERT
  5
18BF6
330
18BEE
100
AcDbEntity
  8
寸法
 62
     0
 48
50.0
370
    -2
100
AcDbBlockReference
  2
_DOTSMALL
 10
8277.322920841411
 20
9636.123139034717
 30
0.0
 41
100.0
 42
100.0
 43
100.0
 50
270.0
  0
MTEXT
  5
18BF7
330
18BEE
100
AcDbEntity
  8
寸法
 62
     7
 48
50.0
100
AcDbMText
 10
8177.32292084141
 20
9944.608420408957
 30
0.0
 40
120.0
 41
0.0
 71
     5
 72
     1
  1
\A1;55
  7
STYLE1
 11
0.0000000000000001
 21
1.0
 31
0.0
 73
     1
 44
1.0
1001
ACAD
1000
MTEXTBEGIN
1070
    73
1070
     1
1070
    44
1040
1.0
1070
    74
1070
     0
1000
MTEXTEND
  0
POINT
  5
18BF8
330
18BEE
100
AcDbEntity
  8
DEFPOINTS
 62
     0
 48
50.0
100
AcDbPoint
 10
7629.896575106998
 20
9636.123139034717
 30
0.0
  0
POINT
  5
18BF9
330
18BEE
100
AcDbEntity
  8
DEFPOINTS
 62
     0
 48
50.0
100
AcDbPoint
 10
7629.896575106998
 20
9581.123139034721
 30
0.0
  0
POINT
  5
18BFA
330
18BEE
100
AcDbEntity
  8
DEFPOINTS
 62
     0
 48
50.0
100
AcDbPoint
 10
8277.322920841411
 20
9581.123139034721
 30
0.0
  0
ENDBLK
  5
18BFB
330
18BEE
100
AcDbEntity
  8
0
 48
50.0
100
AcDbBlockEnd
  0
BLOCK
  5
18BFD
330
18BFC
100
AcDbEntity
  8
0
 48
50.0
100
AcDbBlockBegin
  2
*D7
 70
     1
 10
0.0
 20
0.0
 30
0.0
  3
*D7
  1

  0
LINE
  5
18BFE
330
18BFC
100
AcDbEntity
  8
寸法
 62
     0
 48
50.0
370
    -2
100
AcDbLine
 10
4159.896575106963
 20
9656.123139034622
 30
0.0
 11
4159.896575106963
 21
10211.9313586596
 31
0.0
  0
LINE
  5
18BFF
330
18BFC
100
AcDbEntity
  8
寸法
 62
     0
 48
50.0
370
    -2
100
AcDbLine
 10
4214.896575106998
 20
9656.123139034622
 30
0.0
 11
4214.896575106998
 21
10211.9313586596
 31
0.0
  0
LINE
  5
18C00
330
18BFC
100
AcDbEntity
  8
寸法
 62
     0
 48
50.0
370
    -2
100
AcDbLine
 10
4214.896575106998
 20
10151.9313586596
 30
0.0
 11
4314.896575106998
 21
10151.9313586596
 31
0.0
  0
LINE
  5
18C01
330
18BFC
100
AcDbEntity
  8
寸法
 62
     0
 48
50.0
370
    -2
100
AcDbLine
 10
4159.896575106963
 20
10151.9313586596
 30
0.0
 11
3742.926012358486
 21
10151.9313586596
 31
0.0
  0
LINE
  5
18C02
330
18BFC
100
AcDbEntity
  8
寸法
 62
     0
 48
50.0
370
    -2
100
AcDbLine
 10
4214.896575106998
 20
10151.9313586596
 30
0.0
 11
4159.896575106963
 21
10151.9313586596
 31
0.0
  0
INSERT
  5
18C03
330
18BFC
100
AcDbEntity
  8
寸法
 62
     0
 48
50.0
370
    -2
100
AcDbBlockReference
  2
_DOTSMALL
 10
4214.896575106998
 20
10151.9313586596
 30
0.0
 41
100.0
 42
100.0
 43
100.0
 50
180.0
  0
INSERT
  5
18C04
330
18BFC
100
AcDbEntity
  8
寸法
 62
     0
 48
50.0
370
    -2
100
AcDbBlockReference
  2
_DOTSMALL
 10
4159.896575106963
 20
10151.9313586596
 30
0.0
 41
100.0
 42
100.0
 43
100.0
  0
MTEXT
  5
18C05
330
18BFC
100
AcDbEntity
  8
寸法
 62
     7
 48
50.0
100
AcDbMText
 10
3851.411293732725
 20
10251.9313586596
 30
0.0
 40
120.0
 41
0.0
 71
     5
 72
     1
  1
\A1;55
  7
STYLE1
 73
     1
 44
1.0
1001
ACAD
1000
MTEXTBEGIN
1070
    73
1070
     1
1070
    44
1040
1.0
1070
    74
1070
     0
1000
MTEXTEND
  0
POINT
  5
18C06
330
18BFC
100
AcDbEntity
  8
DEFPOINTS
 62
     0
 48
50.0
100
AcDbPoint
 10
4159.896575106963
 20
9636.123139034623
 30
0.0
  0
POINT
  5
18C07
330
18BFC
100
AcDbEntity
  8
DEFPOINTS
 62
     0
 48
50.0
100
AcDbPoint
 10
4214.896575106998
 20
9636.123139034623
 30
0.0
  0
POINT
  5
18C08
330
18BFC
100
AcDbEntity
  8
DEFPOINTS
 62
     0
 48
50.0
100
AcDbPoint
 10
4214.896575106998
 20
10151.9313586596
 30
0.0
  0
ENDBLK
  5
18C09
330
18BFC
100
AcDbEntity
  8
0
 48
50.0
100
AcDbBlockEnd
  0
BLOCK
  5
18C0B
330
18C0A
100
AcDbEntity
  8
0
 48
50.0
100
AcDbBlockBegin
  2
*D8
 70
     1
 10
0.0
 20
0.0
 30
0.0
  3
*D8
  1

  0
LINE
  5
18C0C
330
18C0A
100
AcDbEntity
  8
寸法
 62
     0
 48
50.0
370
    -2
100
AcDbLine
 10
4159.896575106992
 20
7826.123139034546
 30
0.0
 11
4159.896575106992
 21
6804.372203245664
 31
0.0
  0
LINE
  5
18C0D
330
18C0A
100
AcDbEntity
  8
寸法
 62
     0
 48
50.0
370
    -2
100
AcDbLine
 10
7629.896575106974
 20
7826.123139034674
 30
0.0
 11
7629.896575106974
 21
6804.372203245664
 31
0.0
  0
LINE
  5
18C0E
330
18C0A
100
AcDbEntity
  8
寸法
 62
     0
 48
50.0
370
    -2
100
AcDbLine
 10
4159.896575106992
 20
6864.372203245665
 30
0.0
 11
7629.896575106974
 21
6864.372203245665
 31
0.0
  0
INSERT
  5
18C0F
330
18C0A
100
AcDbEntity
  8
寸法
 62
     0
 48
50.0
370
    -2
100
AcDbBlockReference
  2
_DOTSMALL
 10
4159.896575106992
 20
6864.372203245665
 30
0.0
 41
100.0
 42
100.0
 43
100.0
 50
180.0
  0
INSERT
  5
18C10
330
18C0A
100
AcDbEntity
  8
寸法
 62
     0
 48
50.0
370
    -2
100
AcDbBlockReference
  2
_DOTSMALL
 10
7629.896575106974
 20
6864.372203245665
 30
0.0
 41
100.0
 42
100.0
 43
100.0
  0
MTEXT
  5
18C11
330
18C0A
100
AcDbEntity
  8
寸法
 62
     7
 48
50.0
100
AcDbMText
 10
5911.12376113973
 20
6964.372203245665
 30
0.0
 40
120.0
 41
0.0
 71
     5
 72
     1
  1
\A1;3470
  7
STYLE1
 73
     1
 44
1.0
1001
ACAD
1000
MTEXTBEGIN
1070
    73
1070
     1
1070
    44
1040
1.0
1070
    74
1070
     0
1000
MTEXTEND
  0
POINT
  5
18C12
330
18C0A
100
AcDbEntity
  8
DEFPOINTS
 62
     0
 48
50.0
100
AcDbPoint
 10
4159.896575106992
 20
7846.123139034546
 30
0.0
  0
POINT
  5
18C13
330
18C0A
100
AcDbEntity
  8
DEFPOINTS
 62
     0
 48
50.0
100
AcDbPoint
 10
7629.896575106974
 20
7846.123139034673
 30
0.0
  0
POINT
  5
18C14
330
18C0A
100
AcDbEntity
  8
DEFPOINTS
 62
     0
 48
50.0
100
AcDbPoint
 10
7629.896575106974
 20
6864.372203245665
 30
0.0
  0
ENDBLK
  5
18C15
330
18C0A
100
AcDbEntity
  8
0
 48
50.0
100
AcDbBlockEnd
  0
BLOCK
  5
18C17
330
18C16
100
AcDbEntity
  8
0
 48
50.0
100
AcDbBlockBegin
  2
*D9
 70
     1
 10
0.0
 20
0.0
 30
0.0
  3
*D9
  1

  0
LINE
  5
18C18
330
18C16
100
AcDbEntity
  8
寸法
 62
     0
 48
50.0
370
    -2
100
AcDbLine
 10
7649.896575106973
 20
7901.123139034706
 30
0.0
 11
8337.322920841385
 21
7901.123139034706
 31
0.0
  0
LINE
  5
18C19
330
18C16
100
AcDbEntity
  8
寸法
 62
     0
 48
50.0
370
    -2
100
AcDbLine
 10
7649.896575106973
 20
7846.123139034709
 30
0.0
 11
8337.322920841385
 21
7846.123139034709
 31
0.0
  0
LINE
  5
18C1A
330
18C16
100
AcDbEntity
  8
寸法
 62
     0
 48
50.0
370
    -2
100
AcDbLine
 10
8277.322920841385
 20
7901.123139034706
 30
0.0
 11
8277.322920841385
 21
8001.123139034707
 31
0.0
  0
LINE
  5
18C1B
330
18C16
100
AcDbEntity
  8
寸法
 62
     0
 48
50.0
370
    -2
100
AcDbLine
 10
8277.322920841385
 20
7846.123139034709
 30
0.0
 11
8277.322920841385
 21
7429.152576286229
 31
0.0
  0
LINE
  5
18C1C
330
18C16
100
AcDbEntity
  8
寸法
 62
     0
 48
50.0
370
    -2
100
AcDbLine
 10
8277.322920841385
 20
7901.123139034706
 30
0.0
 11
8277.322920841385
 21
7846.123139034709
 31
0.0
  0
INSERT
  5
18C1D
330
18C16
100
AcDbEntity
  8
寸法
 62
     0
 48
50.0
370
    -2
100
AcDbBlockReference
  2
_DOTSMALL
 10
8277.322920841385
 20
7901.123139034706
 30
0.0
 41
100.0
 42
100.0
 43
100.0
 50
270.0
  0
INSERT
  5
18C1E
330
18C16
100
AcDbEntity
  8
寸法
 62
     0
 48
50.0
370
    -2
100
AcDbBlockReference
  2
_DOTSMALL
 10
8277.322920841385
 20
7846.123139034709
 30
0.0
 41
100.0
 42
100.0
 43
100.0
 50
90.0
  0
MTEXT
  5
18C1F
330
18C16
100
AcDbEntity
  8
寸法
 62
     7
 48
50.0
100
AcDbMText
 10
8177.322920841383
 20
7537.637857660469
 30
0.0
 40
120.0
 41
0.0
 71
     5
 72
     1
  1
\A1;55
  7
STYLE1
 11
0.0000000000000001
 21
1.0
 31
0.0
 73
     1
 44
1.0
1001
ACAD
1000
MTEXTBEGIN
1070
    73
1070
     1
1070
    44
1040
1.0
1070
    74
1070
     0
1000
MTEXTEND
  0
POINT
  5
18C20
330
18C16
100
AcDbEntity
  8
DEFPOINTS
 62
     0
 48
50.0
100
AcDbPoint
 10
7629.896575106974
 20
7901.123139034706
 30
0.0
  0
POINT
  5
18C21
330
18C16
100
AcDbEntity
  8
DEFPOINTS
 62
     0
 48
50.0
100
AcDbPoint
 10
7629.896575106974
 20
7846.123139034709
 30
0.0
  0
POINT
  5
18C22
330
18C16
100
AcDbEntity
  8
DEFPOINTS
 62
     0
 48
50.0
100
AcDbPoint
 10
8277.322920841385
 20
7846.123139034709
 30
0.0
  0
ENDBLK
  5
18C23
330
18C16
100
AcDbEntity
  8
0
 48
50.0
100
AcDbBlockEnd
  0
BLOCK
  5
18C25
330
18C24
100
AcDbEntity
  8
0
 48
50.0
100
AcDbBlockBegin
  2
*D10
 70
     1
 10
0.0
 20
0.0
 30
0.0
  3
*D10
  1

  0
LINE
  5
18C26
330
18C24
100
AcDbEntity
  8
寸法
 62
     0
 48
50.0
370
    -2
100
AcDbLine
 10
6533.037591258376
 20
9136.123139034728
 30
0.0
 11
6465.083950562664
 21
8882.516699399049
 31
0.0
  0
LINE
  5
18C27
330
18C24
100
AcDbEntity
  8
寸法
 62
     0
 48
50.0
370
    -2
100
AcDbLine
 10
7596.037591258388
 20
9136.123139034721
 30
0.0
 11
7528.083950562677
 21
8882.516699399049
 31
0.0
  0
LINE
  5
18C28
330
18C24
100
AcDbEntity
  8
寸法
 62
     0
 48
50.0
370
    -2
100
AcDbLine
 10
6481.160902108531
 20
8942.51669939905
 30
0.0
 11
7544.160902108544
 21
8942.51669939905
 31
0.0
  0
INSERT
  5
18C29
330
18C24
100
AcDbEntity
  8
寸法
 62
     0
 48
50.0
370
    -2
100
AcDbBlockReference
  2
_DOTSMALL
 10
6481.160902108531
 20
8942.51669939905
 30
0.0
 41
100.0
 42
100.0
 43
100.0
 50
180.0
  0
INSERT
  5
18C2A
330
18C24
100
AcDbEntity
  8
寸法
 62
     0
 48
50.0
370
    -2
100
AcDbBlockReference
  2
_DOTSMALL
 10
7544.160902108544
 20
8942.51669939905
 30
0.0
 41
100.0
 42
100.0
 43
100.0
  0
MTEXT
  5
18C2B
330
18C24
100
AcDbEntity
  8
寸法
 62
     7
 48
50.0
100
AcDbMText
 10
7061.28653022935
 20
9042.516699399049
 30
0.0
 40
120.0
 41
0.0
 71
     5
 72
     1
  1
\A1;1063
  7
STYLE1
 73
     1
 44
1.0
1001
ACAD
1000
MTEXTBEGIN
1070
    73
1070
     1
1070
    44
1040
1.0
1070
    74
1070
     0
1000
MTEXTEND
  0
POINT
  5
18C2C
330
18C24
100
AcDbEntity
  8
DEFPOINTS
 62
     0
 48
50.0
100
AcDbPoint
 10
6538.396575106998
 20
9156.123139034727
 30
0.0
  0
POINT
  5
18C2D
330
18C24
100
AcDbEntity
  8
DEFPOINTS
 62
     0
 48
50.0
100
AcDbPoint
 10
7601.39657510701
 20
9156.12313903472
 30
0.0
  0
POINT
  5
18C2E
330
18C24
100
AcDbEntity
  8
DEFPOINTS
 62
     0
 48
50.0
100
AcDbPoint
 10
7544.160902108544
 20
8942.51669939905
 30
0.0
  0
ENDBLK
  5
18C2F
330
18C24
100
AcDbEntity
  8
0
 48
50.0
100
AcDbBlockEnd
  0
BLOCK
  5
18C31
330
18C30
100
AcDbEntity
  8
0
 48
50.0
100
AcDbBlockBegin
  2
*D11
 70
     1
 10
0.0
 20
0.0
 30
0.0
  3
*D11
  1

  0
LINE
  5
18C32
330
18C30
100
AcDbEntity
  8
寸法
 62
     0
 48
50.0
370
    -2
100
AcDbLine
 10
7621.396575106999
 20
9600.764155186094
 30
0.0
 11
8016.754300969024
 21
9494.828371819961
 31
0.0
  0
LINE
  5
18C33
330
18C30
100
AcDbEntity
  8
寸法
 62
     0
 48
50.0
370
    -2
100
AcDbLine
 10
7621.396575106999
 20
9150.764155186099
 30
0.0
 11
8016.754300969024
 21
9044.828371819964
 31
0.0
  0
LINE
  5
18C34
330
18C30
100
AcDbEntity
  8
寸法
 62
     0
 48
50.0
370
    -2
100
AcDbLine
 10
7956.754300969024
 20
9510.905323365827
 30
0.0
 11
7956.754300969024
 21
9060.90532336583
 31
0.0
  0
INSERT
  5
18C35
330
18C30
100
AcDbEntity
  8
寸法
 62
     0
 48
50.0
370
    -2
100
AcDbBlockReference
  2
_DOTSMALL
 10
7956.754300969024
 20
9510.905323365827
 30
0.0
 41
100.0
 42
100.0
 43
100.0
 50
90.0
  0
INSERT
  5
18C36
330
18C30
100
AcDbEntity
  8
寸法
 62
     0
 48
50.0
370
    -2
100
AcDbBlockReference
  2
_DOTSMALL
 10
7956.754300969024
 20
9060.90532336583
 30
0.0
 41
100.0
 42
100.0
 43
100.0
 50
270.0
  0
MTEXT
  5
18C37
330
18C30
100
AcDbEntity
  8
寸法
 62
     7
 48
50.0
100
AcDbMText
 10
7856.754300969022
 20
9285.905323365829
 30
0.0
 40
120.0
 41
0.0
 71
     5
 72
     1
  1
\A1;450
  7
STYLE1
 11
0.0000000000000001
 21
1.0
 31
0.0
 73
     1
 44
1.0
1001
ACAD
1000
MTEXTBEGIN
1070
    73
1070
     1
1070
    44
1040
1.0
1070
    74
1070
     0
1000
MTEXTEND
  0
POINT
  5
18C38
330
18C30
100
AcDbEntity
  8
DEFPOINTS
 62
     0
 48
50.0
100
AcDbPoint
 10
7601.396575106999
 20
9606.123139034718
 30
0.0
  0
POINT
  5
18C39
330
18C30
100
AcDbEntity
  8
DEFPOINTS
 62
     0
 48
50.0
100
AcDbPoint
 10
7601.396575106999
 20
9156.12313903472
 30
0.0
  0
POINT
  5
18C3A
330
18C30
100
AcDbEntity
  8
DEFPOINTS
 62
     0
 48
50.0
100
AcDbPoint
 10
7956.754300969024
 20
9060.90532336583
 30
0.0
  0
ENDBLK
  5
18C3B
330
18C30
100
AcDbEntity
  8
0
 48
50.0
100
AcDbBlockEnd
  0
BLOCK
  5
18C3D
330
18C3C
100
AcDbEntity
  8
0
 48
50.0
100
AcDbBlockBegin
  2
*D12
 70
     1
 10
0.0
 20
0.0
 30
0.0
  3
*D12
  1

  0
LINE
  5
18C3E
330
18C3C
100
AcDbEntity
  8
寸法
 62
     0
 48
50.0
370
    -2
100
AcDbLine
 10
7649.896575106999
 20
9581.123139034721
 30
0.0
 11
8337.32292084141
 21
9581.123139034721
 31
0.0
  0
LINE
  5
18C3F
330
18C3C
100
AcDbEntity
  8
寸法
 62
     0
 48
50.0
370
    -2
100
AcDbLine
 10
7649.896575106973
 20
7901.123139034706
 30
0.0
 11
8337.32292084141
 21
7901.123139034706
 31
0.0
  0
LINE
  5
18C40
330
18C3C
100
AcDbEntity
  8
寸法
 62
     0
 48
50.0
370
    -2
100
AcDbLine
 10
8277.322920841411
 20
9581.123139034721
 30
0.0
 11
8277.322920841411
 21
7901.123139034706
 31
0.0
  0
INSERT
  5
18C41
330
18C3C
100
AcDbEntity
  8
寸法
 62
     0
 48
50.0
370
    -2
100
AcDbBlockReference
  2
_DOTSMALL
 10
8277.322920841411
 20
9581.123139034721
 30
0.0
 41
100.0
 42
100.0
 43
100.0
 50
90.0
  0
INSERT
  5
18C42
330
18C3C
100
AcDbEntity
  8
寸法
 62
     0
 48
50.0
370
    -2
100
AcDbBlockReference
  2
_DOTSMALL
 10
8277.322920841411
 20
7901.123139034706
 30
0.0
 41
100.0
 42
100.0
 43
100.0
 50
270.0
  0
MTEXT
  5
18C43
330
18C3C
100
AcDbEntity
  8
寸法
 62
     7
 48
50.0
100
AcDbMText
 10
8177.311109817788
 20
8741.123139034712
 30
0.0
 40
120.0
 41
0.0
 71
     5
 72
     1
  1
\A1;4X420=1680
  7
STYLE1
 11
0.0000000000000001
 21
1.0
 31
0.0
 73
     1
 44
1.0
1001
ACAD
1000
MTEXTBEGIN
1070
    73
1070
     1
1070
    44
1040
1.0
1070
    74
1070
     0
1000
MTEXTEND
  0
POINT
  5
18C44
330
18C3C
100
AcDbEntity
  8
DEFPOINTS
 62
     0
 48
50.0
100
AcDbPoint
 10
7629.896575106998
 20
9581.123139034721
 30
0.0
  0
POINT
  5
18C45
330
18C3C
100
AcDbEntity
  8
DEFPOINTS
 62
     0
 48
50.0
100
AcDbPoint
 10
7629.896575106974
 20
7901.123139034706
 30
0.0
  0
POINT
  5
18C46
330
18C3C
100
AcDbEntity
  8
DEFPOINTS
 62
     0
 48
50.0
100
AcDbPoint
 10
8277.322920841411
 20
7901.123139034706
 30
0.0
  0
ENDBLK
  5
18C47
330
18C3C
100
AcDbEntity
  8
0
 48
50.0
100
AcDbBlockEnd
  0
BLOCK
  5
18C49
330
18C48
100
AcDbEntity
  8
0
 48
50.0
100
AcDbBlockBegin
  2
*D13
 70
     1
 10
0.0
 20
0.0
 30
0.0
  3
*D13
  1

  0
LINE
  5
18C4A
330
18C48
100
AcDbEntity
  8
寸法
 62
     0
 48
50.0
370
    -2
100
AcDbLine
 10
4183.037591258377
 20
9136.123139034619
 30
0.0
 11
4115.083950562663
 21
8882.516699398941
 31
0.0
  0
LINE
  5
18C4B
330
18C48
100
AcDbEntity
  8
寸法
 62
     0
 48
50.0
370
    -2
100
AcDbLine
 10
5246.037591258307
 20
9136.123139034671
 30
0.0
 11
5178.08395056258
 21
8882.516699398941
 31
0.0
  0
LINE
  5
18C4C
330
18C48
100
AcDbEntity
  8
寸法
 62
     0
 48
50.0
370
    -2
100
AcDbLine
 10
4131.160902108532
 20
8942.516699398941
 30
0.0
 11
5194.160902108448
 21
8942.516699398941
 31
0.0
  0
INSERT
  5
18C4D
330
18C48
100
AcDbEntity
  8
寸法
 62
     0
 48
50.0
370
    -2
100
AcDbBlockReference
  2
_DOTSMALL
 10
4131.160902108532
 20
8942.516699398941
 30
0.0
 41
100.0
 42
100.0
 43
100.0
 50
180.0
  0
INSERT
  5
18C4E
330
18C48
100
AcDbEntity
  8
寸法
 62
     0
 48
50.0
370
    -2
100
AcDbBlockReference
  2
_DOTSMALL
 10
5194.160902108448
 20
8942.516699398941
 30
0.0
 41
100.0
 42
100.0
 43
100.0
  0
MTEXT
  5
18C4F
330
18C48
100
AcDbEntity
  8
寸法
 62
     7
 48
50.0
100
AcDbMText
 10
4658.986452655306
 20
9042.516699398941
 30
0.0
 40
120.0
 41
0.0
 71
     5
 72
     1
  1
\A1;1063
  7
STYLE1
 73
     1
 44
1.0
1001
ACAD
1000
MTEXTBEGIN
1070
    73
1070
     1
1070
    44
1040
1.0
1070
    74
1070
     0
1000
MTEXTEND
  0
POINT
  5
18C50
330
18C48
100
AcDbEntity
  8
DEFPOINTS
 62
     0
 48
50.0
100
AcDbPoint
 10
4188.396575106999
 20
9156.123139034617
 30
0.0
  0
POINT
  5
18C51
330
18C48
100
AcDbEntity
  8
DEFPOINTS
 62
     0
 48
50.0
100
AcDbPoint
 10
5251.396575106929
 20
9156.123139034672
 30
0.0
  0
POINT
  5
18C52
330
18C48
100
AcDbEntity
  8
DEFPOINTS
 62
     0
 48
50.0
100
AcDbPoint
 10
5194.160902108448
 20
8942.516699398941
 30
0.0
  0
ENDBLK
  5
18C53
330
18C48
100
AcDbEntity
  8
0
 48
50.0
100
AcDbBlockEnd
  0
BLOCK
  5
18C55
330
18C54
100
AcDbEntity
  8
0
 48
50.0
100
AcDbBlockBegin
  2
*D14
 70
     1
 10
0.0
 20
0.0
 30
0.0
  3
*D14
  1

  0
LINE
  5
18C56
330
18C54
100
AcDbEntity
  8
寸法
 62
     0
 48
50.0
370
    -2
100
AcDbLine
 10
5274.037591258307
 20
9136.123139034669
 30
0.0
 11
5206.08395056258
 21
8882.516699398941
 31
0.0
  0
LINE
  5
18C57
330
18C54
100
AcDbEntity
  8
寸法
 62
     0
 48
50.0
370
    -2
100
AcDbLine
 10
6505.037591258377
 20
9136.123139034662
 30
0.0
 11
6437.083950562653
 21
8882.516699398941
 31
0.0
  0
LINE
  5
18C58
330
18C54
100
AcDbEntity
  8
寸法
 62
     0
 48
50.0
370
    -2
100
AcDbLine
 10
5222.160902108448
 20
8942.516699398941
 30
0.0
 11
6453.16090210852
 21
8942.516699398941
 31
0.0
  0
INSERT
  5
18C59
330
18C54
100
AcDbEntity
  8
寸法
 62
     0
 48
50.0
370
    -2
100
AcDbBlockReference
  2
_DOTSMALL
 10
5222.160902108448
 20
8942.516699398941
 30
0.0
 41
100.0
 42
100.0
 43
100.0
 50
180.0
  0
INSERT
  5
18C5A
330
18C54
100
AcDbEntity
  8
寸法
 62
     0
 48
50.0
370
    -2
100
AcDbBlockReference
  2
_DOTSMALL
 10
6453.16090210852
 20
8942.516699398941
 30
0.0
 41
100.0
 42
100.0
 43
100.0
  0
MTEXT
  5
18C5B
330
18C54
100
AcDbEntity
  8
寸法
 62
     7
 48
50.0
100
AcDbMText
 10
6081.244808320626
 20
9042.528510422561
 30
0.0
 40
120.0
 41
0.0
 71
     5
 72
     1
  1
\A1;1231
  7
STYLE1
 73
     1
 44
1.0
1001
ACAD
1000
MTEXTBEGIN
1070
    73
1070
     1
1070
    44
1040
1.0
1070
    74
1070
     0
1000
MTEXTEND
  0
POINT
  5
18C5C
330
18C54
100
AcDbEntity
  8
DEFPOINTS
 62
     0
 48
50.0
100
AcDbPoint
 10
5279.396575106929
 20
9156.123139034669
 30
0.0
  0
POINT
  5
18C5D
330
18C54
100
AcDbEntity
  8
DEFPOINTS
 62
     0
 48
50.0
100
AcDbPoint
 10
6510.396575106999
 20
9156.123139034662
 30
0.0
  0
POINT
  5
18C5E
330
18C54
100
AcDbEntity
  8
DEFPOINTS
 62
     0
 48
50.0
100
AcDbPoint
 10
6453.16090210852
 20
8942.516699398941
 30
0.0
  0
ENDBLK
  5
18C5F
330
18C54
100
AcDbEntity
  8
0
 48
50.0
100
AcDbBlockEnd
  0
BLOCK
  5
18C61
330
18C60
100
AcDbEntity
  8
0
 48
50.0
100
AcDbBlockBegin
  2
*D15
 70
     1
 10
0.0
 20
0.0
 30
0.0
  3
*D15
  1

  0
LINE
  5
18C62
330
18C60
100
AcDbEntity
  8
寸法
 62
     0
 48
50.0
370
    -2
100
AcDbLine
 10
5065.896575106966
 20
7749.123139034579
 30
0.0
 11
5065.896575106966
 21
7099.952920982538
 31
0.0
  0
LINE
  5
18C63
330
18C60
100
AcDbEntity
  8
寸法
 62
     0
 48
50.0
370
    -2
100
AcDbLine
 10
6331.896575106966
 20
7749.123139034579
 30
0.0
 11
6331.896575106966
 21
7099.952920982538
 31
0.0
  0
LINE
  5
18C64
330
18C60
100
AcDbEntity
  8
寸法
 62
     0
 48
50.0
370
    -2
100
AcDbLine
 10
5065.896575106966
 20
7159.952920982537
 30
0.0
 11
6331.896575106966
 21
7159.952920982537
 31
0.0
  0
INSERT
  5
18C65
330
18C60
100
AcDbEntity
  8
寸法
 62
     0
 48
50.0
370
    -2
100
AcDbBlockReference
  2
_DOTSMALL
 10
5065.896575106966
 20
7159.952920982537
 30
0.0
 41
100.0
 42
100.0
 43
100.0
 50
180.0
  0
INSERT
  5
18C66
330
18C60
100
AcDbEntity
  8
寸法
 62
     0
 48
50.0
370
    -2
100
AcDbBlockReference
  2
_DOTSMALL
 10
6331.896575106966
 20
7159.952920982537
 30
0.0
 41
100.0
 42
100.0
 43
100.0
  0
MTEXT
  5
18C67
330
18C60
100
AcDbEntity
  8
寸法
 62
     7
 48
50.0
100
AcDbMText
 10
5711.986008735934
 20
7359.964732006159
 30
0.0
 40
120.0
 41
0.0
 71
     5
 72
     1
  1
\A1;有効開口部間口\P1266
  7
STYLE1
 73
     1
 44
1.0
1001
ACAD
1000
MTEXTBEGIN
1070
    73
1070
     1
1070
    44
1040
1.0
1070
    74
1070
     0
1000
MTEXTEND
  0
POINT
  5
18C68
330
18C60
100
AcDbEntity
  8
DEFPOINTS
 62
     0
 48
50.0
100
AcDbPoint
 10
5065.896575106966
 20
7769.123139034579
 30
0.0
  0
POINT
  5
18C69
330
18C60
100
AcDbEntity
  8
DEFPOINTS
 62
     0
 48
50.0
100
AcDbPoint
 10
6331.896575106966
 20
7769.123139034579
 30
0.0
  0
POINT
  5
18C6A
330
18C60
100
AcDbEntity
  8
DEFPOINTS
 62
     0
 48
50.0
100
AcDbPoint
 10
6331.896575106966
 20
7159.952920982537
 30
0.0
  0
ENDBLK
  5
18C6B
330
18C60
100
AcDbEntity
  8
0
 48
50.0
100
AcDbBlockEnd
  0
BLOCK
  5
18C6D
330
18C6C
100
AcDbEntity
  8
0
 48
50.0
100
AcDbBlockBegin
  2
*D16
 70
     1
 10
0.0
 20
0.0
 30
0.0
  3
*D16
  1

  0
LINE
  5
18C6E
330
18C6C
100
AcDbEntity
  8
寸法
 62
     0
 48
50.0
370
    -2
100
AcDbLine
 10
7200.896575106966
 20
7846.123139034578
 30
0.0
 11
7457.192158500191
 21
7846.123139034578
 31
0.0
  0
LINE
  5
18C6F
330
18C6C
100
AcDbEntity
  8
寸法
 62
     0
 48
50.0
370
    -2
100
AcDbLine
 10
7199.896575106966
 20
7769.123139034579
 30
0.0
 11
7457.192158500191
 21
7769.123139034579
 31
0.0
  0
LINE
  5
18C70
330
18C6C
100
AcDbEntity
  8
寸法
 62
     0
 48
50.0
370
    -2
100
AcDbLine
 10
7417.192158500192
 20
7866.123139034579
 30
0.0
 11
7417.192158500192
 21
7886.123139034578
 31
0.0
  0
LINE
  5
18C71
330
18C6C
100
AcDbEntity
  8
寸法
 62
     0
 48
50.0
370
    -2
100
AcDbLine
 10
7417.192158500192
 20
7749.123139034579
 30
0.0
 11
7417.192158500192
 21
7533.123139034573
 31
0.0
  0
LINE
  5
18C72
330
18C6C
100
AcDbEntity
  8
寸法
 62
     0
 48
50.0
370
    -2
100
AcDbLine
 10
7417.192158500192
 20
7846.123139034578
 30
0.0
 11
7417.192158500192
 21
7769.123139034579
 31
0.0
  0
INSERT
  5
18C73
330
18C6C
100
AcDbEntity
  8
寸法
 62
     0
 48
50.0
370
    -2
100
AcDbBlockReference
  2
_DOT
 10
7417.192158500192
 20
7846.123139034578
 30
0.0
 41
20.0
 42
20.0
 43
20.0
 50
270.0
  0
INSERT
  5
18C74
330
18C6C
100
AcDbEntity
  8
寸法
 62
     0
 48
50.0
370
    -2
100
AcDbBlockReference
  2
_DOT
 10
7417.192158500192
 20
7769.123139034579
 30
0.0
 41
20.0
 42
20.0
 43
20.0
 50
90.0
  0
MTEXT
  5
18C75
330
18C6C
100
AcDbEntity
  8
寸法
 62
     7
 48
50.0
100
AcDbMText
 10
7325.192158500191
 20
7631.123139034575
 30
0.0
 40
120.0
 41
0.0
 71
     5
 72
     1
  1
\A1;77
  7
STYLE1
 11
0.0000000000000001
 21
1.0
 31
0.0
 73
     1
 44
1.0
1001
ACAD
1000
MTEXTBEGIN
1070
    73
1070
     1
1070
    44
1040
1.0
1070
    74
1070
     0
1000
MTEXTEND
  0
POINT
  5
18C76
330
18C6C
100
AcDbEntity
  8
DEFPOINTS
 62
     0
 48
50.0
100
AcDbPoint
 10
7180.896575106967
 20
7846.123139034578
 30
0.0
  0
POINT
  5
18C77
330
18C6C
100
AcDbEntity
  8
DEFPOINTS
 62
     0
 48
50.0
100
AcDbPoint
 10
7179.896575106965
 20
7769.123139034579
 30
0.0
  0
POINT
  5
18C78
330
18C6C
100
AcDbEntity
  8
DEFPOINTS
 62
     0
 48
50.0
100
AcDbPoint
 10
7417.192158500192
 20
7769.123139034579
 30
0.0
  0
ENDBLK
  5
18C79
330
18C6C
100
AcDbEntity
  8
0
 48
50.0
100
AcDbBlockEnd
  0
BLOCK
  5
18DA0
330
18C7A
100
AcDbEntity
  8
0
 48
50.0
100
AcDbBlockBegin
  2
A$C3B1A506B
 70
     0
 10
0.0
 20
0.0
 30
0.0
  3
A$C3B1A506B
  1

  0
MTEXT
  5
18C7B
330
18C7A
100
AcDbEntity
  8
寸法
 62
     7
 48
50.0
100
AcDbMText
 10
3342.250386887194
 20
2778.329429134012
 30
0.0
 40
96.0
 41
0.0
 71
     5
 72
     1
  1
棚 2段
  7
STYLE1
 73
     1
 44
1.0
1001
ACAD
1000
MTEXTBEGIN
1070
    73
1070
     1
1070
    44
1040
1.0
1070
    74
1070
     0
1000
MTEXTEND
  0
MTEXT
  5
18C7C
330
18C7A
100
AcDbEntity
  8
寸法
 62
     7
 48
50.0
100
AcDbMText
 10
2167.25038688716
 20
2778.329429133986
 30
0.0
 40
96.0
 41
0.0
 71
     5
 72
     1
  1
棚 2段
  7
STYLE1
 73
     1
 44
1.0
1001
ACAD
1000
MTEXTBEGIN
1070
    73
1070
     1
1070
    44
1040
1.0
1070
    74
1070
     0
1000
MTEXTEND
  0
MTEXT
  5
18C7D
330
18C7A
100
AcDbEntity
  8
寸法
 62
     7
 48
50.0
100
AcDbMText
 10
992.2503868871608
 20
2778.329429133935
 30
0.0
 40
96.0
 41
0.0
 71
     5
 72
     1
  1
棚 2段
  7
STYLE1
 73
     1
 44
1.0
1001
ACAD
1000
MTEXTBEGIN
1070
    73
1070
     1
1070
    44
1040
1.0
1070
    74
1070
     0
1000
MTEXTEND
  0
LINE
  5
18C7E
330
18C7A
100
AcDbEntity
  8
細線
 48
50.0
100
AcDbLine
 10
2771.970589276527
 20
1368.994384123192
 30
0.0
 11
3398.970589276523
 21
1368.994384123192
 31
0.0
  0
LINE
  5
18C7F
330
18C7A
100
AcDbEntity
  8
細線
 48
50.0
100
AcDbLine
 10
2117.970593930113
 20
1335.285615569113
 30
0.0
 11
3398.970589276523
 21
1335.285615569113
 31
0.0
  0
LINE
  5
18C80
330
18C7A
100
AcDbEntity
  8
細線
 48
50.0
100
AcDbLine
 10
2076.970593930115
 20
1364.690523565368
 30
0.0
 11
1322.970589276523
 21
1364.690523565367
 31
0.0
  0
LINE
  5
18C81
330
18C7A
100
AcDbEntity
  8
細線
100
AcDbLine
 10
3170.720579860066
 20
1388.494284088199
 30
0.0
 11
3173.052119381877
 21
1393.494286728162
 31
0.0
  0
LINE
  5
18C82
330
18C7A
100
AcDbEntity
  8
細線
100
AcDbLine
 10
3240.720589276525
 20
1388.494269174465
 30
0.0
 11
3238.389042800336
 21
1393.494286728144
 31
0.0
  0
LINE
  5
18C83
330
18C7A
100
AcDbEntity
  8
細線
100
AcDbLine
 10
3238.389042800336
 20
1393.494286728144
 30
0.0
 11
3173.052119381862
 21
1393.494286728133
 31
0.0
  0
LINE
  5
18C84
330
18C7A
100
AcDbEntity
  8
細線
100
AcDbLine
 10
3098.389042800336
 20
1393.494286728144
 30
0.0
 11
3033.052119381862
 21
1393.494286728133
 31
0.0
  0
LINE
  5
18C85
330
18C7A
100
AcDbEntity
  8
細線
100
AcDbLine
 10
3100.720589276523
 20
1388.494269174465
 30
0.0
 11
3098.389042800336
 21
1393.494286728144
 31
0.0
  0
LINE
  5
18C86
330
18C7A
100
AcDbEntity
  8
細線
100
AcDbLine
 10
3030.720579860066
 20
1388.494284088199
 30
0.0
 11
3033.052119381875
 21
1393.494286728162
 31
0.0
  0
LINE
  5
18C87
330
18C7A
100
AcDbEntity
  8
細線
100
AcDbLine
 10
2890.720589276525
 20
1388.494269174465
 30
0.0
 11
2893.052128798336
 21
1393.494271814428
 31
0.0
  0
LINE
  5
18C88
330
18C7A
100
AcDbEntity
  8
細線
100
AcDbLine
 10
2960.720598692984
 20
1388.494254260731
 30
0.0
 11
2958.389052216793
 21
1393.49427181441
 31
0.0
  0
LINE
  5
18C89
330
18C7A
100
AcDbEntity
  8
細線
100
AcDbLine
 10
2958.389052216795
 20
1393.49427181441
 30
0.0
 11
2893.052128798321
 21
1393.494271814399
 31
0.0
  0
LINE
  5
18C8A
330
18C7A
100
AcDbEntity
  8
細線
100
AcDbLine
 10
2667.139038146739
 20
1359.494298590735
 30
0.0
 11
2601.802114728263
 21
1359.494298590724
 31
0.0
  0
LINE
  5
18C8B
330
18C7A
100
AcDbEntity
  8
細線
100
AcDbLine
 10
2669.470584622926
 20
1354.494281037055
 30
0.0
 11
2667.139038146737
 21
1359.494298590735
 31
0.0
  0
LINE
  5
18C8C
330
18C7A
100
AcDbEntity
  8
細線
100
AcDbLine
 10
2599.470575206469
 20
1354.49429595079
 30
0.0
 11
2601.802114728278
 21
1359.494298590752
 31
0.0
  0
LINE
  5
18C8D
330
18C7A
100
AcDbEntity
  8
細線
 48
50.0
100
AcDbLine
 10
2440.853968524536
 20
1372.765132327548
 30
0.0
 11
2446.609486107205
 21
1354.494281037057
 31
0.0
  0
LINE
  5
18C8E
330
18C7A
100
AcDbEntity
  8
細線
 48
50.0
100
AcDbLine
 10
2429.925520044106
 20
1372.765132327546
 30
0.0
 11
2440.853968524536
 21
1372.765132327548
 31
0.0
  0
ARC
  5
18C8F
330
18C7A
100
AcDbEntity
  8
細線
 48
50.0
100
AcDbCircle
 10
2424.471163986787
 20
1374.265132327546
 30
0.0
 40
5.0
100
AcDbArc
 50
204.6243183520723
 51
335.3756816479278
  0
ARC
  5
18C90
330
18C7A
100
AcDbEntity
  8
細線
 48
50.0
100
AcDbCircle
 10
2429.925520044106
 20
1371.765132327546
 30
0.0
 40
1.0
100
AcDbArc
 50
90.0
 51
155.3756816479277
  0
ARC
  5
18C91
330
18C7A
100
AcDbEntity
  8
細線
 48
50.0
100
AcDbCircle
 10
2419.016807929469
 20
1371.765132327546
 30
0.0
 40
1.0
100
AcDbArc
 50
24.62431835207225
 51
90.0
  0
LINE
  5
18C92
330
18C7A
100
AcDbEntity
  8
細線
 48
50.0
100
AcDbLine
 10
2408.088359449037
 20
1372.765132327548
 30
0.0
 11
2419.016807929469
 21
1372.765132327546
 31
0.0
  0
LINE
  5
18C93
330
18C7A
100
AcDbEntity
  8
細線
 48
50.0
100
AcDbLine
 10
2402.33284186637
 20
1354.494281037054
 30
0.0
 11
2408.088359449037
 21
1372.765132327548
 31
0.0
  0
LINE
  5
18C94
330
18C7A
100
AcDbEntity
  8
細線
100
AcDbLine
 10
2458.070304175992
 20
1354.494278397076
 30
0.0
 11
2460.401843697802
 21
1359.494281037039
 31
0.0
  0
LINE
  5
18C95
330
18C7A
100
AcDbEntity
  8
細線
100
AcDbLine
 10
2528.070313592451
 20
1354.494263483342
 30
0.0
 11
2525.738767116262
 21
1359.494281037021
 31
0.0
  0
LINE
  5
18C96
330
18C7A
100
AcDbEntity
  8
細線
100
AcDbLine
 10
2525.738767116262
 20
1359.494281037021
 30
0.0
 11
2460.40184369779
 21
1359.49428103701
 31
0.0
  0
LINE
  5
18C97
330
18C7A
100
AcDbEntity
  8
細線
100
AcDbLine
 10
2387.139046332155
 20
1359.494281037021
 30
0.0
 11
2321.80212291368
 21
1359.49428103701
 31
0.0
  0
LINE
  5
18C98
330
18C7A
100
AcDbEntity
  8
細線
100
AcDbLine
 10
2389.470592808342
 20
1354.494263483342
 30
0.0
 11
2387.139046332153
 21
1359.494281037021
 31
0.0
  0
LINE
  5
18C99
330
18C7A
100
AcDbEntity
  8
細線
100
AcDbLine
 10
2319.470584622926
 20
1354.494281037054
 30
0.0
 11
2321.802122913694
 21
1359.494281037039
 31
0.0
  0
LINE
  5
18C9A
330
18C7A
100
AcDbEntity
  8
細線
100
AcDbLine
 10
2179.47061994182
 20
1354.494289224422
 30
0.0
 11
2181.802158232587
 21
1359.494289224407
 31
0.0
  0
LINE
  5
18C9B
330
18C7A
100
AcDbEntity
  8
細線
100
AcDbLine
 10
2249.470628127236
 20
1354.49427167071
 30
0.0
 11
2247.139081651047
 21
1359.494289224389
 31
0.0
  0
LINE
  5
18C9C
330
18C7A
100
AcDbEntity
  8
細線
100
AcDbLine
 10
2247.139081651047
 20
1359.494289224389
 30
0.0
 11
2181.802158232573
 21
1359.494289224378
 31
0.0
  0
LINE
  5
18C9D
330
18C7A
100
AcDbEntity
  8
細線
100
AcDbLine
 10
1807.970585744697
 20
1320.494460905133
 30
0.0
 11
1810.302124035464
 21
1325.494460905118
 31
0.0
  0
LINE
  5
18C9E
330
18C7A
100
AcDbEntity
  8
細線
100
AcDbLine
 10
1877.970593930113
 20
1320.494443351421
 30
0.0
 11
1875.639047453926
 21
1325.4944609051
 31
0.0
  0
LINE
  5
18C9F
330
18C7A
100
AcDbEntity
  8
細線
100
AcDbLine
 10
1875.639047453926
 20
1325.4944609051
 30
0.0
 11
1810.302124035452
 21
1325.494460905089
 31
0.0
  0
LINE
  5
18CA0
330
18C7A
100
AcDbEntity
  8
細線
100
AcDbLine
 10
2015.639047453926
 20
1325.4944609051
 30
0.0
 11
1950.302124035452
 21
1325.494460905089
 31
0.0
  0
LINE
  5
18CA1
330
18C7A
100
AcDbEntity
  8
細線
100
AcDbLine
 10
2017.970593930113
 20
1320.494443351421
 30
0.0
 11
2015.639047453924
 21
1325.4944609051
 31
0.0
  0
LINE
  5
18CA2
330
18C7A
100
AcDbEntity
  8
細線
100
AcDbLine
 10
1947.970585744697
 20
1320.494460905133
 30
0.0
 11
1950.302124035465
 21
1325.494460905118
 31
0.0
  0
LINE
  5
18CA3
330
18C7A
100
AcDbEntity
  8
細線
100
AcDbLine
 10
1735.639047453926
 20
1325.494460905098
 30
0.0
 11
1670.302124035454
 21
1325.494460905087
 31
0.0
  0
LINE
  5
18CA4
330
18C7A
100
AcDbEntity
  8
細線
100
AcDbLine
 10
1737.970593930113
 20
1320.494443351419
 30
0.0
 11
1735.639047453926
 21
1325.494460905098
 31
0.0
  0
LINE
  5
18CA5
330
18C7A
100
AcDbEntity
  8
細線
100
AcDbLine
 10
1667.970585744697
 20
1320.494460905131
 30
0.0
 11
1670.302124035465
 21
1325.494460905116
 31
0.0
  0
LINE
  5
18CA6
330
18C7A
100
AcDbEntity
  8
細線
100
AcDbLine
 10
1527.970593930113
 20
1320.494460905133
 30
0.0
 11
1530.302132220881
 21
1325.494460905118
 31
0.0
  0
LINE
  5
18CA7
330
18C7A
100
AcDbEntity
  8
細線
100
AcDbLine
 10
1597.970602115529
 20
1320.494443351421
 30
0.0
 11
1595.639055639342
 21
1325.4944609051
 31
0.0
  0
LINE
  5
18CA8
330
18C7A
100
AcDbEntity
  8
細線
100
AcDbLine
 10
1595.639055639342
 20
1325.4944609051
 30
0.0
 11
1530.302132220869
 21
1325.494460905089
 31
0.0
  0
ARC
  5
18CA9
330
18C7A
100
AcDbEntity
  8
部品1
 48
0.01
100
AcDbCircle
 10
1483.470482677778
 20
1319.493338720063
 30
0.0
 40
0.5
100
AcDbArc
 50
270.0
 51
0.0
  0
LINE
  5
18CAA
330
18C7A
100
AcDbEntity
  8
部品1
 48
0.01
100
AcDbLine
 10
1483.970482677778
 20
1320.493338720063
 30
0.0
 11
1483.970482677778
 21
1319.493338720063
 31
0.0
  0
LINE
  5
18CAB
330
18C7A
100
AcDbEntity
  8
部品1
 48
0.01
100
AcDbLine
 10
1483.970482677778
 20
1320.493338720063
 30
0.0
 11
1483.970482677778
 21
1319.493338720063
 31
0.0
  0
LINE
  5
18CAC
330
18C7A
100
AcDbEntity
  8
部品1
 48
0.01
100
AcDbLine
 10
1483.470482677778
 20
1318.993338720063
 30
0.0
 11
1476.857977247713
 21
1318.993338720062
 31
0.0
  0
ARC
  5
18CAD
330
18C7A
100
AcDbEntity
  8
部品1
100
AcDbCircle
 10
1476.926326800494
 20
1319.993338720062
 30
0.0
 40
1.0
100
AcDbArc
 50
160.5287793655865
 51
270.0
  0
ARC
  5
18CAE
330
18C7A
100
AcDbEntity
  8
部品1
100
AcDbCircle
 10
1451.470482677778
 20
1328.993338720062
 30
0.0
 40
26.0
100
AcDbArc
 50
340.5287793655865
 51
0.0
  0
LINE
  5
18CAF
330
18C7A
100
AcDbEntity
  8
部品1
100
AcDbLine
 10
1477.470482677778
 20
1328.993338720062
 30
0.0
 11
1477.470482677778
 21
1333.993338720061
 31
0.0
  0
ARC
  5
18CB0
330
18C7A
100
AcDbEntity
  8
部品1
 48
0.01
100
AcDbCircle
 10
1475.470482677778
 20
1333.993338720061
 30
0.0
 40
2.0
100
AcDbArc
 50
0.0
 51
90.0
  0
ARC
  5
18CB1
330
18C7A
100
AcDbEntity
  8
部品1
100
AcDbCircle
 10
1473.862091052968
 20
1332.993338720062
 30
0.0
 40
3.0
100
AcDbArc
 50
90.0
 51
141.6069559808035
  0
LINE
  5
18CB2
330
18C7A
100
AcDbEntity
  8
部品1
 48
0.01
100
AcDbLine
 10
1475.470482677778
 20
1335.993338720062
 30
0.0
 11
1473.862091052968
 21
1335.993338720062
 31
0.0
  0
ARC
  5
18CB3
330
18C7A
100
AcDbEntity
  8
部品1
100
AcDbCircle
 10
1455.399768463507
 20
1332.293338720065
 30
0.0
 40
3.0
100
AcDbArc
 50
254.0576313943215
 51
270.0
  0
ARC
  5
18CB4
330
18C7A
100
AcDbEntity
  8
部品1
100
AcDbCircle
 10
1462.541196892049
 20
1332.293338720065
 30
0.0
 40
3.0
100
AcDbArc
 50
270.0
 51
285.9423686056786
  0
LINE
  5
18CB5
330
18C7A
100
AcDbEntity
  8
部品1
100
AcDbLine
 10
1462.541196892049
 20
1329.293338720064
 30
0.0
 11
1455.399768463507
 21
1329.293338720064
 31
0.0
  0
ARC
  5
18CB6
330
18C7A
100
AcDbEntity
  8
部品1
100
AcDbCircle
 10
1458.970482677778
 20
1344.793338720065
 30
0.0
 40
16.0
100
AcDbArc
 50
285.9423686056786
 51
321.6069559808035
  0
LINE
  5
18CB7
330
18C7A
100
AcDbEntity
  8
部品1
 48
0.01
100
AcDbLine
 10
1442.470482677778
 20
1335.993338720062
 30
0.0
 11
1444.078874302588
 21
1335.993338720062
 31
0.0
  0
ARC
  5
18CB8
330
18C7A
100
AcDbEntity
  8
部品1
100
AcDbCircle
 10
1444.078874302588
 20
1332.993338720062
 30
0.0
 40
3.0
100
AcDbArc
 50
38.39304401919648
 51
90.0
  0
ARC
  5
18CB9
330
18C7A
100
AcDbEntity
  8
部品1
100
AcDbCircle
 10
1458.970482677778
 20
1344.793338720065
 30
0.0
 40
16.0
100
AcDbArc
 50
218.3930440191965
 51
254.0576313943215
  0
LINE
  5
18CBA
330
18C7A
100
AcDbEntity
  8
部品1
100
AcDbLine
 10
1440.470482677778
 20
1328.993338720062
 30
0.0
 11
1440.470482677778
 21
1333.993338720061
 31
0.0
  0
ARC
  5
18CBB
330
18C7A
100
AcDbEntity
  8
部品1
 48
0.01
100
AcDbCircle
 10
1442.470482677778
 20
1333.993338720061
 30
0.0
 40
2.0
100
AcDbArc
 50
90.0
 51
180.0
  0
ARC
  5
18CBC
330
18C7A
100
AcDbEntity
  8
部品1
100
AcDbCircle
 10
1466.470482677778
 20
1328.993338720062
 30
0.0
 40
26.0
100
AcDbArc
 50
180.0
 51
199.4712206344134
  0
ARC
  5
18CBD
330
18C7A
100
AcDbEntity
  8
部品1
 48
0.01
100
AcDbCircle
 10
1434.470482677778
 20
1319.493338720063
 30
0.0
 40
0.5
100
AcDbArc
 50
180.0
 51
270.0
  0
LINE
  5
18CBE
330
18C7A
100
AcDbEntity
  8
部品1
 48
0.01
100
AcDbLine
 10
1434.470482677778
 20
1318.993338720063
 30
0.0
 11
1441.014638555061
 21
1318.993338720062
 31
0.0
  0
LINE
  5
18CBF
330
18C7A
100
AcDbEntity
  8
部品1
 48
0.01
100
AcDbLine
 10
1433.970482677778
 20
1320.493338720063
 30
0.0
 11
1433.970482677778
 21
1319.493338720063
 31
0.0
  0
ARC
  5
18CC0
330
18C7A
100
AcDbEntity
  8
部品1
100
AcDbCircle
 10
1441.014638555061
 20
1319.993338720062
 30
0.0
 40
1.0
100
AcDbArc
 50
270.0
 51
19.47122063441346
  0
LINE
  5
18CC1
330
18C7A
100
AcDbEntity
  8
細線
100
AcDbLine
 10
1479.470482677785
 20
1338.493338720065
 30
0.0
 11
1438.470482677785
 21
1338.493338720058
 31
0.0
  0
LINE
  5
18CC2
330
18C7A
100
AcDbEntity
  8
細線
100
AcDbLine
 10
1438.470482677785
 20
1338.493338720058
 30
0.0
 11
1438.470482677785
 21
1320.49333872004
 31
0.0
  0
LINE
  5
18CC3
330
18C7A
100
AcDbEntity
  8
細線
100
AcDbLine
 10
1479.470482677785
 20
1338.493338720065
 30
0.0
 11
1479.470482677785
 21
1320.49333872004
 31
0.0
  0
LINE
  5
18CC4
330
18C7A
100
AcDbEntity
  8
細線
100
AcDbLine
 10
1322.970589276523
 20
1324.494269174465
 30
0.0
 11
1322.970589276523
 21
1320.494269174513
 31
0.0
  0
LINE
  5
18CC5
330
18C7A
100
AcDbEntity
  8
寸法
 48
50.0
100
AcDbLine
 10
1746.17359555837
 20
1170.531020743327
 30
0.0
 11
1694.767587648266
 21
1170.531020743327
 31
0.0
  0
LINE
  5
18CC6
330
18C7A
100
AcDbEntity
  8
寸法
 48
50.0
100
AcDbLine
 10
1694.767587648266
 20
1170.531020743327
 30
0.0
 11
1694.767587648266
 21
1201.841179395494
 31
0.0
  0
LINE
  5
18CC7
330
18C7A
100
AcDbEntity
  8
寸法
 48
50.0
100
AcDbLine
 10
1694.767587648266
 20
1201.841179395494
 30
0.0
 11
1665.006255656843
 21
1201.841179395494
 31
0.0
  0
LINE
  5
18CC8
330
18C7A
100
AcDbEntity
  8
寸法
 48
50.0
100
AcDbLine
 10
1665.006255656843
 20
1201.841179395494
 30
0.0
 11
1720.470591603318
 21
1239.420630324105
 31
0.0
  0
LINE
  5
18CC9
330
18C7A
100
AcDbEntity
  8
寸法
 48
50.0
100
AcDbLine
 10
1775.934927549793
 20
1201.841179395494
 30
0.0
 11
1720.470591603318
 21
1239.420630324105
 31
0.0
  0
LINE
  5
18CCA
330
18C7A
100
AcDbEntity
  8
寸法
 48
50.0
100
AcDbLine
 10
1746.17359555837
 20
1201.841179395494
 30
0.0
 11
1775.934927549793
 21
1201.841179395494
 31
0.0
  0
LINE
  5
18CCB
330
18C7A
100
AcDbEntity
  8
寸法
 48
50.0
100
AcDbLine
 10
1746.17359555837
 20
1170.531020743327
 30
0.0
 11
1746.17359555837
 21
1201.841179395494
 31
0.0
  0
LINE
  5
18CCC
330
18C7A
100
AcDbEntity
  8
寸法
 48
50.0
100
AcDbLine
 10
1694.767587648266
 20
1170.531020743327
 30
0.0
 11
1746.17359555837
 21
1170.531020743327
 31
0.0
  0
LINE
  5
18CCD
330
18C7A
100
AcDbEntity
  8
寸法
 48
50.0
100
AcDbLine
 10
2025.339129835225
 20
1227.676611498152
 30
0.0
 11
2025.339129835225
 21
1174.01297691636
 31
0.0
  0
LINE
  5
18CCE
330
18C7A
100
AcDbEntity
  8
寸法
 48
50.0
100
AcDbLine
 10
2114.623348430647
 20
1203.752977228664
 30
0.0
 11
2025.339129835225
 21
1227.676611498152
 31
0.0
  0
LINE
  5
18CCF
330
18C7A
100
AcDbEntity
  8
寸法
 48
50.0
100
AcDbLine
 10
1895.471408254923
 20
1203.752977228664
 30
0.0
 11
2114.623348430647
 21
1203.752977228664
 31
0.0
  0
DIMENSION
  5
18CD0
330
18C7A
100
AcDbEntity
  8
寸法
 48
50.0
100
AcDbDimension
  2
*D15
 10
2588.970589276523
 20
706.3240511224249
 30
0.0
 11
1969.060022905491
 21
706.3240511224249
 31
0.0
 12
-3742.925985830444
 22
-6453.628869860112
 32
0.0
 70
   128
  1
有効開口部間口\P<>
 71
     5
 42
1266.0
  3
INABA_S40G
100
AcDbAlignedDimension
 13
1322.970589276523
 23
1315.494269174465
 33
0.0
 14
2588.970589276523
 24
1315.494269174465
 34
0.0
100
AcDbRotatedDimension
1001
ACAD
1000
DSTYLE
1002
{
1070
   341
1005
0
1002
}
  0
LINE
  5
18CD1
330
18C7A
100
AcDbEntity
  8
部品1
100
AcDbLine
 10
3409.970589276524
 20
1392.494269174465
 30
0.0
 11
3437.970589276523
 21
1392.494269174465
 31
0.0
  0
DIMENSION
  5
18CD2
330
18C7A
100
AcDbEntity
  8
寸法
100
AcDbDimension
  2
*D16
 10
3674.266172669749
 20
1315.494269174465
 30
0.0
 11
3674.266172669748
 21
1177.494269174462
 31
0.0
 12
-3742.925985830444
 22
-6453.628869860112
 32
0.0
 70
   128
 71
     5
 42
77.0
  3
INABA_S40
100
AcDbAlignedDimension
 13
3437.970589276523
 23
1392.494269174465
 33
0.0
 14
3436.970589276523
 24
1315.494269174465
 34
0.0
 50
90.0
100
AcDbRotatedDimension
1001
ACAD
1000
DSTYLE
1002
{
1070
    41
1040
0.5
1070
    44
1040
1.0
1070
   147
1040
0.8
1070
   271
1070
     2
1070
   272
1070
     2
1070
   289
1070
     3
1070
   340
1005
F706
1070
   343
1005
164B4
1070
   344
1005
164B4
1002
}
  0
LINE
  5
18CD3
330
18C7A
100
AcDbEntity
  8
部品1
100
AcDbLine
 10
3437.970589276523
 20
1315.494269174465
 30
0.0
 11
3437.970589276523
 21
1392.494269174465
 31
0.0
  0
LINE
  5
18CD4
330
18C7A
100
AcDbEntity
  8
部品1
100
AcDbLine
 10
3398.970589276523
 20
1388.494269174465
 30
0.0
 11
3409.970589276524
 21
1388.494269174465
 31
0.0
  0
LINE
  5
18CD5
330
18C7A
100
AcDbEntity
  8
部品1
100
AcDbLine
 10
3407.970589276523
 20
1324.494269174465
 30
0.0
 11
3407.970589276523
 21
1315.494269174465
 31
0.0
  0
LINE
  5
18CD6
330
18C7A
100
AcDbEntity
  8
部品1
100
AcDbLine
 10
3398.970589276523
 20
1324.494269174465
 30
0.0
 11
3407.970589276523
 21
1324.494269174465
 31
0.0
  0
LINE
  5
18CD7
330
18C7A
100
AcDbEntity
  8
部品1
100
AcDbLine
 10
3398.970589276523
 20
1388.494269174465
 30
0.0
 11
3398.970589276523
 21
1324.494269174465
 31
0.0
  0
LINE
  5
18CD8
330
18C7A
100
AcDbEntity
  8
部品1
100
AcDbLine
 10
3409.970589276524
 20
1419.494269174465
 30
0.0
 11
3409.970589276524
 21
1388.494269174465
 31
0.0
  0
LINE
  5
18CD9
330
18C7A
100
AcDbEntity
  8
部品1
100
AcDbLine
 10
1322.970589276523
 20
1388.494269174465
 30
0.0
 11
1311.970589276523
 21
1388.494269174465
 31
0.0
  0
LINE
  5
18CDA
330
18C7A
100
AcDbEntity
  8
部品1
100
AcDbLine
 10
1283.970589276523
 20
1392.494269174465
 30
0.0
 11
1311.970589276523
 21
1392.494269174465
 31
0.0
  0
LINE
  5
18CDB
330
18C7A
100
AcDbEntity
  8
部品1
100
AcDbLine
 10
1313.970589276523
 20
1324.494269174465
 30
0.0
 11
1313.970589276523
 21
1315.494269174465
 31
0.0
  0
LINE
  5
18CDC
330
18C7A
100
AcDbEntity
  8
部品1
100
AcDbLine
 10
1322.970589276523
 20
1324.494269174465
 30
0.0
 11
1313.970589276523
 21
1324.494269174465
 31
0.0
  0
LINE
  5
18CDD
330
18C7A
100
AcDbEntity
  8
部品1
100
AcDbLine
 10
1313.970589276523
 20
1315.494269174465
 30
0.0
 11
1283.970589276523
 21
1315.494269174465
 31
0.0
  0
LINE
  5
18CDE
330
18C7A
100
AcDbEntity
  8
部品1
100
AcDbLine
 10
1283.970589276523
 20
1315.494269174465
 30
0.0
 11
1283.970589276523
 21
1392.494269174465
 31
0.0
  0
LINE
  5
18CDF
330
18C7A
100
AcDbEntity
  8
部品1
100
AcDbLine
 10
1322.970589276523
 20
1388.494269174465
 30
0.0
 11
1322.970589276523
 21
1324.494269174465
 31
0.0
  0
LINE
  5
18CE0
330
18C7A
100
AcDbEntity
  8
部品1
100
AcDbLine
 10
1311.970589276523
 20
1419.494269174462
 30
0.0
 11
1311.970589276523
 21
1388.494269174465
 31
0.0
  0
LINE
  5
18CE1
330
18C7A
100
AcDbEntity
  8
部品1
100
AcDbLine
 10
1311.970589276523
 20
1419.494269174462
 30
0.0
 11
3409.970589276524
 21
1419.494269174465
 31
0.0
  0
LINE
  5
18CE2
330
18C7A
100
AcDbEntity
  8
部品1
100
AcDbLine
 10
3407.970589276523
 20
1315.494269174465
 30
0.0
 11
3437.970589276523
 21
1315.494269174465
 31
0.0
  0
LINE
  5
18CE3
330
18C7A
100
AcDbEntity
  8
部品1
100
AcDbLine
 10
1313.970589276523
 20
1315.494269174465
 30
0.0
 11
3410.970589276523
 21
1315.494269174465
 31
0.0
  0
LINE
  5
18CE4
330
18C7A
100
AcDbEntity
  8
細線
  6
Continuous
 62
     5
100
AcDbLine
 10
2689.970589276527
 20
1354.494269174462
 30
0.0
 11
2689.970589276527
 21
1354.494269174462
 31
0.0
  0
LINE
  5
18CE5
330
18C7A
100
AcDbEntity
  8
細線
  6
Continuous
 62
     5
100
AcDbLine
 10
2682.470589276527
 20
1354.494269174462
 30
0.0
 11
2682.470589276527
 21
1354.494269174462
 31
0.0
  0
LINE
  5
18CE6
330
18C7A
100
AcDbEntity
  8
細線
  6
Continuous
 62
     5
100
AcDbLine
 10
2676.470589276527
 20
1354.494269174462
 30
0.0
 11
2676.470589276527
 21
1354.494269174462
 31
0.0
  0
LINE
  5
18CE7
330
18C7A
100
AcDbEntity
  8
細線
  6
Continuous
 62
     5
100
AcDbLine
 10
2743.970589276527
 20
1373.494269174462
 30
0.0
 11
2743.970589276527
 21
1373.494269174462
 31
0.0
  0
LINE
  5
18CE8
330
18C7A
100
AcDbEntity
  8
細線
 48
50.0
100
AcDbLine
 10
1336.970593930116
 20
1341.094443351418
 30
0.0
 11
1336.970593930113
 21
1349.490593759059
 31
0.0
  0
LINE
  5
18CE9
330
18C7A
100
AcDbEntity
  8
細線
 48
50.0
100
AcDbLine
 10
1336.970593930113
 20
1349.490593759059
 30
0.0
 11
1322.970589276523
 21
1349.490593759057
 31
0.0
  0
LINE
  5
18CEA
330
18C7A
100
AcDbEntity
  8
細線
 48
50.0
100
AcDbLine
 10
2087.970593930113
 20
1337.644443351419
 30
0.0
 11
2087.970593930113
 21
1342.494443351421
 31
0.0
  0
LINE
  5
18CEB
330
18C7A
100
AcDbEntity
  8
細線
 48
50.0
100
AcDbLine
 10
2087.970593930113
 20
1342.494443351421
 30
0.0
 11
2102.970593930113
 21
1342.494443351421
 31
0.0
  0
LINE
  5
18CEC
330
18C7A
100
AcDbEntity
  8
細線
 48
50.0
100
AcDbLine
 10
2102.970593930113
 20
1342.494443351421
 30
0.0
 11
2102.970593930115
 21
1349.494443351419
 31
0.0
  0
LINE
  5
18CED
330
18C7A
100
AcDbEntity
  8
細線
 48
50.0
100
AcDbLine
 10
2102.970593930115
 20
1349.494443351419
 30
0.0
 11
2117.970593930113
 21
1349.494443351419
 31
0.0
  0
LINE
  5
18CEE
330
18C7A
100
AcDbEntity
  8
細線
 48
50.0
100
AcDbLine
 10
2117.970593930113
 20
1349.494443351419
 30
0.0
 11
2117.970593930113
 21
1320.494443351421
 31
0.0
  0
LINE
  5
18CEF
330
18C7A
100
AcDbEntity
  8
細線
 48
50.0
100
AcDbLine
 10
1313.970589276523
 20
1320.491777694889
 30
0.0
 11
1527.970593930113
 21
1320.494460905133
 31
0.0
  0
LINE
  5
18CF0
330
18C7A
100
AcDbEntity
  8
細線
 48
50.0
100
AcDbLine
 10
2017.970593930113
 20
1320.494443351421
 30
0.0
 11
2117.970593930113
 21
1320.494443351421
 31
0.0
  0
LINE
  5
18CF1
330
18C7A
100
AcDbEntity
  8
細線
 48
50.0
100
AcDbLine
 10
1737.970593930113
 20
1320.494443351419
 30
0.0
 11
1807.970593930113
 21
1320.494443351423
 31
0.0
  0
LINE
  5
18CF2
330
18C7A
100
AcDbEntity
  8
細線
 48
50.0
100
AcDbLine
 10
1750.832558942642
 20
1320.494443351419
 30
0.0
 11
1756.588076525309
 21
1338.765294641913
 31
0.0
  0
LINE
  5
18CF3
330
18C7A
100
AcDbEntity
  8
細線
 48
50.0
100
AcDbLine
 10
1756.588076525309
 20
1338.765294641913
 30
0.0
 11
1767.516525005743
 21
1338.765294641911
 31
0.0
  0
ARC
  5
18CF4
330
18C7A
100
AcDbEntity
  8
細線
 48
50.0
100
AcDbCircle
 10
1767.516525005743
 20
1337.765294641911
 30
0.0
 40
1.0
100
AcDbArc
 50
24.62431835207225
 51
90.0
  0
ARC
  5
18CF5
330
18C7A
100
AcDbEntity
  8
細線
 48
50.0
100
AcDbCircle
 10
1778.425237120377
 20
1337.765294641911
 30
0.0
 40
1.0
100
AcDbArc
 50
90.0
 51
155.3756816479277
  0
ARC
  5
18CF6
330
18C7A
100
AcDbEntity
  8
細線
 48
50.0
100
AcDbCircle
 10
1772.970881063058
 20
1340.265294641911
 30
0.0
 40
5.0
100
AcDbArc
 50
204.6243183520723
 51
335.3756816479278
  0
LINE
  5
18CF7
330
18C7A
100
AcDbEntity
  8
細線
 48
50.0
100
AcDbLine
 10
1778.425237120377
 20
1338.765294641911
 30
0.0
 11
1789.35368560081
 21
1338.765294641913
 31
0.0
  0
LINE
  5
18CF8
330
18C7A
100
AcDbEntity
  8
細線
 48
50.0
100
AcDbLine
 10
1789.35368560081
 20
1338.765294641913
 30
0.0
 11
1795.109203183478
 21
1320.494443351423
 31
0.0
  0
LINE
  5
18CF9
330
18C7A
100
AcDbEntity
  8
細線
 48
50.0
100
AcDbLine
 10
2087.970593930113
 20
1341.094443351419
 30
0.0
 11
1336.970593930116
 21
1341.094443351418
 31
0.0
  0
LINE
  5
18CFA
330
18C7A
100
AcDbEntity
  8
細線
 48
50.0
100
AcDbLine
 10
1947.970593930113
 20
1320.494443351421
 30
0.0
 11
1877.970593930113
 21
1320.494443351421
 31
0.0
  0
LINE
  5
18CFB
330
18C7A
100
AcDbEntity
  8
細線
100
AcDbLine
 10
1667.970593930113
 20
1320.494443351421
 30
0.0
 11
1597.970602115529
 21
1320.494443351421
 31
0.0
  0
LINE
  5
18CFC
330
18C7A
100
AcDbEntity
  8
細線
 48
50.0
100
AcDbLine
 10
2741.970584622936
 20
1375.094487209288
 30
0.0
 11
2106.970593930113
 21
1375.094487209284
 31
0.0
  0
LINE
  5
18CFD
330
18C7A
100
AcDbEntity
  8
細線
 48
50.0
100
AcDbLine
 10
2106.970593930113
 20
1371.990637616925
 30
0.0
 11
2106.970593930113
 21
1376.490637616925
 31
0.0
  0
LINE
  5
18CFE
330
18C7A
100
AcDbEntity
  8
細線
 48
50.0
100
AcDbLine
 10
2106.970593930113
 20
1376.490637616925
 30
0.0
 11
2091.970593930113
 21
1376.490637616925
 31
0.0
  0
LINE
  5
18CFF
330
18C7A
100
AcDbEntity
  8
細線
 48
50.0
100
AcDbLine
 10
2091.970593930113
 20
1376.490637616925
 30
0.0
 11
2091.970593930113
 21
1383.490637616927
 31
0.0
  0
LINE
  5
18D00
330
18C7A
100
AcDbEntity
  8
細線
 48
50.0
100
AcDbLine
 10
2091.970593930113
 20
1383.490637616927
 30
0.0
 11
2076.970593930115
 21
1383.490637616924
 31
0.0
  0
LINE
  5
18D01
330
18C7A
100
AcDbEntity
  8
細線
 48
50.0
100
AcDbLine
 10
2076.970593930115
 20
1383.490637616924
 30
0.0
 11
2076.970593930115
 21
1345.890409513813
 31
0.0
  0
LINE
  5
18D02
330
18C7A
100
AcDbEntity
  8
細線
 48
50.0
100
AcDbLine
 10
2076.970593930115
 20
1345.890409513813
 30
0.0
 11
2096.970601231289
 21
1345.890451063353
 31
0.0
  0
LINE
  5
18D03
330
18C7A
100
AcDbEntity
  8
細線
 48
50.0
100
AcDbLine
 10
2096.970556362348
 20
1354.493912699161
 30
0.0
 11
2096.970601231289
 21
1345.890451063353
 31
0.0
  0
LINE
  5
18D04
330
18C7A
100
AcDbEntity
  8
細線
 48
50.0
100
AcDbLine
 10
2741.970584622936
 20
1371.644487209287
 30
0.0
 11
2741.970584622936
 21
1376.494487209284
 31
0.0
  0
LINE
  5
18D05
330
18C7A
100
AcDbEntity
  8
細線
 48
50.0
100
AcDbLine
 10
2741.970584622936
 20
1376.494487209284
 30
0.0
 11
2756.970584622934
 21
1376.494487209285
 31
0.0
  0
LINE
  5
18D06
330
18C7A
100
AcDbEntity
  8
細線
 48
50.0
100
AcDbLine
 10
2756.970584622934
 20
1376.494487209285
 30
0.0
 11
2756.970596256909
 21
1383.494487209331
 31
0.0
  0
LINE
  5
18D07
330
18C7A
100
AcDbEntity
  8
細線
 48
50.0
100
AcDbLine
 10
2756.970596256909
 20
1383.494487209331
 30
0.0
 11
2771.970594427439
 21
1383.494487209329
 31
0.0
  0
LINE
  5
18D08
330
18C7A
100
AcDbEntity
  8
細線
 48
50.0
100
AcDbLine
 10
2771.970594427439
 20
1383.494487209329
 30
0.0
 11
2771.970584125617
 21
1354.494281037055
 31
0.0
  0
LINE
  5
18D09
330
18C7A
100
AcDbEntity
  8
細線
 48
50.0
100
AcDbLine
 10
2458.070304175992
 20
1354.494278397076
 30
0.0
 11
2389.470863838818
 21
1354.494283787084
 31
0.0
  0
LINE
  5
18D0A
330
18C7A
100
AcDbEntity
  8
細線
 48
50.0
100
AcDbLine
 10
2096.970556362348
 20
1354.493912699161
 30
0.0
 11
2108.203245717057
 21
1354.494095652309
 31
0.0
  0
ARC
  5
18D0B
330
18C7A
100
AcDbEntity
  8
細線
 48
50.0
100
AcDbCircle
 10
2114.785538024393
 20
1353.294259565922
 30
0.0
 40
1.8
100
AcDbArc
 50
270.0006665777295
 51
345.000555481349
  0
LINE
  5
18D0C
330
18C7A
100
AcDbEntity
  8
細線
 48
50.0
100
AcDbLine
 10
2116.771971470473
 20
1353.753100023201
 30
0.0
 11
2116.524209028273
 21
1352.828402141094
 31
0.0
  0
LINE
  5
18D0D
330
18C7A
100
AcDbEntity
  8
細線
 48
50.0
100
AcDbLine
 10
2114.785558965548
 20
1351.494259566043
 30
0.0
 11
2111.155631546781
 21
1351.494217335563
 31
0.0
  0
ARC
  5
18D0E
330
18C7A
100
AcDbEntity
  8
細線
 48
50.0
100
AcDbCircle
 10
2111.155610605627
 20
1353.29421733544
 30
0.0
 40
1.8
100
AcDbArc
 50
195.0010443049965
 51
270.0006665777295
  0
LINE
  5
18D0F
330
18C7A
100
AcDbEntity
  8
細線
 48
50.0
100
AcDbLine
 10
2109.169183113368
 20
1353.752932303007
 30
0.0
 11
2109.416952609882
 21
1352.828311364425
 31
0.0
  0
ARC
  5
18D10
330
18C7A
100
AcDbEntity
  8
細線
 48
50.0
100
AcDbCircle
 10
2108.203262004622
 20
1353.494095652444
 30
0.0
 40
1.0
100
AcDbArc
 50
15.00104430499651
 51
90.00093320877969
  0
LINE
  5
18D11
330
18C7A
100
AcDbEntity
  8
細線
 48
50.0
100
AcDbLine
 10
2117.737892825577
 20
1354.494290342714
 30
0.0
 11
2118.679652976481
 21
1354.494296916564
 31
0.0
  0
ARC
  5
18D12
330
18C7A
100
AcDbEntity
  8
細線
 48
50.0
100
AcDbCircle
 10
2117.737899805961
 20
1353.49429034274
 30
0.0
 40
1.0
100
AcDbArc
 50
90.0003999466794
 51
165.000555481349
  0
LINE
  5
18D13
330
18C7A
100
AcDbEntity
  8
細線
 48
50.0
100
AcDbLine
 10
2669.470584622926
 20
1354.494281037055
 30
0.0
 11
2771.970584125617
 21
1354.494281037055
 31
0.0
  0
LINE
  5
18D14
330
18C7A
100
AcDbEntity
  8
細線
 48
50.0
100
AcDbLine
 10
2179.47061994182
 20
1354.494289224422
 30
0.0
 11
2118.370558714898
 21
1354.494296916564
 31
0.0
  0
LINE
  5
18D15
330
18C7A
100
AcDbEntity
  8
細線
 48
50.0
100
AcDbLine
 10
2599.470584622926
 20
1354.494281037057
 30
0.0
 11
2529.470584622926
 21
1354.494281037055
 31
0.0
  0
LINE
  5
18D16
330
18C7A
100
AcDbEntity
  8
細線
 48
50.0
100
AcDbLine
 10
2319.470584622926
 20
1354.494281037054
 30
0.0
 11
2249.470567335051
 21
1354.494281037057
 31
0.0
  0
ARC
  5
18D17
330
18C7A
100
AcDbEntity
  8
細線
 48
50.0
100
AcDbCircle
 10
2756.170589276533
 20
1387.694269174466
 30
0.0
 40
0.8
100
AcDbArc
 50
359.9997333689499
 51
89.99986668437072
  0
ARC
  5
18D18
330
18C7A
100
AcDbEntity
  8
細線
 48
50.0
100
AcDbCircle
 10
2763.770596101631
 20
1387.694280343081
 30
0.0
 40
0.8
100
AcDbArc
 50
90.00014387753465
 51
179.9997333689498
  0
LINE
  5
18D19
330
18C7A
100
AcDbEntity
  8
細線
 48
50.0
100
AcDbLine
 10
2756.170591137969
 20
1388.494269174465
 30
0.0
 11
2750.970589276525
 21
1388.494269174465
 31
0.0
  0
ARC
  5
18D1A
330
18C7A
100
AcDbEntity
  8
細線
 48
50.0
100
AcDbCircle
 10
2757.670589276524
 20
1386.194269174464
 30
0.0
 40
0.7
100
AcDbArc
 50
180.0
 51
270.0
  0
ARC
  5
18D1B
330
18C7A
100
AcDbEntity
  8
細線
 48
50.0
100
AcDbCircle
 10
2762.270589276524
 20
1386.194269174464
 30
0.0
 40
0.7
100
AcDbArc
 50
270.0
 51
0.0
  0
LINE
  5
18D1C
330
18C7A
100
AcDbEntity
  8
細線
 48
50.0
100
AcDbLine
 10
2762.970589276525
 20
1386.194269174464
 30
0.0
 11
2762.970596101639
 21
1387.694284065954
 31
0.0
  0
LINE
  5
18D1D
330
18C7A
100
AcDbEntity
  8
細線
 48
50.0
100
AcDbLine
 10
2757.670589276524
 20
1385.494269174465
 30
0.0
 11
2762.270589276524
 21
1385.494269174465
 31
0.0
  0
LINE
  5
18D1E
330
18C7A
100
AcDbEntity
  8
細線
 48
50.0
100
AcDbLine
 10
2756.970589276525
 20
1387.694269174466
 30
0.0
 11
2756.970589276525
 21
1386.194269174464
 31
0.0
  0
LINE
  5
18D1F
330
18C7A
100
AcDbEntity
  8
細線
 48
50.0
100
AcDbLine
 10
3382.570589276527
 20
1418.494269174465
 30
0.0
 11
2745.970589276525
 21
1418.494269174463
 31
0.0
  0
LINE
  5
18D20
330
18C7A
100
AcDbEntity
  8
細線
 48
50.0
100
AcDbLine
 10
3408.470589276525
 20
1413.494269174467
 30
0.0
 11
3392.570589276527
 21
1413.494269174465
 31
0.0
  0
LINE
  5
18D21
330
18C7A
100
AcDbEntity
  8
細線
 48
50.0
100
AcDbLine
 10
3392.570589276526
 20
1413.494269174465
 30
0.0
 11
3382.570589276527
 21
1418.494269174465
 31
0.0
  0
LINE
  5
18D22
330
18C7A
100
AcDbEntity
  8
細線
100
AcDbLine
 10
2993.470589276525
 20
1388.494269174465
 30
0.0
 11
2993.470589276525
 21
1417.794269174464
 31
0.0
  0
LINE
  5
18D23
330
18C7A
100
AcDbEntity
  8
細線
100
AcDbLine
 10
2993.470589276525
 20
1417.794269174464
 30
0.0
 11
3013.470589276525
 21
1417.794269174464
 31
0.0
  0
LINE
  5
18D24
330
18C7A
100
AcDbEntity
  8
細線
100
AcDbLine
 10
3013.470589276525
 20
1388.494269174465
 30
0.0
 11
3013.470589276525
 21
1417.794269174464
 31
0.0
  0
LINE
  5
18D25
330
18C7A
100
AcDbEntity
  8
細線
100
AcDbLine
 10
3170.720589276524
 20
1388.494269174465
 30
0.0
 11
3100.720589276523
 21
1388.494269174465
 31
0.0
  0
LINE
  5
18D26
330
18C7A
100
AcDbEntity
  8
細線
 48
50.0
100
AcDbLine
 10
2890.720589276525
 20
1388.494269174465
 30
0.0
 11
2763.766368849365
 21
1388.494269174465
 31
0.0
  0
LINE
  5
18D27
330
18C7A
100
AcDbEntity
  8
細線
100
AcDbLine
 10
3030.720589276525
 20
1388.494269174465
 30
0.0
 11
2960.720589276525
 21
1388.494269174465
 31
0.0
  0
LINE
  5
18D28
330
18C7A
100
AcDbEntity
  8
細線
 48
50.0
100
AcDbLine
 10
2750.970589276525
 20
1380.494269174465
 30
0.0
 11
2750.970589276525
 21
1388.494269174465
 31
0.0
  0
LINE
  5
18D29
330
18C7A
100
AcDbEntity
  8
細線
 48
50.0
100
AcDbLine
 10
2730.970589276524
 20
1380.494269174467
 30
0.0
 11
2750.970589276525
 21
1380.494269174465
 31
0.0
  0
LINE
  5
18D2A
330
18C7A
100
AcDbEntity
  8
細線
 48
50.0
100
AcDbLine
 10
2745.970589276525
 20
1418.494269174465
 30
0.0
 11
2745.970589276525
 21
1413.494269174465
 31
0.0
  0
LINE
  5
18D2B
330
18C7A
100
AcDbEntity
  8
細線
 48
50.0
100
AcDbLine
 10
2730.970589276525
 20
1418.494269174463
 30
0.0
 11
2745.970589276525
 21
1418.494269174465
 31
0.0
  0
LINE
  5
18D2C
330
18C7A
100
AcDbEntity
  8
細線
 48
50.0
100
AcDbLine
 10
2730.970589276524
 20
1380.494269174467
 30
0.0
 11
2730.970589276525
 21
1418.494269174463
 31
0.0
  0
LINE
  5
18D2D
330
18C7A
100
AcDbEntity
  8
細線
100
AcDbLine
 10
3398.970589276523
 20
1388.494269174465
 30
0.0
 11
3240.720589276525
 21
1388.494269174465
 31
0.0
  0
LINE
  5
18D2E
330
18C7A
100
AcDbEntity
  8
細線
 48
50.0
100
AcDbLine
 10
3408.470589276525
 20
1413.494269174467
 30
0.0
 11
3408.470589276524
 21
1388.494269174465
 31
0.0
  0
TEXT
  5
18D2F
330
18C7A
100
AcDbEntity
  8
部品1
100
AcDbText
 10
1860.154865991392
 20
46.99880823813145
 30
0.0
 40
135.0
  1
平面図
  7
STYLE2
100
AcDbText
  0
LWPOLYLINE
  5
18D30
330
18C7A
100
AcDbEntity
  8
部品1
100
AcDbPolyline
 90
        4
 70
     1
 43
0.0
 10
1770.23525616235
 20
239.8923374566548
 10
1770.23525616235
 20
0.0000159111223184
 10
2533.705922390791
 20
0.0000159111223184
 10
2533.705922390791
 20
239.8923374566548
  0
LINE
  5
18D31
330
18C7A
100
AcDbEntity
  8
部品1
100
AcDbLine
 10
1534.470589276487
 20
3154.494269174626
 30
0.0
 11
2769.470589276552
 21
3154.494269174626
 31
0.0
  0
LINE
  5
18D32
330
18C7A
100
AcDbEntity
  8
部品1
 48
50.0
100
AcDbLine
 10
1311.970589276523
 20
1420.494269174462
 30
0.0
 11
3411.970589276523
 21
1420.494269174465
 31
0.0
  0
LINE
  5
18D33
330
18C7A
100
AcDbEntity
  8
部品1
 48
50.0
100
AcDbLine
 10
471.9705892765232
 20
1392.494269174465
 30
0.0
 11
1311.970589276523
 21
1392.494269174465
 31
0.0
  0
DIMENSION
  5
18D34
330
18C7A
100
AcDbEntity
  8
寸法
100
AcDbDimension
  2
*D14
 10
2710.234916278077
 20
2488.887829538828
 30
0.0
 11
2338.318822490183
 21
2488.887829538828
 31
0.0
 12
-3742.925985830444
 22
-6453.628869860112
 32
0.0
 70
   128
 71
     5
 42
1231.00000000007
  3
INABA_S40G
100
AcDbAlignedDimension
 13
1536.470589276486
 23
2702.494269174557
 33
0.0
 14
2767.470589276556
 24
2702.494269174549
 34
0.0
100
AcDbRotatedDimension
1001
ACAD
1000
DSTYLE
1002
{
1002
}
  0
LINE
  5
18D35
330
18C7A
100
AcDbEntity
  8
部品1
100
AcDbLine
 10
1536.470589276487
 20
2702.494269174557
 30
0.0
 11
2767.470589276554
 21
2702.494269174615
 31
0.0
  0
LINE
  5
18D36
330
18C7A
100
AcDbEntity
  8
部品1
100
AcDbLine
 10
1536.470589276487
 20
3152.494269174557
 30
0.0
 11
2767.470589276556
 21
3152.494269174615
 31
0.0
  0
LINE
  5
18D37
330
18C7A
100
AcDbEntity
  8
細線
 48
50.0
100
AcDbLine
 10
1508.470589276487
 20
3152.494269174558
 30
0.0
 11
445.4705892765559
 21
2702.494269174509
 31
0.0
  0
LINE
  5
18D38
330
18C7A
100
AcDbEntity
  8
細線
 48
50.0
100
AcDbLine
 10
1508.470589276487
 20
2702.494269174558
 30
0.0
 11
445.4705892765542
 21
3152.494269174509
 31
0.0
  0
LINE
  5
18D39
330
18C7A
100
AcDbEntity
  8
部品1
100
AcDbLine
 10
1556.970589276487
 20
3172.494269174611
 30
0.0
 11
1556.970589276487
 21
3154.494269174611
 31
0.0
  0
LINE
  5
18D3A
330
18C7A
100
AcDbEntity
  8
部品1
100
AcDbLine
 10
1556.970589276487
 20
3172.494269174611
 30
0.0
 11
1550.970589276487
 21
3172.494269174611
 31
0.0
  0
LINE
  5
18D3B
330
18C7A
100
AcDbEntity
  8
部品1
100
AcDbLine
 10
1534.470589276487
 20
3146.494269174608
 30
0.0
 11
1509.470589276487
 21
3146.494269174611
 31
0.0
  0
LINE
  5
18D3C
330
18C7A
100
AcDbEntity
  8
部品1
100
AcDbLine
 10
1486.970589276487
 20
3172.494269174611
 30
0.0
 11
1486.970589276487
 21
3154.494269174611
 31
0.0
  0
LINE
  5
18D3D
330
18C7A
100
AcDbEntity
  8
部品1
100
AcDbLine
 10
1492.970589276487
 20
3172.494269174611
 30
0.0
 11
1486.970589276487
 21
3172.494269174611
 31
0.0
  0
LINE
  5
18D3E
330
18C7A
100
AcDbEntity
  8
部品1
100
AcDbLine
 10
1534.470589276487
 20
2702.494269174615
 30
0.0
 11
1509.470589276487
 21
2702.494269174615
 31
0.0
  0
LINE
  5
18D3F
330
18C7A
100
AcDbEntity
  8
部品1
 48
50.0
100
AcDbLine
 10
1536.470589276487
 20
3152.494269174611
 30
0.0
 11
1536.470589276487
 21
2702.494269174615
 31
0.0
  0
LINE
  5
18D40
330
18C7A
100
AcDbEntity
  8
部品1
 48
50.0
100
AcDbLine
 10
1508.470589276487
 20
3152.494269174607
 30
0.0
 11
1508.470589276487
 21
2702.494269174615
 31
0.0
  0
LINE
  5
18D41
330
18C7A
100
AcDbEntity
  8
部品1
 48
50.0
100
AcDbLine
 10
1534.470589276487
 20
3154.494269174618
 30
0.0
 11
1534.470589276487
 21
2702.494269174615
 31
0.0
  0
LINE
  5
18D42
330
18C7A
100
AcDbEntity
  8
部品1
 48
50.0
100
AcDbLine
 10
1509.470589276487
 20
3154.494269174615
 30
0.0
 11
1509.470589276487
 21
2702.494269174615
 31
0.0
  0
LINE
  5
18D43
330
18C7A
100
AcDbEntity
  8
部品1
100
AcDbLine
 10
3411.970589276556
 20
1392.494269174582
 30
0.0
 11
3411.970589276556
 21
1420.494269174596
 31
0.0
  0
LINE
  5
18D44
330
18C7A
100
AcDbEntity
  8
部品1
100
AcDbLine
 10
1311.970589276523
 20
1392.494269174596
 30
0.0
 11
1311.970589276523
 21
1420.494269174596
 31
0.0
  0
LINE
  5
18D45
330
18C7A
100
AcDbEntity
  8
部品1
100
AcDbLine
 10
891.9705892765232
 20
1392.494269174596
 30
0.0
 11
891.9705892765232
 21
1420.494269174596
 31
0.0
  0
LINE
  5
18D46
330
18C7A
100
AcDbEntity
  8
部品1
100
AcDbLine
 10
3411.97058927652
 20
3182.494269174477
 30
0.0
 11
3411.970589276523
 21
3154.494269174477
 31
0.0
  0
LINE
  5
18D47
330
18C7A
100
AcDbEntity
  8
部品1
100
AcDbLine
 10
2571.97058927652
 20
3182.494269174477
 30
0.0
 11
2571.970589276523
 21
3154.494269174477
 31
0.0
  0
LINE
  5
18D48
330
18C7A
100
AcDbEntity
  8
部品1
100
AcDbLine
 10
2991.97058927652
 20
3182.494269174477
 30
0.0
 11
2991.970589276523
 21
3154.494269174477
 31
0.0
  0
LINE
  5
18D49
330
18C7A
100
AcDbEntity
  8
部品1
100
AcDbLine
 10
2151.970589276519
 20
3182.494269174477
 30
0.0
 11
2151.970589276523
 21
3154.494269174477
 31
0.0
  0
LINE
  5
18D4A
330
18C7A
100
AcDbEntity
  8
部品1
100
AcDbLine
 10
1731.970589276519
 20
3182.494269174477
 30
0.0
 11
1731.970589276523
 21
3154.494269174477
 31
0.0
  0
LINE
  5
18D4B
330
18C7A
100
AcDbEntity
  8
部品1
100
AcDbLine
 10
1311.970589276519
 20
3182.494269174477
 30
0.0
 11
1311.970589276523
 21
3154.494269174477
 31
0.0
  0
LINE
  5
18D4C
330
18C7A
100
AcDbEntity
  8
部品1
100
AcDbLine
 10
891.9705892765195
 20
3182.494269174477
 30
0.0
 11
891.9705892765232
 21
3154.494269174477
 31
0.0
  0
LINE
  5
18D4D
330
18C7A
100
AcDbEntity
  8
部品1
100
AcDbLine
 10
471.9705892765232
 20
1392.494269174596
 30
0.0
 11
471.9705892765232
 21
1420.494269174596
 31
0.0
  0
LINE
  5
18D4E
330
18C7A
100
AcDbEntity
  8
部品1
100
AcDbLine
 10
444.9705892765305
 20
1420.494269174558
 30
0.0
 11
3858.970589276556
 21
1420.494269174596
 31
0.0
  0
LINE
  5
18D4F
330
18C7A
100
AcDbEntity
  8
部品1
100
AcDbLine
 10
3831.970589276556
 20
1392.494269174596
 30
0.0
 11
3831.970589276556
 21
1420.494269174596
 31
0.0
  0
LINE
  5
18D50
330
18C7A
100
AcDbEntity
  8
部品1
100
AcDbLine
 10
3858.970589276556
 20
1447.494269174593
 30
0.0
 11
3886.970589276556
 21
1447.494269174593
 31
0.0
  0
LINE
  5
18D51
330
18C7A
100
AcDbEntity
  8
部品1
100
AcDbLine
 10
3858.970589276556
 20
1867.494269174607
 30
0.0
 11
3886.970589276556
 21
1867.494269174607
 31
0.0
  0
LINE
  5
18D52
330
18C7A
100
AcDbEntity
  8
部品1
100
AcDbLine
 10
444.9705892765305
 20
1867.49426917448
 30
0.0
 11
416.9705892765305
 21
1867.49426917448
 31
0.0
  0
LINE
  5
18D53
330
18C7A
100
AcDbEntity
  8
部品1
100
AcDbLine
 10
3830.470589276541
 20
1867.49426917458
 30
0.0
 11
473.4705892765396
 21
1867.49426917448
 31
0.0
  0
LINE
  5
18D54
330
18C7A
100
AcDbEntity
  8
部品1
100
AcDbLine
 10
3830.470589276541
 20
2287.49426917458
 30
0.0
 11
473.4705892765396
 21
2287.49426917448
 31
0.0
  0
LINE
  5
18D55
330
18C7A
100
AcDbEntity
  8
部品1
100
AcDbLine
 10
444.9705892765305
 20
2287.49426917448
 30
0.0
 11
416.9705892765305
 21
2287.49426917448
 31
0.0
  0
LINE
  5
18D56
330
18C7A
100
AcDbEntity
  8
部品1
100
AcDbLine
 10
3858.970589276556
 20
2287.494269174608
 30
0.0
 11
3886.970589276556
 21
2287.494269174608
 31
0.0
  0
LINE
  5
18D57
330
18C7A
100
AcDbEntity
  8
部品1
 48
50.0
100
AcDbLine
 10
2151.970589276551
 20
2702.494269174586
 30
0.0
 11
2151.970589276581
 21
1448.994269174494
 31
0.0
  0
LINE
  5
18D58
330
18C7A
100
AcDbEntity
  8
破線
 48
10.0
100
AcDbLine
 10
2959.470589276535
 20
1472.494269174522
 30
0.0
 11
2176.970589276532
 21
1472.494269174505
 31
0.0
  0
LINE
  5
18D59
330
18C7A
100
AcDbEntity
  8
破線
 48
10.0
100
AcDbLine
 10
3009.47058927653
 20
1448.994269174509
 30
0.0
 11
3009.47058927653
 21
2702.494269174615
 31
0.0
  0
LINE
  5
18D5A
330
18C7A
100
AcDbEntity
  8
破線
 48
10.0
100
AcDbLine
 10
2959.470589276535
 20
1448.994269174505
 30
0.0
 11
2959.470589276531
 21
2702.494269174615
 31
0.0
  0
LINE
  5
18D5B
330
18C7A
100
AcDbEntity
  8
破線
 48
10.0
100
AcDbLine
 10
1344.47058927653
 20
1448.994269174509
 30
0.0
 11
1344.47058927653
 21
2702.494269174615
 31
0.0
  0
LINE
  5
18D5C
330
18C7A
100
AcDbEntity
  8
破線
 48
10.0
100
AcDbLine
 10
1294.470589276534
 20
1448.994269174505
 30
0.0
 11
1294.47058927653
 21
2702.494269174615
 31
0.0
  0
DIMENSION
  5
18D5D
330
18C7A
100
AcDbEntity
  8
寸法
100
AcDbDimension
  2
*D13
 10
1451.234916278005
 20
2488.887829538828
 30
0.0
 11
916.0604668248634
 21
2488.887829538828
 31
0.0
 12
-3742.925985830444
 22
-6453.628869860112
 32
0.0
 70
   128
 71
     5
 42
1062.99999999993
  3
INABA_S40G
100
AcDbAlignedDimension
 13
445.4705892765559
 23
2702.494269174505
 33
0.0
 14
1508.470589276486
 24
2702.494269174558
 34
0.0
100
AcDbRotatedDimension
1001
ACAD
1000
DSTYLE
1002
{
1002
}
  0
LINE
  5
18D5E
330
18C7A
100
AcDbEntity
  8
破線
 48
10.0
100
AcDbLine
 10
1294.470589276534
 20
1472.494269174469
 30
0.0
 11
496.9705892765414
 21
1472.494269174476
 31
0.0
  0
LINE
  5
18D5F
330
18C7A
100
AcDbEntity
  8
部品1
100
AcDbLine
 10
3831.970589276556
 20
3182.494269174604
 30
0.0
 11
3831.970589276556
 21
3154.494269174604
 31
0.0
  0
LINE
  5
18D60
330
18C7A
100
AcDbEntity
  8
部品1
100
AcDbLine
 10
3831.970589276556
 20
3182.494269174626
 30
0.0
 11
3831.970589276556
 21
3154.494269174626
 31
0.0
  0
LINE
  5
18D61
330
18C7A
100
AcDbEntity
  8
部品1
100
AcDbLine
 10
3858.970589276556
 20
3127.494269174607
 30
0.0
 11
3886.970589276556
 21
3127.494269174607
 31
0.0
  0
LINE
  5
18D62
330
18C7A
100
AcDbEntity
  8
部品1
100
AcDbLine
 10
3858.970589276556
 20
2707.494269174608
 30
0.0
 11
3886.970589276556
 21
2707.494269174608
 31
0.0
  0
LINE
  5
18D63
330
18C7A
100
AcDbEntity
  8
部品1
100
AcDbLine
 10
3858.470589276556
 20
3152.494269174604
 30
0.0
 11
3858.470589276556
 21
2702.494269174608
 31
0.0
  0
LINE
  5
18D64
330
18C7A
100
AcDbEntity
  8
部品1
100
AcDbLine
 10
3886.970589276533
 20
1447.494269174593
 30
0.0
 11
3886.970589276531
 21
1392.494269174596
 31
0.0
  0
LINE
  5
18D65
330
18C7A
100
AcDbEntity
  8
部品1
 48
50.0
100
AcDbLine
 10
3830.470589276556
 20
1448.994269174596
 30
0.0
 11
3858.970589276554
 21
1420.494269174596
 31
0.0
  0
LINE
  5
18D66
330
18C7A
100
AcDbEntity
  8
部品1
100
AcDbLine
 10
3886.970589276531
 20
1392.494269174596
 30
0.0
 11
3835.970589276531
 21
1392.494269174596
 31
0.0
  0
LINE
  5
18D67
330
18C7A
100
AcDbEntity
  8
部品1
100
AcDbLine
 10
3858.970589276533
 20
1447.494269174593
 30
0.0
 11
3886.970589276531
 21
1447.494269174593
 31
0.0
  0
LINE
  5
18D68
330
18C7A
100
AcDbEntity
  8
部品1
100
AcDbLine
 10
3886.970589276556
 20
3182.494269174604
 30
0.0
 11
3886.970589276531
 21
1392.494269174596
 31
0.0
  0
DIMENSION
  5
18D69
330
18C7A
100
AcDbEntity
  8
寸法
100
AcDbDimension
  2
*D12
 10
4534.396935010967
 20
1447.494269174593
 30
0.0
 11
4534.396935010965
 21
2287.4942691746
 31
0.0
 12
-3742.925985830444
 22
-6453.628869860112
 32
0.0
 70
   128
  1
4X420=<>
 71
     5
 42
1680.000000000014
  3
INABA_S40G
100
AcDbAlignedDimension
 13
3886.970589276556
 23
3127.494269174607
 33
0.0
 14
3886.970589276531
 24
1447.494269174593
 34
0.0
 50
90.0
100
AcDbRotatedDimension
1001
ACAD
1000
DSTYLE
1002
{
1002
}
  0
LINE
  5
18D6A
330
18C7A
100
AcDbEntity
  8
部品1
100
AcDbLine
 10
3858.970589276556
 20
3154.494269174604
 30
0.0
 11
3858.970589276534
 21
1420.494269174596
 31
0.0
  0
DIMENSION
  5
18D6B
330
18C7A
100
AcDbEntity
  8
寸法
100
AcDbDimension
  2
*D11
 10
4213.82831513858
 20
2607.276453505718
 30
0.0
 11
4113.828315138579
 21
2832.276453505718
 31
0.0
 12
-3742.925985830444
 22
-6453.628869860112
 32
0.0
 71
     5
 42
449.9999999999963
  3
INABA_S40G
100
AcDbAlignedDimension
 13
3858.470589276556
 23
3152.494269174604
 33
0.0
 14
3858.470589276556
 24
2702.494269174608
 34
0.0
 50
90.0
100
AcDbRotatedDimension
1001
ACAD
1000
DSTYLE
1002
{
1002
}
  0
LINE
  5
18D6C
330
18C7A
100
AcDbEntity
  8
部品1
100
AcDbLine
 10
3830.470589276547
 20
2702.494269174608
 30
0.0
 11
3830.470589276556
 21
1448.994269174596
 31
0.0
  0
LINE
  5
18D6D
330
18C7A
100
AcDbEntity
  8
破線
 48
10.0
100
AcDbLine
 10
3806.970589276549
 20
2702.494269174608
 30
0.0
 11
3806.970589276558
 21
1472.494269174593
 31
0.0
  0
LINE
  5
18D6E
330
18C7A
100
AcDbEntity
  8
部品1
100
AcDbLine
 10
2769.470589276556
 20
3146.494269174608
 30
0.0
 11
2794.470589276556
 21
3146.494269174611
 31
0.0
  0
LINE
  5
18D6F
330
18C7A
100
AcDbEntity
  8
部品1
100
AcDbLine
 10
2810.970589276556
 20
3172.494269174611
 30
0.0
 11
2816.970589276556
 21
3172.494269174611
 31
0.0
  0
LINE
  5
18D70
330
18C7A
100
AcDbEntity
  8
部品1
100
AcDbLine
 10
2816.970589276556
 20
3172.494269174611
 30
0.0
 11
2816.970589276556
 21
3154.494269174611
 31
0.0
  0
LINE
  5
18D71
330
18C7A
100
AcDbEntity
  8
部品1
100
AcDbLine
 10
2746.970589276556
 20
3172.494269174611
 30
0.0
 11
2752.970589276556
 21
3172.494269174611
 31
0.0
  0
LINE
  5
18D72
330
18C7A
100
AcDbEntity
  8
部品1
100
AcDbLine
 10
2746.970589276556
 20
3172.494269174611
 30
0.0
 11
2746.970589276556
 21
3154.494269174611
 31
0.0
  0
LINE
  5
18D73
330
18C7A
100
AcDbEntity
  8
部品1
100
AcDbLine
 10
2769.470589276556
 20
2702.494269174615
 30
0.0
 11
2794.470589276556
 21
2702.494269174615
 31
0.0
  0
LINE
  5
18D74
330
18C7A
100
AcDbEntity
  8
部品1
 48
50.0
100
AcDbLine
 10
2794.470589276556
 20
3154.494269174615
 30
0.0
 11
2794.470589276556
 21
2702.494269174615
 31
0.0
  0
LINE
  5
18D75
330
18C7A
100
AcDbEntity
  8
部品1
 48
50.0
100
AcDbLine
 10
2769.470589276554
 20
3154.494269174618
 30
0.0
 11
2769.470589276556
 21
2702.494269174615
 31
0.0
  0
LINE
  5
18D76
330
18C7A
100
AcDbEntity
  8
部品1
 48
50.0
100
AcDbLine
 10
2795.470589276556
 20
3152.494269174607
 30
0.0
 11
2795.470589276556
 21
2702.494269174615
 31
0.0
  0
LINE
  5
18D77
330
18C7A
100
AcDbEntity
  8
部品1
 48
50.0
100
AcDbLine
 10
2767.470589276556
 20
3152.494269174611
 30
0.0
 11
2767.470589276556
 21
2702.494269174615
 31
0.0
  0
LINE
  5
18D78
330
18C7A
100
AcDbEntity
  8
破線
 48
10.0
100
AcDbLine
 10
2176.97058927653
 20
1448.994269174509
 30
0.0
 11
2176.97058927653
 21
2702.494269174588
 31
0.0
  0
LINE
  5
18D79
330
18C7A
100
AcDbEntity
  8
破線
 48
10.0
100
AcDbLine
 10
2126.970589276534
 20
1448.994269174505
 30
0.0
 11
2126.970589276531
 21
2702.494269174586
 31
0.0
  0
LINE
  5
18D7A
330
18C7A
100
AcDbEntity
  8
部品1
100
AcDbLine
 10
2794.470589276556
 20
3154.494269174622
 30
0.0
 11
3858.970589276556
 21
3154.494269174604
 31
0.0
  0
LINE
  5
18D7B
330
18C7A
100
AcDbEntity
  8
細線
 48
50.0
100
AcDbLine
 10
3858.470589276556
 20
2702.494269174608
 30
0.0
 11
2795.470589276556
 21
3152.494269174607
 31
0.0
  0
LINE
  5
18D7C
330
18C7A
100
AcDbEntity
  8
部品1
100
AcDbLine
 10
2795.470589276555
 20
2702.494269174615
 30
0.0
 11
3858.470589276556
 21
2702.494269174608
 31
0.0
  0
LINE
  5
18D7D
330
18C7A
100
AcDbEntity
  8
部品1
100
AcDbLine
 10
2795.470589276556
 20
3152.494269174611
 30
0.0
 11
3858.470589276556
 21
3152.494269174604
 31
0.0
  0
LINE
  5
18D7E
330
18C7A
100
AcDbEntity
  8
細線
 48
50.0
100
AcDbLine
 10
3858.470589276556
 20
3152.494269174604
 30
0.0
 11
2795.470589276555
 21
2702.494269174615
 31
0.0
  0
DIMENSION
  5
18D7F
330
18C7A
100
AcDbEntity
  8
寸法
100
AcDbDimension
  2
*D10
 10
3801.234916278101
 20
2488.887829538937
 30
0.0
 11
3318.360544398907
 21
2488.887829538937
 31
0.0
 12
-3742.925985830444
 22
-6453.628869860112
 32
0.0
 70
   128
 71
     5
 42
1063.000000000012
  3
INABA_S40G
100
AcDbAlignedDimension
 13
2795.470589276555
 23
2702.494269174615
 33
0.0
 14
3858.470589276567
 24
2702.494269174608
 34
0.0
100
AcDbRotatedDimension
1001
ACAD
1000
DSTYLE
1002
{
1002
}
  0
LINE
  5
18D80
330
18C7A
100
AcDbEntity
  8
破線
 48
10.0
100
AcDbLine
 10
3806.970589276556
 20
1472.494269174594
 30
0.0
 11
3009.47058927653
 21
1472.494269174523
 31
0.0
  0
DIMENSION
  5
18D81
330
18C7A
100
AcDbEntity
  8
寸法
100
AcDbDimension
  2
*D9
 10
4534.396935010941
 20
1392.494269174596
 30
0.0
 11
4534.39693501094
 21
1084.008987800356
 31
0.0
 12
-3742.925985830444
 22
-6453.628869860112
 32
0.0
 70
   128
 71
     5
 42
54.99999999999636
  3
INABA_S40G
100
AcDbAlignedDimension
 13
3886.970589276531
 23
1447.494269174593
 33
0.0
 14
3886.970589276531
 24
1392.494269174596
 34
0.0
 50
90.0
100
AcDbRotatedDimension
1001
ACAD
1000
DSTYLE
1002
{
1002
}
  0
LINE
  5
18D82
330
18C7A
100
AcDbEntity
  8
部品1
100
AcDbLine
 10
471.9705892765196
 20
3182.494269174477
 30
0.0
 11
471.9705892765232
 21
3154.494269174477
 31
0.0
  0
LINE
  5
18D83
330
18C7A
100
AcDbEntity
  8
部品1
100
AcDbLine
 10
471.9705892765559
 20
3182.494269174509
 30
0.0
 11
471.9705892765559
 21
3154.494269174509
 31
0.0
  0
LINE
  5
18D84
330
18C7A
100
AcDbEntity
  8
部品1
100
AcDbLine
 10
444.9705892765232
 20
3127.49426917448
 30
0.0
 11
416.9705892765232
 21
3127.49426917448
 31
0.0
  0
LINE
  5
18D85
330
18C7A
100
AcDbEntity
  8
部品1
100
AcDbLine
 10
444.9705892765305
 20
2707.49426917448
 30
0.0
 11
416.9705892765305
 21
2707.49426917448
 31
0.0
  0
LINE
  5
18D86
330
18C7A
100
AcDbEntity
  8
部品1
 48
50.0
100
AcDbLine
 10
445.4705892765542
 20
3152.494269174506
 30
0.0
 11
445.4705892765559
 21
2702.494269174505
 31
0.0
  0
LINE
  5
18D87
330
18C7A
100
AcDbEntity
  8
部品1
 48
50.0
100
AcDbLine
 10
473.470589276545
 20
1448.994269174573
 30
0.0
 11
444.970589276545
 21
1420.494269174574
 31
0.0
  0
LINE
  5
18D88
330
18C7A
100
AcDbEntity
  8
部品1
100
AcDbLine
 10
471.9705892765232
 20
1392.494269174465
 30
0.0
 11
416.9705892765486
 21
1392.494269174465
 31
0.0
  0
LINE
  5
18D89
330
18C7A
100
AcDbEntity
  8
部品1
100
AcDbLine
 10
444.9705892765305
 20
1447.494269174429
 30
0.0
 11
416.9705892765469
 21
1447.494269174429
 31
0.0
  0
LINE
  5
18D8A
330
18C7A
100
AcDbEntity
  8
部品1
100
AcDbLine
 10
444.9705892765305
 20
1447.494269174465
 30
0.0
 11
416.9705892765469
 21
1447.494269174465
 31
0.0
  0
LINE
  5
18D8B
330
18C7A
100
AcDbEntity
  8
部品1
100
AcDbLine
 10
444.9705892765469
 20
1447.49426917448
 30
0.0
 11
416.9705892765469
 21
1447.49426917448
 31
0.0
  0
LINE
  5
18D8C
330
18C7A
100
AcDbEntity
  8
部品1
100
AcDbLine
 10
416.9705892765469
 20
1447.494269174429
 30
0.0
 11
416.9705892765486
 21
1392.494269174433
 31
0.0
  0
LINE
  5
18D8D
330
18C7A
100
AcDbEntity
  8
部品1
100
AcDbLine
 10
416.9705892765196
 20
3182.494269174477
 30
0.0
 11
416.9705892765486
 21
1392.494269174465
 31
0.0
  0
LINE
  5
18D8E
330
18C7A
100
AcDbEntity
  8
部品1
100
AcDbLine
 10
444.9705892765305
 20
1420.494269174556
 30
0.0
 11
444.9705892765559
 21
3154.494269174509
 31
0.0
  0
LINE
  5
18D8F
330
18C7A
100
AcDbEntity
  8
部品1
100
AcDbLine
 10
473.4705892765323
 20
2702.494269174608
 30
0.0
 11
473.470589276545
 21
1448.994269174571
 31
0.0
  0
LINE
  5
18D90
330
18C7A
100
AcDbEntity
  8
破線
 48
10.0
100
AcDbLine
 10
496.9705892765305
 20
2702.494269174608
 30
0.0
 11
496.9705892765451
 21
1472.494269174476
 31
0.0
  0
DIMENSION
  5
18D91
330
18C7A
100
AcDbEntity
  8
寸法
100
AcDbDimension
  2
*D8
 10
3886.970589276531
 20
410.7433333855515
 30
0.0
 11
2168.197775309287
 21
410.7433333855515
 31
0.0
 12
-3742.925985830444
 22
-6453.628869860112
 32
0.0
 70
   128
 71
     5
 42
3469.999999999982
  3
INABA_S40G
100
AcDbAlignedDimension
 13
416.9705892765486
 23
1392.494269174433
 33
0.0
 14
3886.970589276531
 24
1392.49426917456
 34
0.0
100
AcDbRotatedDimension
1001
ACAD
1000
DSTYLE
1002
{
1070
   341
1005
0
1002
}
  0
LINE
  5
18D92
330
18C7A
100
AcDbEntity
  8
部品1
100
AcDbLine
 10
444.9705892765559
 20
3154.494269174624
 30
0.0
 11
1509.470589276487
 21
3154.494269174626
 31
0.0
  0
LINE
  5
18D93
330
18C7A
100
AcDbEntity
  8
部品1
100
AcDbLine
 10
3886.970589276531
 20
1392.494269174596
 30
0.0
 11
3411.970589276556
 21
1392.494269174582
 31
0.0
  0
LINE
  5
18D94
330
18C7A
100
AcDbEntity
  8
部品1
100
AcDbLine
 10
416.9705892765559
 20
3182.494269174509
 30
0.0
 11
3886.970589276556
 21
3182.494269174604
 31
0.0
  0
LINE
  5
18D95
330
18C7A
100
AcDbEntity
  8
部品1
100
AcDbLine
 10
445.4705892765559
 20
2702.494269174509
 30
0.0
 11
1508.470589276487
 21
2702.494269174558
 31
0.0
  0
LINE
  5
18D96
330
18C7A
100
AcDbEntity
  8
細線
 48
50.0
100
AcDbLine
 10
2767.470589276556
 20
3152.494269174611
 30
0.0
 11
1536.470589276487
 21
2702.494269174558
 31
0.0
  0
LINE
  5
18D97
330
18C7A
100
AcDbEntity
  8
部品1
100
AcDbLine
 10
445.4705892765542
 20
3152.494269174509
 30
0.0
 11
1508.470589276485
 21
3152.494269174558
 31
0.0
  0
LINE
  5
18D98
330
18C7A
100
AcDbEntity
  8
細線
 48
50.0
100
AcDbLine
 10
2767.470589276554
 20
2702.494269174615
 30
0.0
 11
1536.470589276485
 21
3152.494269174558
 31
0.0
  0
LINE
  5
18D99
330
18C7A
100
AcDbEntity
  8
破線
 48
10.0
100
AcDbLine
 10
2126.970589276534
 20
1472.494269174502
 30
0.0
 11
1344.47058927653
 21
1472.494269174473
 31
0.0
  0
LINE
  5
18D9A
330
18C7A
100
AcDbEntity
  8
部品1
100
AcDbLine
 10
3830.470589276556
 20
1448.994269174596
 30
0.0
 11
473.4705892764487
 21
1448.994269174476
 31
0.0
  0
DIMENSION
  5
18D9B
330
18C7A
100
AcDbEntity
  8
寸法
100
AcDbDimension
  2
*D7
 10
471.970589276555
 20
3698.302488799491
 30
0.0
 11
108.4853079022819
 21
3698.302488799491
 31
0.0
 12
-3742.925985830444
 22
-6453.628869860112
 32
0.0
 70
   128
 71
     5
 42
55.00000000003456
  3
INABA_S40G
100
AcDbAlignedDimension
 13
416.9705892765205
 23
3182.494269174509
 33
0.0
 14
471.970589276555
 24
3182.494269174509
 34
0.0
100
AcDbRotatedDimension
1001
ACAD
1000
DSTYLE
1002
{
1002
}
  0
DIMENSION
  5
18D9C
330
18C7A
100
AcDbEntity
  8
寸法
100
AcDbDimension
  2
*D6
 10
4534.396935010967
 20
3127.494269174607
 30
0.0
 11
4534.396935010965
 21
3490.979550548844
 31
0.0
 12
-3742.925985830444
 22
-6453.628869860112
 32
0.0
 70
   128
 71
     5
 42
54.99999999999636
  3
INABA_S40G
100
AcDbAlignedDimension
 13
3886.970589276556
 23
3182.494269174604
 33
0.0
 14
3886.970589276556
 24
3127.494269174607
 34
0.0
 50
90.0
100
AcDbRotatedDimension
1001
ACAD
1000
DSTYLE
1002
{
1002
}
  0
DIMENSION
  5
18D9D
330
18C7A
100
AcDbEntity
  8
寸法
100
AcDbDimension
  2
*D5
 10
3886.970589276556
 20
3698.302488799589
 30
0.0
 11
4195.455870650794
 21
3698.302488799589
 31
0.0
 12
-3742.925985830444
 22
-6453.628869860112
 32
0.0
 70
   128
 71
     5
 42
55.0
  3
INABA_S40G
100
AcDbAlignedDimension
 13
3831.970589276556
 23
3182.494269174604
 33
0.0
 14
3886.970589276556
 24
3182.494269174604
 34
0.0
100
AcDbRotatedDimension
1001
ACAD
1000
DSTYLE
1002
{
1002
}
  0
DIMENSION
  5
18D9E
330
18C7A
100
AcDbEntity
  8
寸法
100
AcDbDimension
  2
*D4
 10
3831.970589276556
 20
3698.302488799607
 30
0.0
 11
2151.970589276555
 21
3698.302488799607
 31
0.0
 12
-3742.925985830444
 22
-6453.628869860112
 32
0.0
 70
   128
  1
8X420=<>
 71
     5
 42
3360.000000000001
  3
INABA_S40G
100
AcDbAlignedDimension
 13
471.970589276555
 23
3182.494269174509
 33
0.0
 14
3831.970589276556
 24
3182.494269174604
 34
0.0
100
AcDbRotatedDimension
1001
ACAD
1000
DSTYLE
1002
{
1002
}
  0
DIMENSION
  5
18D9F
330
18C7A
100
AcDbEntity
  8
寸法
100
AcDbDimension
  2
*D3
 10
4899.503876750603
 20
1392.494269174596
 30
0.0
 11
4899.503876750601
 21
2287.4942691746
 31
0.0
 12
-3742.925985830444
 22
-6453.628869860112
 32
0.0
 70
   128
 71
     5
 42
1790.000000000007
  3
INABA_S40G
100
AcDbAlignedDimension
 13
3886.970589276556
 23
3182.494269174604
 33
0.0
 14
3886.970589276531
 24
1392.494269174596
 34
0.0
 50
90.0
100
AcDbRotatedDimension
1001
ACAD
1000
DSTYLE
1002
{
1002
}
  0
ENDBLK
  5
18DA1
330
18C7A
100
AcDbEntity
  8
0
 48
50.0
100
AcDbBlockEnd
  0
BLOCK
  5
1C4CB
330
1C4CA
100
AcDbEntity
  8
0
 48
50.0
100
AcDbBlockBegin
  2
_NONE
 70
     0
 10
0.0
 20
0.0
 30
0.0
  3
_NONE
  1

  0
CIRCLE
  5
1C4CC
330
1C4CA
100
AcDbEntity
  8
0
  6
ByBlock
 62
     0
 48
50.0
100
AcDbCircle
 10
0.0
 20
0.0
 30
0.0
 40
0.25
  0
ENDBLK
  5
1C4CD
330
1C4CA
100
AcDbEntity
  8
0
 48
50.0
100
AcDbBlockEnd
  0
BLOCK
  5
20DEE
330
20DE2
100
AcDbEntity
  8
0
 48
50.0
100
AcDbBlockBegin
  2
*D19
 70
     1
 10
0.0
 20
0.0
 30
0.0
  3
*D19
  1

  0
LINE
  5
28BD7
330
20DE2
100
AcDbEntity
  8
寸法
 62
     0
 48
50.0
370
    -2
100
AcDbLine
 10
12978.6
 20
7692.065863129585
 30
0.0
 11
12978.6
 21
8690.286185188506
 31
0.0
  0
LINE
  5
28BD8
330
20DE2
100
AcDbEntity
  8
寸法
 62
     0
 48
50.0
370
    -2
100
AcDbLine
 10
13023.6
 20
8418.332321223495
 30
0.0
 11
13023.6
 21
8690.286185188506
 31
0.0
  0
LINE
  5
28BD9
330
20DE2
100
AcDbEntity
  8
寸法
 62
     0
 48
50.0
370
    -2
100
AcDbLine
 10
12978.6
 20
8630.286185188507
 30
0.0
 11
12878.6
 21
8630.286185188507
 31
0.0
  0
LINE
  5
28BDA
330
20DE2
100
AcDbEntity
  8
寸法
 62
     0
 48
50.0
370
    -2
100
AcDbLine
 10
13023.6
 20
8630.286185188507
 30
0.0
 11
13360.94924240492
 21
8630.286185188507
 31
0.0
  0
LINE
  5
28BDB
330
20DE2
100
AcDbEntity
  8
寸法
 62
     0
 48
50.0
370
    -2
100
AcDbLine
 10
12978.6
 20
8630.286185188507
 30
0.0
 11
13023.6
 21
8630.286185188507
 31
0.0
  0
INSERT
  5
28BDC
330
20DE2
100
AcDbEntity
  8
寸法
 62
     0
 48
50.0
370
    -2
100
AcDbBlockReference
  2
_DOTSMALL
 10
12978.6
 20
8630.286185188507
 30
0.0
 41
100.0
 42
100.0
 43
100.0
  0
INSERT
  5
28BDD
330
20DE2
100
AcDbEntity
  8
寸法
 62
     0
 48
50.0
370
    -2
100
AcDbBlockReference
  2
_DOTSMALL
 10
13023.6
 20
8630.286185188507
 30
0.0
 41
100.0
 42
100.0
 43
100.0
 50
180.0
  0
MTEXT
  5
28BDE
330
20DE2
100
AcDbEntity
  8
寸法
 62
     7
 48
50.0
100
AcDbMText
 10
13294.77462120246
 20
8730.286185188507
 30
0.0
 40
120.0
 41
0.0
 71
     5
 72
     1
  1
\A1;a
  7
STYLE1
 73
     1
 44
1.0
1001
ACAD
1000
MTEXTBEGIN
1070
    73
1070
     1
1070
    44
1040
1.0
1070
    74
1070
     0
1000
MTEXTEND
  0
POINT
  5
28BDF
330
20DE2
100
AcDbEntity
  8
DEFPOINTS
 62
     0
 48
50.0
100
AcDbPoint
 10
12978.6
 20
7672.065863129585
 30
0.0
  0
POINT
  5
28BE0
330
20DE2
100
AcDbEntity
  8
DEFPOINTS
 62
     0
 48
50.0
100
AcDbPoint
 10
13023.6
 20
8398.332321223495
 30
0.0
  0
POINT
  5
28BE1
330
20DE2
100
AcDbEntity
  8
DEFPOINTS
 62
     0
 48
50.0
100
AcDbPoint
 10
13023.6
 20
8630.286185188507
 30
0.0
  0
ENDBLK
  5
20DEF
330
20DE2
100
AcDbEntity
  8
0
 48
50.0
100
AcDbBlockEnd
  0
BLOCK
  5
20E08
330
20DFC
100
AcDbEntity
  8
0
 48
50.0
100
AcDbBlockBegin
  2
*D20
 70
     1
 10
0.0
 20
0.0
 30
0.0
  3
*D20
  1

  0
LINE
  5
28BF6
330
20DFC
100
AcDbEntity
  8
寸法
 62
     0
 48
50.0
370
    -2
100
AcDbLine
 10
3423.6
 20
8418.332321223507
 30
0.0
 11
3423.6
 21
8690.286185188517
 31
0.0
  0
LINE
  5
28BF7
330
20DFC
100
AcDbEntity
  8
寸法
 62
     0
 48
50.0
370
    -2
100
AcDbLine
 10
3468.600000000001
 20
7692.065863129593
 30
0.0
 11
3468.600000000001
 21
8690.286185188517
 31
0.0
  0
LINE
  5
28BF8
330
20DFC
100
AcDbEntity
  8
寸法
 62
     0
 48
50.0
370
    -2
100
AcDbLine
 10
3468.600000000001
 20
8630.286185188515
 30
0.0
 11
3568.600000000001
 21
8630.286185188515
 31
0.0
  0
LINE
  5
28BF9
330
20DFC
100
AcDbEntity
  8
寸法
 62
     0
 48
50.0
370
    -2
100
AcDbLine
 10
3423.6
 20
8630.286185188515
 30
0.0
 11
3086.250757595082
 21
8630.286185188515
 31
0.0
  0
LINE
  5
28BFA
330
20DFC
100
AcDbEntity
  8
寸法
 62
     0
 48
50.0
370
    -2
100
AcDbLine
 10
3468.600000000001
 20
8630.286185188515
 30
0.0
 11
3423.6
 21
8630.286185188515
 31
0.0
  0
INSERT
  5
28BFB
330
20DFC
100
AcDbEntity
  8
寸法
 62
     0
 48
50.0
370
    -2
100
AcDbBlockReference
  2
_DOTSMALL
 10
3468.600000000001
 20
8630.286185188515
 30
0.0
 41
100.0
 42
100.0
 43
100.0
 50
180.0
  0
INSERT
  5
28BFC
330
20DFC
100
AcDbEntity
  8
寸法
 62
     0
 48
50.0
370
    -2
100
AcDbBlockReference
  2
_DOTSMALL
 10
3423.6
 20
8630.286185188515
 30
0.0
 41
100.0
 42
100.0
 43
100.0
  0
MTEXT
  5
28BFD
330
20DFC
100
AcDbEntity
  8
寸法
 62
     7
 48
50.0
100
AcDbMText
 10
3152.425378797542
 20
8730.286185188516
 30
0.0
 40
120.0
 41
0.0
 71
     5
 72
     1
  1
\A1;a
  7
STYLE1
 73
     1
 44
1.0
1001
ACAD
1000
MTEXTBEGIN
1070
    73
1070
     1
1070
    44
1040
1.0
1070
    74
1070
     0
1000
MTEXTEND
  0
POINT
  5
28BFE
330
20DFC
100
AcDbEntity
  8
DEFPOINTS
 62
     0
 48
50.0
100
AcDbPoint
 10
3423.6
 20
8398.332321223506
 30
0.0
  0
POINT
  5
28BFF
330
20DFC
100
AcDbEntity
  8
DEFPOINTS
 62
     0
 48
50.0
100
AcDbPoint
 10
3468.600000000001
 20
7672.065863129593
 30
0.0
  0
POINT
  5
28C00
330
20DFC
100
AcDbEntity
  8
DEFPOINTS
 62
     0
 48
50.0
100
AcDbPoint
 10
3468.600000000001
 20
8630.286185188515
 30
0.0
  0
ENDBLK
  5
20E09
330
20DFC
100
AcDbEntity
  8
0
 48
50.0
100
AcDbBlockEnd
  0
BLOCK
  5
2274E
330
22742
100
AcDbEntity
  8
0
 48
50.0
100
AcDbBlockBegin
  2
*D21
 70
     1
 10
0.0
 20
0.0
 30
0.0
  3
*D21
  1

  0
LINE
  5
28C01
330
22742
100
AcDbEntity
  8
寸法
 62
     0
 48
50.0
370
    -2
100
AcDbLine
 10
2825.665006330071
 20
7747.0658631296
 30
0.0
 11
2533.721909610673
 21
7747.0658631296
 31
0.0
  0
LINE
  5
28C02
330
22742
100
AcDbEntity
  8
寸法
 62
     0
 48
50.0
370
    -2
100
AcDbLine
 10
3448.600000000001
 20
7672.065863129593
 30
0.0
 11
2533.721909610673
 21
7672.065863129593
 31
0.0
  0
LINE
  5
28C03
330
22742
100
AcDbEntity
  8
寸法
 62
     0
 48
50.0
370
    -2
100
AcDbLine
 10
2593.721909610673
 20
7747.0658631296
 30
0.0
 11
2593.721909610673
 21
7847.0658631296
 31
0.0
  0
LINE
  5
28C04
330
22742
100
AcDbEntity
  8
寸法
 62
     0
 48
50.0
370
    -2
100
AcDbLine
 10
2593.721909610673
 20
7672.065863129593
 30
0.0
 11
2593.721909610673
 21
7572.065863129593
 31
0.0
  0
LINE
  5
28C05
330
22742
100
AcDbEntity
  8
寸法
 62
     0
 48
50.0
370
    -2
100
AcDbLine
 10
2593.721909610673
 20
7747.0658631296
 30
0.0
 11
2593.721909610673
 21
7672.065863129593
 31
0.0
  0
INSERT
  5
28C06
330
22742
100
AcDbEntity
  8
寸法
 62
     0
 48
50.0
370
    -2
100
AcDbBlockReference
  2
_DOTSMALL
 10
2593.721909610673
 20
7747.0658631296
 30
0.0
 41
100.0
 42
100.0
 43
100.0
 50
270.0
  0
INSERT
  5
28C07
330
22742
100
AcDbEntity
  8
寸法
 62
     0
 48
50.0
370
    -2
100
AcDbBlockReference
  2
_DOTSMALL
 10
2593.721909610673
 20
7672.065863129593
 30
0.0
 41
100.0
 42
100.0
 43
100.0
 50
90.0
  0
MTEXT
  5
28C08
330
22742
100
AcDbEntity
  8
寸法
 62
     7
 48
50.0
100
AcDbMText
 10
2493.721909610672
 20
7709.565863129597
 30
0.0
 40
120.0
 41
0.0
 71
     5
 72
     1
  1
\A1;c
  7
STYLE1
 11
0.0000000000000001
 21
1.0
 31
0.0
 73
     1
 44
1.0
1001
ACAD
1000
MTEXTBEGIN
1070
    73
1070
     1
1070
    44
1040
1.0
1070
    74
1070
     0
1000
MTEXTEND
  0
POINT
  5
28C09
330
22742
100
AcDbEntity
  8
DEFPOINTS
 62
     0
 48
50.0
100
AcDbPoint
 10
2845.665006330071
 20
7747.0658631296
 30
0.0
  0
POINT
  5
28C0A
330
22742
100
AcDbEntity
  8
DEFPOINTS
 62
     0
 48
50.0
100
AcDbPoint
 10
3468.600000000001
 20
7672.065863129593
 30
0.0
  0
POINT
  5
28C0B
330
22742
100
AcDbEntity
  8
DEFPOINTS
 62
     0
 48
50.0
100
AcDbPoint
 10
2593.721909610673
 20
7672.065863129593
 30
0.0
  0
ENDBLK
  5
2274F
330
22742
100
AcDbEntity
  8
0
 48
50.0
100
AcDbBlockEnd
  0
BLOCK
  5
22768
330
2275C
100
AcDbEntity
  8
0
 48
50.0
100
AcDbBlockBegin
  2
*D22
 70
     1
 10
0.0
 20
0.0
 30
0.0
  3
*D22
  1

  0
LINE
  5
28C0C
330
2275C
100
AcDbEntity
  8
寸法
 62
     0
 48
50.0
370
    -2
100
AcDbLine
 10
3448.600000000001
 20
6132.065863129625
 30
0.0
 11
2533.721909610673
 21
6132.065863129625
 31
0.0
  0
LINE
  5
28C0D
330
2275C
100
AcDbEntity
  8
寸法
 62
     0
 48
50.0
370
    -2
100
AcDbLine
 10
2825.665006330071
 20
6077.065863129651
 30
0.0
 11
2533.721909610673
 21
6077.065863129651
 31
0.0
  0
LINE
  5
28C0E
330
2275C
100
AcDbEntity
  8
寸法
 62
     0
 48
50.0
370
    -2
100
AcDbLine
 10
2593.721909610673
 20
6132.065863129625
 30
0.0
 11
2593.721909610673
 21
6232.065863129625
 31
0.0
  0
LINE
  5
28C0F
330
2275C
100
AcDbEntity
  8
寸法
 62
     0
 48
50.0
370
    -2
100
AcDbLine
 10
2593.721909610673
 20
6077.065863129651
 30
0.0
 11
2593.721909610673
 21
5977.065863129651
 31
0.0
  0
LINE
  5
28C10
330
2275C
100
AcDbEntity
  8
寸法
 62
     0
 48
50.0
370
    -2
100
AcDbLine
 10
2593.721909610673
 20
6132.065863129625
 30
0.0
 11
2593.721909610673
 21
6077.065863129651
 31
0.0
  0
INSERT
  5
28C11
330
2275C
100
AcDbEntity
  8
寸法
 62
     0
 48
50.0
370
    -2
100
AcDbBlockReference
  2
_DOTSMALL
 10
2593.721909610673
 20
6132.065863129625
 30
0.0
 41
100.0
 42
100.0
 43
100.0
 50
270.0
  0
INSERT
  5
28C12
330
2275C
100
AcDbEntity
  8
寸法
 62
     0
 48
50.0
370
    -2
100
AcDbBlockReference
  2
_DOTSMALL
 10
2593.721909610673
 20
6077.065863129651
 30
0.0
 41
100.0
 42
100.0
 43
100.0
 50
90.0
  0
MTEXT
  5
28C13
330
2275C
100
AcDbEntity
  8
寸法
 62
     7
 48
50.0
100
AcDbMText
 10
2493.721909610672
 20
6104.565863129639
 30
0.0
 40
120.0
 41
0.0
 71
     5
 72
     1
  1
\A1;b
  7
STYLE1
 11
0.0000000000000001
 21
1.0
 31
0.0
 73
     1
 44
1.0
1001
ACAD
1000
MTEXTBEGIN
1070
    73
1070
     1
1070
    44
1040
1.0
1070
    74
1070
     0
1000
MTEXTEND
  0
POINT
  5
28C14
330
2275C
100
AcDbEntity
  8
DEFPOINTS
 62
     0
 48
50.0
100
AcDbPoint
 10
3468.600000000001
 20
6132.065863129625
 30
0.0
  0
POINT
  5
28C15
330
2275C
100
AcDbEntity
  8
DEFPOINTS
 62
     0
 48
50.0
100
AcDbPoint
 10
2845.665006330071
 20
6077.065863129651
 30
0.0
  0
POINT
  5
28C16
330
2275C
100
AcDbEntity
  8
DEFPOINTS
 62
     0
 48
50.0
100
AcDbPoint
 10
2593.721909610673
 20
6077.065863129651
 30
0.0
  0
ENDBLK
  5
22769
330
2275C
100
AcDbEntity
  8
0
 48
50.0
100
AcDbBlockEnd
  0
BLOCK
  5
240CF
330
240C4
100
AcDbEntity
  8
0
 48
50.0
100
AcDbBlockBegin
  2
*D23
 70
     1
 10
0.0
 20
0.0
 30
0.0
  3
*D23
  1

  0
LINE
  5
28DF5
330
240C4
100
AcDbEntity
  8
寸法
 62
     0
 48
50.0
370
    -2
100
AcDbLine
 10
12978.6
 20
7127.065863129621
 30
0.0
 11
12978.6
 21
7281.664476227695
 31
0.0
  0
LINE
  5
28DF6
330
240C4
100
AcDbEntity
  8
寸法
 62
     0
 48
50.0
370
    -2
100
AcDbLine
 10
12858.6
 20
7127.065863129621
 30
0.0
 11
12858.6
 21
7281.664476227695
 31
0.0
  0
LINE
  5
28DF7
330
240C4
100
AcDbEntity
  8
寸法
 62
     0
 48
50.0
370
    -2
100
AcDbLine
 10
12858.6
 20
7221.664476227696
 30
0.0
 11
12978.6
 21
7221.664476227696
 31
0.0
  0
LINE
  5
28DF8
330
240C4
100
AcDbEntity
  8
寸法
 62
     0
 48
50.0
370
    -2
100
AcDbLine
 10
12978.6
 20
7221.664476227696
 30
0.0
 11
13384.7062992126
 21
7221.664476227696
 31
0.0
  0
INSERT
  5
28DF9
330
240C4
100
AcDbEntity
  8
寸法
 62
     0
 48
50.0
370
    -2
100
AcDbBlockReference
  2
_DOTSMALL
 10
12858.6
 20
7221.664476227696
 30
0.0
 41
100.0
 42
100.0
 43
100.0
 50
180.0
  0
INSERT
  5
28DFA
330
240C4
100
AcDbEntity
  8
寸法
 62
     0
 48
50.0
370
    -2
100
AcDbBlockReference
  2
_DOTSMALL
 10
12978.6
 20
7221.664476227696
 30
0.0
 41
100.0
 42
100.0
 43
100.0
  0
MTEXT
  5
28DFB
330
240C4
100
AcDbEntity
  8
寸法
 62
     7
 48
50.0
100
AcDbMText
 10
13248.65905511811
 20
7321.676287251317
 30
0.0
 40
120.0
 41
0.0
 71
     5
 72
     1
  1
\A1;120
  7
STYLE1
 73
     1
 44
1.0
1001
ACAD
1000
MTEXTBEGIN
1070
    73
1070
     1
1070
    44
1040
1.0
1070
    74
1070
     0
1000
MTEXTEND
  0
POINT
  5
28DFC
330
240C4
100
AcDbEntity
  8
DEFPOINTS
 62
     0
 48
50.0
100
AcDbPoint
 10
12978.6
 20
7107.065863129623
 30
0.0
  0
POINT
  5
28DFD
330
240C4
100
AcDbEntity
  8
DEFPOINTS
 62
     0
 48
50.0
100
AcDbPoint
 10
12858.6
 20
7107.065863129621
 30
0.0
  0
POINT
  5
28DFE
330
240C4
100
AcDbEntity
  8
DEFPOINTS
 62
     0
 48
50.0
100
AcDbPoint
 10
12858.6
 20
7221.664476227696
 30
0.0
  0
ENDBLK
  5
240D0
330
240C4
100
AcDbEntity
  8
0
 48
50.0
100
AcDbBlockEnd
  0
BLOCK
  5
240DC
330
240D1
100
AcDbEntity
  8
0
 48
50.0
100
AcDbBlockBegin
  2
*D24
 70
     1
 10
0.0
 20
0.0
 30
0.0
  3
*D24
  1

  0
LINE
  5
28DBE
330
240D1
100
AcDbEntity
  8
寸法
 62
     0
 48
50.0
370
    -2
100
AcDbLine
 10
12378.59999999999
 20
6412.06586312958
 30
0.0
 11
12237.81202022566
 21
6412.06586312958
 31
0.0
  0
LINE
  5
28DBF
330
240D1
100
AcDbEntity
  8
寸法
 62
     0
 48
50.0
370
    -2
100
AcDbLine
 10
12378.6
 20
6132.065863129603
 30
0.0
 11
12237.81202022566
 21
6132.065863129603
 31
0.0
  0
LINE
  5
28DC0
330
240D1
100
AcDbEntity
  8
寸法
 62
     0
 48
50.0
370
    -2
100
AcDbLine
 10
12297.81202022566
 20
6412.06586312958
 30
0.0
 11
12297.81202022566
 21
6132.065863129603
 31
0.0
  0
LINE
  5
28DC1
330
240D1
100
AcDbEntity
  8
寸法
 62
     0
 48
50.0
370
    -2
100
AcDbLine
 10
12297.81202022566
 20
6132.065863129603
 30
0.0
 11
12297.81202022566
 21
5695.531414310696
 31
0.0
  0
INSERT
  5
28DC2
330
240D1
100
AcDbEntity
  8
寸法
 62
     0
 48
50.0
370
    -2
100
AcDbBlockReference
  2
_DOTSMALL
 10
12297.81202022566
 20
6412.06586312958
 30
0.0
 41
100.0
 42
100.0
 43
100.0
 50
90.0
  0
INSERT
  5
28DC3
330
240D1
100
AcDbEntity
  8
寸法
 62
     0
 48
50.0
370
    -2
100
AcDbBlockReference
  2
_DOTSMALL
 10
12297.81202022566
 20
6132.065863129603
 30
0.0
 41
100.0
 42
100.0
 43
100.0
 50
270.0
  0
MTEXT
  5
28DC4
330
240D1
100
AcDbEntity
  8
寸法
 62
     7
 48
50.0
100
AcDbMText
 10
12197.80020920203
 20
5845.102280452431
 30
0.0
 40
120.0
 41
0.0
 71
     5
 72
     1
  1
\A1;280
  7
STYLE1
 11
0.0000000000000001
 21
1.0
 31
0.0
 73
     1
 44
1.0
1001
ACAD
1000
MTEXTBEGIN
1070
    73
1070
     1
1070
    44
1040
1.0
1070
    74
1070
     0
1000
MTEXTEND
  0
POINT
  5
28DC5
330
240D1
100
AcDbEntity
  8
DEFPOINTS
 62
     0
 48
50.0
100
AcDbPoint
 10
12398.59999999999
 20
6412.06586312958
 30
0.0
  0
POINT
  5
28DC6
330
240D1
100
AcDbEntity
  8
DEFPOINTS
 62
     0
 48
50.0
100
AcDbPoint
 10
12398.6
 20
6132.065863129603
 30
0.0
  0
POINT
  5
28DC7
330
240D1
100
AcDbEntity
  8
DEFPOINTS
 62
     0
 48
50.0
100
AcDbPoint
 10
12297.81202022566
 20
6132.065863129603
 30
0.0
  0
ENDBLK
  5
240DD
330
240D1
100
AcDbEntity
  8
0
 48
50.0
100
AcDbBlockEnd
  0
BLOCK
  5
240E9
330
240DE
100
AcDbEntity
  8
0
 48
50.0
100
AcDbBlockBegin
  2
*D25
 70
     1
 10
0.0
 20
0.0
 30
0.0
  3
*D25
  1

  0
LINE
  5
28BE2
330
240DE
100
AcDbEntity
  8
寸法
 62
     0
 48
50.0
370
    -2
100
AcDbLine
 10
12378.6
 20
7672.065863129572
 30
0.0
 11
12237.81202022566
 21
7672.065863129572
 31
0.0
  0
LINE
  5
28BE3
330
240DE
100
AcDbEntity
  8
寸法
 62
     0
 48
50.0
370
    -2
100
AcDbLine
 10
12378.60000000001
 20
7472.065863129586
 30
0.0
 11
12237.81202022566
 21
7472.065863129586
 31
0.0
  0
LINE
  5
28BE4
330
240DE
100
AcDbEntity
  8
寸法
 62
     0
 48
50.0
370
    -2
100
AcDbLine
 10
12297.81202022566
 20
7472.065863129586
 30
0.0
 11
12297.81202022566
 21
7672.065863129572
 31
0.0
  0
LINE
  5
28BE5
330
240DE
100
AcDbEntity
  8
寸法
 62
     0
 48
50.0
370
    -2
100
AcDbLine
 10
12297.81202022566
 20
7672.065863129572
 30
0.0
 11
12297.81202022566
 21
8108.600311948473
 31
0.0
  0
INSERT
  5
28BE6
330
240DE
100
AcDbEntity
  8
寸法
 62
     0
 48
50.0
370
    -2
100
AcDbBlockReference
  2
_DOTSMALL
 10
12297.81202022566
 20
7472.065863129586
 30
0.0
 41
100.0
 42
100.0
 43
100.0
 50
270.0
  0
INSERT
  5
28BE7
330
240DE
100
AcDbEntity
  8
寸法
 62
     0
 48
50.0
370
    -2
100
AcDbBlockReference
  2
_DOTSMALL
 10
12297.81202022566
 20
7672.065863129572
 30
0.0
 41
100.0
 42
100.0
 43
100.0
 50
90.0
  0
MTEXT
  5
28BE8
330
240DE
100
AcDbEntity
  8
寸法
 62
     7
 48
50.0
100
AcDbMText
 10
12197.80020920203
 20
7959.029445806741
 30
0.0
 40
120.0
 41
0.0
 71
     5
 72
     1
  1
\A1;200
  7
STYLE1
 11
0.0000000000000001
 21
1.0
 31
0.0
 73
     1
 44
1.0
1001
ACAD
1000
MTEXTBEGIN
1070
    73
1070
     1
1070
    44
1040
1.0
1070
    74
1070
     0
1000
MTEXTEND
  0
POINT
  5
28BE9
330
240DE
100
AcDbEntity
  8
DEFPOINTS
 62
     0
 48
50.0
100
AcDbPoint
 10
12398.6
 20
7672.065863129572
 30
0.0
  0
POINT
  5
28BEA
330
240DE
100
AcDbEntity
  8
DEFPOINTS
 62
     0
 48
50.0
100
AcDbPoint
 10
12398.60000000001
 20
7472.065863129586
 30
0.0
  0
POINT
  5
28BEB
330
240DE
100
AcDbEntity
  8
DEFPOINTS
 62
     0
 48
50.0
100
AcDbPoint
 10
12297.81202022566
 20
7472.065863129586
 30
0.0
  0
ENDBLK
  5
240EA
330
240DE
100
AcDbEntity
  8
0
 48
50.0
100
AcDbBlockEnd
  0
BLOCK
  5
28532
330
28528
100
AcDbEntity
  8
0
 48
50.0
100
AcDbBlockBegin
  2
*D26
 70
     1
 10
0.0
 20
0.0
 30
0.0
  3
*D26
  1

  0
LINE
  5
28AFB
330
28528
100
AcDbEntity
  8
寸法
 62
     0
 48
50.0
370
    -2
100
AcDbLine
 10
12855.6
 20
7619.065863129584
 30
0.0
 11
12855.6
 21
8458.332321223497
 31
0.0
  0
LINE
  5
28AFC
330
28528
100
AcDbEntity
  8
寸法
 62
     0
 48
50.0
370
    -2
100
AcDbLine
 10
10005.6
 20
7619.065863129584
 30
0.0
 11
10005.6
 21
8458.332321223497
 31
0.0
  0
LINE
  5
28AFD
330
28528
100
AcDbEntity
  8
寸法
 62
     0
 48
50.0
370
    -2
100
AcDbLine
 10
12855.6
 20
8398.332321223497
 30
0.0
 11
10005.6
 21
8398.332321223497
 31
0.0
  0
INSERT
  5
28AFE
330
28528
100
AcDbEntity
  8
寸法
 62
     0
 48
50.0
370
    -2
100
AcDbBlockReference
  2
_DOTSMALL
 10
12855.6
 20
8398.332321223497
 30
0.0
 41
100.0
 42
100.0
 43
100.0
  0
INSERT
  5
28AFF
330
28528
100
AcDbEntity
  8
寸法
 62
     0
 48
50.0
370
    -2
100
AcDbBlockReference
  2
_DOTSMALL
 10
10005.6
 20
8398.332321223497
 30
0.0
 41
100.0
 42
100.0
 43
100.0
 50
180.0
  0
MTEXT
  5
28B00
330
28528
100
AcDbEntity
  8
寸法
 62
     7
 48
50.0
100
AcDbMText
 10
11430.6
 20
8498.344132247119
 30
0.0
 40
120.0
 41
0.0
 71
     5
 72
     1
  1
\A1;2850
  7
STYLE1
 73
     1
 44
1.0
1001
ACAD
1000
MTEXTBEGIN
1070
    73
1070
     1
1070
    44
1040
1.0
1070
    74
1070
     0
1000
MTEXTEND
  0
POINT
  5
28B01
330
28528
100
AcDbEntity
  8
DEFPOINTS
 62
     0
 48
50.0
100
AcDbPoint
 10
12855.6
 20
7599.065863129585
 30
0.0
  0
POINT
  5
28B02
330
28528
100
AcDbEntity
  8
DEFPOINTS
 62
     0
 48
50.0
100
AcDbPoint
 10
10005.6
 20
7599.065863129585
 30
0.0
  0
POINT
  5
28B03
330
28528
100
AcDbEntity
  8
DEFPOINTS
 62
     0
 48
50.0
100
AcDbPoint
 10
10005.6
 20
8398.332321223497
 30
0.0
  0
ENDBLK
  5
28533
330
28528
100
AcDbEntity
  8
0
 48
50.0
100
AcDbBlockEnd
  0
BLOCK
  5
2854C
330
28541
100
AcDbEntity
  8
0
 48
50.0
100
AcDbBlockBegin
  2
*D27
 70
     1
 10
0.0
 20
0.0
 30
0.0
  3
*D27
  1

  0
LINE
  5
28AF1
330
28541
100
AcDbEntity
  8
寸法
 62
     0
 48
50.0
370
    -2
100
AcDbLine
 10
12978.6
 20
7692.065863129585
 30
0.0
 11
12978.6
 21
8458.332321223497
 31
0.0
  0
LINE
  5
28AF2
330
28541
100
AcDbEntity
  8
寸法
 62
     0
 48
50.0
370
    -2
100
AcDbLine
 10
12855.6
 20
7619.065863129584
 30
0.0
 11
12855.6
 21
8458.332321223497
 31
0.0
  0
LINE
  5
28AF3
330
28541
100
AcDbEntity
  8
寸法
 62
     0
 48
50.0
370
    -2
100
AcDbLine
 10
12855.6
 20
8398.332321223497
 30
0.0
 11
12978.6
 21
8398.332321223497
 31
0.0
  0
LINE
  5
28AF4
330
28541
100
AcDbEntity
  8
寸法
 62
     0
 48
50.0
370
    -2
100
AcDbLine
 10
12978.6
 20
8398.332321223497
 30
0.0
 11
13390.19188309203
 21
8398.332321223497
 31
0.0
  0
INSERT
  5
28AF5
330
28541
100
AcDbEntity
  8
寸法
 62
     0
 48
50.0
370
    -2
100
AcDbBlockReference
  2
_DOTSMALL
 10
12855.6
 20
8398.332321223497
 30
0.0
 41
100.0
 42
100.0
 43
100.0
 50
180.0
  0
INSERT
  5
28AF6
330
28541
100
AcDbEntity
  8
寸法
 62
     0
 48
50.0
370
    -2
100
AcDbBlockReference
  2
_DOTSMALL
 10
12978.6
 20
8398.332321223497
 30
0.0
 41
100.0
 42
100.0
 43
100.0
  0
MTEXT
  5
28AF7
330
28541
100
AcDbEntity
  8
寸法
 62
     7
 48
50.0
100
AcDbMText
 10
13251.7066017178
 20
8498.344132247119
 30
0.0
 40
120.0
 41
0.0
 71
     5
 72
     1
  1
\A1;123
  7
STYLE1
 73
     1
 44
1.0
1001
ACAD
1000
MTEXTBEGIN
1070
    73
1070
     1
1070
    44
1040
1.0
1070
    74
1070
     0
1000
MTEXTEND
  0
POINT
  5
28AF8
330
28541
100
AcDbEntity
  8
DEFPOINTS
 62
     0
 48
50.0
100
AcDbPoint
 10
12978.6
 20
7672.065863129585
 30
0.0
  0
POINT
  5
28AF9
330
28541
100
AcDbEntity
  8
DEFPOINTS
 62
     0
 48
50.0
100
AcDbPoint
 10
12855.6
 20
7599.065863129585
 30
0.0
  0
POINT
  5
28AFA
330
28541
100
AcDbEntity
  8
DEFPOINTS
 62
     0
 48
50.0
100
AcDbPoint
 10
12855.6
 20
8398.332321223497
 30
0.0
  0
ENDBLK
  5
2854D
330
28541
100
AcDbEntity
  8
0
 48
50.0
100
AcDbBlockEnd
  0
BLOCK
  5
28564
330
2855B
100
AcDbEntity
  8
0
 48
50.0
100
AcDbBlockBegin
  2
*D28
 70
     1
 10
0.0
 20
0.0
 30
0.0
  3
*D28
  1

  0
LINE
  5
28B8D
330
2855B
100
AcDbEntity
  8
寸法
 62
     0
 48
50.0
370
    -2
100
AcDbLine
 10
10005.6
 20
7619.065863129584
 30
0.0
 11
10005.6
 21
8458.332321223497
 31
0.0
  0
LINE
  5
28B8E
330
2855B
100
AcDbEntity
  8
寸法
 62
     0
 48
50.0
370
    -2
100
AcDbLine
 10
8105.6
 20
7619.065863129584
 30
0.0
 11
8105.6
 21
8458.332321223497
 31
0.0
  0
LINE
  5
28B8F
330
2855B
100
AcDbEntity
  8
寸法
 62
     0
 48
50.0
370
    -2
100
AcDbLine
 10
10005.6
 20
8398.332321223497
 30
0.0
 11
8105.6
 21
8398.332321223497
 31
0.0
  0
INSERT
  5
28B90
330
2855B
100
AcDbEntity
  8
寸法
 62
     0
 48
50.0
370
    -2
100
AcDbBlockReference
  2
_DOTSMALL
 10
10005.6
 20
8398.332321223497
 30
0.0
 41
100.0
 42
100.0
 43
100.0
  0
INSERT
  5
28B91
330
2855B
100
AcDbEntity
  8
寸法
 62
     0
 48
50.0
370
    -2
100
AcDbBlockReference
  2
_DOTSMALL
 10
8105.6
 20
8398.332321223497
 30
0.0
 41
100.0
 42
100.0
 43
100.0
 50
180.0
  0
MTEXT
  5
28B92
330
2855B
100
AcDbEntity
  8
寸法
 62
     7
 48
50.0
100
AcDbMText
 10
9055.600000000001
 20
8498.332321223498
 30
0.0
 40
120.0
 41
0.0
 71
     5
 72
     1
  1
\A1;1900
  7
STYLE1
 73
     1
 44
1.0
1001
ACAD
1000
MTEXTBEGIN
1070
    73
1070
     1
1070
    44
1040
1.0
1070
    74
1070
     0
1000
MTEXTEND
  0
POINT
  5
28B93
330
2855B
100
AcDbEntity
  8
DEFPOINTS
 62
     0
 48
50.0
100
AcDbPoint
 10
10005.6
 20
7599.065863129585
 30
0.0
  0
POINT
  5
28B94
330
2855B
100
AcDbEntity
  8
DEFPOINTS
 62
     0
 48
50.0
100
AcDbPoint
 10
8105.6
 20
7599.065863129585
 30
0.0
  0
POINT
  5
28B95
330
2855B
100
AcDbEntity
  8
DEFPOINTS
 62
     0
 48
50.0
100
AcDbPoint
 10
8105.6
 20
8398.332321223497
 30
0.0
  0
ENDBLK
  5
28565
330
2855B
100
AcDbEntity
  8
0
 48
50.0
100
AcDbBlockEnd
  0
BLOCK
  5
28570
330
28566
100
AcDbEntity
  8
0
 48
50.0
100
AcDbBlockBegin
  2
*D29
 70
     1
 10
0.0
 20
0.0
 30
0.0
  3
*D29
  1

  0
LINE
  5
28CB1
330
28566
100
AcDbEntity
  8
寸法
 62
     0
 48
50.0
370
    -2
100
AcDbLine
 10
9173.600000000007
 20
7009.065863129585
 30
0.0
 11
9173.600000000007
 21
8214.674679799834
 31
0.0
  0
LINE
  5
28CB2
330
28566
100
AcDbEntity
  8
寸法
 62
     0
 48
50.0
370
    -2
100
AcDbLine
 10
8223.600000000008
 20
7009.065863129585
 30
0.0
 11
8223.600000000008
 21
8214.674679799834
 31
0.0
  0
LINE
  5
28CB3
330
28566
100
AcDbEntity
  8
寸法
 62
     0
 48
50.0
370
    -2
100
AcDbLine
 10
9173.600000000007
 20
8154.674679799835
 30
0.0
 11
8223.600000000008
 21
8154.674679799835
 31
0.0
  0
INSERT
  5
28CB4
330
28566
100
AcDbEntity
  8
寸法
 62
     0
 48
50.0
370
    -2
100
AcDbBlockReference
  2
_DOTSMALL
 10
9173.600000000007
 20
8154.674679799835
 30
0.0
 41
100.0
 42
100.0
 43
100.0
  0
INSERT
  5
28CB5
330
28566
100
AcDbEntity
  8
寸法
 62
     0
 48
50.0
370
    -2
100
AcDbBlockReference
  2
_DOTSMALL
 10
8223.600000000008
 20
8154.674679799835
 30
0.0
 41
100.0
 42
100.0
 43
100.0
 50
180.0
  0
MTEXT
  5
28CB6
330
28566
100
AcDbEntity
  8
寸法
 62
     7
 48
50.0
100
AcDbMText
 10
8698.600000000007
 20
8254.674679799835
 30
0.0
 40
120.0
 41
0.0
 71
     5
 72
     1
  1
\A1;950
  7
STYLE1
 73
     1
 44
1.0
1001
ACAD
1000
MTEXTBEGIN
1070
    73
1070
     1
1070
    44
1040
1.0
1070
    74
1070
     0
1000
MTEXTEND
  0
POINT
  5
28CB7
330
28566
100
AcDbEntity
  8
DEFPOINTS
 62
     0
 48
50.0
100
AcDbPoint
 10
9173.600000000007
 20
6989.065863129585
 30
0.0
  0
POINT
  5
28CB8
330
28566
100
AcDbEntity
  8
DEFPOINTS
 62
     0
 48
50.0
100
AcDbPoint
 10
8223.600000000008
 20
6989.065863129585
 30
0.0
  0
POINT
  5
28CB9
330
28566
100
AcDbEntity
  8
DEFPOINTS
 62
     0
 48
50.0
100
AcDbPoint
 10
8223.600000000008
 20
8154.674679799835
 30
0.0
  0
ENDBLK
  5
28571
330
28566
100
AcDbEntity
  8
0
 48
50.0
100
AcDbBlockEnd
  0
BLOCK
  5
2857C
330
28572
100
AcDbEntity
  8
0
 48
50.0
100
AcDbBlockBegin
  2
*D30
 70
     1
 10
0.0
 20
0.0
 30
0.0
  3
*D30
  1

  0
LINE
  5
28B7B
330
28572
100
AcDbEntity
  8
寸法
 62
     0
 48
50.0
370
    -2
100
AcDbLine
 10
3468.600000000001
 20
7692.065863129585
 30
0.0
 11
3468.600000000001
 21
8690.286185188503
 31
0.0
  0
LINE
  5
28B7C
330
28572
100
AcDbEntity
  8
寸法
 62
     0
 48
50.0
370
    -2
100
AcDbLine
 10
12978.6
 20
7692.065863129585
 30
0.0
 11
12978.6
 21
8690.286185188503
 31
0.0
  0
LINE
  5
28B7D
330
28572
100
AcDbEntity
  8
寸法
 62
     0
 48
50.0
370
    -2
100
AcDbLine
 10
3468.600000000001
 20
8630.286185188502
 30
0.0
 11
12978.6
 21
8630.286185188502
 31
0.0
  0
INSERT
  5
28B7E
330
28572
100
AcDbEntity
  8
寸法
 62
     0
 48
50.0
370
    -2
100
AcDbBlockReference
  2
_DOTSMALL
 10
3468.600000000001
 20
8630.286185188502
 30
0.0
 41
100.0
 42
100.0
 43
100.0
 50
180.0
  0
INSERT
  5
28B7F
330
28572
100
AcDbEntity
  8
寸法
 62
     0
 48
50.0
370
    -2
100
AcDbBlockReference
  2
_DOTSMALL
 10
12978.6
 20
8630.286185188502
 30
0.0
 41
100.0
 42
100.0
 43
100.0
  0
MTEXT
  5
28B80
330
28572
100
AcDbEntity
  8
寸法
 62
     7
 48
50.0
100
AcDbMText
 10
8223.600000000001
 20
8730.286185188502
 30
0.0
 40
120.0
 41
0.0
 71
     5
 72
     1
  1
\A1;9510
  7
STYLE1
 73
     1
 44
1.0
1001
ACAD
1000
MTEXTBEGIN
1070
    73
1070
     1
1070
    44
1040
1.0
1070
    74
1070
     0
1000
MTEXTEND
  0
POINT
  5
28B81
330
28572
100
AcDbEntity
  8
DEFPOINTS
 62
     0
 48
50.0
100
AcDbPoint
 10
3468.600000000001
 20
7672.065863129585
 30
0.0
  0
POINT
  5
28B82
330
28572
100
AcDbEntity
  8
DEFPOINTS
 62
     0
 48
50.0
100
AcDbPoint
 10
12978.6
 20
7672.065863129585
 30
0.0
  0
POINT
  5
28B83
330
28572
100
AcDbEntity
  8
DEFPOINTS
 62
     0
 48
50.0
100
AcDbPoint
 10
12978.6
 20
8630.286185188502
 30
0.0
  0
ENDBLK
  5
2857D
330
28572
100
AcDbEntity
  8
0
 48
50.0
100
AcDbBlockEnd
  0
BLOCK
  5
28587
330
2857E
100
AcDbEntity
  8
0
 48
50.0
100
AcDbBlockBegin
  2
*D31
 70
     1
 10
0.0
 20
0.0
 30
0.0
  3
*D31
  1

  0
LINE
  5
28CC3
330
2857E
100
AcDbEntity
  8
寸法
 62
     0
 48
50.0
370
    -2
100
AcDbLine
 10
8223.600000000008
 20
7009.065863129585
 30
0.0
 11
8223.600000000008
 21
8214.674679799834
 31
0.0
  0
LINE
  5
28CC4
330
2857E
100
AcDbEntity
  8
寸法
 62
     0
 48
50.0
370
    -2
100
AcDbLine
 10
7273.600000000008
 20
7009.065863129585
 30
0.0
 11
7273.600000000008
 21
8214.674679799834
 31
0.0
  0
LINE
  5
28CC5
330
2857E
100
AcDbEntity
  8
寸法
 62
     0
 48
50.0
370
    -2
100
AcDbLine
 10
8223.600000000008
 20
8154.674679799835
 30
0.0
 11
7273.600000000008
 21
8154.674679799835
 31
0.0
  0
INSERT
  5
28CC6
330
2857E
100
AcDbEntity
  8
寸法
 62
     0
 48
50.0
370
    -2
100
AcDbBlockReference
  2
_DOTSMALL
 10
8223.600000000008
 20
8154.674679799835
 30
0.0
 41
100.0
 42
100.0
 43
100.0
  0
INSERT
  5
28CC7
330
2857E
100
AcDbEntity
  8
寸法
 62
     0
 48
50.0
370
    -2
100
AcDbBlockReference
  2
_DOTSMALL
 10
7273.600000000008
 20
8154.674679799835
 30
0.0
 41
100.0
 42
100.0
 43
100.0
 50
180.0
  0
MTEXT
  5
28CC8
330
2857E
100
AcDbEntity
  8
寸法
 62
     7
 48
50.0
100
AcDbMText
 10
7748.600000000007
 20
8254.674679799835
 30
0.0
 40
120.0
 41
0.0
 71
     5
 72
     1
  1
\A1;950
  7
STYLE1
 73
     1
 44
1.0
1001
ACAD
1000
MTEXTBEGIN
1070
    73
1070
     1
1070
    44
1040
1.0
1070
    74
1070
     0
1000
MTEXTEND
  0
POINT
  5
28CC9
330
2857E
100
AcDbEntity
  8
DEFPOINTS
 62
     0
 48
50.0
100
AcDbPoint
 10
8223.600000000008
 20
6989.065863129585
 30
0.0
  0
POINT
  5
28CCA
330
2857E
100
AcDbEntity
  8
DEFPOINTS
 62
     0
 48
50.0
100
AcDbPoint
 10
7273.600000000008
 20
6989.065863129585
 30
0.0
  0
POINT
  5
28CCB
330
2857E
100
AcDbEntity
  8
DEFPOINTS
 62
     0
 48
50.0
100
AcDbPoint
 10
7273.600000000008
 20
8154.674679799835
 30
0.0
  0
ENDBLK
  5
28588
330
2857E
100
AcDbEntity
  8
0
 48
50.0
100
AcDbBlockEnd
  0
BLOCK
  5
28593
330
28589
100
AcDbEntity
  8
0
 48
50.0
100
AcDbBlockBegin
  2
*D32
 70
     1
 10
0.0
 20
0.0
 30
0.0
  3
*D32
  1

  0
LINE
  5
28CD5
330
28589
100
AcDbEntity
  8
寸法
 62
     0
 48
50.0
370
    -2
100
AcDbLine
 10
7273.600000000008
 20
7009.065863129585
 30
0.0
 11
7273.600000000008
 21
8214.674679799834
 31
0.0
  0
LINE
  5
28CD6
330
28589
100
AcDbEntity
  8
寸法
 62
     0
 48
50.0
370
    -2
100
AcDbLine
 10
6323.600000000007
 20
7012.065863129585
 30
0.0
 11
6323.600000000007
 21
8214.674679799834
 31
0.0
  0
LINE
  5
28CD7
330
28589
100
AcDbEntity
  8
寸法
 62
     0
 48
50.0
370
    -2
100
AcDbLine
 10
7273.600000000008
 20
8154.674679799835
 30
0.0
 11
6323.600000000007
 21
8154.674679799835
 31
0.0
  0
INSERT
  5
28CD8
330
28589
100
AcDbEntity
  8
寸法
 62
     0
 48
50.0
370
    -2
100
AcDbBlockReference
  2
_DOTSMALL
 10
7273.600000000008
 20
8154.674679799835
 30
0.0
 41
100.0
 42
100.0
 43
100.0
  0
INSERT
  5
28CD9
330
28589
100
AcDbEntity
  8
寸法
 62
     0
 48
50.0
370
    -2
100
AcDbBlockReference
  2
_DOTSMALL
 10
6323.600000000007
 20
8154.674679799835
 30
0.0
 41
100.0
 42
100.0
 43
100.0
 50
180.0
  0
MTEXT
  5
28CDA
330
28589
100
AcDbEntity
  8
寸法
 62
     7
 48
50.0
100
AcDbMText
 10
6798.600000000007
 20
8254.674679799835
 30
0.0
 40
120.0
 41
0.0
 71
     5
 72
     1
  1
\A1;950
  7
STYLE1
 73
     1
 44
1.0
1001
ACAD
1000
MTEXTBEGIN
1070
    73
1070
     1
1070
    44
1040
1.0
1070
    74
1070
     0
1000
MTEXTEND
  0
POINT
  5
28CDB
330
28589
100
AcDbEntity
  8
DEFPOINTS
 62
     0
 48
50.0
100
AcDbPoint
 10
7273.600000000008
 20
6989.065863129585
 30
0.0
  0
POINT
  5
28CDC
330
28589
100
AcDbEntity
  8
DEFPOINTS
 62
     0
 48
50.0
100
AcDbPoint
 10
6323.600000000007
 20
6992.065863129585
 30
0.0
  0
POINT
  5
28CDD
330
28589
100
AcDbEntity
  8
DEFPOINTS
 62
     0
 48
50.0
100
AcDbPoint
 10
6323.600000000007
 20
8154.674679799835
 30
0.0
  0
ENDBLK
  5
28594
330
28589
100
AcDbEntity
  8
0
 48
50.0
100
AcDbBlockEnd
  0
BLOCK
  5
2859E
330
28595
100
AcDbEntity
  8
0
 48
50.0
100
AcDbBlockBegin
  2
*D33
 70
     1
 10
0.0
 20
0.0
 30
0.0
  3
*D33
  1

  0
LINE
  5
28CF9
330
28595
100
AcDbEntity
  8
寸法
 62
     0
 48
50.0
370
    -2
100
AcDbLine
 10
5373.60000000001
 20
7009.065863129585
 30
0.0
 11
5373.60000000001
 21
8214.674679799834
 31
0.0
  0
LINE
  5
28CFA
330
28595
100
AcDbEntity
  8
寸法
 62
     0
 48
50.0
370
    -2
100
AcDbLine
 10
4423.600000000007
 20
7009.065863129585
 30
0.0
 11
4423.600000000007
 21
8214.674679799834
 31
0.0
  0
LINE
  5
28CFB
330
28595
100
AcDbEntity
  8
寸法
 62
     0
 48
50.0
370
    -2
100
AcDbLine
 10
5373.60000000001
 20
8154.674679799835
 30
0.0
 11
4423.600000000007
 21
8154.674679799835
 31
0.0
  0
INSERT
  5
28CFC
330
28595
100
AcDbEntity
  8
寸法
 62
     0
 48
50.0
370
    -2
100
AcDbBlockReference
  2
_DOTSMALL
 10
5373.60000000001
 20
8154.674679799835
 30
0.0
 41
100.0
 42
100.0
 43
100.0
  0
INSERT
  5
28CFD
330
28595
100
AcDbEntity
  8
寸法
 62
     0
 48
50.0
370
    -2
100
AcDbBlockReference
  2
_DOTSMALL
 10
4423.600000000007
 20
8154.674679799835
 30
0.0
 41
100.0
 42
100.0
 43
100.0
 50
180.0
  0
MTEXT
  5
28CFE
330
28595
100
AcDbEntity
  8
寸法
 62
     7
 48
50.0
100
AcDbMText
 10
4898.600000000008
 20
8254.674679799835
 30
0.0
 40
120.0
 41
0.0
 71
     5
 72
     1
  1
\A1;950
  7
STYLE1
 73
     1
 44
1.0
1001
ACAD
1000
MTEXTBEGIN
1070
    73
1070
     1
1070
    44
1040
1.0
1070
    74
1070
     0
1000
MTEXTEND
  0
POINT
  5
28CFF
330
28595
100
AcDbEntity
  8
DEFPOINTS
 62
     0
 48
50.0
100
AcDbPoint
 10
5373.60000000001
 20
6989.065863129585
 30
0.0
  0
POINT
  5
28D00
330
28595
100
AcDbEntity
  8
DEFPOINTS
 62
     0
 48
50.0
100
AcDbPoint
 10
4423.600000000007
 20
6989.065863129585
 30
0.0
  0
POINT
  5
28D01
330
28595
100
AcDbEntity
  8
DEFPOINTS
 62
     0
 48
50.0
100
AcDbPoint
 10
4423.600000000007
 20
8154.674679799835
 30
0.0
  0
ENDBLK
  5
2859F
330
28595
100
AcDbEntity
  8
0
 48
50.0
100
AcDbBlockEnd
  0
BLOCK
  5
285AA
330
285A0
100
AcDbEntity
  8
0
 48
50.0
100
AcDbBlockBegin
  2
*D34
 70
     1
 10
0.0
 20
0.0
 30
0.0
  3
*D34
  1

  0
LINE
  5
28D0B
330
285A0
100
AcDbEntity
  8
寸法
 62
     0
 48
50.0
370
    -2
100
AcDbLine
 10
4353.600000000008
 20
6939.065863129584
 30
0.0
 11
3891.285990614301
 21
6939.065863129584
 31
0.0
  0
LINE
  5
28D0C
330
285A0
100
AcDbEntity
  8
寸法
 62
     0
 48
50.0
370
    -2
100
AcDbLine
 10
4022.765475140901
 20
7672.065863129585
 30
0.0
 11
3891.285990614302
 21
7672.065863129585
 31
0.0
  0
LINE
  5
28D0D
330
285A0
100
AcDbEntity
  8
寸法
 62
     0
 48
50.0
370
    -2
100
AcDbLine
 10
3951.285990614302
 20
6939.065863129584
 30
0.0
 11
3951.285990614302
 21
7672.065863129585
 31
0.0
  0
INSERT
  5
28D0E
330
285A0
100
AcDbEntity
  8
寸法
 62
     0
 48
50.0
370
    -2
100
AcDbBlockReference
  2
_DOTSMALL
 10
3951.285990614302
 20
6939.065863129584
 30
0.0
 41
100.0
 42
100.0
 43
100.0
 50
270.0
  0
INSERT
  5
28D0F
330
285A0
100
AcDbEntity
  8
寸法
 62
     0
 48
50.0
370
    -2
100
AcDbBlockReference
  2
_DOTSMALL
 10
3951.285990614302
 20
7672.065863129585
 30
0.0
 41
100.0
 42
100.0
 43
100.0
 50
90.0
  0
MTEXT
  5
28D10
330
285A0
100
AcDbEntity
  8
寸法
 62
     7
 48
50.0
100
AcDbMText
 10
3851.285990614301
 20
7231.660653823761
 30
0.0
 40
120.0
 41
0.0
 71
     5
 72
     1
  1
\A1;733
  7
STYLE1
 11
0.0000000000000001
 21
1.0
 31
0.0
 73
     1
 44
1.0
1001
ACAD
1000
MTEXTBEGIN
1070
    73
1070
     1
1070
    44
1040
1.0
1070
    74
1070
     0
1000
MTEXTEND
  0
POINT
  5
28D11
330
285A0
100
AcDbEntity
  8
DEFPOINTS
 62
     0
 48
50.0
100
AcDbPoint
 10
4373.600000000007
 20
6939.065863129584
 30
0.0
  0
POINT
  5
28D12
330
285A0
100
AcDbEntity
  8
DEFPOINTS
 62
     0
 48
50.0
100
AcDbPoint
 10
4042.765475140901
 20
7672.065863129585
 30
0.0
  0
POINT
  5
28D13
330
285A0
100
AcDbEntity
  8
DEFPOINTS
 62
     0
 48
50.0
100
AcDbPoint
 10
3951.285990614302
 20
7672.065863129585
 30
0.0
  0
ENDBLK
  5
285AB
330
285A0
100
AcDbEntity
  8
0
 48
50.0
100
AcDbBlockEnd
  0
BLOCK
  5
285B6
330
285AC
100
AcDbEntity
  8
0
 48
50.0
100
AcDbBlockBegin
  2
*D35
 70
     1
 10
0.0
 20
0.0
 30
0.0
  3
*D35
  1

  0
LINE
  5
28CF0
330
285AC
100
AcDbEntity
  8
寸法
 62
     0
 48
50.0
370
    -2
100
AcDbLine
 10
4423.600000000007
 20
7009.065863129585
 30
0.0
 11
4423.600000000007
 21
8214.674679799834
 31
0.0
  0
LINE
  5
28CF1
330
285AC
100
AcDbEntity
  8
寸法
 62
     0
 48
50.0
370
    -2
100
AcDbLine
 10
3468.600000000001
 20
7692.065863129585
 30
0.0
 11
3468.600000000001
 21
8214.674679799834
 31
0.0
  0
LINE
  5
28CF2
330
285AC
100
AcDbEntity
  8
寸法
 62
     0
 48
50.0
370
    -2
100
AcDbLine
 10
4423.600000000007
 20
8154.674679799835
 30
0.0
 11
3468.600000000001
 21
8154.674679799835
 31
0.0
  0
INSERT
  5
28CF3
330
285AC
100
AcDbEntity
  8
寸法
 62
     0
 48
50.0
370
    -2
100
AcDbBlockReference
  2
_DOTSMALL
 10
4423.600000000007
 20
8154.674679799835
 30
0.0
 41
100.0
 42
100.0
 43
100.0
  0
INSERT
  5
28CF4
330
285AC
100
AcDbEntity
  8
寸法
 62
     0
 48
50.0
370
    -2
100
AcDbBlockReference
  2
_DOTSMALL
 10
3468.600000000001
 20
8154.674679799835
 30
0.0
 41
100.0
 42
100.0
 43
100.0
 50
180.0
  0
MTEXT
  5
28CF5
330
285AC
100
AcDbEntity
  8
寸法
 62
     7
 48
50.0
100
AcDbMText
 10
3946.100000000004
 20
8254.674679799835
 30
0.0
 40
120.0
 41
0.0
 71
     5
 72
     1
  1
\A1;955
  7
STYLE1
 73
     1
 44
1.0
1001
ACAD
1000
MTEXTBEGIN
1070
    73
1070
     1
1070
    44
1040
1.0
1070
    74
1070
     0
1000
MTEXTEND
  0
POINT
  5
28CF6
330
285AC
100
AcDbEntity
  8
DEFPOINTS
 62
     0
 48
50.0
100
AcDbPoint
 10
4423.600000000007
 20
6989.065863129585
 30
0.0
  0
POINT
  5
28CF7
330
285AC
100
AcDbEntity
  8
DEFPOINTS
 62
     0
 48
50.0
100
AcDbPoint
 10
3468.600000000001
 20
7672.065863129585
 30
0.0
  0
POINT
  5
28CF8
330
285AC
100
AcDbEntity
  8
DEFPOINTS
 62
     0
 48
50.0
100
AcDbPoint
 10
3468.600000000001
 20
8154.674679799835
 30
0.0
  0
ENDBLK
  5
285B7
330
285AC
100
AcDbEntity
  8
0
 48
50.0
100
AcDbBlockEnd
  0
BLOCK
  5
285C2
330
285B8
100
AcDbEntity
  8
0
 48
50.0
100
AcDbBlockBegin
  2
*D36
 70
     1
 10
0.0
 20
0.0
 30
0.0
  3
*D36
  1

  0
LINE
  5
28BB2
330
285B8
100
AcDbEntity
  8
寸法
 62
     0
 48
50.0
370
    -2
100
AcDbLine
 10
3448.600000000001
 20
7672.065863129585
 30
0.0
 11
2533.721909610675
 21
7672.065863129585
 31
0.0
  0
LINE
  5
28BB3
330
285B8
100
AcDbEntity
  8
寸法
 62
     0
 48
50.0
370
    -2
100
AcDbLine
 10
3448.600000000001
 20
6132.065863129585
 30
0.0
 11
2533.721909610674
 21
6132.065863129585
 31
0.0
  0
LINE
  5
28BB4
330
285B8
100
AcDbEntity
  8
寸法
 62
     0
 48
50.0
370
    -2
100
AcDbLine
 10
2593.721909610674
 20
7672.065863129585
 30
0.0
 11
2593.721909610674
 21
6132.065863129585
 31
0.0
  0
INSERT
  5
28BB5
330
285B8
100
AcDbEntity
  8
寸法
 62
     0
 48
50.0
370
    -2
100
AcDbBlockReference
  2
_DOTSMALL
 10
2593.721909610674
 20
7672.065863129585
 30
0.0
 41
100.0
 42
100.0
 43
100.0
 50
90.0
  0
INSERT
  5
28BB6
330
285B8
100
AcDbEntity
  8
寸法
 62
     0
 48
50.0
370
    -2
100
AcDbBlockReference
  2
_DOTSMALL
 10
2593.721909610674
 20
6132.065863129585
 30
0.0
 41
100.0
 42
100.0
 43
100.0
 50
270.0
  0
MTEXT
  5
28BB7
330
285B8
100
AcDbEntity
  8
寸法
 62
     7
 48
50.0
100
AcDbMText
 10
2493.721909610673
 20
6939.565863129584
 30
0.0
 40
120.0
 41
0.0
 71
     5
 72
     1
  1
\A1;1540
  7
STYLE1
 11
0.0000000000000001
 21
1.0
 31
0.0
 73
     1
 44
1.0
1001
ACAD
1000
MTEXTBEGIN
1070
    73
1070
     1
1070
    44
1040
1.0
1070
    74
1070
     0
1000
MTEXTEND
  0
POINT
  5
28BB8
330
285B8
100
AcDbEntity
  8
DEFPOINTS
 62
     0
 48
50.0
100
AcDbPoint
 10
3468.600000000001
 20
7672.065863129585
 30
0.0
  0
POINT
  5
28BB9
330
285B8
100
AcDbEntity
  8
DEFPOINTS
 62
     0
 48
50.0
100
AcDbPoint
 10
3468.600000000001
 20
6132.065863129585
 30
0.0
  0
POINT
  5
28BBA
330
285B8
100
AcDbEntity
  8
DEFPOINTS
 62
     0
 48
50.0
100
AcDbPoint
 10
2593.721909610674
 20
6132.065863129585
 30
0.0
  0
ENDBLK
  5
285C3
330
285B8
100
AcDbEntity
  8
0
 48
50.0
100
AcDbBlockEnd
  0
BLOCK
  5
285CE
330
285C4
100
AcDbEntity
  8
0
 48
50.0
100
AcDbBlockBegin
  2
*D37
 70
     1
 10
0.0
 20
0.0
 30
0.0
  3
*D37
  1

  0
LINE
  5
28C3B
330
285C4
100
AcDbEntity
  8
寸法
 62
     0
 48
50.0
370
    -2
100
AcDbLine
 10
3521.6
 20
7549.065863129584
 30
0.0
 11
2785.665006330073
 21
7549.065863129584
 31
0.0
  0
LINE
  5
28C3C
330
285C4
100
AcDbEntity
  8
寸法
 62
     0
 48
50.0
370
    -2
100
AcDbLine
 10
3521.600000000008
 20
6330.065863129588
 30
0.0
 11
2785.665006330072
 21
6330.065863129588
 31
0.0
  0
LINE
  5
28C3D
330
285C4
100
AcDbEntity
  8
寸法
 62
     0
 48
50.0
370
    -2
100
AcDbLine
 10
2845.665006330073
 20
7549.065863129584
 30
0.0
 11
2845.665006330072
 21
6330.065863129588
 31
0.0
  0
INSERT
  5
28C3E
330
285C4
100
AcDbEntity
  8
寸法
 62
     0
 48
50.0
370
    -2
100
AcDbBlockReference
  2
_DOTSMALL
 10
2845.665006330073
 20
7549.065863129584
 30
0.0
 41
100.0
 42
100.0
 43
100.0
 50
90.0
  0
INSERT
  5
28C3F
330
285C4
100
AcDbEntity
  8
寸法
 62
     0
 48
50.0
370
    -2
100
AcDbBlockReference
  2
_DOTSMALL
 10
2845.665006330072
 20
6330.065863129588
 30
0.0
 41
100.0
 42
100.0
 43
100.0
 50
270.0
  0
MTEXT
  5
28C40
330
285C4
100
AcDbEntity
  8
寸法
 62
     7
 48
50.0
100
AcDbMText
 10
2745.653195306449
 20
6939.565863129584
 30
0.0
 40
120.0
 41
0.0
 71
     5
 72
     1
  1
\A1;1219
  7
STYLE1
 11
0.0000000000000001
 21
1.0
 31
0.0
 73
     1
 44
1.0
1001
ACAD
1000
MTEXTBEGIN
1070
    73
1070
     1
1070
    44
1040
1.0
1070
    74
1070
     0
1000
MTEXTEND
  0
POINT
  5
28C41
330
285C4
100
AcDbEntity
  8
DEFPOINTS
 62
     0
 48
50.0
100
AcDbPoint
 10
3541.600000000001
 20
7549.065863129584
 30
0.0
  0
POINT
  5
28C42
330
285C4
100
AcDbEntity
  8
DEFPOINTS
 62
     0
 48
50.0
100
AcDbPoint
 10
3541.600000000008
 20
6330.065863129588
 30
0.0
  0
POINT
  5
28C43
330
285C4
100
AcDbEntity
  8
DEFPOINTS
 62
     0
 48
50.0
100
AcDbPoint
 10
2845.665006330072
 20
6330.065863129588
 30
0.0
  0
ENDBLK
  5
285CF
330
285C4
100
AcDbEntity
  8
0
 48
50.0
100
AcDbBlockEnd
  0
BLOCK
  5
285D9
330
285D0
100
AcDbEntity
  8
0
 48
50.0
100
AcDbBlockBegin
  2
*D38
 70
     1
 10
0.0
 20
0.0
 30
0.0
  3
*D38
  1

  0
LINE
  5
28CE7
330
285D0
100
AcDbEntity
  8
寸法
 62
     0
 48
50.0
370
    -2
100
AcDbLine
 10
6323.600000000007
 20
7012.065863129585
 30
0.0
 11
6323.600000000007
 21
8214.674679799834
 31
0.0
  0
LINE
  5
28CE8
330
285D0
100
AcDbEntity
  8
寸法
 62
     0
 48
50.0
370
    -2
100
AcDbLine
 10
5373.60000000001
 20
7009.065863129585
 30
0.0
 11
5373.60000000001
 21
8214.674679799834
 31
0.0
  0
LINE
  5
28CE9
330
285D0
100
AcDbEntity
  8
寸法
 62
     0
 48
50.0
370
    -2
100
AcDbLine
 10
6323.600000000007
 20
8154.674679799835
 30
0.0
 11
5373.60000000001
 21
8154.674679799835
 31
0.0
  0
INSERT
  5
28CEA
330
285D0
100
AcDbEntity
  8
寸法
 62
     0
 48
50.0
370
    -2
100
AcDbBlockReference
  2
_DOTSMALL
 10
6323.600000000007
 20
8154.674679799835
 30
0.0
 41
100.0
 42
100.0
 43
100.0
  0
INSERT
  5
28CEB
330
285D0
100
AcDbEntity
  8
寸法
 62
     0
 48
50.0
370
    -2
100
AcDbBlockReference
  2
_DOTSMALL
 10
5373.60000000001
 20
8154.674679799835
 30
0.0
 41
100.0
 42
100.0
 43
100.0
 50
180.0
  0
MTEXT
  5
28CEC
330
285D0
100
AcDbEntity
  8
寸法
 62
     7
 48
50.0
100
AcDbMText
 10
5848.600000000009
 20
8254.674679799835
 30
0.0
 40
120.0
 41
0.0
 71
     5
 72
     1
  1
\A1;950
  7
STYLE1
 73
     1
 44
1.0
1001
ACAD
1000
MTEXTBEGIN
1070
    73
1070
     1
1070
    44
1040
1.0
1070
    74
1070
     0
1000
MTEXTEND
  0
POINT
  5
28CED
330
285D0
100
AcDbEntity
  8
DEFPOINTS
 62
     0
 48
50.0
100
AcDbPoint
 10
6323.600000000007
 20
6992.065863129585
 30
0.0
  0
POINT
  5
28CEE
330
285D0
100
AcDbEntity
  8
DEFPOINTS
 62
     0
 48
50.0
100
AcDbPoint
 10
5373.60000000001
 20
6989.065863129585
 30
0.0
  0
POINT
  5
28CEF
330
285D0
100
AcDbEntity
  8
DEFPOINTS
 62
     0
 48
50.0
100
AcDbPoint
 10
5373.60000000001
 20
8154.674679799835
 30
0.0
  0
ENDBLK
  5
285DA
330
285D0
100
AcDbEntity
  8
0
 48
50.0
100
AcDbBlockEnd
  0
BLOCK
  5
285F2
330
285E8
100
AcDbEntity
  8
0
 48
50.0
100
AcDbBlockBegin
  2
*D39
 70
     1
 10
0.0
 20
0.0
 30
0.0
  3
*D39
  1

  0
LINE
  5
28B96
330
285E8
100
AcDbEntity
  8
寸法
 62
     0
 48
50.0
370
    -2
100
AcDbLine
 10
3448.600000000004
 20
6132.065863129581
 30
0.0
 11
3295.512673767881
 21
6132.065863129581
 31
0.0
  0
LINE
  5
28B97
330
285E8
100
AcDbEntity
  8
寸法
 62
     0
 48
50.0
370
    -2
100
AcDbLine
 10
3804.325326928809
 20
5412.065863129581
 30
0.0
 11
3295.512673767881
 21
5412.065863129581
 31
0.0
  0
LINE
  5
28B98
330
285E8
100
AcDbEntity
  8
寸法
 62
     0
 48
50.0
370
    -2
100
AcDbLine
 10
3355.512673767881
 20
6132.065863129581
 30
0.0
 11
3355.512673767881
 21
5412.065863129581
 31
0.0
  0
INSERT
  5
28B99
330
285E8
100
AcDbEntity
  8
寸法
 62
     0
 48
50.0
370
    -2
100
AcDbBlockReference
  2
_DOTSMALL
 10
3355.512673767881
 20
6132.065863129581
 30
0.0
 41
100.0
 42
100.0
 43
100.0
 50
90.0
  0
INSERT
  5
28B9A
330
285E8
100
AcDbEntity
  8
寸法
 62
     0
 48
50.0
370
    -2
100
AcDbBlockReference
  2
_DOTSMALL
 10
3355.512673767881
 20
5412.065863129581
 30
0.0
 41
100.0
 42
100.0
 43
100.0
 50
270.0
  0
MTEXT
  5
28B9B
330
285E8
100
AcDbEntity
  8
寸法
 62
     7
 48
50.0
100
AcDbMText
 10
3255.500862744258
 20
5772.065863129582
 30
0.0
 40
120.0
 41
0.0
 71
     5
 72
     1
  1
\A1;扉の出720
  7
STYLE1
 11
0.0000000000000001
 21
1.0
 31
0.0
 73
     1
 44
1.0
1001
ACAD
1000
MTEXTBEGIN
1070
    73
1070
     1
1070
    44
1040
1.0
1070
    74
1070
     0
1000
MTEXTEND
  0
POINT
  5
28B9C
330
285E8
100
AcDbEntity
  8
DEFPOINTS
 62
     0
 48
50.0
100
AcDbPoint
 10
3468.600000000004
 20
6132.065863129581
 30
0.0
  0
POINT
  5
28B9D
330
285E8
100
AcDbEntity
  8
DEFPOINTS
 62
     0
 48
50.0
100
AcDbPoint
 10
3824.325326928809
 20
5412.065863129581
 30
0.0
  0
POINT
  5
28B9E
330
285E8
100
AcDbEntity
  8
DEFPOINTS
 62
     0
 48
50.0
100
AcDbPoint
 10
3355.512673767881
 20
5412.065863129581
 30
0.0
  0
ENDBLK
  5
285F3
330
285E8
100
AcDbEntity
  8
0
 48
50.0
100
AcDbBlockEnd
  0
BLOCK
  5
285FF
330
285F4
100
AcDbEntity
  8
0
 48
50.0
100
AcDbBlockBegin
  2
*D40
 70
     1
 10
0.0
 20
0.0
 30
0.0
  3
*D40
  1

  0
LINE
  5
28C31
330
285F4
100
AcDbEntity
  8
寸法
 62
     0
 48
50.0
370
    -2
100
AcDbLine
 10
3521.600000000008
 20
6330.065863129588
 30
0.0
 11
2785.665006330072
 21
6330.065863129588
 31
0.0
  0
LINE
  5
28C32
330
285F4
100
AcDbEntity
  8
寸法
 62
     0
 48
50.0
370
    -2
100
AcDbLine
 10
3448.600000000001
 20
6132.065863129585
 30
0.0
 11
2785.665006330072
 21
6132.065863129585
 31
0.0
  0
LINE
  5
28C33
330
285F4
100
AcDbEntity
  8
寸法
 62
     0
 48
50.0
370
    -2
100
AcDbLine
 10
2845.665006330072
 20
6330.065863129588
 30
0.0
 11
2845.665006330072
 21
6132.065863129585
 31
0.0
  0
LINE
  5
28C34
330
285F4
100
AcDbEntity
  8
寸法
 62
     0
 48
50.0
370
    -2
100
AcDbLine
 10
2845.665006330072
 20
6132.065863129585
 30
0.0
 11
2845.665006330072
 21
5660.325254457335
 31
0.0
  0
INSERT
  5
28C35
330
285F4
100
AcDbEntity
  8
寸法
 62
     0
 48
50.0
370
    -2
100
AcDbBlockReference
  2
_DOTSMALL
 10
2845.665006330072
 20
6330.065863129588
 30
0.0
 41
100.0
 42
100.0
 43
100.0
 50
90.0
  0
INSERT
  5
28C36
330
285F4
100
AcDbEntity
  8
寸法
 62
     0
 48
50.0
370
    -2
100
AcDbBlockReference
  2
_DOTSMALL
 10
2845.665006330072
 20
6132.065863129585
 30
0.0
 41
100.0
 42
100.0
 43
100.0
 50
270.0
  0
MTEXT
  5
28C37
330
285F4
100
AcDbEntity
  8
寸法
 62
     7
 48
50.0
100
AcDbMText
 10
2745.665006330071
 20
5796.534914286993
 30
0.0
 40
120.0
 41
0.0
 71
     5
 72
     1
  1
\A1;198
  7
STYLE1
 11
0.0000000000000001
 21
1.0
 31
0.0
 73
     1
 44
1.0
1001
ACAD
1000
MTEXTBEGIN
1070
    73
1070
     1
1070
    44
1040
1.0
1070
    74
1070
     0
1000
MTEXTEND
  0
POINT
  5
28C38
330
285F4
100
AcDbEntity
  8
DEFPOINTS
 62
     0
 48
50.0
100
AcDbPoint
 10
3541.600000000008
 20
6330.065863129588
 30
0.0
  0
POINT
  5
28C39
330
285F4
100
AcDbEntity
  8
DEFPOINTS
 62
     0
 48
50.0
100
AcDbPoint
 10
3468.600000000001
 20
6132.065863129585
 30
0.0
  0
POINT
  5
28C3A
330
285F4
100
AcDbEntity
  8
DEFPOINTS
 62
     0
 48
50.0
100
AcDbPoint
 10
2845.665006330072
 20
6132.065863129585
 30
0.0
  0
ENDBLK
  5
28600
330
285F4
100
AcDbEntity
  8
0
 48
50.0
100
AcDbBlockEnd
  0
BLOCK
  5
28617
330
2860D
100
AcDbEntity
  8
0
 48
50.0
100
AcDbBlockBegin
  2
*D41
 70
     1
 10
0.0
 20
0.0
 30
0.0
  3
*D41
  1

  0
LINE
  5
28D02
330
2860D
100
AcDbEntity
  8
寸法
 62
     0
 48
50.0
370
    -2
100
AcDbLine
 10
4022.765475140901
 20
6132.065863129596
 30
0.0
 11
3891.285990614301
 21
6132.065863129596
 31
0.0
  0
LINE
  5
28D03
330
2860D
100
AcDbEntity
  8
寸法
 62
     0
 48
50.0
370
    -2
100
AcDbLine
 10
4353.600000000008
 20
6939.065863129584
 30
0.0
 11
3891.285990614301
 21
6939.065863129584
 31
0.0
  0
LINE
  5
28D04
330
2860D
100
AcDbEntity
  8
寸法
 62
     0
 48
50.0
370
    -2
100
AcDbLine
 10
3951.285990614302
 20
6132.065863129596
 30
0.0
 11
3951.285990614302
 21
6939.065863129584
 31
0.0
  0
INSERT
  5
28D05
330
2860D
100
AcDbEntity
  8
寸法
 62
     0
 48
50.0
370
    -2
100
AcDbBlockReference
  2
_DOTSMALL
 10
3951.285990614302
 20
6132.065863129596
 30
0.0
 41
100.0
 42
100.0
 43
100.0
 50
270.0
  0
INSERT
  5
28D06
330
2860D
100
AcDbEntity
  8
寸法
 62
     0
 48
50.0
370
    -2
100
AcDbBlockReference
  2
_DOTSMALL
 10
3951.285990614302
 20
6939.065863129584
 30
0.0
 41
100.0
 42
100.0
 43
100.0
 50
90.0
  0
MTEXT
  5
28D07
330
2860D
100
AcDbEntity
  8
寸法
 62
     7
 48
50.0
100
AcDbMText
 10
3851.285990614301
 20
6617.065863129585
 30
0.0
 40
120.0
 41
0.0
 71
     5
 72
     1
  1
\A1;807
  7
STYLE1
 11
0.0000000000000001
 21
1.0
 31
0.0
 73
     1
 44
1.0
1001
ACAD
1000
MTEXTBEGIN
1070
    73
1070
     1
1070
    44
1040
1.0
1070
    74
1070
     0
1000
MTEXTEND
  0
POINT
  5
28D08
330
2860D
100
AcDbEntity
  8
DEFPOINTS
 62
     0
 48
50.0
100
AcDbPoint
 10
4042.765475140901
 20
6132.065863129596
 30
0.0
  0
POINT
  5
28D09
330
2860D
100
AcDbEntity
  8
DEFPOINTS
 62
     0
 48
50.0
100
AcDbPoint
 10
4373.600000000007
 20
6939.065863129584
 30
0.0
  0
POINT
  5
28D0A
330
2860D
100
AcDbEntity
  8
DEFPOINTS
 62
     0
 48
50.0
100
AcDbPoint
 10
3951.285990614302
 20
6939.065863129584
 30
0.0
  0
ENDBLK
  5
28618
330
2860D
100
AcDbEntity
  8
0
 48
50.0
100
AcDbBlockEnd
  0
BLOCK
  5
28622
330
28619
100
AcDbEntity
  8
0
 48
50.0
100
AcDbBlockBegin
  2
*D42
 70
     1
 10
0.0
 20
0.0
 30
0.0
  3
*D42
  1

  0
LINE
  5
28B45
330
28619
100
AcDbEntity
  8
寸法
 62
     0
 48
50.0
370
    -2
100
AcDbLine
 10
6205.6
 20
7619.065863129584
 30
0.0
 11
6205.6
 21
8458.332321223497
 31
0.0
  0
LINE
  5
28B46
330
28619
100
AcDbEntity
  8
寸法
 62
     0
 48
50.0
370
    -2
100
AcDbLine
 10
3591.600000000001
 20
7619.065863129584
 30
0.0
 11
3591.600000000001
 21
8458.332321223497
 31
0.0
  0
LINE
  5
28B47
330
28619
100
AcDbEntity
  8
寸法
 62
     0
 48
50.0
370
    -2
100
AcDbLine
 10
6205.6
 20
8398.332321223497
 30
0.0
 11
3591.600000000001
 21
8398.332321223497
 31
0.0
  0
INSERT
  5
28B48
330
28619
100
AcDbEntity
  8
寸法
 62
     0
 48
50.0
370
    -2
100
AcDbBlockReference
  2
_DOTSMALL
 10
6205.6
 20
8398.332321223497
 30
0.0
 41
100.0
 42
100.0
 43
100.0
  0
INSERT
  5
28B49
330
28619
100
AcDbEntity
  8
寸法
 62
     0
 48
50.0
370
    -2
100
AcDbBlockReference
  2
_DOTSMALL
 10
3591.600000000001
 20
8398.332321223497
 30
0.0
 41
100.0
 42
100.0
 43
100.0
 50
180.0
  0
MTEXT
  5
28B4A
330
28619
100
AcDbEntity
  8
寸法
 62
     7
 48
50.0
100
AcDbMText
 10
4898.6
 20
8498.344132247119
 30
0.0
 40
120.0
 41
0.0
 71
     5
 72
     1
  1
\A1;2614
  7
STYLE1
 73
     1
 44
1.0
1001
ACAD
1000
MTEXTBEGIN
1070
    73
1070
     1
1070
    44
1040
1.0
1070
    74
1070
     0
1000
MTEXTEND
  0
POINT
  5
28B4B
330
28619
100
AcDbEntity
  8
DEFPOINTS
 62
     0
 48
50.0
100
AcDbPoint
 10
6205.6
 20
7599.065863129585
 30
0.0
  0
POINT
  5
28B4C
330
28619
100
AcDbEntity
  8
DEFPOINTS
 62
     0
 48
50.0
100
AcDbPoint
 10
3591.600000000001
 20
7599.065863129585
 30
0.0
  0
POINT
  5
28B4D
330
28619
100
AcDbEntity
  8
DEFPOINTS
 62
     0
 48
50.0
100
AcDbPoint
 10
3591.600000000001
 20
8398.332321223497
 30
0.0
  0
ENDBLK
  5
28623
330
28619
100
AcDbEntity
  8
0
 48
50.0
100
AcDbBlockEnd
  0
BLOCK
  5
2862F
330
28624
100
AcDbEntity
  8
0
 48
50.0
100
AcDbBlockBegin
  2
*D43
 70
     1
 10
0.0
 20
0.0
 30
0.0
  3
*D43
  1

  0
LINE
  5
28B3B
330
28624
100
AcDbEntity
  8
寸法
 62
     0
 48
50.0
370
    -2
100
AcDbLine
 10
3448.600000000001
 20
7672.065863129585
 30
0.0
 11
2785.665006330073
 21
7672.065863129585
 31
0.0
  0
LINE
  5
28B3C
330
28624
100
AcDbEntity
  8
寸法
 62
     0
 48
50.0
370
    -2
100
AcDbLine
 10
3521.6
 20
7549.065863129584
 30
0.0
 11
2785.665006330073
 21
7549.065863129584
 31
0.0
  0
LINE
  5
28B3D
330
28624
100
AcDbEntity
  8
寸法
 62
     0
 48
50.0
370
    -2
100
AcDbLine
 10
2845.665006330073
 20
7549.065863129584
 30
0.0
 11
2845.665006330073
 21
7672.065863129585
 31
0.0
  0
LINE
  5
28B3E
330
28624
100
AcDbEntity
  8
寸法
 62
     0
 48
50.0
370
    -2
100
AcDbLine
 10
2845.665006330073
 20
7672.065863129585
 30
0.0
 11
2845.665006330073
 21
8083.657746221623
 31
0.0
  0
INSERT
  5
28B3F
330
28624
100
AcDbEntity
  8
寸法
 62
     0
 48
50.0
370
    -2
100
AcDbBlockReference
  2
_DOTSMALL
 10
2845.665006330073
 20
7549.065863129584
 30
0.0
 41
100.0
 42
100.0
 43
100.0
 50
270.0
  0
INSERT
  5
28B40
330
28624
100
AcDbEntity
  8
寸法
 62
     0
 48
50.0
370
    -2
100
AcDbBlockReference
  2
_DOTSMALL
 10
2845.665006330073
 20
7672.065863129585
 30
0.0
 41
100.0
 42
100.0
 43
100.0
 50
90.0
  0
MTEXT
  5
28B41
330
28624
100
AcDbEntity
  8
寸法
 62
     7
 48
50.0
100
AcDbMText
 10
2745.653195306449
 20
7945.172464847384
 30
0.0
 40
120.0
 41
0.0
 71
     5
 72
     1
  1
\A1;123
  7
STYLE1
 11
0.0000000000000001
 21
1.0
 31
0.0
 73
     1
 44
1.0
1001
ACAD
1000
MTEXTBEGIN
1070
    73
1070
     1
1070
    44
1040
1.0
1070
    74
1070
     0
1000
MTEXTEND
  0
POINT
  5
28B42
330
28624
100
AcDbEntity
  8
DEFPOINTS
 62
     0
 48
50.0
100
AcDbPoint
 10
3468.600000000001
 20
7672.065863129585
 30
0.0
  0
POINT
  5
28B43
330
28624
100
AcDbEntity
  8
DEFPOINTS
 62
     0
 48
50.0
100
AcDbPoint
 10
3541.600000000001
 20
7549.065863129584
 30
0.0
  0
POINT
  5
28B44
330
28624
100
AcDbEntity
  8
DEFPOINTS
 62
     0
 48
50.0
100
AcDbPoint
 10
2845.665006330073
 20
7549.065863129584
 30
0.0
  0
ENDBLK
  5
28630
330
28624
100
AcDbEntity
  8
0
 48
50.0
100
AcDbBlockEnd
  0
BLOCK
  5
2863C
330
28631
100
AcDbEntity
  8
0
 48
50.0
100
AcDbBlockBegin
  2
*D44
 70
     1
 10
0.0
 20
0.0
 30
0.0
  3
*D44
  1

  0
LINE
  5
28B31
330
28631
100
AcDbEntity
  8
寸法
 62
     0
 48
50.0
370
    -2
100
AcDbLine
 10
3591.600000000001
 20
7619.065863129584
 30
0.0
 11
3591.600000000001
 21
8458.332321223497
 31
0.0
  0
LINE
  5
28B32
330
28631
100
AcDbEntity
  8
寸法
 62
     0
 48
50.0
370
    -2
100
AcDbLine
 10
3468.600000000001
 20
7692.065863129585
 30
0.0
 11
3468.600000000001
 21
8458.332321223497
 31
0.0
  0
LINE
  5
28B33
330
28631
100
AcDbEntity
  8
寸法
 62
     0
 48
50.0
370
    -2
100
AcDbLine
 10
3591.600000000001
 20
8398.332321223497
 30
0.0
 11
3468.600000000001
 21
8398.332321223497
 31
0.0
  0
LINE
  5
28B34
330
28631
100
AcDbEntity
  8
寸法
 62
     0
 48
50.0
370
    -2
100
AcDbLine
 10
3468.600000000001
 20
8398.332321223497
 30
0.0
 11
3057.008116907964
 21
8398.332321223497
 31
0.0
  0
INSERT
  5
28B35
330
28631
100
AcDbEntity
  8
寸法
 62
     0
 48
50.0
370
    -2
100
AcDbBlockReference
  2
_DOTSMALL
 10
3591.600000000001
 20
8398.332321223497
 30
0.0
 41
100.0
 42
100.0
 43
100.0
  0
INSERT
  5
28B36
330
28631
100
AcDbEntity
  8
寸法
 62
     0
 48
50.0
370
    -2
100
AcDbBlockReference
  2
_DOTSMALL
 10
3468.600000000001
 20
8398.332321223497
 30
0.0
 41
100.0
 42
100.0
 43
100.0
 50
180.0
  0
MTEXT
  5
28B37
330
28631
100
AcDbEntity
  8
寸法
 62
     7
 48
50.0
100
AcDbMText
 10
3195.493398282203
 20
8498.344132247119
 30
0.0
 40
120.0
 41
0.0
 71
     5
 72
     1
  1
\A1;123
  7
STYLE1
 73
     1
 44
1.0
1001
ACAD
1000
MTEXTBEGIN
1070
    73
1070
     1
1070
    44
1040
1.0
1070
    74
1070
     0
1000
MTEXTEND
  0
POINT
  5
28B38
330
28631
100
AcDbEntity
  8
DEFPOINTS
 62
     0
 48
50.0
100
AcDbPoint
 10
3591.600000000001
 20
7599.065863129585
 30
0.0
  0
POINT
  5
28B39
330
28631
100
AcDbEntity
  8
DEFPOINTS
 62
     0
 48
50.0
100
AcDbPoint
 10
3468.600000000001
 20
7672.065863129585
 30
0.0
  0
POINT
  5
28B3A
330
28631
100
AcDbEntity
  8
DEFPOINTS
 62
     0
 48
50.0
100
AcDbPoint
 10
3468.600000000001
 20
8398.332321223497
 30
0.0
  0
ENDBLK
  5
2863D
330
28631
100
AcDbEntity
  8
0
 48
50.0
100
AcDbBlockEnd
  0
BLOCK
  5
2865E
330
28655
100
AcDbEntity
  8
0
 48
50.0
100
AcDbBlockBegin
  2
*D45
 70
     1
 10
0.0
 20
0.0
 30
0.0
  3
*D45
  1

  0
LINE
  5
28B28
330
28655
100
AcDbEntity
  8
寸法
 62
     0
 48
50.0
370
    -2
100
AcDbLine
 10
8105.6
 20
7619.065863129584
 30
0.0
 11
8105.6
 21
8458.332321223497
 31
0.0
  0
LINE
  5
28B29
330
28655
100
AcDbEntity
  8
寸法
 62
     0
 48
50.0
370
    -2
100
AcDbLine
 10
6205.6
 20
7619.065863129584
 30
0.0
 11
6205.6
 21
8458.332321223497
 31
0.0
  0
LINE
  5
28B2A
330
28655
100
AcDbEntity
  8
寸法
 62
     0
 48
50.0
370
    -2
100
AcDbLine
 10
8105.6
 20
8398.332321223497
 30
0.0
 11
6205.6
 21
8398.332321223497
 31
0.0
  0
INSERT
  5
28B2B
330
28655
100
AcDbEntity
  8
寸法
 62
     0
 48
50.0
370
    -2
100
AcDbBlockReference
  2
_DOTSMALL
 10
8105.6
 20
8398.332321223497
 30
0.0
 41
100.0
 42
100.0
 43
100.0
  0
INSERT
  5
28B2C
330
28655
100
AcDbEntity
  8
寸法
 62
     0
 48
50.0
370
    -2
100
AcDbBlockReference
  2
_DOTSMALL
 10
6205.6
 20
8398.332321223497
 30
0.0
 41
100.0
 42
100.0
 43
100.0
 50
180.0
  0
MTEXT
  5
28B2D
330
28655
100
AcDbEntity
  8
寸法
 62
     7
 48
50.0
100
AcDbMText
 10
7155.600000000001
 20
8498.332321223498
 30
0.0
 40
120.0
 41
0.0
 71
     5
 72
     1
  1
\A1;1900
  7
STYLE1
 73
     1
 44
1.0
1001
ACAD
1000
MTEXTBEGIN
1070
    73
1070
     1
1070
    44
1040
1.0
1070
    74
1070
     0
1000
MTEXTEND
  0
POINT
  5
28B2E
330
28655
100
AcDbEntity
  8
DEFPOINTS
 62
     0
 48
50.0
100
AcDbPoint
 10
8105.6
 20
7599.065863129585
 30
0.0
  0
POINT
  5
28B2F
330
28655
100
AcDbEntity
  8
DEFPOINTS
 62
     0
 48
50.0
100
AcDbPoint
 10
6205.6
 20
7599.065863129585
 30
0.0
  0
POINT
  5
28B30
330
28655
100
AcDbEntity
  8
DEFPOINTS
 62
     0
 48
50.0
100
AcDbPoint
 10
6205.6
 20
8398.332321223497
 30
0.0
  0
ENDBLK
  5
2865F
330
28655
100
AcDbEntity
  8
0
 48
50.0
100
AcDbBlockEnd
  0
BLOCK
  5
28677
330
2866D
100
AcDbEntity
  8
0
 48
50.0
100
AcDbBlockBegin
  2
*D46
 70
     1
 10
0.0
 20
0.0
 30
0.0
  3
*D46
  1

  0
LINE
  5
28C7B
330
2866D
100
AcDbEntity
  8
寸法
 62
     0
 48
50.0
370
    -2
100
AcDbLine
 10
12023.6
 20
7009.065863129585
 30
0.0
 11
12023.6
 21
8214.674679799834
 31
0.0
  0
LINE
  5
28C7C
330
2866D
100
AcDbEntity
  8
寸法
 62
     0
 48
50.0
370
    -2
100
AcDbLine
 10
11073.60000000001
 20
7009.065863129585
 30
0.0
 11
11073.60000000001
 21
8214.674679799834
 31
0.0
  0
LINE
  5
28C7D
330
2866D
100
AcDbEntity
  8
寸法
 62
     0
 48
50.0
370
    -2
100
AcDbLine
 10
12023.6
 20
8154.674679799835
 30
0.0
 11
11073.60000000001
 21
8154.674679799835
 31
0.0
  0
INSERT
  5
28C7E
330
2866D
100
AcDbEntity
  8
寸法
 62
     0
 48
50.0
370
    -2
100
AcDbBlockReference
  2
_DOTSMALL
 10
12023.6
 20
8154.674679799835
 30
0.0
 41
100.0
 42
100.0
 43
100.0
  0
INSERT
  5
28C7F
330
2866D
100
AcDbEntity
  8
寸法
 62
     0
 48
50.0
370
    -2
100
AcDbBlockReference
  2
_DOTSMALL
 10
11073.60000000001
 20
8154.674679799835
 30
0.0
 41
100.0
 42
100.0
 43
100.0
 50
180.0
  0
MTEXT
  5
28C80
330
2866D
100
AcDbEntity
  8
寸法
 62
     7
 48
50.0
100
AcDbMText
 10
11548.60000000001
 20
8254.674679799835
 30
0.0
 40
120.0
 41
0.0
 71
     5
 72
     1
  1
\A1;950
  7
STYLE1
 73
     1
 44
1.0
1001
ACAD
1000
MTEXTBEGIN
1070
    73
1070
     1
1070
    44
1040
1.0
1070
    74
1070
     0
1000
MTEXTEND
  0
POINT
  5
28C81
330
2866D
100
AcDbEntity
  8
DEFPOINTS
 62
     0
 48
50.0
100
AcDbPoint
 10
12023.6
 20
6989.065863129585
 30
0.0
  0
POINT
  5
28C82
330
2866D
100
AcDbEntity
  8
DEFPOINTS
 62
     0
 48
50.0
100
AcDbPoint
 10
11073.60000000001
 20
6989.065863129585
 30
0.0
  0
POINT
  5
28C83
330
2866D
100
AcDbEntity
  8
DEFPOINTS
 62
     0
 48
50.0
100
AcDbPoint
 10
11073.60000000001
 20
8154.674679799835
 30
0.0
  0
ENDBLK
  5
28678
330
2866D
100
AcDbEntity
  8
0
 48
50.0
100
AcDbBlockEnd
  0
BLOCK
  5
28683
330
28679
100
AcDbEntity
  8
0
 48
50.0
100
AcDbBlockBegin
  2
*D47
 70
     1
 10
0.0
 20
0.0
 30
0.0
  3
*D47
  1

  0
LINE
  5
28C60
330
28679
100
AcDbEntity
  8
寸法
 62
     0
 48
50.0
370
    -2
100
AcDbLine
 10
12978.6
 20
7692.065863129585
 30
0.0
 11
12978.6
 21
8214.674679799834
 31
0.0
  0
LINE
  5
28C61
330
28679
100
AcDbEntity
  8
寸法
 62
     0
 48
50.0
370
    -2
100
AcDbLine
 10
12023.6
 20
7009.065863129585
 30
0.0
 11
12023.6
 21
8214.674679799834
 31
0.0
  0
LINE
  5
28C62
330
28679
100
AcDbEntity
  8
寸法
 62
     0
 48
50.0
370
    -2
100
AcDbLine
 10
12978.6
 20
8154.674679799835
 30
0.0
 11
12023.6
 21
8154.674679799835
 31
0.0
  0
INSERT
  5
28C63
330
28679
100
AcDbEntity
  8
寸法
 62
     0
 48
50.0
370
    -2
100
AcDbBlockReference
  2
_DOTSMALL
 10
12978.6
 20
8154.674679799835
 30
0.0
 41
100.0
 42
100.0
 43
100.0
  0
INSERT
  5
28C64
330
28679
100
AcDbEntity
  8
寸法
 62
     0
 48
50.0
370
    -2
100
AcDbBlockReference
  2
_DOTSMALL
 10
12023.6
 20
8154.674679799835
 30
0.0
 41
100.0
 42
100.0
 43
100.0
 50
180.0
  0
MTEXT
  5
28C65
330
28679
100
AcDbEntity
  8
寸法
 62
     7
 48
50.0
100
AcDbMText
 10
12501.1
 20
8254.674679799835
 30
0.0
 40
120.0
 41
0.0
 71
     5
 72
     1
  1
\A1;955
  7
STYLE1
 73
     1
 44
1.0
1001
ACAD
1000
MTEXTBEGIN
1070
    73
1070
     1
1070
    44
1040
1.0
1070
    74
1070
     0
1000
MTEXTEND
  0
POINT
  5
28C66
330
28679
100
AcDbEntity
  8
DEFPOINTS
 62
     0
 48
50.0
100
AcDbPoint
 10
12978.6
 20
7672.065863129585
 30
0.0
  0
POINT
  5
28C67
330
28679
100
AcDbEntity
  8
DEFPOINTS
 62
     0
 48
50.0
100
AcDbPoint
 10
12023.6
 20
6989.065863129585
 30
0.0
  0
POINT
  5
28C68
330
28679
100
AcDbEntity
  8
DEFPOINTS
 62
     0
 48
50.0
100
AcDbPoint
 10
12023.6
 20
8154.674679799835
 30
0.0
  0
ENDBLK
  5
28684
330
28679
100
AcDbEntity
  8
0
 48
50.0
100
AcDbBlockEnd
  0
BLOCK
  5
2868F
330
28685
100
AcDbEntity
  8
0
 48
50.0
100
AcDbBlockBegin
  2
*D48
 70
     1
 10
0.0
 20
0.0
 30
0.0
  3
*D48
  1

  0
LINE
  5
28C9F
330
28685
100
AcDbEntity
  8
寸法
 62
     0
 48
50.0
370
    -2
100
AcDbLine
 10
10123.60000000001
 20
7009.065863129585
 30
0.0
 11
10123.60000000001
 21
8214.674679799834
 31
0.0
  0
LINE
  5
28CA0
330
28685
100
AcDbEntity
  8
寸法
 62
     0
 48
50.0
370
    -2
100
AcDbLine
 10
9173.600000000007
 20
7009.065863129585
 30
0.0
 11
9173.600000000007
 21
8214.674679799834
 31
0.0
  0
LINE
  5
28CA1
330
28685
100
AcDbEntity
  8
寸法
 62
     0
 48
50.0
370
    -2
100
AcDbLine
 10
10123.60000000001
 20
8154.674679799835
 30
0.0
 11
9173.600000000007
 21
8154.674679799835
 31
0.0
  0
INSERT
  5
28CA2
330
28685
100
AcDbEntity
  8
寸法
 62
     0
 48
50.0
370
    -2
100
AcDbBlockReference
  2
_DOTSMALL
 10
10123.60000000001
 20
8154.674679799835
 30
0.0
 41
100.0
 42
100.0
 43
100.0
  0
INSERT
  5
28CA3
330
28685
100
AcDbEntity
  8
寸法
 62
     0
 48
50.0
370
    -2
100
AcDbBlockReference
  2
_DOTSMALL
 10
9173.600000000007
 20
8154.674679799835
 30
0.0
 41
100.0
 42
100.0
 43
100.0
 50
180.0
  0
MTEXT
  5
28CA4
330
28685
100
AcDbEntity
  8
寸法
 62
     7
 48
50.0
100
AcDbMText
 10
9648.600000000008
 20
8254.674679799835
 30
0.0
 40
120.0
 41
0.0
 71
     5
 72
     1
  1
\A1;950
  7
STYLE1
 73
     1
 44
1.0
1001
ACAD
1000
MTEXTBEGIN
1070
    73
1070
     1
1070
    44
1040
1.0
1070
    74
1070
     0
1000
MTEXTEND
  0
POINT
  5
28CA5
330
28685
100
AcDbEntity
  8
DEFPOINTS
 62
     0
 48
50.0
100
AcDbPoint
 10
10123.60000000001
 20
6989.065863129585
 30
0.0
  0
POINT
  5
28CA6
330
28685
100
AcDbEntity
  8
DEFPOINTS
 62
     0
 48
50.0
100
AcDbPoint
 10
9173.600000000007
 20
6989.065863129585
 30
0.0
  0
POINT
  5
28CA7
330
28685
100
AcDbEntity
  8
DEFPOINTS
 62
     0
 48
50.0
100
AcDbPoint
 10
9173.600000000007
 20
8154.674679799835
 30
0.0
  0
ENDBLK
  5
28690
330
28685
100
AcDbEntity
  8
0
 48
50.0
100
AcDbBlockEnd
  0
BLOCK
  5
2869B
330
28691
100
AcDbEntity
  8
0
 48
50.0
100
AcDbBlockBegin
  2
*D49
 70
     1
 10
0.0
 20
0.0
 30
0.0
  3
*D49
  1

  0
LINE
  5
28C8D
330
28691
100
AcDbEntity
  8
寸法
 62
     0
 48
50.0
370
    -2
100
AcDbLine
 10
11073.60000000001
 20
7009.065863129585
 30
0.0
 11
11073.60000000001
 21
8214.674679799834
 31
0.0
  0
LINE
  5
28C8E
330
28691
100
AcDbEntity
  8
寸法
 62
     0
 48
50.0
370
    -2
100
AcDbLine
 10
10123.60000000001
 20
7009.065863129585
 30
0.0
 11
10123.60000000001
 21
8214.674679799834
 31
0.0
  0
LINE
  5
28C8F
330
28691
100
AcDbEntity
  8
寸法
 62
     0
 48
50.0
370
    -2
100
AcDbLine
 10
11073.60000000001
 20
8154.674679799835
 30
0.0
 11
10123.60000000001
 21
8154.674679799835
 31
0.0
  0
INSERT
  5
28C90
330
28691
100
AcDbEntity
  8
寸法
 62
     0
 48
50.0
370
    -2
100
AcDbBlockReference
  2
_DOTSMALL
 10
11073.60000000001
 20
8154.674679799835
 30
0.0
 41
100.0
 42
100.0
 43
100.0
  0
INSERT
  5
28C91
330
28691
100
AcDbEntity
  8
寸法
 62
     0
 48
50.0
370
    -2
100
AcDbBlockReference
  2
_DOTSMALL
 10
10123.60000000001
 20
8154.674679799835
 30
0.0
 41
100.0
 42
100.0
 43
100.0
 50
180.0
  0
MTEXT
  5
28C92
330
28691
100
AcDbEntity
  8
寸法
 62
     7
 48
50.0
100
AcDbMText
 10
10598.60000000001
 20
8254.674679799835
 30
0.0
 40
120.0
 41
0.0
 71
     5
 72
     1
  1
\A1;950
  7
STYLE1
 73
     1
 44
1.0
1001
ACAD
1000
MTEXTBEGIN
1070
    73
1070
     1
1070
    44
1040
1.0
1070
    74
1070
     0
1000
MTEXTEND
  0
POINT
  5
28C93
330
28691
100
AcDbEntity
  8
DEFPOINTS
 62
     0
 48
50.0
100
AcDbPoint
 10
11073.60000000001
 20
6989.065863129585
 30
0.0
  0
POINT
  5
28C94
330
28691
100
AcDbEntity
  8
DEFPOINTS
 62
     0
 48
50.0
100
AcDbPoint
 10
10123.60000000001
 20
6989.065863129585
 30
0.0
  0
POINT
  5
28C95
330
28691
100
AcDbEntity
  8
DEFPOINTS
 62
     0
 48
50.0
100
AcDbPoint
 10
10123.60000000001
 20
8154.674679799835
 30
0.0
  0
ENDBLK
  5
2869C
330
28691
100
AcDbEntity
  8
0
 48
50.0
100
AcDbBlockEnd
  0
BLOCK
  5
290C1
330
290B7
100
AcDbEntity
  8
0
 48
50.0
100
AcDbBlockBegin
  2
*D50
 70
     1
 10
0.0
 20
0.0
 30
0.0
  3
*D50
  1

  0
LINE
  5
29101
330
290B7
100
AcDbEntity
  8
寸法
 62
     0
 48
50.0
370
    -2
100
AcDbLine
 10
7714.871382019875
 20
1817.766069202274
 30
0.0
 11
8256.739981788721
 21
1817.766069202274
 31
0.0
  0
LINE
  5
29102
330
290B7
100
AcDbEntity
  8
寸法
 62
     0
 48
50.0
370
    -2
100
AcDbLine
 10
7714.871382019875
 20
1493.766069202274
 30
0.0
 11
8256.739981788721
 21
1493.766069202274
 31
0.0
  0
LINE
  5
29103
330
290B7
100
AcDbEntity
  8
寸法
 62
     0
 48
50.0
370
    -2
100
AcDbLine
 10
8196.73998178872
 20
1817.766069202274
 30
0.0
 11
8196.73998178872
 21
1493.766069202274
 31
0.0
  0
INSERT
  5
29104
330
290B7
100
AcDbEntity
  8
寸法
 62
     0
 48
50.0
370
    -2
100
AcDbBlockReference
  2
_DOTSMALL
 10
8196.73998178872
 20
1817.766069202274
 30
0.0
 41
100.0
 42
100.0
 43
100.0
 50
90.0
  0
INSERT
  5
29105
330
290B7
100
AcDbEntity
  8
寸法
 62
     0
 48
50.0
370
    -2
100
AcDbBlockReference
  2
_DOTSMALL
 10
8196.73998178872
 20
1493.766069202274
 30
0.0
 41
100.0
 42
100.0
 43
100.0
 50
270.0
  0
MTEXT
  5
29106
330
290B7
100
AcDbEntity
  8
寸法
 62
     7
 48
50.0
100
AcDbMText
 10
8096.73998178872
 20
1655.766069202275
 30
0.0
 40
120.0
 41
0.0
 71
     5
 72
     1
  1
\A1;180
  7
STYLE1
 11
0.0000000000000001
 21
1.0
 31
0.0
 73
     1
 44
1.0
1001
ACAD
1000
MTEXTBEGIN
1070
    73
1070
     1
1070
    44
1040
1.0
1070
    74
1070
     0
1000
MTEXTEND
  0
POINT
  5
29107
330
290B7
100
AcDbEntity
  8
DEFPOINTS
 62
     0
 48
50.0
100
AcDbPoint
 10
7694.871382019876
 20
1817.766069202274
 30
0.0
  0
POINT
  5
29108
330
290B7
100
AcDbEntity
  8
DEFPOINTS
 62
     0
 48
50.0
100
AcDbPoint
 10
7694.871382019876
 20
1493.766069202274
 30
0.0
  0
POINT
  5
29109
330
290B7
100
AcDbEntity
  8
DEFPOINTS
 62
     0
 48
50.0
100
AcDbPoint
 10
8196.73998178872
 20
1493.766069202274
 30
0.0
  0
ENDBLK
  5
290C2
330
290B7
100
AcDbEntity
  8
0
 48
50.0
100
AcDbBlockEnd
  0
BLOCK
  5
290CF
330
290C3
100
AcDbEntity
  8
0
 48
50.0
100
AcDbBlockBegin
  2
*D51
 70
     1
 10
0.0
 20
0.0
 30
0.0
  3
*D51
  1

  0
LINE
  5
2910A
330
290C3
100
AcDbEntity
  8
寸法
 62
     0
 48
50.0
370
    -2
100
AcDbLine
 10
7527.671382019878
 20
1870.526069202275
 30
0.0
 11
8532.794647907747
 21
1870.526069202275
 31
0.0
  0
LINE
  5
2910B
330
290C3
100
AcDbEntity
  8
寸法
 62
     0
 48
50.0
370
    -2
100
AcDbLine
 10
7714.871382019875
 20
1817.766069202274
 30
0.0
 11
8532.794647907747
 21
1817.766069202274
 31
0.0
  0
LINE
  5
2910C
330
290C3
100
AcDbEntity
  8
寸法
 62
     0
 48
50.0
370
    -2
100
AcDbLine
 10
8472.794647907747
 20
1870.526069202275
 30
0.0
 11
8472.794647907747
 21
1970.526069202275
 31
0.0
  0
LINE
  5
2910D
330
290C3
100
AcDbEntity
  8
寸法
 62
     0
 48
50.0
370
    -2
100
AcDbLine
 10
8472.794647907747
 20
1817.766069202274
 30
0.0
 11
8472.794647907747
 21
1085.748262359308
 31
0.0
  0
LINE
  5
2910E
330
290C3
100
AcDbEntity
  8
寸法
 62
     0
 48
50.0
370
    -2
100
AcDbLine
 10
8472.794647907747
 20
1870.526069202275
 30
0.0
 11
8472.794647907747
 21
1817.766069202274
 31
0.0
  0
INSERT
  5
2910F
330
290C3
100
AcDbEntity
  8
寸法
 62
     0
 48
50.0
370
    -2
100
AcDbBlockReference
  2
_DOTSMALL
 10
8472.794647907747
 20
1870.526069202275
 30
0.0
 41
100.0
 42
100.0
 43
100.0
 50
270.0
  0
INSERT
  5
29110
330
290C3
100
AcDbEntity
  8
寸法
 62
     0
 48
50.0
370
    -2
100
AcDbBlockReference
  2
_DOTSMALL
 10
8472.794647907747
 20
1817.766069202274
 30
0.0
 41
100.0
 42
100.0
 43
100.0
 50
90.0
  0
MTEXT
  5
29111
330
290C3
100
AcDbEntity
  8
寸法
 62
     7
 48
50.0
100
AcDbMText
 10
8372.782836884125
 20
1351.757165780792
 30
0.0
 40
120.0
 41
0.0
 71
     5
 72
     1
  1
\A1;20～25
  7
STYLE1
 11
0.0000000000000001
 21
1.0
 31
0.0
 73
     1
 44
1.0
1001
ACAD
1000
MTEXTBEGIN
1070
    73
1070
     1
1070
    44
1040
1.0
1070
    74
1070
     0
1000
MTEXTEND
  0
POINT
  5
29112
330
290C3
100
AcDbEntity
  8
DEFPOINTS
 62
     0
 48
50.0
100
AcDbPoint
 10
7507.671382019879
 20
1870.526069202275
 30
0.0
  0
POINT
  5
29113
330
290C3
100
AcDbEntity
  8
DEFPOINTS
 62
     0
 48
50.0
100
AcDbPoint
 10
7694.871382019876
 20
1817.766069202274
 30
0.0
  0
POINT
  5
29114
330
290C3
100
AcDbEntity
  8
DEFPOINTS
 62
     0
 48
50.0
100
AcDbPoint
 10
8472.794647907747
 20
1817.766069202274
 30
0.0
  0
ENDBLK
  5
290D0
330
290C3
100
AcDbEntity
  8
0
 48
50.0
100
AcDbBlockEnd
  0
BLOCK
  5
290DB
330
290D1
100
AcDbEntity
  8
0
 48
50.0
100
AcDbBlockBegin
  2
*D52
 70
     1
 10
0.0
 20
0.0
 30
0.0
  3
*D52
  1

  0
LINE
  5
29115
330
290D1
100
AcDbEntity
  8
寸法
 62
     0
 48
50.0
370
    -2
100
AcDbLine
 10
5432.832068842682
 20
1273.766069202274
 30
0.0
 11
5250.411755110224
 21
1273.766069202274
 31
0.0
  0
LINE
  5
29116
330
290D1
100
AcDbEntity
  8
寸法
 62
     0
 48
50.0
370
    -2
100
AcDbLine
 10
5352.832068842687
 20
1033.766069202274
 30
0.0
 11
5250.411755110224
 21
1033.766069202274
 31
0.0
  0
LINE
  5
29117
330
290D1
100
AcDbEntity
  8
寸法
 62
     0
 48
50.0
370
    -2
100
AcDbLine
 10
5310.411755110223
 20
1273.766069202274
 30
0.0
 11
5310.411755110223
 21
1033.766069202274
 31
0.0
  0
INSERT
  5
29118
330
290D1
100
AcDbEntity
  8
寸法
 62
     0
 48
50.0
370
    -2
100
AcDbBlockReference
  2
_DOTSMALL
 10
5310.411755110223
 20
1273.766069202274
 30
0.0
 41
100.0
 42
100.0
 43
100.0
 50
90.0
  0
INSERT
  5
29119
330
290D1
100
AcDbEntity
  8
寸法
 62
     0
 48
50.0
370
    -2
100
AcDbBlockReference
  2
_DOTSMALL
 10
5310.411755110223
 20
1033.766069202274
 30
0.0
 41
100.0
 42
100.0
 43
100.0
 50
270.0
  0
MTEXT
  5
2911A
330
290D1
100
AcDbEntity
  8
寸法
 62
     7
 48
50.0
100
AcDbMText
 10
5210.411755110223
 20
1153.766069202275
 30
0.0
 40
120.0
 41
0.0
 71
     5
 72
     1
  1
\A1;150
  7
STYLE1
 11
0.0000000000000001
 21
1.0
 31
0.0
 73
     1
 44
1.0
1001
ACAD
1000
MTEXTBEGIN
1070
    73
1070
     1
1070
    44
1040
1.0
1070
    74
1070
     0
1000
MTEXTEND
  0
POINT
  5
2911B
330
290D1
100
AcDbEntity
  8
DEFPOINTS
 62
     0
 48
50.0
100
AcDbPoint
 10
5452.832068842683
 20
1273.766069202274
 30
0.0
  0
POINT
  5
2911C
330
290D1
100
AcDbEntity
  8
DEFPOINTS
 62
     0
 48
50.0
100
AcDbPoint
 10
5372.832068842686
 20
1033.766069202274
 30
0.0
  0
POINT
  5
2911D
330
290D1
100
AcDbEntity
  8
DEFPOINTS
 62
     0
 48
50.0
100
AcDbPoint
 10
5310.411755110223
 20
1033.766069202274
 30
0.0
  0
ENDBLK
  5
290DC
330
290D1
100
AcDbEntity
  8
0
 48
50.0
100
AcDbBlockEnd
  0
BLOCK
  5
290E7
330
290DD
100
AcDbEntity
  8
0
 48
50.0
100
AcDbBlockBegin
  2
*D53
 70
     1
 10
0.0
 20
0.0
 30
0.0
  3
*D53
  1

  0
LINE
  5
2911E
330
290DD
100
AcDbEntity
  8
寸法
 62
     0
 48
50.0
370
    -2
100
AcDbLine
 10
5560.832068842683
 20
1817.766069202274
 30
0.0
 11
4785.794830280942
 21
1817.766069202274
 31
0.0
  0
LINE
  5
2911F
330
290DD
100
AcDbEntity
  8
寸法
 62
     0
 48
50.0
370
    -2
100
AcDbLine
 10
5352.832068842687
 20
1033.766069202274
 30
0.0
 11
4785.794830280942
 21
1033.766069202274
 31
0.0
  0
LINE
  5
29120
330
290DD
100
AcDbEntity
  8
寸法
 62
     0
 48
50.0
370
    -2
100
AcDbLine
 10
4845.794830280943
 20
1817.766069202274
 30
0.0
 11
4845.794830280943
 21
1033.766069202274
 31
0.0
  0
INSERT
  5
29121
330
290DD
100
AcDbEntity
  8
寸法
 62
     0
 48
50.0
370
    -2
100
AcDbBlockReference
  2
_DOTSMALL
 10
4845.794830280943
 20
1817.766069202274
 30
0.0
 41
100.0
 42
100.0
 43
100.0
 50
90.0
  0
INSERT
  5
29122
330
290DD
100
AcDbEntity
  8
寸法
 62
     0
 48
50.0
370
    -2
100
AcDbBlockReference
  2
_DOTSMALL
 10
4845.794830280943
 20
1033.766069202274
 30
0.0
 41
100.0
 42
100.0
 43
100.0
 50
270.0
  0
MTEXT
  5
29123
330
290DD
100
AcDbEntity
  8
寸法
 62
     7
 48
50.0
100
AcDbMText
 10
4745.794830280942
 20
1405.306218858275
 30
0.0
 40
120.0
 41
0.0
 71
     5
 72
     1
  1
\A1;540
  7
STYLE1
 11
0.0000000000000001
 21
1.0
 31
0.0
 73
     1
 44
1.0
1001
ACAD
1000
MTEXTBEGIN
1070
    73
1070
     1
1070
    44
1040
1.0
1070
    74
1070
     0
1000
MTEXTEND
  0
POINT
  5
29124
330
290DD
100
AcDbEntity
  8
DEFPOINTS
 62
     0
 48
50.0
100
AcDbPoint
 10
5580.832068842683
 20
1817.766069202274
 30
0.0
  0
POINT
  5
29125
330
290DD
100
AcDbEntity
  8
DEFPOINTS
 62
     0
 48
50.0
100
AcDbPoint
 10
5372.832068842686
 20
1033.766069202274
 30
0.0
  0
POINT
  5
29126
330
290DD
100
AcDbEntity
  8
DEFPOINTS
 62
     0
 48
50.0
100
AcDbPoint
 10
4845.794830280943
 20
1033.766069202274
 30
0.0
  0
ENDBLK
  5
290E8
330
290DD
100
AcDbEntity
  8
0
 48
50.0
100
AcDbBlockEnd
  0
BLOCK
  5
290F3
330
290E9
100
AcDbEntity
  8
0
 48
50.0
100
AcDbBlockBegin
  2
*D54
 70
     1
 10
0.0
 20
0.0
 30
0.0
  3
*D54
  1

  0
LINE
  5
29127
330
290E9
100
AcDbEntity
  8
寸法
 62
     0
 48
50.0
370
    -2
100
AcDbLine
 10
5452.832068842683
 20
885.7660692022745
 30
0.0
 11
5452.832068842683
 21
435.3364311971144
 31
0.0
  0
LINE
  5
29128
330
290E9
100
AcDbEntity
  8
寸法
 62
     0
 48
50.0
370
    -2
100
AcDbLine
 10
5900.832068842682
 20
885.7660692022745
 30
0.0
 11
5900.832068842682
 21
435.3364311971144
 31
0.0
  0
LINE
  5
29129
330
290E9
100
AcDbEntity
  8
寸法
 62
     0
 48
50.0
370
    -2
100
AcDbLine
 10
5452.832068842683
 20
495.3364311971145
 30
0.0
 11
5900.832068842682
 21
495.3364311971145
 31
0.0
  0
INSERT
  5
2912A
330
290E9
100
AcDbEntity
  8
寸法
 62
     0
 48
50.0
370
    -2
100
AcDbBlockReference
  2
_DOTSMALL
 10
5452.832068842683
 20
495.3364311971145
 30
0.0
 41
100.0
 42
100.0
 43
100.0
 50
180.0
  0
INSERT
  5
2912B
330
290E9
100
AcDbEntity
  8
寸法
 62
     0
 48
50.0
370
    -2
100
AcDbBlockReference
  2
_DOTSMALL
 10
5900.832068842682
 20
495.3364311971145
 30
0.0
 41
100.0
 42
100.0
 43
100.0
  0
MTEXT
  5
2912C
330
290E9
100
AcDbEntity
  8
寸法
 62
     7
 48
50.0
100
AcDbMText
 10
5656.735310164459
 20
595.3364311971145
 30
0.0
 40
120.0
 41
0.0
 71
     5
 72
     1
  1
\A1;300
  7
STYLE1
 73
     1
 44
1.0
1001
ACAD
1000
MTEXTBEGIN
1070
    73
1070
     1
1070
    44
1040
1.0
1070
    74
1070
     0
1000
MTEXTEND
  0
POINT
  5
2912D
330
290E9
100
AcDbEntity
  8
DEFPOINTS
 62
     0
 48
50.0
100
AcDbPoint
 10
5452.832068842683
 20
905.7660692022746
 30
0.0
  0
POINT
  5
2912E
330
290E9
100
AcDbEntity
  8
DEFPOINTS
 62
     0
 48
50.0
100
AcDbPoint
 10
5900.832068842682
 20
905.7660692022746
 30
0.0
  0
POINT
  5
2912F
330
290E9
100
AcDbEntity
  8
DEFPOINTS
 62
     0
 48
50.0
100
AcDbPoint
 10
5900.832068842682
 20
495.3364311971145
 30
0.0
  0
ENDBLK
  5
290F4
330
290E9
100
AcDbEntity
  8
0
 48
50.0
100
AcDbBlockEnd
  0
BLOCK
  5
290FF
330
290F5
100
AcDbEntity
  8
0
 48
50.0
100
AcDbBlockBegin
  2
*D55
 70
     1
 10
0.0
 20
0.0
 30
0.0
  3
*D55
  1

  0
LINE
  5
29130
330
290F5
100
AcDbEntity
  8
寸法
 62
     0
 48
50.0
370
    -2
100
AcDbLine
 10
5772.832068842683
 20
1837.766069202275
 30
0.0
 11
5772.832068842683
 21
2297.433877118655
 31
0.0
  0
LINE
  5
29131
330
290F5
100
AcDbEntity
  8
寸法
 62
     0
 48
50.0
370
    -2
100
AcDbLine
 10
5580.832068842683
 20
1837.766069202275
 30
0.0
 11
5580.832068842683
 21
2297.433877118655
 31
0.0
  0
LINE
  5
29132
330
290F5
100
AcDbEntity
  8
寸法
 62
     0
 48
50.0
370
    -2
100
AcDbLine
 10
5772.832068842683
 20
2237.433877118655
 30
0.0
 11
5580.832068842683
 21
2237.433877118655
 31
0.0
  0
INSERT
  5
29133
330
290F5
100
AcDbEntity
  8
寸法
 62
     0
 48
50.0
370
    -2
100
AcDbBlockReference
  2
_DOTSMALL
 10
5772.832068842683
 20
2237.433877118655
 30
0.0
 41
100.0
 42
100.0
 43
100.0
  0
INSERT
  5
29134
330
290F5
100
AcDbEntity
  8
寸法
 62
     0
 48
50.0
370
    -2
100
AcDbBlockReference
  2
_DOTSMALL
 10
5580.832068842683
 20
2237.433877118655
 30
0.0
 41
100.0
 42
100.0
 43
100.0
 50
180.0
  0
MTEXT
  5
29135
330
290F5
100
AcDbEntity
  8
寸法
 62
     7
 48
50.0
100
AcDbMText
 10
5676.832068842683
 20
2537.469310189521
 30
0.0
 40
120.0
 41
0.0
 71
     5
 72
     1
  1
\A1;120\P200\P280
  7
STYLE1
 73
     1
 44
1.0
1001
ACAD
1000
MTEXTBEGIN
1070
    73
1070
     1
1070
    44
1040
1.0
1070
    74
1070
     0
1000
MTEXTEND
  0
POINT
  5
29136
330
290F5
100
AcDbEntity
  8
DEFPOINTS
 62
     0
 48
50.0
100
AcDbPoint
 10
5772.832068842683
 20
1817.766069202274
 30
0.0
  0
POINT
  5
29137
330
290F5
100
AcDbEntity
  8
DEFPOINTS
 62
     0
 48
50.0
100
AcDbPoint
 10
5580.832068842683
 20
1817.766069202274
 30
0.0
  0
POINT
  5
29138
330
290F5
100
AcDbEntity
  8
DEFPOINTS
 62
     0
 48
50.0
100
AcDbPoint
 10
5580.832068842683
 20
2237.433877118655
 30
0.0
  0
ENDBLK
  5
29100
330
290F5
100
AcDbEntity
  8
0
 48
50.0
100
AcDbBlockEnd
  0
ENDSEC
  0
SECTION
  2
ENTITIES
  0
MTEXT
  5
763F
330
747D
100
AcDbEntity
  8
0
100
AcDbMText
 10
302.846345836809
 20
280.1983726409901
 30
0.0
 40
3.5
 41
5.323721266742722
 71
     1
 72
     5
  1

  7
MSMINCHO
 73
     1
 44
1.0
1001
ACAD
1000
MTEXTBEGIN
1070
    73
1070
     1
1070
    44
1040
1.0
1070
    74
1070
     0
1000
MTEXTEND
  0
LINE
  5
10B57
330
747D
100
AcDbEntity
  8
補助
  6
PHANTOM
 62
   230
 48
50.0
100
AcDbLine
 10
139.9999999999995
 20
11409.6
 30
0.0
 11
16307.2
 21
11409.6
 31
0.0
  0
LINE
  5
10B59
330
747D
100
AcDbEntity
  8
仕様書枠
  6
Continuous
 48
50.0
100
AcDbLine
 10
13107.2
 20
1200.0
 30
0.0
 11
13107.2
 21
-0.0000000000000729
 31
0.0
  0
LINE
  5
10B5D
330
747D
100
AcDbEntity
  8
仕様書枠
 48
50.0
100
AcDbLine
 10
140.0
 20
0.0
 30
0.0
 11
16307.2
 21
-0.0000000000000909
 31
0.0
  0
LINE
  5
10B5E
330
747D
100
AcDbEntity
  8
補助
  6
PHANTOM
 62
   230
 48
50.0
100
AcDbLine
 10
16307.2
 20
11409.6
 30
0.0
 11
16307.2
 21
1200.0
 31
0.0
  0
LINE
  5
10B6C
330
747D
100
AcDbEntity
  8
仕様書枠
 48
50.0
100
AcDbLine
 10
13107.2
 20
1200.0
 30
0.0
 11
16307.2
 21
1200.0
 31
0.0
  0
TEXT
  5
10B73
330
747D
100
AcDbEntity
  8
文字
 62
     7
 48
50.0
100
AcDbText
 10
13162.9790565769
 20
895.0906074299405
 30
0.0
 40
200.0
  1
基 礎 図
  7
STYLE2
100
AcDbText
  0
LINE
  5
10B7B
330
747D
100
AcDbEntity
  8
仕様書枠
 48
50.0
100
AcDbLine
 10
13107.2
 20
800.0
 30
0.0
 11
14251.2
 21
800.0
 31
0.0
  0
LINE
  5
10B88
330
747D
100
AcDbEntity
  8
仕様書枠
  6
Continuous
 48
50.0
100
AcDbLine
 10
14251.2
 20
1200.0
 30
0.0
 11
14251.2
 21
800.0
 31
0.0
  0
LINE
  5
16462
330
747D
100
AcDbEntity
  8
仕様書枠
 48
50.0
100
AcDbLine
 10
16307.2
 20
1200.0
 30
0.0
 11
16307.2
 21
-0.0000000000000909
 31
0.0
  0
LINE
  5
1903B
330
747D
100
AcDbEntity
  8
補助
  6
PHANTOM
 62
   230
 48
50.0
100
AcDbLine
 10
140.0
 20
0.0
 30
0.0
 11
139.9999999999995
 21
11409.6
 31
0.0
  0
LEADER
  5
1AC27
330
747D
100
AcDbEntity
  8
寸法
 48
50.0
100
AcDbLeader
  3
INABA_S50G
 73
     0
 74
     0
 75
     1
 40
120.0
 41
720.0000000000001
 76
     3
 10
12980.05985718447
 20
6936.017599664937
 30
0.0
 10
13136.83343157075
 20
6675.003686097103
 30
0.0
 10
13261.83343157075
 20
6675.003686097103
 30
0.0
340
1AC28
1001
ACAD
1000
DSTYLE
1002
{
1070
   341
1005
0
1070
    40
1040
1.0
1070
   343
1005
0
1070
   344
1005
0
1002
}
  0
MTEXT
  5
1AC28
102
{ACAD_REACTORS
330
1AC27
102
}
330
747D
100
AcDbEntity
  8
部品1
 62
     7
 48
50.0
100
AcDbMText
 10
14006.83343157075
 20
6760.003686097104
 30
0.0
 40
120.0
 41
0.0
 71
     6
 72
     1
  1
\A1;床下換気口
  7
STYLE1
 73
     1
 44
1.0
1001
ACAD
1000
MTEXTBEGIN
1070
    73
1070
     1
1070
    44
1040
1.0
1070
    74
1070
     0
1000
MTEXTEND
  0
TEXT
  5
1AC29
330
747D
100
AcDbEntity
  8
部品1
 48
50.0
100
AcDbText
 10
13322.64807370302
 20
5996.217040803936
 30
0.0
 40
80.0
  1
(a=45,b=55,c=75)
  7
STYLE1
100
AcDbText
  0
TEXT
  5
1AC2A
330
747D
100
AcDbEntity
  8
部品1
 48
50.0
100
AcDbText
 10
13164.06906494872
 20
6103.062261672691
 30
0.0
 40
80.0
  1
※a,b,cは屋根の出幅です。
  7
STYLE1
100
AcDbText
  0
MTEXT
  5
1AC2B
102
{ACAD_REACTORS
330
1AC2C
102
}
330
747D
100
AcDbEntity
  8
部品1
 62
     7
 48
50.0
100
AcDbMText
 10
13961.85626093733
 20
6282.372948605766
 30
0.0
 40
120.0
 41
0.0
 71
     6
 72
     1
  1
\A1;屋根の外寸
  7
STYLE1
 73
     1
 44
1.0
1001
ACAD
1000
MTEXTBEGIN
1070
    73
1070
     1
1070
    44
1040
1.0
1070
    74
1070
     0
1000
MTEXTEND
  0
LEADER
  5
1AC2C
330
747D
100
AcDbEntity
  8
寸法
 48
50.0
100
AcDbLeader
  3
INABA_S50G
 73
     0
 74
     0
 75
     1
 40
120.0
 41
672.0
 76
     3
 10
13023.91624874528
 20
6456.262292069341
 30
0.0
 10
13139.85626093733
 20
6197.372948605766
 30
0.0
 10
13264.85626093732
 20
6197.372948605766
 30
0.0
340
1AC2B
1001
ACAD
1000
DSTYLE
1002
{
1070
   341
1005
0
1070
    40
1040
1.0
1070
   343
1005
0
1070
   344
1005
0
1002
}
  0
TEXT
  5
1C7A1
330
747D
100
AcDbEntity
  8
文字
 62
     7
 48
50.0
100
AcDbText
 10
13188.16259899338
 20
79.80631269190417
 30
0.0
 40
80.0
  1
※布基礎には換気口を設けてください。
  7
STYLE2
100
AcDbText
  0
TEXT
  5
1C7E7
330
747D
100
AcDbEntity
  8
文字
 62
     7
 48
50.0
100
AcDbText
 10
13188.16259899338
 20
246.7109242801889
 30
0.0
 40
80.0
  1
※寒冷地等は地域の実情に合わせた基礎にして下さい。
  7
STYLE2
100
AcDbText
  0
TEXT
  5
1C7E8
330
747D
100
AcDbEntity
  8
文字
 62
     7
 48
50.0
100
AcDbText
 10
14182.15310935862
 20
499.5983841039506
 30
0.0
 40
160.0
  1
ＮＸＮ－１４ＤＬ－１０
  7
STYLE2
100
AcDbText
  0
TEXT
  5
1C7EC
330
747D
100
AcDbEntity
  8
文字
 62
     7
 48
50.0
100
AcDbText
 10
14524.131837222
 20
1031.557706291229
 30
0.0
 40
100.0
  1
      <縮尺> S=1/40
  7
STYLE2
100
AcDbText
  0
TEXT
  5
1C7ED
330
747D
100
AcDbEntity
  8
文字
 62
     7
 48
50.0
100
AcDbText
 10
13201.43669998441
 20
477.2740661031257
 30
0.0
 40
160.0
  1
機種名
  7
STYLE2
100
AcDbText
  0
LINE
  5
1C7EF
330
747D
100
AcDbEntity
  8
文字
 62
     7
 48
50.0
100
AcDbLine
 10
13187.2
 20
400.0
 30
0.0
 11
16227.2
 21
400.0
 31
0.0
  0
MTEXT
  5
1D2D5
102
{ACAD_REACTORS
330
1D2D6
102
}
330
747D
100
AcDbEntity
  8
部品1
 62
     7
 48
50.0
100
AcDbMText
 10
14173.99523070988
 20
7987.678607372093
 30
0.0
 40
120.0
 41
0.0
 71
     6
 72
     1
  1
アンカーボルト
  7
STYLE1
 73
     1
 44
1.0
1001
ACAD
1000
MTEXTBEGIN
1070
    73
1070
     1
1070
    44
1040
1.0
1070
    74
1070
     0
1000
MTEXTEND
  0
LEADER
  5
1D2D6
330
747D
100
AcDbEntity
  8
寸法
 48
50.0
100
AcDbLeader
  3
INABA_S50G
 73
     0
 74
     0
 75
     1
 40
120.0
 41
994.3492424049171
 76
     3
 10
12855.680085757
 20
7549.273707488296
 30
0.0
 10
13029.64598830496
 20
7902.678607372094
 30
0.0
 10
13154.64598830496
 20
7902.678607372094
 30
0.0
340
1D2D5
1001
ACAD
1000
DSTYLE
1002
{
1070
   341
1005
0
1070
    40
1040
1.0
1070
   343
1005
0
1070
   344
1005
0
1002
}
  0
MTEXT
  5
1D332
102
{ACAD_REACTORS
330
1D333
102
}
330
747D
100
AcDbEntity
  8
部品1
 62
     7
 48
50.0
100
AcDbMText
 10
12538.82869701569
 20
6762.656384063141
 30
0.0
 40
120.0
 41
0.0
 71
     6
 72
     1
  1
CB
  7
STYLE1
 73
     1
 44
1.0
1001
ACAD
1000
MTEXTBEGIN
1070
    73
1070
     1
1070
    44
1040
1.0
1070
    74
1070
     0
1000
MTEXTEND
  0
LEADER
  5
1D333
330
747D
100
AcDbEntity
  8
寸法
 48
50.0
100
AcDbLeader
  3
INABA_S50G
 73
     0
 74
     0
 75
     1
 40
120.0
 41
149.591883092037
 76
     3
 10
12111.95401106101
 20
6900.374697617967
 30
0.0
 10
12239.23681392365
 20
6677.656384063141
 30
0.0
 10
12364.23681392365
 20
6677.656384063141
 30
0.0
340
1D332
1001
ACAD
1000
DSTYLE
1002
{
1070
   341
1005
0
1070
    40
1040
1.0
1070
   343
1005
0
1070
   344
1005
0
1002
}
  0
DIMENSION
  5
20DE1
330
747D
100
AcDbEntity
  8
寸法
 48
50.0
100
AcDbDimension
  2
*D19
 10
13023.6
 20
8630.286185188507
 30
0.0
 11
13294.77462120246
 21
8630.286185188507
 31
0.0
 70
   160
  1
a
 71
     5
 42
45.0
  3
INABA_S40G
100
AcDbAlignedDimension
 13
12978.6
 23
7672.065863129585
 33
0.0
 14
13023.6
 24
8398.332321223495
 34
0.0
100
AcDbRotatedDimension
1001
ACAD
1000
DSTYLE
1002
{
1070
   341
1005
0
1002
}
  0
DIMENSION
  5
20DFB
330
747D
100
AcDbEntity
  8
寸法
 48
50.0
100
AcDbDimension
  2
*D20
 10
3468.600000000001
 20
8630.286185188515
 30
0.0
 11
3152.425378797542
 21
8630.286185188515
 31
0.0
 70
   160
  1
a
 71
     5
 42
45.0
  3
INABA_S40G
100
AcDbAlignedDimension
 13
3423.6
 23
8398.332321223506
 33
0.0
 14
3468.600000000001
 24
7672.065863129593
 34
0.0
100
AcDbRotatedDimension
1001
ACAD
1000
DSTYLE
1002
{
1070
   341
1005
0
1002
}
  0
LINE
  5
22711
330
747D
100
AcDbEntity
  8
想像線
 48
10.0
100
AcDbLine
 10
13023.6
 20
7747.065863129588
 30
0.0
 11
3423.600000000001
 21
7747.065863129603
 31
0.0
  0
LINE
  5
22712
330
747D
100
AcDbEntity
  8
想像線
 48
10.0
100
AcDbLine
 10
3423.6
 20
6077.065863129636
 30
0.0
 11
3423.6
 21
7747.0658631296
 31
0.0
  0
LINE
  5
22713
330
747D
100
AcDbEntity
  8
想像線
 48
10.0
100
AcDbLine
 10
13023.6
 20
6077.065863129632
 30
0.0
 11
13023.6
 21
7747.065863129588
 31
0.0
  0
LINE
  5
22714
330
747D
100
AcDbEntity
  8
想像線
 48
10.0
100
AcDbLine
 10
13023.6
 20
6077.065863129632
 30
0.0
 11
3423.600000000001
 21
6077.065863129609
 31
0.0
  0
DIMENSION
  5
22741
330
747D
100
AcDbEntity
  8
寸法
 48
50.0
100
AcDbDimension
  2
*D21
 10
2593.721909610673
 20
7672.065863129593
 30
0.0
 11
2493.721909610672
 21
7709.565863129597
 31
0.0
 70
    32
  1
c
 71
     5
 42
75.00000000000636
  3
INABA_S40G
100
AcDbAlignedDimension
 13
2845.665006330071
 23
7747.0658631296
 33
0.0
 14
3468.600000000001
 24
7672.065863129593
 34
0.0
 50
90.0
100
AcDbRotatedDimension
1001
ACAD
1000
DSTYLE
1002
{
1070
   341
1005
0
1002
}
  0
DIMENSION
  5
2275B
330
747D
100
AcDbEntity
  8
寸法
 48
50.0
100
AcDbDimension
  2
*D22
 10
2593.721909610673
 20
6077.065863129651
 30
0.0
 11
2493.721909610672
 21
6104.565863129639
 31
0.0
 70
    32
  1
b
 71
     5
 42
54.99999999997453
  3
INABA_S40G
100
AcDbAlignedDimension
 13
3468.600000000001
 23
6132.065863129625
 33
0.0
 14
2845.665006330071
 24
6077.065863129651
 34
0.0
 50
90.0
100
AcDbRotatedDimension
1001
ACAD
1000
DSTYLE
1002
{
1070
   341
1005
0
1002
}
  0
DIMENSION
  5
23FD9
330
747D
100
AcDbEntity
  8
寸法
 48
50.0
100
AcDbDimension
  2
*D24
 10
12297.81202022566
 20
6132.065863129603
 30
0.0
 11
12297.81202022565
 21
5845.102280452431
 31
0.0
 70
   160
 71
     5
 42
279.9999999999773
  3
INABA_S40G
100
AcDbAlignedDimension
 13
12398.59999999999
 23
6412.06586312958
 33
0.0
 14
12398.6
 24
6132.065863129603
 34
0.0
 50
90.0
100
AcDbRotatedDimension
1001
ACAD
1000
DSTYLE
1002
{
1070
   341
1005
0
1002
}
  0
DIMENSION
  5
23FDA
330
747D
100
AcDbEntity
  8
寸法
 48
50.0
100
AcDbDimension
  2
*D25
 10
12297.81202022566
 20
7472.065863129586
 30
0.0
 11
12297.81202022565
 21
7959.029445806741
 31
0.0
 70
   160
 71
     5
 42
199.9999999999854
  3
INABA_S40G
100
AcDbAlignedDimension
 13
12398.6
 23
7672.065863129572
 33
0.0
 14
12398.60000000001
 24
7472.065863129586
 34
0.0
 50
90.0
100
AcDbRotatedDimension
1001
ACAD
1000
DSTYLE
1002
{
1070
   341
1005
0
1002
}
  0
DIMENSION
  5
24043
330
747D
100
AcDbEntity
  8
寸法
 48
50.0
100
AcDbDimension
  2
*D23
 10
12858.6
 20
7221.664476227696
 30
0.0
 11
13248.65905511811
 21
7221.664476227696
 31
0.0
 70
   160
 71
     5
 42
119.9999999999981
  3
INABA_S40G
100
AcDbAlignedDimension
 13
12978.6
 23
7107.065863129623
 33
0.0
 14
12858.6
 24
7107.065863129621
 34
0.0
100
AcDbRotatedDimension
1001
ACAD
1000
DSTYLE
1002
{
1070
   341
1005
0
1002
}
  0
LINE
  5
283B2
330
747D
100
AcDbEntity
  8
部品1
 48
50.0
100
AcDbLine
 10
12858.6
 20
7472.065863129586
 30
0.0
 11
3588.599999999998
 21
7472.065863129585
 31
0.0
  0
DIMENSION
  5
283B4
330
747D
100
AcDbEntity
  8
寸法
 48
50.0
100
AcDbDimension
  2
*D28
 10
8105.6
 20
8398.332321223497
 30
0.0
 11
9055.600000000001
 21
8498.332321223498
 31
0.0
 70
    32
 71
     5
 42
1900.0
  3
INABA_S40G
100
AcDbAlignedDimension
 13
10005.6
 23
7599.065863129585
 33
0.0
 14
8105.6
 24
7599.065863129585
 34
0.0
100
AcDbRotatedDimension
1001
ACAD
1000
DSTYLE
1002
{
1070
   341
1005
0
1002
}
  0
DIMENSION
  5
283B5
330
747D
100
AcDbEntity
  8
寸法
 48
50.0
100
AcDbDimension
  2
*D29
 10
8223.600000000008
 20
8154.674679799835
 30
0.0
 11
8698.600000000007
 21
8254.674679799835
 31
0.0
 70
    32
 71
     5
 42
950.0
  3
INABA_S40G
100
AcDbAlignedDimension
 13
9173.600000000007
 23
6989.065863129585
 33
0.0
 14
8223.600000000008
 24
6989.065863129585
 34
0.0
100
AcDbRotatedDimension
1001
ACAD
1000
DSTYLE
1002
{
1070
   341
1005
0
1002
}
  0
TEXT
  5
283B6
330
747D
100
AcDbEntity
  8
寸法
 48
50.0
100
AcDbText
 10
8255.827152728688
 20
6150.747153922322
 30
0.0
 40
120.0
  1
扉面
  7
STYLE1
100
AcDbText
  0
LINE
  5
283B8
330
747D
100
AcDbEntity
  8
部品1
 48
50.0
100
AcDbLine
 10
12978.6
 20
6132.065863129603
 30
0.0
 11
3468.599999999997
 21
6132.065863129581
 31
0.0
  0
LINE
  5
283BA
330
747D
100
AcDbEntity
  8
部品1
 48
50.0
100
AcDbLine
 10
12978.6
 20
7672.065863129585
 30
0.0
 11
3468.600000000001
 21
7672.065863129585
 31
0.0
  0
DIMENSION
  5
283BB
330
747D
100
AcDbEntity
  8
寸法
 48
50.0
100
AcDbDimension
  2
*D30
 10
12978.6
 20
8630.286185188502
 30
0.0
 11
8223.600000000001
 21
8730.286185188502
 31
0.0
 70
    32
 71
     5
 42
9510.0
  3
INABA_S40G
100
AcDbAlignedDimension
 13
3468.600000000001
 23
7672.065863129585
 33
0.0
 14
12978.6
 24
7672.065863129585
 34
0.0
100
AcDbRotatedDimension
1001
ACAD
1000
DSTYLE
1002
{
1070
   341
1005
0
1002
}
  0
DIMENSION
  5
283BC
330
747D
100
AcDbEntity
  8
寸法
 48
50.0
100
AcDbDimension
  2
*D31
 10
7273.600000000008
 20
8154.674679799835
 30
0.0
 11
7748.600000000007
 21
8254.674679799835
 31
0.0
 70
    32
 71
     5
 42
950.0
  3
INABA_S40G
100
AcDbAlignedDimension
 13
8223.600000000008
 23
6989.065863129585
 33
0.0
 14
7273.600000000008
 24
6989.065863129585
 34
0.0
100
AcDbRotatedDimension
1001
ACAD
1000
DSTYLE
1002
{
1070
   341
1005
0
1002
}
  0
DIMENSION
  5
283BD
330
747D
100
AcDbEntity
  8
寸法
 48
50.0
100
AcDbDimension
  2
*D32
 10
6323.600000000007
 20
8154.674679799835
 30
0.0
 11
6798.600000000007
 21
8254.674679799835
 31
0.0
 70
    32
 71
     5
 42
950.0
  3
INABA_S40G
100
AcDbAlignedDimension
 13
7273.600000000008
 23
6989.065863129585
 33
0.0
 14
6323.600000000007
 24
6992.065863129585
 34
0.0
100
AcDbRotatedDimension
1001
ACAD
1000
DSTYLE
1002
{
1070
   341
1005
0
1002
}
  0
DIMENSION
  5
283BE
330
747D
100
AcDbEntity
  8
寸法
 48
50.0
100
AcDbDimension
  2
*D33
 10
4423.600000000007
 20
8154.674679799835
 30
0.0
 11
4898.600000000008
 21
8254.674679799835
 31
0.0
 70
    32
 71
     5
 42
950.0000000000017
  3
INABA_S40G
100
AcDbAlignedDimension
 13
5373.60000000001
 23
6989.065863129585
 33
0.0
 14
4423.600000000007
 24
6989.065863129585
 34
0.0
100
AcDbRotatedDimension
1001
ACAD
1000
DSTYLE
1002
{
1070
   341
1005
0
1002
}
  0
DIMENSION
  5
283BF
330
747D
100
AcDbEntity
  8
寸法
 48
50.0
100
AcDbDimension
  2
*D34
 10
3951.285990614302
 20
7672.065863129585
 30
0.0
 11
3951.285990614301
 21
7231.660653823761
 31
0.0
 70
   160
 71
     5
 42
733.0
  3
INABA_S40G
100
AcDbAlignedDimension
 13
4373.600000000007
 23
6939.065863129584
 33
0.0
 14
4042.765475140901
 24
7672.065863129585
 34
0.0
 50
90.0
100
AcDbRotatedDimension
1001
ACAD
1000
DSTYLE
1002
{
1070
   341
1005
0
1002
}
  0
DIMENSION
  5
283C0
330
747D
100
AcDbEntity
  8
寸法
 48
50.0
100
AcDbDimension
  2
*D35
 10
3468.600000000001
 20
8154.674679799835
 30
0.0
 11
3946.100000000004
 21
8254.674679799835
 31
0.0
 70
    32
 71
     5
 42
955.0000000000073
  3
INABA_S40G
100
AcDbAlignedDimension
 13
4423.600000000007
 23
6989.065863129585
 33
0.0
 14
3468.600000000001
 24
7672.065863129585
 34
0.0
100
AcDbRotatedDimension
1001
ACAD
1000
DSTYLE
1002
{
1070
   341
1005
0
1002
}
  0
DIMENSION
  5
283C1
330
747D
100
AcDbEntity
  8
寸法
 48
50.0
100
AcDbDimension
  2
*D36
 10
2593.721909610674
 20
6132.065863129585
 30
0.0
 11
2593.721909610673
 21
6939.565863129584
 31
0.0
 70
   160
 71
     5
 42
1540.0
  3
INABA_S40G
100
AcDbAlignedDimension
 13
3468.600000000001
 23
7672.065863129585
 33
0.0
 14
3468.600000000001
 24
6132.065863129585
 34
0.0
 50
90.0
100
AcDbRotatedDimension
1001
ACAD
1000
DSTYLE
1002
{
1070
   341
1005
0
1002
}
  0
DIMENSION
  5
283C2
330
747D
100
AcDbEntity
  8
寸法
 48
50.0
100
AcDbDimension
  2
*D37
 10
2845.665006330072
 20
6330.065863129588
 30
0.0
 11
2845.665006330071
 21
6939.565863129584
 31
0.0
 70
   160
 71
     5
 42
1218.999999999996
  3
INABA_S40G
100
AcDbAlignedDimension
 13
3541.600000000001
 23
7549.065863129584
 33
0.0
 14
3541.600000000008
 24
6330.065863129588
 34
0.0
 50
90.0
100
AcDbRotatedDimension
1001
ACAD
1000
DSTYLE
1002
{
1070
   341
1005
0
1002
}
  0
LINE
  5
283C5
102
{ACAD_REACTORS
330
28DF4
102
}
330
747D
100
AcDbEntity
  8
部品1
 48
50.0
100
AcDbLine
 10
3468.600000000001
 20
6132.065863129585
 30
0.0
 11
3468.600000000001
 21
7672.065863129585
 31
0.0
  0
DIMENSION
  5
283C6
330
747D
100
AcDbEntity
  8
寸法
 48
50.0
100
AcDbDimension
  2
*D38
 10
5373.60000000001
 20
8154.674679799835
 30
0.0
 11
5848.600000000009
 21
8254.674679799835
 31
0.0
 70
    32
 71
     5
 42
949.9999999999982
  3
INABA_S40G
100
AcDbAlignedDimension
 13
6323.600000000007
 23
6992.065863129585
 33
0.0
 14
5373.60000000001
 24
6989.065863129585
 34
0.0
100
AcDbRotatedDimension
1001
ACAD
1000
DSTYLE
1002
{
1070
   341
1005
0
1002
}
  0
LINE
  5
283C8
102
{ACAD_REACTORS
330
28DF4
102
}
330
747D
100
AcDbEntity
  8
部品1
 48
50.0
100
AcDbLine
 10
3588.599999999999
 20
7027.065863129603
 30
0.0
 11
3468.59999999999
 21
7027.065863129603
 31
0.0
  0
LINE
  5
283C9
102
{ACAD_REACTORS
330
28DF4
102
}
330
747D
100
AcDbEntity
  8
部品1
 48
50.0
100
AcDbLine
 10
3588.6
 20
6827.065863129603
 30
0.0
 11
3468.59999999999
 21
6827.065863129603
 31
0.0
  0
DIMENSION
  5
283CB
330
747D
100
AcDbEntity
  8
寸法
 48
50.0
100
AcDbDimension
  2
*D39
 10
3355.512673767881
 20
5412.065863129581
 30
0.0
 11
3355.512673767881
 21
5772.065863129582
 31
0.0
 70
   160
  1
扉の出<>
 71
     5
 42
720.0
  3
INABA_S40G
100
AcDbAlignedDimension
 13
3468.600000000004
 23
6132.065863129581
 33
0.0
 14
3824.325326928809
 24
5412.065863129581
 34
0.0
 50
90.0
100
AcDbRotatedDimension
1001
ACAD
1000
DSTYLE
1002
{
1070
   341
1005
0
1002
}
  0
ARC
  5
283CC
330
747D
100
AcDbEntity
  8
想像線
 48
5.0
100
AcDbCircle
 10
4238.600000000004
 20
6132.065863129589
 30
0.0
 40
720.0
100
AcDbArc
 50
180.0
 51
270.0
  0
DIMENSION
  5
283CD
330
747D
100
AcDbEntity
  8
寸法
 48
50.0
100
AcDbDimension
  2
*D40
 10
2845.665006330072
 20
6132.065863129585
 30
0.0
 11
2845.665006330071
 21
5796.534914286993
 31
0.0
 70
   160
 71
     5
 42
198.0000000000036
  3
INABA_S40G
100
AcDbAlignedDimension
 13
3541.600000000008
 23
6330.065863129588
 33
0.0
 14
3468.600000000001
 24
6132.065863129585
 34
0.0
 50
90.0
100
AcDbRotatedDimension
1001
ACAD
1000
DSTYLE
1002
{
1070
   341
1005
0
1002
}
  0
LINE
  5
283CF
330
747D
100
AcDbEntity
  8
想像線
 48
5.0
100
AcDbLine
 10
4238.600000000004
 20
6132.065863129599
 30
0.0
 11
4238.600000000004
 21
5412.065863129588
 31
0.0
  0
LINE
  5
283D0
330
747D
100
AcDbEntity
  8
部品1
 48
50.0
100
AcDbLine
 10
4523.600000000008
 20
7039.065863129585
 30
0.0
 11
4323.600000000007
 21
7039.065863129585
 31
0.0
  0
LINE
  5
283D1
330
747D
100
AcDbEntity
  8
部品1
 48
50.0
100
AcDbLine
 10
4523.600000000008
 20
6839.065863129585
 30
0.0
 11
4323.600000000007
 21
6839.065863129585
 31
0.0
  0
DIMENSION
  5
283D2
330
747D
100
AcDbEntity
  8
寸法
 48
50.0
100
AcDbDimension
  2
*D41
 10
3951.285990614302
 20
6939.065863129584
 30
0.0
 11
3951.285990614301
 21
6617.065863129585
 31
0.0
 70
   160
 71
     5
 42
806.999999999989
  3
INABA_S40G
100
AcDbAlignedDimension
 13
4042.765475140901
 23
6132.065863129596
 33
0.0
 14
4373.600000000007
 24
6939.065863129584
 34
0.0
 50
90.0
100
AcDbRotatedDimension
1001
ACAD
1000
DSTYLE
1002
{
1070
   341
1005
0
1002
}
  0
LINE
  5
283D3
330
747D
100
AcDbEntity
  8
細線
 48
50.0
100
AcDbLine
 10
3848.599999999995
 20
6220.767901207223
 30
0.0
 11
4039.897961922354
 21
6412.065863129581
 31
0.0
  0
LINE
  5
283D4
330
747D
100
AcDbEntity
  8
細線
 48
50.0
100
AcDbLine
 10
3848.599999999994
 20
6265.669181812565
 30
0.0
 11
3994.996681317008
 21
6412.065863129581
 31
0.0
  0
LINE
  5
283D5
330
747D
100
AcDbEntity
  8
細線
 48
50.0
100
AcDbLine
 10
3849.70052313307
 20
6132.065863129603
 30
0.0
 11
4048.599999999991
 21
6330.965339996526
 31
0.0
  0
LINE
  5
283D6
330
747D
100
AcDbEntity
  8
細線
 48
50.0
100
AcDbLine
 10
3894.601803738415
 20
6132.065863129604
 30
0.0
 11
4048.599999999993
 21
6286.064059391181
 31
0.0
  0
LINE
  5
283D7
330
747D
100
AcDbEntity
  8
細線
 48
50.0
100
AcDbLine
 10
3848.599999999997
 20
6175.866620601875
 30
0.0
 11
4048.599999999991
 21
6375.866620601869
 31
0.0
  0
LINE
  5
283D8
330
747D
100
AcDbEntity
  8
部品1
 48
50.0
100
AcDbLine
 10
3848.599999999989
 20
6412.06586312958
 30
0.0
 11
3848.599999999997
 21
6132.065863129603
 31
0.0
  0
LINE
  5
283D9
330
747D
100
AcDbEntity
  8
センター
 48
2.0
100
AcDbLine
 10
3591.600000000008
 20
6380.065863129588
 30
0.0
 11
3591.600000000008
 21
6280.065863129588
 31
0.0
  0
LINE
  5
283DA
330
747D
100
AcDbEntity
  8
センター
 48
2.0
100
AcDbLine
 10
3541.600000000008
 20
6330.065863129588
 30
0.0
 11
3641.600000000007
 21
6330.065863129588
 31
0.0
  0
CIRCLE
  5
283DB
330
747D
100
AcDbEntity
  8
部品1
 48
50.0
100
AcDbCircle
 10
3591.599999999993
 20
6330.065863129588
 30
0.0
 40
35.0
  0
LINE
  5
283DC
330
747D
100
AcDbEntity
  8
細線
 48
50.0
100
AcDbLine
 10
3848.599999999994
 20
6310.570462417914
 30
0.0
 11
3950.09540071166
 21
6412.065863129581
 31
0.0
  0
LINE
  5
283DD
330
747D
100
AcDbEntity
  8
細線
 48
50.0
100
AcDbLine
 10
3848.599999999991
 20
6355.471743023258
 30
0.0
 11
3905.194120106318
 21
6412.06586312958
 31
0.0
  0
LINE
  5
283DE
330
747D
100
AcDbEntity
  8
部品1
 48
50.0
100
AcDbLine
 10
4048.59999999999
 20
6412.065863129583
 30
0.0
 11
4048.599999999996
 21
6132.065863129606
 31
0.0
  0
LINE
  5
283DF
330
747D
100
AcDbEntity
  8
細線
 48
50.0
100
AcDbLine
 10
3939.503084343764
 20
6132.065863129604
 30
0.0
 11
4048.599999999998
 21
6241.162778785842
 31
0.0
  0
LINE
  5
283E0
330
747D
100
AcDbEntity
  8
細線
 48
50.0
100
AcDbLine
 10
3984.404364949109
 20
6132.065863129606
 30
0.0
 11
4048.6
 21
6196.261498180494
 31
0.0
  0
LINE
  5
283E1
330
747D
100
AcDbEntity
  8
細線
 48
50.0
100
AcDbLine
 10
4029.305645554456
 20
6132.065863129606
 30
0.0
 11
4048.6
 21
6151.360217575152
 31
0.0
  0
LINE
  5
283E2
330
747D
100
AcDbEntity
  8
部品1
 48
50.0
100
AcDbLine
 10
4323.600000000007
 20
6839.065863129585
 30
0.0
 11
4323.600000000007
 21
7039.065863129585
 31
0.0
  0
LINE
  5
283EF
330
747D
100
AcDbEntity
  8
部品1
 48
50.0
100
AcDbLine
 10
4523.600000000008
 20
6839.065863129585
 30
0.0
 11
4523.600000000008
 21
7039.065863129585
 31
0.0
  0
LINE
  5
283F0
330
747D
100
AcDbEntity
  8
センター
 48
2.0
100
AcDbLine
 10
4423.600000000007
 20
6989.065863129585
 30
0.0
 11
4423.600000000007
 21
6889.065863129585
 31
0.0
  0
LINE
  5
283F1
330
747D
100
AcDbEntity
  8
センター
 48
2.0
100
AcDbLine
 10
4373.600000000007
 20
6939.065863129584
 30
0.0
 11
4473.600000000007
 21
6939.065863129584
 31
0.0
  0
LINE
  5
28404
330
747D
100
AcDbEntity
  8
センター
 48
2.0
100
AcDbLine
 10
5323.600000000009
 20
6939.065863129584
 30
0.0
 11
5423.60000000001
 21
6939.065863129584
 31
0.0
  0
LINE
  5
28405
330
747D
100
AcDbEntity
  8
部品1
 48
50.0
100
AcDbLine
 10
5473.60000000001
 20
6839.065863129585
 30
0.0
 11
5273.600000000009
 21
6839.065863129585
 31
0.0
  0
LINE
  5
28406
330
747D
100
AcDbEntity
  8
部品1
 48
50.0
100
AcDbLine
 10
5473.60000000001
 20
7039.065863129585
 30
0.0
 11
5273.600000000009
 21
7039.065863129585
 31
0.0
  0
LINE
  5
28407
330
747D
100
AcDbEntity
  8
部品1
 48
50.0
100
AcDbLine
 10
5273.600000000009
 20
6839.065863129585
 30
0.0
 11
5273.600000000009
 21
7039.065863129585
 31
0.0
  0
LINE
  5
28408
330
747D
100
AcDbEntity
  8
部品1
 48
50.0
100
AcDbLine
 10
5473.60000000001
 20
6839.065863129585
 30
0.0
 11
5473.60000000001
 21
7039.065863129585
 31
0.0
  0
LINE
  5
28409
330
747D
100
AcDbEntity
  8
センター
 48
2.0
100
AcDbLine
 10
5373.60000000001
 20
6989.065863129585
 30
0.0
 11
5373.60000000001
 21
6889.065863129585
 31
0.0
  0
CIRCLE
  5
2840A
330
747D
100
AcDbEntity
  8
部品1
 48
50.0
100
AcDbCircle
 10
6205.600000000007
 20
6330.065863129588
 30
0.0
 40
35.0
  0
LINE
  5
2840B
330
747D
100
AcDbEntity
  8
センター
 48
2.0
100
AcDbLine
 10
6155.600000000007
 20
6330.065863129588
 30
0.0
 11
6255.600000000008
 21
6330.065863129588
 31
0.0
  0
LINE
  5
2840C
330
747D
100
AcDbEntity
  8
センター
 48
2.0
100
AcDbLine
 10
6205.600000000007
 20
6380.065863129588
 30
0.0
 11
6205.600000000007
 21
6280.065863129588
 31
0.0
  0
LINE
  5
28410
330
747D
100
AcDbEntity
  8
部品1
 48
50.0
100
AcDbLine
 10
6423.600000000007
 20
6839.065863129585
 30
0.0
 11
6223.600000000008
 21
6839.065863129585
 31
0.0
  0
LINE
  5
28411
330
747D
100
AcDbEntity
  8
部品1
 48
50.0
100
AcDbLine
 10
6423.600000000007
 20
7039.065863129585
 30
0.0
 11
6223.600000000008
 21
7039.065863129585
 31
0.0
  0
LINE
  5
28412
330
747D
100
AcDbEntity
  8
センター
 48
2.0
100
AcDbLine
 10
6323.600000000007
 20
6989.065863129585
 30
0.0
 11
6323.600000000007
 21
6889.065863129585
 31
0.0
  0
LINE
  5
28413
330
747D
100
AcDbEntity
  8
部品1
 48
50.0
100
AcDbLine
 10
6223.600000000008
 20
6839.065863129585
 30
0.0
 11
6223.600000000008
 21
7039.065863129585
 31
0.0
  0
LINE
  5
28414
330
747D
100
AcDbEntity
  8
センター
 48
2.0
100
AcDbLine
 10
6273.600000000008
 20
6939.065863129584
 30
0.0
 11
6373.600000000007
 21
6939.065863129584
 31
0.0
  0
LINE
  5
28415
330
747D
100
AcDbEntity
  8
部品1
 48
50.0
100
AcDbLine
 10
6423.600000000007
 20
6839.065863129585
 30
0.0
 11
6423.600000000007
 21
7039.065863129585
 31
0.0
  0
LINE
  5
28419
330
747D
100
AcDbEntity
  8
部品1
 48
50.0
100
AcDbLine
 10
7373.600000000007
 20
7039.065863129585
 30
0.0
 11
7173.600000000007
 21
7039.065863129585
 31
0.0
  0
LINE
  5
2841A
330
747D
100
AcDbEntity
  8
部品1
 48
50.0
100
AcDbLine
 10
7373.600000000007
 20
6839.065863129585
 30
0.0
 11
7173.600000000007
 21
6839.065863129585
 31
0.0
  0
LINE
  5
2841B
330
747D
100
AcDbEntity
  8
部品1
 48
50.0
100
AcDbLine
 10
7173.600000000007
 20
6839.065863129585
 30
0.0
 11
7173.600000000007
 21
7039.065863129585
 31
0.0
  0
LINE
  5
2841C
330
747D
100
AcDbEntity
  8
部品1
 48
50.0
100
AcDbLine
 10
7373.600000000007
 20
6839.065863129585
 30
0.0
 11
7373.600000000007
 21
7039.065863129585
 31
0.0
  0
LINE
  5
2841D
330
747D
100
AcDbEntity
  8
センター
 48
2.0
100
AcDbLine
 10
7273.600000000008
 20
6989.065863129585
 30
0.0
 11
7273.600000000008
 21
6889.065863129585
 31
0.0
  0
LINE
  5
2841E
330
747D
100
AcDbEntity
  8
センター
 48
2.0
100
AcDbLine
 10
7223.600000000008
 20
6939.065863129584
 30
0.0
 11
7323.600000000007
 21
6939.065863129584
 31
0.0
  0
LINE
  5
2842B
330
747D
100
AcDbEntity
  8
センター
 48
2.0
100
AcDbLine
 10
8105.600000000007
 20
6380.065863129588
 30
0.0
 11
8105.600000000007
 21
6280.065863129588
 31
0.0
  0
LINE
  5
2842C
330
747D
100
AcDbEntity
  8
センター
 48
2.0
100
AcDbLine
 10
8055.600000000008
 20
6330.065863129588
 30
0.0
 11
8155.600000000008
 21
6330.065863129588
 31
0.0
  0
CIRCLE
  5
2842D
330
747D
100
AcDbEntity
  8
部品1
 48
50.0
100
AcDbCircle
 10
8105.600000000007
 20
6330.065863129588
 30
0.0
 40
35.0
  0
LINE
  5
2842E
330
747D
100
AcDbEntity
  8
部品1
 48
50.0
100
AcDbLine
 10
8323.600000000007
 20
7039.065863129585
 30
0.0
 11
8123.600000000008
 21
7039.065863129585
 31
0.0
  0
LINE
  5
2842F
330
747D
100
AcDbEntity
  8
センター
 48
2.0
100
AcDbLine
 10
8173.600000000007
 20
6939.065863129584
 30
0.0
 11
8273.600000000007
 21
6939.065863129584
 31
0.0
  0
LINE
  5
28430
330
747D
100
AcDbEntity
  8
部品1
 48
50.0
100
AcDbLine
 10
8323.600000000007
 20
6839.065863129585
 30
0.0
 11
8123.600000000008
 21
6839.065863129585
 31
0.0
  0
LINE
  5
28431
330
747D
100
AcDbEntity
  8
センター
 48
2.0
100
AcDbLine
 10
8223.600000000008
 20
6989.065863129585
 30
0.0
 11
8223.600000000008
 21
6889.065863129585
 31
0.0
  0
LINE
  5
28432
330
747D
100
AcDbEntity
  8
部品1
 48
50.0
100
AcDbLine
 10
8123.600000000008
 20
6839.065863129585
 30
0.0
 11
8123.600000000008
 21
7039.065863129585
 31
0.0
  0
LINE
  5
28433
330
747D
100
AcDbEntity
  8
部品1
 48
50.0
100
AcDbLine
 10
8323.600000000007
 20
6839.065863129585
 30
0.0
 11
8323.600000000007
 21
7039.065863129585
 31
0.0
  0
DIMENSION
  5
28434
330
747D
100
AcDbEntity
  8
寸法
 48
50.0
100
AcDbDimension
  2
*D42
 10
3591.600000000001
 20
8398.332321223497
 30
0.0
 11
4898.6
 21
8498.344132247119
 31
0.0
 70
    32
 71
     5
 42
2614.0
  3
INABA_S40G
100
AcDbAlignedDimension
 13
6205.6
 23
7599.065863129585
 33
0.0
 14
3591.600000000001
 24
7599.065863129585
 34
0.0
100
AcDbRotatedDimension
1001
ACAD
1000
DSTYLE
1002
{
1070
   341
1005
0
1002
}
  0
DIMENSION
  5
28435
330
747D
100
AcDbEntity
  8
寸法
 48
50.0
100
AcDbDimension
  2
*D43
 10
2845.665006330073
 20
7549.065863129584
 30
0.0
 11
2845.665006330071
 21
7945.172464847384
 31
0.0
 70
   160
 71
     5
 42
123.0
  3
INABA_S40G
100
AcDbAlignedDimension
 13
3468.600000000001
 23
7672.065863129585
 33
0.0
 14
3541.600000000001
 24
7549.065863129584
 34
0.0
 50
90.0
100
AcDbRotatedDimension
1001
ACAD
1000
DSTYLE
1002
{
1070
   341
1005
0
1002
}
  0
DIMENSION
  5
28436
330
747D
100
AcDbEntity
  8
寸法
 48
50.0
100
AcDbDimension
  2
*D44
 10
3468.600000000001
 20
8398.332321223497
 30
0.0
 11
3195.493398282203
 21
8398.332321223497
 31
0.0
 70
   160
 71
     5
 42
123.0
  3
INABA_S40G
100
AcDbAlignedDimension
 13
3591.600000000001
 23
7599.065863129585
 33
0.0
 14
3468.600000000001
 24
7672.065863129585
 34
0.0
100
AcDbRotatedDimension
1001
ACAD
1000
DSTYLE
1002
{
1070
   341
1005
0
1002
}
  0
LINE
  5
28439
330
747D
100
AcDbEntity
  8
部品1
 48
50.0
100
AcDbLine
 10
4048.599999999995
 20
7672.065863129585
 30
0.0
 11
4048.600000000003
 21
7472.065863129585
 31
0.0
  0
LINE
  5
2843A
330
747D
100
AcDbEntity
  8
細線
 48
50.0
100
AcDbLine
 10
3848.599999999997
 20
7608.990952103429
 30
0.0
 11
3911.674911026157
 21
7672.065863129585
 31
0.0
  0
LINE
  5
2843B
330
747D
100
AcDbEntity
  8
細線
 48
50.0
100
AcDbLine
 10
3848.599999999998
 20
7564.089671498081
 30
0.0
 11
3956.576191631503
 21
7672.065863129585
 31
0.0
  0
LINE
  5
2843C
330
747D
100
AcDbEntity
  8
細線
 48
50.0
100
AcDbLine
 10
3848.600000000001
 20
7519.188390892733
 30
0.0
 11
4001.477472236848
 21
7672.065863129585
 31
0.0
  0
LINE
  5
2843D
330
747D
100
AcDbEntity
  8
部品1
 48
50.0
100
AcDbLine
 10
3848.599999999995
 20
7672.065863129585
 30
0.0
 11
3848.600000000003
 21
7472.065863129585
 31
0.0
  0
LINE
  5
2843E
330
747D
100
AcDbEntity
  8
細線
 48
50.0
100
AcDbLine
 10
3848.600000000003
 20
7474.287110287395
 30
0.0
 11
4046.378752842194
 21
7672.065863129585
 31
0.0
  0
LINE
  5
2843F
330
747D
100
AcDbEntity
  8
細線
 48
50.0
100
AcDbLine
 10
3891.280033447538
 20
7472.06586312958
 30
0.0
 11
4048.599999999996
 21
7629.385829682042
 31
0.0
  0
LINE
  5
28440
330
747D
100
AcDbEntity
  8
センター
 48
2.0
100
AcDbLine
 10
3591.600000000001
 20
7599.065863129585
 30
0.0
 11
3591.600000000001
 21
7499.065863129584
 31
0.0
  0
CIRCLE
  5
28441
330
747D
100
AcDbEntity
  8
部品1
 48
50.0
100
AcDbCircle
 10
3591.600000000001
 20
7549.065863129584
 30
0.0
 40
35.0
  0
LINE
  5
28442
330
747D
100
AcDbEntity
  8
センター
 48
2.0
100
AcDbLine
 10
3541.600000000001
 20
7549.065863129584
 30
0.0
 11
3641.6
 21
7549.065863129584
 31
0.0
  0
LINE
  5
28443
330
747D
100
AcDbEntity
  8
細線
 48
50.0
100
AcDbLine
 10
3936.181314052897
 20
7472.065863129583
 30
0.0
 11
4048.6
 21
7584.4845490767
 31
0.0
  0
LINE
  5
28444
330
747D
100
AcDbEntity
  8
細線
 48
50.0
100
AcDbLine
 10
3981.082594658236
 20
7472.065863129583
 30
0.0
 11
4048.6
 21
7539.583268471348
 31
0.0
  0
LINE
  5
28445
330
747D
100
AcDbEntity
  8
細線
 48
50.0
100
AcDbLine
 10
4025.98387526359
 20
7472.06586312958
 30
0.0
 11
4048.600000000003
 21
7494.681987865998
 31
0.0
  0
LINE
  5
28446
330
747D
100
AcDbEntity
  8
細線
 48
50.0
100
AcDbLine
 10
3848.599999999997
 20
7653.892232708772
 30
0.0
 11
3866.773630420811
 21
7672.065863129585
 31
0.0
  0
LINE
  5
28447
330
747D
100
AcDbEntity
  8
細線
 48
50.0
100
AcDbLine
 10
4798.599999999996
 20
7608.990952103429
 30
0.0
 11
4861.674911026157
 21
7672.065863129585
 31
0.0
  0
LINE
  5
28448
330
747D
100
AcDbEntity
  8
部品1
 48
50.0
100
AcDbLine
 10
4798.599999999995
 20
7672.065863129585
 30
0.0
 11
4798.600000000003
 21
7472.065863129585
 31
0.0
  0
LINE
  5
28449
330
747D
100
AcDbEntity
  8
部品1
 48
50.0
100
AcDbLine
 10
4998.599999999995
 20
7672.065863129585
 30
0.0
 11
4998.600000000003
 21
7472.065863129585
 31
0.0
  0
LINE
  5
2844A
330
747D
100
AcDbEntity
  8
細線
 48
50.0
100
AcDbLine
 10
4798.600000000003
 20
7474.287110287395
 30
0.0
 11
4996.378752842194
 21
7672.065863129585
 31
0.0
  0
LINE
  5
2844B
330
747D
100
AcDbEntity
  8
細線
 48
50.0
100
AcDbLine
 10
4798.6
 20
7519.188390892733
 30
0.0
 11
4951.477472236848
 21
7672.065863129585
 31
0.0
  0
LINE
  5
2844C
330
747D
100
AcDbEntity
  8
細線
 48
50.0
100
AcDbLine
 10
4798.599999999999
 20
7564.089671498081
 30
0.0
 11
4906.576191631502
 21
7672.065863129585
 31
0.0
  0
LINE
  5
2844D
330
747D
100
AcDbEntity
  8
細線
 48
50.0
100
AcDbLine
 10
4931.082594658235
 20
7472.065863129583
 30
0.0
 11
4998.6
 21
7539.583268471348
 31
0.0
  0
LINE
  5
2844E
330
747D
100
AcDbEntity
  8
細線
 48
50.0
100
AcDbLine
 10
4886.181314052898
 20
7472.065863129583
 30
0.0
 11
4998.6
 21
7584.4845490767
 31
0.0
  0
LINE
  5
2844F
330
747D
100
AcDbEntity
  8
細線
 48
50.0
100
AcDbLine
 10
4841.280033447538
 20
7472.06586312958
 30
0.0
 11
4998.599999999997
 21
7629.385829682042
 31
0.0
  0
LINE
  5
28450
330
747D
100
AcDbEntity
  8
細線
 48
50.0
100
AcDbLine
 10
4975.98387526359
 20
7472.06586312958
 30
0.0
 11
4998.6
 21
7494.681987865998
 31
0.0
  0
LINE
  5
28451
330
747D
100
AcDbEntity
  8
細線
 48
50.0
100
AcDbLine
 10
4798.599999999996
 20
7653.892232708772
 30
0.0
 11
4816.773630420811
 21
7672.065863129585
 31
0.0
  0
LINE
  5
28452
330
747D
100
AcDbEntity
  8
細線
 48
50.0
100
AcDbLine
 10
6698.599999999998
 20
7564.089671498081
 30
0.0
 11
6806.576191631503
 21
7672.065863129585
 31
0.0
  0
LINE
  5
28453
330
747D
100
AcDbEntity
  8
細線
 48
50.0
100
AcDbLine
 10
6698.6
 20
7519.188390892733
 30
0.0
 11
6851.477472236847
 21
7672.065863129585
 31
0.0
  0
LINE
  5
28454
330
747D
100
AcDbEntity
  8
細線
 48
50.0
100
AcDbLine
 10
6698.600000000002
 20
7474.287110287395
 30
0.0
 11
6896.378752842195
 21
7672.065863129585
 31
0.0
  0
LINE
  5
28455
330
747D
100
AcDbEntity
  8
細線
 48
50.0
100
AcDbLine
 10
6741.280033447537
 20
7472.06586312958
 30
0.0
 11
6898.599999999998
 21
7629.385829682042
 31
0.0
  0
LINE
  5
28456
330
747D
100
AcDbEntity
  8
細線
 48
50.0
100
AcDbLine
 10
6786.181314052898
 20
7472.065863129583
 30
0.0
 11
6898.6
 21
7584.4845490767
 31
0.0
  0
DIMENSION
  5
28457
330
747D
100
AcDbEntity
  8
寸法
 48
50.0
100
AcDbDimension
  2
*D45
 10
6205.6
 20
8398.332321223497
 30
0.0
 11
7155.600000000001
 21
8498.332321223498
 31
0.0
 70
    32
 71
     5
 42
1900.0
  3
INABA_S40G
100
AcDbAlignedDimension
 13
8105.6
 23
7599.065863129585
 33
0.0
 14
6205.6
 24
7599.065863129585
 34
0.0
100
AcDbRotatedDimension
1001
ACAD
1000
DSTYLE
1002
{
1070
   341
1005
0
1002
}
  0
LINE
  5
28458
330
747D
100
AcDbEntity
  8
細線
 48
50.0
100
AcDbLine
 10
5748.599999999997
 20
7608.990952103429
 30
0.0
 11
5811.674911026157
 21
7672.065863129585
 31
0.0
  0
LINE
  5
28459
330
747D
100
AcDbEntity
  8
細線
 48
50.0
100
AcDbLine
 10
5748.599999999999
 20
7564.089671498081
 30
0.0
 11
5856.576191631503
 21
7672.065863129585
 31
0.0
  0
LINE
  5
2845A
330
747D
100
AcDbEntity
  8
細線
 48
50.0
100
AcDbLine
 10
5748.6
 20
7519.188390892733
 30
0.0
 11
5901.477472236848
 21
7672.065863129585
 31
0.0
  0
LINE
  5
2845B
330
747D
100
AcDbEntity
  8
細線
 48
50.0
100
AcDbLine
 10
5748.600000000003
 20
7474.287110287395
 30
0.0
 11
5946.378752842194
 21
7672.065863129585
 31
0.0
  0
LINE
  5
2845C
330
747D
100
AcDbEntity
  8
部品1
 48
50.0
100
AcDbLine
 10
5948.599999999995
 20
7672.065863129585
 30
0.0
 11
5948.600000000002
 21
7472.065863129585
 31
0.0
  0
LINE
  5
2845D
330
747D
100
AcDbEntity
  8
部品1
 48
50.0
100
AcDbLine
 10
5748.599999999995
 20
7672.065863129585
 30
0.0
 11
5748.600000000003
 21
7472.065863129585
 31
0.0
  0
LINE
  5
2845F
330
747D
100
AcDbEntity
  8
細線
 48
50.0
100
AcDbLine
 10
5881.082594658235
 20
7472.065863129583
 30
0.0
 11
5948.6
 21
7539.583268471348
 31
0.0
  0
LINE
  5
28460
330
747D
100
AcDbEntity
  8
細線
 48
50.0
100
AcDbLine
 10
5925.98387526359
 20
7472.06586312958
 30
0.0
 11
5948.6
 21
7494.681987865998
 31
0.0
  0
LINE
  5
28461
330
747D
100
AcDbEntity
  8
細線
 48
50.0
100
AcDbLine
 10
5791.280033447538
 20
7472.06586312958
 30
0.0
 11
5948.599999999997
 21
7629.385829682042
 31
0.0
  0
LINE
  5
28462
330
747D
100
AcDbEntity
  8
細線
 48
50.0
100
AcDbLine
 10
5836.181314052897
 20
7472.065863129583
 30
0.0
 11
5948.6
 21
7584.4845490767
 31
0.0
  0
LINE
  5
28463
330
747D
100
AcDbEntity
  8
細線
 48
50.0
100
AcDbLine
 10
5748.599999999997
 20
7653.892232708772
 30
0.0
 11
5766.773630420811
 21
7672.065863129585
 31
0.0
  0
LINE
  5
28464
330
747D
100
AcDbEntity
  8
細線
 48
50.0
100
AcDbLine
 10
6698.599999999996
 20
7608.990952103429
 30
0.0
 11
6761.674911026156
 21
7672.065863129585
 31
0.0
  0
LINE
  5
28465
330
747D
100
AcDbEntity
  8
部品1
 48
50.0
100
AcDbLine
 10
6698.599999999995
 20
7672.065863129585
 30
0.0
 11
6698.600000000002
 21
7472.065863129585
 31
0.0
  0
LINE
  5
28466
330
747D
100
AcDbEntity
  8
センター
 48
2.0
100
AcDbLine
 10
6155.6
 20
7549.065863129584
 30
0.0
 11
6255.600000000001
 21
7549.065863129584
 31
0.0
  0
CIRCLE
  5
28467
330
747D
100
AcDbEntity
  8
部品1
 48
50.0
100
AcDbCircle
 10
6205.6
 20
7549.065863129584
 30
0.0
 40
35.0
  0
LINE
  5
28468
330
747D
100
AcDbEntity
  8
センター
 48
2.0
100
AcDbLine
 10
6205.6
 20
7599.065863129585
 30
0.0
 11
6205.6
 21
7499.065863129584
 31
0.0
  0
LINE
  5
28469
330
747D
100
AcDbEntity
  8
細線
 48
50.0
100
AcDbLine
 10
6698.599999999996
 20
7653.892232708772
 30
0.0
 11
6716.77363042081
 21
7672.065863129585
 31
0.0
  0
LINE
  5
2846A
330
747D
100
AcDbEntity
  8
部品1
 48
50.0
100
AcDbLine
 10
6898.599999999994
 20
7672.065863129585
 30
0.0
 11
6898.600000000001
 21
7472.065863129585
 31
0.0
  0
LINE
  5
2846B
330
747D
100
AcDbEntity
  8
細線
 48
50.0
100
AcDbLine
 10
6831.082594658235
 20
7472.065863129583
 30
0.0
 11
6898.6
 21
7539.583268471348
 31
0.0
  0
LINE
  5
2846C
330
747D
100
AcDbEntity
  8
細線
 48
50.0
100
AcDbLine
 10
6875.98387526359
 20
7472.06586312958
 30
0.0
 11
6898.6
 21
7494.681987865998
 31
0.0
  0
LINE
  5
2846D
330
747D
100
AcDbEntity
  8
細線
 48
50.0
100
AcDbLine
 10
7648.599999999998
 20
7608.990952103429
 30
0.0
 11
7711.674911026157
 21
7672.065863129585
 31
0.0
  0
LINE
  5
2846E
330
747D
100
AcDbEntity
  8
部品1
 48
50.0
100
AcDbLine
 10
7648.599999999994
 20
7672.065863129585
 30
0.0
 11
7648.600000000001
 21
7472.065863129585
 31
0.0
  0
LINE
  5
2846F
330
747D
100
AcDbEntity
  8
部品1
 48
50.0
100
AcDbLine
 10
7848.599999999994
 20
7672.065863129585
 30
0.0
 11
7848.600000000002
 21
7472.065863129585
 31
0.0
  0
LINE
  5
28470
330
747D
100
AcDbEntity
  8
細線
 48
50.0
100
AcDbLine
 10
7648.600000000001
 20
7474.287110287395
 30
0.0
 11
7846.378752842195
 21
7672.065863129585
 31
0.0
  0
LINE
  5
28471
330
747D
100
AcDbEntity
  8
細線
 48
50.0
100
AcDbLine
 10
7648.6
 20
7519.188390892733
 30
0.0
 11
7801.477472236847
 21
7672.065863129585
 31
0.0
  0
LINE
  5
28472
330
747D
100
AcDbEntity
  8
細線
 48
50.0
100
AcDbLine
 10
7648.599999999999
 20
7564.089671498081
 30
0.0
 11
7756.576191631502
 21
7672.065863129585
 31
0.0
  0
LINE
  5
28473
330
747D
100
AcDbEntity
  8
細線
 48
50.0
100
AcDbLine
 10
7825.98387526359
 20
7472.06586312958
 30
0.0
 11
7848.600000000001
 21
7494.681987865998
 31
0.0
  0
LINE
  5
28474
330
747D
100
AcDbEntity
  8
細線
 48
50.0
100
AcDbLine
 10
7781.082594658236
 20
7472.065863129583
 30
0.0
 11
7848.600000000001
 21
7539.583268471348
 31
0.0
  0
LINE
  5
28475
330
747D
100
AcDbEntity
  8
細線
 48
50.0
100
AcDbLine
 10
7736.181314052898
 20
7472.065863129583
 30
0.0
 11
7848.600000000001
 21
7584.4845490767
 31
0.0
  0
LINE
  5
28476
330
747D
100
AcDbEntity
  8
細線
 48
50.0
100
AcDbLine
 10
7691.280033447537
 20
7472.06586312958
 30
0.0
 11
7848.599999999997
 21
7629.385829682042
 31
0.0
  0
LINE
  5
28477
330
747D
100
AcDbEntity
  8
センター
 48
2.0
100
AcDbLine
 10
8055.600000000001
 20
7549.065863129584
 30
0.0
 11
8155.600000000001
 21
7549.065863129584
 31
0.0
  0
LINE
  5
28478
330
747D
100
AcDbEntity
  8
センター
 48
2.0
100
AcDbLine
 10
8105.6
 20
7599.065863129585
 30
0.0
 11
8105.6
 21
7499.065863129584
 31
0.0
  0
CIRCLE
  5
28479
330
747D
100
AcDbEntity
  8
部品1
 48
50.0
100
AcDbCircle
 10
8105.6
 20
7549.065863129584
 30
0.0
 40
35.0
  0
LINE
  5
2847A
330
747D
100
AcDbEntity
  8
細線
 48
50.0
100
AcDbLine
 10
7648.599999999998
 20
7653.892232708772
 30
0.0
 11
7666.77363042081
 21
7672.065863129585
 31
0.0
  0
DIMENSION
  5
2847B
330
747D
100
AcDbEntity
  8
寸法
 48
50.0
100
AcDbDimension
  2
*D46
 10
11073.60000000001
 20
8154.674679799835
 30
0.0
 11
11548.60000000001
 21
8254.674679799835
 31
0.0
 70
    32
 71
     5
 42
950.0
  3
INABA_S40G
100
AcDbAlignedDimension
 13
12023.6
 23
6989.065863129585
 33
0.0
 14
11073.60000000001
 24
6989.065863129585
 34
0.0
100
AcDbRotatedDimension
1001
ACAD
1000
DSTYLE
1002
{
1070
   341
1005
0
1002
}
  0
DIMENSION
  5
2847C
330
747D
100
AcDbEntity
  8
寸法
 48
50.0
100
AcDbDimension
  2
*D47
 10
12023.6
 20
8154.674679799835
 30
0.0
 11
12501.1
 21
8254.674679799835
 31
0.0
 70
    32
 71
     5
 42
954.9999999999927
  3
INABA_S40G
100
AcDbAlignedDimension
 13
12978.6
 23
7672.065863129585
 33
0.0
 14
12023.6
 24
6989.065863129585
 34
0.0
100
AcDbRotatedDimension
1001
ACAD
1000
DSTYLE
1002
{
1070
   341
1005
0
1002
}
  0
LINE
  5
2847F
102
{ACAD_REACTORS
330
28DEB
102
}
330
747D
100
AcDbEntity
  8
部品1
 48
50.0
100
AcDbLine
 10
12978.6
 20
6132.065863129603
 30
0.0
 11
12978.6
 21
7672.065863129585
 31
0.0
  0
DIMENSION
  5
28480
330
747D
100
AcDbEntity
  8
寸法
 48
50.0
100
AcDbDimension
  2
*D48
 10
9173.600000000007
 20
8154.674679799835
 30
0.0
 11
9648.600000000008
 21
8254.674679799835
 31
0.0
 70
    32
 71
     5
 42
950.0
  3
INABA_S40G
100
AcDbAlignedDimension
 13
10123.60000000001
 23
6989.065863129585
 33
0.0
 14
9173.600000000007
 24
6989.065863129585
 34
0.0
100
AcDbRotatedDimension
1001
ACAD
1000
DSTYLE
1002
{
1070
   341
1005
0
1002
}
  0
DIMENSION
  5
28481
330
747D
100
AcDbEntity
  8
寸法
 48
50.0
100
AcDbDimension
  2
*D49
 10
10123.60000000001
 20
8154.674679799835
 30
0.0
 11
10598.60000000001
 21
8254.674679799835
 31
0.0
 70
    32
 71
     5
 42
950.0
  3
INABA_S40G
100
AcDbAlignedDimension
 13
11073.60000000001
 23
6989.065863129585
 33
0.0
 14
10123.60000000001
 24
6989.065863129585
 34
0.0
100
AcDbRotatedDimension
1001
ACAD
1000
DSTYLE
1002
{
1070
   341
1005
0
1002
}
  0
LINE
  5
28484
330
747D
100
AcDbEntity
  8
センター
 48
2.0
100
AcDbLine
 10
10073.60000000001
 20
6939.065863129584
 30
0.0
 11
10173.6
 21
6939.065863129584
 31
0.0
  0
LINE
  5
28485
330
747D
100
AcDbEntity
  8
部品1
 48
50.0
100
AcDbLine
 10
10223.60000000001
 20
7039.065863129585
 30
0.0
 11
10023.60000000001
 21
7039.065863129585
 31
0.0
  0
LINE
  5
28486
330
747D
100
AcDbEntity
  8
部品1
 48
50.0
100
AcDbLine
 10
10223.60000000001
 20
6839.065863129585
 30
0.0
 11
10023.60000000001
 21
6839.065863129585
 31
0.0
  0
LINE
  5
28487
330
747D
100
AcDbEntity
  8
部品1
 48
50.0
100
AcDbLine
 10
9273.600000000007
 20
6839.065863129585
 30
0.0
 11
9073.600000000007
 21
6839.065863129585
 31
0.0
  0
LINE
  5
28488
330
747D
100
AcDbEntity
  8
部品1
 48
50.0
100
AcDbLine
 10
9273.600000000007
 20
7039.065863129585
 30
0.0
 11
9073.600000000007
 21
7039.065863129585
 31
0.0
  0
LINE
  5
28495
330
747D
100
AcDbEntity
  8
センター
 48
2.0
100
AcDbLine
 10
9173.600000000007
 20
6989.065863129585
 30
0.0
 11
9173.600000000007
 21
6889.065863129585
 31
0.0
  0
LINE
  5
28496
330
747D
100
AcDbEntity
  8
部品1
 48
50.0
100
AcDbLine
 10
9073.600000000007
 20
6839.065863129585
 30
0.0
 11
9073.600000000007
 21
7039.065863129585
 31
0.0
  0
LINE
  5
28497
330
747D
100
AcDbEntity
  8
センター
 48
2.0
100
AcDbLine
 10
9123.600000000008
 20
6939.065863129584
 30
0.0
 11
9223.600000000008
 21
6939.065863129584
 31
0.0
  0
LINE
  5
284A4
330
747D
100
AcDbEntity
  8
センター
 48
2.0
100
AcDbLine
 10
10005.60000000001
 20
6380.065863129588
 30
0.0
 11
10005.60000000001
 21
6280.065863129588
 31
0.0
  0
LINE
  5
284A5
330
747D
100
AcDbEntity
  8
センター
 48
2.0
100
AcDbLine
 10
9955.600000000009
 20
6330.065863129588
 30
0.0
 11
10055.60000000001
 21
6330.065863129588
 31
0.0
  0
CIRCLE
  5
284A6
330
747D
100
AcDbEntity
  8
部品1
 48
50.0
100
AcDbCircle
 10
10005.60000000001
 20
6330.065863129588
 30
0.0
 40
35.0
  0
LINE
  5
284A7
330
747D
100
AcDbEntity
  8
部品1
 48
50.0
100
AcDbLine
 10
9273.600000000007
 20
6839.065863129585
 30
0.0
 11
9273.600000000007
 21
7039.065863129585
 31
0.0
  0
LINE
  5
284A8
330
747D
100
AcDbEntity
  8
部品1
 48
50.0
100
AcDbLine
 10
10023.60000000001
 20
6839.065863129585
 30
0.0
 11
10023.60000000001
 21
7039.065863129585
 31
0.0
  0
LINE
  5
284B5
330
747D
100
AcDbEntity
  8
センター
 48
2.0
100
AcDbLine
 10
10123.60000000001
 20
6989.065863129585
 30
0.0
 11
10123.60000000001
 21
6889.065863129585
 31
0.0
  0
LINE
  5
284B6
330
747D
100
AcDbEntity
  8
部品1
 48
50.0
100
AcDbLine
 10
10223.60000000001
 20
6839.065863129585
 30
0.0
 11
10223.60000000001
 21
7039.065863129585
 31
0.0
  0
LINE
  5
284C3
330
747D
100
AcDbEntity
  8
部品1
 48
50.0
100
AcDbLine
 10
11173.60000000001
 20
6839.065863129585
 30
0.0
 11
10973.60000000001
 21
6839.065863129585
 31
0.0
  0
LINE
  5
284C4
330
747D
100
AcDbEntity
  8
部品1
 48
50.0
100
AcDbLine
 10
11173.60000000001
 20
7039.065863129585
 30
0.0
 11
10973.60000000001
 21
7039.065863129585
 31
0.0
  0
LINE
  5
284C5
330
747D
100
AcDbEntity
  8
センター
 48
2.0
100
AcDbLine
 10
11023.60000000001
 20
6939.065863129584
 30
0.0
 11
11123.60000000001
 21
6939.065863129584
 31
0.0
  0
LINE
  5
284C6
330
747D
100
AcDbEntity
  8
センター
 48
2.0
100
AcDbLine
 10
11073.60000000001
 20
6989.065863129585
 30
0.0
 11
11073.60000000001
 21
6889.065863129585
 31
0.0
  0
LINE
  5
284C7
330
747D
100
AcDbEntity
  8
部品1
 48
50.0
100
AcDbLine
 10
10973.60000000001
 20
6839.065863129585
 30
0.0
 11
10973.60000000001
 21
7039.065863129585
 31
0.0
  0
LINE
  5
284C8
330
747D
100
AcDbEntity
  8
部品1
 48
50.0
100
AcDbLine
 10
11173.60000000001
 20
6839.065863129585
 30
0.0
 11
11173.60000000001
 21
7039.065863129585
 31
0.0
  0
LINE
  5
284D9
330
747D
100
AcDbEntity
  8
部品1
 48
50.0
100
AcDbLine
 10
12123.6
 20
7039.065863129585
 30
0.0
 11
11923.6
 21
7039.065863129585
 31
0.0
  0
LINE
  5
284DA
330
747D
100
AcDbEntity
  8
部品1
 48
50.0
100
AcDbLine
 10
12123.6
 20
6839.065863129585
 30
0.0
 11
11923.6
 21
6839.065863129585
 31
0.0
  0
LINE
  5
284DB
330
747D
100
AcDbEntity
  8
部品1
 48
50.0
100
AcDbLine
 10
11923.6
 20
6839.065863129585
 30
0.0
 11
11923.6
 21
7039.065863129585
 31
0.0
  0
LINE
  5
284DC
330
747D
100
AcDbEntity
  8
部品1
 48
50.0
100
AcDbLine
 10
12123.6
 20
6839.065863129585
 30
0.0
 11
12123.6
 21
7039.065863129585
 31
0.0
  0
LINE
  5
284DD
330
747D
100
AcDbEntity
  8
センター
 48
2.0
100
AcDbLine
 10
11973.60000000001
 20
6939.065863129584
 30
0.0
 11
12073.60000000001
 21
6939.065863129584
 31
0.0
  0
LINE
  5
284DE
330
747D
100
AcDbEntity
  8
センター
 48
2.0
100
AcDbLine
 10
12023.6
 20
6989.065863129585
 30
0.0
 11
12023.6
 21
6889.065863129585
 31
0.0
  0
CIRCLE
  5
284E1
330
747D
100
AcDbEntity
  8
部品1
 48
50.0
100
AcDbCircle
 10
12855.60000000001
 20
6330.065863129588
 30
0.0
 40
35.0
  0
LINE
  5
284E2
330
747D
100
AcDbEntity
  8
センター
 48
2.0
100
AcDbLine
 10
12855.60000000001
 20
6380.065863129588
 30
0.0
 11
12855.60000000001
 21
6280.065863129588
 31
0.0
  0
LINE
  5
284E3
330
747D
100
AcDbEntity
  8
センター
 48
2.0
100
AcDbLine
 10
12805.60000000001
 20
6330.065863129588
 30
0.0
 11
12905.60000000001
 21
6330.065863129588
 31
0.0
  0
LINE
  5
284E4
102
{ACAD_REACTORS
330
28DEB
102
}
330
747D
100
AcDbEntity
  8
部品1
 48
50.0
100
AcDbLine
 10
12978.59999999998
 20
7027.065863129599
 30
0.0
 11
12858.6
 21
7027.065863129599
 31
0.0
  0
LINE
  5
284E5
102
{ACAD_REACTORS
330
28DEB
102
}
330
747D
100
AcDbEntity
  8
部品1
 48
50.0
100
AcDbLine
 10
12978.59999999998
 20
6827.065863129599
 30
0.0
 11
12858.6
 21
6827.0658631296
 31
0.0
  0
DIMENSION
  5
284E7
330
747D
100
AcDbEntity
  8
寸法
 48
50.0
100
AcDbDimension
  2
*D26
 10
10005.6
 20
8398.332321223497
 30
0.0
 11
11430.6
 21
8498.344132247119
 31
0.0
 70
    32
 71
     5
 42
2850.0
  3
INABA_S40G
100
AcDbAlignedDimension
 13
12855.6
 23
7599.065863129585
 33
0.0
 14
10005.6
 24
7599.065863129585
 34
0.0
100
AcDbRotatedDimension
1001
ACAD
1000
DSTYLE
1002
{
1070
   341
1005
0
1002
}
  0
LINE
  5
284E8
330
747D
100
AcDbEntity
  8
細線
 48
50.0
100
AcDbLine
 10
8598.599999999997
 20
7608.990952103496
 30
0.0
 11
8661.674911026159
 21
7672.065863129654
 31
0.0
  0
LINE
  5
284E9
330
747D
100
AcDbEntity
  8
部品1
 48
50.0
100
AcDbLine
 10
8598.599999999997
 20
7672.065863129654
 30
0.0
 11
8598.600000000004
 21
7472.065863129654
 31
0.0
  0
LINE
  5
284EA
330
747D
100
AcDbEntity
  8
部品1
 48
50.0
100
AcDbLine
 10
8798.599999999998
 20
7672.065863129654
 30
0.0
 11
8798.600000000005
 21
7472.065863129654
 31
0.0
  0
LINE
  5
284EB
330
747D
100
AcDbEntity
  8
細線
 48
50.0
100
AcDbLine
 10
8598.600000000004
 20
7474.287110287463
 30
0.0
 11
8796.378752842194
 21
7672.065863129654
 31
0.0
  0
LINE
  5
284EC
330
747D
100
AcDbEntity
  8
細線
 48
50.0
100
AcDbLine
 10
8598.600000000001
 20
7519.188390892804
 30
0.0
 11
8751.477472236848
 21
7672.065863129654
 31
0.0
  0
LINE
  5
284ED
330
747D
100
AcDbEntity
  8
細線
 48
50.0
100
AcDbLine
 10
8598.600000000001
 20
7564.089671498151
 30
0.0
 11
8706.576191631503
 21
7672.065863129654
 31
0.0
  0
LINE
  5
284EE
330
747D
100
AcDbEntity
  8
細線
 48
50.0
100
AcDbLine
 10
8641.280033447538
 20
7472.06586312965
 30
0.0
 11
8798.599999999998
 21
7629.385829682111
 31
0.0
  0
LINE
  5
284EF
330
747D
100
AcDbEntity
  8
細線
 48
50.0
100
AcDbLine
 10
8775.983875263589
 20
7472.06586312965
 30
0.0
 11
8798.600000000005
 21
7494.681987866066
 31
0.0
  0
LINE
  5
284F0
330
747D
100
AcDbEntity
  8
細線
 48
50.0
100
AcDbLine
 10
8731.082594658236
 20
7472.065863129651
 30
0.0
 11
8798.6
 21
7539.583268471417
 31
0.0
  0
LINE
  5
284F1
330
747D
100
AcDbEntity
  8
細線
 48
50.0
100
AcDbLine
 10
8686.1813140529
 20
7472.065863129651
 30
0.0
 11
8798.6
 21
7584.484549076769
 31
0.0
  0
LINE
  5
284F2
330
747D
100
AcDbEntity
  8
細線
 48
50.0
100
AcDbLine
 10
8598.599999999997
 20
7653.89223270884
 30
0.0
 11
8616.77363042081
 21
7672.065863129654
 31
0.0
  0
LINE
  5
284F3
330
747D
100
AcDbEntity
  8
細線
 48
50.0
100
AcDbLine
 10
9548.599999999998
 20
7608.990952103496
 30
0.0
 11
9611.674911026158
 21
7672.065863129654
 31
0.0
  0
LINE
  5
284F4
330
747D
100
AcDbEntity
  8
細線
 48
50.0
100
AcDbLine
 10
9548.6
 20
7564.089671498151
 30
0.0
 11
9656.576191631504
 21
7672.065863129654
 31
0.0
  0
LINE
  5
284F5
330
747D
100
AcDbEntity
  8
細線
 48
50.0
100
AcDbLine
 10
9548.6
 20
7519.188390892804
 30
0.0
 11
9701.477472236847
 21
7672.065863129654
 31
0.0
  0
LINE
  5
284F6
330
747D
100
AcDbEntity
  8
細線
 48
50.0
100
AcDbLine
 10
9548.600000000005
 20
7474.287110287463
 30
0.0
 11
9746.378752842195
 21
7672.065863129654
 31
0.0
  0
LINE
  5
284F7
330
747D
100
AcDbEntity
  8
部品1
 48
50.0
100
AcDbLine
 10
9748.599999999997
 20
7672.065863129654
 30
0.0
 11
9748.600000000005
 21
7472.065863129654
 31
0.0
  0
LINE
  5
284F8
330
747D
100
AcDbEntity
  8
部品1
 48
50.0
100
AcDbLine
 10
9548.599999999998
 20
7672.065863129654
 30
0.0
 11
9548.600000000005
 21
7472.065863129654
 31
0.0
  0
LINE
  5
284F9
330
747D
100
AcDbEntity
  8
細線
 48
50.0
100
AcDbLine
 10
9591.280033447537
 20
7472.06586312965
 30
0.0
 11
9748.599999999997
 21
7629.385829682111
 31
0.0
  0
LINE
  5
284FA
330
747D
100
AcDbEntity
  8
細線
 48
50.0
100
AcDbLine
 10
9636.181314052899
 20
7472.065863129651
 30
0.0
 11
9748.600000000001
 21
7584.484549076769
 31
0.0
  0
LINE
  5
284FB
330
747D
100
AcDbEntity
  8
細線
 48
50.0
100
AcDbLine
 10
9681.082594658235
 20
7472.065863129651
 30
0.0
 11
9748.600000000001
 21
7539.583268471417
 31
0.0
  0
LINE
  5
284FC
330
747D
100
AcDbEntity
  8
細線
 48
50.0
100
AcDbLine
 10
9725.98387526359
 20
7472.06586312965
 30
0.0
 11
9748.600000000005
 21
7494.681987866066
 31
0.0
  0
LINE
  5
284FD
330
747D
100
AcDbEntity
  8
センター
 48
2.0
100
AcDbLine
 10
10005.6
 20
7599.065863129585
 30
0.0
 11
10005.6
 21
7499.065863129584
 31
0.0
  0
CIRCLE
  5
284FE
330
747D
100
AcDbEntity
  8
部品1
 48
50.0
100
AcDbCircle
 10
10005.6
 20
7549.065863129584
 30
0.0
 40
35.0
  0
LINE
  5
284FF
330
747D
100
AcDbEntity
  8
センター
 48
2.0
100
AcDbLine
 10
9955.600000000002
 20
7549.065863129584
 30
0.0
 11
10055.6
 21
7549.065863129584
 31
0.0
  0
LINE
  5
28500
330
747D
100
AcDbEntity
  8
細線
 48
50.0
100
AcDbLine
 10
9548.599999999998
 20
7653.89223270884
 30
0.0
 11
9566.77363042081
 21
7672.065863129654
 31
0.0
  0
LINE
  5
28501
330
747D
100
AcDbEntity
  8
部品1
 48
50.0
100
AcDbLine
 10
10698.6
 20
7672.065863129654
 30
0.0
 11
10698.6
 21
7472.065863129654
 31
0.0
  0
LINE
  5
28502
330
747D
100
AcDbEntity
  8
細線
 48
50.0
100
AcDbLine
 10
10498.6
 20
7608.990952103496
 30
0.0
 11
10561.67491102615
 21
7672.065863129654
 31
0.0
  0
LINE
  5
28503
330
747D
100
AcDbEntity
  8
部品1
 48
50.0
100
AcDbLine
 10
10498.6
 20
7672.065863129654
 30
0.0
 11
10498.6
 21
7472.065863129654
 31
0.0
  0
LINE
  5
28504
330
747D
100
AcDbEntity
  8
細線
 48
50.0
100
AcDbLine
 10
10498.6
 20
7474.287110287463
 30
0.0
 11
10696.37875284219
 21
7672.065863129654
 31
0.0
  0
LINE
  5
28505
330
747D
100
AcDbEntity
  8
細線
 48
50.0
100
AcDbLine
 10
10498.6
 20
7519.188390892804
 30
0.0
 11
10651.47747223684
 21
7672.065863129654
 31
0.0
  0
LINE
  5
28506
330
747D
100
AcDbEntity
  8
細線
 48
50.0
100
AcDbLine
 10
10498.6
 20
7564.089671498151
 30
0.0
 11
10606.5761916315
 21
7672.065863129654
 31
0.0
  0
LINE
  5
28507
330
747D
100
AcDbEntity
  8
細線
 48
50.0
100
AcDbLine
 10
10675.98387526359
 20
7472.06586312965
 30
0.0
 11
10698.6
 21
7494.681987866066
 31
0.0
  0
LINE
  5
28508
330
747D
100
AcDbEntity
  8
細線
 48
50.0
100
AcDbLine
 10
10631.08259465823
 20
7472.065863129651
 30
0.0
 11
10698.6
 21
7539.583268471417
 31
0.0
  0
LINE
  5
28509
330
747D
100
AcDbEntity
  8
細線
 48
50.0
100
AcDbLine
 10
10586.1813140529
 20
7472.065863129651
 30
0.0
 11
10698.6
 21
7584.484549076769
 31
0.0
  0
LINE
  5
2850A
330
747D
100
AcDbEntity
  8
細線
 48
50.0
100
AcDbLine
 10
10541.28003344753
 20
7472.06586312965
 30
0.0
 11
10698.6
 21
7629.385829682111
 31
0.0
  0
LINE
  5
2850B
330
747D
100
AcDbEntity
  8
細線
 48
50.0
100
AcDbLine
 10
10498.6
 20
7653.89223270884
 30
0.0
 11
10516.77363042081
 21
7672.065863129654
 31
0.0
  0
LINE
  5
2850C
330
747D
100
AcDbEntity
  8
部品1
 48
50.0
100
AcDbLine
 10
11648.6
 20
7672.065863129654
 30
0.0
 11
11648.6
 21
7472.065863129654
 31
0.0
  0
LINE
  5
2850D
330
747D
100
AcDbEntity
  8
細線
 48
50.0
100
AcDbLine
 10
11448.59999999999
 20
7608.990952103496
 30
0.0
 11
11511.67491102615
 21
7672.065863129654
 31
0.0
  0
LINE
  5
2850E
330
747D
100
AcDbEntity
  8
部品1
 48
50.0
100
AcDbLine
 10
11448.59999999999
 20
7672.065863129654
 30
0.0
 11
11448.6
 21
7472.065863129654
 31
0.0
  0
LINE
  5
2850F
330
747D
100
AcDbEntity
  8
細線
 48
50.0
100
AcDbLine
 10
11448.6
 20
7474.287110287463
 30
0.0
 11
11646.37875284219
 21
7672.065863129654
 31
0.0
  0
LINE
  5
28510
330
747D
100
AcDbEntity
  8
細線
 48
50.0
100
AcDbLine
 10
11448.6
 20
7519.188390892804
 30
0.0
 11
11601.47747223684
 21
7672.065863129654
 31
0.0
  0
LINE
  5
28511
330
747D
100
AcDbEntity
  8
細線
 48
50.0
100
AcDbLine
 10
11448.6
 20
7564.089671498151
 30
0.0
 11
11556.5761916315
 21
7672.065863129654
 31
0.0
  0
LINE
  5
28512
330
747D
100
AcDbEntity
  8
細線
 48
50.0
100
AcDbLine
 10
11491.28003344753
 20
7472.06586312965
 30
0.0
 11
11648.6
 21
7629.385829682111
 31
0.0
  0
LINE
  5
28513
330
747D
100
AcDbEntity
  8
細線
 48
50.0
100
AcDbLine
 10
11536.1813140529
 20
7472.065863129651
 30
0.0
 11
11648.6
 21
7584.484549076769
 31
0.0
  0
LINE
  5
28514
330
747D
100
AcDbEntity
  8
細線
 48
50.0
100
AcDbLine
 10
11625.98387526359
 20
7472.06586312965
 30
0.0
 11
11648.6
 21
7494.681987866066
 31
0.0
  0
LINE
  5
28515
330
747D
100
AcDbEntity
  8
細線
 48
50.0
100
AcDbLine
 10
11581.08259465823
 20
7472.065863129651
 30
0.0
 11
11648.6
 21
7539.583268471417
 31
0.0
  0
LINE
  5
28516
330
747D
100
AcDbEntity
  8
細線
 48
50.0
100
AcDbLine
 10
11448.59999999999
 20
7653.89223270884
 30
0.0
 11
11466.77363042081
 21
7672.065863129654
 31
0.0
  0
DIMENSION
  5
28518
330
747D
100
AcDbEntity
  8
寸法
 48
50.0
100
AcDbDimension
  2
*D27
 10
12855.6
 20
8398.332321223497
 30
0.0
 11
13251.7066017178
 21
8398.332321223497
 31
0.0
 70
   160
 71
     5
 42
123.0
  3
INABA_S40G
100
AcDbAlignedDimension
 13
12978.6
 23
7672.065863129585
 33
0.0
 14
12855.6
 24
7599.065863129585
 34
0.0
100
AcDbRotatedDimension
1001
ACAD
1000
DSTYLE
1002
{
1070
   341
1005
0
1002
}
  0
LINE
  5
2851A
330
747D
100
AcDbEntity
  8
細線
 48
50.0
100
AcDbLine
 10
12486.1813140529
 20
7472.065863129651
 30
0.0
 11
12598.6
 21
7584.484549076769
 31
0.0
  0
LINE
  5
2851B
330
747D
100
AcDbEntity
  8
細線
 48
50.0
100
AcDbLine
 10
12531.08259465823
 20
7472.065863129651
 30
0.0
 11
12598.6
 21
7539.583268471417
 31
0.0
  0
LINE
  5
2851C
330
747D
100
AcDbEntity
  8
細線
 48
50.0
100
AcDbLine
 10
12398.6
 20
7519.188390892804
 30
0.0
 11
12551.47747223684
 21
7672.065863129654
 31
0.0
  0
LINE
  5
2851D
330
747D
100
AcDbEntity
  8
細線
 48
50.0
100
AcDbLine
 10
12398.6
 20
7474.287110287463
 30
0.0
 11
12596.37875284219
 21
7672.065863129654
 31
0.0
  0
LINE
  5
2851E
330
747D
100
AcDbEntity
  8
細線
 48
50.0
100
AcDbLine
 10
12441.28003344754
 20
7472.06586312965
 30
0.0
 11
12598.59999999999
 21
7629.385829682111
 31
0.0
  0
LINE
  5
2851F
330
747D
100
AcDbEntity
  8
細線
 48
50.0
100
AcDbLine
 10
12398.59999999999
 20
7608.990952103496
 30
0.0
 11
12461.67491102615
 21
7672.065863129654
 31
0.0
  0
LINE
  5
28520
330
747D
100
AcDbEntity
  8
細線
 48
50.0
100
AcDbLine
 10
12398.6
 20
7564.089671498151
 30
0.0
 11
12506.5761916315
 21
7672.065863129654
 31
0.0
  0
LINE
  5
28521
330
747D
100
AcDbEntity
  8
部品1
 48
50.0
100
AcDbLine
 10
12398.59999999999
 20
7672.065863129654
 30
0.0
 11
12398.6
 21
7472.065863129654
 31
0.0
  0
LINE
  5
28522
330
747D
100
AcDbEntity
  8
細線
 48
50.0
100
AcDbLine
 10
12398.59999999999
 20
7653.89223270884
 30
0.0
 11
12416.77363042081
 21
7672.065863129654
 31
0.0
  0
LINE
  5
28523
330
747D
100
AcDbEntity
  8
部品1
 48
50.0
100
AcDbLine
 10
12598.59999999999
 20
7672.065863129654
 30
0.0
 11
12598.6
 21
7472.065863129654
 31
0.0
  0
LINE
  5
28524
330
747D
100
AcDbEntity
  8
細線
 48
50.0
100
AcDbLine
 10
12575.98387526359
 20
7472.06586312965
 30
0.0
 11
12598.6
 21
7494.681987866066
 31
0.0
  0
CIRCLE
  5
28525
330
747D
100
AcDbEntity
  8
部品1
 48
50.0
100
AcDbCircle
 10
12855.6
 20
7549.065863129584
 30
0.0
 40
35.0
  0
LINE
  5
28526
330
747D
100
AcDbEntity
  8
センター
 48
2.0
100
AcDbLine
 10
12855.6
 20
7599.065863129585
 30
0.0
 11
12855.6
 21
7499.065863129584
 31
0.0
  0
LINE
  5
28527
330
747D
100
AcDbEntity
  8
センター
 48
2.0
100
AcDbLine
 10
12805.6
 20
7549.065863129584
 30
0.0
 11
12905.6
 21
7549.065863129584
 31
0.0
  0
TEXT
  5
28C54
330
747D
100
AcDbEntity
  8
文字
 62
     7
 48
50.0
100
AcDbText
 10
7479.190274323872
 20
4994.610956163306
 30
0.0
 40
200.0
  1
〈参 考 図〉
  7
STYLE2
100
AcDbText
  0
TEXT
  5
28D24
330
747D
100
AcDbEntity
  8
文字
 62
     7
 48
50.0
100
AcDbText
 10
14267.69561199343
 20
838.2527270729188
 30
0.0
 40
100.0
  1
～一般型・多雪地型・豪雪地型～
  7
STYLE2
100
AcDbText
  0
LINE
  5
28D51
330
747D
100
AcDbEntity
  8
部品1
 48
50.0
100
AcDbLine
 10
12858.6
 20
6412.065863129605
 30
0.0
 11
3588.600000000001
 21
6412.065863129581
 31
0.0
  0
LINE
  5
28D52
330
747D
100
AcDbEntity
  8
細線
 48
50.0
100
AcDbLine
 10
4979.305645554456
 20
6132.065863129606
 30
0.0
 11
4998.6
 21
6151.360217575152
 31
0.0
  0
LINE
  5
28D53
330
747D
100
AcDbEntity
  8
細線
 48
50.0
100
AcDbLine
 10
4934.404364949108
 20
6132.065863129606
 30
0.0
 11
4998.6
 21
6196.261498180494
 31
0.0
  0
LINE
  5
28D54
330
747D
100
AcDbEntity
  8
細線
 48
50.0
100
AcDbLine
 10
4889.503084343764
 20
6132.065863129604
 30
0.0
 11
4998.599999999999
 21
6241.162778785842
 31
0.0
  0
LINE
  5
28D55
330
747D
100
AcDbEntity
  8
部品1
 48
50.0
100
AcDbLine
 10
4998.59999999999
 20
6412.065863129583
 30
0.0
 11
4998.599999999997
 21
6132.065863129606
 31
0.0
  0
LINE
  5
28D56
330
747D
100
AcDbEntity
  8
細線
 48
50.0
100
AcDbLine
 10
4798.599999999991
 20
6355.471743023258
 30
0.0
 11
4855.194120106318
 21
6412.06586312958
 31
0.0
  0
LINE
  5
28D57
330
747D
100
AcDbEntity
  8
細線
 48
50.0
100
AcDbLine
 10
4798.599999999993
 20
6310.570462417914
 30
0.0
 11
4900.095400711659
 21
6412.065863129581
 31
0.0
  0
LINE
  5
28D58
330
747D
100
AcDbEntity
  8
部品1
 48
50.0
100
AcDbLine
 10
4798.599999999987
 20
6412.06586312958
 30
0.0
 11
4798.599999999996
 21
6132.065863129603
 31
0.0
  0
LINE
  5
28D59
330
747D
100
AcDbEntity
  8
細線
 48
50.0
100
AcDbLine
 10
4798.599999999996
 20
6175.866620601875
 30
0.0
 11
4998.599999999991
 21
6375.866620601869
 31
0.0
  0
LINE
  5
28D5A
330
747D
100
AcDbEntity
  8
細線
 48
50.0
100
AcDbLine
 10
4844.601803738415
 20
6132.065863129604
 30
0.0
 11
4998.599999999993
 21
6286.064059391181
 31
0.0
  0
LINE
  5
28D5B
330
747D
100
AcDbEntity
  8
細線
 48
50.0
100
AcDbLine
 10
4799.700523133069
 20
6132.065863129603
 30
0.0
 11
4998.599999999991
 21
6330.965339996526
 31
0.0
  0
LINE
  5
28D5C
330
747D
100
AcDbEntity
  8
細線
 48
50.0
100
AcDbLine
 10
4798.599999999993
 20
6265.669181812565
 30
0.0
 11
4944.996681317008
 21
6412.065863129581
 31
0.0
  0
LINE
  5
28D5D
330
747D
100
AcDbEntity
  8
細線
 48
50.0
100
AcDbLine
 10
4798.599999999995
 20
6220.767901207223
 30
0.0
 11
4989.897961922354
 21
6412.065863129581
 31
0.0
  0
LINE
  5
28D5E
330
747D
100
AcDbEntity
  8
細線
 48
50.0
100
AcDbLine
 10
5929.305645554456
 20
6132.065863129606
 30
0.0
 11
5948.6
 21
6151.360217575152
 31
0.0
  0
LINE
  5
28D5F
330
747D
100
AcDbEntity
  8
細線
 48
50.0
100
AcDbLine
 10
5884.404364949109
 20
6132.065863129606
 30
0.0
 11
5948.6
 21
6196.261498180494
 31
0.0
  0
LINE
  5
28D60
330
747D
100
AcDbEntity
  8
細線
 48
50.0
100
AcDbLine
 10
5839.503084343764
 20
6132.065863129604
 30
0.0
 11
5948.599999999998
 21
6241.162778785842
 31
0.0
  0
LINE
  5
28D61
330
747D
100
AcDbEntity
  8
部品1
 48
50.0
100
AcDbLine
 10
5948.599999999991
 20
6412.065863129583
 30
0.0
 11
5948.599999999997
 21
6132.065863129606
 31
0.0
  0
LINE
  5
28D62
330
747D
100
AcDbEntity
  8
細線
 48
50.0
100
AcDbLine
 10
5748.599999999991
 20
6355.471743023258
 30
0.0
 11
5805.194120106318
 21
6412.06586312958
 31
0.0
  0
LINE
  5
28D63
330
747D
100
AcDbEntity
  8
細線
 48
50.0
100
AcDbLine
 10
5748.599999999993
 20
6310.570462417914
 30
0.0
 11
5850.095400711659
 21
6412.065863129581
 31
0.0
  0
LINE
  5
28D64
330
747D
100
AcDbEntity
  8
部品1
 48
50.0
100
AcDbLine
 10
5748.599999999988
 20
6412.06586312958
 30
0.0
 11
5748.599999999997
 21
6132.065863129603
 31
0.0
  0
LINE
  5
28D65
330
747D
100
AcDbEntity
  8
細線
 48
50.0
100
AcDbLine
 10
5748.599999999997
 20
6175.866620601875
 30
0.0
 11
5948.599999999991
 21
6375.866620601869
 31
0.0
  0
LINE
  5
28D66
330
747D
100
AcDbEntity
  8
細線
 48
50.0
100
AcDbLine
 10
5794.601803738415
 20
6132.065863129604
 30
0.0
 11
5948.599999999993
 21
6286.064059391181
 31
0.0
  0
LINE
  5
28D67
330
747D
100
AcDbEntity
  8
細線
 48
50.0
100
AcDbLine
 10
5749.70052313307
 20
6132.065863129603
 30
0.0
 11
5948.599999999991
 21
6330.965339996526
 31
0.0
  0
LINE
  5
28D68
330
747D
100
AcDbEntity
  8
細線
 48
50.0
100
AcDbLine
 10
5748.599999999993
 20
6265.669181812565
 30
0.0
 11
5894.996681317008
 21
6412.065863129581
 31
0.0
  0
LINE
  5
28D69
330
747D
100
AcDbEntity
  8
細線
 48
50.0
100
AcDbLine
 10
5748.599999999995
 20
6220.767901207223
 30
0.0
 11
5939.897961922354
 21
6412.065863129581
 31
0.0
  0
LINE
  5
28D6A
330
747D
100
AcDbEntity
  8
細線
 48
50.0
100
AcDbLine
 10
6879.305645554456
 20
6132.065863129606
 30
0.0
 11
6898.6
 21
6151.360217575152
 31
0.0
  0
LINE
  5
28D6B
330
747D
100
AcDbEntity
  8
細線
 48
50.0
100
AcDbLine
 10
6834.404364949108
 20
6132.065863129606
 30
0.0
 11
6898.6
 21
6196.261498180494
 31
0.0
  0
LINE
  5
28D6C
330
747D
100
AcDbEntity
  8
細線
 48
50.0
100
AcDbLine
 10
6789.503084343763
 20
6132.065863129604
 30
0.0
 11
6898.599999999999
 21
6241.162778785842
 31
0.0
  0
LINE
  5
28D6D
330
747D
100
AcDbEntity
  8
部品1
 48
50.0
100
AcDbLine
 10
6898.599999999991
 20
6412.065863129583
 30
0.0
 11
6898.599999999998
 21
6132.065863129606
 31
0.0
  0
LINE
  5
28D6E
330
747D
100
AcDbEntity
  8
細線
 48
50.0
100
AcDbLine
 10
6698.599999999991
 20
6355.471743023258
 30
0.0
 11
6755.194120106319
 21
6412.06586312958
 31
0.0
  0
LINE
  5
28D6F
330
747D
100
AcDbEntity
  8
細線
 48
50.0
100
AcDbLine
 10
6698.599999999993
 20
6310.570462417914
 30
0.0
 11
6800.09540071166
 21
6412.065863129581
 31
0.0
  0
LINE
  5
28D70
330
747D
100
AcDbEntity
  8
部品1
 48
50.0
100
AcDbLine
 10
6698.599999999988
 20
6412.06586312958
 30
0.0
 11
6698.599999999996
 21
6132.065863129603
 31
0.0
  0
LINE
  5
28D71
330
747D
100
AcDbEntity
  8
細線
 48
50.0
100
AcDbLine
 10
6698.599999999996
 20
6175.866620601875
 30
0.0
 11
6898.599999999992
 21
6375.866620601869
 31
0.0
  0
LINE
  5
28D72
330
747D
100
AcDbEntity
  8
細線
 48
50.0
100
AcDbLine
 10
6744.601803738415
 20
6132.065863129604
 30
0.0
 11
6898.599999999993
 21
6286.064059391181
 31
0.0
  0
LINE
  5
28D73
330
747D
100
AcDbEntity
  8
細線
 48
50.0
100
AcDbLine
 10
6699.700523133069
 20
6132.065863129603
 30
0.0
 11
6898.599999999992
 21
6330.965339996526
 31
0.0
  0
LINE
  5
28D74
330
747D
100
AcDbEntity
  8
細線
 48
50.0
100
AcDbLine
 10
6698.599999999993
 20
6265.669181812565
 30
0.0
 11
6844.99668131701
 21
6412.065863129581
 31
0.0
  0
LINE
  5
28D75
330
747D
100
AcDbEntity
  8
細線
 48
50.0
100
AcDbLine
 10
6698.599999999995
 20
6220.767901207223
 30
0.0
 11
6889.897961922354
 21
6412.065863129581
 31
0.0
  0
LINE
  5
28D76
330
747D
100
AcDbEntity
  8
細線
 48
50.0
100
AcDbLine
 10
7829.305645554455
 20
6132.065863129606
 30
0.0
 11
7848.600000000001
 21
6151.360217575152
 31
0.0
  0
LINE
  5
28D77
330
747D
100
AcDbEntity
  8
細線
 48
50.0
100
AcDbLine
 10
7784.404364949108
 20
6132.065863129606
 30
0.0
 11
7848.600000000001
 21
6196.261498180494
 31
0.0
  0
LINE
  5
28D78
330
747D
100
AcDbEntity
  8
細線
 48
50.0
100
AcDbLine
 10
7739.503084343763
 20
6132.065863129604
 30
0.0
 11
7848.599999999999
 21
6241.162778785842
 31
0.0
  0
LINE
  5
28D79
330
747D
100
AcDbEntity
  8
部品1
 48
50.0
100
AcDbLine
 10
7848.59999999999
 20
6412.065863129583
 30
0.0
 11
7848.599999999997
 21
6132.065863129606
 31
0.0
  0
LINE
  5
28D7A
330
747D
100
AcDbEntity
  8
細線
 48
50.0
100
AcDbLine
 10
7648.599999999992
 20
6355.471743023258
 30
0.0
 11
7705.194120106319
 21
6412.06586312958
 31
0.0
  0
LINE
  5
28D7B
330
747D
100
AcDbEntity
  8
細線
 48
50.0
100
AcDbLine
 10
7648.599999999993
 20
6310.570462417914
 30
0.0
 11
7750.095400711661
 21
6412.065863129581
 31
0.0
  0
LINE
  5
28D7C
330
747D
100
AcDbEntity
  8
部品1
 48
50.0
100
AcDbLine
 10
7648.599999999987
 20
6412.06586312958
 30
0.0
 11
7648.599999999998
 21
6132.065863129603
 31
0.0
  0
LINE
  5
28D7D
330
747D
100
AcDbEntity
  8
細線
 48
50.0
100
AcDbLine
 10
7648.599999999998
 20
6175.866620601875
 30
0.0
 11
7848.599999999992
 21
6375.866620601869
 31
0.0
  0
LINE
  5
28D7E
330
747D
100
AcDbEntity
  8
細線
 48
50.0
100
AcDbLine
 10
7694.601803738414
 20
6132.065863129604
 30
0.0
 11
7848.599999999994
 21
6286.064059391181
 31
0.0
  0
LINE
  5
28D7F
330
747D
100
AcDbEntity
  8
細線
 48
50.0
100
AcDbLine
 10
7649.70052313307
 20
6132.065863129603
 30
0.0
 11
7848.599999999992
 21
6330.965339996526
 31
0.0
  0
LINE
  5
28D80
330
747D
100
AcDbEntity
  8
細線
 48
50.0
100
AcDbLine
 10
7648.599999999993
 20
6265.669181812565
 30
0.0
 11
7794.996681317009
 21
6412.065863129581
 31
0.0
  0
LINE
  5
28D81
330
747D
100
AcDbEntity
  8
細線
 48
50.0
100
AcDbLine
 10
7648.599999999994
 20
6220.767901207223
 30
0.0
 11
7839.897961922353
 21
6412.065863129581
 31
0.0
  0
LINE
  5
28D82
330
747D
100
AcDbEntity
  8
細線
 48
50.0
100
AcDbLine
 10
8779.305645554456
 20
6132.065863129606
 30
0.0
 11
8798.6
 21
6151.360217575152
 31
0.0
  0
LINE
  5
28D83
330
747D
100
AcDbEntity
  8
細線
 48
50.0
100
AcDbLine
 10
8734.404364949108
 20
6132.065863129606
 30
0.0
 11
8798.6
 21
6196.261498180494
 31
0.0
  0
LINE
  5
28D84
330
747D
100
AcDbEntity
  8
細線
 48
50.0
100
AcDbLine
 10
8689.503084343764
 20
6132.065863129604
 30
0.0
 11
8798.599999999998
 21
6241.162778785842
 31
0.0
  0
LINE
  5
28D85
330
747D
100
AcDbEntity
  8
部品1
 48
50.0
100
AcDbLine
 10
8798.599999999991
 20
6412.065863129583
 30
0.0
 11
8798.599999999998
 21
6132.065863129606
 31
0.0
  0
LINE
  5
28D86
330
747D
100
AcDbEntity
  8
細線
 48
50.0
100
AcDbLine
 10
8598.599999999992
 20
6355.471743023258
 30
0.0
 11
8655.194120106319
 21
6412.06586312958
 31
0.0
  0
LINE
  5
28D87
330
747D
100
AcDbEntity
  8
細線
 48
50.0
100
AcDbLine
 10
8598.599999999994
 20
6310.570462417914
 30
0.0
 11
8700.09540071166
 21
6412.065863129581
 31
0.0
  0
LINE
  5
28D88
330
747D
100
AcDbEntity
  8
部品1
 48
50.0
100
AcDbLine
 10
8598.599999999988
 20
6412.06586312958
 30
0.0
 11
8598.599999999997
 21
6132.065863129603
 31
0.0
  0
LINE
  5
28D89
330
747D
100
AcDbEntity
  8
細線
 48
50.0
100
AcDbLine
 10
8598.599999999997
 20
6175.866620601875
 30
0.0
 11
8798.599999999991
 21
6375.866620601869
 31
0.0
  0
LINE
  5
28D8A
330
747D
100
AcDbEntity
  8
細線
 48
50.0
100
AcDbLine
 10
8644.601803738416
 20
6132.065863129604
 30
0.0
 11
8798.599999999993
 21
6286.064059391181
 31
0.0
  0
LINE
  5
28D8B
330
747D
100
AcDbEntity
  8
細線
 48
50.0
100
AcDbLine
 10
8599.700523133071
 20
6132.065863129603
 30
0.0
 11
8798.599999999991
 21
6330.965339996526
 31
0.0
  0
LINE
  5
28D8C
330
747D
100
AcDbEntity
  8
細線
 48
50.0
100
AcDbLine
 10
8598.599999999994
 20
6265.669181812565
 30
0.0
 11
8744.99668131701
 21
6412.065863129581
 31
0.0
  0
LINE
  5
28D8D
330
747D
100
AcDbEntity
  8
細線
 48
50.0
100
AcDbLine
 10
8598.599999999995
 20
6220.767901207223
 30
0.0
 11
8789.897961922354
 21
6412.065863129581
 31
0.0
  0
LINE
  5
28D8E
330
747D
100
AcDbEntity
  8
細線
 48
50.0
100
AcDbLine
 10
9729.305645554456
 20
6132.065863129606
 30
0.0
 11
9748.600000000001
 21
6151.360217575152
 31
0.0
  0
LINE
  5
28D8F
330
747D
100
AcDbEntity
  8
細線
 48
50.0
100
AcDbLine
 10
9684.404364949109
 20
6132.065863129606
 30
0.0
 11
9748.600000000001
 21
6196.261498180494
 31
0.0
  0
LINE
  5
28D90
330
747D
100
AcDbEntity
  8
細線
 48
50.0
100
AcDbLine
 10
9639.503084343765
 20
6132.065863129604
 30
0.0
 11
9748.599999999999
 21
6241.162778785842
 31
0.0
  0
LINE
  5
28D91
330
747D
100
AcDbEntity
  8
部品1
 48
50.0
100
AcDbLine
 10
9748.599999999992
 20
6412.065863129583
 30
0.0
 11
9748.599999999997
 21
6132.065863129606
 31
0.0
  0
LINE
  5
28D92
330
747D
100
AcDbEntity
  8
細線
 48
50.0
100
AcDbLine
 10
9548.599999999991
 20
6355.471743023258
 30
0.0
 11
9605.194120106318
 21
6412.06586312958
 31
0.0
  0
LINE
  5
28D93
330
747D
100
AcDbEntity
  8
細線
 48
50.0
100
AcDbLine
 10
9548.599999999993
 20
6310.570462417914
 30
0.0
 11
9650.095400711661
 21
6412.065863129581
 31
0.0
  0
LINE
  5
28D94
330
747D
100
AcDbEntity
  8
部品1
 48
50.0
100
AcDbLine
 10
9548.599999999987
 20
6412.06586312958
 30
0.0
 11
9548.599999999998
 21
6132.065863129603
 31
0.0
  0
LINE
  5
28D95
330
747D
100
AcDbEntity
  8
細線
 48
50.0
100
AcDbLine
 10
9548.599999999998
 20
6175.866620601875
 30
0.0
 11
9748.599999999992
 21
6375.866620601869
 31
0.0
  0
LINE
  5
28D96
330
747D
100
AcDbEntity
  8
細線
 48
50.0
100
AcDbLine
 10
9594.601803738415
 20
6132.065863129604
 30
0.0
 11
9748.599999999994
 21
6286.064059391181
 31
0.0
  0
LINE
  5
28D97
330
747D
100
AcDbEntity
  8
細線
 48
50.0
100
AcDbLine
 10
9549.70052313307
 20
6132.065863129603
 30
0.0
 11
9748.599999999992
 21
6330.965339996526
 31
0.0
  0
LINE
  5
28D98
330
747D
100
AcDbEntity
  8
細線
 48
50.0
100
AcDbLine
 10
9548.599999999993
 20
6265.669181812565
 30
0.0
 11
9694.996681317009
 21
6412.065863129581
 31
0.0
  0
LINE
  5
28D99
330
747D
100
AcDbEntity
  8
細線
 48
50.0
100
AcDbLine
 10
9548.599999999995
 20
6220.767901207223
 30
0.0
 11
9739.897961922354
 21
6412.065863129581
 31
0.0
  0
LINE
  5
28D9A
330
747D
100
AcDbEntity
  8
細線
 48
50.0
100
AcDbLine
 10
10679.30564555445
 20
6132.065863129606
 30
0.0
 11
10698.6
 21
6151.360217575152
 31
0.0
  0
LINE
  5
28D9B
330
747D
100
AcDbEntity
  8
細線
 48
50.0
100
AcDbLine
 10
10634.40436494911
 20
6132.065863129606
 30
0.0
 11
10698.6
 21
6196.261498180494
 31
0.0
  0
LINE
  5
28D9C
330
747D
100
AcDbEntity
  8
細線
 48
50.0
100
AcDbLine
 10
10589.50308434376
 20
6132.065863129604
 30
0.0
 11
10698.6
 21
6241.162778785842
 31
0.0
  0
LINE
  5
28D9D
330
747D
100
AcDbEntity
  8
部品1
 48
50.0
100
AcDbLine
 10
10698.59999999999
 20
6412.065863129583
 30
0.0
 11
10698.6
 21
6132.065863129606
 31
0.0
  0
LINE
  5
28D9E
330
747D
100
AcDbEntity
  8
細線
 48
50.0
100
AcDbLine
 10
10498.59999999999
 20
6355.471743023258
 30
0.0
 11
10555.19412010632
 21
6412.06586312958
 31
0.0
  0
LINE
  5
28D9F
330
747D
100
AcDbEntity
  8
細線
 48
50.0
100
AcDbLine
 10
10498.59999999999
 20
6310.570462417914
 30
0.0
 11
10600.09540071166
 21
6412.065863129581
 31
0.0
  0
LINE
  5
28DA0
330
747D
100
AcDbEntity
  8
部品1
 48
50.0
100
AcDbLine
 10
10498.59999999999
 20
6412.06586312958
 30
0.0
 11
10498.6
 21
6132.065863129603
 31
0.0
  0
LINE
  5
28DA1
330
747D
100
AcDbEntity
  8
細線
 48
50.0
100
AcDbLine
 10
10498.6
 20
6175.866620601875
 30
0.0
 11
10698.59999999999
 21
6375.866620601869
 31
0.0
  0
LINE
  5
28DA2
330
747D
100
AcDbEntity
  8
細線
 48
50.0
100
AcDbLine
 10
10544.60180373841
 20
6132.065863129604
 30
0.0
 11
10698.59999999999
 21
6286.064059391181
 31
0.0
  0
LINE
  5
28DA3
330
747D
100
AcDbEntity
  8
細線
 48
50.0
100
AcDbLine
 10
10499.70052313307
 20
6132.065863129603
 30
0.0
 11
10698.59999999999
 21
6330.965339996526
 31
0.0
  0
LINE
  5
28DA4
330
747D
100
AcDbEntity
  8
細線
 48
50.0
100
AcDbLine
 10
10498.59999999999
 20
6265.669181812565
 30
0.0
 11
10644.99668131701
 21
6412.065863129581
 31
0.0
  0
LINE
  5
28DA5
330
747D
100
AcDbEntity
  8
細線
 48
50.0
100
AcDbLine
 10
10498.59999999999
 20
6220.767901207223
 30
0.0
 11
10689.89796192235
 21
6412.065863129581
 31
0.0
  0
LINE
  5
28DA6
330
747D
100
AcDbEntity
  8
細線
 48
50.0
100
AcDbLine
 10
11629.30564555445
 20
6132.065863129606
 30
0.0
 11
11648.6
 21
6151.360217575152
 31
0.0
  0
LINE
  5
28DA7
330
747D
100
AcDbEntity
  8
細線
 48
50.0
100
AcDbLine
 10
11584.40436494911
 20
6132.065863129606
 30
0.0
 11
11648.6
 21
6196.261498180494
 31
0.0
  0
LINE
  5
28DA8
330
747D
100
AcDbEntity
  8
細線
 48
50.0
100
AcDbLine
 10
11539.50308434376
 20
6132.065863129604
 30
0.0
 11
11648.6
 21
6241.162778785842
 31
0.0
  0
LINE
  5
28DA9
330
747D
100
AcDbEntity
  8
部品1
 48
50.0
100
AcDbLine
 10
11648.59999999999
 20
6412.065863129583
 30
0.0
 11
11648.6
 21
6132.065863129606
 31
0.0
  0
LINE
  5
28DAA
330
747D
100
AcDbEntity
  8
細線
 48
50.0
100
AcDbLine
 10
11448.59999999999
 20
6355.471743023258
 30
0.0
 11
11505.19412010632
 21
6412.06586312958
 31
0.0
  0
LINE
  5
28DAB
330
747D
100
AcDbEntity
  8
細線
 48
50.0
100
AcDbLine
 10
11448.59999999999
 20
6310.570462417914
 30
0.0
 11
11550.09540071166
 21
6412.065863129581
 31
0.0
  0
LINE
  5
28DAC
330
747D
100
AcDbEntity
  8
部品1
 48
50.0
100
AcDbLine
 10
11448.59999999999
 20
6412.06586312958
 30
0.0
 11
11448.59999999999
 21
6132.065863129603
 31
0.0
  0
LINE
  5
28DAD
330
747D
100
AcDbEntity
  8
細線
 48
50.0
100
AcDbLine
 10
11448.59999999999
 20
6175.866620601875
 30
0.0
 11
11648.59999999999
 21
6375.866620601869
 31
0.0
  0
LINE
  5
28DAE
330
747D
100
AcDbEntity
  8
細線
 48
50.0
100
AcDbLine
 10
11494.60180373841
 20
6132.065863129604
 30
0.0
 11
11648.59999999999
 21
6286.064059391181
 31
0.0
  0
LINE
  5
28DAF
330
747D
100
AcDbEntity
  8
細線
 48
50.0
100
AcDbLine
 10
11449.70052313307
 20
6132.065863129603
 30
0.0
 11
11648.59999999999
 21
6330.965339996526
 31
0.0
  0
LINE
  5
28DB0
330
747D
100
AcDbEntity
  8
細線
 48
50.0
100
AcDbLine
 10
11448.59999999999
 20
6265.669181812565
 30
0.0
 11
11594.99668131701
 21
6412.065863129581
 31
0.0
  0
LINE
  5
28DB1
330
747D
100
AcDbEntity
  8
細線
 48
50.0
100
AcDbLine
 10
11448.59999999999
 20
6220.767901207223
 30
0.0
 11
11639.89796192235
 21
6412.065863129581
 31
0.0
  0
LINE
  5
28DB2
330
747D
100
AcDbEntity
  8
細線
 48
50.0
100
AcDbLine
 10
12579.30564555445
 20
6132.065863129606
 30
0.0
 11
12598.6
 21
6151.360217575152
 31
0.0
  0
LINE
  5
28DB3
330
747D
100
AcDbEntity
  8
細線
 48
50.0
100
AcDbLine
 10
12534.40436494911
 20
6132.065863129606
 30
0.0
 11
12598.6
 21
6196.261498180494
 31
0.0
  0
LINE
  5
28DB4
330
747D
100
AcDbEntity
  8
細線
 48
50.0
100
AcDbLine
 10
12489.50308434376
 20
6132.065863129604
 30
0.0
 11
12598.6
 21
6241.162778785842
 31
0.0
  0
LINE
  5
28DB5
330
747D
100
AcDbEntity
  8
部品1
 48
50.0
100
AcDbLine
 10
12598.59999999999
 20
6412.065863129583
 30
0.0
 11
12598.59999999999
 21
6132.065863129606
 31
0.0
  0
LINE
  5
28DB6
330
747D
100
AcDbEntity
  8
細線
 48
50.0
100
AcDbLine
 10
12398.59999999999
 20
6355.471743023258
 30
0.0
 11
12455.19412010632
 21
6412.06586312958
 31
0.0
  0
LINE
  5
28DB7
330
747D
100
AcDbEntity
  8
細線
 48
50.0
100
AcDbLine
 10
12398.59999999999
 20
6310.570462417914
 30
0.0
 11
12500.09540071166
 21
6412.065863129581
 31
0.0
  0
LINE
  5
28DB8
330
747D
100
AcDbEntity
  8
部品1
 48
50.0
100
AcDbLine
 10
12398.59999999999
 20
6412.06586312958
 30
0.0
 11
12398.59999999999
 21
6132.065863129603
 31
0.0
  0
LINE
  5
28DB9
330
747D
100
AcDbEntity
  8
細線
 48
50.0
100
AcDbLine
 10
12398.59999999999
 20
6175.866620601875
 30
0.0
 11
12598.59999999999
 21
6375.866620601869
 31
0.0
  0
LINE
  5
28DBA
330
747D
100
AcDbEntity
  8
細線
 48
50.0
100
AcDbLine
 10
12444.60180373841
 20
6132.065863129604
 30
0.0
 11
12598.59999999999
 21
6286.064059391181
 31
0.0
  0
LINE
  5
28DBB
330
747D
100
AcDbEntity
  8
細線
 48
50.0
100
AcDbLine
 10
12399.70052313307
 20
6132.065863129603
 30
0.0
 11
12598.59999999999
 21
6330.965339996526
 31
0.0
  0
LINE
  5
28DBC
330
747D
100
AcDbEntity
  8
細線
 48
50.0
100
AcDbLine
 10
12398.59999999999
 20
6265.669181812565
 30
0.0
 11
12544.99668131701
 21
6412.065863129581
 31
0.0
  0
LINE
  5
28DBD
330
747D
100
AcDbEntity
  8
細線
 48
50.0
100
AcDbLine
 10
12398.59999999999
 20
6220.767901207223
 30
0.0
 11
12589.89796192235
 21
6412.065863129581
 31
0.0
  0
LINE
  5
28DDB
102
{ACAD_REACTORS
330
28DEB
102
}
330
747D
100
AcDbEntity
  8
部品1
 48
50.0
100
AcDbLine
 10
12858.6
 20
6412.065863129605
 30
0.0
 11
12858.6
 21
7472.065863129585
 31
0.0
  0
LINE
  5
28DDC
102
{ACAD_REACTORS
330
28DF4
102
}
330
747D
100
AcDbEntity
  8
部品1
 48
50.0
100
AcDbLine
 10
3588.600000000002
 20
6412.06586312958
 30
0.0
 11
3588.599999999997
 21
7472.065863129585
 31
0.0
  0
HATCH
  5
28DEB
330
747D
100
AcDbEntity
  8
細線
 48
50.0
100
AcDbHatch
 10
0.0
 20
0.0
 30
0.0
210
0.0
220
0.0
230
1.0
  2
LINE
 70
     0
 71
     1
 91
        1
 92
        7
 72
     0
 73
     1
 93
        4
 10
12978.6
 20
7027.065863129599
 10
12858.6
 20
7027.065863129599
 10
12858.6
 20
6827.065863129599
 10
12978.6
 20
6827.065863129599
 97
        4
330
284E4
330
28DDB
330
284E5
330
2847F
 75
     0
 76
     1
 52
45.0
 41
10.0
 77
     0
 78
     1
 53
45.0
 43
0.0
 44
0.0
 45
-22.45064030267288
 46
22.45064030267288
 79
     0
 47
2.301740019791172
 98
        1
 10
12901.79216977065
 20
6915.706347522259
  0
HATCH
  5
28DF4
330
747D
100
AcDbEntity
  8
細線
 48
50.0
100
AcDbHatch
 10
0.0
 20
0.0
 30
0.0
210
0.0
220
0.0
230
1.0
  2
LINE
 70
     0
 71
     1
 91
        1
 92
        7
 72
     0
 73
     1
 93
        4
 10
3588.599999999999
 20
7027.065863129603
 10
3468.600000000001
 20
7027.065863129603
 10
3468.600000000001
 20
6827.065863129603
 10
3588.6
 20
6827.065863129603
 97
        4
330
283C8
330
283C5
330
283C9
330
28DDC
 75
     0
 76
     1
 52
45.0
 41
10.0
 77
     0
 78
     1
 53
45.0
 43
0.0
 44
0.0
 45
-22.45064030267288
 46
22.45064030267288
 79
     0
 47
1.418765952909289
 98
        1
 10
3546.687527204209
 20
6926.405656086048
  0
LINE
  5
28F82
330
747D
100
AcDbEntity
  8
部品1
100
AcDbLine
 10
10581.14881541967
 20
3217.10473640286
 30
0.0
 11
4510.163630033418
 21
3217.10473640286
 31
0.0
  0
LINE
  5
28F83
330
747D
100
AcDbEntity
  8
部品1
100
AcDbLine
 10
10581.14881541967
 20
2977.104736402858
 30
0.0
 11
4510.163630033422
 21
2977.104736402858
 31
0.0
  0
LINE
  5
28F84
330
747D
100
AcDbEntity
  8
部品1
100
AcDbLine
 10
4510.163630033424
 20
252.7977668182129
 30
0.0
 11
10581.14881541967
 21
252.7977668182129
 31
0.0
  0
LEADER
  5
28F85
330
747D
100
AcDbEntity
  8
寸法
 48
50.0
100
AcDbLeader
  3
INABA_S50G
 73
     0
 74
     0
 75
     1
 40
102.2727272727273
 41
680.0000000000001
 76
     3
 10
7518.271382019877
 20
2216.641350311417
 30
0.0
 10
7552.625353133233
 20
2627.094161417959
 30
0.0
 10
7677.625353133233
 20
2627.094161417959
 30
0.0
340
28F86
1001
ACAD
1000
DSTYLE
1002
{
1070
   341
1005
0
1070
    40
1040
1.0
1070
   343
1005
0
1070
   344
1005
0
1002
}
  0
MTEXT
  5
28F86
102
{ACAD_REACTORS
330
28F85
102
}
330
747D
100
AcDbEntity
  8
部品1
 62
     7
 48
50.0
100
AcDbMText
 10
7702.625353133233
 20
2703.230525054323
 30
0.0
 40
80.0
 41
0.8
 71
     4
 72
     1
  1
\A1;ナット(市販品)
  7
STYLE2
 73
     1
 44
1.0
1001
ACAD
1000
MTEXTBEGIN
1070
    73
1070
     1
1070
    44
1040
1.0
1070
    74
1070
     0
1000
MTEXTEND
  0
LEADER
  5
28F87
330
747D
100
AcDbEntity
  8
寸法
 48
50.0
100
AcDbLeader
  3
INABA_S50G
 73
     0
 74
     0
 75
     1
 40
102.2727272727273
 41
906.8181818181818
 76
     3
 10
7542.271382019876
 20
2086.889357646555
 30
0.0
 10
7584.142972388716
 20
2442.125078653171
 30
0.0
 10
7709.142972388716
 20
2442.125078653171
 30
0.0
340
28F88
1001
ACAD
1000
DSTYLE
1002
{
1070
   341
1005
0
1070
    40
1040
1.0
1070
   343
1005
0
1070
   344
1005
0
1002
}
  0
MTEXT
  5
28F88
102
{ACAD_REACTORS
330
28F87
102
}
330
747D
100
AcDbEntity
  8
部品1
 62
     7
 48
50.0
100
AcDbMText
 10
7734.142972388716
 20
2518.261442289535
 30
0.0
 40
80.0
 41
0.8
 71
     4
 72
     1
  1
\A1;ワッシャー(市販品)
  7
STYLE2
 73
     1
 44
1.0
1001
ACAD
1000
MTEXTBEGIN
1070
    73
1070
     1
1070
    44
1040
1.0
1070
    74
1070
     0
1000
MTEXTEND
  0
LWPOLYLINE
  5
28F89
330
747D
100
AcDbEntity
  8
部品1
 48
50.0
100
AcDbPolyline
 90
        2
 70
     0
 43
8.0
 10
7694.871382019876
 20
1577.766069202275
 10
7988.573845419262
 20
1577.766069202275
  0
TEXT
  5
28F8A
330
747D
100
AcDbEntity
  8
部品1
 48
50.0
100
AcDbText
 10
7699.224966304304
 20
2173.644749964475
 30
0.0
 40
80.0
  1
基礎ボルト(市販品)
  7
STYLE2
100
AcDbText
  0
DIMENSION
  5
28F8B
330
747D
100
AcDbEntity
  8
寸法
 48
50.0
100
AcDbDimension
  2
*D50
 10
8196.73998178872
 20
1493.766069202274
 30
0.0
 11
8096.73998178872
 21
1655.766069202275
 31
0.0
 70
    32
  1
180
 71
     5
 42
324.0000000000009
  3
INABA_S40G
100
AcDbAlignedDimension
 13
7694.871382019876
 23
1817.766069202274
 33
0.0
 14
7694.871382019876
 24
1493.766069202274
 34
0.0
 50
90.0
100
AcDbRotatedDimension
1001
ACAD
1000
DSTYLE
1002
{
1070
   341
1005
0
1002
}
  0
DIMENSION
  5
28F8C
330
747D
100
AcDbEntity
  8
寸法
 48
50.0
100
AcDbDimension
  2
*D51
 10
8472.794647907747
 20
1817.766069202274
 30
0.0
 11
8472.794647907747
 21
1351.757165780792
 31
0.0
 70
   160
  1
20～25
 71
     5
 42
52.7600000000009
  3
INABA_S40G
100
AcDbAlignedDimension
 13
7507.671382019879
 23
1870.526069202275
 33
0.0
 14
7694.871382019876
 24
1817.766069202274
 34
0.0
 50
90.0
100
AcDbRotatedDimension
1001
ACAD
1000
DSTYLE
1002
{
1070
   341
1005
0
1002
}
  0
MTEXT
  5
28F8D
102
{ACAD_REACTORS
330
28F8E
102
}
330
747D
100
AcDbEntity
  8
部品1
 62
     7
 48
50.0
100
AcDbMText
 10
7703.815844439195
 20
2082.149395355505
 30
0.0
 40
80.0
 41
0.8
 71
     4
 72
     1
  1
M10X160
  7
STYLE2
 73
     1
 44
1.0
1001
ACAD
1000
MTEXTBEGIN
1070
    73
1070
     1
1070
    44
1040
1.0
1070
    74
1070
     0
1000
MTEXTEND
  0
LEADER
  5
28F8E
330
747D
100
AcDbEntity
  8
寸法
 48
50.0
100
AcDbLeader
  3
INABA_S50G
 73
     0
 74
     0
 75
     1
 40
80.0
 41
435.0
 76
     3
 10
7511.271382019877
 20
1866.926069202275
 30
0.0
 10
7553.815844439196
 20
2017.149395355505
 30
0.0
 10
7678.815844439196
 20
2017.149395355505
 30
0.0
340
28F8D
1001
ACAD
1000
DSTYLE
1002
{
1070
   341
1005
0
1070
    40
1040
1.0
1070
   343
1005
0
1070
   344
1005
0
1002
}
  0
LINE
  5
28F8F
330
747D
100
AcDbEntity
  8
部品1
100
AcDbLine
 10
4510.16363003342
 20
3217.10473640286
 30
0.0
 11
4510.163630033422
 21
252.7977668182129
 31
0.0
  0
LEADER
  5
28F90
330
747D
100
AcDbEntity
  8
寸法
 48
50.0
100
AcDbLeader
  3
INABA_S50G
 73
     0
 75
     1
 40
113.1818181818182
 41
608.6363636363635
 76
     3
 10
7471.008132157928
 20
1767.281742560554
 30
0.0
 10
7337.204303466579
 20
2618.660824917031
 30
0.0
 10
7212.204303466579
 20
2618.660824917031
 30
0.0
340
28F91
1001
ACAD
1000
DSTYLE
1002
{
1070
   341
1005
0
1070
    40
1040
1.0
1070
   343
1005
0
1070
   344
1005
0
1002
}
  0
MTEXT
  5
28F91
102
{ACAD_REACTORS
330
28F90
102
}
330
747D
100
AcDbEntity
  8
寸法
 62
     7
 48
50.0
100
AcDbMText
 10
7187.204303466579
 20
2700.25173400794
 30
0.0
 40
80.0
 41
0.8
 71
     6
 72
     1
  1
\A1;φ70スリーブ
  7
STYLE2
 73
     1
 44
1.0
1001
ACAD
1000
MTEXTBEGIN
1070
    73
1070
     1
1070
    44
1040
1.0
1070
    74
1070
     0
1000
MTEXTEND
  0
LWPOLYLINE
  5
28F92
330
747D
100
AcDbEntity
  8
部品1
 48
50.0
100
AcDbPolyline
 90
        2
 70
     0
 43
8.0
 10
5166.692167009727
 20
1577.766069202275
 10
5580.832068842683
 20
1577.766069202275
  0
TEXT
  5
28F93
330
747D
100
AcDbEntity
  8
部品1
 48
50.0
100
AcDbText
 10
5166.692167009727
 20
1589.00506148553
 30
0.0
 40
80.0
  1
▽G.L
  7
STYLE2
100
AcDbText
  0
DIMENSION
  5
28F94
330
747D
100
AcDbEntity
  8
寸法
 48
50.0
100
AcDbDimension
  2
*D52
 10
5310.411755110223
 20
1033.766069202274
 30
0.0
 11
5310.411755110223
 21
1153.766069202275
 31
0.0
 70
   160
  1
150
 71
     5
 42
240.0
  3
INABA_S40G
100
AcDbAlignedDimension
 13
5452.832068842683
 23
1273.766069202274
 33
0.0
 14
5372.832068842686
 24
1033.766069202274
 34
0.0
 50
90.0
100
AcDbRotatedDimension
1001
ACAD
1000
DSTYLE
1002
{
1070
   341
1005
0
1002
}
  0
LEADER
  5
28F95
330
747D
100
AcDbEntity
  8
寸法
 48
50.0
100
AcDbLeader
  3
INABA_S50G
 71
     0
 73
     0
 75
     1
 40
100.0
 41
225.0
 76
     3
 10
5548.735021194826
 20
1153.766069202274
 30
0.0
 10
5426.897042647489
 20
890.2433755838384
 30
0.0
 10
5301.897042647489
 20
890.2433755838384
 30
0.0
1001
ACAD
1000
DSTYLE
1002
{
1070
    40
1040
1.0
1070
   272
1070
     1
1070
   279
1070
     1
1070
   341
1005
0
1002
}
  0
LEADER
  5
28F96
330
747D
100
AcDbEntity
  8
寸法
 48
50.0
100
AcDbLeader
  3
INABA_S50G
 71
     0
 73
     0
 75
     1
 40
100.0
 41
222.7272727272727
 76
     3
 10
5676.832068842683
 20
1153.766069202274
 30
0.0
 10
5455.019770204923
 20
709.9272230443948
 30
0.0
 10
5330.019770204923
 20
709.9272230443948
 30
0.0
1001
ACAD
1000
DSTYLE
1002
{
1070
    40
1040
1.0
1070
   272
1070
     1
1070
   279
1070
     1
1070
   341
1005
0
1002
}
  0
MTEXT
  5
28F97
102
{ACAD_REACTORS
330
28F98
102
}
330
747D
100
AcDbEntity
  8
寸法
 62
     7
 48
50.0
100
AcDbMText
 10
5491.582014619878
 20
1419.066672019731
 30
0.0
 40
80.0
 41
0.8
 71
     6
 72
     1
  1
\A1;D10@300
  7
STYLE2
 73
     1
 44
1.0
1001
ACAD
1000
MTEXTBEGIN
1070
    73
1070
     1
1070
    44
1040
1.0
1070
    74
1070
     0
1000
MTEXTEND
  0
LEADER
  5
28F98
330
747D
100
AcDbEntity
  8
寸法
 48
50.0
100
AcDbLeader
  3
INABA_S50G
 71
     0
 73
     0
 75
     1
 40
100.0
 41
540.3409090909091
 76
     3
 10
5684.832068842683
 20
1575.893283899398
 30
0.0
 10
5626.849832313985
 20
1354.422955358593
 30
0.0
 10
5501.849832313985
 20
1354.422955358593
 30
0.0
213
-9.732182305893367
223
-4.643716661138569
233
0.0
1001
ACAD
1000
DSTYLE
1002
{
1070
    40
1040
1.0
1070
   272
1070
     1
1070
   279
1070
     1
1070
   341
1005
0
1002
}
  0
LEADER
  5
28F99
330
747D
100
AcDbEntity
  8
寸法
 48
50.0
100
AcDbLeader
  3
INABA_S50G
 71
     0
 73
     0
 75
     1
 40
130.1136363636363
 41
651.1363636363636
 76
     3
 10
5660.832068842683
 20
1817.766069202274
 30
0.0
 10
5548.407488678666
 20
1958.236834658863
 30
0.0
 10
5423.407488678666
 20
1958.236834658863
 30
0.0
1001
ACAD
1000
DSTYLE
1002
{
1070
    40
1040
1.0
1070
   272
1070
     1
1070
   279
1070
     1
1070
   341
1005
0
1002
}
  0
MTEXT
  5
28F9A
102
{ACAD_REACTORS
330
28F99
102
}
330
747D
100
AcDbEntity
  8
寸法
 62
     7
 48
50.0
100
AcDbMText
 10
5360.733589359409
 20
2030.282289204317
 30
0.0
 40
80.0
 41
0.8
 71
     6
 72
     1
  1
\A1;金コテ押エ
  7
STYLE2
 73
     1
 44
1.0
1001
ACAD
1000
MTEXTBEGIN
1070
    73
1070
     1
1070
    44
1040
1.0
1070
    74
1070
     0
1000
MTEXTEND
  0
DIMENSION
  5
28F9B
330
747D
100
AcDbEntity
  8
寸法
 48
50.0
100
AcDbDimension
  2
*D53
 10
4845.794830280943
 20
1033.766069202274
 30
0.0
 11
4845.794830280943
 21
1405.306218858275
 31
0.0
 70
   160
  1
540
 71
     5
 42
784.0
  3
INABA_S40G
100
AcDbAlignedDimension
 13
5580.832068842683
 23
1817.766069202274
 33
0.0
 14
5372.832068842686
 24
1033.766069202274
 34
0.0
 50
90.0
100
AcDbRotatedDimension
1001
ACAD
1000
DSTYLE
1002
{
1070
   341
1005
0
1002
}
  0
MTEXT
  5
28F9C
102
{ACAD_REACTORS
330
28F96
102
}
330
747D
100
AcDbEntity
  8
寸法
 62
     7
 48
50.0
100
AcDbMText
 10
5310.019770204924
 20
769.9272230443948
 30
0.0
 40
80.0
 41
0.8
 71
     6
 72
     1
  1
D13
  7
STYLE2
 73
     1
 44
1.0
1001
ACAD
1000
MTEXTBEGIN
1070
    73
1070
     1
1070
    44
1040
1.0
1070
    74
1070
     0
1000
MTEXTEND
  0
MTEXT
  5
28F9D
102
{ACAD_REACTORS
330
28F95
102
}
330
747D
100
AcDbEntity
  8
寸法
 62
     7
 48
50.0
100
AcDbMText
 10
5281.897042647489
 20
950.2433755838383
 30
0.0
 40
80.0
 41
0.8
 71
     6
 72
     1
  1
D10
  7
STYLE2
 73
     1
 44
1.0
1001
ACAD
1000
MTEXTBEGIN
1070
    73
1070
     1
1070
    44
1040
1.0
1070
    74
1070
     0
1000
MTEXTEND
  0
DIMENSION
  5
28F9E
330
747D
100
AcDbEntity
  8
寸法
 48
50.0
100
AcDbDimension
  2
*D54
 10
5900.832068842682
 20
495.3364311971145
 30
0.0
 11
5656.735310164459
 21
495.3364311971145
 31
0.0
 70
   160
  1
300
 71
     5
 42
448.0
  3
INABA_S40G
100
AcDbAlignedDimension
 13
5452.832068842683
 23
905.7660692022746
 33
0.0
 14
5900.832068842682
 24
905.7660692022746
 34
0.0
100
AcDbRotatedDimension
1001
ACAD
1000
DSTYLE
1002
{
1070
   341
1005
0
1002
}
  0
MTEXT
  5
28F9F
102
{ACAD_REACTORS
330
28FA0
102
}
330
747D
100
AcDbEntity
  8
寸法
 62
     7
 48
50.0
100
AcDbMText
 10
7213.847309674938
 20
2339.567462100426
 30
0.0
 40
80.0
 41
0.8
 71
     6
 72
     1
  1
\A1;アンカープレート L
  7
STYLE2
 73
     1
 44
1.0
1001
ACAD
1000
MTEXTBEGIN
1070
    73
1070
     1
1070
    44
1040
1.0
1070
    74
1070
     0
1000
MTEXTEND
  0
LEADER
  5
28FA0
330
747D
100
AcDbEntity
  8
寸法
 48
50.0
100
AcDbLeader
  3
INABA_S50G
 73
     0
 75
     1
 40
106.3636363636363
 41
893.1818181818181
 76
     3
 10
7412.271382019877
 20
1887.326069202276
 30
0.0
 10
7363.847309674937
 20
2261.385643918608
 30
0.0
 10
7238.847309674937
 20
2261.385643918608
 30
0.0
340
28F9F
1001
ACAD
1000
DSTYLE
1002
{
1070
   341
1005
0
1070
    40
1040
1.0
1070
   343
1005
0
1070
   344
1005
0
1002
}
  0
LINE
  5
28FA1
330
747D
100
AcDbEntity
  8
細線
 48
50.0
100
AcDbLine
 10
5700.832068842684
 20
1656.138961870105
 30
0.0
 11
5772.832068842684
 21
1728.138961870105
 31
0.0
  0
ARC
  5
28FA2
330
747D
100
AcDbEntity
  8
部品1
 48
50.0
100
AcDbCircle
 10
5676.832068842684
 20
1678.02049859652
 30
0.0
 40
24.0
100
AcDbArc
 50
0.0
 51
180.0
  0
CIRCLE
  5
28FA3
330
747D
100
AcDbEntity
  8
部品1
 48
50.0
100
AcDbCircle
 10
5676.832068842684
 20
1678.02049859652
 30
0.0
 40
8.0
  0
LINE
  5
28FA4
330
747D
100
AcDbEntity
  8
部品1
 48
50.0
100
AcDbLine
 10
5580.832068842684
 20
1273.766069202274
 30
0.0
 11
5580.832068842684
 21
1817.766069202274
 31
0.0
  0
LINE
  5
28FA5
330
747D
100
AcDbEntity
  8
部品1
 48
50.0
100
AcDbLine
 10
5772.832068842684
 20
1817.766069202274
 30
0.0
 11
5772.832068842684
 21
1273.766069202274
 31
0.0
  0
MTEXT
  5
28FA6
102
{ACAD_REACTORS
330
28FAB
102
}
330
747D
100
AcDbEntity
  8
寸法
 62
     7
 48
50.0
100
AcDbMText
 10
5855.718005870078
 20
1840.321968495085
 30
0.0
 40
80.0
 41
0.8
 71
     4
 72
     1
  1
D13
  7
STYLE2
 73
     1
 44
1.0
1001
ACAD
1000
MTEXTBEGIN
1070
    73
1070
     1
1070
    44
1040
1.0
1070
    74
1070
     0
1000
MTEXTEND
  0
LEADER
  5
28FA7
330
747D
100
AcDbEntity
  8
寸法
 48
50.0
100
AcDbLeader
  3
INABA_S50G
 71
     0
 73
     0
 74
     0
 75
     1
 40
100.0
 41
225.0
 76
     3
 10
5804.735021194826
 20
1153.766069202274
 30
0.0
 10
5859.159728649368
 20
1058.369000259302
 30
0.0
 10
5984.159728649368
 20
1058.369000259302
 30
0.0
1001
ACAD
1000
DSTYLE
1002
{
1070
    40
1040
1.0
1070
   272
1070
     1
1070
   279
1070
     1
1070
   341
1005
0
1002
}
  0
LEADER
  5
28FA8
330
747D
100
AcDbEntity
  8
寸法
 48
50.0
100
AcDbLeader
  3
INABA_S50G
 71
     0
 73
     0
 74
     0
 75
     1
 40
100.0
 41
540.3409090909091
 76
     3
 10
5750.777237855857
 20
1137.025538788749
 30
0.0
 10
5869.570524703934
 20
795.3947207938518
 30
0.0
 10
5994.570524703934
 20
795.3947207938518
 30
0.0
213
0.0
223
-1.022262676269383
233
0.0
1001
ACAD
1000
DSTYLE
1002
{
1070
    40
1040
1.0
1070
   272
1070
     1
1070
   279
1070
     1
1070
   341
1005
0
1002
}
  0
MTEXT
  5
28FA9
102
{ACAD_REACTORS
330
28FA7
102
}
330
747D
100
AcDbEntity
  8
寸法
 62
     7
 48
50.0
100
AcDbMText
 10
6004.159728649368
 20
1118.369000259302
 30
0.0
 40
80.0
 41
0.8
 71
     4
 72
     1
  1
D10
  7
STYLE2
 73
     1
 44
1.0
1001
ACAD
1000
MTEXTBEGIN
1070
    73
1070
     1
1070
    44
1040
1.0
1070
    74
1070
     0
1000
MTEXTEND
  0
LWPOLYLINE
  5
28FAA
330
747D
100
AcDbEntity
  8
部品1
 48
50.0
100
AcDbPolyline
 90
        2
 70
     0
 43
8.0
 10
5772.832068842683
 20
1577.766069202275
 10
6186.97197067564
 20
1577.766069202275
  0
LEADER
  5
28FAB
330
747D
100
AcDbEntity
  8
寸法
 48
50.0
100
AcDbLeader
  3
INABA_S50G
 71
     0
 73
     0
 74
     0
 75
     1
 40
100.0
 41
222.7272727272727
 76
     3
 10
5676.832068842683
 20
1678.02049859652
 30
0.0
 10
5730.718005870078
 20
1777.256071449694
 30
0.0
 10
5855.718005870078
 20
1777.256071449694
 30
0.0
1001
ACAD
1000
DSTYLE
1002
{
1070
    40
1040
1.0
1070
   272
1070
     1
1070
   279
1070
     1
1070
   341
1005
0
1002
}
  0
LINE
  5
28FAC
330
747D
100
AcDbEntity
  8
細線
 48
50.0
100
AcDbLine
 10
5452.832068842677
 20
1192.612814964445
 30
0.0
 11
5533.985323080512
 21
1273.766069202274
 31
0.0
  0
LINE
  5
28FAD
330
747D
100
AcDbEntity
  8
細線
 48
50.0
100
AcDbLine
 10
5660.697916320088
 20
1211.893283899397
 30
0.0
 11
5684.832068842689
 21
1236.027436421996
 31
0.0
  0
LINE
  5
28FAE
330
747D
100
AcDbEntity
  8
細線
 48
50.0
100
AcDbLine
 10
5567.629933259756
 20
1145.766069202274
 30
0.0
 11
5684.832068842684
 21
1262.9682047852
 31
0.0
  0
LINE
  5
28FAF
330
747D
100
AcDbEntity
  8
部品1
 48
50.0
100
AcDbLine
 10
5452.832068842684
 20
1033.766069202274
 30
0.0
 11
5452.832068842684
 21
1273.766069202274
 31
0.0
  0
LINE
  5
28FB0
330
747D
100
AcDbEntity
  8
細線
 48
50.0
100
AcDbLine
 10
5810.096848528627
 20
1145.766069202274
 30
0.0
 11
5900.832068842684
 21
1236.501289516333
 31
0.0
  0
LINE
  5
28FB1
330
747D
100
AcDbEntity
  8
細線
 48
50.0
100
AcDbLine
 10
5783.156080165412
 20
1145.766069202274
 30
0.0
 11
5900.832068842684
 21
1263.44205787954
 31
0.0
  0
LINE
  5
28FB2
330
747D
100
AcDbEntity
  8
部品1
 48
50.0
100
AcDbLine
 10
5900.832068842684
 20
1273.766069202274
 30
0.0
 11
5900.832068842684
 21
1033.766069202274
 31
0.0
  0
LINE
  5
28FB3
330
747D
100
AcDbEntity
  8
部品1
 48
50.0
100
AcDbLine
 10
5700.832068842689
 20
1153.766069202274
 30
0.0
 11
5700.832068842684
 21
1678.02049859652
 31
0.0
  0
LINE
  5
28FB4
330
747D
100
AcDbEntity
  8
部品1
 48
50.0
100
AcDbLine
 10
5684.832068842689
 20
1153.766069202274
 30
0.0
 11
5684.832068842677
 21
1678.02049859652
 31
0.0
  0
LINE
  5
28FB5
330
747D
100
AcDbEntity
  8
細線
 48
50.0
100
AcDbLine
 10
5668.832068842684
 20
1193.086668058786
 30
0.0
 11
5684.832068842689
 21
1209.086668058786
 31
0.0
  0
LINE
  5
28FB6
330
747D
100
AcDbEntity
  8
細線
 48
50.0
100
AcDbLine
 10
5658.014908338698
 20
905.7660692022746
 30
0.0
 11
5692.312404969881
 21
1033.766069202274
 31
0.0
  0
LINE
  5
28FB7
330
747D
100
AcDbEntity
  8
部品1
 48
50.0
100
AcDbLine
 10
5980.832068842687
 20
905.7660692022746
 30
0.0
 11
5372.832068842686
 21
905.7660692022746
 31
0.0
  0
LINE
  5
28FB8
330
747D
100
AcDbEntity
  8
部品1
 48
50.0
100
AcDbLine
 10
5508.832068842684
 20
1129.766069202274
 30
0.0
 11
5844.832068842684
 21
1129.766069202274
 31
0.0
  0
LINE
  5
28FB9
330
747D
100
AcDbEntity
  8
部品1
 48
50.0
100
AcDbLine
 10
5508.832068842684
 20
1145.766069202274
 30
0.0
 11
5844.832068842684
 21
1145.766069202274
 31
0.0
  0
LINE
  5
28FBA
330
747D
100
AcDbEntity
  8
部品1
 48
50.0
100
AcDbLine
 10
5980.832068842687
 20
1033.766069202274
 30
0.0
 11
5372.832068842686
 21
1033.766069202274
 31
0.0
  0
CIRCLE
  5
28FBB
330
747D
100
AcDbEntity
  8
部品1
 48
50.0
100
AcDbCircle
 10
5676.832068842684
 20
1153.766069202274
 30
0.0
 40
8.0
  0
LINE
  5
28FBC
330
747D
100
AcDbEntity
  8
細線
 48
50.0
100
AcDbLine
 10
5671.156080165417
 20
1033.766069202274
 30
0.0
 11
5767.156080165417
 21
1129.766069202274
 31
0.0
  0
LINE
  5
28FBD
330
747D
100
AcDbEntity
  8
細線
 48
50.0
100
AcDbLine
 10
5500.238818444199
 20
905.7660692022746
 30
0.0
 11
5534.536315075382
 21
1033.766069202274
 31
0.0
  0
LINE
  5
28FBE
330
747D
100
AcDbEntity
  8
細線
 48
50.0
100
AcDbLine
 10
5579.126863391445
 20
905.7660692022727
 30
0.0
 11
5613.424360022628
 21
1033.766069202273
 31
0.0
  0
LINE
  5
28FBF
330
747D
100
AcDbEntity
  8
細線
 48
50.0
100
AcDbLine
 10
5421.350773496942
 20
905.7660692022727
 30
0.0
 11
5455.648270128125
 21
1033.766069202273
 31
0.0
  0
LINE
  5
28FC0
330
747D
100
AcDbEntity
  8
部品1
 48
50.0
100
AcDbLine
 10
5372.832068842686
 20
905.7660692022746
 30
0.0
 11
5372.832068842686
 21
1033.766069202274
 31
0.0
  0
LINE
  5
28FC1
330
747D
100
AcDbEntity
  8
細線
 48
50.0
100
AcDbLine
 10
5506.669599062546
 20
929.7660692022745
 30
0.0
 11
5513.100379680894
 21
905.7660692022746
 31
0.0
  0
LINE
  5
28FC2
330
747D
100
AcDbEntity
  8
細線
 48
50.0
100
AcDbLine
 10
5427.781554115295
 20
929.7660692022745
 30
0.0
 11
5434.212334733641
 21
905.7660692022746
 31
0.0
  0
LINE
  5
28FC3
330
747D
100
AcDbEntity
  8
細線
 48
50.0
100
AcDbLine
 10
5664.445688957052
 20
929.7660692022745
 30
0.0
 11
5670.876469575397
 21
905.7660692022746
 31
0.0
  0
LINE
  5
28FC4
330
747D
100
AcDbEntity
  8
細線
 48
50.0
100
AcDbLine
 10
5585.557644009798
 20
929.7660692022745
 30
0.0
 11
5591.988424628144
 21
905.7660692022746
 31
0.0
  0
LINE
  5
28FC5
330
747D
100
AcDbEntity
  8
細線
 48
50.0
100
AcDbLine
 10
5482.570701622967
 20
1033.766069202274
 30
0.0
 11
5578.570701622967
 21
1129.766069202274
 31
0.0
  0
LINE
  5
28FC6
330
747D
100
AcDbEntity
  8
細線
 48
50.0
100
AcDbLine
 10
5455.629933259757
 20
1033.766069202274
 30
0.0
 11
5551.629933259756
 21
1129.766069202274
 31
0.0
  0
LINE
  5
28FC7
330
747D
100
AcDbEntity
  8
部品1
 48
50.0
100
AcDbLine
 10
5508.832068842684
 20
1145.766069202274
 30
0.0
 11
5508.832068842684
 21
1129.766069202274
 31
0.0
  0
LINE
  5
28FC8
330
747D
100
AcDbEntity
  8
細線
 48
50.0
100
AcDbLine
 10
5449.217489509784
 20
1009.766069202274
 30
0.0
 11
5442.786708891436
 21
1033.766069202274
 31
0.0
  0
LINE
  5
28FC9
330
747D
100
AcDbEntity
  8
細線
 48
50.0
100
AcDbLine
 10
5372.832068842684
 20
1019.105990168054
 30
0.0
 11
5376.76022518088
 21
1033.766069202274
 31
0.0
  0
LINE
  5
28FCA
330
747D
100
AcDbEntity
  8
部品1
 48
50.0
100
AcDbLine
 10
5668.832068842684
 20
1211.893283899397
 30
0.0
 11
5652.832068842684
 21
1211.893283899397
 31
0.0
  0
CIRCLE
  5
28FCB
330
747D
100
AcDbEntity
  8
部品1
 48
50.0
100
AcDbCircle
 10
5548.832068842684
 20
1153.766069202274
 30
0.0
 40
8.0
  0
LINE
  5
28FCC
330
747D
100
AcDbEntity
  8
細線
 48
50.0
100
AcDbLine
 10
5621.511469986172
 20
1145.766069202274
 30
0.0
 11
5652.832068842684
 21
1177.086668058786
 31
0.0
  0
ARC
  5
28FCD
330
747D
100
AcDbEntity
  8
部品1
 48
50.0
100
AcDbCircle
 10
5676.832068842684
 20
1153.766069202274
 30
0.0
 40
24.0
100
AcDbArc
 50
180.0
 51
199.4712206344697
  0
LINE
  5
28FCE
330
747D
100
AcDbEntity
  8
細線
 48
50.0
100
AcDbLine
 10
5528.105534457035
 20
1009.766069202274
 30
0.0
 11
5521.674753838689
 21
1033.766069202274
 31
0.0
  0
LINE
  5
28FCF
330
747D
100
AcDbEntity
  8
細線
 48
50.0
100
AcDbLine
 10
5606.993579404288
 20
1009.766069202274
 30
0.0
 11
5600.562798785942
 21
1033.766069202274
 31
0.0
  0
LINE
  5
28FD0
330
747D
100
AcDbEntity
  8
細線
 48
50.0
100
AcDbLine
 10
5509.511469986172
 20
1033.766069202274
 30
0.0
 11
5605.511469986172
 21
1129.766069202274
 31
0.0
  0
LINE
  5
28FD1
330
747D
100
AcDbEntity
  8
部品1
 48
50.0
100
AcDbLine
 10
5652.832068842684
 20
1211.893283899397
 30
0.0
 11
5652.832068842684
 21
1153.766069202274
 31
0.0
  0
LINE
  5
28FD2
330
747D
100
AcDbEntity
  8
細線
 48
50.0
100
AcDbLine
 10
5594.570701622967
 20
1145.766069202274
 30
0.0
 11
5652.832068842684
 21
1204.027436421993
 31
0.0
  0
LINE
  5
28FD3
330
747D
100
AcDbEntity
  8
部品1
 48
50.0
100
AcDbLine
 10
5668.832068842684
 20
1211.893283899397
 30
0.0
 11
5668.832068842684
 21
1153.766069202274
 31
0.0
  0
LINE
  5
28FD4
330
747D
100
AcDbEntity
  8
部品1
 48
50.0
100
AcDbLine
 10
5980.832068842687
 20
1033.766069202274
 30
0.0
 11
5980.832068842687
 21
905.7660692022746
 31
0.0
  0
LINE
  5
28FD5
330
747D
100
AcDbEntity
  8
細線
 48
50.0
100
AcDbLine
 10
5894.679043180437
 20
905.7660692022746
 30
0.0
 11
5928.976539811622
 21
1033.766069202273
 31
0.0
  0
LINE
  5
28FD6
330
747D
100
AcDbEntity
  8
細線
 48
50.0
100
AcDbLine
 10
5736.902953285943
 20
905.7660692022746
 30
0.0
 11
5771.20044991713
 21
1033.766069202273
 31
0.0
  0
LINE
  5
28FD7
330
747D
100
AcDbEntity
  8
細線
 48
50.0
100
AcDbLine
 10
5815.790998233192
 20
905.7660692022727
 30
0.0
 11
5850.088494864377
 21
1033.766069202273
 31
0.0
  0
LINE
  5
28FD8
330
747D
100
AcDbEntity
  8
細線
 48
50.0
100
AcDbLine
 10
5822.221778851542
 20
929.7660692022745
 30
0.0
 11
5828.65255946989
 21
905.7660692022746
 31
0.0
  0
LINE
  5
28FD9
330
747D
100
AcDbEntity
  8
細線
 48
50.0
100
AcDbLine
 10
5743.333733904297
 20
929.7660692022745
 30
0.0
 11
5749.764514522643
 21
905.7660692022746
 31
0.0
  0
LINE
  5
28FDA
330
747D
100
AcDbEntity
  8
細線
 48
50.0
100
AcDbLine
 10
5901.109823798789
 20
929.7660692022745
 30
0.0
 11
5907.540604417136
 21
905.7660692022746
 31
0.0
  0
LINE
  5
28FDB
330
747D
100
AcDbEntity
  8
細線
 48
50.0
100
AcDbLine
 10
5979.997868746036
 20
929.7660692022745
 30
0.0
 11
5980.832068842683
 21
926.65279205791
 31
0.0
  0
LINE
  5
28FDC
330
747D
100
AcDbEntity
  8
細線
 48
50.0
100
AcDbLine
 10
5973.567088127687
 20
905.7660692022727
 30
0.0
 11
5980.832068842683
 21
932.8793463466627
 31
0.0
  0
LINE
  5
28FDD
330
747D
100
AcDbEntity
  8
細線
 48
50.0
100
AcDbLine
 10
5837.037616891831
 20
1145.766069202274
 30
0.0
 11
5900.832068842684
 21
1209.560521153125
 31
0.0
  0
CIRCLE
  5
28FDE
330
747D
100
AcDbEntity
  8
部品1
 48
50.0
100
AcDbCircle
 10
5804.832068842684
 20
1153.766069202274
 30
0.0
 40
8.0
  0
ARC
  5
28FDF
330
747D
100
AcDbEntity
  8
部品1
 48
50.0
100
AcDbCircle
 10
5676.832068842684
 20
1153.766069202274
 30
0.0
 40
24.0
100
AcDbArc
 50
340.5287793655303
 51
0.0
  0
LINE
  5
28FE0
330
747D
100
AcDbEntity
  8
細線
 48
50.0
100
AcDbLine
 10
5685.881624351541
 20
1009.766069202274
 30
0.0
 11
5679.450843733192
 21
1033.766069202274
 31
0.0
  0
LINE
  5
28FE1
330
747D
100
AcDbEntity
  8
細線
 48
50.0
100
AcDbLine
 10
5764.769669298786
 20
1009.766069202274
 30
0.0
 11
5758.33888868044
 21
1033.766069202274
 31
0.0
  0
LINE
  5
28FE2
330
747D
100
AcDbEntity
  8
細線
 48
50.0
100
AcDbLine
 10
5698.096848528628
 20
1033.766069202274
 30
0.0
 11
5794.096848528628
 21
1129.766069202274
 31
0.0
  0
LINE
  5
28FE3
330
747D
100
AcDbEntity
  8
細線
 48
50.0
100
AcDbLine
 10
5725.037616891831
 20
1033.766069202274
 30
0.0
 11
5821.038504736968
 21
1129.766957047413
 31
0.0
  0
LINE
  5
28FE4
330
747D
100
AcDbEntity
  8
部品1
 48
50.0
100
AcDbLine
 10
5844.832068842684
 20
1145.766069202274
 30
0.0
 11
5844.832068842684
 21
1129.766069202274
 31
0.0
  0
LINE
  5
28FE5
330
747D
100
AcDbEntity
  8
細線
 48
50.0
100
AcDbLine
 10
5922.545759193278
 20
1009.766069202274
 30
0.0
 11
5916.11497857493
 21
1033.766069202274
 31
0.0
  0
LINE
  5
28FE6
330
747D
100
AcDbEntity
  8
細線
 48
50.0
100
AcDbLine
 10
5886.682227071077
 20
1033.766069202274
 30
0.0
 11
5900.832068842684
 21
1047.915910973881
 31
0.0
  0
LINE
  5
28FE7
330
747D
100
AcDbEntity
  8
細線
 48
50.0
100
AcDbLine
 10
5843.657714246031
 20
1009.766069202274
 30
0.0
 11
5837.226933627685
 21
1033.766069202274
 31
0.0
  0
LINE
  5
28FE8
330
747D
100
AcDbEntity
  8
細線
 48
50.0
100
AcDbLine
 10
5580.832068842684
 20
1347.553583327652
 30
0.0
 11
5684.832068842689
 21
1451.553583327655
 31
0.0
  0
LINE
  5
28FE9
330
747D
100
AcDbEntity
  8
細線
 48
50.0
100
AcDbLine
 10
5580.832068842684
 20
1374.49435169086
 30
0.0
 11
5684.832068842684
 21
1478.494351690861
 31
0.0
  0
LINE
  5
28FEA
330
747D
100
AcDbEntity
  8
細線
 48
50.0
100
AcDbLine
 10
5580.832068842684
 20
1320.612814964446
 30
0.0
 11
5684.832068842689
 21
1424.612814964445
 31
0.0
  0
LINE
  5
28FEB
330
747D
100
AcDbEntity
  8
細線
 48
50.0
100
AcDbLine
 10
5668.832068842684
 20
1624.138961870105
 30
0.0
 11
5684.832068842684
 21
1640.138961870105
 31
0.0
  0
LINE
  5
28FEC
330
747D
100
AcDbEntity
  8
細線
 48
50.0
100
AcDbLine
 10
5668.832068842684
 20
1651.079730233312
 30
0.0
 11
5684.832068842684
 21
1667.079730233312
 31
0.0
  0
LINE
  5
28FED
330
747D
100
AcDbEntity
  8
部品1
 48
50.0
100
AcDbLine
 10
5452.832068842684
 20
1273.766069202274
 30
0.0
 11
5580.832068842684
 21
1273.766069202274
 31
0.0
  0
LINE
  5
28FEE
330
747D
100
AcDbEntity
  8
細線
 48
50.0
100
AcDbLine
 10
5452.832068842677
 20
1219.55358332765
 30
0.0
 11
5507.044554717309
 21
1273.766069202274
 31
0.0
  0
LINE
  5
28FEF
330
747D
100
AcDbEntity
  8
細線
 48
50.0
100
AcDbLine
 10
5452.832068842677
 20
1246.49435169086
 30
0.0
 11
5480.103786354098
 21
1273.766069202274
 31
0.0
  0
LINE
  5
28FF0
330
747D
100
AcDbEntity
  8
部品1
 48
50.0
100
AcDbLine
 10
5668.832068842684
 20
1619.893283899397
 30
0.0
 11
5652.832068842684
 21
1619.8932838994
 31
0.0
  0
LINE
  5
28FF1
330
747D
100
AcDbEntity
  8
細線
 48
50.0
100
AcDbLine
 10
5580.832068842684
 20
1536.138961870105
 30
0.0
 11
5664.586390871978
 21
1619.893283899397
 31
0.0
  0
LINE
  5
28FF2
330
747D
100
AcDbEntity
  8
細線
 48
50.0
100
AcDbLine
 10
5580.832068842684
 20
1563.079730233312
 30
0.0
 11
5652.832068842684
 21
1635.079730233312
 31
0.0
  0
LINE
  5
28FF3
330
747D
100
AcDbEntity
  8
部品1
 48
50.0
100
AcDbLine
 10
5652.832068842684
 20
1619.8932838994
 30
0.0
 11
5652.832068842684
 21
1678.02049859652
 31
0.0
  0
LINE
  5
28FF4
330
747D
100
AcDbEntity
  8
細線
 48
50.0
100
AcDbLine
 10
5580.832068842684
 20
1590.02049859652
 30
0.0
 11
5652.832068842684
 21
1662.02049859652
 31
0.0
  0
LINE
  5
28FF5
330
747D
100
AcDbEntity
  8
部品1
 48
50.0
100
AcDbLine
 10
5668.832068842684
 20
1619.893283899397
 30
0.0
 11
5668.832068842684
 21
1678.02049859652
 31
0.0
  0
LINE
  5
28FF6
330
747D
100
AcDbEntity
  8
細線
 48
50.0
100
AcDbLine
 10
5700.832068842689
 20
1440.612814964445
 30
0.0
 11
5772.832068842677
 21
1512.612814964445
 31
0.0
  0
LINE
  5
28FF7
330
747D
100
AcDbEntity
  8
部品1
 48
50.0
100
AcDbLine
 10
5772.832068842684
 20
1273.766069202274
 30
0.0
 11
5900.832068842684
 21
1273.766069202274
 31
0.0
  0
LINE
  5
28FF8
330
747D
100
AcDbEntity
  8
細線
 48
50.0
100
AcDbLine
 10
5700.832068842689
 20
1252.027436421996
 30
0.0
 11
5772.832068842677
 21
1324.02743642199
 31
0.0
  0
LINE
  5
28FF9
330
747D
100
AcDbEntity
  8
細線
 48
50.0
100
AcDbLine
 10
5700.832068842689
 20
1278.968204785204
 30
0.0
 11
5772.832068842677
 21
1350.9682047852
 31
0.0
  0
LINE
  5
28FFA
330
747D
100
AcDbEntity
  8
細線
 48
50.0
100
AcDbLine
 10
5700.832068842689
 20
1225.086668058786
 30
0.0
 11
5772.832068842677
 21
1297.086668058786
 31
0.0
  0
LINE
  5
28FFB
330
747D
100
AcDbEntity
  8
細線
 48
50.0
100
AcDbLine
 10
5700.832068842684
 20
1494.494351690861
 30
0.0
 11
5772.832068842684
 21
1566.494351690861
 31
0.0
  0
LINE
  5
28FFC
330
747D
100
AcDbEntity
  8
細線
 48
50.0
100
AcDbLine
 10
5700.832068842689
 20
1467.553583327655
 30
0.0
 11
5772.832068842677
 21
1539.55358332765
 31
0.0
  0
MTEXT
  5
28FFD
102
{ACAD_REACTORS
330
28FA8
102
}
330
747D
100
AcDbEntity
  8
寸法
 62
     7
 48
50.0
100
AcDbMText
 10
6014.570524703934
 20
856.4169834701216
 30
0.0
 40
80.0
 41
0.8
 71
     4
 72
     1
  1
\A1;D10@300
  7
STYLE2
 73
     1
 44
1.0
1001
ACAD
1000
MTEXTBEGIN
1070
    73
1070
     1
1070
    44
1040
1.0
1070
    74
1070
     0
1000
MTEXTEND
  0
DIMENSION
  5
28FFE
330
747D
100
AcDbEntity
  8
寸法
 48
50.0
100
AcDbDimension
  2
*D55
 10
5580.832068842683
 20
2237.433877118655
 30
0.0
 11
5676.832068842683
 21
2237.433877118655
 31
0.0
 70
   160
  1
120\P200\P280
 71
     5
 42
192.0
  3
INABA_S40G
100
AcDbAlignedDimension
 13
5772.832068842683
 23
1817.766069202274
 33
0.0
 14
5580.832068842683
 24
1817.766069202274
 34
0.0
100
AcDbRotatedDimension
1001
ACAD
1000
DSTYLE
1002
{
1070
   341
1005
0
1002
}
  0
LINE
  5
28FFF
330
747D
100
AcDbEntity
  8
部品1
 48
50.0
100
AcDbLine
 10
5580.832068842684
 20
1817.766069202274
 30
0.0
 11
5772.832068842684
 21
1817.766069202274
 31
0.0
  0
LINE
  5
29000
330
747D
100
AcDbEntity
  8
細線
 48
50.0
100
AcDbLine
 10
5580.832068842684
 20
1778.605877138972
 30
0.0
 11
5619.992260905988
 21
1817.766069202274
 31
0.0
  0
LINE
  5
29001
330
747D
100
AcDbEntity
  8
細線
 48
50.0
100
AcDbLine
 10
5580.832068842684
 20
1751.665108775765
 30
0.0
 11
5646.933029269193
 21
1817.766069202274
 31
0.0
  0
LINE
  5
29002
330
747D
100
AcDbEntity
  8
細線
 48
50.0
100
AcDbLine
 10
5580.832068842684
 20
1805.54664550218
 30
0.0
 11
5593.051492542779
 21
1817.766069202274
 31
0.0
  0
LINE
  5
29003
330
747D
100
AcDbEntity
  8
細線
 48
50.0
100
AcDbLine
 10
5700.38477610867
 20
1682.632437499296
 30
0.0
 11
5772.832068842684
 21
1755.079730233312
 31
0.0
  0
LINE
  5
29004
330
747D
100
AcDbEntity
  8
細線
 48
50.0
100
AcDbLine
 10
5689.324491345153
 20
1698.512921098991
 30
0.0
 11
5772.832068842684
 21
1782.02049859652
 31
0.0
  0
LINE
  5
29005
330
747D
100
AcDbEntity
  8
細線
 48
50.0
100
AcDbLine
 10
7565.271382019877
 20
1658.894351690863
 30
0.0
 11
7694.871382019876
 21
1788.494351690862
 31
0.0
  0
LINE
  5
29006
330
747D
100
AcDbEntity
  8
部品1
100
AcDbLine
 10
7694.871382019876
 20
1273.766069202274
 30
0.0
 11
7694.871382019876
 21
1817.766069202274
 31
0.0
  0
LINE
  5
29007
330
747D
100
AcDbEntity
  8
部品1
 48
50.0
100
AcDbLine
 10
7280.871382019876
 20
1273.766069202274
 30
0.0
 11
7280.871382019876
 21
1817.766069202274
 31
0.0
  0
LINE
  5
29008
330
747D
100
AcDbEntity
  8
細線
 48
50.0
100
AcDbLine
 10
7280.871382019876
 20
1590.02049859652
 30
0.0
 11
7439.271382019876
 21
1748.420498596517
 31
0.0
  0
LINE
  5
29009
330
747D
100
AcDbEntity
  8
細線
 48
50.0
100
AcDbLine
 10
7280.871382019876
 20
1563.079730233312
 30
0.0
 11
7439.271382019876
 21
1721.47973023331
 31
0.0
  0
LINE
  5
2900A
330
747D
100
AcDbEntity
  8
細線
 48
50.0
100
AcDbLine
 10
7280.871382019876
 20
1536.138961870105
 30
0.0
 11
7439.271382019874
 21
1694.538961870097
 31
0.0
  0
TEXT
  5
2900B
330
747D
100
AcDbEntity
  8
部品1
 48
50.0
100
AcDbText
 10
6866.731480186921
 20
1589.00506148553
 30
0.0
 40
80.0
  1
▽G.L
  7
STYLE2
100
AcDbText
  0
LINE
  5
2900C
330
747D
100
AcDbEntity
  8
部品1
100
AcDbLine
 10
7511.271382019877
 20
1592.766069202274
 30
0.0
 11
7511.271382019874
 21
1866.926069202275
 31
0.0
  0
LINE
  5
2900D
330
747D
100
AcDbEntity
  8
部品1
100
AcDbLine
 10
7493.271382019877
 20
1592.766069202274
 30
0.0
 11
7493.271382019873
 21
1866.926069202275
 31
0.0
  0
LINE
  5
2900E
330
747D
100
AcDbEntity
  8
細線
 48
50.0
100
AcDbLine
 10
7565.271382019877
 20
1605.012814964433
 30
0.0
 11
7694.871382019876
 21
1734.612814964425
 31
0.0
  0
LINE
  5
2900F
330
747D
100
AcDbEntity
  8
細線
 48
50.0
100
AcDbLine
 10
7565.271382019877
 20
1631.953583327646
 30
0.0
 11
7694.871382019876
 21
1761.553583327642
 31
0.0
  0
LINE
  5
29010
330
747D
100
AcDbEntity
  8
部品1
100
AcDbLine
 10
7565.271382019877
 20
1493.766069202274
 30
0.0
 11
7565.271382019877
 21
1817.766069202274
 31
0.0
  0
LINE
  5
29011
330
747D
100
AcDbEntity
  8
部品1
100
AcDbLine
 10
7439.271382019869
 20
1493.766069202274
 30
0.0
 11
7439.271382019876
 21
1817.766069202274
 31
0.0
  0
LINE
  5
29012
330
747D
100
AcDbEntity
  8
細線
 48
50.0
100
AcDbLine
 10
7280.871382019876
 20
1347.553583327652
 30
0.0
 11
7439.271382019869
 21
1505.953583327641
 31
0.0
  0
LINE
  5
29013
330
747D
100
AcDbEntity
  8
細線
 48
50.0
100
AcDbLine
 10
7280.871382019876
 20
1320.612814964446
 30
0.0
 11
7454.024636257712
 21
1493.766069202273
 31
0.0
  0
LINE
  5
29014
330
747D
100
AcDbEntity
  8
細線
 48
50.0
100
AcDbLine
 10
7280.871382019876
 20
1374.49435169086
 30
0.0
 11
7439.271382019869
 21
1532.894351690855
 31
0.0
  0
LINE
  5
29015
330
747D
100
AcDbEntity
  8
細線
 48
50.0
100
AcDbLine
 10
7209.550783163367
 20
1033.766069202274
 30
0.0
 11
7694.871382019876
 21
1519.086668058782
 31
0.0
  0
LINE
  5
29016
330
747D
100
AcDbEntity
  8
細線
 48
50.0
100
AcDbLine
 10
7182.610014800161
 20
1033.766069202274
 30
0.0
 11
7694.871382019879
 21
1546.027436421988
 31
0.0
  0
LINE
  5
29017
330
747D
100
AcDbEntity
  8
細線
 48
50.0
100
AcDbLine
 10
7155.669246436954
 20
1033.766069202274
 30
0.0
 11
7694.871382019876
 21
1572.9682047852
 31
0.0
  0
LINE
  5
29018
330
747D
100
AcDbEntity
  8
部品1
 48
50.0
100
AcDbLine
 10
7902.871382019879
 20
1033.766069202274
 30
0.0
 11
7072.87138201988
 21
1033.766069202274
 31
0.0
  0
LINE
  5
29019
330
747D
100
AcDbEntity
  8
部品1
 48
50.0
100
AcDbLine
 10
7902.871382019879
 20
905.7660692022746
 30
0.0
 11
7072.87138201988
 21
905.7660692022746
 31
0.0
  0
LINE
  5
2901A
330
747D
100
AcDbEntity
  8
細線
 48
50.0
100
AcDbLine
 10
7152.871382019873
 20
1192.612814964445
 30
0.0
 11
7234.024636257706
 21
1273.766069202274
 31
0.0
  0
LINE
  5
2901B
330
747D
100
AcDbEntity
  8
部品1
 48
50.0
100
AcDbLine
 10
7152.871382019876
 20
1033.766069202274
 30
0.0
 11
7152.871382019876
 21
1273.766069202274
 31
0.0
  0
LINE
  5
2901C
330
747D
100
AcDbEntity
  8
細線
 48
50.0
100
AcDbLine
 10
7200.278131621394
 20
905.7660692022746
 30
0.0
 11
7234.575628252577
 21
1033.766069202274
 31
0.0
  0
LINE
  5
2901D
330
747D
100
AcDbEntity
  8
部品1
 48
50.0
100
AcDbLine
 10
7072.87138201988
 20
905.7660692022746
 30
0.0
 11
7072.87138201988
 21
1033.766069202274
 31
0.0
  0
LINE
  5
2901E
330
747D
100
AcDbEntity
  8
細線
 48
50.0
100
AcDbLine
 10
7121.390086674136
 20
905.7660692022727
 30
0.0
 11
7155.687583305319
 21
1033.766069202273
 31
0.0
  0
LINE
  5
2901F
330
747D
100
AcDbEntity
  8
細線
 48
50.0
100
AcDbLine
 10
7279.166176568641
 20
905.7660692022727
 30
0.0
 11
7313.463673199823
 21
1033.766069202273
 31
0.0
  0
LINE
  5
29020
330
747D
100
AcDbEntity
  8
細線
 48
50.0
100
AcDbLine
 10
7127.820867292489
 20
929.7660692022745
 30
0.0
 11
7134.251647910835
 21
905.7660692022746
 31
0.0
  0
LINE
  5
29021
330
747D
100
AcDbEntity
  8
細線
 48
50.0
100
AcDbLine
 10
7285.596957186993
 20
929.7660692022745
 30
0.0
 11
7292.027737805341
 21
905.7660692022746
 31
0.0
  0
LINE
  5
29022
330
747D
100
AcDbEntity
  8
細線
 48
50.0
100
AcDbLine
 10
7206.708912239742
 20
929.7660692022745
 30
0.0
 11
7213.139692858089
 21
905.7660692022746
 31
0.0
  0
LINE
  5
29023
330
747D
100
AcDbEntity
  8
細線
 48
50.0
100
AcDbLine
 10
7072.871382019876
 20
1019.105990168054
 30
0.0
 11
7076.799538358073
 21
1033.766069202274
 31
0.0
  0
LINE
  5
29024
330
747D
100
AcDbEntity
  8
細線
 48
50.0
100
AcDbLine
 10
7149.256802686979
 20
1009.766069202274
 30
0.0
 11
7142.826022068632
 21
1033.766069202274
 31
0.0
  0
LINE
  5
29025
330
747D
100
AcDbEntity
  8
細線
 48
50.0
100
AcDbLine
 10
7307.032892581482
 20
1009.766069202274
 30
0.0
 11
7300.602111963134
 21
1033.766069202274
 31
0.0
  0
LINE
  5
29026
330
747D
100
AcDbEntity
  8
細線
 48
50.0
100
AcDbLine
 10
7228.144847634232
 20
1009.766069202274
 30
0.0
 11
7221.714067015884
 21
1033.766069202274
 31
0.0
  0
LWPOLYLINE
  5
29027
330
747D
100
AcDbEntity
  8
部品1
 48
50.0
100
AcDbPolyline
 90
        2
 70
     0
 43
8.0
 10
6866.731480186921
 20
1577.766069202275
 10
7280.871382019876
 20
1577.766069202275
  0
LINE
  5
29028
330
747D
100
AcDbEntity
  8
細線
 48
50.0
100
AcDbLine
 10
7152.871382019873
 20
1219.55358332765
 30
0.0
 11
7207.083867894501
 21
1273.766069202274
 31
0.0
  0
LINE
  5
29029
330
747D
100
AcDbEntity
  8
部品1
 48
50.0
100
AcDbLine
 10
7152.871382019876
 20
1273.766069202274
 30
0.0
 11
7280.871382019876
 21
1273.766069202274
 31
0.0
  0
LINE
  5
2902A
330
747D
100
AcDbEntity
  8
細線
 48
50.0
100
AcDbLine
 10
7152.871382019873
 20
1246.49435169086
 30
0.0
 11
7180.143099531292
 21
1273.766069202274
 31
0.0
  0
LINE
  5
2902B
330
747D
100
AcDbEntity
  8
細線
 48
50.0
100
AcDbLine
 10
7398.136161705822
 20
1033.766069202274
 30
0.0
 11
7694.871382019876
 21
1330.501289516327
 31
0.0
  0
LINE
  5
2902C
330
747D
100
AcDbEntity
  8
細線
 48
50.0
100
AcDbLine
 10
7425.076930069026
 20
1033.766069202274
 30
0.0
 11
7694.871382019876
 21
1303.560521153132
 31
0.0
  0
LINE
  5
2902D
330
747D
100
AcDbEntity
  8
細線
 48
50.0
100
AcDbLine
 10
7371.195393342611
 20
1033.766069202274
 30
0.0
 11
7694.871382019876
 21
1357.442057879541
 31
0.0
  0
LINE
  5
2902E
330
747D
100
AcDbEntity
  8
細線
 48
50.0
100
AcDbLine
 10
7586.721540248269
 20
1033.766069202274
 30
0.0
 11
7822.871382019876
 21
1269.915910973883
 31
0.0
  0
LINE
  5
2902F
330
747D
100
AcDbEntity
  8
細線
 48
50.0
100
AcDbLine
 10
7613.66230861148
 20
1033.766069202274
 30
0.0
 11
7822.871382019876
 21
1242.975142610667
 31
0.0
  0
LINE
  5
29030
330
747D
100
AcDbEntity
  8
部品1
 48
50.0
100
AcDbLine
 10
7822.871382019876
 20
1273.766069202274
 30
0.0
 11
7822.871382019876
 21
1033.766069202274
 31
0.0
  0
LINE
  5
29031
330
747D
100
AcDbEntity
  8
細線
 48
50.0
100
AcDbLine
 10
7640.603076974686
 20
1033.766069202274
 30
0.0
 11
7822.871382019876
 21
1216.034374247471
 31
0.0
  0
LINE
  5
29032
330
747D
100
AcDbEntity
  8
細線
 48
50.0
100
AcDbLine
 10
7515.830311410387
 20
905.7660692022727
 30
0.0
 11
7550.127808041569
 21
1033.766069202273
 31
0.0
  0
LINE
  5
29033
330
747D
100
AcDbEntity
  8
細線
 48
50.0
100
AcDbLine
 10
7358.054221515892
 20
905.7660692022746
 30
0.0
 11
7392.351718147075
 21
1033.766069202274
 31
0.0
  0
LINE
  5
29034
330
747D
100
AcDbEntity
  8
細線
 48
50.0
100
AcDbLine
 10
7436.942266463138
 20
905.7660692022746
 30
0.0
 11
7471.239763094323
 21
1033.766069202273
 31
0.0
  0
LINE
  5
29035
330
747D
100
AcDbEntity
  8
細線
 48
50.0
100
AcDbLine
 10
7594.718356357629
 20
905.7660692022746
 30
0.0
 11
7629.015852988814
 21
1033.766069202273
 31
0.0
  0
LINE
  5
29036
330
747D
100
AcDbEntity
  8
細線
 48
50.0
100
AcDbLine
 10
7443.373047081492
 20
929.7660692022745
 30
0.0
 11
7449.803827699837
 21
905.7660692022746
 31
0.0
  0
LINE
  5
29037
330
747D
100
AcDbEntity
  8
細線
 48
50.0
100
AcDbLine
 10
7364.485002134244
 20
929.7660692022745
 30
0.0
 11
7370.915782752591
 21
905.7660692022746
 31
0.0
  0
LINE
  5
29038
330
747D
100
AcDbEntity
  8
細線
 48
50.0
100
AcDbLine
 10
7601.149136975982
 20
929.7660692022745
 30
0.0
 11
7607.579917594328
 21
905.7660692022746
 31
0.0
  0
LINE
  5
29039
330
747D
100
AcDbEntity
  8
細線
 48
50.0
100
AcDbLine
 10
7522.261092028736
 20
929.7660692022745
 30
0.0
 11
7528.691872647083
 21
905.7660692022746
 31
0.0
  0
LINE
  5
2903A
330
747D
100
AcDbEntity
  8
細線
 48
50.0
100
AcDbLine
 10
7464.808982475981
 20
1009.766069202274
 30
0.0
 11
7458.378201857631
 21
1033.766069202274
 31
0.0
  0
LINE
  5
2903B
330
747D
100
AcDbEntity
  8
細線
 48
50.0
100
AcDbLine
 10
7385.920937528734
 20
1009.766069202274
 30
0.0
 11
7379.490156910387
 21
1033.766069202274
 31
0.0
  0
LINE
  5
2903C
330
747D
100
AcDbEntity
  8
細線
 48
50.0
100
AcDbLine
 10
7543.697027423227
 20
1009.766069202274
 30
0.0
 11
7537.26624680488
 21
1033.766069202274
 31
0.0
  0
LINE
  5
2903D
330
747D
100
AcDbEntity
  8
細線
 48
50.0
100
AcDbLine
 10
7622.585072370473
 20
1009.766069202274
 30
0.0
 11
7616.154291752126
 21
1033.766069202274
 31
0.0
  0
LINE
  5
2903E
330
747D
100
AcDbEntity
  8
部品1
 48
50.0
100
AcDbLine
 10
7902.871382019879
 20
1033.766069202274
 30
0.0
 11
7902.871382019879
 21
905.7660692022746
 31
0.0
  0
LINE
  5
2903F
330
747D
100
AcDbEntity
  8
細線
 48
50.0
100
AcDbLine
 10
7831.382491199372
 20
905.7660692022727
 30
0.0
 11
7865.679987830557
 21
1033.766069202272
 31
0.0
  0
LINE
  5
29040
330
747D
100
AcDbEntity
  8
細線
 48
50.0
100
AcDbLine
 10
7673.606401304879
 20
905.7660692022727
 30
0.0
 11
7707.903897936052
 21
1033.766069202274
 31
0.0
  0
LINE
  5
29041
330
747D
100
AcDbEntity
  8
細線
 48
50.0
100
AcDbLine
 10
7752.494446252128
 20
905.7660692022718
 30
0.0
 11
7786.791942883311
 21
1033.766069202272
 31
0.0
  0
LINE
  5
29042
330
747D
100
AcDbEntity
  8
細線
 48
50.0
100
AcDbLine
 10
7680.037181923228
 20
929.7660692022745
 30
0.0
 11
7686.467962541584
 21
905.7660692022746
 31
0.0
  0
LINE
  5
29043
330
747D
100
AcDbEntity
  8
細線
 48
50.0
100
AcDbLine
 10
7758.925226870477
 20
929.7660692022727
 30
0.0
 11
7765.356007488823
 21
905.7660692022727
 31
0.0
  0
LINE
  5
29044
330
747D
100
AcDbEntity
  8
細線
 48
50.0
100
AcDbLine
 10
7837.813271817722
 20
929.7660692022727
 30
0.0
 11
7844.244052436072
 21
905.7660692022727
 31
0.0
  0
LINE
  5
29045
330
747D
100
AcDbEntity
  8
細線
 48
50.0
100
AcDbLine
 10
7701.47311731771
 20
1009.766069202274
 30
0.0
 11
7695.042336699363
 21
1033.766069202274
 31
0.0
  0
LINE
  5
29046
330
747D
100
AcDbEntity
  8
細線
 48
50.0
100
AcDbLine
 10
7780.361162264965
 20
1009.766069202273
 30
0.0
 11
7773.93038164662
 21
1033.766069202273
 31
0.0
  0
LINE
  5
29047
330
747D
100
AcDbEntity
  8
細線
 48
50.0
100
AcDbLine
 10
7859.249207212211
 20
1009.766069202273
 30
0.0
 11
7852.818426593865
 21
1033.766069202273
 31
0.0
  0
LINE
  5
29048
330
747D
100
AcDbEntity
  8
部品1
100
AcDbLine
 10
7565.271382019877
 20
1493.766069202273
 30
0.0
 11
7439.271382019869
 21
1493.766069202273
 31
0.0
  0
LINE
  5
29049
330
747D
100
AcDbEntity
  8
部品1
100
AcDbLine
 10
7547.271382019878
 20
1574.766069202274
 30
0.0
 11
7547.271382019878
 21
1592.766069202274
 31
0.0
  0
ARC
  5
2904A
330
747D
100
AcDbEntity
  8
部品1
100
AcDbCircle
 10
7511.271382019877
 20
1592.766069202274
 30
0.0
 40
18.0
100
AcDbArc
 50
180.0
 51
270.0
  0
LINE
  5
2904B
330
747D
100
AcDbEntity
  8
部品1
100
AcDbLine
 10
7511.271382019877
 20
1574.766069202274
 30
0.0
 11
7547.271382019878
 21
1574.766069202274
 31
0.0
  0
LINE
  5
2904C
330
747D
100
AcDbEntity
  8
部品1
100
AcDbLine
 10
7511.271382019877
 20
1592.766069202274
 30
0.0
 11
7547.271382019878
 21
1592.766069202274
 31
0.0
  0
LINE
  5
2904D
330
747D
100
AcDbEntity
  8
部品1
 48
50.0
100
AcDbLine
 10
7694.871382019876
 20
1273.766069202274
 30
0.0
 11
7822.871382019876
 21
1273.766069202274
 31
0.0
  0
LINE
  5
2904E
330
747D
100
AcDbEntity
  8
部品1
100
AcDbLine
 10
7300.671382019878
 20
1907.766069202274
 30
0.0
 11
7338.471382019879
 21
1907.766069202274
 31
0.0
  0
LINE
  5
2904F
330
747D
100
AcDbEntity
  8
細線
 48
50.0
100
AcDbLine
 10
7280.871382019876
 20
1778.605877138972
 30
0.0
 11
7320.031574083184
 21
1817.766069202274
 31
0.0
  0
LINE
  5
29050
330
747D
100
AcDbEntity
  8
細線
 48
50.0
100
AcDbLine
 10
7280.871382019876
 20
1751.665108775765
 30
0.0
 11
7346.972342446388
 21
1817.766069202274
 31
0.0
  0
LINE
  5
29051
330
747D
100
AcDbEntity
  8
部品1
 48
50.0
100
AcDbLine
 10
7280.871382019876
 20
1817.766069202274
 30
0.0
 11
7694.871382019879
 21
1817.766069202274
 31
0.0
  0
LINE
  5
29052
330
747D
100
AcDbEntity
  8
部品1
100
AcDbLine
 10
7297.971382019878
 20
1896.966069202274
 30
0.0
 11
7297.971382019878
 21
1905.066069202275
 31
0.0
  0
ARC
  5
29053
330
747D
100
AcDbEntity
  8
部品1
100
AcDbCircle
 10
7300.671382019878
 20
1905.066069202275
 30
0.0
 40
2.7
100
AcDbArc
 50
90.0
 51
180.0
  0
ARC
  5
29054
330
747D
100
AcDbEntity
  8
部品1
100
AcDbCircle
 10
7289.871382019876
 20
1892.157972904983
 30
0.0
 40
2.7
100
AcDbArc
 50
104.0362434679067
 51
180.0
  0
LINE
  5
29055
330
747D
100
AcDbEntity
  8
部品1
100
AcDbLine
 10
7289.21653583228
 20
1894.777357655375
 30
0.0
 11
7297.971382019878
 21
1896.966069202274
 31
0.0
  0
ARC
  5
29056
330
747D
100
AcDbEntity
  8
部品1
100
AcDbCircle
 10
7289.871382019876
 20
1830.026069202275
 30
0.0
 40
2.7
100
AcDbArc
 50
180.0
 51
270.0
  0
LINE
  5
29057
330
747D
100
AcDbEntity
  8
細線
 48
50.0
100
AcDbLine
 10
7280.871382019876
 20
1805.54664550218
 30
0.0
 11
7293.090805719971
 21
1817.766069202274
 31
0.0
  0
LINE
  5
29058
330
747D
100
AcDbEntity
  8
部品1
100
AcDbLine
 10
7289.871382019876
 20
1827.326069202275
 30
0.0
 11
7301.571382019871
 21
1827.326069202275
 31
0.0
  0
LINE
  5
29059
330
747D
100
AcDbEntity
  8
部品1
100
AcDbLine
 10
7287.171382019877
 20
1830.026069202275
 30
0.0
 11
7287.171382019877
 21
1892.157972904983
 31
0.0
  0
LINE
  5
2905A
330
747D
100
AcDbEntity
  8
部品1
100
AcDbLine
 10
7445.831382019871
 20
1827.326069202275
 30
0.0
 11
7647.171382019871
 21
1827.326069202275
 31
0.0
  0
LINE
  5
2905B
330
747D
100
AcDbEntity
  8
部品1
100
AcDbLine
 10
7338.471382019879
 20
1907.766069202274
 30
0.0
 11
7338.471382019879
 21
1915.866069202275
 31
0.0
  0
LINE
  5
2905C
330
747D
100
AcDbEntity
  8
部品1
100
AcDbLine
 10
7388.871382019876
 20
1926.666069202271
 30
0.0
 11
7388.871382019876
 21
1875.366069202275
 31
0.0
  0
LINE
  5
2905D
330
747D
100
AcDbEntity
  8
部品1
100
AcDbLine
 10
7412.271382019877
 20
1887.326069202275
 30
0.0
 11
7440.431382019877
 21
1887.326069202275
 31
0.0
  0
ARC
  5
2905E
330
747D
100
AcDbEntity
  8
部品1
100
AcDbCircle
 10
7412.271382019877
 20
1884.626069202275
 30
0.0
 40
2.7
100
AcDbArc
 50
90.0
 51
180.0
  0
ARC
  5
2905F
330
747D
100
AcDbEntity
  8
部品1
100
AcDbCircle
 10
7440.431382019877
 20
1884.626069202275
 30
0.0
 40
2.7
100
AcDbArc
 50
0.0
 51
90.0
  0
LINE
  5
29060
330
747D
100
AcDbEntity
  8
部品1
100
AcDbLine
 10
7431.171382019879
 20
1872.666069202274
 30
0.0
 11
7431.171382019879
 21
1830.026069202275
 31
0.0
  0
LINE
  5
29061
330
747D
100
AcDbEntity
  8
部品1
100
AcDbLine
 10
7416.771382019877
 20
1827.326069202275
 30
0.0
 11
7428.471382019877
 21
1827.326069202275
 31
0.0
  0
ARC
  5
29062
330
747D
100
AcDbEntity
  8
部品1
100
AcDbCircle
 10
7445.831382019871
 20
1830.026069202275
 30
0.0
 40
2.7
100
AcDbArc
 50
180.0
 51
270.0
  0
ARC
  5
29063
330
747D
100
AcDbEntity
  8
部品1
100
AcDbCircle
 10
7428.471382019877
 20
1830.026069202275
 30
0.0
 40
2.7
100
AcDbArc
 50
270.0
 51
0.0
  0
LINE
  5
29064
330
747D
100
AcDbEntity
  8
部品1
100
AcDbLine
 10
7388.871382019876
 20
1875.366069202275
 30
0.0
 11
7428.471382019877
 21
1875.366069202275
 31
0.0
  0
ARC
  5
29065
330
747D
100
AcDbEntity
  8
部品1
100
AcDbCircle
 10
7428.471382019877
 20
1872.666069202274
 30
0.0
 40
2.7
100
AcDbArc
 50
0.0
 51
90.0
  0
LINE
  5
29066
330
747D
100
AcDbEntity
  8
部品1
100
AcDbLine
 10
7443.131382019878
 20
1884.626069202275
 30
0.0
 11
7443.131382019874
 21
1830.026069202275
 31
0.0
  0
LINE
  5
29067
330
747D
100
AcDbEntity
  8
部品1
100
AcDbLine
 10
7409.571382019876
 20
1884.626069202275
 30
0.0
 11
7409.571382019876
 21
1867.526069202275
 31
0.0
  0
LINE
  5
29068
330
747D
100
AcDbEntity
  8
細線
100
AcDbLine
 10
7507.671382019879
 20
1827.326069202275
 30
0.0
 11
7507.671382019879
 21
1870.526069202275
 31
0.0
  0
LINE
  5
29069
330
747D
100
AcDbEntity
  8
細線
100
AcDbLine
 10
7496.871382019879
 20
1827.326069202275
 30
0.0
 11
7496.871382019875
 21
1870.526069202275
 31
0.0
  0
LINE
  5
2906A
330
747D
100
AcDbEntity
  8
部品1
100
AcDbLine
 10
7493.271382019877
 20
1866.926069202275
 30
0.0
 11
7511.271382019877
 21
1866.926069202275
 31
0.0
  0
LINE
  5
2906B
330
747D
100
AcDbEntity
  8
部品1
100
AcDbLine
 10
7496.871382019875
 20
1870.526069202275
 30
0.0
 11
7507.671382019879
 21
1870.526069202275
 31
0.0
  0
ELLIPSE
  5
2906C
330
747D
100
AcDbEntity
  8
部品1
 48
50.0
100
AcDbEllipse
 10
7502.271382019877
 20
2086.889357646547
 30
0.0
 11
40.0
 21
0.0
 31
0.0
210
0.0
220
0.0
230
1.0
 40
0.4
 41
0.0
 42
6.283185307179586
  0
ELLIPSE
  5
2906D
330
747D
100
AcDbEntity
  8
部品1
 48
50.0
100
AcDbEllipse
 10
7502.271382019877
 20
2077.289357646548
 30
0.0
 11
40.0
 21
0.0
 31
0.0
210
0.0
220
0.0
230
1.0
 40
0.4
 41
3.141592653589793
 42
6.283185307179586
  0
LINE
  5
2906E
330
747D
100
AcDbEntity
  8
部品1
 48
50.0
100
AcDbLine
 10
7462.271382019877
 20
2086.889357646547
 30
0.0
 11
7462.271382019877
 21
2077.289357646547
 31
0.0
  0
ARC
  5
2906F
330
747D
100
AcDbEntity
  8
部品1
100
AcDbCircle
 10
7386.171382019877
 20
1926.666069202271
 30
0.0
 40
2.7
100
AcDbArc
 50
0.0
 51
90.0
  0
ARC
  5
29070
330
747D
100
AcDbEntity
  8
部品1
100
AcDbCircle
 10
7343.871382019877
 20
1926.666069202274
 30
0.0
 40
2.7
100
AcDbArc
 50
90.0
 51
180.0
  0
LINE
  5
29071
330
747D
100
AcDbEntity
  8
部品1
100
AcDbLine
 10
7341.171382019877
 20
1918.566069202275
 30
0.0
 11
7341.171382019877
 21
1918.566069202275
 31
0.0
  0
LINE
  5
29072
330
747D
100
AcDbEntity
  8
部品1
100
AcDbLine
 10
7341.171382019877
 20
1918.566069202275
 30
0.0
 11
7341.171382019877
 21
1926.666069202274
 31
0.0
  0
LINE
  5
29073
330
747D
100
AcDbEntity
  8
部品1
100
AcDbLine
 10
7343.871382019877
 20
1929.366069202275
 30
0.0
 11
7386.171382019877
 21
1929.366069202271
 31
0.0
  0
ARC
  5
29074
330
747D
100
AcDbEntity
  8
部品1
100
AcDbCircle
 10
7341.171382019877
 20
1915.866069202275
 30
0.0
 40
2.7
100
AcDbArc
 50
90.0
 51
180.0
  0
ELLIPSE
  5
29075
330
747D
100
AcDbEntity
  8
部品1
 48
50.0
100
AcDbEllipse
 10
7502.271382019877
 20
2086.889357646547
 30
0.0
 11
18.4
 21
0.0
 31
0.0
210
0.0
220
0.0
230
1.0
 40
0.3478260869565217
 41
0.0
 42
6.283185307179586
  0
LINE
  5
29076
330
747D
100
AcDbEntity
  8
部品1
 48
50.0
100
AcDbLine
 10
7542.271382019876
 20
2077.289357646547
 30
0.0
 11
7542.271382019876
 21
2086.889357646547
 31
0.0
  0
LINE
  5
29077
330
747D
100
AcDbEntity
  8
部品1
 48
50.0
100
AcDbLine
 10
7470.271382019877
 20
2208.641350311417
 30
0.0
 11
7486.271382019878
 21
2200.641350311417
 31
0.0
  0
LINE
  5
29078
330
747D
100
AcDbEntity
  8
部品1
 48
50.0
100
AcDbLine
 10
7470.271382019877
 20
2176.641350311417
 30
0.0
 11
7486.271382019878
 21
2168.641350311418
 31
0.0
  0
LINE
  5
29079
330
747D
100
AcDbEntity
  8
部品1
 48
50.0
100
AcDbLine
 10
7470.271382019877
 20
2208.641350311417
 30
0.0
 11
7486.271382019878
 21
2216.641350311417
 31
0.0
  0
LINE
  5
2907A
330
747D
100
AcDbEntity
  8
部品1
 48
50.0
100
AcDbLine
 10
7470.271382019877
 20
2176.641350311417
 30
0.0
 11
7470.271382019877
 21
2208.641350311417
 31
0.0
  0
LINE
  5
2907B
330
747D
100
AcDbEntity
  8
部品1
 48
50.0
100
AcDbLine
 10
7486.271382019878
 20
2216.641350311417
 30
0.0
 11
7518.271382019877
 21
2216.641350311417
 31
0.0
  0
ELLIPSE
  5
2907C
330
747D
100
AcDbEntity
  8
細線
 48
50.0
100
AcDbEllipse
 10
7502.271382019877
 20
2208.641350311417
 30
0.0
 11
14.76670786606846
 21
0.0
 31
0.0
210
0.0
220
0.0
230
1.0
 40
0.2071254069489396
 41
0.0
 42
6.283185307179586
  0
LINE
  5
2907D
330
747D
100
AcDbEntity
  8
部品1
 48
50.0
100
AcDbLine
 10
7486.271382019878
 20
2168.641350311418
 30
0.0
 11
7518.271382019877
 21
2168.641350311418
 31
0.0
  0
LINE
  5
2907E
330
747D
100
AcDbEntity
  8
部品1
 48
50.0
100
AcDbLine
 10
7518.271382019877
 20
2168.641350311418
 30
0.0
 11
7534.271382019877
 21
2176.641350311417
 31
0.0
  0
LINE
  5
2907F
330
747D
100
AcDbEntity
  8
部品1
 48
50.0
100
AcDbLine
 10
7486.271382019878
 20
2200.641350311417
 30
0.0
 11
7518.271382019877
 21
2200.641350311417
 31
0.0
  0
LINE
  5
29080
330
747D
100
AcDbEntity
  8
部品1
 48
50.0
100
AcDbLine
 10
7518.271382019877
 20
2200.641350311417
 30
0.0
 11
7534.271382019877
 21
2208.641350311417
 31
0.0
  0
LINE
  5
29081
330
747D
100
AcDbEntity
  8
細線
 48
50.0
100
AcDbLine
 10
7518.271382019877
 20
2168.641350311418
 30
0.0
 11
7518.271382019877
 21
2200.641350311417
 31
0.0
  0
LINE
  5
29082
330
747D
100
AcDbEntity
  8
部品1
 48
50.0
100
AcDbLine
 10
7534.271382019877
 20
2176.641350311417
 30
0.0
 11
7534.271382019877
 21
2208.641350311417
 31
0.0
  0
LINE
  5
29083
330
747D
100
AcDbEntity
  8
細線
 48
50.0
100
AcDbLine
 10
7486.271382019878
 20
2168.641350311418
 30
0.0
 11
7486.271382019878
 21
2200.641350311417
 31
0.0
  0
LINE
  5
29084
330
747D
100
AcDbEntity
  8
部品1
 48
50.0
100
AcDbLine
 10
7518.271382019877
 20
2216.641350311417
 30
0.0
 11
7534.271382019877
 21
2208.641350311417
 31
0.0
  0
TEXT
  5
29085
330
747D
100
AcDbEntity
  8
部品1
100
AcDbText
 10
7203.043631211809
 20
3037.552804451432
 30
0.0
 40
120.0
  1
基礎詳細
  7
STYLE2
100
AcDbText
  0
LINE
  5
29086
330
747D
100
AcDbEntity
  8
部品1
100
AcDbLine
 10
10581.14881541966
 20
252.7977668182129
 30
0.0
 11
10581.14881541967
 21
3217.10473640286
 31
0.0
  0
LINE
  5
29087
330
747D
100
AcDbEntity
  8
細線
100
AcDbLine
 10
9589.04064799942
 20
1577.766069202274
 30
0.0
 11
9394.407314322634
 21
1772.399402879057
 31
0.0
  0
LINE
  5
29088
330
747D
100
AcDbEntity
  8
部品1
100
AcDbLine
 10
9394.407314322634
 20
1817.766069202274
 30
0.0
 11
9874.407314322635
 21
1817.766069202274
 31
0.0
  0
LINE
  5
29089
330
747D
100
AcDbEntity
  8
細線
 48
50.0
100
AcDbLine
 10
9528.478198765894
 20
1358.067153548925
 30
0.0
 11
9562.775695397078
 21
1486.067153548924
 31
0.0
  0
LINE
  5
2908A
330
747D
100
AcDbEntity
  8
部品1
100
AcDbLine
 10
9274.407314322635
 20
1358.067153548921
 30
0.0
 11
9994.407314322636
 21
1358.067153548925
 31
0.0
  0
LINE
  5
2908B
330
747D
100
AcDbEntity
  8
部品1
100
AcDbLine
 10
9274.407314322635
 20
1486.067153548924
 30
0.0
 11
9994.407314322636
 21
1486.067153548927
 31
0.0
  0
LINE
  5
2908C
330
747D
100
AcDbEntity
  8
細線
100
AcDbLine
 10
9455.325959815876
 20
1486.067153548924
 30
0.0
 11
9547.024875469222
 21
1577.766069202274
 31
0.0
  0
LWPOLYLINE
  5
2908D
330
747D
100
AcDbEntity
  8
部品1
 48
50.0
100
AcDbPolyline
 90
        2
 70
     0
 43
12.0
 10
9009.796052222247
 20
1577.766069202274
 10
10210.88835535387
 20
1577.766069202274
  0
LINE
  5
2908E
330
747D
100
AcDbEntity
  8
細線
100
AcDbLine
 10
9538.128959753988
 20
1577.766069202274
 30
0.0
 11
9394.407314322634
 21
1721.487714633627
 31
0.0
  0
TEXT
  5
2908F
330
747D
100
AcDbEntity
  8
部品1
 48
50.0
100
AcDbText
 10
8630.289227564132
 20
1310.966328564966
 30
0.0
 40
80.0
  1
ボルトの出
 50
90.0
  7
STYLE2
100
AcDbText
  0
LINE
  5
29090
330
747D
100
AcDbEntity
  8
部品1
100
AcDbLine
 10
9394.407314322634
 20
1577.766069202274
 30
0.0
 11
9394.407314322634
 21
1817.766069202274
 31
0.0
  0
LINE
  5
29091
330
747D
100
AcDbEntity
  8
細線
 48
50.0
100
AcDbLine
 10
9370.702108871396
 20
1358.067153548924
 30
0.0
 11
9404.999605502577
 21
1486.067153548924
 31
0.0
  0
LINE
  5
29092
330
747D
100
AcDbEntity
  8
細線
 48
50.0
100
AcDbLine
 10
9449.590153818645
 20
1358.067153548925
 30
0.0
 11
9483.88765044983
 21
1486.067153548924
 31
0.0
  0
LINE
  5
29093
330
747D
100
AcDbEntity
  8
細線
 48
50.0
100
AcDbLine
 10
9291.814063924148
 20
1358.067153548925
 30
0.0
 11
9326.111560555331
 21
1486.067153548924
 31
0.0
  0
LINE
  5
29094
330
747D
100
AcDbEntity
  8
部品1
100
AcDbLine
 10
9274.407314322635
 20
1358.067153548921
 30
0.0
 11
9274.407314322635
 21
1577.766069202274
 31
0.0
  0
LINE
  5
29095
330
747D
100
AcDbEntity
  8
細線
 48
50.0
100
AcDbLine
 10
9377.132889489745
 20
1382.067153548925
 30
0.0
 11
9383.563670108094
 21
1358.067153548925
 31
0.0
  0
LINE
  5
29096
330
747D
100
AcDbEntity
  8
細線
 48
50.0
100
AcDbLine
 10
9298.244844542496
 20
1382.067153548925
 30
0.0
 11
9304.675625160843
 21
1358.067153548925
 31
0.0
  0
LINE
  5
29097
330
747D
100
AcDbEntity
  8
細線
 48
50.0
100
AcDbLine
 10
9456.020934436997
 20
1382.067153548925
 30
0.0
 11
9462.451715055344
 21
1358.067153548925
 31
0.0
  0
LINE
  5
29098
330
747D
100
AcDbEntity
  8
細線
 48
50.0
100
AcDbLine
 10
9534.908979384244
 20
1382.067153548925
 30
0.0
 11
9541.339760002593
 21
1358.067153548925
 31
0.0
  0
LINE
  5
29099
330
747D
100
AcDbEntity
  8
細線
 48
50.0
100
AcDbLine
 10
9319.680779936986
 20
1462.067153548924
 30
0.0
 11
9313.249999318635
 21
1486.067153548924
 31
0.0
  0
LINE
  5
2909A
330
747D
100
AcDbEntity
  8
細線
 48
50.0
100
AcDbLine
 10
9477.456869831486
 20
1462.067153548924
 30
0.0
 11
9471.026089213141
 21
1486.067153548924
 31
0.0
  0
LINE
  5
2909B
330
747D
100
AcDbEntity
  8
細線
 48
50.0
100
AcDbLine
 10
9398.568824884234
 20
1462.067153548924
 30
0.0
 11
9392.138044265889
 21
1486.067153548924
 31
0.0
  0
LINE
  5
2909C
330
747D
100
AcDbEntity
  8
細線
100
AcDbLine
 10
9387.443708821963
 20
1486.067153548924
 30
0.0
 11
9479.142624475313
 21
1577.766069202274
 31
0.0
  0
LINE
  5
2909D
330
747D
100
AcDbEntity
  8
細線
100
AcDbLine
 10
9421.384834318919
 20
1486.067153548924
 30
0.0
 11
9513.083749972265
 21
1577.766069202274
 31
0.0
  0
LINE
  5
2909E
330
747D
100
AcDbEntity
  8
細線
100
AcDbLine
 10
9809.657963729625
 20
1577.766069202274
 30
0.0
 11
9569.657963729623
 21
1817.766069202274
 31
0.0
  0
LINE
  5
2909F
330
747D
100
AcDbEntity
  8
細線
100
AcDbLine
 10
9860.569651975053
 20
1577.766069202276
 30
0.0
 11
9620.569651975056
 21
1817.766069202274
 31
0.0
  0
LINE
  5
290A0
330
747D
100
AcDbEntity
  8
部品1
100
AcDbLine
 10
9874.407314322635
 20
1817.766069202274
 30
0.0
 11
9874.407314322635
 21
1577.766069202274
 31
0.0
  0
LINE
  5
290A1
330
747D
100
AcDbEntity
  8
細線
 48
50.0
100
AcDbLine
 10
9844.030378554883
 20
1358.067153548922
 30
0.0
 11
9878.327875186068
 21
1486.067153548922
 31
0.0
  0
LINE
  5
290A2
330
747D
100
AcDbEntity
  8
細線
100
AcDbLine
 10
9815.325959815877
 20
1486.067153548926
 30
0.0
 11
9907.024875469222
 21
1577.766069202274
 31
0.0
  0
LINE
  5
290A3
330
747D
100
AcDbEntity
  8
細線
 48
50.0
100
AcDbLine
 10
9765.142333607634
 20
1358.067153548924
 30
0.0
 11
9799.439830238808
 21
1486.067153548924
 31
0.0
  0
LINE
  5
290A4
330
747D
100
AcDbEntity
  8
細線
 48
50.0
100
AcDbLine
 10
9607.366243713144
 20
1358.067153548924
 30
0.0
 11
9641.663740344325
 21
1486.067153548924
 31
0.0
  0
LINE
  5
290A5
330
747D
100
AcDbEntity
  8
細線
 48
50.0
100
AcDbLine
 10
9686.254288660386
 20
1358.067153548925
 30
0.0
 11
9720.551785291569
 21
1486.067153548924
 31
0.0
  0
LINE
  5
290A6
330
747D
100
AcDbEntity
  8
細線
 48
50.0
100
AcDbLine
 10
9692.685069278738
 20
1382.067153548925
 30
0.0
 11
9699.115849897083
 21
1358.067153548925
 31
0.0
  0
LINE
  5
290A7
330
747D
100
AcDbEntity
  8
細線
 48
50.0
100
AcDbLine
 10
9613.797024331493
 20
1382.067153548925
 30
0.0
 11
9620.227804949839
 21
1358.067153548925
 31
0.0
  0
LINE
  5
290A8
330
747D
100
AcDbEntity
  8
細線
 48
50.0
100
AcDbLine
 10
9771.573114225983
 20
1382.067153548925
 30
0.0
 11
9778.00389484434
 21
1358.067153548925
 31
0.0
  0
LINE
  5
290A9
330
747D
100
AcDbEntity
  8
細線
 48
50.0
100
AcDbLine
 10
9850.461159173233
 20
1382.067153548924
 30
0.0
 11
9856.891939791578
 21
1358.067153548924
 31
0.0
  0
LINE
  5
290AA
330
747D
100
AcDbEntity
  8
細線
 48
50.0
100
AcDbLine
 10
9714.121004673227
 20
1462.067153548924
 30
0.0
 11
9707.69022405488
 21
1486.067153548924
 31
0.0
  0
LINE
  5
290AB
330
747D
100
AcDbEntity
  8
細線
 48
50.0
100
AcDbLine
 10
9635.232959725982
 20
1462.067153548924
 30
0.0
 11
9628.802179107637
 21
1486.067153548924
 31
0.0
  0
LINE
  5
290AC
330
747D
100
AcDbEntity
  8
細線
 48
50.0
100
AcDbLine
 10
9556.344914778732
 20
1462.067153548924
 30
0.0
 11
9549.914134160387
 21
1486.067153548924
 31
0.0
  0
LINE
  5
290AD
330
747D
100
AcDbEntity
  8
細線
100
AcDbLine
 10
9781.384834318924
 20
1486.067153548926
 30
0.0
 11
9873.083749972266
 21
1577.766069202274
 31
0.0
  0
LINE
  5
290AE
330
747D
100
AcDbEntity
  8
細線
 48
50.0
100
AcDbLine
 10
9793.009049620465
 20
1462.067153548924
 30
0.0
 11
9786.57826900212
 21
1486.067153548924
 31
0.0
  0
LINE
  5
290AF
330
747D
100
AcDbEntity
  8
細線
100
AcDbLine
 10
9747.443708821968
 20
1486.067153548926
 30
0.0
 11
9839.142624475314
 21
1577.766069202274
 31
0.0
  0
LINE
  5
290B0
330
747D
100
AcDbEntity
  8
細線
 48
50.0
100
AcDbLine
 10
9871.897094567721
 20
1462.067153548924
 30
0.0
 11
9865.466313949376
 21
1486.067153548924
 31
0.0
  0
LINE
  5
290B1
330
747D
100
AcDbEntity
  8
細線
 48
50.0
100
AcDbLine
 10
9922.918423502128
 20
1358.067153548924
 30
0.0
 11
9957.215920133313
 21
1486.067153548922
 31
0.0
  0
LINE
  5
290B2
330
747D
100
AcDbEntity
  8
部品1
100
AcDbLine
 10
9994.407314322636
 20
1577.766069202274
 30
0.0
 11
9994.407314322637
 21
1358.067153548925
 31
0.0
  0
LINE
  5
290B3
330
747D
100
AcDbEntity
  8
細線
 48
50.0
100
AcDbLine
 10
9929.349204120477
 20
1382.067153548924
 30
0.0
 11
9935.779984738827
 21
1358.067153548924
 31
0.0
  0
LINE
  5
290B4
330
747D
100
AcDbEntity
  8
細線
 48
50.0
100
AcDbLine
 10
9950.785139514968
 20
1462.067153548924
 30
0.0
 11
9944.354358896621
 21
1486.067153548924
 31
0.0
  0
LEADER
  5
290B5
330
747D
100
AcDbEntity
  8
寸法
 48
50.0
100
AcDbLeader
  3
INABA_S50G
 73
     0
 74
     0
 75
     1
 40
120.0
 41
185.591883092037
 76
     3
 10
9805.131725938558
 20
1817.766069202274
 30
0.0
 10
9838.269932572202
 20
1989.912389883412
 30
0.0
 10
9963.269932572202
 20
1989.912389883412
 30
0.0
340
290B6
1001
ACAD
1000
DSTYLE
1002
{
1070
    40
1040
1.0
1002
}
  0
MTEXT
  5
290B6
102
{ACAD_REACTORS
330
290B5
102
}
330
747D
100
AcDbEntity
  8
寸法
 62
     7
 48
50.0
100
AcDbMText
 10
9988.269932572203
 20
2074.912389883412
 30
0.0
 40
120.0
 41
0.8
 71
     4
 72
     1
  1
\A1;C.B
  7
STYLE1
 73
     1
 44
1.0
1001
ACAD
1000
MTEXTBEGIN
1070
    73
1070
     1
1070
    44
1040
1.0
1070
    74
1070
     0
1000
MTEXTEND
  0
TEXT
  5
29147
330
747D
100
AcDbEntity
  8
文字
 62
     7
 48
50.0
100
AcDbText
 10
16307.78595799787
 20
0.1862994167712713
 30
0.0
 40
1.0
  1
at
  7
STYLE2
100
AcDbText
  0
ENDSEC
  0
SECTION
  2
OBJECTS
  0
DICTIONARY
  5
7471
330
0
100
AcDbDictionary
281
     1
  3
ACAD_COLOR
350
173D2
  3
ACAD_GROUP
350
7472
  3
ACAD_LAYOUT
350
173D3
  3
ACAD_MATERIAL
350
173D1
  3
ACAD_MLINESTYLE
350
7473
  3
ACAD_PLOTSETTINGS
350
173D4
  3
ACAD_PLOTSTYLENAME
350
173CF
  3
ACDBHEADERROUNDTRIPXREC
350
2915C
  3
AcDbVariableDictionary
350
28C25
  3
CONTENTDICTIONARY
350
E71C
  3
DRAWINGVARIABLESDICT
350
F3B9
  0
DICTIONARY
  5
1758F
330
7467
100
AcDbDictionary
280
     1
281
     1
  3
ACAD_LAYERSTATES
360
17590
  0
DICTIONARY
  5
173D2
102
{ACAD_REACTORS
330
7471
102
}
330
7471
100
AcDbDictionary
281
     1
  0
DICTIONARY
  5
7472
102
{ACAD_REACTORS
330
7471
102
}
330
7471
100
AcDbDictionary
281
     1
  3
*A1
350
1D2A9
  0
DICTIONARY
  5
173D3
102
{ACAD_REACTORS
330
7471
102
}
330
7471
100
AcDbDictionary
281
     1
  3
Model
350
173D5
  3
レイアウト1
350
173D6
  0
DICTIONARY
  5
173D1
102
{ACAD_REACTORS
330
7471
102
}
330
7471
100
AcDbDictionary
281
     1
  0
DICTIONARY
  5
7473
102
{ACAD_REACTORS
330
7471
102
}
330
7471
100
AcDbDictionary
281
     1
  3
STANDARD
350
7480
  0
DICTIONARY
  5
173D4
102
{ACAD_REACTORS
330
7471
102
}
330
7471
100
AcDbDictionary
281
     1
  0
ACDBDICTIONARYWDFLT
  5
173CF
102
{ACAD_REACTORS
330
7471
102
}
330
7471
100
AcDbDictionary
281
     1
  3
Normal
350
173D0
100
AcDbDictionaryWithDefault
340
173D0
  0
DICTIONARY
  5
2915C
102
{ACAD_REACTORS
330
7471
102
}
330
7471
100
AcDbDictionary
281
     1
  3
COLORDICT
350
2915E
  3
MATERIALDICT
350
2915D
  0
DICTIONARY
  5
28C25
102
{ACAD_REACTORS
330
7471
102
}
330
7471
100
AcDbDictionary
281
     1
  3
DIMASSOC
350
28C26
  3
PROJECTNAME
350
28C27
  0
DICTIONARY
  5
E71C
102
{ACAD_REACTORS
330
7471
102
}
330
7471
100
AcDbDictionary
281
     1
  0
DICTIONARY
  5
F3B9
102
{ACAD_REACTORS
330
7471
102
}
330
7471
100
AcDbDictionary
281
     1
1001
DRAWINGVARIABLESXDATA
1000
POLARMODE
1000
1
  0
DICTIONARY
  5
17590
102
{ACAD_REACTORS
330
1758F
102
}
330
1758F
100
AcDbDictionary
281
     1
  0
GROUP
  5
1D2A9
102
{ACAD_REACTORS
330
7472
102
}
330
7472
100
AcDbGroup
300

 70
     1
 71
     1
  0
LAYOUT
  5
173D5
102
{ACAD_XDICTIONARY
360
2915F
102
}
102
{ACAD_REACTORS
330
173D3
102
}
330
173D3
100
AcDbPlotSettings
  1

  2
CutePDF Writer
  4
A3
  6

 40
3.174999952316284
 41
3.174999952316284
 42
3.17498779296875
 43
3.17498779296875
 44
297.0530090332031
 45
420.1583251953125
 46
0.0
 47
0.0
 48
0.0
 49
0.0
140
0.0
141
0.0
142
1.0
143
40.0
 70
 11952
 72
     1
 73
     1
 74
     2
  7
inaba.ctb
 75
    24
147
0.025
148
0.0
149
0.0
100
AcDbLayout
  1
Model
 70
     1
 71
     0
 10
0.0
 20
0.0
 11
12.0
 21
9.0
 12
0.0
 22
0.0
 32
0.0
 14
0.0
 24
0.0
 34
0.0
 15
0.0
 25
0.0
 35
0.0
146
0.0
 13
0.0
 23
0.0
 33
0.0
 16
1.0
 26
0.0
 36
0.0
 17
0.0
 27
1.0
 37
0.0
 76
     0
330
747D
  0
LAYOUT
  5
173D6
102
{ACAD_XDICTIONARY
360
29161
102
}
102
{ACAD_REACTORS
330
173D3
102
}
330
173D3
100
AcDbPlotSettings
  1

  2
Microsoft Office Document Image Writer
  4

  6

 40
0.0
 41
0.0
 42
0.0
 43
0.0
 44
0.0
 45
0.0
 46
0.0
 47
0.0
 48
0.0
 49
0.0
140
0.0
141
0.0
142
1.0
143
1.0
 70
   688
 72
     0
 73
     0
 74
     5
  7
inaba.ctb
 75
    16
147
1.0
148
0.0
149
0.0
100
AcDbLayout
  1
レイアウト1
 70
     0
 71
     1
 10
0.0
 20
0.0
 11
420.0
 21
297.0
 12
0.0
 22
0.0
 32
0.0
 14
1.000000000000000E+20
 24
1.000000000000000E+20
 34
1.000000000000000E+20
 15
-1.000000000000000E+20
 25
-1.000000000000000E+20
 35
-1.000000000000000E+20
146
0.0
 13
0.0
 23
0.0
 33
0.0
 16
1.0
 26
0.0
 36
0.0
 17
0.0
 27
1.0
 37
0.0
 76
     0
330
747A
  0
MLINESTYLE
  5
7480
102
{ACAD_REACTORS
330
7473
102
}
330
7473
100
AcDbMlineStyle
  2
STANDARD
 70
     0
  3

 62
     0
 51
90.0
 52
90.0
 71
     2
 49
0.5
 62
   256
  6
BYLAYER
 49
-0.5
 62
   256
  6
BYLAYER
  0
ACDBPLACEHOLDER
  5
173D0
102
{ACAD_REACTORS
330
173CF
102
}
330
173CF
  0
XRECORD
  5
2915E
102
{ACAD_REACTORS
330
2915C
102
}
330
2915C
100
AcDbXrecord
280
     1
340
173D2
  0
XRECORD
  5
2915D
102
{ACAD_REACTORS
330
2915C
102
}
330
2915C
100
AcDbXrecord
280
     1
340
173D1
  0
DICTIONARYVAR
  5
28C26
102
{ACAD_REACTORS
330
28C25
102
}
330
28C25
100
DictionaryVariables
280
     0
  1
1
  0
DICTIONARYVAR
  5
28C27
102
{ACAD_REACTORS
330
28C25
102
}
330
28C25
100
DictionaryVariables
280
     0
  1

  0
DICTIONARY
  5
2915F
330
173D5
100
AcDbDictionary
280
     1
281
     1
  3
ACAD_XREC_ROUNDTRIP
360
29160
  0
DICTIONARY
  5
29161
330
173D6
100
AcDbDictionary
280
     1
281
     1
  3
ACAD_XREC_ROUNDTRIP
360
29162
  0
XRECORD
  5
29160
102
{ACAD_REACTORS
330
2915F
102
}
330
2915F
100
AcDbXrecord
280
     1
102
SHADEPLOT
 70
     0
102
SHADEPLOTRESLEVEL
 70
     2
102
SHADEPLOTCUSTOMDPI
 70
   300
  0
XRECORD
  5
29162
102
{ACAD_REACTORS
330
29161
102
}
330
29161
100
AcDbXrecord
280
     1
102
SHADEPLOT
 70
     0
102
SHADEPLOTRESLEVEL
 70
     2
102
SHADEPLOTCUSTOMDPI
 70
   300
  0
ENDSEC
  0
EOF
