  0
SECTION
  2
HEADER
  9
$ACADVER
  1
AC1015
  9
$ACADMAINTVER
 70
    20
  9
$DWGCODEPAGE
  3
ANSI_932
  9
$INSBASE
 10
0.0
 20
0.0
 30
0.0
  9
$EXTMIN
 10
139.9999999999995
 20
-0.0000000000000909
 30
0.0
  9
$EXTMAX
 10
16307.2
 20
11409.6
 30
0.0
  9
$LIMMIN
 10
0.0
 20
0.0
  9
$LIMMAX
 10
16800.0
 20
11880.0
  9
$ORTHOMODE
 70
     0
  9
$REGENMODE
 70
     1
  9
$FILLMODE
 70
     1
  9
$QTEXTMODE
 70
     0
  9
$MIRRTEXT
 70
     1
  9
$LTSCALE
 40
20.0
  9
$ATTMODE
 70
     1
  9
$TEXTSIZE
 40
4.0
  9
$TRACEWID
 40
1.0
  9
$TEXTSTYLE
  7
STYLE1
  9
$CLAYER
  8
細線
  9
$CELTYPE
  6
BYLAYER
  9
$CECOLOR
 62
   256
  9
$CELTSCALE
 40
50.0
  9
$DISPSILH
 70
     0
  9
$DIMSCALE
 40
40.0
  9
$DIMASZ
 40
2.5
  9
$DIMEXO
 40
0.5
  9
$DIMDLI
 40
7.0
  9
$DIMRND
 40
0.0
  9
$DIMDLE
 40
0.0
  9
$DIMEXE
 40
1.5
  9
$DIMTP
 40
0.0
  9
$DIMTM
 40
0.0
  9
$DIMTXT
 40
3.0
  9
$DIMCEN
 40
0.0
  9
$DIMTSZ
 40
0.0
  9
$DIMTOL
 70
     0
  9
$DIMLIM
 70
     0
  9
$DIMTIH
 70
     0
  9
$DIMTOH
 70
     0
  9
$DIMSE1
 70
     0
  9
$DIMSE2
 70
     0
  9
$DIMTAD
 70
     3
  9
$DIMZIN
 70
     8
  9
$DIMBLK
  1

  9
$DIMASO
 70
     1
  9
$DIMSHO
 70
     1
  9
$DIMPOST
  1

  9
$DIMAPOST
  1

  9
$DIMALT
 70
     0
  9
$DIMALTD
 70
     2
  9
$DIMALTF
 40
0.0394
  9
$DIMLFAC
 40
1.0
  9
$DIMTOFL
 70
     1
  9
$DIMTVP
 40
0.0
  9
$DIMTIX
 70
     1
  9
$DIMSOXD
 70
     0
  9
$DIMSAH
 70
     1
  9
$DIMBLK1
  1
DOTSMALL
  9
$DIMBLK2
  1
DOTSMALL
  9
$DIMSTYLE
  2
INABA_S40G
  9
$DIMCLRD
 70
     0
  9
$DIMCLRE
 70
     0
  9
$DIMCLRT
 70
     7
  9
$DIMTFAC
 40
1.0
  9
$DIMGAP
 40
1.0
  9
$DIMJUST
 70
     0
  9
$DIMSD1
 70
     0
  9
$DIMSD2
 70
     0
  9
$DIMTOLJ
 70
     1
  9
$DIMTZIN
 70
     0
  9
$DIMALTZ
 70
     0
  9
$DIMALTTZ
 70
     0
  9
$DIMUPT
 70
     0
  9
$DIMDEC
 70
     1
  9
$DIMTDEC
 70
     4
  9
$DIMALTU
 70
     2
  9
$DIMALTTD
 70
     2
  9
$DIMTXSTY
  7
STYLE1
  9
$DIMAUNIT
 70
     0
  9
$DIMADEC
 70
     0
  9
$DIMALTRND
 40
0.0
  9
$DIMAZIN
 70
     0
  9
$DIMDSEP
 70
    46
  9
$DIMATFIT
 70
     3
  9
$DIMFRAC
 70
     0
  9
$DIMLDRBLK
  1

  9
$DIMLUNIT
 70
     2
  9
$DIMLWD
 70
    -2
  9
$DIMLWE
 70
    -2
  9
$DIMTMOVE
 70
     0
  9
$LUNITS
 70
     2
  9
$LUPREC
 70
     1
  9
$SKETCHINC
 40
1.0
  9
$FILLETRAD
 40
3.0
  9
$AUNITS
 70
     0
  9
$AUPREC
 70
     0
  9
$MENU
  1
acad
  9
$ELEVATION
 40
0.0
  9
$PELEVATION
 40
0.0
  9
$THICKNESS
 40
0.0
  9
$LIMCHECK
 70
     0
  9
$CHAMFERA
 40
0.0
  9
$CHAMFERB
 40
0.0
  9
$CHAMFERC
 40
0.0
  9
$CHAMFERD
 40
0.0
  9
$SKPOLY
 70
     0
  9
$TDCREATE
 40
2451368.612993866
  9
$TDUCREATE
 40
2451368.237993866
  9
$TDUPDATE
 40
2455827.641217037
  9
$TDUUPDATE
 40
2455827.266217037
  9
$TDINDWG
 40
0.8096218056
  9
$TDUSRTIMER
 40
0.8096218056
  9
$USRTIMER
 70
     1
  9
$ANGBASE
 50
0.0
  9
$ANGDIR
 70
     0
  9
$PDMODE
 70
     3
  9
$PDSIZE
 40
2.0
  9
$PLINEWID
 40
0.0
  9
$SPLFRAME
 70
     0
  9
$SPLINETYPE
 70
     6
  9
$SPLINESEGS
 70
     8
  9
$HANDSEED
  5
2D654
  9
$SURFTAB1
 70
     6
  9
$SURFTAB2
 70
     6
  9
$SURFTYPE
 70
     6
  9
$SURFU
 70
     6
  9
$SURFV
 70
     6
  9
$UCSBASE
  2

  9
$UCSNAME
  2

  9
$UCSORG
 10
0.0
 20
0.0
 30
0.0
  9
$UCSXDIR
 10
1.0
 20
0.0
 30
0.0
  9
$UCSYDIR
 10
0.0
 20
1.0
 30
0.0
  9
$UCSORTHOREF
  2

  9
$UCSORTHOVIEW
 70
     0
  9
$UCSORGTOP
 10
0.0
 20
0.0
 30
0.0
  9
$UCSORGBOTTOM
 10
0.0
 20
0.0
 30
0.0
  9
$UCSORGLEFT
 10
0.0
 20
0.0
 30
0.0
  9
$UCSORGRIGHT
 10
0.0
 20
0.0
 30
0.0
  9
$UCSORGFRONT
 10
0.0
 20
0.0
 30
0.0
  9
$UCSORGBACK
 10
0.0
 20
0.0
 30
0.0
  9
$PUCSBASE
  2

  9
$PUCSNAME
  2

  9
$PUCSORG
 10
0.0
 20
0.0
 30
0.0
  9
$PUCSXDIR
 10
1.0
 20
0.0
 30
0.0
  9
$PUCSYDIR
 10
0.0
 20
1.0
 30
0.0
  9
$PUCSORTHOREF
  2

  9
$PUCSORTHOVIEW
 70
     0
  9
$PUCSORGTOP
 10
0.0
 20
0.0
 30
0.0
  9
$PUCSORGBOTTOM
 10
0.0
 20
0.0
 30
0.0
  9
$PUCSORGLEFT
 10
0.0
 20
0.0
 30
0.0
  9
$PUCSORGRIGHT
 10
0.0
 20
0.0
 30
0.0
  9
$PUCSORGFRONT
 10
0.0
 20
0.0
 30
0.0
  9
$PUCSORGBACK
 10
0.0
 20
0.0
 30
0.0
  9
$USERI1
 70
     0
  9
$USERI2
 70
     0
  9
$USERI3
 70
     0
  9
$USERI4
 70
     0
  9
$USERI5
 70
     0
  9
$USERR1
 40
0.0
  9
$USERR2
 40
0.0
  9
$USERR3
 40
0.0
  9
$USERR4
 40
0.0
  9
$USERR5
 40
0.0
  9
$WORLDVIEW
 70
     1
  9
$SHADEDGE
 70
     3
  9
$SHADEDIF
 70
    70
  9
$TILEMODE
 70
     1
  9
$MAXACTVP
 70
    16
  9
$PINSBASE
 10
0.0
 20
0.0
 30
0.0
  9
$PLIMCHECK
 70
     0
  9
$PEXTMIN
 10
1.000000000000000E+20
 20
1.000000000000000E+20
 30
1.000000000000000E+20
  9
$PEXTMAX
 10
-1.000000000000000E+20
 20
-1.000000000000000E+20
 30
-1.000000000000000E+20
  9
$PLIMMIN
 10
0.0
 20
0.0
  9
$PLIMMAX
 10
420.0
 20
297.0
  9
$UNITMODE
 70
     0
  9
$VISRETAIN
 70
     0
  9
$PLINEGEN
 70
     0
  9
$PSLTSCALE
 70
     0
  9
$TREEDEPTH
 70
  3020
  9
$CMLSTYLE
  2
STANDARD
  9
$CMLJUST
 70
     0
  9
$CMLSCALE
 40
1.0
  9
$PROXYGRAPHICS
 70
     1
  9
$MEASUREMENT
 70
     1
  9
$CELWEIGHT
370
    -1
  9
$ENDCAPS
280
     0
  9
$JOINSTYLE
280
     0
  9
$LWDISPLAY
290
     0
  9
$INSUNITS
 70
     0
  9
$HYPERLINKBASE
  1

  9
$STYLESHEET
  1

  9
$XEDIT
290
     1
  9
$CEPSNTYPE
380
     0
  9
$PSTYLEMODE
290
     1
  9
$FINGERPRINTGUID
  2
{5EAC461A-2277-4BF8-9AB0-99C43BB394F0}
  9
$VERSIONGUID
  2
{9021CCC6-AE49-4A17-BADE-EB99209708D8}
  9
$EXTNAMES
290
     1
  9
$PSVPSCALE
 40
0.0
  9
$OLESTARTUP
290
     0
  0
ENDSEC
  0
SECTION
  2
CLASSES
  0
CLASS
  1
ACDBDICTIONARYWDFLT
  2
AcDbDictionaryWithDefault
  3
ObjectDBX Classes
 90
        0
280
     0
281
     0
  0
CLASS
  1
DICTIONARYVAR
  2
AcDbDictionaryVar
  3
ObjectDBX Classes
 90
        0
280
     0
281
     0
  0
CLASS
  1
ACDBPLACEHOLDER
  2
AcDbPlaceHolder
  3
ObjectDBX Classes
 90
        0
280
     0
281
     0
  0
CLASS
  1
LAYOUT
  2
AcDbLayout
  3
ObjectDBX Classes
 90
        0
280
     0
281
     0
  0
ENDSEC
  0
SECTION
  2
TABLES
  0
TABLE
  2
VPORT
  5
746D
330
0
100
AcDbSymbolTable
 70
     2
  0
VPORT
  5
2D64C
330
746D
100
AcDbSymbolTableRecord
100
AcDbViewportTableRecord
  2
*Active
 70
     0
 10
0.0
 20
0.0
 11
1.0
 21
1.0
 12
8400.0
 22
6532.304808250916
 13
0.0
 23
0.0
 14
10.0
 24
10.0
 15
10.0
 25
10.0
 16
0.0
 26
0.0
 36
1.0
 17
0.0
 27
0.0
 37
0.0
 40
13160.36269532366
 41
1.522222222222222
 42
50.0
 43
0.0
 44
0.0
 50
0.0
 51
0.0
 71
     0
 72
     0
 73
     1
 74
     0
 75
     0
 76
     0
 77
     0
 78
     0
281
     0
 65
     1
110
0.0
120
0.0
130
0.0
111
1.0
121
0.0
131
0.0
112
0.0
122
1.0
132
0.0
 79
     0
146
0.0
  0
ENDTAB
  0
TABLE
  2
LTYPE
  5
746A
330
0
100
AcDbSymbolTable
 70
     5
  0
LTYPE
  5
7477
330
746A
100
AcDbSymbolTableRecord
100
AcDbLinetypeTableRecord
  2
BYBLOCK
 70
     0
  3

 72
    65
 73
     0
 40
0.0
  0
LTYPE
  5
7478
330
746A
100
AcDbSymbolTableRecord
100
AcDbLinetypeTableRecord
  2
BYLAYER
 70
     0
  3

 72
    65
 73
     0
 40
0.0
  0
LTYPE
  5
7479
330
746A
100
AcDbSymbolTableRecord
100
AcDbLinetypeTableRecord
  2
CONTINUOUS
 70
     0
  3
Solid line
 72
    65
 73
     0
 40
0.0
  0
LTYPE
  5
7816
330
746A
100
AcDbSymbolTableRecord
100
AcDbLinetypeTableRecord
  2
CENTER
 70
     0
  3
____ _ ____ _ ____ _ ____ _ ____ _ ____ _ ____ 
 72
    65
 73
     4
 40
2.0
 49
1.25
 74
     0
 49
-0.25
 74
     0
 49
0.25
 74
     0
 49
-0.25
 74
     0
  0
LTYPE
  5
781A
330
746A
100
AcDbSymbolTableRecord
100
AcDbLinetypeTableRecord
  2
HIDDEN
 70
     0
  3
__ __ __ __ __ __ __ __ __ __ __ __ __ __ __ __
 72
    65
 73
     2
 40
0.375
 49
0.25
 74
     0
 49
-0.125
 74
     0
  0
LTYPE
  5
781B
330
746A
100
AcDbSymbolTableRecord
100
AcDbLinetypeTableRecord
  2
PHANTOM
 70
     0
  3
______  __  __  ______  __  __  ______  __  __ 
 72
    65
 73
     6
 40
2.5
 49
1.25
 74
     0
 49
-0.25
 74
     0
 49
0.25
 74
     0
 49
-0.25
 74
     0
 49
0.25
 74
     0
 49
-0.25
 74
     0
  0
LTYPE
  5
12CC3
330
746A
100
AcDbSymbolTableRecord
100
AcDbLinetypeTableRecord
  2
HIDDENX2
 70
     0
  3
Hidden (2x) ____ ____ ____ ____ ____ ____ ____
 72
    65
 73
     2
 40
19.05
 49
12.7
 74
     0
 49
-6.349999999999999
 74
     0
  0
ENDTAB
  0
TABLE
  2
LAYER
  5
7467
102
{ACAD_XDICTIONARY
360
1758F
102
}
330
0
100
AcDbSymbolTable
 70
    12
  0
LAYER
  5
7474
330
7467
100
AcDbSymbolTableRecord
100
AcDbLayerTableRecord
  2
0
 70
     0
 62
     7
  6
CONTINUOUS
370
    -3
390
173D0
  0
LAYER
  5
DEB2
330
7467
100
AcDbSymbolTableRecord
100
AcDbLayerTableRecord
  2
センター
 70
     0
 62
     3
  6
CENTER
370
    -3
390
173D0
  0
LAYER
  5
DEB3
330
7467
100
AcDbSymbolTableRecord
100
AcDbLayerTableRecord
  2
寸法
 70
     0
 62
     4
  6
CONTINUOUS
370
    -3
390
173D0
  0
LAYER
  5
DEB4
330
7467
100
AcDbSymbolTableRecord
100
AcDbLayerTableRecord
  2
部品1
 70
     0
 62
     7
  6
CONTINUOUS
370
    -3
390
173D0
  0
LAYER
  5
DEB5
330
7467
100
AcDbSymbolTableRecord
100
AcDbLayerTableRecord
  2
補助
 70
     0
 62
    -1
  6
CONTINUOUS
370
    -3
390
173D0
  0
LAYER
  5
DEB6
330
7467
100
AcDbSymbolTableRecord
100
AcDbLayerTableRecord
  2
文字
 70
     0
 62
     7
  6
CONTINUOUS
370
    -3
390
173D0
  0
LAYER
  5
F255
330
7467
100
AcDbSymbolTableRecord
100
AcDbLayerTableRecord
  2
DEFPOINTS
 70
     0
 62
     7
  6
CONTINUOUS
290
     0
370
    -3
390
173D0
  0
LAYER
  5
10B54
330
7467
100
AcDbSymbolTableRecord
100
AcDbLayerTableRecord
  2
仕様書枠
 70
     0
 62
   230
  6
CONTINUOUS
370
    -3
390
173D0
  0
LAYER
  5
11729
330
7467
100
AcDbSymbolTableRecord
100
AcDbLayerTableRecord
  2
Ｇ．Ｌ
 70
     0
 62
    30
  6
CONTINUOUS
370
    -3
390
173D0
  0
LAYER
  5
1173F
330
7467
100
AcDbSymbolTableRecord
100
AcDbLayerTableRecord
  2
細線
 70
     0
 62
     5
  6
CONTINUOUS
370
    -3
390
173D0
  0
LAYER
  5
12CC4
330
7467
100
AcDbSymbolTableRecord
100
AcDbLayerTableRecord
  2
想像線
 70
     0
 62
     6
  6
PHANTOM
370
    -3
390
173D0
  0
LAYER
  5
142E2
330
7467
100
AcDbSymbolTableRecord
100
AcDbLayerTableRecord
  2
破線
 70
     0
 62
     2
  6
HIDDEN
370
    -3
390
173D0
  0
ENDTAB
  0
TABLE
  2
STYLE
  5
7468
330
0
100
AcDbSymbolTable
 70
     7
  0
STYLE
  5
7475
330
7468
100
AcDbSymbolTableRecord
100
AcDbTextStyleTableRecord
  2
STANDARD
 70
     0
 40
0.0
 41
1.0
 50
0.0
 71
     0
 42
4.0
  3
txt
  4
C:\AutoCAD LT\bigfont.shx
  0
STYLE
  5
763C
330
7468
100
AcDbSymbolTableRecord
100
AcDbTextStyleTableRecord
  2
MSMINCHO
 70
     0
 40
0.0
 41
1.0
 50
0.0
 71
     0
 42
1.199999999999999
  3
C:\AutoCAD LT\msminch2.TTF
  4

  0
STYLE
  5
F706
330
7468
100
AcDbSymbolTableRecord
100
AcDbTextStyleTableRecord
  2
STYLE1
 70
     0
 40
0.0
 41
1.0
 50
0.0
 71
     0
 42
4.0
  3
isocp.shx
  4
bigfont.shx
  0
STYLE
  5
103BF
330
7468
100
AcDbSymbolTableRecord
100
AcDbTextStyleTableRecord
  2
STYLE2
 70
     0
 40
0.0
 41
1.0
 50
0.0
 71
     0
 42
100.0
  3
MS PGothic.ttf
  4

1001
ACAD
1000
MS PGothic
1071
    32818
  0
STYLE
  5
10BAA
330
7468
100
AcDbSymbolTableRecord
100
AcDbTextStyleTableRecord
  2
STYLE3
 70
     0
 40
0.0
 41
1.0
 50
0.0
 71
     0
 42
100.0
  3

  4

1001
ACAD
1000
DFPGothic-EB
1071
    32818
  0
STYLE
  5
11A15
330
7468
100
AcDbSymbolTableRecord
100
AcDbTextStyleTableRecord
  2
MSGOTHIC
 70
     0
 40
0.0
 41
1.0
 50
0.0
 71
     0
 42
3.5
  3
msgothi2.ttf
  4

  0
STYLE
  5
13E96
330
7468
100
AcDbSymbolTableRecord
100
AcDbTextStyleTableRecord
  2
MSPゴシック
 70
     0
 40
0.0
 41
1.0
 50
0.0
 71
     0
 42
4.0
  3
MS PGothic.ttf
  4

1001
ACAD
1000
MS PGothic
1071
    32818
  0
ENDTAB
  0
TABLE
  2
VIEW
  5
746B
330
0
100
AcDbSymbolTable
 70
     0
  0
ENDTAB
  0
TABLE
  2
UCS
  5
746C
330
0
100
AcDbSymbolTable
 70
     0
  0
ENDTAB
  0
TABLE
  2
APPID
  5
746E
330
0
100
AcDbSymbolTable
 70
     6
  0
APPID
  5
7476
330
746E
100
AcDbSymbolTableRecord
100
AcDbRegAppTableRecord
  2
ACAD
 70
     0
  0
APPID
  5
DEA9
330
746E
100
AcDbSymbolTableRecord
100
AcDbRegAppTableRecord
  2
CONTENTBLOCKICON
 70
     0
  0
APPID
  5
DEAA
330
746E
100
AcDbSymbolTableRecord
100
AcDbRegAppTableRecord
  2
CONTENTBLOCKDESCRIPTION
 70
     0
  0
APPID
  5
E71D
330
746E
100
AcDbSymbolTableRecord
100
AcDbRegAppTableRecord
  2
CONTENTTABDATA
 70
     0
  0
APPID
  5
E71E
330
746E
100
AcDbSymbolTableRecord
100
AcDbRegAppTableRecord
  2
CONTENTCURRENTTAB
 70
     0
  0
APPID
  5
F3BA
330
746E
100
AcDbSymbolTableRecord
100
AcDbRegAppTableRecord
  2
DRAWINGVARIABLESXDATA
 70
     0
  0
ENDTAB
  0
TABLE
  2
DIMSTYLE
  5
746F
330
0
100
AcDbSymbolTable
 70
     6
100
AcDbDimStyleTable
 71
     1
340
F71F
  0
DIMSTYLE
105
7484
330
746F
100
AcDbSymbolTableRecord
100
AcDbDimStyleTableRecord
  2
JIS
 70
     0
 41
2.5
 42
1.0
 43
7.0
 44
1.0
 73
     0
 74
     0
 77
     1
 78
     8
140
2.5
141
0.0
143
0.0394
147
0.0
172
     1
174
     1
175
     1
340
7475
  0
DIMSTYLE
105
F236
330
746F
100
AcDbSymbolTableRecord
100
AcDbDimStyleTableRecord
  2
INABA_S40
 70
     0
 40
40.0
 41
2.5
 42
0.5
 43
7.0
 44
1.5
 73
     0
 74
     0
 77
     3
 78
     8
140
3.0
141
0.0
143
0.0394
147
1.0
172
     1
173
     1
174
     1
175
     1
178
     7
289
     0
340
7475
341
DEAC
343
DEAC
344
DEAC
  0
DIMSTYLE
105
F71F
102
{ACAD_REACTORS
330
2C51E
330
2C4F3
330
2C4A5
330
2C49D
330
2C49C
330
2C49B
330
2C448
330
2C443
330
2C3D4
330
2C3D3
330
2C3D2
330
2C3CC
330
2C3C3
330
2C445
330
2C3DE
330
2C3D9
330
2C3D8
330
2C3E0
330
2C3E9
330
2C3D1
330
2CEE6
330
2CEE7
330
2CEE8
330
2CEE9
330
2CEEA
330
2CEEF
330
2CEF0
330
2D522
330
2D582
330
2D585
330
2D58C
330
2D594
330
2D595
102
}
330
746F
100
AcDbSymbolTableRecord
100
AcDbDimStyleTableRecord
  2
INABA_S40G
 70
     0
 40
40.0
 41
2.5
 42
0.5
 43
7.0
 44
1.5
 73
     0
 74
     0
 77
     3
 78
     8
140
3.0
141
0.0
143
0.0394
147
1.0
172
     1
173
     1
174
     1
178
     7
271
     1
340
F706
341
F770
343
F770
344
F770
  0
DIMSTYLE
105
142E3
330
746F
100
AcDbSymbolTableRecord
100
AcDbDimStyleTableRecord
  2
INABA_S1
 70
     0
 40
0.0
 41
2.5
 42
0.5
 43
7.0
 44
1.5
 73
     0
 74
     0
 77
     3
 78
     8
140
3.0
141
0.0
143
0.0394
146
0.5
147
0.5
172
     1
173
     1
176
   256
177
   256
178
     7
271
     2
272
     2
284
     8
288
     1
340
7475
341
DEAC
343
DEAC
344
DEAC
  0
DIMSTYLE
105
14463
330
746F
100
AcDbSymbolTableRecord
100
AcDbDimStyleTableRecord
  2
INABA_S30G
 70
     0
 40
30.0
 41
2.5
 42
0.5
 43
7.0
 44
1.5
 73
     0
 74
     0
 77
     3
 78
     8
140
3.0
141
0.0
143
0.0394
147
1.0
172
     1
173
     1
174
     1
175
     1
178
     7
271
     1
340
F706
341
F770
343
F770
344
F770
  0
DIMSTYLE
105
1758E
330
746F
100
AcDbSymbolTableRecord
100
AcDbDimStyleTableRecord
  2
INABA_S50G
 70
     0
 41
125.0
 42
25.0
 43
7.0
 44
75.0
 73
     0
 74
     0
 77
     3
 78
     8
140
150.0
141
0.0
143
0.0394
147
25.0
172
     1
173
     1
174
     1
175
     1
178
     7
271
     1
340
F706
341
F770
343
F770
344
F770
  0
ENDTAB
  0
TABLE
  2
BLOCK_RECORD
  5
7466
330
0
100
AcDbSymbolTable
 70
    52
  0
BLOCK_RECORD
  5
747D
330
7466
100
AcDbSymbolTableRecord
100
AcDbBlockTableRecord
  2
*MODEL_SPACE
340
173D5
  0
BLOCK_RECORD
  5
747A
330
7466
100
AcDbSymbolTableRecord
100
AcDbBlockTableRecord
  2
*PAPER_SPACE
340
173D6
  0
BLOCK_RECORD
  5
DEAC
330
7466
100
AcDbSymbolTableRecord
100
AcDbBlockTableRecord
  2
_OPEN
340
0
  0
BLOCK_RECORD
  5
F770
330
7466
100
AcDbSymbolTableRecord
100
AcDbBlockTableRecord
  2
_DOTSMALL
340
0
102
{BLKREFS
331
18C65
331
18C66
331
18C59
331
18C5A
331
18C4D
331
18C4E
331
18C41
331
18C42
331
18C35
331
18C36
331
18C29
331
18C2A
331
18C1D
331
18C1E
331
18C0F
331
18C10
331
18C03
331
18C04
331
18BF5
331
18BF6
331
18BE7
331
18BE8
331
18BD9
331
18BDA
331
18BCD
331
18BCE
331
2CA67
331
2CA68
331
2CA70
331
2CA71
331
2CA9E
331
2CA9F
331
2CAA7
331
2CAA8
331
2CAD4
331
2CAD5
331
2CADE
331
2CADF
331
2CAF1
331
2CAF2
331
2CB03
331
2CB04
331
2D15B
331
2D15C
331
2D165
331
2D166
331
2D17A
331
2D17B
331
2D185
331
2D186
331
2D190
331
2D191
331
2D1B6
331
2D1B7
331
2D1BF
331
2D1C0
331
2D254
331
2D255
331
2D271
331
2D272
331
2D27A
331
2D27B
331
2D283
331
2D284
331
2D28C
331
2D28D
331
2D295
331
2D296
331
2D29E
331
2D29F
331
2D2A7
331
2D2A8
331
2D2B0
331
2D2B1
331
2D2C2
331
2D2C3
331
2D2CB
331
2D2CC
331
2D2E1
331
2D2E2
331
2D5EC
331
2D5ED
331
2D5F5
331
2D5F6
331
2D5FE
331
2D5FF
331
2D607
331
2D608
331
2D612
331
2D613
331
2D61B
331
2D61C
102
}
  0
BLOCK_RECORD
  5
164B4
330
7466
100
AcDbSymbolTableRecord
100
AcDbBlockTableRecord
  2
_DOT
340
0
102
{BLKREFS
331
18C73
331
18C74
102
}
  0
BLOCK_RECORD
  5
18BC8
330
7466
100
AcDbSymbolTableRecord
100
AcDbBlockTableRecord
  2
*D3
340
0
  0
BLOCK_RECORD
  5
18BD4
330
7466
100
AcDbSymbolTableRecord
100
AcDbBlockTableRecord
  2
*D4
340
0
  0
BLOCK_RECORD
  5
18BE0
330
7466
100
AcDbSymbolTableRecord
100
AcDbBlockTableRecord
  2
*D5
340
0
  0
BLOCK_RECORD
  5
18BEE
330
7466
100
AcDbSymbolTableRecord
100
AcDbBlockTableRecord
  2
*D6
340
0
  0
BLOCK_RECORD
  5
18BFC
330
7466
100
AcDbSymbolTableRecord
100
AcDbBlockTableRecord
  2
*D7
340
0
  0
BLOCK_RECORD
  5
18C0A
330
7466
100
AcDbSymbolTableRecord
100
AcDbBlockTableRecord
  2
*D8
340
0
  0
BLOCK_RECORD
  5
18C16
330
7466
100
AcDbSymbolTableRecord
100
AcDbBlockTableRecord
  2
*D9
340
0
  0
BLOCK_RECORD
  5
18C24
330
7466
100
AcDbSymbolTableRecord
100
AcDbBlockTableRecord
  2
*D10
340
0
  0
BLOCK_RECORD
  5
18C30
330
7466
100
AcDbSymbolTableRecord
100
AcDbBlockTableRecord
  2
*D11
340
0
  0
BLOCK_RECORD
  5
18C3C
330
7466
100
AcDbSymbolTableRecord
100
AcDbBlockTableRecord
  2
*D12
340
0
  0
BLOCK_RECORD
  5
18C48
330
7466
100
AcDbSymbolTableRecord
100
AcDbBlockTableRecord
  2
*D13
340
0
  0
BLOCK_RECORD
  5
18C54
330
7466
100
AcDbSymbolTableRecord
100
AcDbBlockTableRecord
  2
*D14
340
0
  0
BLOCK_RECORD
  5
18C60
330
7466
100
AcDbSymbolTableRecord
100
AcDbBlockTableRecord
  2
*D15
340
0
  0
BLOCK_RECORD
  5
18C6C
330
7466
100
AcDbSymbolTableRecord
100
AcDbBlockTableRecord
  2
*D16
340
0
  0
BLOCK_RECORD
  5
18C7A
330
7466
100
AcDbSymbolTableRecord
100
AcDbBlockTableRecord
  2
A$C3B1A506B
340
0
  0
BLOCK_RECORD
  5
1C4CA
330
7466
100
AcDbSymbolTableRecord
100
AcDbBlockTableRecord
  2
_NONE
340
0
  0
BLOCK_RECORD
  5
2C531
330
7466
100
AcDbSymbolTableRecord
100
AcDbBlockTableRecord
  2
*D19
340
0
  0
BLOCK_RECORD
  5
2C53D
330
7466
100
AcDbSymbolTableRecord
100
AcDbBlockTableRecord
  2
*D20
340
0
  0
BLOCK_RECORD
  5
2C549
330
7466
100
AcDbSymbolTableRecord
100
AcDbBlockTableRecord
  2
*D21
340
0
  0
BLOCK_RECORD
  5
2C555
330
7466
100
AcDbSymbolTableRecord
100
AcDbBlockTableRecord
  2
*D22
340
0
  0
BLOCK_RECORD
  5
2C561
330
7466
100
AcDbSymbolTableRecord
100
AcDbBlockTableRecord
  2
*D23
340
0
  0
BLOCK_RECORD
  5
2C56C
330
7466
100
AcDbSymbolTableRecord
100
AcDbBlockTableRecord
  2
*D24
340
0
  0
BLOCK_RECORD
  5
2C577
330
7466
100
AcDbSymbolTableRecord
100
AcDbBlockTableRecord
  2
*D25
340
0
  0
BLOCK_RECORD
  5
2C583
330
7466
100
AcDbSymbolTableRecord
100
AcDbBlockTableRecord
  2
*D26
340
0
  0
BLOCK_RECORD
  5
2C59C
330
7466
100
AcDbSymbolTableRecord
100
AcDbBlockTableRecord
  2
*D27
340
0
  0
BLOCK_RECORD
  5
2C5B5
330
7466
100
AcDbSymbolTableRecord
100
AcDbBlockTableRecord
  2
*D28
340
0
  0
BLOCK_RECORD
  5
2C5C1
330
7466
100
AcDbSymbolTableRecord
100
AcDbBlockTableRecord
  2
*D29
340
0
  0
BLOCK_RECORD
  5
2C5CD
330
7466
100
AcDbSymbolTableRecord
100
AcDbBlockTableRecord
  2
*D30
340
0
  0
BLOCK_RECORD
  5
2C5D9
330
7466
100
AcDbSymbolTableRecord
100
AcDbBlockTableRecord
  2
*D31
340
0
  0
BLOCK_RECORD
  5
2C5FD
330
7466
100
AcDbSymbolTableRecord
100
AcDbBlockTableRecord
  2
*D32
340
0
  0
BLOCK_RECORD
  5
2C617
330
7466
100
AcDbSymbolTableRecord
100
AcDbBlockTableRecord
  2
*D33
340
0
  0
BLOCK_RECORD
  5
2C623
330
7466
100
AcDbSymbolTableRecord
100
AcDbBlockTableRecord
  2
*D34
340
0
  0
BLOCK_RECORD
  5
2C62F
330
7466
100
AcDbSymbolTableRecord
100
AcDbBlockTableRecord
  2
*D35
340
0
  0
BLOCK_RECORD
  5
2C63B
330
7466
100
AcDbSymbolTableRecord
100
AcDbBlockTableRecord
  2
*D36
340
0
  0
BLOCK_RECORD
  5
2C647
330
7466
100
AcDbSymbolTableRecord
100
AcDbBlockTableRecord
  2
*D37
340
0
  0
BLOCK_RECORD
  5
2C653
330
7466
100
AcDbSymbolTableRecord
100
AcDbBlockTableRecord
  2
*D38
340
0
  0
BLOCK_RECORD
  5
2CFD4
330
7466
100
AcDbSymbolTableRecord
100
AcDbBlockTableRecord
  2
*D39
340
0
  0
BLOCK_RECORD
  5
2CFE1
330
7466
100
AcDbSymbolTableRecord
100
AcDbBlockTableRecord
  2
*D40
340
0
  0
BLOCK_RECORD
  5
2CFEE
330
7466
100
AcDbSymbolTableRecord
100
AcDbBlockTableRecord
  2
*D41
340
0
  0
BLOCK_RECORD
  5
2CFFB
330
7466
100
AcDbSymbolTableRecord
100
AcDbBlockTableRecord
  2
*D42
340
0
  0
BLOCK_RECORD
  5
2D009
330
7466
100
AcDbSymbolTableRecord
100
AcDbBlockTableRecord
  2
*D43
340
0
  0
BLOCK_RECORD
  5
2D017
330
7466
100
AcDbSymbolTableRecord
100
AcDbBlockTableRecord
  2
*D44
340
0
  0
BLOCK_RECORD
  5
2D025
330
7466
100
AcDbSymbolTableRecord
100
AcDbBlockTableRecord
  2
*D45
340
0
  0
BLOCK_RECORD
  5
2D59F
330
7466
100
AcDbSymbolTableRecord
100
AcDbBlockTableRecord
  2
*D46
340
0
  0
BLOCK_RECORD
  5
2D5AB
330
7466
100
AcDbSymbolTableRecord
100
AcDbBlockTableRecord
  2
*D47
340
0
  0
BLOCK_RECORD
  5
2D5B7
330
7466
100
AcDbSymbolTableRecord
100
AcDbBlockTableRecord
  2
*D48
340
0
  0
BLOCK_RECORD
  5
2D5C3
330
7466
100
AcDbSymbolTableRecord
100
AcDbBlockTableRecord
  2
*D49
340
0
  0
BLOCK_RECORD
  5
2D5CF
330
7466
100
AcDbSymbolTableRecord
100
AcDbBlockTableRecord
  2
*D50
340
0
  0
BLOCK_RECORD
  5
2D5DD
330
7466
100
AcDbSymbolTableRecord
100
AcDbBlockTableRecord
  2
*D51
340
0
  0
ENDTAB
  0
ENDSEC
  0
SECTION
  2
BLOCKS
  0
BLOCK
  5
7489
330
747D
100
AcDbEntity
  8
0
100
AcDbBlockBegin
  2
*MODEL_SPACE
 70
     0
 10
0.0
 20
0.0
 30
0.0
  3
*MODEL_SPACE
  1

  0
ENDBLK
  5
748A
330
747D
100
AcDbEntity
  8
0
100
AcDbBlockEnd
  0
BLOCK
  5
7487
330
747A
100
AcDbEntity
 67
     1
  8
0
100
AcDbBlockBegin
  2
*PAPER_SPACE
 70
     0
 10
0.0
 20
0.0
 30
0.0
  3
*PAPER_SPACE
  1

  0
ENDBLK
  5
7488
330
747A
100
AcDbEntity
 67
     1
  8
0
100
AcDbBlockEnd
  0
BLOCK
  5
DEAD
330
DEAC
100
AcDbEntity
  8
0
100
AcDbBlockBegin
  2
_OPEN
 70
     0
 10
0.0
 20
0.0
 30
0.0
  3
_OPEN
  1

  0
LINE
  5
DEAE
330
DEAC
100
AcDbEntity
  8
0
  6
ByBlock
 62
     0
100
AcDbLine
 10
-1.0
 20
0.1666666666666666
 30
0.0
 11
0.0
 21
0.0
 31
0.0
  0
LINE
  5
DEAF
330
DEAC
100
AcDbEntity
  8
0
  6
ByBlock
 62
     0
100
AcDbLine
 10
0.0
 20
0.0
 30
0.0
 11
-1.0
 21
-0.1666666666666666
 31
0.0
  0
LINE
  5
DEB0
330
DEAC
100
AcDbEntity
  8
0
  6
ByBlock
 62
     0
100
AcDbLine
 10
0.0
 20
0.0
 30
0.0
 11
-1.0
 21
0.0
 31
0.0
  0
ENDBLK
  5
DEB1
330
DEAC
100
AcDbEntity
  8
0
100
AcDbBlockEnd
  0
BLOCK
  5
F771
330
F770
100
AcDbEntity
  8
0
 48
50.0
100
AcDbBlockBegin
  2
_DOTSMALL
 70
     0
 10
0.0
 20
0.0
 30
0.0
  3
_DOTSMALL
  1

  0
LWPOLYLINE
  5
F772
330
F770
100
AcDbEntity
  8
0
  6
ByBlock
 62
     0
 48
50.0
100
AcDbPolyline
 90
        2
 70
     1
 43
0.5
 10
-0.0625
 20
0.0
 42
1.0
 10
0.0625
 20
0.0
 42
1.0
  0
ENDBLK
  5
F776
330
F770
100
AcDbEntity
  8
0
 48
50.0
100
AcDbBlockEnd
  0
BLOCK
  5
164BA
330
164B4
100
AcDbEntity
  8
0
 48
50.0
100
AcDbBlockBegin
  2
_DOT
 70
     0
 10
0.0
 20
0.0
 30
0.0
  3
_DOT
  1

  0
LWPOLYLINE
  5
164B5
330
164B4
100
AcDbEntity
  8
0
  6
ByBlock
 62
     0
 48
50.0
100
AcDbPolyline
 90
        2
 70
     1
 43
0.5
 10
-0.25
 20
0.0
 42
1.0
 10
0.25
 20
0.0
 42
1.0
  0
LINE
  5
164B9
330
164B4
100
AcDbEntity
  8
0
  6
ByBlock
 62
     0
 48
50.0
100
AcDbLine
 10
-0.5
 20
0.0
 30
0.0
 11
-1.0
 21
0.0
 31
0.0
  0
ENDBLK
  5
164BB
330
164B4
100
AcDbEntity
  8
0
 48
50.0
100
AcDbBlockEnd
  0
BLOCK
  5
18BC9
330
18BC8
100
AcDbEntity
  8
0
 48
50.0
100
AcDbBlockBegin
  2
*D3
 70
     1
 10
0.0
 20
0.0
 30
0.0
  3
*D3
  1

  0
LINE
  5
18BCA
330
18BC8
100
AcDbEntity
  8
寸法
 62
     0
 48
50.0
370
    -2
100
AcDbLine
 10
7649.896575106999
 20
9636.123139034717
 30
0.0
 11
8702.429862581047
 21
9636.123139034717
 31
0.0
  0
LINE
  5
18BCB
330
18BC8
100
AcDbEntity
  8
寸法
 62
     0
 48
50.0
370
    -2
100
AcDbLine
 10
7649.896575106973
 20
7846.123139034709
 30
0.0
 11
8702.429862581047
 21
7846.123139034709
 31
0.0
  0
LINE
  5
18BCC
330
18BC8
100
AcDbEntity
  8
寸法
 62
     0
 48
50.0
370
    -2
100
AcDbLine
 10
8642.429862581046
 20
9636.123139034717
 30
0.0
 11
8642.429862581046
 21
7846.123139034709
 31
0.0
  0
INSERT
  5
18BCD
330
18BC8
100
AcDbEntity
  8
寸法
 62
     0
 48
50.0
370
    -2
100
AcDbBlockReference
  2
_DOTSMALL
 10
8642.429862581046
 20
9636.123139034717
 30
0.0
 41
100.0
 42
100.0
 43
100.0
 50
90.0
  0
INSERT
  5
18BCE
330
18BC8
100
AcDbEntity
  8
寸法
 62
     0
 48
50.0
370
    -2
100
AcDbBlockReference
  2
_DOTSMALL
 10
8642.429862581046
 20
7846.123139034709
 30
0.0
 41
100.0
 42
100.0
 43
100.0
 50
270.0
  0
MTEXT
  5
18BCF
330
18BC8
100
AcDbEntity
  8
寸法
 62
     7
 48
50.0
100
AcDbMText
 10
8542.429862581045
 20
8741.123139034712
 30
0.0
 40
120.0
 41
0.0
 71
     5
 72
     1
  1
\A1;1790
  7
STYLE1
 11
0.0000000000000001
 21
1.0
 31
0.0
 73
     1
 44
1.0
1001
ACAD
1000
MTEXTBEGIN
1070
    73
1070
     1
1070
    44
1040
1.0
1070
    74
1070
     0
1000
MTEXTEND
  0
POINT
  5
18BD0
330
18BC8
100
AcDbEntity
  8
DEFPOINTS
 62
     0
 48
50.0
100
AcDbPoint
 10
7629.896575106998
 20
9636.123139034717
 30
0.0
  0
POINT
  5
18BD1
330
18BC8
100
AcDbEntity
  8
DEFPOINTS
 62
     0
 48
50.0
100
AcDbPoint
 10
7629.896575106974
 20
7846.123139034709
 30
0.0
  0
POINT
  5
18BD2
330
18BC8
100
AcDbEntity
  8
DEFPOINTS
 62
     0
 48
50.0
100
AcDbPoint
 10
8642.429862581046
 20
7846.123139034709
 30
0.0
  0
ENDBLK
  5
18BD3
330
18BC8
100
AcDbEntity
  8
0
 48
50.0
100
AcDbBlockEnd
  0
BLOCK
  5
18BD5
330
18BD4
100
AcDbEntity
  8
0
 48
50.0
100
AcDbBlockBegin
  2
*D4
 70
     1
 10
0.0
 20
0.0
 30
0.0
  3
*D4
  1

  0
LINE
  5
18BD6
330
18BD4
100
AcDbEntity
  8
寸法
 62
     0
 48
50.0
370
    -2
100
AcDbLine
 10
4214.896575106998
 20
9656.123139034622
 30
0.0
 11
4214.896575106998
 21
10211.93135865972
 31
0.0
  0
LINE
  5
18BD7
330
18BD4
100
AcDbEntity
  8
寸法
 62
     0
 48
50.0
370
    -2
100
AcDbLine
 10
7574.896575106999
 20
9656.123139034718
 30
0.0
 11
7574.896575106999
 21
10211.93135865972
 31
0.0
  0
LINE
  5
18BD8
330
18BD4
100
AcDbEntity
  8
寸法
 62
     0
 48
50.0
370
    -2
100
AcDbLine
 10
4214.896575106998
 20
10151.93135865972
 30
0.0
 11
7574.896575106999
 21
10151.93135865972
 31
0.0
  0
INSERT
  5
18BD9
330
18BD4
100
AcDbEntity
  8
寸法
 62
     0
 48
50.0
370
    -2
100
AcDbBlockReference
  2
_DOTSMALL
 10
4214.896575106998
 20
10151.93135865972
 30
0.0
 41
100.0
 42
100.0
 43
100.0
 50
180.0
  0
INSERT
  5
18BDA
330
18BD4
100
AcDbEntity
  8
寸法
 62
     0
 48
50.0
370
    -2
100
AcDbBlockReference
  2
_DOTSMALL
 10
7574.896575106999
 20
10151.93135865972
 30
0.0
 41
100.0
 42
100.0
 43
100.0
  0
MTEXT
  5
18BDB
330
18BD4
100
AcDbEntity
  8
寸法
 62
     7
 48
50.0
100
AcDbMText
 10
5894.896575106997
 20
10251.94316968334
 30
0.0
 40
120.0
 41
0.0
 71
     5
 72
     1
  1
\A1;8X420=3360
  7
STYLE1
 73
     1
 44
1.0
1001
ACAD
1000
MTEXTBEGIN
1070
    73
1070
     1
1070
    44
1040
1.0
1070
    74
1070
     0
1000
MTEXTEND
  0
POINT
  5
18BDC
330
18BD4
100
AcDbEntity
  8
DEFPOINTS
 62
     0
 48
50.0
100
AcDbPoint
 10
4214.896575106998
 20
9636.123139034623
 30
0.0
  0
POINT
  5
18BDD
330
18BD4
100
AcDbEntity
  8
DEFPOINTS
 62
     0
 48
50.0
100
AcDbPoint
 10
7574.896575106999
 20
9636.123139034717
 30
0.0
  0
POINT
  5
18BDE
330
18BD4
100
AcDbEntity
  8
DEFPOINTS
 62
     0
 48
50.0
100
AcDbPoint
 10
7574.896575106999
 20
10151.93135865972
 30
0.0
  0
ENDBLK
  5
18BDF
330
18BD4
100
AcDbEntity
  8
0
 48
50.0
100
AcDbBlockEnd
  0
BLOCK
  5
18BE1
330
18BE0
100
AcDbEntity
  8
0
 48
50.0
100
AcDbBlockBegin
  2
*D5
 70
     1
 10
0.0
 20
0.0
 30
0.0
  3
*D5
  1

  0
LINE
  5
18BE2
330
18BE0
100
AcDbEntity
  8
寸法
 62
     0
 48
50.0
370
    -2
100
AcDbLine
 10
7574.896575106999
 20
9656.123139034718
 30
0.0
 11
7574.896575106999
 21
10211.9313586597
 31
0.0
  0
LINE
  5
18BE3
330
18BE0
100
AcDbEntity
  8
寸法
 62
     0
 48
50.0
370
    -2
100
AcDbLine
 10
7629.896575106998
 20
9656.123139034718
 30
0.0
 11
7629.896575106998
 21
10211.9313586597
 31
0.0
  0
LINE
  5
18BE4
330
18BE0
100
AcDbEntity
  8
寸法
 62
     0
 48
50.0
370
    -2
100
AcDbLine
 10
7574.896575106999
 20
10151.9313586597
 30
0.0
 11
7474.896575106999
 21
10151.9313586597
 31
0.0
  0
LINE
  5
18BE5
330
18BE0
100
AcDbEntity
  8
寸法
 62
     0
 48
50.0
370
    -2
100
AcDbLine
 10
7629.896575106998
 20
10151.9313586597
 30
0.0
 11
8046.867137855477
 21
10151.9313586597
 31
0.0
  0
LINE
  5
18BE6
330
18BE0
100
AcDbEntity
  8
寸法
 62
     0
 48
50.0
370
    -2
100
AcDbLine
 10
7574.896575106999
 20
10151.9313586597
 30
0.0
 11
7629.896575106998
 21
10151.9313586597
 31
0.0
  0
INSERT
  5
18BE7
330
18BE0
100
AcDbEntity
  8
寸法
 62
     0
 48
50.0
370
    -2
100
AcDbBlockReference
  2
_DOTSMALL
 10
7574.896575106999
 20
10151.9313586597
 30
0.0
 41
100.0
 42
100.0
 43
100.0
  0
INSERT
  5
18BE8
330
18BE0
100
AcDbEntity
  8
寸法
 62
     0
 48
50.0
370
    -2
100
AcDbBlockReference
  2
_DOTSMALL
 10
7629.896575106998
 20
10151.9313586597
 30
0.0
 41
100.0
 42
100.0
 43
100.0
 50
180.0
  0
MTEXT
  5
18BE9
330
18BE0
100
AcDbEntity
  8
寸法
 62
     7
 48
50.0
100
AcDbMText
 10
7938.381856481237
 20
10251.9313586597
 30
0.0
 40
120.0
 41
0.0
 71
     5
 72
     1
  1
\A1;55
  7
STYLE1
 73
     1
 44
1.0
1001
ACAD
1000
MTEXTBEGIN
1070
    73
1070
     1
1070
    44
1040
1.0
1070
    74
1070
     0
1000
MTEXTEND
  0
POINT
  5
18BEA
330
18BE0
100
AcDbEntity
  8
DEFPOINTS
 62
     0
 48
50.0
100
AcDbPoint
 10
7574.896575106999
 20
9636.123139034717
 30
0.0
  0
POINT
  5
18BEB
330
18BE0
100
AcDbEntity
  8
DEFPOINTS
 62
     0
 48
50.0
100
AcDbPoint
 10
7629.896575106998
 20
9636.123139034717
 30
0.0
  0
POINT
  5
18BEC
330
18BE0
100
AcDbEntity
  8
DEFPOINTS
 62
     0
 48
50.0
100
AcDbPoint
 10
7629.896575106998
 20
10151.9313586597
 30
0.0
  0
ENDBLK
  5
18BED
330
18BE0
100
AcDbEntity
  8
0
 48
50.0
100
AcDbBlockEnd
  0
BLOCK
  5
18BEF
330
18BEE
100
AcDbEntity
  8
0
 48
50.0
100
AcDbBlockBegin
  2
*D6
 70
     1
 10
0.0
 20
0.0
 30
0.0
  3
*D6
  1

  0
LINE
  5
18BF0
330
18BEE
100
AcDbEntity
  8
寸法
 62
     0
 48
50.0
370
    -2
100
AcDbLine
 10
7649.896575106999
 20
9636.123139034717
 30
0.0
 11
8337.32292084141
 21
9636.123139034717
 31
0.0
  0
LINE
  5
18BF1
330
18BEE
100
AcDbEntity
  8
寸法
 62
     0
 48
50.0
370
    -2
100
AcDbLine
 10
7649.896575106999
 20
9581.123139034721
 30
0.0
 11
8337.32292084141
 21
9581.123139034721
 31
0.0
  0
LINE
  5
18BF2
330
18BEE
100
AcDbEntity
  8
寸法
 62
     0
 48
50.0
370
    -2
100
AcDbLine
 10
8277.322920841411
 20
9581.123139034721
 30
0.0
 11
8277.322920841411
 21
9481.123139034719
 31
0.0
  0
LINE
  5
18BF3
330
18BEE
100
AcDbEntity
  8
寸法
 62
     0
 48
50.0
370
    -2
100
AcDbLine
 10
8277.322920841411
 20
9636.123139034717
 30
0.0
 11
8277.322920841411
 21
10053.09370178319
 31
0.0
  0
LINE
  5
18BF4
330
18BEE
100
AcDbEntity
  8
寸法
 62
     0
 48
50.0
370
    -2
100
AcDbLine
 10
8277.322920841411
 20
9581.123139034721
 30
0.0
 11
8277.322920841411
 21
9636.123139034717
 31
0.0
  0
INSERT
  5
18BF5
330
18BEE
100
AcDbEntity
  8
寸法
 62
     0
 48
50.0
370
    -2
100
AcDbBlockReference
  2
_DOTSMALL
 10
8277.322920841411
 20
9581.123139034721
 30
0.0
 41
100.0
 42
100.0
 43
100.0
 50
90.0
  0
INSERT
  5
18BF6
330
18BEE
100
AcDbEntity
  8
寸法
 62
     0
 48
50.0
370
    -2
100
AcDbBlockReference
  2
_DOTSMALL
 10
8277.322920841411
 20
9636.123139034717
 30
0.0
 41
100.0
 42
100.0
 43
100.0
 50
270.0
  0
MTEXT
  5
18BF7
330
18BEE
100
AcDbEntity
  8
寸法
 62
     7
 48
50.0
100
AcDbMText
 10
8177.32292084141
 20
9944.608420408957
 30
0.0
 40
120.0
 41
0.0
 71
     5
 72
     1
  1
\A1;55
  7
STYLE1
 11
0.0000000000000001
 21
1.0
 31
0.0
 73
     1
 44
1.0
1001
ACAD
1000
MTEXTBEGIN
1070
    73
1070
     1
1070
    44
1040
1.0
1070
    74
1070
     0
1000
MTEXTEND
  0
POINT
  5
18BF8
330
18BEE
100
AcDbEntity
  8
DEFPOINTS
 62
     0
 48
50.0
100
AcDbPoint
 10
7629.896575106998
 20
9636.123139034717
 30
0.0
  0
POINT
  5
18BF9
330
18BEE
100
AcDbEntity
  8
DEFPOINTS
 62
     0
 48
50.0
100
AcDbPoint
 10
7629.896575106998
 20
9581.123139034721
 30
0.0
  0
POINT
  5
18BFA
330
18BEE
100
AcDbEntity
  8
DEFPOINTS
 62
     0
 48
50.0
100
AcDbPoint
 10
8277.322920841411
 20
9581.123139034721
 30
0.0
  0
ENDBLK
  5
18BFB
330
18BEE
100
AcDbEntity
  8
0
 48
50.0
100
AcDbBlockEnd
  0
BLOCK
  5
18BFD
330
18BFC
100
AcDbEntity
  8
0
 48
50.0
100
AcDbBlockBegin
  2
*D7
 70
     1
 10
0.0
 20
0.0
 30
0.0
  3
*D7
  1

  0
LINE
  5
18BFE
330
18BFC
100
AcDbEntity
  8
寸法
 62
     0
 48
50.0
370
    -2
100
AcDbLine
 10
4159.896575106963
 20
9656.123139034622
 30
0.0
 11
4159.896575106963
 21
10211.9313586596
 31
0.0
  0
LINE
  5
18BFF
330
18BFC
100
AcDbEntity
  8
寸法
 62
     0
 48
50.0
370
    -2
100
AcDbLine
 10
4214.896575106998
 20
9656.123139034622
 30
0.0
 11
4214.896575106998
 21
10211.9313586596
 31
0.0
  0
LINE
  5
18C00
330
18BFC
100
AcDbEntity
  8
寸法
 62
     0
 48
50.0
370
    -2
100
AcDbLine
 10
4214.896575106998
 20
10151.9313586596
 30
0.0
 11
4314.896575106998
 21
10151.9313586596
 31
0.0
  0
LINE
  5
18C01
330
18BFC
100
AcDbEntity
  8
寸法
 62
     0
 48
50.0
370
    -2
100
AcDbLine
 10
4159.896575106963
 20
10151.9313586596
 30
0.0
 11
3742.926012358486
 21
10151.9313586596
 31
0.0
  0
LINE
  5
18C02
330
18BFC
100
AcDbEntity
  8
寸法
 62
     0
 48
50.0
370
    -2
100
AcDbLine
 10
4214.896575106998
 20
10151.9313586596
 30
0.0
 11
4159.896575106963
 21
10151.9313586596
 31
0.0
  0
INSERT
  5
18C03
330
18BFC
100
AcDbEntity
  8
寸法
 62
     0
 48
50.0
370
    -2
100
AcDbBlockReference
  2
_DOTSMALL
 10
4214.896575106998
 20
10151.9313586596
 30
0.0
 41
100.0
 42
100.0
 43
100.0
 50
180.0
  0
INSERT
  5
18C04
330
18BFC
100
AcDbEntity
  8
寸法
 62
     0
 48
50.0
370
    -2
100
AcDbBlockReference
  2
_DOTSMALL
 10
4159.896575106963
 20
10151.9313586596
 30
0.0
 41
100.0
 42
100.0
 43
100.0
  0
MTEXT
  5
18C05
330
18BFC
100
AcDbEntity
  8
寸法
 62
     7
 48
50.0
100
AcDbMText
 10
3851.411293732725
 20
10251.9313586596
 30
0.0
 40
120.0
 41
0.0
 71
     5
 72
     1
  1
\A1;55
  7
STYLE1
 73
     1
 44
1.0
1001
ACAD
1000
MTEXTBEGIN
1070
    73
1070
     1
1070
    44
1040
1.0
1070
    74
1070
     0
1000
MTEXTEND
  0
POINT
  5
18C06
330
18BFC
100
AcDbEntity
  8
DEFPOINTS
 62
     0
 48
50.0
100
AcDbPoint
 10
4159.896575106963
 20
9636.123139034623
 30
0.0
  0
POINT
  5
18C07
330
18BFC
100
AcDbEntity
  8
DEFPOINTS
 62
     0
 48
50.0
100
AcDbPoint
 10
4214.896575106998
 20
9636.123139034623
 30
0.0
  0
POINT
  5
18C08
330
18BFC
100
AcDbEntity
  8
DEFPOINTS
 62
     0
 48
50.0
100
AcDbPoint
 10
4214.896575106998
 20
10151.9313586596
 30
0.0
  0
ENDBLK
  5
18C09
330
18BFC
100
AcDbEntity
  8
0
 48
50.0
100
AcDbBlockEnd
  0
BLOCK
  5
18C0B
330
18C0A
100
AcDbEntity
  8
0
 48
50.0
100
AcDbBlockBegin
  2
*D8
 70
     1
 10
0.0
 20
0.0
 30
0.0
  3
*D8
  1

  0
LINE
  5
18C0C
330
18C0A
100
AcDbEntity
  8
寸法
 62
     0
 48
50.0
370
    -2
100
AcDbLine
 10
4159.896575106992
 20
7826.123139034546
 30
0.0
 11
4159.896575106992
 21
6804.372203245664
 31
0.0
  0
LINE
  5
18C0D
330
18C0A
100
AcDbEntity
  8
寸法
 62
     0
 48
50.0
370
    -2
100
AcDbLine
 10
7629.896575106974
 20
7826.123139034674
 30
0.0
 11
7629.896575106974
 21
6804.372203245664
 31
0.0
  0
LINE
  5
18C0E
330
18C0A
100
AcDbEntity
  8
寸法
 62
     0
 48
50.0
370
    -2
100
AcDbLine
 10
4159.896575106992
 20
6864.372203245665
 30
0.0
 11
7629.896575106974
 21
6864.372203245665
 31
0.0
  0
INSERT
  5
18C0F
330
18C0A
100
AcDbEntity
  8
寸法
 62
     0
 48
50.0
370
    -2
100
AcDbBlockReference
  2
_DOTSMALL
 10
4159.896575106992
 20
6864.372203245665
 30
0.0
 41
100.0
 42
100.0
 43
100.0
 50
180.0
  0
INSERT
  5
18C10
330
18C0A
100
AcDbEntity
  8
寸法
 62
     0
 48
50.0
370
    -2
100
AcDbBlockReference
  2
_DOTSMALL
 10
7629.896575106974
 20
6864.372203245665
 30
0.0
 41
100.0
 42
100.0
 43
100.0
  0
MTEXT
  5
18C11
330
18C0A
100
AcDbEntity
  8
寸法
 62
     7
 48
50.0
100
AcDbMText
 10
5911.12376113973
 20
6964.372203245665
 30
0.0
 40
120.0
 41
0.0
 71
     5
 72
     1
  1
\A1;3470
  7
STYLE1
 73
     1
 44
1.0
1001
ACAD
1000
MTEXTBEGIN
1070
    73
1070
     1
1070
    44
1040
1.0
1070
    74
1070
     0
1000
MTEXTEND
  0
POINT
  5
18C12
330
18C0A
100
AcDbEntity
  8
DEFPOINTS
 62
     0
 48
50.0
100
AcDbPoint
 10
4159.896575106992
 20
7846.123139034546
 30
0.0
  0
POINT
  5
18C13
330
18C0A
100
AcDbEntity
  8
DEFPOINTS
 62
     0
 48
50.0
100
AcDbPoint
 10
7629.896575106974
 20
7846.123139034673
 30
0.0
  0
POINT
  5
18C14
330
18C0A
100
AcDbEntity
  8
DEFPOINTS
 62
     0
 48
50.0
100
AcDbPoint
 10
7629.896575106974
 20
6864.372203245665
 30
0.0
  0
ENDBLK
  5
18C15
330
18C0A
100
AcDbEntity
  8
0
 48
50.0
100
AcDbBlockEnd
  0
BLOCK
  5
18C17
330
18C16
100
AcDbEntity
  8
0
 48
50.0
100
AcDbBlockBegin
  2
*D9
 70
     1
 10
0.0
 20
0.0
 30
0.0
  3
*D9
  1

  0
LINE
  5
18C18
330
18C16
100
AcDbEntity
  8
寸法
 62
     0
 48
50.0
370
    -2
100
AcDbLine
 10
7649.896575106973
 20
7901.123139034706
 30
0.0
 11
8337.322920841385
 21
7901.123139034706
 31
0.0
  0
LINE
  5
18C19
330
18C16
100
AcDbEntity
  8
寸法
 62
     0
 48
50.0
370
    -2
100
AcDbLine
 10
7649.896575106973
 20
7846.123139034709
 30
0.0
 11
8337.322920841385
 21
7846.123139034709
 31
0.0
  0
LINE
  5
18C1A
330
18C16
100
AcDbEntity
  8
寸法
 62
     0
 48
50.0
370
    -2
100
AcDbLine
 10
8277.322920841385
 20
7901.123139034706
 30
0.0
 11
8277.322920841385
 21
8001.123139034707
 31
0.0
  0
LINE
  5
18C1B
330
18C16
100
AcDbEntity
  8
寸法
 62
     0
 48
50.0
370
    -2
100
AcDbLine
 10
8277.322920841385
 20
7846.123139034709
 30
0.0
 11
8277.322920841385
 21
7429.152576286229
 31
0.0
  0
LINE
  5
18C1C
330
18C16
100
AcDbEntity
  8
寸法
 62
     0
 48
50.0
370
    -2
100
AcDbLine
 10
8277.322920841385
 20
7901.123139034706
 30
0.0
 11
8277.322920841385
 21
7846.123139034709
 31
0.0
  0
INSERT
  5
18C1D
330
18C16
100
AcDbEntity
  8
寸法
 62
     0
 48
50.0
370
    -2
100
AcDbBlockReference
  2
_DOTSMALL
 10
8277.322920841385
 20
7901.123139034706
 30
0.0
 41
100.0
 42
100.0
 43
100.0
 50
270.0
  0
INSERT
  5
18C1E
330
18C16
100
AcDbEntity
  8
寸法
 62
     0
 48
50.0
370
    -2
100
AcDbBlockReference
  2
_DOTSMALL
 10
8277.322920841385
 20
7846.123139034709
 30
0.0
 41
100.0
 42
100.0
 43
100.0
 50
90.0
  0
MTEXT
  5
18C1F
330
18C16
100
AcDbEntity
  8
寸法
 62
     7
 48
50.0
100
AcDbMText
 10
8177.322920841383
 20
7537.637857660469
 30
0.0
 40
120.0
 41
0.0
 71
     5
 72
     1
  1
\A1;55
  7
STYLE1
 11
0.0000000000000001
 21
1.0
 31
0.0
 73
     1
 44
1.0
1001
ACAD
1000
MTEXTBEGIN
1070
    73
1070
     1
1070
    44
1040
1.0
1070
    74
1070
     0
1000
MTEXTEND
  0
POINT
  5
18C20
330
18C16
100
AcDbEntity
  8
DEFPOINTS
 62
     0
 48
50.0
100
AcDbPoint
 10
7629.896575106974
 20
7901.123139034706
 30
0.0
  0
POINT
  5
18C21
330
18C16
100
AcDbEntity
  8
DEFPOINTS
 62
     0
 48
50.0
100
AcDbPoint
 10
7629.896575106974
 20
7846.123139034709
 30
0.0
  0
POINT
  5
18C22
330
18C16
100
AcDbEntity
  8
DEFPOINTS
 62
     0
 48
50.0
100
AcDbPoint
 10
8277.322920841385
 20
7846.123139034709
 30
0.0
  0
ENDBLK
  5
18C23
330
18C16
100
AcDbEntity
  8
0
 48
50.0
100
AcDbBlockEnd
  0
BLOCK
  5
18C25
330
18C24
100
AcDbEntity
  8
0
 48
50.0
100
AcDbBlockBegin
  2
*D10
 70
     1
 10
0.0
 20
0.0
 30
0.0
  3
*D10
  1

  0
LINE
  5
18C26
330
18C24
100
AcDbEntity
  8
寸法
 62
     0
 48
50.0
370
    -2
100
AcDbLine
 10
6533.037591258376
 20
9136.123139034728
 30
0.0
 11
6465.083950562664
 21
8882.516699399049
 31
0.0
  0
LINE
  5
18C27
330
18C24
100
AcDbEntity
  8
寸法
 62
     0
 48
50.0
370
    -2
100
AcDbLine
 10
7596.037591258388
 20
9136.123139034721
 30
0.0
 11
7528.083950562677
 21
8882.516699399049
 31
0.0
  0
LINE
  5
18C28
330
18C24
100
AcDbEntity
  8
寸法
 62
     0
 48
50.0
370
    -2
100
AcDbLine
 10
6481.160902108531
 20
8942.51669939905
 30
0.0
 11
7544.160902108544
 21
8942.51669939905
 31
0.0
  0
INSERT
  5
18C29
330
18C24
100
AcDbEntity
  8
寸法
 62
     0
 48
50.0
370
    -2
100
AcDbBlockReference
  2
_DOTSMALL
 10
6481.160902108531
 20
8942.51669939905
 30
0.0
 41
100.0
 42
100.0
 43
100.0
 50
180.0
  0
INSERT
  5
18C2A
330
18C24
100
AcDbEntity
  8
寸法
 62
     0
 48
50.0
370
    -2
100
AcDbBlockReference
  2
_DOTSMALL
 10
7544.160902108544
 20
8942.51669939905
 30
0.0
 41
100.0
 42
100.0
 43
100.0
  0
MTEXT
  5
18C2B
330
18C24
100
AcDbEntity
  8
寸法
 62
     7
 48
50.0
100
AcDbMText
 10
7061.28653022935
 20
9042.516699399049
 30
0.0
 40
120.0
 41
0.0
 71
     5
 72
     1
  1
\A1;1063
  7
STYLE1
 73
     1
 44
1.0
1001
ACAD
1000
MTEXTBEGIN
1070
    73
1070
     1
1070
    44
1040
1.0
1070
    74
1070
     0
1000
MTEXTEND
  0
POINT
  5
18C2C
330
18C24
100
AcDbEntity
  8
DEFPOINTS
 62
     0
 48
50.0
100
AcDbPoint
 10
6538.396575106998
 20
9156.123139034727
 30
0.0
  0
POINT
  5
18C2D
330
18C24
100
AcDbEntity
  8
DEFPOINTS
 62
     0
 48
50.0
100
AcDbPoint
 10
7601.39657510701
 20
9156.12313903472
 30
0.0
  0
POINT
  5
18C2E
330
18C24
100
AcDbEntity
  8
DEFPOINTS
 62
     0
 48
50.0
100
AcDbPoint
 10
7544.160902108544
 20
8942.51669939905
 30
0.0
  0
ENDBLK
  5
18C2F
330
18C24
100
AcDbEntity
  8
0
 48
50.0
100
AcDbBlockEnd
  0
BLOCK
  5
18C31
330
18C30
100
AcDbEntity
  8
0
 48
50.0
100
AcDbBlockBegin
  2
*D11
 70
     1
 10
0.0
 20
0.0
 30
0.0
  3
*D11
  1

  0
LINE
  5
18C32
330
18C30
100
AcDbEntity
  8
寸法
 62
     0
 48
50.0
370
    -2
100
AcDbLine
 10
7621.396575106999
 20
9600.764155186094
 30
0.0
 11
8016.754300969024
 21
9494.828371819961
 31
0.0
  0
LINE
  5
18C33
330
18C30
100
AcDbEntity
  8
寸法
 62
     0
 48
50.0
370
    -2
100
AcDbLine
 10
7621.396575106999
 20
9150.764155186099
 30
0.0
 11
8016.754300969024
 21
9044.828371819964
 31
0.0
  0
LINE
  5
18C34
330
18C30
100
AcDbEntity
  8
寸法
 62
     0
 48
50.0
370
    -2
100
AcDbLine
 10
7956.754300969024
 20
9510.905323365827
 30
0.0
 11
7956.754300969024
 21
9060.90532336583
 31
0.0
  0
INSERT
  5
18C35
330
18C30
100
AcDbEntity
  8
寸法
 62
     0
 48
50.0
370
    -2
100
AcDbBlockReference
  2
_DOTSMALL
 10
7956.754300969024
 20
9510.905323365827
 30
0.0
 41
100.0
 42
100.0
 43
100.0
 50
90.0
  0
INSERT
  5
18C36
330
18C30
100
AcDbEntity
  8
寸法
 62
     0
 48
50.0
370
    -2
100
AcDbBlockReference
  2
_DOTSMALL
 10
7956.754300969024
 20
9060.90532336583
 30
0.0
 41
100.0
 42
100.0
 43
100.0
 50
270.0
  0
MTEXT
  5
18C37
330
18C30
100
AcDbEntity
  8
寸法
 62
     7
 48
50.0
100
AcDbMText
 10
7856.754300969022
 20
9285.905323365829
 30
0.0
 40
120.0
 41
0.0
 71
     5
 72
     1
  1
\A1;450
  7
STYLE1
 11
0.0000000000000001
 21
1.0
 31
0.0
 73
     1
 44
1.0
1001
ACAD
1000
MTEXTBEGIN
1070
    73
1070
     1
1070
    44
1040
1.0
1070
    74
1070
     0
1000
MTEXTEND
  0
POINT
  5
18C38
330
18C30
100
AcDbEntity
  8
DEFPOINTS
 62
     0
 48
50.0
100
AcDbPoint
 10
7601.396575106999
 20
9606.123139034718
 30
0.0
  0
POINT
  5
18C39
330
18C30
100
AcDbEntity
  8
DEFPOINTS
 62
     0
 48
50.0
100
AcDbPoint
 10
7601.396575106999
 20
9156.12313903472
 30
0.0
  0
POINT
  5
18C3A
330
18C30
100
AcDbEntity
  8
DEFPOINTS
 62
     0
 48
50.0
100
AcDbPoint
 10
7956.754300969024
 20
9060.90532336583
 30
0.0
  0
ENDBLK
  5
18C3B
330
18C30
100
AcDbEntity
  8
0
 48
50.0
100
AcDbBlockEnd
  0
BLOCK
  5
18C3D
330
18C3C
100
AcDbEntity
  8
0
 48
50.0
100
AcDbBlockBegin
  2
*D12
 70
     1
 10
0.0
 20
0.0
 30
0.0
  3
*D12
  1

  0
LINE
  5
18C3E
330
18C3C
100
AcDbEntity
  8
寸法
 62
     0
 48
50.0
370
    -2
100
AcDbLine
 10
7649.896575106999
 20
9581.123139034721
 30
0.0
 11
8337.32292084141
 21
9581.123139034721
 31
0.0
  0
LINE
  5
18C3F
330
18C3C
100
AcDbEntity
  8
寸法
 62
     0
 48
50.0
370
    -2
100
AcDbLine
 10
7649.896575106973
 20
7901.123139034706
 30
0.0
 11
8337.32292084141
 21
7901.123139034706
 31
0.0
  0
LINE
  5
18C40
330
18C3C
100
AcDbEntity
  8
寸法
 62
     0
 48
50.0
370
    -2
100
AcDbLine
 10
8277.322920841411
 20
9581.123139034721
 30
0.0
 11
8277.322920841411
 21
7901.123139034706
 31
0.0
  0
INSERT
  5
18C41
330
18C3C
100
AcDbEntity
  8
寸法
 62
     0
 48
50.0
370
    -2
100
AcDbBlockReference
  2
_DOTSMALL
 10
8277.322920841411
 20
9581.123139034721
 30
0.0
 41
100.0
 42
100.0
 43
100.0
 50
90.0
  0
INSERT
  5
18C42
330
18C3C
100
AcDbEntity
  8
寸法
 62
     0
 48
50.0
370
    -2
100
AcDbBlockReference
  2
_DOTSMALL
 10
8277.322920841411
 20
7901.123139034706
 30
0.0
 41
100.0
 42
100.0
 43
100.0
 50
270.0
  0
MTEXT
  5
18C43
330
18C3C
100
AcDbEntity
  8
寸法
 62
     7
 48
50.0
100
AcDbMText
 10
8177.311109817788
 20
8741.123139034712
 30
0.0
 40
120.0
 41
0.0
 71
     5
 72
     1
  1
\A1;4X420=1680
  7
STYLE1
 11
0.0000000000000001
 21
1.0
 31
0.0
 73
     1
 44
1.0
1001
ACAD
1000
MTEXTBEGIN
1070
    73
1070
     1
1070
    44
1040
1.0
1070
    74
1070
     0
1000
MTEXTEND
  0
POINT
  5
18C44
330
18C3C
100
AcDbEntity
  8
DEFPOINTS
 62
     0
 48
50.0
100
AcDbPoint
 10
7629.896575106998
 20
9581.123139034721
 30
0.0
  0
POINT
  5
18C45
330
18C3C
100
AcDbEntity
  8
DEFPOINTS
 62
     0
 48
50.0
100
AcDbPoint
 10
7629.896575106974
 20
7901.123139034706
 30
0.0
  0
POINT
  5
18C46
330
18C3C
100
AcDbEntity
  8
DEFPOINTS
 62
     0
 48
50.0
100
AcDbPoint
 10
8277.322920841411
 20
7901.123139034706
 30
0.0
  0
ENDBLK
  5
18C47
330
18C3C
100
AcDbEntity
  8
0
 48
50.0
100
AcDbBlockEnd
  0
BLOCK
  5
18C49
330
18C48
100
AcDbEntity
  8
0
 48
50.0
100
AcDbBlockBegin
  2
*D13
 70
     1
 10
0.0
 20
0.0
 30
0.0
  3
*D13
  1

  0
LINE
  5
18C4A
330
18C48
100
AcDbEntity
  8
寸法
 62
     0
 48
50.0
370
    -2
100
AcDbLine
 10
4183.037591258377
 20
9136.123139034619
 30
0.0
 11
4115.083950562663
 21
8882.516699398941
 31
0.0
  0
LINE
  5
18C4B
330
18C48
100
AcDbEntity
  8
寸法
 62
     0
 48
50.0
370
    -2
100
AcDbLine
 10
5246.037591258307
 20
9136.123139034671
 30
0.0
 11
5178.08395056258
 21
8882.516699398941
 31
0.0
  0
LINE
  5
18C4C
330
18C48
100
AcDbEntity
  8
寸法
 62
     0
 48
50.0
370
    -2
100
AcDbLine
 10
4131.160902108532
 20
8942.516699398941
 30
0.0
 11
5194.160902108448
 21
8942.516699398941
 31
0.0
  0
INSERT
  5
18C4D
330
18C48
100
AcDbEntity
  8
寸法
 62
     0
 48
50.0
370
    -2
100
AcDbBlockReference
  2
_DOTSMALL
 10
4131.160902108532
 20
8942.516699398941
 30
0.0
 41
100.0
 42
100.0
 43
100.0
 50
180.0
  0
INSERT
  5
18C4E
330
18C48
100
AcDbEntity
  8
寸法
 62
     0
 48
50.0
370
    -2
100
AcDbBlockReference
  2
_DOTSMALL
 10
5194.160902108448
 20
8942.516699398941
 30
0.0
 41
100.0
 42
100.0
 43
100.0
  0
MTEXT
  5
18C4F
330
18C48
100
AcDbEntity
  8
寸法
 62
     7
 48
50.0
100
AcDbMText
 10
4658.986452655306
 20
9042.516699398941
 30
0.0
 40
120.0
 41
0.0
 71
     5
 72
     1
  1
\A1;1063
  7
STYLE1
 73
     1
 44
1.0
1001
ACAD
1000
MTEXTBEGIN
1070
    73
1070
     1
1070
    44
1040
1.0
1070
    74
1070
     0
1000
MTEXTEND
  0
POINT
  5
18C50
330
18C48
100
AcDbEntity
  8
DEFPOINTS
 62
     0
 48
50.0
100
AcDbPoint
 10
4188.396575106999
 20
9156.123139034617
 30
0.0
  0
POINT
  5
18C51
330
18C48
100
AcDbEntity
  8
DEFPOINTS
 62
     0
 48
50.0
100
AcDbPoint
 10
5251.396575106929
 20
9156.123139034672
 30
0.0
  0
POINT
  5
18C52
330
18C48
100
AcDbEntity
  8
DEFPOINTS
 62
     0
 48
50.0
100
AcDbPoint
 10
5194.160902108448
 20
8942.516699398941
 30
0.0
  0
ENDBLK
  5
18C53
330
18C48
100
AcDbEntity
  8
0
 48
50.0
100
AcDbBlockEnd
  0
BLOCK
  5
18C55
330
18C54
100
AcDbEntity
  8
0
 48
50.0
100
AcDbBlockBegin
  2
*D14
 70
     1
 10
0.0
 20
0.0
 30
0.0
  3
*D14
  1

  0
LINE
  5
18C56
330
18C54
100
AcDbEntity
  8
寸法
 62
     0
 48
50.0
370
    -2
100
AcDbLine
 10
5274.037591258307
 20
9136.123139034669
 30
0.0
 11
5206.08395056258
 21
8882.516699398941
 31
0.0
  0
LINE
  5
18C57
330
18C54
100
AcDbEntity
  8
寸法
 62
     0
 48
50.0
370
    -2
100
AcDbLine
 10
6505.037591258377
 20
9136.123139034662
 30
0.0
 11
6437.083950562653
 21
8882.516699398941
 31
0.0
  0
LINE
  5
18C58
330
18C54
100
AcDbEntity
  8
寸法
 62
     0
 48
50.0
370
    -2
100
AcDbLine
 10
5222.160902108448
 20
8942.516699398941
 30
0.0
 11
6453.16090210852
 21
8942.516699398941
 31
0.0
  0
INSERT
  5
18C59
330
18C54
100
AcDbEntity
  8
寸法
 62
     0
 48
50.0
370
    -2
100
AcDbBlockReference
  2
_DOTSMALL
 10
5222.160902108448
 20
8942.516699398941
 30
0.0
 41
100.0
 42
100.0
 43
100.0
 50
180.0
  0
INSERT
  5
18C5A
330
18C54
100
AcDbEntity
  8
寸法
 62
     0
 48
50.0
370
    -2
100
AcDbBlockReference
  2
_DOTSMALL
 10
6453.16090210852
 20
8942.516699398941
 30
0.0
 41
100.0
 42
100.0
 43
100.0
  0
MTEXT
  5
18C5B
330
18C54
100
AcDbEntity
  8
寸法
 62
     7
 48
50.0
100
AcDbMText
 10
6081.244808320626
 20
9042.528510422561
 30
0.0
 40
120.0
 41
0.0
 71
     5
 72
     1
  1
\A1;1231
  7
STYLE1
 73
     1
 44
1.0
1001
ACAD
1000
MTEXTBEGIN
1070
    73
1070
     1
1070
    44
1040
1.0
1070
    74
1070
     0
1000
MTEXTEND
  0
POINT
  5
18C5C
330
18C54
100
AcDbEntity
  8
DEFPOINTS
 62
     0
 48
50.0
100
AcDbPoint
 10
5279.396575106929
 20
9156.123139034669
 30
0.0
  0
POINT
  5
18C5D
330
18C54
100
AcDbEntity
  8
DEFPOINTS
 62
     0
 48
50.0
100
AcDbPoint
 10
6510.396575106999
 20
9156.123139034662
 30
0.0
  0
POINT
  5
18C5E
330
18C54
100
AcDbEntity
  8
DEFPOINTS
 62
     0
 48
50.0
100
AcDbPoint
 10
6453.16090210852
 20
8942.516699398941
 30
0.0
  0
ENDBLK
  5
18C5F
330
18C54
100
AcDbEntity
  8
0
 48
50.0
100
AcDbBlockEnd
  0
BLOCK
  5
18C61
330
18C60
100
AcDbEntity
  8
0
 48
50.0
100
AcDbBlockBegin
  2
*D15
 70
     1
 10
0.0
 20
0.0
 30
0.0
  3
*D15
  1

  0
LINE
  5
18C62
330
18C60
100
AcDbEntity
  8
寸法
 62
     0
 48
50.0
370
    -2
100
AcDbLine
 10
5065.896575106966
 20
7749.123139034579
 30
0.0
 11
5065.896575106966
 21
7099.952920982538
 31
0.0
  0
LINE
  5
18C63
330
18C60
100
AcDbEntity
  8
寸法
 62
     0
 48
50.0
370
    -2
100
AcDbLine
 10
6331.896575106966
 20
7749.123139034579
 30
0.0
 11
6331.896575106966
 21
7099.952920982538
 31
0.0
  0
LINE
  5
18C64
330
18C60
100
AcDbEntity
  8
寸法
 62
     0
 48
50.0
370
    -2
100
AcDbLine
 10
5065.896575106966
 20
7159.952920982537
 30
0.0
 11
6331.896575106966
 21
7159.952920982537
 31
0.0
  0
INSERT
  5
18C65
330
18C60
100
AcDbEntity
  8
寸法
 62
     0
 48
50.0
370
    -2
100
AcDbBlockReference
  2
_DOTSMALL
 10
5065.896575106966
 20
7159.952920982537
 30
0.0
 41
100.0
 42
100.0
 43
100.0
 50
180.0
  0
INSERT
  5
18C66
330
18C60
100
AcDbEntity
  8
寸法
 62
     0
 48
50.0
370
    -2
100
AcDbBlockReference
  2
_DOTSMALL
 10
6331.896575106966
 20
7159.952920982537
 30
0.0
 41
100.0
 42
100.0
 43
100.0
  0
MTEXT
  5
18C67
330
18C60
100
AcDbEntity
  8
寸法
 62
     7
 48
50.0
100
AcDbMText
 10
5711.986008735934
 20
7359.964732006159
 30
0.0
 40
120.0
 41
0.0
 71
     5
 72
     1
  1
\A1;有効開口部間口\P1266
  7
STYLE1
 73
     1
 44
1.0
1001
ACAD
1000
MTEXTBEGIN
1070
    73
1070
     1
1070
    44
1040
1.0
1070
    74
1070
     0
1000
MTEXTEND
  0
POINT
  5
18C68
330
18C60
100
AcDbEntity
  8
DEFPOINTS
 62
     0
 48
50.0
100
AcDbPoint
 10
5065.896575106966
 20
7769.123139034579
 30
0.0
  0
POINT
  5
18C69
330
18C60
100
AcDbEntity
  8
DEFPOINTS
 62
     0
 48
50.0
100
AcDbPoint
 10
6331.896575106966
 20
7769.123139034579
 30
0.0
  0
POINT
  5
18C6A
330
18C60
100
AcDbEntity
  8
DEFPOINTS
 62
     0
 48
50.0
100
AcDbPoint
 10
6331.896575106966
 20
7159.952920982537
 30
0.0
  0
ENDBLK
  5
18C6B
330
18C60
100
AcDbEntity
  8
0
 48
50.0
100
AcDbBlockEnd
  0
BLOCK
  5
18C6D
330
18C6C
100
AcDbEntity
  8
0
 48
50.0
100
AcDbBlockBegin
  2
*D16
 70
     1
 10
0.0
 20
0.0
 30
0.0
  3
*D16
  1

  0
LINE
  5
18C6E
330
18C6C
100
AcDbEntity
  8
寸法
 62
     0
 48
50.0
370
    -2
100
AcDbLine
 10
7200.896575106966
 20
7846.123139034578
 30
0.0
 11
7457.192158500191
 21
7846.123139034578
 31
0.0
  0
LINE
  5
18C6F
330
18C6C
100
AcDbEntity
  8
寸法
 62
     0
 48
50.0
370
    -2
100
AcDbLine
 10
7199.896575106966
 20
7769.123139034579
 30
0.0
 11
7457.192158500191
 21
7769.123139034579
 31
0.0
  0
LINE
  5
18C70
330
18C6C
100
AcDbEntity
  8
寸法
 62
     0
 48
50.0
370
    -2
100
AcDbLine
 10
7417.192158500192
 20
7866.123139034579
 30
0.0
 11
7417.192158500192
 21
7886.123139034578
 31
0.0
  0
LINE
  5
18C71
330
18C6C
100
AcDbEntity
  8
寸法
 62
     0
 48
50.0
370
    -2
100
AcDbLine
 10
7417.192158500192
 20
7749.123139034579
 30
0.0
 11
7417.192158500192
 21
7533.123139034573
 31
0.0
  0
LINE
  5
18C72
330
18C6C
100
AcDbEntity
  8
寸法
 62
     0
 48
50.0
370
    -2
100
AcDbLine
 10
7417.192158500192
 20
7846.123139034578
 30
0.0
 11
7417.192158500192
 21
7769.123139034579
 31
0.0
  0
INSERT
  5
18C73
330
18C6C
100
AcDbEntity
  8
寸法
 62
     0
 48
50.0
370
    -2
100
AcDbBlockReference
  2
_DOT
 10
7417.192158500192
 20
7846.123139034578
 30
0.0
 41
20.0
 42
20.0
 43
20.0
 50
270.0
  0
INSERT
  5
18C74
330
18C6C
100
AcDbEntity
  8
寸法
 62
     0
 48
50.0
370
    -2
100
AcDbBlockReference
  2
_DOT
 10
7417.192158500192
 20
7769.123139034579
 30
0.0
 41
20.0
 42
20.0
 43
20.0
 50
90.0
  0
MTEXT
  5
18C75
330
18C6C
100
AcDbEntity
  8
寸法
 62
     7
 48
50.0
100
AcDbMText
 10
7325.192158500191
 20
7631.123139034575
 30
0.0
 40
120.0
 41
0.0
 71
     5
 72
     1
  1
\A1;77
  7
STYLE1
 11
0.0000000000000001
 21
1.0
 31
0.0
 73
     1
 44
1.0
1001
ACAD
1000
MTEXTBEGIN
1070
    73
1070
     1
1070
    44
1040
1.0
1070
    74
1070
     0
1000
MTEXTEND
  0
POINT
  5
18C76
330
18C6C
100
AcDbEntity
  8
DEFPOINTS
 62
     0
 48
50.0
100
AcDbPoint
 10
7180.896575106967
 20
7846.123139034578
 30
0.0
  0
POINT
  5
18C77
330
18C6C
100
AcDbEntity
  8
DEFPOINTS
 62
     0
 48
50.0
100
AcDbPoint
 10
7179.896575106965
 20
7769.123139034579
 30
0.0
  0
POINT
  5
18C78
330
18C6C
100
AcDbEntity
  8
DEFPOINTS
 62
     0
 48
50.0
100
AcDbPoint
 10
7417.192158500192
 20
7769.123139034579
 30
0.0
  0
ENDBLK
  5
18C79
330
18C6C
100
AcDbEntity
  8
0
 48
50.0
100
AcDbBlockEnd
  0
BLOCK
  5
18DA0
330
18C7A
100
AcDbEntity
  8
0
 48
50.0
100
AcDbBlockBegin
  2
A$C3B1A506B
 70
     0
 10
0.0
 20
0.0
 30
0.0
  3
A$C3B1A506B
  1

  0
MTEXT
  5
18C7B
330
18C7A
100
AcDbEntity
  8
寸法
 62
     7
 48
50.0
100
AcDbMText
 10
3342.250386887194
 20
2778.329429134012
 30
0.0
 40
96.0
 41
0.0
 71
     5
 72
     1
  1
棚 2段
  7
STYLE1
 73
     1
 44
1.0
1001
ACAD
1000
MTEXTBEGIN
1070
    73
1070
     1
1070
    44
1040
1.0
1070
    74
1070
     0
1000
MTEXTEND
  0
MTEXT
  5
18C7C
330
18C7A
100
AcDbEntity
  8
寸法
 62
     7
 48
50.0
100
AcDbMText
 10
2167.25038688716
 20
2778.329429133986
 30
0.0
 40
96.0
 41
0.0
 71
     5
 72
     1
  1
棚 2段
  7
STYLE1
 73
     1
 44
1.0
1001
ACAD
1000
MTEXTBEGIN
1070
    73
1070
     1
1070
    44
1040
1.0
1070
    74
1070
     0
1000
MTEXTEND
  0
MTEXT
  5
18C7D
330
18C7A
100
AcDbEntity
  8
寸法
 62
     7
 48
50.0
100
AcDbMText
 10
992.2503868871608
 20
2778.329429133935
 30
0.0
 40
96.0
 41
0.0
 71
     5
 72
     1
  1
棚 2段
  7
STYLE1
 73
     1
 44
1.0
1001
ACAD
1000
MTEXTBEGIN
1070
    73
1070
     1
1070
    44
1040
1.0
1070
    74
1070
     0
1000
MTEXTEND
  0
LINE
  5
18C7E
330
18C7A
100
AcDbEntity
  8
細線
 48
50.0
100
AcDbLine
 10
2771.970589276527
 20
1368.994384123192
 30
0.0
 11
3398.970589276523
 21
1368.994384123192
 31
0.0
  0
LINE
  5
18C7F
330
18C7A
100
AcDbEntity
  8
細線
 48
50.0
100
AcDbLine
 10
2117.970593930113
 20
1335.285615569113
 30
0.0
 11
3398.970589276523
 21
1335.285615569113
 31
0.0
  0
LINE
  5
18C80
330
18C7A
100
AcDbEntity
  8
細線
 48
50.0
100
AcDbLine
 10
2076.970593930115
 20
1364.690523565368
 30
0.0
 11
1322.970589276523
 21
1364.690523565367
 31
0.0
  0
LINE
  5
18C81
330
18C7A
100
AcDbEntity
  8
細線
100
AcDbLine
 10
3170.720579860066
 20
1388.494284088199
 30
0.0
 11
3173.052119381877
 21
1393.494286728162
 31
0.0
  0
LINE
  5
18C82
330
18C7A
100
AcDbEntity
  8
細線
100
AcDbLine
 10
3240.720589276525
 20
1388.494269174465
 30
0.0
 11
3238.389042800336
 21
1393.494286728144
 31
0.0
  0
LINE
  5
18C83
330
18C7A
100
AcDbEntity
  8
細線
100
AcDbLine
 10
3238.389042800336
 20
1393.494286728144
 30
0.0
 11
3173.052119381862
 21
1393.494286728133
 31
0.0
  0
LINE
  5
18C84
330
18C7A
100
AcDbEntity
  8
細線
100
AcDbLine
 10
3098.389042800336
 20
1393.494286728144
 30
0.0
 11
3033.052119381862
 21
1393.494286728133
 31
0.0
  0
LINE
  5
18C85
330
18C7A
100
AcDbEntity
  8
細線
100
AcDbLine
 10
3100.720589276523
 20
1388.494269174465
 30
0.0
 11
3098.389042800336
 21
1393.494286728144
 31
0.0
  0
LINE
  5
18C86
330
18C7A
100
AcDbEntity
  8
細線
100
AcDbLine
 10
3030.720579860066
 20
1388.494284088199
 30
0.0
 11
3033.052119381875
 21
1393.494286728162
 31
0.0
  0
LINE
  5
18C87
330
18C7A
100
AcDbEntity
  8
細線
100
AcDbLine
 10
2890.720589276525
 20
1388.494269174465
 30
0.0
 11
2893.052128798336
 21
1393.494271814428
 31
0.0
  0
LINE
  5
18C88
330
18C7A
100
AcDbEntity
  8
細線
100
AcDbLine
 10
2960.720598692984
 20
1388.494254260731
 30
0.0
 11
2958.389052216793
 21
1393.49427181441
 31
0.0
  0
LINE
  5
18C89
330
18C7A
100
AcDbEntity
  8
細線
100
AcDbLine
 10
2958.389052216795
 20
1393.49427181441
 30
0.0
 11
2893.052128798321
 21
1393.494271814399
 31
0.0
  0
LINE
  5
18C8A
330
18C7A
100
AcDbEntity
  8
細線
100
AcDbLine
 10
2667.139038146739
 20
1359.494298590735
 30
0.0
 11
2601.802114728263
 21
1359.494298590724
 31
0.0
  0
LINE
  5
18C8B
330
18C7A
100
AcDbEntity
  8
細線
100
AcDbLine
 10
2669.470584622926
 20
1354.494281037055
 30
0.0
 11
2667.139038146737
 21
1359.494298590735
 31
0.0
  0
LINE
  5
18C8C
330
18C7A
100
AcDbEntity
  8
細線
100
AcDbLine
 10
2599.470575206469
 20
1354.49429595079
 30
0.0
 11
2601.802114728278
 21
1359.494298590752
 31
0.0
  0
LINE
  5
18C8D
330
18C7A
100
AcDbEntity
  8
細線
 48
50.0
100
AcDbLine
 10
2440.853968524536
 20
1372.765132327548
 30
0.0
 11
2446.609486107205
 21
1354.494281037057
 31
0.0
  0
LINE
  5
18C8E
330
18C7A
100
AcDbEntity
  8
細線
 48
50.0
100
AcDbLine
 10
2429.925520044106
 20
1372.765132327546
 30
0.0
 11
2440.853968524536
 21
1372.765132327548
 31
0.0
  0
ARC
  5
18C8F
330
18C7A
100
AcDbEntity
  8
細線
 48
50.0
100
AcDbCircle
 10
2424.471163986787
 20
1374.265132327546
 30
0.0
 40
5.0
100
AcDbArc
 50
204.6243183520723
 51
335.3756816479278
  0
ARC
  5
18C90
330
18C7A
100
AcDbEntity
  8
細線
 48
50.0
100
AcDbCircle
 10
2429.925520044106
 20
1371.765132327546
 30
0.0
 40
1.0
100
AcDbArc
 50
90.0
 51
155.3756816479277
  0
ARC
  5
18C91
330
18C7A
100
AcDbEntity
  8
細線
 48
50.0
100
AcDbCircle
 10
2419.016807929469
 20
1371.765132327546
 30
0.0
 40
1.0
100
AcDbArc
 50
24.62431835207225
 51
90.0
  0
LINE
  5
18C92
330
18C7A
100
AcDbEntity
  8
細線
 48
50.0
100
AcDbLine
 10
2408.088359449037
 20
1372.765132327548
 30
0.0
 11
2419.016807929469
 21
1372.765132327546
 31
0.0
  0
LINE
  5
18C93
330
18C7A
100
AcDbEntity
  8
細線
 48
50.0
100
AcDbLine
 10
2402.33284186637
 20
1354.494281037054
 30
0.0
 11
2408.088359449037
 21
1372.765132327548
 31
0.0
  0
LINE
  5
18C94
330
18C7A
100
AcDbEntity
  8
細線
100
AcDbLine
 10
2458.070304175992
 20
1354.494278397076
 30
0.0
 11
2460.401843697802
 21
1359.494281037039
 31
0.0
  0
LINE
  5
18C95
330
18C7A
100
AcDbEntity
  8
細線
100
AcDbLine
 10
2528.070313592451
 20
1354.494263483342
 30
0.0
 11
2525.738767116262
 21
1359.494281037021
 31
0.0
  0
LINE
  5
18C96
330
18C7A
100
AcDbEntity
  8
細線
100
AcDbLine
 10
2525.738767116262
 20
1359.494281037021
 30
0.0
 11
2460.40184369779
 21
1359.49428103701
 31
0.0
  0
LINE
  5
18C97
330
18C7A
100
AcDbEntity
  8
細線
100
AcDbLine
 10
2387.139046332155
 20
1359.494281037021
 30
0.0
 11
2321.80212291368
 21
1359.49428103701
 31
0.0
  0
LINE
  5
18C98
330
18C7A
100
AcDbEntity
  8
細線
100
AcDbLine
 10
2389.470592808342
 20
1354.494263483342
 30
0.0
 11
2387.139046332153
 21
1359.494281037021
 31
0.0
  0
LINE
  5
18C99
330
18C7A
100
AcDbEntity
  8
細線
100
AcDbLine
 10
2319.470584622926
 20
1354.494281037054
 30
0.0
 11
2321.802122913694
 21
1359.494281037039
 31
0.0
  0
LINE
  5
18C9A
330
18C7A
100
AcDbEntity
  8
細線
100
AcDbLine
 10
2179.47061994182
 20
1354.494289224422
 30
0.0
 11
2181.802158232587
 21
1359.494289224407
 31
0.0
  0
LINE
  5
18C9B
330
18C7A
100
AcDbEntity
  8
細線
100
AcDbLine
 10
2249.470628127236
 20
1354.49427167071
 30
0.0
 11
2247.139081651047
 21
1359.494289224389
 31
0.0
  0
LINE
  5
18C9C
330
18C7A
100
AcDbEntity
  8
細線
100
AcDbLine
 10
2247.139081651047
 20
1359.494289224389
 30
0.0
 11
2181.802158232573
 21
1359.494289224378
 31
0.0
  0
LINE
  5
18C9D
330
18C7A
100
AcDbEntity
  8
細線
100
AcDbLine
 10
1807.970585744697
 20
1320.494460905133
 30
0.0
 11
1810.302124035464
 21
1325.494460905118
 31
0.0
  0
LINE
  5
18C9E
330
18C7A
100
AcDbEntity
  8
細線
100
AcDbLine
 10
1877.970593930113
 20
1320.494443351421
 30
0.0
 11
1875.639047453926
 21
1325.4944609051
 31
0.0
  0
LINE
  5
18C9F
330
18C7A
100
AcDbEntity
  8
細線
100
AcDbLine
 10
1875.639047453926
 20
1325.4944609051
 30
0.0
 11
1810.302124035452
 21
1325.494460905089
 31
0.0
  0
LINE
  5
18CA0
330
18C7A
100
AcDbEntity
  8
細線
100
AcDbLine
 10
2015.639047453926
 20
1325.4944609051
 30
0.0
 11
1950.302124035452
 21
1325.494460905089
 31
0.0
  0
LINE
  5
18CA1
330
18C7A
100
AcDbEntity
  8
細線
100
AcDbLine
 10
2017.970593930113
 20
1320.494443351421
 30
0.0
 11
2015.639047453924
 21
1325.4944609051
 31
0.0
  0
LINE
  5
18CA2
330
18C7A
100
AcDbEntity
  8
細線
100
AcDbLine
 10
1947.970585744697
 20
1320.494460905133
 30
0.0
 11
1950.302124035465
 21
1325.494460905118
 31
0.0
  0
LINE
  5
18CA3
330
18C7A
100
AcDbEntity
  8
細線
100
AcDbLine
 10
1735.639047453926
 20
1325.494460905098
 30
0.0
 11
1670.302124035454
 21
1325.494460905087
 31
0.0
  0
LINE
  5
18CA4
330
18C7A
100
AcDbEntity
  8
細線
100
AcDbLine
 10
1737.970593930113
 20
1320.494443351419
 30
0.0
 11
1735.639047453926
 21
1325.494460905098
 31
0.0
  0
LINE
  5
18CA5
330
18C7A
100
AcDbEntity
  8
細線
100
AcDbLine
 10
1667.970585744697
 20
1320.494460905131
 30
0.0
 11
1670.302124035465
 21
1325.494460905116
 31
0.0
  0
LINE
  5
18CA6
330
18C7A
100
AcDbEntity
  8
細線
100
AcDbLine
 10
1527.970593930113
 20
1320.494460905133
 30
0.0
 11
1530.302132220881
 21
1325.494460905118
 31
0.0
  0
LINE
  5
18CA7
330
18C7A
100
AcDbEntity
  8
細線
100
AcDbLine
 10
1597.970602115529
 20
1320.494443351421
 30
0.0
 11
1595.639055639342
 21
1325.4944609051
 31
0.0
  0
LINE
  5
18CA8
330
18C7A
100
AcDbEntity
  8
細線
100
AcDbLine
 10
1595.639055639342
 20
1325.4944609051
 30
0.0
 11
1530.302132220869
 21
1325.494460905089
 31
0.0
  0
ARC
  5
18CA9
330
18C7A
100
AcDbEntity
  8
部品1
 48
0.01
100
AcDbCircle
 10
1483.470482677778
 20
1319.493338720063
 30
0.0
 40
0.5
100
AcDbArc
 50
270.0
 51
0.0
  0
LINE
  5
18CAA
330
18C7A
100
AcDbEntity
  8
部品1
 48
0.01
100
AcDbLine
 10
1483.970482677778
 20
1320.493338720063
 30
0.0
 11
1483.970482677778
 21
1319.493338720063
 31
0.0
  0
LINE
  5
18CAB
330
18C7A
100
AcDbEntity
  8
部品1
 48
0.01
100
AcDbLine
 10
1483.970482677778
 20
1320.493338720063
 30
0.0
 11
1483.970482677778
 21
1319.493338720063
 31
0.0
  0
LINE
  5
18CAC
330
18C7A
100
AcDbEntity
  8
部品1
 48
0.01
100
AcDbLine
 10
1483.470482677778
 20
1318.993338720063
 30
0.0
 11
1476.857977247713
 21
1318.993338720062
 31
0.0
  0
ARC
  5
18CAD
330
18C7A
100
AcDbEntity
  8
部品1
100
AcDbCircle
 10
1476.926326800494
 20
1319.993338720062
 30
0.0
 40
1.0
100
AcDbArc
 50
160.5287793655865
 51
270.0
  0
ARC
  5
18CAE
330
18C7A
100
AcDbEntity
  8
部品1
100
AcDbCircle
 10
1451.470482677778
 20
1328.993338720062
 30
0.0
 40
26.0
100
AcDbArc
 50
340.5287793655865
 51
0.0
  0
LINE
  5
18CAF
330
18C7A
100
AcDbEntity
  8
部品1
100
AcDbLine
 10
1477.470482677778
 20
1328.993338720062
 30
0.0
 11
1477.470482677778
 21
1333.993338720061
 31
0.0
  0
ARC
  5
18CB0
330
18C7A
100
AcDbEntity
  8
部品1
 48
0.01
100
AcDbCircle
 10
1475.470482677778
 20
1333.993338720061
 30
0.0
 40
2.0
100
AcDbArc
 50
0.0
 51
90.0
  0
ARC
  5
18CB1
330
18C7A
100
AcDbEntity
  8
部品1
100
AcDbCircle
 10
1473.862091052968
 20
1332.993338720062
 30
0.0
 40
3.0
100
AcDbArc
 50
90.0
 51
141.6069559808035
  0
LINE
  5
18CB2
330
18C7A
100
AcDbEntity
  8
部品1
 48
0.01
100
AcDbLine
 10
1475.470482677778
 20
1335.993338720062
 30
0.0
 11
1473.862091052968
 21
1335.993338720062
 31
0.0
  0
ARC
  5
18CB3
330
18C7A
100
AcDbEntity
  8
部品1
100
AcDbCircle
 10
1455.399768463507
 20
1332.293338720065
 30
0.0
 40
3.0
100
AcDbArc
 50
254.0576313943215
 51
270.0
  0
ARC
  5
18CB4
330
18C7A
100
AcDbEntity
  8
部品1
100
AcDbCircle
 10
1462.541196892049
 20
1332.293338720065
 30
0.0
 40
3.0
100
AcDbArc
 50
270.0
 51
285.9423686056786
  0
LINE
  5
18CB5
330
18C7A
100
AcDbEntity
  8
部品1
100
AcDbLine
 10
1462.541196892049
 20
1329.293338720064
 30
0.0
 11
1455.399768463507
 21
1329.293338720064
 31
0.0
  0
ARC
  5
18CB6
330
18C7A
100
AcDbEntity
  8
部品1
100
AcDbCircle
 10
1458.970482677778
 20
1344.793338720065
 30
0.0
 40
16.0
100
AcDbArc
 50
285.9423686056786
 51
321.6069559808035
  0
LINE
  5
18CB7
330
18C7A
100
AcDbEntity
  8
部品1
 48
0.01
100
AcDbLine
 10
1442.470482677778
 20
1335.993338720062
 30
0.0
 11
1444.078874302588
 21
1335.993338720062
 31
0.0
  0
ARC
  5
18CB8
330
18C7A
100
AcDbEntity
  8
部品1
100
AcDbCircle
 10
1444.078874302588
 20
1332.993338720062
 30
0.0
 40
3.0
100
AcDbArc
 50
38.39304401919648
 51
90.0
  0
ARC
  5
18CB9
330
18C7A
100
AcDbEntity
  8
部品1
100
AcDbCircle
 10
1458.970482677778
 20
1344.793338720065
 30
0.0
 40
16.0
100
AcDbArc
 50
218.3930440191965
 51
254.0576313943215
  0
LINE
  5
18CBA
330
18C7A
100
AcDbEntity
  8
部品1
100
AcDbLine
 10
1440.470482677778
 20
1328.993338720062
 30
0.0
 11
1440.470482677778
 21
1333.993338720061
 31
0.0
  0
ARC
  5
18CBB
330
18C7A
100
AcDbEntity
  8
部品1
 48
0.01
100
AcDbCircle
 10
1442.470482677778
 20
1333.993338720061
 30
0.0
 40
2.0
100
AcDbArc
 50
90.0
 51
180.0
  0
ARC
  5
18CBC
330
18C7A
100
AcDbEntity
  8
部品1
100
AcDbCircle
 10
1466.470482677778
 20
1328.993338720062
 30
0.0
 40
26.0
100
AcDbArc
 50
180.0
 51
199.4712206344134
  0
ARC
  5
18CBD
330
18C7A
100
AcDbEntity
  8
部品1
 48
0.01
100
AcDbCircle
 10
1434.470482677778
 20
1319.493338720063
 30
0.0
 40
0.5
100
AcDbArc
 50
180.0
 51
270.0
  0
LINE
  5
18CBE
330
18C7A
100
AcDbEntity
  8
部品1
 48
0.01
100
AcDbLine
 10
1434.470482677778
 20
1318.993338720063
 30
0.0
 11
1441.014638555061
 21
1318.993338720062
 31
0.0
  0
LINE
  5
18CBF
330
18C7A
100
AcDbEntity
  8
部品1
 48
0.01
100
AcDbLine
 10
1433.970482677778
 20
1320.493338720063
 30
0.0
 11
1433.970482677778
 21
1319.493338720063
 31
0.0
  0
ARC
  5
18CC0
330
18C7A
100
AcDbEntity
  8
部品1
100
AcDbCircle
 10
1441.014638555061
 20
1319.993338720062
 30
0.0
 40
1.0
100
AcDbArc
 50
270.0
 51
19.47122063441346
  0
LINE
  5
18CC1
330
18C7A
100
AcDbEntity
  8
細線
100
AcDbLine
 10
1479.470482677785
 20
1338.493338720065
 30
0.0
 11
1438.470482677785
 21
1338.493338720058
 31
0.0
  0
LINE
  5
18CC2
330
18C7A
100
AcDbEntity
  8
細線
100
AcDbLine
 10
1438.470482677785
 20
1338.493338720058
 30
0.0
 11
1438.470482677785
 21
1320.49333872004
 31
0.0
  0
LINE
  5
18CC3
330
18C7A
100
AcDbEntity
  8
細線
100
AcDbLine
 10
1479.470482677785
 20
1338.493338720065
 30
0.0
 11
1479.470482677785
 21
1320.49333872004
 31
0.0
  0
LINE
  5
18CC4
330
18C7A
100
AcDbEntity
  8
細線
100
AcDbLine
 10
1322.970589276523
 20
1324.494269174465
 30
0.0
 11
1322.970589276523
 21
1320.494269174513
 31
0.0
  0
LINE
  5
18CC5
330
18C7A
100
AcDbEntity
  8
寸法
 48
50.0
100
AcDbLine
 10
1746.17359555837
 20
1170.531020743327
 30
0.0
 11
1694.767587648266
 21
1170.531020743327
 31
0.0
  0
LINE
  5
18CC6
330
18C7A
100
AcDbEntity
  8
寸法
 48
50.0
100
AcDbLine
 10
1694.767587648266
 20
1170.531020743327
 30
0.0
 11
1694.767587648266
 21
1201.841179395494
 31
0.0
  0
LINE
  5
18CC7
330
18C7A
100
AcDbEntity
  8
寸法
 48
50.0
100
AcDbLine
 10
1694.767587648266
 20
1201.841179395494
 30
0.0
 11
1665.006255656843
 21
1201.841179395494
 31
0.0
  0
LINE
  5
18CC8
330
18C7A
100
AcDbEntity
  8
寸法
 48
50.0
100
AcDbLine
 10
1665.006255656843
 20
1201.841179395494
 30
0.0
 11
1720.470591603318
 21
1239.420630324105
 31
0.0
  0
LINE
  5
18CC9
330
18C7A
100
AcDbEntity
  8
寸法
 48
50.0
100
AcDbLine
 10
1775.934927549793
 20
1201.841179395494
 30
0.0
 11
1720.470591603318
 21
1239.420630324105
 31
0.0
  0
LINE
  5
18CCA
330
18C7A
100
AcDbEntity
  8
寸法
 48
50.0
100
AcDbLine
 10
1746.17359555837
 20
1201.841179395494
 30
0.0
 11
1775.934927549793
 21
1201.841179395494
 31
0.0
  0
LINE
  5
18CCB
330
18C7A
100
AcDbEntity
  8
寸法
 48
50.0
100
AcDbLine
 10
1746.17359555837
 20
1170.531020743327
 30
0.0
 11
1746.17359555837
 21
1201.841179395494
 31
0.0
  0
LINE
  5
18CCC
330
18C7A
100
AcDbEntity
  8
寸法
 48
50.0
100
AcDbLine
 10
1694.767587648266
 20
1170.531020743327
 30
0.0
 11
1746.17359555837
 21
1170.531020743327
 31
0.0
  0
LINE
  5
18CCD
330
18C7A
100
AcDbEntity
  8
寸法
 48
50.0
100
AcDbLine
 10
2025.339129835225
 20
1227.676611498152
 30
0.0
 11
2025.339129835225
 21
1174.01297691636
 31
0.0
  0
LINE
  5
18CCE
330
18C7A
100
AcDbEntity
  8
寸法
 48
50.0
100
AcDbLine
 10
2114.623348430647
 20
1203.752977228664
 30
0.0
 11
2025.339129835225
 21
1227.676611498152
 31
0.0
  0
LINE
  5
18CCF
330
18C7A
100
AcDbEntity
  8
寸法
 48
50.0
100
AcDbLine
 10
1895.471408254923
 20
1203.752977228664
 30
0.0
 11
2114.623348430647
 21
1203.752977228664
 31
0.0
  0
DIMENSION
  5
18CD0
330
18C7A
100
AcDbEntity
  8
寸法
 48
50.0
100
AcDbDimension
  2
*D15
 10
2588.970589276523
 20
706.3240511224249
 30
0.0
 11
1969.060022905491
 21
706.3240511224249
 31
0.0
 12
-3742.925985830444
 22
-6453.628869860112
 32
0.0
 70
   128
  1
有効開口部間口\P<>
 71
     5
 42
1266.0
  3
INABA_S40G
100
AcDbAlignedDimension
 13
1322.970589276523
 23
1315.494269174465
 33
0.0
 14
2588.970589276523
 24
1315.494269174465
 34
0.0
100
AcDbRotatedDimension
1001
ACAD
1000
DSTYLE
1002
{
1070
   341
1005
0
1002
}
  0
LINE
  5
18CD1
330
18C7A
100
AcDbEntity
  8
部品1
100
AcDbLine
 10
3409.970589276524
 20
1392.494269174465
 30
0.0
 11
3437.970589276523
 21
1392.494269174465
 31
0.0
  0
DIMENSION
  5
18CD2
330
18C7A
100
AcDbEntity
  8
寸法
100
AcDbDimension
  2
*D16
 10
3674.266172669749
 20
1315.494269174465
 30
0.0
 11
3674.266172669748
 21
1177.494269174462
 31
0.0
 12
-3742.925985830444
 22
-6453.628869860112
 32
0.0
 70
   128
 71
     5
 42
77.0
  3
INABA_S40
100
AcDbAlignedDimension
 13
3437.970589276523
 23
1392.494269174465
 33
0.0
 14
3436.970589276523
 24
1315.494269174465
 34
0.0
 50
90.0
100
AcDbRotatedDimension
1001
ACAD
1000
DSTYLE
1002
{
1070
    41
1040
0.5
1070
    44
1040
1.0
1070
   147
1040
0.8
1070
   271
1070
     2
1070
   272
1070
     2
1070
   289
1070
     3
1070
   340
1005
F706
1070
   343
1005
164B4
1070
   344
1005
164B4
1002
}
  0
LINE
  5
18CD3
330
18C7A
100
AcDbEntity
  8
部品1
100
AcDbLine
 10
3437.970589276523
 20
1315.494269174465
 30
0.0
 11
3437.970589276523
 21
1392.494269174465
 31
0.0
  0
LINE
  5
18CD4
330
18C7A
100
AcDbEntity
  8
部品1
100
AcDbLine
 10
3398.970589276523
 20
1388.494269174465
 30
0.0
 11
3409.970589276524
 21
1388.494269174465
 31
0.0
  0
LINE
  5
18CD5
330
18C7A
100
AcDbEntity
  8
部品1
100
AcDbLine
 10
3407.970589276523
 20
1324.494269174465
 30
0.0
 11
3407.970589276523
 21
1315.494269174465
 31
0.0
  0
LINE
  5
18CD6
330
18C7A
100
AcDbEntity
  8
部品1
100
AcDbLine
 10
3398.970589276523
 20
1324.494269174465
 30
0.0
 11
3407.970589276523
 21
1324.494269174465
 31
0.0
  0
LINE
  5
18CD7
330
18C7A
100
AcDbEntity
  8
部品1
100
AcDbLine
 10
3398.970589276523
 20
1388.494269174465
 30
0.0
 11
3398.970589276523
 21
1324.494269174465
 31
0.0
  0
LINE
  5
18CD8
330
18C7A
100
AcDbEntity
  8
部品1
100
AcDbLine
 10
3409.970589276524
 20
1419.494269174465
 30
0.0
 11
3409.970589276524
 21
1388.494269174465
 31
0.0
  0
LINE
  5
18CD9
330
18C7A
100
AcDbEntity
  8
部品1
100
AcDbLine
 10
1322.970589276523
 20
1388.494269174465
 30
0.0
 11
1311.970589276523
 21
1388.494269174465
 31
0.0
  0
LINE
  5
18CDA
330
18C7A
100
AcDbEntity
  8
部品1
100
AcDbLine
 10
1283.970589276523
 20
1392.494269174465
 30
0.0
 11
1311.970589276523
 21
1392.494269174465
 31
0.0
  0
LINE
  5
18CDB
330
18C7A
100
AcDbEntity
  8
部品1
100
AcDbLine
 10
1313.970589276523
 20
1324.494269174465
 30
0.0
 11
1313.970589276523
 21
1315.494269174465
 31
0.0
  0
LINE
  5
18CDC
330
18C7A
100
AcDbEntity
  8
部品1
100
AcDbLine
 10
1322.970589276523
 20
1324.494269174465
 30
0.0
 11
1313.970589276523
 21
1324.494269174465
 31
0.0
  0
LINE
  5
18CDD
330
18C7A
100
AcDbEntity
  8
部品1
100
AcDbLine
 10
1313.970589276523
 20
1315.494269174465
 30
0.0
 11
1283.970589276523
 21
1315.494269174465
 31
0.0
  0
LINE
  5
18CDE
330
18C7A
100
AcDbEntity
  8
部品1
100
AcDbLine
 10
1283.970589276523
 20
1315.494269174465
 30
0.0
 11
1283.970589276523
 21
1392.494269174465
 31
0.0
  0
LINE
  5
18CDF
330
18C7A
100
AcDbEntity
  8
部品1
100
AcDbLine
 10
1322.970589276523
 20
1388.494269174465
 30
0.0
 11
1322.970589276523
 21
1324.494269174465
 31
0.0
  0
LINE
  5
18CE0
330
18C7A
100
AcDbEntity
  8
部品1
100
AcDbLine
 10
1311.970589276523
 20
1419.494269174462
 30
0.0
 11
1311.970589276523
 21
1388.494269174465
 31
0.0
  0
LINE
  5
18CE1
330
18C7A
100
AcDbEntity
  8
部品1
100
AcDbLine
 10
1311.970589276523
 20
1419.494269174462
 30
0.0
 11
3409.970589276524
 21
1419.494269174465
 31
0.0
  0
LINE
  5
18CE2
330
18C7A
100
AcDbEntity
  8
部品1
100
AcDbLine
 10
3407.970589276523
 20
1315.494269174465
 30
0.0
 11
3437.970589276523
 21
1315.494269174465
 31
0.0
  0
LINE
  5
18CE3
330
18C7A
100
AcDbEntity
  8
部品1
100
AcDbLine
 10
1313.970589276523
 20
1315.494269174465
 30
0.0
 11
3410.970589276523
 21
1315.494269174465
 31
0.0
  0
LINE
  5
18CE4
330
18C7A
100
AcDbEntity
  8
細線
  6
Continuous
 62
     5
100
AcDbLine
 10
2689.970589276527
 20
1354.494269174462
 30
0.0
 11
2689.970589276527
 21
1354.494269174462
 31
0.0
  0
LINE
  5
18CE5
330
18C7A
100
AcDbEntity
  8
細線
  6
Continuous
 62
     5
100
AcDbLine
 10
2682.470589276527
 20
1354.494269174462
 30
0.0
 11
2682.470589276527
 21
1354.494269174462
 31
0.0
  0
LINE
  5
18CE6
330
18C7A
100
AcDbEntity
  8
細線
  6
Continuous
 62
     5
100
AcDbLine
 10
2676.470589276527
 20
1354.494269174462
 30
0.0
 11
2676.470589276527
 21
1354.494269174462
 31
0.0
  0
LINE
  5
18CE7
330
18C7A
100
AcDbEntity
  8
細線
  6
Continuous
 62
     5
100
AcDbLine
 10
2743.970589276527
 20
1373.494269174462
 30
0.0
 11
2743.970589276527
 21
1373.494269174462
 31
0.0
  0
LINE
  5
18CE8
330
18C7A
100
AcDbEntity
  8
細線
 48
50.0
100
AcDbLine
 10
1336.970593930116
 20
1341.094443351418
 30
0.0
 11
1336.970593930113
 21
1349.490593759059
 31
0.0
  0
LINE
  5
18CE9
330
18C7A
100
AcDbEntity
  8
細線
 48
50.0
100
AcDbLine
 10
1336.970593930113
 20
1349.490593759059
 30
0.0
 11
1322.970589276523
 21
1349.490593759057
 31
0.0
  0
LINE
  5
18CEA
330
18C7A
100
AcDbEntity
  8
細線
 48
50.0
100
AcDbLine
 10
2087.970593930113
 20
1337.644443351419
 30
0.0
 11
2087.970593930113
 21
1342.494443351421
 31
0.0
  0
LINE
  5
18CEB
330
18C7A
100
AcDbEntity
  8
細線
 48
50.0
100
AcDbLine
 10
2087.970593930113
 20
1342.494443351421
 30
0.0
 11
2102.970593930113
 21
1342.494443351421
 31
0.0
  0
LINE
  5
18CEC
330
18C7A
100
AcDbEntity
  8
細線
 48
50.0
100
AcDbLine
 10
2102.970593930113
 20
1342.494443351421
 30
0.0
 11
2102.970593930115
 21
1349.494443351419
 31
0.0
  0
LINE
  5
18CED
330
18C7A
100
AcDbEntity
  8
細線
 48
50.0
100
AcDbLine
 10
2102.970593930115
 20
1349.494443351419
 30
0.0
 11
2117.970593930113
 21
1349.494443351419
 31
0.0
  0
LINE
  5
18CEE
330
18C7A
100
AcDbEntity
  8
細線
 48
50.0
100
AcDbLine
 10
2117.970593930113
 20
1349.494443351419
 30
0.0
 11
2117.970593930113
 21
1320.494443351421
 31
0.0
  0
LINE
  5
18CEF
330
18C7A
100
AcDbEntity
  8
細線
 48
50.0
100
AcDbLine
 10
1313.970589276523
 20
1320.491777694889
 30
0.0
 11
1527.970593930113
 21
1320.494460905133
 31
0.0
  0
LINE
  5
18CF0
330
18C7A
100
AcDbEntity
  8
細線
 48
50.0
100
AcDbLine
 10
2017.970593930113
 20
1320.494443351421
 30
0.0
 11
2117.970593930113
 21
1320.494443351421
 31
0.0
  0
LINE
  5
18CF1
330
18C7A
100
AcDbEntity
  8
細線
 48
50.0
100
AcDbLine
 10
1737.970593930113
 20
1320.494443351419
 30
0.0
 11
1807.970593930113
 21
1320.494443351423
 31
0.0
  0
LINE
  5
18CF2
330
18C7A
100
AcDbEntity
  8
細線
 48
50.0
100
AcDbLine
 10
1750.832558942642
 20
1320.494443351419
 30
0.0
 11
1756.588076525309
 21
1338.765294641913
 31
0.0
  0
LINE
  5
18CF3
330
18C7A
100
AcDbEntity
  8
細線
 48
50.0
100
AcDbLine
 10
1756.588076525309
 20
1338.765294641913
 30
0.0
 11
1767.516525005743
 21
1338.765294641911
 31
0.0
  0
ARC
  5
18CF4
330
18C7A
100
AcDbEntity
  8
細線
 48
50.0
100
AcDbCircle
 10
1767.516525005743
 20
1337.765294641911
 30
0.0
 40
1.0
100
AcDbArc
 50
24.62431835207225
 51
90.0
  0
ARC
  5
18CF5
330
18C7A
100
AcDbEntity
  8
細線
 48
50.0
100
AcDbCircle
 10
1778.425237120377
 20
1337.765294641911
 30
0.0
 40
1.0
100
AcDbArc
 50
90.0
 51
155.3756816479277
  0
ARC
  5
18CF6
330
18C7A
100
AcDbEntity
  8
細線
 48
50.0
100
AcDbCircle
 10
1772.970881063058
 20
1340.265294641911
 30
0.0
 40
5.0
100
AcDbArc
 50
204.6243183520723
 51
335.3756816479278
  0
LINE
  5
18CF7
330
18C7A
100
AcDbEntity
  8
細線
 48
50.0
100
AcDbLine
 10
1778.425237120377
 20
1338.765294641911
 30
0.0
 11
1789.35368560081
 21
1338.765294641913
 31
0.0
  0
LINE
  5
18CF8
330
18C7A
100
AcDbEntity
  8
細線
 48
50.0
100
AcDbLine
 10
1789.35368560081
 20
1338.765294641913
 30
0.0
 11
1795.109203183478
 21
1320.494443351423
 31
0.0
  0
LINE
  5
18CF9
330
18C7A
100
AcDbEntity
  8
細線
 48
50.0
100
AcDbLine
 10
2087.970593930113
 20
1341.094443351419
 30
0.0
 11
1336.970593930116
 21
1341.094443351418
 31
0.0
  0
LINE
  5
18CFA
330
18C7A
100
AcDbEntity
  8
細線
 48
50.0
100
AcDbLine
 10
1947.970593930113
 20
1320.494443351421
 30
0.0
 11
1877.970593930113
 21
1320.494443351421
 31
0.0
  0
LINE
  5
18CFB
330
18C7A
100
AcDbEntity
  8
細線
100
AcDbLine
 10
1667.970593930113
 20
1320.494443351421
 30
0.0
 11
1597.970602115529
 21
1320.494443351421
 31
0.0
  0
LINE
  5
18CFC
330
18C7A
100
AcDbEntity
  8
細線
 48
50.0
100
AcDbLine
 10
2741.970584622936
 20
1375.094487209288
 30
0.0
 11
2106.970593930113
 21
1375.094487209284
 31
0.0
  0
LINE
  5
18CFD
330
18C7A
100
AcDbEntity
  8
細線
 48
50.0
100
AcDbLine
 10
2106.970593930113
 20
1371.990637616925
 30
0.0
 11
2106.970593930113
 21
1376.490637616925
 31
0.0
  0
LINE
  5
18CFE
330
18C7A
100
AcDbEntity
  8
細線
 48
50.0
100
AcDbLine
 10
2106.970593930113
 20
1376.490637616925
 30
0.0
 11
2091.970593930113
 21
1376.490637616925
 31
0.0
  0
LINE
  5
18CFF
330
18C7A
100
AcDbEntity
  8
細線
 48
50.0
100
AcDbLine
 10
2091.970593930113
 20
1376.490637616925
 30
0.0
 11
2091.970593930113
 21
1383.490637616927
 31
0.0
  0
LINE
  5
18D00
330
18C7A
100
AcDbEntity
  8
細線
 48
50.0
100
AcDbLine
 10
2091.970593930113
 20
1383.490637616927
 30
0.0
 11
2076.970593930115
 21
1383.490637616924
 31
0.0
  0
LINE
  5
18D01
330
18C7A
100
AcDbEntity
  8
細線
 48
50.0
100
AcDbLine
 10
2076.970593930115
 20
1383.490637616924
 30
0.0
 11
2076.970593930115
 21
1345.890409513813
 31
0.0
  0
LINE
  5
18D02
330
18C7A
100
AcDbEntity
  8
細線
 48
50.0
100
AcDbLine
 10
2076.970593930115
 20
1345.890409513813
 30
0.0
 11
2096.970601231289
 21
1345.890451063353
 31
0.0
  0
LINE
  5
18D03
330
18C7A
100
AcDbEntity
  8
細線
 48
50.0
100
AcDbLine
 10
2096.970556362348
 20
1354.493912699161
 30
0.0
 11
2096.970601231289
 21
1345.890451063353
 31
0.0
  0
LINE
  5
18D04
330
18C7A
100
AcDbEntity
  8
細線
 48
50.0
100
AcDbLine
 10
2741.970584622936
 20
1371.644487209287
 30
0.0
 11
2741.970584622936
 21
1376.494487209284
 31
0.0
  0
LINE
  5
18D05
330
18C7A
100
AcDbEntity
  8
細線
 48
50.0
100
AcDbLine
 10
2741.970584622936
 20
1376.494487209284
 30
0.0
 11
2756.970584622934
 21
1376.494487209285
 31
0.0
  0
LINE
  5
18D06
330
18C7A
100
AcDbEntity
  8
細線
 48
50.0
100
AcDbLine
 10
2756.970584622934
 20
1376.494487209285
 30
0.0
 11
2756.970596256909
 21
1383.494487209331
 31
0.0
  0
LINE
  5
18D07
330
18C7A
100
AcDbEntity
  8
細線
 48
50.0
100
AcDbLine
 10
2756.970596256909
 20
1383.494487209331
 30
0.0
 11
2771.970594427439
 21
1383.494487209329
 31
0.0
  0
LINE
  5
18D08
330
18C7A
100
AcDbEntity
  8
細線
 48
50.0
100
AcDbLine
 10
2771.970594427439
 20
1383.494487209329
 30
0.0
 11
2771.970584125617
 21
1354.494281037055
 31
0.0
  0
LINE
  5
18D09
330
18C7A
100
AcDbEntity
  8
細線
 48
50.0
100
AcDbLine
 10
2458.070304175992
 20
1354.494278397076
 30
0.0
 11
2389.470863838818
 21
1354.494283787084
 31
0.0
  0
LINE
  5
18D0A
330
18C7A
100
AcDbEntity
  8
細線
 48
50.0
100
AcDbLine
 10
2096.970556362348
 20
1354.493912699161
 30
0.0
 11
2108.203245717057
 21
1354.494095652309
 31
0.0
  0
ARC
  5
18D0B
330
18C7A
100
AcDbEntity
  8
細線
 48
50.0
100
AcDbCircle
 10
2114.785538024393
 20
1353.294259565922
 30
0.0
 40
1.8
100
AcDbArc
 50
270.0006665777295
 51
345.000555481349
  0
LINE
  5
18D0C
330
18C7A
100
AcDbEntity
  8
細線
 48
50.0
100
AcDbLine
 10
2116.771971470473
 20
1353.753100023201
 30
0.0
 11
2116.524209028273
 21
1352.828402141094
 31
0.0
  0
LINE
  5
18D0D
330
18C7A
100
AcDbEntity
  8
細線
 48
50.0
100
AcDbLine
 10
2114.785558965548
 20
1351.494259566043
 30
0.0
 11
2111.155631546781
 21
1351.494217335563
 31
0.0
  0
ARC
  5
18D0E
330
18C7A
100
AcDbEntity
  8
細線
 48
50.0
100
AcDbCircle
 10
2111.155610605627
 20
1353.29421733544
 30
0.0
 40
1.8
100
AcDbArc
 50
195.0010443049965
 51
270.0006665777295
  0
LINE
  5
18D0F
330
18C7A
100
AcDbEntity
  8
細線
 48
50.0
100
AcDbLine
 10
2109.169183113368
 20
1353.752932303007
 30
0.0
 11
2109.416952609882
 21
1352.828311364425
 31
0.0
  0
ARC
  5
18D10
330
18C7A
100
AcDbEntity
  8
細線
 48
50.0
100
AcDbCircle
 10
2108.203262004622
 20
1353.494095652444
 30
0.0
 40
1.0
100
AcDbArc
 50
15.00104430499651
 51
90.00093320877969
  0
LINE
  5
18D11
330
18C7A
100
AcDbEntity
  8
細線
 48
50.0
100
AcDbLine
 10
2117.737892825577
 20
1354.494290342714
 30
0.0
 11
2118.679652976481
 21
1354.494296916564
 31
0.0
  0
ARC
  5
18D12
330
18C7A
100
AcDbEntity
  8
細線
 48
50.0
100
AcDbCircle
 10
2117.737899805961
 20
1353.49429034274
 30
0.0
 40
1.0
100
AcDbArc
 50
90.0003999466794
 51
165.000555481349
  0
LINE
  5
18D13
330
18C7A
100
AcDbEntity
  8
細線
 48
50.0
100
AcDbLine
 10
2669.470584622926
 20
1354.494281037055
 30
0.0
 11
2771.970584125617
 21
1354.494281037055
 31
0.0
  0
LINE
  5
18D14
330
18C7A
100
AcDbEntity
  8
細線
 48
50.0
100
AcDbLine
 10
2179.47061994182
 20
1354.494289224422
 30
0.0
 11
2118.370558714898
 21
1354.494296916564
 31
0.0
  0
LINE
  5
18D15
330
18C7A
100
AcDbEntity
  8
細線
 48
50.0
100
AcDbLine
 10
2599.470584622926
 20
1354.494281037057
 30
0.0
 11
2529.470584622926
 21
1354.494281037055
 31
0.0
  0
LINE
  5
18D16
330
18C7A
100
AcDbEntity
  8
細線
 48
50.0
100
AcDbLine
 10
2319.470584622926
 20
1354.494281037054
 30
0.0
 11
2249.470567335051
 21
1354.494281037057
 31
0.0
  0
ARC
  5
18D17
330
18C7A
100
AcDbEntity
  8
細線
 48
50.0
100
AcDbCircle
 10
2756.170589276533
 20
1387.694269174466
 30
0.0
 40
0.8
100
AcDbArc
 50
359.9997333689499
 51
89.99986668437072
  0
ARC
  5
18D18
330
18C7A
100
AcDbEntity
  8
細線
 48
50.0
100
AcDbCircle
 10
2763.770596101631
 20
1387.694280343081
 30
0.0
 40
0.8
100
AcDbArc
 50
90.00014387753465
 51
179.9997333689498
  0
LINE
  5
18D19
330
18C7A
100
AcDbEntity
  8
細線
 48
50.0
100
AcDbLine
 10
2756.170591137969
 20
1388.494269174465
 30
0.0
 11
2750.970589276525
 21
1388.494269174465
 31
0.0
  0
ARC
  5
18D1A
330
18C7A
100
AcDbEntity
  8
細線
 48
50.0
100
AcDbCircle
 10
2757.670589276524
 20
1386.194269174464
 30
0.0
 40
0.7
100
AcDbArc
 50
180.0
 51
270.0
  0
ARC
  5
18D1B
330
18C7A
100
AcDbEntity
  8
細線
 48
50.0
100
AcDbCircle
 10
2762.270589276524
 20
1386.194269174464
 30
0.0
 40
0.7
100
AcDbArc
 50
270.0
 51
0.0
  0
LINE
  5
18D1C
330
18C7A
100
AcDbEntity
  8
細線
 48
50.0
100
AcDbLine
 10
2762.970589276525
 20
1386.194269174464
 30
0.0
 11
2762.970596101639
 21
1387.694284065954
 31
0.0
  0
LINE
  5
18D1D
330
18C7A
100
AcDbEntity
  8
細線
 48
50.0
100
AcDbLine
 10
2757.670589276524
 20
1385.494269174465
 30
0.0
 11
2762.270589276524
 21
1385.494269174465
 31
0.0
  0
LINE
  5
18D1E
330
18C7A
100
AcDbEntity
  8
細線
 48
50.0
100
AcDbLine
 10
2756.970589276525
 20
1387.694269174466
 30
0.0
 11
2756.970589276525
 21
1386.194269174464
 31
0.0
  0
LINE
  5
18D1F
330
18C7A
100
AcDbEntity
  8
細線
 48
50.0
100
AcDbLine
 10
3382.570589276527
 20
1418.494269174465
 30
0.0
 11
2745.970589276525
 21
1418.494269174463
 31
0.0
  0
LINE
  5
18D20
330
18C7A
100
AcDbEntity
  8
細線
 48
50.0
100
AcDbLine
 10
3408.470589276525
 20
1413.494269174467
 30
0.0
 11
3392.570589276527
 21
1413.494269174465
 31
0.0
  0
LINE
  5
18D21
330
18C7A
100
AcDbEntity
  8
細線
 48
50.0
100
AcDbLine
 10
3392.570589276526
 20
1413.494269174465
 30
0.0
 11
3382.570589276527
 21
1418.494269174465
 31
0.0
  0
LINE
  5
18D22
330
18C7A
100
AcDbEntity
  8
細線
100
AcDbLine
 10
2993.470589276525
 20
1388.494269174465
 30
0.0
 11
2993.470589276525
 21
1417.794269174464
 31
0.0
  0
LINE
  5
18D23
330
18C7A
100
AcDbEntity
  8
細線
100
AcDbLine
 10
2993.470589276525
 20
1417.794269174464
 30
0.0
 11
3013.470589276525
 21
1417.794269174464
 31
0.0
  0
LINE
  5
18D24
330
18C7A
100
AcDbEntity
  8
細線
100
AcDbLine
 10
3013.470589276525
 20
1388.494269174465
 30
0.0
 11
3013.470589276525
 21
1417.794269174464
 31
0.0
  0
LINE
  5
18D25
330
18C7A
100
AcDbEntity
  8
細線
100
AcDbLine
 10
3170.720589276524
 20
1388.494269174465
 30
0.0
 11
3100.720589276523
 21
1388.494269174465
 31
0.0
  0
LINE
  5
18D26
330
18C7A
100
AcDbEntity
  8
細線
 48
50.0
100
AcDbLine
 10
2890.720589276525
 20
1388.494269174465
 30
0.0
 11
2763.766368849365
 21
1388.494269174465
 31
0.0
  0
LINE
  5
18D27
330
18C7A
100
AcDbEntity
  8
細線
100
AcDbLine
 10
3030.720589276525
 20
1388.494269174465
 30
0.0
 11
2960.720589276525
 21
1388.494269174465
 31
0.0
  0
LINE
  5
18D28
330
18C7A
100
AcDbEntity
  8
細線
 48
50.0
100
AcDbLine
 10
2750.970589276525
 20
1380.494269174465
 30
0.0
 11
2750.970589276525
 21
1388.494269174465
 31
0.0
  0
LINE
  5
18D29
330
18C7A
100
AcDbEntity
  8
細線
 48
50.0
100
AcDbLine
 10
2730.970589276524
 20
1380.494269174467
 30
0.0
 11
2750.970589276525
 21
1380.494269174465
 31
0.0
  0
LINE
  5
18D2A
330
18C7A
100
AcDbEntity
  8
細線
 48
50.0
100
AcDbLine
 10
2745.970589276525
 20
1418.494269174465
 30
0.0
 11
2745.970589276525
 21
1413.494269174465
 31
0.0
  0
LINE
  5
18D2B
330
18C7A
100
AcDbEntity
  8
細線
 48
50.0
100
AcDbLine
 10
2730.970589276525
 20
1418.494269174463
 30
0.0
 11
2745.970589276525
 21
1418.494269174465
 31
0.0
  0
LINE
  5
18D2C
330
18C7A
100
AcDbEntity
  8
細線
 48
50.0
100
AcDbLine
 10
2730.970589276524
 20
1380.494269174467
 30
0.0
 11
2730.970589276525
 21
1418.494269174463
 31
0.0
  0
LINE
  5
18D2D
330
18C7A
100
AcDbEntity
  8
細線
100
AcDbLine
 10
3398.970589276523
 20
1388.494269174465
 30
0.0
 11
3240.720589276525
 21
1388.494269174465
 31
0.0
  0
LINE
  5
18D2E
330
18C7A
100
AcDbEntity
  8
細線
 48
50.0
100
AcDbLine
 10
3408.470589276525
 20
1413.494269174467
 30
0.0
 11
3408.470589276524
 21
1388.494269174465
 31
0.0
  0
TEXT
  5
18D2F
330
18C7A
100
AcDbEntity
  8
部品1
100
AcDbText
 10
1860.154865991392
 20
46.99880823813145
 30
0.0
 40
135.0
  1
平面図
  7
STYLE2
100
AcDbText
  0
LWPOLYLINE
  5
18D30
330
18C7A
100
AcDbEntity
  8
部品1
100
AcDbPolyline
 90
        4
 70
     1
 43
0.0
 10
1770.23525616235
 20
239.8923374566548
 10
1770.23525616235
 20
0.0000159111223184
 10
2533.705922390791
 20
0.0000159111223184
 10
2533.705922390791
 20
239.8923374566548
  0
LINE
  5
18D31
330
18C7A
100
AcDbEntity
  8
部品1
100
AcDbLine
 10
1534.470589276487
 20
3154.494269174626
 30
0.0
 11
2769.470589276552
 21
3154.494269174626
 31
0.0
  0
LINE
  5
18D32
330
18C7A
100
AcDbEntity
  8
部品1
 48
50.0
100
AcDbLine
 10
1311.970589276523
 20
1420.494269174462
 30
0.0
 11
3411.970589276523
 21
1420.494269174465
 31
0.0
  0
LINE
  5
18D33
330
18C7A
100
AcDbEntity
  8
部品1
 48
50.0
100
AcDbLine
 10
471.9705892765232
 20
1392.494269174465
 30
0.0
 11
1311.970589276523
 21
1392.494269174465
 31
0.0
  0
DIMENSION
  5
18D34
330
18C7A
100
AcDbEntity
  8
寸法
100
AcDbDimension
  2
*D14
 10
2710.234916278077
 20
2488.887829538828
 30
0.0
 11
2338.318822490183
 21
2488.887829538828
 31
0.0
 12
-3742.925985830444
 22
-6453.628869860112
 32
0.0
 70
   128
 71
     5
 42
1231.00000000007
  3
INABA_S40G
100
AcDbAlignedDimension
 13
1536.470589276486
 23
2702.494269174557
 33
0.0
 14
2767.470589276556
 24
2702.494269174549
 34
0.0
100
AcDbRotatedDimension
1001
ACAD
1000
DSTYLE
1002
{
1002
}
  0
LINE
  5
18D35
330
18C7A
100
AcDbEntity
  8
部品1
100
AcDbLine
 10
1536.470589276487
 20
2702.494269174557
 30
0.0
 11
2767.470589276554
 21
2702.494269174615
 31
0.0
  0
LINE
  5
18D36
330
18C7A
100
AcDbEntity
  8
部品1
100
AcDbLine
 10
1536.470589276487
 20
3152.494269174557
 30
0.0
 11
2767.470589276556
 21
3152.494269174615
 31
0.0
  0
LINE
  5
18D37
330
18C7A
100
AcDbEntity
  8
細線
 48
50.0
100
AcDbLine
 10
1508.470589276487
 20
3152.494269174558
 30
0.0
 11
445.4705892765559
 21
2702.494269174509
 31
0.0
  0
LINE
  5
18D38
330
18C7A
100
AcDbEntity
  8
細線
 48
50.0
100
AcDbLine
 10
1508.470589276487
 20
2702.494269174558
 30
0.0
 11
445.4705892765542
 21
3152.494269174509
 31
0.0
  0
LINE
  5
18D39
330
18C7A
100
AcDbEntity
  8
部品1
100
AcDbLine
 10
1556.970589276487
 20
3172.494269174611
 30
0.0
 11
1556.970589276487
 21
3154.494269174611
 31
0.0
  0
LINE
  5
18D3A
330
18C7A
100
AcDbEntity
  8
部品1
100
AcDbLine
 10
1556.970589276487
 20
3172.494269174611
 30
0.0
 11
1550.970589276487
 21
3172.494269174611
 31
0.0
  0
LINE
  5
18D3B
330
18C7A
100
AcDbEntity
  8
部品1
100
AcDbLine
 10
1534.470589276487
 20
3146.494269174608
 30
0.0
 11
1509.470589276487
 21
3146.494269174611
 31
0.0
  0
LINE
  5
18D3C
330
18C7A
100
AcDbEntity
  8
部品1
100
AcDbLine
 10
1486.970589276487
 20
3172.494269174611
 30
0.0
 11
1486.970589276487
 21
3154.494269174611
 31
0.0
  0
LINE
  5
18D3D
330
18C7A
100
AcDbEntity
  8
部品1
100
AcDbLine
 10
1492.970589276487
 20
3172.494269174611
 30
0.0
 11
1486.970589276487
 21
3172.494269174611
 31
0.0
  0
LINE
  5
18D3E
330
18C7A
100
AcDbEntity
  8
部品1
100
AcDbLine
 10
1534.470589276487
 20
2702.494269174615
 30
0.0
 11
1509.470589276487
 21
2702.494269174615
 31
0.0
  0
LINE
  5
18D3F
330
18C7A
100
AcDbEntity
  8
部品1
 48
50.0
100
AcDbLine
 10
1536.470589276487
 20
3152.494269174611
 30
0.0
 11
1536.470589276487
 21
2702.494269174615
 31
0.0
  0
LINE
  5
18D40
330
18C7A
100
AcDbEntity
  8
部品1
 48
50.0
100
AcDbLine
 10
1508.470589276487
 20
3152.494269174607
 30
0.0
 11
1508.470589276487
 21
2702.494269174615
 31
0.0
  0
LINE
  5
18D41
330
18C7A
100
AcDbEntity
  8
部品1
 48
50.0
100
AcDbLine
 10
1534.470589276487
 20
3154.494269174618
 30
0.0
 11
1534.470589276487
 21
2702.494269174615
 31
0.0
  0
LINE
  5
18D42
330
18C7A
100
AcDbEntity
  8
部品1
 48
50.0
100
AcDbLine
 10
1509.470589276487
 20
3154.494269174615
 30
0.0
 11
1509.470589276487
 21
2702.494269174615
 31
0.0
  0
LINE
  5
18D43
330
18C7A
100
AcDbEntity
  8
部品1
100
AcDbLine
 10
3411.970589276556
 20
1392.494269174582
 30
0.0
 11
3411.970589276556
 21
1420.494269174596
 31
0.0
  0
LINE
  5
18D44
330
18C7A
100
AcDbEntity
  8
部品1
100
AcDbLine
 10
1311.970589276523
 20
1392.494269174596
 30
0.0
 11
1311.970589276523
 21
1420.494269174596
 31
0.0
  0
LINE
  5
18D45
330
18C7A
100
AcDbEntity
  8
部品1
100
AcDbLine
 10
891.9705892765232
 20
1392.494269174596
 30
0.0
 11
891.9705892765232
 21
1420.494269174596
 31
0.0
  0
LINE
  5
18D46
330
18C7A
100
AcDbEntity
  8
部品1
100
AcDbLine
 10
3411.97058927652
 20
3182.494269174477
 30
0.0
 11
3411.970589276523
 21
3154.494269174477
 31
0.0
  0
LINE
  5
18D47
330
18C7A
100
AcDbEntity
  8
部品1
100
AcDbLine
 10
2571.97058927652
 20
3182.494269174477
 30
0.0
 11
2571.970589276523
 21
3154.494269174477
 31
0.0
  0
LINE
  5
18D48
330
18C7A
100
AcDbEntity
  8
部品1
100
AcDbLine
 10
2991.97058927652
 20
3182.494269174477
 30
0.0
 11
2991.970589276523
 21
3154.494269174477
 31
0.0
  0
LINE
  5
18D49
330
18C7A
100
AcDbEntity
  8
部品1
100
AcDbLine
 10
2151.970589276519
 20
3182.494269174477
 30
0.0
 11
2151.970589276523
 21
3154.494269174477
 31
0.0
  0
LINE
  5
18D4A
330
18C7A
100
AcDbEntity
  8
部品1
100
AcDbLine
 10
1731.970589276519
 20
3182.494269174477
 30
0.0
 11
1731.970589276523
 21
3154.494269174477
 31
0.0
  0
LINE
  5
18D4B
330
18C7A
100
AcDbEntity
  8
部品1
100
AcDbLine
 10
1311.970589276519
 20
3182.494269174477
 30
0.0
 11
1311.970589276523
 21
3154.494269174477
 31
0.0
  0
LINE
  5
18D4C
330
18C7A
100
AcDbEntity
  8
部品1
100
AcDbLine
 10
891.9705892765195
 20
3182.494269174477
 30
0.0
 11
891.9705892765232
 21
3154.494269174477
 31
0.0
  0
LINE
  5
18D4D
330
18C7A
100
AcDbEntity
  8
部品1
100
AcDbLine
 10
471.9705892765232
 20
1392.494269174596
 30
0.0
 11
471.9705892765232
 21
1420.494269174596
 31
0.0
  0
LINE
  5
18D4E
330
18C7A
100
AcDbEntity
  8
部品1
100
AcDbLine
 10
444.9705892765305
 20
1420.494269174558
 30
0.0
 11
3858.970589276556
 21
1420.494269174596
 31
0.0
  0
LINE
  5
18D4F
330
18C7A
100
AcDbEntity
  8
部品1
100
AcDbLine
 10
3831.970589276556
 20
1392.494269174596
 30
0.0
 11
3831.970589276556
 21
1420.494269174596
 31
0.0
  0
LINE
  5
18D50
330
18C7A
100
AcDbEntity
  8
部品1
100
AcDbLine
 10
3858.970589276556
 20
1447.494269174593
 30
0.0
 11
3886.970589276556
 21
1447.494269174593
 31
0.0
  0
LINE
  5
18D51
330
18C7A
100
AcDbEntity
  8
部品1
100
AcDbLine
 10
3858.970589276556
 20
1867.494269174607
 30
0.0
 11
3886.970589276556
 21
1867.494269174607
 31
0.0
  0
LINE
  5
18D52
330
18C7A
100
AcDbEntity
  8
部品1
100
AcDbLine
 10
444.9705892765305
 20
1867.49426917448
 30
0.0
 11
416.9705892765305
 21
1867.49426917448
 31
0.0
  0
LINE
  5
18D53
330
18C7A
100
AcDbEntity
  8
部品1
100
AcDbLine
 10
3830.470589276541
 20
1867.49426917458
 30
0.0
 11
473.4705892765396
 21
1867.49426917448
 31
0.0
  0
LINE
  5
18D54
330
18C7A
100
AcDbEntity
  8
部品1
100
AcDbLine
 10
3830.470589276541
 20
2287.49426917458
 30
0.0
 11
473.4705892765396
 21
2287.49426917448
 31
0.0
  0
LINE
  5
18D55
330
18C7A
100
AcDbEntity
  8
部品1
100
AcDbLine
 10
444.9705892765305
 20
2287.49426917448
 30
0.0
 11
416.9705892765305
 21
2287.49426917448
 31
0.0
  0
LINE
  5
18D56
330
18C7A
100
AcDbEntity
  8
部品1
100
AcDbLine
 10
3858.970589276556
 20
2287.494269174608
 30
0.0
 11
3886.970589276556
 21
2287.494269174608
 31
0.0
  0
LINE
  5
18D57
330
18C7A
100
AcDbEntity
  8
部品1
 48
50.0
100
AcDbLine
 10
2151.970589276551
 20
2702.494269174586
 30
0.0
 11
2151.970589276581
 21
1448.994269174494
 31
0.0
  0
LINE
  5
18D58
330
18C7A
100
AcDbEntity
  8
破線
 48
10.0
100
AcDbLine
 10
2959.470589276535
 20
1472.494269174522
 30
0.0
 11
2176.970589276532
 21
1472.494269174505
 31
0.0
  0
LINE
  5
18D59
330
18C7A
100
AcDbEntity
  8
破線
 48
10.0
100
AcDbLine
 10
3009.47058927653
 20
1448.994269174509
 30
0.0
 11
3009.47058927653
 21
2702.494269174615
 31
0.0
  0
LINE
  5
18D5A
330
18C7A
100
AcDbEntity
  8
破線
 48
10.0
100
AcDbLine
 10
2959.470589276535
 20
1448.994269174505
 30
0.0
 11
2959.470589276531
 21
2702.494269174615
 31
0.0
  0
LINE
  5
18D5B
330
18C7A
100
AcDbEntity
  8
破線
 48
10.0
100
AcDbLine
 10
1344.47058927653
 20
1448.994269174509
 30
0.0
 11
1344.47058927653
 21
2702.494269174615
 31
0.0
  0
LINE
  5
18D5C
330
18C7A
100
AcDbEntity
  8
破線
 48
10.0
100
AcDbLine
 10
1294.470589276534
 20
1448.994269174505
 30
0.0
 11
1294.47058927653
 21
2702.494269174615
 31
0.0
  0
DIMENSION
  5
18D5D
330
18C7A
100
AcDbEntity
  8
寸法
100
AcDbDimension
  2
*D13
 10
1451.234916278005
 20
2488.887829538828
 30
0.0
 11
916.0604668248634
 21
2488.887829538828
 31
0.0
 12
-3742.925985830444
 22
-6453.628869860112
 32
0.0
 70
   128
 71
     5
 42
1062.99999999993
  3
INABA_S40G
100
AcDbAlignedDimension
 13
445.4705892765559
 23
2702.494269174505
 33
0.0
 14
1508.470589276486
 24
2702.494269174558
 34
0.0
100
AcDbRotatedDimension
1001
ACAD
1000
DSTYLE
1002
{
1002
}
  0
LINE
  5
18D5E
330
18C7A
100
AcDbEntity
  8
破線
 48
10.0
100
AcDbLine
 10
1294.470589276534
 20
1472.494269174469
 30
0.0
 11
496.9705892765414
 21
1472.494269174476
 31
0.0
  0
LINE
  5
18D5F
330
18C7A
100
AcDbEntity
  8
部品1
100
AcDbLine
 10
3831.970589276556
 20
3182.494269174604
 30
0.0
 11
3831.970589276556
 21
3154.494269174604
 31
0.0
  0
LINE
  5
18D60
330
18C7A
100
AcDbEntity
  8
部品1
100
AcDbLine
 10
3831.970589276556
 20
3182.494269174626
 30
0.0
 11
3831.970589276556
 21
3154.494269174626
 31
0.0
  0
LINE
  5
18D61
330
18C7A
100
AcDbEntity
  8
部品1
100
AcDbLine
 10
3858.970589276556
 20
3127.494269174607
 30
0.0
 11
3886.970589276556
 21
3127.494269174607
 31
0.0
  0
LINE
  5
18D62
330
18C7A
100
AcDbEntity
  8
部品1
100
AcDbLine
 10
3858.970589276556
 20
2707.494269174608
 30
0.0
 11
3886.970589276556
 21
2707.494269174608
 31
0.0
  0
LINE
  5
18D63
330
18C7A
100
AcDbEntity
  8
部品1
100
AcDbLine
 10
3858.470589276556
 20
3152.494269174604
 30
0.0
 11
3858.470589276556
 21
2702.494269174608
 31
0.0
  0
LINE
  5
18D64
330
18C7A
100
AcDbEntity
  8
部品1
100
AcDbLine
 10
3886.970589276533
 20
1447.494269174593
 30
0.0
 11
3886.970589276531
 21
1392.494269174596
 31
0.0
  0
LINE
  5
18D65
330
18C7A
100
AcDbEntity
  8
部品1
 48
50.0
100
AcDbLine
 10
3830.470589276556
 20
1448.994269174596
 30
0.0
 11
3858.970589276554
 21
1420.494269174596
 31
0.0
  0
LINE
  5
18D66
330
18C7A
100
AcDbEntity
  8
部品1
100
AcDbLine
 10
3886.970589276531
 20
1392.494269174596
 30
0.0
 11
3835.970589276531
 21
1392.494269174596
 31
0.0
  0
LINE
  5
18D67
330
18C7A
100
AcDbEntity
  8
部品1
100
AcDbLine
 10
3858.970589276533
 20
1447.494269174593
 30
0.0
 11
3886.970589276531
 21
1447.494269174593
 31
0.0
  0
LINE
  5
18D68
330
18C7A
100
AcDbEntity
  8
部品1
100
AcDbLine
 10
3886.970589276556
 20
3182.494269174604
 30
0.0
 11
3886.970589276531
 21
1392.494269174596
 31
0.0
  0
DIMENSION
  5
18D69
330
18C7A
100
AcDbEntity
  8
寸法
100
AcDbDimension
  2
*D12
 10
4534.396935010967
 20
1447.494269174593
 30
0.0
 11
4534.396935010965
 21
2287.4942691746
 31
0.0
 12
-3742.925985830444
 22
-6453.628869860112
 32
0.0
 70
   128
  1
4X420=<>
 71
     5
 42
1680.000000000014
  3
INABA_S40G
100
AcDbAlignedDimension
 13
3886.970589276556
 23
3127.494269174607
 33
0.0
 14
3886.970589276531
 24
1447.494269174593
 34
0.0
 50
90.0
100
AcDbRotatedDimension
1001
ACAD
1000
DSTYLE
1002
{
1002
}
  0
LINE
  5
18D6A
330
18C7A
100
AcDbEntity
  8
部品1
100
AcDbLine
 10
3858.970589276556
 20
3154.494269174604
 30
0.0
 11
3858.970589276534
 21
1420.494269174596
 31
0.0
  0
DIMENSION
  5
18D6B
330
18C7A
100
AcDbEntity
  8
寸法
100
AcDbDimension
  2
*D11
 10
4213.82831513858
 20
2607.276453505718
 30
0.0
 11
4113.828315138579
 21
2832.276453505718
 31
0.0
 12
-3742.925985830444
 22
-6453.628869860112
 32
0.0
 71
     5
 42
449.9999999999963
  3
INABA_S40G
100
AcDbAlignedDimension
 13
3858.470589276556
 23
3152.494269174604
 33
0.0
 14
3858.470589276556
 24
2702.494269174608
 34
0.0
 50
90.0
100
AcDbRotatedDimension
1001
ACAD
1000
DSTYLE
1002
{
1002
}
  0
LINE
  5
18D6C
330
18C7A
100
AcDbEntity
  8
部品1
100
AcDbLine
 10
3830.470589276547
 20
2702.494269174608
 30
0.0
 11
3830.470589276556
 21
1448.994269174596
 31
0.0
  0
LINE
  5
18D6D
330
18C7A
100
AcDbEntity
  8
破線
 48
10.0
100
AcDbLine
 10
3806.970589276549
 20
2702.494269174608
 30
0.0
 11
3806.970589276558
 21
1472.494269174593
 31
0.0
  0
LINE
  5
18D6E
330
18C7A
100
AcDbEntity
  8
部品1
100
AcDbLine
 10
2769.470589276556
 20
3146.494269174608
 30
0.0
 11
2794.470589276556
 21
3146.494269174611
 31
0.0
  0
LINE
  5
18D6F
330
18C7A
100
AcDbEntity
  8
部品1
100
AcDbLine
 10
2810.970589276556
 20
3172.494269174611
 30
0.0
 11
2816.970589276556
 21
3172.494269174611
 31
0.0
  0
LINE
  5
18D70
330
18C7A
100
AcDbEntity
  8
部品1
100
AcDbLine
 10
2816.970589276556
 20
3172.494269174611
 30
0.0
 11
2816.970589276556
 21
3154.494269174611
 31
0.0
  0
LINE
  5
18D71
330
18C7A
100
AcDbEntity
  8
部品1
100
AcDbLine
 10
2746.970589276556
 20
3172.494269174611
 30
0.0
 11
2752.970589276556
 21
3172.494269174611
 31
0.0
  0
LINE
  5
18D72
330
18C7A
100
AcDbEntity
  8
部品1
100
AcDbLine
 10
2746.970589276556
 20
3172.494269174611
 30
0.0
 11
2746.970589276556
 21
3154.494269174611
 31
0.0
  0
LINE
  5
18D73
330
18C7A
100
AcDbEntity
  8
部品1
100
AcDbLine
 10
2769.470589276556
 20
2702.494269174615
 30
0.0
 11
2794.470589276556
 21
2702.494269174615
 31
0.0
  0
LINE
  5
18D74
330
18C7A
100
AcDbEntity
  8
部品1
 48
50.0
100
AcDbLine
 10
2794.470589276556
 20
3154.494269174615
 30
0.0
 11
2794.470589276556
 21
2702.494269174615
 31
0.0
  0
LINE
  5
18D75
330
18C7A
100
AcDbEntity
  8
部品1
 48
50.0
100
AcDbLine
 10
2769.470589276554
 20
3154.494269174618
 30
0.0
 11
2769.470589276556
 21
2702.494269174615
 31
0.0
  0
LINE
  5
18D76
330
18C7A
100
AcDbEntity
  8
部品1
 48
50.0
100
AcDbLine
 10
2795.470589276556
 20
3152.494269174607
 30
0.0
 11
2795.470589276556
 21
2702.494269174615
 31
0.0
  0
LINE
  5
18D77
330
18C7A
100
AcDbEntity
  8
部品1
 48
50.0
100
AcDbLine
 10
2767.470589276556
 20
3152.494269174611
 30
0.0
 11
2767.470589276556
 21
2702.494269174615
 31
0.0
  0
LINE
  5
18D78
330
18C7A
100
AcDbEntity
  8
破線
 48
10.0
100
AcDbLine
 10
2176.97058927653
 20
1448.994269174509
 30
0.0
 11
2176.97058927653
 21
2702.494269174588
 31
0.0
  0
LINE
  5
18D79
330
18C7A
100
AcDbEntity
  8
破線
 48
10.0
100
AcDbLine
 10
2126.970589276534
 20
1448.994269174505
 30
0.0
 11
2126.970589276531
 21
2702.494269174586
 31
0.0
  0
LINE
  5
18D7A
330
18C7A
100
AcDbEntity
  8
部品1
100
AcDbLine
 10
2794.470589276556
 20
3154.494269174622
 30
0.0
 11
3858.970589276556
 21
3154.494269174604
 31
0.0
  0
LINE
  5
18D7B
330
18C7A
100
AcDbEntity
  8
細線
 48
50.0
100
AcDbLine
 10
3858.470589276556
 20
2702.494269174608
 30
0.0
 11
2795.470589276556
 21
3152.494269174607
 31
0.0
  0
LINE
  5
18D7C
330
18C7A
100
AcDbEntity
  8
部品1
100
AcDbLine
 10
2795.470589276555
 20
2702.494269174615
 30
0.0
 11
3858.470589276556
 21
2702.494269174608
 31
0.0
  0
LINE
  5
18D7D
330
18C7A
100
AcDbEntity
  8
部品1
100
AcDbLine
 10
2795.470589276556
 20
3152.494269174611
 30
0.0
 11
3858.470589276556
 21
3152.494269174604
 31
0.0
  0
LINE
  5
18D7E
330
18C7A
100
AcDbEntity
  8
細線
 48
50.0
100
AcDbLine
 10
3858.470589276556
 20
3152.494269174604
 30
0.0
 11
2795.470589276555
 21
2702.494269174615
 31
0.0
  0
DIMENSION
  5
18D7F
330
18C7A
100
AcDbEntity
  8
寸法
100
AcDbDimension
  2
*D10
 10
3801.234916278101
 20
2488.887829538937
 30
0.0
 11
3318.360544398907
 21
2488.887829538937
 31
0.0
 12
-3742.925985830444
 22
-6453.628869860112
 32
0.0
 70
   128
 71
     5
 42
1063.000000000012
  3
INABA_S40G
100
AcDbAlignedDimension
 13
2795.470589276555
 23
2702.494269174615
 33
0.0
 14
3858.470589276567
 24
2702.494269174608
 34
0.0
100
AcDbRotatedDimension
1001
ACAD
1000
DSTYLE
1002
{
1002
}
  0
LINE
  5
18D80
330
18C7A
100
AcDbEntity
  8
破線
 48
10.0
100
AcDbLine
 10
3806.970589276556
 20
1472.494269174594
 30
0.0
 11
3009.47058927653
 21
1472.494269174523
 31
0.0
  0
DIMENSION
  5
18D81
330
18C7A
100
AcDbEntity
  8
寸法
100
AcDbDimension
  2
*D9
 10
4534.396935010941
 20
1392.494269174596
 30
0.0
 11
4534.39693501094
 21
1084.008987800356
 31
0.0
 12
-3742.925985830444
 22
-6453.628869860112
 32
0.0
 70
   128
 71
     5
 42
54.99999999999636
  3
INABA_S40G
100
AcDbAlignedDimension
 13
3886.970589276531
 23
1447.494269174593
 33
0.0
 14
3886.970589276531
 24
1392.494269174596
 34
0.0
 50
90.0
100
AcDbRotatedDimension
1001
ACAD
1000
DSTYLE
1002
{
1002
}
  0
LINE
  5
18D82
330
18C7A
100
AcDbEntity
  8
部品1
100
AcDbLine
 10
471.9705892765196
 20
3182.494269174477
 30
0.0
 11
471.9705892765232
 21
3154.494269174477
 31
0.0
  0
LINE
  5
18D83
330
18C7A
100
AcDbEntity
  8
部品1
100
AcDbLine
 10
471.9705892765559
 20
3182.494269174509
 30
0.0
 11
471.9705892765559
 21
3154.494269174509
 31
0.0
  0
LINE
  5
18D84
330
18C7A
100
AcDbEntity
  8
部品1
100
AcDbLine
 10
444.9705892765232
 20
3127.49426917448
 30
0.0
 11
416.9705892765232
 21
3127.49426917448
 31
0.0
  0
LINE
  5
18D85
330
18C7A
100
AcDbEntity
  8
部品1
100
AcDbLine
 10
444.9705892765305
 20
2707.49426917448
 30
0.0
 11
416.9705892765305
 21
2707.49426917448
 31
0.0
  0
LINE
  5
18D86
330
18C7A
100
AcDbEntity
  8
部品1
 48
50.0
100
AcDbLine
 10
445.4705892765542
 20
3152.494269174506
 30
0.0
 11
445.4705892765559
 21
2702.494269174505
 31
0.0
  0
LINE
  5
18D87
330
18C7A
100
AcDbEntity
  8
部品1
 48
50.0
100
AcDbLine
 10
473.470589276545
 20
1448.994269174573
 30
0.0
 11
444.970589276545
 21
1420.494269174574
 31
0.0
  0
LINE
  5
18D88
330
18C7A
100
AcDbEntity
  8
部品1
100
AcDbLine
 10
471.9705892765232
 20
1392.494269174465
 30
0.0
 11
416.9705892765486
 21
1392.494269174465
 31
0.0
  0
LINE
  5
18D89
330
18C7A
100
AcDbEntity
  8
部品1
100
AcDbLine
 10
444.9705892765305
 20
1447.494269174429
 30
0.0
 11
416.9705892765469
 21
1447.494269174429
 31
0.0
  0
LINE
  5
18D8A
330
18C7A
100
AcDbEntity
  8
部品1
100
AcDbLine
 10
444.9705892765305
 20
1447.494269174465
 30
0.0
 11
416.9705892765469
 21
1447.494269174465
 31
0.0
  0
LINE
  5
18D8B
330
18C7A
100
AcDbEntity
  8
部品1
100
AcDbLine
 10
444.9705892765469
 20
1447.49426917448
 30
0.0
 11
416.9705892765469
 21
1447.49426917448
 31
0.0
  0
LINE
  5
18D8C
330
18C7A
100
AcDbEntity
  8
部品1
100
AcDbLine
 10
416.9705892765469
 20
1447.494269174429
 30
0.0
 11
416.9705892765486
 21
1392.494269174433
 31
0.0
  0
LINE
  5
18D8D
330
18C7A
100
AcDbEntity
  8
部品1
100
AcDbLine
 10
416.9705892765196
 20
3182.494269174477
 30
0.0
 11
416.9705892765486
 21
1392.494269174465
 31
0.0
  0
LINE
  5
18D8E
330
18C7A
100
AcDbEntity
  8
部品1
100
AcDbLine
 10
444.9705892765305
 20
1420.494269174556
 30
0.0
 11
444.9705892765559
 21
3154.494269174509
 31
0.0
  0
LINE
  5
18D8F
330
18C7A
100
AcDbEntity
  8
部品1
100
AcDbLine
 10
473.4705892765323
 20
2702.494269174608
 30
0.0
 11
473.470589276545
 21
1448.994269174571
 31
0.0
  0
LINE
  5
18D90
330
18C7A
100
AcDbEntity
  8
破線
 48
10.0
100
AcDbLine
 10
496.9705892765305
 20
2702.494269174608
 30
0.0
 11
496.9705892765451
 21
1472.494269174476
 31
0.0
  0
DIMENSION
  5
18D91
330
18C7A
100
AcDbEntity
  8
寸法
100
AcDbDimension
  2
*D8
 10
3886.970589276531
 20
410.7433333855515
 30
0.0
 11
2168.197775309287
 21
410.7433333855515
 31
0.0
 12
-3742.925985830444
 22
-6453.628869860112
 32
0.0
 70
   128
 71
     5
 42
3469.999999999982
  3
INABA_S40G
100
AcDbAlignedDimension
 13
416.9705892765486
 23
1392.494269174433
 33
0.0
 14
3886.970589276531
 24
1392.49426917456
 34
0.0
100
AcDbRotatedDimension
1001
ACAD
1000
DSTYLE
1002
{
1070
   341
1005
0
1002
}
  0
LINE
  5
18D92
330
18C7A
100
AcDbEntity
  8
部品1
100
AcDbLine
 10
444.9705892765559
 20
3154.494269174624
 30
0.0
 11
1509.470589276487
 21
3154.494269174626
 31
0.0
  0
LINE
  5
18D93
330
18C7A
100
AcDbEntity
  8
部品1
100
AcDbLine
 10
3886.970589276531
 20
1392.494269174596
 30
0.0
 11
3411.970589276556
 21
1392.494269174582
 31
0.0
  0
LINE
  5
18D94
330
18C7A
100
AcDbEntity
  8
部品1
100
AcDbLine
 10
416.9705892765559
 20
3182.494269174509
 30
0.0
 11
3886.970589276556
 21
3182.494269174604
 31
0.0
  0
LINE
  5
18D95
330
18C7A
100
AcDbEntity
  8
部品1
100
AcDbLine
 10
445.4705892765559
 20
2702.494269174509
 30
0.0
 11
1508.470589276487
 21
2702.494269174558
 31
0.0
  0
LINE
  5
18D96
330
18C7A
100
AcDbEntity
  8
細線
 48
50.0
100
AcDbLine
 10
2767.470589276556
 20
3152.494269174611
 30
0.0
 11
1536.470589276487
 21
2702.494269174558
 31
0.0
  0
LINE
  5
18D97
330
18C7A
100
AcDbEntity
  8
部品1
100
AcDbLine
 10
445.4705892765542
 20
3152.494269174509
 30
0.0
 11
1508.470589276485
 21
3152.494269174558
 31
0.0
  0
LINE
  5
18D98
330
18C7A
100
AcDbEntity
  8
細線
 48
50.0
100
AcDbLine
 10
2767.470589276554
 20
2702.494269174615
 30
0.0
 11
1536.470589276485
 21
3152.494269174558
 31
0.0
  0
LINE
  5
18D99
330
18C7A
100
AcDbEntity
  8
破線
 48
10.0
100
AcDbLine
 10
2126.970589276534
 20
1472.494269174502
 30
0.0
 11
1344.47058927653
 21
1472.494269174473
 31
0.0
  0
LINE
  5
18D9A
330
18C7A
100
AcDbEntity
  8
部品1
100
AcDbLine
 10
3830.470589276556
 20
1448.994269174596
 30
0.0
 11
473.4705892764487
 21
1448.994269174476
 31
0.0
  0
DIMENSION
  5
18D9B
330
18C7A
100
AcDbEntity
  8
寸法
100
AcDbDimension
  2
*D7
 10
471.970589276555
 20
3698.302488799491
 30
0.0
 11
108.4853079022819
 21
3698.302488799491
 31
0.0
 12
-3742.925985830444
 22
-6453.628869860112
 32
0.0
 70
   128
 71
     5
 42
55.00000000003456
  3
INABA_S40G
100
AcDbAlignedDimension
 13
416.9705892765205
 23
3182.494269174509
 33
0.0
 14
471.970589276555
 24
3182.494269174509
 34
0.0
100
AcDbRotatedDimension
1001
ACAD
1000
DSTYLE
1002
{
1002
}
  0
DIMENSION
  5
18D9C
330
18C7A
100
AcDbEntity
  8
寸法
100
AcDbDimension
  2
*D6
 10
4534.396935010967
 20
3127.494269174607
 30
0.0
 11
4534.396935010965
 21
3490.979550548844
 31
0.0
 12
-3742.925985830444
 22
-6453.628869860112
 32
0.0
 70
   128
 71
     5
 42
54.99999999999636
  3
INABA_S40G
100
AcDbAlignedDimension
 13
3886.970589276556
 23
3182.494269174604
 33
0.0
 14
3886.970589276556
 24
3127.494269174607
 34
0.0
 50
90.0
100
AcDbRotatedDimension
1001
ACAD
1000
DSTYLE
1002
{
1002
}
  0
DIMENSION
  5
18D9D
330
18C7A
100
AcDbEntity
  8
寸法
100
AcDbDimension
  2
*D5
 10
3886.970589276556
 20
3698.302488799589
 30
0.0
 11
4195.455870650794
 21
3698.302488799589
 31
0.0
 12
-3742.925985830444
 22
-6453.628869860112
 32
0.0
 70
   128
 71
     5
 42
55.0
  3
INABA_S40G
100
AcDbAlignedDimension
 13
3831.970589276556
 23
3182.494269174604
 33
0.0
 14
3886.970589276556
 24
3182.494269174604
 34
0.0
100
AcDbRotatedDimension
1001
ACAD
1000
DSTYLE
1002
{
1002
}
  0
DIMENSION
  5
18D9E
330
18C7A
100
AcDbEntity
  8
寸法
100
AcDbDimension
  2
*D4
 10
3831.970589276556
 20
3698.302488799607
 30
0.0
 11
2151.970589276555
 21
3698.302488799607
 31
0.0
 12
-3742.925985830444
 22
-6453.628869860112
 32
0.0
 70
   128
  1
8X420=<>
 71
     5
 42
3360.000000000001
  3
INABA_S40G
100
AcDbAlignedDimension
 13
471.970589276555
 23
3182.494269174509
 33
0.0
 14
3831.970589276556
 24
3182.494269174604
 34
0.0
100
AcDbRotatedDimension
1001
ACAD
1000
DSTYLE
1002
{
1002
}
  0
DIMENSION
  5
18D9F
330
18C7A
100
AcDbEntity
  8
寸法
100
AcDbDimension
  2
*D3
 10
4899.503876750603
 20
1392.494269174596
 30
0.0
 11
4899.503876750601
 21
2287.4942691746
 31
0.0
 12
-3742.925985830444
 22
-6453.628869860112
 32
0.0
 70
   128
 71
     5
 42
1790.000000000007
  3
INABA_S40G
100
AcDbAlignedDimension
 13
3886.970589276556
 23
3182.494269174604
 33
0.0
 14
3886.970589276531
 24
1392.494269174596
 34
0.0
 50
90.0
100
AcDbRotatedDimension
1001
ACAD
1000
DSTYLE
1002
{
1002
}
  0
ENDBLK
  5
18DA1
330
18C7A
100
AcDbEntity
  8
0
 48
50.0
100
AcDbBlockEnd
  0
BLOCK
  5
1C4CB
330
1C4CA
100
AcDbEntity
  8
0
 48
50.0
100
AcDbBlockBegin
  2
_NONE
 70
     0
 10
0.0
 20
0.0
 30
0.0
  3
_NONE
  1

  0
CIRCLE
  5
1C4CC
330
1C4CA
100
AcDbEntity
  8
0
  6
ByBlock
 62
     0
 48
50.0
100
AcDbCircle
 10
0.0
 20
0.0
 30
0.0
 40
0.25
  0
ENDBLK
  5
1C4CD
330
1C4CA
100
AcDbEntity
  8
0
 48
50.0
100
AcDbBlockEnd
  0
BLOCK
  5
2C53B
330
2C531
100
AcDbEntity
  8
0
 48
50.0
100
AcDbBlockBegin
  2
*D19
 70
     1
 10
0.0
 20
0.0
 30
0.0
  3
*D19
  1

  0
LINE
  5
2CAD1
330
2C531
100
AcDbEntity
  8
寸法
 62
     0
 48
50.0
370
    -2
100
AcDbLine
 10
3943.600000000001
 20
7475.463276680875
 30
0.0
 11
3943.600000000001
 21
8473.683598739794
 31
0.0
  0
LINE
  5
2CAD2
330
2C531
100
AcDbEntity
  8
寸法
 62
     0
 48
50.0
370
    -2
100
AcDbLine
 10
12503.6
 20
7475.463276680875
 30
0.0
 11
12503.6
 21
8473.683598739794
 31
0.0
  0
LINE
  5
2CAD3
330
2C531
100
AcDbEntity
  8
寸法
 62
     0
 48
50.0
370
    -2
100
AcDbLine
 10
3943.600000000001
 20
8413.683598739792
 30
0.0
 11
12503.6
 21
8413.683598739792
 31
0.0
  0
INSERT
  5
2CAD4
330
2C531
100
AcDbEntity
  8
寸法
 62
     0
 48
50.0
370
    -2
100
AcDbBlockReference
  2
_DOTSMALL
 10
3943.600000000001
 20
8413.683598739792
 30
0.0
 41
100.0
 42
100.0
 43
100.0
 50
180.0
  0
INSERT
  5
2CAD5
330
2C531
100
AcDbEntity
  8
寸法
 62
     0
 48
50.0
370
    -2
100
AcDbBlockReference
  2
_DOTSMALL
 10
12503.6
 20
8413.683598739792
 30
0.0
 41
100.0
 42
100.0
 43
100.0
  0
MTEXT
  5
2CAD6
330
2C531
100
AcDbEntity
  8
寸法
 62
     7
 48
50.0
100
AcDbMText
 10
8223.600000000001
 20
8513.683598739794
 30
0.0
 40
120.0
 41
0.0
 71
     5
 72
     1
  1
\A1;N X 950+10
  7
STYLE1
 73
     1
 44
1.0
1001
ACAD
1000
MTEXTBEGIN
1070
    73
1070
     1
1070
    44
1040
1.0
1070
    74
1070
     0
1000
MTEXTEND
  0
POINT
  5
2CAD7
330
2C531
100
AcDbEntity
  8
DEFPOINTS
 62
     0
 48
50.0
100
AcDbPoint
 10
3943.600000000001
 20
7455.463276680875
 30
0.0
  0
POINT
  5
2CAD8
330
2C531
100
AcDbEntity
  8
DEFPOINTS
 62
     0
 48
50.0
100
AcDbPoint
 10
12503.6
 20
7455.463276680875
 30
0.0
  0
POINT
  5
2CAD9
330
2C531
100
AcDbEntity
  8
DEFPOINTS
 62
     0
 48
50.0
100
AcDbPoint
 10
12503.6
 20
8413.683598739792
 30
0.0
  0
ENDBLK
  5
2C53C
330
2C531
100
AcDbEntity
  8
0
 48
50.0
100
AcDbBlockEnd
  0
BLOCK
  5
2C547
330
2C53D
100
AcDbEntity
  8
0
 48
50.0
100
AcDbBlockBegin
  2
*D20
 70
     1
 10
0.0
 20
0.0
 30
0.0
  3
*D20
  1

  0
LINE
  5
2D2BF
330
2C53D
100
AcDbEntity
  8
寸法
 62
     0
 48
50.0
370
    -2
100
AcDbLine
 10
7748.600000000007
 20
6872.463276680874
 30
0.0
 11
7748.600000000007
 21
7998.072093351122
 31
0.0
  0
LINE
  5
2D2C0
330
2C53D
100
AcDbEntity
  8
寸法
 62
     0
 48
50.0
370
    -2
100
AcDbLine
 10
6798.600000000007
 20
6872.463276680874
 30
0.0
 11
6798.600000000007
 21
7998.072093351122
 31
0.0
  0
LINE
  5
2D2C1
330
2C53D
100
AcDbEntity
  8
寸法
 62
     0
 48
50.0
370
    -2
100
AcDbLine
 10
7748.600000000007
 20
7938.072093351123
 30
0.0
 11
6798.600000000007
 21
7938.072093351123
 31
0.0
  0
INSERT
  5
2D2C2
330
2C53D
100
AcDbEntity
  8
寸法
 62
     0
 48
50.0
370
    -2
100
AcDbBlockReference
  2
_DOTSMALL
 10
7748.600000000007
 20
7938.072093351123
 30
0.0
 41
100.0
 42
100.0
 43
100.0
  0
INSERT
  5
2D2C3
330
2C53D
100
AcDbEntity
  8
寸法
 62
     0
 48
50.0
370
    -2
100
AcDbBlockReference
  2
_DOTSMALL
 10
6798.600000000007
 20
7938.072093351123
 30
0.0
 41
100.0
 42
100.0
 43
100.0
 50
180.0
  0
MTEXT
  5
2D2C4
330
2C53D
100
AcDbEntity
  8
寸法
 62
     7
 48
50.0
100
AcDbMText
 10
7273.600000000008
 20
8038.072093351123
 30
0.0
 40
120.0
 41
0.0
 71
     5
 72
     1
  1
\A1;950
  7
STYLE1
 73
     1
 44
1.0
1001
ACAD
1000
MTEXTBEGIN
1070
    73
1070
     1
1070
    44
1040
1.0
1070
    74
1070
     0
1000
MTEXTEND
  0
POINT
  5
2D2C5
330
2C53D
100
AcDbEntity
  8
DEFPOINTS
 62
     0
 48
50.0
100
AcDbPoint
 10
7748.600000000007
 20
6852.463276680873
 30
0.0
  0
POINT
  5
2D2C6
330
2C53D
100
AcDbEntity
  8
DEFPOINTS
 62
     0
 48
50.0
100
AcDbPoint
 10
6798.600000000007
 20
6852.463276680873
 30
0.0
  0
POINT
  5
2D2C7
330
2C53D
100
AcDbEntity
  8
DEFPOINTS
 62
     0
 48
50.0
100
AcDbPoint
 10
6798.600000000007
 20
7938.072093351123
 30
0.0
  0
ENDBLK
  5
2C548
330
2C53D
100
AcDbEntity
  8
0
 48
50.0
100
AcDbBlockEnd
  0
BLOCK
  5
2C553
330
2C549
100
AcDbEntity
  8
0
 48
50.0
100
AcDbBlockBegin
  2
*D21
 70
     1
 10
0.0
 20
0.0
 30
0.0
  3
*D21
  1

  0
LINE
  5
2D2C8
330
2C549
100
AcDbEntity
  8
寸法
 62
     0
 48
50.0
370
    -2
100
AcDbLine
 10
4828.600000000008
 20
6802.463276680874
 30
0.0
 11
4366.285990614303
 21
6802.463276680874
 31
0.0
  0
LINE
  5
2D2C9
330
2C549
100
AcDbEntity
  8
寸法
 62
     0
 48
50.0
370
    -2
100
AcDbLine
 10
4497.765475140901
 20
7455.463276680875
 30
0.0
 11
4366.285990614303
 21
7455.463276680875
 31
0.0
  0
LINE
  5
2D2CA
330
2C549
100
AcDbEntity
  8
寸法
 62
     0
 48
50.0
370
    -2
100
AcDbLine
 10
4426.285990614304
 20
6802.463276680874
 30
0.0
 11
4426.285990614304
 21
7455.463276680875
 31
0.0
  0
INSERT
  5
2D2CB
330
2C549
100
AcDbEntity
  8
寸法
 62
     0
 48
50.0
370
    -2
100
AcDbBlockReference
  2
_DOTSMALL
 10
4426.285990614304
 20
6802.463276680874
 30
0.0
 41
100.0
 42
100.0
 43
100.0
 50
270.0
  0
INSERT
  5
2D2CC
330
2C549
100
AcDbEntity
  8
寸法
 62
     0
 48
50.0
370
    -2
100
AcDbBlockReference
  2
_DOTSMALL
 10
4426.285990614304
 20
7455.463276680875
 30
0.0
 41
100.0
 42
100.0
 43
100.0
 50
90.0
  0
MTEXT
  5
2D2CD
330
2C549
100
AcDbEntity
  8
寸法
 62
     7
 48
50.0
100
AcDbMText
 10
4326.285990614302
 20
7092.208897744368
 30
0.0
 40
120.0
 41
0.0
 71
     5
 72
     1
  1
\A1;653
  7
STYLE1
 11
0.0000000000000001
 21
1.0
 31
0.0
 73
     1
 44
1.0
1001
ACAD
1000
MTEXTBEGIN
1070
    73
1070
     1
1070
    44
1040
1.0
1070
    74
1070
     0
1000
MTEXTEND
  0
POINT
  5
2D2CE
330
2C549
100
AcDbEntity
  8
DEFPOINTS
 62
     0
 48
50.0
100
AcDbPoint
 10
4848.600000000008
 20
6802.463276680874
 30
0.0
  0
POINT
  5
2D2CF
330
2C549
100
AcDbEntity
  8
DEFPOINTS
 62
     0
 48
50.0
100
AcDbPoint
 10
4517.7654751409
 20
7455.463276680875
 30
0.0
  0
POINT
  5
2D2D0
330
2C549
100
AcDbEntity
  8
DEFPOINTS
 62
     0
 48
50.0
100
AcDbPoint
 10
4426.285990614304
 20
7455.463276680875
 30
0.0
  0
ENDBLK
  5
2C554
330
2C549
100
AcDbEntity
  8
0
 48
50.0
100
AcDbBlockEnd
  0
BLOCK
  5
2C55F
330
2C555
100
AcDbEntity
  8
0
 48
50.0
100
AcDbBlockBegin
  2
*D22
 70
     1
 10
0.0
 20
0.0
 30
0.0
  3
*D22
  1

  0
LINE
  5
2D2AD
330
2C555
100
AcDbEntity
  8
寸法
 62
     0
 48
50.0
370
    -2
100
AcDbLine
 10
4898.600000000008
 20
6872.463276680874
 30
0.0
 11
4898.600000000008
 21
7998.072093351122
 31
0.0
  0
LINE
  5
2D2AE
330
2C555
100
AcDbEntity
  8
寸法
 62
     0
 48
50.0
370
    -2
100
AcDbLine
 10
3943.600000000001
 20
7475.463276680875
 30
0.0
 11
3943.600000000001
 21
7998.072093351122
 31
0.0
  0
LINE
  5
2D2AF
330
2C555
100
AcDbEntity
  8
寸法
 62
     0
 48
50.0
370
    -2
100
AcDbLine
 10
4898.600000000008
 20
7938.072093351123
 30
0.0
 11
3943.600000000001
 21
7938.072093351123
 31
0.0
  0
INSERT
  5
2D2B0
330
2C555
100
AcDbEntity
  8
寸法
 62
     0
 48
50.0
370
    -2
100
AcDbBlockReference
  2
_DOTSMALL
 10
4898.600000000008
 20
7938.072093351123
 30
0.0
 41
100.0
 42
100.0
 43
100.0
  0
INSERT
  5
2D2B1
330
2C555
100
AcDbEntity
  8
寸法
 62
     0
 48
50.0
370
    -2
100
AcDbBlockReference
  2
_DOTSMALL
 10
3943.600000000001
 20
7938.072093351123
 30
0.0
 41
100.0
 42
100.0
 43
100.0
 50
180.0
  0
MTEXT
  5
2D2B2
330
2C555
100
AcDbEntity
  8
寸法
 62
     7
 48
50.0
100
AcDbMText
 10
4421.100000000004
 20
8038.072093351123
 30
0.0
 40
120.0
 41
0.0
 71
     5
 72
     1
  1
\A1;955
  7
STYLE1
 73
     1
 44
1.0
1001
ACAD
1000
MTEXTBEGIN
1070
    73
1070
     1
1070
    44
1040
1.0
1070
    74
1070
     0
1000
MTEXTEND
  0
POINT
  5
2D2B3
330
2C555
100
AcDbEntity
  8
DEFPOINTS
 62
     0
 48
50.0
100
AcDbPoint
 10
4898.600000000008
 20
6852.463276680873
 30
0.0
  0
POINT
  5
2D2B4
330
2C555
100
AcDbEntity
  8
DEFPOINTS
 62
     0
 48
50.0
100
AcDbPoint
 10
3943.600000000001
 20
7455.463276680875
 30
0.0
  0
POINT
  5
2D2B5
330
2C555
100
AcDbEntity
  8
DEFPOINTS
 62
     0
 48
50.0
100
AcDbPoint
 10
3943.600000000001
 20
7938.072093351123
 30
0.0
  0
ENDBLK
  5
2C560
330
2C555
100
AcDbEntity
  8
0
 48
50.0
100
AcDbBlockEnd
  0
BLOCK
  5
2C56A
330
2C561
100
AcDbEntity
  8
0
 48
50.0
100
AcDbBlockBegin
  2
*D23
 70
     1
 10
0.0
 20
0.0
 30
0.0
  3
*D23
  1

  0
LINE
  5
2D2A4
330
2C561
100
AcDbEntity
  8
寸法
 62
     0
 48
50.0
370
    -2
100
AcDbLine
 10
5848.600000000008
 20
6872.463276680874
 30
0.0
 11
5848.600000000008
 21
7998.072093351122
 31
0.0
  0
LINE
  5
2D2A5
330
2C561
100
AcDbEntity
  8
寸法
 62
     0
 48
50.0
370
    -2
100
AcDbLine
 10
4898.600000000008
 20
6872.463276680874
 30
0.0
 11
4898.600000000008
 21
7998.072093351122
 31
0.0
  0
LINE
  5
2D2A6
330
2C561
100
AcDbEntity
  8
寸法
 62
     0
 48
50.0
370
    -2
100
AcDbLine
 10
5848.600000000008
 20
7938.072093351123
 30
0.0
 11
4898.600000000008
 21
7938.072093351123
 31
0.0
  0
INSERT
  5
2D2A7
330
2C561
100
AcDbEntity
  8
寸法
 62
     0
 48
50.0
370
    -2
100
AcDbBlockReference
  2
_DOTSMALL
 10
5848.600000000008
 20
7938.072093351123
 30
0.0
 41
100.0
 42
100.0
 43
100.0
  0
INSERT
  5
2D2A8
330
2C561
100
AcDbEntity
  8
寸法
 62
     0
 48
50.0
370
    -2
100
AcDbBlockReference
  2
_DOTSMALL
 10
4898.600000000008
 20
7938.072093351123
 30
0.0
 41
100.0
 42
100.0
 43
100.0
 50
180.0
  0
MTEXT
  5
2D2A9
330
2C561
100
AcDbEntity
  8
寸法
 62
     7
 48
50.0
100
AcDbMText
 10
5373.600000000007
 20
8038.072093351123
 30
0.0
 40
120.0
 41
0.0
 71
     5
 72
     1
  1
\A1;950
  7
STYLE1
 73
     1
 44
1.0
1001
ACAD
1000
MTEXTBEGIN
1070
    73
1070
     1
1070
    44
1040
1.0
1070
    74
1070
     0
1000
MTEXTEND
  0
POINT
  5
2D2AA
330
2C561
100
AcDbEntity
  8
DEFPOINTS
 62
     0
 48
50.0
100
AcDbPoint
 10
5848.600000000008
 20
6852.463276680873
 30
0.0
  0
POINT
  5
2D2AB
330
2C561
100
AcDbEntity
  8
DEFPOINTS
 62
     0
 48
50.0
100
AcDbPoint
 10
4898.600000000008
 20
6852.463276680873
 30
0.0
  0
POINT
  5
2D2AC
330
2C561
100
AcDbEntity
  8
DEFPOINTS
 62
     0
 48
50.0
100
AcDbPoint
 10
4898.600000000008
 20
7938.072093351123
 30
0.0
  0
ENDBLK
  5
2C56B
330
2C561
100
AcDbEntity
  8
0
 48
50.0
100
AcDbBlockEnd
  0
BLOCK
  5
2C575
330
2C56C
100
AcDbEntity
  8
0
 48
50.0
100
AcDbBlockBegin
  2
*D24
 70
     1
 10
0.0
 20
0.0
 30
0.0
  3
*D24
  1

  0
LINE
  5
2D29B
330
2C56C
100
AcDbEntity
  8
寸法
 62
     0
 48
50.0
370
    -2
100
AcDbLine
 10
6798.600000000007
 20
6872.463276680874
 30
0.0
 11
6798.600000000007
 21
7998.072093351122
 31
0.0
  0
LINE
  5
2D29C
330
2C56C
100
AcDbEntity
  8
寸法
 62
     0
 48
50.0
370
    -2
100
AcDbLine
 10
5848.600000000008
 20
6872.463276680874
 30
0.0
 11
5848.600000000008
 21
7998.072093351122
 31
0.0
  0
LINE
  5
2D29D
330
2C56C
100
AcDbEntity
  8
寸法
 62
     0
 48
50.0
370
    -2
100
AcDbLine
 10
6798.600000000007
 20
7938.072093351123
 30
0.0
 11
5848.600000000008
 21
7938.072093351123
 31
0.0
  0
INSERT
  5
2D29E
330
2C56C
100
AcDbEntity
  8
寸法
 62
     0
 48
50.0
370
    -2
100
AcDbBlockReference
  2
_DOTSMALL
 10
6798.600000000007
 20
7938.072093351123
 30
0.0
 41
100.0
 42
100.0
 43
100.0
  0
INSERT
  5
2D29F
330
2C56C
100
AcDbEntity
  8
寸法
 62
     0
 48
50.0
370
    -2
100
AcDbBlockReference
  2
_DOTSMALL
 10
5848.600000000008
 20
7938.072093351123
 30
0.0
 41
100.0
 42
100.0
 43
100.0
 50
180.0
  0
MTEXT
  5
2D2A0
330
2C56C
100
AcDbEntity
  8
寸法
 62
     7
 48
50.0
100
AcDbMText
 10
6323.600000000007
 20
8038.072093351123
 30
0.0
 40
120.0
 41
0.0
 71
     5
 72
     1
  1
\A1;950
  7
STYLE1
 73
     1
 44
1.0
1001
ACAD
1000
MTEXTBEGIN
1070
    73
1070
     1
1070
    44
1040
1.0
1070
    74
1070
     0
1000
MTEXTEND
  0
POINT
  5
2D2A1
330
2C56C
100
AcDbEntity
  8
DEFPOINTS
 62
     0
 48
50.0
100
AcDbPoint
 10
6798.600000000007
 20
6852.463276680873
 30
0.0
  0
POINT
  5
2D2A2
330
2C56C
100
AcDbEntity
  8
DEFPOINTS
 62
     0
 48
50.0
100
AcDbPoint
 10
5848.600000000008
 20
6852.463276680873
 30
0.0
  0
POINT
  5
2D2A3
330
2C56C
100
AcDbEntity
  8
DEFPOINTS
 62
     0
 48
50.0
100
AcDbPoint
 10
5848.600000000008
 20
7938.072093351123
 30
0.0
  0
ENDBLK
  5
2C576
330
2C56C
100
AcDbEntity
  8
0
 48
50.0
100
AcDbBlockEnd
  0
BLOCK
  5
2C581
330
2C577
100
AcDbEntity
  8
0
 48
50.0
100
AcDbBlockBegin
  2
*D25
 70
     1
 10
0.0
 20
0.0
 30
0.0
  3
*D25
  1

  0
LINE
  5
2D1BC
330
2C577
100
AcDbEntity
  8
寸法
 62
     0
 48
50.0
370
    -2
100
AcDbLine
 10
3996.6
 20
7332.463276680876
 30
0.0
 11
3260.665006330073
 21
7332.463276680876
 31
0.0
  0
LINE
  5
2D1BD
330
2C577
100
AcDbEntity
  8
寸法
 62
     0
 48
50.0
370
    -2
100
AcDbLine
 10
3996.600000000008
 20
6273.463276680877
 30
0.0
 11
3260.665006330072
 21
6273.463276680877
 31
0.0
  0
LINE
  5
2D1BE
330
2C577
100
AcDbEntity
  8
寸法
 62
     0
 48
50.0
370
    -2
100
AcDbLine
 10
3320.665006330073
 20
7332.463276680876
 30
0.0
 11
3320.665006330072
 21
6273.463276680877
 31
0.0
  0
INSERT
  5
2D1BF
330
2C577
100
AcDbEntity
  8
寸法
 62
     0
 48
50.0
370
    -2
100
AcDbBlockReference
  2
_DOTSMALL
 10
3320.665006330073
 20
7332.463276680876
 30
0.0
 41
100.0
 42
100.0
 43
100.0
 50
90.0
  0
INSERT
  5
2D1C0
330
2C577
100
AcDbEntity
  8
寸法
 62
     0
 48
50.0
370
    -2
100
AcDbBlockReference
  2
_DOTSMALL
 10
3320.665006330072
 20
6273.463276680877
 30
0.0
 41
100.0
 42
100.0
 43
100.0
 50
270.0
  0
MTEXT
  5
2D1C1
330
2C577
100
AcDbEntity
  8
寸法
 62
     7
 48
50.0
100
AcDbMText
 10
3220.665006330071
 20
6802.963276680873
 30
0.0
 40
120.0
 41
0.0
 71
     5
 72
     1
  1
\A1;1059
  7
STYLE1
 11
0.0000000000000001
 21
1.0
 31
0.0
 73
     1
 44
1.0
1001
ACAD
1000
MTEXTBEGIN
1070
    73
1070
     1
1070
    44
1040
1.0
1070
    74
1070
     0
1000
MTEXTEND
  0
POINT
  5
2D1C2
330
2C577
100
AcDbEntity
  8
DEFPOINTS
 62
     0
 48
50.0
100
AcDbPoint
 10
4016.6
 20
7332.463276680876
 30
0.0
  0
POINT
  5
2D1C3
330
2C577
100
AcDbEntity
  8
DEFPOINTS
 62
     0
 48
50.0
100
AcDbPoint
 10
4016.600000000007
 20
6273.463276680877
 30
0.0
  0
POINT
  5
2D1C4
330
2C577
100
AcDbEntity
  8
DEFPOINTS
 62
     0
 48
50.0
100
AcDbPoint
 10
3320.665006330072
 20
6273.463276680877
 30
0.0
  0
ENDBLK
  5
2C582
330
2C577
100
AcDbEntity
  8
0
 48
50.0
100
AcDbBlockEnd
  0
BLOCK
  5
2C58D
330
2C583
100
AcDbEntity
  8
0
 48
50.0
100
AcDbBlockBegin
  2
*D26
 70
     1
 10
0.0
 20
0.0
 30
0.0
  3
*D26
  1

  0
LINE
  5
2CAEE
330
2C583
100
AcDbEntity
  8
寸法
 62
     0
 48
50.0
370
    -2
100
AcDbLine
 10
3923.6
 20
7455.463276680875
 30
0.0
 11
3008.721909610674
 21
7455.463276680875
 31
0.0
  0
LINE
  5
2CAEF
330
2C583
100
AcDbEntity
  8
寸法
 62
     0
 48
50.0
370
    -2
100
AcDbLine
 10
3923.6
 20
6075.463276680874
 30
0.0
 11
3008.721909610674
 21
6075.463276680874
 31
0.0
  0
LINE
  5
2CAF0
330
2C583
100
AcDbEntity
  8
寸法
 62
     0
 48
50.0
370
    -2
100
AcDbLine
 10
3068.721909610674
 20
7455.463276680875
 30
0.0
 11
3068.721909610674
 21
6075.463276680874
 31
0.0
  0
INSERT
  5
2CAF1
330
2C583
100
AcDbEntity
  8
寸法
 62
     0
 48
50.0
370
    -2
100
AcDbBlockReference
  2
_DOTSMALL
 10
3068.721909610674
 20
7455.463276680875
 30
0.0
 41
100.0
 42
100.0
 43
100.0
 50
90.0
  0
INSERT
  5
2CAF2
330
2C583
100
AcDbEntity
  8
寸法
 62
     0
 48
50.0
370
    -2
100
AcDbBlockReference
  2
_DOTSMALL
 10
3068.721909610674
 20
6075.463276680874
 30
0.0
 41
100.0
 42
100.0
 43
100.0
 50
270.0
  0
MTEXT
  5
2CAF3
330
2C583
100
AcDbEntity
  8
寸法
 62
     7
 48
50.0
100
AcDbMText
 10
2968.721909610673
 20
6802.963276680873
 30
0.0
 40
120.0
 41
0.0
 71
     5
 72
     1
  1
\A1;1380
  7
STYLE1
 11
0.0000000000000001
 21
1.0
 31
0.0
 73
     1
 44
1.0
1001
ACAD
1000
MTEXTBEGIN
1070
    73
1070
     1
1070
    44
1040
1.0
1070
    74
1070
     0
1000
MTEXTEND
  0
POINT
  5
2CAF4
330
2C583
100
AcDbEntity
  8
DEFPOINTS
 62
     0
 48
50.0
100
AcDbPoint
 10
3943.600000000001
 20
7455.463276680875
 30
0.0
  0
POINT
  5
2CAF5
330
2C583
100
AcDbEntity
  8
DEFPOINTS
 62
     0
 48
50.0
100
AcDbPoint
 10
3943.600000000001
 20
6075.463276680874
 30
0.0
  0
POINT
  5
2CAF6
330
2C583
100
AcDbEntity
  8
DEFPOINTS
 62
     0
 48
50.0
100
AcDbPoint
 10
3068.721909610674
 20
6075.463276680874
 30
0.0
  0
ENDBLK
  5
2C58E
330
2C583
100
AcDbEntity
  8
0
 48
50.0
100
AcDbBlockEnd
  0
BLOCK
  5
2C5A7
330
2C59C
100
AcDbEntity
  8
0
 48
50.0
100
AcDbBlockBegin
  2
*D27
 70
     1
 10
0.0
 20
0.0
 30
0.0
  3
*D27
  1

  0
LINE
  5
2D1B2
330
2C59C
100
AcDbEntity
  8
寸法
 62
     0
 48
50.0
370
    -2
100
AcDbLine
 10
3996.600000000008
 20
6273.463276680877
 30
0.0
 11
3260.665006330072
 21
6273.463276680877
 31
0.0
  0
LINE
  5
2D1B3
330
2C59C
100
AcDbEntity
  8
寸法
 62
     0
 48
50.0
370
    -2
100
AcDbLine
 10
3923.6
 20
6075.463276680874
 30
0.0
 11
3260.665006330072
 21
6075.463276680874
 31
0.0
  0
LINE
  5
2D1B4
330
2C59C
100
AcDbEntity
  8
寸法
 62
     0
 48
50.0
370
    -2
100
AcDbLine
 10
3320.665006330072
 20
6273.463276680877
 30
0.0
 11
3320.665006330072
 21
6075.463276680874
 31
0.0
  0
LINE
  5
2D1B5
330
2C59C
100
AcDbEntity
  8
寸法
 62
     0
 48
50.0
370
    -2
100
AcDbLine
 10
3320.665006330072
 20
6075.463276680874
 30
0.0
 11
3320.665006330072
 21
5603.722668008624
 31
0.0
  0
INSERT
  5
2D1B6
330
2C59C
100
AcDbEntity
  8
寸法
 62
     0
 48
50.0
370
    -2
100
AcDbBlockReference
  2
_DOTSMALL
 10
3320.665006330072
 20
6273.463276680877
 30
0.0
 41
100.0
 42
100.0
 43
100.0
 50
90.0
  0
INSERT
  5
2D1B7
330
2C59C
100
AcDbEntity
  8
寸法
 62
     0
 48
50.0
370
    -2
100
AcDbBlockReference
  2
_DOTSMALL
 10
3320.665006330072
 20
6075.463276680874
 30
0.0
 41
100.0
 42
100.0
 43
100.0
 50
270.0
  0
MTEXT
  5
2D1B8
330
2C59C
100
AcDbEntity
  8
寸法
 62
     7
 48
50.0
100
AcDbMText
 10
3220.665006330071
 20
5739.932327838282
 30
0.0
 40
120.0
 41
0.0
 71
     5
 72
     1
  1
\A1;198
  7
STYLE1
 11
0.0000000000000001
 21
1.0
 31
0.0
 73
     1
 44
1.0
1001
ACAD
1000
MTEXTBEGIN
1070
    73
1070
     1
1070
    44
1040
1.0
1070
    74
1070
     0
1000
MTEXTEND
  0
POINT
  5
2D1B9
330
2C59C
100
AcDbEntity
  8
DEFPOINTS
 62
     0
 48
50.0
100
AcDbPoint
 10
4016.600000000007
 20
6273.463276680877
 30
0.0
  0
POINT
  5
2D1BA
330
2C59C
100
AcDbEntity
  8
DEFPOINTS
 62
     0
 48
50.0
100
AcDbPoint
 10
3943.600000000001
 20
6075.463276680874
 30
0.0
  0
POINT
  5
2D1BB
330
2C59C
100
AcDbEntity
  8
DEFPOINTS
 62
     0
 48
50.0
100
AcDbPoint
 10
3320.665006330072
 20
6075.463276680874
 30
0.0
  0
ENDBLK
  5
2C5A8
330
2C59C
100
AcDbEntity
  8
0
 48
50.0
100
AcDbBlockEnd
  0
BLOCK
  5
2C5BF
330
2C5B5
100
AcDbEntity
  8
0
 48
50.0
100
AcDbBlockBegin
  2
*D28
 70
     1
 10
0.0
 20
0.0
 30
0.0
  3
*D28
  1

  0
LINE
  5
2CB00
330
2C5B5
100
AcDbEntity
  8
寸法
 62
     0
 48
50.0
370
    -2
100
AcDbLine
 10
3923.600000000004
 20
6075.46327668087
 30
0.0
 11
3770.51267376788
 21
6075.46327668087
 31
0.0
  0
LINE
  5
2CB01
330
2C5B5
100
AcDbEntity
  8
寸法
 62
     0
 48
50.0
370
    -2
100
AcDbLine
 10
4279.325326928808
 20
5355.46327668087
 30
0.0
 11
3770.51267376788
 21
5355.46327668087
 31
0.0
  0
LINE
  5
2CB02
330
2C5B5
100
AcDbEntity
  8
寸法
 62
     0
 48
50.0
370
    -2
100
AcDbLine
 10
3830.512673767879
 20
6075.46327668087
 30
0.0
 11
3830.512673767879
 21
5355.46327668087
 31
0.0
  0
INSERT
  5
2CB03
330
2C5B5
100
AcDbEntity
  8
寸法
 62
     0
 48
50.0
370
    -2
100
AcDbBlockReference
  2
_DOTSMALL
 10
3830.512673767879
 20
6075.46327668087
 30
0.0
 41
100.0
 42
100.0
 43
100.0
 50
90.0
  0
INSERT
  5
2CB04
330
2C5B5
100
AcDbEntity
  8
寸法
 62
     0
 48
50.0
370
    -2
100
AcDbBlockReference
  2
_DOTSMALL
 10
3830.512673767879
 20
5355.46327668087
 30
0.0
 41
100.0
 42
100.0
 43
100.0
 50
270.0
  0
MTEXT
  5
2CB05
330
2C5B5
100
AcDbEntity
  8
寸法
 62
     7
 48
50.0
100
AcDbMText
 10
3730.500862744256
 20
5715.463276680871
 30
0.0
 40
120.0
 41
0.0
 71
     5
 72
     1
  1
\A1;扉の出720
  7
STYLE1
 11
0.0000000000000001
 21
1.0
 31
0.0
 73
     1
 44
1.0
1001
ACAD
1000
MTEXTBEGIN
1070
    73
1070
     1
1070
    44
1040
1.0
1070
    74
1070
     0
1000
MTEXTEND
  0
POINT
  5
2CB06
330
2C5B5
100
AcDbEntity
  8
DEFPOINTS
 62
     0
 48
50.0
100
AcDbPoint
 10
3943.600000000004
 20
6075.46327668087
 30
0.0
  0
POINT
  5
2CB07
330
2C5B5
100
AcDbEntity
  8
DEFPOINTS
 62
     0
 48
50.0
100
AcDbPoint
 10
4299.325326928808
 20
5355.46327668087
 30
0.0
  0
POINT
  5
2CB08
330
2C5B5
100
AcDbEntity
  8
DEFPOINTS
 62
     0
 48
50.0
100
AcDbPoint
 10
3830.512673767879
 20
5355.46327668087
 30
0.0
  0
ENDBLK
  5
2C5C0
330
2C5B5
100
AcDbEntity
  8
0
 48
50.0
100
AcDbBlockEnd
  0
BLOCK
  5
2C5CB
330
2C5C1
100
AcDbEntity
  8
0
 48
50.0
100
AcDbBlockBegin
  2
*D29
 70
     1
 10
0.0
 20
0.0
 30
0.0
  3
*D29
  1

  0
LINE
  5
2D292
330
2C5C1
100
AcDbEntity
  8
寸法
 62
     0
 48
50.0
370
    -2
100
AcDbLine
 10
4497.765475140901
 20
6075.463276680885
 30
0.0
 11
4366.285990614301
 21
6075.463276680885
 31
0.0
  0
LINE
  5
2D293
330
2C5C1
100
AcDbEntity
  8
寸法
 62
     0
 48
50.0
370
    -2
100
AcDbLine
 10
4828.600000000008
 20
6802.463276680874
 30
0.0
 11
4366.285990614302
 21
6802.463276680874
 31
0.0
  0
LINE
  5
2D294
330
2C5C1
100
AcDbEntity
  8
寸法
 62
     0
 48
50.0
370
    -2
100
AcDbLine
 10
4426.285990614301
 20
6075.463276680885
 30
0.0
 11
4426.285990614302
 21
6802.463276680874
 31
0.0
  0
INSERT
  5
2D295
330
2C5C1
100
AcDbEntity
  8
寸法
 62
     0
 48
50.0
370
    -2
100
AcDbBlockReference
  2
_DOTSMALL
 10
4426.285990614301
 20
6075.463276680885
 30
0.0
 41
100.0
 42
100.0
 43
100.0
 50
270.0
  0
INSERT
  5
2D296
330
2C5C1
100
AcDbEntity
  8
寸法
 62
     0
 48
50.0
370
    -2
100
AcDbBlockReference
  2
_DOTSMALL
 10
4426.285990614302
 20
6802.463276680874
 30
0.0
 41
100.0
 42
100.0
 43
100.0
 50
90.0
  0
MTEXT
  5
2D297
330
2C5C1
100
AcDbEntity
  8
寸法
 62
     7
 48
50.0
100
AcDbMText
 10
4326.274179590678
 20
6517.463276680874
 30
0.0
 40
120.0
 41
0.0
 71
     5
 72
     1
  1
\A1;727
  7
STYLE1
 11
0.0000000000000001
 21
1.0
 31
0.0
 73
     1
 44
1.0
1001
ACAD
1000
MTEXTBEGIN
1070
    73
1070
     1
1070
    44
1040
1.0
1070
    74
1070
     0
1000
MTEXTEND
  0
POINT
  5
2D298
330
2C5C1
100
AcDbEntity
  8
DEFPOINTS
 62
     0
 48
50.0
100
AcDbPoint
 10
4517.7654751409
 20
6075.463276680885
 30
0.0
  0
POINT
  5
2D299
330
2C5C1
100
AcDbEntity
  8
DEFPOINTS
 62
     0
 48
50.0
100
AcDbPoint
 10
4848.600000000008
 20
6802.463276680874
 30
0.0
  0
POINT
  5
2D29A
330
2C5C1
100
AcDbEntity
  8
DEFPOINTS
 62
     0
 48
50.0
100
AcDbPoint
 10
4426.285990614302
 20
6802.463276680874
 30
0.0
  0
ENDBLK
  5
2C5CC
330
2C5C1
100
AcDbEntity
  8
0
 48
50.0
100
AcDbBlockEnd
  0
BLOCK
  5
2C5D7
330
2C5CD
100
AcDbEntity
  8
0
 48
50.0
100
AcDbBlockBegin
  2
*D30
 70
     1
 10
0.0
 20
0.0
 30
0.0
  3
*D30
  1

  0
LINE
  5
2CAA4
330
2C5CD
100
AcDbEntity
  8
寸法
 62
     0
 48
50.0
370
    -2
100
AcDbLine
 10
6680.600000000001
 20
7402.463276680875
 30
0.0
 11
6680.600000000001
 21
8241.729734774784
 31
0.0
  0
LINE
  5
2CAA5
330
2C5CD
100
AcDbEntity
  8
寸法
 62
     0
 48
50.0
370
    -2
100
AcDbLine
 10
4066.6
 20
7402.463276680875
 30
0.0
 11
4066.6
 21
8241.729734774784
 31
0.0
  0
LINE
  5
2CAA6
330
2C5CD
100
AcDbEntity
  8
寸法
 62
     0
 48
50.0
370
    -2
100
AcDbLine
 10
6680.600000000001
 20
8181.729734774783
 30
0.0
 11
4066.6
 21
8181.729734774783
 31
0.0
  0
INSERT
  5
2CAA7
330
2C5CD
100
AcDbEntity
  8
寸法
 62
     0
 48
50.0
370
    -2
100
AcDbBlockReference
  2
_DOTSMALL
 10
6680.600000000001
 20
8181.729734774783
 30
0.0
 41
100.0
 42
100.0
 43
100.0
  0
INSERT
  5
2CAA8
330
2C5CD
100
AcDbEntity
  8
寸法
 62
     0
 48
50.0
370
    -2
100
AcDbBlockReference
  2
_DOTSMALL
 10
4066.6
 20
8181.729734774783
 30
0.0
 41
100.0
 42
100.0
 43
100.0
 50
180.0
  0
MTEXT
  5
2CAA9
330
2C5CD
100
AcDbEntity
  8
寸法
 62
     7
 48
50.0
100
AcDbMText
 10
5373.6
 20
8281.741545798407
 30
0.0
 40
120.0
 41
0.0
 71
     5
 72
     1
  1
\A1;2614
  7
STYLE1
 73
     1
 44
1.0
1001
ACAD
1000
MTEXTBEGIN
1070
    73
1070
     1
1070
    44
1040
1.0
1070
    74
1070
     0
1000
MTEXTEND
  0
POINT
  5
2CAAA
330
2C5CD
100
AcDbEntity
  8
DEFPOINTS
 62
     0
 48
50.0
100
AcDbPoint
 10
6680.600000000001
 20
7382.463276680876
 30
0.0
  0
POINT
  5
2CAAB
330
2C5CD
100
AcDbEntity
  8
DEFPOINTS
 62
     0
 48
50.0
100
AcDbPoint
 10
4066.6
 20
7382.463276680876
 30
0.0
  0
POINT
  5
2CAAC
330
2C5CD
100
AcDbEntity
  8
DEFPOINTS
 62
     0
 48
50.0
100
AcDbPoint
 10
4066.6
 20
8181.729734774783
 30
0.0
  0
ENDBLK
  5
2C5D8
330
2C5CD
100
AcDbEntity
  8
0
 48
50.0
100
AcDbBlockEnd
  0
BLOCK
  5
2C5E4
330
2C5D9
100
AcDbEntity
  8
0
 48
50.0
100
AcDbBlockBegin
  2
*D31
 70
     1
 10
0.0
 20
0.0
 30
0.0
  3
*D31
  1

  0
LINE
  5
2CADA
330
2C5D9
100
AcDbEntity
  8
寸法
 62
     0
 48
50.0
370
    -2
100
AcDbLine
 10
3923.6
 20
7455.463276680875
 30
0.0
 11
3260.665006330073
 21
7455.463276680875
 31
0.0
  0
LINE
  5
2CADB
330
2C5D9
100
AcDbEntity
  8
寸法
 62
     0
 48
50.0
370
    -2
100
AcDbLine
 10
3996.6
 20
7332.463276680876
 30
0.0
 11
3260.665006330073
 21
7332.463276680876
 31
0.0
  0
LINE
  5
2CADC
330
2C5D9
100
AcDbEntity
  8
寸法
 62
     0
 48
50.0
370
    -2
100
AcDbLine
 10
3320.665006330073
 20
7332.463276680876
 30
0.0
 11
3320.665006330073
 21
7455.463276680875
 31
0.0
  0
LINE
  5
2CADD
330
2C5D9
100
AcDbEntity
  8
寸法
 62
     0
 48
50.0
370
    -2
100
AcDbLine
 10
3320.665006330073
 20
7455.463276680875
 30
0.0
 11
3320.665006330073
 21
7867.055159772913
 31
0.0
  0
INSERT
  5
2CADE
330
2C5D9
100
AcDbEntity
  8
寸法
 62
     0
 48
50.0
370
    -2
100
AcDbBlockReference
  2
_DOTSMALL
 10
3320.665006330073
 20
7332.463276680876
 30
0.0
 41
100.0
 42
100.0
 43
100.0
 50
270.0
  0
INSERT
  5
2CADF
330
2C5D9
100
AcDbEntity
  8
寸法
 62
     0
 48
50.0
370
    -2
100
AcDbBlockReference
  2
_DOTSMALL
 10
3320.665006330073
 20
7455.463276680875
 30
0.0
 41
100.0
 42
100.0
 43
100.0
 50
90.0
  0
MTEXT
  5
2CAE0
330
2C5D9
100
AcDbEntity
  8
寸法
 62
     7
 48
50.0
100
AcDbMText
 10
3220.653195306449
 20
7728.569878398674
 30
0.0
 40
120.0
 41
0.0
 71
     5
 72
     1
  1
\A1;123
  7
STYLE1
 11
0.0000000000000001
 21
1.0
 31
0.0
 73
     1
 44
1.0
1001
ACAD
1000
MTEXTBEGIN
1070
    73
1070
     1
1070
    44
1040
1.0
1070
    74
1070
     0
1000
MTEXTEND
  0
POINT
  5
2CAE1
330
2C5D9
100
AcDbEntity
  8
DEFPOINTS
 62
     0
 48
50.0
100
AcDbPoint
 10
3943.600000000001
 20
7455.463276680875
 30
0.0
  0
POINT
  5
2CAE2
330
2C5D9
100
AcDbEntity
  8
DEFPOINTS
 62
     0
 48
50.0
100
AcDbPoint
 10
4016.6
 20
7332.463276680876
 30
0.0
  0
POINT
  5
2CAE3
330
2C5D9
100
AcDbEntity
  8
DEFPOINTS
 62
     0
 48
50.0
100
AcDbPoint
 10
3320.665006330073
 20
7332.463276680876
 30
0.0
  0
ENDBLK
  5
2C5E5
330
2C5D9
100
AcDbEntity
  8
0
 48
50.0
100
AcDbBlockEnd
  0
BLOCK
  5
2C608
330
2C5FD
100
AcDbEntity
  8
0
 48
50.0
100
AcDbBlockBegin
  2
*D32
 70
     1
 10
0.0
 20
0.0
 30
0.0
  3
*D32
  1

  0
LINE
  5
2CA9A
330
2C5FD
100
AcDbEntity
  8
寸法
 62
     0
 48
50.0
370
    -2
100
AcDbLine
 10
4066.6
 20
7402.463276680875
 30
0.0
 11
4066.6
 21
8241.729734774784
 31
0.0
  0
LINE
  5
2CA9B
330
2C5FD
100
AcDbEntity
  8
寸法
 62
     0
 48
50.0
370
    -2
100
AcDbLine
 10
3943.600000000001
 20
7475.463276680875
 30
0.0
 11
3943.600000000001
 21
8241.729734774784
 31
0.0
  0
LINE
  5
2CA9C
330
2C5FD
100
AcDbEntity
  8
寸法
 62
     0
 48
50.0
370
    -2
100
AcDbLine
 10
4066.6
 20
8181.729734774783
 30
0.0
 11
3943.600000000001
 21
8181.729734774783
 31
0.0
  0
LINE
  5
2CA9D
330
2C5FD
100
AcDbEntity
  8
寸法
 62
     0
 48
50.0
370
    -2
100
AcDbLine
 10
3943.600000000001
 20
8181.729734774783
 30
0.0
 11
3532.008116907964
 21
8181.729734774783
 31
0.0
  0
INSERT
  5
2CA9E
330
2C5FD
100
AcDbEntity
  8
寸法
 62
     0
 48
50.0
370
    -2
100
AcDbBlockReference
  2
_DOTSMALL
 10
4066.6
 20
8181.729734774783
 30
0.0
 41
100.0
 42
100.0
 43
100.0
  0
INSERT
  5
2CA9F
330
2C5FD
100
AcDbEntity
  8
寸法
 62
     0
 48
50.0
370
    -2
100
AcDbBlockReference
  2
_DOTSMALL
 10
3943.600000000001
 20
8181.729734774783
 30
0.0
 41
100.0
 42
100.0
 43
100.0
 50
180.0
  0
MTEXT
  5
2CAA0
330
2C5FD
100
AcDbEntity
  8
寸法
 62
     7
 48
50.0
100
AcDbMText
 10
3670.493398282202
 20
8281.741545798407
 30
0.0
 40
120.0
 41
0.0
 71
     5
 72
     1
  1
\A1;123
  7
STYLE1
 73
     1
 44
1.0
1001
ACAD
1000
MTEXTBEGIN
1070
    73
1070
     1
1070
    44
1040
1.0
1070
    74
1070
     0
1000
MTEXTEND
  0
POINT
  5
2CAA1
330
2C5FD
100
AcDbEntity
  8
DEFPOINTS
 62
     0
 48
50.0
100
AcDbPoint
 10
4066.6
 20
7382.463276680876
 30
0.0
  0
POINT
  5
2CAA2
330
2C5FD
100
AcDbEntity
  8
DEFPOINTS
 62
     0
 48
50.0
100
AcDbPoint
 10
3943.600000000001
 20
7455.463276680875
 30
0.0
  0
POINT
  5
2CAA3
330
2C5FD
100
AcDbEntity
  8
DEFPOINTS
 62
     0
 48
50.0
100
AcDbPoint
 10
3943.600000000001
 20
8181.729734774783
 30
0.0
  0
ENDBLK
  5
2C609
330
2C5FD
100
AcDbEntity
  8
0
 48
50.0
100
AcDbBlockEnd
  0
BLOCK
  5
2C621
330
2C617
100
AcDbEntity
  8
0
 48
50.0
100
AcDbBlockBegin
  2
*D33
 70
     1
 10
0.0
 20
0.0
 30
0.0
  3
*D33
  1

  0
LINE
  5
2D289
330
2C617
100
AcDbEntity
  8
寸法
 62
     0
 48
50.0
370
    -2
100
AcDbLine
 10
11548.60000000001
 20
6872.463276680874
 30
0.0
 11
11548.60000000001
 21
7998.072093351122
 31
0.0
  0
LINE
  5
2D28A
330
2C617
100
AcDbEntity
  8
寸法
 62
     0
 48
50.0
370
    -2
100
AcDbLine
 10
10598.60000000001
 20
6872.463276680874
 30
0.0
 11
10598.60000000001
 21
7998.072093351122
 31
0.0
  0
LINE
  5
2D28B
330
2C617
100
AcDbEntity
  8
寸法
 62
     0
 48
50.0
370
    -2
100
AcDbLine
 10
11548.60000000001
 20
7938.072093351123
 30
0.0
 11
10598.60000000001
 21
7938.072093351123
 31
0.0
  0
INSERT
  5
2D28C
330
2C617
100
AcDbEntity
  8
寸法
 62
     0
 48
50.0
370
    -2
100
AcDbBlockReference
  2
_DOTSMALL
 10
11548.60000000001
 20
7938.072093351123
 30
0.0
 41
100.0
 42
100.0
 43
100.0
  0
INSERT
  5
2D28D
330
2C617
100
AcDbEntity
  8
寸法
 62
     0
 48
50.0
370
    -2
100
AcDbBlockReference
  2
_DOTSMALL
 10
10598.60000000001
 20
7938.072093351123
 30
0.0
 41
100.0
 42
100.0
 43
100.0
 50
180.0
  0
MTEXT
  5
2D28E
330
2C617
100
AcDbEntity
  8
寸法
 62
     7
 48
50.0
100
AcDbMText
 10
11073.60000000001
 20
8038.072093351123
 30
0.0
 40
120.0
 41
0.0
 71
     5
 72
     1
  1
\A1;950
  7
STYLE1
 73
     1
 44
1.0
1001
ACAD
1000
MTEXTBEGIN
1070
    73
1070
     1
1070
    44
1040
1.0
1070
    74
1070
     0
1000
MTEXTEND
  0
POINT
  5
2D28F
330
2C617
100
AcDbEntity
  8
DEFPOINTS
 62
     0
 48
50.0
100
AcDbPoint
 10
11548.60000000001
 20
6852.463276680873
 30
0.0
  0
POINT
  5
2D290
330
2C617
100
AcDbEntity
  8
DEFPOINTS
 62
     0
 48
50.0
100
AcDbPoint
 10
10598.60000000001
 20
6852.463276680873
 30
0.0
  0
POINT
  5
2D291
330
2C617
100
AcDbEntity
  8
DEFPOINTS
 62
     0
 48
50.0
100
AcDbPoint
 10
10598.60000000001
 20
7938.072093351123
 30
0.0
  0
ENDBLK
  5
2C622
330
2C617
100
AcDbEntity
  8
0
 48
50.0
100
AcDbBlockEnd
  0
BLOCK
  5
2C62D
330
2C623
100
AcDbEntity
  8
0
 48
50.0
100
AcDbBlockBegin
  2
*D34
 70
     1
 10
0.0
 20
0.0
 30
0.0
  3
*D34
  1

  0
LINE
  5
2D280
330
2C623
100
AcDbEntity
  8
寸法
 62
     0
 48
50.0
370
    -2
100
AcDbLine
 10
10598.60000000001
 20
6872.463276680874
 30
0.0
 11
10598.60000000001
 21
7998.072093351122
 31
0.0
  0
LINE
  5
2D281
330
2C623
100
AcDbEntity
  8
寸法
 62
     0
 48
50.0
370
    -2
100
AcDbLine
 10
9648.600000000008
 20
6872.463276680874
 30
0.0
 11
9648.600000000008
 21
7998.072093351122
 31
0.0
  0
LINE
  5
2D282
330
2C623
100
AcDbEntity
  8
寸法
 62
     0
 48
50.0
370
    -2
100
AcDbLine
 10
10598.60000000001
 20
7938.072093351123
 30
0.0
 11
9648.600000000008
 21
7938.072093351123
 31
0.0
  0
INSERT
  5
2D283
330
2C623
100
AcDbEntity
  8
寸法
 62
     0
 48
50.0
370
    -2
100
AcDbBlockReference
  2
_DOTSMALL
 10
10598.60000000001
 20
7938.072093351123
 30
0.0
 41
100.0
 42
100.0
 43
100.0
  0
INSERT
  5
2D284
330
2C623
100
AcDbEntity
  8
寸法
 62
     0
 48
50.0
370
    -2
100
AcDbBlockReference
  2
_DOTSMALL
 10
9648.600000000008
 20
7938.072093351123
 30
0.0
 41
100.0
 42
100.0
 43
100.0
 50
180.0
  0
MTEXT
  5
2D285
330
2C623
100
AcDbEntity
  8
寸法
 62
     7
 48
50.0
100
AcDbMText
 10
10123.60000000001
 20
8038.072093351123
 30
0.0
 40
120.0
 41
0.0
 71
     5
 72
     1
  1
\A1;950
  7
STYLE1
 73
     1
 44
1.0
1001
ACAD
1000
MTEXTBEGIN
1070
    73
1070
     1
1070
    44
1040
1.0
1070
    74
1070
     0
1000
MTEXTEND
  0
POINT
  5
2D286
330
2C623
100
AcDbEntity
  8
DEFPOINTS
 62
     0
 48
50.0
100
AcDbPoint
 10
10598.60000000001
 20
6852.463276680873
 30
0.0
  0
POINT
  5
2D287
330
2C623
100
AcDbEntity
  8
DEFPOINTS
 62
     0
 48
50.0
100
AcDbPoint
 10
9648.600000000008
 20
6852.463276680873
 30
0.0
  0
POINT
  5
2D288
330
2C623
100
AcDbEntity
  8
DEFPOINTS
 62
     0
 48
50.0
100
AcDbPoint
 10
9648.600000000008
 20
7938.072093351123
 30
0.0
  0
ENDBLK
  5
2C62E
330
2C623
100
AcDbEntity
  8
0
 48
50.0
100
AcDbBlockEnd
  0
BLOCK
  5
2C639
330
2C62F
100
AcDbEntity
  8
0
 48
50.0
100
AcDbBlockBegin
  2
*D35
 70
     1
 10
0.0
 20
0.0
 30
0.0
  3
*D35
  1

  0
LINE
  5
2D277
330
2C62F
100
AcDbEntity
  8
寸法
 62
     0
 48
50.0
370
    -2
100
AcDbLine
 10
12503.6
 20
7475.463276680875
 30
0.0
 11
12503.6
 21
7998.072093351122
 31
0.0
  0
LINE
  5
2D278
330
2C62F
100
AcDbEntity
  8
寸法
 62
     0
 48
50.0
370
    -2
100
AcDbLine
 10
11548.60000000001
 20
6872.463276680874
 30
0.0
 11
11548.60000000001
 21
7998.072093351122
 31
0.0
  0
LINE
  5
2D279
330
2C62F
100
AcDbEntity
  8
寸法
 62
     0
 48
50.0
370
    -2
100
AcDbLine
 10
12503.6
 20
7938.072093351123
 30
0.0
 11
11548.60000000001
 21
7938.072093351123
 31
0.0
  0
INSERT
  5
2D27A
330
2C62F
100
AcDbEntity
  8
寸法
 62
     0
 48
50.0
370
    -2
100
AcDbBlockReference
  2
_DOTSMALL
 10
12503.6
 20
7938.072093351123
 30
0.0
 41
100.0
 42
100.0
 43
100.0
  0
INSERT
  5
2D27B
330
2C62F
100
AcDbEntity
  8
寸法
 62
     0
 48
50.0
370
    -2
100
AcDbBlockReference
  2
_DOTSMALL
 10
11548.60000000001
 20
7938.072093351123
 30
0.0
 41
100.0
 42
100.0
 43
100.0
 50
180.0
  0
MTEXT
  5
2D27C
330
2C62F
100
AcDbEntity
  8
寸法
 62
     7
 48
50.0
100
AcDbMText
 10
12026.1
 20
8038.072093351123
 30
0.0
 40
120.0
 41
0.0
 71
     5
 72
     1
  1
\A1;955
  7
STYLE1
 73
     1
 44
1.0
1001
ACAD
1000
MTEXTBEGIN
1070
    73
1070
     1
1070
    44
1040
1.0
1070
    74
1070
     0
1000
MTEXTEND
  0
POINT
  5
2D27D
330
2C62F
100
AcDbEntity
  8
DEFPOINTS
 62
     0
 48
50.0
100
AcDbPoint
 10
12503.6
 20
7455.463276680875
 30
0.0
  0
POINT
  5
2D27E
330
2C62F
100
AcDbEntity
  8
DEFPOINTS
 62
     0
 48
50.0
100
AcDbPoint
 10
11548.60000000001
 20
6852.463276680873
 30
0.0
  0
POINT
  5
2D27F
330
2C62F
100
AcDbEntity
  8
DEFPOINTS
 62
     0
 48
50.0
100
AcDbPoint
 10
11548.60000000001
 20
7938.072093351123
 30
0.0
  0
ENDBLK
  5
2C63A
330
2C62F
100
AcDbEntity
  8
0
 48
50.0
100
AcDbBlockEnd
  0
BLOCK
  5
2C645
330
2C63B
100
AcDbEntity
  8
0
 48
50.0
100
AcDbBlockBegin
  2
*D36
 70
     1
 10
0.0
 20
0.0
 30
0.0
  3
*D36
  1

  0
LINE
  5
2D26E
330
2C63B
100
AcDbEntity
  8
寸法
 62
     0
 48
50.0
370
    -2
100
AcDbLine
 10
9648.600000000008
 20
6872.463276680874
 30
0.0
 11
9648.600000000008
 21
7998.072093351122
 31
0.0
  0
LINE
  5
2D26F
330
2C63B
100
AcDbEntity
  8
寸法
 62
     0
 48
50.0
370
    -2
100
AcDbLine
 10
8698.600000000007
 20
6872.463276680874
 30
0.0
 11
8698.600000000007
 21
7998.072093351122
 31
0.0
  0
LINE
  5
2D270
330
2C63B
100
AcDbEntity
  8
寸法
 62
     0
 48
50.0
370
    -2
100
AcDbLine
 10
9648.600000000008
 20
7938.072093351123
 30
0.0
 11
8698.600000000007
 21
7938.072093351123
 31
0.0
  0
INSERT
  5
2D271
330
2C63B
100
AcDbEntity
  8
寸法
 62
     0
 48
50.0
370
    -2
100
AcDbBlockReference
  2
_DOTSMALL
 10
9648.600000000008
 20
7938.072093351123
 30
0.0
 41
100.0
 42
100.0
 43
100.0
  0
INSERT
  5
2D272
330
2C63B
100
AcDbEntity
  8
寸法
 62
     0
 48
50.0
370
    -2
100
AcDbBlockReference
  2
_DOTSMALL
 10
8698.600000000007
 20
7938.072093351123
 30
0.0
 41
100.0
 42
100.0
 43
100.0
 50
180.0
  0
MTEXT
  5
2D273
330
2C63B
100
AcDbEntity
  8
寸法
 62
     7
 48
50.0
100
AcDbMText
 10
9173.600000000007
 20
8038.072093351123
 30
0.0
 40
120.0
 41
0.0
 71
     5
 72
     1
  1
\A1;950
  7
STYLE1
 73
     1
 44
1.0
1001
ACAD
1000
MTEXTBEGIN
1070
    73
1070
     1
1070
    44
1040
1.0
1070
    74
1070
     0
1000
MTEXTEND
  0
POINT
  5
2D274
330
2C63B
100
AcDbEntity
  8
DEFPOINTS
 62
     0
 48
50.0
100
AcDbPoint
 10
9648.600000000008
 20
6852.463276680873
 30
0.0
  0
POINT
  5
2D275
330
2C63B
100
AcDbEntity
  8
DEFPOINTS
 62
     0
 48
50.0
100
AcDbPoint
 10
8698.600000000007
 20
6852.463276680873
 30
0.0
  0
POINT
  5
2D276
330
2C63B
100
AcDbEntity
  8
DEFPOINTS
 62
     0
 48
50.0
100
AcDbPoint
 10
8698.600000000007
 20
7938.072093351123
 30
0.0
  0
ENDBLK
  5
2C646
330
2C63B
100
AcDbEntity
  8
0
 48
50.0
100
AcDbBlockEnd
  0
BLOCK
  5
2C651
330
2C647
100
AcDbEntity
  8
0
 48
50.0
100
AcDbBlockBegin
  2
*D37
 70
     1
 10
0.0
 20
0.0
 30
0.0
  3
*D37
  1

  0
LINE
  5
2CA6D
330
2C647
100
AcDbEntity
  8
寸法
 62
     0
 48
50.0
370
    -2
100
AcDbLine
 10
12380.6
 20
7402.463276680875
 30
0.0
 11
12380.6
 21
8241.729734774784
 31
0.0
  0
LINE
  5
2CA6E
330
2C647
100
AcDbEntity
  8
寸法
 62
     0
 48
50.0
370
    -2
100
AcDbLine
 10
9530.600000000001
 20
7402.463276680875
 30
0.0
 11
9530.600000000001
 21
8241.729734774784
 31
0.0
  0
LINE
  5
2CA6F
330
2C647
100
AcDbEntity
  8
寸法
 62
     0
 48
50.0
370
    -2
100
AcDbLine
 10
12380.6
 20
8181.729734774783
 30
0.0
 11
9530.600000000001
 21
8181.729734774783
 31
0.0
  0
INSERT
  5
2CA70
330
2C647
100
AcDbEntity
  8
寸法
 62
     0
 48
50.0
370
    -2
100
AcDbBlockReference
  2
_DOTSMALL
 10
12380.6
 20
8181.729734774783
 30
0.0
 41
100.0
 42
100.0
 43
100.0
  0
INSERT
  5
2CA71
330
2C647
100
AcDbEntity
  8
寸法
 62
     0
 48
50.0
370
    -2
100
AcDbBlockReference
  2
_DOTSMALL
 10
9530.600000000001
 20
8181.729734774783
 30
0.0
 41
100.0
 42
100.0
 43
100.0
 50
180.0
  0
MTEXT
  5
2CA72
330
2C647
100
AcDbEntity
  8
寸法
 62
     7
 48
50.0
100
AcDbMText
 10
10955.6
 20
8281.741545798407
 30
0.0
 40
120.0
 41
0.0
 71
     5
 72
     1
  1
\A1;2850
  7
STYLE1
 73
     1
 44
1.0
1001
ACAD
1000
MTEXTBEGIN
1070
    73
1070
     1
1070
    44
1040
1.0
1070
    74
1070
     0
1000
MTEXTEND
  0
POINT
  5
2CA73
330
2C647
100
AcDbEntity
  8
DEFPOINTS
 62
     0
 48
50.0
100
AcDbPoint
 10
12380.6
 20
7382.463276680876
 30
0.0
  0
POINT
  5
2CA74
330
2C647
100
AcDbEntity
  8
DEFPOINTS
 62
     0
 48
50.0
100
AcDbPoint
 10
9530.600000000001
 20
7382.463276680876
 30
0.0
  0
POINT
  5
2CA75
330
2C647
100
AcDbEntity
  8
DEFPOINTS
 62
     0
 48
50.0
100
AcDbPoint
 10
9530.600000000001
 20
8181.729734774783
 30
0.0
  0
ENDBLK
  5
2C652
330
2C647
100
AcDbEntity
  8
0
 48
50.0
100
AcDbBlockEnd
  0
BLOCK
  5
2C65E
330
2C653
100
AcDbEntity
  8
0
 48
50.0
100
AcDbBlockBegin
  2
*D38
 70
     1
 10
0.0
 20
0.0
 30
0.0
  3
*D38
  1

  0
LINE
  5
2CA63
330
2C653
100
AcDbEntity
  8
寸法
 62
     0
 48
50.0
370
    -2
100
AcDbLine
 10
12503.6
 20
7475.463276680875
 30
0.0
 11
12503.6
 21
8241.729734774784
 31
0.0
  0
LINE
  5
2CA64
330
2C653
100
AcDbEntity
  8
寸法
 62
     0
 48
50.0
370
    -2
100
AcDbLine
 10
12380.6
 20
7402.463276680875
 30
0.0
 11
12380.6
 21
8241.729734774784
 31
0.0
  0
LINE
  5
2CA65
330
2C653
100
AcDbEntity
  8
寸法
 62
     0
 48
50.0
370
    -2
100
AcDbLine
 10
12380.6
 20
8181.729734774783
 30
0.0
 11
12503.6
 21
8181.729734774783
 31
0.0
  0
LINE
  5
2CA66
330
2C653
100
AcDbEntity
  8
寸法
 62
     0
 48
50.0
370
    -2
100
AcDbLine
 10
12503.6
 20
8181.729734774783
 30
0.0
 11
12915.19188309203
 21
8181.729734774783
 31
0.0
  0
INSERT
  5
2CA67
330
2C653
100
AcDbEntity
  8
寸法
 62
     0
 48
50.0
370
    -2
100
AcDbBlockReference
  2
_DOTSMALL
 10
12380.6
 20
8181.729734774783
 30
0.0
 41
100.0
 42
100.0
 43
100.0
 50
180.0
  0
INSERT
  5
2CA68
330
2C653
100
AcDbEntity
  8
寸法
 62
     0
 48
50.0
370
    -2
100
AcDbBlockReference
  2
_DOTSMALL
 10
12503.6
 20
8181.729734774783
 30
0.0
 41
100.0
 42
100.0
 43
100.0
  0
MTEXT
  5
2CA69
330
2C653
100
AcDbEntity
  8
寸法
 62
     7
 48
50.0
100
AcDbMText
 10
12776.7066017178
 20
8281.741545798407
 30
0.0
 40
120.0
 41
0.0
 71
     5
 72
     1
  1
\A1;123
  7
STYLE1
 73
     1
 44
1.0
1001
ACAD
1000
MTEXTBEGIN
1070
    73
1070
     1
1070
    44
1040
1.0
1070
    74
1070
     0
1000
MTEXTEND
  0
POINT
  5
2CA6A
330
2C653
100
AcDbEntity
  8
DEFPOINTS
 62
     0
 48
50.0
100
AcDbPoint
 10
12503.6
 20
7455.463276680875
 30
0.0
  0
POINT
  5
2CA6B
330
2C653
100
AcDbEntity
  8
DEFPOINTS
 62
     0
 48
50.0
100
AcDbPoint
 10
12380.6
 20
7382.463276680876
 30
0.0
  0
POINT
  5
2CA6C
330
2C653
100
AcDbEntity
  8
DEFPOINTS
 62
     0
 48
50.0
100
AcDbPoint
 10
12380.6
 20
8181.729734774783
 30
0.0
  0
ENDBLK
  5
2C65F
330
2C653
100
AcDbEntity
  8
0
 48
50.0
100
AcDbBlockEnd
  0
BLOCK
  5
2CFDF
330
2CFD4
100
AcDbEntity
  8
0
 48
50.0
100
AcDbBlockBegin
  2
*D39
 70
     1
 10
0.0
 20
0.0
 30
0.0
  3
*D39
  1

  0
LINE
  5
2D2DD
330
2CFD4
100
AcDbEntity
  8
寸法
 62
     0
 48
50.0
370
    -2
100
AcDbLine
 10
12503.6
 20
6910.463276680911
 30
0.0
 11
12503.6
 21
7065.061889778984
 31
0.0
  0
LINE
  5
2D2DE
330
2CFD4
100
AcDbEntity
  8
寸法
 62
     0
 48
50.0
370
    -2
100
AcDbLine
 10
12383.6
 20
6910.463276680926
 30
0.0
 11
12383.6
 21
7065.061889778984
 31
0.0
  0
LINE
  5
2D2DF
330
2CFD4
100
AcDbEntity
  8
寸法
 62
     0
 48
50.0
370
    -2
100
AcDbLine
 10
12383.6
 20
7005.061889778985
 30
0.0
 11
12503.6
 21
7005.061889778985
 31
0.0
  0
LINE
  5
2D2E0
330
2CFD4
100
AcDbEntity
  8
寸法
 62
     0
 48
50.0
370
    -2
100
AcDbLine
 10
12503.6
 20
7005.061889778985
 30
0.0
 11
12909.7062992126
 21
7005.061889778985
 31
0.0
  0
INSERT
  5
2D2E1
330
2CFD4
100
AcDbEntity
  8
寸法
 62
     0
 48
50.0
370
    -2
100
AcDbBlockReference
  2
_DOTSMALL
 10
12383.6
 20
7005.061889778985
 30
0.0
 41
100.0
 42
100.0
 43
100.0
 50
180.0
  0
INSERT
  5
2D2E2
330
2CFD4
100
AcDbEntity
  8
寸法
 62
     0
 48
50.0
370
    -2
100
AcDbBlockReference
  2
_DOTSMALL
 10
12503.6
 20
7005.061889778985
 30
0.0
 41
100.0
 42
100.0
 43
100.0
  0
MTEXT
  5
2D2E3
330
2CFD4
100
AcDbEntity
  8
寸法
 62
     7
 48
50.0
100
AcDbMText
 10
12773.65905511811
 20
7105.073700802606
 30
0.0
 40
120.0
 41
0.0
 71
     5
 72
     1
  1
\A1;120
  7
STYLE1
 73
     1
 44
1.0
1001
ACAD
1000
MTEXTBEGIN
1070
    73
1070
     1
1070
    44
1040
1.0
1070
    74
1070
     0
1000
MTEXTEND
  0
POINT
  5
2D2E4
330
2CFD4
100
AcDbEntity
  8
DEFPOINTS
 62
     0
 48
50.0
100
AcDbPoint
 10
12503.6
 20
6890.46327668091
 30
0.0
  0
POINT
  5
2D2E5
330
2CFD4
100
AcDbEntity
  8
DEFPOINTS
 62
     0
 48
50.0
100
AcDbPoint
 10
12383.6
 20
6890.463276680927
 30
0.0
  0
POINT
  5
2D2E6
330
2CFD4
100
AcDbEntity
  8
DEFPOINTS
 62
     0
 48
50.0
100
AcDbPoint
 10
12383.6
 20
7005.061889778985
 30
0.0
  0
ENDBLK
  5
2CFE0
330
2CFD4
100
AcDbEntity
  8
0
 48
50.0
100
AcDbBlockEnd
  0
BLOCK
  5
2CFEC
330
2CFE1
100
AcDbEntity
  8
0
 48
50.0
100
AcDbBlockBegin
  2
*D40
 70
     1
 10
0.0
 20
0.0
 30
0.0
  3
*D40
  1

  0
LINE
  5
2D161
330
2CFE1
100
AcDbEntity
  8
寸法
 62
     0
 48
50.0
370
    -2
100
AcDbLine
 10
11903.6
 20
7455.463276680861
 30
0.0
 11
11762.81202022566
 21
7455.463276680861
 31
0.0
  0
LINE
  5
2D162
330
2CFE1
100
AcDbEntity
  8
寸法
 62
     0
 48
50.0
370
    -2
100
AcDbLine
 10
11903.6
 20
7255.463276680875
 30
0.0
 11
11762.81202022566
 21
7255.463276680875
 31
0.0
  0
LINE
  5
2D163
330
2CFE1
100
AcDbEntity
  8
寸法
 62
     0
 48
50.0
370
    -2
100
AcDbLine
 10
11822.81202022566
 20
7255.463276680875
 30
0.0
 11
11822.81202022566
 21
7455.463276680861
 31
0.0
  0
LINE
  5
2D164
330
2CFE1
100
AcDbEntity
  8
寸法
 62
     0
 48
50.0
370
    -2
100
AcDbLine
 10
11822.81202022566
 20
7455.463276680861
 30
0.0
 11
11822.81202022566
 21
7891.997725499762
 31
0.0
  0
INSERT
  5
2D165
330
2CFE1
100
AcDbEntity
  8
寸法
 62
     0
 48
50.0
370
    -2
100
AcDbBlockReference
  2
_DOTSMALL
 10
11822.81202022566
 20
7255.463276680875
 30
0.0
 41
100.0
 42
100.0
 43
100.0
 50
270.0
  0
INSERT
  5
2D166
330
2CFE1
100
AcDbEntity
  8
寸法
 62
     0
 48
50.0
370
    -2
100
AcDbBlockReference
  2
_DOTSMALL
 10
11822.81202022566
 20
7455.463276680861
 30
0.0
 41
100.0
 42
100.0
 43
100.0
 50
90.0
  0
MTEXT
  5
2D167
330
2CFE1
100
AcDbEntity
  8
寸法
 62
     7
 48
50.0
100
AcDbMText
 10
11722.80020920203
 20
7742.42685935803
 30
0.0
 40
120.0
 41
0.0
 71
     5
 72
     1
  1
\A1;200
  7
STYLE1
 11
0.0000000000000001
 21
1.0
 31
0.0
 73
     1
 44
1.0
1001
ACAD
1000
MTEXTBEGIN
1070
    73
1070
     1
1070
    44
1040
1.0
1070
    74
1070
     0
1000
MTEXTEND
  0
POINT
  5
2D168
330
2CFE1
100
AcDbEntity
  8
DEFPOINTS
 62
     0
 48
50.0
100
AcDbPoint
 10
11923.6
 20
7455.463276680861
 30
0.0
  0
POINT
  5
2D169
330
2CFE1
100
AcDbEntity
  8
DEFPOINTS
 62
     0
 48
50.0
100
AcDbPoint
 10
11923.6
 20
7255.463276680875
 30
0.0
  0
POINT
  5
2D16A
330
2CFE1
100
AcDbEntity
  8
DEFPOINTS
 62
     0
 48
50.0
100
AcDbPoint
 10
11822.81202022566
 20
7255.463276680875
 30
0.0
  0
ENDBLK
  5
2CFED
330
2CFE1
100
AcDbEntity
  8
0
 48
50.0
100
AcDbBlockEnd
  0
BLOCK
  5
2CFF9
330
2CFEE
100
AcDbEntity
  8
0
 48
50.0
100
AcDbBlockBegin
  2
*D41
 70
     1
 10
0.0
 20
0.0
 30
0.0
  3
*D41
  1

  0
LINE
  5
2D250
330
2CFEE
100
AcDbEntity
  8
寸法
 62
     0
 48
50.0
370
    -2
100
AcDbLine
 10
11903.59999999999
 20
6355.463276680892
 30
0.0
 11
11762.81202022566
 21
6355.463276680892
 31
0.0
  0
LINE
  5
2D251
330
2CFEE
100
AcDbEntity
  8
寸法
 62
     0
 48
50.0
370
    -2
100
AcDbLine
 10
11903.6
 20
6075.463276680892
 30
0.0
 11
11762.81202022566
 21
6075.463276680892
 31
0.0
  0
LINE
  5
2D252
330
2CFEE
100
AcDbEntity
  8
寸法
 62
     0
 48
50.0
370
    -2
100
AcDbLine
 10
11822.81202022566
 20
6355.463276680892
 30
0.0
 11
11822.81202022566
 21
6075.463276680892
 31
0.0
  0
LINE
  5
2D253
330
2CFEE
100
AcDbEntity
  8
寸法
 62
     0
 48
50.0
370
    -2
100
AcDbLine
 10
11822.81202022566
 20
6075.463276680892
 30
0.0
 11
11822.81202022566
 21
5638.928827861985
 31
0.0
  0
INSERT
  5
2D254
330
2CFEE
100
AcDbEntity
  8
寸法
 62
     0
 48
50.0
370
    -2
100
AcDbBlockReference
  2
_DOTSMALL
 10
11822.81202022566
 20
6355.463276680892
 30
0.0
 41
100.0
 42
100.0
 43
100.0
 50
90.0
  0
INSERT
  5
2D255
330
2CFEE
100
AcDbEntity
  8
寸法
 62
     0
 48
50.0
370
    -2
100
AcDbBlockReference
  2
_DOTSMALL
 10
11822.81202022566
 20
6075.463276680892
 30
0.0
 41
100.0
 42
100.0
 43
100.0
 50
270.0
  0
MTEXT
  5
2D256
330
2CFEE
100
AcDbEntity
  8
寸法
 62
     7
 48
50.0
100
AcDbMText
 10
11722.80020920203
 20
5788.49969400372
 30
0.0
 40
120.0
 41
0.0
 71
     5
 72
     1
  1
\A1;280
  7
STYLE1
 11
0.0000000000000001
 21
1.0
 31
0.0
 73
     1
 44
1.0
1001
ACAD
1000
MTEXTBEGIN
1070
    73
1070
     1
1070
    44
1040
1.0
1070
    74
1070
     0
1000
MTEXTEND
  0
POINT
  5
2D257
330
2CFEE
100
AcDbEntity
  8
DEFPOINTS
 62
     0
 48
50.0
100
AcDbPoint
 10
11923.59999999999
 20
6355.463276680892
 30
0.0
  0
POINT
  5
2D258
330
2CFEE
100
AcDbEntity
  8
DEFPOINTS
 62
     0
 48
50.0
100
AcDbPoint
 10
11923.6
 20
6075.463276680892
 30
0.0
  0
POINT
  5
2D259
330
2CFEE
100
AcDbEntity
  8
DEFPOINTS
 62
     0
 48
50.0
100
AcDbPoint
 10
11822.81202022566
 20
6075.463276680892
 30
0.0
  0
ENDBLK
  5
2CFFA
330
2CFEE
100
AcDbEntity
  8
0
 48
50.0
100
AcDbBlockEnd
  0
BLOCK
  5
2D007
330
2CFFB
100
AcDbEntity
  8
0
 48
50.0
100
AcDbBlockBegin
  2
*D42
 70
     1
 10
0.0
 20
0.0
 30
0.0
  3
*D42
  1

  0
LINE
  5
2D18B
330
2CFFB
100
AcDbEntity
  8
寸法
 62
     0
 48
50.0
370
    -2
100
AcDbLine
 10
3923.6
 20
6075.463276680875
 30
0.0
 11
3008.72190961068
 21
6075.463276680875
 31
0.0
  0
LINE
  5
2D18C
330
2CFFB
100
AcDbEntity
  8
寸法
 62
     0
 48
50.0
370
    -2
100
AcDbLine
 10
3300.665006330079
 20
6020.463276680901
 30
0.0
 11
3008.72190961068
 21
6020.463276680901
 31
0.0
  0
LINE
  5
2D18D
330
2CFFB
100
AcDbEntity
  8
寸法
 62
     0
 48
50.0
370
    -2
100
AcDbLine
 10
3068.72190961068
 20
6075.463276680875
 30
0.0
 11
3068.72190961068
 21
6175.463276680876
 31
0.0
  0
LINE
  5
2D18E
330
2CFFB
100
AcDbEntity
  8
寸法
 62
     0
 48
50.0
370
    -2
100
AcDbLine
 10
3068.72190961068
 20
6020.463276680901
 30
0.0
 11
3068.72190961068
 21
5920.463276680901
 31
0.0
  0
LINE
  5
2D18F
330
2CFFB
100
AcDbEntity
  8
寸法
 62
     0
 48
50.0
370
    -2
100
AcDbLine
 10
3068.72190961068
 20
6075.463276680875
 30
0.0
 11
3068.72190961068
 21
6020.463276680901
 31
0.0
  0
INSERT
  5
2D190
330
2CFFB
100
AcDbEntity
  8
寸法
 62
     0
 48
50.0
370
    -2
100
AcDbBlockReference
  2
_DOTSMALL
 10
3068.72190961068
 20
6075.463276680875
 30
0.0
 41
100.0
 42
100.0
 43
100.0
 50
270.0
  0
INSERT
  5
2D191
330
2CFFB
100
AcDbEntity
  8
寸法
 62
     0
 48
50.0
370
    -2
100
AcDbBlockReference
  2
_DOTSMALL
 10
3068.72190961068
 20
6020.463276680901
 30
0.0
 41
100.0
 42
100.0
 43
100.0
 50
90.0
  0
MTEXT
  5
2D192
330
2CFFB
100
AcDbEntity
  8
寸法
 62
     7
 48
50.0
100
AcDbMText
 10
2968.721909610679
 20
6047.963276680889
 30
0.0
 40
120.0
 41
0.0
 71
     5
 72
     1
  1
\A1;b
  7
STYLE1
 11
0.0000000000000001
 21
1.0
 31
0.0
 73
     1
 44
1.0
1001
ACAD
1000
MTEXTBEGIN
1070
    73
1070
     1
1070
    44
1040
1.0
1070
    74
1070
     0
1000
MTEXTEND
  0
POINT
  5
2D193
330
2CFFB
100
AcDbEntity
  8
DEFPOINTS
 62
     0
 48
50.0
100
AcDbPoint
 10
3943.600000000001
 20
6075.463276680875
 30
0.0
  0
POINT
  5
2D194
330
2CFFB
100
AcDbEntity
  8
DEFPOINTS
 62
     0
 48
50.0
100
AcDbPoint
 10
3320.665006330079
 20
6020.463276680901
 30
0.0
  0
POINT
  5
2D195
330
2CFFB
100
AcDbEntity
  8
DEFPOINTS
 62
     0
 48
50.0
100
AcDbPoint
 10
3068.72190961068
 20
6020.463276680901
 30
0.0
  0
ENDBLK
  5
2D008
330
2CFFB
100
AcDbEntity
  8
0
 48
50.0
100
AcDbBlockEnd
  0
BLOCK
  5
2D015
330
2D009
100
AcDbEntity
  8
0
 48
50.0
100
AcDbBlockBegin
  2
*D43
 70
     1
 10
0.0
 20
0.0
 30
0.0
  3
*D43
  1

  0
LINE
  5
2D180
330
2D009
100
AcDbEntity
  8
寸法
 62
     0
 48
50.0
370
    -2
100
AcDbLine
 10
3300.665006330071
 20
7530.463276680882
 30
0.0
 11
3008.72190961068
 21
7530.463276680882
 31
0.0
  0
LINE
  5
2D181
330
2D009
100
AcDbEntity
  8
寸法
 62
     0
 48
50.0
370
    -2
100
AcDbLine
 10
3923.6
 20
7455.463276680875
 30
0.0
 11
3008.72190961068
 21
7455.463276680875
 31
0.0
  0
LINE
  5
2D182
330
2D009
100
AcDbEntity
  8
寸法
 62
     0
 48
50.0
370
    -2
100
AcDbLine
 10
3068.72190961068
 20
7530.463276680882
 30
0.0
 11
3068.72190961068
 21
7630.463276680882
 31
0.0
  0
LINE
  5
2D183
330
2D009
100
AcDbEntity
  8
寸法
 62
     0
 48
50.0
370
    -2
100
AcDbLine
 10
3068.72190961068
 20
7455.463276680875
 30
0.0
 11
3068.72190961068
 21
7355.463276680875
 31
0.0
  0
LINE
  5
2D184
330
2D009
100
AcDbEntity
  8
寸法
 62
     0
 48
50.0
370
    -2
100
AcDbLine
 10
3068.72190961068
 20
7530.463276680882
 30
0.0
 11
3068.72190961068
 21
7455.463276680875
 31
0.0
  0
INSERT
  5
2D185
330
2D009
100
AcDbEntity
  8
寸法
 62
     0
 48
50.0
370
    -2
100
AcDbBlockReference
  2
_DOTSMALL
 10
3068.72190961068
 20
7530.463276680882
 30
0.0
 41
100.0
 42
100.0
 43
100.0
 50
270.0
  0
INSERT
  5
2D186
330
2D009
100
AcDbEntity
  8
寸法
 62
     0
 48
50.0
370
    -2
100
AcDbBlockReference
  2
_DOTSMALL
 10
3068.72190961068
 20
7455.463276680875
 30
0.0
 41
100.0
 42
100.0
 43
100.0
 50
90.0
  0
MTEXT
  5
2D187
330
2D009
100
AcDbEntity
  8
寸法
 62
     7
 48
50.0
100
AcDbMText
 10
2968.721909610679
 20
7492.963276680881
 30
0.0
 40
120.0
 41
0.0
 71
     5
 72
     1
  1
\A1;c
  7
STYLE1
 11
0.0000000000000001
 21
1.0
 31
0.0
 73
     1
 44
1.0
1001
ACAD
1000
MTEXTBEGIN
1070
    73
1070
     1
1070
    44
1040
1.0
1070
    74
1070
     0
1000
MTEXTEND
  0
POINT
  5
2D188
330
2D009
100
AcDbEntity
  8
DEFPOINTS
 62
     0
 48
50.0
100
AcDbPoint
 10
3320.665006330071
 20
7530.463276680882
 30
0.0
  0
POINT
  5
2D189
330
2D009
100
AcDbEntity
  8
DEFPOINTS
 62
     0
 48
50.0
100
AcDbPoint
 10
3943.600000000001
 20
7455.463276680875
 30
0.0
  0
POINT
  5
2D18A
330
2D009
100
AcDbEntity
  8
DEFPOINTS
 62
     0
 48
50.0
100
AcDbPoint
 10
3068.72190961068
 20
7455.463276680875
 30
0.0
  0
ENDBLK
  5
2D016
330
2D009
100
AcDbEntity
  8
0
 48
50.0
100
AcDbBlockEnd
  0
BLOCK
  5
2D023
330
2D017
100
AcDbEntity
  8
0
 48
50.0
100
AcDbBlockBegin
  2
*D44
 70
     1
 10
0.0
 20
0.0
 30
0.0
  3
*D44
  1

  0
LINE
  5
2D175
330
2D017
100
AcDbEntity
  8
寸法
 62
     0
 48
50.0
370
    -2
100
AcDbLine
 10
3898.600000000008
 20
8201.729734774788
 30
0.0
 11
3898.600000000008
 21
8473.683598739796
 31
0.0
  0
LINE
  5
2D176
330
2D017
100
AcDbEntity
  8
寸法
 62
     0
 48
50.0
370
    -2
100
AcDbLine
 10
3943.600000000001
 20
7475.463276680875
 30
0.0
 11
3943.600000000001
 21
8473.683598739796
 31
0.0
  0
LINE
  5
2D177
330
2D017
100
AcDbEntity
  8
寸法
 62
     0
 48
50.0
370
    -2
100
AcDbLine
 10
3943.600000000001
 20
8413.683598739797
 30
0.0
 11
4043.6
 21
8413.683598739797
 31
0.0
  0
LINE
  5
2D178
330
2D017
100
AcDbEntity
  8
寸法
 62
     0
 48
50.0
370
    -2
100
AcDbLine
 10
3898.600000000008
 20
8413.683598739797
 30
0.0
 11
3561.250757595082
 21
8413.683598739797
 31
0.0
  0
LINE
  5
2D179
330
2D017
100
AcDbEntity
  8
寸法
 62
     0
 48
50.0
370
    -2
100
AcDbLine
 10
3943.600000000001
 20
8413.683598739797
 30
0.0
 11
3898.600000000008
 21
8413.683598739797
 31
0.0
  0
INSERT
  5
2D17A
330
2D017
100
AcDbEntity
  8
寸法
 62
     0
 48
50.0
370
    -2
100
AcDbBlockReference
  2
_DOTSMALL
 10
3943.600000000001
 20
8413.683598739797
 30
0.0
 41
100.0
 42
100.0
 43
100.0
 50
180.0
  0
INSERT
  5
2D17B
330
2D017
100
AcDbEntity
  8
寸法
 62
     0
 48
50.0
370
    -2
100
AcDbBlockReference
  2
_DOTSMALL
 10
3898.600000000008
 20
8413.683598739797
 30
0.0
 41
100.0
 42
100.0
 43
100.0
  0
MTEXT
  5
2D17C
330
2D017
100
AcDbEntity
  8
寸法
 62
     7
 48
50.0
100
AcDbMText
 10
3627.425378797541
 20
8513.683598739797
 30
0.0
 40
120.0
 41
0.0
 71
     5
 72
     1
  1
\A1;a
  7
STYLE1
 73
     1
 44
1.0
1001
ACAD
1000
MTEXTBEGIN
1070
    73
1070
     1
1070
    44
1040
1.0
1070
    74
1070
     0
1000
MTEXTEND
  0
POINT
  5
2D17D
330
2D017
100
AcDbEntity
  8
DEFPOINTS
 62
     0
 48
50.0
100
AcDbPoint
 10
3898.600000000008
 20
8181.729734774789
 30
0.0
  0
POINT
  5
2D17E
330
2D017
100
AcDbEntity
  8
DEFPOINTS
 62
     0
 48
50.0
100
AcDbPoint
 10
3943.600000000001
 20
7455.463276680875
 30
0.0
  0
POINT
  5
2D17F
330
2D017
100
AcDbEntity
  8
DEFPOINTS
 62
     0
 48
50.0
100
AcDbPoint
 10
3943.600000000001
 20
8413.683598739797
 30
0.0
  0
ENDBLK
  5
2D024
330
2D017
100
AcDbEntity
  8
0
 48
50.0
100
AcDbBlockEnd
  0
BLOCK
  5
2D031
330
2D025
100
AcDbEntity
  8
0
 48
50.0
100
AcDbBlockBegin
  2
*D45
 70
     1
 10
0.0
 20
0.0
 30
0.0
  3
*D45
  1

  0
LINE
  5
2D156
330
2D025
100
AcDbEntity
  8
寸法
 62
     0
 48
50.0
370
    -2
100
AcDbLine
 10
12503.6
 20
7475.463276680874
 30
0.0
 11
12503.6
 21
8473.683598739794
 31
0.0
  0
LINE
  5
2D157
330
2D025
100
AcDbEntity
  8
寸法
 62
     0
 48
50.0
370
    -2
100
AcDbLine
 10
12548.6
 20
8201.729734774785
 30
0.0
 11
12548.6
 21
8473.683598739794
 31
0.0
  0
LINE
  5
2D158
330
2D025
100
AcDbEntity
  8
寸法
 62
     0
 48
50.0
370
    -2
100
AcDbLine
 10
12503.6
 20
8413.683598739796
 30
0.0
 11
12403.6
 21
8413.683598739796
 31
0.0
  0
LINE
  5
2D159
330
2D025
100
AcDbEntity
  8
寸法
 62
     0
 48
50.0
370
    -2
100
AcDbLine
 10
12548.6
 20
8413.683598739796
 30
0.0
 11
12885.94924240492
 21
8413.683598739796
 31
0.0
  0
LINE
  5
2D15A
330
2D025
100
AcDbEntity
  8
寸法
 62
     0
 48
50.0
370
    -2
100
AcDbLine
 10
12503.6
 20
8413.683598739796
 30
0.0
 11
12548.6
 21
8413.683598739796
 31
0.0
  0
INSERT
  5
2D15B
330
2D025
100
AcDbEntity
  8
寸法
 62
     0
 48
50.0
370
    -2
100
AcDbBlockReference
  2
_DOTSMALL
 10
12503.6
 20
8413.683598739796
 30
0.0
 41
100.0
 42
100.0
 43
100.0
  0
INSERT
  5
2D15C
330
2D025
100
AcDbEntity
  8
寸法
 62
     0
 48
50.0
370
    -2
100
AcDbBlockReference
  2
_DOTSMALL
 10
12548.6
 20
8413.683598739796
 30
0.0
 41
100.0
 42
100.0
 43
100.0
 50
180.0
  0
MTEXT
  5
2D15D
330
2D025
100
AcDbEntity
  8
寸法
 62
     7
 48
50.0
100
AcDbMText
 10
12819.77462120246
 20
8513.683598739795
 30
0.0
 40
120.0
 41
0.0
 71
     5
 72
     1
  1
\A1;a
  7
STYLE1
 73
     1
 44
1.0
1001
ACAD
1000
MTEXTBEGIN
1070
    73
1070
     1
1070
    44
1040
1.0
1070
    74
1070
     0
1000
MTEXTEND
  0
POINT
  5
2D15E
330
2D025
100
AcDbEntity
  8
DEFPOINTS
 62
     0
 48
50.0
100
AcDbPoint
 10
12503.6
 20
7455.463276680873
 30
0.0
  0
POINT
  5
2D15F
330
2D025
100
AcDbEntity
  8
DEFPOINTS
 62
     0
 48
50.0
100
AcDbPoint
 10
12548.6
 20
8181.729734774783
 30
0.0
  0
POINT
  5
2D160
330
2D025
100
AcDbEntity
  8
DEFPOINTS
 62
     0
 48
50.0
100
AcDbPoint
 10
12548.6
 20
8413.683598739796
 30
0.0
  0
ENDBLK
  5
2D032
330
2D025
100
AcDbEntity
  8
0
 48
50.0
100
AcDbBlockEnd
  0
BLOCK
  5
2D5A9
330
2D59F
100
AcDbEntity
  8
0
 48
50.0
100
AcDbBlockBegin
  2
*D46
 70
     1
 10
0.0
 20
0.0
 30
0.0
  3
*D46
  1

  0
LINE
  5
2D5E9
330
2D59F
100
AcDbEntity
  8
寸法
 62
     0
 48
50.0
370
    -2
100
AcDbLine
 10
6585.630148960214
 20
1902.680909729022
 30
0.0
 11
6585.630148960214
 21
2362.348717645403
 31
0.0
  0
LINE
  5
2D5EA
330
2D59F
100
AcDbEntity
  8
寸法
 62
     0
 48
50.0
370
    -2
100
AcDbLine
 10
6393.630148960215
 20
1902.680909729022
 30
0.0
 11
6393.630148960215
 21
2362.348717645403
 31
0.0
  0
LINE
  5
2D5EB
330
2D59F
100
AcDbEntity
  8
寸法
 62
     0
 48
50.0
370
    -2
100
AcDbLine
 10
6585.630148960214
 20
2302.348717645403
 30
0.0
 11
6393.630148960215
 21
2302.348717645403
 31
0.0
  0
INSERT
  5
2D5EC
330
2D59F
100
AcDbEntity
  8
寸法
 62
     0
 48
50.0
370
    -2
100
AcDbBlockReference
  2
_DOTSMALL
 10
6585.630148960214
 20
2302.348717645403
 30
0.0
 41
100.0
 42
100.0
 43
100.0
  0
INSERT
  5
2D5ED
330
2D59F
100
AcDbEntity
  8
寸法
 62
     0
 48
50.0
370
    -2
100
AcDbBlockReference
  2
_DOTSMALL
 10
6393.630148960215
 20
2302.348717645403
 30
0.0
 41
100.0
 42
100.0
 43
100.0
 50
180.0
  0
MTEXT
  5
2D5EE
330
2D59F
100
AcDbEntity
  8
寸法
 62
     7
 48
50.0
100
AcDbMText
 10
6489.630148960215
 20
2602.384150716269
 30
0.0
 40
120.0
 41
0.0
 71
     5
 72
     1
  1
\A1;120\P200\P280
  7
STYLE1
 73
     1
 44
1.0
1001
ACAD
1000
MTEXTBEGIN
1070
    73
1070
     1
1070
    44
1040
1.0
1070
    74
1070
     0
1000
MTEXTEND
  0
POINT
  5
2D5EF
330
2D59F
100
AcDbEntity
  8
DEFPOINTS
 62
     0
 48
50.0
100
AcDbPoint
 10
6585.630148960214
 20
1882.680909729022
 30
0.0
  0
POINT
  5
2D5F0
330
2D59F
100
AcDbEntity
  8
DEFPOINTS
 62
     0
 48
50.0
100
AcDbPoint
 10
6393.630148960215
 20
1882.680909729022
 30
0.0
  0
POINT
  5
2D5F1
330
2D59F
100
AcDbEntity
  8
DEFPOINTS
 62
     0
 48
50.0
100
AcDbPoint
 10
6393.630148960215
 20
2302.348717645403
 30
0.0
  0
ENDBLK
  5
2D5AA
330
2D59F
100
AcDbEntity
  8
0
 48
50.0
100
AcDbBlockEnd
  0
BLOCK
  5
2D5B5
330
2D5AB
100
AcDbEntity
  8
0
 48
50.0
100
AcDbBlockBegin
  2
*D47
 70
     1
 10
0.0
 20
0.0
 30
0.0
  3
*D47
  1

  0
LINE
  5
2D5F2
330
2D5AB
100
AcDbEntity
  8
寸法
 62
     0
 48
50.0
370
    -2
100
AcDbLine
 10
6265.630148960215
 20
950.6809097290224
 30
0.0
 11
6265.630148960215
 21
500.2512717238623
 31
0.0
  0
LINE
  5
2D5F3
330
2D5AB
100
AcDbEntity
  8
寸法
 62
     0
 48
50.0
370
    -2
100
AcDbLine
 10
6713.630148960215
 20
950.6809097290224
 30
0.0
 11
6713.630148960215
 21
500.2512717238623
 31
0.0
  0
LINE
  5
2D5F4
330
2D5AB
100
AcDbEntity
  8
寸法
 62
     0
 48
50.0
370
    -2
100
AcDbLine
 10
6265.630148960215
 20
560.2512717238623
 30
0.0
 11
6713.630148960215
 21
560.2512717238623
 31
0.0
  0
INSERT
  5
2D5F5
330
2D5AB
100
AcDbEntity
  8
寸法
 62
     0
 48
50.0
370
    -2
100
AcDbBlockReference
  2
_DOTSMALL
 10
6265.630148960215
 20
560.2512717238623
 30
0.0
 41
100.0
 42
100.0
 43
100.0
 50
180.0
  0
INSERT
  5
2D5F6
330
2D5AB
100
AcDbEntity
  8
寸法
 62
     0
 48
50.0
370
    -2
100
AcDbBlockReference
  2
_DOTSMALL
 10
6713.630148960215
 20
560.2512717238623
 30
0.0
 41
100.0
 42
100.0
 43
100.0
  0
MTEXT
  5
2D5F7
330
2D5AB
100
AcDbEntity
  8
寸法
 62
     7
 48
50.0
100
AcDbMText
 10
6469.533390281991
 20
660.2512717238623
 30
0.0
 40
120.0
 41
0.0
 71
     5
 72
     1
  1
\A1;300
  7
STYLE1
 73
     1
 44
1.0
1001
ACAD
1000
MTEXTBEGIN
1070
    73
1070
     1
1070
    44
1040
1.0
1070
    74
1070
     0
1000
MTEXTEND
  0
POINT
  5
2D5F8
330
2D5AB
100
AcDbEntity
  8
DEFPOINTS
 62
     0
 48
50.0
100
AcDbPoint
 10
6265.630148960215
 20
970.6809097290225
 30
0.0
  0
POINT
  5
2D5F9
330
2D5AB
100
AcDbEntity
  8
DEFPOINTS
 62
     0
 48
50.0
100
AcDbPoint
 10
6713.630148960215
 20
970.6809097290225
 30
0.0
  0
POINT
  5
2D5FA
330
2D5AB
100
AcDbEntity
  8
DEFPOINTS
 62
     0
 48
50.0
100
AcDbPoint
 10
6713.630148960215
 20
560.2512717238623
 30
0.0
  0
ENDBLK
  5
2D5B6
330
2D5AB
100
AcDbEntity
  8
0
 48
50.0
100
AcDbBlockEnd
  0
BLOCK
  5
2D5C1
330
2D5B7
100
AcDbEntity
  8
0
 48
50.0
100
AcDbBlockBegin
  2
*D48
 70
     1
 10
0.0
 20
0.0
 30
0.0
  3
*D48
  1

  0
LINE
  5
2D5FB
330
2D5B7
100
AcDbEntity
  8
寸法
 62
     0
 48
50.0
370
    -2
100
AcDbLine
 10
6373.630148960215
 20
1882.680909729022
 30
0.0
 11
5598.592910398474
 21
1882.680909729022
 31
0.0
  0
LINE
  5
2D5FC
330
2D5B7
100
AcDbEntity
  8
寸法
 62
     0
 48
50.0
370
    -2
100
AcDbLine
 10
6165.630148960218
 20
1098.680909729022
 30
0.0
 11
5598.592910398474
 21
1098.680909729022
 31
0.0
  0
LINE
  5
2D5FD
330
2D5B7
100
AcDbEntity
  8
寸法
 62
     0
 48
50.0
370
    -2
100
AcDbLine
 10
5658.592910398475
 20
1882.680909729022
 30
0.0
 11
5658.592910398475
 21
1098.680909729022
 31
0.0
  0
INSERT
  5
2D5FE
330
2D5B7
100
AcDbEntity
  8
寸法
 62
     0
 48
50.0
370
    -2
100
AcDbBlockReference
  2
_DOTSMALL
 10
5658.592910398475
 20
1882.680909729022
 30
0.0
 41
100.0
 42
100.0
 43
100.0
 50
90.0
  0
INSERT
  5
2D5FF
330
2D5B7
100
AcDbEntity
  8
寸法
 62
     0
 48
50.0
370
    -2
100
AcDbBlockReference
  2
_DOTSMALL
 10
5658.592910398475
 20
1098.680909729022
 30
0.0
 41
100.0
 42
100.0
 43
100.0
 50
270.0
  0
MTEXT
  5
2D600
330
2D5B7
100
AcDbEntity
  8
寸法
 62
     7
 48
50.0
100
AcDbMText
 10
5558.592910398474
 20
1470.221059385023
 30
0.0
 40
120.0
 41
0.0
 71
     5
 72
     1
  1
\A1;540
  7
STYLE1
 11
0.0000000000000001
 21
1.0
 31
0.0
 73
     1
 44
1.0
1001
ACAD
1000
MTEXTBEGIN
1070
    73
1070
     1
1070
    44
1040
1.0
1070
    74
1070
     0
1000
MTEXTEND
  0
POINT
  5
2D601
330
2D5B7
100
AcDbEntity
  8
DEFPOINTS
 62
     0
 48
50.0
100
AcDbPoint
 10
6393.630148960215
 20
1882.680909729022
 30
0.0
  0
POINT
  5
2D602
330
2D5B7
100
AcDbEntity
  8
DEFPOINTS
 62
     0
 48
50.0
100
AcDbPoint
 10
6185.630148960218
 20
1098.680909729022
 30
0.0
  0
POINT
  5
2D603
330
2D5B7
100
AcDbEntity
  8
DEFPOINTS
 62
     0
 48
50.0
100
AcDbPoint
 10
5658.592910398475
 20
1098.680909729022
 30
0.0
  0
ENDBLK
  5
2D5C2
330
2D5B7
100
AcDbEntity
  8
0
 48
50.0
100
AcDbBlockEnd
  0
BLOCK
  5
2D5CD
330
2D5C3
100
AcDbEntity
  8
0
 48
50.0
100
AcDbBlockBegin
  2
*D49
 70
     1
 10
0.0
 20
0.0
 30
0.0
  3
*D49
  1

  0
LINE
  5
2D604
330
2D5C3
100
AcDbEntity
  8
寸法
 62
     0
 48
50.0
370
    -2
100
AcDbLine
 10
6245.630148960215
 20
1338.680909729022
 30
0.0
 11
6063.209835227755
 21
1338.680909729022
 31
0.0
  0
LINE
  5
2D605
330
2D5C3
100
AcDbEntity
  8
寸法
 62
     0
 48
50.0
370
    -2
100
AcDbLine
 10
6165.630148960218
 20
1098.680909729022
 30
0.0
 11
6063.209835227755
 21
1098.680909729022
 31
0.0
  0
LINE
  5
2D606
330
2D5C3
100
AcDbEntity
  8
寸法
 62
     0
 48
50.0
370
    -2
100
AcDbLine
 10
6123.209835227755
 20
1338.680909729022
 30
0.0
 11
6123.209835227755
 21
1098.680909729022
 31
0.0
  0
INSERT
  5
2D607
330
2D5C3
100
AcDbEntity
  8
寸法
 62
     0
 48
50.0
370
    -2
100
AcDbBlockReference
  2
_DOTSMALL
 10
6123.209835227755
 20
1338.680909729022
 30
0.0
 41
100.0
 42
100.0
 43
100.0
 50
90.0
  0
INSERT
  5
2D608
330
2D5C3
100
AcDbEntity
  8
寸法
 62
     0
 48
50.0
370
    -2
100
AcDbBlockReference
  2
_DOTSMALL
 10
6123.209835227755
 20
1098.680909729022
 30
0.0
 41
100.0
 42
100.0
 43
100.0
 50
270.0
  0
MTEXT
  5
2D609
330
2D5C3
100
AcDbEntity
  8
寸法
 62
     7
 48
50.0
100
AcDbMText
 10
6023.209835227755
 20
1218.680909729023
 30
0.0
 40
120.0
 41
0.0
 71
     5
 72
     1
  1
\A1;150
  7
STYLE1
 11
0.0000000000000001
 21
1.0
 31
0.0
 73
     1
 44
1.0
1001
ACAD
1000
MTEXTBEGIN
1070
    73
1070
     1
1070
    44
1040
1.0
1070
    74
1070
     0
1000
MTEXTEND
  0
POINT
  5
2D60A
330
2D5C3
100
AcDbEntity
  8
DEFPOINTS
 62
     0
 48
50.0
100
AcDbPoint
 10
6265.630148960215
 20
1338.680909729022
 30
0.0
  0
POINT
  5
2D60B
330
2D5C3
100
AcDbEntity
  8
DEFPOINTS
 62
     0
 48
50.0
100
AcDbPoint
 10
6185.630148960218
 20
1098.680909729022
 30
0.0
  0
POINT
  5
2D60C
330
2D5C3
100
AcDbEntity
  8
DEFPOINTS
 62
     0
 48
50.0
100
AcDbPoint
 10
6123.209835227755
 20
1098.680909729022
 30
0.0
  0
ENDBLK
  5
2D5CE
330
2D5C3
100
AcDbEntity
  8
0
 48
50.0
100
AcDbBlockEnd
  0
BLOCK
  5
2D5DB
330
2D5CF
100
AcDbEntity
  8
0
 48
50.0
100
AcDbBlockBegin
  2
*D50
 70
     1
 10
0.0
 20
0.0
 30
0.0
  3
*D50
  1

  0
LINE
  5
2D60D
330
2D5CF
100
AcDbEntity
  8
寸法
 62
     0
 48
50.0
370
    -2
100
AcDbLine
 10
8340.469462137409
 20
1935.440909729024
 30
0.0
 11
9345.592728025279
 21
1935.440909729023
 31
0.0
  0
LINE
  5
2D60E
330
2D5CF
100
AcDbEntity
  8
寸法
 62
     0
 48
50.0
370
    -2
100
AcDbLine
 10
8527.669462137408
 20
1882.680909729022
 30
0.0
 11
9345.592728025279
 21
1882.680909729022
 31
0.0
  0
LINE
  5
2D60F
330
2D5CF
100
AcDbEntity
  8
寸法
 62
     0
 48
50.0
370
    -2
100
AcDbLine
 10
9285.59272802528
 20
1935.440909729023
 30
0.0
 11
9285.59272802528
 21
2035.440909729024
 31
0.0
  0
LINE
  5
2D610
330
2D5CF
100
AcDbEntity
  8
寸法
 62
     0
 48
50.0
370
    -2
100
AcDbLine
 10
9285.59272802528
 20
1882.680909729022
 30
0.0
 11
9285.59272802528
 21
1150.663102886056
 31
0.0
  0
LINE
  5
2D611
330
2D5CF
100
AcDbEntity
  8
寸法
 62
     0
 48
50.0
370
    -2
100
AcDbLine
 10
9285.59272802528
 20
1935.440909729023
 30
0.0
 11
9285.59272802528
 21
1882.680909729022
 31
0.0
  0
INSERT
  5
2D612
330
2D5CF
100
AcDbEntity
  8
寸法
 62
     0
 48
50.0
370
    -2
100
AcDbBlockReference
  2
_DOTSMALL
 10
9285.59272802528
 20
1935.440909729023
 30
0.0
 41
100.0
 42
100.0
 43
100.0
 50
270.0
  0
INSERT
  5
2D613
330
2D5CF
100
AcDbEntity
  8
寸法
 62
     0
 48
50.0
370
    -2
100
AcDbBlockReference
  2
_DOTSMALL
 10
9285.59272802528
 20
1882.680909729022
 30
0.0
 41
100.0
 42
100.0
 43
100.0
 50
90.0
  0
MTEXT
  5
2D614
330
2D5CF
100
AcDbEntity
  8
寸法
 62
     7
 48
50.0
100
AcDbMText
 10
9185.580917001658
 20
1416.67200630754
 30
0.0
 40
120.0
 41
0.0
 71
     5
 72
     1
  1
\A1;20～25
  7
STYLE1
 11
0.0000000000000001
 21
1.0
 31
0.0
 73
     1
 44
1.0
1001
ACAD
1000
MTEXTBEGIN
1070
    73
1070
     1
1070
    44
1040
1.0
1070
    74
1070
     0
1000
MTEXTEND
  0
POINT
  5
2D615
330
2D5CF
100
AcDbEntity
  8
DEFPOINTS
 62
     0
 48
50.0
100
AcDbPoint
 10
8320.469462137408
 20
1935.440909729024
 30
0.0
  0
POINT
  5
2D616
330
2D5CF
100
AcDbEntity
  8
DEFPOINTS
 62
     0
 48
50.0
100
AcDbPoint
 10
8507.669462137409
 20
1882.680909729022
 30
0.0
  0
POINT
  5
2D617
330
2D5CF
100
AcDbEntity
  8
DEFPOINTS
 62
     0
 48
50.0
100
AcDbPoint
 10
9285.59272802528
 20
1882.680909729022
 30
0.0
  0
ENDBLK
  5
2D5DC
330
2D5CF
100
AcDbEntity
  8
0
 48
50.0
100
AcDbBlockEnd
  0
BLOCK
  5
2D5E7
330
2D5DD
100
AcDbEntity
  8
0
 48
50.0
100
AcDbBlockBegin
  2
*D51
 70
     1
 10
0.0
 20
0.0
 30
0.0
  3
*D51
  1

  0
LINE
  5
2D618
330
2D5DD
100
AcDbEntity
  8
寸法
 62
     0
 48
50.0
370
    -2
100
AcDbLine
 10
8527.669462137408
 20
1882.680909729022
 30
0.0
 11
9069.538061906254
 21
1882.680909729022
 31
0.0
  0
LINE
  5
2D619
330
2D5DD
100
AcDbEntity
  8
寸法
 62
     0
 48
50.0
370
    -2
100
AcDbLine
 10
8527.669462137408
 20
1558.680909729021
 30
0.0
 11
9069.538061906254
 21
1558.680909729021
 31
0.0
  0
LINE
  5
2D61A
330
2D5DD
100
AcDbEntity
  8
寸法
 62
     0
 48
50.0
370
    -2
100
AcDbLine
 10
9009.538061906253
 20
1882.680909729022
 30
0.0
 11
9009.538061906253
 21
1558.680909729021
 31
0.0
  0
INSERT
  5
2D61B
330
2D5DD
100
AcDbEntity
  8
寸法
 62
     0
 48
50.0
370
    -2
100
AcDbBlockReference
  2
_DOTSMALL
 10
9009.538061906253
 20
1882.680909729022
 30
0.0
 41
100.0
 42
100.0
 43
100.0
 50
90.0
  0
INSERT
  5
2D61C
330
2D5DD
100
AcDbEntity
  8
寸法
 62
     0
 48
50.0
370
    -2
100
AcDbBlockReference
  2
_DOTSMALL
 10
9009.538061906253
 20
1558.680909729021
 30
0.0
 41
100.0
 42
100.0
 43
100.0
 50
270.0
  0
MTEXT
  5
2D61D
330
2D5DD
100
AcDbEntity
  8
寸法
 62
     7
 48
50.0
100
AcDbMText
 10
8909.538061906252
 20
1720.680909729023
 30
0.0
 40
120.0
 41
0.0
 71
     5
 72
     1
  1
\A1;180
  7
STYLE1
 11
0.0000000000000001
 21
1.0
 31
0.0
 73
     1
 44
1.0
1001
ACAD
1000
MTEXTBEGIN
1070
    73
1070
     1
1070
    44
1040
1.0
1070
    74
1070
     0
1000
MTEXTEND
  0
POINT
  5
2D61E
330
2D5DD
100
AcDbEntity
  8
DEFPOINTS
 62
     0
 48
50.0
100
AcDbPoint
 10
8507.669462137409
 20
1882.680909729022
 30
0.0
  0
POINT
  5
2D61F
330
2D5DD
100
AcDbEntity
  8
DEFPOINTS
 62
     0
 48
50.0
100
AcDbPoint
 10
8507.669462137409
 20
1558.680909729021
 30
0.0
  0
POINT
  5
2D620
330
2D5DD
100
AcDbEntity
  8
DEFPOINTS
 62
     0
 48
50.0
100
AcDbPoint
 10
9009.538061906253
 20
1558.680909729021
 30
0.0
  0
ENDBLK
  5
2D5E8
330
2D5DD
100
AcDbEntity
  8
0
 48
50.0
100
AcDbBlockEnd
  0
ENDSEC
  0
SECTION
  2
ENTITIES
  0
MTEXT
  5
763F
330
747D
100
AcDbEntity
  8
0
100
AcDbMText
 10
302.846345836809
 20
280.1983726409901
 30
0.0
 40
3.5
 41
5.323721266742722
 71
     1
 72
     5
  1

  7
MSMINCHO
 73
     1
 44
1.0
1001
ACAD
1000
MTEXTBEGIN
1070
    73
1070
     1
1070
    44
1040
1.0
1070
    74
1070
     0
1000
MTEXTEND
  0
LINE
  5
10B57
330
747D
100
AcDbEntity
  8
補助
  6
PHANTOM
 62
   230
 48
50.0
100
AcDbLine
 10
139.9999999999995
 20
11409.6
 30
0.0
 11
16307.2
 21
11409.6
 31
0.0
  0
LINE
  5
10B59
330
747D
100
AcDbEntity
  8
仕様書枠
  6
Continuous
 48
50.0
100
AcDbLine
 10
13107.2
 20
1200.0
 30
0.0
 11
13107.2
 21
-0.0000000000000729
 31
0.0
  0
LINE
  5
10B5D
330
747D
100
AcDbEntity
  8
仕様書枠
 48
50.0
100
AcDbLine
 10
140.0
 20
0.0
 30
0.0
 11
16307.2
 21
-0.0000000000000909
 31
0.0
  0
LINE
  5
10B5E
330
747D
100
AcDbEntity
  8
補助
  6
PHANTOM
 62
   230
 48
50.0
100
AcDbLine
 10
16307.2
 20
11409.6
 30
0.0
 11
16307.2
 21
1200.0
 31
0.0
  0
LINE
  5
10B6C
330
747D
100
AcDbEntity
  8
仕様書枠
 48
50.0
100
AcDbLine
 10
13107.2
 20
1200.0
 30
0.0
 11
16307.2
 21
1200.0
 31
0.0
  0
TEXT
  5
10B73
330
747D
100
AcDbEntity
  8
文字
 62
     7
 48
50.0
100
AcDbText
 10
13162.9790565769
 20
895.0906074299405
 30
0.0
 40
200.0
  1
基 礎 図
  7
STYLE2
100
AcDbText
  0
LINE
  5
10B7B
330
747D
100
AcDbEntity
  8
仕様書枠
 48
50.0
100
AcDbLine
 10
13107.2
 20
800.0
 30
0.0
 11
14251.2
 21
800.0
 31
0.0
  0
LINE
  5
10B88
330
747D
100
AcDbEntity
  8
仕様書枠
  6
Continuous
 48
50.0
100
AcDbLine
 10
14251.2
 20
1200.0
 30
0.0
 11
14251.2
 21
800.0
 31
0.0
  0
LINE
  5
16462
330
747D
100
AcDbEntity
  8
仕様書枠
 48
50.0
100
AcDbLine
 10
16307.2
 20
1200.0
 30
0.0
 11
16307.2
 21
-0.0000000000000909
 31
0.0
  0
LINE
  5
1903B
330
747D
100
AcDbEntity
  8
補助
  6
PHANTOM
 62
   230
 48
50.0
100
AcDbLine
 10
140.0
 20
0.0
 30
0.0
 11
139.9999999999995
 21
11409.6
 31
0.0
  0
TEXT
  5
1C7A1
330
747D
100
AcDbEntity
  8
文字
 62
     7
 48
50.0
100
AcDbText
 10
13188.16259899338
 20
79.80631269190417
 30
0.0
 40
80.0
  1
※布基礎には換気口を設けてください。
  7
STYLE2
100
AcDbText
  0
TEXT
  5
1C7E7
330
747D
100
AcDbEntity
  8
文字
 62
     7
 48
50.0
100
AcDbText
 10
13188.16259899338
 20
246.7109242801889
 30
0.0
 40
80.0
  1
※寒冷地等は地域の実情に合わせた基礎にして下さい。
  7
STYLE2
100
AcDbText
  0
TEXT
  5
1C7EC
330
747D
100
AcDbEntity
  8
文字
 62
     7
 48
50.0
100
AcDbText
 10
14524.131837222
 20
1031.557706291229
 30
0.0
 40
100.0
  1
<縮尺> S=1/40
  7
STYLE2
100
AcDbText
  0
TEXT
  5
1C7ED
330
747D
100
AcDbEntity
  8
文字
 62
     7
 48
50.0
100
AcDbText
 10
13201.43669998441
 20
477.2740661031257
 30
0.0
 40
160.0
  1
機種名
  7
STYLE2
100
AcDbText
  0
LINE
  5
1C7EF
330
747D
100
AcDbEntity
  8
文字
 62
     7
 48
50.0
100
AcDbLine
 10
13187.2
 20
400.0
 30
0.0
 11
16227.2
 21
400.0
 31
0.0
  0
TEXT
  5
271E7
330
747D
100
AcDbEntity
  8
部品1
100
AcDbText
 10
7020.398178799904
 20
5104.965687829656
 30
0.0
 40
135.0
  1
9連棟・12連棟・15連棟・18連棟
  7
STYLE2
100
AcDbText
  0
TEXT
  5
27754
330
747D
100
AcDbEntity
  8
文字
 62
     7
 48
50.0
100
AcDbText
 10
14271.39351435261
 20
483.8967129911416
 30
0.0
 40
160.0
  1
ＮＸＮ－１３ＤＬ-Ｎ
  7
STYLE2
100
AcDbText
  0
LINE
  5
2C3BD
330
747D
100
AcDbEntity
  8
寸法
 48
50.0
100
AcDbLine
 10
8418.600000000008
 20
7938.07209335112
 30
0.0
 11
8698.600000000007
 21
7938.07209335112
 31
0.0
  0
TEXT
  5
2C3BF
330
747D
100
AcDbEntity
  8
寸法
 48
50.0
100
AcDbText
 10
8552.774245340218
 20
6094.144567473612
 30
0.0
 40
120.0
  1
扉面
  7
STYLE1
100
AcDbText
  0
DIMENSION
  5
2C3C3
330
747D
100
AcDbEntity
  8
寸法
 48
50.0
100
AcDbDimension
  2
*D19
 10
12503.6
 20
8413.683598739792
 30
0.0
 11
8223.600000000001
 21
8513.683598739794
 31
0.0
 70
    32
  1
N X 950+10
 71
     5
 42
8560.0
  3
INABA_S40G
100
AcDbAlignedDimension
 13
3943.600000000001
 23
7455.463276680875
 33
0.0
 14
12503.6
 24
7455.463276680875
 34
0.0
100
AcDbRotatedDimension
1001
ACAD
1000
DSTYLE
1002
{
1070
   341
1005
0
1002
}
  0
LINE
  5
2C3C4
330
747D
100
AcDbEntity
  8
細線
 48
50.0
100
AcDbLine
 10
3943.599999999986
 20
6777.585804443984
 30
0.0
 11
4056.477472236856
 21
6890.463276680854
 31
0.0
  0
LINE
  5
2C3C5
330
747D
100
AcDbEntity
  8
細線
 48
50.0
100
AcDbLine
 10
3943.599999999988
 20
6822.487085049331
 30
0.0
 11
4011.576191631509
 21
6890.463276680856
 31
0.0
  0
LINE
  5
2C3C8
330
747D
100
AcDbEntity
  8
部品1
 48
50.0
100
AcDbLine
 10
7848.600000000008
 20
6702.463276680873
 30
0.0
 11
7848.600000000008
 21
6902.463276680873
 31
0.0
  0
LINE
  5
2C3C9
330
747D
100
AcDbEntity
  8
部品1
 48
50.0
100
AcDbLine
 10
7648.600000000008
 20
6702.463276680873
 30
0.0
 11
7648.600000000008
 21
6902.463276680873
 31
0.0
  0
LINE
  5
2C3CA
330
747D
100
AcDbEntity
  8
部品1
 48
50.0
100
AcDbLine
 10
6898.600000000008
 20
6702.463276680873
 30
0.0
 11
6898.600000000008
 21
6902.463276680873
 31
0.0
  0
LINE
  5
2C3CB
330
747D
100
AcDbEntity
  8
部品1
 48
50.0
100
AcDbLine
 10
6698.600000000007
 20
6702.463276680873
 30
0.0
 11
6698.600000000007
 21
6902.463276680873
 31
0.0
  0
DIMENSION
  5
2C3CC
330
747D
100
AcDbEntity
  8
寸法
 48
50.0
100
AcDbDimension
  2
*D20
 10
6798.600000000007
 20
7938.072093351123
 30
0.0
 11
7273.600000000008
 21
8038.072093351123
 31
0.0
 70
    32
 71
     5
 42
950.0
  3
INABA_S40G
100
AcDbAlignedDimension
 13
7748.600000000007
 23
6852.463276680873
 33
0.0
 14
6798.600000000007
 24
6852.463276680873
 34
0.0
100
AcDbRotatedDimension
1001
ACAD
1000
DSTYLE
1002
{
1070
   341
1005
0
1002
}
  0
LINE
  5
2C3CD
330
747D
100
AcDbEntity
  8
部品1
 48
50.0
100
AcDbLine
 10
5748.600000000007
 20
6702.463276680873
 30
0.0
 11
5748.600000000007
 21
6902.463276680873
 31
0.0
  0
LINE
  5
2C3CE
330
747D
100
AcDbEntity
  8
部品1
 48
50.0
100
AcDbLine
 10
5948.600000000007
 20
6702.463276680873
 30
0.0
 11
5948.600000000007
 21
6902.463276680873
 31
0.0
  0
LINE
  5
2C3CF
330
747D
100
AcDbEntity
  8
部品1
 48
50.0
100
AcDbLine
 10
4798.600000000007
 20
6702.463276680873
 30
0.0
 11
4798.600000000007
 21
6902.463276680873
 31
0.0
  0
LINE
  5
2C3D0
330
747D
100
AcDbEntity
  8
部品1
 48
50.0
100
AcDbLine
 10
4998.600000000007
 20
6702.463276680873
 30
0.0
 11
4998.600000000007
 21
6902.463276680873
 31
0.0
  0
DIMENSION
  5
2C3D1
330
747D
100
AcDbEntity
  8
寸法
 48
50.0
100
AcDbDimension
  2
*D21
 10
4426.285990614304
 20
7455.463276680875
 30
0.0
 11
4426.285990614302
 21
7092.208897744368
 31
0.0
 70
   160
 71
     5
 42
653.0000000000018
  3
INABA_S40G
100
AcDbAlignedDimension
 13
4848.600000000008
 23
6802.463276680874
 33
0.0
 14
4517.7654751409
 24
7455.463276680875
 34
0.0
 50
90.0
100
AcDbRotatedDimension
1001
ACAD
1000
DSTYLE
1002
{
1070
   341
1005
0
1002
}
  0
DIMENSION
  5
2C3D2
330
747D
100
AcDbEntity
  8
寸法
 48
50.0
100
AcDbDimension
  2
*D22
 10
3943.600000000001
 20
7938.072093351123
 30
0.0
 11
4421.100000000004
 21
8038.072093351123
 31
0.0
 70
    32
 71
     5
 42
955.0000000000073
  3
INABA_S40G
100
AcDbAlignedDimension
 13
4898.600000000008
 23
6852.463276680873
 33
0.0
 14
3943.600000000001
 24
7455.463276680875
 34
0.0
100
AcDbRotatedDimension
1001
ACAD
1000
DSTYLE
1002
{
1070
   341
1005
0
1002
}
  0
DIMENSION
  5
2C3D3
330
747D
100
AcDbEntity
  8
寸法
 48
50.0
100
AcDbDimension
  2
*D23
 10
4898.600000000008
 20
7938.072093351123
 30
0.0
 11
5373.600000000007
 21
8038.072093351123
 31
0.0
 70
    32
 71
     5
 42
950.0
  3
INABA_S40G
100
AcDbAlignedDimension
 13
5848.600000000008
 23
6852.463276680873
 33
0.0
 14
4898.600000000008
 24
6852.463276680873
 34
0.0
100
AcDbRotatedDimension
1001
ACAD
1000
DSTYLE
1002
{
1070
   341
1005
0
1002
}
  0
DIMENSION
  5
2C3D4
330
747D
100
AcDbEntity
  8
寸法
 48
50.0
100
AcDbDimension
  2
*D24
 10
5848.600000000008
 20
7938.072093351123
 30
0.0
 11
6323.600000000007
 21
8038.072093351123
 31
0.0
 70
    32
 71
     5
 42
950.0
  3
INABA_S40G
100
AcDbAlignedDimension
 13
6798.600000000007
 23
6852.463276680873
 33
0.0
 14
5848.600000000008
 24
6852.463276680873
 34
0.0
100
AcDbRotatedDimension
1001
ACAD
1000
DSTYLE
1002
{
1070
   341
1005
0
1002
}
  0
LINE
  5
2C3D6
330
747D
100
AcDbEntity
  8
部品1
 48
50.0
100
AcDbLine
 10
3943.600000000001
 20
6075.463276680874
 30
0.0
 11
3943.600000000001
 21
7455.463276680875
 31
0.0
  0
DIMENSION
  5
2C3D8
330
747D
100
AcDbEntity
  8
寸法
 48
50.0
100
AcDbDimension
  2
*D25
 10
3320.665006330072
 20
6273.463276680877
 30
0.0
 11
3320.665006330071
 21
6802.963276680873
 31
0.0
 70
   160
 71
     5
 42
1058.999999999998
  3
INABA_S40G
100
AcDbAlignedDimension
 13
4016.6
 23
7332.463276680876
 33
0.0
 14
4016.600000000007
 24
6273.463276680877
 34
0.0
 50
90.0
100
AcDbRotatedDimension
1001
ACAD
1000
DSTYLE
1002
{
1070
   341
1005
0
1002
}
  0
DIMENSION
  5
2C3D9
330
747D
100
AcDbEntity
  8
寸法
 48
50.0
100
AcDbDimension
  2
*D26
 10
3068.721909610674
 20
6075.463276680874
 30
0.0
 11
3068.721909610673
 21
6802.963276680873
 31
0.0
 70
   160
 71
     5
 42
1380.000000000002
  3
INABA_S40G
100
AcDbAlignedDimension
 13
3943.600000000001
 23
7455.463276680875
 33
0.0
 14
3943.600000000001
 24
6075.463276680874
 34
0.0
 50
90.0
100
AcDbRotatedDimension
1001
ACAD
1000
DSTYLE
1002
{
1070
   341
1005
0
1002
}
  0
LINE
  5
2C3DB
102
{ACAD_REACTORS
330
2D639
102
}
330
747D
100
AcDbEntity
  8
部品1
 48
50.0
100
AcDbLine
 10
12503.6
 20
6075.463276680904
 30
0.0
 11
3943.599999999997
 21
6075.46327668087
 31
0.0
  0
DIMENSION
  5
2C3DE
330
747D
100
AcDbEntity
  8
寸法
 48
50.0
100
AcDbDimension
  2
*D27
 10
3320.665006330072
 20
6075.463276680874
 30
0.0
 11
3320.665006330071
 21
5739.932327838282
 31
0.0
 70
   160
 71
     5
 42
198.0000000000036
  3
INABA_S40G
100
AcDbAlignedDimension
 13
4016.600000000007
 23
6273.463276680877
 33
0.0
 14
3943.600000000001
 24
6075.463276680874
 34
0.0
 50
90.0
100
AcDbRotatedDimension
1001
ACAD
1000
DSTYLE
1002
{
1070
   341
1005
0
1002
}
  0
DIMENSION
  5
2C3E0
330
747D
100
AcDbEntity
  8
寸法
 48
50.0
100
AcDbDimension
  2
*D28
 10
3830.512673767879
 20
5355.46327668087
 30
0.0
 11
3830.512673767879
 21
5715.463276680871
 31
0.0
 70
   160
  1
扉の出<>
 71
     5
 42
720.0
  3
INABA_S40G
100
AcDbAlignedDimension
 13
3943.600000000004
 23
6075.46327668087
 33
0.0
 14
4299.325326928808
 24
5355.46327668087
 34
0.0
 50
90.0
100
AcDbRotatedDimension
1001
ACAD
1000
DSTYLE
1002
{
1070
   341
1005
0
1002
}
  0
ARC
  5
2C3E1
330
747D
100
AcDbEntity
  8
想像線
 48
5.0
100
AcDbCircle
 10
4713.600000000004
 20
6075.463276680878
 30
0.0
 40
720.0
100
AcDbArc
 50
180.0
 51
270.0
  0
LINE
  5
2C3E2
330
747D
100
AcDbEntity
  8
想像線
 48
5.0
100
AcDbLine
 10
4713.600000000004
 20
6075.463276680888
 30
0.0
 11
4713.600000000004
 21
5355.463276680877
 31
0.0
  0
LINE
  5
2C3E3
330
747D
100
AcDbEntity
  8
細線
 48
50.0
100
AcDbLine
 10
4323.599999999991
 20
6253.967875969152
 30
0.0
 11
4425.095400711715
 21
6355.463276680872
 31
0.0
  0
LINE
  5
2C3E4
330
747D
100
AcDbEntity
  8
細線
 48
50.0
100
AcDbLine
 10
4323.599999999991
 20
6298.869156574496
 30
0.0
 11
4380.194120106366
 21
6355.463276680872
 31
0.0
  0
LINE
  5
2C3E5
330
747D
100
AcDbEntity
  8
細線
 48
50.0
100
AcDbLine
 10
4324.700523133071
 20
6075.463276680846
 30
0.0
 11
4523.599999999991
 21
6274.362753547766
 31
0.0
  0
LINE
  5
2C3E6
330
747D
100
AcDbEntity
  8
細線
 48
50.0
100
AcDbLine
 10
4323.599999999994
 20
6119.264034153117
 30
0.0
 11
4523.59999999999
 21
6319.26403415311
 31
0.0
  0
LINE
  5
2C3E7
330
747D
100
AcDbEntity
  8
細線
 48
50.0
100
AcDbLine
 10
4323.599999999994
 20
6164.165314758462
 30
0.0
 11
4514.897961922406
 21
6355.463276680873
 31
0.0
  0
LINE
  5
2C3E8
330
747D
100
AcDbEntity
  8
細線
 48
50.0
100
AcDbLine
 10
4323.599999999993
 20
6209.066595363806
 30
0.0
 11
4469.996681317058
 21
6355.463276680871
 31
0.0
  0
DIMENSION
  5
2C3E9
330
747D
100
AcDbEntity
  8
寸法
 48
50.0
100
AcDbDimension
  2
*D29
 10
4426.285990614302
 20
6802.463276680874
 30
0.0
 11
4426.2859906143
 21
6517.463276680874
 31
0.0
 70
   160
 71
     5
 42
726.9999999999891
  3
INABA_S40G
100
AcDbAlignedDimension
 13
4517.7654751409
 23
6075.463276680885
 33
0.0
 14
4848.600000000008
 24
6802.463276680874
 34
0.0
 50
90.0
100
AcDbRotatedDimension
1001
ACAD
1000
DSTYLE
1002
{
1070
   341
1005
0
1002
}
  0
LINE
  5
2C3EA
330
747D
100
AcDbEntity
  8
部品1
 48
50.0
100
AcDbLine
 10
4323.59999999999
 20
6355.463276680871
 30
0.0
 11
4323.599999999997
 21
6075.463276680845
 31
0.0
  0
LINE
  5
2C3EB
330
747D
100
AcDbEntity
  8
センター
 48
2.0
100
AcDbLine
 10
4066.600000000007
 20
6323.463276680877
 30
0.0
 11
4066.600000000007
 21
6223.463276680877
 31
0.0
  0
CIRCLE
  5
2C3EC
330
747D
100
AcDbEntity
  8
部品1
 48
50.0
100
AcDbCircle
 10
4066.599999999993
 20
6273.463276680877
 30
0.0
 40
35.0
  0
LINE
  5
2C3ED
330
747D
100
AcDbEntity
  8
センター
 48
2.0
100
AcDbLine
 10
4016.600000000007
 20
6273.463276680877
 30
0.0
 11
4116.600000000008
 21
6273.463276680877
 31
0.0
  0
LINE
  5
2C3EE
330
747D
100
AcDbEntity
  8
細線
 48
50.0
100
AcDbLine
 10
4036.082594658237
 20
6690.463276680853
 30
0.0
 11
4063.599999999998
 21
6717.980682022608
 31
0.0
  0
LINE
  5
2C3EF
330
747D
100
AcDbEntity
  8
細線
 48
50.0
100
AcDbLine
 10
3991.181314052894
 20
6690.463276680856
 30
0.0
 11
4063.599999999999
 21
6762.881962627961
 31
0.0
  0
LINE
  5
2C3F0
330
747D
100
AcDbEntity
  8
細線
 48
50.0
100
AcDbLine
 10
3946.280033447547
 20
6690.463276680856
 30
0.0
 11
4063.599999999999
 21
6807.783243233306
 31
0.0
  0
LINE
  5
2C3F1
330
747D
100
AcDbEntity
  8
細線
 48
50.0
100
AcDbLine
 10
3943.599999999986
 20
6732.684523838639
 30
0.0
 11
4063.599999999997
 21
6852.684523838648
 31
0.0
  0
LINE
  5
2C3F2
330
747D
100
AcDbEntity
  8
部品1
 48
50.0
100
AcDbLine
 10
4063.599999999998
 20
6690.463276680855
 30
0.0
 11
3943.599999999986
 21
6690.463276680856
 31
0.0
  0
LINE
  5
2C3F3
330
747D
100
AcDbEntity
  8
部品1
 48
50.0
100
AcDbLine
 10
4523.59999999999
 20
6355.463276680871
 30
0.0
 11
4523.599999999997
 21
6075.463276680848
 31
0.0
  0
LINE
  5
2C3F4
330
747D
100
AcDbEntity
  8
細線
 48
50.0
100
AcDbLine
 10
4504.305645554455
 20
6075.463276680849
 30
0.0
 11
4523.6
 21
6094.757631126393
 31
0.0
  0
LINE
  5
2C3F5
330
747D
100
AcDbEntity
  8
細線
 48
50.0
100
AcDbLine
 10
4459.404364949108
 20
6075.463276680846
 30
0.0
 11
4523.599999999998
 21
6139.658911731738
 31
0.0
  0
LINE
  5
2C3F6
330
747D
100
AcDbEntity
  8
細線
 48
50.0
100
AcDbLine
 10
4414.503084343763
 20
6075.463276680846
 30
0.0
 11
4523.599999999998
 21
6184.560192337084
 31
0.0
  0
LINE
  5
2C3F7
330
747D
100
AcDbEntity
  8
細線
 48
50.0
100
AcDbLine
 10
4369.601803738416
 20
6075.463276680846
 30
0.0
 11
4523.599999999993
 21
6229.461472942423
 31
0.0
  0
LINE
  5
2C3F8
330
747D
100
AcDbEntity
  8
部品1
 48
50.0
100
AcDbLine
 10
4998.600000000007
 20
6702.463276680873
 30
0.0
 11
4798.600000000007
 21
6702.463276680873
 31
0.0
  0
LINE
  5
2C3F9
330
747D
100
AcDbEntity
  8
センター
 48
2.0
100
AcDbLine
 10
4848.600000000008
 20
6802.463276680874
 30
0.0
 11
4948.600000000007
 21
6802.463276680874
 31
0.0
  0
LINE
  5
2C3FA
330
747D
100
AcDbEntity
  8
センター
 48
2.0
100
AcDbLine
 10
4898.600000000008
 20
6852.463276680873
 30
0.0
 11
4898.600000000008
 21
6752.463276680874
 31
0.0
  0
LINE
  5
2C3FB
330
747D
100
AcDbEntity
  8
センター
 48
2.0
100
AcDbLine
 10
6748.600000000007
 20
6802.463276680874
 30
0.0
 11
6848.600000000008
 21
6802.463276680874
 31
0.0
  0
LINE
  5
2C3FC
330
747D
100
AcDbEntity
  8
部品1
 48
50.0
100
AcDbLine
 10
6898.600000000008
 20
6702.463276680873
 30
0.0
 11
6698.600000000007
 21
6702.463276680873
 31
0.0
  0
LINE
  5
2C409
330
747D
100
AcDbEntity
  8
部品1
 48
50.0
100
AcDbLine
 10
5948.600000000007
 20
6702.463276680873
 30
0.0
 11
5748.600000000007
 21
6702.463276680873
 31
0.0
  0
LINE
  5
2C40A
330
747D
100
AcDbEntity
  8
センター
 48
2.0
100
AcDbLine
 10
5798.600000000007
 20
6802.463276680874
 30
0.0
 11
5898.600000000008
 21
6802.463276680874
 31
0.0
  0
LINE
  5
2C40B
330
747D
100
AcDbEntity
  8
センター
 48
2.0
100
AcDbLine
 10
5848.600000000008
 20
6852.463276680873
 30
0.0
 11
5848.600000000008
 21
6752.463276680874
 31
0.0
  0
CIRCLE
  5
2C413
330
747D
100
AcDbEntity
  8
部品1
 48
50.0
100
AcDbCircle
 10
6680.600000000008
 20
6273.463276680877
 30
0.0
 40
35.0
  0
LINE
  5
2C414
330
747D
100
AcDbEntity
  8
センター
 48
2.0
100
AcDbLine
 10
6680.600000000008
 20
6323.463276680877
 30
0.0
 11
6680.600000000008
 21
6223.463276680877
 31
0.0
  0
LINE
  5
2C419
330
747D
100
AcDbEntity
  8
センター
 48
2.0
100
AcDbLine
 10
6630.600000000008
 20
6273.463276680877
 30
0.0
 11
6730.600000000008
 21
6273.463276680877
 31
0.0
  0
LINE
  5
2C41B
330
747D
100
AcDbEntity
  8
センター
 48
2.0
100
AcDbLine
 10
6798.600000000007
 20
6852.463276680873
 30
0.0
 11
6798.600000000007
 21
6752.463276680874
 31
0.0
  0
LINE
  5
2C42C
102
{ACAD_REACTORS
330
2D639
102
}
330
747D
100
AcDbEntity
  8
部品1
 48
50.0
100
AcDbLine
 10
8123.599999999989
 20
6355.463276680886
 30
0.0
 11
8123.599999999997
 21
6075.463276680845
 31
0.0
  0
LINE
  5
2C42D
102
{ACAD_REACTORS
330
2D639
102
}
330
747D
100
AcDbEntity
  8
部品1
 48
50.0
100
AcDbLine
 10
8323.59999999999
 20
6355.46327668089
 30
0.0
 11
8323.599999999997
 21
6075.463276680848
 31
0.0
  0
LINE
  5
2C435
330
747D
100
AcDbEntity
  8
細線
 48
50.0
100
AcDbLine
 10
8124.700523133071
 20
6075.463276680846
 30
0.0
 11
8128.001302957397
 21
6078.764056505171
 31
0.0
  0
LINE
  5
2C438
330
747D
100
AcDbEntity
  8
部品1
 48
50.0
100
AcDbLine
 10
7848.600000000008
 20
6702.463276680873
 30
0.0
 11
7648.600000000008
 21
6702.463276680873
 31
0.0
  0
LINE
  5
2C439
330
747D
100
AcDbEntity
  8
センター
 48
2.0
100
AcDbLine
 10
7698.600000000007
 20
6802.463276680874
 30
0.0
 11
7798.600000000007
 21
6802.463276680874
 31
0.0
  0
LINE
  5
2C43A
330
747D
100
AcDbEntity
  8
センター
 48
2.0
100
AcDbLine
 10
7748.600000000007
 20
6852.463276680873
 30
0.0
 11
7748.600000000007
 21
6752.463276680874
 31
0.0
  0
LINE
  5
2C441
102
{ACAD_REACTORS
330
2D62F
102
}
330
747D
100
AcDbEntity
  8
部品1
 48
50.0
100
AcDbLine
 10
12383.6
 20
7255.463276680877
 30
0.0
 11
4063.599999999996
 21
7255.463276680874
 31
0.0
  0
LINE
  5
2C442
102
{ACAD_REACTORS
330
2D62F
102
}
330
747D
100
AcDbEntity
  8
部品1
 48
50.0
100
AcDbLine
 10
12503.6
 20
7455.463276680875
 30
0.0
 11
3943.600000000001
 21
7455.463276680875
 31
0.0
  0
DIMENSION
  5
2C443
330
747D
100
AcDbEntity
  8
寸法
 48
50.0
100
AcDbDimension
  2
*D30
 10
4066.6
 20
8181.729734774783
 30
0.0
 11
5373.6
 21
8281.741545798407
 31
0.0
 70
    32
 71
     5
 42
2614.0
  3
INABA_S40G
100
AcDbAlignedDimension
 13
6680.600000000001
 23
7382.463276680876
 33
0.0
 14
4066.6
 24
7382.463276680876
 34
0.0
100
AcDbRotatedDimension
1001
ACAD
1000
DSTYLE
1002
{
1070
   341
1005
0
1002
}
  0
DIMENSION
  5
2C445
330
747D
100
AcDbEntity
  8
寸法
 48
50.0
100
AcDbDimension
  2
*D31
 10
3320.665006330073
 20
7332.463276680876
 30
0.0
 11
3320.665006330071
 21
7728.569878398674
 31
0.0
 70
   160
 71
     5
 42
123.0
  3
INABA_S40G
100
AcDbAlignedDimension
 13
3943.600000000001
 23
7455.463276680875
 33
0.0
 14
4016.6
 24
7332.463276680876
 34
0.0
 50
90.0
100
AcDbRotatedDimension
1001
ACAD
1000
DSTYLE
1002
{
1070
   341
1005
0
1002
}
  0
DIMENSION
  5
2C448
330
747D
100
AcDbEntity
  8
寸法
 48
50.0
100
AcDbDimension
  2
*D32
 10
3943.600000000001
 20
8181.729734774783
 30
0.0
 11
3670.493398282202
 21
8181.729734774783
 31
0.0
 70
   160
 71
     5
 42
123.0
  3
INABA_S40G
100
AcDbAlignedDimension
 13
4066.6
 23
7382.463276680876
 33
0.0
 14
3943.600000000001
 24
7455.463276680875
 34
0.0
100
AcDbRotatedDimension
1001
ACAD
1000
DSTYLE
1002
{
1070
   341
1005
0
1002
}
  0
LINE
  5
2C449
330
747D
100
AcDbEntity
  8
細線
 48
50.0
100
AcDbLine
 10
4323.600000000002
 20
7257.684523838645
 30
0.0
 11
4521.378752842192
 21
7455.463276680835
 31
0.0
  0
LINE
  5
2C44A
330
747D
100
AcDbEntity
  8
細線
 48
50.0
100
AcDbLine
 10
4323.600000000002
 20
7302.585804443991
 30
0.0
 11
4476.477472236847
 21
7455.463276680835
 31
0.0
  0
LINE
  5
2C44B
330
747D
100
AcDbEntity
  8
細線
 48
50.0
100
AcDbLine
 10
4323.599999999998
 20
7347.487085049333
 30
0.0
 11
4431.576191631502
 21
7455.463276680835
 31
0.0
  0
LINE
  5
2C44C
330
747D
100
AcDbEntity
  8
細線
 48
50.0
100
AcDbLine
 10
4323.599999999998
 20
7392.388365654679
 30
0.0
 11
4386.674911026155
 21
7455.463276680835
 31
0.0
  0
LINE
  5
2C44D
330
747D
100
AcDbEntity
  8
部品1
 48
50.0
100
AcDbLine
 10
4323.599999999994
 20
7455.463276680835
 30
0.0
 11
4323.600000000002
 21
7255.463276680874
 31
0.0
  0
LINE
  5
2C44E
330
747D
100
AcDbEntity
  8
細線
 48
50.0
100
AcDbLine
 10
3943.599999999986
 20
6867.388365654675
 30
0.0
 11
3966.674911026166
 21
6890.463276680858
 31
0.0
  0
LINE
  5
2C44F
330
747D
100
AcDbEntity
  8
部品1
 48
50.0
100
AcDbLine
 10
4063.599999999997
 20
6890.463276680854
 30
0.0
 11
3943.599999999986
 21
6890.463276680856
 31
0.0
  0
LINE
  5
2C450
330
747D
100
AcDbEntity
  8
センター
 48
2.0
100
AcDbLine
 10
4066.6
 20
7382.463276680876
 30
0.0
 11
4066.6
 21
7282.463276680876
 31
0.0
  0
LINE
  5
2C451
330
747D
100
AcDbEntity
  8
センター
 48
2.0
100
AcDbLine
 10
4016.6
 20
7332.463276680876
 30
0.0
 11
4116.6
 21
7332.463276680876
 31
0.0
  0
CIRCLE
  5
2C452
330
747D
100
AcDbEntity
  8
部品1
 48
50.0
100
AcDbCircle
 10
4066.6
 20
7332.463276680876
 30
0.0
 40
35.0
  0
LINE
  5
2C453
330
747D
100
AcDbEntity
  8
細線
 48
50.0
100
AcDbLine
 10
4323.599999999997
 20
7437.289646260023
 30
0.0
 11
4341.773630420812
 21
7455.463276680835
 31
0.0
  0
LINE
  5
2C454
330
747D
100
AcDbEntity
  8
部品1
 48
50.0
100
AcDbLine
 10
4523.599999999994
 20
7455.463276680835
 30
0.0
 11
4523.600000000002
 21
7255.463276680874
 31
0.0
  0
LINE
  5
2C455
330
747D
100
AcDbEntity
  8
細線
 48
50.0
100
AcDbLine
 10
4456.082594658248
 20
7255.463276680872
 30
0.0
 11
4523.6
 21
7322.980682022624
 31
0.0
  0
LINE
  5
2C456
330
747D
100
AcDbEntity
  8
細線
 48
50.0
100
AcDbLine
 10
4500.983875263577
 20
7255.463276680874
 30
0.0
 11
4523.600000000002
 21
7278.07940141729
 31
0.0
  0
LINE
  5
2C457
330
747D
100
AcDbEntity
  8
細線
 48
50.0
100
AcDbLine
 10
4411.18131405289
 20
7255.463276680874
 30
0.0
 11
4523.599999999998
 21
7367.881962627947
 31
0.0
  0
LINE
  5
2C458
330
747D
100
AcDbEntity
  8
細線
 48
50.0
100
AcDbLine
 10
4366.280033447574
 20
7255.463276680874
 30
0.0
 11
4523.599999999994
 21
7412.783243233292
 31
0.0
  0
LINE
  5
2C459
330
747D
100
AcDbEntity
  8
部品1
 48
50.0
100
AcDbLine
 10
4998.600000000007
 20
6902.463276680873
 30
0.0
 11
4798.600000000007
 21
6902.463276680873
 31
0.0
  0
LINE
  5
2C45A
330
747D
100
AcDbEntity
  8
寸法
 48
50.0
100
AcDbLine
 10
6680.600000000001
 20
8181.72973477467
 30
0.0
 11
7380.644554822071
 21
8181.72973477467
 31
0.0
  0
LINE
  5
2C45B
330
747D
100
AcDbEntity
  8
部品1
 48
50.0
100
AcDbLine
 10
6898.600000000008
 20
6902.463276680873
 30
0.0
 11
6698.600000000007
 21
6902.463276680873
 31
0.0
  0
LINE
  5
2C45C
330
747D
100
AcDbEntity
  8
細線
 48
50.0
100
AcDbLine
 10
5273.599999999999
 20
7392.388365654679
 30
0.0
 11
5336.674911026155
 21
7455.463276680835
 31
0.0
  0
LINE
  5
2C45D
330
747D
100
AcDbEntity
  8
細線
 48
50.0
100
AcDbLine
 10
5273.599999999999
 20
7347.487085049333
 30
0.0
 11
5381.576191631502
 21
7455.463276680835
 31
0.0
  0
LINE
  5
2C45E
330
747D
100
AcDbEntity
  8
細線
 48
50.0
100
AcDbLine
 10
5273.600000000002
 20
7302.585804443991
 30
0.0
 11
5426.477472236848
 21
7455.463276680835
 31
0.0
  0
LINE
  5
2C45F
330
747D
100
AcDbEntity
  8
部品1
 48
50.0
100
AcDbLine
 10
5473.599999999994
 20
7455.463276680835
 30
0.0
 11
5473.600000000002
 21
7255.463276680874
 31
0.0
  0
LINE
  5
2C460
330
747D
100
AcDbEntity
  8
部品1
 48
50.0
100
AcDbLine
 10
5273.599999999994
 20
7455.463276680835
 30
0.0
 11
5273.600000000002
 21
7255.463276680874
 31
0.0
  0
LINE
  5
2C461
330
747D
100
AcDbEntity
  8
細線
 48
50.0
100
AcDbLine
 10
5273.600000000002
 20
7257.684523838645
 30
0.0
 11
5471.378752842192
 21
7455.463276680835
 31
0.0
  0
LINE
  5
2C462
330
747D
100
AcDbEntity
  8
細線
 48
50.0
100
AcDbLine
 10
5316.280033447574
 20
7255.463276680874
 30
0.0
 11
5473.599999999994
 21
7412.783243233292
 31
0.0
  0
LINE
  5
2C463
330
747D
100
AcDbEntity
  8
細線
 48
50.0
100
AcDbLine
 10
5361.18131405289
 20
7255.463276680874
 30
0.0
 11
5473.599999999999
 21
7367.881962627947
 31
0.0
  0
LINE
  5
2C464
330
747D
100
AcDbEntity
  8
細線
 48
50.0
100
AcDbLine
 10
5450.983875263577
 20
7255.463276680874
 30
0.0
 11
5473.600000000002
 21
7278.07940141729
 31
0.0
  0
LINE
  5
2C465
330
747D
100
AcDbEntity
  8
細線
 48
50.0
100
AcDbLine
 10
5406.082594658248
 20
7255.463276680872
 30
0.0
 11
5473.600000000001
 21
7322.980682022624
 31
0.0
  0
LINE
  5
2C466
330
747D
100
AcDbEntity
  8
部品1
 48
50.0
100
AcDbLine
 10
5948.600000000007
 20
6902.463276680873
 30
0.0
 11
5748.600000000007
 21
6902.463276680873
 31
0.0
  0
LINE
  5
2C467
330
747D
100
AcDbEntity
  8
細線
 48
50.0
100
AcDbLine
 10
5273.599999999997
 20
7437.289646260023
 30
0.0
 11
5291.773630420812
 21
7455.463276680835
 31
0.0
  0
LINE
  5
2C468
330
747D
100
AcDbEntity
  8
部品1
 48
50.0
100
AcDbLine
 10
6423.599999999995
 20
7455.463276680835
 30
0.0
 11
6423.600000000002
 21
7255.463276680874
 31
0.0
  0
LINE
  5
2C469
330
747D
100
AcDbEntity
  8
細線
 48
50.0
100
AcDbLine
 10
6223.599999999997
 20
7392.388365654679
 30
0.0
 11
6286.674911026157
 21
7455.463276680835
 31
0.0
  0
LINE
  5
2C46A
330
747D
100
AcDbEntity
  8
部品1
 48
50.0
100
AcDbLine
 10
6223.599999999994
 20
7455.463276680835
 30
0.0
 11
6223.600000000002
 21
7255.463276680874
 31
0.0
  0
LINE
  5
2C46B
330
747D
100
AcDbEntity
  8
細線
 48
50.0
100
AcDbLine
 10
6223.600000000004
 20
7257.684523838645
 30
0.0
 11
6421.378752842194
 21
7455.463276680835
 31
0.0
  0
LINE
  5
2C46C
330
747D
100
AcDbEntity
  8
細線
 48
50.0
100
AcDbLine
 10
6223.600000000001
 20
7302.585804443991
 30
0.0
 11
6376.477472236848
 21
7455.463276680835
 31
0.0
  0
LINE
  5
2C46D
330
747D
100
AcDbEntity
  8
細線
 48
50.0
100
AcDbLine
 10
6223.600000000001
 20
7347.487085049333
 30
0.0
 11
6331.576191631502
 21
7455.463276680835
 31
0.0
  0
LINE
  5
2C46F
330
747D
100
AcDbEntity
  8
細線
 48
50.0
100
AcDbLine
 10
6356.08259465825
 20
7255.463276680872
 30
0.0
 11
6423.6
 21
7322.980682022624
 31
0.0
  0
LINE
  5
2C470
330
747D
100
AcDbEntity
  8
細線
 48
50.0
100
AcDbLine
 10
6311.181314052888
 20
7255.463276680874
 30
0.0
 11
6423.599999999999
 21
7367.881962627947
 31
0.0
  0
LINE
  5
2C471
330
747D
100
AcDbEntity
  8
細線
 48
50.0
100
AcDbLine
 10
6266.280033447574
 20
7255.463276680874
 30
0.0
 11
6423.599999999995
 21
7412.783243233292
 31
0.0
  0
LINE
  5
2C472
330
747D
100
AcDbEntity
  8
細線
 48
50.0
100
AcDbLine
 10
6400.983875263577
 20
7255.463276680874
 30
0.0
 11
6423.6
 21
7278.07940141729
 31
0.0
  0
LINE
  5
2C473
330
747D
100
AcDbEntity
  8
センター
 48
2.0
100
AcDbLine
 10
6680.600000000001
 20
7382.463276680876
 30
0.0
 11
6680.600000000001
 21
7282.463276680876
 31
0.0
  0
CIRCLE
  5
2C474
330
747D
100
AcDbEntity
  8
部品1
 48
50.0
100
AcDbCircle
 10
6680.600000000001
 20
7332.463276680876
 30
0.0
 40
35.0
  0
LINE
  5
2C475
330
747D
100
AcDbEntity
  8
センター
 48
2.0
100
AcDbLine
 10
6630.600000000001
 20
7332.463276680876
 30
0.0
 11
6730.600000000001
 21
7332.463276680876
 31
0.0
  0
LINE
  5
2C476
330
747D
100
AcDbEntity
  8
細線
 48
50.0
100
AcDbLine
 10
6223.599999999997
 20
7437.289646260023
 30
0.0
 11
6241.773630420812
 21
7455.463276680835
 31
0.0
  0
LINE
  5
2C478
330
747D
100
AcDbEntity
  8
部品1
 48
50.0
100
AcDbLine
 10
7373.599999999995
 20
7455.463276680835
 30
0.0
 11
7373.600000000002
 21
7255.463276680874
 31
0.0
  0
LINE
  5
2C479
330
747D
100
AcDbEntity
  8
細線
 48
50.0
100
AcDbLine
 10
7173.599999999997
 20
7392.388365654679
 30
0.0
 11
7236.674911026158
 21
7455.463276680835
 31
0.0
  0
LINE
  5
2C47A
330
747D
100
AcDbEntity
  8
部品1
 48
50.0
100
AcDbLine
 10
7173.599999999995
 20
7455.463276680835
 30
0.0
 11
7173.600000000002
 21
7255.463276680874
 31
0.0
  0
LINE
  5
2C47B
330
747D
100
AcDbEntity
  8
細線
 48
50.0
100
AcDbLine
 10
7173.600000000004
 20
7257.684523838645
 30
0.0
 11
7371.378752842194
 21
7455.463276680835
 31
0.0
  0
LINE
  5
2C47C
330
747D
100
AcDbEntity
  8
細線
 48
50.0
100
AcDbLine
 10
7173.6
 20
7302.585804443991
 30
0.0
 11
7326.477472236847
 21
7455.463276680835
 31
0.0
  0
LINE
  5
2C47D
330
747D
100
AcDbEntity
  8
細線
 48
50.0
100
AcDbLine
 10
7173.6
 20
7347.487085049333
 30
0.0
 11
7281.576191631502
 21
7455.463276680835
 31
0.0
  0
LINE
  5
2C47E
330
747D
100
AcDbEntity
  8
細線
 48
50.0
100
AcDbLine
 10
7306.082594658249
 20
7255.463276680872
 30
0.0
 11
7373.6
 21
7322.980682022624
 31
0.0
  0
LINE
  5
2C47F
330
747D
100
AcDbEntity
  8
細線
 48
50.0
100
AcDbLine
 10
7350.983875263577
 20
7255.463276680874
 30
0.0
 11
7373.6
 21
7278.07940141729
 31
0.0
  0
LINE
  5
2C480
330
747D
100
AcDbEntity
  8
細線
 48
50.0
100
AcDbLine
 10
7261.181314052888
 20
7255.463276680874
 30
0.0
 11
7373.599999999999
 21
7367.881962627947
 31
0.0
  0
LINE
  5
2C481
330
747D
100
AcDbEntity
  8
細線
 48
50.0
100
AcDbLine
 10
7216.280033447574
 20
7255.463276680874
 30
0.0
 11
7373.599999999995
 21
7412.783243233292
 31
0.0
  0
LINE
  5
2C482
330
747D
100
AcDbEntity
  8
細線
 48
50.0
100
AcDbLine
 10
7173.599999999997
 20
7437.289646260023
 30
0.0
 11
7191.773630420811
 21
7455.463276680835
 31
0.0
  0
LINE
  5
2C487
102
{ACAD_REACTORS
330
2D62F
102
}
330
747D
100
AcDbEntity
  8
部品1
 48
50.0
100
AcDbLine
 10
8123.599999999994
 20
7455.463276680835
 30
0.0
 11
8123.600000000001
 21
7255.463276680874
 31
0.0
  0
LINE
  5
2C489
330
747D
100
AcDbEntity
  8
部品1
 48
50.0
100
AcDbLine
 10
7848.600000000008
 20
6902.463276680873
 30
0.0
 11
7648.600000000008
 21
6902.463276680873
 31
0.0
  0
LINE
  5
2C48E
102
{ACAD_REACTORS
330
2D62F
102
}
330
747D
100
AcDbEntity
  8
部品1
 48
50.0
100
AcDbLine
 10
8323.600000000002
 20
7455.463276680875
 30
0.0
 11
8323.600000000002
 21
7255.463276680874
 31
0.0
  0
LINE
  5
2C490
330
747D
100
AcDbEntity
  8
寸法
 48
50.0
100
AcDbLine
 10
7748.600000000007
 20
7938.072093351006
 30
0.0
 11
8028.600000000007
 21
7938.072093351006
 31
0.0
  0
LINE
  5
2C493
330
747D
100
AcDbEntity
  8
細線
 48
50.0
100
AcDbLine
 10
12383.6
 20
6757.585804444076
 30
0.0
 11
12503.59999999998
 21
6877.585804444056
 31
0.0
  0
LINE
  5
2C494
330
747D
100
AcDbEntity
  8
細線
 48
50.0
100
AcDbLine
 10
12383.6
 20
6802.487085049421
 30
0.0
 11
12471.57619163151
 21
6890.463276680927
 31
0.0
  0
LINE
  5
2C495
330
747D
100
AcDbEntity
  8
部品1
 48
50.0
100
AcDbLine
 10
11648.60000000001
 20
6702.463276680873
 30
0.0
 11
11648.60000000001
 21
6902.463276680873
 31
0.0
  0
LINE
  5
2C496
330
747D
100
AcDbEntity
  8
部品1
 48
50.0
100
AcDbLine
 10
11448.60000000001
 20
6702.463276680873
 30
0.0
 11
11448.60000000001
 21
6902.463276680873
 31
0.0
  0
LINE
  5
2C497
330
747D
100
AcDbEntity
  8
部品1
 48
50.0
100
AcDbLine
 10
10698.60000000001
 20
6702.463276680873
 30
0.0
 11
10698.60000000001
 21
6902.463276680873
 31
0.0
  0
LINE
  5
2C498
330
747D
100
AcDbEntity
  8
部品1
 48
50.0
100
AcDbLine
 10
10498.60000000001
 20
6702.463276680873
 30
0.0
 11
10498.60000000001
 21
6902.463276680873
 31
0.0
  0
LINE
  5
2C499
330
747D
100
AcDbEntity
  8
部品1
 48
50.0
100
AcDbLine
 10
9548.600000000007
 20
6702.463276680873
 30
0.0
 11
9548.600000000007
 21
6902.463276680873
 31
0.0
  0
LINE
  5
2C49A
330
747D
100
AcDbEntity
  8
部品1
 48
50.0
100
AcDbLine
 10
9748.600000000008
 20
6702.463276680873
 30
0.0
 11
9748.600000000008
 21
6902.463276680873
 31
0.0
  0
DIMENSION
  5
2C49B
330
747D
100
AcDbEntity
  8
寸法
 48
50.0
100
AcDbDimension
  2
*D33
 10
10598.60000000001
 20
7938.072093351123
 30
0.0
 11
11073.60000000001
 21
8038.072093351123
 31
0.0
 70
    32
 71
     5
 42
950.0
  3
INABA_S40G
100
AcDbAlignedDimension
 13
11548.60000000001
 23
6852.463276680873
 33
0.0
 14
10598.60000000001
 24
6852.463276680873
 34
0.0
100
AcDbRotatedDimension
1001
ACAD
1000
DSTYLE
1002
{
1070
   341
1005
0
1002
}
  0
DIMENSION
  5
2C49C
330
747D
100
AcDbEntity
  8
寸法
 48
50.0
100
AcDbDimension
  2
*D34
 10
9648.600000000008
 20
7938.072093351123
 30
0.0
 11
10123.60000000001
 21
8038.072093351123
 31
0.0
 70
    32
 71
     5
 42
950.0
  3
INABA_S40G
100
AcDbAlignedDimension
 13
10598.60000000001
 23
6852.463276680873
 33
0.0
 14
9648.600000000008
 24
6852.463276680873
 34
0.0
100
AcDbRotatedDimension
1001
ACAD
1000
DSTYLE
1002
{
1070
   341
1005
0
1002
}
  0
DIMENSION
  5
2C49D
330
747D
100
AcDbEntity
  8
寸法
 48
50.0
100
AcDbDimension
  2
*D35
 10
11548.60000000001
 20
7938.072093351123
 30
0.0
 11
12026.1
 21
8038.072093351123
 31
0.0
 70
    32
 71
     5
 42
954.9999999999927
  3
INABA_S40G
100
AcDbAlignedDimension
 13
12503.6
 23
7455.463276680875
 33
0.0
 14
11548.60000000001
 24
6852.463276680873
 34
0.0
100
AcDbRotatedDimension
1001
ACAD
1000
DSTYLE
1002
{
1070
   341
1005
0
1002
}
  0
LINE
  5
2C49E
330
747D
100
AcDbEntity
  8
部品1
 48
50.0
100
AcDbLine
 10
12503.6
 20
6075.463276680892
 30
0.0
 11
12503.6
 21
7455.463276680875
 31
0.0
  0
LINE
  5
2C4A1
330
747D
100
AcDbEntity
  8
部品1
 48
50.0
100
AcDbLine
 10
8798.600000000007
 20
6702.463276680873
 30
0.0
 11
8798.600000000007
 21
6902.463276680873
 31
0.0
  0
LINE
  5
2C4A2
330
747D
100
AcDbEntity
  8
部品1
 48
50.0
100
AcDbLine
 10
8598.600000000008
 20
6702.463276680873
 30
0.0
 11
8598.600000000008
 21
6902.463276680873
 31
0.0
  0
DIMENSION
  5
2C4A5
330
747D
100
AcDbEntity
  8
寸法
 48
50.0
100
AcDbDimension
  2
*D36
 10
8698.600000000007
 20
7938.072093351123
 30
0.0
 11
9173.600000000007
 21
8038.072093351123
 31
0.0
 70
    32
 71
     5
 42
950.0
  3
INABA_S40G
100
AcDbAlignedDimension
 13
9648.600000000008
 23
6852.463276680873
 33
0.0
 14
8698.600000000007
 24
6852.463276680873
 34
0.0
100
AcDbRotatedDimension
1001
ACAD
1000
DSTYLE
1002
{
1070
   341
1005
0
1002
}
  0
LINE
  5
2C4AC
330
747D
100
AcDbEntity
  8
細線
 48
50.0
100
AcDbLine
 10
9254.305645554456
 20
6075.463276680849
 30
0.0
 11
9273.6
 21
6094.757631126393
 31
0.0
  0
LINE
  5
2C4AD
330
747D
100
AcDbEntity
  8
細線
 48
50.0
100
AcDbLine
 10
9209.404364949108
 20
6075.463276680846
 30
0.0
 11
9273.6
 21
6139.658911731738
 31
0.0
  0
LINE
  5
2C4AE
330
747D
100
AcDbEntity
  8
細線
 48
50.0
100
AcDbLine
 10
9074.700523133072
 20
6075.463276680846
 30
0.0
 11
9273.599999999992
 21
6274.362753547766
 31
0.0
  0
LINE
  5
2C4AF
330
747D
100
AcDbEntity
  8
細線
 48
50.0
100
AcDbLine
 10
9119.601803738417
 20
6075.463276680846
 30
0.0
 11
9273.599999999992
 21
6229.461472942423
 31
0.0
  0
LINE
  5
2C4B0
330
747D
100
AcDbEntity
  8
細線
 48
50.0
100
AcDbLine
 10
9164.503084343763
 20
6075.463276680846
 30
0.0
 11
9273.6
 21
6184.560192337084
 31
0.0
  0
LINE
  5
2C4B1
330
747D
100
AcDbEntity
  8
細線
 48
50.0
100
AcDbLine
 10
9073.599999999997
 20
6119.264034153117
 30
0.0
 11
9273.599999999989
 21
6319.26403415311
 31
0.0
  0
LINE
  5
2C4B2
330
747D
100
AcDbEntity
  8
細線
 48
50.0
100
AcDbLine
 10
9073.599999999993
 20
6253.967875969152
 30
0.0
 11
9175.095400711736
 21
6355.463276680892
 31
0.0
  0
LINE
  5
2C4B3
330
747D
100
AcDbEntity
  8
部品1
 48
50.0
100
AcDbLine
 10
9073.599999999991
 20
6355.463276680892
 30
0.0
 11
9073.599999999997
 21
6075.463276680845
 31
0.0
  0
LINE
  5
2C4B4
330
747D
100
AcDbEntity
  8
細線
 48
50.0
100
AcDbLine
 10
9073.599999999993
 20
6209.066595363806
 30
0.0
 11
9219.996681317077
 21
6355.463276680892
 31
0.0
  0
LINE
  5
2C4B5
330
747D
100
AcDbEntity
  8
細線
 48
50.0
100
AcDbLine
 10
9073.599999999995
 20
6164.165314758462
 30
0.0
 11
9264.89796192242
 21
6355.46327668089
 31
0.0
  0
LINE
  5
2C4B6
330
747D
100
AcDbEntity
  8
部品1
 48
50.0
100
AcDbLine
 10
8798.600000000007
 20
6702.463276680873
 30
0.0
 11
8598.600000000008
 21
6702.463276680873
 31
0.0
  0
LINE
  5
2C4B7
330
747D
100
AcDbEntity
  8
センター
 48
2.0
100
AcDbLine
 10
8648.600000000007
 20
6802.463276680874
 30
0.0
 11
8748.600000000008
 21
6802.463276680874
 31
0.0
  0
LINE
  5
2C4B8
330
747D
100
AcDbEntity
  8
センター
 48
2.0
100
AcDbLine
 10
8698.600000000007
 20
6852.463276680873
 30
0.0
 11
8698.600000000007
 21
6752.463276680874
 31
0.0
  0
LINE
  5
2C4B9
330
747D
100
AcDbEntity
  8
細線
 48
50.0
100
AcDbLine
 10
9073.599999999993
 20
6298.869156574496
 30
0.0
 11
9130.194120106384
 21
6355.46327668089
 31
0.0
  0
LINE
  5
2C4BB
330
747D
100
AcDbEntity
  8
部品1
 48
50.0
100
AcDbLine
 10
9273.599999999989
 20
6355.463276680893
 30
0.0
 11
9273.599999999998
 21
6075.463276680848
 31
0.0
  0
LINE
  5
2C4BC
330
747D
100
AcDbEntity
  8
センター
 48
2.0
100
AcDbLine
 10
9530.600000000008
 20
6323.463276680877
 30
0.0
 11
9530.600000000008
 21
6223.463276680877
 31
0.0
  0
CIRCLE
  5
2C4BD
330
747D
100
AcDbEntity
  8
部品1
 48
50.0
100
AcDbCircle
 10
9530.600000000008
 20
6273.463276680877
 30
0.0
 40
35.0
  0
LINE
  5
2C4BE
330
747D
100
AcDbEntity
  8
センター
 48
2.0
100
AcDbLine
 10
9480.600000000007
 20
6273.463276680877
 30
0.0
 11
9580.600000000009
 21
6273.463276680877
 31
0.0
  0
LINE
  5
2C4BF
330
747D
100
AcDbEntity
  8
部品1
 48
50.0
100
AcDbLine
 10
9748.600000000008
 20
6702.463276680873
 30
0.0
 11
9548.600000000007
 21
6702.463276680873
 31
0.0
  0
LINE
  5
2C4C0
330
747D
100
AcDbEntity
  8
センター
 48
2.0
100
AcDbLine
 10
9598.600000000008
 20
6802.463276680874
 30
0.0
 11
9698.600000000007
 21
6802.463276680874
 31
0.0
  0
LINE
  5
2C4C1
330
747D
100
AcDbEntity
  8
センター
 48
2.0
100
AcDbLine
 10
9648.600000000008
 20
6852.463276680873
 30
0.0
 11
9648.600000000008
 21
6752.463276680874
 31
0.0
  0
LINE
  5
2C4C7
330
747D
100
AcDbEntity
  8
センター
 48
2.0
100
AcDbLine
 10
10598.60000000001
 20
6852.463276680873
 30
0.0
 11
10598.60000000001
 21
6752.463276680874
 31
0.0
  0
LINE
  5
2C4C8
330
747D
100
AcDbEntity
  8
センター
 48
2.0
100
AcDbLine
 10
10548.60000000001
 20
6802.463276680874
 30
0.0
 11
10648.60000000001
 21
6802.463276680874
 31
0.0
  0
LINE
  5
2C4C9
330
747D
100
AcDbEntity
  8
部品1
 48
50.0
100
AcDbLine
 10
10698.60000000001
 20
6702.463276680873
 30
0.0
 11
10498.60000000001
 21
6702.463276680873
 31
0.0
  0
LINE
  5
2C4D6
330
747D
100
AcDbEntity
  8
センター
 48
2.0
100
AcDbLine
 10
11498.6
 20
6802.463276680874
 30
0.0
 11
11598.60000000001
 21
6802.463276680874
 31
0.0
  0
LINE
  5
2C4D7
330
747D
100
AcDbEntity
  8
部品1
 48
50.0
100
AcDbLine
 10
11648.60000000001
 20
6702.463276680873
 30
0.0
 11
11448.60000000001
 21
6702.463276680873
 31
0.0
  0
LINE
  5
2C4D8
330
747D
100
AcDbEntity
  8
センター
 48
2.0
100
AcDbLine
 10
11548.60000000001
 20
6852.463276680873
 30
0.0
 11
11548.60000000001
 21
6752.463276680874
 31
0.0
  0
LINE
  5
2C4E6
330
747D
100
AcDbEntity
  8
センター
 48
2.0
100
AcDbLine
 10
12380.60000000001
 20
6323.463276680877
 30
0.0
 11
12380.60000000001
 21
6223.463276680877
 31
0.0
  0
CIRCLE
  5
2C4E7
330
747D
100
AcDbEntity
  8
部品1
 48
50.0
100
AcDbCircle
 10
12380.60000000001
 20
6273.463276680877
 30
0.0
 40
35.0
  0
LINE
  5
2C4EC
330
747D
100
AcDbEntity
  8
センター
 48
2.0
100
AcDbLine
 10
12330.60000000001
 20
6273.463276680877
 30
0.0
 11
12430.6
 21
6273.463276680877
 31
0.0
  0
LINE
  5
2C4EE
330
747D
100
AcDbEntity
  8
細線
 48
50.0
100
AcDbLine
 10
12496.08259465823
 20
6690.463276680922
 30
0.0
 11
12503.59999999998
 21
6697.980682022673
 31
0.0
  0
LINE
  5
2C4EF
330
747D
100
AcDbEntity
  8
細線
 48
50.0
100
AcDbLine
 10
12451.18131405289
 20
6690.463276680927
 30
0.0
 11
12503.59999999998
 21
6742.88196262802
 31
0.0
  0
LINE
  5
2C4F0
330
747D
100
AcDbEntity
  8
細線
 48
50.0
100
AcDbLine
 10
12406.28003344754
 20
6690.463276680927
 30
0.0
 11
12503.59999999998
 21
6787.783243233365
 31
0.0
  0
LINE
  5
2C4F1
330
747D
100
AcDbEntity
  8
細線
 48
50.0
100
AcDbLine
 10
12383.6
 20
6712.684523838728
 30
0.0
 11
12503.59999999998
 21
6832.684523838711
 31
0.0
  0
LINE
  5
2C4F2
330
747D
100
AcDbEntity
  8
部品1
 48
50.0
100
AcDbLine
 10
12503.59999999998
 20
6690.463276680927
 30
0.0
 11
12383.6
 21
6690.463276680927
 31
0.0
  0
DIMENSION
  5
2C4F3
330
747D
100
AcDbEntity
  8
寸法
 48
50.0
100
AcDbDimension
  2
*D37
 10
9530.600000000001
 20
8181.729734774783
 30
0.0
 11
10955.6
 21
8281.741545798407
 31
0.0
 70
    32
 71
     5
 42
2850.0
  3
INABA_S40G
100
AcDbAlignedDimension
 13
12380.6
 23
7382.463276680876
 33
0.0
 14
9530.600000000001
 24
7382.463276680876
 34
0.0
100
AcDbRotatedDimension
1001
ACAD
1000
DSTYLE
1002
{
1070
   341
1005
0
1002
}
  0
LINE
  5
2C4F4
330
747D
100
AcDbEntity
  8
細線
 48
50.0
100
AcDbLine
 10
10023.6
 20
7347.487085049333
 30
0.0
 11
10131.5761916315
 21
7455.463276680835
 31
0.0
  0
LINE
  5
2C4F5
330
747D
100
AcDbEntity
  8
細線
 48
50.0
100
AcDbLine
 10
10023.6
 20
7302.585804443991
 30
0.0
 11
10176.47747223685
 21
7455.463276680835
 31
0.0
  0
LINE
  5
2C4F6
330
747D
100
AcDbEntity
  8
細線
 48
50.0
100
AcDbLine
 10
10023.59999999999
 20
7392.388365654679
 30
0.0
 11
10086.67491102615
 21
7455.463276680835
 31
0.0
  0
LINE
  5
2C4F7
330
747D
100
AcDbEntity
  8
細線
 48
50.0
100
AcDbLine
 10
10023.6
 20
7257.684523838645
 30
0.0
 11
10221.37875284219
 21
7455.463276680835
 31
0.0
  0
LINE
  5
2C4F8
330
747D
100
AcDbEntity
  8
細線
 48
50.0
100
AcDbLine
 10
10066.28003344757
 20
7255.463276680874
 30
0.0
 11
10223.59999999999
 21
7412.783243233292
 31
0.0
  0
LINE
  5
2C4F9
330
747D
100
AcDbEntity
  8
細線
 48
50.0
100
AcDbLine
 10
9206.08259465825
 20
7255.463276680872
 30
0.0
 11
9273.6
 21
7322.980682022624
 31
0.0
  0
LINE
  5
2C4FA
330
747D
100
AcDbEntity
  8
細線
 48
50.0
100
AcDbLine
 10
9250.983875263576
 20
7255.463276680874
 30
0.0
 11
9273.6
 21
7278.07940141729
 31
0.0
  0
LINE
  5
2C4FB
330
747D
100
AcDbEntity
  8
細線
 48
50.0
100
AcDbLine
 10
9161.181314052887
 20
7255.463276680874
 30
0.0
 11
9273.6
 21
7367.881962627947
 31
0.0
  0
LINE
  5
2C4FC
330
747D
100
AcDbEntity
  8
細線
 48
50.0
100
AcDbLine
 10
9116.280033447575
 20
7255.463276680874
 30
0.0
 11
9273.599999999994
 21
7412.783243233292
 31
0.0
  0
LINE
  5
2C4FD
330
747D
100
AcDbEntity
  8
細線
 48
50.0
100
AcDbLine
 10
9073.600000000004
 20
7257.684523838645
 30
0.0
 11
9271.378752842194
 21
7455.463276680835
 31
0.0
  0
LINE
  5
2C4FE
330
747D
100
AcDbEntity
  8
細線
 48
50.0
100
AcDbLine
 10
9073.599999999997
 20
7392.388365654679
 30
0.0
 11
9136.674911026158
 21
7455.463276680835
 31
0.0
  0
LINE
  5
2C4FF
330
747D
100
AcDbEntity
  8
部品1
 48
50.0
100
AcDbLine
 10
9073.599999999995
 20
7455.463276680835
 30
0.0
 11
9073.600000000002
 21
7255.463276680874
 31
0.0
  0
LINE
  5
2C500
330
747D
100
AcDbEntity
  8
細線
 48
50.0
100
AcDbLine
 10
9073.6
 20
7302.585804443991
 30
0.0
 11
9226.477472236847
 21
7455.463276680835
 31
0.0
  0
LINE
  5
2C501
330
747D
100
AcDbEntity
  8
細線
 48
50.0
100
AcDbLine
 10
9073.6
 20
7347.487085049333
 30
0.0
 11
9181.576191631503
 21
7455.463276680835
 31
0.0
  0
LINE
  5
2C502
330
747D
100
AcDbEntity
  8
部品1
 48
50.0
100
AcDbLine
 10
8798.600000000007
 20
6902.463276680873
 30
0.0
 11
8598.600000000008
 21
6902.463276680873
 31
0.0
  0
LINE
  5
2C503
330
747D
100
AcDbEntity
  8
細線
 48
50.0
100
AcDbLine
 10
9073.599999999997
 20
7437.289646260023
 30
0.0
 11
9091.773630420812
 21
7455.463276680835
 31
0.0
  0
LINE
  5
2C504
330
747D
100
AcDbEntity
  8
部品1
 48
50.0
100
AcDbLine
 10
10023.59999999999
 20
7455.463276680835
 30
0.0
 11
10023.6
 21
7255.463276680874
 31
0.0
  0
LINE
  5
2C505
330
747D
100
AcDbEntity
  8
部品1
 48
50.0
100
AcDbLine
 10
9273.599999999994
 20
7455.463276680835
 30
0.0
 11
9273.600000000001
 21
7255.463276680874
 31
0.0
  0
LINE
  5
2C506
330
747D
100
AcDbEntity
  8
部品1
 48
50.0
100
AcDbLine
 10
9748.600000000008
 20
6902.463276680873
 30
0.0
 11
9548.600000000007
 21
6902.463276680873
 31
0.0
  0
LINE
  5
2C507
330
747D
100
AcDbEntity
  8
センター
 48
2.0
100
AcDbLine
 10
9530.600000000001
 20
7382.463276680876
 30
0.0
 11
9530.600000000001
 21
7282.463276680876
 31
0.0
  0
CIRCLE
  5
2C508
330
747D
100
AcDbEntity
  8
部品1
 48
50.0
100
AcDbCircle
 10
9530.600000000001
 20
7332.463276680876
 30
0.0
 40
35.0
  0
LINE
  5
2C509
330
747D
100
AcDbEntity
  8
センター
 48
2.0
100
AcDbLine
 10
9480.6
 20
7332.463276680876
 30
0.0
 11
9580.600000000002
 21
7332.463276680876
 31
0.0
  0
LINE
  5
2C50A
330
747D
100
AcDbEntity
  8
細線
 48
50.0
100
AcDbLine
 10
10023.59999999999
 20
7437.289646260023
 30
0.0
 11
10041.77363042081
 21
7455.463276680835
 31
0.0
  0
LINE
  5
2C50B
330
747D
100
AcDbEntity
  8
寸法
 48
50.0
100
AcDbLine
 10
8830.55544517793
 20
8181.729734774783
 30
0.0
 11
9530.600000000001
 21
8181.729734774783
 31
0.0
  0
LINE
  5
2C50D
330
747D
100
AcDbEntity
  8
部品1
 48
50.0
100
AcDbLine
 10
10223.59999999999
 20
7455.463276680835
 30
0.0
 11
10223.6
 21
7255.463276680874
 31
0.0
  0
LINE
  5
2C50E
330
747D
100
AcDbEntity
  8
細線
 48
50.0
100
AcDbLine
 10
10111.18131405289
 20
7255.463276680874
 30
0.0
 11
10223.6
 21
7367.881962627947
 31
0.0
  0
LINE
  5
2C50F
330
747D
100
AcDbEntity
  8
細線
 48
50.0
100
AcDbLine
 10
10200.98387526358
 20
7255.463276680874
 30
0.0
 11
10223.6
 21
7278.07940141729
 31
0.0
  0
LINE
  5
2C510
330
747D
100
AcDbEntity
  8
細線
 48
50.0
100
AcDbLine
 10
10156.08259465825
 20
7255.463276680872
 30
0.0
 11
10223.6
 21
7322.980682022624
 31
0.0
  0
LINE
  5
2C511
330
747D
100
AcDbEntity
  8
部品1
 48
50.0
100
AcDbLine
 10
10698.60000000001
 20
6902.463276680873
 30
0.0
 11
10498.60000000001
 21
6902.463276680873
 31
0.0
  0
LINE
  5
2C512
330
747D
100
AcDbEntity
  8
細線
 48
50.0
100
AcDbLine
 10
10973.6
 20
7347.487085049333
 30
0.0
 11
11081.5761916315
 21
7455.463276680835
 31
0.0
  0
LINE
  5
2C513
330
747D
100
AcDbEntity
  8
細線
 48
50.0
100
AcDbLine
 10
10973.6
 20
7302.585804443991
 30
0.0
 11
11126.47747223685
 21
7455.463276680835
 31
0.0
  0
LINE
  5
2C514
330
747D
100
AcDbEntity
  8
細線
 48
50.0
100
AcDbLine
 10
10973.59999999999
 20
7392.388365654679
 30
0.0
 11
11036.67491102616
 21
7455.463276680835
 31
0.0
  0
LINE
  5
2C515
330
747D
100
AcDbEntity
  8
細線
 48
50.0
100
AcDbLine
 10
10973.6
 20
7257.684523838645
 30
0.0
 11
11171.37875284219
 21
7455.463276680835
 31
0.0
  0
LINE
  5
2C516
330
747D
100
AcDbEntity
  8
部品1
 48
50.0
100
AcDbLine
 10
10973.59999999999
 20
7455.463276680835
 30
0.0
 11
10973.6
 21
7255.463276680874
 31
0.0
  0
LINE
  5
2C517
330
747D
100
AcDbEntity
  8
部品1
 48
50.0
100
AcDbLine
 10
11173.59999999999
 20
7455.463276680835
 30
0.0
 11
11173.6
 21
7255.463276680874
 31
0.0
  0
LINE
  5
2C518
330
747D
100
AcDbEntity
  8
細線
 48
50.0
100
AcDbLine
 10
11016.28003344757
 20
7255.463276680874
 30
0.0
 11
11173.59999999999
 21
7412.783243233292
 31
0.0
  0
LINE
  5
2C519
330
747D
100
AcDbEntity
  8
細線
 48
50.0
100
AcDbLine
 10
11061.18131405289
 20
7255.463276680874
 30
0.0
 11
11173.6
 21
7367.881962627947
 31
0.0
  0
LINE
  5
2C51A
330
747D
100
AcDbEntity
  8
細線
 48
50.0
100
AcDbLine
 10
11106.08259465825
 20
7255.463276680872
 30
0.0
 11
11173.6
 21
7322.980682022624
 31
0.0
  0
LINE
  5
2C51B
330
747D
100
AcDbEntity
  8
細線
 48
50.0
100
AcDbLine
 10
11150.98387526358
 20
7255.463276680874
 30
0.0
 11
11173.6
 21
7278.07940141729
 31
0.0
  0
LINE
  5
2C51C
330
747D
100
AcDbEntity
  8
部品1
 48
50.0
100
AcDbLine
 10
11648.60000000001
 20
6902.463276680873
 30
0.0
 11
11448.60000000001
 21
6902.463276680873
 31
0.0
  0
LINE
  5
2C51D
330
747D
100
AcDbEntity
  8
細線
 48
50.0
100
AcDbLine
 10
10973.59999999999
 20
7437.289646260023
 30
0.0
 11
10991.77363042081
 21
7455.463276680835
 31
0.0
  0
DIMENSION
  5
2C51E
330
747D
100
AcDbEntity
  8
寸法
 48
50.0
100
AcDbDimension
  2
*D38
 10
12380.6
 20
8181.729734774783
 30
0.0
 11
12776.7066017178
 21
8181.729734774783
 31
0.0
 70
   160
 71
     5
 42
123.0
  3
INABA_S40G
100
AcDbAlignedDimension
 13
12503.6
 23
7455.463276680875
 33
0.0
 14
12380.6
 24
7382.463276680876
 34
0.0
100
AcDbRotatedDimension
1001
ACAD
1000
DSTYLE
1002
{
1070
   341
1005
0
1002
}
  0
LINE
  5
2C521
330
747D
100
AcDbEntity
  8
部品1
 48
50.0
100
AcDbLine
 10
12123.59999999999
 20
7455.463276680835
 30
0.0
 11
12123.6
 21
7255.463276680874
 31
0.0
  0
LINE
  5
2C522
330
747D
100
AcDbEntity
  8
細線
 48
50.0
100
AcDbLine
 10
11923.59999999999
 20
7392.388365654679
 30
0.0
 11
11986.67491102616
 21
7455.463276680835
 31
0.0
  0
LINE
  5
2C523
330
747D
100
AcDbEntity
  8
細線
 48
50.0
100
AcDbLine
 10
11923.6
 20
7347.487085049333
 30
0.0
 11
12031.5761916315
 21
7455.463276680835
 31
0.0
  0
LINE
  5
2C524
330
747D
100
AcDbEntity
  8
部品1
 48
50.0
100
AcDbLine
 10
11923.59999999999
 20
7455.463276680835
 30
0.0
 11
11923.6
 21
7255.463276680874
 31
0.0
  0
LINE
  5
2C525
330
747D
100
AcDbEntity
  8
細線
 48
50.0
100
AcDbLine
 10
11923.6
 20
7257.684523838645
 30
0.0
 11
12121.37875284219
 21
7455.463276680835
 31
0.0
  0
LINE
  5
2C526
330
747D
100
AcDbEntity
  8
細線
 48
50.0
100
AcDbLine
 10
11923.6
 20
7302.585804443991
 30
0.0
 11
12076.47747223685
 21
7455.463276680835
 31
0.0
  0
LINE
  5
2C527
330
747D
100
AcDbEntity
  8
細線
 48
50.0
100
AcDbLine
 10
12056.08259465825
 20
7255.463276680872
 30
0.0
 11
12123.6
 21
7322.980682022624
 31
0.0
  0
LINE
  5
2C528
330
747D
100
AcDbEntity
  8
細線
 48
50.0
100
AcDbLine
 10
12100.98387526358
 20
7255.463276680874
 30
0.0
 11
12123.6
 21
7278.07940141729
 31
0.0
  0
LINE
  5
2C529
330
747D
100
AcDbEntity
  8
細線
 48
50.0
100
AcDbLine
 10
12011.18131405289
 20
7255.463276680874
 30
0.0
 11
12123.6
 21
7367.881962627947
 31
0.0
  0
LINE
  5
2C52A
330
747D
100
AcDbEntity
  8
細線
 48
50.0
100
AcDbLine
 10
11966.28003344757
 20
7255.463276680874
 30
0.0
 11
12123.59999999999
 21
7412.783243233292
 31
0.0
  0
LINE
  5
2C52B
330
747D
100
AcDbEntity
  8
細線
 48
50.0
100
AcDbLine
 10
12383.6
 20
6847.388365654764
 30
0.0
 11
12426.67491102616
 21
6890.463276680927
 31
0.0
  0
LINE
  5
2C52C
330
747D
100
AcDbEntity
  8
部品1
 48
50.0
100
AcDbLine
 10
12503.59999999998
 20
6890.463276680927
 30
0.0
 11
12383.6
 21
6890.463276680927
 31
0.0
  0
LINE
  5
2C52D
330
747D
100
AcDbEntity
  8
センター
 48
2.0
100
AcDbLine
 10
12330.6
 20
7332.463276680876
 30
0.0
 11
12430.6
 21
7332.463276680876
 31
0.0
  0
LINE
  5
2C52E
330
747D
100
AcDbEntity
  8
センター
 48
2.0
100
AcDbLine
 10
12380.6
 20
7382.463276680876
 30
0.0
 11
12380.6
 21
7282.463276680876
 31
0.0
  0
CIRCLE
  5
2C52F
330
747D
100
AcDbEntity
  8
部品1
 48
50.0
100
AcDbCircle
 10
12380.6
 20
7332.463276680876
 30
0.0
 40
35.0
  0
LINE
  5
2C530
330
747D
100
AcDbEntity
  8
細線
 48
50.0
100
AcDbLine
 10
11923.59999999999
 20
7437.289646260023
 30
0.0
 11
11941.77363042081
 21
7455.463276680835
 31
0.0
  0
MTEXT
  5
2CB4C
330
747D
100
AcDbEntity
  8
寸法
 62
     7
 48
50.0
100
AcDbMText
 10
7060.988018207294
 20
8284.478069533099
 30
0.0
 40
120.0
 41
0.0
 71
     5
 72
     1
  1
\A1;2850
  7
STYLE1
 73
     1
 44
1.0
1001
ACAD
1000
MTEXTBEGIN
1070
    73
1070
     1
1070
    44
1040
1.0
1070
    74
1070
     0
1000
MTEXTEND
  0
MTEXT
  5
2CB52
330
747D
100
AcDbEntity
  8
寸法
 62
     7
 48
50.0
100
AcDbMText
 10
7910.726285480945
 20
8036.630851038717
 30
0.0
 40
120.0
 41
0.0
 71
     5
 72
     1
  1
\A1;950
  7
STYLE1
 73
     1
 44
1.0
1001
ACAD
1000
MTEXTBEGIN
1070
    73
1070
     1
1070
    44
1040
1.0
1070
    74
1070
     0
1000
MTEXTEND
  0
MTEXT
  5
2CB53
330
747D
100
AcDbEntity
  8
寸法
 62
     7
 48
50.0
100
AcDbMText
 10
8532.407563914757
 20
8036.630851038717
 30
0.0
 40
120.0
 41
0.0
 71
     5
 72
     1
  1
\A1;950
  7
STYLE1
 73
     1
 44
1.0
1001
ACAD
1000
MTEXTBEGIN
1070
    73
1070
     1
1070
    44
1040
1.0
1070
    74
1070
     0
1000
MTEXTEND
  0
MTEXT
  5
2CB54
330
747D
100
AcDbEntity
  8
寸法
 62
     7
 48
50.0
100
AcDbMText
 10
9135.742794041316
 20
8284.478069533099
 30
0.0
 40
120.0
 41
0.0
 71
     5
 72
     1
  1
\A1;2850
  7
STYLE1
 73
     1
 44
1.0
1001
ACAD
1000
MTEXTBEGIN
1070
    73
1070
     1
1070
    44
1040
1.0
1070
    74
1070
     0
1000
MTEXTEND
  0
DIMENSION
  5
2CEE6
330
747D
100
AcDbEntity
  8
寸法
 48
50.0
100
AcDbDimension
  2
*D39
 10
12383.6
 20
7005.061889778985
 30
0.0
 11
12773.65905511811
 21
7005.061889778985
 31
0.0
 70
   160
 71
     5
 42
120.0000000000018
  3
INABA_S40G
100
AcDbAlignedDimension
 13
12503.6
 23
6890.46327668091
 33
0.0
 14
12383.6
 24
6890.463276680927
 34
0.0
100
AcDbRotatedDimension
1001
ACAD
1000
DSTYLE
1002
{
1070
   341
1005
0
1002
}
  0
DIMENSION
  5
2CEE7
330
747D
100
AcDbEntity
  8
寸法
 48
50.0
100
AcDbDimension
  2
*D40
 10
11822.81202022566
 20
7255.463276680875
 30
0.0
 11
11822.81202022565
 21
7742.42685935803
 31
0.0
 70
   160
 71
     5
 42
199.9999999999854
  3
INABA_S40G
100
AcDbAlignedDimension
 13
11923.6
 23
7455.463276680861
 33
0.0
 14
11923.6
 24
7255.463276680875
 34
0.0
 50
90.0
100
AcDbRotatedDimension
1001
ACAD
1000
DSTYLE
1002
{
1070
   341
1005
0
1002
}
  0
DIMENSION
  5
2CEE8
330
747D
100
AcDbEntity
  8
寸法
 48
50.0
100
AcDbDimension
  2
*D41
 10
11822.81202022566
 20
6075.463276680892
 30
0.0
 11
11822.81202022565
 21
5788.49969400372
 31
0.0
 70
   160
 71
     5
 42
280.0
  3
INABA_S40G
100
AcDbAlignedDimension
 13
11923.59999999999
 23
6355.463276680892
 33
0.0
 14
11923.6
 24
6075.463276680892
 34
0.0
 50
90.0
100
AcDbRotatedDimension
1001
ACAD
1000
DSTYLE
1002
{
1070
   341
1005
0
1002
}
  0
DIMENSION
  5
2CEE9
330
747D
100
AcDbEntity
  8
寸法
 48
50.0
100
AcDbDimension
  2
*D42
 10
3068.72190961068
 20
6020.463276680901
 30
0.0
 11
2968.721909610679
 21
6047.963276680889
 31
0.0
 70
    32
  1
b
 71
     5
 42
54.99999999997453
  3
INABA_S40G
100
AcDbAlignedDimension
 13
3943.600000000001
 23
6075.463276680875
 33
0.0
 14
3320.665006330079
 24
6020.463276680901
 34
0.0
 50
90.0
100
AcDbRotatedDimension
1001
ACAD
1000
DSTYLE
1002
{
1070
   341
1005
0
1002
}
  0
DIMENSION
  5
2CEEA
330
747D
100
AcDbEntity
  8
寸法
 48
50.0
100
AcDbDimension
  2
*D43
 10
3068.72190961068
 20
7455.463276680875
 30
0.0
 11
2968.721909610679
 21
7492.963276680881
 31
0.0
 70
    32
  1
c
 71
     5
 42
75.00000000000728
  3
INABA_S40G
100
AcDbAlignedDimension
 13
3320.665006330071
 23
7530.463276680882
 33
0.0
 14
3943.600000000001
 24
7455.463276680875
 34
0.0
 50
90.0
100
AcDbRotatedDimension
1001
ACAD
1000
DSTYLE
1002
{
1070
   341
1005
0
1002
}
  0
LINE
  5
2CEEC
330
747D
100
AcDbEntity
  8
想像線
 48
10.0
100
AcDbLine
 10
12548.6
 20
6020.46327668089
 30
0.0
 11
12548.6
 21
7530.463276680878
 31
0.0
  0
LINE
  5
2CEED
330
747D
100
AcDbEntity
  8
想像線
 48
10.0
100
AcDbLine
 10
3898.6
 20
6020.463276680885
 30
0.0
 11
3898.6
 21
7530.463276680882
 31
0.0
  0
DIMENSION
  5
2CEEF
330
747D
100
AcDbEntity
  8
寸法
 48
50.0
100
AcDbDimension
  2
*D44
 10
3943.600000000001
 20
8413.683598739797
 30
0.0
 11
3627.425378797541
 21
8413.683598739797
 31
0.0
 70
   160
  1
a
 71
     5
 42
44.99999999999272
  3
INABA_S40G
100
AcDbAlignedDimension
 13
3898.600000000008
 23
8181.729734774789
 33
0.0
 14
3943.600000000001
 24
7455.463276680875
 34
0.0
100
AcDbRotatedDimension
1001
ACAD
1000
DSTYLE
1002
{
1070
   341
1005
0
1002
}
  0
DIMENSION
  5
2CEF0
330
747D
100
AcDbEntity
  8
寸法
 48
50.0
100
AcDbDimension
  2
*D45
 10
12548.6
 20
8413.683598739796
 30
0.0
 11
12819.77462120246
 21
8413.683598739796
 31
0.0
 70
   160
  1
a
 71
     5
 42
45.0
  3
INABA_S40G
100
AcDbAlignedDimension
 13
12503.6
 23
7455.463276680873
 33
0.0
 14
12548.6
 24
8181.729734774783
 34
0.0
100
AcDbRotatedDimension
1001
ACAD
1000
DSTYLE
1002
{
1070
   341
1005
0
1002
}
  0
LEADER
  5
2CEF1
330
747D
100
AcDbEntity
  8
寸法
 48
50.0
100
AcDbLeader
  3
INABA_S50G
 73
     0
 74
     0
 75
     1
 40
120.0
 41
149.591883092037
 76
     3
 10
11636.95401106101
 20
6763.772111169257
 30
0.0
 10
11764.23681392365
 20
6541.053797614431
 30
0.0
 10
11889.23681392366
 20
6541.053797614431
 30
0.0
340
2CEF2
1001
ACAD
1000
DSTYLE
1002
{
1070
   341
1005
0
1070
    40
1040
1.0
1070
   343
1005
0
1070
   344
1005
0
1002
}
  0
MTEXT
  5
2CEF2
102
{ACAD_REACTORS
330
2CEF1
102
}
330
747D
100
AcDbEntity
  8
部品1
 62
     7
 48
50.0
100
AcDbMText
 10
12063.82869701569
 20
6626.053797614432
 30
0.0
 40
120.0
 41
0.0
 71
     6
 72
     1
  1
CB
  7
STYLE1
 73
     1
 44
1.0
1001
ACAD
1000
MTEXTBEGIN
1070
    73
1070
     1
1070
    44
1040
1.0
1070
    74
1070
     0
1000
MTEXTEND
  0
LEADER
  5
2CEF3
330
747D
100
AcDbEntity
  8
寸法
 48
50.0
100
AcDbLeader
  3
INABA_S50G
 73
     0
 74
     0
 75
     1
 40
120.0
 41
994.3492424049171
 76
     3
 10
12380.680085757
 20
7332.671121039585
 30
0.0
 10
12554.64598830496
 20
7686.076020923383
 30
0.0
 10
12679.64598830496
 20
7686.076020923383
 30
0.0
340
2CEF4
1001
ACAD
1000
DSTYLE
1002
{
1070
   341
1005
0
1070
    40
1040
1.0
1070
   343
1005
0
1070
   344
1005
0
1002
}
  0
MTEXT
  5
2CEF4
102
{ACAD_REACTORS
330
2CEF3
102
}
330
747D
100
AcDbEntity
  8
部品1
 62
     7
 48
50.0
100
AcDbMText
 10
13698.99523070988
 20
7771.076020923384
 30
0.0
 40
120.0
 41
0.0
 71
     6
 72
     1
  1
アンカーボルト
  7
STYLE1
 73
     1
 44
1.0
1001
ACAD
1000
MTEXTBEGIN
1070
    73
1070
     1
1070
    44
1040
1.0
1070
    74
1070
     0
1000
MTEXTEND
  0
LEADER
  5
2CEF5
330
747D
100
AcDbEntity
  8
寸法
 48
50.0
100
AcDbLeader
  3
INABA_S50G
 73
     0
 74
     0
 75
     1
 40
120.0
 41
672.0
 76
     3
 10
12553.69831350344
 20
6228.207102874709
 30
0.0
 10
12669.63832569548
 20
5969.317759411133
 30
0.0
 10
12794.63832569548
 20
5969.317759411133
 30
0.0
340
2CEF6
1001
ACAD
1000
DSTYLE
1002
{
1070
   341
1005
0
1070
    40
1040
1.0
1070
   343
1005
0
1070
   344
1005
0
1002
}
  0
MTEXT
  5
2CEF6
102
{ACAD_REACTORS
330
2CEF5
102
}
330
747D
100
AcDbEntity
  8
部品1
 62
     7
 48
50.0
100
AcDbMText
 10
13491.63832569548
 20
6054.317759411134
 30
0.0
 40
120.0
 41
0.0
 71
     6
 72
     1
  1
\A1;屋根の外寸
  7
STYLE1
 73
     1
 44
1.0
1001
ACAD
1000
MTEXTBEGIN
1070
    73
1070
     1
1070
    44
1040
1.0
1070
    74
1070
     0
1000
MTEXTEND
  0
TEXT
  5
2CEF7
330
747D
100
AcDbEntity
  8
部品1
 48
50.0
100
AcDbText
 10
12693.85112970688
 20
5875.007072478059
 30
0.0
 40
80.0
  1
※a,b,cは屋根の出幅です。
  7
STYLE1
100
AcDbText
  0
TEXT
  5
2CEF8
330
747D
100
AcDbEntity
  8
部品1
 48
50.0
100
AcDbText
 10
12852.43013846117
 20
5768.161851609304
 30
0.0
 40
80.0
  1
(a=45,b=55,c=75)
  7
STYLE1
100
AcDbText
  0
MTEXT
  5
2CEF9
102
{ACAD_REACTORS
330
2CEFA
102
}
330
747D
100
AcDbEntity
  8
部品1
 62
     7
 48
50.0
100
AcDbMText
 10
13531.83343157075
 20
6585.436299567287
 30
0.0
 40
120.0
 41
0.0
 71
     6
 72
     1
  1
\A1;床下換気口
  7
STYLE1
 73
     1
 44
1.0
1001
ACAD
1000
MTEXTBEGIN
1070
    73
1070
     1
1070
    44
1040
1.0
1070
    74
1070
     0
1000
MTEXTEND
  0
LEADER
  5
2CEFA
330
747D
100
AcDbEntity
  8
寸法
 48
50.0
100
AcDbLeader
  3
INABA_S50G
 73
     0
 74
     0
 75
     1
 40
120.0
 41
720.0000000000001
 76
     3
 10
12505.05985718447
 20
6761.45021313512
 30
0.0
 10
12661.83343157075
 20
6500.436299567287
 30
0.0
 10
12786.83343157075
 20
6500.436299567287
 30
0.0
340
2CEF9
1001
ACAD
1000
DSTYLE
1002
{
1070
   341
1005
0
1070
    40
1040
1.0
1070
   343
1005
0
1070
   344
1005
0
1002
}
  0
LINE
  5
2D196
330
747D
100
AcDbEntity
  8
想像線
 48
10.0
100
AcDbLine
 10
12548.6
 20
6020.463276680887
 30
0.0
 11
3898.600000000001
 21
6020.46327668087
 31
0.0
  0
LINE
  5
2D197
330
747D
100
AcDbEntity
  8
想像線
 48
10.0
100
AcDbLine
 10
12548.6
 20
7530.46327668088
 30
0.0
 11
3898.600000000001
 21
7530.463276680897
 31
0.0
  0
TEXT
  5
2D1D5
330
747D
100
AcDbEntity
  8
文字
 62
     7
 48
50.0
100
AcDbText
 10
7623.225433579404
 20
4406.965689301986
 30
0.0
 40
200.0
  1
〈参 考 図〉
  7
STYLE2
100
AcDbText
  0
TEXT
  5
2D1E6
330
747D
100
AcDbEntity
  8
文字
 62
     7
 48
50.0
100
AcDbText
 10
14267.69561199343
 20
838.2527270729188
 30
0.0
 40
100.0
  1
～一般型・多雪地型・豪雪地型～
  7
STYLE2
100
AcDbText
  0
LINE
  5
2D206
102
{ACAD_REACTORS
330
2D639
102
}
330
747D
100
AcDbEntity
  8
部品1
 48
50.0
100
AcDbLine
 10
12383.6
 20
6355.463276680904
 30
0.0
 11
4063.6
 21
6355.46327668087
 31
0.0
  0
LINE
  5
2D208
330
747D
100
AcDbEntity
  8
細線
 48
50.0
100
AcDbLine
 10
5319.601803738416
 20
6075.463276680846
 30
0.0
 11
5473.599999999994
 21
6229.461472942423
 31
0.0
  0
LINE
  5
2D209
330
747D
100
AcDbEntity
  8
細線
 48
50.0
100
AcDbLine
 10
5364.503084343763
 20
6075.463276680846
 30
0.0
 11
5473.599999999999
 21
6184.560192337084
 31
0.0
  0
LINE
  5
2D20A
330
747D
100
AcDbEntity
  8
細線
 48
50.0
100
AcDbLine
 10
5409.404364949108
 20
6075.463276680846
 30
0.0
 11
5473.599999999999
 21
6139.658911731738
 31
0.0
  0
LINE
  5
2D20B
330
747D
100
AcDbEntity
  8
細線
 48
50.0
100
AcDbLine
 10
5454.305645554455
 20
6075.463276680849
 30
0.0
 11
5473.600000000001
 21
6094.757631126393
 31
0.0
  0
LINE
  5
2D20C
330
747D
100
AcDbEntity
  8
部品1
 48
50.0
100
AcDbLine
 10
5473.59999999999
 20
6355.463276680871
 30
0.0
 11
5473.599999999997
 21
6075.463276680848
 31
0.0
  0
LINE
  5
2D20D
330
747D
100
AcDbEntity
  8
部品1
 48
50.0
100
AcDbLine
 10
5273.59999999999
 20
6355.463276680871
 30
0.0
 11
5273.599999999997
 21
6075.463276680845
 31
0.0
  0
LINE
  5
2D20E
330
747D
100
AcDbEntity
  8
細線
 48
50.0
100
AcDbLine
 10
5273.599999999993
 20
6209.066595363806
 30
0.0
 11
5419.996681317059
 21
6355.463276680871
 31
0.0
  0
LINE
  5
2D20F
330
747D
100
AcDbEntity
  8
細線
 48
50.0
100
AcDbLine
 10
5273.599999999994
 20
6164.165314758462
 30
0.0
 11
5464.897961922407
 21
6355.463276680873
 31
0.0
  0
LINE
  5
2D210
330
747D
100
AcDbEntity
  8
細線
 48
50.0
100
AcDbLine
 10
5273.599999999994
 20
6119.264034153117
 30
0.0
 11
5473.59999999999
 21
6319.26403415311
 31
0.0
  0
LINE
  5
2D211
330
747D
100
AcDbEntity
  8
細線
 48
50.0
100
AcDbLine
 10
5274.700523133072
 20
6075.463276680846
 30
0.0
 11
5473.599999999991
 21
6274.362753547766
 31
0.0
  0
LINE
  5
2D212
330
747D
100
AcDbEntity
  8
細線
 48
50.0
100
AcDbLine
 10
5273.599999999991
 20
6298.869156574496
 30
0.0
 11
5330.194120106366
 21
6355.463276680872
 31
0.0
  0
LINE
  5
2D213
330
747D
100
AcDbEntity
  8
細線
 48
50.0
100
AcDbLine
 10
5273.599999999991
 20
6253.967875969152
 30
0.0
 11
5375.095400711715
 21
6355.463276680872
 31
0.0
  0
LINE
  5
2D214
330
747D
100
AcDbEntity
  8
細線
 48
50.0
100
AcDbLine
 10
6269.601803738416
 20
6075.463276680846
 30
0.0
 11
6423.599999999993
 21
6229.461472942423
 31
0.0
  0
LINE
  5
2D215
330
747D
100
AcDbEntity
  8
細線
 48
50.0
100
AcDbLine
 10
6314.503084343764
 20
6075.463276680846
 30
0.0
 11
6423.599999999999
 21
6184.560192337084
 31
0.0
  0
LINE
  5
2D216
330
747D
100
AcDbEntity
  8
細線
 48
50.0
100
AcDbLine
 10
6359.404364949109
 20
6075.463276680846
 30
0.0
 11
6423.599999999999
 21
6139.658911731738
 31
0.0
  0
LINE
  5
2D217
330
747D
100
AcDbEntity
  8
細線
 48
50.0
100
AcDbLine
 10
6404.305645554456
 20
6075.463276680849
 30
0.0
 11
6423.6
 21
6094.757631126393
 31
0.0
  0
LINE
  5
2D218
330
747D
100
AcDbEntity
  8
部品1
 48
50.0
100
AcDbLine
 10
6423.59999999999
 20
6355.463276680871
 30
0.0
 11
6423.599999999996
 21
6075.463276680848
 31
0.0
  0
LINE
  5
2D219
330
747D
100
AcDbEntity
  8
部品1
 48
50.0
100
AcDbLine
 10
6223.59999999999
 20
6355.463276680871
 30
0.0
 11
6223.599999999997
 21
6075.463276680845
 31
0.0
  0
LINE
  5
2D21A
330
747D
100
AcDbEntity
  8
細線
 48
50.0
100
AcDbLine
 10
6223.599999999994
 20
6209.066595363806
 30
0.0
 11
6369.996681317059
 21
6355.463276680871
 31
0.0
  0
LINE
  5
2D21B
330
747D
100
AcDbEntity
  8
細線
 48
50.0
100
AcDbLine
 10
6223.599999999994
 20
6164.165314758462
 30
0.0
 11
6414.897961922408
 21
6355.463276680873
 31
0.0
  0
LINE
  5
2D21C
330
747D
100
AcDbEntity
  8
細線
 48
50.0
100
AcDbLine
 10
6223.599999999994
 20
6119.264034153117
 30
0.0
 11
6423.599999999989
 21
6319.26403415311
 31
0.0
  0
LINE
  5
2D21D
330
747D
100
AcDbEntity
  8
細線
 48
50.0
100
AcDbLine
 10
6224.700523133072
 20
6075.463276680846
 30
0.0
 11
6423.599999999992
 21
6274.362753547766
 31
0.0
  0
LINE
  5
2D21E
330
747D
100
AcDbEntity
  8
細線
 48
50.0
100
AcDbLine
 10
6223.599999999991
 20
6298.869156574496
 30
0.0
 11
6280.194120106366
 21
6355.463276680872
 31
0.0
  0
LINE
  5
2D21F
330
747D
100
AcDbEntity
  8
細線
 48
50.0
100
AcDbLine
 10
6223.599999999991
 20
6253.967875969152
 30
0.0
 11
6325.095400711715
 21
6355.463276680872
 31
0.0
  0
LINE
  5
2D220
330
747D
100
AcDbEntity
  8
細線
 48
50.0
100
AcDbLine
 10
7219.601803738417
 20
6075.463276680846
 30
0.0
 11
7373.599999999993
 21
6229.461472942423
 31
0.0
  0
LINE
  5
2D221
330
747D
100
AcDbEntity
  8
細線
 48
50.0
100
AcDbLine
 10
7264.503084343764
 20
6075.463276680846
 30
0.0
 11
7373.599999999999
 21
6184.560192337084
 31
0.0
  0
LINE
  5
2D222
330
747D
100
AcDbEntity
  8
細線
 48
50.0
100
AcDbLine
 10
7309.404364949108
 20
6075.463276680846
 30
0.0
 11
7373.599999999999
 21
6139.658911731738
 31
0.0
  0
LINE
  5
2D223
330
747D
100
AcDbEntity
  8
細線
 48
50.0
100
AcDbLine
 10
7354.305645554456
 20
6075.463276680849
 30
0.0
 11
7373.6
 21
6094.757631126393
 31
0.0
  0
LINE
  5
2D224
330
747D
100
AcDbEntity
  8
部品1
 48
50.0
100
AcDbLine
 10
7373.59999999999
 20
6355.463276680871
 30
0.0
 11
7373.599999999997
 21
6075.463276680848
 31
0.0
  0
LINE
  5
2D225
330
747D
100
AcDbEntity
  8
部品1
 48
50.0
100
AcDbLine
 10
7173.599999999989
 20
6355.463276680871
 30
0.0
 11
7173.599999999997
 21
6075.463276680845
 31
0.0
  0
LINE
  5
2D226
330
747D
100
AcDbEntity
  8
細線
 48
50.0
100
AcDbLine
 10
7173.599999999993
 20
6209.066595363806
 30
0.0
 11
7319.996681317059
 21
6355.463276680871
 31
0.0
  0
LINE
  5
2D227
330
747D
100
AcDbEntity
  8
細線
 48
50.0
100
AcDbLine
 10
7173.599999999995
 20
6164.165314758462
 30
0.0
 11
7364.897961922408
 21
6355.463276680873
 31
0.0
  0
LINE
  5
2D228
330
747D
100
AcDbEntity
  8
細線
 48
50.0
100
AcDbLine
 10
7173.599999999995
 20
6119.264034153117
 30
0.0
 11
7373.599999999989
 21
6319.26403415311
 31
0.0
  0
LINE
  5
2D229
330
747D
100
AcDbEntity
  8
細線
 48
50.0
100
AcDbLine
 10
7174.700523133072
 20
6075.463276680846
 30
0.0
 11
7373.599999999992
 21
6274.362753547766
 31
0.0
  0
LINE
  5
2D22A
330
747D
100
AcDbEntity
  8
細線
 48
50.0
100
AcDbLine
 10
7173.599999999992
 20
6298.869156574496
 30
0.0
 11
7230.194120106367
 21
6355.463276680872
 31
0.0
  0
LINE
  5
2D22B
330
747D
100
AcDbEntity
  8
細線
 48
50.0
100
AcDbLine
 10
7173.599999999992
 20
6253.967875969152
 30
0.0
 11
7275.095400711716
 21
6355.463276680872
 31
0.0
  0
LINE
  5
2D22C
330
747D
100
AcDbEntity
  8
部品1
 48
50.0
100
AcDbLine
 10
10223.59999999999
 20
6355.463276680893
 30
0.0
 11
10223.59999999999
 21
6075.463276680848
 31
0.0
  0
LINE
  5
2D22D
330
747D
100
AcDbEntity
  8
細線
 48
50.0
100
AcDbLine
 10
10023.59999999999
 20
6298.869156574496
 30
0.0
 11
10080.19412010638
 21
6355.46327668089
 31
0.0
  0
LINE
  5
2D22E
330
747D
100
AcDbEntity
  8
細線
 48
50.0
100
AcDbLine
 10
10023.59999999999
 20
6164.165314758462
 30
0.0
 11
10214.89796192242
 21
6355.46327668089
 31
0.0
  0
LINE
  5
2D22F
330
747D
100
AcDbEntity
  8
細線
 48
50.0
100
AcDbLine
 10
10023.59999999999
 20
6209.066595363806
 30
0.0
 11
10169.99668131707
 21
6355.463276680892
 31
0.0
  0
LINE
  5
2D230
330
747D
100
AcDbEntity
  8
部品1
 48
50.0
100
AcDbLine
 10
10023.59999999999
 20
6355.463276680892
 30
0.0
 11
10023.59999999999
 21
6075.463276680845
 31
0.0
  0
LINE
  5
2D231
330
747D
100
AcDbEntity
  8
細線
 48
50.0
100
AcDbLine
 10
10023.59999999999
 20
6253.967875969152
 30
0.0
 11
10125.09540071173
 21
6355.463276680892
 31
0.0
  0
LINE
  5
2D232
330
747D
100
AcDbEntity
  8
細線
 48
50.0
100
AcDbLine
 10
10023.59999999999
 20
6119.264034153117
 30
0.0
 11
10223.59999999999
 21
6319.26403415311
 31
0.0
  0
LINE
  5
2D233
330
747D
100
AcDbEntity
  8
細線
 48
50.0
100
AcDbLine
 10
10114.50308434376
 20
6075.463276680846
 30
0.0
 11
10223.6
 21
6184.560192337084
 31
0.0
  0
LINE
  5
2D234
330
747D
100
AcDbEntity
  8
細線
 48
50.0
100
AcDbLine
 10
10069.60180373841
 20
6075.463276680846
 30
0.0
 11
10223.59999999999
 21
6229.461472942423
 31
0.0
  0
LINE
  5
2D235
330
747D
100
AcDbEntity
  8
細線
 48
50.0
100
AcDbLine
 10
10024.70052313307
 20
6075.463276680846
 30
0.0
 11
10223.59999999999
 21
6274.362753547766
 31
0.0
  0
LINE
  5
2D236
330
747D
100
AcDbEntity
  8
細線
 48
50.0
100
AcDbLine
 10
10159.40436494911
 20
6075.463276680846
 30
0.0
 11
10223.6
 21
6139.658911731738
 31
0.0
  0
LINE
  5
2D237
330
747D
100
AcDbEntity
  8
細線
 48
50.0
100
AcDbLine
 10
10204.30564555445
 20
6075.463276680849
 30
0.0
 11
10223.6
 21
6094.757631126393
 31
0.0
  0
LINE
  5
2D238
330
747D
100
AcDbEntity
  8
部品1
 48
50.0
100
AcDbLine
 10
11173.59999999999
 20
6355.463276680893
 30
0.0
 11
11173.59999999999
 21
6075.463276680848
 31
0.0
  0
LINE
  5
2D239
330
747D
100
AcDbEntity
  8
細線
 48
50.0
100
AcDbLine
 10
10973.59999999999
 20
6298.869156574496
 30
0.0
 11
11030.19412010638
 21
6355.46327668089
 31
0.0
  0
LINE
  5
2D23A
330
747D
100
AcDbEntity
  8
細線
 48
50.0
100
AcDbLine
 10
10973.59999999999
 20
6164.165314758462
 30
0.0
 11
11164.89796192242
 21
6355.46327668089
 31
0.0
  0
LINE
  5
2D23B
330
747D
100
AcDbEntity
  8
細線
 48
50.0
100
AcDbLine
 10
10973.59999999999
 20
6209.066595363806
 30
0.0
 11
11119.99668131708
 21
6355.463276680892
 31
0.0
  0
LINE
  5
2D23C
330
747D
100
AcDbEntity
  8
部品1
 48
50.0
100
AcDbLine
 10
10973.59999999999
 20
6355.463276680892
 30
0.0
 11
10973.59999999999
 21
6075.463276680845
 31
0.0
  0
LINE
  5
2D23D
330
747D
100
AcDbEntity
  8
細線
 48
50.0
100
AcDbLine
 10
10973.59999999999
 20
6253.967875969152
 30
0.0
 11
11075.09540071173
 21
6355.463276680892
 31
0.0
  0
LINE
  5
2D23E
330
747D
100
AcDbEntity
  8
細線
 48
50.0
100
AcDbLine
 10
10973.59999999999
 20
6119.264034153117
 30
0.0
 11
11173.59999999999
 21
6319.26403415311
 31
0.0
  0
LINE
  5
2D23F
330
747D
100
AcDbEntity
  8
細線
 48
50.0
100
AcDbLine
 10
11064.50308434376
 20
6075.463276680846
 30
0.0
 11
11173.6
 21
6184.560192337084
 31
0.0
  0
LINE
  5
2D240
330
747D
100
AcDbEntity
  8
細線
 48
50.0
100
AcDbLine
 10
11019.60180373841
 20
6075.463276680846
 30
0.0
 11
11173.59999999999
 21
6229.461472942423
 31
0.0
  0
LINE
  5
2D241
330
747D
100
AcDbEntity
  8
細線
 48
50.0
100
AcDbLine
 10
10974.70052313307
 20
6075.463276680846
 30
0.0
 11
11173.59999999999
 21
6274.362753547766
 31
0.0
  0
LINE
  5
2D242
330
747D
100
AcDbEntity
  8
細線
 48
50.0
100
AcDbLine
 10
11109.40436494911
 20
6075.463276680846
 30
0.0
 11
11173.6
 21
6139.658911731738
 31
0.0
  0
LINE
  5
2D243
330
747D
100
AcDbEntity
  8
細線
 48
50.0
100
AcDbLine
 10
11154.30564555445
 20
6075.463276680849
 30
0.0
 11
11173.6
 21
6094.757631126393
 31
0.0
  0
LINE
  5
2D244
330
747D
100
AcDbEntity
  8
部品1
 48
50.0
100
AcDbLine
 10
12123.59999999999
 20
6355.463276680893
 30
0.0
 11
12123.59999999999
 21
6075.463276680848
 31
0.0
  0
LINE
  5
2D245
330
747D
100
AcDbEntity
  8
細線
 48
50.0
100
AcDbLine
 10
11923.59999999999
 20
6298.869156574496
 30
0.0
 11
11980.19412010638
 21
6355.46327668089
 31
0.0
  0
LINE
  5
2D246
330
747D
100
AcDbEntity
  8
細線
 48
50.0
100
AcDbLine
 10
11923.59999999999
 20
6164.165314758462
 30
0.0
 11
12114.89796192242
 21
6355.46327668089
 31
0.0
  0
LINE
  5
2D247
330
747D
100
AcDbEntity
  8
細線
 48
50.0
100
AcDbLine
 10
11923.59999999999
 20
6209.066595363806
 30
0.0
 11
12069.99668131708
 21
6355.463276680892
 31
0.0
  0
LINE
  5
2D248
330
747D
100
AcDbEntity
  8
部品1
 48
50.0
100
AcDbLine
 10
11923.59999999999
 20
6355.463276680892
 30
0.0
 11
11923.59999999999
 21
6075.463276680845
 31
0.0
  0
LINE
  5
2D249
330
747D
100
AcDbEntity
  8
細線
 48
50.0
100
AcDbLine
 10
11923.59999999999
 20
6253.967875969152
 30
0.0
 11
12025.09540071173
 21
6355.463276680892
 31
0.0
  0
LINE
  5
2D24A
330
747D
100
AcDbEntity
  8
細線
 48
50.0
100
AcDbLine
 10
11923.59999999999
 20
6119.264034153117
 30
0.0
 11
12123.59999999999
 21
6319.26403415311
 31
0.0
  0
LINE
  5
2D24B
330
747D
100
AcDbEntity
  8
細線
 48
50.0
100
AcDbLine
 10
12014.50308434376
 20
6075.463276680846
 30
0.0
 11
12123.6
 21
6184.560192337084
 31
0.0
  0
LINE
  5
2D24C
330
747D
100
AcDbEntity
  8
細線
 48
50.0
100
AcDbLine
 10
11969.60180373841
 20
6075.463276680846
 30
0.0
 11
12123.59999999999
 21
6229.461472942423
 31
0.0
  0
LINE
  5
2D24D
330
747D
100
AcDbEntity
  8
細線
 48
50.0
100
AcDbLine
 10
11924.70052313307
 20
6075.463276680846
 30
0.0
 11
12123.59999999999
 21
6274.362753547766
 31
0.0
  0
LINE
  5
2D24E
330
747D
100
AcDbEntity
  8
細線
 48
50.0
100
AcDbLine
 10
12059.40436494911
 20
6075.463276680846
 30
0.0
 11
12123.6
 21
6139.658911731738
 31
0.0
  0
LINE
  5
2D24F
330
747D
100
AcDbEntity
  8
細線
 48
50.0
100
AcDbLine
 10
12104.30564555445
 20
6075.463276680849
 30
0.0
 11
12123.6
 21
6094.757631126393
 31
0.0
  0
LINE
  5
2D2DB
330
747D
100
AcDbEntity
  8
部品1
 48
50.0
100
AcDbLine
 10
4063.6
 20
6355.46327668087
 30
0.0
 11
4063.599999999996
 21
7255.463276680875
 31
0.0
  0
LINE
  5
2D2DC
330
747D
100
AcDbEntity
  8
部品1
 48
50.0
100
AcDbLine
 10
12383.6
 20
6355.463276680905
 30
0.0
 11
12383.6
 21
7255.463276680874
 31
0.0
  0
MTEXT
  5
2D46A
102
{ACAD_REACTORS
330
2D46B
102
}
330
747D
100
AcDbEntity
  8
寸法
 62
     7
 48
50.0
100
AcDbMText
 10
10801.06801268973
 20
2139.82723041016
 30
0.0
 40
120.0
 41
0.8
 71
     4
 72
     1
  1
\A1;C.B
  7
STYLE1
 73
     1
 44
1.0
1001
ACAD
1000
MTEXTBEGIN
1070
    73
1070
     1
1070
    44
1040
1.0
1070
    74
1070
     0
1000
MTEXTEND
  0
LEADER
  5
2D46B
330
747D
100
AcDbEntity
  8
寸法
 48
50.0
100
AcDbLeader
  3
INABA_S50G
 73
     0
 74
     0
 75
     1
 40
120.0
 41
185.591883092037
 76
     3
 10
10617.92980605609
 20
1882.680909729022
 30
0.0
 10
10651.06801268973
 20
2054.82723041016
 30
0.0
 10
10776.06801268973
 20
2054.82723041016
 30
0.0
340
2D46A
1001
ACAD
1000
DSTYLE
1002
{
1070
    40
1040
1.0
1002
}
  0
LINE
  5
2D46C
330
747D
100
AcDbEntity
  8
細線
 48
50.0
100
AcDbLine
 10
10763.5832196325
 20
1526.981994075671
 30
0.0
 11
10757.15243901415
 21
1550.981994075671
 31
0.0
  0
LINE
  5
2D46D
330
747D
100
AcDbEntity
  8
細線
 48
50.0
100
AcDbLine
 10
10742.14728423801
 20
1446.981994075671
 30
0.0
 11
10748.57806485636
 21
1422.981994075671
 31
0.0
  0
LINE
  5
2D46E
330
747D
100
AcDbEntity
  8
部品1
100
AcDbLine
 10
10807.20539444016
 20
1642.680909729022
 30
0.0
 11
10807.20539444017
 21
1422.981994075672
 31
0.0
  0
LINE
  5
2D46F
330
747D
100
AcDbEntity
  8
細線
 48
50.0
100
AcDbLine
 10
10735.71650361966
 20
1422.981994075671
 30
0.0
 11
10770.01400025084
 21
1550.98199407567
 31
0.0
  0
LINE
  5
2D470
330
747D
100
AcDbEntity
  8
細線
 48
50.0
100
AcDbLine
 10
10684.69517468525
 20
1526.981994075671
 30
0.0
 11
10678.2643940669
 21
1550.981994075671
 31
0.0
  0
LINE
  5
2D471
330
747D
100
AcDbEntity
  8
細線
100
AcDbLine
 10
10560.2417889395
 20
1550.981994075674
 30
0.0
 11
10651.94070459284
 21
1642.680909729022
 31
0.0
  0
LINE
  5
2D472
330
747D
100
AcDbEntity
  8
細線
 48
50.0
100
AcDbLine
 10
10605.80712973799
 20
1526.981994075672
 30
0.0
 11
10599.37634911965
 21
1550.981994075672
 31
0.0
  0
LINE
  5
2D473
330
747D
100
AcDbEntity
  8
細線
100
AcDbLine
 10
10594.18291443645
 20
1550.981994075674
 30
0.0
 11
10685.8818300898
 21
1642.680909729022
 31
0.0
  0
LINE
  5
2D474
330
747D
100
AcDbEntity
  8
細線
 48
50.0
100
AcDbLine
 10
10369.14299489626
 20
1526.981994075672
 30
0.0
 11
10362.71221427792
 21
1550.981994075672
 31
0.0
  0
LINE
  5
2D475
330
747D
100
AcDbEntity
  8
細線
 48
50.0
100
AcDbLine
 10
10448.03103984351
 20
1526.981994075672
 30
0.0
 11
10441.60025922516
 21
1550.981994075672
 31
0.0
  0
LINE
  5
2D476
330
747D
100
AcDbEntity
  8
細線
 48
50.0
100
AcDbLine
 10
10526.91908479076
 20
1526.981994075672
 30
0.0
 11
10520.48830417241
 21
1550.981994075672
 31
0.0
  0
LINE
  5
2D477
330
747D
100
AcDbEntity
  8
細線
 48
50.0
100
AcDbLine
 10
10663.25923929076
 20
1446.981994075671
 30
0.0
 11
10669.69001990911
 21
1422.981994075671
 31
0.0
  0
LINE
  5
2D478
330
747D
100
AcDbEntity
  8
細線
 48
50.0
100
AcDbLine
 10
10584.37119434351
 20
1446.981994075672
 30
0.0
 11
10590.80197496187
 21
1422.981994075672
 31
0.0
  0
LINE
  5
2D479
330
747D
100
AcDbEntity
  8
細線
 48
50.0
100
AcDbLine
 10
10426.59510444902
 20
1446.981994075672
 30
0.0
 11
10433.02588506737
 21
1422.981994075672
 31
0.0
  0
LINE
  5
2D47A
330
747D
100
AcDbEntity
  8
細線
 48
50.0
100
AcDbLine
 10
10505.48314939627
 20
1446.981994075672
 30
0.0
 11
10511.91393001461
 21
1422.981994075672
 31
0.0
  0
LINE
  5
2D47B
330
747D
100
AcDbEntity
  8
細線
 48
50.0
100
AcDbLine
 10
10499.05236877791
 20
1422.981994075672
 30
0.0
 11
10533.3498654091
 21
1550.981994075671
 31
0.0
  0
LINE
  5
2D47C
330
747D
100
AcDbEntity
  8
細線
 48
50.0
100
AcDbLine
 10
10420.16432383067
 20
1422.981994075671
 30
0.0
 11
10454.46182046186
 21
1550.981994075671
 31
0.0
  0
LINE
  5
2D47D
330
747D
100
AcDbEntity
  8
細線
 48
50.0
100
AcDbLine
 10
10577.94041372516
 20
1422.981994075671
 30
0.0
 11
10612.23791035634
 21
1550.981994075672
 31
0.0
  0
LINE
  5
2D47E
330
747D
100
AcDbEntity
  8
細線
100
AcDbLine
 10
10628.12403993341
 20
1550.981994075674
 30
0.0
 11
10719.82295558675
 21
1642.680909729022
 31
0.0
  0
LINE
  5
2D47F
330
747D
100
AcDbEntity
  8
細線
 48
50.0
100
AcDbLine
 10
10656.82845867241
 20
1422.98199407567
 30
0.0
 11
10691.12595530359
 21
1550.98199407567
 31
0.0
  0
LINE
  5
2D480
330
747D
100
AcDbEntity
  8
部品1
100
AcDbLine
 10
10687.20539444016
 20
1882.680909729022
 30
0.0
 11
10687.20539444016
 21
1642.680909729022
 31
0.0
  0
LINE
  5
2D481
330
747D
100
AcDbEntity
  8
細線
100
AcDbLine
 10
10673.36773209258
 20
1642.680909729024
 30
0.0
 11
10433.36773209258
 21
1882.680909729022
 31
0.0
  0
LINE
  5
2D482
330
747D
100
AcDbEntity
  8
細線
100
AcDbLine
 10
10622.45604384715
 20
1642.680909729022
 30
0.0
 11
10382.45604384715
 21
1882.680909729022
 31
0.0
  0
LINE
  5
2D483
330
747D
100
AcDbEntity
  8
細線
100
AcDbLine
 10
10234.18291443645
 20
1550.981994075672
 30
0.0
 11
10325.8818300898
 21
1642.680909729022
 31
0.0
  0
LINE
  5
2D484
330
747D
100
AcDbEntity
  8
細線
100
AcDbLine
 10
10200.24178893949
 20
1550.981994075672
 30
0.0
 11
10291.94070459284
 21
1642.680909729022
 31
0.0
  0
LINE
  5
2D485
330
747D
100
AcDbEntity
  8
細線
 48
50.0
100
AcDbLine
 10
10211.36690500177
 20
1526.981994075672
 30
0.0
 11
10204.93612438342
 21
1550.981994075672
 31
0.0
  0
LINE
  5
2D486
330
747D
100
AcDbEntity
  8
細線
 48
50.0
100
AcDbLine
 10
10290.25494994902
 20
1526.981994075672
 30
0.0
 11
10283.82416933067
 21
1550.981994075672
 31
0.0
  0
LINE
  5
2D487
330
747D
100
AcDbEntity
  8
細線
 48
50.0
100
AcDbLine
 10
10132.47886005451
 20
1526.981994075672
 30
0.0
 11
10126.04807943617
 21
1550.981994075672
 31
0.0
  0
LINE
  5
2D488
330
747D
100
AcDbEntity
  8
細線
 48
50.0
100
AcDbLine
 10
10347.70705950177
 20
1446.981994075672
 30
0.0
 11
10354.13784012012
 21
1422.981994075672
 31
0.0
  0
LINE
  5
2D489
330
747D
100
AcDbEntity
  8
細線
 48
50.0
100
AcDbLine
 10
10268.81901455453
 20
1446.981994075672
 30
0.0
 11
10275.24979517287
 21
1422.981994075672
 31
0.0
  0
LINE
  5
2D48A
330
747D
100
AcDbEntity
  8
細線
 48
50.0
100
AcDbLine
 10
10111.04292466002
 20
1446.981994075672
 30
0.0
 11
10117.47370527837
 21
1422.981994075672
 31
0.0
  0
LINE
  5
2D48B
330
747D
100
AcDbEntity
  8
細線
 48
50.0
100
AcDbLine
 10
10189.93096960728
 20
1446.981994075672
 30
0.0
 11
10196.36175022562
 21
1422.981994075672
 31
0.0
  0
LINE
  5
2D48C
330
747D
100
AcDbEntity
  8
部品1
100
AcDbLine
 10
10087.20539444016
 20
1422.981994075669
 30
0.0
 11
10087.20539444016
 21
1642.680909729022
 31
0.0
  0
LINE
  5
2D48D
330
747D
100
AcDbEntity
  8
細線
 48
50.0
100
AcDbLine
 10
10104.61214404168
 20
1422.981994075672
 30
0.0
 11
10138.90964067286
 21
1550.981994075672
 31
0.0
  0
LINE
  5
2D48E
330
747D
100
AcDbEntity
  8
細線
 48
50.0
100
AcDbLine
 10
10262.38823393617
 20
1422.981994075672
 30
0.0
 11
10296.68573056736
 21
1550.981994075672
 31
0.0
  0
LINE
  5
2D48F
330
747D
100
AcDbEntity
  8
細線
 48
50.0
100
AcDbLine
 10
10183.50018898892
 20
1422.981994075671
 30
0.0
 11
10217.79768562011
 21
1550.981994075671
 31
0.0
  0
LINE
  5
2D490
330
747D
100
AcDbEntity
  8
部品1
100
AcDbLine
 10
10207.20539444016
 20
1642.680909729022
 30
0.0
 11
10207.20539444016
 21
1882.680909729022
 31
0.0
  0
TEXT
  5
2D491
330
747D
100
AcDbEntity
  8
部品1
 48
50.0
100
AcDbText
 10
9443.087307681663
 20
1375.881169091713
 30
0.0
 40
80.0
  1
ボルトの出
 50
90.0
  7
STYLE2
100
AcDbText
  0
LINE
  5
2D492
330
747D
100
AcDbEntity
  8
細線
100
AcDbLine
 10
10350.92703987152
 20
1642.680909729022
 30
0.0
 11
10207.20539444016
 21
1786.402555160375
 31
0.0
  0
LWPOLYLINE
  5
2D493
330
747D
100
AcDbEntity
  8
部品1
 48
50.0
100
AcDbPolyline
 90
        2
 70
     0
 43
12.0
 10
9822.59413233978
 20
1642.680909729022
 10
11023.6864354714
 20
1642.680909729022
  0
LINE
  5
2D494
330
747D
100
AcDbEntity
  8
細線
100
AcDbLine
 10
10268.12403993341
 20
1550.981994075672
 30
0.0
 11
10359.82295558675
 21
1642.680909729022
 31
0.0
  0
LINE
  5
2D495
330
747D
100
AcDbEntity
  8
部品1
100
AcDbLine
 10
10087.20539444016
 20
1550.981994075672
 30
0.0
 11
10807.20539444016
 21
1550.981994075675
 31
0.0
  0
LINE
  5
2D496
330
747D
100
AcDbEntity
  8
部品1
100
AcDbLine
 10
10087.20539444016
 20
1422.981994075669
 30
0.0
 11
10807.20539444016
 21
1422.981994075672
 31
0.0
  0
LINE
  5
2D497
330
747D
100
AcDbEntity
  8
細線
 48
50.0
100
AcDbLine
 10
10341.27627888342
 20
1422.981994075672
 30
0.0
 11
10375.57377551461
 21
1550.981994075671
 31
0.0
  0
LINE
  5
2D498
330
747D
100
AcDbEntity
  8
部品1
100
AcDbLine
 10
10207.20539444016
 20
1882.680909729022
 30
0.0
 11
10687.20539444016
 21
1882.680909729022
 31
0.0
  0
LINE
  5
2D499
330
747D
100
AcDbEntity
  8
細線
100
AcDbLine
 10
10401.83872811695
 20
1642.680909729022
 30
0.0
 11
10207.20539444016
 21
1837.314243405805
 31
0.0
  0
LINE
  5
2D49A
330
747D
100
AcDbEntity
  8
部品1
100
AcDbLine
 10
11393.9468955372
 20
317.7126073449608
 30
0.0
 11
11393.9468955372
 21
3282.019576929608
 31
0.0
  0
TEXT
  5
2D49B
330
747D
100
AcDbEntity
  8
部品1
100
AcDbText
 10
8015.84171132934
 20
3102.46764497818
 30
0.0
 40
120.0
  1
基礎詳細
  7
STYLE2
100
AcDbText
  0
LINE
  5
2D49C
330
747D
100
AcDbEntity
  8
部品1
 48
50.0
100
AcDbLine
 10
8331.06946213741
 20
2281.556190838165
 30
0.0
 11
8347.06946213741
 21
2273.556190838165
 31
0.0
  0
LINE
  5
2D49D
330
747D
100
AcDbEntity
  8
細線
 48
50.0
100
AcDbLine
 10
8299.06946213741
 20
2233.556190838165
 30
0.0
 11
8299.06946213741
 21
2265.556190838165
 31
0.0
  0
LINE
  5
2D49E
330
747D
100
AcDbEntity
  8
部品1
 48
50.0
100
AcDbLine
 10
8347.06946213741
 20
2241.556190838165
 30
0.0
 11
8347.06946213741
 21
2273.556190838165
 31
0.0
  0
LINE
  5
2D49F
330
747D
100
AcDbEntity
  8
細線
 48
50.0
100
AcDbLine
 10
8331.06946213741
 20
2233.556190838165
 30
0.0
 11
8331.06946213741
 21
2265.556190838165
 31
0.0
  0
LINE
  5
2D4A0
330
747D
100
AcDbEntity
  8
部品1
 48
50.0
100
AcDbLine
 10
8331.06946213741
 20
2265.556190838165
 30
0.0
 11
8347.06946213741
 21
2273.556190838165
 31
0.0
  0
LINE
  5
2D4A1
330
747D
100
AcDbEntity
  8
部品1
 48
50.0
100
AcDbLine
 10
8299.06946213741
 20
2265.556190838165
 30
0.0
 11
8331.06946213741
 21
2265.556190838165
 31
0.0
  0
LINE
  5
2D4A2
330
747D
100
AcDbEntity
  8
部品1
 48
50.0
100
AcDbLine
 10
8331.06946213741
 20
2233.556190838165
 30
0.0
 11
8347.06946213741
 21
2241.556190838165
 31
0.0
  0
LINE
  5
2D4A3
330
747D
100
AcDbEntity
  8
部品1
 48
50.0
100
AcDbLine
 10
8299.06946213741
 20
2233.556190838165
 30
0.0
 11
8331.06946213741
 21
2233.556190838165
 31
0.0
  0
ELLIPSE
  5
2D4A4
330
747D
100
AcDbEntity
  8
細線
 48
50.0
100
AcDbEllipse
 10
8315.06946213741
 20
2273.556190838165
 30
0.0
 11
14.76670786606846
 21
0.0
 31
0.0
210
0.0
220
0.0
230
1.0
 40
0.2071254069489396
 41
0.0
 42
6.283185307179586
  0
LINE
  5
2D4A5
330
747D
100
AcDbEntity
  8
部品1
 48
50.0
100
AcDbLine
 10
8299.06946213741
 20
2281.556190838165
 30
0.0
 11
8331.06946213741
 21
2281.556190838165
 31
0.0
  0
LINE
  5
2D4A6
330
747D
100
AcDbEntity
  8
部品1
 48
50.0
100
AcDbLine
 10
8283.06946213741
 20
2241.556190838165
 30
0.0
 11
8283.06946213741
 21
2273.556190838165
 31
0.0
  0
LINE
  5
2D4A7
330
747D
100
AcDbEntity
  8
部品1
 48
50.0
100
AcDbLine
 10
8283.06946213741
 20
2273.556190838165
 30
0.0
 11
8299.06946213741
 21
2281.556190838165
 31
0.0
  0
LINE
  5
2D4A8
330
747D
100
AcDbEntity
  8
部品1
 48
50.0
100
AcDbLine
 10
8283.06946213741
 20
2241.556190838165
 30
0.0
 11
8299.06946213741
 21
2233.556190838165
 31
0.0
  0
LINE
  5
2D4A9
330
747D
100
AcDbEntity
  8
部品1
 48
50.0
100
AcDbLine
 10
8283.06946213741
 20
2273.556190838165
 30
0.0
 11
8299.06946213741
 21
2265.556190838165
 31
0.0
  0
LINE
  5
2D4AA
330
747D
100
AcDbEntity
  8
部品1
 48
50.0
100
AcDbLine
 10
8355.069462137409
 20
2142.204198173295
 30
0.0
 11
8355.069462137409
 21
2151.804198173295
 31
0.0
  0
ELLIPSE
  5
2D4AB
330
747D
100
AcDbEntity
  8
部品1
 48
50.0
100
AcDbEllipse
 10
8315.06946213741
 20
2151.804198173295
 30
0.0
 11
18.4
 21
0.0
 31
0.0
210
0.0
220
0.0
230
1.0
 40
0.3478260869565217
 41
0.0
 42
6.283185307179586
  0
ARC
  5
2D4AC
330
747D
100
AcDbEntity
  8
部品1
100
AcDbCircle
 10
8153.969462137409
 20
1980.780909729023
 30
0.0
 40
2.7
100
AcDbArc
 50
90.0
 51
180.0
  0
LINE
  5
2D4AD
330
747D
100
AcDbEntity
  8
部品1
100
AcDbLine
 10
8156.669462137408
 20
1994.280909729023
 30
0.0
 11
8198.96946213741
 21
1994.280909729019
 31
0.0
  0
LINE
  5
2D4AE
330
747D
100
AcDbEntity
  8
部品1
100
AcDbLine
 10
8153.969462137409
 20
1983.480909729022
 30
0.0
 11
8153.969462137409
 21
1991.580909729022
 31
0.0
  0
LINE
  5
2D4AF
330
747D
100
AcDbEntity
  8
部品1
100
AcDbLine
 10
8153.969462137409
 20
1983.480909729022
 30
0.0
 11
8153.969462137409
 21
1983.480909729022
 31
0.0
  0
ARC
  5
2D4B0
330
747D
100
AcDbEntity
  8
部品1
100
AcDbCircle
 10
8156.669462137408
 20
1991.580909729022
 30
0.0
 40
2.7
100
AcDbArc
 50
90.0
 51
180.0
  0
ARC
  5
2D4B1
330
747D
100
AcDbEntity
  8
部品1
100
AcDbCircle
 10
8198.96946213741
 20
1991.580909729019
 30
0.0
 40
2.7
100
AcDbArc
 50
0.0
 51
90.0
  0
LINE
  5
2D4B2
330
747D
100
AcDbEntity
  8
部品1
 48
50.0
100
AcDbLine
 10
8275.069462137409
 20
2151.804198173295
 30
0.0
 11
8275.069462137409
 21
2142.204198173295
 31
0.0
  0
ELLIPSE
  5
2D4B3
330
747D
100
AcDbEntity
  8
部品1
 48
50.0
100
AcDbEllipse
 10
8315.06946213741
 20
2142.204198173295
 30
0.0
 11
40.0
 21
0.0
 31
0.0
210
0.0
220
0.0
230
1.0
 40
0.4
 41
3.141592653589793
 42
6.283185307179586
  0
ELLIPSE
  5
2D4B4
330
747D
100
AcDbEntity
  8
部品1
 48
50.0
100
AcDbEllipse
 10
8315.06946213741
 20
2151.804198173295
 30
0.0
 11
40.0
 21
0.0
 31
0.0
210
0.0
220
0.0
230
1.0
 40
0.4
 41
0.0
 42
6.283185307179586
  0
LINE
  5
2D4B5
330
747D
100
AcDbEntity
  8
部品1
100
AcDbLine
 10
8309.669462137408
 20
1935.440909729022
 30
0.0
 11
8320.469462137408
 21
1935.440909729022
 31
0.0
  0
LINE
  5
2D4B6
330
747D
100
AcDbEntity
  8
部品1
100
AcDbLine
 10
8306.06946213741
 20
1931.840909729023
 30
0.0
 11
8324.06946213741
 21
1931.840909729023
 31
0.0
  0
LINE
  5
2D4B7
330
747D
100
AcDbEntity
  8
細線
100
AcDbLine
 10
8309.669462137412
 20
1892.240909729023
 30
0.0
 11
8309.669462137408
 21
1935.440909729022
 31
0.0
  0
LINE
  5
2D4B8
330
747D
100
AcDbEntity
  8
細線
100
AcDbLine
 10
8320.469462137408
 20
1892.240909729023
 30
0.0
 11
8320.469462137408
 21
1935.440909729022
 31
0.0
  0
LINE
  5
2D4B9
330
747D
100
AcDbEntity
  8
部品1
100
AcDbLine
 10
8222.369462137409
 20
1949.540909729023
 30
0.0
 11
8222.369462137409
 21
1932.440909729023
 31
0.0
  0
LINE
  5
2D4BA
330
747D
100
AcDbEntity
  8
部品1
100
AcDbLine
 10
8255.929462137411
 20
1949.540909729023
 30
0.0
 11
8255.929462137407
 21
1894.940909729023
 31
0.0
  0
ARC
  5
2D4BB
330
747D
100
AcDbEntity
  8
部品1
100
AcDbCircle
 10
8241.26946213741
 20
1937.580909729022
 30
0.0
 40
2.7
100
AcDbArc
 50
0.0
 51
90.0
  0
LINE
  5
2D4BC
330
747D
100
AcDbEntity
  8
部品1
100
AcDbLine
 10
8201.669462137408
 20
1940.280909729023
 30
0.0
 11
8241.26946213741
 21
1940.280909729023
 31
0.0
  0
ARC
  5
2D4BD
330
747D
100
AcDbEntity
  8
部品1
100
AcDbCircle
 10
8241.26946213741
 20
1894.940909729023
 30
0.0
 40
2.7
100
AcDbArc
 50
270.0
 51
0.0
  0
ARC
  5
2D4BE
330
747D
100
AcDbEntity
  8
部品1
100
AcDbCircle
 10
8258.629462137404
 20
1894.940909729023
 30
0.0
 40
2.7
100
AcDbArc
 50
180.0
 51
270.0
  0
LINE
  5
2D4BF
330
747D
100
AcDbEntity
  8
部品1
100
AcDbLine
 10
8229.56946213741
 20
1892.240909729023
 30
0.0
 11
8241.26946213741
 21
1892.240909729023
 31
0.0
  0
LINE
  5
2D4C0
330
747D
100
AcDbEntity
  8
部品1
100
AcDbLine
 10
8243.969462137409
 20
1937.580909729022
 30
0.0
 11
8243.969462137409
 21
1894.940909729023
 31
0.0
  0
ARC
  5
2D4C1
330
747D
100
AcDbEntity
  8
部品1
100
AcDbCircle
 10
8253.22946213741
 20
1949.540909729023
 30
0.0
 40
2.7
100
AcDbArc
 50
0.0
 51
90.0
  0
ARC
  5
2D4C2
330
747D
100
AcDbEntity
  8
部品1
100
AcDbCircle
 10
8225.06946213741
 20
1949.540909729023
 30
0.0
 40
2.7
100
AcDbArc
 50
90.0
 51
180.0
  0
LINE
  5
2D4C3
330
747D
100
AcDbEntity
  8
部品1
100
AcDbLine
 10
8225.06946213741
 20
1952.240909729023
 30
0.0
 11
8253.22946213741
 21
1952.240909729023
 31
0.0
  0
LINE
  5
2D4C4
330
747D
100
AcDbEntity
  8
部品1
100
AcDbLine
 10
8201.669462137408
 20
1991.580909729019
 30
0.0
 11
8201.669462137408
 21
1940.280909729023
 31
0.0
  0
LINE
  5
2D4C5
330
747D
100
AcDbEntity
  8
部品1
100
AcDbLine
 10
8151.269462137411
 20
1972.680909729022
 30
0.0
 11
8151.269462137411
 21
1980.780909729023
 31
0.0
  0
LINE
  5
2D4C6
330
747D
100
AcDbEntity
  8
部品1
100
AcDbLine
 10
8258.629462137404
 20
1892.240909729023
 30
0.0
 11
8459.969462137404
 21
1892.240909729023
 31
0.0
  0
LINE
  5
2D4C7
330
747D
100
AcDbEntity
  8
部品1
100
AcDbLine
 10
8099.969462137408
 20
1894.940909729023
 30
0.0
 11
8099.969462137408
 21
1957.072813431731
 31
0.0
  0
LINE
  5
2D4C8
330
747D
100
AcDbEntity
  8
部品1
100
AcDbLine
 10
8102.669462137408
 20
1892.240909729023
 30
0.0
 11
8114.369462137403
 21
1892.240909729023
 31
0.0
  0
LINE
  5
2D4C9
330
747D
100
AcDbEntity
  8
細線
 48
50.0
100
AcDbLine
 10
8093.669462137409
 20
1870.461486028927
 30
0.0
 11
8105.888885837503
 21
1882.680909729022
 31
0.0
  0
ARC
  5
2D4CA
330
747D
100
AcDbEntity
  8
部品1
100
AcDbCircle
 10
8102.669462137408
 20
1894.940909729023
 30
0.0
 40
2.7
100
AcDbArc
 50
180.0
 51
270.0
  0
LINE
  5
2D4CB
330
747D
100
AcDbEntity
  8
部品1
100
AcDbLine
 10
8102.01461594981
 20
1959.692198182122
 30
0.0
 11
8110.76946213741
 21
1961.880909729022
 31
0.0
  0
ARC
  5
2D4CC
330
747D
100
AcDbEntity
  8
部品1
100
AcDbCircle
 10
8102.669462137408
 20
1957.072813431731
 30
0.0
 40
2.7
100
AcDbArc
 50
104.0362434679067
 51
180.0
  0
ARC
  5
2D4CD
330
747D
100
AcDbEntity
  8
部品1
100
AcDbCircle
 10
8113.469462137409
 20
1969.980909729023
 30
0.0
 40
2.7
100
AcDbArc
 50
90.0
 51
180.0
  0
LINE
  5
2D4CE
330
747D
100
AcDbEntity
  8
部品1
100
AcDbLine
 10
8110.76946213741
 20
1961.880909729022
 30
0.0
 11
8110.76946213741
 21
1969.980909729023
 31
0.0
  0
LINE
  5
2D4CF
330
747D
100
AcDbEntity
  8
部品1
 48
50.0
100
AcDbLine
 10
8093.669462137409
 20
1882.680909729022
 30
0.0
 11
8507.669462137412
 21
1882.680909729022
 31
0.0
  0
LINE
  5
2D4D0
330
747D
100
AcDbEntity
  8
細線
 48
50.0
100
AcDbLine
 10
8093.669462137409
 20
1816.579949302512
 30
0.0
 11
8159.770422563919
 21
1882.680909729022
 31
0.0
  0
LINE
  5
2D4D1
330
747D
100
AcDbEntity
  8
細線
 48
50.0
100
AcDbLine
 10
8093.669462137409
 20
1843.52071766572
 30
0.0
 11
8132.829654200715
 21
1882.680909729022
 31
0.0
  0
LINE
  5
2D4D2
330
747D
100
AcDbEntity
  8
部品1
100
AcDbLine
 10
8113.469462137409
 20
1972.680909729022
 30
0.0
 11
8151.269462137411
 21
1972.680909729022
 31
0.0
  0
LINE
  5
2D4D3
330
747D
100
AcDbEntity
  8
部品1
 48
50.0
100
AcDbLine
 10
8507.669462137409
 20
1338.680909729022
 30
0.0
 11
8635.669462137409
 21
1338.680909729022
 31
0.0
  0
LINE
  5
2D4D4
330
747D
100
AcDbEntity
  8
部品1
100
AcDbLine
 10
8324.06946213741
 20
1657.680909729022
 30
0.0
 11
8360.06946213741
 21
1657.680909729022
 31
0.0
  0
LINE
  5
2D4D5
330
747D
100
AcDbEntity
  8
部品1
100
AcDbLine
 10
8324.06946213741
 20
1639.680909729022
 30
0.0
 11
8360.06946213741
 21
1639.680909729022
 31
0.0
  0
ARC
  5
2D4D6
330
747D
100
AcDbEntity
  8
部品1
100
AcDbCircle
 10
8324.06946213741
 20
1657.680909729022
 30
0.0
 40
18.0
100
AcDbArc
 50
180.0
 51
270.0
  0
LINE
  5
2D4D7
330
747D
100
AcDbEntity
  8
部品1
100
AcDbLine
 10
8360.06946213741
 20
1639.680909729022
 30
0.0
 11
8360.06946213741
 21
1657.680909729022
 31
0.0
  0
LINE
  5
2D4D8
330
747D
100
AcDbEntity
  8
部品1
100
AcDbLine
 10
8378.069462137409
 20
1558.680909729021
 30
0.0
 11
8252.069462137402
 21
1558.680909729021
 31
0.0
  0
LINE
  5
2D4D9
330
747D
100
AcDbEntity
  8
細線
 48
50.0
100
AcDbLine
 10
8672.047287329744
 20
1074.68090972902
 30
0.0
 11
8665.616506711398
 21
1098.68090972902
 31
0.0
  0
LINE
  5
2D4DA
330
747D
100
AcDbEntity
  8
細線
 48
50.0
100
AcDbLine
 10
8593.159242382499
 20
1074.68090972902
 30
0.0
 11
8586.728461764153
 21
1098.68090972902
 31
0.0
  0
LINE
  5
2D4DB
330
747D
100
AcDbEntity
  8
細線
 48
50.0
100
AcDbLine
 10
8514.271197435242
 20
1074.680909729022
 30
0.0
 11
8507.840416816895
 21
1098.680909729022
 31
0.0
  0
LINE
  5
2D4DC
330
747D
100
AcDbEntity
  8
細線
 48
50.0
100
AcDbLine
 10
8650.611351935255
 20
994.6809097290206
 30
0.0
 11
8657.042132553604
 21
970.6809097290205
 31
0.0
  0
LINE
  5
2D4DD
330
747D
100
AcDbEntity
  8
細線
 48
50.0
100
AcDbLine
 10
8571.72330698801
 20
994.6809097290206
 30
0.0
 11
8578.154087606355
 21
970.6809097290205
 31
0.0
  0
LINE
  5
2D4DE
330
747D
100
AcDbEntity
  8
細線
 48
50.0
100
AcDbLine
 10
8492.835262040761
 20
994.6809097290225
 30
0.0
 11
8499.266042659117
 21
970.6809097290225
 31
0.0
  0
LINE
  5
2D4DF
330
747D
100
AcDbEntity
  8
細線
 48
50.0
100
AcDbLine
 10
8565.29252636966
 20
970.6809097290197
 30
0.0
 11
8599.590023000843
 21
1098.680909729019
 31
0.0
  0
LINE
  5
2D4E0
330
747D
100
AcDbEntity
  8
細線
 48
50.0
100
AcDbLine
 10
8486.404481422411
 20
970.6809097290205
 30
0.0
 11
8520.701978053585
 21
1098.680909729022
 31
0.0
  0
LINE
  5
2D4E1
330
747D
100
AcDbEntity
  8
細線
 48
50.0
100
AcDbLine
 10
8644.180571316903
 20
970.6809097290205
 30
0.0
 11
8678.478067948089
 21
1098.680909729019
 31
0.0
  0
LINE
  5
2D4E2
330
747D
100
AcDbEntity
  8
部品1
 48
50.0
100
AcDbLine
 10
8715.669462137411
 20
1098.680909729022
 30
0.0
 11
8715.669462137411
 21
970.6809097290225
 31
0.0
  0
LINE
  5
2D4E3
330
747D
100
AcDbEntity
  8
細線
 48
50.0
100
AcDbLine
 10
8435.383152488006
 20
1074.680909729022
 30
0.0
 11
8428.952371869659
 21
1098.680909729022
 31
0.0
  0
LINE
  5
2D4E4
330
747D
100
AcDbEntity
  8
細線
 48
50.0
100
AcDbLine
 10
8356.495107540759
 20
1074.680909729022
 30
0.0
 11
8350.064326922412
 21
1098.680909729022
 31
0.0
  0
LINE
  5
2D4E5
330
747D
100
AcDbEntity
  8
細線
 48
50.0
100
AcDbLine
 10
8198.719017646265
 20
1074.680909729022
 30
0.0
 11
8192.288237027918
 21
1098.680909729022
 31
0.0
  0
LINE
  5
2D4E6
330
747D
100
AcDbEntity
  8
細線
 48
50.0
100
AcDbLine
 10
8277.607062593512
 20
1074.680909729022
 30
0.0
 11
8271.176281975163
 21
1098.680909729022
 31
0.0
  0
LINE
  5
2D4E7
330
747D
100
AcDbEntity
  8
細線
 48
50.0
100
AcDbLine
 10
8335.059172146269
 20
994.6809097290225
 30
0.0
 11
8341.489952764616
 21
970.6809097290225
 31
0.0
  0
LINE
  5
2D4E8
330
747D
100
AcDbEntity
  8
細線
 48
50.0
100
AcDbLine
 10
8413.947217093515
 20
994.6809097290225
 30
0.0
 11
8420.377997711861
 21
970.6809097290225
 31
0.0
  0
LINE
  5
2D4E9
330
747D
100
AcDbEntity
  8
細線
 48
50.0
100
AcDbLine
 10
8177.283082251776
 20
994.6809097290225
 30
0.0
 11
8183.713862870124
 21
970.6809097290225
 31
0.0
  0
LINE
  5
2D4EA
330
747D
100
AcDbEntity
  8
細線
 48
50.0
100
AcDbLine
 10
8256.171127199023
 20
994.6809097290225
 30
0.0
 11
8262.601907817371
 21
970.6809097290225
 31
0.0
  0
LINE
  5
2D4EB
330
747D
100
AcDbEntity
  8
細線
 48
50.0
100
AcDbLine
 10
8407.516436475161
 20
970.6809097290225
 30
0.0
 11
8441.813933106347
 21
1098.68090972902
 31
0.0
  0
LINE
  5
2D4EC
330
747D
100
AcDbEntity
  8
細線
 48
50.0
100
AcDbLine
 10
8249.74034658067
 20
970.6809097290225
 30
0.0
 11
8284.037843211855
 21
1098.68090972902
 31
0.0
  0
LINE
  5
2D4ED
330
747D
100
AcDbEntity
  8
細線
 48
50.0
100
AcDbLine
 10
8170.852301633424
 20
970.6809097290225
 30
0.0
 11
8205.149798264606
 21
1098.680909729022
 31
0.0
  0
LINE
  5
2D4EE
330
747D
100
AcDbEntity
  8
細線
 48
50.0
100
AcDbLine
 10
8328.628391527919
 20
970.6809097290205
 30
0.0
 11
8362.925888159102
 21
1098.68090972902
 31
0.0
  0
LINE
  5
2D4EF
330
747D
100
AcDbEntity
  8
細線
 48
50.0
100
AcDbLine
 10
8453.401157092217
 20
1098.680909729022
 30
0.0
 11
8635.669462137409
 21
1280.949214774218
 31
0.0
  0
LINE
  5
2D4F0
330
747D
100
AcDbEntity
  8
部品1
 48
50.0
100
AcDbLine
 10
8635.669462137409
 20
1338.680909729022
 30
0.0
 11
8635.669462137409
 21
1098.680909729022
 31
0.0
  0
LINE
  5
2D4F1
330
747D
100
AcDbEntity
  8
細線
 48
50.0
100
AcDbLine
 10
8426.460388729013
 20
1098.680909729022
 30
0.0
 11
8635.669462137409
 21
1307.889983137416
 31
0.0
  0
LINE
  5
2D4F2
330
747D
100
AcDbEntity
  8
細線
 48
50.0
100
AcDbLine
 10
8399.519620365801
 20
1098.680909729022
 30
0.0
 11
8635.669462137409
 21
1334.830751500631
 31
0.0
  0
LINE
  5
2D4F3
330
747D
100
AcDbEntity
  8
細線
 48
50.0
100
AcDbLine
 10
8183.993473460143
 20
1098.680909729022
 30
0.0
 11
8507.669462137409
 21
1422.356898406288
 31
0.0
  0
LINE
  5
2D4F4
330
747D
100
AcDbEntity
  8
細線
 48
50.0
100
AcDbLine
 10
8237.875010186559
 20
1098.680909729022
 30
0.0
 11
8507.669462137409
 21
1368.47536167988
 31
0.0
  0
LINE
  5
2D4F5
330
747D
100
AcDbEntity
  8
細線
 48
50.0
100
AcDbLine
 10
8210.934241823354
 20
1098.680909729022
 30
0.0
 11
8507.669462137409
 21
1395.416130043075
 31
0.0
  0
LINE
  5
2D4F6
330
747D
100
AcDbEntity
  8
細線
 48
50.0
100
AcDbLine
 10
7965.669462137404
 20
1311.409192217608
 30
0.0
 11
7992.941179648823
 21
1338.680909729022
 31
0.0
  0
LINE
  5
2D4F7
330
747D
100
AcDbEntity
  8
部品1
 48
50.0
100
AcDbLine
 10
7965.669462137409
 20
1338.680909729022
 30
0.0
 11
8093.669462137409
 21
1338.680909729022
 31
0.0
  0
LINE
  5
2D4F8
330
747D
100
AcDbEntity
  8
細線
 48
50.0
100
AcDbLine
 10
7965.669462137404
 20
1284.468423854398
 30
0.0
 11
8019.881948012033
 21
1338.680909729022
 31
0.0
  0
LWPOLYLINE
  5
2D4F9
330
747D
100
AcDbEntity
  8
部品1
 48
50.0
100
AcDbPolyline
 90
        2
 70
     0
 43
8.0
 10
7679.529560304452
 20
1642.680909729023
 10
8093.669462137409
 20
1642.680909729023
  0
LINE
  5
2D4FA
330
747D
100
AcDbEntity
  8
細線
 48
50.0
100
AcDbLine
 10
8040.942927751762
 20
1074.680909729022
 30
0.0
 11
8034.512147133415
 21
1098.680909729022
 31
0.0
  0
LINE
  5
2D4FB
330
747D
100
AcDbEntity
  8
細線
 48
50.0
100
AcDbLine
 10
8119.830972699013
 20
1074.680909729022
 30
0.0
 11
8113.400192080666
 21
1098.680909729022
 31
0.0
  0
LINE
  5
2D4FC
330
747D
100
AcDbEntity
  8
細線
 48
50.0
100
AcDbLine
 10
7962.05488280451
 20
1074.680909729022
 30
0.0
 11
7955.624102186163
 21
1098.680909729022
 31
0.0
  0
LINE
  5
2D4FD
330
747D
100
AcDbEntity
  8
細線
 48
50.0
100
AcDbLine
 10
7885.669462137409
 20
1084.020830694802
 30
0.0
 11
7889.597618475604
 21
1098.680909729022
 31
0.0
  0
LINE
  5
2D4FE
330
747D
100
AcDbEntity
  8
細線
 48
50.0
100
AcDbLine
 10
8019.506992357275
 20
994.6809097290225
 30
0.0
 11
8025.93777297562
 21
970.6809097290225
 31
0.0
  0
LINE
  5
2D4FF
330
747D
100
AcDbEntity
  8
細線
 48
50.0
100
AcDbLine
 10
8098.395037304525
 20
994.6809097290225
 30
0.0
 11
8104.825817922872
 21
970.6809097290225
 31
0.0
  0
LINE
  5
2D500
330
747D
100
AcDbEntity
  8
細線
 48
50.0
100
AcDbLine
 10
7940.618947410022
 20
994.6809097290225
 30
0.0
 11
7947.049728028367
 21
970.6809097290225
 31
0.0
  0
LINE
  5
2D501
330
747D
100
AcDbEntity
  8
細線
 48
50.0
100
AcDbLine
 10
8091.964256686173
 20
970.6809097290205
 30
0.0
 11
8126.261753317354
 21
1098.68090972902
 31
0.0
  0
LINE
  5
2D502
330
747D
100
AcDbEntity
  8
細線
 48
50.0
100
AcDbLine
 10
7934.188166791668
 20
970.6809097290205
 30
0.0
 11
7968.485663422851
 21
1098.68090972902
 31
0.0
  0
LINE
  5
2D503
330
747D
100
AcDbEntity
  8
部品1
 48
50.0
100
AcDbLine
 10
7885.669462137411
 20
970.6809097290225
 30
0.0
 11
7885.669462137411
 21
1098.680909729022
 31
0.0
  0
LINE
  5
2D504
330
747D
100
AcDbEntity
  8
細線
 48
50.0
100
AcDbLine
 10
8013.076211738926
 20
970.6809097290225
 30
0.0
 11
8047.373708370109
 21
1098.680909729022
 31
0.0
  0
LINE
  5
2D505
330
747D
100
AcDbEntity
  8
部品1
 48
50.0
100
AcDbLine
 10
7965.669462137409
 20
1098.680909729022
 30
0.0
 11
7965.669462137409
 21
1338.680909729022
 31
0.0
  0
LINE
  5
2D506
330
747D
100
AcDbEntity
  8
細線
 48
50.0
100
AcDbLine
 10
7965.669462137404
 20
1257.527655491193
 30
0.0
 11
8046.822716375238
 21
1338.680909729022
 31
0.0
  0
LINE
  5
2D507
330
747D
100
AcDbEntity
  8
部品1
 48
50.0
100
AcDbLine
 10
8715.669462137411
 20
970.6809097290225
 30
0.0
 11
7885.669462137411
 21
970.6809097290225
 31
0.0
  0
LINE
  5
2D508
330
747D
100
AcDbEntity
  8
部品1
 48
50.0
100
AcDbLine
 10
8715.669462137411
 20
1098.680909729022
 30
0.0
 11
7885.669462137411
 21
1098.680909729022
 31
0.0
  0
LINE
  5
2D509
330
747D
100
AcDbEntity
  8
細線
 48
50.0
100
AcDbLine
 10
7968.467326554485
 20
1098.680909729022
 30
0.0
 11
8507.669462137409
 21
1637.883045311948
 31
0.0
  0
LINE
  5
2D50A
330
747D
100
AcDbEntity
  8
細線
 48
50.0
100
AcDbLine
 10
7995.408094917694
 20
1098.680909729022
 30
0.0
 11
8507.669462137412
 21
1610.942276948736
 31
0.0
  0
LINE
  5
2D50B
330
747D
100
AcDbEntity
  8
細線
 48
50.0
100
AcDbLine
 10
8022.348863280898
 20
1098.680909729022
 30
0.0
 11
8507.669462137409
 21
1584.00150858553
 31
0.0
  0
LINE
  5
2D50C
330
747D
100
AcDbEntity
  8
細線
 48
50.0
100
AcDbLine
 10
8093.669462137409
 20
1439.409192217608
 30
0.0
 11
8252.069462137402
 21
1597.809192217603
 31
0.0
  0
LINE
  5
2D50D
330
747D
100
AcDbEntity
  8
細線
 48
50.0
100
AcDbLine
 10
8093.669462137409
 20
1385.527655491193
 30
0.0
 11
8266.822716375246
 21
1558.680909729021
 31
0.0
  0
LINE
  5
2D50E
330
747D
100
AcDbEntity
  8
細線
 48
50.0
100
AcDbLine
 10
8093.669462137409
 20
1412.4684238544
 30
0.0
 11
8252.069462137402
 21
1570.868423854389
 31
0.0
  0
LINE
  5
2D50F
330
747D
100
AcDbEntity
  8
部品1
100
AcDbLine
 10
8252.069462137402
 20
1558.680909729022
 30
0.0
 11
8252.069462137409
 21
1882.680909729022
 31
0.0
  0
LINE
  5
2D510
330
747D
100
AcDbEntity
  8
部品1
100
AcDbLine
 10
8378.069462137409
 20
1558.680909729022
 30
0.0
 11
8378.069462137409
 21
1882.680909729022
 31
0.0
  0
LINE
  5
2D511
330
747D
100
AcDbEntity
  8
細線
 48
50.0
100
AcDbLine
 10
8378.069462137409
 20
1696.868423854393
 30
0.0
 11
8507.669462137409
 21
1826.46842385439
 31
0.0
  0
LINE
  5
2D512
330
747D
100
AcDbEntity
  8
細線
 48
50.0
100
AcDbLine
 10
8378.069462137409
 20
1669.927655491181
 30
0.0
 11
8507.669462137409
 21
1799.527655491172
 31
0.0
  0
LINE
  5
2D513
330
747D
100
AcDbEntity
  8
部品1
100
AcDbLine
 10
8306.06946213741
 20
1657.680909729022
 30
0.0
 11
8306.069462137406
 21
1931.840909729023
 31
0.0
  0
LINE
  5
2D514
330
747D
100
AcDbEntity
  8
部品1
100
AcDbLine
 10
8324.06946213741
 20
1657.680909729022
 30
0.0
 11
8324.069462137407
 21
1931.840909729023
 31
0.0
  0
TEXT
  5
2D515
330
747D
100
AcDbEntity
  8
部品1
 48
50.0
100
AcDbText
 10
7679.529560304452
 20
1653.919902012278
 30
0.0
 40
80.0
  1
▽G.L
  7
STYLE2
100
AcDbText
  0
LINE
  5
2D516
330
747D
100
AcDbEntity
  8
細線
 48
50.0
100
AcDbLine
 10
8093.669462137409
 20
1601.053802396853
 30
0.0
 11
8252.069462137406
 21
1759.453802396845
 31
0.0
  0
LINE
  5
2D517
330
747D
100
AcDbEntity
  8
細線
 48
50.0
100
AcDbLine
 10
8093.669462137409
 20
1627.99457076006
 30
0.0
 11
8252.069462137407
 21
1786.394570760058
 31
0.0
  0
LINE
  5
2D518
330
747D
100
AcDbEntity
  8
細線
 48
50.0
100
AcDbLine
 10
8093.669462137409
 20
1654.935339123268
 30
0.0
 11
8252.069462137407
 21
1813.335339123265
 31
0.0
  0
LINE
  5
2D519
330
747D
100
AcDbEntity
  8
部品1
 48
50.0
100
AcDbLine
 10
8093.669462137409
 20
1338.680909729022
 30
0.0
 11
8093.669462137409
 21
1882.680909729022
 31
0.0
  0
LINE
  5
2D51A
330
747D
100
AcDbEntity
  8
部品1
100
AcDbLine
 10
8507.669462137409
 20
1338.680909729022
 30
0.0
 11
8507.669462137409
 21
1882.680909729022
 31
0.0
  0
LINE
  5
2D51B
330
747D
100
AcDbEntity
  8
細線
 48
50.0
100
AcDbLine
 10
8378.069462137409
 20
1723.809192217611
 30
0.0
 11
8507.669462137409
 21
1853.409192217609
 31
0.0
  0
LINE
  5
2D51C
330
747D
100
AcDbEntity
  8
細線
 48
50.0
100
AcDbLine
 10
6502.122571462685
 20
1763.427761625738
 30
0.0
 11
6585.630148960216
 21
1846.935339123268
 31
0.0
  0
LINE
  5
2D51D
330
747D
100
AcDbEntity
  8
細線
 48
50.0
100
AcDbLine
 10
6513.182856226201
 20
1747.547278026044
 30
0.0
 11
6585.630148960216
 21
1819.99457076006
 31
0.0
  0
LINE
  5
2D51E
330
747D
100
AcDbEntity
  8
細線
 48
50.0
100
AcDbLine
 10
6393.630148960216
 20
1870.461486028927
 30
0.0
 11
6405.849572660311
 21
1882.680909729022
 31
0.0
  0
LINE
  5
2D51F
330
747D
100
AcDbEntity
  8
細線
 48
50.0
100
AcDbLine
 10
6393.630148960216
 20
1816.579949302512
 30
0.0
 11
6459.731109386725
 21
1882.680909729022
 31
0.0
  0
LINE
  5
2D520
330
747D
100
AcDbEntity
  8
細線
 48
50.0
100
AcDbLine
 10
6393.630148960216
 20
1843.52071766572
 30
0.0
 11
6432.790341023519
 21
1882.680909729022
 31
0.0
  0
LINE
  5
2D521
330
747D
100
AcDbEntity
  8
部品1
 48
50.0
100
AcDbLine
 10
6393.630148960216
 20
1882.680909729022
 30
0.0
 11
6585.630148960216
 21
1882.680909729022
 31
0.0
  0
DIMENSION
  5
2D522
330
747D
100
AcDbEntity
  8
寸法
 48
50.0
100
AcDbDimension
  2
*D46
 10
6393.630148960215
 20
2302.348717645403
 30
0.0
 11
6489.630148960215
 21
2302.348717645403
 31
0.0
 70
   160
  1
120\P200\P280
 71
     5
 42
192.0
  3
INABA_S40G
100
AcDbAlignedDimension
 13
6585.630148960214
 23
1882.680909729022
 33
0.0
 14
6393.630148960215
 24
1882.680909729022
 34
0.0
100
AcDbRotatedDimension
1001
ACAD
1000
DSTYLE
1002
{
1070
   341
1005
0
1002
}
  0
MTEXT
  5
2D523
102
{ACAD_REACTORS
330
2D578
102
}
330
747D
100
AcDbEntity
  8
寸法
 62
     7
 48
50.0
100
AcDbMText
 10
6827.368604821465
 20
921.3318239968694
 30
0.0
 40
80.0
 41
0.8
 71
     4
 72
     1
  1
\A1;D10@300
  7
STYLE2
 73
     1
 44
1.0
1001
ACAD
1000
MTEXTBEGIN
1070
    73
1070
     1
1070
    44
1040
1.0
1070
    74
1070
     0
1000
MTEXTEND
  0
LINE
  5
2D524
330
747D
100
AcDbEntity
  8
細線
 48
50.0
100
AcDbLine
 10
6513.630148960221
 20
1532.468423854403
 30
0.0
 11
6585.630148960209
 21
1604.468423854398
 31
0.0
  0
LINE
  5
2D525
330
747D
100
AcDbEntity
  8
細線
 48
50.0
100
AcDbLine
 10
6513.630148960216
 20
1559.409192217608
 30
0.0
 11
6585.630148960216
 21
1631.409192217608
 31
0.0
  0
LINE
  5
2D526
330
747D
100
AcDbEntity
  8
細線
 48
50.0
100
AcDbLine
 10
6513.630148960221
 20
1290.001508585534
 30
0.0
 11
6585.630148960209
 21
1362.001508585534
 31
0.0
  0
LINE
  5
2D527
330
747D
100
AcDbEntity
  8
細線
 48
50.0
100
AcDbLine
 10
6513.630148960221
 20
1343.883045311952
 30
0.0
 11
6585.630148960209
 21
1415.883045311948
 31
0.0
  0
LINE
  5
2D528
330
747D
100
AcDbEntity
  8
細線
 48
50.0
100
AcDbLine
 10
6513.630148960221
 20
1316.942276948744
 30
0.0
 11
6585.630148960209
 21
1388.942276948738
 31
0.0
  0
LINE
  5
2D529
330
747D
100
AcDbEntity
  8
部品1
 48
50.0
100
AcDbLine
 10
6585.630148960216
 20
1338.680909729022
 30
0.0
 11
6713.630148960216
 21
1338.680909729022
 31
0.0
  0
LINE
  5
2D52A
330
747D
100
AcDbEntity
  8
細線
 48
50.0
100
AcDbLine
 10
6513.630148960221
 20
1505.527655491193
 30
0.0
 11
6585.630148960209
 21
1577.527655491193
 31
0.0
  0
LINE
  5
2D52B
330
747D
100
AcDbEntity
  8
部品1
 48
50.0
100
AcDbLine
 10
6481.630148960215
 20
1684.808124426145
 30
0.0
 11
6481.630148960215
 21
1742.935339123268
 31
0.0
  0
LINE
  5
2D52C
330
747D
100
AcDbEntity
  8
細線
 48
50.0
100
AcDbLine
 10
6393.630148960216
 20
1654.935339123268
 30
0.0
 11
6465.630148960215
 21
1726.935339123268
 31
0.0
  0
LINE
  5
2D52D
330
747D
100
AcDbEntity
  8
部品1
 48
50.0
100
AcDbLine
 10
6465.630148960215
 20
1684.808124426148
 30
0.0
 11
6465.630148960215
 21
1742.935339123268
 31
0.0
  0
LINE
  5
2D52E
330
747D
100
AcDbEntity
  8
細線
 48
50.0
100
AcDbLine
 10
6393.630148960216
 20
1627.99457076006
 30
0.0
 11
6465.630148960215
 21
1699.99457076006
 31
0.0
  0
LINE
  5
2D52F
330
747D
100
AcDbEntity
  8
細線
 48
50.0
100
AcDbLine
 10
6393.630148960216
 20
1601.053802396853
 30
0.0
 11
6477.384470989509
 21
1684.808124426145
 31
0.0
  0
LINE
  5
2D530
330
747D
100
AcDbEntity
  8
部品1
 48
50.0
100
AcDbLine
 10
6481.630148960215
 20
1684.808124426145
 30
0.0
 11
6465.630148960215
 21
1684.808124426148
 31
0.0
  0
LINE
  5
2D531
330
747D
100
AcDbEntity
  8
細線
 48
50.0
100
AcDbLine
 10
6265.630148960209
 20
1311.409192217608
 30
0.0
 11
6292.90186647163
 21
1338.680909729022
 31
0.0
  0
LINE
  5
2D532
330
747D
100
AcDbEntity
  8
細線
 48
50.0
100
AcDbLine
 10
6265.630148960209
 20
1284.468423854398
 30
0.0
 11
6319.842634834841
 21
1338.680909729022
 31
0.0
  0
LINE
  5
2D533
330
747D
100
AcDbEntity
  8
部品1
 48
50.0
100
AcDbLine
 10
6265.630148960216
 20
1338.680909729022
 30
0.0
 11
6393.630148960216
 21
1338.680909729022
 31
0.0
  0
LINE
  5
2D534
330
747D
100
AcDbEntity
  8
細線
 48
50.0
100
AcDbLine
 10
6481.630148960215
 20
1715.99457076006
 30
0.0
 11
6497.630148960215
 21
1731.99457076006
 31
0.0
  0
LINE
  5
2D535
330
747D
100
AcDbEntity
  8
細線
 48
50.0
100
AcDbLine
 10
6481.630148960215
 20
1689.053802396853
 30
0.0
 11
6497.630148960215
 21
1705.053802396853
 31
0.0
  0
LINE
  5
2D536
330
747D
100
AcDbEntity
  8
細線
 48
50.0
100
AcDbLine
 10
6393.630148960216
 20
1385.527655491193
 30
0.0
 11
6497.630148960221
 21
1489.527655491193
 31
0.0
  0
LINE
  5
2D537
330
747D
100
AcDbEntity
  8
細線
 48
50.0
100
AcDbLine
 10
6393.630148960216
 20
1439.409192217608
 30
0.0
 11
6497.630148960215
 21
1543.409192217608
 31
0.0
  0
LINE
  5
2D538
330
747D
100
AcDbEntity
  8
細線
 48
50.0
100
AcDbLine
 10
6393.630148960216
 20
1412.4684238544
 30
0.0
 11
6497.630148960221
 21
1516.468423854403
 31
0.0
  0
LINE
  5
2D539
330
747D
100
AcDbEntity
  8
細線
 48
50.0
100
AcDbLine
 10
6656.455794363563
 20
1074.680909729022
 30
0.0
 11
6650.025013745217
 21
1098.680909729022
 31
0.0
  0
LINE
  5
2D53A
330
747D
100
AcDbEntity
  8
細線
 48
50.0
100
AcDbLine
 10
6699.480307188609
 20
1098.680909729022
 30
0.0
 11
6713.630148960216
 21
1112.830751500629
 31
0.0
  0
LINE
  5
2D53B
330
747D
100
AcDbEntity
  8
細線
 48
50.0
100
AcDbLine
 10
6735.343839310811
 20
1074.680909729022
 30
0.0
 11
6728.913058692462
 21
1098.680909729022
 31
0.0
  0
LINE
  5
2D53C
330
747D
100
AcDbEntity
  8
部品1
 48
50.0
100
AcDbLine
 10
6657.630148960215
 20
1210.680909729022
 30
0.0
 11
6657.630148960215
 21
1194.680909729022
 31
0.0
  0
LINE
  5
2D53D
330
747D
100
AcDbEntity
  8
細線
 48
50.0
100
AcDbLine
 10
6537.835697009363
 20
1098.680909729022
 30
0.0
 11
6633.836584854499
 21
1194.681797574161
 31
0.0
  0
LINE
  5
2D53E
330
747D
100
AcDbEntity
  8
細線
 48
50.0
100
AcDbLine
 10
6510.894928646159
 20
1098.680909729022
 30
0.0
 11
6606.894928646159
 21
1194.680909729022
 31
0.0
  0
LINE
  5
2D53F
330
747D
100
AcDbEntity
  8
細線
 48
50.0
100
AcDbLine
 10
6577.567749416317
 20
1074.680909729022
 30
0.0
 11
6571.136968797971
 21
1098.680909729022
 31
0.0
  0
LINE
  5
2D540
330
747D
100
AcDbEntity
  8
細線
 48
50.0
100
AcDbLine
 10
6498.679704469072
 20
1074.680909729022
 30
0.0
 11
6492.248923850723
 21
1098.680909729022
 31
0.0
  0
ARC
  5
2D541
330
747D
100
AcDbEntity
  8
部品1
 48
50.0
100
AcDbCircle
 10
6489.630148960215
 20
1218.680909729022
 30
0.0
 40
24.0
100
AcDbArc
 50
340.5287793655256
 51
0.0
  0
CIRCLE
  5
2D542
330
747D
100
AcDbEntity
  8
部品1
 48
50.0
100
AcDbCircle
 10
6617.630148960215
 20
1218.680909729022
 30
0.0
 40
8.0
  0
LINE
  5
2D543
330
747D
100
AcDbEntity
  8
細線
 48
50.0
100
AcDbLine
 10
6649.835697009362
 20
1210.680909729022
 30
0.0
 11
6713.630148960216
 21
1274.475361679873
 31
0.0
  0
LINE
  5
2D544
330
747D
100
AcDbEntity
  8
細線
 48
50.0
100
AcDbLine
 10
6786.365168245218
 20
970.6809097290205
 30
0.0
 11
6793.630148960215
 21
997.7941868734106
 31
0.0
  0
LINE
  5
2D545
330
747D
100
AcDbEntity
  8
細線
 48
50.0
100
AcDbLine
 10
6792.795948863568
 20
994.6809097290225
 30
0.0
 11
6793.630148960215
 21
991.5676325846579
 31
0.0
  0
LINE
  5
2D546
330
747D
100
AcDbEntity
  8
細線
 48
50.0
100
AcDbLine
 10
6713.907903916321
 20
994.6809097290225
 30
0.0
 11
6720.338684534668
 21
970.6809097290225
 31
0.0
  0
LINE
  5
2D547
330
747D
100
AcDbEntity
  8
細線
 48
50.0
100
AcDbLine
 10
6556.131814021828
 20
994.6809097290225
 30
0.0
 11
6562.562594640174
 21
970.6809097290225
 31
0.0
  0
LINE
  5
2D548
330
747D
100
AcDbEntity
  8
細線
 48
50.0
100
AcDbLine
 10
6635.019858969073
 20
994.6809097290225
 30
0.0
 11
6641.450639587421
 21
970.6809097290225
 31
0.0
  0
LINE
  5
2D549
330
747D
100
AcDbEntity
  8
細線
 48
50.0
100
AcDbLine
 10
6628.589078350724
 20
970.6809097290205
 30
0.0
 11
6662.886574981908
 21
1098.68090972902
 31
0.0
  0
LINE
  5
2D54A
330
747D
100
AcDbEntity
  8
細線
 48
50.0
100
AcDbLine
 10
6549.701033403476
 20
970.6809097290225
 30
0.0
 11
6583.998530034661
 21
1098.68090972902
 31
0.0
  0
LINE
  5
2D54B
330
747D
100
AcDbEntity
  8
細線
 48
50.0
100
AcDbLine
 10
6707.477123297969
 20
970.6809097290225
 30
0.0
 11
6741.774619929154
 21
1098.68090972902
 31
0.0
  0
LINE
  5
2D54C
330
747D
100
AcDbEntity
  8
部品1
 48
50.0
100
AcDbLine
 10
6793.630148960218
 20
1098.680909729022
 30
0.0
 11
6793.630148960218
 21
970.6809097290225
 31
0.0
  0
LINE
  5
2D54D
330
747D
100
AcDbEntity
  8
部品1
 48
50.0
100
AcDbLine
 10
6481.630148960215
 20
1276.808124426145
 30
0.0
 11
6481.630148960215
 21
1218.680909729022
 31
0.0
  0
LINE
  5
2D54E
330
747D
100
AcDbEntity
  8
細線
 48
50.0
100
AcDbLine
 10
6407.368781740498
 20
1210.680909729022
 30
0.0
 11
6465.630148960215
 21
1268.942276948741
 31
0.0
  0
LINE
  5
2D54F
330
747D
100
AcDbEntity
  8
部品1
 48
50.0
100
AcDbLine
 10
6465.630148960215
 20
1276.808124426145
 30
0.0
 11
6465.630148960215
 21
1218.680909729022
 31
0.0
  0
LINE
  5
2D550
330
747D
100
AcDbEntity
  8
細線
 48
50.0
100
AcDbLine
 10
6322.309550103704
 20
1098.680909729022
 30
0.0
 11
6418.309550103704
 21
1194.680909729022
 31
0.0
  0
LINE
  5
2D551
330
747D
100
AcDbEntity
  8
細線
 48
50.0
100
AcDbLine
 10
6419.791659521819
 20
1074.680909729022
 30
0.0
 11
6413.360878903474
 21
1098.680909729022
 31
0.0
  0
LINE
  5
2D552
330
747D
100
AcDbEntity
  8
細線
 48
50.0
100
AcDbLine
 10
6340.903614574567
 20
1074.680909729022
 30
0.0
 11
6334.472833956221
 21
1098.680909729022
 31
0.0
  0
ARC
  5
2D553
330
747D
100
AcDbEntity
  8
部品1
 48
50.0
100
AcDbCircle
 10
6489.630148960215
 20
1218.680909729022
 30
0.0
 40
24.0
100
AcDbArc
 50
180.0
 51
199.4712206344743
  0
LINE
  5
2D554
330
747D
100
AcDbEntity
  8
細線
 48
50.0
100
AcDbLine
 10
6434.309550103704
 20
1210.680909729022
 30
0.0
 11
6465.630148960215
 21
1242.001508585534
 31
0.0
  0
CIRCLE
  5
2D555
330
747D
100
AcDbEntity
  8
部品1
 48
50.0
100
AcDbCircle
 10
6361.630148960216
 20
1218.680909729022
 30
0.0
 40
8.0
  0
LINE
  5
2D556
330
747D
100
AcDbEntity
  8
部品1
 48
50.0
100
AcDbLine
 10
6481.630148960215
 20
1276.808124426145
 30
0.0
 11
6465.630148960215
 21
1276.808124426145
 31
0.0
  0
LINE
  5
2D557
330
747D
100
AcDbEntity
  8
細線
 48
50.0
100
AcDbLine
 10
6185.630148960216
 20
1084.020830694802
 30
0.0
 11
6189.558305298412
 21
1098.680909729022
 31
0.0
  0
LINE
  5
2D558
330
747D
100
AcDbEntity
  8
細線
 48
50.0
100
AcDbLine
 10
6262.015569627315
 20
1074.680909729022
 30
0.0
 11
6255.584789008968
 21
1098.680909729022
 31
0.0
  0
LINE
  5
2D559
330
747D
100
AcDbEntity
  8
部品1
 48
50.0
100
AcDbLine
 10
6321.630148960216
 20
1210.680909729022
 30
0.0
 11
6321.630148960216
 21
1194.680909729022
 31
0.0
  0
LINE
  5
2D55A
330
747D
100
AcDbEntity
  8
細線
 48
50.0
100
AcDbLine
 10
6268.428013377288
 20
1098.680909729022
 30
0.0
 11
6364.428013377288
 21
1194.680909729022
 31
0.0
  0
LINE
  5
2D55B
330
747D
100
AcDbEntity
  8
細線
 48
50.0
100
AcDbLine
 10
6295.368781740499
 20
1098.680909729022
 30
0.0
 11
6391.368781740499
 21
1194.680909729022
 31
0.0
  0
LINE
  5
2D55C
330
747D
100
AcDbEntity
  8
細線
 48
50.0
100
AcDbLine
 10
6398.355724127331
 20
994.6809097290225
 30
0.0
 11
6404.786504745676
 21
970.6809097290225
 31
0.0
  0
LINE
  5
2D55D
330
747D
100
AcDbEntity
  8
細線
 48
50.0
100
AcDbLine
 10
6477.243769074583
 20
994.6809097290225
 30
0.0
 11
6483.67454969293
 21
970.6809097290225
 31
0.0
  0
LINE
  5
2D55E
330
747D
100
AcDbEntity
  8
細線
 48
50.0
100
AcDbLine
 10
6240.579634232826
 20
994.6809097290225
 30
0.0
 11
6247.010414851173
 21
970.6809097290225
 31
0.0
  0
LINE
  5
2D55F
330
747D
100
AcDbEntity
  8
細線
 48
50.0
100
AcDbLine
 10
6319.467679180077
 20
994.6809097290225
 30
0.0
 11
6325.898459798425
 21
970.6809097290225
 31
0.0
  0
LINE
  5
2D560
330
747D
100
AcDbEntity
  8
部品1
 48
50.0
100
AcDbLine
 10
6185.630148960218
 20
970.6809097290225
 30
0.0
 11
6185.630148960218
 21
1098.680909729022
 31
0.0
  0
LINE
  5
2D561
330
747D
100
AcDbEntity
  8
細線
 48
50.0
100
AcDbLine
 10
6234.148853614474
 20
970.6809097290205
 30
0.0
 11
6268.446350245657
 21
1098.68090972902
 31
0.0
  0
LINE
  5
2D562
330
747D
100
AcDbEntity
  8
細線
 48
50.0
100
AcDbLine
 10
6391.924943508977
 20
970.6809097290205
 30
0.0
 11
6426.222440140159
 21
1098.68090972902
 31
0.0
  0
LINE
  5
2D563
330
747D
100
AcDbEntity
  8
細線
 48
50.0
100
AcDbLine
 10
6313.036898561732
 20
970.6809097290225
 30
0.0
 11
6347.334395192914
 21
1098.680909729022
 31
0.0
  0
LINE
  5
2D564
330
747D
100
AcDbEntity
  8
細線
 48
50.0
100
AcDbLine
 10
6483.954160282948
 20
1098.680909729022
 30
0.0
 11
6579.954160282949
 21
1194.680909729022
 31
0.0
  0
CIRCLE
  5
2D565
330
747D
100
AcDbEntity
  8
部品1
 48
50.0
100
AcDbCircle
 10
6489.630148960215
 20
1218.680909729022
 30
0.0
 40
8.0
  0
LINE
  5
2D566
330
747D
100
AcDbEntity
  8
部品1
 48
50.0
100
AcDbLine
 10
6793.630148960218
 20
1098.680909729022
 30
0.0
 11
6185.630148960218
 21
1098.680909729022
 31
0.0
  0
LINE
  5
2D567
330
747D
100
AcDbEntity
  8
部品1
 48
50.0
100
AcDbLine
 10
6321.630148960216
 20
1210.680909729022
 30
0.0
 11
6657.630148960215
 21
1210.680909729022
 31
0.0
  0
LINE
  5
2D568
330
747D
100
AcDbEntity
  8
部品1
 48
50.0
100
AcDbLine
 10
6321.630148960216
 20
1194.680909729022
 30
0.0
 11
6657.630148960215
 21
1194.680909729022
 31
0.0
  0
LINE
  5
2D569
330
747D
100
AcDbEntity
  8
部品1
 48
50.0
100
AcDbLine
 10
6793.630148960218
 20
970.6809097290225
 30
0.0
 11
6185.630148960218
 21
970.6809097290225
 31
0.0
  0
LINE
  5
2D56A
330
747D
100
AcDbEntity
  8
細線
 48
50.0
100
AcDbLine
 10
6470.81298845623
 20
970.6809097290225
 30
0.0
 11
6505.110485087413
 21
1098.680909729022
 31
0.0
  0
LINE
  5
2D56B
330
747D
100
AcDbEntity
  8
細線
 48
50.0
100
AcDbLine
 10
6481.630148960215
 20
1258.001508585534
 30
0.0
 11
6497.630148960221
 21
1274.001508585534
 31
0.0
  0
LINE
  5
2D56C
330
747D
100
AcDbEntity
  8
部品1
 48
50.0
100
AcDbLine
 10
6497.630148960221
 20
1218.680909729022
 30
0.0
 11
6497.630148960208
 21
1742.935339123268
 31
0.0
  0
LINE
  5
2D56D
330
747D
100
AcDbEntity
  8
部品1
 48
50.0
100
AcDbLine
 10
6513.630148960221
 20
1218.680909729022
 30
0.0
 11
6513.630148960216
 21
1742.935339123268
 31
0.0
  0
LINE
  5
2D56E
330
747D
100
AcDbEntity
  8
部品1
 48
50.0
100
AcDbLine
 10
6713.630148960216
 20
1338.680909729022
 30
0.0
 11
6713.630148960216
 21
1098.680909729022
 31
0.0
  0
LINE
  5
2D56F
330
747D
100
AcDbEntity
  8
細線
 48
50.0
100
AcDbLine
 10
6595.954160282943
 20
1210.680909729022
 30
0.0
 11
6713.630148960216
 21
1328.356898406288
 31
0.0
  0
LINE
  5
2D570
330
747D
100
AcDbEntity
  8
細線
 48
50.0
100
AcDbLine
 10
6622.89492864616
 20
1210.680909729022
 30
0.0
 11
6713.630148960216
 21
1301.416130043081
 31
0.0
  0
LINE
  5
2D571
330
747D
100
AcDbEntity
  8
部品1
 48
50.0
100
AcDbLine
 10
6265.630148960216
 20
1098.680909729022
 30
0.0
 11
6265.630148960216
 21
1338.680909729022
 31
0.0
  0
LINE
  5
2D572
330
747D
100
AcDbEntity
  8
細線
 48
50.0
100
AcDbLine
 10
6380.428013377288
 20
1210.680909729022
 30
0.0
 11
6497.630148960215
 21
1327.883045311948
 31
0.0
  0
LINE
  5
2D573
330
747D
100
AcDbEntity
  8
細線
 48
50.0
100
AcDbLine
 10
6473.49599643762
 20
1276.808124426145
 30
0.0
 11
6497.630148960221
 21
1300.942276948744
 31
0.0
  0
LINE
  5
2D574
330
747D
100
AcDbEntity
  8
細線
 48
50.0
100
AcDbLine
 10
6265.630148960209
 20
1257.527655491193
 30
0.0
 11
6346.783403198044
 21
1338.680909729022
 31
0.0
  0
LEADER
  5
2D575
330
747D
100
AcDbEntity
  8
寸法
 48
50.0
100
AcDbLeader
  3
INABA_S50G
 71
     0
 73
     0
 74
     0
 75
     1
 40
100.0
 41
222.7272727272727
 76
     3
 10
6489.630148960215
 20
1742.935339123268
 30
0.0
 10
6543.516085987609
 20
1842.170911976442
 30
0.0
 10
6668.516085987609
 20
1842.170911976442
 30
0.0
1001
ACAD
1000
DSTYLE
1002
{
1070
    40
1040
1.0
1070
   272
1070
     1
1070
   279
1070
     1
1070
   341
1005
0
1002
}
  0
LWPOLYLINE
  5
2D576
330
747D
100
AcDbEntity
  8
部品1
 48
50.0
100
AcDbPolyline
 90
        2
 70
     0
 43
8.0
 10
6585.630148960214
 20
1642.680909729023
 10
6999.770050793173
 20
1642.680909729023
  0
MTEXT
  5
2D577
102
{ACAD_REACTORS
330
2D579
102
}
330
747D
100
AcDbEntity
  8
寸法
 62
     7
 48
50.0
100
AcDbMText
 10
6816.9578087669
 20
1183.28384078605
 30
0.0
 40
80.0
 41
0.8
 71
     4
 72
     1
  1
D10
  7
STYLE2
 73
     1
 44
1.0
1001
ACAD
1000
MTEXTBEGIN
1070
    73
1070
     1
1070
    44
1040
1.0
1070
    74
1070
     0
1000
MTEXTEND
  0
LEADER
  5
2D578
330
747D
100
AcDbEntity
  8
寸法
 48
50.0
100
AcDbLeader
  3
INABA_S50G
 71
     0
 73
     0
 74
     0
 75
     1
 40
100.0
 41
540.3409090909091
 76
     3
 10
6563.575317973389
 20
1201.940379315497
 30
0.0
 10
6682.368604821466
 20
860.3095613205995
 30
0.0
 10
6807.368604821466
 20
860.3095613205995
 30
0.0
213
0.0
223
-1.022262676269383
233
0.0
1001
ACAD
1000
DSTYLE
1002
{
1070
    40
1040
1.0
1070
   272
1070
     1
1070
   279
1070
     1
1070
   341
1005
0
1002
}
  0
LEADER
  5
2D579
330
747D
100
AcDbEntity
  8
寸法
 48
50.0
100
AcDbLeader
  3
INABA_S50G
 71
     0
 73
     0
 74
     0
 75
     1
 40
100.0
 41
225.0
 76
     3
 10
6617.533101312358
 20
1218.680909729022
 30
0.0
 10
6671.957808766899
 20
1123.28384078605
 30
0.0
 10
6796.957808766899
 20
1123.28384078605
 30
0.0
1001
ACAD
1000
DSTYLE
1002
{
1070
    40
1040
1.0
1070
   272
1070
     1
1070
   279
1070
     1
1070
   341
1005
0
1002
}
  0
MTEXT
  5
2D57A
102
{ACAD_REACTORS
330
2D575
102
}
330
747D
100
AcDbEntity
  8
寸法
 62
     7
 48
50.0
100
AcDbMText
 10
6668.516085987609
 20
1905.236809021833
 30
0.0
 40
80.0
 41
0.8
 71
     4
 72
     1
  1
D13
  7
STYLE2
 73
     1
 44
1.0
1001
ACAD
1000
MTEXTBEGIN
1070
    73
1070
     1
1070
    44
1040
1.0
1070
    74
1070
     0
1000
MTEXTEND
  0
LINE
  5
2D57B
330
747D
100
AcDbEntity
  8
部品1
 48
50.0
100
AcDbLine
 10
6585.630148960216
 20
1882.680909729022
 30
0.0
 11
6585.630148960216
 21
1338.680909729022
 31
0.0
  0
LINE
  5
2D57C
330
747D
100
AcDbEntity
  8
部品1
 48
50.0
100
AcDbLine
 10
6393.630148960216
 20
1338.680909729022
 30
0.0
 11
6393.630148960216
 21
1882.680909729022
 31
0.0
  0
CIRCLE
  5
2D57D
330
747D
100
AcDbEntity
  8
部品1
 48
50.0
100
AcDbCircle
 10
6489.630148960215
 20
1742.935339123268
 30
0.0
 40
8.0
  0
ARC
  5
2D57E
330
747D
100
AcDbEntity
  8
部品1
 48
50.0
100
AcDbCircle
 10
6489.630148960215
 20
1742.935339123268
 30
0.0
 40
24.0
100
AcDbArc
 50
0.0
 51
180.0
  0
LINE
  5
2D57F
330
747D
100
AcDbEntity
  8
細線
 48
50.0
100
AcDbLine
 10
6513.630148960216
 20
1721.053802396853
 30
0.0
 11
6585.630148960216
 21
1793.053802396853
 31
0.0
  0
LEADER
  5
2D580
330
747D
100
AcDbEntity
  8
寸法
 48
50.0
100
AcDbLeader
  3
INABA_S50G
 73
     0
 75
     1
 40
106.3636363636363
 41
893.1818181818181
 76
     3
 10
8225.06946213741
 20
1952.240909729024
 30
0.0
 10
8176.645389792469
 20
2326.300484445356
 30
0.0
 10
8051.645389792469
 20
2326.300484445356
 30
0.0
340
2D581
1001
ACAD
1000
DSTYLE
1002
{
1070
   341
1005
0
1070
    40
1040
1.0
1070
   343
1005
0
1070
   344
1005
0
1002
}
  0
MTEXT
  5
2D581
102
{ACAD_REACTORS
330
2D580
102
}
330
747D
100
AcDbEntity
  8
寸法
 62
     7
 48
50.0
100
AcDbMText
 10
8026.645389792468
 20
2404.482302627175
 30
0.0
 40
80.0
 41
0.8
 71
     6
 72
     1
  1
\A1;アンカープレート L
  7
STYLE2
 73
     1
 44
1.0
1001
ACAD
1000
MTEXTBEGIN
1070
    73
1070
     1
1070
    44
1040
1.0
1070
    74
1070
     0
1000
MTEXTEND
  0
DIMENSION
  5
2D582
330
747D
100
AcDbEntity
  8
寸法
 48
50.0
100
AcDbDimension
  2
*D47
 10
6713.630148960215
 20
560.2512717238623
 30
0.0
 11
6469.533390281991
 21
560.2512717238623
 31
0.0
 70
   160
  1
300
 71
     5
 42
448.0
  3
INABA_S40G
100
AcDbAlignedDimension
 13
6265.630148960215
 23
970.6809097290225
 33
0.0
 14
6713.630148960215
 24
970.6809097290225
 34
0.0
100
AcDbRotatedDimension
1001
ACAD
1000
DSTYLE
1002
{
1070
   341
1005
0
1002
}
  0
MTEXT
  5
2D583
102
{ACAD_REACTORS
330
2D58B
102
}
330
747D
100
AcDbEntity
  8
寸法
 62
     7
 48
50.0
100
AcDbMText
 10
6094.695122765021
 20
1015.158216110586
 30
0.0
 40
80.0
 41
0.8
 71
     6
 72
     1
  1
D10
  7
STYLE2
 73
     1
 44
1.0
1001
ACAD
1000
MTEXTBEGIN
1070
    73
1070
     1
1070
    44
1040
1.0
1070
    74
1070
     0
1000
MTEXTEND
  0
MTEXT
  5
2D584
102
{ACAD_REACTORS
330
2D58A
102
}
330
747D
100
AcDbEntity
  8
寸法
 62
     7
 48
50.0
100
AcDbMText
 10
6122.817850322455
 20
834.8420635711427
 30
0.0
 40
80.0
 41
0.8
 71
     6
 72
     1
  1
D13
  7
STYLE2
 73
     1
 44
1.0
1001
ACAD
1000
MTEXTBEGIN
1070
    73
1070
     1
1070
    44
1040
1.0
1070
    74
1070
     0
1000
MTEXTEND
  0
DIMENSION
  5
2D585
330
747D
100
AcDbEntity
  8
寸法
 48
50.0
100
AcDbDimension
  2
*D48
 10
5658.592910398475
 20
1098.680909729022
 30
0.0
 11
5658.592910398475
 21
1470.221059385023
 31
0.0
 70
   160
  1
540
 71
     5
 42
784.0
  3
INABA_S40G
100
AcDbAlignedDimension
 13
6393.630148960215
 23
1882.680909729022
 33
0.0
 14
6185.630148960218
 24
1098.680909729022
 34
0.0
 50
90.0
100
AcDbRotatedDimension
1001
ACAD
1000
DSTYLE
1002
{
1070
   341
1005
0
1002
}
  0
MTEXT
  5
2D586
102
{ACAD_REACTORS
330
2D587
102
}
330
747D
100
AcDbEntity
  8
寸法
 62
     7
 48
50.0
100
AcDbMText
 10
6173.531669476941
 20
2095.197129731065
 30
0.0
 40
80.0
 41
0.8
 71
     6
 72
     1
  1
\A1;金コテ押エ
  7
STYLE2
 73
     1
 44
1.0
1001
ACAD
1000
MTEXTBEGIN
1070
    73
1070
     1
1070
    44
1040
1.0
1070
    74
1070
     0
1000
MTEXTEND
  0
LEADER
  5
2D587
330
747D
100
AcDbEntity
  8
寸法
 48
50.0
100
AcDbLeader
  3
INABA_S50G
 71
     0
 73
     0
 75
     1
 40
130.1136363636363
 41
651.1363636363636
 76
     3
 10
6473.630148960214
 20
1882.680909729022
 30
0.0
 10
6361.205568796198
 20
2023.15167518561
 30
0.0
 10
6236.205568796198
 20
2023.15167518561
 30
0.0
1001
ACAD
1000
DSTYLE
1002
{
1070
    40
1040
1.0
1070
   272
1070
     1
1070
   279
1070
     1
1070
   341
1005
0
1002
}
  0
LEADER
  5
2D588
330
747D
100
AcDbEntity
  8
寸法
 48
50.0
100
AcDbLeader
  3
INABA_S50G
 71
     0
 73
     0
 75
     1
 40
100.0
 41
540.3409090909091
 76
     3
 10
6497.630148960215
 20
1640.808124426145
 30
0.0
 10
6439.647912431516
 20
1419.337795885341
 30
0.0
 10
6314.647912431516
 20
1419.337795885341
 30
0.0
213
-9.732182305893367
223
-4.643716661138569
233
0.0
1001
ACAD
1000
DSTYLE
1002
{
1070
    40
1040
1.0
1070
   272
1070
     1
1070
   279
1070
     1
1070
   341
1005
0
1002
}
  0
MTEXT
  5
2D589
102
{ACAD_REACTORS
330
2D588
102
}
330
747D
100
AcDbEntity
  8
寸法
 62
     7
 48
50.0
100
AcDbMText
 10
6304.38009473741
 20
1483.981512546479
 30
0.0
 40
80.0
 41
0.8
 71
     6
 72
     1
  1
\A1;D10@300
  7
STYLE2
 73
     1
 44
1.0
1001
ACAD
1000
MTEXTBEGIN
1070
    73
1070
     1
1070
    44
1040
1.0
1070
    74
1070
     0
1000
MTEXTEND
  0
LEADER
  5
2D58A
330
747D
100
AcDbEntity
  8
寸法
 48
50.0
100
AcDbLeader
  3
INABA_S50G
 71
     0
 73
     0
 75
     1
 40
100.0
 41
222.7272727272727
 76
     3
 10
6489.630148960215
 20
1218.680909729022
 30
0.0
 10
6267.817850322455
 20
774.8420635711426
 30
0.0
 10
6142.817850322455
 20
774.8420635711426
 30
0.0
1001
ACAD
1000
DSTYLE
1002
{
1070
    40
1040
1.0
1070
   272
1070
     1
1070
   279
1070
     1
1070
   341
1005
0
1002
}
  0
LEADER
  5
2D58B
330
747D
100
AcDbEntity
  8
寸法
 48
50.0
100
AcDbLeader
  3
INABA_S50G
 71
     0
 73
     0
 75
     1
 40
100.0
 41
225.0
 76
     3
 10
6361.533101312358
 20
1218.680909729022
 30
0.0
 10
6239.69512276502
 20
955.1582161105862
 30
0.0
 10
6114.69512276502
 20
955.1582161105862
 30
0.0
1001
ACAD
1000
DSTYLE
1002
{
1070
    40
1040
1.0
1070
   272
1070
     1
1070
   279
1070
     1
1070
   341
1005
0
1002
}
  0
DIMENSION
  5
2D58C
330
747D
100
AcDbEntity
  8
寸法
 48
50.0
100
AcDbDimension
  2
*D49
 10
6123.209835227755
 20
1098.680909729022
 30
0.0
 11
6123.209835227755
 21
1218.680909729023
 31
0.0
 70
   160
  1
150
 71
     5
 42
240.0
  3
INABA_S40G
100
AcDbAlignedDimension
 13
6265.630148960215
 23
1338.680909729022
 33
0.0
 14
6185.630148960218
 24
1098.680909729022
 34
0.0
 50
90.0
100
AcDbRotatedDimension
1001
ACAD
1000
DSTYLE
1002
{
1070
   341
1005
0
1002
}
  0
TEXT
  5
2D58D
330
747D
100
AcDbEntity
  8
部品1
 48
50.0
100
AcDbText
 10
5979.490247127258
 20
1653.919902012278
 30
0.0
 40
80.0
  1
▽G.L
  7
STYLE2
100
AcDbText
  0
LWPOLYLINE
  5
2D58E
330
747D
100
AcDbEntity
  8
部品1
 48
50.0
100
AcDbPolyline
 90
        2
 70
     0
 43
8.0
 10
5979.490247127258
 20
1642.680909729023
 10
6393.630148960215
 20
1642.680909729023
  0
MTEXT
  5
2D58F
102
{ACAD_REACTORS
330
2D590
102
}
330
747D
100
AcDbEntity
  8
寸法
 62
     7
 48
50.0
100
AcDbMText
 10
8000.002383584112
 20
2765.166574534688
 30
0.0
 40
80.0
 41
0.8
 71
     6
 72
     1
  1
\A1;φ70スリーブ
  7
STYLE2
 73
     1
 44
1.0
1001
ACAD
1000
MTEXTBEGIN
1070
    73
1070
     1
1070
    44
1040
1.0
1070
    74
1070
     0
1000
MTEXTEND
  0
LEADER
  5
2D590
330
747D
100
AcDbEntity
  8
寸法
 48
50.0
100
AcDbLeader
  3
INABA_S50G
 73
     0
 75
     1
 40
113.1818181818182
 41
608.6363636363635
 76
     3
 10
8283.806212275461
 20
1832.196583087301
 30
0.0
 10
8150.002383584112
 20
2683.575665443779
 30
0.0
 10
8025.002383584112
 20
2683.575665443779
 30
0.0
340
2D58F
1001
ACAD
1000
DSTYLE
1002
{
1070
   341
1005
0
1070
    40
1040
1.0
1070
   343
1005
0
1070
   344
1005
0
1002
}
  0
LINE
  5
2D591
330
747D
100
AcDbEntity
  8
部品1
100
AcDbLine
 10
5322.961710150952
 20
3282.019576929608
 30
0.0
 11
5322.961710150954
 21
317.7126073449608
 31
0.0
  0
LEADER
  5
2D592
330
747D
100
AcDbEntity
  8
寸法
 48
50.0
100
AcDbLeader
  3
INABA_S50G
 73
     0
 74
     0
 75
     1
 40
80.0
 41
435.0
 76
     3
 10
8324.06946213741
 20
1931.840909729023
 30
0.0
 10
8366.613924556729
 20
2082.064235882253
 30
0.0
 10
8491.613924556729
 20
2082.064235882253
 30
0.0
340
2D593
1001
ACAD
1000
DSTYLE
1002
{
1070
   341
1005
0
1070
    40
1040
1.0
1070
   343
1005
0
1070
   344
1005
0
1002
}
  0
MTEXT
  5
2D593
102
{ACAD_REACTORS
330
2D592
102
}
330
747D
100
AcDbEntity
  8
部品1
 62
     7
 48
50.0
100
AcDbMText
 10
8516.613924556727
 20
2147.064235882252
 30
0.0
 40
80.0
 41
0.8
 71
     4
 72
     1
  1
M10X160
  7
STYLE2
 73
     1
 44
1.0
1001
ACAD
1000
MTEXTBEGIN
1070
    73
1070
     1
1070
    44
1040
1.0
1070
    74
1070
     0
1000
MTEXTEND
  0
DIMENSION
  5
2D594
330
747D
100
AcDbEntity
  8
寸法
 48
50.0
100
AcDbDimension
  2
*D50
 10
9285.59272802528
 20
1882.680909729022
 30
0.0
 11
9285.59272802528
 21
1416.67200630754
 31
0.0
 70
   160
  1
20～25
 71
     5
 42
52.76000000000113
  3
INABA_S40G
100
AcDbAlignedDimension
 13
8320.469462137408
 23
1935.440909729024
 33
0.0
 14
8507.669462137409
 24
1882.680909729022
 34
0.0
 50
90.0
100
AcDbRotatedDimension
1001
ACAD
1000
DSTYLE
1002
{
1070
   341
1005
0
1002
}
  0
DIMENSION
  5
2D595
330
747D
100
AcDbEntity
  8
寸法
 48
50.0
100
AcDbDimension
  2
*D51
 10
9009.538061906253
 20
1558.680909729021
 30
0.0
 11
8909.538061906252
 21
1720.680909729023
 31
0.0
 70
    32
  1
180
 71
     5
 42
324.0000000000009
  3
INABA_S40G
100
AcDbAlignedDimension
 13
8507.669462137409
 23
1882.680909729022
 33
0.0
 14
8507.669462137409
 24
1558.680909729021
 34
0.0
 50
90.0
100
AcDbRotatedDimension
1001
ACAD
1000
DSTYLE
1002
{
1070
   341
1005
0
1002
}
  0
TEXT
  5
2D596
330
747D
100
AcDbEntity
  8
部品1
 48
50.0
100
AcDbText
 10
8512.023046421836
 20
2238.559590491222
 30
0.0
 40
80.0
  1
基礎ボルト(市販品)
  7
STYLE2
100
AcDbText
  0
LWPOLYLINE
  5
2D597
330
747D
100
AcDbEntity
  8
部品1
 48
50.0
100
AcDbPolyline
 90
        2
 70
     0
 43
8.0
 10
8507.669462137409
 20
1642.680909729023
 10
8801.371925536793
 20
1642.680909729023
  0
MTEXT
  5
2D598
102
{ACAD_REACTORS
330
2D599
102
}
330
747D
100
AcDbEntity
  8
部品1
 62
     7
 48
50.0
100
AcDbMText
 10
8546.941052506248
 20
2583.176282816283
 30
0.0
 40
80.0
 41
0.8
 71
     4
 72
     1
  1
\A1;ワッシャー(市販品)
  7
STYLE2
 73
     1
 44
1.0
1001
ACAD
1000
MTEXTBEGIN
1070
    73
1070
     1
1070
    44
1040
1.0
1070
    74
1070
     0
1000
MTEXTEND
  0
LEADER
  5
2D599
330
747D
100
AcDbEntity
  8
寸法
 48
50.0
100
AcDbLeader
  3
INABA_S50G
 73
     0
 74
     0
 75
     1
 40
102.2727272727273
 41
906.8181818181818
 76
     3
 10
8355.069462137409
 20
2151.804198173302
 30
0.0
 10
8396.941052506248
 20
2507.039919179919
 30
0.0
 10
8521.941052506248
 20
2507.039919179919
 30
0.0
340
2D598
1001
ACAD
1000
DSTYLE
1002
{
1070
   341
1005
0
1070
    40
1040
1.0
1070
   343
1005
0
1070
   344
1005
0
1002
}
  0
MTEXT
  5
2D59A
102
{ACAD_REACTORS
330
2D59B
102
}
330
747D
100
AcDbEntity
  8
部品1
 62
     7
 48
50.0
100
AcDbMText
 10
8515.423433250765
 20
2768.14536558107
 30
0.0
 40
80.0
 41
0.8
 71
     4
 72
     1
  1
\A1;ナット(市販品)
  7
STYLE2
 73
     1
 44
1.0
1001
ACAD
1000
MTEXTBEGIN
1070
    73
1070
     1
1070
    44
1040
1.0
1070
    74
1070
     0
1000
MTEXTEND
  0
LEADER
  5
2D59B
330
747D
100
AcDbEntity
  8
寸法
 48
50.0
100
AcDbLeader
  3
INABA_S50G
 73
     0
 74
     0
 75
     1
 40
102.2727272727273
 41
680.0000000000001
 76
     3
 10
8331.06946213741
 20
2281.556190838165
 30
0.0
 10
8365.423433250766
 20
2692.009001944706
 30
0.0
 10
8490.423433250766
 20
2692.009001944706
 30
0.0
340
2D59A
1001
ACAD
1000
DSTYLE
1002
{
1070
   341
1005
0
1070
    40
1040
1.0
1070
   343
1005
0
1070
   344
1005
0
1002
}
  0
LINE
  5
2D59C
330
747D
100
AcDbEntity
  8
部品1
100
AcDbLine
 10
5322.961710150956
 20
317.7126073449608
 30
0.0
 11
11393.9468955372
 21
317.7126073449608
 31
0.0
  0
LINE
  5
2D59D
330
747D
100
AcDbEntity
  8
部品1
100
AcDbLine
 10
11393.9468955372
 20
3042.019576929606
 30
0.0
 11
5322.961710150954
 21
3042.019576929606
 31
0.0
  0
LINE
  5
2D59E
330
747D
100
AcDbEntity
  8
部品1
100
AcDbLine
 10
11393.9468955372
 20
3282.019576929608
 30
0.0
 11
5322.96171015095
 21
3282.019576929608
 31
0.0
  0
HATCH
  5
2D62F
330
747D
100
AcDbEntity
  8
細線
 48
50.0
100
AcDbHatch
 10
0.0
 20
0.0
 30
0.0
210
0.0
220
0.0
230
1.0
  2
LINE
 70
     0
 71
     1
 91
        1
 92
        7
 72
     0
 73
     1
 93
        4
 10
8323.600000000002
 20
7455.463276680877
 10
8123.599999999996
 20
7455.463276680877
 10
8123.600000000005
 20
7255.463276680875
 10
8323.600000000002
 20
7255.463276680877
 97
        4
330
2C442
330
2C487
330
2C441
330
2C48E
 75
     0
 76
     1
 52
45.0
 41
10.0
 77
     0
 78
     1
 53
45.0
 43
0.0
 44
0.0
 45
-22.45064030267288
 46
22.45064030267288
 79
     0
 47
0.8268996282818809
 98
        1
 10
8138.555535618172
 20
7328.513709791735
  0
HATCH
  5
2D639
330
747D
100
AcDbEntity
  8
細線
 48
50.0
100
AcDbHatch
 10
0.0
 20
0.0
 30
0.0
210
0.0
220
0.0
230
1.0
  2
LINE
 70
     0
 71
     1
 91
        1
 92
        7
 72
     0
 73
     1
 93
        4
 10
8323.59999999999
 20
6355.463276680887
 10
8123.59999999999
 20
6355.463276680886
 10
8123.599999999997
 20
6075.463276680888
 10
8323.599999999995
 20
6075.463276680888
 97
        4
330
2D206
330
2C42C
330
2C3DB
330
2C42D
 75
     0
 76
     1
 52
45.0
 41
10.0
 77
     0
 78
     1
 53
45.0
 43
0.0
 44
0.0
 45
-22.45064030267288
 46
22.45064030267288
 79
     0
 47
3.382943852019116
 98
        1
 10
8167.715914438639
 20
6171.217025928315
  0
SPLINE
  5
2D640
330
747D
100
AcDbEntity
  8
細線
 48
50.0
100
AcDbSpline
210
0.0
220
0.0
230
1.0
 70
     8
 71
     3
 72
    10
 73
     6
 74
     4
 42
0.0000000001
 43
0.0000000001
 44
0.0000000001
 40
0.0
 40
0.0
 40
0.0
 40
0.0
 40
192.2397835813012
 40
392.3518421163208
 40
606.4563990014053
 40
606.4563990014053
 40
606.4563990014053
 40
606.4563990014053
 10
8112.482336352485
 20
6907.806380226813
 30
0.0
 10
8012.5361491092
 20
6896.230616471624
 30
0.0
 10
7808.550949236035
 20
6872.605058074494
 30
0.0
 10
8228.208382163678
 20
6739.328298043345
 30
0.0
 10
8007.412976593492
 20
6715.102682717483
 30
0.0
 10
7893.285969824531
 20
6702.580696776982
 30
0.0
 11
8112.482336352485
 21
6907.806380226813
 31
0.0
 11
7926.792964551085
 21
6858.051063009586
 31
0.0
 11
8100.095090846011
 21
6757.995033742075
 31
0.0
 11
7893.285969824531
 21
6702.580696776982
 31
0.0
  0
LINE
  5
2D641
330
747D
100
AcDbEntity
  8
細線
 48
50.0
100
AcDbLine
 10
8182.216926352195
 20
7961.881941552343
 30
0.0
 11
7852.934007867109
 21
5640.094828689123
 31
0.0
  0
ENDSEC
  0
SECTION
  2
OBJECTS
  0
DICTIONARY
  5
7471
330
0
100
AcDbDictionary
281
     1
  3
ACAD_COLOR
350
173D2
  3
ACAD_GROUP
350
7472
  3
ACAD_LAYOUT
350
173D3
  3
ACAD_MATERIAL
350
173D1
  3
ACAD_MLINESTYLE
350
7473
  3
ACAD_PLOTSETTINGS
350
173D4
  3
ACAD_PLOTSTYLENAME
350
173CF
  3
ACDBHEADERROUNDTRIPXREC
350
2D64D
  3
AcDbVariableDictionary
350
2D1A6
  3
CONTENTDICTIONARY
350
E71C
  3
DRAWINGVARIABLESDICT
350
F3B9
  0
DICTIONARY
  5
1758F
330
7467
100
AcDbDictionary
280
     1
281
     1
  3
ACAD_LAYERSTATES
360
17590
  0
DICTIONARY
  5
173D2
102
{ACAD_REACTORS
330
7471
102
}
330
7471
100
AcDbDictionary
281
     1
  0
DICTIONARY
  5
7472
102
{ACAD_REACTORS
330
7471
102
}
330
7471
100
AcDbDictionary
281
     1
  3
*A1
350
1D2A9
  0
DICTIONARY
  5
173D3
102
{ACAD_REACTORS
330
7471
102
}
330
7471
100
AcDbDictionary
281
     1
  3
Model
350
173D5
  3
レイアウト1
350
173D6
  0
DICTIONARY
  5
173D1
102
{ACAD_REACTORS
330
7471
102
}
330
7471
100
AcDbDictionary
281
     1
  0
DICTIONARY
  5
7473
102
{ACAD_REACTORS
330
7471
102
}
330
7471
100
AcDbDictionary
281
     1
  3
STANDARD
350
7480
  0
DICTIONARY
  5
173D4
102
{ACAD_REACTORS
330
7471
102
}
330
7471
100
AcDbDictionary
281
     1
  0
ACDBDICTIONARYWDFLT
  5
173CF
102
{ACAD_REACTORS
330
7471
102
}
330
7471
100
AcDbDictionary
281
     1
  3
Normal
350
173D0
100
AcDbDictionaryWithDefault
340
173D0
  0
DICTIONARY
  5
2D64D
102
{ACAD_REACTORS
330
7471
102
}
330
7471
100
AcDbDictionary
281
     1
  3
COLORDICT
350
2D64F
  3
MATERIALDICT
350
2D64E
  0
DICTIONARY
  5
2D1A6
102
{ACAD_REACTORS
330
7471
102
}
330
7471
100
AcDbDictionary
281
     1
  3
DIMASSOC
350
2D1A7
  3
PROJECTNAME
350
2D1A8
  0
DICTIONARY
  5
E71C
102
{ACAD_REACTORS
330
7471
102
}
330
7471
100
AcDbDictionary
281
     1
  0
DICTIONARY
  5
F3B9
102
{ACAD_REACTORS
330
7471
102
}
330
7471
100
AcDbDictionary
281
     1
1001
DRAWINGVARIABLESXDATA
1000
POLARMODE
1000
1
  0
DICTIONARY
  5
17590
102
{ACAD_REACTORS
330
1758F
102
}
330
1758F
100
AcDbDictionary
281
     1
  0
GROUP
  5
1D2A9
102
{ACAD_REACTORS
330
7472
102
}
330
7472
100
AcDbGroup
300

 70
     1
 71
     1
  0
LAYOUT
  5
173D5
102
{ACAD_XDICTIONARY
360
2D650
102
}
102
{ACAD_REACTORS
330
173D3
102
}
330
173D3
100
AcDbPlotSettings
  1

  2
Microsoft Office Document Image Writer
  4

  6

 40
0.0
 41
0.0
 42
0.0
 43
0.0
 44
0.0
 45
0.0
 46
0.0
 47
0.0
 48
0.0
 49
0.0
140
0.0
141
0.0
142
1.0
143
1.0
 70
  1712
 72
     0
 73
     0
 74
     0
  7

 75
     0
147
1.0
148
0.0
149
0.0
100
AcDbLayout
  1
Model
 70
     1
 71
     0
 10
0.0
 20
0.0
 11
12.0
 21
9.0
 12
0.0
 22
0.0
 32
0.0
 14
0.0
 24
0.0
 34
0.0
 15
0.0
 25
0.0
 35
0.0
146
0.0
 13
0.0
 23
0.0
 33
0.0
 16
1.0
 26
0.0
 36
0.0
 17
0.0
 27
1.0
 37
0.0
 76
     0
330
747D
  0
LAYOUT
  5
173D6
102
{ACAD_XDICTIONARY
360
2D652
102
}
102
{ACAD_REACTORS
330
173D3
102
}
330
173D3
100
AcDbPlotSettings
  1

  2
Microsoft Office Document Image Writer
  4

  6

 40
0.0
 41
0.0
 42
0.0
 43
0.0
 44
0.0
 45
0.0
 46
0.0
 47
0.0
 48
0.0
 49
0.0
140
0.0
141
0.0
142
1.0
143
1.0
 70
   688
 72
     0
 73
     0
 74
     5
  7

 75
    16
147
1.0
148
0.0
149
0.0
100
AcDbLayout
  1
レイアウト1
 70
     0
 71
     1
 10
0.0
 20
0.0
 11
420.0
 21
297.0
 12
0.0
 22
0.0
 32
0.0
 14
1.000000000000000E+20
 24
1.000000000000000E+20
 34
1.000000000000000E+20
 15
-1.000000000000000E+20
 25
-1.000000000000000E+20
 35
-1.000000000000000E+20
146
0.0
 13
0.0
 23
0.0
 33
0.0
 16
1.0
 26
0.0
 36
0.0
 17
0.0
 27
1.0
 37
0.0
 76
     0
330
747A
  0
MLINESTYLE
  5
7480
102
{ACAD_REACTORS
330
7473
102
}
330
7473
100
AcDbMlineStyle
  2
STANDARD
 70
     0
  3

 62
     0
 51
90.0
 52
90.0
 71
     2
 49
0.5
 62
   256
  6
BYLAYER
 49
-0.5
 62
   256
  6
BYLAYER
  0
ACDBPLACEHOLDER
  5
173D0
102
{ACAD_REACTORS
330
173CF
102
}
330
173CF
  0
XRECORD
  5
2D64F
102
{ACAD_REACTORS
330
2D64D
102
}
330
2D64D
100
AcDbXrecord
280
     1
340
173D2
  0
XRECORD
  5
2D64E
102
{ACAD_REACTORS
330
2D64D
102
}
330
2D64D
100
AcDbXrecord
280
     1
340
173D1
  0
DICTIONARYVAR
  5
2D1A7
102
{ACAD_REACTORS
330
2D1A6
102
}
330
2D1A6
100
DictionaryVariables
280
     0
  1
1
  0
DICTIONARYVAR
  5
2D1A8
102
{ACAD_REACTORS
330
2D1A6
102
}
330
2D1A6
100
DictionaryVariables
280
     0
  1

  0
DICTIONARY
  5
2D650
330
173D5
100
AcDbDictionary
280
     1
281
     1
  3
ACAD_XREC_ROUNDTRIP
360
2D651
  0
DICTIONARY
  5
2D652
330
173D6
100
AcDbDictionary
280
     1
281
     1
  3
ACAD_XREC_ROUNDTRIP
360
2D653
  0
XRECORD
  5
2D651
102
{ACAD_REACTORS
330
2D650
102
}
330
2D650
100
AcDbXrecord
280
     1
102
SHADEPLOT
 70
     0
102
SHADEPLOTRESLEVEL
 70
     2
102
SHADEPLOTCUSTOMDPI
 70
   300
  0
XRECORD
  5
2D653
102
{ACAD_REACTORS
330
2D652
102
}
330
2D652
100
AcDbXrecord
280
     1
102
SHADEPLOT
 70
     0
102
SHADEPLOTRESLEVEL
 70
     2
102
SHADEPLOTCUSTOMDPI
 70
   300
  0
ENDSEC
  0
EOF
