  0
SECTION
  2
HEADER
  9
$ACADVER
  1
AC1015
  9
$ACADMAINTVER
 70
    20
  9
$DWGCODEPAGE
  3
ANSI_932
  9
$INSBASE
 10
0.0
 20
0.0
 30
0.0
  9
$EXTMIN
 10
139.9999999999995
 20
-0.0000000000000909
 30
0.0
  9
$EXTMAX
 10
16307.2
 20
11409.6
 30
0.0
  9
$LIMMIN
 10
0.0
 20
0.0
  9
$LIMMAX
 10
16800.0
 20
11880.0
  9
$ORTHOMODE
 70
     0
  9
$REGENMODE
 70
     1
  9
$FILLMODE
 70
     1
  9
$QTEXTMODE
 70
     0
  9
$MIRRTEXT
 70
     1
  9
$LTSCALE
 40
20.0
  9
$ATTMODE
 70
     1
  9
$TEXTSIZE
 40
4.0
  9
$TRACEWID
 40
1.0
  9
$TEXTSTYLE
  7
STYLE1
  9
$CLAYER
  8
寸法
  9
$CELTYPE
  6
BYLAYER
  9
$CECOLOR
 62
   256
  9
$CELTSCALE
 40
50.0
  9
$DISPSILH
 70
     0
  9
$DIMSCALE
 40
40.0
  9
$DIMASZ
 40
2.5
  9
$DIMEXO
 40
0.5
  9
$DIMDLI
 40
7.0
  9
$DIMRND
 40
0.0
  9
$DIMDLE
 40
0.0
  9
$DIMEXE
 40
1.5
  9
$DIMTP
 40
0.0
  9
$DIMTM
 40
0.0
  9
$DIMTXT
 40
3.0
  9
$DIMCEN
 40
0.0
  9
$DIMTSZ
 40
0.0
  9
$DIMTOL
 70
     0
  9
$DIMLIM
 70
     0
  9
$DIMTIH
 70
     0
  9
$DIMTOH
 70
     0
  9
$DIMSE1
 70
     0
  9
$DIMSE2
 70
     0
  9
$DIMTAD
 70
     3
  9
$DIMZIN
 70
     8
  9
$DIMBLK
  1

  9
$DIMASO
 70
     1
  9
$DIMSHO
 70
     1
  9
$DIMPOST
  1

  9
$DIMAPOST
  1

  9
$DIMALT
 70
     0
  9
$DIMALTD
 70
     2
  9
$DIMALTF
 40
0.0394
  9
$DIMLFAC
 40
1.0
  9
$DIMTOFL
 70
     1
  9
$DIMTVP
 40
0.0
  9
$DIMTIX
 70
     1
  9
$DIMSOXD
 70
     0
  9
$DIMSAH
 70
     1
  9
$DIMBLK1
  1
DOTSMALL
  9
$DIMBLK2
  1
DOTSMALL
  9
$DIMSTYLE
  2
INABA_S40G
  9
$DIMCLRD
 70
     0
  9
$DIMCLRE
 70
     0
  9
$DIMCLRT
 70
     7
  9
$DIMTFAC
 40
1.0
  9
$DIMGAP
 40
1.0
  9
$DIMJUST
 70
     0
  9
$DIMSD1
 70
     0
  9
$DIMSD2
 70
     0
  9
$DIMTOLJ
 70
     1
  9
$DIMTZIN
 70
     0
  9
$DIMALTZ
 70
     0
  9
$DIMALTTZ
 70
     0
  9
$DIMUPT
 70
     0
  9
$DIMDEC
 70
     1
  9
$DIMTDEC
 70
     4
  9
$DIMALTU
 70
     2
  9
$DIMALTTD
 70
     2
  9
$DIMTXSTY
  7
STYLE1
  9
$DIMAUNIT
 70
     0
  9
$DIMADEC
 70
     0
  9
$DIMALTRND
 40
0.0
  9
$DIMAZIN
 70
     0
  9
$DIMDSEP
 70
    46
  9
$DIMATFIT
 70
     3
  9
$DIMFRAC
 70
     0
  9
$DIMLDRBLK
  1

  9
$DIMLUNIT
 70
     2
  9
$DIMLWD
 70
    -2
  9
$DIMLWE
 70
    -2
  9
$DIMTMOVE
 70
     0
  9
$LUNITS
 70
     2
  9
$LUPREC
 70
     1
  9
$SKETCHINC
 40
1.0
  9
$FILLETRAD
 40
3.0
  9
$AUNITS
 70
     0
  9
$AUPREC
 70
     0
  9
$MENU
  1
acad
  9
$ELEVATION
 40
0.0
  9
$PELEVATION
 40
0.0
  9
$THICKNESS
 40
0.0
  9
$LIMCHECK
 70
     0
  9
$CHAMFERA
 40
0.0
  9
$CHAMFERB
 40
0.0
  9
$CHAMFERC
 40
0.0
  9
$CHAMFERD
 40
0.0
  9
$SKPOLY
 70
     0
  9
$TDCREATE
 40
2451368.612993866
  9
$TDUCREATE
 40
2451368.237993866
  9
$TDUPDATE
 40
2455827.641185937
  9
$TDUUPDATE
 40
2455827.266185938
  9
$TDINDWG
 40
0.8782777662
  9
$TDUSRTIMER
 40
0.8782777662
  9
$USRTIMER
 70
     1
  9
$ANGBASE
 50
0.0
  9
$ANGDIR
 70
     0
  9
$PDMODE
 70
     3
  9
$PDSIZE
 40
2.0
  9
$PLINEWID
 40
0.0
  9
$SPLFRAME
 70
     0
  9
$SPLINETYPE
 70
     6
  9
$SPLINESEGS
 70
     8
  9
$HANDSEED
  5
284F0
  9
$SURFTAB1
 70
     6
  9
$SURFTAB2
 70
     6
  9
$SURFTYPE
 70
     6
  9
$SURFU
 70
     6
  9
$SURFV
 70
     6
  9
$UCSBASE
  2

  9
$UCSNAME
  2

  9
$UCSORG
 10
0.0
 20
0.0
 30
0.0
  9
$UCSXDIR
 10
1.0
 20
0.0
 30
0.0
  9
$UCSYDIR
 10
0.0
 20
1.0
 30
0.0
  9
$UCSORTHOREF
  2

  9
$UCSORTHOVIEW
 70
     0
  9
$UCSORGTOP
 10
0.0
 20
0.0
 30
0.0
  9
$UCSORGBOTTOM
 10
0.0
 20
0.0
 30
0.0
  9
$UCSORGLEFT
 10
0.0
 20
0.0
 30
0.0
  9
$UCSORGRIGHT
 10
0.0
 20
0.0
 30
0.0
  9
$UCSORGFRONT
 10
0.0
 20
0.0
 30
0.0
  9
$UCSORGBACK
 10
0.0
 20
0.0
 30
0.0
  9
$PUCSBASE
  2

  9
$PUCSNAME
  2

  9
$PUCSORG
 10
0.0
 20
0.0
 30
0.0
  9
$PUCSXDIR
 10
1.0
 20
0.0
 30
0.0
  9
$PUCSYDIR
 10
0.0
 20
1.0
 30
0.0
  9
$PUCSORTHOREF
  2

  9
$PUCSORTHOVIEW
 70
     0
  9
$PUCSORGTOP
 10
0.0
 20
0.0
 30
0.0
  9
$PUCSORGBOTTOM
 10
0.0
 20
0.0
 30
0.0
  9
$PUCSORGLEFT
 10
0.0
 20
0.0
 30
0.0
  9
$PUCSORGRIGHT
 10
0.0
 20
0.0
 30
0.0
  9
$PUCSORGFRONT
 10
0.0
 20
0.0
 30
0.0
  9
$PUCSORGBACK
 10
0.0
 20
0.0
 30
0.0
  9
$USERI1
 70
     0
  9
$USERI2
 70
     0
  9
$USERI3
 70
     0
  9
$USERI4
 70
     0
  9
$USERI5
 70
     0
  9
$USERR1
 40
0.0
  9
$USERR2
 40
0.0
  9
$USERR3
 40
0.0
  9
$USERR4
 40
0.0
  9
$USERR5
 40
0.0
  9
$WORLDVIEW
 70
     1
  9
$SHADEDGE
 70
     3
  9
$SHADEDIF
 70
    70
  9
$TILEMODE
 70
     1
  9
$MAXACTVP
 70
    16
  9
$PINSBASE
 10
0.0
 20
0.0
 30
0.0
  9
$PLIMCHECK
 70
     0
  9
$PEXTMIN
 10
1.000000000000000E+20
 20
1.000000000000000E+20
 30
1.000000000000000E+20
  9
$PEXTMAX
 10
-1.000000000000000E+20
 20
-1.000000000000000E+20
 30
-1.000000000000000E+20
  9
$PLIMMIN
 10
0.0
 20
0.0
  9
$PLIMMAX
 10
420.0
 20
297.0
  9
$UNITMODE
 70
     0
  9
$VISRETAIN
 70
     0
  9
$PLINEGEN
 70
     0
  9
$PSLTSCALE
 70
     0
  9
$TREEDEPTH
 70
  3020
  9
$CMLSTYLE
  2
STANDARD
  9
$CMLJUST
 70
     0
  9
$CMLSCALE
 40
1.0
  9
$PROXYGRAPHICS
 70
     1
  9
$MEASUREMENT
 70
     1
  9
$CELWEIGHT
370
    -1
  9
$ENDCAPS
280
     0
  9
$JOINSTYLE
280
     0
  9
$LWDISPLAY
290
     0
  9
$INSUNITS
 70
     0
  9
$HYPERLINKBASE
  1

  9
$STYLESHEET
  1

  9
$XEDIT
290
     1
  9
$CEPSNTYPE
380
     0
  9
$PSTYLEMODE
290
     1
  9
$FINGERPRINTGUID
  2
{5EAC461A-2277-4BF8-9AB0-99C43BB394F0}
  9
$VERSIONGUID
  2
{4A477EDC-652E-46AB-9BA0-A1A3D1B13D34}
  9
$EXTNAMES
290
     1
  9
$PSVPSCALE
 40
0.0
  9
$OLESTARTUP
290
     0
  0
ENDSEC
  0
SECTION
  2
CLASSES
  0
CLASS
  1
ACDBDICTIONARYWDFLT
  2
AcDbDictionaryWithDefault
  3
ObjectDBX Classes
 90
        0
280
     0
281
     0
  0
CLASS
  1
DICTIONARYVAR
  2
AcDbDictionaryVar
  3
ObjectDBX Classes
 90
        0
280
     0
281
     0
  0
CLASS
  1
ACDBPLACEHOLDER
  2
AcDbPlaceHolder
  3
ObjectDBX Classes
 90
        0
280
     0
281
     0
  0
CLASS
  1
LAYOUT
  2
AcDbLayout
  3
ObjectDBX Classes
 90
        0
280
     0
281
     0
  0
ENDSEC
  0
SECTION
  2
TABLES
  0
TABLE
  2
VPORT
  5
746D
330
0
100
AcDbSymbolTable
 70
     2
  0
VPORT
  5
284E8
330
746D
100
AcDbSymbolTableRecord
100
AcDbViewportTableRecord
  2
*Active
 70
     0
 10
0.0
 20
0.0
 11
1.0
 21
1.0
 12
8400.000000000002
 22
6532.467989526317
 13
0.0
 23
0.0
 14
10.0
 24
10.0
 15
10.0
 25
10.0
 16
0.0
 26
0.0
 36
1.0
 17
0.0
 27
0.0
 37
0.0
 40
13159.96111582214
 41
1.522222222222222
 42
50.0
 43
0.0
 44
0.0
 50
0.0
 51
0.0
 71
     0
 72
     0
 73
     1
 74
     0
 75
     0
 76
     0
 77
     0
 78
     0
281
     0
 65
     1
110
0.0
120
0.0
130
0.0
111
1.0
121
0.0
131
0.0
112
0.0
122
1.0
132
0.0
 79
     0
146
0.0
  0
ENDTAB
  0
TABLE
  2
LTYPE
  5
746A
330
0
100
AcDbSymbolTable
 70
     5
  0
LTYPE
  5
7477
330
746A
100
AcDbSymbolTableRecord
100
AcDbLinetypeTableRecord
  2
BYBLOCK
 70
     0
  3

 72
    65
 73
     0
 40
0.0
  0
LTYPE
  5
7478
330
746A
100
AcDbSymbolTableRecord
100
AcDbLinetypeTableRecord
  2
BYLAYER
 70
     0
  3

 72
    65
 73
     0
 40
0.0
  0
LTYPE
  5
7479
330
746A
100
AcDbSymbolTableRecord
100
AcDbLinetypeTableRecord
  2
CONTINUOUS
 70
     0
  3
Solid line
 72
    65
 73
     0
 40
0.0
  0
LTYPE
  5
7816
330
746A
100
AcDbSymbolTableRecord
100
AcDbLinetypeTableRecord
  2
CENTER
 70
     0
  3
____ _ ____ _ ____ _ ____ _ ____ _ ____ _ ____ 
 72
    65
 73
     4
 40
2.0
 49
1.25
 74
     0
 49
-0.25
 74
     0
 49
0.25
 74
     0
 49
-0.25
 74
     0
  0
LTYPE
  5
781A
330
746A
100
AcDbSymbolTableRecord
100
AcDbLinetypeTableRecord
  2
HIDDEN
 70
     0
  3
__ __ __ __ __ __ __ __ __ __ __ __ __ __ __ __
 72
    65
 73
     2
 40
0.375
 49
0.25
 74
     0
 49
-0.125
 74
     0
  0
LTYPE
  5
781B
330
746A
100
AcDbSymbolTableRecord
100
AcDbLinetypeTableRecord
  2
PHANTOM
 70
     0
  3
______  __  __  ______  __  __  ______  __  __ 
 72
    65
 73
     6
 40
2.5
 49
1.25
 74
     0
 49
-0.25
 74
     0
 49
0.25
 74
     0
 49
-0.25
 74
     0
 49
0.25
 74
     0
 49
-0.25
 74
     0
  0
LTYPE
  5
12CC3
330
746A
100
AcDbSymbolTableRecord
100
AcDbLinetypeTableRecord
  2
HIDDENX2
 70
     0
  3
Hidden (2x) ____ ____ ____ ____ ____ ____ ____
 72
    65
 73
     2
 40
19.05
 49
12.7
 74
     0
 49
-6.349999999999999
 74
     0
  0
ENDTAB
  0
TABLE
  2
LAYER
  5
7467
102
{ACAD_XDICTIONARY
360
1758F
102
}
330
0
100
AcDbSymbolTable
 70
    12
  0
LAYER
  5
7474
330
7467
100
AcDbSymbolTableRecord
100
AcDbLayerTableRecord
  2
0
 70
     0
 62
     7
  6
CONTINUOUS
370
    -3
390
173D0
  0
LAYER
  5
DEB2
330
7467
100
AcDbSymbolTableRecord
100
AcDbLayerTableRecord
  2
センター
 70
     0
 62
     3
  6
CENTER
370
    -3
390
173D0
  0
LAYER
  5
DEB3
330
7467
100
AcDbSymbolTableRecord
100
AcDbLayerTableRecord
  2
寸法
 70
     0
 62
     4
  6
CONTINUOUS
370
    -3
390
173D0
  0
LAYER
  5
DEB4
330
7467
100
AcDbSymbolTableRecord
100
AcDbLayerTableRecord
  2
部品1
 70
     0
 62
     7
  6
CONTINUOUS
370
    -3
390
173D0
  0
LAYER
  5
DEB5
330
7467
100
AcDbSymbolTableRecord
100
AcDbLayerTableRecord
  2
補助
 70
     0
 62
    -1
  6
CONTINUOUS
370
    -3
390
173D0
  0
LAYER
  5
DEB6
330
7467
100
AcDbSymbolTableRecord
100
AcDbLayerTableRecord
  2
文字
 70
     0
 62
     7
  6
CONTINUOUS
370
    -3
390
173D0
  0
LAYER
  5
F255
330
7467
100
AcDbSymbolTableRecord
100
AcDbLayerTableRecord
  2
DEFPOINTS
 70
     0
 62
     7
  6
CONTINUOUS
290
     0
370
    -3
390
173D0
  0
LAYER
  5
10B54
330
7467
100
AcDbSymbolTableRecord
100
AcDbLayerTableRecord
  2
仕様書枠
 70
     0
 62
   230
  6
CONTINUOUS
370
    -3
390
173D0
  0
LAYER
  5
11729
330
7467
100
AcDbSymbolTableRecord
100
AcDbLayerTableRecord
  2
Ｇ．Ｌ
 70
     0
 62
    30
  6
CONTINUOUS
370
    -3
390
173D0
  0
LAYER
  5
1173F
330
7467
100
AcDbSymbolTableRecord
100
AcDbLayerTableRecord
  2
細線
 70
     0
 62
     5
  6
CONTINUOUS
370
    -3
390
173D0
  0
LAYER
  5
12CC4
330
7467
100
AcDbSymbolTableRecord
100
AcDbLayerTableRecord
  2
想像線
 70
     0
 62
     6
  6
PHANTOM
370
    -3
390
173D0
  0
LAYER
  5
142E2
330
7467
100
AcDbSymbolTableRecord
100
AcDbLayerTableRecord
  2
破線
 70
     0
 62
     2
  6
HIDDEN
370
    -3
390
173D0
  0
ENDTAB
  0
TABLE
  2
STYLE
  5
7468
330
0
100
AcDbSymbolTable
 70
     7
  0
STYLE
  5
7475
330
7468
100
AcDbSymbolTableRecord
100
AcDbTextStyleTableRecord
  2
STANDARD
 70
     0
 40
0.0
 41
1.0
 50
0.0
 71
     0
 42
4.0
  3
txt
  4
C:\AutoCAD LT\bigfont.shx
  0
STYLE
  5
763C
330
7468
100
AcDbSymbolTableRecord
100
AcDbTextStyleTableRecord
  2
MSMINCHO
 70
     0
 40
0.0
 41
1.0
 50
0.0
 71
     0
 42
1.199999999999999
  3
C:\AutoCAD LT\msminch2.TTF
  4

  0
STYLE
  5
F706
330
7468
100
AcDbSymbolTableRecord
100
AcDbTextStyleTableRecord
  2
STYLE1
 70
     0
 40
0.0
 41
1.0
 50
0.0
 71
     0
 42
4.0
  3
isocp.shx
  4
bigfont.shx
  0
STYLE
  5
103BF
330
7468
100
AcDbSymbolTableRecord
100
AcDbTextStyleTableRecord
  2
STYLE2
 70
     0
 40
0.0
 41
1.0
 50
0.0
 71
     0
 42
100.0
  3
MS PGothic.ttf
  4

1001
ACAD
1000
MS PGothic
1071
    32818
  0
STYLE
  5
10BAA
330
7468
100
AcDbSymbolTableRecord
100
AcDbTextStyleTableRecord
  2
STYLE3
 70
     0
 40
0.0
 41
1.0
 50
0.0
 71
     0
 42
100.0
  3

  4

1001
ACAD
1000
DFPGothic-EB
1071
    32818
  0
STYLE
  5
11A15
330
7468
100
AcDbSymbolTableRecord
100
AcDbTextStyleTableRecord
  2
MSGOTHIC
 70
     0
 40
0.0
 41
1.0
 50
0.0
 71
     0
 42
3.5
  3
msgothi2.ttf
  4

  0
STYLE
  5
13E96
330
7468
100
AcDbSymbolTableRecord
100
AcDbTextStyleTableRecord
  2
MSPゴシック
 70
     0
 40
0.0
 41
1.0
 50
0.0
 71
     0
 42
4.0
  3
MS PGothic.ttf
  4

1001
ACAD
1000
MS PGothic
1071
    32818
  0
ENDTAB
  0
TABLE
  2
VIEW
  5
746B
330
0
100
AcDbSymbolTable
 70
     0
  0
ENDTAB
  0
TABLE
  2
UCS
  5
746C
330
0
100
AcDbSymbolTable
 70
     0
  0
ENDTAB
  0
TABLE
  2
APPID
  5
746E
330
0
100
AcDbSymbolTable
 70
     6
  0
APPID
  5
7476
330
746E
100
AcDbSymbolTableRecord
100
AcDbRegAppTableRecord
  2
ACAD
 70
     0
  0
APPID
  5
DEA9
330
746E
100
AcDbSymbolTableRecord
100
AcDbRegAppTableRecord
  2
CONTENTBLOCKICON
 70
     0
  0
APPID
  5
DEAA
330
746E
100
AcDbSymbolTableRecord
100
AcDbRegAppTableRecord
  2
CONTENTBLOCKDESCRIPTION
 70
     0
  0
APPID
  5
E71D
330
746E
100
AcDbSymbolTableRecord
100
AcDbRegAppTableRecord
  2
CONTENTTABDATA
 70
     0
  0
APPID
  5
E71E
330
746E
100
AcDbSymbolTableRecord
100
AcDbRegAppTableRecord
  2
CONTENTCURRENTTAB
 70
     0
  0
APPID
  5
F3BA
330
746E
100
AcDbSymbolTableRecord
100
AcDbRegAppTableRecord
  2
DRAWINGVARIABLESXDATA
 70
     0
  0
ENDTAB
  0
TABLE
  2
DIMSTYLE
  5
746F
330
0
100
AcDbSymbolTable
 70
     6
100
AcDbDimStyleTable
 71
     1
340
F71F
  0
DIMSTYLE
105
7484
330
746F
100
AcDbSymbolTableRecord
100
AcDbDimStyleTableRecord
  2
JIS
 70
     0
 41
2.5
 42
1.0
 43
7.0
 44
1.0
 73
     0
 74
     0
 77
     1
 78
     8
140
2.5
141
0.0
143
0.0394
147
0.0
172
     1
174
     1
175
     1
340
7475
  0
DIMSTYLE
105
F236
330
746F
100
AcDbSymbolTableRecord
100
AcDbDimStyleTableRecord
  2
INABA_S40
 70
     0
 40
40.0
 41
2.5
 42
0.5
 43
7.0
 44
1.5
 73
     0
 74
     0
 77
     3
 78
     8
140
3.0
141
0.0
143
0.0394
147
1.0
172
     1
173
     1
174
     1
175
     1
178
     7
289
     0
340
7475
341
DEAC
343
DEAC
344
DEAC
  0
DIMSTYLE
105
F71F
102
{ACAD_REACTORS
330
20DE1
330
20DFB
330
22741
330
2275B
330
23FD9
330
24043
330
273F7
330
273C3
330
27378
330
27377
330
27376
330
27331
330
27330
330
2732D
330
272DD
330
272DC
330
272DB
330
272D4
330
272C7
330
272C4
330
272C1
330
272E1
330
272E2
330
272D6
330
272D5
330
272DE
330
272DA
330
27DE5
330
283DF
330
2843F
330
28442
330
28449
330
28451
330
28452
102
}
330
746F
100
AcDbSymbolTableRecord
100
AcDbDimStyleTableRecord
  2
INABA_S40G
 70
     0
 40
40.0
 41
2.5
 42
0.5
 43
7.0
 44
1.5
 73
     0
 74
     0
 77
     3
 78
     8
140
3.0
141
0.0
143
0.0394
147
1.0
172
     1
173
     1
174
     1
178
     7
271
     1
340
F706
341
F770
343
F770
344
F770
  0
DIMSTYLE
105
142E3
330
746F
100
AcDbSymbolTableRecord
100
AcDbDimStyleTableRecord
  2
INABA_S1
 70
     0
 40
0.0
 41
2.5
 42
0.5
 43
7.0
 44
1.5
 73
     0
 74
     0
 77
     3
 78
     8
140
3.0
141
0.0
143
0.0394
146
0.5
147
0.5
172
     1
173
     1
176
   256
177
   256
178
     7
271
     2
272
     2
284
     8
288
     1
340
7475
341
DEAC
343
DEAC
344
DEAC
  0
DIMSTYLE
105
14463
330
746F
100
AcDbSymbolTableRecord
100
AcDbDimStyleTableRecord
  2
INABA_S30G
 70
     0
 40
30.0
 41
2.5
 42
0.5
 43
7.0
 44
1.5
 73
     0
 74
     0
 77
     3
 78
     8
140
3.0
141
0.0
143
0.0394
147
1.0
172
     1
173
     1
174
     1
175
     1
178
     7
271
     1
340
F706
341
F770
343
F770
344
F770
  0
DIMSTYLE
105
1758E
330
746F
100
AcDbSymbolTableRecord
100
AcDbDimStyleTableRecord
  2
INABA_S50G
 70
     0
 41
125.0
 42
25.0
 43
7.0
 44
75.0
 73
     0
 74
     0
 77
     3
 78
     8
140
150.0
141
0.0
143
0.0394
147
25.0
172
     1
173
     1
174
     1
175
     1
178
     7
271
     1
340
F706
341
F770
343
F770
344
F770
  0
ENDTAB
  0
TABLE
  2
BLOCK_RECORD
  5
7466
330
0
100
AcDbSymbolTable
 70
    63
  0
BLOCK_RECORD
  5
747D
330
7466
100
AcDbSymbolTableRecord
100
AcDbBlockTableRecord
  2
*MODEL_SPACE
340
173D5
  0
BLOCK_RECORD
  5
747A
330
7466
100
AcDbSymbolTableRecord
100
AcDbBlockTableRecord
  2
*PAPER_SPACE
340
173D6
  0
BLOCK_RECORD
  5
DEAC
330
7466
100
AcDbSymbolTableRecord
100
AcDbBlockTableRecord
  2
_OPEN
340
0
  0
BLOCK_RECORD
  5
F770
330
7466
100
AcDbSymbolTableRecord
100
AcDbBlockTableRecord
  2
_DOTSMALL
340
0
102
{BLKREFS
331
18C65
331
18C66
331
18C59
331
18C5A
331
18C4D
331
18C4E
331
18C41
331
18C42
331
18C35
331
18C36
331
18C29
331
18C2A
331
18C1D
331
18C1E
331
18C0F
331
18C10
331
18C03
331
18C04
331
18BF5
331
18BF6
331
18BE7
331
18BE8
331
18BD9
331
18BDA
331
18BCD
331
18BCE
331
21316
331
21317
331
21321
331
21322
331
2132A
331
2132B
331
27956
331
27957
331
2795F
331
27960
331
27984
331
27985
331
2798E
331
2798F
331
27997
331
27998
331
279CD
331
279CE
331
279D6
331
279D7
331
279DF
331
279E0
331
279F2
331
279F3
331
27A22
331
27A23
331
27A37
331
27A38
331
27A42
331
27A43
331
27A4D
331
27A4E
331
2804E
331
2804F
331
28072
331
28073
331
2807B
331
2807C
331
2811B
331
2811C
331
28125
331
28126
331
28137
331
28138
331
28140
331
28141
331
28149
331
2814A
331
28152
331
28153
331
2815B
331
2815C
331
28164
331
28165
331
2816D
331
2816E
331
28176
331
28177
331
2817F
331
28180
331
28188
331
28189
331
2819E
331
2819F
331
281E7
331
281E8
331
281DB
331
281DC
331
281CF
331
281D0
331
281C3
331
281C4
331
281B7
331
281B8
331
281A9
331
281AA
331
284A9
331
284AA
331
284B2
331
284B3
331
284BB
331
284BC
331
284C4
331
284C5
331
284CF
331
284D0
331
284D8
331
284D9
102
}
  0
BLOCK_RECORD
  5
164B4
330
7466
100
AcDbSymbolTableRecord
100
AcDbBlockTableRecord
  2
_DOT
340
0
102
{BLKREFS
331
18C73
331
18C74
102
}
  0
BLOCK_RECORD
  5
18BC8
330
7466
100
AcDbSymbolTableRecord
100
AcDbBlockTableRecord
  2
*D3
340
0
  0
BLOCK_RECORD
  5
18BD4
330
7466
100
AcDbSymbolTableRecord
100
AcDbBlockTableRecord
  2
*D4
340
0
  0
BLOCK_RECORD
  5
18BE0
330
7466
100
AcDbSymbolTableRecord
100
AcDbBlockTableRecord
  2
*D5
340
0
  0
BLOCK_RECORD
  5
18BEE
330
7466
100
AcDbSymbolTableRecord
100
AcDbBlockTableRecord
  2
*D6
340
0
  0
BLOCK_RECORD
  5
18BFC
330
7466
100
AcDbSymbolTableRecord
100
AcDbBlockTableRecord
  2
*D7
340
0
  0
BLOCK_RECORD
  5
18C0A
330
7466
100
AcDbSymbolTableRecord
100
AcDbBlockTableRecord
  2
*D8
340
0
  0
BLOCK_RECORD
  5
18C16
330
7466
100
AcDbSymbolTableRecord
100
AcDbBlockTableRecord
  2
*D9
340
0
  0
BLOCK_RECORD
  5
18C24
330
7466
100
AcDbSymbolTableRecord
100
AcDbBlockTableRecord
  2
*D10
340
0
  0
BLOCK_RECORD
  5
18C30
330
7466
100
AcDbSymbolTableRecord
100
AcDbBlockTableRecord
  2
*D11
340
0
  0
BLOCK_RECORD
  5
18C3C
330
7466
100
AcDbSymbolTableRecord
100
AcDbBlockTableRecord
  2
*D12
340
0
  0
BLOCK_RECORD
  5
18C48
330
7466
100
AcDbSymbolTableRecord
100
AcDbBlockTableRecord
  2
*D13
340
0
  0
BLOCK_RECORD
  5
18C54
330
7466
100
AcDbSymbolTableRecord
100
AcDbBlockTableRecord
  2
*D14
340
0
  0
BLOCK_RECORD
  5
18C60
330
7466
100
AcDbSymbolTableRecord
100
AcDbBlockTableRecord
  2
*D15
340
0
  0
BLOCK_RECORD
  5
18C6C
330
7466
100
AcDbSymbolTableRecord
100
AcDbBlockTableRecord
  2
*D16
340
0
  0
BLOCK_RECORD
  5
18C7A
330
7466
100
AcDbSymbolTableRecord
100
AcDbBlockTableRecord
  2
A$C3B1A506B
340
0
  0
BLOCK_RECORD
  5
1C4CA
330
7466
100
AcDbSymbolTableRecord
100
AcDbBlockTableRecord
  2
_NONE
340
0
  0
BLOCK_RECORD
  5
20DE2
330
7466
100
AcDbSymbolTableRecord
100
AcDbBlockTableRecord
  2
*D19
340
0
  0
BLOCK_RECORD
  5
20DFC
330
7466
100
AcDbSymbolTableRecord
100
AcDbBlockTableRecord
  2
*D20
340
0
  0
BLOCK_RECORD
  5
22742
330
7466
100
AcDbSymbolTableRecord
100
AcDbBlockTableRecord
  2
*D25
340
0
  0
BLOCK_RECORD
  5
2275C
330
7466
100
AcDbSymbolTableRecord
100
AcDbBlockTableRecord
  2
*D26
340
0
  0
BLOCK_RECORD
  5
240C4
330
7466
100
AcDbSymbolTableRecord
100
AcDbBlockTableRecord
  2
*D27
340
0
  0
BLOCK_RECORD
  5
240D1
330
7466
100
AcDbSymbolTableRecord
100
AcDbBlockTableRecord
  2
*D28
340
0
  0
BLOCK_RECORD
  5
273FE
330
7466
100
AcDbSymbolTableRecord
100
AcDbBlockTableRecord
  2
*D29
340
0
  0
BLOCK_RECORD
  5
2740A
330
7466
100
AcDbSymbolTableRecord
100
AcDbBlockTableRecord
  2
*D30
340
0
  0
BLOCK_RECORD
  5
27416
330
7466
100
AcDbSymbolTableRecord
100
AcDbBlockTableRecord
  2
*D31
340
0
  0
BLOCK_RECORD
  5
27422
330
7466
100
AcDbSymbolTableRecord
100
AcDbBlockTableRecord
  2
*D32
340
0
  0
BLOCK_RECORD
  5
2742E
330
7466
100
AcDbSymbolTableRecord
100
AcDbBlockTableRecord
  2
*D33
340
0
  0
BLOCK_RECORD
  5
2743A
330
7466
100
AcDbSymbolTableRecord
100
AcDbBlockTableRecord
  2
*D34
340
0
  0
BLOCK_RECORD
  5
27446
330
7466
100
AcDbSymbolTableRecord
100
AcDbBlockTableRecord
  2
*D35
340
0
  0
BLOCK_RECORD
  5
27452
330
7466
100
AcDbSymbolTableRecord
100
AcDbBlockTableRecord
  2
*D36
340
0
  0
BLOCK_RECORD
  5
2745E
330
7466
100
AcDbSymbolTableRecord
100
AcDbBlockTableRecord
  2
*D37
340
0
  0
BLOCK_RECORD
  5
27469
330
7466
100
AcDbSymbolTableRecord
100
AcDbBlockTableRecord
  2
*D38
340
0
  0
BLOCK_RECORD
  5
27474
330
7466
100
AcDbSymbolTableRecord
100
AcDbBlockTableRecord
  2
*D39
340
0
  0
BLOCK_RECORD
  5
2748C
330
7466
100
AcDbSymbolTableRecord
100
AcDbBlockTableRecord
  2
*D40
340
0
  0
BLOCK_RECORD
  5
27498
330
7466
100
AcDbSymbolTableRecord
100
AcDbBlockTableRecord
  2
*D41
340
0
  0
BLOCK_RECORD
  5
274B2
330
7466
100
AcDbSymbolTableRecord
100
AcDbBlockTableRecord
  2
*D42
340
0
  0
BLOCK_RECORD
  5
274D4
330
7466
100
AcDbSymbolTableRecord
100
AcDbBlockTableRecord
  2
*D43
340
0
  0
BLOCK_RECORD
  5
274E1
330
7466
100
AcDbSymbolTableRecord
100
AcDbBlockTableRecord
  2
*D44
340
0
  0
BLOCK_RECORD
  5
274FB
330
7466
100
AcDbSymbolTableRecord
100
AcDbBlockTableRecord
  2
*D45
340
0
  0
BLOCK_RECORD
  5
27507
330
7466
100
AcDbSymbolTableRecord
100
AcDbBlockTableRecord
  2
*D46
340
0
  0
BLOCK_RECORD
  5
27513
330
7466
100
AcDbSymbolTableRecord
100
AcDbBlockTableRecord
  2
*D47
340
0
  0
BLOCK_RECORD
  5
2751F
330
7466
100
AcDbSymbolTableRecord
100
AcDbBlockTableRecord
  2
*D48
340
0
  0
BLOCK_RECORD
  5
27538
330
7466
100
AcDbSymbolTableRecord
100
AcDbBlockTableRecord
  2
*D49
340
0
  0
BLOCK_RECORD
  5
27EF8
330
7466
100
AcDbSymbolTableRecord
100
AcDbBlockTableRecord
  2
*D50
340
0
  0
BLOCK_RECORD
  5
2845C
330
7466
100
AcDbSymbolTableRecord
100
AcDbBlockTableRecord
  2
*D57
340
0
  0
BLOCK_RECORD
  5
28468
330
7466
100
AcDbSymbolTableRecord
100
AcDbBlockTableRecord
  2
*D58
340
0
  0
BLOCK_RECORD
  5
28474
330
7466
100
AcDbSymbolTableRecord
100
AcDbBlockTableRecord
  2
*D59
340
0
  0
BLOCK_RECORD
  5
28480
330
7466
100
AcDbSymbolTableRecord
100
AcDbBlockTableRecord
  2
*D60
340
0
  0
BLOCK_RECORD
  5
2848C
330
7466
100
AcDbSymbolTableRecord
100
AcDbBlockTableRecord
  2
*D61
340
0
  0
BLOCK_RECORD
  5
2849A
330
7466
100
AcDbSymbolTableRecord
100
AcDbBlockTableRecord
  2
*D62
340
0
  0
ENDTAB
  0
ENDSEC
  0
SECTION
  2
BLOCKS
  0
BLOCK
  5
7489
330
747D
100
AcDbEntity
  8
0
100
AcDbBlockBegin
  2
*MODEL_SPACE
 70
     0
 10
0.0
 20
0.0
 30
0.0
  3
*MODEL_SPACE
  1

  0
ENDBLK
  5
748A
330
747D
100
AcDbEntity
  8
0
100
AcDbBlockEnd
  0
BLOCK
  5
7487
330
747A
100
AcDbEntity
 67
     1
  8
0
100
AcDbBlockBegin
  2
*PAPER_SPACE
 70
     0
 10
0.0
 20
0.0
 30
0.0
  3
*PAPER_SPACE
  1

  0
ENDBLK
  5
7488
330
747A
100
AcDbEntity
 67
     1
  8
0
100
AcDbBlockEnd
  0
BLOCK
  5
DEAD
330
DEAC
100
AcDbEntity
  8
0
100
AcDbBlockBegin
  2
_OPEN
 70
     0
 10
0.0
 20
0.0
 30
0.0
  3
_OPEN
  1

  0
LINE
  5
DEAE
330
DEAC
100
AcDbEntity
  8
0
  6
ByBlock
 62
     0
100
AcDbLine
 10
-1.0
 20
0.1666666666666666
 30
0.0
 11
0.0
 21
0.0
 31
0.0
  0
LINE
  5
DEAF
330
DEAC
100
AcDbEntity
  8
0
  6
ByBlock
 62
     0
100
AcDbLine
 10
0.0
 20
0.0
 30
0.0
 11
-1.0
 21
-0.1666666666666666
 31
0.0
  0
LINE
  5
DEB0
330
DEAC
100
AcDbEntity
  8
0
  6
ByBlock
 62
     0
100
AcDbLine
 10
0.0
 20
0.0
 30
0.0
 11
-1.0
 21
0.0
 31
0.0
  0
ENDBLK
  5
DEB1
330
DEAC
100
AcDbEntity
  8
0
100
AcDbBlockEnd
  0
BLOCK
  5
F771
330
F770
100
AcDbEntity
  8
0
 48
50.0
100
AcDbBlockBegin
  2
_DOTSMALL
 70
     0
 10
0.0
 20
0.0
 30
0.0
  3
_DOTSMALL
  1

  0
LWPOLYLINE
  5
F772
330
F770
100
AcDbEntity
  8
0
  6
ByBlock
 62
     0
 48
50.0
100
AcDbPolyline
 90
        2
 70
     1
 43
0.5
 10
-0.0625
 20
0.0
 42
1.0
 10
0.0625
 20
0.0
 42
1.0
  0
ENDBLK
  5
F776
330
F770
100
AcDbEntity
  8
0
 48
50.0
100
AcDbBlockEnd
  0
BLOCK
  5
164BA
330
164B4
100
AcDbEntity
  8
0
 48
50.0
100
AcDbBlockBegin
  2
_DOT
 70
     0
 10
0.0
 20
0.0
 30
0.0
  3
_DOT
  1

  0
LWPOLYLINE
  5
164B5
330
164B4
100
AcDbEntity
  8
0
  6
ByBlock
 62
     0
 48
50.0
100
AcDbPolyline
 90
        2
 70
     1
 43
0.5
 10
-0.25
 20
0.0
 42
1.0
 10
0.25
 20
0.0
 42
1.0
  0
LINE
  5
164B9
330
164B4
100
AcDbEntity
  8
0
  6
ByBlock
 62
     0
 48
50.0
100
AcDbLine
 10
-0.5
 20
0.0
 30
0.0
 11
-1.0
 21
0.0
 31
0.0
  0
ENDBLK
  5
164BB
330
164B4
100
AcDbEntity
  8
0
 48
50.0
100
AcDbBlockEnd
  0
BLOCK
  5
18BC9
330
18BC8
100
AcDbEntity
  8
0
 48
50.0
100
AcDbBlockBegin
  2
*D3
 70
     1
 10
0.0
 20
0.0
 30
0.0
  3
*D3
  1

  0
LINE
  5
18BCA
330
18BC8
100
AcDbEntity
  8
寸法
 62
     0
 48
50.0
370
    -2
100
AcDbLine
 10
7649.896575106999
 20
9636.123139034717
 30
0.0
 11
8702.429862581047
 21
9636.123139034717
 31
0.0
  0
LINE
  5
18BCB
330
18BC8
100
AcDbEntity
  8
寸法
 62
     0
 48
50.0
370
    -2
100
AcDbLine
 10
7649.896575106973
 20
7846.123139034709
 30
0.0
 11
8702.429862581047
 21
7846.123139034709
 31
0.0
  0
LINE
  5
18BCC
330
18BC8
100
AcDbEntity
  8
寸法
 62
     0
 48
50.0
370
    -2
100
AcDbLine
 10
8642.429862581046
 20
9636.123139034717
 30
0.0
 11
8642.429862581046
 21
7846.123139034709
 31
0.0
  0
INSERT
  5
18BCD
330
18BC8
100
AcDbEntity
  8
寸法
 62
     0
 48
50.0
370
    -2
100
AcDbBlockReference
  2
_DOTSMALL
 10
8642.429862581046
 20
9636.123139034717
 30
0.0
 41
100.0
 42
100.0
 43
100.0
 50
90.0
  0
INSERT
  5
18BCE
330
18BC8
100
AcDbEntity
  8
寸法
 62
     0
 48
50.0
370
    -2
100
AcDbBlockReference
  2
_DOTSMALL
 10
8642.429862581046
 20
7846.123139034709
 30
0.0
 41
100.0
 42
100.0
 43
100.0
 50
270.0
  0
MTEXT
  5
18BCF
330
18BC8
100
AcDbEntity
  8
寸法
 62
     7
 48
50.0
100
AcDbMText
 10
8542.429862581045
 20
8741.123139034712
 30
0.0
 40
120.0
 41
0.0
 71
     5
 72
     1
  1
\A1;1790
  7
STYLE1
 11
0.0000000000000001
 21
1.0
 31
0.0
 73
     1
 44
1.0
1001
ACAD
1000
MTEXTBEGIN
1070
    73
1070
     1
1070
    44
1040
1.0
1070
    74
1070
     0
1000
MTEXTEND
  0
POINT
  5
18BD0
330
18BC8
100
AcDbEntity
  8
DEFPOINTS
 62
     0
 48
50.0
100
AcDbPoint
 10
7629.896575106998
 20
9636.123139034717
 30
0.0
  0
POINT
  5
18BD1
330
18BC8
100
AcDbEntity
  8
DEFPOINTS
 62
     0
 48
50.0
100
AcDbPoint
 10
7629.896575106974
 20
7846.123139034709
 30
0.0
  0
POINT
  5
18BD2
330
18BC8
100
AcDbEntity
  8
DEFPOINTS
 62
     0
 48
50.0
100
AcDbPoint
 10
8642.429862581046
 20
7846.123139034709
 30
0.0
  0
ENDBLK
  5
18BD3
330
18BC8
100
AcDbEntity
  8
0
 48
50.0
100
AcDbBlockEnd
  0
BLOCK
  5
18BD5
330
18BD4
100
AcDbEntity
  8
0
 48
50.0
100
AcDbBlockBegin
  2
*D4
 70
     1
 10
0.0
 20
0.0
 30
0.0
  3
*D4
  1

  0
LINE
  5
18BD6
330
18BD4
100
AcDbEntity
  8
寸法
 62
     0
 48
50.0
370
    -2
100
AcDbLine
 10
4214.896575106998
 20
9656.123139034622
 30
0.0
 11
4214.896575106998
 21
10211.93135865972
 31
0.0
  0
LINE
  5
18BD7
330
18BD4
100
AcDbEntity
  8
寸法
 62
     0
 48
50.0
370
    -2
100
AcDbLine
 10
7574.896575106999
 20
9656.123139034718
 30
0.0
 11
7574.896575106999
 21
10211.93135865972
 31
0.0
  0
LINE
  5
18BD8
330
18BD4
100
AcDbEntity
  8
寸法
 62
     0
 48
50.0
370
    -2
100
AcDbLine
 10
4214.896575106998
 20
10151.93135865972
 30
0.0
 11
7574.896575106999
 21
10151.93135865972
 31
0.0
  0
INSERT
  5
18BD9
330
18BD4
100
AcDbEntity
  8
寸法
 62
     0
 48
50.0
370
    -2
100
AcDbBlockReference
  2
_DOTSMALL
 10
4214.896575106998
 20
10151.93135865972
 30
0.0
 41
100.0
 42
100.0
 43
100.0
 50
180.0
  0
INSERT
  5
18BDA
330
18BD4
100
AcDbEntity
  8
寸法
 62
     0
 48
50.0
370
    -2
100
AcDbBlockReference
  2
_DOTSMALL
 10
7574.896575106999
 20
10151.93135865972
 30
0.0
 41
100.0
 42
100.0
 43
100.0
  0
MTEXT
  5
18BDB
330
18BD4
100
AcDbEntity
  8
寸法
 62
     7
 48
50.0
100
AcDbMText
 10
5894.896575106997
 20
10251.94316968334
 30
0.0
 40
120.0
 41
0.0
 71
     5
 72
     1
  1
\A1;8X420=3360
  7
STYLE1
 73
     1
 44
1.0
1001
ACAD
1000
MTEXTBEGIN
1070
    73
1070
     1
1070
    44
1040
1.0
1070
    74
1070
     0
1000
MTEXTEND
  0
POINT
  5
18BDC
330
18BD4
100
AcDbEntity
  8
DEFPOINTS
 62
     0
 48
50.0
100
AcDbPoint
 10
4214.896575106998
 20
9636.123139034623
 30
0.0
  0
POINT
  5
18BDD
330
18BD4
100
AcDbEntity
  8
DEFPOINTS
 62
     0
 48
50.0
100
AcDbPoint
 10
7574.896575106999
 20
9636.123139034717
 30
0.0
  0
POINT
  5
18BDE
330
18BD4
100
AcDbEntity
  8
DEFPOINTS
 62
     0
 48
50.0
100
AcDbPoint
 10
7574.896575106999
 20
10151.93135865972
 30
0.0
  0
ENDBLK
  5
18BDF
330
18BD4
100
AcDbEntity
  8
0
 48
50.0
100
AcDbBlockEnd
  0
BLOCK
  5
18BE1
330
18BE0
100
AcDbEntity
  8
0
 48
50.0
100
AcDbBlockBegin
  2
*D5
 70
     1
 10
0.0
 20
0.0
 30
0.0
  3
*D5
  1

  0
LINE
  5
18BE2
330
18BE0
100
AcDbEntity
  8
寸法
 62
     0
 48
50.0
370
    -2
100
AcDbLine
 10
7574.896575106999
 20
9656.123139034718
 30
0.0
 11
7574.896575106999
 21
10211.9313586597
 31
0.0
  0
LINE
  5
18BE3
330
18BE0
100
AcDbEntity
  8
寸法
 62
     0
 48
50.0
370
    -2
100
AcDbLine
 10
7629.896575106998
 20
9656.123139034718
 30
0.0
 11
7629.896575106998
 21
10211.9313586597
 31
0.0
  0
LINE
  5
18BE4
330
18BE0
100
AcDbEntity
  8
寸法
 62
     0
 48
50.0
370
    -2
100
AcDbLine
 10
7574.896575106999
 20
10151.9313586597
 30
0.0
 11
7474.896575106999
 21
10151.9313586597
 31
0.0
  0
LINE
  5
18BE5
330
18BE0
100
AcDbEntity
  8
寸法
 62
     0
 48
50.0
370
    -2
100
AcDbLine
 10
7629.896575106998
 20
10151.9313586597
 30
0.0
 11
8046.867137855477
 21
10151.9313586597
 31
0.0
  0
LINE
  5
18BE6
330
18BE0
100
AcDbEntity
  8
寸法
 62
     0
 48
50.0
370
    -2
100
AcDbLine
 10
7574.896575106999
 20
10151.9313586597
 30
0.0
 11
7629.896575106998
 21
10151.9313586597
 31
0.0
  0
INSERT
  5
18BE7
330
18BE0
100
AcDbEntity
  8
寸法
 62
     0
 48
50.0
370
    -2
100
AcDbBlockReference
  2
_DOTSMALL
 10
7574.896575106999
 20
10151.9313586597
 30
0.0
 41
100.0
 42
100.0
 43
100.0
  0
INSERT
  5
18BE8
330
18BE0
100
AcDbEntity
  8
寸法
 62
     0
 48
50.0
370
    -2
100
AcDbBlockReference
  2
_DOTSMALL
 10
7629.896575106998
 20
10151.9313586597
 30
0.0
 41
100.0
 42
100.0
 43
100.0
 50
180.0
  0
MTEXT
  5
18BE9
330
18BE0
100
AcDbEntity
  8
寸法
 62
     7
 48
50.0
100
AcDbMText
 10
7938.381856481237
 20
10251.9313586597
 30
0.0
 40
120.0
 41
0.0
 71
     5
 72
     1
  1
\A1;55
  7
STYLE1
 73
     1
 44
1.0
1001
ACAD
1000
MTEXTBEGIN
1070
    73
1070
     1
1070
    44
1040
1.0
1070
    74
1070
     0
1000
MTEXTEND
  0
POINT
  5
18BEA
330
18BE0
100
AcDbEntity
  8
DEFPOINTS
 62
     0
 48
50.0
100
AcDbPoint
 10
7574.896575106999
 20
9636.123139034717
 30
0.0
  0
POINT
  5
18BEB
330
18BE0
100
AcDbEntity
  8
DEFPOINTS
 62
     0
 48
50.0
100
AcDbPoint
 10
7629.896575106998
 20
9636.123139034717
 30
0.0
  0
POINT
  5
18BEC
330
18BE0
100
AcDbEntity
  8
DEFPOINTS
 62
     0
 48
50.0
100
AcDbPoint
 10
7629.896575106998
 20
10151.9313586597
 30
0.0
  0
ENDBLK
  5
18BED
330
18BE0
100
AcDbEntity
  8
0
 48
50.0
100
AcDbBlockEnd
  0
BLOCK
  5
18BEF
330
18BEE
100
AcDbEntity
  8
0
 48
50.0
100
AcDbBlockBegin
  2
*D6
 70
     1
 10
0.0
 20
0.0
 30
0.0
  3
*D6
  1

  0
LINE
  5
18BF0
330
18BEE
100
AcDbEntity
  8
寸法
 62
     0
 48
50.0
370
    -2
100
AcDbLine
 10
7649.896575106999
 20
9636.123139034717
 30
0.0
 11
8337.32292084141
 21
9636.123139034717
 31
0.0
  0
LINE
  5
18BF1
330
18BEE
100
AcDbEntity
  8
寸法
 62
     0
 48
50.0
370
    -2
100
AcDbLine
 10
7649.896575106999
 20
9581.123139034721
 30
0.0
 11
8337.32292084141
 21
9581.123139034721
 31
0.0
  0
LINE
  5
18BF2
330
18BEE
100
AcDbEntity
  8
寸法
 62
     0
 48
50.0
370
    -2
100
AcDbLine
 10
8277.322920841411
 20
9581.123139034721
 30
0.0
 11
8277.322920841411
 21
9481.123139034719
 31
0.0
  0
LINE
  5
18BF3
330
18BEE
100
AcDbEntity
  8
寸法
 62
     0
 48
50.0
370
    -2
100
AcDbLine
 10
8277.322920841411
 20
9636.123139034717
 30
0.0
 11
8277.322920841411
 21
10053.09370178319
 31
0.0
  0
LINE
  5
18BF4
330
18BEE
100
AcDbEntity
  8
寸法
 62
     0
 48
50.0
370
    -2
100
AcDbLine
 10
8277.322920841411
 20
9581.123139034721
 30
0.0
 11
8277.322920841411
 21
9636.123139034717
 31
0.0
  0
INSERT
  5
18BF5
330
18BEE
100
AcDbEntity
  8
寸法
 62
     0
 48
50.0
370
    -2
100
AcDbBlockReference
  2
_DOTSMALL
 10
8277.322920841411
 20
9581.123139034721
 30
0.0
 41
100.0
 42
100.0
 43
100.0
 50
90.0
  0
INSERT
  5
18BF6
330
18BEE
100
AcDbEntity
  8
寸法
 62
     0
 48
50.0
370
    -2
100
AcDbBlockReference
  2
_DOTSMALL
 10
8277.322920841411
 20
9636.123139034717
 30
0.0
 41
100.0
 42
100.0
 43
100.0
 50
270.0
  0
MTEXT
  5
18BF7
330
18BEE
100
AcDbEntity
  8
寸法
 62
     7
 48
50.0
100
AcDbMText
 10
8177.32292084141
 20
9944.608420408957
 30
0.0
 40
120.0
 41
0.0
 71
     5
 72
     1
  1
\A1;55
  7
STYLE1
 11
0.0000000000000001
 21
1.0
 31
0.0
 73
     1
 44
1.0
1001
ACAD
1000
MTEXTBEGIN
1070
    73
1070
     1
1070
    44
1040
1.0
1070
    74
1070
     0
1000
MTEXTEND
  0
POINT
  5
18BF8
330
18BEE
100
AcDbEntity
  8
DEFPOINTS
 62
     0
 48
50.0
100
AcDbPoint
 10
7629.896575106998
 20
9636.123139034717
 30
0.0
  0
POINT
  5
18BF9
330
18BEE
100
AcDbEntity
  8
DEFPOINTS
 62
     0
 48
50.0
100
AcDbPoint
 10
7629.896575106998
 20
9581.123139034721
 30
0.0
  0
POINT
  5
18BFA
330
18BEE
100
AcDbEntity
  8
DEFPOINTS
 62
     0
 48
50.0
100
AcDbPoint
 10
8277.322920841411
 20
9581.123139034721
 30
0.0
  0
ENDBLK
  5
18BFB
330
18BEE
100
AcDbEntity
  8
0
 48
50.0
100
AcDbBlockEnd
  0
BLOCK
  5
18BFD
330
18BFC
100
AcDbEntity
  8
0
 48
50.0
100
AcDbBlockBegin
  2
*D7
 70
     1
 10
0.0
 20
0.0
 30
0.0
  3
*D7
  1

  0
LINE
  5
18BFE
330
18BFC
100
AcDbEntity
  8
寸法
 62
     0
 48
50.0
370
    -2
100
AcDbLine
 10
4159.896575106963
 20
9656.123139034622
 30
0.0
 11
4159.896575106963
 21
10211.9313586596
 31
0.0
  0
LINE
  5
18BFF
330
18BFC
100
AcDbEntity
  8
寸法
 62
     0
 48
50.0
370
    -2
100
AcDbLine
 10
4214.896575106998
 20
9656.123139034622
 30
0.0
 11
4214.896575106998
 21
10211.9313586596
 31
0.0
  0
LINE
  5
18C00
330
18BFC
100
AcDbEntity
  8
寸法
 62
     0
 48
50.0
370
    -2
100
AcDbLine
 10
4214.896575106998
 20
10151.9313586596
 30
0.0
 11
4314.896575106998
 21
10151.9313586596
 31
0.0
  0
LINE
  5
18C01
330
18BFC
100
AcDbEntity
  8
寸法
 62
     0
 48
50.0
370
    -2
100
AcDbLine
 10
4159.896575106963
 20
10151.9313586596
 30
0.0
 11
3742.926012358486
 21
10151.9313586596
 31
0.0
  0
LINE
  5
18C02
330
18BFC
100
AcDbEntity
  8
寸法
 62
     0
 48
50.0
370
    -2
100
AcDbLine
 10
4214.896575106998
 20
10151.9313586596
 30
0.0
 11
4159.896575106963
 21
10151.9313586596
 31
0.0
  0
INSERT
  5
18C03
330
18BFC
100
AcDbEntity
  8
寸法
 62
     0
 48
50.0
370
    -2
100
AcDbBlockReference
  2
_DOTSMALL
 10
4214.896575106998
 20
10151.9313586596
 30
0.0
 41
100.0
 42
100.0
 43
100.0
 50
180.0
  0
INSERT
  5
18C04
330
18BFC
100
AcDbEntity
  8
寸法
 62
     0
 48
50.0
370
    -2
100
AcDbBlockReference
  2
_DOTSMALL
 10
4159.896575106963
 20
10151.9313586596
 30
0.0
 41
100.0
 42
100.0
 43
100.0
  0
MTEXT
  5
18C05
330
18BFC
100
AcDbEntity
  8
寸法
 62
     7
 48
50.0
100
AcDbMText
 10
3851.411293732725
 20
10251.9313586596
 30
0.0
 40
120.0
 41
0.0
 71
     5
 72
     1
  1
\A1;55
  7
STYLE1
 73
     1
 44
1.0
1001
ACAD
1000
MTEXTBEGIN
1070
    73
1070
     1
1070
    44
1040
1.0
1070
    74
1070
     0
1000
MTEXTEND
  0
POINT
  5
18C06
330
18BFC
100
AcDbEntity
  8
DEFPOINTS
 62
     0
 48
50.0
100
AcDbPoint
 10
4159.896575106963
 20
9636.123139034623
 30
0.0
  0
POINT
  5
18C07
330
18BFC
100
AcDbEntity
  8
DEFPOINTS
 62
     0
 48
50.0
100
AcDbPoint
 10
4214.896575106998
 20
9636.123139034623
 30
0.0
  0
POINT
  5
18C08
330
18BFC
100
AcDbEntity
  8
DEFPOINTS
 62
     0
 48
50.0
100
AcDbPoint
 10
4214.896575106998
 20
10151.9313586596
 30
0.0
  0
ENDBLK
  5
18C09
330
18BFC
100
AcDbEntity
  8
0
 48
50.0
100
AcDbBlockEnd
  0
BLOCK
  5
18C0B
330
18C0A
100
AcDbEntity
  8
0
 48
50.0
100
AcDbBlockBegin
  2
*D8
 70
     1
 10
0.0
 20
0.0
 30
0.0
  3
*D8
  1

  0
LINE
  5
18C0C
330
18C0A
100
AcDbEntity
  8
寸法
 62
     0
 48
50.0
370
    -2
100
AcDbLine
 10
4159.896575106992
 20
7826.123139034546
 30
0.0
 11
4159.896575106992
 21
6804.372203245664
 31
0.0
  0
LINE
  5
18C0D
330
18C0A
100
AcDbEntity
  8
寸法
 62
     0
 48
50.0
370
    -2
100
AcDbLine
 10
7629.896575106974
 20
7826.123139034674
 30
0.0
 11
7629.896575106974
 21
6804.372203245664
 31
0.0
  0
LINE
  5
18C0E
330
18C0A
100
AcDbEntity
  8
寸法
 62
     0
 48
50.0
370
    -2
100
AcDbLine
 10
4159.896575106992
 20
6864.372203245665
 30
0.0
 11
7629.896575106974
 21
6864.372203245665
 31
0.0
  0
INSERT
  5
18C0F
330
18C0A
100
AcDbEntity
  8
寸法
 62
     0
 48
50.0
370
    -2
100
AcDbBlockReference
  2
_DOTSMALL
 10
4159.896575106992
 20
6864.372203245665
 30
0.0
 41
100.0
 42
100.0
 43
100.0
 50
180.0
  0
INSERT
  5
18C10
330
18C0A
100
AcDbEntity
  8
寸法
 62
     0
 48
50.0
370
    -2
100
AcDbBlockReference
  2
_DOTSMALL
 10
7629.896575106974
 20
6864.372203245665
 30
0.0
 41
100.0
 42
100.0
 43
100.0
  0
MTEXT
  5
18C11
330
18C0A
100
AcDbEntity
  8
寸法
 62
     7
 48
50.0
100
AcDbMText
 10
5911.12376113973
 20
6964.372203245665
 30
0.0
 40
120.0
 41
0.0
 71
     5
 72
     1
  1
\A1;3470
  7
STYLE1
 73
     1
 44
1.0
1001
ACAD
1000
MTEXTBEGIN
1070
    73
1070
     1
1070
    44
1040
1.0
1070
    74
1070
     0
1000
MTEXTEND
  0
POINT
  5
18C12
330
18C0A
100
AcDbEntity
  8
DEFPOINTS
 62
     0
 48
50.0
100
AcDbPoint
 10
4159.896575106992
 20
7846.123139034546
 30
0.0
  0
POINT
  5
18C13
330
18C0A
100
AcDbEntity
  8
DEFPOINTS
 62
     0
 48
50.0
100
AcDbPoint
 10
7629.896575106974
 20
7846.123139034673
 30
0.0
  0
POINT
  5
18C14
330
18C0A
100
AcDbEntity
  8
DEFPOINTS
 62
     0
 48
50.0
100
AcDbPoint
 10
7629.896575106974
 20
6864.372203245665
 30
0.0
  0
ENDBLK
  5
18C15
330
18C0A
100
AcDbEntity
  8
0
 48
50.0
100
AcDbBlockEnd
  0
BLOCK
  5
18C17
330
18C16
100
AcDbEntity
  8
0
 48
50.0
100
AcDbBlockBegin
  2
*D9
 70
     1
 10
0.0
 20
0.0
 30
0.0
  3
*D9
  1

  0
LINE
  5
18C18
330
18C16
100
AcDbEntity
  8
寸法
 62
     0
 48
50.0
370
    -2
100
AcDbLine
 10
7649.896575106973
 20
7901.123139034706
 30
0.0
 11
8337.322920841385
 21
7901.123139034706
 31
0.0
  0
LINE
  5
18C19
330
18C16
100
AcDbEntity
  8
寸法
 62
     0
 48
50.0
370
    -2
100
AcDbLine
 10
7649.896575106973
 20
7846.123139034709
 30
0.0
 11
8337.322920841385
 21
7846.123139034709
 31
0.0
  0
LINE
  5
18C1A
330
18C16
100
AcDbEntity
  8
寸法
 62
     0
 48
50.0
370
    -2
100
AcDbLine
 10
8277.322920841385
 20
7901.123139034706
 30
0.0
 11
8277.322920841385
 21
8001.123139034707
 31
0.0
  0
LINE
  5
18C1B
330
18C16
100
AcDbEntity
  8
寸法
 62
     0
 48
50.0
370
    -2
100
AcDbLine
 10
8277.322920841385
 20
7846.123139034709
 30
0.0
 11
8277.322920841385
 21
7429.152576286229
 31
0.0
  0
LINE
  5
18C1C
330
18C16
100
AcDbEntity
  8
寸法
 62
     0
 48
50.0
370
    -2
100
AcDbLine
 10
8277.322920841385
 20
7901.123139034706
 30
0.0
 11
8277.322920841385
 21
7846.123139034709
 31
0.0
  0
INSERT
  5
18C1D
330
18C16
100
AcDbEntity
  8
寸法
 62
     0
 48
50.0
370
    -2
100
AcDbBlockReference
  2
_DOTSMALL
 10
8277.322920841385
 20
7901.123139034706
 30
0.0
 41
100.0
 42
100.0
 43
100.0
 50
270.0
  0
INSERT
  5
18C1E
330
18C16
100
AcDbEntity
  8
寸法
 62
     0
 48
50.0
370
    -2
100
AcDbBlockReference
  2
_DOTSMALL
 10
8277.322920841385
 20
7846.123139034709
 30
0.0
 41
100.0
 42
100.0
 43
100.0
 50
90.0
  0
MTEXT
  5
18C1F
330
18C16
100
AcDbEntity
  8
寸法
 62
     7
 48
50.0
100
AcDbMText
 10
8177.322920841383
 20
7537.637857660469
 30
0.0
 40
120.0
 41
0.0
 71
     5
 72
     1
  1
\A1;55
  7
STYLE1
 11
0.0000000000000001
 21
1.0
 31
0.0
 73
     1
 44
1.0
1001
ACAD
1000
MTEXTBEGIN
1070
    73
1070
     1
1070
    44
1040
1.0
1070
    74
1070
     0
1000
MTEXTEND
  0
POINT
  5
18C20
330
18C16
100
AcDbEntity
  8
DEFPOINTS
 62
     0
 48
50.0
100
AcDbPoint
 10
7629.896575106974
 20
7901.123139034706
 30
0.0
  0
POINT
  5
18C21
330
18C16
100
AcDbEntity
  8
DEFPOINTS
 62
     0
 48
50.0
100
AcDbPoint
 10
7629.896575106974
 20
7846.123139034709
 30
0.0
  0
POINT
  5
18C22
330
18C16
100
AcDbEntity
  8
DEFPOINTS
 62
     0
 48
50.0
100
AcDbPoint
 10
8277.322920841385
 20
7846.123139034709
 30
0.0
  0
ENDBLK
  5
18C23
330
18C16
100
AcDbEntity
  8
0
 48
50.0
100
AcDbBlockEnd
  0
BLOCK
  5
18C25
330
18C24
100
AcDbEntity
  8
0
 48
50.0
100
AcDbBlockBegin
  2
*D10
 70
     1
 10
0.0
 20
0.0
 30
0.0
  3
*D10
  1

  0
LINE
  5
18C26
330
18C24
100
AcDbEntity
  8
寸法
 62
     0
 48
50.0
370
    -2
100
AcDbLine
 10
6533.037591258376
 20
9136.123139034728
 30
0.0
 11
6465.083950562664
 21
8882.516699399049
 31
0.0
  0
LINE
  5
18C27
330
18C24
100
AcDbEntity
  8
寸法
 62
     0
 48
50.0
370
    -2
100
AcDbLine
 10
7596.037591258388
 20
9136.123139034721
 30
0.0
 11
7528.083950562677
 21
8882.516699399049
 31
0.0
  0
LINE
  5
18C28
330
18C24
100
AcDbEntity
  8
寸法
 62
     0
 48
50.0
370
    -2
100
AcDbLine
 10
6481.160902108531
 20
8942.51669939905
 30
0.0
 11
7544.160902108544
 21
8942.51669939905
 31
0.0
  0
INSERT
  5
18C29
330
18C24
100
AcDbEntity
  8
寸法
 62
     0
 48
50.0
370
    -2
100
AcDbBlockReference
  2
_DOTSMALL
 10
6481.160902108531
 20
8942.51669939905
 30
0.0
 41
100.0
 42
100.0
 43
100.0
 50
180.0
  0
INSERT
  5
18C2A
330
18C24
100
AcDbEntity
  8
寸法
 62
     0
 48
50.0
370
    -2
100
AcDbBlockReference
  2
_DOTSMALL
 10
7544.160902108544
 20
8942.51669939905
 30
0.0
 41
100.0
 42
100.0
 43
100.0
  0
MTEXT
  5
18C2B
330
18C24
100
AcDbEntity
  8
寸法
 62
     7
 48
50.0
100
AcDbMText
 10
7061.28653022935
 20
9042.516699399049
 30
0.0
 40
120.0
 41
0.0
 71
     5
 72
     1
  1
\A1;1063
  7
STYLE1
 73
     1
 44
1.0
1001
ACAD
1000
MTEXTBEGIN
1070
    73
1070
     1
1070
    44
1040
1.0
1070
    74
1070
     0
1000
MTEXTEND
  0
POINT
  5
18C2C
330
18C24
100
AcDbEntity
  8
DEFPOINTS
 62
     0
 48
50.0
100
AcDbPoint
 10
6538.396575106998
 20
9156.123139034727
 30
0.0
  0
POINT
  5
18C2D
330
18C24
100
AcDbEntity
  8
DEFPOINTS
 62
     0
 48
50.0
100
AcDbPoint
 10
7601.39657510701
 20
9156.12313903472
 30
0.0
  0
POINT
  5
18C2E
330
18C24
100
AcDbEntity
  8
DEFPOINTS
 62
     0
 48
50.0
100
AcDbPoint
 10
7544.160902108544
 20
8942.51669939905
 30
0.0
  0
ENDBLK
  5
18C2F
330
18C24
100
AcDbEntity
  8
0
 48
50.0
100
AcDbBlockEnd
  0
BLOCK
  5
18C31
330
18C30
100
AcDbEntity
  8
0
 48
50.0
100
AcDbBlockBegin
  2
*D11
 70
     1
 10
0.0
 20
0.0
 30
0.0
  3
*D11
  1

  0
LINE
  5
18C32
330
18C30
100
AcDbEntity
  8
寸法
 62
     0
 48
50.0
370
    -2
100
AcDbLine
 10
7621.396575106999
 20
9600.764155186094
 30
0.0
 11
8016.754300969024
 21
9494.828371819961
 31
0.0
  0
LINE
  5
18C33
330
18C30
100
AcDbEntity
  8
寸法
 62
     0
 48
50.0
370
    -2
100
AcDbLine
 10
7621.396575106999
 20
9150.764155186099
 30
0.0
 11
8016.754300969024
 21
9044.828371819964
 31
0.0
  0
LINE
  5
18C34
330
18C30
100
AcDbEntity
  8
寸法
 62
     0
 48
50.0
370
    -2
100
AcDbLine
 10
7956.754300969024
 20
9510.905323365827
 30
0.0
 11
7956.754300969024
 21
9060.90532336583
 31
0.0
  0
INSERT
  5
18C35
330
18C30
100
AcDbEntity
  8
寸法
 62
     0
 48
50.0
370
    -2
100
AcDbBlockReference
  2
_DOTSMALL
 10
7956.754300969024
 20
9510.905323365827
 30
0.0
 41
100.0
 42
100.0
 43
100.0
 50
90.0
  0
INSERT
  5
18C36
330
18C30
100
AcDbEntity
  8
寸法
 62
     0
 48
50.0
370
    -2
100
AcDbBlockReference
  2
_DOTSMALL
 10
7956.754300969024
 20
9060.90532336583
 30
0.0
 41
100.0
 42
100.0
 43
100.0
 50
270.0
  0
MTEXT
  5
18C37
330
18C30
100
AcDbEntity
  8
寸法
 62
     7
 48
50.0
100
AcDbMText
 10
7856.754300969022
 20
9285.905323365829
 30
0.0
 40
120.0
 41
0.0
 71
     5
 72
     1
  1
\A1;450
  7
STYLE1
 11
0.0000000000000001
 21
1.0
 31
0.0
 73
     1
 44
1.0
1001
ACAD
1000
MTEXTBEGIN
1070
    73
1070
     1
1070
    44
1040
1.0
1070
    74
1070
     0
1000
MTEXTEND
  0
POINT
  5
18C38
330
18C30
100
AcDbEntity
  8
DEFPOINTS
 62
     0
 48
50.0
100
AcDbPoint
 10
7601.396575106999
 20
9606.123139034718
 30
0.0
  0
POINT
  5
18C39
330
18C30
100
AcDbEntity
  8
DEFPOINTS
 62
     0
 48
50.0
100
AcDbPoint
 10
7601.396575106999
 20
9156.12313903472
 30
0.0
  0
POINT
  5
18C3A
330
18C30
100
AcDbEntity
  8
DEFPOINTS
 62
     0
 48
50.0
100
AcDbPoint
 10
7956.754300969024
 20
9060.90532336583
 30
0.0
  0
ENDBLK
  5
18C3B
330
18C30
100
AcDbEntity
  8
0
 48
50.0
100
AcDbBlockEnd
  0
BLOCK
  5
18C3D
330
18C3C
100
AcDbEntity
  8
0
 48
50.0
100
AcDbBlockBegin
  2
*D12
 70
     1
 10
0.0
 20
0.0
 30
0.0
  3
*D12
  1

  0
LINE
  5
18C3E
330
18C3C
100
AcDbEntity
  8
寸法
 62
     0
 48
50.0
370
    -2
100
AcDbLine
 10
7649.896575106999
 20
9581.123139034721
 30
0.0
 11
8337.32292084141
 21
9581.123139034721
 31
0.0
  0
LINE
  5
18C3F
330
18C3C
100
AcDbEntity
  8
寸法
 62
     0
 48
50.0
370
    -2
100
AcDbLine
 10
7649.896575106973
 20
7901.123139034706
 30
0.0
 11
8337.32292084141
 21
7901.123139034706
 31
0.0
  0
LINE
  5
18C40
330
18C3C
100
AcDbEntity
  8
寸法
 62
     0
 48
50.0
370
    -2
100
AcDbLine
 10
8277.322920841411
 20
9581.123139034721
 30
0.0
 11
8277.322920841411
 21
7901.123139034706
 31
0.0
  0
INSERT
  5
18C41
330
18C3C
100
AcDbEntity
  8
寸法
 62
     0
 48
50.0
370
    -2
100
AcDbBlockReference
  2
_DOTSMALL
 10
8277.322920841411
 20
9581.123139034721
 30
0.0
 41
100.0
 42
100.0
 43
100.0
 50
90.0
  0
INSERT
  5
18C42
330
18C3C
100
AcDbEntity
  8
寸法
 62
     0
 48
50.0
370
    -2
100
AcDbBlockReference
  2
_DOTSMALL
 10
8277.322920841411
 20
7901.123139034706
 30
0.0
 41
100.0
 42
100.0
 43
100.0
 50
270.0
  0
MTEXT
  5
18C43
330
18C3C
100
AcDbEntity
  8
寸法
 62
     7
 48
50.0
100
AcDbMText
 10
8177.311109817788
 20
8741.123139034712
 30
0.0
 40
120.0
 41
0.0
 71
     5
 72
     1
  1
\A1;4X420=1680
  7
STYLE1
 11
0.0000000000000001
 21
1.0
 31
0.0
 73
     1
 44
1.0
1001
ACAD
1000
MTEXTBEGIN
1070
    73
1070
     1
1070
    44
1040
1.0
1070
    74
1070
     0
1000
MTEXTEND
  0
POINT
  5
18C44
330
18C3C
100
AcDbEntity
  8
DEFPOINTS
 62
     0
 48
50.0
100
AcDbPoint
 10
7629.896575106998
 20
9581.123139034721
 30
0.0
  0
POINT
  5
18C45
330
18C3C
100
AcDbEntity
  8
DEFPOINTS
 62
     0
 48
50.0
100
AcDbPoint
 10
7629.896575106974
 20
7901.123139034706
 30
0.0
  0
POINT
  5
18C46
330
18C3C
100
AcDbEntity
  8
DEFPOINTS
 62
     0
 48
50.0
100
AcDbPoint
 10
8277.322920841411
 20
7901.123139034706
 30
0.0
  0
ENDBLK
  5
18C47
330
18C3C
100
AcDbEntity
  8
0
 48
50.0
100
AcDbBlockEnd
  0
BLOCK
  5
18C49
330
18C48
100
AcDbEntity
  8
0
 48
50.0
100
AcDbBlockBegin
  2
*D13
 70
     1
 10
0.0
 20
0.0
 30
0.0
  3
*D13
  1

  0
LINE
  5
18C4A
330
18C48
100
AcDbEntity
  8
寸法
 62
     0
 48
50.0
370
    -2
100
AcDbLine
 10
4183.037591258377
 20
9136.123139034619
 30
0.0
 11
4115.083950562663
 21
8882.516699398941
 31
0.0
  0
LINE
  5
18C4B
330
18C48
100
AcDbEntity
  8
寸法
 62
     0
 48
50.0
370
    -2
100
AcDbLine
 10
5246.037591258307
 20
9136.123139034671
 30
0.0
 11
5178.08395056258
 21
8882.516699398941
 31
0.0
  0
LINE
  5
18C4C
330
18C48
100
AcDbEntity
  8
寸法
 62
     0
 48
50.0
370
    -2
100
AcDbLine
 10
4131.160902108532
 20
8942.516699398941
 30
0.0
 11
5194.160902108448
 21
8942.516699398941
 31
0.0
  0
INSERT
  5
18C4D
330
18C48
100
AcDbEntity
  8
寸法
 62
     0
 48
50.0
370
    -2
100
AcDbBlockReference
  2
_DOTSMALL
 10
4131.160902108532
 20
8942.516699398941
 30
0.0
 41
100.0
 42
100.0
 43
100.0
 50
180.0
  0
INSERT
  5
18C4E
330
18C48
100
AcDbEntity
  8
寸法
 62
     0
 48
50.0
370
    -2
100
AcDbBlockReference
  2
_DOTSMALL
 10
5194.160902108448
 20
8942.516699398941
 30
0.0
 41
100.0
 42
100.0
 43
100.0
  0
MTEXT
  5
18C4F
330
18C48
100
AcDbEntity
  8
寸法
 62
     7
 48
50.0
100
AcDbMText
 10
4658.986452655306
 20
9042.516699398941
 30
0.0
 40
120.0
 41
0.0
 71
     5
 72
     1
  1
\A1;1063
  7
STYLE1
 73
     1
 44
1.0
1001
ACAD
1000
MTEXTBEGIN
1070
    73
1070
     1
1070
    44
1040
1.0
1070
    74
1070
     0
1000
MTEXTEND
  0
POINT
  5
18C50
330
18C48
100
AcDbEntity
  8
DEFPOINTS
 62
     0
 48
50.0
100
AcDbPoint
 10
4188.396575106999
 20
9156.123139034617
 30
0.0
  0
POINT
  5
18C51
330
18C48
100
AcDbEntity
  8
DEFPOINTS
 62
     0
 48
50.0
100
AcDbPoint
 10
5251.396575106929
 20
9156.123139034672
 30
0.0
  0
POINT
  5
18C52
330
18C48
100
AcDbEntity
  8
DEFPOINTS
 62
     0
 48
50.0
100
AcDbPoint
 10
5194.160902108448
 20
8942.516699398941
 30
0.0
  0
ENDBLK
  5
18C53
330
18C48
100
AcDbEntity
  8
0
 48
50.0
100
AcDbBlockEnd
  0
BLOCK
  5
18C55
330
18C54
100
AcDbEntity
  8
0
 48
50.0
100
AcDbBlockBegin
  2
*D14
 70
     1
 10
0.0
 20
0.0
 30
0.0
  3
*D14
  1

  0
LINE
  5
18C56
330
18C54
100
AcDbEntity
  8
寸法
 62
     0
 48
50.0
370
    -2
100
AcDbLine
 10
5274.037591258307
 20
9136.123139034669
 30
0.0
 11
5206.08395056258
 21
8882.516699398941
 31
0.0
  0
LINE
  5
18C57
330
18C54
100
AcDbEntity
  8
寸法
 62
     0
 48
50.0
370
    -2
100
AcDbLine
 10
6505.037591258377
 20
9136.123139034662
 30
0.0
 11
6437.083950562653
 21
8882.516699398941
 31
0.0
  0
LINE
  5
18C58
330
18C54
100
AcDbEntity
  8
寸法
 62
     0
 48
50.0
370
    -2
100
AcDbLine
 10
5222.160902108448
 20
8942.516699398941
 30
0.0
 11
6453.16090210852
 21
8942.516699398941
 31
0.0
  0
INSERT
  5
18C59
330
18C54
100
AcDbEntity
  8
寸法
 62
     0
 48
50.0
370
    -2
100
AcDbBlockReference
  2
_DOTSMALL
 10
5222.160902108448
 20
8942.516699398941
 30
0.0
 41
100.0
 42
100.0
 43
100.0
 50
180.0
  0
INSERT
  5
18C5A
330
18C54
100
AcDbEntity
  8
寸法
 62
     0
 48
50.0
370
    -2
100
AcDbBlockReference
  2
_DOTSMALL
 10
6453.16090210852
 20
8942.516699398941
 30
0.0
 41
100.0
 42
100.0
 43
100.0
  0
MTEXT
  5
18C5B
330
18C54
100
AcDbEntity
  8
寸法
 62
     7
 48
50.0
100
AcDbMText
 10
6081.244808320626
 20
9042.528510422561
 30
0.0
 40
120.0
 41
0.0
 71
     5
 72
     1
  1
\A1;1231
  7
STYLE1
 73
     1
 44
1.0
1001
ACAD
1000
MTEXTBEGIN
1070
    73
1070
     1
1070
    44
1040
1.0
1070
    74
1070
     0
1000
MTEXTEND
  0
POINT
  5
18C5C
330
18C54
100
AcDbEntity
  8
DEFPOINTS
 62
     0
 48
50.0
100
AcDbPoint
 10
5279.396575106929
 20
9156.123139034669
 30
0.0
  0
POINT
  5
18C5D
330
18C54
100
AcDbEntity
  8
DEFPOINTS
 62
     0
 48
50.0
100
AcDbPoint
 10
6510.396575106999
 20
9156.123139034662
 30
0.0
  0
POINT
  5
18C5E
330
18C54
100
AcDbEntity
  8
DEFPOINTS
 62
     0
 48
50.0
100
AcDbPoint
 10
6453.16090210852
 20
8942.516699398941
 30
0.0
  0
ENDBLK
  5
18C5F
330
18C54
100
AcDbEntity
  8
0
 48
50.0
100
AcDbBlockEnd
  0
BLOCK
  5
18C61
330
18C60
100
AcDbEntity
  8
0
 48
50.0
100
AcDbBlockBegin
  2
*D15
 70
     1
 10
0.0
 20
0.0
 30
0.0
  3
*D15
  1

  0
LINE
  5
18C62
330
18C60
100
AcDbEntity
  8
寸法
 62
     0
 48
50.0
370
    -2
100
AcDbLine
 10
5065.896575106966
 20
7749.123139034579
 30
0.0
 11
5065.896575106966
 21
7099.952920982538
 31
0.0
  0
LINE
  5
18C63
330
18C60
100
AcDbEntity
  8
寸法
 62
     0
 48
50.0
370
    -2
100
AcDbLine
 10
6331.896575106966
 20
7749.123139034579
 30
0.0
 11
6331.896575106966
 21
7099.952920982538
 31
0.0
  0
LINE
  5
18C64
330
18C60
100
AcDbEntity
  8
寸法
 62
     0
 48
50.0
370
    -2
100
AcDbLine
 10
5065.896575106966
 20
7159.952920982537
 30
0.0
 11
6331.896575106966
 21
7159.952920982537
 31
0.0
  0
INSERT
  5
18C65
330
18C60
100
AcDbEntity
  8
寸法
 62
     0
 48
50.0
370
    -2
100
AcDbBlockReference
  2
_DOTSMALL
 10
5065.896575106966
 20
7159.952920982537
 30
0.0
 41
100.0
 42
100.0
 43
100.0
 50
180.0
  0
INSERT
  5
18C66
330
18C60
100
AcDbEntity
  8
寸法
 62
     0
 48
50.0
370
    -2
100
AcDbBlockReference
  2
_DOTSMALL
 10
6331.896575106966
 20
7159.952920982537
 30
0.0
 41
100.0
 42
100.0
 43
100.0
  0
MTEXT
  5
18C67
330
18C60
100
AcDbEntity
  8
寸法
 62
     7
 48
50.0
100
AcDbMText
 10
5711.986008735934
 20
7359.964732006159
 30
0.0
 40
120.0
 41
0.0
 71
     5
 72
     1
  1
\A1;有効開口部間口\P1266
  7
STYLE1
 73
     1
 44
1.0
1001
ACAD
1000
MTEXTBEGIN
1070
    73
1070
     1
1070
    44
1040
1.0
1070
    74
1070
     0
1000
MTEXTEND
  0
POINT
  5
18C68
330
18C60
100
AcDbEntity
  8
DEFPOINTS
 62
     0
 48
50.0
100
AcDbPoint
 10
5065.896575106966
 20
7769.123139034579
 30
0.0
  0
POINT
  5
18C69
330
18C60
100
AcDbEntity
  8
DEFPOINTS
 62
     0
 48
50.0
100
AcDbPoint
 10
6331.896575106966
 20
7769.123139034579
 30
0.0
  0
POINT
  5
18C6A
330
18C60
100
AcDbEntity
  8
DEFPOINTS
 62
     0
 48
50.0
100
AcDbPoint
 10
6331.896575106966
 20
7159.952920982537
 30
0.0
  0
ENDBLK
  5
18C6B
330
18C60
100
AcDbEntity
  8
0
 48
50.0
100
AcDbBlockEnd
  0
BLOCK
  5
18C6D
330
18C6C
100
AcDbEntity
  8
0
 48
50.0
100
AcDbBlockBegin
  2
*D16
 70
     1
 10
0.0
 20
0.0
 30
0.0
  3
*D16
  1

  0
LINE
  5
18C6E
330
18C6C
100
AcDbEntity
  8
寸法
 62
     0
 48
50.0
370
    -2
100
AcDbLine
 10
7200.896575106966
 20
7846.123139034578
 30
0.0
 11
7457.192158500191
 21
7846.123139034578
 31
0.0
  0
LINE
  5
18C6F
330
18C6C
100
AcDbEntity
  8
寸法
 62
     0
 48
50.0
370
    -2
100
AcDbLine
 10
7199.896575106966
 20
7769.123139034579
 30
0.0
 11
7457.192158500191
 21
7769.123139034579
 31
0.0
  0
LINE
  5
18C70
330
18C6C
100
AcDbEntity
  8
寸法
 62
     0
 48
50.0
370
    -2
100
AcDbLine
 10
7417.192158500192
 20
7866.123139034579
 30
0.0
 11
7417.192158500192
 21
7886.123139034578
 31
0.0
  0
LINE
  5
18C71
330
18C6C
100
AcDbEntity
  8
寸法
 62
     0
 48
50.0
370
    -2
100
AcDbLine
 10
7417.192158500192
 20
7749.123139034579
 30
0.0
 11
7417.192158500192
 21
7533.123139034573
 31
0.0
  0
LINE
  5
18C72
330
18C6C
100
AcDbEntity
  8
寸法
 62
     0
 48
50.0
370
    -2
100
AcDbLine
 10
7417.192158500192
 20
7846.123139034578
 30
0.0
 11
7417.192158500192
 21
7769.123139034579
 31
0.0
  0
INSERT
  5
18C73
330
18C6C
100
AcDbEntity
  8
寸法
 62
     0
 48
50.0
370
    -2
100
AcDbBlockReference
  2
_DOT
 10
7417.192158500192
 20
7846.123139034578
 30
0.0
 41
20.0
 42
20.0
 43
20.0
 50
270.0
  0
INSERT
  5
18C74
330
18C6C
100
AcDbEntity
  8
寸法
 62
     0
 48
50.0
370
    -2
100
AcDbBlockReference
  2
_DOT
 10
7417.192158500192
 20
7769.123139034579
 30
0.0
 41
20.0
 42
20.0
 43
20.0
 50
90.0
  0
MTEXT
  5
18C75
330
18C6C
100
AcDbEntity
  8
寸法
 62
     7
 48
50.0
100
AcDbMText
 10
7325.192158500191
 20
7631.123139034575
 30
0.0
 40
120.0
 41
0.0
 71
     5
 72
     1
  1
\A1;77
  7
STYLE1
 11
0.0000000000000001
 21
1.0
 31
0.0
 73
     1
 44
1.0
1001
ACAD
1000
MTEXTBEGIN
1070
    73
1070
     1
1070
    44
1040
1.0
1070
    74
1070
     0
1000
MTEXTEND
  0
POINT
  5
18C76
330
18C6C
100
AcDbEntity
  8
DEFPOINTS
 62
     0
 48
50.0
100
AcDbPoint
 10
7180.896575106967
 20
7846.123139034578
 30
0.0
  0
POINT
  5
18C77
330
18C6C
100
AcDbEntity
  8
DEFPOINTS
 62
     0
 48
50.0
100
AcDbPoint
 10
7179.896575106965
 20
7769.123139034579
 30
0.0
  0
POINT
  5
18C78
330
18C6C
100
AcDbEntity
  8
DEFPOINTS
 62
     0
 48
50.0
100
AcDbPoint
 10
7417.192158500192
 20
7769.123139034579
 30
0.0
  0
ENDBLK
  5
18C79
330
18C6C
100
AcDbEntity
  8
0
 48
50.0
100
AcDbBlockEnd
  0
BLOCK
  5
18DA0
330
18C7A
100
AcDbEntity
  8
0
 48
50.0
100
AcDbBlockBegin
  2
A$C3B1A506B
 70
     0
 10
0.0
 20
0.0
 30
0.0
  3
A$C3B1A506B
  1

  0
MTEXT
  5
18C7B
330
18C7A
100
AcDbEntity
  8
寸法
 62
     7
 48
50.0
100
AcDbMText
 10
3342.250386887194
 20
2778.329429134012
 30
0.0
 40
96.0
 41
0.0
 71
     5
 72
     1
  1
棚 2段
  7
STYLE1
 73
     1
 44
1.0
1001
ACAD
1000
MTEXTBEGIN
1070
    73
1070
     1
1070
    44
1040
1.0
1070
    74
1070
     0
1000
MTEXTEND
  0
MTEXT
  5
18C7C
330
18C7A
100
AcDbEntity
  8
寸法
 62
     7
 48
50.0
100
AcDbMText
 10
2167.25038688716
 20
2778.329429133986
 30
0.0
 40
96.0
 41
0.0
 71
     5
 72
     1
  1
棚 2段
  7
STYLE1
 73
     1
 44
1.0
1001
ACAD
1000
MTEXTBEGIN
1070
    73
1070
     1
1070
    44
1040
1.0
1070
    74
1070
     0
1000
MTEXTEND
  0
MTEXT
  5
18C7D
330
18C7A
100
AcDbEntity
  8
寸法
 62
     7
 48
50.0
100
AcDbMText
 10
992.2503868871608
 20
2778.329429133935
 30
0.0
 40
96.0
 41
0.0
 71
     5
 72
     1
  1
棚 2段
  7
STYLE1
 73
     1
 44
1.0
1001
ACAD
1000
MTEXTBEGIN
1070
    73
1070
     1
1070
    44
1040
1.0
1070
    74
1070
     0
1000
MTEXTEND
  0
LINE
  5
18C7E
330
18C7A
100
AcDbEntity
  8
細線
 48
50.0
100
AcDbLine
 10
2771.970589276527
 20
1368.994384123192
 30
0.0
 11
3398.970589276523
 21
1368.994384123192
 31
0.0
  0
LINE
  5
18C7F
330
18C7A
100
AcDbEntity
  8
細線
 48
50.0
100
AcDbLine
 10
2117.970593930113
 20
1335.285615569113
 30
0.0
 11
3398.970589276523
 21
1335.285615569113
 31
0.0
  0
LINE
  5
18C80
330
18C7A
100
AcDbEntity
  8
細線
 48
50.0
100
AcDbLine
 10
2076.970593930115
 20
1364.690523565368
 30
0.0
 11
1322.970589276523
 21
1364.690523565367
 31
0.0
  0
LINE
  5
18C81
330
18C7A
100
AcDbEntity
  8
細線
100
AcDbLine
 10
3170.720579860066
 20
1388.494284088199
 30
0.0
 11
3173.052119381877
 21
1393.494286728162
 31
0.0
  0
LINE
  5
18C82
330
18C7A
100
AcDbEntity
  8
細線
100
AcDbLine
 10
3240.720589276525
 20
1388.494269174465
 30
0.0
 11
3238.389042800336
 21
1393.494286728144
 31
0.0
  0
LINE
  5
18C83
330
18C7A
100
AcDbEntity
  8
細線
100
AcDbLine
 10
3238.389042800336
 20
1393.494286728144
 30
0.0
 11
3173.052119381862
 21
1393.494286728133
 31
0.0
  0
LINE
  5
18C84
330
18C7A
100
AcDbEntity
  8
細線
100
AcDbLine
 10
3098.389042800336
 20
1393.494286728144
 30
0.0
 11
3033.052119381862
 21
1393.494286728133
 31
0.0
  0
LINE
  5
18C85
330
18C7A
100
AcDbEntity
  8
細線
100
AcDbLine
 10
3100.720589276523
 20
1388.494269174465
 30
0.0
 11
3098.389042800336
 21
1393.494286728144
 31
0.0
  0
LINE
  5
18C86
330
18C7A
100
AcDbEntity
  8
細線
100
AcDbLine
 10
3030.720579860066
 20
1388.494284088199
 30
0.0
 11
3033.052119381875
 21
1393.494286728162
 31
0.0
  0
LINE
  5
18C87
330
18C7A
100
AcDbEntity
  8
細線
100
AcDbLine
 10
2890.720589276525
 20
1388.494269174465
 30
0.0
 11
2893.052128798336
 21
1393.494271814428
 31
0.0
  0
LINE
  5
18C88
330
18C7A
100
AcDbEntity
  8
細線
100
AcDbLine
 10
2960.720598692984
 20
1388.494254260731
 30
0.0
 11
2958.389052216793
 21
1393.49427181441
 31
0.0
  0
LINE
  5
18C89
330
18C7A
100
AcDbEntity
  8
細線
100
AcDbLine
 10
2958.389052216795
 20
1393.49427181441
 30
0.0
 11
2893.052128798321
 21
1393.494271814399
 31
0.0
  0
LINE
  5
18C8A
330
18C7A
100
AcDbEntity
  8
細線
100
AcDbLine
 10
2667.139038146739
 20
1359.494298590735
 30
0.0
 11
2601.802114728263
 21
1359.494298590724
 31
0.0
  0
LINE
  5
18C8B
330
18C7A
100
AcDbEntity
  8
細線
100
AcDbLine
 10
2669.470584622926
 20
1354.494281037055
 30
0.0
 11
2667.139038146737
 21
1359.494298590735
 31
0.0
  0
LINE
  5
18C8C
330
18C7A
100
AcDbEntity
  8
細線
100
AcDbLine
 10
2599.470575206469
 20
1354.49429595079
 30
0.0
 11
2601.802114728278
 21
1359.494298590752
 31
0.0
  0
LINE
  5
18C8D
330
18C7A
100
AcDbEntity
  8
細線
 48
50.0
100
AcDbLine
 10
2440.853968524536
 20
1372.765132327548
 30
0.0
 11
2446.609486107205
 21
1354.494281037057
 31
0.0
  0
LINE
  5
18C8E
330
18C7A
100
AcDbEntity
  8
細線
 48
50.0
100
AcDbLine
 10
2429.925520044106
 20
1372.765132327546
 30
0.0
 11
2440.853968524536
 21
1372.765132327548
 31
0.0
  0
ARC
  5
18C8F
330
18C7A
100
AcDbEntity
  8
細線
 48
50.0
100
AcDbCircle
 10
2424.471163986787
 20
1374.265132327546
 30
0.0
 40
5.0
100
AcDbArc
 50
204.6243183520723
 51
335.3756816479278
  0
ARC
  5
18C90
330
18C7A
100
AcDbEntity
  8
細線
 48
50.0
100
AcDbCircle
 10
2429.925520044106
 20
1371.765132327546
 30
0.0
 40
1.0
100
AcDbArc
 50
90.0
 51
155.3756816479277
  0
ARC
  5
18C91
330
18C7A
100
AcDbEntity
  8
細線
 48
50.0
100
AcDbCircle
 10
2419.016807929469
 20
1371.765132327546
 30
0.0
 40
1.0
100
AcDbArc
 50
24.62431835207225
 51
90.0
  0
LINE
  5
18C92
330
18C7A
100
AcDbEntity
  8
細線
 48
50.0
100
AcDbLine
 10
2408.088359449037
 20
1372.765132327548
 30
0.0
 11
2419.016807929469
 21
1372.765132327546
 31
0.0
  0
LINE
  5
18C93
330
18C7A
100
AcDbEntity
  8
細線
 48
50.0
100
AcDbLine
 10
2402.33284186637
 20
1354.494281037054
 30
0.0
 11
2408.088359449037
 21
1372.765132327548
 31
0.0
  0
LINE
  5
18C94
330
18C7A
100
AcDbEntity
  8
細線
100
AcDbLine
 10
2458.070304175992
 20
1354.494278397076
 30
0.0
 11
2460.401843697802
 21
1359.494281037039
 31
0.0
  0
LINE
  5
18C95
330
18C7A
100
AcDbEntity
  8
細線
100
AcDbLine
 10
2528.070313592451
 20
1354.494263483342
 30
0.0
 11
2525.738767116262
 21
1359.494281037021
 31
0.0
  0
LINE
  5
18C96
330
18C7A
100
AcDbEntity
  8
細線
100
AcDbLine
 10
2525.738767116262
 20
1359.494281037021
 30
0.0
 11
2460.40184369779
 21
1359.49428103701
 31
0.0
  0
LINE
  5
18C97
330
18C7A
100
AcDbEntity
  8
細線
100
AcDbLine
 10
2387.139046332155
 20
1359.494281037021
 30
0.0
 11
2321.80212291368
 21
1359.49428103701
 31
0.0
  0
LINE
  5
18C98
330
18C7A
100
AcDbEntity
  8
細線
100
AcDbLine
 10
2389.470592808342
 20
1354.494263483342
 30
0.0
 11
2387.139046332153
 21
1359.494281037021
 31
0.0
  0
LINE
  5
18C99
330
18C7A
100
AcDbEntity
  8
細線
100
AcDbLine
 10
2319.470584622926
 20
1354.494281037054
 30
0.0
 11
2321.802122913694
 21
1359.494281037039
 31
0.0
  0
LINE
  5
18C9A
330
18C7A
100
AcDbEntity
  8
細線
100
AcDbLine
 10
2179.47061994182
 20
1354.494289224422
 30
0.0
 11
2181.802158232587
 21
1359.494289224407
 31
0.0
  0
LINE
  5
18C9B
330
18C7A
100
AcDbEntity
  8
細線
100
AcDbLine
 10
2249.470628127236
 20
1354.49427167071
 30
0.0
 11
2247.139081651047
 21
1359.494289224389
 31
0.0
  0
LINE
  5
18C9C
330
18C7A
100
AcDbEntity
  8
細線
100
AcDbLine
 10
2247.139081651047
 20
1359.494289224389
 30
0.0
 11
2181.802158232573
 21
1359.494289224378
 31
0.0
  0
LINE
  5
18C9D
330
18C7A
100
AcDbEntity
  8
細線
100
AcDbLine
 10
1807.970585744697
 20
1320.494460905133
 30
0.0
 11
1810.302124035464
 21
1325.494460905118
 31
0.0
  0
LINE
  5
18C9E
330
18C7A
100
AcDbEntity
  8
細線
100
AcDbLine
 10
1877.970593930113
 20
1320.494443351421
 30
0.0
 11
1875.639047453926
 21
1325.4944609051
 31
0.0
  0
LINE
  5
18C9F
330
18C7A
100
AcDbEntity
  8
細線
100
AcDbLine
 10
1875.639047453926
 20
1325.4944609051
 30
0.0
 11
1810.302124035452
 21
1325.494460905089
 31
0.0
  0
LINE
  5
18CA0
330
18C7A
100
AcDbEntity
  8
細線
100
AcDbLine
 10
2015.639047453926
 20
1325.4944609051
 30
0.0
 11
1950.302124035452
 21
1325.494460905089
 31
0.0
  0
LINE
  5
18CA1
330
18C7A
100
AcDbEntity
  8
細線
100
AcDbLine
 10
2017.970593930113
 20
1320.494443351421
 30
0.0
 11
2015.639047453924
 21
1325.4944609051
 31
0.0
  0
LINE
  5
18CA2
330
18C7A
100
AcDbEntity
  8
細線
100
AcDbLine
 10
1947.970585744697
 20
1320.494460905133
 30
0.0
 11
1950.302124035465
 21
1325.494460905118
 31
0.0
  0
LINE
  5
18CA3
330
18C7A
100
AcDbEntity
  8
細線
100
AcDbLine
 10
1735.639047453926
 20
1325.494460905098
 30
0.0
 11
1670.302124035454
 21
1325.494460905087
 31
0.0
  0
LINE
  5
18CA4
330
18C7A
100
AcDbEntity
  8
細線
100
AcDbLine
 10
1737.970593930113
 20
1320.494443351419
 30
0.0
 11
1735.639047453926
 21
1325.494460905098
 31
0.0
  0
LINE
  5
18CA5
330
18C7A
100
AcDbEntity
  8
細線
100
AcDbLine
 10
1667.970585744697
 20
1320.494460905131
 30
0.0
 11
1670.302124035465
 21
1325.494460905116
 31
0.0
  0
LINE
  5
18CA6
330
18C7A
100
AcDbEntity
  8
細線
100
AcDbLine
 10
1527.970593930113
 20
1320.494460905133
 30
0.0
 11
1530.302132220881
 21
1325.494460905118
 31
0.0
  0
LINE
  5
18CA7
330
18C7A
100
AcDbEntity
  8
細線
100
AcDbLine
 10
1597.970602115529
 20
1320.494443351421
 30
0.0
 11
1595.639055639342
 21
1325.4944609051
 31
0.0
  0
LINE
  5
18CA8
330
18C7A
100
AcDbEntity
  8
細線
100
AcDbLine
 10
1595.639055639342
 20
1325.4944609051
 30
0.0
 11
1530.302132220869
 21
1325.494460905089
 31
0.0
  0
ARC
  5
18CA9
330
18C7A
100
AcDbEntity
  8
部品1
 48
0.01
100
AcDbCircle
 10
1483.470482677778
 20
1319.493338720063
 30
0.0
 40
0.5
100
AcDbArc
 50
270.0
 51
0.0
  0
LINE
  5
18CAA
330
18C7A
100
AcDbEntity
  8
部品1
 48
0.01
100
AcDbLine
 10
1483.970482677778
 20
1320.493338720063
 30
0.0
 11
1483.970482677778
 21
1319.493338720063
 31
0.0
  0
LINE
  5
18CAB
330
18C7A
100
AcDbEntity
  8
部品1
 48
0.01
100
AcDbLine
 10
1483.970482677778
 20
1320.493338720063
 30
0.0
 11
1483.970482677778
 21
1319.493338720063
 31
0.0
  0
LINE
  5
18CAC
330
18C7A
100
AcDbEntity
  8
部品1
 48
0.01
100
AcDbLine
 10
1483.470482677778
 20
1318.993338720063
 30
0.0
 11
1476.857977247713
 21
1318.993338720062
 31
0.0
  0
ARC
  5
18CAD
330
18C7A
100
AcDbEntity
  8
部品1
100
AcDbCircle
 10
1476.926326800494
 20
1319.993338720062
 30
0.0
 40
1.0
100
AcDbArc
 50
160.5287793655865
 51
270.0
  0
ARC
  5
18CAE
330
18C7A
100
AcDbEntity
  8
部品1
100
AcDbCircle
 10
1451.470482677778
 20
1328.993338720062
 30
0.0
 40
26.0
100
AcDbArc
 50
340.5287793655865
 51
0.0
  0
LINE
  5
18CAF
330
18C7A
100
AcDbEntity
  8
部品1
100
AcDbLine
 10
1477.470482677778
 20
1328.993338720062
 30
0.0
 11
1477.470482677778
 21
1333.993338720061
 31
0.0
  0
ARC
  5
18CB0
330
18C7A
100
AcDbEntity
  8
部品1
 48
0.01
100
AcDbCircle
 10
1475.470482677778
 20
1333.993338720061
 30
0.0
 40
2.0
100
AcDbArc
 50
0.0
 51
90.0
  0
ARC
  5
18CB1
330
18C7A
100
AcDbEntity
  8
部品1
100
AcDbCircle
 10
1473.862091052968
 20
1332.993338720062
 30
0.0
 40
3.0
100
AcDbArc
 50
90.0
 51
141.6069559808035
  0
LINE
  5
18CB2
330
18C7A
100
AcDbEntity
  8
部品1
 48
0.01
100
AcDbLine
 10
1475.470482677778
 20
1335.993338720062
 30
0.0
 11
1473.862091052968
 21
1335.993338720062
 31
0.0
  0
ARC
  5
18CB3
330
18C7A
100
AcDbEntity
  8
部品1
100
AcDbCircle
 10
1455.399768463507
 20
1332.293338720065
 30
0.0
 40
3.0
100
AcDbArc
 50
254.0576313943215
 51
270.0
  0
ARC
  5
18CB4
330
18C7A
100
AcDbEntity
  8
部品1
100
AcDbCircle
 10
1462.541196892049
 20
1332.293338720065
 30
0.0
 40
3.0
100
AcDbArc
 50
270.0
 51
285.9423686056786
  0
LINE
  5
18CB5
330
18C7A
100
AcDbEntity
  8
部品1
100
AcDbLine
 10
1462.541196892049
 20
1329.293338720064
 30
0.0
 11
1455.399768463507
 21
1329.293338720064
 31
0.0
  0
ARC
  5
18CB6
330
18C7A
100
AcDbEntity
  8
部品1
100
AcDbCircle
 10
1458.970482677778
 20
1344.793338720065
 30
0.0
 40
16.0
100
AcDbArc
 50
285.9423686056786
 51
321.6069559808035
  0
LINE
  5
18CB7
330
18C7A
100
AcDbEntity
  8
部品1
 48
0.01
100
AcDbLine
 10
1442.470482677778
 20
1335.993338720062
 30
0.0
 11
1444.078874302588
 21
1335.993338720062
 31
0.0
  0
ARC
  5
18CB8
330
18C7A
100
AcDbEntity
  8
部品1
100
AcDbCircle
 10
1444.078874302588
 20
1332.993338720062
 30
0.0
 40
3.0
100
AcDbArc
 50
38.39304401919648
 51
90.0
  0
ARC
  5
18CB9
330
18C7A
100
AcDbEntity
  8
部品1
100
AcDbCircle
 10
1458.970482677778
 20
1344.793338720065
 30
0.0
 40
16.0
100
AcDbArc
 50
218.3930440191965
 51
254.0576313943215
  0
LINE
  5
18CBA
330
18C7A
100
AcDbEntity
  8
部品1
100
AcDbLine
 10
1440.470482677778
 20
1328.993338720062
 30
0.0
 11
1440.470482677778
 21
1333.993338720061
 31
0.0
  0
ARC
  5
18CBB
330
18C7A
100
AcDbEntity
  8
部品1
 48
0.01
100
AcDbCircle
 10
1442.470482677778
 20
1333.993338720061
 30
0.0
 40
2.0
100
AcDbArc
 50
90.0
 51
180.0
  0
ARC
  5
18CBC
330
18C7A
100
AcDbEntity
  8
部品1
100
AcDbCircle
 10
1466.470482677778
 20
1328.993338720062
 30
0.0
 40
26.0
100
AcDbArc
 50
180.0
 51
199.4712206344134
  0
ARC
  5
18CBD
330
18C7A
100
AcDbEntity
  8
部品1
 48
0.01
100
AcDbCircle
 10
1434.470482677778
 20
1319.493338720063
 30
0.0
 40
0.5
100
AcDbArc
 50
180.0
 51
270.0
  0
LINE
  5
18CBE
330
18C7A
100
AcDbEntity
  8
部品1
 48
0.01
100
AcDbLine
 10
1434.470482677778
 20
1318.993338720063
 30
0.0
 11
1441.014638555061
 21
1318.993338720062
 31
0.0
  0
LINE
  5
18CBF
330
18C7A
100
AcDbEntity
  8
部品1
 48
0.01
100
AcDbLine
 10
1433.970482677778
 20
1320.493338720063
 30
0.0
 11
1433.970482677778
 21
1319.493338720063
 31
0.0
  0
ARC
  5
18CC0
330
18C7A
100
AcDbEntity
  8
部品1
100
AcDbCircle
 10
1441.014638555061
 20
1319.993338720062
 30
0.0
 40
1.0
100
AcDbArc
 50
270.0
 51
19.47122063441346
  0
LINE
  5
18CC1
330
18C7A
100
AcDbEntity
  8
細線
100
AcDbLine
 10
1479.470482677785
 20
1338.493338720065
 30
0.0
 11
1438.470482677785
 21
1338.493338720058
 31
0.0
  0
LINE
  5
18CC2
330
18C7A
100
AcDbEntity
  8
細線
100
AcDbLine
 10
1438.470482677785
 20
1338.493338720058
 30
0.0
 11
1438.470482677785
 21
1320.49333872004
 31
0.0
  0
LINE
  5
18CC3
330
18C7A
100
AcDbEntity
  8
細線
100
AcDbLine
 10
1479.470482677785
 20
1338.493338720065
 30
0.0
 11
1479.470482677785
 21
1320.49333872004
 31
0.0
  0
LINE
  5
18CC4
330
18C7A
100
AcDbEntity
  8
細線
100
AcDbLine
 10
1322.970589276523
 20
1324.494269174465
 30
0.0
 11
1322.970589276523
 21
1320.494269174513
 31
0.0
  0
LINE
  5
18CC5
330
18C7A
100
AcDbEntity
  8
寸法
 48
50.0
100
AcDbLine
 10
1746.17359555837
 20
1170.531020743327
 30
0.0
 11
1694.767587648266
 21
1170.531020743327
 31
0.0
  0
LINE
  5
18CC6
330
18C7A
100
AcDbEntity
  8
寸法
 48
50.0
100
AcDbLine
 10
1694.767587648266
 20
1170.531020743327
 30
0.0
 11
1694.767587648266
 21
1201.841179395494
 31
0.0
  0
LINE
  5
18CC7
330
18C7A
100
AcDbEntity
  8
寸法
 48
50.0
100
AcDbLine
 10
1694.767587648266
 20
1201.841179395494
 30
0.0
 11
1665.006255656843
 21
1201.841179395494
 31
0.0
  0
LINE
  5
18CC8
330
18C7A
100
AcDbEntity
  8
寸法
 48
50.0
100
AcDbLine
 10
1665.006255656843
 20
1201.841179395494
 30
0.0
 11
1720.470591603318
 21
1239.420630324105
 31
0.0
  0
LINE
  5
18CC9
330
18C7A
100
AcDbEntity
  8
寸法
 48
50.0
100
AcDbLine
 10
1775.934927549793
 20
1201.841179395494
 30
0.0
 11
1720.470591603318
 21
1239.420630324105
 31
0.0
  0
LINE
  5
18CCA
330
18C7A
100
AcDbEntity
  8
寸法
 48
50.0
100
AcDbLine
 10
1746.17359555837
 20
1201.841179395494
 30
0.0
 11
1775.934927549793
 21
1201.841179395494
 31
0.0
  0
LINE
  5
18CCB
330
18C7A
100
AcDbEntity
  8
寸法
 48
50.0
100
AcDbLine
 10
1746.17359555837
 20
1170.531020743327
 30
0.0
 11
1746.17359555837
 21
1201.841179395494
 31
0.0
  0
LINE
  5
18CCC
330
18C7A
100
AcDbEntity
  8
寸法
 48
50.0
100
AcDbLine
 10
1694.767587648266
 20
1170.531020743327
 30
0.0
 11
1746.17359555837
 21
1170.531020743327
 31
0.0
  0
LINE
  5
18CCD
330
18C7A
100
AcDbEntity
  8
寸法
 48
50.0
100
AcDbLine
 10
2025.339129835225
 20
1227.676611498152
 30
0.0
 11
2025.339129835225
 21
1174.01297691636
 31
0.0
  0
LINE
  5
18CCE
330
18C7A
100
AcDbEntity
  8
寸法
 48
50.0
100
AcDbLine
 10
2114.623348430647
 20
1203.752977228664
 30
0.0
 11
2025.339129835225
 21
1227.676611498152
 31
0.0
  0
LINE
  5
18CCF
330
18C7A
100
AcDbEntity
  8
寸法
 48
50.0
100
AcDbLine
 10
1895.471408254923
 20
1203.752977228664
 30
0.0
 11
2114.623348430647
 21
1203.752977228664
 31
0.0
  0
DIMENSION
  5
18CD0
330
18C7A
100
AcDbEntity
  8
寸法
 48
50.0
100
AcDbDimension
  2
*D15
 10
2588.970589276523
 20
706.3240511224249
 30
0.0
 11
1969.060022905491
 21
706.3240511224249
 31
0.0
 12
-3742.925985830444
 22
-6453.628869860112
 32
0.0
 70
   128
  1
有効開口部間口\P<>
 71
     5
 42
1266.0
  3
INABA_S40G
100
AcDbAlignedDimension
 13
1322.970589276523
 23
1315.494269174465
 33
0.0
 14
2588.970589276523
 24
1315.494269174465
 34
0.0
100
AcDbRotatedDimension
1001
ACAD
1000
DSTYLE
1002
{
1070
   341
1005
0
1002
}
  0
LINE
  5
18CD1
330
18C7A
100
AcDbEntity
  8
部品1
100
AcDbLine
 10
3409.970589276524
 20
1392.494269174465
 30
0.0
 11
3437.970589276523
 21
1392.494269174465
 31
0.0
  0
DIMENSION
  5
18CD2
330
18C7A
100
AcDbEntity
  8
寸法
100
AcDbDimension
  2
*D16
 10
3674.266172669749
 20
1315.494269174465
 30
0.0
 11
3674.266172669748
 21
1177.494269174462
 31
0.0
 12
-3742.925985830444
 22
-6453.628869860112
 32
0.0
 70
   128
 71
     5
 42
77.0
  3
INABA_S40
100
AcDbAlignedDimension
 13
3437.970589276523
 23
1392.494269174465
 33
0.0
 14
3436.970589276523
 24
1315.494269174465
 34
0.0
 50
90.0
100
AcDbRotatedDimension
1001
ACAD
1000
DSTYLE
1002
{
1070
    41
1040
0.5
1070
    44
1040
1.0
1070
   147
1040
0.8
1070
   271
1070
     2
1070
   272
1070
     2
1070
   289
1070
     3
1070
   340
1005
F706
1070
   343
1005
164B4
1070
   344
1005
164B4
1002
}
  0
LINE
  5
18CD3
330
18C7A
100
AcDbEntity
  8
部品1
100
AcDbLine
 10
3437.970589276523
 20
1315.494269174465
 30
0.0
 11
3437.970589276523
 21
1392.494269174465
 31
0.0
  0
LINE
  5
18CD4
330
18C7A
100
AcDbEntity
  8
部品1
100
AcDbLine
 10
3398.970589276523
 20
1388.494269174465
 30
0.0
 11
3409.970589276524
 21
1388.494269174465
 31
0.0
  0
LINE
  5
18CD5
330
18C7A
100
AcDbEntity
  8
部品1
100
AcDbLine
 10
3407.970589276523
 20
1324.494269174465
 30
0.0
 11
3407.970589276523
 21
1315.494269174465
 31
0.0
  0
LINE
  5
18CD6
330
18C7A
100
AcDbEntity
  8
部品1
100
AcDbLine
 10
3398.970589276523
 20
1324.494269174465
 30
0.0
 11
3407.970589276523
 21
1324.494269174465
 31
0.0
  0
LINE
  5
18CD7
330
18C7A
100
AcDbEntity
  8
部品1
100
AcDbLine
 10
3398.970589276523
 20
1388.494269174465
 30
0.0
 11
3398.970589276523
 21
1324.494269174465
 31
0.0
  0
LINE
  5
18CD8
330
18C7A
100
AcDbEntity
  8
部品1
100
AcDbLine
 10
3409.970589276524
 20
1419.494269174465
 30
0.0
 11
3409.970589276524
 21
1388.494269174465
 31
0.0
  0
LINE
  5
18CD9
330
18C7A
100
AcDbEntity
  8
部品1
100
AcDbLine
 10
1322.970589276523
 20
1388.494269174465
 30
0.0
 11
1311.970589276523
 21
1388.494269174465
 31
0.0
  0
LINE
  5
18CDA
330
18C7A
100
AcDbEntity
  8
部品1
100
AcDbLine
 10
1283.970589276523
 20
1392.494269174465
 30
0.0
 11
1311.970589276523
 21
1392.494269174465
 31
0.0
  0
LINE
  5
18CDB
330
18C7A
100
AcDbEntity
  8
部品1
100
AcDbLine
 10
1313.970589276523
 20
1324.494269174465
 30
0.0
 11
1313.970589276523
 21
1315.494269174465
 31
0.0
  0
LINE
  5
18CDC
330
18C7A
100
AcDbEntity
  8
部品1
100
AcDbLine
 10
1322.970589276523
 20
1324.494269174465
 30
0.0
 11
1313.970589276523
 21
1324.494269174465
 31
0.0
  0
LINE
  5
18CDD
330
18C7A
100
AcDbEntity
  8
部品1
100
AcDbLine
 10
1313.970589276523
 20
1315.494269174465
 30
0.0
 11
1283.970589276523
 21
1315.494269174465
 31
0.0
  0
LINE
  5
18CDE
330
18C7A
100
AcDbEntity
  8
部品1
100
AcDbLine
 10
1283.970589276523
 20
1315.494269174465
 30
0.0
 11
1283.970589276523
 21
1392.494269174465
 31
0.0
  0
LINE
  5
18CDF
330
18C7A
100
AcDbEntity
  8
部品1
100
AcDbLine
 10
1322.970589276523
 20
1388.494269174465
 30
0.0
 11
1322.970589276523
 21
1324.494269174465
 31
0.0
  0
LINE
  5
18CE0
330
18C7A
100
AcDbEntity
  8
部品1
100
AcDbLine
 10
1311.970589276523
 20
1419.494269174462
 30
0.0
 11
1311.970589276523
 21
1388.494269174465
 31
0.0
  0
LINE
  5
18CE1
330
18C7A
100
AcDbEntity
  8
部品1
100
AcDbLine
 10
1311.970589276523
 20
1419.494269174462
 30
0.0
 11
3409.970589276524
 21
1419.494269174465
 31
0.0
  0
LINE
  5
18CE2
330
18C7A
100
AcDbEntity
  8
部品1
100
AcDbLine
 10
3407.970589276523
 20
1315.494269174465
 30
0.0
 11
3437.970589276523
 21
1315.494269174465
 31
0.0
  0
LINE
  5
18CE3
330
18C7A
100
AcDbEntity
  8
部品1
100
AcDbLine
 10
1313.970589276523
 20
1315.494269174465
 30
0.0
 11
3410.970589276523
 21
1315.494269174465
 31
0.0
  0
LINE
  5
18CE4
330
18C7A
100
AcDbEntity
  8
細線
  6
Continuous
 62
     5
100
AcDbLine
 10
2689.970589276527
 20
1354.494269174462
 30
0.0
 11
2689.970589276527
 21
1354.494269174462
 31
0.0
  0
LINE
  5
18CE5
330
18C7A
100
AcDbEntity
  8
細線
  6
Continuous
 62
     5
100
AcDbLine
 10
2682.470589276527
 20
1354.494269174462
 30
0.0
 11
2682.470589276527
 21
1354.494269174462
 31
0.0
  0
LINE
  5
18CE6
330
18C7A
100
AcDbEntity
  8
細線
  6
Continuous
 62
     5
100
AcDbLine
 10
2676.470589276527
 20
1354.494269174462
 30
0.0
 11
2676.470589276527
 21
1354.494269174462
 31
0.0
  0
LINE
  5
18CE7
330
18C7A
100
AcDbEntity
  8
細線
  6
Continuous
 62
     5
100
AcDbLine
 10
2743.970589276527
 20
1373.494269174462
 30
0.0
 11
2743.970589276527
 21
1373.494269174462
 31
0.0
  0
LINE
  5
18CE8
330
18C7A
100
AcDbEntity
  8
細線
 48
50.0
100
AcDbLine
 10
1336.970593930116
 20
1341.094443351418
 30
0.0
 11
1336.970593930113
 21
1349.490593759059
 31
0.0
  0
LINE
  5
18CE9
330
18C7A
100
AcDbEntity
  8
細線
 48
50.0
100
AcDbLine
 10
1336.970593930113
 20
1349.490593759059
 30
0.0
 11
1322.970589276523
 21
1349.490593759057
 31
0.0
  0
LINE
  5
18CEA
330
18C7A
100
AcDbEntity
  8
細線
 48
50.0
100
AcDbLine
 10
2087.970593930113
 20
1337.644443351419
 30
0.0
 11
2087.970593930113
 21
1342.494443351421
 31
0.0
  0
LINE
  5
18CEB
330
18C7A
100
AcDbEntity
  8
細線
 48
50.0
100
AcDbLine
 10
2087.970593930113
 20
1342.494443351421
 30
0.0
 11
2102.970593930113
 21
1342.494443351421
 31
0.0
  0
LINE
  5
18CEC
330
18C7A
100
AcDbEntity
  8
細線
 48
50.0
100
AcDbLine
 10
2102.970593930113
 20
1342.494443351421
 30
0.0
 11
2102.970593930115
 21
1349.494443351419
 31
0.0
  0
LINE
  5
18CED
330
18C7A
100
AcDbEntity
  8
細線
 48
50.0
100
AcDbLine
 10
2102.970593930115
 20
1349.494443351419
 30
0.0
 11
2117.970593930113
 21
1349.494443351419
 31
0.0
  0
LINE
  5
18CEE
330
18C7A
100
AcDbEntity
  8
細線
 48
50.0
100
AcDbLine
 10
2117.970593930113
 20
1349.494443351419
 30
0.0
 11
2117.970593930113
 21
1320.494443351421
 31
0.0
  0
LINE
  5
18CEF
330
18C7A
100
AcDbEntity
  8
細線
 48
50.0
100
AcDbLine
 10
1313.970589276523
 20
1320.491777694889
 30
0.0
 11
1527.970593930113
 21
1320.494460905133
 31
0.0
  0
LINE
  5
18CF0
330
18C7A
100
AcDbEntity
  8
細線
 48
50.0
100
AcDbLine
 10
2017.970593930113
 20
1320.494443351421
 30
0.0
 11
2117.970593930113
 21
1320.494443351421
 31
0.0
  0
LINE
  5
18CF1
330
18C7A
100
AcDbEntity
  8
細線
 48
50.0
100
AcDbLine
 10
1737.970593930113
 20
1320.494443351419
 30
0.0
 11
1807.970593930113
 21
1320.494443351423
 31
0.0
  0
LINE
  5
18CF2
330
18C7A
100
AcDbEntity
  8
細線
 48
50.0
100
AcDbLine
 10
1750.832558942642
 20
1320.494443351419
 30
0.0
 11
1756.588076525309
 21
1338.765294641913
 31
0.0
  0
LINE
  5
18CF3
330
18C7A
100
AcDbEntity
  8
細線
 48
50.0
100
AcDbLine
 10
1756.588076525309
 20
1338.765294641913
 30
0.0
 11
1767.516525005743
 21
1338.765294641911
 31
0.0
  0
ARC
  5
18CF4
330
18C7A
100
AcDbEntity
  8
細線
 48
50.0
100
AcDbCircle
 10
1767.516525005743
 20
1337.765294641911
 30
0.0
 40
1.0
100
AcDbArc
 50
24.62431835207225
 51
90.0
  0
ARC
  5
18CF5
330
18C7A
100
AcDbEntity
  8
細線
 48
50.0
100
AcDbCircle
 10
1778.425237120377
 20
1337.765294641911
 30
0.0
 40
1.0
100
AcDbArc
 50
90.0
 51
155.3756816479277
  0
ARC
  5
18CF6
330
18C7A
100
AcDbEntity
  8
細線
 48
50.0
100
AcDbCircle
 10
1772.970881063058
 20
1340.265294641911
 30
0.0
 40
5.0
100
AcDbArc
 50
204.6243183520723
 51
335.3756816479278
  0
LINE
  5
18CF7
330
18C7A
100
AcDbEntity
  8
細線
 48
50.0
100
AcDbLine
 10
1778.425237120377
 20
1338.765294641911
 30
0.0
 11
1789.35368560081
 21
1338.765294641913
 31
0.0
  0
LINE
  5
18CF8
330
18C7A
100
AcDbEntity
  8
細線
 48
50.0
100
AcDbLine
 10
1789.35368560081
 20
1338.765294641913
 30
0.0
 11
1795.109203183478
 21
1320.494443351423
 31
0.0
  0
LINE
  5
18CF9
330
18C7A
100
AcDbEntity
  8
細線
 48
50.0
100
AcDbLine
 10
2087.970593930113
 20
1341.094443351419
 30
0.0
 11
1336.970593930116
 21
1341.094443351418
 31
0.0
  0
LINE
  5
18CFA
330
18C7A
100
AcDbEntity
  8
細線
 48
50.0
100
AcDbLine
 10
1947.970593930113
 20
1320.494443351421
 30
0.0
 11
1877.970593930113
 21
1320.494443351421
 31
0.0
  0
LINE
  5
18CFB
330
18C7A
100
AcDbEntity
  8
細線
100
AcDbLine
 10
1667.970593930113
 20
1320.494443351421
 30
0.0
 11
1597.970602115529
 21
1320.494443351421
 31
0.0
  0
LINE
  5
18CFC
330
18C7A
100
AcDbEntity
  8
細線
 48
50.0
100
AcDbLine
 10
2741.970584622936
 20
1375.094487209288
 30
0.0
 11
2106.970593930113
 21
1375.094487209284
 31
0.0
  0
LINE
  5
18CFD
330
18C7A
100
AcDbEntity
  8
細線
 48
50.0
100
AcDbLine
 10
2106.970593930113
 20
1371.990637616925
 30
0.0
 11
2106.970593930113
 21
1376.490637616925
 31
0.0
  0
LINE
  5
18CFE
330
18C7A
100
AcDbEntity
  8
細線
 48
50.0
100
AcDbLine
 10
2106.970593930113
 20
1376.490637616925
 30
0.0
 11
2091.970593930113
 21
1376.490637616925
 31
0.0
  0
LINE
  5
18CFF
330
18C7A
100
AcDbEntity
  8
細線
 48
50.0
100
AcDbLine
 10
2091.970593930113
 20
1376.490637616925
 30
0.0
 11
2091.970593930113
 21
1383.490637616927
 31
0.0
  0
LINE
  5
18D00
330
18C7A
100
AcDbEntity
  8
細線
 48
50.0
100
AcDbLine
 10
2091.970593930113
 20
1383.490637616927
 30
0.0
 11
2076.970593930115
 21
1383.490637616924
 31
0.0
  0
LINE
  5
18D01
330
18C7A
100
AcDbEntity
  8
細線
 48
50.0
100
AcDbLine
 10
2076.970593930115
 20
1383.490637616924
 30
0.0
 11
2076.970593930115
 21
1345.890409513813
 31
0.0
  0
LINE
  5
18D02
330
18C7A
100
AcDbEntity
  8
細線
 48
50.0
100
AcDbLine
 10
2076.970593930115
 20
1345.890409513813
 30
0.0
 11
2096.970601231289
 21
1345.890451063353
 31
0.0
  0
LINE
  5
18D03
330
18C7A
100
AcDbEntity
  8
細線
 48
50.0
100
AcDbLine
 10
2096.970556362348
 20
1354.493912699161
 30
0.0
 11
2096.970601231289
 21
1345.890451063353
 31
0.0
  0
LINE
  5
18D04
330
18C7A
100
AcDbEntity
  8
細線
 48
50.0
100
AcDbLine
 10
2741.970584622936
 20
1371.644487209287
 30
0.0
 11
2741.970584622936
 21
1376.494487209284
 31
0.0
  0
LINE
  5
18D05
330
18C7A
100
AcDbEntity
  8
細線
 48
50.0
100
AcDbLine
 10
2741.970584622936
 20
1376.494487209284
 30
0.0
 11
2756.970584622934
 21
1376.494487209285
 31
0.0
  0
LINE
  5
18D06
330
18C7A
100
AcDbEntity
  8
細線
 48
50.0
100
AcDbLine
 10
2756.970584622934
 20
1376.494487209285
 30
0.0
 11
2756.970596256909
 21
1383.494487209331
 31
0.0
  0
LINE
  5
18D07
330
18C7A
100
AcDbEntity
  8
細線
 48
50.0
100
AcDbLine
 10
2756.970596256909
 20
1383.494487209331
 30
0.0
 11
2771.970594427439
 21
1383.494487209329
 31
0.0
  0
LINE
  5
18D08
330
18C7A
100
AcDbEntity
  8
細線
 48
50.0
100
AcDbLine
 10
2771.970594427439
 20
1383.494487209329
 30
0.0
 11
2771.970584125617
 21
1354.494281037055
 31
0.0
  0
LINE
  5
18D09
330
18C7A
100
AcDbEntity
  8
細線
 48
50.0
100
AcDbLine
 10
2458.070304175992
 20
1354.494278397076
 30
0.0
 11
2389.470863838818
 21
1354.494283787084
 31
0.0
  0
LINE
  5
18D0A
330
18C7A
100
AcDbEntity
  8
細線
 48
50.0
100
AcDbLine
 10
2096.970556362348
 20
1354.493912699161
 30
0.0
 11
2108.203245717057
 21
1354.494095652309
 31
0.0
  0
ARC
  5
18D0B
330
18C7A
100
AcDbEntity
  8
細線
 48
50.0
100
AcDbCircle
 10
2114.785538024393
 20
1353.294259565922
 30
0.0
 40
1.8
100
AcDbArc
 50
270.0006665777295
 51
345.000555481349
  0
LINE
  5
18D0C
330
18C7A
100
AcDbEntity
  8
細線
 48
50.0
100
AcDbLine
 10
2116.771971470473
 20
1353.753100023201
 30
0.0
 11
2116.524209028273
 21
1352.828402141094
 31
0.0
  0
LINE
  5
18D0D
330
18C7A
100
AcDbEntity
  8
細線
 48
50.0
100
AcDbLine
 10
2114.785558965548
 20
1351.494259566043
 30
0.0
 11
2111.155631546781
 21
1351.494217335563
 31
0.0
  0
ARC
  5
18D0E
330
18C7A
100
AcDbEntity
  8
細線
 48
50.0
100
AcDbCircle
 10
2111.155610605627
 20
1353.29421733544
 30
0.0
 40
1.8
100
AcDbArc
 50
195.0010443049965
 51
270.0006665777295
  0
LINE
  5
18D0F
330
18C7A
100
AcDbEntity
  8
細線
 48
50.0
100
AcDbLine
 10
2109.169183113368
 20
1353.752932303007
 30
0.0
 11
2109.416952609882
 21
1352.828311364425
 31
0.0
  0
ARC
  5
18D10
330
18C7A
100
AcDbEntity
  8
細線
 48
50.0
100
AcDbCircle
 10
2108.203262004622
 20
1353.494095652444
 30
0.0
 40
1.0
100
AcDbArc
 50
15.00104430499651
 51
90.00093320877969
  0
LINE
  5
18D11
330
18C7A
100
AcDbEntity
  8
細線
 48
50.0
100
AcDbLine
 10
2117.737892825577
 20
1354.494290342714
 30
0.0
 11
2118.679652976481
 21
1354.494296916564
 31
0.0
  0
ARC
  5
18D12
330
18C7A
100
AcDbEntity
  8
細線
 48
50.0
100
AcDbCircle
 10
2117.737899805961
 20
1353.49429034274
 30
0.0
 40
1.0
100
AcDbArc
 50
90.0003999466794
 51
165.000555481349
  0
LINE
  5
18D13
330
18C7A
100
AcDbEntity
  8
細線
 48
50.0
100
AcDbLine
 10
2669.470584622926
 20
1354.494281037055
 30
0.0
 11
2771.970584125617
 21
1354.494281037055
 31
0.0
  0
LINE
  5
18D14
330
18C7A
100
AcDbEntity
  8
細線
 48
50.0
100
AcDbLine
 10
2179.47061994182
 20
1354.494289224422
 30
0.0
 11
2118.370558714898
 21
1354.494296916564
 31
0.0
  0
LINE
  5
18D15
330
18C7A
100
AcDbEntity
  8
細線
 48
50.0
100
AcDbLine
 10
2599.470584622926
 20
1354.494281037057
 30
0.0
 11
2529.470584622926
 21
1354.494281037055
 31
0.0
  0
LINE
  5
18D16
330
18C7A
100
AcDbEntity
  8
細線
 48
50.0
100
AcDbLine
 10
2319.470584622926
 20
1354.494281037054
 30
0.0
 11
2249.470567335051
 21
1354.494281037057
 31
0.0
  0
ARC
  5
18D17
330
18C7A
100
AcDbEntity
  8
細線
 48
50.0
100
AcDbCircle
 10
2756.170589276533
 20
1387.694269174466
 30
0.0
 40
0.8
100
AcDbArc
 50
359.9997333689499
 51
89.99986668437072
  0
ARC
  5
18D18
330
18C7A
100
AcDbEntity
  8
細線
 48
50.0
100
AcDbCircle
 10
2763.770596101631
 20
1387.694280343081
 30
0.0
 40
0.8
100
AcDbArc
 50
90.00014387753465
 51
179.9997333689498
  0
LINE
  5
18D19
330
18C7A
100
AcDbEntity
  8
細線
 48
50.0
100
AcDbLine
 10
2756.170591137969
 20
1388.494269174465
 30
0.0
 11
2750.970589276525
 21
1388.494269174465
 31
0.0
  0
ARC
  5
18D1A
330
18C7A
100
AcDbEntity
  8
細線
 48
50.0
100
AcDbCircle
 10
2757.670589276524
 20
1386.194269174464
 30
0.0
 40
0.7
100
AcDbArc
 50
180.0
 51
270.0
  0
ARC
  5
18D1B
330
18C7A
100
AcDbEntity
  8
細線
 48
50.0
100
AcDbCircle
 10
2762.270589276524
 20
1386.194269174464
 30
0.0
 40
0.7
100
AcDbArc
 50
270.0
 51
0.0
  0
LINE
  5
18D1C
330
18C7A
100
AcDbEntity
  8
細線
 48
50.0
100
AcDbLine
 10
2762.970589276525
 20
1386.194269174464
 30
0.0
 11
2762.970596101639
 21
1387.694284065954
 31
0.0
  0
LINE
  5
18D1D
330
18C7A
100
AcDbEntity
  8
細線
 48
50.0
100
AcDbLine
 10
2757.670589276524
 20
1385.494269174465
 30
0.0
 11
2762.270589276524
 21
1385.494269174465
 31
0.0
  0
LINE
  5
18D1E
330
18C7A
100
AcDbEntity
  8
細線
 48
50.0
100
AcDbLine
 10
2756.970589276525
 20
1387.694269174466
 30
0.0
 11
2756.970589276525
 21
1386.194269174464
 31
0.0
  0
LINE
  5
18D1F
330
18C7A
100
AcDbEntity
  8
細線
 48
50.0
100
AcDbLine
 10
3382.570589276527
 20
1418.494269174465
 30
0.0
 11
2745.970589276525
 21
1418.494269174463
 31
0.0
  0
LINE
  5
18D20
330
18C7A
100
AcDbEntity
  8
細線
 48
50.0
100
AcDbLine
 10
3408.470589276525
 20
1413.494269174467
 30
0.0
 11
3392.570589276527
 21
1413.494269174465
 31
0.0
  0
LINE
  5
18D21
330
18C7A
100
AcDbEntity
  8
細線
 48
50.0
100
AcDbLine
 10
3392.570589276526
 20
1413.494269174465
 30
0.0
 11
3382.570589276527
 21
1418.494269174465
 31
0.0
  0
LINE
  5
18D22
330
18C7A
100
AcDbEntity
  8
細線
100
AcDbLine
 10
2993.470589276525
 20
1388.494269174465
 30
0.0
 11
2993.470589276525
 21
1417.794269174464
 31
0.0
  0
LINE
  5
18D23
330
18C7A
100
AcDbEntity
  8
細線
100
AcDbLine
 10
2993.470589276525
 20
1417.794269174464
 30
0.0
 11
3013.470589276525
 21
1417.794269174464
 31
0.0
  0
LINE
  5
18D24
330
18C7A
100
AcDbEntity
  8
細線
100
AcDbLine
 10
3013.470589276525
 20
1388.494269174465
 30
0.0
 11
3013.470589276525
 21
1417.794269174464
 31
0.0
  0
LINE
  5
18D25
330
18C7A
100
AcDbEntity
  8
細線
100
AcDbLine
 10
3170.720589276524
 20
1388.494269174465
 30
0.0
 11
3100.720589276523
 21
1388.494269174465
 31
0.0
  0
LINE
  5
18D26
330
18C7A
100
AcDbEntity
  8
細線
 48
50.0
100
AcDbLine
 10
2890.720589276525
 20
1388.494269174465
 30
0.0
 11
2763.766368849365
 21
1388.494269174465
 31
0.0
  0
LINE
  5
18D27
330
18C7A
100
AcDbEntity
  8
細線
100
AcDbLine
 10
3030.720589276525
 20
1388.494269174465
 30
0.0
 11
2960.720589276525
 21
1388.494269174465
 31
0.0
  0
LINE
  5
18D28
330
18C7A
100
AcDbEntity
  8
細線
 48
50.0
100
AcDbLine
 10
2750.970589276525
 20
1380.494269174465
 30
0.0
 11
2750.970589276525
 21
1388.494269174465
 31
0.0
  0
LINE
  5
18D29
330
18C7A
100
AcDbEntity
  8
細線
 48
50.0
100
AcDbLine
 10
2730.970589276524
 20
1380.494269174467
 30
0.0
 11
2750.970589276525
 21
1380.494269174465
 31
0.0
  0
LINE
  5
18D2A
330
18C7A
100
AcDbEntity
  8
細線
 48
50.0
100
AcDbLine
 10
2745.970589276525
 20
1418.494269174465
 30
0.0
 11
2745.970589276525
 21
1413.494269174465
 31
0.0
  0
LINE
  5
18D2B
330
18C7A
100
AcDbEntity
  8
細線
 48
50.0
100
AcDbLine
 10
2730.970589276525
 20
1418.494269174463
 30
0.0
 11
2745.970589276525
 21
1418.494269174465
 31
0.0
  0
LINE
  5
18D2C
330
18C7A
100
AcDbEntity
  8
細線
 48
50.0
100
AcDbLine
 10
2730.970589276524
 20
1380.494269174467
 30
0.0
 11
2730.970589276525
 21
1418.494269174463
 31
0.0
  0
LINE
  5
18D2D
330
18C7A
100
AcDbEntity
  8
細線
100
AcDbLine
 10
3398.970589276523
 20
1388.494269174465
 30
0.0
 11
3240.720589276525
 21
1388.494269174465
 31
0.0
  0
LINE
  5
18D2E
330
18C7A
100
AcDbEntity
  8
細線
 48
50.0
100
AcDbLine
 10
3408.470589276525
 20
1413.494269174467
 30
0.0
 11
3408.470589276524
 21
1388.494269174465
 31
0.0
  0
TEXT
  5
18D2F
330
18C7A
100
AcDbEntity
  8
部品1
100
AcDbText
 10
1860.154865991392
 20
46.99880823813145
 30
0.0
 40
135.0
  1
平面図
  7
STYLE2
100
AcDbText
  0
LWPOLYLINE
  5
18D30
330
18C7A
100
AcDbEntity
  8
部品1
100
AcDbPolyline
 90
        4
 70
     1
 43
0.0
 10
1770.23525616235
 20
239.8923374566548
 10
1770.23525616235
 20
0.0000159111223184
 10
2533.705922390791
 20
0.0000159111223184
 10
2533.705922390791
 20
239.8923374566548
  0
LINE
  5
18D31
330
18C7A
100
AcDbEntity
  8
部品1
100
AcDbLine
 10
1534.470589276487
 20
3154.494269174626
 30
0.0
 11
2769.470589276552
 21
3154.494269174626
 31
0.0
  0
LINE
  5
18D32
330
18C7A
100
AcDbEntity
  8
部品1
 48
50.0
100
AcDbLine
 10
1311.970589276523
 20
1420.494269174462
 30
0.0
 11
3411.970589276523
 21
1420.494269174465
 31
0.0
  0
LINE
  5
18D33
330
18C7A
100
AcDbEntity
  8
部品1
 48
50.0
100
AcDbLine
 10
471.9705892765232
 20
1392.494269174465
 30
0.0
 11
1311.970589276523
 21
1392.494269174465
 31
0.0
  0
DIMENSION
  5
18D34
330
18C7A
100
AcDbEntity
  8
寸法
100
AcDbDimension
  2
*D14
 10
2710.234916278077
 20
2488.887829538828
 30
0.0
 11
2338.318822490183
 21
2488.887829538828
 31
0.0
 12
-3742.925985830444
 22
-6453.628869860112
 32
0.0
 70
   128
 71
     5
 42
1231.00000000007
  3
INABA_S40G
100
AcDbAlignedDimension
 13
1536.470589276486
 23
2702.494269174557
 33
0.0
 14
2767.470589276556
 24
2702.494269174549
 34
0.0
100
AcDbRotatedDimension
1001
ACAD
1000
DSTYLE
1002
{
1002
}
  0
LINE
  5
18D35
330
18C7A
100
AcDbEntity
  8
部品1
100
AcDbLine
 10
1536.470589276487
 20
2702.494269174557
 30
0.0
 11
2767.470589276554
 21
2702.494269174615
 31
0.0
  0
LINE
  5
18D36
330
18C7A
100
AcDbEntity
  8
部品1
100
AcDbLine
 10
1536.470589276487
 20
3152.494269174557
 30
0.0
 11
2767.470589276556
 21
3152.494269174615
 31
0.0
  0
LINE
  5
18D37
330
18C7A
100
AcDbEntity
  8
細線
 48
50.0
100
AcDbLine
 10
1508.470589276487
 20
3152.494269174558
 30
0.0
 11
445.4705892765559
 21
2702.494269174509
 31
0.0
  0
LINE
  5
18D38
330
18C7A
100
AcDbEntity
  8
細線
 48
50.0
100
AcDbLine
 10
1508.470589276487
 20
2702.494269174558
 30
0.0
 11
445.4705892765542
 21
3152.494269174509
 31
0.0
  0
LINE
  5
18D39
330
18C7A
100
AcDbEntity
  8
部品1
100
AcDbLine
 10
1556.970589276487
 20
3172.494269174611
 30
0.0
 11
1556.970589276487
 21
3154.494269174611
 31
0.0
  0
LINE
  5
18D3A
330
18C7A
100
AcDbEntity
  8
部品1
100
AcDbLine
 10
1556.970589276487
 20
3172.494269174611
 30
0.0
 11
1550.970589276487
 21
3172.494269174611
 31
0.0
  0
LINE
  5
18D3B
330
18C7A
100
AcDbEntity
  8
部品1
100
AcDbLine
 10
1534.470589276487
 20
3146.494269174608
 30
0.0
 11
1509.470589276487
 21
3146.494269174611
 31
0.0
  0
LINE
  5
18D3C
330
18C7A
100
AcDbEntity
  8
部品1
100
AcDbLine
 10
1486.970589276487
 20
3172.494269174611
 30
0.0
 11
1486.970589276487
 21
3154.494269174611
 31
0.0
  0
LINE
  5
18D3D
330
18C7A
100
AcDbEntity
  8
部品1
100
AcDbLine
 10
1492.970589276487
 20
3172.494269174611
 30
0.0
 11
1486.970589276487
 21
3172.494269174611
 31
0.0
  0
LINE
  5
18D3E
330
18C7A
100
AcDbEntity
  8
部品1
100
AcDbLine
 10
1534.470589276487
 20
2702.494269174615
 30
0.0
 11
1509.470589276487
 21
2702.494269174615
 31
0.0
  0
LINE
  5
18D3F
330
18C7A
100
AcDbEntity
  8
部品1
 48
50.0
100
AcDbLine
 10
1536.470589276487
 20
3152.494269174611
 30
0.0
 11
1536.470589276487
 21
2702.494269174615
 31
0.0
  0
LINE
  5
18D40
330
18C7A
100
AcDbEntity
  8
部品1
 48
50.0
100
AcDbLine
 10
1508.470589276487
 20
3152.494269174607
 30
0.0
 11
1508.470589276487
 21
2702.494269174615
 31
0.0
  0
LINE
  5
18D41
330
18C7A
100
AcDbEntity
  8
部品1
 48
50.0
100
AcDbLine
 10
1534.470589276487
 20
3154.494269174618
 30
0.0
 11
1534.470589276487
 21
2702.494269174615
 31
0.0
  0
LINE
  5
18D42
330
18C7A
100
AcDbEntity
  8
部品1
 48
50.0
100
AcDbLine
 10
1509.470589276487
 20
3154.494269174615
 30
0.0
 11
1509.470589276487
 21
2702.494269174615
 31
0.0
  0
LINE
  5
18D43
330
18C7A
100
AcDbEntity
  8
部品1
100
AcDbLine
 10
3411.970589276556
 20
1392.494269174582
 30
0.0
 11
3411.970589276556
 21
1420.494269174596
 31
0.0
  0
LINE
  5
18D44
330
18C7A
100
AcDbEntity
  8
部品1
100
AcDbLine
 10
1311.970589276523
 20
1392.494269174596
 30
0.0
 11
1311.970589276523
 21
1420.494269174596
 31
0.0
  0
LINE
  5
18D45
330
18C7A
100
AcDbEntity
  8
部品1
100
AcDbLine
 10
891.9705892765232
 20
1392.494269174596
 30
0.0
 11
891.9705892765232
 21
1420.494269174596
 31
0.0
  0
LINE
  5
18D46
330
18C7A
100
AcDbEntity
  8
部品1
100
AcDbLine
 10
3411.97058927652
 20
3182.494269174477
 30
0.0
 11
3411.970589276523
 21
3154.494269174477
 31
0.0
  0
LINE
  5
18D47
330
18C7A
100
AcDbEntity
  8
部品1
100
AcDbLine
 10
2571.97058927652
 20
3182.494269174477
 30
0.0
 11
2571.970589276523
 21
3154.494269174477
 31
0.0
  0
LINE
  5
18D48
330
18C7A
100
AcDbEntity
  8
部品1
100
AcDbLine
 10
2991.97058927652
 20
3182.494269174477
 30
0.0
 11
2991.970589276523
 21
3154.494269174477
 31
0.0
  0
LINE
  5
18D49
330
18C7A
100
AcDbEntity
  8
部品1
100
AcDbLine
 10
2151.970589276519
 20
3182.494269174477
 30
0.0
 11
2151.970589276523
 21
3154.494269174477
 31
0.0
  0
LINE
  5
18D4A
330
18C7A
100
AcDbEntity
  8
部品1
100
AcDbLine
 10
1731.970589276519
 20
3182.494269174477
 30
0.0
 11
1731.970589276523
 21
3154.494269174477
 31
0.0
  0
LINE
  5
18D4B
330
18C7A
100
AcDbEntity
  8
部品1
100
AcDbLine
 10
1311.970589276519
 20
3182.494269174477
 30
0.0
 11
1311.970589276523
 21
3154.494269174477
 31
0.0
  0
LINE
  5
18D4C
330
18C7A
100
AcDbEntity
  8
部品1
100
AcDbLine
 10
891.9705892765195
 20
3182.494269174477
 30
0.0
 11
891.9705892765232
 21
3154.494269174477
 31
0.0
  0
LINE
  5
18D4D
330
18C7A
100
AcDbEntity
  8
部品1
100
AcDbLine
 10
471.9705892765232
 20
1392.494269174596
 30
0.0
 11
471.9705892765232
 21
1420.494269174596
 31
0.0
  0
LINE
  5
18D4E
330
18C7A
100
AcDbEntity
  8
部品1
100
AcDbLine
 10
444.9705892765305
 20
1420.494269174558
 30
0.0
 11
3858.970589276556
 21
1420.494269174596
 31
0.0
  0
LINE
  5
18D4F
330
18C7A
100
AcDbEntity
  8
部品1
100
AcDbLine
 10
3831.970589276556
 20
1392.494269174596
 30
0.0
 11
3831.970589276556
 21
1420.494269174596
 31
0.0
  0
LINE
  5
18D50
330
18C7A
100
AcDbEntity
  8
部品1
100
AcDbLine
 10
3858.970589276556
 20
1447.494269174593
 30
0.0
 11
3886.970589276556
 21
1447.494269174593
 31
0.0
  0
LINE
  5
18D51
330
18C7A
100
AcDbEntity
  8
部品1
100
AcDbLine
 10
3858.970589276556
 20
1867.494269174607
 30
0.0
 11
3886.970589276556
 21
1867.494269174607
 31
0.0
  0
LINE
  5
18D52
330
18C7A
100
AcDbEntity
  8
部品1
100
AcDbLine
 10
444.9705892765305
 20
1867.49426917448
 30
0.0
 11
416.9705892765305
 21
1867.49426917448
 31
0.0
  0
LINE
  5
18D53
330
18C7A
100
AcDbEntity
  8
部品1
100
AcDbLine
 10
3830.470589276541
 20
1867.49426917458
 30
0.0
 11
473.4705892765396
 21
1867.49426917448
 31
0.0
  0
LINE
  5
18D54
330
18C7A
100
AcDbEntity
  8
部品1
100
AcDbLine
 10
3830.470589276541
 20
2287.49426917458
 30
0.0
 11
473.4705892765396
 21
2287.49426917448
 31
0.0
  0
LINE
  5
18D55
330
18C7A
100
AcDbEntity
  8
部品1
100
AcDbLine
 10
444.9705892765305
 20
2287.49426917448
 30
0.0
 11
416.9705892765305
 21
2287.49426917448
 31
0.0
  0
LINE
  5
18D56
330
18C7A
100
AcDbEntity
  8
部品1
100
AcDbLine
 10
3858.970589276556
 20
2287.494269174608
 30
0.0
 11
3886.970589276556
 21
2287.494269174608
 31
0.0
  0
LINE
  5
18D57
330
18C7A
100
AcDbEntity
  8
部品1
 48
50.0
100
AcDbLine
 10
2151.970589276551
 20
2702.494269174586
 30
0.0
 11
2151.970589276581
 21
1448.994269174494
 31
0.0
  0
LINE
  5
18D58
330
18C7A
100
AcDbEntity
  8
破線
 48
10.0
100
AcDbLine
 10
2959.470589276535
 20
1472.494269174522
 30
0.0
 11
2176.970589276532
 21
1472.494269174505
 31
0.0
  0
LINE
  5
18D59
330
18C7A
100
AcDbEntity
  8
破線
 48
10.0
100
AcDbLine
 10
3009.47058927653
 20
1448.994269174509
 30
0.0
 11
3009.47058927653
 21
2702.494269174615
 31
0.0
  0
LINE
  5
18D5A
330
18C7A
100
AcDbEntity
  8
破線
 48
10.0
100
AcDbLine
 10
2959.470589276535
 20
1448.994269174505
 30
0.0
 11
2959.470589276531
 21
2702.494269174615
 31
0.0
  0
LINE
  5
18D5B
330
18C7A
100
AcDbEntity
  8
破線
 48
10.0
100
AcDbLine
 10
1344.47058927653
 20
1448.994269174509
 30
0.0
 11
1344.47058927653
 21
2702.494269174615
 31
0.0
  0
LINE
  5
18D5C
330
18C7A
100
AcDbEntity
  8
破線
 48
10.0
100
AcDbLine
 10
1294.470589276534
 20
1448.994269174505
 30
0.0
 11
1294.47058927653
 21
2702.494269174615
 31
0.0
  0
DIMENSION
  5
18D5D
330
18C7A
100
AcDbEntity
  8
寸法
100
AcDbDimension
  2
*D13
 10
1451.234916278005
 20
2488.887829538828
 30
0.0
 11
916.0604668248634
 21
2488.887829538828
 31
0.0
 12
-3742.925985830444
 22
-6453.628869860112
 32
0.0
 70
   128
 71
     5
 42
1062.99999999993
  3
INABA_S40G
100
AcDbAlignedDimension
 13
445.4705892765559
 23
2702.494269174505
 33
0.0
 14
1508.470589276486
 24
2702.494269174558
 34
0.0
100
AcDbRotatedDimension
1001
ACAD
1000
DSTYLE
1002
{
1002
}
  0
LINE
  5
18D5E
330
18C7A
100
AcDbEntity
  8
破線
 48
10.0
100
AcDbLine
 10
1294.470589276534
 20
1472.494269174469
 30
0.0
 11
496.9705892765414
 21
1472.494269174476
 31
0.0
  0
LINE
  5
18D5F
330
18C7A
100
AcDbEntity
  8
部品1
100
AcDbLine
 10
3831.970589276556
 20
3182.494269174604
 30
0.0
 11
3831.970589276556
 21
3154.494269174604
 31
0.0
  0
LINE
  5
18D60
330
18C7A
100
AcDbEntity
  8
部品1
100
AcDbLine
 10
3831.970589276556
 20
3182.494269174626
 30
0.0
 11
3831.970589276556
 21
3154.494269174626
 31
0.0
  0
LINE
  5
18D61
330
18C7A
100
AcDbEntity
  8
部品1
100
AcDbLine
 10
3858.970589276556
 20
3127.494269174607
 30
0.0
 11
3886.970589276556
 21
3127.494269174607
 31
0.0
  0
LINE
  5
18D62
330
18C7A
100
AcDbEntity
  8
部品1
100
AcDbLine
 10
3858.970589276556
 20
2707.494269174608
 30
0.0
 11
3886.970589276556
 21
2707.494269174608
 31
0.0
  0
LINE
  5
18D63
330
18C7A
100
AcDbEntity
  8
部品1
100
AcDbLine
 10
3858.470589276556
 20
3152.494269174604
 30
0.0
 11
3858.470589276556
 21
2702.494269174608
 31
0.0
  0
LINE
  5
18D64
330
18C7A
100
AcDbEntity
  8
部品1
100
AcDbLine
 10
3886.970589276533
 20
1447.494269174593
 30
0.0
 11
3886.970589276531
 21
1392.494269174596
 31
0.0
  0
LINE
  5
18D65
330
18C7A
100
AcDbEntity
  8
部品1
 48
50.0
100
AcDbLine
 10
3830.470589276556
 20
1448.994269174596
 30
0.0
 11
3858.970589276554
 21
1420.494269174596
 31
0.0
  0
LINE
  5
18D66
330
18C7A
100
AcDbEntity
  8
部品1
100
AcDbLine
 10
3886.970589276531
 20
1392.494269174596
 30
0.0
 11
3835.970589276531
 21
1392.494269174596
 31
0.0
  0
LINE
  5
18D67
330
18C7A
100
AcDbEntity
  8
部品1
100
AcDbLine
 10
3858.970589276533
 20
1447.494269174593
 30
0.0
 11
3886.970589276531
 21
1447.494269174593
 31
0.0
  0
LINE
  5
18D68
330
18C7A
100
AcDbEntity
  8
部品1
100
AcDbLine
 10
3886.970589276556
 20
3182.494269174604
 30
0.0
 11
3886.970589276531
 21
1392.494269174596
 31
0.0
  0
DIMENSION
  5
18D69
330
18C7A
100
AcDbEntity
  8
寸法
100
AcDbDimension
  2
*D12
 10
4534.396935010967
 20
1447.494269174593
 30
0.0
 11
4534.396935010965
 21
2287.4942691746
 31
0.0
 12
-3742.925985830444
 22
-6453.628869860112
 32
0.0
 70
   128
  1
4X420=<>
 71
     5
 42
1680.000000000014
  3
INABA_S40G
100
AcDbAlignedDimension
 13
3886.970589276556
 23
3127.494269174607
 33
0.0
 14
3886.970589276531
 24
1447.494269174593
 34
0.0
 50
90.0
100
AcDbRotatedDimension
1001
ACAD
1000
DSTYLE
1002
{
1002
}
  0
LINE
  5
18D6A
330
18C7A
100
AcDbEntity
  8
部品1
100
AcDbLine
 10
3858.970589276556
 20
3154.494269174604
 30
0.0
 11
3858.970589276534
 21
1420.494269174596
 31
0.0
  0
DIMENSION
  5
18D6B
330
18C7A
100
AcDbEntity
  8
寸法
100
AcDbDimension
  2
*D11
 10
4213.82831513858
 20
2607.276453505718
 30
0.0
 11
4113.828315138579
 21
2832.276453505718
 31
0.0
 12
-3742.925985830444
 22
-6453.628869860112
 32
0.0
 71
     5
 42
449.9999999999963
  3
INABA_S40G
100
AcDbAlignedDimension
 13
3858.470589276556
 23
3152.494269174604
 33
0.0
 14
3858.470589276556
 24
2702.494269174608
 34
0.0
 50
90.0
100
AcDbRotatedDimension
1001
ACAD
1000
DSTYLE
1002
{
1002
}
  0
LINE
  5
18D6C
330
18C7A
100
AcDbEntity
  8
部品1
100
AcDbLine
 10
3830.470589276547
 20
2702.494269174608
 30
0.0
 11
3830.470589276556
 21
1448.994269174596
 31
0.0
  0
LINE
  5
18D6D
330
18C7A
100
AcDbEntity
  8
破線
 48
10.0
100
AcDbLine
 10
3806.970589276549
 20
2702.494269174608
 30
0.0
 11
3806.970589276558
 21
1472.494269174593
 31
0.0
  0
LINE
  5
18D6E
330
18C7A
100
AcDbEntity
  8
部品1
100
AcDbLine
 10
2769.470589276556
 20
3146.494269174608
 30
0.0
 11
2794.470589276556
 21
3146.494269174611
 31
0.0
  0
LINE
  5
18D6F
330
18C7A
100
AcDbEntity
  8
部品1
100
AcDbLine
 10
2810.970589276556
 20
3172.494269174611
 30
0.0
 11
2816.970589276556
 21
3172.494269174611
 31
0.0
  0
LINE
  5
18D70
330
18C7A
100
AcDbEntity
  8
部品1
100
AcDbLine
 10
2816.970589276556
 20
3172.494269174611
 30
0.0
 11
2816.970589276556
 21
3154.494269174611
 31
0.0
  0
LINE
  5
18D71
330
18C7A
100
AcDbEntity
  8
部品1
100
AcDbLine
 10
2746.970589276556
 20
3172.494269174611
 30
0.0
 11
2752.970589276556
 21
3172.494269174611
 31
0.0
  0
LINE
  5
18D72
330
18C7A
100
AcDbEntity
  8
部品1
100
AcDbLine
 10
2746.970589276556
 20
3172.494269174611
 30
0.0
 11
2746.970589276556
 21
3154.494269174611
 31
0.0
  0
LINE
  5
18D73
330
18C7A
100
AcDbEntity
  8
部品1
100
AcDbLine
 10
2769.470589276556
 20
2702.494269174615
 30
0.0
 11
2794.470589276556
 21
2702.494269174615
 31
0.0
  0
LINE
  5
18D74
330
18C7A
100
AcDbEntity
  8
部品1
 48
50.0
100
AcDbLine
 10
2794.470589276556
 20
3154.494269174615
 30
0.0
 11
2794.470589276556
 21
2702.494269174615
 31
0.0
  0
LINE
  5
18D75
330
18C7A
100
AcDbEntity
  8
部品1
 48
50.0
100
AcDbLine
 10
2769.470589276554
 20
3154.494269174618
 30
0.0
 11
2769.470589276556
 21
2702.494269174615
 31
0.0
  0
LINE
  5
18D76
330
18C7A
100
AcDbEntity
  8
部品1
 48
50.0
100
AcDbLine
 10
2795.470589276556
 20
3152.494269174607
 30
0.0
 11
2795.470589276556
 21
2702.494269174615
 31
0.0
  0
LINE
  5
18D77
330
18C7A
100
AcDbEntity
  8
部品1
 48
50.0
100
AcDbLine
 10
2767.470589276556
 20
3152.494269174611
 30
0.0
 11
2767.470589276556
 21
2702.494269174615
 31
0.0
  0
LINE
  5
18D78
330
18C7A
100
AcDbEntity
  8
破線
 48
10.0
100
AcDbLine
 10
2176.97058927653
 20
1448.994269174509
 30
0.0
 11
2176.97058927653
 21
2702.494269174588
 31
0.0
  0
LINE
  5
18D79
330
18C7A
100
AcDbEntity
  8
破線
 48
10.0
100
AcDbLine
 10
2126.970589276534
 20
1448.994269174505
 30
0.0
 11
2126.970589276531
 21
2702.494269174586
 31
0.0
  0
LINE
  5
18D7A
330
18C7A
100
AcDbEntity
  8
部品1
100
AcDbLine
 10
2794.470589276556
 20
3154.494269174622
 30
0.0
 11
3858.970589276556
 21
3154.494269174604
 31
0.0
  0
LINE
  5
18D7B
330
18C7A
100
AcDbEntity
  8
細線
 48
50.0
100
AcDbLine
 10
3858.470589276556
 20
2702.494269174608
 30
0.0
 11
2795.470589276556
 21
3152.494269174607
 31
0.0
  0
LINE
  5
18D7C
330
18C7A
100
AcDbEntity
  8
部品1
100
AcDbLine
 10
2795.470589276555
 20
2702.494269174615
 30
0.0
 11
3858.470589276556
 21
2702.494269174608
 31
0.0
  0
LINE
  5
18D7D
330
18C7A
100
AcDbEntity
  8
部品1
100
AcDbLine
 10
2795.470589276556
 20
3152.494269174611
 30
0.0
 11
3858.470589276556
 21
3152.494269174604
 31
0.0
  0
LINE
  5
18D7E
330
18C7A
100
AcDbEntity
  8
細線
 48
50.0
100
AcDbLine
 10
3858.470589276556
 20
3152.494269174604
 30
0.0
 11
2795.470589276555
 21
2702.494269174615
 31
0.0
  0
DIMENSION
  5
18D7F
330
18C7A
100
AcDbEntity
  8
寸法
100
AcDbDimension
  2
*D10
 10
3801.234916278101
 20
2488.887829538937
 30
0.0
 11
3318.360544398907
 21
2488.887829538937
 31
0.0
 12
-3742.925985830444
 22
-6453.628869860112
 32
0.0
 70
   128
 71
     5
 42
1063.000000000012
  3
INABA_S40G
100
AcDbAlignedDimension
 13
2795.470589276555
 23
2702.494269174615
 33
0.0
 14
3858.470589276567
 24
2702.494269174608
 34
0.0
100
AcDbRotatedDimension
1001
ACAD
1000
DSTYLE
1002
{
1002
}
  0
LINE
  5
18D80
330
18C7A
100
AcDbEntity
  8
破線
 48
10.0
100
AcDbLine
 10
3806.970589276556
 20
1472.494269174594
 30
0.0
 11
3009.47058927653
 21
1472.494269174523
 31
0.0
  0
DIMENSION
  5
18D81
330
18C7A
100
AcDbEntity
  8
寸法
100
AcDbDimension
  2
*D9
 10
4534.396935010941
 20
1392.494269174596
 30
0.0
 11
4534.39693501094
 21
1084.008987800356
 31
0.0
 12
-3742.925985830444
 22
-6453.628869860112
 32
0.0
 70
   128
 71
     5
 42
54.99999999999636
  3
INABA_S40G
100
AcDbAlignedDimension
 13
3886.970589276531
 23
1447.494269174593
 33
0.0
 14
3886.970589276531
 24
1392.494269174596
 34
0.0
 50
90.0
100
AcDbRotatedDimension
1001
ACAD
1000
DSTYLE
1002
{
1002
}
  0
LINE
  5
18D82
330
18C7A
100
AcDbEntity
  8
部品1
100
AcDbLine
 10
471.9705892765196
 20
3182.494269174477
 30
0.0
 11
471.9705892765232
 21
3154.494269174477
 31
0.0
  0
LINE
  5
18D83
330
18C7A
100
AcDbEntity
  8
部品1
100
AcDbLine
 10
471.9705892765559
 20
3182.494269174509
 30
0.0
 11
471.9705892765559
 21
3154.494269174509
 31
0.0
  0
LINE
  5
18D84
330
18C7A
100
AcDbEntity
  8
部品1
100
AcDbLine
 10
444.9705892765232
 20
3127.49426917448
 30
0.0
 11
416.9705892765232
 21
3127.49426917448
 31
0.0
  0
LINE
  5
18D85
330
18C7A
100
AcDbEntity
  8
部品1
100
AcDbLine
 10
444.9705892765305
 20
2707.49426917448
 30
0.0
 11
416.9705892765305
 21
2707.49426917448
 31
0.0
  0
LINE
  5
18D86
330
18C7A
100
AcDbEntity
  8
部品1
 48
50.0
100
AcDbLine
 10
445.4705892765542
 20
3152.494269174506
 30
0.0
 11
445.4705892765559
 21
2702.494269174505
 31
0.0
  0
LINE
  5
18D87
330
18C7A
100
AcDbEntity
  8
部品1
 48
50.0
100
AcDbLine
 10
473.470589276545
 20
1448.994269174573
 30
0.0
 11
444.970589276545
 21
1420.494269174574
 31
0.0
  0
LINE
  5
18D88
330
18C7A
100
AcDbEntity
  8
部品1
100
AcDbLine
 10
471.9705892765232
 20
1392.494269174465
 30
0.0
 11
416.9705892765486
 21
1392.494269174465
 31
0.0
  0
LINE
  5
18D89
330
18C7A
100
AcDbEntity
  8
部品1
100
AcDbLine
 10
444.9705892765305
 20
1447.494269174429
 30
0.0
 11
416.9705892765469
 21
1447.494269174429
 31
0.0
  0
LINE
  5
18D8A
330
18C7A
100
AcDbEntity
  8
部品1
100
AcDbLine
 10
444.9705892765305
 20
1447.494269174465
 30
0.0
 11
416.9705892765469
 21
1447.494269174465
 31
0.0
  0
LINE
  5
18D8B
330
18C7A
100
AcDbEntity
  8
部品1
100
AcDbLine
 10
444.9705892765469
 20
1447.49426917448
 30
0.0
 11
416.9705892765469
 21
1447.49426917448
 31
0.0
  0
LINE
  5
18D8C
330
18C7A
100
AcDbEntity
  8
部品1
100
AcDbLine
 10
416.9705892765469
 20
1447.494269174429
 30
0.0
 11
416.9705892765486
 21
1392.494269174433
 31
0.0
  0
LINE
  5
18D8D
330
18C7A
100
AcDbEntity
  8
部品1
100
AcDbLine
 10
416.9705892765196
 20
3182.494269174477
 30
0.0
 11
416.9705892765486
 21
1392.494269174465
 31
0.0
  0
LINE
  5
18D8E
330
18C7A
100
AcDbEntity
  8
部品1
100
AcDbLine
 10
444.9705892765305
 20
1420.494269174556
 30
0.0
 11
444.9705892765559
 21
3154.494269174509
 31
0.0
  0
LINE
  5
18D8F
330
18C7A
100
AcDbEntity
  8
部品1
100
AcDbLine
 10
473.4705892765323
 20
2702.494269174608
 30
0.0
 11
473.470589276545
 21
1448.994269174571
 31
0.0
  0
LINE
  5
18D90
330
18C7A
100
AcDbEntity
  8
破線
 48
10.0
100
AcDbLine
 10
496.9705892765305
 20
2702.494269174608
 30
0.0
 11
496.9705892765451
 21
1472.494269174476
 31
0.0
  0
DIMENSION
  5
18D91
330
18C7A
100
AcDbEntity
  8
寸法
100
AcDbDimension
  2
*D8
 10
3886.970589276531
 20
410.7433333855515
 30
0.0
 11
2168.197775309287
 21
410.7433333855515
 31
0.0
 12
-3742.925985830444
 22
-6453.628869860112
 32
0.0
 70
   128
 71
     5
 42
3469.999999999982
  3
INABA_S40G
100
AcDbAlignedDimension
 13
416.9705892765486
 23
1392.494269174433
 33
0.0
 14
3886.970589276531
 24
1392.49426917456
 34
0.0
100
AcDbRotatedDimension
1001
ACAD
1000
DSTYLE
1002
{
1070
   341
1005
0
1002
}
  0
LINE
  5
18D92
330
18C7A
100
AcDbEntity
  8
部品1
100
AcDbLine
 10
444.9705892765559
 20
3154.494269174624
 30
0.0
 11
1509.470589276487
 21
3154.494269174626
 31
0.0
  0
LINE
  5
18D93
330
18C7A
100
AcDbEntity
  8
部品1
100
AcDbLine
 10
3886.970589276531
 20
1392.494269174596
 30
0.0
 11
3411.970589276556
 21
1392.494269174582
 31
0.0
  0
LINE
  5
18D94
330
18C7A
100
AcDbEntity
  8
部品1
100
AcDbLine
 10
416.9705892765559
 20
3182.494269174509
 30
0.0
 11
3886.970589276556
 21
3182.494269174604
 31
0.0
  0
LINE
  5
18D95
330
18C7A
100
AcDbEntity
  8
部品1
100
AcDbLine
 10
445.4705892765559
 20
2702.494269174509
 30
0.0
 11
1508.470589276487
 21
2702.494269174558
 31
0.0
  0
LINE
  5
18D96
330
18C7A
100
AcDbEntity
  8
細線
 48
50.0
100
AcDbLine
 10
2767.470589276556
 20
3152.494269174611
 30
0.0
 11
1536.470589276487
 21
2702.494269174558
 31
0.0
  0
LINE
  5
18D97
330
18C7A
100
AcDbEntity
  8
部品1
100
AcDbLine
 10
445.4705892765542
 20
3152.494269174509
 30
0.0
 11
1508.470589276485
 21
3152.494269174558
 31
0.0
  0
LINE
  5
18D98
330
18C7A
100
AcDbEntity
  8
細線
 48
50.0
100
AcDbLine
 10
2767.470589276554
 20
2702.494269174615
 30
0.0
 11
1536.470589276485
 21
3152.494269174558
 31
0.0
  0
LINE
  5
18D99
330
18C7A
100
AcDbEntity
  8
破線
 48
10.0
100
AcDbLine
 10
2126.970589276534
 20
1472.494269174502
 30
0.0
 11
1344.47058927653
 21
1472.494269174473
 31
0.0
  0
LINE
  5
18D9A
330
18C7A
100
AcDbEntity
  8
部品1
100
AcDbLine
 10
3830.470589276556
 20
1448.994269174596
 30
0.0
 11
473.4705892764487
 21
1448.994269174476
 31
0.0
  0
DIMENSION
  5
18D9B
330
18C7A
100
AcDbEntity
  8
寸法
100
AcDbDimension
  2
*D7
 10
471.970589276555
 20
3698.302488799491
 30
0.0
 11
108.4853079022819
 21
3698.302488799491
 31
0.0
 12
-3742.925985830444
 22
-6453.628869860112
 32
0.0
 70
   128
 71
     5
 42
55.00000000003456
  3
INABA_S40G
100
AcDbAlignedDimension
 13
416.9705892765205
 23
3182.494269174509
 33
0.0
 14
471.970589276555
 24
3182.494269174509
 34
0.0
100
AcDbRotatedDimension
1001
ACAD
1000
DSTYLE
1002
{
1002
}
  0
DIMENSION
  5
18D9C
330
18C7A
100
AcDbEntity
  8
寸法
100
AcDbDimension
  2
*D6
 10
4534.396935010967
 20
3127.494269174607
 30
0.0
 11
4534.396935010965
 21
3490.979550548844
 31
0.0
 12
-3742.925985830444
 22
-6453.628869860112
 32
0.0
 70
   128
 71
     5
 42
54.99999999999636
  3
INABA_S40G
100
AcDbAlignedDimension
 13
3886.970589276556
 23
3182.494269174604
 33
0.0
 14
3886.970589276556
 24
3127.494269174607
 34
0.0
 50
90.0
100
AcDbRotatedDimension
1001
ACAD
1000
DSTYLE
1002
{
1002
}
  0
DIMENSION
  5
18D9D
330
18C7A
100
AcDbEntity
  8
寸法
100
AcDbDimension
  2
*D5
 10
3886.970589276556
 20
3698.302488799589
 30
0.0
 11
4195.455870650794
 21
3698.302488799589
 31
0.0
 12
-3742.925985830444
 22
-6453.628869860112
 32
0.0
 70
   128
 71
     5
 42
55.0
  3
INABA_S40G
100
AcDbAlignedDimension
 13
3831.970589276556
 23
3182.494269174604
 33
0.0
 14
3886.970589276556
 24
3182.494269174604
 34
0.0
100
AcDbRotatedDimension
1001
ACAD
1000
DSTYLE
1002
{
1002
}
  0
DIMENSION
  5
18D9E
330
18C7A
100
AcDbEntity
  8
寸法
100
AcDbDimension
  2
*D4
 10
3831.970589276556
 20
3698.302488799607
 30
0.0
 11
2151.970589276555
 21
3698.302488799607
 31
0.0
 12
-3742.925985830444
 22
-6453.628869860112
 32
0.0
 70
   128
  1
8X420=<>
 71
     5
 42
3360.000000000001
  3
INABA_S40G
100
AcDbAlignedDimension
 13
471.970589276555
 23
3182.494269174509
 33
0.0
 14
3831.970589276556
 24
3182.494269174604
 34
0.0
100
AcDbRotatedDimension
1001
ACAD
1000
DSTYLE
1002
{
1002
}
  0
DIMENSION
  5
18D9F
330
18C7A
100
AcDbEntity
  8
寸法
100
AcDbDimension
  2
*D3
 10
4899.503876750603
 20
1392.494269174596
 30
0.0
 11
4899.503876750601
 21
2287.4942691746
 31
0.0
 12
-3742.925985830444
 22
-6453.628869860112
 32
0.0
 70
   128
 71
     5
 42
1790.000000000007
  3
INABA_S40G
100
AcDbAlignedDimension
 13
3886.970589276556
 23
3182.494269174604
 33
0.0
 14
3886.970589276531
 24
1392.494269174596
 34
0.0
 50
90.0
100
AcDbRotatedDimension
1001
ACAD
1000
DSTYLE
1002
{
1002
}
  0
ENDBLK
  5
18DA1
330
18C7A
100
AcDbEntity
  8
0
 48
50.0
100
AcDbBlockEnd
  0
BLOCK
  5
1C4CB
330
1C4CA
100
AcDbEntity
  8
0
 48
50.0
100
AcDbBlockBegin
  2
_NONE
 70
     0
 10
0.0
 20
0.0
 30
0.0
  3
_NONE
  1

  0
CIRCLE
  5
1C4CC
330
1C4CA
100
AcDbEntity
  8
0
  6
ByBlock
 62
     0
 48
50.0
100
AcDbCircle
 10
0.0
 20
0.0
 30
0.0
 40
0.25
  0
ENDBLK
  5
1C4CD
330
1C4CA
100
AcDbEntity
  8
0
 48
50.0
100
AcDbBlockEnd
  0
BLOCK
  5
20DEE
330
20DE2
100
AcDbEntity
  8
0
 48
50.0
100
AcDbBlockBegin
  2
*D19
 70
     1
 10
0.0
 20
0.0
 30
0.0
  3
*D19
  1

  0
LINE
  5
27A1D
330
20DE2
100
AcDbEntity
  8
寸法
 62
     0
 48
50.0
370
    -2
100
AcDbLine
 10
12028.6
 20
7729.187358626259
 30
0.0
 11
12028.6
 21
8727.40768068518
 31
0.0
  0
LINE
  5
27A1E
330
20DE2
100
AcDbEntity
  8
寸法
 62
     0
 48
50.0
370
    -2
100
AcDbLine
 10
12073.59999999999
 20
8455.45381672017
 30
0.0
 11
12073.59999999999
 21
8727.40768068518
 31
0.0
  0
LINE
  5
27A1F
330
20DE2
100
AcDbEntity
  8
寸法
 62
     0
 48
50.0
370
    -2
100
AcDbLine
 10
12028.6
 20
8667.407680685181
 30
0.0
 11
11928.6
 21
8667.407680685181
 31
0.0
  0
LINE
  5
27A20
330
20DE2
100
AcDbEntity
  8
寸法
 62
     0
 48
50.0
370
    -2
100
AcDbLine
 10
12073.59999999999
 20
8667.407680685181
 30
0.0
 11
12410.94924240491
 21
8667.407680685181
 31
0.0
  0
LINE
  5
27A21
330
20DE2
100
AcDbEntity
  8
寸法
 62
     0
 48
50.0
370
    -2
100
AcDbLine
 10
12028.6
 20
8667.407680685181
 30
0.0
 11
12073.59999999999
 21
8667.407680685181
 31
0.0
  0
INSERT
  5
27A22
330
20DE2
100
AcDbEntity
  8
寸法
 62
     0
 48
50.0
370
    -2
100
AcDbBlockReference
  2
_DOTSMALL
 10
12028.6
 20
8667.407680685181
 30
0.0
 41
100.0
 42
100.0
 43
100.0
  0
INSERT
  5
27A23
330
20DE2
100
AcDbEntity
  8
寸法
 62
     0
 48
50.0
370
    -2
100
AcDbBlockReference
  2
_DOTSMALL
 10
12073.59999999999
 20
8667.407680685181
 30
0.0
 41
100.0
 42
100.0
 43
100.0
 50
180.0
  0
MTEXT
  5
27A24
330
20DE2
100
AcDbEntity
  8
寸法
 62
     7
 48
50.0
100
AcDbMText
 10
12344.77462120245
 20
8767.407680685181
 30
0.0
 40
120.0
 41
0.0
 71
     5
 72
     1
  1
\A1;a
  7
STYLE1
 73
     1
 44
1.0
1001
ACAD
1000
MTEXTBEGIN
1070
    73
1070
     1
1070
    44
1040
1.0
1070
    74
1070
     0
1000
MTEXTEND
  0
POINT
  5
27A25
330
20DE2
100
AcDbEntity
  8
DEFPOINTS
 62
     0
 48
50.0
100
AcDbPoint
 10
12028.6
 20
7709.187358626259
 30
0.0
  0
POINT
  5
27A26
330
20DE2
100
AcDbEntity
  8
DEFPOINTS
 62
     0
 48
50.0
100
AcDbPoint
 10
12073.59999999999
 20
8435.453816720169
 30
0.0
  0
POINT
  5
27A27
330
20DE2
100
AcDbEntity
  8
DEFPOINTS
 62
     0
 48
50.0
100
AcDbPoint
 10
12073.59999999999
 20
8667.407680685181
 30
0.0
  0
ENDBLK
  5
20DEF
330
20DE2
100
AcDbEntity
  8
0
 48
50.0
100
AcDbBlockEnd
  0
BLOCK
  5
20E08
330
20DFC
100
AcDbEntity
  8
0
 48
50.0
100
AcDbBlockBegin
  2
*D20
 70
     1
 10
0.0
 20
0.0
 30
0.0
  3
*D20
  1

  0
LINE
  5
27A32
330
20DFC
100
AcDbEntity
  8
寸法
 62
     0
 48
50.0
370
    -2
100
AcDbLine
 10
4373.600000000007
 20
8455.45381672017
 30
0.0
 11
4373.600000000007
 21
8727.40768068518
 31
0.0
  0
LINE
  5
27A33
330
20DFC
100
AcDbEntity
  8
寸法
 62
     0
 48
50.0
370
    -2
100
AcDbLine
 10
4418.6
 20
7729.187358626259
 30
0.0
 11
4418.6
 21
8727.40768068518
 31
0.0
  0
LINE
  5
27A34
330
20DFC
100
AcDbEntity
  8
寸法
 62
     0
 48
50.0
370
    -2
100
AcDbLine
 10
4418.6
 20
8667.407680685181
 30
0.0
 11
4518.600000000001
 21
8667.407680685181
 31
0.0
  0
LINE
  5
27A35
330
20DFC
100
AcDbEntity
  8
寸法
 62
     0
 48
50.0
370
    -2
100
AcDbLine
 10
4373.600000000007
 20
8667.407680685181
 30
0.0
 11
4036.250757595083
 21
8667.407680685181
 31
0.0
  0
LINE
  5
27A36
330
20DFC
100
AcDbEntity
  8
寸法
 62
     0
 48
50.0
370
    -2
100
AcDbLine
 10
4418.6
 20
8667.407680685181
 30
0.0
 11
4373.600000000007
 21
8667.407680685181
 31
0.0
  0
INSERT
  5
27A37
330
20DFC
100
AcDbEntity
  8
寸法
 62
     0
 48
50.0
370
    -2
100
AcDbBlockReference
  2
_DOTSMALL
 10
4418.6
 20
8667.407680685181
 30
0.0
 41
100.0
 42
100.0
 43
100.0
 50
180.0
  0
INSERT
  5
27A38
330
20DFC
100
AcDbEntity
  8
寸法
 62
     0
 48
50.0
370
    -2
100
AcDbBlockReference
  2
_DOTSMALL
 10
4373.600000000007
 20
8667.407680685181
 30
0.0
 41
100.0
 42
100.0
 43
100.0
  0
MTEXT
  5
27A39
330
20DFC
100
AcDbEntity
  8
寸法
 62
     7
 48
50.0
100
AcDbMText
 10
4102.425378797541
 20
8767.407680685181
 30
0.0
 40
120.0
 41
0.0
 71
     5
 72
     1
  1
\A1;a
  7
STYLE1
 73
     1
 44
1.0
1001
ACAD
1000
MTEXTBEGIN
1070
    73
1070
     1
1070
    44
1040
1.0
1070
    74
1070
     0
1000
MTEXTEND
  0
POINT
  5
27A3A
330
20DFC
100
AcDbEntity
  8
DEFPOINTS
 62
     0
 48
50.0
100
AcDbPoint
 10
4373.600000000007
 20
8435.453816720173
 30
0.0
  0
POINT
  5
27A3B
330
20DFC
100
AcDbEntity
  8
DEFPOINTS
 62
     0
 48
50.0
100
AcDbPoint
 10
4418.6
 20
7709.187358626259
 30
0.0
  0
POINT
  5
27A3C
330
20DFC
100
AcDbEntity
  8
DEFPOINTS
 62
     0
 48
50.0
100
AcDbPoint
 10
4418.6
 20
8667.407680685181
 30
0.0
  0
ENDBLK
  5
20E09
330
20DFC
100
AcDbEntity
  8
0
 48
50.0
100
AcDbBlockEnd
  0
BLOCK
  5
2274E
330
22742
100
AcDbEntity
  8
0
 48
50.0
100
AcDbBlockBegin
  2
*D25
 70
     1
 10
0.0
 20
0.0
 30
0.0
  3
*D25
  1

  0
LINE
  5
27A3D
330
22742
100
AcDbEntity
  8
寸法
 62
     0
 48
50.0
370
    -2
100
AcDbLine
 10
3775.665006330071
 20
7784.187358626265
 30
0.0
 11
3483.72190961068
 21
7784.187358626265
 31
0.0
  0
LINE
  5
27A3E
330
22742
100
AcDbEntity
  8
寸法
 62
     0
 48
50.0
370
    -2
100
AcDbLine
 10
4398.6
 20
7709.187358626259
 30
0.0
 11
3483.72190961068
 21
7709.187358626259
 31
0.0
  0
LINE
  5
27A3F
330
22742
100
AcDbEntity
  8
寸法
 62
     0
 48
50.0
370
    -2
100
AcDbLine
 10
3543.72190961068
 20
7784.187358626265
 30
0.0
 11
3543.72190961068
 21
7884.187358626265
 31
0.0
  0
LINE
  5
27A40
330
22742
100
AcDbEntity
  8
寸法
 62
     0
 48
50.0
370
    -2
100
AcDbLine
 10
3543.72190961068
 20
7709.187358626259
 30
0.0
 11
3543.72190961068
 21
7609.187358626259
 31
0.0
  0
LINE
  5
27A41
330
22742
100
AcDbEntity
  8
寸法
 62
     0
 48
50.0
370
    -2
100
AcDbLine
 10
3543.72190961068
 20
7784.187358626265
 30
0.0
 11
3543.72190961068
 21
7709.187358626259
 31
0.0
  0
INSERT
  5
27A42
330
22742
100
AcDbEntity
  8
寸法
 62
     0
 48
50.0
370
    -2
100
AcDbBlockReference
  2
_DOTSMALL
 10
3543.72190961068
 20
7784.187358626265
 30
0.0
 41
100.0
 42
100.0
 43
100.0
 50
270.0
  0
INSERT
  5
27A43
330
22742
100
AcDbEntity
  8
寸法
 62
     0
 48
50.0
370
    -2
100
AcDbBlockReference
  2
_DOTSMALL
 10
3543.72190961068
 20
7709.187358626259
 30
0.0
 41
100.0
 42
100.0
 43
100.0
 50
90.0
  0
MTEXT
  5
27A44
330
22742
100
AcDbEntity
  8
寸法
 62
     7
 48
50.0
100
AcDbMText
 10
3443.721909610679
 20
7746.687358626262
 30
0.0
 40
120.0
 41
0.0
 71
     5
 72
     1
  1
\A1;c
  7
STYLE1
 11
0.0000000000000001
 21
1.0
 31
0.0
 73
     1
 44
1.0
1001
ACAD
1000
MTEXTBEGIN
1070
    73
1070
     1
1070
    44
1040
1.0
1070
    74
1070
     0
1000
MTEXTEND
  0
POINT
  5
27A45
330
22742
100
AcDbEntity
  8
DEFPOINTS
 62
     0
 48
50.0
100
AcDbPoint
 10
3795.665006330072
 20
7784.187358626265
 30
0.0
  0
POINT
  5
27A46
330
22742
100
AcDbEntity
  8
DEFPOINTS
 62
     0
 48
50.0
100
AcDbPoint
 10
4418.6
 20
7709.187358626259
 30
0.0
  0
POINT
  5
27A47
330
22742
100
AcDbEntity
  8
DEFPOINTS
 62
     0
 48
50.0
100
AcDbPoint
 10
3543.72190961068
 20
7709.187358626259
 30
0.0
  0
ENDBLK
  5
2274F
330
22742
100
AcDbEntity
  8
0
 48
50.0
100
AcDbBlockEnd
  0
BLOCK
  5
22768
330
2275C
100
AcDbEntity
  8
0
 48
50.0
100
AcDbBlockBegin
  2
*D26
 70
     1
 10
0.0
 20
0.0
 30
0.0
  3
*D26
  1

  0
LINE
  5
27A48
330
2275C
100
AcDbEntity
  8
寸法
 62
     0
 48
50.0
370
    -2
100
AcDbLine
 10
4398.6
 20
6329.18735862626
 30
0.0
 11
3483.72190961068
 21
6329.18735862626
 31
0.0
  0
LINE
  5
27A49
330
2275C
100
AcDbEntity
  8
寸法
 62
     0
 48
50.0
370
    -2
100
AcDbLine
 10
3775.665006330079
 20
6274.187358626285
 30
0.0
 11
3483.72190961068
 21
6274.187358626285
 31
0.0
  0
LINE
  5
27A4A
330
2275C
100
AcDbEntity
  8
寸法
 62
     0
 48
50.0
370
    -2
100
AcDbLine
 10
3543.72190961068
 20
6329.18735862626
 30
0.0
 11
3543.72190961068
 21
6429.18735862626
 31
0.0
  0
LINE
  5
27A4B
330
2275C
100
AcDbEntity
  8
寸法
 62
     0
 48
50.0
370
    -2
100
AcDbLine
 10
3543.72190961068
 20
6274.187358626285
 30
0.0
 11
3543.72190961068
 21
6174.187358626285
 31
0.0
  0
LINE
  5
27A4C
330
2275C
100
AcDbEntity
  8
寸法
 62
     0
 48
50.0
370
    -2
100
AcDbLine
 10
3543.72190961068
 20
6329.18735862626
 30
0.0
 11
3543.72190961068
 21
6274.187358626285
 31
0.0
  0
INSERT
  5
27A4D
330
2275C
100
AcDbEntity
  8
寸法
 62
     0
 48
50.0
370
    -2
100
AcDbBlockReference
  2
_DOTSMALL
 10
3543.72190961068
 20
6329.18735862626
 30
0.0
 41
100.0
 42
100.0
 43
100.0
 50
270.0
  0
INSERT
  5
27A4E
330
2275C
100
AcDbEntity
  8
寸法
 62
     0
 48
50.0
370
    -2
100
AcDbBlockReference
  2
_DOTSMALL
 10
3543.72190961068
 20
6274.187358626285
 30
0.0
 41
100.0
 42
100.0
 43
100.0
 50
90.0
  0
MTEXT
  5
27A4F
330
2275C
100
AcDbEntity
  8
寸法
 62
     7
 48
50.0
100
AcDbMText
 10
3443.72190961068
 20
6301.687358626274
 30
0.0
 40
120.0
 41
0.0
 71
     5
 72
     1
  1
\A1;b
  7
STYLE1
 11
0.0000000000000001
 21
1.0
 31
0.0
 73
     1
 44
1.0
1001
ACAD
1000
MTEXTBEGIN
1070
    73
1070
     1
1070
    44
1040
1.0
1070
    74
1070
     0
1000
MTEXTEND
  0
POINT
  5
27A50
330
2275C
100
AcDbEntity
  8
DEFPOINTS
 62
     0
 48
50.0
100
AcDbPoint
 10
4418.6
 20
6329.18735862626
 30
0.0
  0
POINT
  5
27A51
330
2275C
100
AcDbEntity
  8
DEFPOINTS
 62
     0
 48
50.0
100
AcDbPoint
 10
3795.665006330079
 20
6274.187358626285
 30
0.0
  0
POINT
  5
27A52
330
2275C
100
AcDbEntity
  8
DEFPOINTS
 62
     0
 48
50.0
100
AcDbPoint
 10
3543.72190961068
 20
6274.187358626285
 30
0.0
  0
ENDBLK
  5
22769
330
2275C
100
AcDbEntity
  8
0
 48
50.0
100
AcDbBlockEnd
  0
BLOCK
  5
240CF
330
240C4
100
AcDbEntity
  8
0
 48
50.0
100
AcDbBlockBegin
  2
*D27
 70
     1
 10
0.0
 20
0.0
 30
0.0
  3
*D27
  1

  0
LINE
  5
2819A
330
240C4
100
AcDbEntity
  8
寸法
 62
     0
 48
50.0
370
    -2
100
AcDbLine
 10
12028.6
 20
7164.187358626296
 30
0.0
 11
12028.6
 21
7318.78597172437
 31
0.0
  0
LINE
  5
2819B
330
240C4
100
AcDbEntity
  8
寸法
 62
     0
 48
50.0
370
    -2
100
AcDbLine
 10
11908.6
 20
7164.187358626292
 30
0.0
 11
11908.6
 21
7318.78597172437
 31
0.0
  0
LINE
  5
2819C
330
240C4
100
AcDbEntity
  8
寸法
 62
     0
 48
50.0
370
    -2
100
AcDbLine
 10
11908.6
 20
7258.78597172437
 30
0.0
 11
12028.6
 21
7258.78597172437
 31
0.0
  0
LINE
  5
2819D
330
240C4
100
AcDbEntity
  8
寸法
 62
     0
 48
50.0
370
    -2
100
AcDbLine
 10
12028.6
 20
7258.78597172437
 30
0.0
 11
12434.7062992126
 21
7258.78597172437
 31
0.0
  0
INSERT
  5
2819E
330
240C4
100
AcDbEntity
  8
寸法
 62
     0
 48
50.0
370
    -2
100
AcDbBlockReference
  2
_DOTSMALL
 10
11908.6
 20
7258.78597172437
 30
0.0
 41
100.0
 42
100.0
 43
100.0
 50
180.0
  0
INSERT
  5
2819F
330
240C4
100
AcDbEntity
  8
寸法
 62
     0
 48
50.0
370
    -2
100
AcDbBlockReference
  2
_DOTSMALL
 10
12028.6
 20
7258.78597172437
 30
0.0
 41
100.0
 42
100.0
 43
100.0
  0
MTEXT
  5
281A0
330
240C4
100
AcDbEntity
  8
寸法
 62
     7
 48
50.0
100
AcDbMText
 10
12298.65905511811
 20
7358.797782747991
 30
0.0
 40
120.0
 41
0.0
 71
     5
 72
     1
  1
\A1;120
  7
STYLE1
 73
     1
 44
1.0
1001
ACAD
1000
MTEXTBEGIN
1070
    73
1070
     1
1070
    44
1040
1.0
1070
    74
1070
     0
1000
MTEXTEND
  0
POINT
  5
281A1
330
240C4
100
AcDbEntity
  8
DEFPOINTS
 62
     0
 48
50.0
100
AcDbPoint
 10
12028.6
 20
7144.187358626297
 30
0.0
  0
POINT
  5
281A2
330
240C4
100
AcDbEntity
  8
DEFPOINTS
 62
     0
 48
50.0
100
AcDbPoint
 10
11908.6
 20
7144.187358626291
 30
0.0
  0
POINT
  5
281A3
330
240C4
100
AcDbEntity
  8
DEFPOINTS
 62
     0
 48
50.0
100
AcDbPoint
 10
11908.6
 20
7258.78597172437
 30
0.0
  0
ENDBLK
  5
240D0
330
240C4
100
AcDbEntity
  8
0
 48
50.0
100
AcDbBlockEnd
  0
BLOCK
  5
240DC
330
240D1
100
AcDbEntity
  8
0
 48
50.0
100
AcDbBlockBegin
  2
*D28
 70
     1
 10
0.0
 20
0.0
 30
0.0
  3
*D28
  1

  0
LINE
  5
28117
330
240D1
100
AcDbEntity
  8
寸法
 62
     0
 48
50.0
370
    -2
100
AcDbLine
 10
11428.59999999998
 20
6609.187358626257
 30
0.0
 11
11287.81202022565
 21
6609.187358626257
 31
0.0
  0
LINE
  5
28118
330
240D1
100
AcDbEntity
  8
寸法
 62
     0
 48
50.0
370
    -2
100
AcDbLine
 10
11428.59999999999
 20
6329.187358626278
 30
0.0
 11
11287.81202022565
 21
6329.187358626278
 31
0.0
  0
LINE
  5
28119
330
240D1
100
AcDbEntity
  8
寸法
 62
     0
 48
50.0
370
    -2
100
AcDbLine
 10
11347.81202022565
 20
6609.187358626257
 30
0.0
 11
11347.81202022565
 21
6329.187358626278
 31
0.0
  0
LINE
  5
2811A
330
240D1
100
AcDbEntity
  8
寸法
 62
     0
 48
50.0
370
    -2
100
AcDbLine
 10
11347.81202022565
 20
6329.187358626278
 30
0.0
 11
11347.81202022565
 21
5892.65290980737
 31
0.0
  0
INSERT
  5
2811B
330
240D1
100
AcDbEntity
  8
寸法
 62
     0
 48
50.0
370
    -2
100
AcDbBlockReference
  2
_DOTSMALL
 10
11347.81202022565
 20
6609.187358626257
 30
0.0
 41
100.0
 42
100.0
 43
100.0
 50
90.0
  0
INSERT
  5
2811C
330
240D1
100
AcDbEntity
  8
寸法
 62
     0
 48
50.0
370
    -2
100
AcDbBlockReference
  2
_DOTSMALL
 10
11347.81202022565
 20
6329.187358626278
 30
0.0
 41
100.0
 42
100.0
 43
100.0
 50
270.0
  0
MTEXT
  5
2811D
330
240D1
100
AcDbEntity
  8
寸法
 62
     7
 48
50.0
100
AcDbMText
 10
11247.80020920203
 20
6042.223775949105
 30
0.0
 40
120.0
 41
0.0
 71
     5
 72
     1
  1
\A1;280
  7
STYLE1
 11
0.0000000000000001
 21
1.0
 31
0.0
 73
     1
 44
1.0
1001
ACAD
1000
MTEXTBEGIN
1070
    73
1070
     1
1070
    44
1040
1.0
1070
    74
1070
     0
1000
MTEXTEND
  0
POINT
  5
2811E
330
240D1
100
AcDbEntity
  8
DEFPOINTS
 62
     0
 48
50.0
100
AcDbPoint
 10
11448.59999999998
 20
6609.187358626257
 30
0.0
  0
POINT
  5
2811F
330
240D1
100
AcDbEntity
  8
DEFPOINTS
 62
     0
 48
50.0
100
AcDbPoint
 10
11448.59999999999
 20
6329.187358626278
 30
0.0
  0
POINT
  5
28120
330
240D1
100
AcDbEntity
  8
DEFPOINTS
 62
     0
 48
50.0
100
AcDbPoint
 10
11347.81202022565
 20
6329.187358626278
 30
0.0
  0
ENDBLK
  5
240DD
330
240D1
100
AcDbEntity
  8
0
 48
50.0
100
AcDbBlockEnd
  0
BLOCK
  5
27408
330
273FE
100
AcDbEntity
  8
0
 48
50.0
100
AcDbBlockBegin
  2
*D29
 70
     1
 10
0.0
 20
0.0
 30
0.0
  3
*D29
  1

  0
LINE
  5
279D3
330
273FE
100
AcDbEntity
  8
寸法
 62
     0
 48
50.0
370
    -2
100
AcDbLine
 10
9055.600000000001
 20
7656.187358626259
 30
0.0
 11
9055.600000000001
 21
8495.45381672017
 31
0.0
  0
LINE
  5
279D4
330
273FE
100
AcDbEntity
  8
寸法
 62
     0
 48
50.0
370
    -2
100
AcDbLine
 10
7155.600000000001
 20
7656.187358626259
 30
0.0
 11
7155.600000000001
 21
8495.45381672017
 31
0.0
  0
LINE
  5
279D5
330
273FE
100
AcDbEntity
  8
寸法
 62
     0
 48
50.0
370
    -2
100
AcDbLine
 10
9055.600000000001
 20
8435.453816720169
 30
0.0
 11
7155.600000000001
 21
8435.453816720169
 31
0.0
  0
INSERT
  5
279D6
330
273FE
100
AcDbEntity
  8
寸法
 62
     0
 48
50.0
370
    -2
100
AcDbBlockReference
  2
_DOTSMALL
 10
9055.600000000001
 20
8435.453816720169
 30
0.0
 41
100.0
 42
100.0
 43
100.0
  0
INSERT
  5
279D7
330
273FE
100
AcDbEntity
  8
寸法
 62
     0
 48
50.0
370
    -2
100
AcDbBlockReference
  2
_DOTSMALL
 10
7155.600000000001
 20
8435.453816720169
 30
0.0
 41
100.0
 42
100.0
 43
100.0
 50
180.0
  0
MTEXT
  5
279D8
330
273FE
100
AcDbEntity
  8
寸法
 62
     7
 48
50.0
100
AcDbMText
 10
8105.6
 20
8535.453816720169
 30
0.0
 40
120.0
 41
0.0
 71
     5
 72
     1
  1
\A1;1900
  7
STYLE1
 73
     1
 44
1.0
1001
ACAD
1000
MTEXTBEGIN
1070
    73
1070
     1
1070
    44
1040
1.0
1070
    74
1070
     0
1000
MTEXTEND
  0
POINT
  5
279D9
330
273FE
100
AcDbEntity
  8
DEFPOINTS
 62
     0
 48
50.0
100
AcDbPoint
 10
9055.600000000001
 20
7636.187358626258
 30
0.0
  0
POINT
  5
279DA
330
273FE
100
AcDbEntity
  8
DEFPOINTS
 62
     0
 48
50.0
100
AcDbPoint
 10
7155.600000000001
 20
7636.187358626258
 30
0.0
  0
POINT
  5
279DB
330
273FE
100
AcDbEntity
  8
DEFPOINTS
 62
     0
 48
50.0
100
AcDbPoint
 10
7155.600000000001
 20
8435.453816720169
 30
0.0
  0
ENDBLK
  5
27409
330
273FE
100
AcDbEntity
  8
0
 48
50.0
100
AcDbBlockEnd
  0
BLOCK
  5
27414
330
2740A
100
AcDbEntity
  8
0
 48
50.0
100
AcDbBlockBegin
  2
*D30
 70
     1
 10
0.0
 20
0.0
 30
0.0
  3
*D30
  1

  0
LINE
  5
279CA
330
2740A
100
AcDbEntity
  8
寸法
 62
     0
 48
50.0
370
    -2
100
AcDbLine
 10
4418.6
 20
7729.187358626259
 30
0.0
 11
4418.6
 21
8727.407680685177
 31
0.0
  0
LINE
  5
279CB
330
2740A
100
AcDbEntity
  8
寸法
 62
     0
 48
50.0
370
    -2
100
AcDbLine
 10
12028.6
 20
7729.187358626259
 30
0.0
 11
12028.6
 21
8727.407680685177
 31
0.0
  0
LINE
  5
279CC
330
2740A
100
AcDbEntity
  8
寸法
 62
     0
 48
50.0
370
    -2
100
AcDbLine
 10
4418.6
 20
8667.407680685178
 30
0.0
 11
12028.6
 21
8667.407680685178
 31
0.0
  0
INSERT
  5
279CD
330
2740A
100
AcDbEntity
  8
寸法
 62
     0
 48
50.0
370
    -2
100
AcDbBlockReference
  2
_DOTSMALL
 10
4418.6
 20
8667.407680685178
 30
0.0
 41
100.0
 42
100.0
 43
100.0
 50
180.0
  0
INSERT
  5
279CE
330
2740A
100
AcDbEntity
  8
寸法
 62
     0
 48
50.0
370
    -2
100
AcDbBlockReference
  2
_DOTSMALL
 10
12028.6
 20
8667.407680685178
 30
0.0
 41
100.0
 42
100.0
 43
100.0
  0
MTEXT
  5
279CF
330
2740A
100
AcDbEntity
  8
寸法
 62
     7
 48
50.0
100
AcDbMText
 10
8223.600000000001
 20
8767.407680685177
 30
0.0
 40
120.0
 41
0.0
 71
     5
 72
     1
  1
\A1;7610
  7
STYLE1
 73
     1
 44
1.0
1001
ACAD
1000
MTEXTBEGIN
1070
    73
1070
     1
1070
    44
1040
1.0
1070
    74
1070
     0
1000
MTEXTEND
  0
POINT
  5
279D0
330
2740A
100
AcDbEntity
  8
DEFPOINTS
 62
     0
 48
50.0
100
AcDbPoint
 10
4418.6
 20
7709.187358626259
 30
0.0
  0
POINT
  5
279D1
330
2740A
100
AcDbEntity
  8
DEFPOINTS
 62
     0
 48
50.0
100
AcDbPoint
 10
12028.6
 20
7709.187358626259
 30
0.0
  0
POINT
  5
279D2
330
2740A
100
AcDbEntity
  8
DEFPOINTS
 62
     0
 48
50.0
100
AcDbPoint
 10
12028.6
 20
8667.407680685178
 30
0.0
  0
ENDBLK
  5
27415
330
2740A
100
AcDbEntity
  8
0
 48
50.0
100
AcDbBlockEnd
  0
BLOCK
  5
27420
330
27416
100
AcDbEntity
  8
0
 48
50.0
100
AcDbBlockBegin
  2
*D31
 70
     1
 10
0.0
 20
0.0
 30
0.0
  3
*D31
  1

  0
LINE
  5
28185
330
27416
100
AcDbEntity
  8
寸法
 62
     0
 48
50.0
370
    -2
100
AcDbLine
 10
9173.600000000007
 20
7126.18735862626
 30
0.0
 11
9173.600000000007
 21
8251.796175296508
 31
0.0
  0
LINE
  5
28186
330
27416
100
AcDbEntity
  8
寸法
 62
     0
 48
50.0
370
    -2
100
AcDbLine
 10
8223.600000000008
 20
7126.18735862626
 30
0.0
 11
8223.600000000008
 21
8251.796175296508
 31
0.0
  0
LINE
  5
28187
330
27416
100
AcDbEntity
  8
寸法
 62
     0
 48
50.0
370
    -2
100
AcDbLine
 10
9173.600000000007
 20
8191.796175296508
 30
0.0
 11
8223.600000000008
 21
8191.796175296508
 31
0.0
  0
INSERT
  5
28188
330
27416
100
AcDbEntity
  8
寸法
 62
     0
 48
50.0
370
    -2
100
AcDbBlockReference
  2
_DOTSMALL
 10
9173.600000000007
 20
8191.796175296508
 30
0.0
 41
100.0
 42
100.0
 43
100.0
  0
INSERT
  5
28189
330
27416
100
AcDbEntity
  8
寸法
 62
     0
 48
50.0
370
    -2
100
AcDbBlockReference
  2
_DOTSMALL
 10
8223.600000000008
 20
8191.796175296508
 30
0.0
 41
100.0
 42
100.0
 43
100.0
 50
180.0
  0
MTEXT
  5
2818A
330
27416
100
AcDbEntity
  8
寸法
 62
     7
 48
50.0
100
AcDbMText
 10
8698.600000000007
 20
8291.796175296507
 30
0.0
 40
120.0
 41
0.0
 71
     5
 72
     1
  1
\A1;950
  7
STYLE1
 73
     1
 44
1.0
1001
ACAD
1000
MTEXTBEGIN
1070
    73
1070
     1
1070
    44
1040
1.0
1070
    74
1070
     0
1000
MTEXTEND
  0
POINT
  5
2818B
330
27416
100
AcDbEntity
  8
DEFPOINTS
 62
     0
 48
50.0
100
AcDbPoint
 10
9173.600000000007
 20
7106.187358626259
 30
0.0
  0
POINT
  5
2818C
330
27416
100
AcDbEntity
  8
DEFPOINTS
 62
     0
 48
50.0
100
AcDbPoint
 10
8223.600000000008
 20
7106.187358626259
 30
0.0
  0
POINT
  5
2818D
330
27416
100
AcDbEntity
  8
DEFPOINTS
 62
     0
 48
50.0
100
AcDbPoint
 10
8223.600000000008
 20
8191.796175296508
 30
0.0
  0
ENDBLK
  5
27421
330
27416
100
AcDbEntity
  8
0
 48
50.0
100
AcDbBlockEnd
  0
BLOCK
  5
2742C
330
27422
100
AcDbEntity
  8
0
 48
50.0
100
AcDbBlockBegin
  2
*D32
 70
     1
 10
0.0
 20
0.0
 30
0.0
  3
*D32
  1

  0
LINE
  5
2817C
330
27422
100
AcDbEntity
  8
寸法
 62
     0
 48
50.0
370
    -2
100
AcDbLine
 10
8223.600000000008
 20
7126.18735862626
 30
0.0
 11
8223.600000000008
 21
8251.796175296508
 31
0.0
  0
LINE
  5
2817D
330
27422
100
AcDbEntity
  8
寸法
 62
     0
 48
50.0
370
    -2
100
AcDbLine
 10
7273.600000000008
 20
7126.18735862626
 30
0.0
 11
7273.600000000008
 21
8251.796175296508
 31
0.0
  0
LINE
  5
2817E
330
27422
100
AcDbEntity
  8
寸法
 62
     0
 48
50.0
370
    -2
100
AcDbLine
 10
8223.600000000008
 20
8191.796175296508
 30
0.0
 11
7273.600000000008
 21
8191.796175296508
 31
0.0
  0
INSERT
  5
2817F
330
27422
100
AcDbEntity
  8
寸法
 62
     0
 48
50.0
370
    -2
100
AcDbBlockReference
  2
_DOTSMALL
 10
8223.600000000008
 20
8191.796175296508
 30
0.0
 41
100.0
 42
100.0
 43
100.0
  0
INSERT
  5
28180
330
27422
100
AcDbEntity
  8
寸法
 62
     0
 48
50.0
370
    -2
100
AcDbBlockReference
  2
_DOTSMALL
 10
7273.600000000008
 20
8191.796175296508
 30
0.0
 41
100.0
 42
100.0
 43
100.0
 50
180.0
  0
MTEXT
  5
28181
330
27422
100
AcDbEntity
  8
寸法
 62
     7
 48
50.0
100
AcDbMText
 10
7748.600000000007
 20
8291.796175296507
 30
0.0
 40
120.0
 41
0.0
 71
     5
 72
     1
  1
\A1;950
  7
STYLE1
 73
     1
 44
1.0
1001
ACAD
1000
MTEXTBEGIN
1070
    73
1070
     1
1070
    44
1040
1.0
1070
    74
1070
     0
1000
MTEXTEND
  0
POINT
  5
28182
330
27422
100
AcDbEntity
  8
DEFPOINTS
 62
     0
 48
50.0
100
AcDbPoint
 10
8223.600000000008
 20
7106.187358626259
 30
0.0
  0
POINT
  5
28183
330
27422
100
AcDbEntity
  8
DEFPOINTS
 62
     0
 48
50.0
100
AcDbPoint
 10
7273.600000000008
 20
7106.187358626259
 30
0.0
  0
POINT
  5
28184
330
27422
100
AcDbEntity
  8
DEFPOINTS
 62
     0
 48
50.0
100
AcDbPoint
 10
7273.600000000008
 20
8191.796175296508
 30
0.0
  0
ENDBLK
  5
2742D
330
27422
100
AcDbEntity
  8
0
 48
50.0
100
AcDbBlockEnd
  0
BLOCK
  5
27438
330
2742E
100
AcDbEntity
  8
0
 48
50.0
100
AcDbBlockBegin
  2
*D33
 70
     1
 10
0.0
 20
0.0
 30
0.0
  3
*D33
  1

  0
LINE
  5
28078
330
2742E
100
AcDbEntity
  8
寸法
 62
     0
 48
50.0
370
    -2
100
AcDbLine
 10
4471.6
 20
7586.187358626259
 30
0.0
 11
3735.665006330073
 21
7586.187358626259
 31
0.0
  0
LINE
  5
28079
330
2742E
100
AcDbEntity
  8
寸法
 62
     0
 48
50.0
370
    -2
100
AcDbLine
 10
4471.600000000008
 20
6527.187358626263
 30
0.0
 11
3735.665006330072
 21
6527.187358626263
 31
0.0
  0
LINE
  5
2807A
330
2742E
100
AcDbEntity
  8
寸法
 62
     0
 48
50.0
370
    -2
100
AcDbLine
 10
3795.665006330073
 20
7586.187358626259
 30
0.0
 11
3795.665006330072
 21
6527.187358626263
 31
0.0
  0
INSERT
  5
2807B
330
2742E
100
AcDbEntity
  8
寸法
 62
     0
 48
50.0
370
    -2
100
AcDbBlockReference
  2
_DOTSMALL
 10
3795.665006330073
 20
7586.187358626259
 30
0.0
 41
100.0
 42
100.0
 43
100.0
 50
90.0
  0
INSERT
  5
2807C
330
2742E
100
AcDbEntity
  8
寸法
 62
     0
 48
50.0
370
    -2
100
AcDbBlockReference
  2
_DOTSMALL
 10
3795.665006330072
 20
6527.187358626263
 30
0.0
 41
100.0
 42
100.0
 43
100.0
 50
270.0
  0
MTEXT
  5
2807D
330
2742E
100
AcDbEntity
  8
寸法
 62
     7
 48
50.0
100
AcDbMText
 10
3695.665006330071
 20
7056.687358626259
 30
0.0
 40
120.0
 41
0.0
 71
     5
 72
     1
  1
\A1;1059
  7
STYLE1
 11
0.0000000000000001
 21
1.0
 31
0.0
 73
     1
 44
1.0
1001
ACAD
1000
MTEXTBEGIN
1070
    73
1070
     1
1070
    44
1040
1.0
1070
    74
1070
     0
1000
MTEXTEND
  0
POINT
  5
2807E
330
2742E
100
AcDbEntity
  8
DEFPOINTS
 62
     0
 48
50.0
100
AcDbPoint
 10
4491.6
 20
7586.187358626259
 30
0.0
  0
POINT
  5
2807F
330
2742E
100
AcDbEntity
  8
DEFPOINTS
 62
     0
 48
50.0
100
AcDbPoint
 10
4491.600000000008
 20
6527.187358626263
 30
0.0
  0
POINT
  5
28080
330
2742E
100
AcDbEntity
  8
DEFPOINTS
 62
     0
 48
50.0
100
AcDbPoint
 10
3795.665006330072
 20
6527.187358626263
 30
0.0
  0
ENDBLK
  5
27439
330
2742E
100
AcDbEntity
  8
0
 48
50.0
100
AcDbBlockEnd
  0
BLOCK
  5
27444
330
2743A
100
AcDbEntity
  8
0
 48
50.0
100
AcDbBlockBegin
  2
*D34
 70
     1
 10
0.0
 20
0.0
 30
0.0
  3
*D34
  1

  0
LINE
  5
279EF
330
2743A
100
AcDbEntity
  8
寸法
 62
     0
 48
50.0
370
    -2
100
AcDbLine
 10
4398.6
 20
7709.187358626259
 30
0.0
 11
3483.721909610674
 21
7709.187358626259
 31
0.0
  0
LINE
  5
279F0
330
2743A
100
AcDbEntity
  8
寸法
 62
     0
 48
50.0
370
    -2
100
AcDbLine
 10
4398.6
 20
6329.187358626259
 30
0.0
 11
3483.721909610674
 21
6329.187358626259
 31
0.0
  0
LINE
  5
279F1
330
2743A
100
AcDbEntity
  8
寸法
 62
     0
 48
50.0
370
    -2
100
AcDbLine
 10
3543.721909610674
 20
7709.187358626259
 30
0.0
 11
3543.721909610674
 21
6329.187358626259
 31
0.0
  0
INSERT
  5
279F2
330
2743A
100
AcDbEntity
  8
寸法
 62
     0
 48
50.0
370
    -2
100
AcDbBlockReference
  2
_DOTSMALL
 10
3543.721909610674
 20
7709.187358626259
 30
0.0
 41
100.0
 42
100.0
 43
100.0
 50
90.0
  0
INSERT
  5
279F3
330
2743A
100
AcDbEntity
  8
寸法
 62
     0
 48
50.0
370
    -2
100
AcDbBlockReference
  2
_DOTSMALL
 10
3543.721909610674
 20
6329.187358626259
 30
0.0
 41
100.0
 42
100.0
 43
100.0
 50
270.0
  0
MTEXT
  5
279F4
330
2743A
100
AcDbEntity
  8
寸法
 62
     7
 48
50.0
100
AcDbMText
 10
3443.721909610673
 20
7056.687358626259
 30
0.0
 40
120.0
 41
0.0
 71
     5
 72
     1
  1
\A1;1380
  7
STYLE1
 11
0.0000000000000001
 21
1.0
 31
0.0
 73
     1
 44
1.0
1001
ACAD
1000
MTEXTBEGIN
1070
    73
1070
     1
1070
    44
1040
1.0
1070
    74
1070
     0
1000
MTEXTEND
  0
POINT
  5
279F5
330
2743A
100
AcDbEntity
  8
DEFPOINTS
 62
     0
 48
50.0
100
AcDbPoint
 10
4418.6
 20
7709.187358626259
 30
0.0
  0
POINT
  5
279F6
330
2743A
100
AcDbEntity
  8
DEFPOINTS
 62
     0
 48
50.0
100
AcDbPoint
 10
4418.6
 20
6329.187358626259
 30
0.0
  0
POINT
  5
279F7
330
2743A
100
AcDbEntity
  8
DEFPOINTS
 62
     0
 48
50.0
100
AcDbPoint
 10
3543.721909610674
 20
6329.187358626259
 30
0.0
  0
ENDBLK
  5
27445
330
2743A
100
AcDbEntity
  8
0
 48
50.0
100
AcDbBlockEnd
  0
BLOCK
  5
27450
330
27446
100
AcDbEntity
  8
0
 48
50.0
100
AcDbBlockBegin
  2
*D35
 70
     1
 10
0.0
 20
0.0
 30
0.0
  3
*D35
  1

  0
LINE
  5
28173
330
27446
100
AcDbEntity
  8
寸法
 62
     0
 48
50.0
370
    -2
100
AcDbLine
 10
5303.600000000008
 20
7056.187358626259
 30
0.0
 11
4841.285990614302
 21
7056.187358626259
 31
0.0
  0
LINE
  5
28174
330
27446
100
AcDbEntity
  8
寸法
 62
     0
 48
50.0
370
    -2
100
AcDbLine
 10
4972.765475140901
 20
7709.187358626259
 30
0.0
 11
4841.285990614302
 21
7709.187358626259
 31
0.0
  0
LINE
  5
28175
330
27446
100
AcDbEntity
  8
寸法
 62
     0
 48
50.0
370
    -2
100
AcDbLine
 10
4901.285990614302
 20
7056.187358626259
 30
0.0
 11
4901.285990614302
 21
7709.187358626259
 31
0.0
  0
INSERT
  5
28176
330
27446
100
AcDbEntity
  8
寸法
 62
     0
 48
50.0
370
    -2
100
AcDbBlockReference
  2
_DOTSMALL
 10
4901.285990614302
 20
7056.187358626259
 30
0.0
 41
100.0
 42
100.0
 43
100.0
 50
270.0
  0
INSERT
  5
28177
330
27446
100
AcDbEntity
  8
寸法
 62
     0
 48
50.0
370
    -2
100
AcDbBlockReference
  2
_DOTSMALL
 10
4901.285990614302
 20
7709.187358626259
 30
0.0
 41
100.0
 42
100.0
 43
100.0
 50
90.0
  0
MTEXT
  5
28178
330
27446
100
AcDbEntity
  8
寸法
 62
     7
 48
50.0
100
AcDbMText
 10
4801.2859906143
 20
7385.782149320435
 30
0.0
 40
120.0
 41
0.0
 71
     5
 72
     1
  1
\A1;653
  7
STYLE1
 11
0.0000000000000001
 21
1.0
 31
0.0
 73
     1
 44
1.0
1001
ACAD
1000
MTEXTBEGIN
1070
    73
1070
     1
1070
    44
1040
1.0
1070
    74
1070
     0
1000
MTEXTEND
  0
POINT
  5
28179
330
27446
100
AcDbEntity
  8
DEFPOINTS
 62
     0
 48
50.0
100
AcDbPoint
 10
5323.600000000007
 20
7056.187358626259
 30
0.0
  0
POINT
  5
2817A
330
27446
100
AcDbEntity
  8
DEFPOINTS
 62
     0
 48
50.0
100
AcDbPoint
 10
4992.765475140901
 20
7709.187358626259
 30
0.0
  0
POINT
  5
2817B
330
27446
100
AcDbEntity
  8
DEFPOINTS
 62
     0
 48
50.0
100
AcDbPoint
 10
4901.285990614302
 20
7709.187358626259
 30
0.0
  0
ENDBLK
  5
27451
330
27446
100
AcDbEntity
  8
0
 48
50.0
100
AcDbBlockEnd
  0
BLOCK
  5
2745C
330
27452
100
AcDbEntity
  8
0
 48
50.0
100
AcDbBlockBegin
  2
*D36
 70
     1
 10
0.0
 20
0.0
 30
0.0
  3
*D36
  1

  0
LINE
  5
2816A
330
27452
100
AcDbEntity
  8
寸法
 62
     0
 48
50.0
370
    -2
100
AcDbLine
 10
5373.600000000007
 20
7126.18735862626
 30
0.0
 11
5373.600000000007
 21
8251.796175296508
 31
0.0
  0
LINE
  5
2816B
330
27452
100
AcDbEntity
  8
寸法
 62
     0
 48
50.0
370
    -2
100
AcDbLine
 10
4418.6
 20
7729.187358626259
 30
0.0
 11
4418.6
 21
8251.796175296508
 31
0.0
  0
LINE
  5
2816C
330
27452
100
AcDbEntity
  8
寸法
 62
     0
 48
50.0
370
    -2
100
AcDbLine
 10
5373.600000000007
 20
8191.796175296508
 30
0.0
 11
4418.6
 21
8191.796175296508
 31
0.0
  0
INSERT
  5
2816D
330
27452
100
AcDbEntity
  8
寸法
 62
     0
 48
50.0
370
    -2
100
AcDbBlockReference
  2
_DOTSMALL
 10
5373.600000000007
 20
8191.796175296508
 30
0.0
 41
100.0
 42
100.0
 43
100.0
  0
INSERT
  5
2816E
330
27452
100
AcDbEntity
  8
寸法
 62
     0
 48
50.0
370
    -2
100
AcDbBlockReference
  2
_DOTSMALL
 10
4418.6
 20
8191.796175296508
 30
0.0
 41
100.0
 42
100.0
 43
100.0
 50
180.0
  0
MTEXT
  5
2816F
330
27452
100
AcDbEntity
  8
寸法
 62
     7
 48
50.0
100
AcDbMText
 10
4896.100000000004
 20
8291.796175296507
 30
0.0
 40
120.0
 41
0.0
 71
     5
 72
     1
  1
\A1;955
  7
STYLE1
 73
     1
 44
1.0
1001
ACAD
1000
MTEXTBEGIN
1070
    73
1070
     1
1070
    44
1040
1.0
1070
    74
1070
     0
1000
MTEXTEND
  0
POINT
  5
28170
330
27452
100
AcDbEntity
  8
DEFPOINTS
 62
     0
 48
50.0
100
AcDbPoint
 10
5373.600000000007
 20
7106.187358626259
 30
0.0
  0
POINT
  5
28171
330
27452
100
AcDbEntity
  8
DEFPOINTS
 62
     0
 48
50.0
100
AcDbPoint
 10
4418.6
 20
7709.187358626259
 30
0.0
  0
POINT
  5
28172
330
27452
100
AcDbEntity
  8
DEFPOINTS
 62
     0
 48
50.0
100
AcDbPoint
 10
4418.6
 20
8191.796175296508
 30
0.0
  0
ENDBLK
  5
2745D
330
27452
100
AcDbEntity
  8
0
 48
50.0
100
AcDbBlockEnd
  0
BLOCK
  5
27467
330
2745E
100
AcDbEntity
  8
0
 48
50.0
100
AcDbBlockBegin
  2
*D37
 70
     1
 10
0.0
 20
0.0
 30
0.0
  3
*D37
  1

  0
LINE
  5
28161
330
2745E
100
AcDbEntity
  8
寸法
 62
     0
 48
50.0
370
    -2
100
AcDbLine
 10
7273.600000000008
 20
7126.18735862626
 30
0.0
 11
7273.600000000008
 21
8251.796175296508
 31
0.0
  0
LINE
  5
28162
330
2745E
100
AcDbEntity
  8
寸法
 62
     0
 48
50.0
370
    -2
100
AcDbLine
 10
6323.600000000007
 20
7126.18735862626
 30
0.0
 11
6323.600000000007
 21
8251.796175296508
 31
0.0
  0
LINE
  5
28163
330
2745E
100
AcDbEntity
  8
寸法
 62
     0
 48
50.0
370
    -2
100
AcDbLine
 10
7273.600000000008
 20
8191.796175296508
 30
0.0
 11
6323.600000000007
 21
8191.796175296508
 31
0.0
  0
INSERT
  5
28164
330
2745E
100
AcDbEntity
  8
寸法
 62
     0
 48
50.0
370
    -2
100
AcDbBlockReference
  2
_DOTSMALL
 10
7273.600000000008
 20
8191.796175296508
 30
0.0
 41
100.0
 42
100.0
 43
100.0
  0
INSERT
  5
28165
330
2745E
100
AcDbEntity
  8
寸法
 62
     0
 48
50.0
370
    -2
100
AcDbBlockReference
  2
_DOTSMALL
 10
6323.600000000007
 20
8191.796175296508
 30
0.0
 41
100.0
 42
100.0
 43
100.0
 50
180.0
  0
MTEXT
  5
28166
330
2745E
100
AcDbEntity
  8
寸法
 62
     7
 48
50.0
100
AcDbMText
 10
6798.600000000007
 20
8291.796175296507
 30
0.0
 40
120.0
 41
0.0
 71
     5
 72
     1
  1
\A1;950
  7
STYLE1
 73
     1
 44
1.0
1001
ACAD
1000
MTEXTBEGIN
1070
    73
1070
     1
1070
    44
1040
1.0
1070
    74
1070
     0
1000
MTEXTEND
  0
POINT
  5
28167
330
2745E
100
AcDbEntity
  8
DEFPOINTS
 62
     0
 48
50.0
100
AcDbPoint
 10
7273.600000000008
 20
7106.187358626259
 30
0.0
  0
POINT
  5
28168
330
2745E
100
AcDbEntity
  8
DEFPOINTS
 62
     0
 48
50.0
100
AcDbPoint
 10
6323.600000000007
 20
7106.187358626259
 30
0.0
  0
POINT
  5
28169
330
2745E
100
AcDbEntity
  8
DEFPOINTS
 62
     0
 48
50.0
100
AcDbPoint
 10
6323.600000000007
 20
8191.796175296508
 30
0.0
  0
ENDBLK
  5
27468
330
2745E
100
AcDbEntity
  8
0
 48
50.0
100
AcDbBlockEnd
  0
BLOCK
  5
27472
330
27469
100
AcDbEntity
  8
0
 48
50.0
100
AcDbBlockBegin
  2
*D38
 70
     1
 10
0.0
 20
0.0
 30
0.0
  3
*D38
  1

  0
LINE
  5
28158
330
27469
100
AcDbEntity
  8
寸法
 62
     0
 48
50.0
370
    -2
100
AcDbLine
 10
6323.600000000007
 20
7126.18735862626
 30
0.0
 11
6323.600000000007
 21
8251.796175296508
 31
0.0
  0
LINE
  5
28159
330
27469
100
AcDbEntity
  8
寸法
 62
     0
 48
50.0
370
    -2
100
AcDbLine
 10
5373.600000000007
 20
7126.18735862626
 30
0.0
 11
5373.600000000007
 21
8251.796175296508
 31
0.0
  0
LINE
  5
2815A
330
27469
100
AcDbEntity
  8
寸法
 62
     0
 48
50.0
370
    -2
100
AcDbLine
 10
6323.600000000007
 20
8191.796175296508
 30
0.0
 11
5373.600000000007
 21
8191.796175296508
 31
0.0
  0
INSERT
  5
2815B
330
27469
100
AcDbEntity
  8
寸法
 62
     0
 48
50.0
370
    -2
100
AcDbBlockReference
  2
_DOTSMALL
 10
6323.600000000007
 20
8191.796175296508
 30
0.0
 41
100.0
 42
100.0
 43
100.0
  0
INSERT
  5
2815C
330
27469
100
AcDbEntity
  8
寸法
 62
     0
 48
50.0
370
    -2
100
AcDbBlockReference
  2
_DOTSMALL
 10
5373.600000000007
 20
8191.796175296508
 30
0.0
 41
100.0
 42
100.0
 43
100.0
 50
180.0
  0
MTEXT
  5
2815D
330
27469
100
AcDbEntity
  8
寸法
 62
     7
 48
50.0
100
AcDbMText
 10
5848.600000000008
 20
8291.796175296507
 30
0.0
 40
120.0
 41
0.0
 71
     5
 72
     1
  1
\A1;950
  7
STYLE1
 73
     1
 44
1.0
1001
ACAD
1000
MTEXTBEGIN
1070
    73
1070
     1
1070
    44
1040
1.0
1070
    74
1070
     0
1000
MTEXTEND
  0
POINT
  5
2815E
330
27469
100
AcDbEntity
  8
DEFPOINTS
 62
     0
 48
50.0
100
AcDbPoint
 10
6323.600000000007
 20
7106.187358626259
 30
0.0
  0
POINT
  5
2815F
330
27469
100
AcDbEntity
  8
DEFPOINTS
 62
     0
 48
50.0
100
AcDbPoint
 10
5373.600000000007
 20
7106.187358626259
 30
0.0
  0
POINT
  5
28160
330
27469
100
AcDbEntity
  8
DEFPOINTS
 62
     0
 48
50.0
100
AcDbPoint
 10
5373.600000000007
 20
8191.796175296508
 30
0.0
  0
ENDBLK
  5
27473
330
27469
100
AcDbEntity
  8
0
 48
50.0
100
AcDbBlockEnd
  0
BLOCK
  5
2747E
330
27474
100
AcDbEntity
  8
0
 48
50.0
100
AcDbBlockBegin
  2
*D39
 70
     1
 10
0.0
 20
0.0
 30
0.0
  3
*D39
  1

  0
LINE
  5
2814F
330
27474
100
AcDbEntity
  8
寸法
 62
     0
 48
50.0
370
    -2
100
AcDbLine
 10
4972.765475140901
 20
6329.187358626271
 30
0.0
 11
4841.285990614302
 21
6329.187358626271
 31
0.0
  0
LINE
  5
28150
330
27474
100
AcDbEntity
  8
寸法
 62
     0
 48
50.0
370
    -2
100
AcDbLine
 10
5303.600000000008
 20
7056.187358626259
 30
0.0
 11
4841.285990614302
 21
7056.187358626259
 31
0.0
  0
LINE
  5
28151
330
27474
100
AcDbEntity
  8
寸法
 62
     0
 48
50.0
370
    -2
100
AcDbLine
 10
4901.285990614302
 20
6329.187358626271
 30
0.0
 11
4901.285990614302
 21
7056.187358626259
 31
0.0
  0
INSERT
  5
28152
330
27474
100
AcDbEntity
  8
寸法
 62
     0
 48
50.0
370
    -2
100
AcDbBlockReference
  2
_DOTSMALL
 10
4901.285990614302
 20
6329.187358626271
 30
0.0
 41
100.0
 42
100.0
 43
100.0
 50
270.0
  0
INSERT
  5
28153
330
27474
100
AcDbEntity
  8
寸法
 62
     0
 48
50.0
370
    -2
100
AcDbBlockReference
  2
_DOTSMALL
 10
4901.285990614302
 20
7056.187358626259
 30
0.0
 41
100.0
 42
100.0
 43
100.0
 50
90.0
  0
MTEXT
  5
28154
330
27474
100
AcDbEntity
  8
寸法
 62
     7
 48
50.0
100
AcDbMText
 10
4801.274179590678
 20
6771.18735862626
 30
0.0
 40
120.0
 41
0.0
 71
     5
 72
     1
  1
\A1;727
  7
STYLE1
 11
0.0000000000000001
 21
1.0
 31
0.0
 73
     1
 44
1.0
1001
ACAD
1000
MTEXTBEGIN
1070
    73
1070
     1
1070
    44
1040
1.0
1070
    74
1070
     0
1000
MTEXTEND
  0
POINT
  5
28155
330
27474
100
AcDbEntity
  8
DEFPOINTS
 62
     0
 48
50.0
100
AcDbPoint
 10
4992.765475140901
 20
6329.187358626271
 30
0.0
  0
POINT
  5
28156
330
27474
100
AcDbEntity
  8
DEFPOINTS
 62
     0
 48
50.0
100
AcDbPoint
 10
5323.600000000007
 20
7056.187358626259
 30
0.0
  0
POINT
  5
28157
330
27474
100
AcDbEntity
  8
DEFPOINTS
 62
     0
 48
50.0
100
AcDbPoint
 10
4901.285990614302
 20
7056.187358626259
 30
0.0
  0
ENDBLK
  5
2747F
330
27474
100
AcDbEntity
  8
0
 48
50.0
100
AcDbBlockEnd
  0
BLOCK
  5
27496
330
2748C
100
AcDbEntity
  8
0
 48
50.0
100
AcDbBlockBegin
  2
*D40
 70
     1
 10
0.0
 20
0.0
 30
0.0
  3
*D40
  1

  0
LINE
  5
279DC
330
2748C
100
AcDbEntity
  8
寸法
 62
     0
 48
50.0
370
    -2
100
AcDbLine
 10
4398.600000000004
 20
6329.187358626255
 30
0.0
 11
4245.512673767882
 21
6329.187358626255
 31
0.0
  0
LINE
  5
279DD
330
2748C
100
AcDbEntity
  8
寸法
 62
     0
 48
50.0
370
    -2
100
AcDbLine
 10
4754.325326928809
 20
5609.187358626256
 30
0.0
 11
4245.512673767881
 21
5609.187358626256
 31
0.0
  0
LINE
  5
279DE
330
2748C
100
AcDbEntity
  8
寸法
 62
     0
 48
50.0
370
    -2
100
AcDbLine
 10
4305.512673767881
 20
6329.187358626255
 30
0.0
 11
4305.512673767881
 21
5609.187358626256
 31
0.0
  0
INSERT
  5
279DF
330
2748C
100
AcDbEntity
  8
寸法
 62
     0
 48
50.0
370
    -2
100
AcDbBlockReference
  2
_DOTSMALL
 10
4305.512673767881
 20
6329.187358626255
 30
0.0
 41
100.0
 42
100.0
 43
100.0
 50
90.0
  0
INSERT
  5
279E0
330
2748C
100
AcDbEntity
  8
寸法
 62
     0
 48
50.0
370
    -2
100
AcDbBlockReference
  2
_DOTSMALL
 10
4305.512673767881
 20
5609.187358626256
 30
0.0
 41
100.0
 42
100.0
 43
100.0
 50
270.0
  0
MTEXT
  5
279E1
330
2748C
100
AcDbEntity
  8
寸法
 62
     7
 48
50.0
100
AcDbMText
 10
4205.500862744258
 20
5969.187358626257
 30
0.0
 40
120.0
 41
0.0
 71
     5
 72
     1
  1
\A1;扉の出720
  7
STYLE1
 11
0.0000000000000001
 21
1.0
 31
0.0
 73
     1
 44
1.0
1001
ACAD
1000
MTEXTBEGIN
1070
    73
1070
     1
1070
    44
1040
1.0
1070
    74
1070
     0
1000
MTEXTEND
  0
POINT
  5
279E2
330
2748C
100
AcDbEntity
  8
DEFPOINTS
 62
     0
 48
50.0
100
AcDbPoint
 10
4418.600000000004
 20
6329.187358626255
 30
0.0
  0
POINT
  5
279E3
330
2748C
100
AcDbEntity
  8
DEFPOINTS
 62
     0
 48
50.0
100
AcDbPoint
 10
4774.325326928809
 20
5609.187358626256
 30
0.0
  0
POINT
  5
279E4
330
2748C
100
AcDbEntity
  8
DEFPOINTS
 62
     0
 48
50.0
100
AcDbPoint
 10
4305.512673767881
 20
5609.187358626256
 30
0.0
  0
ENDBLK
  5
27497
330
2748C
100
AcDbEntity
  8
0
 48
50.0
100
AcDbBlockEnd
  0
BLOCK
  5
274A3
330
27498
100
AcDbEntity
  8
0
 48
50.0
100
AcDbBlockBegin
  2
*D41
 70
     1
 10
0.0
 20
0.0
 30
0.0
  3
*D41
  1

  0
LINE
  5
2806E
330
27498
100
AcDbEntity
  8
寸法
 62
     0
 48
50.0
370
    -2
100
AcDbLine
 10
4471.600000000008
 20
6527.187358626263
 30
0.0
 11
3735.665006330072
 21
6527.187358626263
 31
0.0
  0
LINE
  5
2806F
330
27498
100
AcDbEntity
  8
寸法
 62
     0
 48
50.0
370
    -2
100
AcDbLine
 10
4398.6
 20
6329.187358626259
 30
0.0
 11
3735.665006330072
 21
6329.187358626259
 31
0.0
  0
LINE
  5
28070
330
27498
100
AcDbEntity
  8
寸法
 62
     0
 48
50.0
370
    -2
100
AcDbLine
 10
3795.665006330072
 20
6527.187358626263
 30
0.0
 11
3795.665006330072
 21
6329.187358626259
 31
0.0
  0
LINE
  5
28071
330
27498
100
AcDbEntity
  8
寸法
 62
     0
 48
50.0
370
    -2
100
AcDbLine
 10
3795.665006330072
 20
6329.187358626259
 30
0.0
 11
3795.665006330072
 21
5857.44674995401
 31
0.0
  0
INSERT
  5
28072
330
27498
100
AcDbEntity
  8
寸法
 62
     0
 48
50.0
370
    -2
100
AcDbBlockReference
  2
_DOTSMALL
 10
3795.665006330072
 20
6527.187358626263
 30
0.0
 41
100.0
 42
100.0
 43
100.0
 50
90.0
  0
INSERT
  5
28073
330
27498
100
AcDbEntity
  8
寸法
 62
     0
 48
50.0
370
    -2
100
AcDbBlockReference
  2
_DOTSMALL
 10
3795.665006330072
 20
6329.187358626259
 30
0.0
 41
100.0
 42
100.0
 43
100.0
 50
270.0
  0
MTEXT
  5
28074
330
27498
100
AcDbEntity
  8
寸法
 62
     7
 48
50.0
100
AcDbMText
 10
3695.665006330071
 20
5993.656409783667
 30
0.0
 40
120.0
 41
0.0
 71
     5
 72
     1
  1
\A1;198
  7
STYLE1
 11
0.0000000000000001
 21
1.0
 31
0.0
 73
     1
 44
1.0
1001
ACAD
1000
MTEXTBEGIN
1070
    73
1070
     1
1070
    44
1040
1.0
1070
    74
1070
     0
1000
MTEXTEND
  0
POINT
  5
28075
330
27498
100
AcDbEntity
  8
DEFPOINTS
 62
     0
 48
50.0
100
AcDbPoint
 10
4491.600000000008
 20
6527.187358626263
 30
0.0
  0
POINT
  5
28076
330
27498
100
AcDbEntity
  8
DEFPOINTS
 62
     0
 48
50.0
100
AcDbPoint
 10
4418.6
 20
6329.187358626259
 30
0.0
  0
POINT
  5
28077
330
27498
100
AcDbEntity
  8
DEFPOINTS
 62
     0
 48
50.0
100
AcDbPoint
 10
3795.665006330072
 20
6329.187358626259
 30
0.0
  0
ENDBLK
  5
274A4
330
27498
100
AcDbEntity
  8
0
 48
50.0
100
AcDbBlockEnd
  0
BLOCK
  5
274BB
330
274B2
100
AcDbEntity
  8
0
 48
50.0
100
AcDbBlockBegin
  2
*D42
 70
     1
 10
0.0
 20
0.0
 30
0.0
  3
*D42
  1

  0
LINE
  5
27994
330
274B2
100
AcDbEntity
  8
寸法
 62
     0
 48
50.0
370
    -2
100
AcDbLine
 10
7155.600000000001
 20
7656.187358626259
 30
0.0
 11
7155.600000000001
 21
8495.45381672017
 31
0.0
  0
LINE
  5
27995
330
274B2
100
AcDbEntity
  8
寸法
 62
     0
 48
50.0
370
    -2
100
AcDbLine
 10
4541.6
 20
7656.187358626259
 30
0.0
 11
4541.6
 21
8495.45381672017
 31
0.0
  0
LINE
  5
27996
330
274B2
100
AcDbEntity
  8
寸法
 62
     0
 48
50.0
370
    -2
100
AcDbLine
 10
7155.600000000001
 20
8435.453816720169
 30
0.0
 11
4541.6
 21
8435.453816720169
 31
0.0
  0
INSERT
  5
27997
330
274B2
100
AcDbEntity
  8
寸法
 62
     0
 48
50.0
370
    -2
100
AcDbBlockReference
  2
_DOTSMALL
 10
7155.600000000001
 20
8435.453816720169
 30
0.0
 41
100.0
 42
100.0
 43
100.0
  0
INSERT
  5
27998
330
274B2
100
AcDbEntity
  8
寸法
 62
     0
 48
50.0
370
    -2
100
AcDbBlockReference
  2
_DOTSMALL
 10
4541.6
 20
8435.453816720169
 30
0.0
 41
100.0
 42
100.0
 43
100.0
 50
180.0
  0
MTEXT
  5
27999
330
274B2
100
AcDbEntity
  8
寸法
 62
     7
 48
50.0
100
AcDbMText
 10
5848.600000000001
 20
8535.465627743791
 30
0.0
 40
120.0
 41
0.0
 71
     5
 72
     1
  1
\A1;2614
  7
STYLE1
 73
     1
 44
1.0
1001
ACAD
1000
MTEXTBEGIN
1070
    73
1070
     1
1070
    44
1040
1.0
1070
    74
1070
     0
1000
MTEXTEND
  0
POINT
  5
2799A
330
274B2
100
AcDbEntity
  8
DEFPOINTS
 62
     0
 48
50.0
100
AcDbPoint
 10
7155.600000000001
 20
7636.187358626258
 30
0.0
  0
POINT
  5
2799B
330
274B2
100
AcDbEntity
  8
DEFPOINTS
 62
     0
 48
50.0
100
AcDbPoint
 10
4541.6
 20
7636.187358626258
 30
0.0
  0
POINT
  5
2799C
330
274B2
100
AcDbEntity
  8
DEFPOINTS
 62
     0
 48
50.0
100
AcDbPoint
 10
4541.6
 20
8435.453816720169
 30
0.0
  0
ENDBLK
  5
274BC
330
274B2
100
AcDbEntity
  8
0
 48
50.0
100
AcDbBlockEnd
  0
BLOCK
  5
274DF
330
274D4
100
AcDbEntity
  8
0
 48
50.0
100
AcDbBlockBegin
  2
*D43
 70
     1
 10
0.0
 20
0.0
 30
0.0
  3
*D43
  1

  0
LINE
  5
2798A
330
274D4
100
AcDbEntity
  8
寸法
 62
     0
 48
50.0
370
    -2
100
AcDbLine
 10
4541.6
 20
7656.187358626259
 30
0.0
 11
4541.6
 21
8495.45381672017
 31
0.0
  0
LINE
  5
2798B
330
274D4
100
AcDbEntity
  8
寸法
 62
     0
 48
50.0
370
    -2
100
AcDbLine
 10
4418.6
 20
7729.187358626259
 30
0.0
 11
4418.6
 21
8495.45381672017
 31
0.0
  0
LINE
  5
2798C
330
274D4
100
AcDbEntity
  8
寸法
 62
     0
 48
50.0
370
    -2
100
AcDbLine
 10
4541.6
 20
8435.453816720169
 30
0.0
 11
4418.6
 21
8435.453816720169
 31
0.0
  0
LINE
  5
2798D
330
274D4
100
AcDbEntity
  8
寸法
 62
     0
 48
50.0
370
    -2
100
AcDbLine
 10
4418.6
 20
8435.453816720169
 30
0.0
 11
4007.008116907963
 21
8435.453816720169
 31
0.0
  0
INSERT
  5
2798E
330
274D4
100
AcDbEntity
  8
寸法
 62
     0
 48
50.0
370
    -2
100
AcDbBlockReference
  2
_DOTSMALL
 10
4541.6
 20
8435.453816720169
 30
0.0
 41
100.0
 42
100.0
 43
100.0
  0
INSERT
  5
2798F
330
274D4
100
AcDbEntity
  8
寸法
 62
     0
 48
50.0
370
    -2
100
AcDbBlockReference
  2
_DOTSMALL
 10
4418.6
 20
8435.453816720169
 30
0.0
 41
100.0
 42
100.0
 43
100.0
 50
180.0
  0
MTEXT
  5
27990
330
274D4
100
AcDbEntity
  8
寸法
 62
     7
 48
50.0
100
AcDbMText
 10
4145.493398282201
 20
8535.465627743791
 30
0.0
 40
120.0
 41
0.0
 71
     5
 72
     1
  1
\A1;123
  7
STYLE1
 73
     1
 44
1.0
1001
ACAD
1000
MTEXTBEGIN
1070
    73
1070
     1
1070
    44
1040
1.0
1070
    74
1070
     0
1000
MTEXTEND
  0
POINT
  5
27991
330
274D4
100
AcDbEntity
  8
DEFPOINTS
 62
     0
 48
50.0
100
AcDbPoint
 10
4541.6
 20
7636.187358626258
 30
0.0
  0
POINT
  5
27992
330
274D4
100
AcDbEntity
  8
DEFPOINTS
 62
     0
 48
50.0
100
AcDbPoint
 10
4418.6
 20
7709.187358626259
 30
0.0
  0
POINT
  5
27993
330
274D4
100
AcDbEntity
  8
DEFPOINTS
 62
     0
 48
50.0
100
AcDbPoint
 10
4418.6
 20
8435.453816720169
 30
0.0
  0
ENDBLK
  5
274E0
330
274D4
100
AcDbEntity
  8
0
 48
50.0
100
AcDbBlockEnd
  0
BLOCK
  5
274EC
330
274E1
100
AcDbEntity
  8
0
 48
50.0
100
AcDbBlockBegin
  2
*D44
 70
     1
 10
0.0
 20
0.0
 30
0.0
  3
*D44
  1

  0
LINE
  5
27980
330
274E1
100
AcDbEntity
  8
寸法
 62
     0
 48
50.0
370
    -2
100
AcDbLine
 10
4398.6
 20
7709.187358626259
 30
0.0
 11
3735.665006330073
 21
7709.187358626259
 31
0.0
  0
LINE
  5
27981
330
274E1
100
AcDbEntity
  8
寸法
 62
     0
 48
50.0
370
    -2
100
AcDbLine
 10
4471.6
 20
7586.187358626259
 30
0.0
 11
3735.665006330073
 21
7586.187358626259
 31
0.0
  0
LINE
  5
27982
330
274E1
100
AcDbEntity
  8
寸法
 62
     0
 48
50.0
370
    -2
100
AcDbLine
 10
3795.665006330073
 20
7586.187358626259
 30
0.0
 11
3795.665006330073
 21
7709.187358626259
 31
0.0
  0
LINE
  5
27983
330
274E1
100
AcDbEntity
  8
寸法
 62
     0
 48
50.0
370
    -2
100
AcDbLine
 10
3795.665006330073
 20
7709.187358626259
 30
0.0
 11
3795.665006330073
 21
8120.779241718297
 31
0.0
  0
INSERT
  5
27984
330
274E1
100
AcDbEntity
  8
寸法
 62
     0
 48
50.0
370
    -2
100
AcDbBlockReference
  2
_DOTSMALL
 10
3795.665006330073
 20
7586.187358626259
 30
0.0
 41
100.0
 42
100.0
 43
100.0
 50
270.0
  0
INSERT
  5
27985
330
274E1
100
AcDbEntity
  8
寸法
 62
     0
 48
50.0
370
    -2
100
AcDbBlockReference
  2
_DOTSMALL
 10
3795.665006330073
 20
7709.187358626259
 30
0.0
 41
100.0
 42
100.0
 43
100.0
 50
90.0
  0
MTEXT
  5
27986
330
274E1
100
AcDbEntity
  8
寸法
 62
     7
 48
50.0
100
AcDbMText
 10
3695.653195306449
 20
7982.293960344058
 30
0.0
 40
120.0
 41
0.0
 71
     5
 72
     1
  1
\A1;123
  7
STYLE1
 11
0.0000000000000001
 21
1.0
 31
0.0
 73
     1
 44
1.0
1001
ACAD
1000
MTEXTBEGIN
1070
    73
1070
     1
1070
    44
1040
1.0
1070
    74
1070
     0
1000
MTEXTEND
  0
POINT
  5
27987
330
274E1
100
AcDbEntity
  8
DEFPOINTS
 62
     0
 48
50.0
100
AcDbPoint
 10
4418.6
 20
7709.187358626259
 30
0.0
  0
POINT
  5
27988
330
274E1
100
AcDbEntity
  8
DEFPOINTS
 62
     0
 48
50.0
100
AcDbPoint
 10
4491.6
 20
7586.187358626259
 30
0.0
  0
POINT
  5
27989
330
274E1
100
AcDbEntity
  8
DEFPOINTS
 62
     0
 48
50.0
100
AcDbPoint
 10
3795.665006330073
 20
7586.187358626259
 30
0.0
  0
ENDBLK
  5
274ED
330
274E1
100
AcDbEntity
  8
0
 48
50.0
100
AcDbBlockEnd
  0
BLOCK
  5
27505
330
274FB
100
AcDbEntity
  8
0
 48
50.0
100
AcDbBlockBegin
  2
*D45
 70
     1
 10
0.0
 20
0.0
 30
0.0
  3
*D45
  1

  0
LINE
  5
28146
330
274FB
100
AcDbEntity
  8
寸法
 62
     0
 48
50.0
370
    -2
100
AcDbLine
 10
12028.6
 20
7729.187358626259
 30
0.0
 11
12028.6
 21
8251.796175296508
 31
0.0
  0
LINE
  5
28147
330
274FB
100
AcDbEntity
  8
寸法
 62
     0
 48
50.0
370
    -2
100
AcDbLine
 10
11073.60000000001
 20
7126.18735862626
 30
0.0
 11
11073.60000000001
 21
8251.796175296508
 31
0.0
  0
LINE
  5
28148
330
274FB
100
AcDbEntity
  8
寸法
 62
     0
 48
50.0
370
    -2
100
AcDbLine
 10
12028.6
 20
8191.796175296508
 30
0.0
 11
11073.60000000001
 21
8191.796175296508
 31
0.0
  0
INSERT
  5
28149
330
274FB
100
AcDbEntity
  8
寸法
 62
     0
 48
50.0
370
    -2
100
AcDbBlockReference
  2
_DOTSMALL
 10
12028.6
 20
8191.796175296508
 30
0.0
 41
100.0
 42
100.0
 43
100.0
  0
INSERT
  5
2814A
330
274FB
100
AcDbEntity
  8
寸法
 62
     0
 48
50.0
370
    -2
100
AcDbBlockReference
  2
_DOTSMALL
 10
11073.60000000001
 20
8191.796175296508
 30
0.0
 41
100.0
 42
100.0
 43
100.0
 50
180.0
  0
MTEXT
  5
2814B
330
274FB
100
AcDbEntity
  8
寸法
 62
     7
 48
50.0
100
AcDbMText
 10
11551.1
 20
8291.796175296507
 30
0.0
 40
120.0
 41
0.0
 71
     5
 72
     1
  1
\A1;955
  7
STYLE1
 73
     1
 44
1.0
1001
ACAD
1000
MTEXTBEGIN
1070
    73
1070
     1
1070
    44
1040
1.0
1070
    74
1070
     0
1000
MTEXTEND
  0
POINT
  5
2814C
330
274FB
100
AcDbEntity
  8
DEFPOINTS
 62
     0
 48
50.0
100
AcDbPoint
 10
12028.6
 20
7709.187358626259
 30
0.0
  0
POINT
  5
2814D
330
274FB
100
AcDbEntity
  8
DEFPOINTS
 62
     0
 48
50.0
100
AcDbPoint
 10
11073.60000000001
 20
7106.187358626259
 30
0.0
  0
POINT
  5
2814E
330
274FB
100
AcDbEntity
  8
DEFPOINTS
 62
     0
 48
50.0
100
AcDbPoint
 10
11073.60000000001
 20
8191.796175296508
 30
0.0
  0
ENDBLK
  5
27506
330
274FB
100
AcDbEntity
  8
0
 48
50.0
100
AcDbBlockEnd
  0
BLOCK
  5
27511
330
27507
100
AcDbEntity
  8
0
 48
50.0
100
AcDbBlockBegin
  2
*D46
 70
     1
 10
0.0
 20
0.0
 30
0.0
  3
*D46
  1

  0
LINE
  5
2813D
330
27507
100
AcDbEntity
  8
寸法
 62
     0
 48
50.0
370
    -2
100
AcDbLine
 10
10123.60000000001
 20
7126.18735862626
 30
0.0
 11
10123.60000000001
 21
8251.796175296508
 31
0.0
  0
LINE
  5
2813E
330
27507
100
AcDbEntity
  8
寸法
 62
     0
 48
50.0
370
    -2
100
AcDbLine
 10
9173.600000000007
 20
7126.18735862626
 30
0.0
 11
9173.600000000007
 21
8251.796175296508
 31
0.0
  0
LINE
  5
2813F
330
27507
100
AcDbEntity
  8
寸法
 62
     0
 48
50.0
370
    -2
100
AcDbLine
 10
10123.60000000001
 20
8191.796175296508
 30
0.0
 11
9173.600000000007
 21
8191.796175296508
 31
0.0
  0
INSERT
  5
28140
330
27507
100
AcDbEntity
  8
寸法
 62
     0
 48
50.0
370
    -2
100
AcDbBlockReference
  2
_DOTSMALL
 10
10123.60000000001
 20
8191.796175296508
 30
0.0
 41
100.0
 42
100.0
 43
100.0
  0
INSERT
  5
28141
330
27507
100
AcDbEntity
  8
寸法
 62
     0
 48
50.0
370
    -2
100
AcDbBlockReference
  2
_DOTSMALL
 10
9173.600000000007
 20
8191.796175296508
 30
0.0
 41
100.0
 42
100.0
 43
100.0
 50
180.0
  0
MTEXT
  5
28142
330
27507
100
AcDbEntity
  8
寸法
 62
     7
 48
50.0
100
AcDbMText
 10
9648.600000000008
 20
8291.796175296507
 30
0.0
 40
120.0
 41
0.0
 71
     5
 72
     1
  1
\A1;950
  7
STYLE1
 73
     1
 44
1.0
1001
ACAD
1000
MTEXTBEGIN
1070
    73
1070
     1
1070
    44
1040
1.0
1070
    74
1070
     0
1000
MTEXTEND
  0
POINT
  5
28143
330
27507
100
AcDbEntity
  8
DEFPOINTS
 62
     0
 48
50.0
100
AcDbPoint
 10
10123.60000000001
 20
7106.187358626259
 30
0.0
  0
POINT
  5
28144
330
27507
100
AcDbEntity
  8
DEFPOINTS
 62
     0
 48
50.0
100
AcDbPoint
 10
9173.600000000007
 20
7106.187358626259
 30
0.0
  0
POINT
  5
28145
330
27507
100
AcDbEntity
  8
DEFPOINTS
 62
     0
 48
50.0
100
AcDbPoint
 10
9173.600000000007
 20
8191.796175296508
 30
0.0
  0
ENDBLK
  5
27512
330
27507
100
AcDbEntity
  8
0
 48
50.0
100
AcDbBlockEnd
  0
BLOCK
  5
2751D
330
27513
100
AcDbEntity
  8
0
 48
50.0
100
AcDbBlockBegin
  2
*D47
 70
     1
 10
0.0
 20
0.0
 30
0.0
  3
*D47
  1

  0
LINE
  5
28134
330
27513
100
AcDbEntity
  8
寸法
 62
     0
 48
50.0
370
    -2
100
AcDbLine
 10
11073.60000000001
 20
7126.18735862626
 30
0.0
 11
11073.60000000001
 21
8251.796175296508
 31
0.0
  0
LINE
  5
28135
330
27513
100
AcDbEntity
  8
寸法
 62
     0
 48
50.0
370
    -2
100
AcDbLine
 10
10123.60000000001
 20
7126.18735862626
 30
0.0
 11
10123.60000000001
 21
8251.796175296508
 31
0.0
  0
LINE
  5
28136
330
27513
100
AcDbEntity
  8
寸法
 62
     0
 48
50.0
370
    -2
100
AcDbLine
 10
11073.60000000001
 20
8191.796175296508
 30
0.0
 11
10123.60000000001
 21
8191.796175296508
 31
0.0
  0
INSERT
  5
28137
330
27513
100
AcDbEntity
  8
寸法
 62
     0
 48
50.0
370
    -2
100
AcDbBlockReference
  2
_DOTSMALL
 10
11073.60000000001
 20
8191.796175296508
 30
0.0
 41
100.0
 42
100.0
 43
100.0
  0
INSERT
  5
28138
330
27513
100
AcDbEntity
  8
寸法
 62
     0
 48
50.0
370
    -2
100
AcDbBlockReference
  2
_DOTSMALL
 10
10123.60000000001
 20
8191.796175296508
 30
0.0
 41
100.0
 42
100.0
 43
100.0
 50
180.0
  0
MTEXT
  5
28139
330
27513
100
AcDbEntity
  8
寸法
 62
     7
 48
50.0
100
AcDbMText
 10
10598.60000000001
 20
8291.796175296507
 30
0.0
 40
120.0
 41
0.0
 71
     5
 72
     1
  1
\A1;950
  7
STYLE1
 73
     1
 44
1.0
1001
ACAD
1000
MTEXTBEGIN
1070
    73
1070
     1
1070
    44
1040
1.0
1070
    74
1070
     0
1000
MTEXTEND
  0
POINT
  5
2813A
330
27513
100
AcDbEntity
  8
DEFPOINTS
 62
     0
 48
50.0
100
AcDbPoint
 10
11073.60000000001
 20
7106.187358626259
 30
0.0
  0
POINT
  5
2813B
330
27513
100
AcDbEntity
  8
DEFPOINTS
 62
     0
 48
50.0
100
AcDbPoint
 10
10123.60000000001
 20
7106.187358626259
 30
0.0
  0
POINT
  5
2813C
330
27513
100
AcDbEntity
  8
DEFPOINTS
 62
     0
 48
50.0
100
AcDbPoint
 10
10123.60000000001
 20
8191.796175296508
 30
0.0
  0
ENDBLK
  5
2751E
330
27513
100
AcDbEntity
  8
0
 48
50.0
100
AcDbBlockEnd
  0
BLOCK
  5
27529
330
2751F
100
AcDbEntity
  8
0
 48
50.0
100
AcDbBlockBegin
  2
*D48
 70
     1
 10
0.0
 20
0.0
 30
0.0
  3
*D48
  1

  0
LINE
  5
2795C
330
2751F
100
AcDbEntity
  8
寸法
 62
     0
 48
50.0
370
    -2
100
AcDbLine
 10
11905.6
 20
7656.187358626259
 30
0.0
 11
11905.6
 21
8495.45381672017
 31
0.0
  0
LINE
  5
2795D
330
2751F
100
AcDbEntity
  8
寸法
 62
     0
 48
50.0
370
    -2
100
AcDbLine
 10
9055.600000000001
 20
7656.187358626259
 30
0.0
 11
9055.600000000001
 21
8495.45381672017
 31
0.0
  0
LINE
  5
2795E
330
2751F
100
AcDbEntity
  8
寸法
 62
     0
 48
50.0
370
    -2
100
AcDbLine
 10
11905.6
 20
8435.453816720169
 30
0.0
 11
9055.600000000001
 21
8435.453816720169
 31
0.0
  0
INSERT
  5
2795F
330
2751F
100
AcDbEntity
  8
寸法
 62
     0
 48
50.0
370
    -2
100
AcDbBlockReference
  2
_DOTSMALL
 10
11905.6
 20
8435.453816720169
 30
0.0
 41
100.0
 42
100.0
 43
100.0
  0
INSERT
  5
27960
330
2751F
100
AcDbEntity
  8
寸法
 62
     0
 48
50.0
370
    -2
100
AcDbBlockReference
  2
_DOTSMALL
 10
9055.600000000001
 20
8435.453816720169
 30
0.0
 41
100.0
 42
100.0
 43
100.0
 50
180.0
  0
MTEXT
  5
27961
330
2751F
100
AcDbEntity
  8
寸法
 62
     7
 48
50.0
100
AcDbMText
 10
10480.6
 20
8535.465627743791
 30
0.0
 40
120.0
 41
0.0
 71
     5
 72
     1
  1
\A1;2850
  7
STYLE1
 73
     1
 44
1.0
1001
ACAD
1000
MTEXTBEGIN
1070
    73
1070
     1
1070
    44
1040
1.0
1070
    74
1070
     0
1000
MTEXTEND
  0
POINT
  5
27962
330
2751F
100
AcDbEntity
  8
DEFPOINTS
 62
     0
 48
50.0
100
AcDbPoint
 10
11905.6
 20
7636.187358626258
 30
0.0
  0
POINT
  5
27963
330
2751F
100
AcDbEntity
  8
DEFPOINTS
 62
     0
 48
50.0
100
AcDbPoint
 10
9055.600000000001
 20
7636.187358626258
 30
0.0
  0
POINT
  5
27964
330
2751F
100
AcDbEntity
  8
DEFPOINTS
 62
     0
 48
50.0
100
AcDbPoint
 10
9055.600000000001
 20
8435.453816720169
 30
0.0
  0
ENDBLK
  5
2752A
330
2751F
100
AcDbEntity
  8
0
 48
50.0
100
AcDbBlockEnd
  0
BLOCK
  5
27543
330
27538
100
AcDbEntity
  8
0
 48
50.0
100
AcDbBlockBegin
  2
*D49
 70
     1
 10
0.0
 20
0.0
 30
0.0
  3
*D49
  1

  0
LINE
  5
27952
330
27538
100
AcDbEntity
  8
寸法
 62
     0
 48
50.0
370
    -2
100
AcDbLine
 10
12028.6
 20
7729.187358626259
 30
0.0
 11
12028.6
 21
8495.45381672017
 31
0.0
  0
LINE
  5
27953
330
27538
100
AcDbEntity
  8
寸法
 62
     0
 48
50.0
370
    -2
100
AcDbLine
 10
11905.6
 20
7656.187358626259
 30
0.0
 11
11905.6
 21
8495.45381672017
 31
0.0
  0
LINE
  5
27954
330
27538
100
AcDbEntity
  8
寸法
 62
     0
 48
50.0
370
    -2
100
AcDbLine
 10
11905.6
 20
8435.453816720169
 30
0.0
 11
12028.6
 21
8435.453816720169
 31
0.0
  0
LINE
  5
27955
330
27538
100
AcDbEntity
  8
寸法
 62
     0
 48
50.0
370
    -2
100
AcDbLine
 10
12028.6
 20
8435.453816720169
 30
0.0
 11
12440.19188309203
 21
8435.453816720169
 31
0.0
  0
INSERT
  5
27956
330
27538
100
AcDbEntity
  8
寸法
 62
     0
 48
50.0
370
    -2
100
AcDbBlockReference
  2
_DOTSMALL
 10
11905.6
 20
8435.453816720169
 30
0.0
 41
100.0
 42
100.0
 43
100.0
 50
180.0
  0
INSERT
  5
27957
330
27538
100
AcDbEntity
  8
寸法
 62
     0
 48
50.0
370
    -2
100
AcDbBlockReference
  2
_DOTSMALL
 10
12028.6
 20
8435.453816720169
 30
0.0
 41
100.0
 42
100.0
 43
100.0
  0
MTEXT
  5
27958
330
27538
100
AcDbEntity
  8
寸法
 62
     7
 48
50.0
100
AcDbMText
 10
12301.7066017178
 20
8535.465627743791
 30
0.0
 40
120.0
 41
0.0
 71
     5
 72
     1
  1
\A1;123
  7
STYLE1
 73
     1
 44
1.0
1001
ACAD
1000
MTEXTBEGIN
1070
    73
1070
     1
1070
    44
1040
1.0
1070
    74
1070
     0
1000
MTEXTEND
  0
POINT
  5
27959
330
27538
100
AcDbEntity
  8
DEFPOINTS
 62
     0
 48
50.0
100
AcDbPoint
 10
12028.6
 20
7709.187358626259
 30
0.0
  0
POINT
  5
2795A
330
27538
100
AcDbEntity
  8
DEFPOINTS
 62
     0
 48
50.0
100
AcDbPoint
 10
11905.6
 20
7636.187358626258
 30
0.0
  0
POINT
  5
2795B
330
27538
100
AcDbEntity
  8
DEFPOINTS
 62
     0
 48
50.0
100
AcDbPoint
 10
11905.6
 20
8435.453816720169
 30
0.0
  0
ENDBLK
  5
27544
330
27538
100
AcDbEntity
  8
0
 48
50.0
100
AcDbBlockEnd
  0
BLOCK
  5
27F03
330
27EF8
100
AcDbEntity
  8
0
 48
50.0
100
AcDbBlockBegin
  2
*D50
 70
     1
 10
0.0
 20
0.0
 30
0.0
  3
*D50
  1

  0
LINE
  5
2804A
330
27EF8
100
AcDbEntity
  8
寸法
 62
     0
 48
50.0
370
    -2
100
AcDbLine
 10
11428.6
 20
7709.187358626246
 30
0.0
 11
11287.81202022566
 21
7709.187358626246
 31
0.0
  0
LINE
  5
2804B
330
27EF8
100
AcDbEntity
  8
寸法
 62
     0
 48
50.0
370
    -2
100
AcDbLine
 10
11428.60000000001
 20
7509.18735862626
 30
0.0
 11
11287.81202022566
 21
7509.18735862626
 31
0.0
  0
LINE
  5
2804C
330
27EF8
100
AcDbEntity
  8
寸法
 62
     0
 48
50.0
370
    -2
100
AcDbLine
 10
11347.81202022566
 20
7509.18735862626
 30
0.0
 11
11347.81202022566
 21
7709.187358626246
 31
0.0
  0
LINE
  5
2804D
330
27EF8
100
AcDbEntity
  8
寸法
 62
     0
 48
50.0
370
    -2
100
AcDbLine
 10
11347.81202022566
 20
7709.187358626246
 30
0.0
 11
11347.81202022566
 21
8145.721807445147
 31
0.0
  0
INSERT
  5
2804E
330
27EF8
100
AcDbEntity
  8
寸法
 62
     0
 48
50.0
370
    -2
100
AcDbBlockReference
  2
_DOTSMALL
 10
11347.81202022566
 20
7509.18735862626
 30
0.0
 41
100.0
 42
100.0
 43
100.0
 50
270.0
  0
INSERT
  5
2804F
330
27EF8
100
AcDbEntity
  8
寸法
 62
     0
 48
50.0
370
    -2
100
AcDbBlockReference
  2
_DOTSMALL
 10
11347.81202022566
 20
7709.187358626246
 30
0.0
 41
100.0
 42
100.0
 43
100.0
 50
90.0
  0
MTEXT
  5
28050
330
27EF8
100
AcDbEntity
  8
寸法
 62
     7
 48
50.0
100
AcDbMText
 10
11247.80020920203
 20
7996.150941303416
 30
0.0
 40
120.0
 41
0.0
 71
     5
 72
     1
  1
\A1;200
  7
STYLE1
 11
0.0000000000000001
 21
1.0
 31
0.0
 73
     1
 44
1.0
1001
ACAD
1000
MTEXTBEGIN
1070
    73
1070
     1
1070
    44
1040
1.0
1070
    74
1070
     0
1000
MTEXTEND
  0
POINT
  5
28051
330
27EF8
100
AcDbEntity
  8
DEFPOINTS
 62
     0
 48
50.0
100
AcDbPoint
 10
11448.6
 20
7709.187358626246
 30
0.0
  0
POINT
  5
28052
330
27EF8
100
AcDbEntity
  8
DEFPOINTS
 62
     0
 48
50.0
100
AcDbPoint
 10
11448.60000000001
 20
7509.18735862626
 30
0.0
  0
POINT
  5
28053
330
27EF8
100
AcDbEntity
  8
DEFPOINTS
 62
     0
 48
50.0
100
AcDbPoint
 10
11347.81202022566
 20
7509.18735862626
 30
0.0
  0
ENDBLK
  5
27F04
330
27EF8
100
AcDbEntity
  8
0
 48
50.0
100
AcDbBlockEnd
  0
BLOCK
  5
28466
330
2845C
100
AcDbEntity
  8
0
 48
50.0
100
AcDbBlockBegin
  2
*D57
 70
     1
 10
0.0
 20
0.0
 30
0.0
  3
*D57
  1

  0
LINE
  5
284A6
330
2845C
100
AcDbEntity
  8
寸法
 62
     0
 48
50.0
370
    -2
100
AcDbLine
 10
6410.60193285951
 20
1766.653293753747
 30
0.0
 11
6410.60193285951
 21
2226.321101670127
 31
0.0
  0
LINE
  5
284A7
330
2845C
100
AcDbEntity
  8
寸法
 62
     0
 48
50.0
370
    -2
100
AcDbLine
 10
6218.60193285951
 20
1766.653293753747
 30
0.0
 11
6218.60193285951
 21
2226.321101670127
 31
0.0
  0
LINE
  5
284A8
330
2845C
100
AcDbEntity
  8
寸法
 62
     0
 48
50.0
370
    -2
100
AcDbLine
 10
6410.60193285951
 20
2166.321101670127
 30
0.0
 11
6218.60193285951
 21
2166.321101670127
 31
0.0
  0
INSERT
  5
284A9
330
2845C
100
AcDbEntity
  8
寸法
 62
     0
 48
50.0
370
    -2
100
AcDbBlockReference
  2
_DOTSMALL
 10
6410.60193285951
 20
2166.321101670127
 30
0.0
 41
100.0
 42
100.0
 43
100.0
  0
INSERT
  5
284AA
330
2845C
100
AcDbEntity
  8
寸法
 62
     0
 48
50.0
370
    -2
100
AcDbBlockReference
  2
_DOTSMALL
 10
6218.60193285951
 20
2166.321101670127
 30
0.0
 41
100.0
 42
100.0
 43
100.0
 50
180.0
  0
MTEXT
  5
284AB
330
2845C
100
AcDbEntity
  8
寸法
 62
     7
 48
50.0
100
AcDbMText
 10
6314.60193285951
 20
2466.356534740993
 30
0.0
 40
120.0
 41
0.0
 71
     5
 72
     1
  1
\A1;120\P200\P280
  7
STYLE1
 73
     1
 44
1.0
1001
ACAD
1000
MTEXTBEGIN
1070
    73
1070
     1
1070
    44
1040
1.0
1070
    74
1070
     0
1000
MTEXTEND
  0
POINT
  5
284AC
330
2845C
100
AcDbEntity
  8
DEFPOINTS
 62
     0
 48
50.0
100
AcDbPoint
 10
6410.60193285951
 20
1746.653293753747
 30
0.0
  0
POINT
  5
284AD
330
2845C
100
AcDbEntity
  8
DEFPOINTS
 62
     0
 48
50.0
100
AcDbPoint
 10
6218.60193285951
 20
1746.653293753747
 30
0.0
  0
POINT
  5
284AE
330
2845C
100
AcDbEntity
  8
DEFPOINTS
 62
     0
 48
50.0
100
AcDbPoint
 10
6218.60193285951
 20
2166.321101670127
 30
0.0
  0
ENDBLK
  5
28467
330
2845C
100
AcDbEntity
  8
0
 48
50.0
100
AcDbBlockEnd
  0
BLOCK
  5
28472
330
28468
100
AcDbEntity
  8
0
 48
50.0
100
AcDbBlockBegin
  2
*D58
 70
     1
 10
0.0
 20
0.0
 30
0.0
  3
*D58
  1

  0
LINE
  5
284AF
330
28468
100
AcDbEntity
  8
寸法
 62
     0
 48
50.0
370
    -2
100
AcDbLine
 10
6090.60193285951
 20
814.6532937537468
 30
0.0
 11
6090.60193285951
 21
364.2236557485867
 31
0.0
  0
LINE
  5
284B0
330
28468
100
AcDbEntity
  8
寸法
 62
     0
 48
50.0
370
    -2
100
AcDbLine
 10
6538.60193285951
 20
814.6532937537468
 30
0.0
 11
6538.60193285951
 21
364.2236557485867
 31
0.0
  0
LINE
  5
284B1
330
28468
100
AcDbEntity
  8
寸法
 62
     0
 48
50.0
370
    -2
100
AcDbLine
 10
6090.60193285951
 20
424.2236557485866
 30
0.0
 11
6538.60193285951
 21
424.2236557485866
 31
0.0
  0
INSERT
  5
284B2
330
28468
100
AcDbEntity
  8
寸法
 62
     0
 48
50.0
370
    -2
100
AcDbBlockReference
  2
_DOTSMALL
 10
6090.60193285951
 20
424.2236557485866
 30
0.0
 41
100.0
 42
100.0
 43
100.0
 50
180.0
  0
INSERT
  5
284B3
330
28468
100
AcDbEntity
  8
寸法
 62
     0
 48
50.0
370
    -2
100
AcDbBlockReference
  2
_DOTSMALL
 10
6538.60193285951
 20
424.2236557485866
 30
0.0
 41
100.0
 42
100.0
 43
100.0
  0
MTEXT
  5
284B4
330
28468
100
AcDbEntity
  8
寸法
 62
     7
 48
50.0
100
AcDbMText
 10
6294.505174181286
 20
524.2236557485866
 30
0.0
 40
120.0
 41
0.0
 71
     5
 72
     1
  1
\A1;300
  7
STYLE1
 73
     1
 44
1.0
1001
ACAD
1000
MTEXTBEGIN
1070
    73
1070
     1
1070
    44
1040
1.0
1070
    74
1070
     0
1000
MTEXTEND
  0
POINT
  5
284B5
330
28468
100
AcDbEntity
  8
DEFPOINTS
 62
     0
 48
50.0
100
AcDbPoint
 10
6090.60193285951
 20
834.6532937537467
 30
0.0
  0
POINT
  5
284B6
330
28468
100
AcDbEntity
  8
DEFPOINTS
 62
     0
 48
50.0
100
AcDbPoint
 10
6538.60193285951
 20
834.6532937537467
 30
0.0
  0
POINT
  5
284B7
330
28468
100
AcDbEntity
  8
DEFPOINTS
 62
     0
 48
50.0
100
AcDbPoint
 10
6538.60193285951
 20
424.2236557485866
 30
0.0
  0
ENDBLK
  5
28473
330
28468
100
AcDbEntity
  8
0
 48
50.0
100
AcDbBlockEnd
  0
BLOCK
  5
2847E
330
28474
100
AcDbEntity
  8
0
 48
50.0
100
AcDbBlockBegin
  2
*D59
 70
     1
 10
0.0
 20
0.0
 30
0.0
  3
*D59
  1

  0
LINE
  5
284B8
330
28474
100
AcDbEntity
  8
寸法
 62
     0
 48
50.0
370
    -2
100
AcDbLine
 10
6198.60193285951
 20
1746.653293753747
 30
0.0
 11
5423.56469429777
 21
1746.653293753747
 31
0.0
  0
LINE
  5
284B9
330
28474
100
AcDbEntity
  8
寸法
 62
     0
 48
50.0
370
    -2
100
AcDbLine
 10
5990.601932859513
 20
962.6532937537467
 30
0.0
 11
5423.56469429777
 21
962.6532937537469
 31
0.0
  0
LINE
  5
284BA
330
28474
100
AcDbEntity
  8
寸法
 62
     0
 48
50.0
370
    -2
100
AcDbLine
 10
5483.564694297768
 20
1746.653293753747
 30
0.0
 11
5483.564694297768
 21
962.6532937537469
 31
0.0
  0
INSERT
  5
284BB
330
28474
100
AcDbEntity
  8
寸法
 62
     0
 48
50.0
370
    -2
100
AcDbBlockReference
  2
_DOTSMALL
 10
5483.564694297768
 20
1746.653293753747
 30
0.0
 41
100.0
 42
100.0
 43
100.0
 50
90.0
  0
INSERT
  5
284BC
330
28474
100
AcDbEntity
  8
寸法
 62
     0
 48
50.0
370
    -2
100
AcDbBlockReference
  2
_DOTSMALL
 10
5483.564694297768
 20
962.6532937537469
 30
0.0
 41
100.0
 42
100.0
 43
100.0
 50
270.0
  0
MTEXT
  5
284BD
330
28474
100
AcDbEntity
  8
寸法
 62
     7
 48
50.0
100
AcDbMText
 10
5383.564694297769
 20
1334.193443409747
 30
0.0
 40
120.0
 41
0.0
 71
     5
 72
     1
  1
\A1;540
  7
STYLE1
 11
0.0000000000000001
 21
1.0
 31
0.0
 73
     1
 44
1.0
1001
ACAD
1000
MTEXTBEGIN
1070
    73
1070
     1
1070
    44
1040
1.0
1070
    74
1070
     0
1000
MTEXTEND
  0
POINT
  5
284BE
330
28474
100
AcDbEntity
  8
DEFPOINTS
 62
     0
 48
50.0
100
AcDbPoint
 10
6218.60193285951
 20
1746.653293753747
 30
0.0
  0
POINT
  5
284BF
330
28474
100
AcDbEntity
  8
DEFPOINTS
 62
     0
 48
50.0
100
AcDbPoint
 10
6010.601932859513
 20
962.6532937537467
 30
0.0
  0
POINT
  5
284C0
330
28474
100
AcDbEntity
  8
DEFPOINTS
 62
     0
 48
50.0
100
AcDbPoint
 10
5483.564694297768
 20
962.6532937537469
 30
0.0
  0
ENDBLK
  5
2847F
330
28474
100
AcDbEntity
  8
0
 48
50.0
100
AcDbBlockEnd
  0
BLOCK
  5
2848A
330
28480
100
AcDbEntity
  8
0
 48
50.0
100
AcDbBlockBegin
  2
*D60
 70
     1
 10
0.0
 20
0.0
 30
0.0
  3
*D60
  1

  0
LINE
  5
284C1
330
28480
100
AcDbEntity
  8
寸法
 62
     0
 48
50.0
370
    -2
100
AcDbLine
 10
6070.60193285951
 20
1202.653293753747
 30
0.0
 11
5888.18161912705
 21
1202.653293753747
 31
0.0
  0
LINE
  5
284C2
330
28480
100
AcDbEntity
  8
寸法
 62
     0
 48
50.0
370
    -2
100
AcDbLine
 10
5990.601932859513
 20
962.6532937537467
 30
0.0
 11
5888.18161912705
 21
962.6532937537467
 31
0.0
  0
LINE
  5
284C3
330
28480
100
AcDbEntity
  8
寸法
 62
     0
 48
50.0
370
    -2
100
AcDbLine
 10
5948.18161912705
 20
1202.653293753747
 30
0.0
 11
5948.18161912705
 21
962.6532937537467
 31
0.0
  0
INSERT
  5
284C4
330
28480
100
AcDbEntity
  8
寸法
 62
     0
 48
50.0
370
    -2
100
AcDbBlockReference
  2
_DOTSMALL
 10
5948.18161912705
 20
1202.653293753747
 30
0.0
 41
100.0
 42
100.0
 43
100.0
 50
90.0
  0
INSERT
  5
284C5
330
28480
100
AcDbEntity
  8
寸法
 62
     0
 48
50.0
370
    -2
100
AcDbBlockReference
  2
_DOTSMALL
 10
5948.18161912705
 20
962.6532937537467
 30
0.0
 41
100.0
 42
100.0
 43
100.0
 50
270.0
  0
MTEXT
  5
284C6
330
28480
100
AcDbEntity
  8
寸法
 62
     7
 48
50.0
100
AcDbMText
 10
5848.18161912705
 20
1082.653293753748
 30
0.0
 40
120.0
 41
0.0
 71
     5
 72
     1
  1
\A1;150
  7
STYLE1
 11
0.0000000000000001
 21
1.0
 31
0.0
 73
     1
 44
1.0
1001
ACAD
1000
MTEXTBEGIN
1070
    73
1070
     1
1070
    44
1040
1.0
1070
    74
1070
     0
1000
MTEXTEND
  0
POINT
  5
284C7
330
28480
100
AcDbEntity
  8
DEFPOINTS
 62
     0
 48
50.0
100
AcDbPoint
 10
6090.60193285951
 20
1202.653293753747
 30
0.0
  0
POINT
  5
284C8
330
28480
100
AcDbEntity
  8
DEFPOINTS
 62
     0
 48
50.0
100
AcDbPoint
 10
6010.601932859513
 20
962.6532937537467
 30
0.0
  0
POINT
  5
284C9
330
28480
100
AcDbEntity
  8
DEFPOINTS
 62
     0
 48
50.0
100
AcDbPoint
 10
5948.18161912705
 20
962.6532937537467
 30
0.0
  0
ENDBLK
  5
2848B
330
28480
100
AcDbEntity
  8
0
 48
50.0
100
AcDbBlockEnd
  0
BLOCK
  5
28498
330
2848C
100
AcDbEntity
  8
0
 48
50.0
100
AcDbBlockBegin
  2
*D61
 70
     1
 10
0.0
 20
0.0
 30
0.0
  3
*D61
  1

  0
LINE
  5
284CA
330
2848C
100
AcDbEntity
  8
寸法
 62
     0
 48
50.0
370
    -2
100
AcDbLine
 10
8165.441246036705
 20
1799.413293753748
 30
0.0
 11
9170.564511924574
 21
1799.413293753747
 31
0.0
  0
LINE
  5
284CB
330
2848C
100
AcDbEntity
  8
寸法
 62
     0
 48
50.0
370
    -2
100
AcDbLine
 10
8352.641246036702
 20
1746.653293753747
 30
0.0
 11
9170.564511924574
 21
1746.653293753746
 31
0.0
  0
LINE
  5
284CC
330
2848C
100
AcDbEntity
  8
寸法
 62
     0
 48
50.0
370
    -2
100
AcDbLine
 10
9110.564511924575
 20
1799.413293753747
 30
0.0
 11
9110.564511924575
 21
1899.413293753747
 31
0.0
  0
LINE
  5
284CD
330
2848C
100
AcDbEntity
  8
寸法
 62
     0
 48
50.0
370
    -2
100
AcDbLine
 10
9110.564511924575
 20
1746.653293753746
 30
0.0
 11
9110.564511924575
 21
1014.63548691078
 31
0.0
  0
LINE
  5
284CE
330
2848C
100
AcDbEntity
  8
寸法
 62
     0
 48
50.0
370
    -2
100
AcDbLine
 10
9110.564511924575
 20
1799.413293753747
 30
0.0
 11
9110.564511924575
 21
1746.653293753746
 31
0.0
  0
INSERT
  5
284CF
330
2848C
100
AcDbEntity
  8
寸法
 62
     0
 48
50.0
370
    -2
100
AcDbBlockReference
  2
_DOTSMALL
 10
9110.564511924575
 20
1799.413293753747
 30
0.0
 41
100.0
 42
100.0
 43
100.0
 50
270.0
  0
INSERT
  5
284D0
330
2848C
100
AcDbEntity
  8
寸法
 62
     0
 48
50.0
370
    -2
100
AcDbBlockReference
  2
_DOTSMALL
 10
9110.564511924575
 20
1746.653293753746
 30
0.0
 41
100.0
 42
100.0
 43
100.0
 50
90.0
  0
MTEXT
  5
284D1
330
2848C
100
AcDbEntity
  8
寸法
 62
     7
 48
50.0
100
AcDbMText
 10
9010.552700900953
 20
1280.644390332264
 30
0.0
 40
120.0
 41
0.0
 71
     5
 72
     1
  1
\A1;20～25
  7
STYLE1
 11
0.0000000000000001
 21
1.0
 31
0.0
 73
     1
 44
1.0
1001
ACAD
1000
MTEXTBEGIN
1070
    73
1070
     1
1070
    44
1040
1.0
1070
    74
1070
     0
1000
MTEXTEND
  0
POINT
  5
284D2
330
2848C
100
AcDbEntity
  8
DEFPOINTS
 62
     0
 48
50.0
100
AcDbPoint
 10
8145.441246036703
 20
1799.413293753748
 30
0.0
  0
POINT
  5
284D3
330
2848C
100
AcDbEntity
  8
DEFPOINTS
 62
     0
 48
50.0
100
AcDbPoint
 10
8332.641246036702
 20
1746.653293753747
 30
0.0
  0
POINT
  5
284D4
330
2848C
100
AcDbEntity
  8
DEFPOINTS
 62
     0
 48
50.0
100
AcDbPoint
 10
9110.564511924575
 20
1746.653293753746
 30
0.0
  0
ENDBLK
  5
28499
330
2848C
100
AcDbEntity
  8
0
 48
50.0
100
AcDbBlockEnd
  0
BLOCK
  5
284A4
330
2849A
100
AcDbEntity
  8
0
 48
50.0
100
AcDbBlockBegin
  2
*D62
 70
     1
 10
0.0
 20
0.0
 30
0.0
  3
*D62
  1

  0
LINE
  5
284D5
330
2849A
100
AcDbEntity
  8
寸法
 62
     0
 48
50.0
370
    -2
100
AcDbLine
 10
8352.641246036702
 20
1746.653293753747
 30
0.0
 11
8894.509845805547
 21
1746.653293753746
 31
0.0
  0
LINE
  5
284D6
330
2849A
100
AcDbEntity
  8
寸法
 62
     0
 48
50.0
370
    -2
100
AcDbLine
 10
8352.641246036702
 20
1422.653293753746
 30
0.0
 11
8894.509845805547
 21
1422.653293753745
 31
0.0
  0
LINE
  5
284D7
330
2849A
100
AcDbEntity
  8
寸法
 62
     0
 48
50.0
370
    -2
100
AcDbLine
 10
8834.509845805547
 20
1746.653293753746
 30
0.0
 11
8834.509845805547
 21
1422.653293753745
 31
0.0
  0
INSERT
  5
284D8
330
2849A
100
AcDbEntity
  8
寸法
 62
     0
 48
50.0
370
    -2
100
AcDbBlockReference
  2
_DOTSMALL
 10
8834.509845805547
 20
1746.653293753746
 30
0.0
 41
100.0
 42
100.0
 43
100.0
 50
90.0
  0
INSERT
  5
284D9
330
2849A
100
AcDbEntity
  8
寸法
 62
     0
 48
50.0
370
    -2
100
AcDbBlockReference
  2
_DOTSMALL
 10
8834.509845805547
 20
1422.653293753745
 30
0.0
 41
100.0
 42
100.0
 43
100.0
 50
270.0
  0
MTEXT
  5
284DA
330
2849A
100
AcDbEntity
  8
寸法
 62
     7
 48
50.0
100
AcDbMText
 10
8734.509845805547
 20
1584.653293753748
 30
0.0
 40
120.0
 41
0.0
 71
     5
 72
     1
  1
\A1;180
  7
STYLE1
 11
0.0000000000000001
 21
1.0
 31
0.0
 73
     1
 44
1.0
1001
ACAD
1000
MTEXTBEGIN
1070
    73
1070
     1
1070
    44
1040
1.0
1070
    74
1070
     0
1000
MTEXTEND
  0
POINT
  5
284DB
330
2849A
100
AcDbEntity
  8
DEFPOINTS
 62
     0
 48
50.0
100
AcDbPoint
 10
8332.641246036702
 20
1746.653293753747
 30
0.0
  0
POINT
  5
284DC
330
2849A
100
AcDbEntity
  8
DEFPOINTS
 62
     0
 48
50.0
100
AcDbPoint
 10
8332.641246036702
 20
1422.653293753746
 30
0.0
  0
POINT
  5
284DD
330
2849A
100
AcDbEntity
  8
DEFPOINTS
 62
     0
 48
50.0
100
AcDbPoint
 10
8834.509845805547
 20
1422.653293753745
 30
0.0
  0
ENDBLK
  5
284A5
330
2849A
100
AcDbEntity
  8
0
 48
50.0
100
AcDbBlockEnd
  0
ENDSEC
  0
SECTION
  2
ENTITIES
  0
MTEXT
  5
763F
330
747D
100
AcDbEntity
  8
0
100
AcDbMText
 10
302.846345836809
 20
280.1983726409901
 30
0.0
 40
3.5
 41
5.323721266742722
 71
     1
 72
     5
  1

  7
MSMINCHO
 73
     1
 44
1.0
1001
ACAD
1000
MTEXTBEGIN
1070
    73
1070
     1
1070
    44
1040
1.0
1070
    74
1070
     0
1000
MTEXTEND
  0
LINE
  5
10B57
330
747D
100
AcDbEntity
  8
補助
  6
PHANTOM
 62
   230
 48
50.0
100
AcDbLine
 10
139.9999999999995
 20
11409.6
 30
0.0
 11
16307.2
 21
11409.6
 31
0.0
  0
LINE
  5
10B59
330
747D
100
AcDbEntity
  8
仕様書枠
  6
Continuous
 48
50.0
100
AcDbLine
 10
13107.2
 20
1200.0
 30
0.0
 11
13107.2
 21
-0.0000000000000729
 31
0.0
  0
LINE
  5
10B5D
330
747D
100
AcDbEntity
  8
仕様書枠
 48
50.0
100
AcDbLine
 10
140.0
 20
0.0
 30
0.0
 11
16307.2
 21
-0.0000000000000909
 31
0.0
  0
LINE
  5
10B5E
330
747D
100
AcDbEntity
  8
補助
  6
PHANTOM
 62
   230
 48
50.0
100
AcDbLine
 10
16307.2
 20
11409.6
 30
0.0
 11
16307.2
 21
1200.0
 31
0.0
  0
LINE
  5
10B6C
330
747D
100
AcDbEntity
  8
仕様書枠
 48
50.0
100
AcDbLine
 10
13107.2
 20
1200.0
 30
0.0
 11
16307.2
 21
1200.0
 31
0.0
  0
TEXT
  5
10B73
330
747D
100
AcDbEntity
  8
文字
 62
     7
 48
50.0
100
AcDbText
 10
13162.9790565769
 20
895.0906074299405
 30
0.0
 40
200.0
  1
基 礎 図
  7
STYLE2
100
AcDbText
  0
LINE
  5
10B7B
330
747D
100
AcDbEntity
  8
仕様書枠
 48
50.0
100
AcDbLine
 10
13107.2
 20
800.0
 30
0.0
 11
14251.2
 21
800.0
 31
0.0
  0
LINE
  5
10B88
330
747D
100
AcDbEntity
  8
仕様書枠
  6
Continuous
 48
50.0
100
AcDbLine
 10
14251.2
 20
1200.0
 30
0.0
 11
14251.2
 21
800.0
 31
0.0
  0
LINE
  5
16462
330
747D
100
AcDbEntity
  8
仕様書枠
 48
50.0
100
AcDbLine
 10
16307.2
 20
1200.0
 30
0.0
 11
16307.2
 21
-0.0000000000000909
 31
0.0
  0
LINE
  5
1903B
330
747D
100
AcDbEntity
  8
補助
  6
PHANTOM
 62
   230
 48
50.0
100
AcDbLine
 10
140.0
 20
0.0
 30
0.0
 11
139.9999999999995
 21
11409.6
 31
0.0
  0
LEADER
  5
1AC27
330
747D
100
AcDbEntity
  8
寸法
 48
50.0
100
AcDbLeader
  3
INABA_S50G
 73
     0
 74
     0
 75
     1
 40
120.0
 41
720.0000000000001
 76
     3
 10
12030.05985718446
 20
7015.174295080504
 30
0.0
 10
12186.83343157075
 20
6754.160381512672
 30
0.0
 10
12311.83343157075
 20
6754.160381512672
 30
0.0
340
1AC28
1001
ACAD
1000
DSTYLE
1002
{
1070
   341
1005
0
1070
    40
1040
1.0
1070
   343
1005
0
1070
   344
1005
0
1002
}
  0
MTEXT
  5
1AC28
102
{ACAD_REACTORS
330
1AC27
102
}
330
747D
100
AcDbEntity
  8
部品1
 62
     7
 48
50.0
100
AcDbMText
 10
13056.83343157075
 20
6839.160381512671
 30
0.0
 40
120.0
 41
0.0
 71
     6
 72
     1
  1
\A1;床下換気口
  7
STYLE1
 73
     1
 44
1.0
1001
ACAD
1000
MTEXTBEGIN
1070
    73
1070
     1
1070
    44
1040
1.0
1070
    74
1070
     0
1000
MTEXTEND
  0
TEXT
  5
1AC29
330
747D
100
AcDbEntity
  8
部品1
 48
50.0
100
AcDbText
 10
12377.43013846117
 20
6021.885933554689
 30
0.0
 40
80.0
  1
(a=45,b=55,c=75)
  7
STYLE1
100
AcDbText
  0
TEXT
  5
1AC2A
330
747D
100
AcDbEntity
  8
部品1
 48
50.0
100
AcDbText
 10
12218.85112970687
 20
6128.731154423443
 30
0.0
 40
80.0
  1
※a,b,cは屋根の出幅です。
  7
STYLE1
100
AcDbText
  0
MTEXT
  5
1AC2B
102
{ACAD_REACTORS
330
1AC2C
102
}
330
747D
100
AcDbEntity
  8
部品1
 62
     7
 48
50.0
100
AcDbMText
 10
13016.63832569547
 20
6308.041841356518
 30
0.0
 40
120.0
 41
0.0
 71
     6
 72
     1
  1
\A1;屋根の外寸
  7
STYLE1
 73
     1
 44
1.0
1001
ACAD
1000
MTEXTBEGIN
1070
    73
1070
     1
1070
    44
1040
1.0
1070
    74
1070
     0
1000
MTEXTEND
  0
LEADER
  5
1AC2C
330
747D
100
AcDbEntity
  8
寸法
 48
50.0
100
AcDbLeader
  3
INABA_S50G
 73
     0
 74
     0
 75
     1
 40
120.0
 41
672.0
 76
     3
 10
12078.69831350343
 20
6481.931184820094
 30
0.0
 10
12194.63832569548
 20
6223.041841356518
 30
0.0
 10
12319.63832569548
 20
6223.041841356518
 30
0.0
340
1AC2B
1001
ACAD
1000
DSTYLE
1002
{
1070
   341
1005
0
1070
    40
1040
1.0
1070
   343
1005
0
1070
   344
1005
0
1002
}
  0
TEXT
  5
1C7A1
330
747D
100
AcDbEntity
  8
文字
 62
     7
 48
50.0
100
AcDbText
 10
13188.16259899338
 20
79.80631269190417
 30
0.0
 40
80.0
  1
※布基礎には換気口を設けてください。
  7
STYLE2
100
AcDbText
  0
TEXT
  5
1C7E7
330
747D
100
AcDbEntity
  8
文字
 62
     7
 48
50.0
100
AcDbText
 10
13188.16259899338
 20
246.7109242801889
 30
0.0
 40
80.0
  1
※寒冷地等は地域の実情に合わせた基礎にして下さい。
  7
STYLE2
100
AcDbText
  0
TEXT
  5
1C7E8
330
747D
100
AcDbEntity
  8
文字
 62
     7
 48
50.0
100
AcDbText
 10
14325.79230300687
 20
499.5983841039506
 30
0.0
 40
160.0
  1
ＮＸＮ－１３ＤＬ－８
  7
STYLE2
100
AcDbText
  0
TEXT
  5
1C7EC
330
747D
100
AcDbEntity
  8
文字
 62
     7
 48
50.0
100
AcDbText
 10
14524.131837222
 20
1031.557706291229
 30
0.0
 40
100.0
  1
<縮尺> S=1/40
  7
STYLE2
100
AcDbText
  0
TEXT
  5
1C7ED
330
747D
100
AcDbEntity
  8
文字
 62
     7
 48
50.0
100
AcDbText
 10
13201.43669998441
 20
477.2740661031257
 30
0.0
 40
160.0
  1
機種名
  7
STYLE2
100
AcDbText
  0
LINE
  5
1C7EF
330
747D
100
AcDbEntity
  8
文字
 62
     7
 48
50.0
100
AcDbLine
 10
13187.2
 20
400.0
 30
0.0
 11
16227.2
 21
400.0
 31
0.0
  0
MTEXT
  5
1D2D5
102
{ACAD_REACTORS
330
1D2D6
102
}
330
747D
100
AcDbEntity
  8
部品1
 62
     7
 48
50.0
100
AcDbMText
 10
13223.99523070987
 20
8024.800102868768
 30
0.0
 40
120.0
 41
0.0
 71
     6
 72
     1
  1
アンカーボルト
  7
STYLE1
 73
     1
 44
1.0
1001
ACAD
1000
MTEXTBEGIN
1070
    73
1070
     1
1070
    44
1040
1.0
1070
    74
1070
     0
1000
MTEXTEND
  0
LEADER
  5
1D2D6
330
747D
100
AcDbEntity
  8
寸法
 48
50.0
100
AcDbLeader
  3
INABA_S50G
 73
     0
 74
     0
 75
     1
 40
120.0
 41
994.3492424049171
 76
     3
 10
11905.68008575699
 20
7586.395202984971
 30
0.0
 10
12079.64598830496
 20
7939.800102868767
 30
0.0
 10
12204.64598830496
 20
7939.800102868767
 30
0.0
340
1D2D5
1001
ACAD
1000
DSTYLE
1002
{
1070
   341
1005
0
1070
    40
1040
1.0
1070
   343
1005
0
1070
   344
1005
0
1002
}
  0
MTEXT
  5
1D332
102
{ACAD_REACTORS
330
1D333
102
}
330
747D
100
AcDbEntity
  8
部品1
 62
     7
 48
50.0
100
AcDbMText
 10
11588.82869701569
 20
6879.777879559816
 30
0.0
 40
120.0
 41
0.0
 71
     6
 72
     1
  1
CB
  7
STYLE1
 73
     1
 44
1.0
1001
ACAD
1000
MTEXTBEGIN
1070
    73
1070
     1
1070
    44
1040
1.0
1070
    74
1070
     0
1000
MTEXTEND
  0
LEADER
  5
1D333
330
747D
100
AcDbEntity
  8
寸法
 48
50.0
100
AcDbLeader
  3
INABA_S50G
 73
     0
 74
     0
 75
     1
 40
120.0
 41
149.591883092037
 76
     3
 10
11161.95401106101
 20
7017.496193114642
 30
0.0
 10
11289.23681392365
 20
6794.777879559816
 30
0.0
 10
11414.23681392365
 20
6794.777879559816
 30
0.0
340
1D332
1001
ACAD
1000
DSTYLE
1002
{
1070
   341
1005
0
1070
    40
1040
1.0
1070
   343
1005
0
1070
   344
1005
0
1002
}
  0
DIMENSION
  5
20DE1
330
747D
100
AcDbEntity
  8
寸法
 48
50.0
100
AcDbDimension
  2
*D19
 10
12073.59999999999
 20
8667.407680685181
 30
0.0
 11
12344.77462120245
 21
8667.407680685181
 31
0.0
 70
   160
  1
a
 71
     5
 42
45.0
  3
INABA_S40G
100
AcDbAlignedDimension
 13
12028.6
 23
7709.187358626259
 33
0.0
 14
12073.59999999999
 24
8435.453816720169
 34
0.0
100
AcDbRotatedDimension
1001
ACAD
1000
DSTYLE
1002
{
1070
   341
1005
0
1002
}
  0
DIMENSION
  5
20DFB
330
747D
100
AcDbEntity
  8
寸法
 48
50.0
100
AcDbDimension
  2
*D20
 10
4418.6
 20
8667.407680685181
 30
0.0
 11
4102.425378797541
 21
8667.407680685181
 31
0.0
 70
   160
  1
a
 71
     5
 42
44.99999999999272
  3
INABA_S40G
100
AcDbAlignedDimension
 13
4373.600000000007
 23
8435.453816720173
 33
0.0
 14
4418.6
 24
7709.187358626259
 34
0.0
100
AcDbRotatedDimension
1001
ACAD
1000
DSTYLE
1002
{
1070
   341
1005
0
1002
}
  0
LINE
  5
22711
330
747D
100
AcDbEntity
  8
想像線
 48
10.0
100
AcDbLine
 10
12073.59999999999
 20
7784.187358626262
 30
0.0
 11
4373.6
 21
7784.187358626279
 31
0.0
  0
LINE
  5
22712
330
747D
100
AcDbEntity
  8
想像線
 48
10.0
100
AcDbLine
 10
4373.6
 20
6274.187358626268
 30
0.0
 11
4373.6
 21
7784.187358626268
 31
0.0
  0
LINE
  5
22713
330
747D
100
AcDbEntity
  8
想像線
 48
10.0
100
AcDbLine
 10
12073.59999999999
 20
6274.187358626275
 30
0.0
 11
12073.59999999999
 21
7784.187358626262
 31
0.0
  0
LINE
  5
22714
330
747D
100
AcDbEntity
  8
想像線
 48
10.0
100
AcDbLine
 10
12073.59999999999
 20
6274.187358626275
 30
0.0
 11
4373.6
 21
6274.187358626256
 31
0.0
  0
DIMENSION
  5
22741
330
747D
100
AcDbEntity
  8
寸法
 48
50.0
100
AcDbDimension
  2
*D25
 10
3543.72190961068
 20
7709.187358626259
 30
0.0
 11
3443.721909610679
 21
7746.687358626262
 31
0.0
 70
    32
  1
c
 71
     5
 42
75.00000000000636
  3
INABA_S40G
100
AcDbAlignedDimension
 13
3795.665006330072
 23
7784.187358626265
 33
0.0
 14
4418.6
 24
7709.187358626259
 34
0.0
 50
90.0
100
AcDbRotatedDimension
1001
ACAD
1000
DSTYLE
1002
{
1070
   341
1005
0
1002
}
  0
DIMENSION
  5
2275B
330
747D
100
AcDbEntity
  8
寸法
 48
50.0
100
AcDbDimension
  2
*D26
 10
3543.72190961068
 20
6274.187358626285
 30
0.0
 11
3443.72190961068
 21
6301.687358626274
 31
0.0
 70
    32
  1
b
 71
     5
 42
54.99999999997453
  3
INABA_S40G
100
AcDbAlignedDimension
 13
4418.6
 23
6329.18735862626
 33
0.0
 14
3795.665006330079
 24
6274.187358626285
 34
0.0
 50
90.0
100
AcDbRotatedDimension
1001
ACAD
1000
DSTYLE
1002
{
1070
   341
1005
0
1002
}
  0
DIMENSION
  5
23FD9
330
747D
100
AcDbEntity
  8
寸法
 48
50.0
100
AcDbDimension
  2
*D28
 10
11347.81202022565
 20
6329.187358626278
 30
0.0
 11
11347.81202022565
 21
6042.223775949105
 31
0.0
 70
   160
 71
     5
 42
279.9999999999791
  3
INABA_S40G
100
AcDbAlignedDimension
 13
11448.59999999998
 23
6609.187358626257
 33
0.0
 14
11448.59999999999
 24
6329.187358626278
 34
0.0
 50
90.0
100
AcDbRotatedDimension
1001
ACAD
1000
DSTYLE
1002
{
1070
   341
1005
0
1002
}
  0
DIMENSION
  5
24043
330
747D
100
AcDbEntity
  8
寸法
 48
50.0
100
AcDbDimension
  2
*D27
 10
11908.6
 20
7258.78597172437
 30
0.0
 11
12298.65905511811
 21
7258.78597172437
 31
0.0
 70
   160
 71
     5
 42
119.9999999999963
  3
INABA_S40G
100
AcDbAlignedDimension
 13
12028.6
 23
7144.187358626297
 33
0.0
 14
11908.6
 24
7144.187358626291
 34
0.0
100
AcDbRotatedDimension
1001
ACAD
1000
DSTYLE
1002
{
1070
   341
1005
0
1002
}
  0
LINE
  5
272C0
330
747D
100
AcDbEntity
  8
部品1
 48
50.0
100
AcDbLine
 10
11908.6
 20
7509.18735862626
 30
0.0
 11
4538.599999999998
 21
7509.187358626258
 31
0.0
  0
DIMENSION
  5
272C1
330
747D
100
AcDbEntity
  8
寸法
 48
50.0
100
AcDbDimension
  2
*D29
 10
7155.600000000001
 20
8435.453816720169
 30
0.0
 11
8105.6
 21
8535.453816720169
 31
0.0
 70
    32
 71
     5
 42
1900.0
  3
INABA_S40G
100
AcDbAlignedDimension
 13
9055.600000000001
 23
7636.187358626258
 33
0.0
 14
7155.600000000001
 24
7636.187358626258
 34
0.0
100
AcDbRotatedDimension
1001
ACAD
1000
DSTYLE
1002
{
1070
   341
1005
0
1002
}
  0
LINE
  5
272C3
330
747D
100
AcDbEntity
  8
部品1
 48
50.0
100
AcDbLine
 10
12028.6
 20
7709.187358626259
 30
0.0
 11
4418.6
 21
7709.187358626259
 31
0.0
  0
DIMENSION
  5
272C4
330
747D
100
AcDbEntity
  8
寸法
 48
50.0
100
AcDbDimension
  2
*D30
 10
12028.6
 20
8667.407680685178
 30
0.0
 11
8223.600000000001
 21
8767.407680685177
 31
0.0
 70
    32
 71
     5
 42
7610.0
  3
INABA_S40G
100
AcDbAlignedDimension
 13
4418.6
 23
7709.187358626259
 33
0.0
 14
12028.6
 24
7709.187358626259
 34
0.0
100
AcDbRotatedDimension
1001
ACAD
1000
DSTYLE
1002
{
1070
   341
1005
0
1002
}
  0
LINE
  5
272C6
330
747D
100
AcDbEntity
  8
部品1
 48
50.0
100
AcDbLine
 10
12028.6
 20
6329.187358626294
 30
0.0
 11
4418.599999999996
 21
6329.187358626255
 31
0.0
  0
DIMENSION
  5
272C7
330
747D
100
AcDbEntity
  8
寸法
 48
50.0
100
AcDbDimension
  2
*D31
 10
8223.600000000008
 20
8191.796175296508
 30
0.0
 11
8698.600000000007
 21
8291.796175296507
 31
0.0
 70
    32
 71
     5
 42
950.0
  3
INABA_S40G
100
AcDbAlignedDimension
 13
9173.600000000007
 23
7106.187358626259
 33
0.0
 14
8223.600000000008
 24
7106.187358626259
 34
0.0
100
AcDbRotatedDimension
1001
ACAD
1000
DSTYLE
1002
{
1070
   341
1005
0
1002
}
  0
LINE
  5
272C8
330
747D
100
AcDbEntity
  8
細線
 48
50.0
100
AcDbLine
 10
4418.599999999996
 20
7031.309886389387
 30
0.0
 11
4531.477472236868
 21
7144.187358626258
 31
0.0
  0
LINE
  5
272C9
330
747D
100
AcDbEntity
  8
細線
 48
50.0
100
AcDbLine
 10
4418.599999999996
 20
7076.211166994733
 30
0.0
 11
4486.57619163152
 21
7144.187358626256
 31
0.0
  0
LINE
  5
272CC
330
747D
100
AcDbEntity
  8
部品1
 48
50.0
100
AcDbLine
 10
8123.600000000008
 20
6956.187358626259
 30
0.0
 11
8123.600000000008
 21
7156.187358626259
 31
0.0
  0
LINE
  5
272CD
330
747D
100
AcDbEntity
  8
部品1
 48
50.0
100
AcDbLine
 10
8323.600000000007
 20
6956.187358626259
 30
0.0
 11
8323.600000000007
 21
7156.187358626259
 31
0.0
  0
LINE
  5
272CE
330
747D
100
AcDbEntity
  8
部品1
 48
50.0
100
AcDbLine
 10
7173.600000000007
 20
6956.187358626259
 30
0.0
 11
7173.600000000007
 21
7156.187358626259
 31
0.0
  0
LINE
  5
272CF
330
747D
100
AcDbEntity
  8
部品1
 48
50.0
100
AcDbLine
 10
7373.600000000007
 20
6956.187358626259
 30
0.0
 11
7373.600000000007
 21
7156.187358626259
 31
0.0
  0
LINE
  5
272D0
330
747D
100
AcDbEntity
  8
部品1
 48
50.0
100
AcDbLine
 10
6423.600000000007
 20
6956.187358626259
 30
0.0
 11
6423.600000000007
 21
7156.187358626259
 31
0.0
  0
LINE
  5
272D1
330
747D
100
AcDbEntity
  8
部品1
 48
50.0
100
AcDbLine
 10
6223.600000000008
 20
6956.187358626259
 30
0.0
 11
6223.600000000008
 21
7156.187358626259
 31
0.0
  0
LINE
  5
272D2
330
747D
100
AcDbEntity
  8
部品1
 48
50.0
100
AcDbLine
 10
5473.600000000008
 20
6956.187358626259
 30
0.0
 11
5473.600000000008
 21
7156.187358626259
 31
0.0
  0
LINE
  5
272D3
330
747D
100
AcDbEntity
  8
部品1
 48
50.0
100
AcDbLine
 10
5273.600000000008
 20
6956.187358626259
 30
0.0
 11
5273.600000000008
 21
7156.187358626259
 31
0.0
  0
DIMENSION
  5
272D4
330
747D
100
AcDbEntity
  8
寸法
 48
50.0
100
AcDbDimension
  2
*D32
 10
7273.600000000008
 20
8191.796175296508
 30
0.0
 11
7748.600000000007
 21
8291.796175296507
 31
0.0
 70
    32
 71
     5
 42
950.0
  3
INABA_S40G
100
AcDbAlignedDimension
 13
8223.600000000008
 23
7106.187358626259
 33
0.0
 14
7273.600000000008
 24
7106.187358626259
 34
0.0
100
AcDbRotatedDimension
1001
ACAD
1000
DSTYLE
1002
{
1070
   341
1005
0
1002
}
  0
DIMENSION
  5
272D5
330
747D
100
AcDbEntity
  8
寸法
 48
50.0
100
AcDbDimension
  2
*D33
 10
3795.665006330072
 20
6527.187358626263
 30
0.0
 11
3795.665006330072
 21
7056.687358626259
 31
0.0
 70
   160
 71
     5
 42
1058.999999999996
  3
INABA_S40G
100
AcDbAlignedDimension
 13
4491.6
 23
7586.187358626259
 33
0.0
 14
4491.600000000008
 24
6527.187358626263
 34
0.0
 50
90.0
100
AcDbRotatedDimension
1001
ACAD
1000
DSTYLE
1002
{
1070
   341
1005
0
1002
}
  0
DIMENSION
  5
272D6
330
747D
100
AcDbEntity
  8
寸法
 48
50.0
100
AcDbDimension
  2
*D34
 10
3543.721909610674
 20
6329.187358626259
 30
0.0
 11
3543.721909610673
 21
7056.687358626259
 31
0.0
 70
   160
 71
     5
 42
1380.0
  3
INABA_S40G
100
AcDbAlignedDimension
 13
4418.6
 23
7709.187358626259
 33
0.0
 14
4418.6
 24
6329.187358626259
 34
0.0
 50
90.0
100
AcDbRotatedDimension
1001
ACAD
1000
DSTYLE
1002
{
1070
   341
1005
0
1002
}
  0
LINE
  5
272D8
330
747D
100
AcDbEntity
  8
部品1
 48
50.0
100
AcDbLine
 10
4418.6
 20
6329.187358626259
 30
0.0
 11
4418.6
 21
7709.187358626259
 31
0.0
  0
DIMENSION
  5
272DA
330
747D
100
AcDbEntity
  8
寸法
 48
50.0
100
AcDbDimension
  2
*D35
 10
4901.285990614302
 20
7709.187358626259
 30
0.0
 11
4901.285990614301
 21
7385.782149320435
 31
0.0
 70
   160
 71
     5
 42
653.0
  3
INABA_S40G
100
AcDbAlignedDimension
 13
5323.600000000007
 23
7056.187358626259
 33
0.0
 14
4992.765475140901
 24
7709.187358626259
 34
0.0
 50
90.0
100
AcDbRotatedDimension
1001
ACAD
1000
DSTYLE
1002
{
1070
   341
1005
0
1002
}
  0
DIMENSION
  5
272DB
330
747D
100
AcDbEntity
  8
寸法
 48
50.0
100
AcDbDimension
  2
*D36
 10
4418.6
 20
8191.796175296508
 30
0.0
 11
4896.100000000004
 21
8291.796175296507
 31
0.0
 70
    32
 71
     5
 42
955.0000000000073
  3
INABA_S40G
100
AcDbAlignedDimension
 13
5373.600000000007
 23
7106.187358626259
 33
0.0
 14
4418.6
 24
7709.187358626259
 34
0.0
100
AcDbRotatedDimension
1001
ACAD
1000
DSTYLE
1002
{
1070
   341
1005
0
1002
}
  0
DIMENSION
  5
272DC
330
747D
100
AcDbEntity
  8
寸法
 48
50.0
100
AcDbDimension
  2
*D37
 10
6323.600000000007
 20
8191.796175296508
 30
0.0
 11
6798.600000000007
 21
8291.796175296507
 31
0.0
 70
    32
 71
     5
 42
950.0
  3
INABA_S40G
100
AcDbAlignedDimension
 13
7273.600000000008
 23
7106.187358626259
 33
0.0
 14
6323.600000000007
 24
7106.187358626259
 34
0.0
100
AcDbRotatedDimension
1001
ACAD
1000
DSTYLE
1002
{
1070
   341
1005
0
1002
}
  0
DIMENSION
  5
272DD
330
747D
100
AcDbEntity
  8
寸法
 48
50.0
100
AcDbDimension
  2
*D38
 10
5373.600000000007
 20
8191.796175296508
 30
0.0
 11
5848.600000000008
 21
8291.796175296507
 31
0.0
 70
    32
 71
     5
 42
950.0
  3
INABA_S40G
100
AcDbAlignedDimension
 13
6323.600000000007
 23
7106.187358626259
 33
0.0
 14
5373.600000000007
 24
7106.187358626259
 34
0.0
100
AcDbRotatedDimension
1001
ACAD
1000
DSTYLE
1002
{
1070
   341
1005
0
1002
}
  0
DIMENSION
  5
272DE
330
747D
100
AcDbEntity
  8
寸法
 48
50.0
100
AcDbDimension
  2
*D39
 10
4901.285990614302
 20
7056.187358626259
 30
0.0
 11
4901.285990614301
 21
6771.18735862626
 31
0.0
 70
   160
 71
     5
 42
726.9999999999891
  3
INABA_S40G
100
AcDbAlignedDimension
 13
4992.765475140901
 23
6329.187358626271
 33
0.0
 14
5323.600000000007
 24
7056.187358626259
 34
0.0
 50
90.0
100
AcDbRotatedDimension
1001
ACAD
1000
DSTYLE
1002
{
1070
   341
1005
0
1002
}
  0
ARC
  5
272DF
330
747D
100
AcDbEntity
  8
想像線
 48
5.0
100
AcDbCircle
 10
5188.600000000004
 20
6329.187358626263
 30
0.0
 40
720.0
100
AcDbArc
 50
180.0
 51
270.0
  0
DIMENSION
  5
272E1
330
747D
100
AcDbEntity
  8
寸法
 48
50.0
100
AcDbDimension
  2
*D40
 10
4305.512673767881
 20
5609.187358626256
 30
0.0
 11
4305.51267376788
 21
5969.187358626257
 31
0.0
 70
   160
  1
扉の出<>
 71
     5
 42
720.0
  3
INABA_S40G
100
AcDbAlignedDimension
 13
4418.600000000004
 23
6329.187358626255
 33
0.0
 14
4774.325326928809
 24
5609.187358626256
 34
0.0
 50
90.0
100
AcDbRotatedDimension
1001
ACAD
1000
DSTYLE
1002
{
1070
   341
1005
0
1002
}
  0
DIMENSION
  5
272E2
330
747D
100
AcDbEntity
  8
寸法
 48
50.0
100
AcDbDimension
  2
*D41
 10
3795.665006330072
 20
6329.187358626259
 30
0.0
 11
3795.665006330072
 21
5993.656409783667
 31
0.0
 70
   160
 71
     5
 42
198.0000000000036
  3
INABA_S40G
100
AcDbAlignedDimension
 13
4491.600000000008
 23
6527.187358626263
 33
0.0
 14
4418.6
 24
6329.187358626259
 34
0.0
 50
90.0
100
AcDbRotatedDimension
1001
ACAD
1000
DSTYLE
1002
{
1070
   341
1005
0
1002
}
  0
LINE
  5
272E3
330
747D
100
AcDbEntity
  8
部品1
 48
50.0
100
AcDbLine
 10
4998.599999999986
 20
6609.187358626257
 30
0.0
 11
4998.599999999991
 21
6329.187358626299
 31
0.0
  0
LINE
  5
272E4
330
747D
100
AcDbEntity
  8
部品1
 48
50.0
100
AcDbLine
 10
4798.599999999986
 20
6609.187358626257
 30
0.0
 11
4798.599999999991
 21
6329.187358626295
 31
0.0
  0
LINE
  5
272E5
330
747D
100
AcDbEntity
  8
細線
 48
50.0
100
AcDbLine
 10
4798.599999999987
 20
6507.691957914606
 30
0.0
 11
4900.095400711641
 21
6609.187358626257
 31
0.0
  0
LINE
  5
272E6
330
747D
100
AcDbEntity
  8
細線
 48
50.0
100
AcDbLine
 10
4799.700523133066
 20
6329.187358626295
 30
0.0
 11
4998.599999999986
 21
6528.086835493219
 31
0.0
  0
LINE
  5
272E7
330
747D
100
AcDbEntity
  8
細線
 48
50.0
100
AcDbLine
 10
4798.599999999989
 20
6417.889396703913
 30
0.0
 11
4989.897961922331
 21
6609.187358626257
 31
0.0
  0
LINE
  5
272E8
330
747D
100
AcDbEntity
  8
細線
 48
50.0
100
AcDbLine
 10
4798.599999999989
 20
6462.790677309257
 30
0.0
 11
4944.996681316989
 21
6609.187358626257
 31
0.0
  0
LINE
  5
272E9
330
747D
100
AcDbEntity
  8
細線
 48
50.0
100
AcDbLine
 10
4798.599999999989
 20
6372.988116098568
 30
0.0
 11
4998.599999999986
 21
6572.988116098563
 31
0.0
  0
LINE
  5
272EA
330
747D
100
AcDbEntity
  8
センター
 48
2.0
100
AcDbLine
 10
4541.600000000007
 20
6577.187358626263
 30
0.0
 11
4541.600000000007
 21
6477.187358626263
 31
0.0
  0
CIRCLE
  5
272EB
330
747D
100
AcDbEntity
  8
部品1
 48
50.0
100
AcDbCircle
 10
4541.599999999993
 20
6527.187358626263
 30
0.0
 40
35.0
  0
LINE
  5
272EC
330
747D
100
AcDbEntity
  8
センター
 48
2.0
100
AcDbLine
 10
4491.600000000008
 20
6527.187358626263
 30
0.0
 11
4591.600000000007
 21
6527.187358626263
 31
0.0
  0
LINE
  5
272ED
330
747D
100
AcDbEntity
  8
細線
 48
50.0
100
AcDbLine
 10
4934.404364949105
 20
6329.187358626299
 30
0.0
 11
4998.599999999993
 21
6393.382993677187
 31
0.0
  0
LINE
  5
272EE
330
747D
100
AcDbEntity
  8
細線
 48
50.0
100
AcDbLine
 10
4889.503084343758
 20
6329.187358626297
 30
0.0
 11
4998.599999999993
 21
6438.284274282534
 31
0.0
  0
LINE
  5
272EF
330
747D
100
AcDbEntity
  8
細線
 48
50.0
100
AcDbLine
 10
4844.601803738411
 20
6329.187358626297
 30
0.0
 11
4998.599999999988
 21
6483.185554887872
 31
0.0
  0
LINE
  5
272F0
330
747D
100
AcDbEntity
  8
細線
 48
50.0
100
AcDbLine
 10
4979.30564555445
 20
6329.187358626299
 30
0.0
 11
4998.599999999993
 21
6348.481713071844
 31
0.0
  0
LINE
  5
272F1
330
747D
100
AcDbEntity
  8
細線
 48
50.0
100
AcDbLine
 10
4511.082594658247
 20
6944.187358626256
 30
0.0
 11
4538.6
 21
6971.704763968009
 31
0.0
  0
LINE
  5
272F2
330
747D
100
AcDbEntity
  8
細線
 48
50.0
100
AcDbLine
 10
4466.181314052902
 20
6944.187358626256
 30
0.0
 11
4538.599999999999
 21
7016.606044573355
 31
0.0
  0
LINE
  5
272F3
330
747D
100
AcDbEntity
  8
細線
 48
50.0
100
AcDbLine
 10
4421.280033447559
 20
6944.187358626257
 30
0.0
 11
4538.6
 21
7061.507325178701
 31
0.0
  0
LINE
  5
272F4
330
747D
100
AcDbEntity
  8
細線
 48
50.0
100
AcDbLine
 10
4418.599999999996
 20
6986.408605784044
 30
0.0
 11
4538.599999999998
 21
7106.408605784046
 31
0.0
  0
LINE
  5
272F5
330
747D
100
AcDbEntity
  8
部品1
 48
50.0
100
AcDbLine
 10
4538.6
 20
6944.187358626257
 30
0.0
 11
4418.599999999996
 21
6944.187358626257
 31
0.0
  0
LINE
  5
272F6
330
747D
100
AcDbEntity
  8
細線
 48
50.0
100
AcDbLine
 10
4798.599999999986
 20
6552.593238519946
 30
0.0
 11
4855.194120106297
 21
6609.187358626257
 31
0.0
  0
LINE
  5
272FE
330
747D
100
AcDbEntity
  8
想像線
 48
5.0
100
AcDbLine
 10
5188.600000000004
 20
6329.187358626274
 30
0.0
 11
5188.600000000004
 21
5609.187358626263
 31
0.0
  0
LINE
  5
2730A
330
747D
100
AcDbEntity
  8
センター
 48
2.0
100
AcDbLine
 10
5323.600000000007
 20
7056.187358626259
 30
0.0
 11
5423.600000000007
 21
7056.187358626259
 31
0.0
  0
LINE
  5
2730B
330
747D
100
AcDbEntity
  8
部品1
 48
50.0
100
AcDbLine
 10
5473.600000000008
 20
6956.187358626259
 30
0.0
 11
5273.600000000008
 21
6956.187358626259
 31
0.0
  0
LINE
  5
2730C
330
747D
100
AcDbEntity
  8
センター
 48
2.0
100
AcDbLine
 10
5373.600000000007
 20
7106.187358626259
 30
0.0
 11
5373.600000000007
 21
7006.187358626259
 31
0.0
  0
LINE
  5
27310
330
747D
100
AcDbEntity
  8
部品1
 48
50.0
100
AcDbLine
 10
6423.600000000007
 20
6956.187358626259
 30
0.0
 11
6223.600000000008
 21
6956.187358626259
 31
0.0
  0
LINE
  5
27311
330
747D
100
AcDbEntity
  8
センター
 48
2.0
100
AcDbLine
 10
6273.600000000008
 20
7056.187358626259
 30
0.0
 11
6373.600000000007
 21
7056.187358626259
 31
0.0
  0
LINE
  5
27312
330
747D
100
AcDbEntity
  8
センター
 48
2.0
100
AcDbLine
 10
6323.600000000007
 20
7106.187358626259
 30
0.0
 11
6323.600000000007
 21
7006.187358626259
 31
0.0
  0
CIRCLE
  5
27315
330
747D
100
AcDbEntity
  8
部品1
 48
50.0
100
AcDbCircle
 10
7155.600000000008
 20
6527.187358626263
 30
0.0
 40
35.0
  0
LINE
  5
27316
330
747D
100
AcDbEntity
  8
センター
 48
2.0
100
AcDbLine
 10
7155.600000000008
 20
6577.187358626263
 30
0.0
 11
7155.600000000008
 21
6477.187358626263
 31
0.0
  0
LINE
  5
27319
330
747D
100
AcDbEntity
  8
センター
 48
2.0
100
AcDbLine
 10
7105.600000000008
 20
6527.187358626263
 30
0.0
 11
7205.600000000008
 21
6527.187358626263
 31
0.0
  0
LINE
  5
2731A
330
747D
100
AcDbEntity
  8
部品1
 48
50.0
100
AcDbLine
 10
7373.600000000007
 20
6956.187358626259
 30
0.0
 11
7173.600000000007
 21
6956.187358626259
 31
0.0
  0
LINE
  5
2731B
330
747D
100
AcDbEntity
  8
センター
 48
2.0
100
AcDbLine
 10
7273.600000000008
 20
7106.187358626259
 30
0.0
 11
7273.600000000008
 21
7006.187358626259
 31
0.0
  0
LINE
  5
2731C
330
747D
100
AcDbEntity
  8
センター
 48
2.0
100
AcDbLine
 10
7223.600000000008
 20
7056.187358626259
 30
0.0
 11
7323.600000000007
 21
7056.187358626259
 31
0.0
  0
TEXT
  5
27328
330
747D
100
AcDbEntity
  8
寸法
 48
50.0
100
AcDbText
 10
8099.734496569466
 20
6347.868649418997
 30
0.0
 40
120.0
  1
扉面
  7
STYLE1
100
AcDbText
  0
LINE
  5
2732A
330
747D
100
AcDbEntity
  8
センター
 48
2.0
100
AcDbLine
 10
8173.600000000007
 20
7056.187358626259
 30
0.0
 11
8273.600000000007
 21
7056.187358626259
 31
0.0
  0
LINE
  5
2732B
330
747D
100
AcDbEntity
  8
部品1
 48
50.0
100
AcDbLine
 10
8323.600000000007
 20
6956.187358626259
 30
0.0
 11
8123.600000000008
 21
6956.187358626259
 31
0.0
  0
LINE
  5
2732C
330
747D
100
AcDbEntity
  8
センター
 48
2.0
100
AcDbLine
 10
8223.600000000008
 20
7106.187358626259
 30
0.0
 11
8223.600000000008
 21
7006.187358626259
 31
0.0
  0
DIMENSION
  5
2732D
330
747D
100
AcDbEntity
  8
寸法
 48
50.0
100
AcDbDimension
  2
*D42
 10
4541.6
 20
8435.453816720169
 30
0.0
 11
5848.600000000001
 21
8535.465627743791
 31
0.0
 70
    32
 71
     5
 42
2614.0
  3
INABA_S40G
100
AcDbAlignedDimension
 13
7155.600000000001
 23
7636.187358626258
 33
0.0
 14
4541.6
 24
7636.187358626258
 34
0.0
100
AcDbRotatedDimension
1001
ACAD
1000
DSTYLE
1002
{
1070
   341
1005
0
1002
}
  0
DIMENSION
  5
27330
330
747D
100
AcDbEntity
  8
寸法
 48
50.0
100
AcDbDimension
  2
*D43
 10
4418.6
 20
8435.453816720169
 30
0.0
 11
4145.493398282201
 21
8435.453816720169
 31
0.0
 70
   160
 71
     5
 42
123.0
  3
INABA_S40G
100
AcDbAlignedDimension
 13
4541.6
 23
7636.187358626258
 33
0.0
 14
4418.6
 24
7709.187358626259
 34
0.0
100
AcDbRotatedDimension
1001
ACAD
1000
DSTYLE
1002
{
1070
   341
1005
0
1002
}
  0
DIMENSION
  5
27331
330
747D
100
AcDbEntity
  8
寸法
 48
50.0
100
AcDbDimension
  2
*D44
 10
3795.665006330073
 20
7586.187358626259
 30
0.0
 11
3795.665006330072
 21
7982.293960344058
 31
0.0
 70
   160
 71
     5
 42
123.0
  3
INABA_S40G
100
AcDbAlignedDimension
 13
4418.6
 23
7709.187358626259
 33
0.0
 14
4491.6
 24
7586.187358626259
 34
0.0
 50
90.0
100
AcDbRotatedDimension
1001
ACAD
1000
DSTYLE
1002
{
1070
   341
1005
0
1002
}
  0
LINE
  5
27332
330
747D
100
AcDbEntity
  8
部品1
 48
50.0
100
AcDbLine
 10
4998.599999999989
 20
7709.187358626286
 30
0.0
 11
4998.599999999997
 21
7509.18735862626
 31
0.0
  0
LINE
  5
27333
330
747D
100
AcDbEntity
  8
細線
 48
50.0
100
AcDbLine
 10
4798.599999999993
 20
7646.11244760013
 30
0.0
 11
4861.67491102615
 21
7709.187358626286
 31
0.0
  0
LINE
  5
27334
330
747D
100
AcDbEntity
  8
部品1
 48
50.0
100
AcDbLine
 10
4798.599999999989
 20
7709.187358626286
 30
0.0
 11
4798.599999999996
 21
7509.18735862626
 31
0.0
  0
LINE
  5
27335
330
747D
100
AcDbEntity
  8
細線
 48
50.0
100
AcDbLine
 10
4798.599999999996
 20
7511.408605784096
 30
0.0
 11
4996.378752842187
 21
7709.187358626285
 31
0.0
  0
LINE
  5
27336
330
747D
100
AcDbEntity
  8
細線
 48
50.0
100
AcDbLine
 10
4798.599999999995
 20
7556.309886389441
 30
0.0
 11
4951.477472236842
 21
7709.187358626285
 31
0.0
  0
LINE
  5
27337
330
747D
100
AcDbEntity
  8
細線
 48
50.0
100
AcDbLine
 10
4798.599999999993
 20
7601.211166994784
 30
0.0
 11
4906.576191631495
 21
7709.187358626285
 31
0.0
  0
LINE
  5
27338
330
747D
100
AcDbEntity
  8
細線
 48
50.0
100
AcDbLine
 10
4418.599999999996
 20
7121.11244760008
 30
0.0
 11
4441.674911026175
 21
7144.187358626258
 31
0.0
  0
LINE
  5
27339
330
747D
100
AcDbEntity
  8
部品1
 48
50.0
100
AcDbLine
 10
4538.599999999999
 20
7144.187358626258
 30
0.0
 11
4418.599999999996
 21
7144.187358626258
 31
0.0
  0
LINE
  5
2733A
330
747D
100
AcDbEntity
  8
センター
 48
2.0
100
AcDbLine
 10
4491.6
 20
7586.187358626259
 30
0.0
 11
4591.6
 21
7586.187358626259
 31
0.0
  0
CIRCLE
  5
2733B
330
747D
100
AcDbEntity
  8
部品1
 48
50.0
100
AcDbCircle
 10
4541.6
 20
7586.187358626259
 30
0.0
 40
35.0
  0
LINE
  5
2733C
330
747D
100
AcDbEntity
  8
センター
 48
2.0
100
AcDbLine
 10
4541.6
 20
7636.187358626258
 30
0.0
 11
4541.6
 21
7536.187358626259
 31
0.0
  0
LINE
  5
2733D
330
747D
100
AcDbEntity
  8
細線
 48
50.0
100
AcDbLine
 10
4931.082594658196
 20
7509.18735862626
 30
0.0
 11
4998.599999999995
 21
7576.704763968056
 31
0.0
  0
LINE
  5
2733E
330
747D
100
AcDbEntity
  8
細線
 48
50.0
100
AcDbLine
 10
4886.18131405285
 20
7509.187358626258
 30
0.0
 11
4998.599999999993
 21
7621.6060445734
 31
0.0
  0
LINE
  5
2733F
330
747D
100
AcDbEntity
  8
細線
 48
50.0
100
AcDbLine
 10
4841.280033447501
 20
7509.18735862626
 30
0.0
 11
4998.599999999991
 21
7666.507325178743
 31
0.0
  0
LINE
  5
27340
330
747D
100
AcDbEntity
  8
細線
 48
50.0
100
AcDbLine
 10
4975.983875263542
 20
7509.18735862626
 30
0.0
 11
4998.599999999997
 21
7531.803483362712
 31
0.0
  0
LINE
  5
27341
330
747D
100
AcDbEntity
  8
細線
 48
50.0
100
AcDbLine
 10
4798.599999999991
 20
7691.013728205472
 30
0.0
 11
4816.773630420804
 21
7709.187358626287
 31
0.0
  0
LINE
  5
27342
330
747D
100
AcDbEntity
  8
細線
 48
50.0
100
AcDbLine
 10
6786.181314052853
 20
7509.187358626258
 30
0.0
 11
6898.599999999993
 21
7621.6060445734
 31
0.0
  0
LINE
  5
27343
330
747D
100
AcDbEntity
  8
細線
 48
50.0
100
AcDbLine
 10
6741.280033447501
 20
7509.18735862626
 30
0.0
 11
6898.599999999992
 21
7666.507325178743
 31
0.0
  0
LINE
  5
27344
330
747D
100
AcDbEntity
  8
細線
 48
50.0
100
AcDbLine
 10
6698.599999999996
 20
7511.408605784096
 30
0.0
 11
6896.378752842188
 21
7709.187358626285
 31
0.0
  0
LINE
  5
27345
330
747D
100
AcDbEntity
  8
細線
 48
50.0
100
AcDbLine
 10
6698.599999999995
 20
7556.309886389441
 30
0.0
 11
6851.477472236841
 21
7709.187358626285
 31
0.0
  0
LINE
  5
27346
330
747D
100
AcDbEntity
  8
細線
 48
50.0
100
AcDbLine
 10
6698.599999999993
 20
7601.211166994784
 30
0.0
 11
6806.576191631496
 21
7709.187358626285
 31
0.0
  0
LINE
  5
27348
330
747D
100
AcDbEntity
  8
部品1
 48
50.0
100
AcDbLine
 10
5948.59999999999
 20
7709.187358626286
 30
0.0
 11
5948.599999999997
 21
7509.18735862626
 31
0.0
  0
LINE
  5
27349
330
747D
100
AcDbEntity
  8
細線
 48
50.0
100
AcDbLine
 10
5748.599999999993
 20
7601.211166994784
 30
0.0
 11
5856.576191631496
 21
7709.187358626285
 31
0.0
  0
LINE
  5
2734A
330
747D
100
AcDbEntity
  8
細線
 48
50.0
100
AcDbLine
 10
5748.599999999995
 20
7556.309886389441
 30
0.0
 11
5901.477472236842
 21
7709.187358626285
 31
0.0
  0
LINE
  5
2734B
330
747D
100
AcDbEntity
  8
部品1
 48
50.0
100
AcDbLine
 10
5748.599999999989
 20
7709.187358626286
 30
0.0
 11
5748.599999999997
 21
7509.18735862626
 31
0.0
  0
LINE
  5
2734C
330
747D
100
AcDbEntity
  8
細線
 48
50.0
100
AcDbLine
 10
5748.599999999993
 20
7646.11244760013
 30
0.0
 11
5811.67491102615
 21
7709.187358626286
 31
0.0
  0
LINE
  5
2734D
330
747D
100
AcDbEntity
  8
細線
 48
50.0
100
AcDbLine
 10
5748.599999999997
 20
7511.408605784096
 30
0.0
 11
5946.378752842187
 21
7709.187358626285
 31
0.0
  0
LINE
  5
2734E
330
747D
100
AcDbEntity
  8
部品1
 48
50.0
100
AcDbLine
 10
5473.600000000008
 20
7156.187358626259
 30
0.0
 11
5273.600000000008
 21
7156.187358626259
 31
0.0
  0
LINE
  5
2734F
330
747D
100
AcDbEntity
  8
細線
 48
50.0
100
AcDbLine
 10
5791.280033447502
 20
7509.18735862626
 30
0.0
 11
5948.599999999991
 21
7666.507325178743
 31
0.0
  0
LINE
  5
27350
330
747D
100
AcDbEntity
  8
細線
 48
50.0
100
AcDbLine
 10
5836.181314052852
 20
7509.187358626258
 30
0.0
 11
5948.599999999993
 21
7621.6060445734
 31
0.0
  0
LINE
  5
27351
330
747D
100
AcDbEntity
  8
細線
 48
50.0
100
AcDbLine
 10
5881.082594658195
 20
7509.18735862626
 30
0.0
 11
5948.599999999995
 21
7576.704763968056
 31
0.0
  0
LINE
  5
27352
330
747D
100
AcDbEntity
  8
細線
 48
50.0
100
AcDbLine
 10
5925.983875263542
 20
7509.18735862626
 30
0.0
 11
5948.599999999997
 21
7531.803483362712
 31
0.0
  0
LINE
  5
27353
330
747D
100
AcDbEntity
  8
細線
 48
50.0
100
AcDbLine
 10
5748.599999999991
 20
7691.013728205472
 30
0.0
 11
5766.773630420805
 21
7709.187358626287
 31
0.0
  0
LINE
  5
27354
330
747D
100
AcDbEntity
  8
部品1
 48
50.0
100
AcDbLine
 10
6698.599999999989
 20
7709.187358626286
 30
0.0
 11
6698.599999999996
 21
7509.18735862626
 31
0.0
  0
LINE
  5
27355
330
747D
100
AcDbEntity
  8
細線
 48
50.0
100
AcDbLine
 10
6698.599999999993
 20
7646.11244760013
 30
0.0
 11
6761.674911026149
 21
7709.187358626286
 31
0.0
  0
LINE
  5
27356
330
747D
100
AcDbEntity
  8
部品1
 48
50.0
100
AcDbLine
 10
6423.600000000007
 20
7156.187358626259
 30
0.0
 11
6223.600000000008
 21
7156.187358626259
 31
0.0
  0
LINE
  5
27357
330
747D
100
AcDbEntity
  8
細線
 48
50.0
100
AcDbLine
 10
6698.599999999991
 20
7691.013728205472
 30
0.0
 11
6716.773630420805
 21
7709.187358626287
 31
0.0
  0
LINE
  5
27358
330
747D
100
AcDbEntity
  8
部品1
 48
50.0
100
AcDbLine
 10
6898.599999999989
 20
7709.187358626286
 30
0.0
 11
6898.599999999998
 21
7509.18735862626
 31
0.0
  0
LINE
  5
27359
330
747D
100
AcDbEntity
  8
部品1
 48
50.0
100
AcDbLine
 10
7373.600000000007
 20
7156.187358626259
 30
0.0
 11
7173.600000000007
 21
7156.187358626259
 31
0.0
  0
LINE
  5
2735A
330
747D
100
AcDbEntity
  8
細線
 48
50.0
100
AcDbLine
 10
6875.983875263543
 20
7509.18735862626
 30
0.0
 11
6898.599999999998
 21
7531.803483362712
 31
0.0
  0
LINE
  5
2735B
330
747D
100
AcDbEntity
  8
細線
 48
50.0
100
AcDbLine
 10
6831.082594658195
 20
7509.18735862626
 30
0.0
 11
6898.599999999994
 21
7576.704763968056
 31
0.0
  0
LINE
  5
2735C
330
747D
100
AcDbEntity
  8
センター
 48
2.0
100
AcDbLine
 10
7155.600000000001
 20
7636.187358626258
 30
0.0
 11
7155.600000000001
 21
7536.187358626259
 31
0.0
  0
CIRCLE
  5
2735D
330
747D
100
AcDbEntity
  8
部品1
 48
50.0
100
AcDbCircle
 10
7155.600000000001
 20
7586.187358626259
 30
0.0
 40
35.0
  0
LINE
  5
2735E
330
747D
100
AcDbEntity
  8
センター
 48
2.0
100
AcDbLine
 10
7105.600000000001
 20
7586.187358626259
 30
0.0
 11
7205.600000000001
 21
7586.187358626259
 31
0.0
  0
LINE
  5
2735F
330
747D
100
AcDbEntity
  8
部品1
 48
50.0
100
AcDbLine
 10
7848.599999999989
 20
7709.187358626356
 30
0.0
 11
7848.599999999997
 21
7509.187358626331
 31
0.0
  0
LINE
  5
27360
330
747D
100
AcDbEntity
  8
細線
 48
50.0
100
AcDbLine
 10
7648.599999999993
 20
7646.112447600199
 30
0.0
 11
7711.674911026152
 21
7709.187358626356
 31
0.0
  0
LINE
  5
27361
330
747D
100
AcDbEntity
  8
部品1
 48
50.0
100
AcDbLine
 10
7648.599999999989
 20
7709.187358626356
 30
0.0
 11
7648.599999999998
 21
7509.187358626331
 31
0.0
  0
LINE
  5
27362
330
747D
100
AcDbEntity
  8
細線
 48
50.0
100
AcDbLine
 10
7648.599999999993
 20
7601.211166994854
 30
0.0
 11
7756.576191631495
 21
7709.187358626353
 31
0.0
  0
LINE
  5
27363
330
747D
100
AcDbEntity
  8
細線
 48
50.0
100
AcDbLine
 10
7648.599999999998
 20
7511.408605784165
 30
0.0
 11
7846.378752842188
 21
7709.187358626353
 31
0.0
  0
LINE
  5
27364
330
747D
100
AcDbEntity
  8
細線
 48
50.0
100
AcDbLine
 10
7648.599999999994
 20
7556.30988638951
 30
0.0
 11
7801.477472236841
 21
7709.187358626353
 31
0.0
  0
LINE
  5
27365
330
747D
100
AcDbEntity
  8
細線
 48
50.0
100
AcDbLine
 10
7825.983875263545
 20
7509.187358626329
 30
0.0
 11
7848.599999999997
 21
7531.80348336278
 31
0.0
  0
LINE
  5
27366
330
747D
100
AcDbEntity
  8
細線
 48
50.0
100
AcDbLine
 10
7781.082594658197
 20
7509.187358626329
 30
0.0
 11
7848.599999999994
 21
7576.704763968123
 31
0.0
  0
LINE
  5
27367
330
747D
100
AcDbEntity
  8
細線
 48
50.0
100
AcDbLine
 10
7736.181314052853
 20
7509.187358626326
 30
0.0
 11
7848.599999999994
 21
7621.60604457347
 31
0.0
  0
LINE
  5
27368
330
747D
100
AcDbEntity
  8
細線
 48
50.0
100
AcDbLine
 10
7691.280033447502
 20
7509.187358626329
 30
0.0
 11
7848.599999999992
 21
7666.507325178812
 31
0.0
  0
LINE
  5
27369
330
747D
100
AcDbEntity
  8
部品1
 48
50.0
100
AcDbLine
 10
8323.600000000007
 20
7156.187358626259
 30
0.0
 11
8123.600000000008
 21
7156.187358626259
 31
0.0
  0
LINE
  5
2736A
330
747D
100
AcDbEntity
  8
細線
 48
50.0
100
AcDbLine
 10
7648.599999999992
 20
7691.01372820554
 30
0.0
 11
7666.773630420805
 21
7709.187358626357
 31
0.0
  0
LINE
  5
2736B
330
747D
100
AcDbEntity
  8
細線
 48
50.0
100
AcDbLine
 10
11908.6
 20
7011.30988638943
 30
0.0
 11
12028.59999999999
 21
7131.309886389423
 31
0.0
  0
LINE
  5
2736C
330
747D
100
AcDbEntity
  8
細線
 48
50.0
100
AcDbLine
 10
11908.6
 20
7056.211166994782
 30
0.0
 11
11996.57619163151
 21
7144.18735862629
 31
0.0
  0
LINE
  5
2736D
330
747D
100
AcDbEntity
  8
部品1
 48
50.0
100
AcDbLine
 10
10973.60000000001
 20
6956.187358626259
 30
0.0
 11
10973.60000000001
 21
7156.187358626259
 31
0.0
  0
LINE
  5
2736E
330
747D
100
AcDbEntity
  8
部品1
 48
50.0
100
AcDbLine
 10
11173.60000000001
 20
6956.187358626259
 30
0.0
 11
11173.60000000001
 21
7156.187358626259
 31
0.0
  0
LINE
  5
2736F
330
747D
100
AcDbEntity
  8
部品1
 48
50.0
100
AcDbLine
 10
10023.60000000001
 20
6956.187358626259
 30
0.0
 11
10023.60000000001
 21
7156.187358626259
 31
0.0
  0
LINE
  5
27370
330
747D
100
AcDbEntity
  8
部品1
 48
50.0
100
AcDbLine
 10
10223.60000000001
 20
6956.187358626259
 30
0.0
 11
10223.60000000001
 21
7156.187358626259
 31
0.0
  0
LINE
  5
27371
330
747D
100
AcDbEntity
  8
部品1
 48
50.0
100
AcDbLine
 10
9273.600000000007
 20
6956.187358626259
 30
0.0
 11
9273.600000000007
 21
7156.187358626259
 31
0.0
  0
LINE
  5
27372
330
747D
100
AcDbEntity
  8
部品1
 48
50.0
100
AcDbLine
 10
9073.600000000007
 20
6956.187358626259
 30
0.0
 11
9073.600000000007
 21
7156.187358626259
 31
0.0
  0
LINE
  5
27375
330
747D
100
AcDbEntity
  8
部品1
 48
50.0
100
AcDbLine
 10
12028.6
 20
6329.187358626278
 30
0.0
 11
12028.6
 21
7709.187358626259
 31
0.0
  0
DIMENSION
  5
27376
330
747D
100
AcDbEntity
  8
寸法
 48
50.0
100
AcDbDimension
  2
*D45
 10
11073.60000000001
 20
8191.796175296508
 30
0.0
 11
11551.1
 21
8291.796175296507
 31
0.0
 70
    32
 71
     5
 42
954.9999999999927
  3
INABA_S40G
100
AcDbAlignedDimension
 13
12028.6
 23
7709.187358626259
 33
0.0
 14
11073.60000000001
 24
7106.187358626259
 34
0.0
100
AcDbRotatedDimension
1001
ACAD
1000
DSTYLE
1002
{
1070
   341
1005
0
1002
}
  0
DIMENSION
  5
27377
330
747D
100
AcDbEntity
  8
寸法
 48
50.0
100
AcDbDimension
  2
*D46
 10
9173.600000000007
 20
8191.796175296508
 30
0.0
 11
9648.600000000008
 21
8291.796175296507
 31
0.0
 70
    32
 71
     5
 42
950.0
  3
INABA_S40G
100
AcDbAlignedDimension
 13
10123.60000000001
 23
7106.187358626259
 33
0.0
 14
9173.600000000007
 24
7106.187358626259
 34
0.0
100
AcDbRotatedDimension
1001
ACAD
1000
DSTYLE
1002
{
1070
   341
1005
0
1002
}
  0
DIMENSION
  5
27378
330
747D
100
AcDbEntity
  8
寸法
 48
50.0
100
AcDbDimension
  2
*D47
 10
10123.60000000001
 20
8191.796175296508
 30
0.0
 11
10598.60000000001
 21
8291.796175296507
 31
0.0
 70
    32
 71
     5
 42
950.0
  3
INABA_S40G
100
AcDbAlignedDimension
 13
11073.60000000001
 23
7106.187358626259
 33
0.0
 14
10123.60000000001
 24
7106.187358626259
 34
0.0
100
AcDbRotatedDimension
1001
ACAD
1000
DSTYLE
1002
{
1070
   341
1005
0
1002
}
  0
LINE
  5
27379
330
747D
100
AcDbEntity
  8
センター
 48
2.0
100
AcDbLine
 10
10073.60000000001
 20
7056.187358626259
 30
0.0
 11
10173.6
 21
7056.187358626259
 31
0.0
  0
LINE
  5
2737A
330
747D
100
AcDbEntity
  8
部品1
 48
50.0
100
AcDbLine
 10
10223.60000000001
 20
6956.187358626259
 30
0.0
 11
10023.60000000001
 21
6956.187358626259
 31
0.0
  0
LINE
  5
2737B
330
747D
100
AcDbEntity
  8
部品1
 48
50.0
100
AcDbLine
 10
9273.600000000007
 20
6956.187358626259
 30
0.0
 11
9073.600000000007
 21
6956.187358626259
 31
0.0
  0
CIRCLE
  5
27383
330
747D
100
AcDbEntity
  8
部品1
 48
50.0
100
AcDbCircle
 10
9055.600000000008
 20
6527.187358626263
 30
0.0
 40
35.0
  0
LINE
  5
27384
330
747D
100
AcDbEntity
  8
センター
 48
2.0
100
AcDbLine
 10
9055.600000000008
 20
6577.187358626263
 30
0.0
 11
9055.600000000008
 21
6477.187358626263
 31
0.0
  0
LINE
  5
27389
330
747D
100
AcDbEntity
  8
センター
 48
2.0
100
AcDbLine
 10
9005.600000000008
 20
6527.187358626263
 30
0.0
 11
9105.600000000007
 21
6527.187358626263
 31
0.0
  0
LINE
  5
2738B
330
747D
100
AcDbEntity
  8
センター
 48
2.0
100
AcDbLine
 10
9123.600000000008
 20
7056.187358626259
 30
0.0
 11
9223.600000000008
 21
7056.187358626259
 31
0.0
  0
LINE
  5
2738C
330
747D
100
AcDbEntity
  8
センター
 48
2.0
100
AcDbLine
 10
9173.600000000007
 20
7106.187358626259
 30
0.0
 11
9173.600000000007
 21
7006.187358626259
 31
0.0
  0
LINE
  5
273A4
330
747D
100
AcDbEntity
  8
センター
 48
2.0
100
AcDbLine
 10
10123.60000000001
 20
7106.187358626259
 30
0.0
 11
10123.60000000001
 21
7006.187358626259
 31
0.0
  0
LINE
  5
273B1
330
747D
100
AcDbEntity
  8
センター
 48
2.0
100
AcDbLine
 10
11023.60000000001
 20
7056.187358626259
 30
0.0
 11
11123.60000000001
 21
7056.187358626259
 31
0.0
  0
LINE
  5
273B2
330
747D
100
AcDbEntity
  8
部品1
 48
50.0
100
AcDbLine
 10
11173.60000000001
 20
6956.187358626259
 30
0.0
 11
10973.60000000001
 21
6956.187358626259
 31
0.0
  0
LINE
  5
273B3
330
747D
100
AcDbEntity
  8
センター
 48
2.0
100
AcDbLine
 10
11073.60000000001
 20
7106.187358626259
 30
0.0
 11
11073.60000000001
 21
7006.187358626259
 31
0.0
  0
CIRCLE
  5
273BB
330
747D
100
AcDbEntity
  8
部品1
 48
50.0
100
AcDbCircle
 10
11905.6
 20
6527.187358626263
 30
0.0
 40
35.0
  0
LINE
  5
273BC
330
747D
100
AcDbEntity
  8
センター
 48
2.0
100
AcDbLine
 10
11905.6
 20
6577.187358626263
 30
0.0
 11
11905.6
 21
6477.187358626263
 31
0.0
  0
LINE
  5
273BD
330
747D
100
AcDbEntity
  8
センター
 48
2.0
100
AcDbLine
 10
11855.60000000001
 20
6527.187358626263
 30
0.0
 11
11955.60000000001
 21
6527.187358626263
 31
0.0
  0
LINE
  5
273BE
330
747D
100
AcDbEntity
  8
細線
 48
50.0
100
AcDbLine
 10
11908.6
 20
6966.408605784088
 30
0.0
 11
12028.59999999999
 21
7086.408605784076
 31
0.0
  0
LINE
  5
273BF
330
747D
100
AcDbEntity
  8
部品1
 48
50.0
100
AcDbLine
 10
12028.59999999999
 20
6944.187358626291
 30
0.0
 11
11908.6
 21
6944.187358626293
 31
0.0
  0
LINE
  5
273C0
330
747D
100
AcDbEntity
  8
細線
 48
50.0
100
AcDbLine
 10
12021.08259465824
 20
6944.187358626288
 30
0.0
 11
12028.59999999999
 21
6951.704763968038
 31
0.0
  0
LINE
  5
273C1
330
747D
100
AcDbEntity
  8
細線
 48
50.0
100
AcDbLine
 10
11976.18131405289
 20
6944.187358626291
 30
0.0
 11
12028.59999999999
 21
6996.606044573386
 31
0.0
  0
LINE
  5
273C2
330
747D
100
AcDbEntity
  8
細線
 48
50.0
100
AcDbLine
 10
11931.28003344755
 20
6944.18735862629
 30
0.0
 11
12028.59999999999
 21
7041.507325178731
 31
0.0
  0
DIMENSION
  5
273C3
330
747D
100
AcDbEntity
  8
寸法
 48
50.0
100
AcDbDimension
  2
*D48
 10
9055.600000000001
 20
8435.453816720169
 30
0.0
 11
10480.6
 21
8535.465627743791
 31
0.0
 70
    32
 71
     5
 42
2850.0
  3
INABA_S40G
100
AcDbAlignedDimension
 13
11905.6
 23
7636.187358626258
 33
0.0
 14
9055.600000000001
 24
7636.187358626258
 34
0.0
100
AcDbRotatedDimension
1001
ACAD
1000
DSTYLE
1002
{
1070
   341
1005
0
1002
}
  0
LINE
  5
273C4
330
747D
100
AcDbEntity
  8
部品1
 48
50.0
100
AcDbLine
 10
10223.60000000001
 20
7156.187358626259
 30
0.0
 11
10023.60000000001
 21
7156.187358626259
 31
0.0
  0
LINE
  5
273C5
330
747D
100
AcDbEntity
  8
部品1
 48
50.0
100
AcDbLine
 10
9273.600000000007
 20
7156.187358626259
 30
0.0
 11
9073.600000000007
 21
7156.187358626259
 31
0.0
  0
LINE
  5
273C6
330
747D
100
AcDbEntity
  8
部品1
 48
50.0
100
AcDbLine
 10
8798.599999999989
 20
7709.187358626356
 30
0.0
 11
8798.599999999998
 21
7509.187358626331
 31
0.0
  0
LINE
  5
273C7
330
747D
100
AcDbEntity
  8
細線
 48
50.0
100
AcDbLine
 10
8598.599999999994
 20
7601.211166994854
 30
0.0
 11
8706.576191631496
 21
7709.187358626353
 31
0.0
  0
LINE
  5
273C8
330
747D
100
AcDbEntity
  8
細線
 48
50.0
100
AcDbLine
 10
8598.599999999995
 20
7556.30988638951
 30
0.0
 11
8751.477472236841
 21
7709.187358626353
 31
0.0
  0
LINE
  5
273C9
330
747D
100
AcDbEntity
  8
細線
 48
50.0
100
AcDbLine
 10
8598.599999999994
 20
7646.112447600199
 30
0.0
 11
8661.674911026151
 21
7709.187358626356
 31
0.0
  0
LINE
  5
273CA
330
747D
100
AcDbEntity
  8
細線
 48
50.0
100
AcDbLine
 10
8598.599999999997
 20
7511.408605784165
 30
0.0
 11
8796.378752842187
 21
7709.187358626353
 31
0.0
  0
LINE
  5
273CB
330
747D
100
AcDbEntity
  8
部品1
 48
50.0
100
AcDbLine
 10
8598.599999999988
 20
7709.187358626356
 30
0.0
 11
8598.599999999997
 21
7509.187358626331
 31
0.0
  0
LINE
  5
273CC
330
747D
100
AcDbEntity
  8
細線
 48
50.0
100
AcDbLine
 10
8641.280033447502
 20
7509.187358626329
 30
0.0
 11
8798.599999999991
 21
7666.507325178812
 31
0.0
  0
LINE
  5
273CD
330
747D
100
AcDbEntity
  8
細線
 48
50.0
100
AcDbLine
 10
8686.181314052852
 20
7509.187358626326
 30
0.0
 11
8798.599999999993
 21
7621.60604457347
 31
0.0
  0
LINE
  5
273CE
330
747D
100
AcDbEntity
  8
細線
 48
50.0
100
AcDbLine
 10
8731.082594658197
 20
7509.187358626329
 30
0.0
 11
8798.599999999995
 21
7576.704763968123
 31
0.0
  0
LINE
  5
273CF
330
747D
100
AcDbEntity
  8
細線
 48
50.0
100
AcDbLine
 10
8775.983875263545
 20
7509.187358626329
 30
0.0
 11
8798.599999999998
 21
7531.80348336278
 31
0.0
  0
LINE
  5
273D0
330
747D
100
AcDbEntity
  8
センター
 48
2.0
100
AcDbLine
 10
9005.600000000001
 20
7586.187358626259
 30
0.0
 11
9105.6
 21
7586.187358626259
 31
0.0
  0
CIRCLE
  5
273D1
330
747D
100
AcDbEntity
  8
部品1
 48
50.0
100
AcDbCircle
 10
9055.600000000001
 20
7586.187358626259
 30
0.0
 40
35.0
  0
LINE
  5
273D2
330
747D
100
AcDbEntity
  8
センター
 48
2.0
100
AcDbLine
 10
9055.600000000001
 20
7636.187358626258
 30
0.0
 11
9055.600000000001
 21
7536.187358626259
 31
0.0
  0
LINE
  5
273D3
330
747D
100
AcDbEntity
  8
細線
 48
50.0
100
AcDbLine
 10
8598.599999999992
 20
7691.01372820554
 30
0.0
 11
8616.773630420805
 21
7709.187358626357
 31
0.0
  0
LINE
  5
273D4
330
747D
100
AcDbEntity
  8
部品1
 48
50.0
100
AcDbLine
 10
9748.599999999989
 20
7709.187358626356
 30
0.0
 11
9748.599999999997
 21
7509.187358626331
 31
0.0
  0
LINE
  5
273D5
330
747D
100
AcDbEntity
  8
部品1
 48
50.0
100
AcDbLine
 10
9548.599999999989
 20
7709.187358626356
 30
0.0
 11
9548.599999999998
 21
7509.187358626331
 31
0.0
  0
LINE
  5
273D6
330
747D
100
AcDbEntity
  8
細線
 48
50.0
100
AcDbLine
 10
9548.599999999993
 20
7646.112447600199
 30
0.0
 11
9611.674911026149
 21
7709.187358626356
 31
0.0
  0
LINE
  5
273D7
330
747D
100
AcDbEntity
  8
細線
 48
50.0
100
AcDbLine
 10
9548.599999999998
 20
7556.30988638951
 30
0.0
 11
9701.477472236845
 21
7709.187358626353
 31
0.0
  0
LINE
  5
273D8
330
747D
100
AcDbEntity
  8
細線
 48
50.0
100
AcDbLine
 10
9548.599999999998
 20
7511.408605784165
 30
0.0
 11
9746.378752842188
 21
7709.187358626353
 31
0.0
  0
LINE
  5
273D9
330
747D
100
AcDbEntity
  8
細線
 48
50.0
100
AcDbLine
 10
9548.599999999998
 20
7601.211166994854
 30
0.0
 11
9656.576191631494
 21
7709.187358626353
 31
0.0
  0
LINE
  5
273DA
330
747D
100
AcDbEntity
  8
細線
 48
50.0
100
AcDbLine
 10
9636.181314052853
 20
7509.187358626326
 30
0.0
 11
9748.599999999994
 21
7621.60604457347
 31
0.0
  0
LINE
  5
273DB
330
747D
100
AcDbEntity
  8
細線
 48
50.0
100
AcDbLine
 10
9591.280033447501
 20
7509.187358626329
 30
0.0
 11
9748.599999999989
 21
7666.507325178812
 31
0.0
  0
LINE
  5
273DC
330
747D
100
AcDbEntity
  8
細線
 48
50.0
100
AcDbLine
 10
9681.082594658196
 20
7509.187358626329
 30
0.0
 11
9748.599999999997
 21
7576.704763968123
 31
0.0
  0
LINE
  5
273DD
330
747D
100
AcDbEntity
  8
細線
 48
50.0
100
AcDbLine
 10
9725.983875263546
 20
7509.187358626329
 30
0.0
 11
9748.599999999997
 21
7531.80348336278
 31
0.0
  0
LINE
  5
273DE
330
747D
100
AcDbEntity
  8
細線
 48
50.0
100
AcDbLine
 10
9548.599999999989
 20
7691.01372820554
 30
0.0
 11
9566.773630420806
 21
7709.187358626357
 31
0.0
  0
LINE
  5
273DF
330
747D
100
AcDbEntity
  8
部品1
 48
50.0
100
AcDbLine
 10
10698.59999999999
 20
7709.187358626356
 30
0.0
 11
10698.6
 21
7509.187358626331
 31
0.0
  0
LINE
  5
273E0
330
747D
100
AcDbEntity
  8
部品1
 48
50.0
100
AcDbLine
 10
10498.59999999999
 20
7709.187358626356
 30
0.0
 11
10498.6
 21
7509.187358626331
 31
0.0
  0
LINE
  5
273E1
330
747D
100
AcDbEntity
  8
細線
 48
50.0
100
AcDbLine
 10
10498.59999999999
 20
7646.112447600199
 30
0.0
 11
10561.67491102615
 21
7709.187358626356
 31
0.0
  0
LINE
  5
273E2
330
747D
100
AcDbEntity
  8
細線
 48
50.0
100
AcDbLine
 10
10498.6
 20
7601.211166994854
 30
0.0
 11
10606.57619163149
 21
7709.187358626353
 31
0.0
  0
LINE
  5
273E3
330
747D
100
AcDbEntity
  8
細線
 48
50.0
100
AcDbLine
 10
10498.6
 20
7511.408605784165
 30
0.0
 11
10696.37875284219
 21
7709.187358626353
 31
0.0
  0
LINE
  5
273E4
330
747D
100
AcDbEntity
  8
細線
 48
50.0
100
AcDbLine
 10
10498.6
 20
7556.30988638951
 30
0.0
 11
10651.47747223684
 21
7709.187358626353
 31
0.0
  0
LINE
  5
273E5
330
747D
100
AcDbEntity
  8
細線
 48
50.0
100
AcDbLine
 10
10675.98387526354
 20
7509.187358626329
 30
0.0
 11
10698.6
 21
7531.80348336278
 31
0.0
  0
LINE
  5
273E6
330
747D
100
AcDbEntity
  8
細線
 48
50.0
100
AcDbLine
 10
10631.08259465819
 20
7509.187358626329
 30
0.0
 11
10698.6
 21
7576.704763968123
 31
0.0
  0
LINE
  5
273E7
330
747D
100
AcDbEntity
  8
細線
 48
50.0
100
AcDbLine
 10
10586.18131405285
 20
7509.187358626326
 30
0.0
 11
10698.59999999999
 21
7621.60604457347
 31
0.0
  0
LINE
  5
273E8
330
747D
100
AcDbEntity
  8
細線
 48
50.0
100
AcDbLine
 10
10541.2800334475
 20
7509.187358626329
 30
0.0
 11
10698.59999999999
 21
7666.507325178812
 31
0.0
  0
LINE
  5
273E9
330
747D
100
AcDbEntity
  8
細線
 48
50.0
100
AcDbLine
 10
10498.59999999999
 20
7691.01372820554
 30
0.0
 11
10516.7736304208
 21
7709.187358626357
 31
0.0
  0
LINE
  5
273EA
330
747D
100
AcDbEntity
  8
部品1
 48
50.0
100
AcDbLine
 10
11648.59999999999
 20
7709.187358626356
 30
0.0
 11
11648.6
 21
7509.187358626331
 31
0.0
  0
LINE
  5
273EB
330
747D
100
AcDbEntity
  8
部品1
 48
50.0
100
AcDbLine
 10
11448.59999999999
 20
7709.187358626356
 30
0.0
 11
11448.59999999999
 21
7509.187358626331
 31
0.0
  0
LINE
  5
273EC
330
747D
100
AcDbEntity
  8
細線
 48
50.0
100
AcDbLine
 10
11448.59999999999
 20
7556.30988638951
 30
0.0
 11
11601.47747223684
 21
7709.187358626353
 31
0.0
  0
LINE
  5
273ED
330
747D
100
AcDbEntity
  8
細線
 48
50.0
100
AcDbLine
 10
11448.59999999999
 20
7511.408605784165
 30
0.0
 11
11646.37875284219
 21
7709.187358626353
 31
0.0
  0
LINE
  5
273EE
330
747D
100
AcDbEntity
  8
細線
 48
50.0
100
AcDbLine
 10
11448.59999999999
 20
7601.211166994854
 30
0.0
 11
11556.57619163149
 21
7709.187358626353
 31
0.0
  0
LINE
  5
273EF
330
747D
100
AcDbEntity
  8
細線
 48
50.0
100
AcDbLine
 10
11448.59999999999
 20
7646.112447600199
 30
0.0
 11
11511.67491102615
 21
7709.187358626356
 31
0.0
  0
LINE
  5
273F0
330
747D
100
AcDbEntity
  8
部品1
 48
50.0
100
AcDbLine
 10
11173.60000000001
 20
7156.187358626259
 30
0.0
 11
10973.60000000001
 21
7156.187358626259
 31
0.0
  0
LINE
  5
273F1
330
747D
100
AcDbEntity
  8
細線
 48
50.0
100
AcDbLine
 10
11491.2800334475
 20
7509.187358626329
 30
0.0
 11
11648.59999999999
 21
7666.507325178812
 31
0.0
  0
LINE
  5
273F2
330
747D
100
AcDbEntity
  8
細線
 48
50.0
100
AcDbLine
 10
11536.18131405285
 20
7509.187358626326
 30
0.0
 11
11648.59999999999
 21
7621.60604457347
 31
0.0
  0
LINE
  5
273F3
330
747D
100
AcDbEntity
  8
細線
 48
50.0
100
AcDbLine
 10
11581.08259465819
 20
7509.187358626329
 30
0.0
 11
11648.6
 21
7576.704763968123
 31
0.0
  0
LINE
  5
273F4
330
747D
100
AcDbEntity
  8
細線
 48
50.0
100
AcDbLine
 10
11625.98387526354
 20
7509.187358626329
 30
0.0
 11
11648.6
 21
7531.80348336278
 31
0.0
  0
LINE
  5
273F5
330
747D
100
AcDbEntity
  8
細線
 48
50.0
100
AcDbLine
 10
11448.59999999999
 20
7691.01372820554
 30
0.0
 11
11466.77363042081
 21
7709.187358626357
 31
0.0
  0
DIMENSION
  5
273F7
330
747D
100
AcDbEntity
  8
寸法
 48
50.0
100
AcDbDimension
  2
*D49
 10
11905.6
 20
8435.453816720169
 30
0.0
 11
12301.7066017178
 21
8435.453816720169
 31
0.0
 70
   160
 71
     5
 42
123.0
  3
INABA_S40G
100
AcDbAlignedDimension
 13
12028.6
 23
7709.187358626259
 33
0.0
 14
11905.6
 24
7636.187358626258
 34
0.0
100
AcDbRotatedDimension
1001
ACAD
1000
DSTYLE
1002
{
1070
   341
1005
0
1002
}
  0
LINE
  5
273F9
330
747D
100
AcDbEntity
  8
細線
 48
50.0
100
AcDbLine
 10
11908.6
 20
7101.112447600126
 30
0.0
 11
11951.67491102617
 21
7144.187358626291
 31
0.0
  0
LINE
  5
273FA
330
747D
100
AcDbEntity
  8
部品1
 48
50.0
100
AcDbLine
 10
12028.59999999999
 20
7144.187358626291
 30
0.0
 11
11908.6
 21
7144.187358626291
 31
0.0
  0
LINE
  5
273FB
330
747D
100
AcDbEntity
  8
センター
 48
2.0
100
AcDbLine
 10
11855.6
 20
7586.187358626259
 30
0.0
 11
11955.6
 21
7586.187358626259
 31
0.0
  0
CIRCLE
  5
273FC
330
747D
100
AcDbEntity
  8
部品1
 48
50.0
100
AcDbCircle
 10
11905.6
 20
7586.187358626259
 30
0.0
 40
35.0
  0
LINE
  5
273FD
330
747D
100
AcDbEntity
  8
センター
 48
2.0
100
AcDbLine
 10
11905.6
 20
7636.187358626258
 30
0.0
 11
11905.6
 21
7536.187358626259
 31
0.0
  0
DIMENSION
  5
27DE5
330
747D
100
AcDbEntity
  8
寸法
 48
50.0
100
AcDbDimension
  2
*D50
 10
11347.81202022566
 20
7509.18735862626
 30
0.0
 11
11347.81202022566
 21
7996.150941303416
 31
0.0
 70
   160
 71
     5
 42
199.9999999999854
  3
INABA_S40G
100
AcDbAlignedDimension
 13
11448.6
 23
7709.187358626246
 33
0.0
 14
11448.60000000001
 24
7509.18735862626
 34
0.0
 50
90.0
100
AcDbRotatedDimension
1001
ACAD
1000
DSTYLE
1002
{
1070
   341
1005
0
1002
}
  0
TEXT
  5
28091
330
747D
100
AcDbEntity
  8
文字
 62
     7
 48
50.0
100
AcDbText
 10
7501.399130797775
 20
5065.494218105414
 30
0.0
 40
200.0
  1
〈参 考 図〉
  7
STYLE2
100
AcDbText
  0
TEXT
  5
280A2
330
747D
100
AcDbEntity
  8
文字
 62
     7
 48
50.0
100
AcDbText
 10
14267.69561199343
 20
838.2527270729188
 30
0.0
 40
100.0
  1
～一般型・多雪地型・豪雪地型～
  7
STYLE2
100
AcDbText
  0
LINE
  5
280C2
330
747D
100
AcDbEntity
  8
部品1
 48
50.0
100
AcDbLine
 10
11908.6
 20
6609.187358626293
 30
0.0
 11
4538.600000000001
 21
6609.187358626255
 31
0.0
  0
LINE
  5
280C3
330
747D
100
AcDbEntity
  8
細線
 48
50.0
100
AcDbLine
 10
5748.599999999986
 20
6552.593238519946
 30
0.0
 11
5805.194120106296
 21
6609.187358626257
 31
0.0
  0
LINE
  5
280C4
330
747D
100
AcDbEntity
  8
細線
 48
50.0
100
AcDbLine
 10
5929.30564555445
 20
6329.187358626299
 30
0.0
 11
5948.599999999993
 21
6348.481713071844
 31
0.0
  0
LINE
  5
280C5
330
747D
100
AcDbEntity
  8
細線
 48
50.0
100
AcDbLine
 10
5794.601803738411
 20
6329.187358626297
 30
0.0
 11
5948.599999999988
 21
6483.185554887872
 31
0.0
  0
LINE
  5
280C6
330
747D
100
AcDbEntity
  8
細線
 48
50.0
100
AcDbLine
 10
5839.503084343758
 20
6329.187358626297
 30
0.0
 11
5948.599999999993
 21
6438.284274282534
 31
0.0
  0
LINE
  5
280C7
330
747D
100
AcDbEntity
  8
細線
 48
50.0
100
AcDbLine
 10
5884.404364949105
 20
6329.187358626299
 30
0.0
 11
5948.599999999993
 21
6393.382993677187
 31
0.0
  0
LINE
  5
280C8
330
747D
100
AcDbEntity
  8
細線
 48
50.0
100
AcDbLine
 10
5748.599999999989
 20
6372.988116098568
 30
0.0
 11
5948.599999999986
 21
6572.988116098563
 31
0.0
  0
LINE
  5
280C9
330
747D
100
AcDbEntity
  8
細線
 48
50.0
100
AcDbLine
 10
5748.599999999989
 20
6462.790677309257
 30
0.0
 11
5894.996681316989
 21
6609.187358626257
 31
0.0
  0
LINE
  5
280CA
330
747D
100
AcDbEntity
  8
細線
 48
50.0
100
AcDbLine
 10
5748.599999999989
 20
6417.889396703913
 30
0.0
 11
5939.89796192233
 21
6609.187358626257
 31
0.0
  0
LINE
  5
280CB
330
747D
100
AcDbEntity
  8
細線
 48
50.0
100
AcDbLine
 10
5749.700523133066
 20
6329.187358626295
 30
0.0
 11
5948.599999999986
 21
6528.086835493219
 31
0.0
  0
LINE
  5
280CC
330
747D
100
AcDbEntity
  8
細線
 48
50.0
100
AcDbLine
 10
5748.599999999988
 20
6507.691957914606
 30
0.0
 11
5850.095400711641
 21
6609.187358626257
 31
0.0
  0
LINE
  5
280CD
330
747D
100
AcDbEntity
  8
部品1
 48
50.0
100
AcDbLine
 10
5748.599999999986
 20
6609.187358626257
 30
0.0
 11
5748.599999999991
 21
6329.187358626295
 31
0.0
  0
LINE
  5
280CE
330
747D
100
AcDbEntity
  8
部品1
 48
50.0
100
AcDbLine
 10
5948.599999999986
 20
6609.187358626257
 30
0.0
 11
5948.599999999991
 21
6329.187358626299
 31
0.0
  0
LINE
  5
280CF
330
747D
100
AcDbEntity
  8
細線
 48
50.0
100
AcDbLine
 10
6698.599999999986
 20
6552.593238519946
 30
0.0
 11
6755.194120106295
 21
6609.187358626257
 31
0.0
  0
LINE
  5
280D0
330
747D
100
AcDbEntity
  8
細線
 48
50.0
100
AcDbLine
 10
6879.30564555445
 20
6329.187358626299
 30
0.0
 11
6898.599999999993
 21
6348.481713071844
 31
0.0
  0
LINE
  5
280D1
330
747D
100
AcDbEntity
  8
細線
 48
50.0
100
AcDbLine
 10
6744.601803738411
 20
6329.187358626297
 30
0.0
 11
6898.599999999987
 21
6483.185554887872
 31
0.0
  0
LINE
  5
280D2
330
747D
100
AcDbEntity
  8
細線
 48
50.0
100
AcDbLine
 10
6789.503084343758
 20
6329.187358626297
 30
0.0
 11
6898.599999999993
 21
6438.284274282534
 31
0.0
  0
LINE
  5
280D3
330
747D
100
AcDbEntity
  8
細線
 48
50.0
100
AcDbLine
 10
6834.404364949105
 20
6329.187358626299
 30
0.0
 11
6898.599999999993
 21
6393.382993677187
 31
0.0
  0
LINE
  5
280D4
330
747D
100
AcDbEntity
  8
細線
 48
50.0
100
AcDbLine
 10
6698.599999999989
 20
6372.988116098568
 30
0.0
 11
6898.599999999986
 21
6572.988116098563
 31
0.0
  0
LINE
  5
280D5
330
747D
100
AcDbEntity
  8
細線
 48
50.0
100
AcDbLine
 10
6698.599999999989
 20
6462.790677309257
 30
0.0
 11
6844.996681316989
 21
6609.187358626257
 31
0.0
  0
LINE
  5
280D6
330
747D
100
AcDbEntity
  8
細線
 48
50.0
100
AcDbLine
 10
6698.599999999989
 20
6417.889396703913
 30
0.0
 11
6889.897961922329
 21
6609.187358626257
 31
0.0
  0
LINE
  5
280D7
330
747D
100
AcDbEntity
  8
細線
 48
50.0
100
AcDbLine
 10
6699.700523133066
 20
6329.187358626295
 30
0.0
 11
6898.599999999986
 21
6528.086835493219
 31
0.0
  0
LINE
  5
280D8
330
747D
100
AcDbEntity
  8
細線
 48
50.0
100
AcDbLine
 10
6698.599999999988
 20
6507.691957914606
 30
0.0
 11
6800.09540071164
 21
6609.187358626257
 31
0.0
  0
LINE
  5
280D9
330
747D
100
AcDbEntity
  8
部品1
 48
50.0
100
AcDbLine
 10
6698.599999999986
 20
6609.187358626257
 30
0.0
 11
6698.599999999991
 21
6329.187358626295
 31
0.0
  0
LINE
  5
280DA
330
747D
100
AcDbEntity
  8
部品1
 48
50.0
100
AcDbLine
 10
6898.599999999986
 20
6609.187358626257
 30
0.0
 11
6898.599999999992
 21
6329.187358626299
 31
0.0
  0
LINE
  5
280DB
330
747D
100
AcDbEntity
  8
細線
 48
50.0
100
AcDbLine
 10
7648.599999999986
 20
6552.593238519946
 30
0.0
 11
7705.194120106296
 21
6609.187358626257
 31
0.0
  0
LINE
  5
280DC
330
747D
100
AcDbEntity
  8
細線
 48
50.0
100
AcDbLine
 10
7829.30564555445
 20
6329.187358626299
 30
0.0
 11
7848.599999999994
 21
6348.481713071844
 31
0.0
  0
LINE
  5
280DD
330
747D
100
AcDbEntity
  8
細線
 48
50.0
100
AcDbLine
 10
7694.601803738411
 20
6329.187358626297
 30
0.0
 11
7848.599999999987
 21
6483.185554887872
 31
0.0
  0
LINE
  5
280DE
330
747D
100
AcDbEntity
  8
細線
 48
50.0
100
AcDbLine
 10
7739.503084343758
 20
6329.187358626297
 30
0.0
 11
7848.599999999994
 21
6438.284274282534
 31
0.0
  0
LINE
  5
280DF
330
747D
100
AcDbEntity
  8
細線
 48
50.0
100
AcDbLine
 10
7784.404364949105
 20
6329.187358626299
 30
0.0
 11
7848.599999999994
 21
6393.382993677187
 31
0.0
  0
LINE
  5
280E0
330
747D
100
AcDbEntity
  8
細線
 48
50.0
100
AcDbLine
 10
7648.599999999989
 20
6372.988116098568
 30
0.0
 11
7848.599999999986
 21
6572.988116098563
 31
0.0
  0
LINE
  5
280E1
330
747D
100
AcDbEntity
  8
細線
 48
50.0
100
AcDbLine
 10
7648.599999999989
 20
6462.790677309257
 30
0.0
 11
7794.996681316989
 21
6609.187358626257
 31
0.0
  0
LINE
  5
280E2
330
747D
100
AcDbEntity
  8
細線
 48
50.0
100
AcDbLine
 10
7648.599999999989
 20
6417.889396703913
 30
0.0
 11
7839.897961922329
 21
6609.187358626257
 31
0.0
  0
LINE
  5
280E3
330
747D
100
AcDbEntity
  8
細線
 48
50.0
100
AcDbLine
 10
7649.700523133066
 20
6329.187358626295
 30
0.0
 11
7848.599999999986
 21
6528.086835493219
 31
0.0
  0
LINE
  5
280E4
330
747D
100
AcDbEntity
  8
細線
 48
50.0
100
AcDbLine
 10
7648.599999999987
 20
6507.691957914606
 30
0.0
 11
7750.09540071164
 21
6609.187358626257
 31
0.0
  0
LINE
  5
280E5
330
747D
100
AcDbEntity
  8
部品1
 48
50.0
100
AcDbLine
 10
7648.599999999986
 20
6609.187358626257
 30
0.0
 11
7648.599999999992
 21
6329.187358626295
 31
0.0
  0
LINE
  5
280E6
330
747D
100
AcDbEntity
  8
部品1
 48
50.0
100
AcDbLine
 10
7848.599999999986
 20
6609.187358626257
 30
0.0
 11
7848.599999999992
 21
6329.187358626299
 31
0.0
  0
LINE
  5
280E7
330
747D
100
AcDbEntity
  8
細線
 48
50.0
100
AcDbLine
 10
8598.599999999986
 20
6552.593238519946
 30
0.0
 11
8655.194120106296
 21
6609.187358626257
 31
0.0
  0
LINE
  5
280E8
330
747D
100
AcDbEntity
  8
細線
 48
50.0
100
AcDbLine
 10
8779.305645554449
 20
6329.187358626299
 30
0.0
 11
8798.599999999993
 21
6348.481713071844
 31
0.0
  0
LINE
  5
280E9
330
747D
100
AcDbEntity
  8
細線
 48
50.0
100
AcDbLine
 10
8644.60180373841
 20
6329.187358626297
 30
0.0
 11
8798.599999999987
 21
6483.185554887872
 31
0.0
  0
LINE
  5
280EA
330
747D
100
AcDbEntity
  8
細線
 48
50.0
100
AcDbLine
 10
8689.503084343758
 20
6329.187358626297
 30
0.0
 11
8798.599999999993
 21
6438.284274282534
 31
0.0
  0
LINE
  5
280EB
330
747D
100
AcDbEntity
  8
細線
 48
50.0
100
AcDbLine
 10
8734.404364949105
 20
6329.187358626299
 30
0.0
 11
8798.599999999993
 21
6393.382993677187
 31
0.0
  0
LINE
  5
280EC
330
747D
100
AcDbEntity
  8
細線
 48
50.0
100
AcDbLine
 10
8598.599999999988
 20
6372.988116098568
 30
0.0
 11
8798.599999999986
 21
6572.988116098563
 31
0.0
  0
LINE
  5
280ED
330
747D
100
AcDbEntity
  8
細線
 48
50.0
100
AcDbLine
 10
8598.599999999988
 20
6462.790677309257
 30
0.0
 11
8744.996681316989
 21
6609.187358626257
 31
0.0
  0
LINE
  5
280EE
330
747D
100
AcDbEntity
  8
細線
 48
50.0
100
AcDbLine
 10
8598.599999999988
 20
6417.889396703913
 30
0.0
 11
8789.89796192233
 21
6609.187358626257
 31
0.0
  0
LINE
  5
280EF
330
747D
100
AcDbEntity
  8
細線
 48
50.0
100
AcDbLine
 10
8599.700523133066
 20
6329.187358626295
 30
0.0
 11
8798.599999999986
 21
6528.086835493219
 31
0.0
  0
LINE
  5
280F0
330
747D
100
AcDbEntity
  8
細線
 48
50.0
100
AcDbLine
 10
8598.599999999988
 20
6507.691957914606
 30
0.0
 11
8700.095400711642
 21
6609.187358626257
 31
0.0
  0
LINE
  5
280F1
330
747D
100
AcDbEntity
  8
部品1
 48
50.0
100
AcDbLine
 10
8598.599999999986
 20
6609.187358626257
 30
0.0
 11
8598.599999999992
 21
6329.187358626295
 31
0.0
  0
LINE
  5
280F2
330
747D
100
AcDbEntity
  8
部品1
 48
50.0
100
AcDbLine
 10
8798.599999999986
 20
6609.187358626257
 30
0.0
 11
8798.599999999991
 21
6329.187358626299
 31
0.0
  0
LINE
  5
280F3
330
747D
100
AcDbEntity
  8
細線
 48
50.0
100
AcDbLine
 10
9548.599999999986
 20
6552.593238519946
 30
0.0
 11
9605.194120106297
 21
6609.187358626257
 31
0.0
  0
LINE
  5
280F4
330
747D
100
AcDbEntity
  8
細線
 48
50.0
100
AcDbLine
 10
9729.30564555445
 20
6329.187358626299
 30
0.0
 11
9748.599999999994
 21
6348.481713071844
 31
0.0
  0
LINE
  5
280F5
330
747D
100
AcDbEntity
  8
細線
 48
50.0
100
AcDbLine
 10
9594.601803738411
 20
6329.187358626297
 30
0.0
 11
9748.599999999989
 21
6483.185554887872
 31
0.0
  0
LINE
  5
280F6
330
747D
100
AcDbEntity
  8
細線
 48
50.0
100
AcDbLine
 10
9639.503084343758
 20
6329.187358626297
 30
0.0
 11
9748.599999999994
 21
6438.284274282534
 31
0.0
  0
LINE
  5
280F7
330
747D
100
AcDbEntity
  8
細線
 48
50.0
100
AcDbLine
 10
9684.404364949106
 20
6329.187358626299
 30
0.0
 11
9748.599999999994
 21
6393.382993677187
 31
0.0
  0
LINE
  5
280F8
330
747D
100
AcDbEntity
  8
細線
 48
50.0
100
AcDbLine
 10
9548.599999999989
 20
6372.988116098568
 30
0.0
 11
9748.599999999987
 21
6572.988116098563
 31
0.0
  0
LINE
  5
280F9
330
747D
100
AcDbEntity
  8
細線
 48
50.0
100
AcDbLine
 10
9548.599999999989
 20
6462.790677309257
 30
0.0
 11
9694.99668131699
 21
6609.187358626257
 31
0.0
  0
LINE
  5
280FA
330
747D
100
AcDbEntity
  8
細線
 48
50.0
100
AcDbLine
 10
9548.599999999989
 20
6417.889396703913
 30
0.0
 11
9739.897961922331
 21
6609.187358626257
 31
0.0
  0
LINE
  5
280FB
330
747D
100
AcDbEntity
  8
細線
 48
50.0
100
AcDbLine
 10
9549.700523133067
 20
6329.187358626295
 30
0.0
 11
9748.599999999987
 21
6528.086835493219
 31
0.0
  0
LINE
  5
280FC
330
747D
100
AcDbEntity
  8
細線
 48
50.0
100
AcDbLine
 10
9548.599999999987
 20
6507.691957914606
 30
0.0
 11
9650.095400711641
 21
6609.187358626257
 31
0.0
  0
LINE
  5
280FD
330
747D
100
AcDbEntity
  8
部品1
 48
50.0
100
AcDbLine
 10
9548.599999999986
 20
6609.187358626257
 30
0.0
 11
9548.599999999991
 21
6329.187358626295
 31
0.0
  0
LINE
  5
280FE
330
747D
100
AcDbEntity
  8
部品1
 48
50.0
100
AcDbLine
 10
9748.599999999987
 20
6609.187358626257
 30
0.0
 11
9748.599999999992
 21
6329.187358626299
 31
0.0
  0
LINE
  5
280FF
330
747D
100
AcDbEntity
  8
細線
 48
50.0
100
AcDbLine
 10
10498.59999999998
 20
6552.593238519946
 30
0.0
 11
10555.19412010629
 21
6609.187358626257
 31
0.0
  0
LINE
  5
28100
330
747D
100
AcDbEntity
  8
細線
 48
50.0
100
AcDbLine
 10
10679.30564555445
 20
6329.187358626299
 30
0.0
 11
10698.59999999999
 21
6348.481713071844
 31
0.0
  0
LINE
  5
28101
330
747D
100
AcDbEntity
  8
細線
 48
50.0
100
AcDbLine
 10
10544.60180373841
 20
6329.187358626297
 30
0.0
 11
10698.59999999999
 21
6483.185554887872
 31
0.0
  0
LINE
  5
28102
330
747D
100
AcDbEntity
  8
細線
 48
50.0
100
AcDbLine
 10
10589.50308434376
 20
6329.187358626297
 30
0.0
 11
10698.59999999999
 21
6438.284274282534
 31
0.0
  0
LINE
  5
28103
330
747D
100
AcDbEntity
  8
細線
 48
50.0
100
AcDbLine
 10
10634.4043649491
 20
6329.187358626299
 30
0.0
 11
10698.59999999999
 21
6393.382993677187
 31
0.0
  0
LINE
  5
28104
330
747D
100
AcDbEntity
  8
細線
 48
50.0
100
AcDbLine
 10
10498.59999999999
 20
6372.988116098568
 30
0.0
 11
10698.59999999998
 21
6572.988116098563
 31
0.0
  0
LINE
  5
28105
330
747D
100
AcDbEntity
  8
細線
 48
50.0
100
AcDbLine
 10
10498.59999999999
 20
6462.790677309257
 30
0.0
 11
10644.99668131699
 21
6609.187358626257
 31
0.0
  0
LINE
  5
28106
330
747D
100
AcDbEntity
  8
細線
 48
50.0
100
AcDbLine
 10
10498.59999999999
 20
6417.889396703913
 30
0.0
 11
10689.89796192233
 21
6609.187358626257
 31
0.0
  0
LINE
  5
28107
330
747D
100
AcDbEntity
  8
細線
 48
50.0
100
AcDbLine
 10
10499.70052313306
 20
6329.187358626295
 30
0.0
 11
10698.59999999998
 21
6528.086835493219
 31
0.0
  0
LINE
  5
28108
330
747D
100
AcDbEntity
  8
細線
 48
50.0
100
AcDbLine
 10
10498.59999999999
 20
6507.691957914606
 30
0.0
 11
10600.09540071164
 21
6609.187358626257
 31
0.0
  0
LINE
  5
28109
330
747D
100
AcDbEntity
  8
部品1
 48
50.0
100
AcDbLine
 10
10498.59999999998
 20
6609.187358626257
 30
0.0
 11
10498.59999999999
 21
6329.187358626295
 31
0.0
  0
LINE
  5
2810A
330
747D
100
AcDbEntity
  8
部品1
 48
50.0
100
AcDbLine
 10
10698.59999999998
 20
6609.187358626257
 30
0.0
 11
10698.59999999999
 21
6329.187358626299
 31
0.0
  0
LINE
  5
2810B
330
747D
100
AcDbEntity
  8
細線
 48
50.0
100
AcDbLine
 10
11448.59999999998
 20
6552.593238519946
 30
0.0
 11
11505.19412010629
 21
6609.187358626257
 31
0.0
  0
LINE
  5
2810C
330
747D
100
AcDbEntity
  8
細線
 48
50.0
100
AcDbLine
 10
11629.30564555445
 20
6329.187358626299
 30
0.0
 11
11648.59999999999
 21
6348.481713071844
 31
0.0
  0
LINE
  5
2810D
330
747D
100
AcDbEntity
  8
細線
 48
50.0
100
AcDbLine
 10
11494.60180373841
 20
6329.187358626297
 30
0.0
 11
11648.59999999999
 21
6483.185554887872
 31
0.0
  0
LINE
  5
2810E
330
747D
100
AcDbEntity
  8
細線
 48
50.0
100
AcDbLine
 10
11539.50308434376
 20
6329.187358626297
 30
0.0
 11
11648.59999999999
 21
6438.284274282534
 31
0.0
  0
LINE
  5
2810F
330
747D
100
AcDbEntity
  8
細線
 48
50.0
100
AcDbLine
 10
11584.4043649491
 20
6329.187358626299
 30
0.0
 11
11648.59999999999
 21
6393.382993677187
 31
0.0
  0
LINE
  5
28110
330
747D
100
AcDbEntity
  8
細線
 48
50.0
100
AcDbLine
 10
11448.59999999999
 20
6372.988116098568
 30
0.0
 11
11648.59999999998
 21
6572.988116098563
 31
0.0
  0
LINE
  5
28111
330
747D
100
AcDbEntity
  8
細線
 48
50.0
100
AcDbLine
 10
11448.59999999999
 20
6462.790677309257
 30
0.0
 11
11594.99668131699
 21
6609.187358626257
 31
0.0
  0
LINE
  5
28112
330
747D
100
AcDbEntity
  8
細線
 48
50.0
100
AcDbLine
 10
11448.59999999999
 20
6417.889396703913
 30
0.0
 11
11639.89796192233
 21
6609.187358626257
 31
0.0
  0
LINE
  5
28113
330
747D
100
AcDbEntity
  8
細線
 48
50.0
100
AcDbLine
 10
11449.70052313306
 20
6329.187358626295
 30
0.0
 11
11648.59999999998
 21
6528.086835493219
 31
0.0
  0
LINE
  5
28114
330
747D
100
AcDbEntity
  8
細線
 48
50.0
100
AcDbLine
 10
11448.59999999999
 20
6507.691957914606
 30
0.0
 11
11550.09540071164
 21
6609.187358626257
 31
0.0
  0
LINE
  5
28115
330
747D
100
AcDbEntity
  8
部品1
 48
50.0
100
AcDbLine
 10
11448.59999999998
 20
6609.187358626257
 30
0.0
 11
11448.59999999999
 21
6329.187358626295
 31
0.0
  0
LINE
  5
28116
330
747D
100
AcDbEntity
  8
部品1
 48
50.0
100
AcDbLine
 10
11648.59999999998
 20
6609.187358626257
 30
0.0
 11
11648.59999999999
 21
6329.187358626299
 31
0.0
  0
LINE
  5
28198
330
747D
100
AcDbEntity
  8
部品1
 48
50.0
100
AcDbLine
 10
4538.600000000001
 20
6609.187358626257
 30
0.0
 11
4538.599999999998
 21
7509.18735862626
 31
0.0
  0
LINE
  5
28199
330
747D
100
AcDbEntity
  8
部品1
 48
50.0
100
AcDbLine
 10
11908.6
 20
6609.187358626293
 30
0.0
 11
11908.6
 21
7509.18735862626
 31
0.0
  0
MTEXT
  5
28327
102
{ACAD_REACTORS
330
28328
102
}
330
747D
100
AcDbEntity
  8
寸法
 62
     7
 48
50.0
100
AcDbMText
 10
10626.03979658903
 20
2003.799614434885
 30
0.0
 40
120.0
 41
0.8
 71
     4
 72
     1
  1
\A1;C.B
  7
STYLE1
 73
     1
 44
1.0
1001
ACAD
1000
MTEXTBEGIN
1070
    73
1070
     1
1070
    44
1040
1.0
1070
    74
1070
     0
1000
MTEXTEND
  0
LEADER
  5
28328
330
747D
100
AcDbEntity
  8
寸法
 48
50.0
100
AcDbLeader
  3
INABA_S50G
 73
     0
 74
     0
 75
     1
 40
120.0
 41
185.591883092037
 76
     3
 10
10442.90158995538
 20
1746.653293753747
 30
0.0
 10
10476.03979658903
 20
1918.799614434884
 30
0.0
 10
10601.03979658903
 20
1918.799614434884
 30
0.0
340
28327
1001
ACAD
1000
DSTYLE
1002
{
1070
    40
1040
1.0
1002
}
  0
LINE
  5
28329
330
747D
100
AcDbEntity
  8
細線
 48
50.0
100
AcDbLine
 10
10588.55500353179
 20
1390.954378100396
 30
0.0
 11
10582.12422291345
 21
1414.954378100396
 31
0.0
  0
LINE
  5
2832A
330
747D
100
AcDbEntity
  8
細線
 48
50.0
100
AcDbLine
 10
10567.1190681373
 20
1310.954378100396
 30
0.0
 11
10573.54984875565
 21
1286.954378100396
 31
0.0
  0
LINE
  5
2832B
330
747D
100
AcDbEntity
  8
部品1
100
AcDbLine
 10
10632.17717833946
 20
1506.653293753747
 30
0.0
 11
10632.17717833946
 21
1286.954378100397
 31
0.0
  0
LINE
  5
2832C
330
747D
100
AcDbEntity
  8
細線
 48
50.0
100
AcDbLine
 10
10560.68828751895
 20
1286.954378100396
 30
0.0
 11
10594.98578415014
 21
1414.954378100394
 31
0.0
  0
LINE
  5
2832D
330
747D
100
AcDbEntity
  8
細線
 48
50.0
100
AcDbLine
 10
10509.66695858455
 20
1390.954378100396
 30
0.0
 11
10503.2361779662
 21
1414.954378100396
 31
0.0
  0
LINE
  5
2832E
330
747D
100
AcDbEntity
  8
細線
100
AcDbLine
 10
10385.21357283879
 20
1414.954378100398
 30
0.0
 11
10476.91248849214
 21
1506.653293753747
 31
0.0
  0
LINE
  5
2832F
330
747D
100
AcDbEntity
  8
細線
 48
50.0
100
AcDbLine
 10
10430.77891363729
 20
1390.954378100397
 30
0.0
 11
10424.34813301894
 21
1414.954378100397
 31
0.0
  0
LINE
  5
28330
330
747D
100
AcDbEntity
  8
細線
100
AcDbLine
 10
10419.15469833575
 20
1414.954378100398
 30
0.0
 11
10510.85361398909
 21
1506.653293753747
 31
0.0
  0
LINE
  5
28331
330
747D
100
AcDbEntity
  8
細線
 48
50.0
100
AcDbLine
 10
10194.11477879556
 20
1390.954378100397
 30
0.0
 11
10187.68399817721
 21
1414.954378100397
 31
0.0
  0
LINE
  5
28332
330
747D
100
AcDbEntity
  8
細線
 48
50.0
100
AcDbLine
 10
10273.0028237428
 20
1390.954378100397
 30
0.0
 11
10266.57204312446
 21
1414.954378100397
 31
0.0
  0
LINE
  5
28333
330
747D
100
AcDbEntity
  8
細線
 48
50.0
100
AcDbLine
 10
10351.89086869005
 20
1390.954378100397
 30
0.0
 11
10345.4600880717
 21
1414.954378100397
 31
0.0
  0
LINE
  5
28334
330
747D
100
AcDbEntity
  8
細線
 48
50.0
100
AcDbLine
 10
10488.23102319006
 20
1310.954378100396
 30
0.0
 11
10494.6618038084
 21
1286.954378100396
 31
0.0
  0
LINE
  5
28335
330
747D
100
AcDbEntity
  8
細線
 48
50.0
100
AcDbLine
 10
10409.34297824281
 20
1310.954378100397
 30
0.0
 11
10415.77375886117
 21
1286.954378100397
 31
0.0
  0
LINE
  5
28336
330
747D
100
AcDbEntity
  8
細線
 48
50.0
100
AcDbLine
 10
10251.56688834832
 20
1310.954378100397
 30
0.0
 11
10257.99766896666
 21
1286.954378100397
 31
0.0
  0
LINE
  5
28337
330
747D
100
AcDbEntity
  8
細線
 48
50.0
100
AcDbLine
 10
10330.45493329556
 20
1310.954378100397
 30
0.0
 11
10336.88571391391
 21
1286.954378100397
 31
0.0
  0
LINE
  5
28338
330
747D
100
AcDbEntity
  8
細線
 48
50.0
100
AcDbLine
 10
10324.02415267721
 20
1286.954378100397
 30
0.0
 11
10358.32164930839
 21
1414.954378100396
 31
0.0
  0
LINE
  5
28339
330
747D
100
AcDbEntity
  8
細線
 48
50.0
100
AcDbLine
 10
10245.13610772997
 20
1286.954378100396
 30
0.0
 11
10279.43360436115
 21
1414.954378100396
 31
0.0
  0
LINE
  5
2833A
330
747D
100
AcDbEntity
  8
細線
 48
50.0
100
AcDbLine
 10
10402.91219762446
 20
1286.954378100396
 30
0.0
 11
10437.20969425563
 21
1414.954378100397
 31
0.0
  0
LINE
  5
2833B
330
747D
100
AcDbEntity
  8
細線
100
AcDbLine
 10
10453.0958238327
 20
1414.954378100398
 30
0.0
 11
10544.79473948604
 21
1506.653293753747
 31
0.0
  0
LINE
  5
2833C
330
747D
100
AcDbEntity
  8
細線
 48
50.0
100
AcDbLine
 10
10481.80024257171
 20
1286.954378100394
 30
0.0
 11
10516.09773920289
 21
1414.954378100394
 31
0.0
  0
LINE
  5
2833D
330
747D
100
AcDbEntity
  8
部品1
100
AcDbLine
 10
10512.17717833946
 20
1746.653293753747
 30
0.0
 11
10512.17717833946
 21
1506.653293753747
 31
0.0
  0
LINE
  5
2833E
330
747D
100
AcDbEntity
  8
細線
100
AcDbLine
 10
10498.33951599188
 20
1506.653293753748
 30
0.0
 11
10258.33951599188
 21
1746.653293753747
 31
0.0
  0
LINE
  5
2833F
330
747D
100
AcDbEntity
  8
細線
100
AcDbLine
 10
10447.42782774645
 20
1506.653293753747
 30
0.0
 11
10207.42782774645
 21
1746.653293753747
 31
0.0
  0
LINE
  5
28340
330
747D
100
AcDbEntity
  8
細線
100
AcDbLine
 10
10059.15469833575
 20
1414.954378100397
 30
0.0
 11
10150.85361398909
 21
1506.653293753747
 31
0.0
  0
LINE
  5
28341
330
747D
100
AcDbEntity
  8
細線
100
AcDbLine
 10
10025.21357283879
 20
1414.954378100397
 30
0.0
 11
10116.91248849214
 21
1506.653293753747
 31
0.0
  0
LINE
  5
28342
330
747D
100
AcDbEntity
  8
細線
 48
50.0
100
AcDbLine
 10
10036.33868890106
 20
1390.954378100397
 30
0.0
 11
10029.90790828271
 21
1414.954378100397
 31
0.0
  0
LINE
  5
28343
330
747D
100
AcDbEntity
  8
細線
 48
50.0
100
AcDbLine
 10
10115.22673384831
 20
1390.954378100397
 30
0.0
 11
10108.79595322997
 21
1414.954378100397
 31
0.0
  0
LINE
  5
28344
330
747D
100
AcDbEntity
  8
細線
 48
50.0
100
AcDbLine
 10
9957.450643953812
 20
1390.954378100397
 30
0.0
 11
9951.019863335464
 21
1414.954378100397
 31
0.0
  0
LINE
  5
28345
330
747D
100
AcDbEntity
  8
細線
 48
50.0
100
AcDbLine
 10
10172.67884340107
 20
1310.954378100397
 30
0.0
 11
10179.10962401942
 21
1286.954378100397
 31
0.0
  0
LINE
  5
28346
330
747D
100
AcDbEntity
  8
細線
 48
50.0
100
AcDbLine
 10
10093.79079845382
 20
1310.954378100397
 30
0.0
 11
10100.22157907217
 21
1286.954378100397
 31
0.0
  0
LINE
  5
28347
330
747D
100
AcDbEntity
  8
細線
 48
50.0
100
AcDbLine
 10
9936.014708559321
 20
1310.954378100397
 30
0.0
 11
9942.44548917767
 21
1286.954378100397
 31
0.0
  0
LINE
  5
28348
330
747D
100
AcDbEntity
  8
細線
 48
50.0
100
AcDbLine
 10
10014.90275350657
 20
1310.954378100397
 30
0.0
 11
10021.33353412492
 21
1286.954378100397
 31
0.0
  0
LINE
  5
28349
330
747D
100
AcDbEntity
  8
部品1
100
AcDbLine
 10
9912.177178339462
 20
1286.954378100393
 30
0.0
 11
9912.177178339462
 21
1506.653293753747
 31
0.0
  0
LINE
  5
2834A
330
747D
100
AcDbEntity
  8
細線
 48
50.0
100
AcDbLine
 10
9929.583927940974
 20
1286.954378100397
 30
0.0
 11
9963.881424572159
 21
1414.954378100397
 31
0.0
  0
LINE
  5
2834B
330
747D
100
AcDbEntity
  8
細線
 48
50.0
100
AcDbLine
 10
10087.36001783547
 20
1286.954378100397
 30
0.0
 11
10121.65751446665
 21
1414.954378100397
 31
0.0
  0
LINE
  5
2834C
330
747D
100
AcDbEntity
  8
細線
 48
50.0
100
AcDbLine
 10
10008.47197288822
 20
1286.954378100396
 30
0.0
 11
10042.7694695194
 21
1414.954378100396
 31
0.0
  0
LINE
  5
2834D
330
747D
100
AcDbEntity
  8
部品1
100
AcDbLine
 10
10032.17717833946
 20
1506.653293753747
 30
0.0
 11
10032.17717833946
 21
1746.653293753747
 31
0.0
  0
TEXT
  5
2834E
330
747D
100
AcDbEntity
  8
部品1
 48
50.0
100
AcDbText
 10
9268.059091580958
 20
1239.853553116438
 30
0.0
 40
80.0
  1
ボルトの出
 50
90.0
  7
STYLE2
100
AcDbText
  0
LINE
  5
2834F
330
747D
100
AcDbEntity
  8
細線
100
AcDbLine
 10
10175.89882377081
 20
1506.653293753747
 30
0.0
 11
10032.17717833946
 21
1650.3749391851
 31
0.0
  0
LWPOLYLINE
  5
28350
330
747D
100
AcDbEntity
  8
部品1
 48
50.0
100
AcDbPolyline
 90
        2
 70
     0
 43
12.0
 10
9647.565916239074
 20
1506.653293753747
 10
10848.6582193707
 20
1506.653293753747
  0
LINE
  5
28351
330
747D
100
AcDbEntity
  8
細線
100
AcDbLine
 10
10093.0958238327
 20
1414.954378100397
 30
0.0
 11
10184.79473948605
 21
1506.653293753747
 31
0.0
  0
LINE
  5
28352
330
747D
100
AcDbEntity
  8
部品1
100
AcDbLine
 10
9912.177178339462
 20
1414.954378100397
 30
0.0
 11
10632.17717833946
 21
1414.954378100399
 31
0.0
  0
LINE
  5
28353
330
747D
100
AcDbEntity
  8
部品1
100
AcDbLine
 10
9912.177178339462
 20
1286.954378100393
 30
0.0
 11
10632.17717833946
 21
1286.954378100397
 31
0.0
  0
LINE
  5
28354
330
747D
100
AcDbEntity
  8
細線
 48
50.0
100
AcDbLine
 10
10166.24806278272
 20
1286.954378100397
 30
0.0
 11
10200.5455594139
 21
1414.954378100396
 31
0.0
  0
LINE
  5
28355
330
747D
100
AcDbEntity
  8
部品1
100
AcDbLine
 10
10032.17717833946
 20
1746.653293753747
 30
0.0
 11
10512.17717833946
 21
1746.653293753747
 31
0.0
  0
LINE
  5
28356
330
747D
100
AcDbEntity
  8
細線
100
AcDbLine
 10
10226.81051201624
 20
1506.653293753747
 30
0.0
 11
10032.17717833946
 21
1701.28662743053
 31
0.0
  0
LINE
  5
28357
330
747D
100
AcDbEntity
  8
部品1
100
AcDbLine
 10
11218.91867943649
 20
181.6849913696851
 30
0.0
 11
11218.9186794365
 21
3145.991960954332
 31
0.0
  0
TEXT
  5
28358
330
747D
100
AcDbEntity
  8
部品1
100
AcDbText
 10
7840.813495228634
 20
2966.440029002905
 30
0.0
 40
120.0
  1
基礎詳細
  7
STYLE2
100
AcDbText
  0
LINE
  5
28359
330
747D
100
AcDbEntity
  8
部品1
 48
50.0
100
AcDbLine
 10
8156.041246036705
 20
2145.52857486289
 30
0.0
 11
8172.041246036704
 21
2137.528574862889
 31
0.0
  0
LINE
  5
2835A
330
747D
100
AcDbEntity
  8
細線
 48
50.0
100
AcDbLine
 10
8124.041246036703
 20
2097.52857486289
 30
0.0
 11
8124.041246036703
 21
2129.52857486289
 31
0.0
  0
LINE
  5
2835B
330
747D
100
AcDbEntity
  8
部品1
 48
50.0
100
AcDbLine
 10
8172.041246036704
 20
2105.528574862889
 30
0.0
 11
8172.041246036704
 21
2137.528574862889
 31
0.0
  0
LINE
  5
2835C
330
747D
100
AcDbEntity
  8
細線
 48
50.0
100
AcDbLine
 10
8156.041246036705
 20
2097.52857486289
 30
0.0
 11
8156.041246036705
 21
2129.52857486289
 31
0.0
  0
LINE
  5
2835D
330
747D
100
AcDbEntity
  8
部品1
 48
50.0
100
AcDbLine
 10
8156.041246036705
 20
2129.52857486289
 30
0.0
 11
8172.041246036704
 21
2137.528574862889
 31
0.0
  0
LINE
  5
2835E
330
747D
100
AcDbEntity
  8
部品1
 48
50.0
100
AcDbLine
 10
8124.041246036703
 20
2129.52857486289
 30
0.0
 11
8156.041246036705
 21
2129.52857486289
 31
0.0
  0
LINE
  5
2835F
330
747D
100
AcDbEntity
  8
部品1
 48
50.0
100
AcDbLine
 10
8156.041246036705
 20
2097.52857486289
 30
0.0
 11
8172.041246036704
 21
2105.528574862889
 31
0.0
  0
LINE
  5
28360
330
747D
100
AcDbEntity
  8
部品1
 48
50.0
100
AcDbLine
 10
8124.041246036703
 20
2097.52857486289
 30
0.0
 11
8156.041246036705
 21
2097.52857486289
 31
0.0
  0
ELLIPSE
  5
28361
330
747D
100
AcDbEntity
  8
細線
 48
50.0
100
AcDbEllipse
 10
8140.041246036705
 20
2137.528574862889
 30
0.0
 11
14.76670786606846
 21
0.0
 31
0.0
210
0.0
220
0.0
230
1.0
 40
0.2071254069489396
 41
0.0
 42
6.283185307179586
  0
LINE
  5
28362
330
747D
100
AcDbEntity
  8
部品1
 48
50.0
100
AcDbLine
 10
8124.041246036703
 20
2145.52857486289
 30
0.0
 11
8156.041246036705
 21
2145.52857486289
 31
0.0
  0
LINE
  5
28363
330
747D
100
AcDbEntity
  8
部品1
 48
50.0
100
AcDbLine
 10
8108.041246036703
 20
2105.528574862889
 30
0.0
 11
8108.041246036703
 21
2137.528574862889
 31
0.0
  0
LINE
  5
28364
330
747D
100
AcDbEntity
  8
部品1
 48
50.0
100
AcDbLine
 10
8108.041246036703
 20
2137.528574862889
 30
0.0
 11
8124.041246036703
 21
2145.52857486289
 31
0.0
  0
LINE
  5
28365
330
747D
100
AcDbEntity
  8
部品1
 48
50.0
100
AcDbLine
 10
8108.041246036703
 20
2105.528574862889
 30
0.0
 11
8124.041246036703
 21
2097.52857486289
 31
0.0
  0
LINE
  5
28366
330
747D
100
AcDbEntity
  8
部品1
 48
50.0
100
AcDbLine
 10
8108.041246036703
 20
2137.528574862889
 30
0.0
 11
8124.041246036703
 21
2129.52857486289
 31
0.0
  0
LINE
  5
28367
330
747D
100
AcDbEntity
  8
部品1
 48
50.0
100
AcDbLine
 10
8180.041246036704
 20
2006.176582198019
 30
0.0
 11
8180.041246036704
 21
2015.776582198019
 31
0.0
  0
ELLIPSE
  5
28368
330
747D
100
AcDbEntity
  8
部品1
 48
50.0
100
AcDbEllipse
 10
8140.041246036705
 20
2015.776582198019
 30
0.0
 11
18.4
 21
0.0
 31
0.0
210
0.0
220
0.0
230
1.0
 40
0.3478260869565217
 41
0.0
 42
6.283185307179586
  0
ARC
  5
28369
330
747D
100
AcDbEntity
  8
部品1
100
AcDbCircle
 10
7978.941246036704
 20
1844.753293753747
 30
0.0
 40
2.7
100
AcDbArc
 50
90.0
 51
180.0
  0
LINE
  5
2836A
330
747D
100
AcDbEntity
  8
部品1
100
AcDbLine
 10
7981.641246036703
 20
1858.253293753747
 30
0.0
 11
8023.941246036704
 21
1858.253293753744
 31
0.0
  0
LINE
  5
2836B
330
747D
100
AcDbEntity
  8
部品1
100
AcDbLine
 10
7978.941246036704
 20
1847.453293753747
 30
0.0
 11
7978.941246036704
 21
1855.553293753746
 31
0.0
  0
LINE
  5
2836C
330
747D
100
AcDbEntity
  8
部品1
100
AcDbLine
 10
7978.941246036704
 20
1847.453293753747
 30
0.0
 11
7978.941246036704
 21
1847.453293753747
 31
0.0
  0
ARC
  5
2836D
330
747D
100
AcDbEntity
  8
部品1
100
AcDbCircle
 10
7981.641246036703
 20
1855.553293753746
 30
0.0
 40
2.7
100
AcDbArc
 50
90.0
 51
180.0
  0
ARC
  5
2836E
330
747D
100
AcDbEntity
  8
部品1
100
AcDbCircle
 10
8023.941246036704
 20
1855.553293753743
 30
0.0
 40
2.7
100
AcDbArc
 50
0.0
 51
90.0
  0
LINE
  5
2836F
330
747D
100
AcDbEntity
  8
部品1
 48
50.0
100
AcDbLine
 10
8100.041246036704
 20
2015.776582198019
 30
0.0
 11
8100.041246036704
 21
2006.176582198019
 31
0.0
  0
ELLIPSE
  5
28370
330
747D
100
AcDbEntity
  8
部品1
 48
50.0
100
AcDbEllipse
 10
8140.041246036705
 20
2006.17658219802
 30
0.0
 11
40.0
 21
0.0
 31
0.0
210
0.0
220
0.0
230
1.0
 40
0.4
 41
3.141592653589793
 42
6.283185307179586
  0
ELLIPSE
  5
28371
330
747D
100
AcDbEntity
  8
部品1
 48
50.0
100
AcDbEllipse
 10
8140.041246036705
 20
2015.776582198019
 30
0.0
 11
40.0
 21
0.0
 31
0.0
210
0.0
220
0.0
230
1.0
 40
0.4
 41
0.0
 42
6.283185307179586
  0
LINE
  5
28372
330
747D
100
AcDbEntity
  8
部品1
100
AcDbLine
 10
8134.641246036704
 20
1799.413293753747
 30
0.0
 11
8145.441246036703
 21
1799.413293753747
 31
0.0
  0
LINE
  5
28373
330
747D
100
AcDbEntity
  8
部品1
100
AcDbLine
 10
8131.041246036705
 20
1795.813293753747
 30
0.0
 11
8149.041246036704
 21
1795.813293753747
 31
0.0
  0
LINE
  5
28374
330
747D
100
AcDbEntity
  8
細線
100
AcDbLine
 10
8134.641246036705
 20
1756.213293753747
 30
0.0
 11
8134.641246036704
 21
1799.413293753747
 31
0.0
  0
LINE
  5
28375
330
747D
100
AcDbEntity
  8
細線
100
AcDbLine
 10
8145.441246036703
 20
1756.213293753747
 30
0.0
 11
8145.441246036703
 21
1799.413293753747
 31
0.0
  0
LINE
  5
28376
330
747D
100
AcDbEntity
  8
部品1
100
AcDbLine
 10
8047.341246036705
 20
1813.513293753747
 30
0.0
 11
8047.341246036705
 21
1796.413293753747
 31
0.0
  0
LINE
  5
28377
330
747D
100
AcDbEntity
  8
部品1
100
AcDbLine
 10
8080.901246036704
 20
1813.513293753747
 30
0.0
 11
8080.901246036701
 21
1758.913293753747
 31
0.0
  0
ARC
  5
28378
330
747D
100
AcDbEntity
  8
部品1
100
AcDbCircle
 10
8066.241246036705
 20
1801.553293753746
 30
0.0
 40
2.7
100
AcDbArc
 50
0.0
 51
90.0
  0
LINE
  5
28379
330
747D
100
AcDbEntity
  8
部品1
100
AcDbLine
 10
8026.641246036703
 20
1804.253293753747
 30
0.0
 11
8066.241246036705
 21
1804.253293753747
 31
0.0
  0
ARC
  5
2837A
330
747D
100
AcDbEntity
  8
部品1
100
AcDbCircle
 10
8066.241246036705
 20
1758.913293753747
 30
0.0
 40
2.7
100
AcDbArc
 50
270.0
 51
0.0
  0
ARC
  5
2837B
330
747D
100
AcDbEntity
  8
部品1
100
AcDbCircle
 10
8083.601246036698
 20
1758.913293753747
 30
0.0
 40
2.7
100
AcDbArc
 50
180.0
 51
270.0
  0
LINE
  5
2837C
330
747D
100
AcDbEntity
  8
部品1
100
AcDbLine
 10
8054.541246036704
 20
1756.213293753747
 30
0.0
 11
8066.241246036705
 21
1756.213293753747
 31
0.0
  0
LINE
  5
2837D
330
747D
100
AcDbEntity
  8
部品1
100
AcDbLine
 10
8068.941246036704
 20
1801.553293753746
 30
0.0
 11
8068.941246036704
 21
1758.913293753747
 31
0.0
  0
ARC
  5
2837E
330
747D
100
AcDbEntity
  8
部品1
100
AcDbCircle
 10
8078.201246036703
 20
1813.513293753747
 30
0.0
 40
2.7
100
AcDbArc
 50
0.0
 51
90.0
  0
ARC
  5
2837F
330
747D
100
AcDbEntity
  8
部品1
100
AcDbCircle
 10
8050.041246036704
 20
1813.513293753747
 30
0.0
 40
2.7
100
AcDbArc
 50
90.0
 51
180.0
  0
LINE
  5
28380
330
747D
100
AcDbEntity
  8
部品1
100
AcDbLine
 10
8050.041246036704
 20
1816.213293753747
 30
0.0
 11
8078.201246036703
 21
1816.213293753747
 31
0.0
  0
LINE
  5
28381
330
747D
100
AcDbEntity
  8
部品1
100
AcDbLine
 10
8026.641246036703
 20
1855.553293753743
 30
0.0
 11
8026.641246036703
 21
1804.253293753747
 31
0.0
  0
LINE
  5
28382
330
747D
100
AcDbEntity
  8
部品1
100
AcDbLine
 10
7976.241246036704
 20
1836.653293753746
 30
0.0
 11
7976.241246036704
 21
1844.753293753747
 31
0.0
  0
LINE
  5
28383
330
747D
100
AcDbEntity
  8
部品1
100
AcDbLine
 10
8083.601246036698
 20
1756.213293753747
 30
0.0
 11
8284.9412460367
 21
1756.213293753747
 31
0.0
  0
LINE
  5
28384
330
747D
100
AcDbEntity
  8
部品1
100
AcDbLine
 10
7924.941246036704
 20
1758.913293753747
 30
0.0
 11
7924.941246036704
 21
1821.045197456455
 31
0.0
  0
LINE
  5
28385
330
747D
100
AcDbEntity
  8
部品1
100
AcDbLine
 10
7927.641246036703
 20
1756.213293753747
 30
0.0
 11
7939.341246036699
 21
1756.213293753747
 31
0.0
  0
LINE
  5
28386
330
747D
100
AcDbEntity
  8
細線
 48
50.0
100
AcDbLine
 10
7918.641246036703
 20
1734.433870053652
 30
0.0
 11
7930.860669736798
 21
1746.653293753747
 31
0.0
  0
ARC
  5
28387
330
747D
100
AcDbEntity
  8
部品1
100
AcDbCircle
 10
7927.641246036703
 20
1758.913293753747
 30
0.0
 40
2.7
100
AcDbArc
 50
180.0
 51
270.0
  0
LINE
  5
28388
330
747D
100
AcDbEntity
  8
部品1
100
AcDbLine
 10
7926.986399849106
 20
1823.664582206847
 30
0.0
 11
7935.741246036705
 21
1825.853293753747
 31
0.0
  0
ARC
  5
28389
330
747D
100
AcDbEntity
  8
部品1
100
AcDbCircle
 10
7927.641246036703
 20
1821.045197456455
 30
0.0
 40
2.7
100
AcDbArc
 50
104.0362434679067
 51
180.0
  0
ARC
  5
2838A
330
747D
100
AcDbEntity
  8
部品1
100
AcDbCircle
 10
7938.441246036704
 20
1833.953293753747
 30
0.0
 40
2.7
100
AcDbArc
 50
90.0
 51
180.0
  0
LINE
  5
2838B
330
747D
100
AcDbEntity
  8
部品1
100
AcDbLine
 10
7935.741246036705
 20
1825.853293753747
 30
0.0
 11
7935.741246036705
 21
1833.953293753747
 31
0.0
  0
LINE
  5
2838C
330
747D
100
AcDbEntity
  8
部品1
 48
50.0
100
AcDbLine
 10
7918.641246036703
 20
1746.653293753747
 30
0.0
 11
8332.641246036706
 21
1746.653293753747
 31
0.0
  0
LINE
  5
2838D
330
747D
100
AcDbEntity
  8
細線
 48
50.0
100
AcDbLine
 10
7918.641246036703
 20
1680.552333327237
 30
0.0
 11
7984.742206463214
 21
1746.653293753747
 31
0.0
  0
LINE
  5
2838E
330
747D
100
AcDbEntity
  8
細線
 48
50.0
100
AcDbLine
 10
7918.641246036703
 20
1707.493101690445
 30
0.0
 11
7957.80143810001
 21
1746.653293753747
 31
0.0
  0
LINE
  5
2838F
330
747D
100
AcDbEntity
  8
部品1
100
AcDbLine
 10
7938.441246036704
 20
1836.653293753746
 30
0.0
 11
7976.241246036704
 21
1836.653293753746
 31
0.0
  0
LINE
  5
28390
330
747D
100
AcDbEntity
  8
部品1
 48
50.0
100
AcDbLine
 10
8332.641246036702
 20
1202.653293753747
 30
0.0
 11
8460.641246036702
 21
1202.653293753747
 31
0.0
  0
LINE
  5
28391
330
747D
100
AcDbEntity
  8
部品1
100
AcDbLine
 10
8149.041246036704
 20
1521.653293753747
 30
0.0
 11
8185.041246036703
 21
1521.653293753747
 31
0.0
  0
LINE
  5
28392
330
747D
100
AcDbEntity
  8
部品1
100
AcDbLine
 10
8149.041246036704
 20
1503.653293753747
 30
0.0
 11
8185.041246036703
 21
1503.653293753747
 31
0.0
  0
ARC
  5
28393
330
747D
100
AcDbEntity
  8
部品1
100
AcDbCircle
 10
8149.041246036704
 20
1521.653293753747
 30
0.0
 40
18.0
100
AcDbArc
 50
180.0
 51
270.0
  0
LINE
  5
28394
330
747D
100
AcDbEntity
  8
部品1
100
AcDbLine
 10
8185.041246036703
 20
1503.653293753747
 30
0.0
 11
8185.041246036703
 21
1521.653293753747
 31
0.0
  0
LINE
  5
28395
330
747D
100
AcDbEntity
  8
部品1
100
AcDbLine
 10
8203.041246036704
 20
1422.653293753745
 30
0.0
 11
8077.041246036698
 21
1422.653293753745
 31
0.0
  0
LINE
  5
28396
330
747D
100
AcDbEntity
  8
細線
 48
50.0
100
AcDbLine
 10
8497.019071229038
 20
938.6532937537449
 30
0.0
 11
8490.588290610693
 21
962.6532937537449
 31
0.0
  0
LINE
  5
28397
330
747D
100
AcDbEntity
  8
細線
 48
50.0
100
AcDbLine
 10
8418.131026281793
 20
938.6532937537449
 30
0.0
 11
8411.700245663448
 21
962.6532937537449
 31
0.0
  0
LINE
  5
28398
330
747D
100
AcDbEntity
  8
細線
 48
50.0
100
AcDbLine
 10
8339.242981334537
 20
938.6532937537467
 30
0.0
 11
8332.812200716189
 21
962.6532937537467
 31
0.0
  0
LINE
  5
28399
330
747D
100
AcDbEntity
  8
細線
 48
50.0
100
AcDbLine
 10
8475.583135834551
 20
858.653293753745
 30
0.0
 11
8482.013916452897
 21
834.653293753745
 31
0.0
  0
LINE
  5
2839A
330
747D
100
AcDbEntity
  8
細線
 48
50.0
100
AcDbLine
 10
8396.695090887304
 20
858.653293753745
 30
0.0
 11
8403.12587150565
 21
834.653293753745
 31
0.0
  0
LINE
  5
2839B
330
747D
100
AcDbEntity
  8
細線
 48
50.0
100
AcDbLine
 10
8317.807045940055
 20
858.6532937537468
 30
0.0
 11
8324.237826558412
 21
834.6532937537467
 31
0.0
  0
LINE
  5
2839C
330
747D
100
AcDbEntity
  8
細線
 48
50.0
100
AcDbLine
 10
8390.264310268955
 20
834.6532937537441
 30
0.0
 11
8424.561806900138
 21
962.653293753744
 31
0.0
  0
LINE
  5
2839D
330
747D
100
AcDbEntity
  8
細線
 48
50.0
100
AcDbLine
 10
8311.376265321705
 20
834.653293753745
 30
0.0
 11
8345.673761952879
 21
962.6532937537467
 31
0.0
  0
LINE
  5
2839E
330
747D
100
AcDbEntity
  8
細線
 48
50.0
100
AcDbLine
 10
8469.152355216198
 20
834.653293753745
 30
0.0
 11
8503.449851847385
 21
962.653293753744
 31
0.0
  0
LINE
  5
2839F
330
747D
100
AcDbEntity
  8
部品1
 48
50.0
100
AcDbLine
 10
8540.641246036706
 20
962.6532937537467
 30
0.0
 11
8540.641246036706
 21
834.6532937537467
 31
0.0
  0
LINE
  5
283A0
330
747D
100
AcDbEntity
  8
細線
 48
50.0
100
AcDbLine
 10
8260.354936387299
 20
938.6532937537467
 30
0.0
 11
8253.924155768954
 21
962.6532937537467
 31
0.0
  0
LINE
  5
283A1
330
747D
100
AcDbEntity
  8
細線
 48
50.0
100
AcDbLine
 10
8181.466891440054
 20
938.6532937537467
 30
0.0
 11
8175.036110821706
 21
962.6532937537467
 31
0.0
  0
LINE
  5
283A2
330
747D
100
AcDbEntity
  8
細線
 48
50.0
100
AcDbLine
 10
8023.69080154556
 20
938.6532937537467
 30
0.0
 11
8017.260020927214
 21
962.6532937537467
 31
0.0
  0
LINE
  5
283A3
330
747D
100
AcDbEntity
  8
細線
 48
50.0
100
AcDbLine
 10
8102.578846492807
 20
938.6532937537467
 30
0.0
 11
8096.148065874459
 21
962.6532937537467
 31
0.0
  0
LINE
  5
283A4
330
747D
100
AcDbEntity
  8
細線
 48
50.0
100
AcDbLine
 10
8160.030956045565
 20
858.6532937537468
 30
0.0
 11
8166.46173666391
 21
834.6532937537467
 31
0.0
  0
LINE
  5
283A5
330
747D
100
AcDbEntity
  8
細線
 48
50.0
100
AcDbLine
 10
8238.91900099281
 20
858.6532937537468
 30
0.0
 11
8245.349781611157
 21
834.6532937537467
 31
0.0
  0
LINE
  5
283A6
330
747D
100
AcDbEntity
  8
細線
 48
50.0
100
AcDbLine
 10
8002.254866151069
 20
858.6532937537468
 30
0.0
 11
8008.685646769418
 21
834.6532937537467
 31
0.0
  0
LINE
  5
283A7
330
747D
100
AcDbEntity
  8
細線
 48
50.0
100
AcDbLine
 10
8081.142911098316
 20
858.6532937537468
 30
0.0
 11
8087.573691716665
 21
834.6532937537467
 31
0.0
  0
LINE
  5
283A8
330
747D
100
AcDbEntity
  8
細線
 48
50.0
100
AcDbLine
 10
8232.488220374456
 20
834.6532937537467
 30
0.0
 11
8266.785717005642
 21
962.6532937537449
 31
0.0
  0
LINE
  5
283A9
330
747D
100
AcDbEntity
  8
細線
 48
50.0
100
AcDbLine
 10
8074.712130479966
 20
834.6532937537467
 30
0.0
 11
8109.00962711115
 21
962.6532937537449
 31
0.0
  0
LINE
  5
283AA
330
747D
100
AcDbEntity
  8
細線
 48
50.0
100
AcDbLine
 10
7995.824085532719
 20
834.6532937537467
 30
0.0
 11
8030.121582163902
 21
962.6532937537467
 31
0.0
  0
LINE
  5
283AB
330
747D
100
AcDbEntity
  8
細線
 48
50.0
100
AcDbLine
 10
8153.600175427214
 20
834.653293753745
 30
0.0
 11
8187.897672058396
 21
962.6532937537449
 31
0.0
  0
LINE
  5
283AC
330
747D
100
AcDbEntity
  8
細線
 48
50.0
100
AcDbLine
 10
8278.372940991513
 20
962.6532937537467
 30
0.0
 11
8460.641246036702
 21
1144.921598798942
 31
0.0
  0
LINE
  5
283AD
330
747D
100
AcDbEntity
  8
部品1
 48
50.0
100
AcDbLine
 10
8460.641246036702
 20
1202.653293753747
 30
0.0
 11
8460.641246036702
 21
962.6532937537467
 31
0.0
  0
LINE
  5
283AE
330
747D
100
AcDbEntity
  8
細線
 48
50.0
100
AcDbLine
 10
8251.432172628309
 20
962.6532937537467
 30
0.0
 11
8460.641246036702
 21
1171.86236716214
 31
0.0
  0
LINE
  5
283AF
330
747D
100
AcDbEntity
  8
細線
 48
50.0
100
AcDbLine
 10
8224.491404265096
 20
962.6532937537467
 30
0.0
 11
8460.641246036702
 21
1198.803135525355
 31
0.0
  0
LINE
  5
283B0
330
747D
100
AcDbEntity
  8
細線
 48
50.0
100
AcDbLine
 10
8008.965257359438
 20
962.6532937537467
 30
0.0
 11
8332.641246036702
 21
1286.329282431013
 31
0.0
  0
LINE
  5
283B1
330
747D
100
AcDbEntity
  8
細線
 48
50.0
100
AcDbLine
 10
8062.846794085855
 20
962.6532937537467
 30
0.0
 11
8332.641246036702
 21
1232.447745704604
 31
0.0
  0
LINE
  5
283B2
330
747D
100
AcDbEntity
  8
細線
 48
50.0
100
AcDbLine
 10
8035.906025722649
 20
962.6532937537467
 30
0.0
 11
8332.641246036702
 21
1259.388514067799
 31
0.0
  0
LINE
  5
283B3
330
747D
100
AcDbEntity
  8
細線
 48
50.0
100
AcDbLine
 10
7790.641246036699
 20
1175.381576242332
 30
0.0
 11
7817.912963548119
 21
1202.653293753747
 31
0.0
  0
LINE
  5
283B4
330
747D
100
AcDbEntity
  8
部品1
 48
50.0
100
AcDbLine
 10
7790.641246036703
 20
1202.653293753747
 30
0.0
 11
7918.641246036703
 21
1202.653293753747
 31
0.0
  0
LINE
  5
283B5
330
747D
100
AcDbEntity
  8
細線
 48
50.0
100
AcDbLine
 10
7790.641246036699
 20
1148.440807879122
 30
0.0
 11
7844.853731911327
 21
1202.653293753747
 31
0.0
  0
LWPOLYLINE
  5
283B6
330
747D
100
AcDbEntity
  8
部品1
 48
50.0
100
AcDbPolyline
 90
        2
 70
     0
 43
8.0
 10
7504.501344203747
 20
1506.653293753748
 10
7918.641246036703
 20
1506.653293753748
  0
LINE
  5
283B7
330
747D
100
AcDbEntity
  8
細線
 48
50.0
100
AcDbLine
 10
7865.914711651058
 20
938.6532937537467
 30
0.0
 11
7859.48393103271
 21
962.6532937537467
 31
0.0
  0
LINE
  5
283B8
330
747D
100
AcDbEntity
  8
細線
 48
50.0
100
AcDbLine
 10
7944.802756598308
 20
938.6532937537467
 30
0.0
 11
7938.37197597996
 21
962.6532937537467
 31
0.0
  0
LINE
  5
283B9
330
747D
100
AcDbEntity
  8
細線
 48
50.0
100
AcDbLine
 10
7787.026666703805
 20
938.6532937537467
 30
0.0
 11
7780.595886085459
 21
962.6532937537467
 31
0.0
  0
LINE
  5
283BA
330
747D
100
AcDbEntity
  8
細線
 48
50.0
100
AcDbLine
 10
7710.641246036702
 20
947.9932147195269
 30
0.0
 11
7714.569402374898
 21
962.6532937537467
 31
0.0
  0
LINE
  5
283BB
330
747D
100
AcDbEntity
  8
細線
 48
50.0
100
AcDbLine
 10
7844.478776256568
 20
858.6532937537468
 30
0.0
 11
7850.909556874914
 21
834.6532937537467
 31
0.0
  0
LINE
  5
283BC
330
747D
100
AcDbEntity
  8
細線
 48
50.0
100
AcDbLine
 10
7923.36682120382
 20
858.6532937537468
 30
0.0
 11
7929.797601822167
 21
834.6532937537467
 31
0.0
  0
LINE
  5
283BD
330
747D
100
AcDbEntity
  8
細線
 48
50.0
100
AcDbLine
 10
7765.590731309315
 20
858.6532937537468
 30
0.0
 11
7772.021511927661
 21
834.6532937537467
 31
0.0
  0
LINE
  5
283BE
330
747D
100
AcDbEntity
  8
細線
 48
50.0
100
AcDbLine
 10
7916.936040585468
 20
834.653293753745
 30
0.0
 11
7951.233537216649
 21
962.6532937537449
 31
0.0
  0
LINE
  5
283BF
330
747D
100
AcDbEntity
  8
細線
 48
50.0
100
AcDbLine
 10
7759.159950690963
 20
834.653293753745
 30
0.0
 11
7793.457447322146
 21
962.6532937537449
 31
0.0
  0
LINE
  5
283C0
330
747D
100
AcDbEntity
  8
部品1
 48
50.0
100
AcDbLine
 10
7710.641246036707
 20
834.6532937537467
 30
0.0
 11
7710.641246036707
 21
962.6532937537467
 31
0.0
  0
LINE
  5
283C1
330
747D
100
AcDbEntity
  8
細線
 48
50.0
100
AcDbLine
 10
7838.04799563822
 20
834.6532937537467
 30
0.0
 11
7872.345492269403
 21
962.6532937537467
 31
0.0
  0
LINE
  5
283C2
330
747D
100
AcDbEntity
  8
部品1
 48
50.0
100
AcDbLine
 10
7790.641246036703
 20
962.6532937537467
 30
0.0
 11
7790.641246036703
 21
1202.653293753747
 31
0.0
  0
LINE
  5
283C3
330
747D
100
AcDbEntity
  8
細線
 48
50.0
100
AcDbLine
 10
7790.641246036699
 20
1121.500039515918
 30
0.0
 11
7871.794500274532
 21
1202.653293753747
 31
0.0
  0
LINE
  5
283C4
330
747D
100
AcDbEntity
  8
部品1
 48
50.0
100
AcDbLine
 10
8540.641246036706
 20
834.6532937537467
 30
0.0
 11
7710.641246036707
 21
834.6532937537467
 31
0.0
  0
LINE
  5
283C5
330
747D
100
AcDbEntity
  8
部品1
 48
50.0
100
AcDbLine
 10
8540.641246036706
 20
962.6532937537467
 30
0.0
 11
7710.641246036707
 21
962.6532937537467
 31
0.0
  0
LINE
  5
283C6
330
747D
100
AcDbEntity
  8
細線
 48
50.0
100
AcDbLine
 10
7793.439110453779
 20
962.6532937537467
 30
0.0
 11
8332.641246036702
 21
1501.855429336672
 31
0.0
  0
LINE
  5
283C7
330
747D
100
AcDbEntity
  8
細線
 48
50.0
100
AcDbLine
 10
7820.379878816988
 20
962.6532937537467
 30
0.0
 11
8332.641246036706
 21
1474.914660973461
 31
0.0
  0
LINE
  5
283C8
330
747D
100
AcDbEntity
  8
細線
 48
50.0
100
AcDbLine
 10
7847.320647180193
 20
962.6532937537467
 30
0.0
 11
8332.641246036702
 21
1447.973892610254
 31
0.0
  0
LINE
  5
283C9
330
747D
100
AcDbEntity
  8
細線
 48
50.0
100
AcDbLine
 10
7918.641246036703
 20
1303.381576242333
 30
0.0
 11
8077.041246036698
 21
1461.781576242328
 31
0.0
  0
LINE
  5
283CA
330
747D
100
AcDbEntity
  8
細線
 48
50.0
100
AcDbLine
 10
7918.641246036703
 20
1249.500039515918
 30
0.0
 11
8091.79450027454
 21
1422.653293753745
 31
0.0
  0
LINE
  5
283CB
330
747D
100
AcDbEntity
  8
細線
 48
50.0
100
AcDbLine
 10
7918.641246036703
 20
1276.440807879125
 30
0.0
 11
8077.041246036698
 21
1434.840807879113
 31
0.0
  0
LINE
  5
283CC
330
747D
100
AcDbEntity
  8
部品1
100
AcDbLine
 10
8077.041246036698
 20
1422.653293753747
 30
0.0
 11
8077.041246036705
 21
1746.653293753747
 31
0.0
  0
LINE
  5
283CD
330
747D
100
AcDbEntity
  8
部品1
100
AcDbLine
 10
8203.041246036704
 20
1422.653293753747
 30
0.0
 11
8203.041246036704
 21
1746.653293753747
 31
0.0
  0
LINE
  5
283CE
330
747D
100
AcDbEntity
  8
細線
 48
50.0
100
AcDbLine
 10
8203.041246036704
 20
1560.840807879118
 30
0.0
 11
8332.641246036702
 21
1690.440807879115
 31
0.0
  0
LINE
  5
283CF
330
747D
100
AcDbEntity
  8
細線
 48
50.0
100
AcDbLine
 10
8203.041246036704
 20
1533.900039515905
 30
0.0
 11
8332.641246036702
 21
1663.500039515897
 31
0.0
  0
LINE
  5
283D0
330
747D
100
AcDbEntity
  8
部品1
100
AcDbLine
 10
8131.041246036705
 20
1521.653293753747
 30
0.0
 11
8131.0412460367
 21
1795.813293753747
 31
0.0
  0
LINE
  5
283D1
330
747D
100
AcDbEntity
  8
部品1
100
AcDbLine
 10
8149.041246036704
 20
1521.653293753747
 30
0.0
 11
8149.0412460367
 21
1795.813293753747
 31
0.0
  0
TEXT
  5
283D2
330
747D
100
AcDbEntity
  8
部品1
 48
50.0
100
AcDbText
 10
7504.501344203747
 20
1517.892286037002
 30
0.0
 40
80.0
  1
▽G.L
  7
STYLE2
100
AcDbText
  0
LINE
  5
283D3
330
747D
100
AcDbEntity
  8
細線
 48
50.0
100
AcDbLine
 10
7918.641246036703
 20
1465.026186421577
 30
0.0
 11
8077.041246036701
 21
1623.426186421569
 31
0.0
  0
LINE
  5
283D4
330
747D
100
AcDbEntity
  8
細線
 48
50.0
100
AcDbLine
 10
7918.641246036703
 20
1491.966954784784
 30
0.0
 11
8077.041246036703
 21
1650.366954784782
 31
0.0
  0
LINE
  5
283D5
330
747D
100
AcDbEntity
  8
細線
 48
50.0
100
AcDbLine
 10
7918.641246036703
 20
1518.907723147992
 30
0.0
 11
8077.041246036703
 21
1677.307723147989
 31
0.0
  0
LINE
  5
283D6
330
747D
100
AcDbEntity
  8
部品1
 48
50.0
100
AcDbLine
 10
7918.641246036703
 20
1202.653293753747
 30
0.0
 11
7918.641246036703
 21
1746.653293753747
 31
0.0
  0
LINE
  5
283D7
330
747D
100
AcDbEntity
  8
部品1
100
AcDbLine
 10
8332.641246036702
 20
1202.653293753747
 30
0.0
 11
8332.641246036702
 21
1746.653293753747
 31
0.0
  0
LINE
  5
283D8
330
747D
100
AcDbEntity
  8
細線
 48
50.0
100
AcDbLine
 10
8203.041246036704
 20
1587.781576242335
 30
0.0
 11
8332.641246036702
 21
1717.381576242334
 31
0.0
  0
LINE
  5
283D9
330
747D
100
AcDbEntity
  8
細線
 48
50.0
100
AcDbLine
 10
6327.09435536198
 20
1627.400145650463
 30
0.0
 11
6410.601932859511
 21
1710.907723147992
 31
0.0
  0
LINE
  5
283DA
330
747D
100
AcDbEntity
  8
細線
 48
50.0
100
AcDbLine
 10
6338.154640125496
 20
1611.519662050768
 30
0.0
 11
6410.601932859511
 21
1683.966954784784
 31
0.0
  0
LINE
  5
283DB
330
747D
100
AcDbEntity
  8
細線
 48
50.0
100
AcDbLine
 10
6218.60193285951
 20
1734.433870053652
 30
0.0
 11
6230.821356559605
 21
1746.653293753747
 31
0.0
  0
LINE
  5
283DC
330
747D
100
AcDbEntity
  8
細線
 48
50.0
100
AcDbLine
 10
6218.60193285951
 20
1680.552333327237
 30
0.0
 11
6284.70289328602
 21
1746.653293753747
 31
0.0
  0
LINE
  5
283DD
330
747D
100
AcDbEntity
  8
細線
 48
50.0
100
AcDbLine
 10
6218.60193285951
 20
1707.493101690445
 30
0.0
 11
6257.762124922814
 21
1746.653293753747
 31
0.0
  0
LINE
  5
283DE
330
747D
100
AcDbEntity
  8
部品1
 48
50.0
100
AcDbLine
 10
6218.60193285951
 20
1746.653293753747
 30
0.0
 11
6410.601932859511
 21
1746.653293753747
 31
0.0
  0
DIMENSION
  5
283DF
330
747D
100
AcDbEntity
  8
寸法
 48
50.0
100
AcDbDimension
  2
*D57
 10
6218.60193285951
 20
2166.321101670127
 30
0.0
 11
6314.60193285951
 21
2166.321101670127
 31
0.0
 70
   160
  1
120\P200\P280
 71
     5
 42
192.0
  3
INABA_S40G
100
AcDbAlignedDimension
 13
6410.60193285951
 23
1746.653293753747
 33
0.0
 14
6218.60193285951
 24
1746.653293753747
 34
0.0
100
AcDbRotatedDimension
1001
ACAD
1000
DSTYLE
1002
{
1070
   341
1005
0
1002
}
  0
MTEXT
  5
283E0
102
{ACAD_REACTORS
330
28435
102
}
330
747D
100
AcDbEntity
  8
寸法
 62
     7
 48
50.0
100
AcDbMText
 10
6652.340388720761
 20
785.3042080215937
 30
0.0
 40
80.0
 41
0.8
 71
     4
 72
     1
  1
\A1;D10@300
  7
STYLE2
 73
     1
 44
1.0
1001
ACAD
1000
MTEXTBEGIN
1070
    73
1070
     1
1070
    44
1040
1.0
1070
    74
1070
     0
1000
MTEXTEND
  0
LINE
  5
283E1
330
747D
100
AcDbEntity
  8
細線
 48
50.0
100
AcDbLine
 10
6338.601932859516
 20
1396.440807879127
 30
0.0
 11
6410.601932859503
 21
1468.440807879122
 31
0.0
  0
LINE
  5
283E2
330
747D
100
AcDbEntity
  8
細線
 48
50.0
100
AcDbLine
 10
6338.601932859511
 20
1423.381576242333
 30
0.0
 11
6410.601932859511
 21
1495.381576242333
 31
0.0
  0
LINE
  5
283E3
330
747D
100
AcDbEntity
  8
細線
 48
50.0
100
AcDbLine
 10
6338.601932859516
 20
1153.973892610258
 30
0.0
 11
6410.601932859503
 21
1225.973892610258
 31
0.0
  0
LINE
  5
283E4
330
747D
100
AcDbEntity
  8
細線
 48
50.0
100
AcDbLine
 10
6338.601932859516
 20
1207.855429336676
 30
0.0
 11
6410.601932859503
 21
1279.855429336672
 31
0.0
  0
LINE
  5
283E5
330
747D
100
AcDbEntity
  8
細線
 48
50.0
100
AcDbLine
 10
6338.601932859516
 20
1180.914660973468
 30
0.0
 11
6410.601932859503
 21
1252.914660973462
 31
0.0
  0
LINE
  5
283E6
330
747D
100
AcDbEntity
  8
部品1
 48
50.0
100
AcDbLine
 10
6410.601932859511
 20
1202.653293753747
 30
0.0
 11
6538.60193285951
 21
1202.653293753747
 31
0.0
  0
LINE
  5
283E7
330
747D
100
AcDbEntity
  8
細線
 48
50.0
100
AcDbLine
 10
6338.601932859516
 20
1369.500039515918
 30
0.0
 11
6410.601932859503
 21
1441.500039515918
 31
0.0
  0
LINE
  5
283E8
330
747D
100
AcDbEntity
  8
部品1
 48
50.0
100
AcDbLine
 10
6306.601932859511
 20
1548.780508450869
 30
0.0
 11
6306.601932859511
 21
1606.907723147992
 31
0.0
  0
LINE
  5
283E9
330
747D
100
AcDbEntity
  8
細線
 48
50.0
100
AcDbLine
 10
6218.60193285951
 20
1518.907723147992
 30
0.0
 11
6290.601932859511
 21
1590.907723147992
 31
0.0
  0
LINE
  5
283EA
330
747D
100
AcDbEntity
  8
部品1
 48
50.0
100
AcDbLine
 10
6290.601932859511
 20
1548.780508450873
 30
0.0
 11
6290.601932859511
 21
1606.907723147992
 31
0.0
  0
LINE
  5
283EB
330
747D
100
AcDbEntity
  8
細線
 48
50.0
100
AcDbLine
 10
6218.60193285951
 20
1491.966954784784
 30
0.0
 11
6290.601932859511
 21
1563.966954784784
 31
0.0
  0
LINE
  5
283EC
330
747D
100
AcDbEntity
  8
細線
 48
50.0
100
AcDbLine
 10
6218.60193285951
 20
1465.026186421577
 30
0.0
 11
6302.356254888804
 21
1548.780508450869
 31
0.0
  0
LINE
  5
283ED
330
747D
100
AcDbEntity
  8
部品1
 48
50.0
100
AcDbLine
 10
6306.601932859511
 20
1548.780508450869
 30
0.0
 11
6290.601932859511
 21
1548.780508450873
 31
0.0
  0
LINE
  5
283EE
330
747D
100
AcDbEntity
  8
細線
 48
50.0
100
AcDbLine
 10
6090.601932859502
 20
1175.381576242332
 30
0.0
 11
6117.873650370924
 21
1202.653293753747
 31
0.0
  0
LINE
  5
283EF
330
747D
100
AcDbEntity
  8
細線
 48
50.0
100
AcDbLine
 10
6090.601932859502
 20
1148.440807879122
 30
0.0
 11
6144.814418734135
 21
1202.653293753747
 31
0.0
  0
LINE
  5
283F0
330
747D
100
AcDbEntity
  8
部品1
 48
50.0
100
AcDbLine
 10
6090.60193285951
 20
1202.653293753747
 30
0.0
 11
6218.60193285951
 21
1202.653293753747
 31
0.0
  0
LINE
  5
283F1
330
747D
100
AcDbEntity
  8
細線
 48
50.0
100
AcDbLine
 10
6306.601932859511
 20
1579.966954784784
 30
0.0
 11
6322.601932859511
 21
1595.966954784784
 31
0.0
  0
LINE
  5
283F2
330
747D
100
AcDbEntity
  8
細線
 48
50.0
100
AcDbLine
 10
6306.601932859511
 20
1553.026186421577
 30
0.0
 11
6322.601932859511
 21
1569.026186421577
 31
0.0
  0
LINE
  5
283F3
330
747D
100
AcDbEntity
  8
細線
 48
50.0
100
AcDbLine
 10
6218.60193285951
 20
1249.500039515918
 30
0.0
 11
6322.601932859516
 21
1353.500039515918
 31
0.0
  0
LINE
  5
283F4
330
747D
100
AcDbEntity
  8
細線
 48
50.0
100
AcDbLine
 10
6218.60193285951
 20
1303.381576242333
 30
0.0
 11
6322.601932859511
 21
1407.381576242333
 31
0.0
  0
LINE
  5
283F5
330
747D
100
AcDbEntity
  8
細線
 48
50.0
100
AcDbLine
 10
6218.60193285951
 20
1276.440807879125
 30
0.0
 11
6322.601932859516
 21
1380.440807879127
 31
0.0
  0
LINE
  5
283F6
330
747D
100
AcDbEntity
  8
細線
 48
50.0
100
AcDbLine
 10
6481.427578262857
 20
938.6532937537467
 30
0.0
 11
6474.996797644512
 21
962.6532937537467
 31
0.0
  0
LINE
  5
283F7
330
747D
100
AcDbEntity
  8
細線
 48
50.0
100
AcDbLine
 10
6524.452091087903
 20
962.6532937537467
 30
0.0
 11
6538.60193285951
 21
976.8031355253533
 31
0.0
  0
LINE
  5
283F8
330
747D
100
AcDbEntity
  8
細線
 48
50.0
100
AcDbLine
 10
6560.315623210104
 20
938.6532937537467
 30
0.0
 11
6553.884842591756
 21
962.6532937537467
 31
0.0
  0
LINE
  5
283F9
330
747D
100
AcDbEntity
  8
部品1
 48
50.0
100
AcDbLine
 10
6482.601932859511
 20
1074.653293753747
 30
0.0
 11
6482.601932859511
 21
1058.653293753747
 31
0.0
  0
LINE
  5
283FA
330
747D
100
AcDbEntity
  8
細線
 48
50.0
100
AcDbLine
 10
6362.807480908657
 20
962.6532937537467
 30
0.0
 11
6458.808368753794
 21
1058.654181598885
 31
0.0
  0
LINE
  5
283FB
330
747D
100
AcDbEntity
  8
細線
 48
50.0
100
AcDbLine
 10
6335.866712545453
 20
962.6532937537467
 30
0.0
 11
6431.866712545454
 21
1058.653293753747
 31
0.0
  0
LINE
  5
283FC
330
747D
100
AcDbEntity
  8
細線
 48
50.0
100
AcDbLine
 10
6402.539533315612
 20
938.6532937537467
 30
0.0
 11
6396.108752697266
 21
962.6532937537467
 31
0.0
  0
LINE
  5
283FD
330
747D
100
AcDbEntity
  8
細線
 48
50.0
100
AcDbLine
 10
6323.651488368366
 20
938.6532937537467
 30
0.0
 11
6317.220707750019
 21
962.6532937537467
 31
0.0
  0
ARC
  5
283FE
330
747D
100
AcDbEntity
  8
部品1
 48
50.0
100
AcDbCircle
 10
6314.60193285951
 20
1082.653293753747
 30
0.0
 40
24.0
100
AcDbArc
 50
340.5287793655272
 51
0.0
  0
CIRCLE
  5
283FF
330
747D
100
AcDbEntity
  8
部品1
 48
50.0
100
AcDbCircle
 10
6442.60193285951
 20
1082.653293753747
 30
0.0
 40
8.0
  0
LINE
  5
28400
330
747D
100
AcDbEntity
  8
細線
 48
50.0
100
AcDbLine
 10
6474.807480908657
 20
1074.653293753747
 30
0.0
 11
6538.60193285951
 21
1138.447745704598
 31
0.0
  0
LINE
  5
28401
330
747D
100
AcDbEntity
  8
細線
 48
50.0
100
AcDbLine
 10
6611.336952144514
 20
834.653293753745
 30
0.0
 11
6618.601932859511
 21
861.7665708981348
 31
0.0
  0
LINE
  5
28402
330
747D
100
AcDbEntity
  8
細線
 48
50.0
100
AcDbLine
 10
6617.767732762863
 20
858.6532937537468
 30
0.0
 11
6618.601932859511
 21
855.5400166093823
 31
0.0
  0
LINE
  5
28403
330
747D
100
AcDbEntity
  8
細線
 48
50.0
100
AcDbLine
 10
6538.879687815615
 20
858.6532937537468
 30
0.0
 11
6545.310468433964
 21
834.6532937537467
 31
0.0
  0
LINE
  5
28404
330
747D
100
AcDbEntity
  8
細線
 48
50.0
100
AcDbLine
 10
6381.103597921123
 20
858.6532937537468
 30
0.0
 11
6387.534378539469
 21
834.6532937537467
 31
0.0
  0
LINE
  5
28405
330
747D
100
AcDbEntity
  8
細線
 48
50.0
100
AcDbLine
 10
6459.991642868368
 20
858.6532937537468
 30
0.0
 11
6466.422423486716
 21
834.6532937537467
 31
0.0
  0
LINE
  5
28406
330
747D
100
AcDbEntity
  8
細線
 48
50.0
100
AcDbLine
 10
6453.560862250019
 20
834.653293753745
 30
0.0
 11
6487.858358881203
 21
962.6532937537449
 31
0.0
  0
LINE
  5
28407
330
747D
100
AcDbEntity
  8
細線
 48
50.0
100
AcDbLine
 10
6374.672817302769
 20
834.6532937537467
 30
0.0
 11
6408.970313933956
 21
962.6532937537449
 31
0.0
  0
LINE
  5
28408
330
747D
100
AcDbEntity
  8
細線
 48
50.0
100
AcDbLine
 10
6532.448907197263
 20
834.6532937537467
 30
0.0
 11
6566.746403828449
 21
962.6532937537449
 31
0.0
  0
LINE
  5
28409
330
747D
100
AcDbEntity
  8
部品1
 48
50.0
100
AcDbLine
 10
6618.601932859514
 20
962.6532937537467
 30
0.0
 11
6618.601932859514
 21
834.6532937537467
 31
0.0
  0
LINE
  5
2840A
330
747D
100
AcDbEntity
  8
部品1
 48
50.0
100
AcDbLine
 10
6306.601932859511
 20
1140.780508450869
 30
0.0
 11
6306.601932859511
 21
1082.653293753747
 31
0.0
  0
LINE
  5
2840B
330
747D
100
AcDbEntity
  8
細線
 48
50.0
100
AcDbLine
 10
6232.340565639794
 20
1074.653293753747
 30
0.0
 11
6290.601932859511
 21
1132.914660973465
 31
0.0
  0
LINE
  5
2840C
330
747D
100
AcDbEntity
  8
部品1
 48
50.0
100
AcDbLine
 10
6290.601932859511
 20
1140.780508450869
 30
0.0
 11
6290.601932859511
 21
1082.653293753747
 31
0.0
  0
LINE
  5
2840D
330
747D
100
AcDbEntity
  8
細線
 48
50.0
100
AcDbLine
 10
6147.281334002999
 20
962.6532937537467
 30
0.0
 11
6243.281334002999
 21
1058.653293753747
 31
0.0
  0
LINE
  5
2840E
330
747D
100
AcDbEntity
  8
細線
 48
50.0
100
AcDbLine
 10
6244.763443421113
 20
938.6532937537467
 30
0.0
 11
6238.332662802768
 21
962.6532937537467
 31
0.0
  0
LINE
  5
2840F
330
747D
100
AcDbEntity
  8
細線
 48
50.0
100
AcDbLine
 10
6165.875398473861
 20
938.6532937537467
 30
0.0
 11
6159.444617855515
 21
962.6532937537467
 31
0.0
  0
ARC
  5
28410
330
747D
100
AcDbEntity
  8
部品1
 48
50.0
100
AcDbCircle
 10
6314.60193285951
 20
1082.653293753747
 30
0.0
 40
24.0
100
AcDbArc
 50
180.0
 51
199.4712206344728
  0
LINE
  5
28411
330
747D
100
AcDbEntity
  8
細線
 48
50.0
100
AcDbLine
 10
6259.281334002999
 20
1074.653293753747
 30
0.0
 11
6290.601932859511
 21
1105.973892610258
 31
0.0
  0
CIRCLE
  5
28412
330
747D
100
AcDbEntity
  8
部品1
 48
50.0
100
AcDbCircle
 10
6186.60193285951
 20
1082.653293753747
 30
0.0
 40
8.0
  0
LINE
  5
28413
330
747D
100
AcDbEntity
  8
部品1
 48
50.0
100
AcDbLine
 10
6306.601932859511
 20
1140.780508450869
 30
0.0
 11
6290.601932859511
 21
1140.780508450869
 31
0.0
  0
LINE
  5
28414
330
747D
100
AcDbEntity
  8
細線
 48
50.0
100
AcDbLine
 10
6010.60193285951
 20
947.9932147195269
 30
0.0
 11
6014.530089197705
 21
962.6532937537467
 31
0.0
  0
LINE
  5
28415
330
747D
100
AcDbEntity
  8
細線
 48
50.0
100
AcDbLine
 10
6086.987353526611
 20
938.6532937537467
 30
0.0
 11
6080.556572908263
 21
962.6532937537467
 31
0.0
  0
LINE
  5
28416
330
747D
100
AcDbEntity
  8
部品1
 48
50.0
100
AcDbLine
 10
6146.60193285951
 20
1074.653293753747
 30
0.0
 11
6146.60193285951
 21
1058.653293753747
 31
0.0
  0
LINE
  5
28417
330
747D
100
AcDbEntity
  8
細線
 48
50.0
100
AcDbLine
 10
6093.399797276583
 20
962.6532937537467
 30
0.0
 11
6189.399797276583
 21
1058.653293753747
 31
0.0
  0
LINE
  5
28418
330
747D
100
AcDbEntity
  8
細線
 48
50.0
100
AcDbLine
 10
6120.340565639793
 20
962.6532937537467
 30
0.0
 11
6216.340565639793
 21
1058.653293753747
 31
0.0
  0
LINE
  5
28419
330
747D
100
AcDbEntity
  8
細線
 48
50.0
100
AcDbLine
 10
6223.327508026625
 20
858.6532937537468
 30
0.0
 11
6229.758288644971
 21
834.6532937537467
 31
0.0
  0
LINE
  5
2841A
330
747D
100
AcDbEntity
  8
細線
 48
50.0
100
AcDbLine
 10
6302.215552973877
 20
858.6532937537468
 30
0.0
 11
6308.646333592224
 21
834.6532937537467
 31
0.0
  0
LINE
  5
2841B
330
747D
100
AcDbEntity
  8
細線
 48
50.0
100
AcDbLine
 10
6065.551418132121
 20
858.6532937537468
 30
0.0
 11
6071.982198750467
 21
834.6532937537467
 31
0.0
  0
LINE
  5
2841C
330
747D
100
AcDbEntity
  8
細線
 48
50.0
100
AcDbLine
 10
6144.439463079372
 20
858.6532937537468
 30
0.0
 11
6150.87024369772
 21
834.6532937537467
 31
0.0
  0
LINE
  5
2841D
330
747D
100
AcDbEntity
  8
部品1
 48
50.0
100
AcDbLine
 10
6010.601932859512
 20
834.6532937537467
 30
0.0
 11
6010.601932859512
 21
962.6532937537467
 31
0.0
  0
LINE
  5
2841E
330
747D
100
AcDbEntity
  8
細線
 48
50.0
100
AcDbLine
 10
6059.120637513768
 20
834.653293753745
 30
0.0
 11
6093.418134144951
 21
962.6532937537449
 31
0.0
  0
LINE
  5
2841F
330
747D
100
AcDbEntity
  8
細線
 48
50.0
100
AcDbLine
 10
6216.896727408272
 20
834.653293753745
 30
0.0
 11
6251.194224039455
 21
962.6532937537449
 31
0.0
  0
LINE
  5
28420
330
747D
100
AcDbEntity
  8
細線
 48
50.0
100
AcDbLine
 10
6138.008682461026
 20
834.6532937537467
 30
0.0
 11
6172.30617909221
 21
962.6532937537467
 31
0.0
  0
LINE
  5
28421
330
747D
100
AcDbEntity
  8
細線
 48
50.0
100
AcDbLine
 10
6308.925944182243
 20
962.6532937537467
 30
0.0
 11
6404.925944182243
 21
1058.653293753747
 31
0.0
  0
CIRCLE
  5
28422
330
747D
100
AcDbEntity
  8
部品1
 48
50.0
100
AcDbCircle
 10
6314.60193285951
 20
1082.653293753747
 30
0.0
 40
8.0
  0
LINE
  5
28423
330
747D
100
AcDbEntity
  8
部品1
 48
50.0
100
AcDbLine
 10
6618.601932859514
 20
962.6532937537467
 30
0.0
 11
6010.601932859512
 21
962.6532937537467
 31
0.0
  0
LINE
  5
28424
330
747D
100
AcDbEntity
  8
部品1
 48
50.0
100
AcDbLine
 10
6146.60193285951
 20
1074.653293753747
 30
0.0
 11
6482.601932859511
 21
1074.653293753747
 31
0.0
  0
LINE
  5
28425
330
747D
100
AcDbEntity
  8
部品1
 48
50.0
100
AcDbLine
 10
6146.60193285951
 20
1058.653293753747
 30
0.0
 11
6482.601932859511
 21
1058.653293753747
 31
0.0
  0
LINE
  5
28426
330
747D
100
AcDbEntity
  8
部品1
 48
50.0
100
AcDbLine
 10
6618.601932859514
 20
834.6532937537467
 30
0.0
 11
6010.601932859512
 21
834.6532937537467
 31
0.0
  0
LINE
  5
28427
330
747D
100
AcDbEntity
  8
細線
 48
50.0
100
AcDbLine
 10
6295.784772355524
 20
834.6532937537467
 30
0.0
 11
6330.082268986707
 21
962.6532937537467
 31
0.0
  0
LINE
  5
28428
330
747D
100
AcDbEntity
  8
細線
 48
50.0
100
AcDbLine
 10
6306.601932859511
 20
1121.973892610258
 30
0.0
 11
6322.601932859516
 21
1137.973892610258
 31
0.0
  0
LINE
  5
28429
330
747D
100
AcDbEntity
  8
部品1
 48
50.0
100
AcDbLine
 10
6322.601932859516
 20
1082.653293753747
 30
0.0
 11
6322.601932859503
 21
1606.907723147992
 31
0.0
  0
LINE
  5
2842A
330
747D
100
AcDbEntity
  8
部品1
 48
50.0
100
AcDbLine
 10
6338.601932859516
 20
1082.653293753747
 30
0.0
 11
6338.601932859511
 21
1606.907723147992
 31
0.0
  0
LINE
  5
2842B
330
747D
100
AcDbEntity
  8
部品1
 48
50.0
100
AcDbLine
 10
6538.60193285951
 20
1202.653293753747
 30
0.0
 11
6538.60193285951
 21
962.6532937537467
 31
0.0
  0
LINE
  5
2842C
330
747D
100
AcDbEntity
  8
細線
 48
50.0
100
AcDbLine
 10
6420.925944182238
 20
1074.653293753747
 30
0.0
 11
6538.60193285951
 21
1192.329282431013
 31
0.0
  0
LINE
  5
2842D
330
747D
100
AcDbEntity
  8
細線
 48
50.0
100
AcDbLine
 10
6447.866712545454
 20
1074.653293753747
 30
0.0
 11
6538.60193285951
 21
1165.388514067806
 31
0.0
  0
LINE
  5
2842E
330
747D
100
AcDbEntity
  8
部品1
 48
50.0
100
AcDbLine
 10
6090.60193285951
 20
962.6532937537467
 30
0.0
 11
6090.60193285951
 21
1202.653293753747
 31
0.0
  0
LINE
  5
2842F
330
747D
100
AcDbEntity
  8
細線
 48
50.0
100
AcDbLine
 10
6205.399797276583
 20
1074.653293753747
 30
0.0
 11
6322.601932859511
 21
1191.855429336672
 31
0.0
  0
LINE
  5
28430
330
747D
100
AcDbEntity
  8
細線
 48
50.0
100
AcDbLine
 10
6298.467780336914
 20
1140.780508450869
 30
0.0
 11
6322.601932859516
 21
1164.914660973468
 31
0.0
  0
LINE
  5
28431
330
747D
100
AcDbEntity
  8
細線
 48
50.0
100
AcDbLine
 10
6090.601932859502
 20
1121.500039515918
 30
0.0
 11
6171.755187097339
 21
1202.653293753747
 31
0.0
  0
LEADER
  5
28432
330
747D
100
AcDbEntity
  8
寸法
 48
50.0
100
AcDbLeader
  3
INABA_S50G
 71
     0
 73
     0
 74
     0
 75
     1
 40
100.0
 41
222.7272727272727
 76
     3
 10
6314.60193285951
 20
1606.907723147992
 30
0.0
 10
6368.487869886904
 20
1706.143296001166
 30
0.0
 10
6493.487869886904
 20
1706.143296001166
 30
0.0
1001
ACAD
1000
DSTYLE
1002
{
1070
    40
1040
1.0
1070
   272
1070
     1
1070
   279
1070
     1
1070
   341
1005
0
1002
}
  0
LWPOLYLINE
  5
28433
330
747D
100
AcDbEntity
  8
部品1
 48
50.0
100
AcDbPolyline
 90
        2
 70
     0
 43
8.0
 10
6410.60193285951
 20
1506.653293753748
 10
6824.741834692467
 20
1506.653293753748
  0
MTEXT
  5
28434
102
{ACAD_REACTORS
330
28436
102
}
330
747D
100
AcDbEntity
  8
寸法
 62
     7
 48
50.0
100
AcDbMText
 10
6641.929592666194
 20
1047.256224810774
 30
0.0
 40
80.0
 41
0.8
 71
     4
 72
     1
  1
D10
  7
STYLE2
 73
     1
 44
1.0
1001
ACAD
1000
MTEXTBEGIN
1070
    73
1070
     1
1070
    44
1040
1.0
1070
    74
1070
     0
1000
MTEXTEND
  0
LEADER
  5
28435
330
747D
100
AcDbEntity
  8
寸法
 48
50.0
100
AcDbLeader
  3
INABA_S50G
 71
     0
 73
     0
 74
     0
 75
     1
 40
100.0
 41
540.3409090909091
 76
     3
 10
6388.547101872684
 20
1065.912763340221
 30
0.0
 10
6507.34038872076
 20
724.2819453453239
 30
0.0
 10
6632.34038872076
 20
724.2819453453239
 30
0.0
213
0.0
223
-1.022262676269383
233
0.0
1001
ACAD
1000
DSTYLE
1002
{
1070
    40
1040
1.0
1070
   272
1070
     1
1070
   279
1070
     1
1070
   341
1005
0
1002
}
  0
LEADER
  5
28436
330
747D
100
AcDbEntity
  8
寸法
 48
50.0
100
AcDbLeader
  3
INABA_S50G
 71
     0
 73
     0
 74
     0
 75
     1
 40
100.0
 41
225.0
 76
     3
 10
6442.504885211653
 20
1082.653293753747
 30
0.0
 10
6496.929592666194
 20
987.2562248107742
 30
0.0
 10
6621.929592666194
 20
987.2562248107742
 30
0.0
1001
ACAD
1000
DSTYLE
1002
{
1070
    40
1040
1.0
1070
   272
1070
     1
1070
   279
1070
     1
1070
   341
1005
0
1002
}
  0
MTEXT
  5
28437
102
{ACAD_REACTORS
330
28432
102
}
330
747D
100
AcDbEntity
  8
寸法
 62
     7
 48
50.0
100
AcDbMText
 10
6493.487869886904
 20
1769.209193046557
 30
0.0
 40
80.0
 41
0.8
 71
     4
 72
     1
  1
D13
  7
STYLE2
 73
     1
 44
1.0
1001
ACAD
1000
MTEXTBEGIN
1070
    73
1070
     1
1070
    44
1040
1.0
1070
    74
1070
     0
1000
MTEXTEND
  0
LINE
  5
28438
330
747D
100
AcDbEntity
  8
部品1
 48
50.0
100
AcDbLine
 10
6410.601932859511
 20
1746.653293753747
 30
0.0
 11
6410.601932859511
 21
1202.653293753747
 31
0.0
  0
LINE
  5
28439
330
747D
100
AcDbEntity
  8
部品1
 48
50.0
100
AcDbLine
 10
6218.60193285951
 20
1202.653293753747
 30
0.0
 11
6218.60193285951
 21
1746.653293753747
 31
0.0
  0
CIRCLE
  5
2843A
330
747D
100
AcDbEntity
  8
部品1
 48
50.0
100
AcDbCircle
 10
6314.60193285951
 20
1606.907723147992
 30
0.0
 40
8.0
  0
ARC
  5
2843B
330
747D
100
AcDbEntity
  8
部品1
 48
50.0
100
AcDbCircle
 10
6314.60193285951
 20
1606.907723147992
 30
0.0
 40
24.0
100
AcDbArc
 50
0.0
 51
180.0
  0
LINE
  5
2843C
330
747D
100
AcDbEntity
  8
細線
 48
50.0
100
AcDbLine
 10
6338.601932859511
 20
1585.026186421577
 30
0.0
 11
6410.601932859511
 21
1657.026186421577
 31
0.0
  0
LEADER
  5
2843D
330
747D
100
AcDbEntity
  8
寸法
 48
50.0
100
AcDbLeader
  3
INABA_S50G
 73
     0
 75
     1
 40
106.3636363636363
 41
893.1818181818181
 76
     3
 10
8050.041246036704
 20
1816.213293753748
 30
0.0
 10
8001.617173691764
 20
2190.27286847008
 30
0.0
 10
7876.617173691764
 20
2190.27286847008
 30
0.0
340
2843E
1001
ACAD
1000
DSTYLE
1002
{
1070
   341
1005
0
1070
    40
1040
1.0
1070
   343
1005
0
1070
   344
1005
0
1002
}
  0
MTEXT
  5
2843E
102
{ACAD_REACTORS
330
2843D
102
}
330
747D
100
AcDbEntity
  8
寸法
 62
     7
 48
50.0
100
AcDbMText
 10
7851.617173691764
 20
2268.454686651899
 30
0.0
 40
80.0
 41
0.8
 71
     6
 72
     1
  1
\A1;アンカープレート L
  7
STYLE2
 73
     1
 44
1.0
1001
ACAD
1000
MTEXTBEGIN
1070
    73
1070
     1
1070
    44
1040
1.0
1070
    74
1070
     0
1000
MTEXTEND
  0
DIMENSION
  5
2843F
330
747D
100
AcDbEntity
  8
寸法
 48
50.0
100
AcDbDimension
  2
*D58
 10
6538.60193285951
 20
424.2236557485866
 30
0.0
 11
6294.505174181286
 21
424.2236557485866
 31
0.0
 70
   160
  1
300
 71
     5
 42
448.0
  3
INABA_S40G
100
AcDbAlignedDimension
 13
6090.60193285951
 23
834.6532937537467
 33
0.0
 14
6538.60193285951
 24
834.6532937537467
 34
0.0
100
AcDbRotatedDimension
1001
ACAD
1000
DSTYLE
1002
{
1070
   341
1005
0
1002
}
  0
MTEXT
  5
28440
102
{ACAD_REACTORS
330
28448
102
}
330
747D
100
AcDbEntity
  8
寸法
 62
     7
 48
50.0
100
AcDbMText
 10
5919.666906664315
 20
879.1306001353104
 30
0.0
 40
80.0
 41
0.8
 71
     6
 72
     1
  1
D10
  7
STYLE2
 73
     1
 44
1.0
1001
ACAD
1000
MTEXTBEGIN
1070
    73
1070
     1
1070
    44
1040
1.0
1070
    74
1070
     0
1000
MTEXTEND
  0
MTEXT
  5
28441
102
{ACAD_REACTORS
330
28447
102
}
330
747D
100
AcDbEntity
  8
寸法
 62
     7
 48
50.0
100
AcDbMText
 10
5947.789634221749
 20
698.8144475958669
 30
0.0
 40
80.0
 41
0.8
 71
     6
 72
     1
  1
D13
  7
STYLE2
 73
     1
 44
1.0
1001
ACAD
1000
MTEXTBEGIN
1070
    73
1070
     1
1070
    44
1040
1.0
1070
    74
1070
     0
1000
MTEXTEND
  0
DIMENSION
  5
28442
330
747D
100
AcDbEntity
  8
寸法
 48
50.0
100
AcDbDimension
  2
*D59
 10
5483.564694297768
 20
962.6532937537469
 30
0.0
 11
5483.564694297768
 21
1334.193443409747
 31
0.0
 70
   160
  1
540
 71
     5
 42
784.0
  3
INABA_S40G
100
AcDbAlignedDimension
 13
6218.60193285951
 23
1746.653293753747
 33
0.0
 14
6010.601932859513
 24
962.6532937537467
 34
0.0
 50
90.0
100
AcDbRotatedDimension
1001
ACAD
1000
DSTYLE
1002
{
1070
   341
1005
0
1002
}
  0
MTEXT
  5
28443
102
{ACAD_REACTORS
330
28444
102
}
330
747D
100
AcDbEntity
  8
寸法
 62
     7
 48
50.0
100
AcDbMText
 10
5998.503453376237
 20
1959.169513755789
 30
0.0
 40
80.0
 41
0.8
 71
     6
 72
     1
  1
\A1;金コテ押エ
  7
STYLE2
 73
     1
 44
1.0
1001
ACAD
1000
MTEXTBEGIN
1070
    73
1070
     1
1070
    44
1040
1.0
1070
    74
1070
     0
1000
MTEXTEND
  0
LEADER
  5
28444
330
747D
100
AcDbEntity
  8
寸法
 48
50.0
100
AcDbLeader
  3
INABA_S50G
 71
     0
 73
     0
 75
     1
 40
130.1136363636363
 41
651.1363636363636
 76
     3
 10
6298.60193285951
 20
1746.653293753747
 30
0.0
 10
6186.177352695493
 20
1887.124059210335
 30
0.0
 10
6061.177352695493
 20
1887.124059210335
 30
0.0
1001
ACAD
1000
DSTYLE
1002
{
1070
    40
1040
1.0
1070
   272
1070
     1
1070
   279
1070
     1
1070
   341
1005
0
1002
}
  0
LEADER
  5
28445
330
747D
100
AcDbEntity
  8
寸法
 48
50.0
100
AcDbLeader
  3
INABA_S50G
 71
     0
 73
     0
 75
     1
 40
100.0
 41
540.3409090909091
 76
     3
 10
6322.601932859509
 20
1504.78050845087
 30
0.0
 10
6264.619696330811
 20
1283.310179910065
 30
0.0
 10
6139.619696330811
 20
1283.310179910065
 30
0.0
213
-9.732182305893367
223
-4.643716661138569
233
0.0
1001
ACAD
1000
DSTYLE
1002
{
1070
    40
1040
1.0
1070
   272
1070
     1
1070
   279
1070
     1
1070
   341
1005
0
1002
}
  0
MTEXT
  5
28446
102
{ACAD_REACTORS
330
28445
102
}
330
747D
100
AcDbEntity
  8
寸法
 62
     7
 48
50.0
100
AcDbMText
 10
6129.351878636705
 20
1347.953896571203
 30
0.0
 40
80.0
 41
0.8
 71
     6
 72
     1
  1
\A1;D10@300
  7
STYLE2
 73
     1
 44
1.0
1001
ACAD
1000
MTEXTBEGIN
1070
    73
1070
     1
1070
    44
1040
1.0
1070
    74
1070
     0
1000
MTEXTEND
  0
LEADER
  5
28447
330
747D
100
AcDbEntity
  8
寸法
 48
50.0
100
AcDbLeader
  3
INABA_S50G
 71
     0
 73
     0
 75
     1
 40
100.0
 41
222.7272727272727
 76
     3
 10
6314.60193285951
 20
1082.653293753747
 30
0.0
 10
6092.78963422175
 20
638.814447595867
 30
0.0
 10
5967.78963422175
 20
638.814447595867
 30
0.0
1001
ACAD
1000
DSTYLE
1002
{
1070
    40
1040
1.0
1070
   272
1070
     1
1070
   279
1070
     1
1070
   341
1005
0
1002
}
  0
LEADER
  5
28448
330
747D
100
AcDbEntity
  8
寸法
 48
50.0
100
AcDbLeader
  3
INABA_S50G
 71
     0
 73
     0
 75
     1
 40
100.0
 41
225.0
 76
     3
 10
6186.504885211652
 20
1082.653293753747
 30
0.0
 10
6064.666906664315
 20
819.1306001353105
 30
0.0
 10
5939.666906664315
 20
819.1306001353105
 30
0.0
1001
ACAD
1000
DSTYLE
1002
{
1070
    40
1040
1.0
1070
   272
1070
     1
1070
   279
1070
     1
1070
   341
1005
0
1002
}
  0
DIMENSION
  5
28449
330
747D
100
AcDbEntity
  8
寸法
 48
50.0
100
AcDbDimension
  2
*D60
 10
5948.18161912705
 20
962.6532937537467
 30
0.0
 11
5948.18161912705
 21
1082.653293753748
 31
0.0
 70
   160
  1
150
 71
     5
 42
240.0
  3
INABA_S40G
100
AcDbAlignedDimension
 13
6090.60193285951
 23
1202.653293753747
 33
0.0
 14
6010.601932859513
 24
962.6532937537467
 34
0.0
 50
90.0
100
AcDbRotatedDimension
1001
ACAD
1000
DSTYLE
1002
{
1070
   341
1005
0
1002
}
  0
TEXT
  5
2844A
330
747D
100
AcDbEntity
  8
部品1
 48
50.0
100
AcDbText
 10
5804.462031026552
 20
1517.892286037002
 30
0.0
 40
80.0
  1
▽G.L
  7
STYLE2
100
AcDbText
  0
LWPOLYLINE
  5
2844B
330
747D
100
AcDbEntity
  8
部品1
 48
50.0
100
AcDbPolyline
 90
        2
 70
     0
 43
8.0
 10
5804.462031026552
 20
1506.653293753748
 10
6218.60193285951
 20
1506.653293753748
  0
MTEXT
  5
2844C
102
{ACAD_REACTORS
330
2844D
102
}
330
747D
100
AcDbEntity
  8
寸法
 62
     7
 48
50.0
100
AcDbMText
 10
7824.974167483405
 20
2629.138958559412
 30
0.0
 40
80.0
 41
0.8
 71
     6
 72
     1
  1
\A1;φ70スリーブ
  7
STYLE2
 73
     1
 44
1.0
1001
ACAD
1000
MTEXTBEGIN
1070
    73
1070
     1
1070
    44
1040
1.0
1070
    74
1070
     0
1000
MTEXTEND
  0
LEADER
  5
2844D
330
747D
100
AcDbEntity
  8
寸法
 48
50.0
100
AcDbLeader
  3
INABA_S50G
 73
     0
 75
     1
 40
113.1818181818182
 41
608.6363636363635
 76
     3
 10
8108.777996174755
 20
1696.168967112026
 30
0.0
 10
7974.974167483406
 20
2547.548049468503
 30
0.0
 10
7849.974167483406
 20
2547.548049468503
 30
0.0
340
2844C
1001
ACAD
1000
DSTYLE
1002
{
1070
   341
1005
0
1070
    40
1040
1.0
1070
   343
1005
0
1070
   344
1005
0
1002
}
  0
LINE
  5
2844E
330
747D
100
AcDbEntity
  8
部品1
100
AcDbLine
 10
5147.933494050247
 20
3145.991960954332
 30
0.0
 11
5147.933494050249
 21
181.6849913696851
 31
0.0
  0
LEADER
  5
2844F
330
747D
100
AcDbEntity
  8
寸法
 48
50.0
100
AcDbLeader
  3
INABA_S50G
 73
     0
 74
     0
 75
     1
 40
80.0
 41
435.0
 76
     3
 10
8149.041246036704
 20
1795.813293753747
 30
0.0
 10
8191.585708456022
 20
1946.036619906976
 30
0.0
 10
8316.585708456022
 20
1946.036619906976
 30
0.0
340
28450
1001
ACAD
1000
DSTYLE
1002
{
1070
   341
1005
0
1070
    40
1040
1.0
1070
   343
1005
0
1070
   344
1005
0
1002
}
  0
MTEXT
  5
28450
102
{ACAD_REACTORS
330
2844F
102
}
330
747D
100
AcDbEntity
  8
部品1
 62
     7
 48
50.0
100
AcDbMText
 10
8341.585708456022
 20
2011.036619906977
 30
0.0
 40
80.0
 41
0.8
 71
     4
 72
     1
  1
M10X160
  7
STYLE2
 73
     1
 44
1.0
1001
ACAD
1000
MTEXTBEGIN
1070
    73
1070
     1
1070
    44
1040
1.0
1070
    74
1070
     0
1000
MTEXTEND
  0
DIMENSION
  5
28451
330
747D
100
AcDbEntity
  8
寸法
 48
50.0
100
AcDbDimension
  2
*D61
 10
9110.564511924575
 20
1746.653293753746
 30
0.0
 11
9110.564511924575
 21
1280.644390332264
 31
0.0
 70
   160
  1
20～25
 71
     5
 42
52.76000000000113
  3
INABA_S40G
100
AcDbAlignedDimension
 13
8145.441246036703
 23
1799.413293753748
 33
0.0
 14
8332.641246036702
 24
1746.653293753747
 34
0.0
 50
90.0
100
AcDbRotatedDimension
1001
ACAD
1000
DSTYLE
1002
{
1070
   341
1005
0
1002
}
  0
DIMENSION
  5
28452
330
747D
100
AcDbEntity
  8
寸法
 48
50.0
100
AcDbDimension
  2
*D62
 10
8834.509845805547
 20
1422.653293753745
 30
0.0
 11
8734.509845805547
 21
1584.653293753748
 31
0.0
 70
    32
  1
180
 71
     5
 42
324.0000000000009
  3
INABA_S40G
100
AcDbAlignedDimension
 13
8332.641246036702
 23
1746.653293753747
 33
0.0
 14
8332.641246036702
 24
1422.653293753746
 34
0.0
 50
90.0
100
AcDbRotatedDimension
1001
ACAD
1000
DSTYLE
1002
{
1070
   341
1005
0
1002
}
  0
TEXT
  5
28453
330
747D
100
AcDbEntity
  8
部品1
 48
50.0
100
AcDbText
 10
8336.994830321131
 20
2102.531974515947
 30
0.0
 40
80.0
  1
基礎ボルト(市販品)
  7
STYLE2
100
AcDbText
  0
LWPOLYLINE
  5
28454
330
747D
100
AcDbEntity
  8
部品1
 48
50.0
100
AcDbPolyline
 90
        2
 70
     0
 43
8.0
 10
8332.641246036702
 20
1506.653293753748
 10
8626.343709436087
 20
1506.653293753748
  0
MTEXT
  5
28455
102
{ACAD_REACTORS
330
28456
102
}
330
747D
100
AcDbEntity
  8
部品1
 62
     7
 48
50.0
100
AcDbMText
 10
8371.912836405543
 20
2447.148666841008
 30
0.0
 40
80.0
 41
0.8
 71
     4
 72
     1
  1
\A1;ワッシャー(市販品)
  7
STYLE2
 73
     1
 44
1.0
1001
ACAD
1000
MTEXTBEGIN
1070
    73
1070
     1
1070
    44
1040
1.0
1070
    74
1070
     0
1000
MTEXTEND
  0
LEADER
  5
28456
330
747D
100
AcDbEntity
  8
寸法
 48
50.0
100
AcDbLeader
  3
INABA_S50G
 73
     0
 74
     0
 75
     1
 40
102.2727272727273
 41
906.8181818181818
 76
     3
 10
8180.041246036704
 20
2015.776582198027
 30
0.0
 10
8221.912836405543
 20
2371.012303204643
 30
0.0
 10
8346.912836405543
 20
2371.012303204643
 30
0.0
340
28455
1001
ACAD
1000
DSTYLE
1002
{
1070
   341
1005
0
1070
    40
1040
1.0
1070
   343
1005
0
1070
   344
1005
0
1002
}
  0
MTEXT
  5
28457
102
{ACAD_REACTORS
330
28458
102
}
330
747D
100
AcDbEntity
  8
部品1
 62
     7
 48
50.0
100
AcDbMText
 10
8340.39521715006
 20
2632.117749605795
 30
0.0
 40
80.0
 41
0.8
 71
     4
 72
     1
  1
\A1;ナット(市販品)
  7
STYLE2
 73
     1
 44
1.0
1001
ACAD
1000
MTEXTBEGIN
1070
    73
1070
     1
1070
    44
1040
1.0
1070
    74
1070
     0
1000
MTEXTEND
  0
LEADER
  5
28458
330
747D
100
AcDbEntity
  8
寸法
 48
50.0
100
AcDbLeader
  3
INABA_S50G
 73
     0
 74
     0
 75
     1
 40
102.2727272727273
 41
680.0000000000001
 76
     3
 10
8156.041246036705
 20
2145.52857486289
 30
0.0
 10
8190.39521715006
 20
2555.981385969431
 30
0.0
 10
8315.39521715006
 20
2555.981385969431
 30
0.0
340
28457
1001
ACAD
1000
DSTYLE
1002
{
1070
   341
1005
0
1070
    40
1040
1.0
1070
   343
1005
0
1070
   344
1005
0
1002
}
  0
LINE
  5
28459
330
747D
100
AcDbEntity
  8
部品1
100
AcDbLine
 10
5147.93349405025
 20
181.6849913696851
 30
0.0
 11
11218.91867943649
 21
181.6849913696851
 31
0.0
  0
LINE
  5
2845A
330
747D
100
AcDbEntity
  8
部品1
100
AcDbLine
 10
11218.91867943649
 20
2905.991960954331
 30
0.0
 11
5147.933494050249
 21
2905.991960954331
 31
0.0
  0
LINE
  5
2845B
330
747D
100
AcDbEntity
  8
部品1
100
AcDbLine
 10
11218.9186794365
 20
3145.991960954332
 30
0.0
 11
5147.933494050245
 21
3145.991960954332
 31
0.0
  0
ENDSEC
  0
SECTION
  2
OBJECTS
  0
DICTIONARY
  5
7471
330
0
100
AcDbDictionary
281
     1
  3
ACAD_COLOR
350
173D2
  3
ACAD_GROUP
350
7472
  3
ACAD_LAYOUT
350
173D3
  3
ACAD_MATERIAL
350
173D1
  3
ACAD_MLINESTYLE
350
7473
  3
ACAD_PLOTSETTINGS
350
173D4
  3
ACAD_PLOTSTYLENAME
350
173CF
  3
ACDBHEADERROUNDTRIPXREC
350
284E9
  3
AcDbVariableDictionary
350
28062
  3
CONTENTDICTIONARY
350
E71C
  3
DRAWINGVARIABLESDICT
350
F3B9
  0
DICTIONARY
  5
1758F
330
7467
100
AcDbDictionary
280
     1
281
     1
  3
ACAD_LAYERSTATES
360
17590
  0
DICTIONARY
  5
173D2
102
{ACAD_REACTORS
330
7471
102
}
330
7471
100
AcDbDictionary
281
     1
  0
DICTIONARY
  5
7472
102
{ACAD_REACTORS
330
7471
102
}
330
7471
100
AcDbDictionary
281
     1
  3
*A1
350
1D2A9
  0
DICTIONARY
  5
173D3
102
{ACAD_REACTORS
330
7471
102
}
330
7471
100
AcDbDictionary
281
     1
  3
Model
350
173D5
  3
レイアウト1
350
173D6
  0
DICTIONARY
  5
173D1
102
{ACAD_REACTORS
330
7471
102
}
330
7471
100
AcDbDictionary
281
     1
  0
DICTIONARY
  5
7473
102
{ACAD_REACTORS
330
7471
102
}
330
7471
100
AcDbDictionary
281
     1
  3
STANDARD
350
7480
  0
DICTIONARY
  5
173D4
102
{ACAD_REACTORS
330
7471
102
}
330
7471
100
AcDbDictionary
281
     1
  0
ACDBDICTIONARYWDFLT
  5
173CF
102
{ACAD_REACTORS
330
7471
102
}
330
7471
100
AcDbDictionary
281
     1
  3
Normal
350
173D0
100
AcDbDictionaryWithDefault
340
173D0
  0
DICTIONARY
  5
284E9
102
{ACAD_REACTORS
330
7471
102
}
330
7471
100
AcDbDictionary
281
     1
  3
COLORDICT
350
284EB
  3
MATERIALDICT
350
284EA
  0
DICTIONARY
  5
28062
102
{ACAD_REACTORS
330
7471
102
}
330
7471
100
AcDbDictionary
281
     1
  3
DIMASSOC
350
28063
  3
PROJECTNAME
350
28064
  0
DICTIONARY
  5
E71C
102
{ACAD_REACTORS
330
7471
102
}
330
7471
100
AcDbDictionary
281
     1
  0
DICTIONARY
  5
F3B9
102
{ACAD_REACTORS
330
7471
102
}
330
7471
100
AcDbDictionary
281
     1
1001
DRAWINGVARIABLESXDATA
1000
POLARMODE
1000
1
  0
DICTIONARY
  5
17590
102
{ACAD_REACTORS
330
1758F
102
}
330
1758F
100
AcDbDictionary
281
     1
  0
GROUP
  5
1D2A9
102
{ACAD_REACTORS
330
7472
102
}
330
7472
100
AcDbGroup
300

 70
     1
 71
     1
  0
LAYOUT
  5
173D5
102
{ACAD_XDICTIONARY
360
284EC
102
}
102
{ACAD_REACTORS
330
173D3
102
}
330
173D3
100
AcDbPlotSettings
  1

  2
Microsoft Office Document Image Writer
  4

  6

 40
0.0
 41
0.0
 42
0.0
 43
0.0
 44
0.0
 45
0.0
 46
0.0
 47
0.0
 48
0.0
 49
0.0
140
0.0
141
0.0
142
1.0
143
1.0
 70
  1712
 72
     0
 73
     0
 74
     0
  7

 75
     0
147
1.0
148
0.0
149
0.0
100
AcDbLayout
  1
Model
 70
     1
 71
     0
 10
0.0
 20
0.0
 11
12.0
 21
9.0
 12
0.0
 22
0.0
 32
0.0
 14
0.0
 24
0.0
 34
0.0
 15
0.0
 25
0.0
 35
0.0
146
0.0
 13
0.0
 23
0.0
 33
0.0
 16
1.0
 26
0.0
 36
0.0
 17
0.0
 27
1.0
 37
0.0
 76
     0
330
747D
  0
LAYOUT
  5
173D6
102
{ACAD_XDICTIONARY
360
284EE
102
}
102
{ACAD_REACTORS
330
173D3
102
}
330
173D3
100
AcDbPlotSettings
  1

  2
Microsoft Office Document Image Writer
  4

  6

 40
0.0
 41
0.0
 42
0.0
 43
0.0
 44
0.0
 45
0.0
 46
0.0
 47
0.0
 48
0.0
 49
0.0
140
0.0
141
0.0
142
1.0
143
1.0
 70
   688
 72
     0
 73
     0
 74
     5
  7

 75
    16
147
1.0
148
0.0
149
0.0
100
AcDbLayout
  1
レイアウト1
 70
     0
 71
     1
 10
0.0
 20
0.0
 11
420.0
 21
297.0
 12
0.0
 22
0.0
 32
0.0
 14
1.000000000000000E+20
 24
1.000000000000000E+20
 34
1.000000000000000E+20
 15
-1.000000000000000E+20
 25
-1.000000000000000E+20
 35
-1.000000000000000E+20
146
0.0
 13
0.0
 23
0.0
 33
0.0
 16
1.0
 26
0.0
 36
0.0
 17
0.0
 27
1.0
 37
0.0
 76
     0
330
747A
  0
MLINESTYLE
  5
7480
102
{ACAD_REACTORS
330
7473
102
}
330
7473
100
AcDbMlineStyle
  2
STANDARD
 70
     0
  3

 62
     0
 51
90.0
 52
90.0
 71
     2
 49
0.5
 62
   256
  6
BYLAYER
 49
-0.5
 62
   256
  6
BYLAYER
  0
ACDBPLACEHOLDER
  5
173D0
102
{ACAD_REACTORS
330
173CF
102
}
330
173CF
  0
XRECORD
  5
284EB
102
{ACAD_REACTORS
330
284E9
102
}
330
284E9
100
AcDbXrecord
280
     1
340
173D2
  0
XRECORD
  5
284EA
102
{ACAD_REACTORS
330
284E9
102
}
330
284E9
100
AcDbXrecord
280
     1
340
173D1
  0
DICTIONARYVAR
  5
28063
102
{ACAD_REACTORS
330
28062
102
}
330
28062
100
DictionaryVariables
280
     0
  1
1
  0
DICTIONARYVAR
  5
28064
102
{ACAD_REACTORS
330
28062
102
}
330
28062
100
DictionaryVariables
280
     0
  1

  0
DICTIONARY
  5
284EC
330
173D5
100
AcDbDictionary
280
     1
281
     1
  3
ACAD_XREC_ROUNDTRIP
360
284ED
  0
DICTIONARY
  5
284EE
330
173D6
100
AcDbDictionary
280
     1
281
     1
  3
ACAD_XREC_ROUNDTRIP
360
284EF
  0
XRECORD
  5
284ED
102
{ACAD_REACTORS
330
284EC
102
}
330
284EC
100
AcDbXrecord
280
     1
102
SHADEPLOT
 70
     0
102
SHADEPLOTRESLEVEL
 70
     2
102
SHADEPLOTCUSTOMDPI
 70
   300
  0
XRECORD
  5
284EF
102
{ACAD_REACTORS
330
284EE
102
}
330
284EE
100
AcDbXrecord
280
     1
102
SHADEPLOT
 70
     0
102
SHADEPLOTRESLEVEL
 70
     2
102
SHADEPLOTCUSTOMDPI
 70
   300
  0
ENDSEC
  0
EOF
