  0
SECTION
  2
HEADER
  9
$ACADVER
  1
AC1015
  9
$ACADMAINTVER
 70
    20
  9
$DWGCODEPAGE
  3
ANSI_932
  9
$INSBASE
 10
0.0
 20
0.0
 30
0.0
  9
$EXTMIN
 10
139.9999999999995
 20
-0.0000000000000909
 30
0.0
  9
$EXTMAX
 10
16307.2
 20
11409.6
 30
0.0
  9
$LIMMIN
 10
0.0
 20
0.0
  9
$LIMMAX
 10
16800.0
 20
11880.0
  9
$ORTHOMODE
 70
     0
  9
$REGENMODE
 70
     1
  9
$FILLMODE
 70
     1
  9
$QTEXTMODE
 70
     0
  9
$MIRRTEXT
 70
     1
  9
$LTSCALE
 40
20.0
  9
$ATTMODE
 70
     1
  9
$TEXTSIZE
 40
4.0
  9
$TRACEWID
 40
1.0
  9
$TEXTSTYLE
  7
STYLE1
  9
$CLAYER
  8
寸法
  9
$CELTYPE
  6
BYLAYER
  9
$CECOLOR
 62
   256
  9
$CELTSCALE
 40
50.0
  9
$DISPSILH
 70
     0
  9
$DIMSCALE
 40
40.0
  9
$DIMASZ
 40
2.5
  9
$DIMEXO
 40
0.5
  9
$DIMDLI
 40
7.0
  9
$DIMRND
 40
0.0
  9
$DIMDLE
 40
0.0
  9
$DIMEXE
 40
1.5
  9
$DIMTP
 40
0.0
  9
$DIMTM
 40
0.0
  9
$DIMTXT
 40
3.0
  9
$DIMCEN
 40
0.0
  9
$DIMTSZ
 40
0.0
  9
$DIMTOL
 70
     0
  9
$DIMLIM
 70
     0
  9
$DIMTIH
 70
     0
  9
$DIMTOH
 70
     0
  9
$DIMSE1
 70
     0
  9
$DIMSE2
 70
     0
  9
$DIMTAD
 70
     3
  9
$DIMZIN
 70
     8
  9
$DIMBLK
  1

  9
$DIMASO
 70
     1
  9
$DIMSHO
 70
     1
  9
$DIMPOST
  1

  9
$DIMAPOST
  1

  9
$DIMALT
 70
     0
  9
$DIMALTD
 70
     2
  9
$DIMALTF
 40
0.0394
  9
$DIMLFAC
 40
1.0
  9
$DIMTOFL
 70
     1
  9
$DIMTVP
 40
0.0
  9
$DIMTIX
 70
     1
  9
$DIMSOXD
 70
     0
  9
$DIMSAH
 70
     1
  9
$DIMBLK1
  1
DOTSMALL
  9
$DIMBLK2
  1
DOTSMALL
  9
$DIMSTYLE
  2
INABA_S40G
  9
$DIMCLRD
 70
     0
  9
$DIMCLRE
 70
     0
  9
$DIMCLRT
 70
     7
  9
$DIMTFAC
 40
1.0
  9
$DIMGAP
 40
1.0
  9
$DIMJUST
 70
     0
  9
$DIMSD1
 70
     0
  9
$DIMSD2
 70
     0
  9
$DIMTOLJ
 70
     1
  9
$DIMTZIN
 70
     0
  9
$DIMALTZ
 70
     0
  9
$DIMALTTZ
 70
     0
  9
$DIMUPT
 70
     0
  9
$DIMDEC
 70
     1
  9
$DIMTDEC
 70
     4
  9
$DIMALTU
 70
     2
  9
$DIMALTTD
 70
     2
  9
$DIMTXSTY
  7
STYLE1
  9
$DIMAUNIT
 70
     0
  9
$DIMADEC
 70
     0
  9
$DIMALTRND
 40
0.0
  9
$DIMAZIN
 70
     0
  9
$DIMDSEP
 70
    46
  9
$DIMATFIT
 70
     3
  9
$DIMFRAC
 70
     0
  9
$DIMLDRBLK
  1

  9
$DIMLUNIT
 70
     2
  9
$DIMLWD
 70
    -2
  9
$DIMLWE
 70
    -2
  9
$DIMTMOVE
 70
     0
  9
$LUNITS
 70
     2
  9
$LUPREC
 70
     1
  9
$SKETCHINC
 40
1.0
  9
$FILLETRAD
 40
3.0
  9
$AUNITS
 70
     0
  9
$AUPREC
 70
     0
  9
$MENU
  1
acad
  9
$ELEVATION
 40
0.0
  9
$PELEVATION
 40
0.0
  9
$THICKNESS
 40
0.0
  9
$LIMCHECK
 70
     0
  9
$CHAMFERA
 40
0.0
  9
$CHAMFERB
 40
0.0
  9
$CHAMFERC
 40
0.0
  9
$CHAMFERD
 40
0.0
  9
$SKPOLY
 70
     0
  9
$TDCREATE
 40
2451368.612993866
  9
$TDUCREATE
 40
2451368.237993866
  9
$TDUPDATE
 40
2455827.641154653
  9
$TDUUPDATE
 40
2455827.266154653
  9
$TDINDWG
 40
0.8757711690
  9
$TDUSRTIMER
 40
0.8757711690
  9
$USRTIMER
 70
     1
  9
$ANGBASE
 50
0.0
  9
$ANGDIR
 70
     0
  9
$PDMODE
 70
     3
  9
$PDSIZE
 40
2.0
  9
$PLINEWID
 40
0.0
  9
$SPLFRAME
 70
     0
  9
$SPLINETYPE
 70
     6
  9
$SPLINESEGS
 70
     8
  9
$HANDSEED
  5
27605
  9
$SURFTAB1
 70
     6
  9
$SURFTAB2
 70
     6
  9
$SURFTYPE
 70
     6
  9
$SURFU
 70
     6
  9
$SURFV
 70
     6
  9
$UCSBASE
  2

  9
$UCSNAME
  2

  9
$UCSORG
 10
0.0
 20
0.0
 30
0.0
  9
$UCSXDIR
 10
1.0
 20
0.0
 30
0.0
  9
$UCSYDIR
 10
0.0
 20
1.0
 30
0.0
  9
$UCSORTHOREF
  2

  9
$UCSORTHOVIEW
 70
     0
  9
$UCSORGTOP
 10
0.0
 20
0.0
 30
0.0
  9
$UCSORGBOTTOM
 10
0.0
 20
0.0
 30
0.0
  9
$UCSORGLEFT
 10
0.0
 20
0.0
 30
0.0
  9
$UCSORGRIGHT
 10
0.0
 20
0.0
 30
0.0
  9
$UCSORGFRONT
 10
0.0
 20
0.0
 30
0.0
  9
$UCSORGBACK
 10
0.0
 20
0.0
 30
0.0
  9
$PUCSBASE
  2

  9
$PUCSNAME
  2

  9
$PUCSORG
 10
0.0
 20
0.0
 30
0.0
  9
$PUCSXDIR
 10
1.0
 20
0.0
 30
0.0
  9
$PUCSYDIR
 10
0.0
 20
1.0
 30
0.0
  9
$PUCSORTHOREF
  2

  9
$PUCSORTHOVIEW
 70
     0
  9
$PUCSORGTOP
 10
0.0
 20
0.0
 30
0.0
  9
$PUCSORGBOTTOM
 10
0.0
 20
0.0
 30
0.0
  9
$PUCSORGLEFT
 10
0.0
 20
0.0
 30
0.0
  9
$PUCSORGRIGHT
 10
0.0
 20
0.0
 30
0.0
  9
$PUCSORGFRONT
 10
0.0
 20
0.0
 30
0.0
  9
$PUCSORGBACK
 10
0.0
 20
0.0
 30
0.0
  9
$USERI1
 70
     0
  9
$USERI2
 70
     0
  9
$USERI3
 70
     0
  9
$USERI4
 70
     0
  9
$USERI5
 70
     0
  9
$USERR1
 40
0.0
  9
$USERR2
 40
0.0
  9
$USERR3
 40
0.0
  9
$USERR4
 40
0.0
  9
$USERR5
 40
0.0
  9
$WORLDVIEW
 70
     1
  9
$SHADEDGE
 70
     3
  9
$SHADEDIF
 70
    70
  9
$TILEMODE
 70
     1
  9
$MAXACTVP
 70
    16
  9
$PINSBASE
 10
0.0
 20
0.0
 30
0.0
  9
$PLIMCHECK
 70
     0
  9
$PEXTMIN
 10
1.000000000000000E+20
 20
1.000000000000000E+20
 30
1.000000000000000E+20
  9
$PEXTMAX
 10
-1.000000000000000E+20
 20
-1.000000000000000E+20
 30
-1.000000000000000E+20
  9
$PLIMMIN
 10
0.0
 20
0.0
  9
$PLIMMAX
 10
420.0
 20
297.0
  9
$UNITMODE
 70
     0
  9
$VISRETAIN
 70
     0
  9
$PLINEGEN
 70
     0
  9
$PSLTSCALE
 70
     0
  9
$TREEDEPTH
 70
  3020
  9
$CMLSTYLE
  2
STANDARD
  9
$CMLJUST
 70
     0
  9
$CMLSCALE
 40
1.0
  9
$PROXYGRAPHICS
 70
     1
  9
$MEASUREMENT
 70
     1
  9
$CELWEIGHT
370
    -1
  9
$ENDCAPS
280
     0
  9
$JOINSTYLE
280
     0
  9
$LWDISPLAY
290
     0
  9
$INSUNITS
 70
     0
  9
$HYPERLINKBASE
  1

  9
$STYLESHEET
  1
ACA3.ctb
  9
$XEDIT
290
     1
  9
$CEPSNTYPE
380
     0
  9
$PSTYLEMODE
290
     1
  9
$FINGERPRINTGUID
  2
{5EAC461A-2277-4BF8-9AB0-99C43BB394F0}
  9
$VERSIONGUID
  2
{52C1DC6E-5FCD-4AF3-B762-7AE2BC0D9167}
  9
$EXTNAMES
290
     1
  9
$PSVPSCALE
 40
0.0
  9
$OLESTARTUP
290
     0
  0
ENDSEC
  0
SECTION
  2
CLASSES
  0
CLASS
  1
ACDBDICTIONARYWDFLT
  2
AcDbDictionaryWithDefault
  3
ObjectDBX Classes
 90
        0
280
     0
281
     0
  0
CLASS
  1
DICTIONARYVAR
  2
AcDbDictionaryVar
  3
ObjectDBX Classes
 90
        0
280
     0
281
     0
  0
CLASS
  1
ACDBPLACEHOLDER
  2
AcDbPlaceHolder
  3
ObjectDBX Classes
 90
        0
280
     0
281
     0
  0
CLASS
  1
LAYOUT
  2
AcDbLayout
  3
ObjectDBX Classes
 90
        0
280
     0
281
     0
  0
ENDSEC
  0
SECTION
  2
TABLES
  0
TABLE
  2
VPORT
  5
746D
330
0
100
AcDbSymbolTable
 70
     2
  0
VPORT
  5
275FD
330
746D
100
AcDbSymbolTableRecord
100
AcDbViewportTableRecord
  2
*Active
 70
     0
 10
0.0
 20
0.0
 11
1.0
 21
1.0
 12
8400.0
 22
6549.864803020255
 13
0.0
 23
0.0
 14
10.0
 24
10.0
 15
10.0
 25
10.0
 16
0.0
 26
0.0
 36
1.0
 17
0.0
 27
0.0
 37
0.0
 40
13195.73479055294
 41
1.522222222222221
 42
50.0
 43
0.0
 44
0.0
 50
0.0
 51
0.0
 71
     0
 72
     0
 73
     1
 74
     0
 75
     0
 76
     0
 77
     0
 78
     0
281
     0
 65
     1
110
0.0
120
0.0
130
0.0
111
1.0
121
0.0
131
0.0
112
0.0
122
1.0
132
0.0
 79
     0
146
0.0
  0
ENDTAB
  0
TABLE
  2
LTYPE
  5
746A
330
0
100
AcDbSymbolTable
 70
     5
  0
LTYPE
  5
7477
330
746A
100
AcDbSymbolTableRecord
100
AcDbLinetypeTableRecord
  2
BYBLOCK
 70
     0
  3

 72
    65
 73
     0
 40
0.0
  0
LTYPE
  5
7478
330
746A
100
AcDbSymbolTableRecord
100
AcDbLinetypeTableRecord
  2
BYLAYER
 70
     0
  3

 72
    65
 73
     0
 40
0.0
  0
LTYPE
  5
7479
330
746A
100
AcDbSymbolTableRecord
100
AcDbLinetypeTableRecord
  2
CONTINUOUS
 70
     0
  3
Solid line
 72
    65
 73
     0
 40
0.0
  0
LTYPE
  5
7816
330
746A
100
AcDbSymbolTableRecord
100
AcDbLinetypeTableRecord
  2
CENTER
 70
     0
  3
____ _ ____ _ ____ _ ____ _ ____ _ ____ _ ____ 
 72
    65
 73
     4
 40
2.0
 49
1.25
 74
     0
 49
-0.25
 74
     0
 49
0.25
 74
     0
 49
-0.25
 74
     0
  0
LTYPE
  5
781A
330
746A
100
AcDbSymbolTableRecord
100
AcDbLinetypeTableRecord
  2
HIDDEN
 70
     0
  3
__ __ __ __ __ __ __ __ __ __ __ __ __ __ __ __
 72
    65
 73
     2
 40
0.375
 49
0.25
 74
     0
 49
-0.125
 74
     0
  0
LTYPE
  5
781B
330
746A
100
AcDbSymbolTableRecord
100
AcDbLinetypeTableRecord
  2
PHANTOM
 70
     0
  3
______  __  __  ______  __  __  ______  __  __ 
 72
    65
 73
     6
 40
2.5
 49
1.25
 74
     0
 49
-0.25
 74
     0
 49
0.25
 74
     0
 49
-0.25
 74
     0
 49
0.25
 74
     0
 49
-0.25
 74
     0
  0
LTYPE
  5
12CC3
330
746A
100
AcDbSymbolTableRecord
100
AcDbLinetypeTableRecord
  2
HIDDENX2
 70
     0
  3
Hidden (2x) ____ ____ ____ ____ ____ ____ ____
 72
    65
 73
     2
 40
19.05
 49
12.7
 74
     0
 49
-6.349999999999999
 74
     0
  0
ENDTAB
  0
TABLE
  2
LAYER
  5
7467
102
{ACAD_XDICTIONARY
360
1758F
102
}
330
0
100
AcDbSymbolTable
 70
    12
  0
LAYER
  5
7474
330
7467
100
AcDbSymbolTableRecord
100
AcDbLayerTableRecord
  2
0
 70
     0
 62
     7
  6
CONTINUOUS
370
    -3
390
173D0
  0
LAYER
  5
DEB2
330
7467
100
AcDbSymbolTableRecord
100
AcDbLayerTableRecord
  2
センター
 70
     0
 62
     3
  6
CENTER
370
    -3
390
173D0
  0
LAYER
  5
DEB3
330
7467
100
AcDbSymbolTableRecord
100
AcDbLayerTableRecord
  2
寸法
 70
     0
 62
     4
  6
CONTINUOUS
370
    -3
390
173D0
  0
LAYER
  5
DEB4
330
7467
100
AcDbSymbolTableRecord
100
AcDbLayerTableRecord
  2
部品1
 70
     0
 62
     7
  6
CONTINUOUS
370
    -3
390
173D0
  0
LAYER
  5
DEB5
330
7467
100
AcDbSymbolTableRecord
100
AcDbLayerTableRecord
  2
補助
 70
     0
 62
    -1
  6
CONTINUOUS
370
    -3
390
173D0
  0
LAYER
  5
DEB6
330
7467
100
AcDbSymbolTableRecord
100
AcDbLayerTableRecord
  2
文字
 70
     0
 62
     7
  6
CONTINUOUS
370
    -3
390
173D0
  0
LAYER
  5
F255
330
7467
100
AcDbSymbolTableRecord
100
AcDbLayerTableRecord
  2
DEFPOINTS
 70
     0
 62
     7
  6
CONTINUOUS
290
     0
370
    -3
390
173D0
  0
LAYER
  5
10B54
330
7467
100
AcDbSymbolTableRecord
100
AcDbLayerTableRecord
  2
仕様書枠
 70
     0
 62
   230
  6
CONTINUOUS
370
    -3
390
173D0
  0
LAYER
  5
11729
330
7467
100
AcDbSymbolTableRecord
100
AcDbLayerTableRecord
  2
Ｇ．Ｌ
 70
     0
 62
    30
  6
CONTINUOUS
370
    -3
390
173D0
  0
LAYER
  5
1173F
330
7467
100
AcDbSymbolTableRecord
100
AcDbLayerTableRecord
  2
細線
 70
     0
 62
     5
  6
CONTINUOUS
370
    -3
390
173D0
  0
LAYER
  5
12CC4
330
7467
100
AcDbSymbolTableRecord
100
AcDbLayerTableRecord
  2
想像線
 70
     0
 62
     6
  6
PHANTOM
370
    -3
390
173D0
  0
LAYER
  5
142E2
330
7467
100
AcDbSymbolTableRecord
100
AcDbLayerTableRecord
  2
破線
 70
     0
 62
     2
  6
HIDDEN
370
    -3
390
173D0
  0
ENDTAB
  0
TABLE
  2
STYLE
  5
7468
330
0
100
AcDbSymbolTable
 70
     7
  0
STYLE
  5
7475
330
7468
100
AcDbSymbolTableRecord
100
AcDbTextStyleTableRecord
  2
STANDARD
 70
     0
 40
0.0
 41
1.0
 50
0.0
 71
     0
 42
4.0
  3
txt
  4
C:\AutoCAD LT\bigfont.shx
  0
STYLE
  5
763C
330
7468
100
AcDbSymbolTableRecord
100
AcDbTextStyleTableRecord
  2
MSMINCHO
 70
     0
 40
0.0
 41
1.0
 50
0.0
 71
     0
 42
1.199999999999999
  3
C:\AutoCAD LT\msminch2.TTF
  4

  0
STYLE
  5
F706
330
7468
100
AcDbSymbolTableRecord
100
AcDbTextStyleTableRecord
  2
STYLE1
 70
     0
 40
0.0
 41
1.0
 50
0.0
 71
     0
 42
4.0
  3
isocp.shx
  4
bigfont.shx
  0
STYLE
  5
103BF
330
7468
100
AcDbSymbolTableRecord
100
AcDbTextStyleTableRecord
  2
STYLE2
 70
     0
 40
0.0
 41
1.0
 50
0.0
 71
     0
 42
100.0
  3
MS PGothic.ttf
  4

1001
ACAD
1000
MS PGothic
1071
    32818
  0
STYLE
  5
10BAA
330
7468
100
AcDbSymbolTableRecord
100
AcDbTextStyleTableRecord
  2
STYLE3
 70
     0
 40
0.0
 41
1.0
 50
0.0
 71
     0
 42
100.0
  3

  4

1001
ACAD
1000
DFPGothic-EB
1071
    32818
  0
STYLE
  5
11A15
330
7468
100
AcDbSymbolTableRecord
100
AcDbTextStyleTableRecord
  2
MSGOTHIC
 70
     0
 40
0.0
 41
1.0
 50
0.0
 71
     0
 42
3.5
  3
msgothi2.ttf
  4

  0
STYLE
  5
13E96
330
7468
100
AcDbSymbolTableRecord
100
AcDbTextStyleTableRecord
  2
MSPゴシック
 70
     0
 40
0.0
 41
1.0
 50
0.0
 71
     0
 42
4.0
  3
MS PGothic.ttf
  4

1001
ACAD
1000
MS PGothic
1071
    32818
  0
ENDTAB
  0
TABLE
  2
VIEW
  5
746B
330
0
100
AcDbSymbolTable
 70
     0
  0
ENDTAB
  0
TABLE
  2
UCS
  5
746C
330
0
100
AcDbSymbolTable
 70
     0
  0
ENDTAB
  0
TABLE
  2
APPID
  5
746E
330
0
100
AcDbSymbolTable
 70
     6
  0
APPID
  5
7476
330
746E
100
AcDbSymbolTableRecord
100
AcDbRegAppTableRecord
  2
ACAD
 70
     0
  0
APPID
  5
DEA9
330
746E
100
AcDbSymbolTableRecord
100
AcDbRegAppTableRecord
  2
CONTENTBLOCKICON
 70
     0
  0
APPID
  5
DEAA
330
746E
100
AcDbSymbolTableRecord
100
AcDbRegAppTableRecord
  2
CONTENTBLOCKDESCRIPTION
 70
     0
  0
APPID
  5
E71D
330
746E
100
AcDbSymbolTableRecord
100
AcDbRegAppTableRecord
  2
CONTENTTABDATA
 70
     0
  0
APPID
  5
E71E
330
746E
100
AcDbSymbolTableRecord
100
AcDbRegAppTableRecord
  2
CONTENTCURRENTTAB
 70
     0
  0
APPID
  5
F3BA
330
746E
100
AcDbSymbolTableRecord
100
AcDbRegAppTableRecord
  2
DRAWINGVARIABLESXDATA
 70
     0
  0
ENDTAB
  0
TABLE
  2
DIMSTYLE
  5
746F
330
0
100
AcDbSymbolTable
 70
     6
100
AcDbDimStyleTable
 71
     1
340
F71F
  0
DIMSTYLE
105
7484
330
746F
100
AcDbSymbolTableRecord
100
AcDbDimStyleTableRecord
  2
JIS
 70
     0
 41
2.5
 42
1.0
 43
7.0
 44
1.0
 73
     0
 74
     0
 77
     1
 78
     8
140
2.5
141
0.0
143
0.0394
147
0.0
172
     1
174
     1
175
     1
340
7475
  0
DIMSTYLE
105
F236
330
746F
100
AcDbSymbolTableRecord
100
AcDbDimStyleTableRecord
  2
INABA_S40
 70
     0
 40
40.0
 41
2.5
 42
0.5
 43
7.0
 44
1.5
 73
     0
 74
     0
 77
     3
 78
     8
140
3.0
141
0.0
143
0.0394
147
1.0
172
     1
173
     1
174
     1
175
     1
178
     7
289
     0
340
7475
341
DEAC
343
DEAC
344
DEAC
  0
DIMSTYLE
105
F71F
102
{ACAD_REACTORS
330
273E8
330
27448
330
2744B
330
27452
330
2745A
330
2745B
330
26A83
330
26A7C
330
26A3C
330
26A3B
330
26A3A
330
269F6
330
269F3
330
269F2
330
269BD
330
269A8
330
269A7
330
269A5
330
269A4
330
269A0
330
2699F
330
2699E
330
2699D
330
26992
330
2698D
330
2698C
330
24043
330
23FDA
330
23FD9
330
2275B
330
22741
330
20DFB
330
20DE1
330
1D333
330
1D2D6
330
1AC2C
330
1AC27
102
}
330
746F
100
AcDbSymbolTableRecord
100
AcDbDimStyleTableRecord
  2
INABA_S40G
 70
     0
 40
40.0
 41
2.5
 42
0.5
 43
7.0
 44
1.5
 73
     0
 74
     0
 77
     3
 78
     8
140
3.0
141
0.0
143
0.0394
147
1.0
172
     1
173
     1
174
     1
178
     7
271
     1
340
F706
341
F770
343
F770
344
F770
  0
DIMSTYLE
105
142E3
330
746F
100
AcDbSymbolTableRecord
100
AcDbDimStyleTableRecord
  2
INABA_S1
 70
     0
 40
0.0
 41
2.5
 42
0.5
 43
7.0
 44
1.5
 73
     0
 74
     0
 77
     3
 78
     8
140
3.0
141
0.0
143
0.0394
146
0.5
147
0.5
172
     1
173
     1
176
   256
177
   256
178
     7
271
     2
272
     2
284
     8
288
     1
340
7475
341
DEAC
343
DEAC
344
DEAC
  0
DIMSTYLE
105
14463
330
746F
100
AcDbSymbolTableRecord
100
AcDbDimStyleTableRecord
  2
INABA_S30G
 70
     0
 40
30.0
 41
2.5
 42
0.5
 43
7.0
 44
1.5
 73
     0
 74
     0
 77
     3
 78
     8
140
3.0
141
0.0
143
0.0394
147
1.0
172
     1
173
     1
174
     1
175
     1
178
     7
271
     1
340
F706
341
F770
343
F770
344
F770
  0
DIMSTYLE
105
1758E
330
746F
100
AcDbSymbolTableRecord
100
AcDbDimStyleTableRecord
  2
INABA_S50G
 70
     0
 41
125.0
 42
25.0
 43
7.0
 44
75.0
 73
     0
 74
     0
 77
     3
 78
     8
140
150.0
141
0.0
143
0.0394
147
25.0
172
     1
173
     1
174
     1
175
     1
178
     7
271
     1
340
F706
341
F770
343
F770
344
F770
  0
ENDTAB
  0
TABLE
  2
BLOCK_RECORD
  5
7466
330
0
100
AcDbSymbolTable
 70
    52
  0
BLOCK_RECORD
  5
747D
330
7466
100
AcDbSymbolTableRecord
100
AcDbBlockTableRecord
  2
*MODEL_SPACE
340
173D5
  0
BLOCK_RECORD
  5
747A
330
7466
100
AcDbSymbolTableRecord
100
AcDbBlockTableRecord
  2
*PAPER_SPACE
340
173D6
  0
BLOCK_RECORD
  5
DEAC
330
7466
100
AcDbSymbolTableRecord
100
AcDbBlockTableRecord
  2
_OPEN
340
0
  0
BLOCK_RECORD
  5
F770
330
7466
100
AcDbSymbolTableRecord
100
AcDbBlockTableRecord
  2
_DOTSMALL
340
0
102
{BLKREFS
331
18C65
331
18C66
331
18C59
331
18C5A
331
18C4D
331
18C4E
331
18C41
331
18C42
331
18C35
331
18C36
331
18C29
331
18C2A
331
18C1D
331
18C1E
331
18C0F
331
18C10
331
18C03
331
18C04
331
18BF5
331
18BF6
331
18BE7
331
18BE8
331
18BD9
331
18BDA
331
18BCD
331
18BCE
331
274B2
331
274B3
331
274BB
331
274BC
331
274C4
331
274C5
331
274CD
331
274CE
331
274D8
331
274D9
331
274E1
331
274E2
331
274F3
331
274F4
331
274FD
331
274FE
331
27506
331
27507
331
2750F
331
27510
331
27518
331
27519
331
27522
331
27523
331
2752C
331
2752D
331
27535
331
27536
331
2753E
331
2753F
331
27548
331
27549
331
27551
331
27552
331
2755A
331
2755B
331
27563
331
27564
331
2756C
331
2756D
331
27575
331
27576
331
2757E
331
2757F
331
27587
331
27588
331
27590
331
27591
331
27599
331
2759A
331
275A2
331
275A3
331
275AC
331
275AD
331
275B6
331
275B7
331
275C0
331
275C1
331
275CB
331
275CC
331
275D6
331
275D7
331
275E1
331
275E2
331
275EC
331
275ED
102
}
  0
BLOCK_RECORD
  5
164B4
330
7466
100
AcDbSymbolTableRecord
100
AcDbBlockTableRecord
  2
_DOT
340
0
102
{BLKREFS
331
18C73
331
18C74
102
}
  0
BLOCK_RECORD
  5
18BC8
330
7466
100
AcDbSymbolTableRecord
100
AcDbBlockTableRecord
  2
*D3
340
0
  0
BLOCK_RECORD
  5
18BD4
330
7466
100
AcDbSymbolTableRecord
100
AcDbBlockTableRecord
  2
*D4
340
0
  0
BLOCK_RECORD
  5
18BE0
330
7466
100
AcDbSymbolTableRecord
100
AcDbBlockTableRecord
  2
*D5
340
0
  0
BLOCK_RECORD
  5
18BEE
330
7466
100
AcDbSymbolTableRecord
100
AcDbBlockTableRecord
  2
*D6
340
0
  0
BLOCK_RECORD
  5
18BFC
330
7466
100
AcDbSymbolTableRecord
100
AcDbBlockTableRecord
  2
*D7
340
0
  0
BLOCK_RECORD
  5
18C0A
330
7466
100
AcDbSymbolTableRecord
100
AcDbBlockTableRecord
  2
*D8
340
0
  0
BLOCK_RECORD
  5
18C16
330
7466
100
AcDbSymbolTableRecord
100
AcDbBlockTableRecord
  2
*D9
340
0
  0
BLOCK_RECORD
  5
18C24
330
7466
100
AcDbSymbolTableRecord
100
AcDbBlockTableRecord
  2
*D10
340
0
  0
BLOCK_RECORD
  5
18C30
330
7466
100
AcDbSymbolTableRecord
100
AcDbBlockTableRecord
  2
*D11
340
0
  0
BLOCK_RECORD
  5
18C3C
330
7466
100
AcDbSymbolTableRecord
100
AcDbBlockTableRecord
  2
*D12
340
0
  0
BLOCK_RECORD
  5
18C48
330
7466
100
AcDbSymbolTableRecord
100
AcDbBlockTableRecord
  2
*D13
340
0
  0
BLOCK_RECORD
  5
18C54
330
7466
100
AcDbSymbolTableRecord
100
AcDbBlockTableRecord
  2
*D14
340
0
  0
BLOCK_RECORD
  5
18C60
330
7466
100
AcDbSymbolTableRecord
100
AcDbBlockTableRecord
  2
*D15
340
0
  0
BLOCK_RECORD
  5
18C6C
330
7466
100
AcDbSymbolTableRecord
100
AcDbBlockTableRecord
  2
*D16
340
0
  0
BLOCK_RECORD
  5
18C7A
330
7466
100
AcDbSymbolTableRecord
100
AcDbBlockTableRecord
  2
A$C3B1A506B
340
0
  0
BLOCK_RECORD
  5
1C4CA
330
7466
100
AcDbSymbolTableRecord
100
AcDbBlockTableRecord
  2
_NONE
340
0
  0
BLOCK_RECORD
  5
20DE2
330
7466
100
AcDbSymbolTableRecord
100
AcDbBlockTableRecord
  2
*D19
340
0
  0
BLOCK_RECORD
  5
20DFC
330
7466
100
AcDbSymbolTableRecord
100
AcDbBlockTableRecord
  2
*D20
340
0
  0
BLOCK_RECORD
  5
22742
330
7466
100
AcDbSymbolTableRecord
100
AcDbBlockTableRecord
  2
*D21
340
0
  0
BLOCK_RECORD
  5
2275C
330
7466
100
AcDbSymbolTableRecord
100
AcDbBlockTableRecord
  2
*D22
340
0
  0
BLOCK_RECORD
  5
240C4
330
7466
100
AcDbSymbolTableRecord
100
AcDbBlockTableRecord
  2
*D23
340
0
  0
BLOCK_RECORD
  5
240D1
330
7466
100
AcDbSymbolTableRecord
100
AcDbBlockTableRecord
  2
*D24
340
0
  0
BLOCK_RECORD
  5
240DE
330
7466
100
AcDbSymbolTableRecord
100
AcDbBlockTableRecord
  2
*D25
340
0
  0
BLOCK_RECORD
  5
26AAB
330
7466
100
AcDbSymbolTableRecord
100
AcDbBlockTableRecord
  2
*D26
340
0
  0
BLOCK_RECORD
  5
26AB7
330
7466
100
AcDbSymbolTableRecord
100
AcDbBlockTableRecord
  2
*D27
340
0
  0
BLOCK_RECORD
  5
26AC2
330
7466
100
AcDbSymbolTableRecord
100
AcDbBlockTableRecord
  2
*D28
340
0
  0
BLOCK_RECORD
  5
26ACE
330
7466
100
AcDbSymbolTableRecord
100
AcDbBlockTableRecord
  2
*D29
340
0
  0
BLOCK_RECORD
  5
26ADA
330
7466
100
AcDbSymbolTableRecord
100
AcDbBlockTableRecord
  2
*D30
340
0
  0
BLOCK_RECORD
  5
26AE6
330
7466
100
AcDbSymbolTableRecord
100
AcDbBlockTableRecord
  2
*D31
340
0
  0
BLOCK_RECORD
  5
26AF2
330
7466
100
AcDbSymbolTableRecord
100
AcDbBlockTableRecord
  2
*D32
340
0
  0
BLOCK_RECORD
  5
26AFE
330
7466
100
AcDbSymbolTableRecord
100
AcDbBlockTableRecord
  2
*D33
340
0
  0
BLOCK_RECORD
  5
26B24
330
7466
100
AcDbSymbolTableRecord
100
AcDbBlockTableRecord
  2
*D34
340
0
  0
BLOCK_RECORD
  5
26B30
330
7466
100
AcDbSymbolTableRecord
100
AcDbBlockTableRecord
  2
*D35
340
0
  0
BLOCK_RECORD
  5
26B3B
330
7466
100
AcDbSymbolTableRecord
100
AcDbBlockTableRecord
  2
*D36
340
0
  0
BLOCK_RECORD
  5
26B5F
330
7466
100
AcDbSymbolTableRecord
100
AcDbBlockTableRecord
  2
*D37
340
0
  0
BLOCK_RECORD
  5
26B79
330
7466
100
AcDbSymbolTableRecord
100
AcDbBlockTableRecord
  2
*D38
340
0
  0
BLOCK_RECORD
  5
26B85
330
7466
100
AcDbSymbolTableRecord
100
AcDbBlockTableRecord
  2
*D39
340
0
  0
BLOCK_RECORD
  5
26B91
330
7466
100
AcDbSymbolTableRecord
100
AcDbBlockTableRecord
  2
*D40
340
0
  0
BLOCK_RECORD
  5
26BAA
330
7466
100
AcDbSymbolTableRecord
100
AcDbBlockTableRecord
  2
*D41
340
0
  0
BLOCK_RECORD
  5
26BC4
330
7466
100
AcDbSymbolTableRecord
100
AcDbBlockTableRecord
  2
*D42
340
0
  0
BLOCK_RECORD
  5
26BD0
330
7466
100
AcDbSymbolTableRecord
100
AcDbBlockTableRecord
  2
*D43
340
0
  0
BLOCK_RECORD
  5
26BDC
330
7466
100
AcDbSymbolTableRecord
100
AcDbBlockTableRecord
  2
*D44
340
0
  0
BLOCK_RECORD
  5
26BE8
330
7466
100
AcDbSymbolTableRecord
100
AcDbBlockTableRecord
  2
*D45
340
0
  0
BLOCK_RECORD
  5
27465
330
7466
100
AcDbSymbolTableRecord
100
AcDbBlockTableRecord
  2
*D46
340
0
  0
BLOCK_RECORD
  5
27471
330
7466
100
AcDbSymbolTableRecord
100
AcDbBlockTableRecord
  2
*D47
340
0
  0
BLOCK_RECORD
  5
2747D
330
7466
100
AcDbSymbolTableRecord
100
AcDbBlockTableRecord
  2
*D48
340
0
  0
BLOCK_RECORD
  5
27489
330
7466
100
AcDbSymbolTableRecord
100
AcDbBlockTableRecord
  2
*D49
340
0
  0
BLOCK_RECORD
  5
27495
330
7466
100
AcDbSymbolTableRecord
100
AcDbBlockTableRecord
  2
*D50
340
0
  0
BLOCK_RECORD
  5
274A3
330
7466
100
AcDbSymbolTableRecord
100
AcDbBlockTableRecord
  2
*D51
340
0
  0
ENDTAB
  0
ENDSEC
  0
SECTION
  2
BLOCKS
  0
BLOCK
  5
7489
330
747D
100
AcDbEntity
  8
0
100
AcDbBlockBegin
  2
*MODEL_SPACE
 70
     0
 10
0.0
 20
0.0
 30
0.0
  3
*MODEL_SPACE
  1

  0
ENDBLK
  5
748A
330
747D
100
AcDbEntity
  8
0
100
AcDbBlockEnd
  0
BLOCK
  5
7487
330
747A
100
AcDbEntity
 67
     1
  8
0
100
AcDbBlockBegin
  2
*PAPER_SPACE
 70
     0
 10
0.0
 20
0.0
 30
0.0
  3
*PAPER_SPACE
  1

  0
ENDBLK
  5
7488
330
747A
100
AcDbEntity
 67
     1
  8
0
100
AcDbBlockEnd
  0
BLOCK
  5
DEAD
330
DEAC
100
AcDbEntity
  8
0
100
AcDbBlockBegin
  2
_OPEN
 70
     0
 10
0.0
 20
0.0
 30
0.0
  3
_OPEN
  1

  0
LINE
  5
DEAE
330
DEAC
100
AcDbEntity
  8
0
  6
ByBlock
 62
     0
100
AcDbLine
 10
-1.0
 20
0.1666666666666666
 30
0.0
 11
0.0
 21
0.0
 31
0.0
  0
LINE
  5
DEAF
330
DEAC
100
AcDbEntity
  8
0
  6
ByBlock
 62
     0
100
AcDbLine
 10
0.0
 20
0.0
 30
0.0
 11
-1.0
 21
-0.1666666666666666
 31
0.0
  0
LINE
  5
DEB0
330
DEAC
100
AcDbEntity
  8
0
  6
ByBlock
 62
     0
100
AcDbLine
 10
0.0
 20
0.0
 30
0.0
 11
-1.0
 21
0.0
 31
0.0
  0
ENDBLK
  5
DEB1
330
DEAC
100
AcDbEntity
  8
0
100
AcDbBlockEnd
  0
BLOCK
  5
F771
330
F770
100
AcDbEntity
  8
0
 48
50.0
100
AcDbBlockBegin
  2
_DOTSMALL
 70
     0
 10
0.0
 20
0.0
 30
0.0
  3
_DOTSMALL
  1

  0
LWPOLYLINE
  5
F772
330
F770
100
AcDbEntity
  8
0
  6
ByBlock
 62
     0
 48
50.0
100
AcDbPolyline
 90
        2
 70
     1
 43
0.5
 10
-0.0625
 20
0.0
 42
1.0
 10
0.0625
 20
0.0
 42
1.0
  0
ENDBLK
  5
F776
330
F770
100
AcDbEntity
  8
0
 48
50.0
100
AcDbBlockEnd
  0
BLOCK
  5
164BA
330
164B4
100
AcDbEntity
  8
0
 48
50.0
100
AcDbBlockBegin
  2
_DOT
 70
     0
 10
0.0
 20
0.0
 30
0.0
  3
_DOT
  1

  0
LWPOLYLINE
  5
164B5
330
164B4
100
AcDbEntity
  8
0
  6
ByBlock
 62
     0
 48
50.0
100
AcDbPolyline
 90
        2
 70
     1
 43
0.5
 10
-0.25
 20
0.0
 42
1.0
 10
0.25
 20
0.0
 42
1.0
  0
LINE
  5
164B9
330
164B4
100
AcDbEntity
  8
0
  6
ByBlock
 62
     0
 48
50.0
100
AcDbLine
 10
-0.5
 20
0.0
 30
0.0
 11
-1.0
 21
0.0
 31
0.0
  0
ENDBLK
  5
164BB
330
164B4
100
AcDbEntity
  8
0
 48
50.0
100
AcDbBlockEnd
  0
BLOCK
  5
18BC9
330
18BC8
100
AcDbEntity
  8
0
 48
50.0
100
AcDbBlockBegin
  2
*D3
 70
     1
 10
0.0
 20
0.0
 30
0.0
  3
*D3
  1

  0
LINE
  5
18BCA
330
18BC8
100
AcDbEntity
  8
寸法
 62
     0
 48
50.0
370
    -2
100
AcDbLine
 10
7649.896575106999
 20
9636.123139034717
 30
0.0
 11
8702.429862581047
 21
9636.123139034717
 31
0.0
  0
LINE
  5
18BCB
330
18BC8
100
AcDbEntity
  8
寸法
 62
     0
 48
50.0
370
    -2
100
AcDbLine
 10
7649.896575106973
 20
7846.123139034709
 30
0.0
 11
8702.429862581047
 21
7846.123139034709
 31
0.0
  0
LINE
  5
18BCC
330
18BC8
100
AcDbEntity
  8
寸法
 62
     0
 48
50.0
370
    -2
100
AcDbLine
 10
8642.429862581046
 20
9636.123139034717
 30
0.0
 11
8642.429862581046
 21
7846.123139034709
 31
0.0
  0
INSERT
  5
18BCD
330
18BC8
100
AcDbEntity
  8
寸法
 62
     0
 48
50.0
370
    -2
100
AcDbBlockReference
  2
_DOTSMALL
 10
8642.429862581046
 20
9636.123139034717
 30
0.0
 41
100.0
 42
100.0
 43
100.0
 50
90.0
  0
INSERT
  5
18BCE
330
18BC8
100
AcDbEntity
  8
寸法
 62
     0
 48
50.0
370
    -2
100
AcDbBlockReference
  2
_DOTSMALL
 10
8642.429862581046
 20
7846.123139034709
 30
0.0
 41
100.0
 42
100.0
 43
100.0
 50
270.0
  0
MTEXT
  5
18BCF
330
18BC8
100
AcDbEntity
  8
寸法
 62
     7
 48
50.0
100
AcDbMText
 10
8542.429862581045
 20
8741.123139034712
 30
0.0
 40
120.0
 41
0.0
 71
     5
 72
     1
  1
\A1;1790
  7
STYLE1
 11
0.0000000000000001
 21
1.0
 31
0.0
 73
     1
 44
1.0
1001
ACAD
1000
MTEXTBEGIN
1070
    73
1070
     1
1070
    44
1040
1.0
1070
    74
1070
     0
1000
MTEXTEND
  0
POINT
  5
18BD0
330
18BC8
100
AcDbEntity
  8
DEFPOINTS
 62
     0
 48
50.0
100
AcDbPoint
 10
7629.896575106998
 20
9636.123139034717
 30
0.0
  0
POINT
  5
18BD1
330
18BC8
100
AcDbEntity
  8
DEFPOINTS
 62
     0
 48
50.0
100
AcDbPoint
 10
7629.896575106974
 20
7846.123139034709
 30
0.0
  0
POINT
  5
18BD2
330
18BC8
100
AcDbEntity
  8
DEFPOINTS
 62
     0
 48
50.0
100
AcDbPoint
 10
8642.429862581046
 20
7846.123139034709
 30
0.0
  0
ENDBLK
  5
18BD3
330
18BC8
100
AcDbEntity
  8
0
 48
50.0
100
AcDbBlockEnd
  0
BLOCK
  5
18BD5
330
18BD4
100
AcDbEntity
  8
0
 48
50.0
100
AcDbBlockBegin
  2
*D4
 70
     1
 10
0.0
 20
0.0
 30
0.0
  3
*D4
  1

  0
LINE
  5
18BD6
330
18BD4
100
AcDbEntity
  8
寸法
 62
     0
 48
50.0
370
    -2
100
AcDbLine
 10
4214.896575106998
 20
9656.123139034622
 30
0.0
 11
4214.896575106998
 21
10211.93135865972
 31
0.0
  0
LINE
  5
18BD7
330
18BD4
100
AcDbEntity
  8
寸法
 62
     0
 48
50.0
370
    -2
100
AcDbLine
 10
7574.896575106999
 20
9656.123139034718
 30
0.0
 11
7574.896575106999
 21
10211.93135865972
 31
0.0
  0
LINE
  5
18BD8
330
18BD4
100
AcDbEntity
  8
寸法
 62
     0
 48
50.0
370
    -2
100
AcDbLine
 10
4214.896575106998
 20
10151.93135865972
 30
0.0
 11
7574.896575106999
 21
10151.93135865972
 31
0.0
  0
INSERT
  5
18BD9
330
18BD4
100
AcDbEntity
  8
寸法
 62
     0
 48
50.0
370
    -2
100
AcDbBlockReference
  2
_DOTSMALL
 10
4214.896575106998
 20
10151.93135865972
 30
0.0
 41
100.0
 42
100.0
 43
100.0
 50
180.0
  0
INSERT
  5
18BDA
330
18BD4
100
AcDbEntity
  8
寸法
 62
     0
 48
50.0
370
    -2
100
AcDbBlockReference
  2
_DOTSMALL
 10
7574.896575106999
 20
10151.93135865972
 30
0.0
 41
100.0
 42
100.0
 43
100.0
  0
MTEXT
  5
18BDB
330
18BD4
100
AcDbEntity
  8
寸法
 62
     7
 48
50.0
100
AcDbMText
 10
5894.896575106997
 20
10251.94316968334
 30
0.0
 40
120.0
 41
0.0
 71
     5
 72
     1
  1
\A1;8X420=3360
  7
STYLE1
 73
     1
 44
1.0
1001
ACAD
1000
MTEXTBEGIN
1070
    73
1070
     1
1070
    44
1040
1.0
1070
    74
1070
     0
1000
MTEXTEND
  0
POINT
  5
18BDC
330
18BD4
100
AcDbEntity
  8
DEFPOINTS
 62
     0
 48
50.0
100
AcDbPoint
 10
4214.896575106998
 20
9636.123139034623
 30
0.0
  0
POINT
  5
18BDD
330
18BD4
100
AcDbEntity
  8
DEFPOINTS
 62
     0
 48
50.0
100
AcDbPoint
 10
7574.896575106999
 20
9636.123139034717
 30
0.0
  0
POINT
  5
18BDE
330
18BD4
100
AcDbEntity
  8
DEFPOINTS
 62
     0
 48
50.0
100
AcDbPoint
 10
7574.896575106999
 20
10151.93135865972
 30
0.0
  0
ENDBLK
  5
18BDF
330
18BD4
100
AcDbEntity
  8
0
 48
50.0
100
AcDbBlockEnd
  0
BLOCK
  5
18BE1
330
18BE0
100
AcDbEntity
  8
0
 48
50.0
100
AcDbBlockBegin
  2
*D5
 70
     1
 10
0.0
 20
0.0
 30
0.0
  3
*D5
  1

  0
LINE
  5
18BE2
330
18BE0
100
AcDbEntity
  8
寸法
 62
     0
 48
50.0
370
    -2
100
AcDbLine
 10
7574.896575106999
 20
9656.123139034718
 30
0.0
 11
7574.896575106999
 21
10211.9313586597
 31
0.0
  0
LINE
  5
18BE3
330
18BE0
100
AcDbEntity
  8
寸法
 62
     0
 48
50.0
370
    -2
100
AcDbLine
 10
7629.896575106998
 20
9656.123139034718
 30
0.0
 11
7629.896575106998
 21
10211.9313586597
 31
0.0
  0
LINE
  5
18BE4
330
18BE0
100
AcDbEntity
  8
寸法
 62
     0
 48
50.0
370
    -2
100
AcDbLine
 10
7574.896575106999
 20
10151.9313586597
 30
0.0
 11
7474.896575106999
 21
10151.9313586597
 31
0.0
  0
LINE
  5
18BE5
330
18BE0
100
AcDbEntity
  8
寸法
 62
     0
 48
50.0
370
    -2
100
AcDbLine
 10
7629.896575106998
 20
10151.9313586597
 30
0.0
 11
8046.867137855477
 21
10151.9313586597
 31
0.0
  0
LINE
  5
18BE6
330
18BE0
100
AcDbEntity
  8
寸法
 62
     0
 48
50.0
370
    -2
100
AcDbLine
 10
7574.896575106999
 20
10151.9313586597
 30
0.0
 11
7629.896575106998
 21
10151.9313586597
 31
0.0
  0
INSERT
  5
18BE7
330
18BE0
100
AcDbEntity
  8
寸法
 62
     0
 48
50.0
370
    -2
100
AcDbBlockReference
  2
_DOTSMALL
 10
7574.896575106999
 20
10151.9313586597
 30
0.0
 41
100.0
 42
100.0
 43
100.0
  0
INSERT
  5
18BE8
330
18BE0
100
AcDbEntity
  8
寸法
 62
     0
 48
50.0
370
    -2
100
AcDbBlockReference
  2
_DOTSMALL
 10
7629.896575106998
 20
10151.9313586597
 30
0.0
 41
100.0
 42
100.0
 43
100.0
 50
180.0
  0
MTEXT
  5
18BE9
330
18BE0
100
AcDbEntity
  8
寸法
 62
     7
 48
50.0
100
AcDbMText
 10
7938.381856481237
 20
10251.9313586597
 30
0.0
 40
120.0
 41
0.0
 71
     5
 72
     1
  1
\A1;55
  7
STYLE1
 73
     1
 44
1.0
1001
ACAD
1000
MTEXTBEGIN
1070
    73
1070
     1
1070
    44
1040
1.0
1070
    74
1070
     0
1000
MTEXTEND
  0
POINT
  5
18BEA
330
18BE0
100
AcDbEntity
  8
DEFPOINTS
 62
     0
 48
50.0
100
AcDbPoint
 10
7574.896575106999
 20
9636.123139034717
 30
0.0
  0
POINT
  5
18BEB
330
18BE0
100
AcDbEntity
  8
DEFPOINTS
 62
     0
 48
50.0
100
AcDbPoint
 10
7629.896575106998
 20
9636.123139034717
 30
0.0
  0
POINT
  5
18BEC
330
18BE0
100
AcDbEntity
  8
DEFPOINTS
 62
     0
 48
50.0
100
AcDbPoint
 10
7629.896575106998
 20
10151.9313586597
 30
0.0
  0
ENDBLK
  5
18BED
330
18BE0
100
AcDbEntity
  8
0
 48
50.0
100
AcDbBlockEnd
  0
BLOCK
  5
18BEF
330
18BEE
100
AcDbEntity
  8
0
 48
50.0
100
AcDbBlockBegin
  2
*D6
 70
     1
 10
0.0
 20
0.0
 30
0.0
  3
*D6
  1

  0
LINE
  5
18BF0
330
18BEE
100
AcDbEntity
  8
寸法
 62
     0
 48
50.0
370
    -2
100
AcDbLine
 10
7649.896575106999
 20
9636.123139034717
 30
0.0
 11
8337.32292084141
 21
9636.123139034717
 31
0.0
  0
LINE
  5
18BF1
330
18BEE
100
AcDbEntity
  8
寸法
 62
     0
 48
50.0
370
    -2
100
AcDbLine
 10
7649.896575106999
 20
9581.123139034721
 30
0.0
 11
8337.32292084141
 21
9581.123139034721
 31
0.0
  0
LINE
  5
18BF2
330
18BEE
100
AcDbEntity
  8
寸法
 62
     0
 48
50.0
370
    -2
100
AcDbLine
 10
8277.322920841411
 20
9581.123139034721
 30
0.0
 11
8277.322920841411
 21
9481.123139034719
 31
0.0
  0
LINE
  5
18BF3
330
18BEE
100
AcDbEntity
  8
寸法
 62
     0
 48
50.0
370
    -2
100
AcDbLine
 10
8277.322920841411
 20
9636.123139034717
 30
0.0
 11
8277.322920841411
 21
10053.09370178319
 31
0.0
  0
LINE
  5
18BF4
330
18BEE
100
AcDbEntity
  8
寸法
 62
     0
 48
50.0
370
    -2
100
AcDbLine
 10
8277.322920841411
 20
9581.123139034721
 30
0.0
 11
8277.322920841411
 21
9636.123139034717
 31
0.0
  0
INSERT
  5
18BF5
330
18BEE
100
AcDbEntity
  8
寸法
 62
     0
 48
50.0
370
    -2
100
AcDbBlockReference
  2
_DOTSMALL
 10
8277.322920841411
 20
9581.123139034721
 30
0.0
 41
100.0
 42
100.0
 43
100.0
 50
90.0
  0
INSERT
  5
18BF6
330
18BEE
100
AcDbEntity
  8
寸法
 62
     0
 48
50.0
370
    -2
100
AcDbBlockReference
  2
_DOTSMALL
 10
8277.322920841411
 20
9636.123139034717
 30
0.0
 41
100.0
 42
100.0
 43
100.0
 50
270.0
  0
MTEXT
  5
18BF7
330
18BEE
100
AcDbEntity
  8
寸法
 62
     7
 48
50.0
100
AcDbMText
 10
8177.32292084141
 20
9944.608420408957
 30
0.0
 40
120.0
 41
0.0
 71
     5
 72
     1
  1
\A1;55
  7
STYLE1
 11
0.0000000000000001
 21
1.0
 31
0.0
 73
     1
 44
1.0
1001
ACAD
1000
MTEXTBEGIN
1070
    73
1070
     1
1070
    44
1040
1.0
1070
    74
1070
     0
1000
MTEXTEND
  0
POINT
  5
18BF8
330
18BEE
100
AcDbEntity
  8
DEFPOINTS
 62
     0
 48
50.0
100
AcDbPoint
 10
7629.896575106998
 20
9636.123139034717
 30
0.0
  0
POINT
  5
18BF9
330
18BEE
100
AcDbEntity
  8
DEFPOINTS
 62
     0
 48
50.0
100
AcDbPoint
 10
7629.896575106998
 20
9581.123139034721
 30
0.0
  0
POINT
  5
18BFA
330
18BEE
100
AcDbEntity
  8
DEFPOINTS
 62
     0
 48
50.0
100
AcDbPoint
 10
8277.322920841411
 20
9581.123139034721
 30
0.0
  0
ENDBLK
  5
18BFB
330
18BEE
100
AcDbEntity
  8
0
 48
50.0
100
AcDbBlockEnd
  0
BLOCK
  5
18BFD
330
18BFC
100
AcDbEntity
  8
0
 48
50.0
100
AcDbBlockBegin
  2
*D7
 70
     1
 10
0.0
 20
0.0
 30
0.0
  3
*D7
  1

  0
LINE
  5
18BFE
330
18BFC
100
AcDbEntity
  8
寸法
 62
     0
 48
50.0
370
    -2
100
AcDbLine
 10
4159.896575106963
 20
9656.123139034622
 30
0.0
 11
4159.896575106963
 21
10211.9313586596
 31
0.0
  0
LINE
  5
18BFF
330
18BFC
100
AcDbEntity
  8
寸法
 62
     0
 48
50.0
370
    -2
100
AcDbLine
 10
4214.896575106998
 20
9656.123139034622
 30
0.0
 11
4214.896575106998
 21
10211.9313586596
 31
0.0
  0
LINE
  5
18C00
330
18BFC
100
AcDbEntity
  8
寸法
 62
     0
 48
50.0
370
    -2
100
AcDbLine
 10
4214.896575106998
 20
10151.9313586596
 30
0.0
 11
4314.896575106998
 21
10151.9313586596
 31
0.0
  0
LINE
  5
18C01
330
18BFC
100
AcDbEntity
  8
寸法
 62
     0
 48
50.0
370
    -2
100
AcDbLine
 10
4159.896575106963
 20
10151.9313586596
 30
0.0
 11
3742.926012358486
 21
10151.9313586596
 31
0.0
  0
LINE
  5
18C02
330
18BFC
100
AcDbEntity
  8
寸法
 62
     0
 48
50.0
370
    -2
100
AcDbLine
 10
4214.896575106998
 20
10151.9313586596
 30
0.0
 11
4159.896575106963
 21
10151.9313586596
 31
0.0
  0
INSERT
  5
18C03
330
18BFC
100
AcDbEntity
  8
寸法
 62
     0
 48
50.0
370
    -2
100
AcDbBlockReference
  2
_DOTSMALL
 10
4214.896575106998
 20
10151.9313586596
 30
0.0
 41
100.0
 42
100.0
 43
100.0
 50
180.0
  0
INSERT
  5
18C04
330
18BFC
100
AcDbEntity
  8
寸法
 62
     0
 48
50.0
370
    -2
100
AcDbBlockReference
  2
_DOTSMALL
 10
4159.896575106963
 20
10151.9313586596
 30
0.0
 41
100.0
 42
100.0
 43
100.0
  0
MTEXT
  5
18C05
330
18BFC
100
AcDbEntity
  8
寸法
 62
     7
 48
50.0
100
AcDbMText
 10
3851.411293732725
 20
10251.9313586596
 30
0.0
 40
120.0
 41
0.0
 71
     5
 72
     1
  1
\A1;55
  7
STYLE1
 73
     1
 44
1.0
1001
ACAD
1000
MTEXTBEGIN
1070
    73
1070
     1
1070
    44
1040
1.0
1070
    74
1070
     0
1000
MTEXTEND
  0
POINT
  5
18C06
330
18BFC
100
AcDbEntity
  8
DEFPOINTS
 62
     0
 48
50.0
100
AcDbPoint
 10
4159.896575106963
 20
9636.123139034623
 30
0.0
  0
POINT
  5
18C07
330
18BFC
100
AcDbEntity
  8
DEFPOINTS
 62
     0
 48
50.0
100
AcDbPoint
 10
4214.896575106998
 20
9636.123139034623
 30
0.0
  0
POINT
  5
18C08
330
18BFC
100
AcDbEntity
  8
DEFPOINTS
 62
     0
 48
50.0
100
AcDbPoint
 10
4214.896575106998
 20
10151.9313586596
 30
0.0
  0
ENDBLK
  5
18C09
330
18BFC
100
AcDbEntity
  8
0
 48
50.0
100
AcDbBlockEnd
  0
BLOCK
  5
18C0B
330
18C0A
100
AcDbEntity
  8
0
 48
50.0
100
AcDbBlockBegin
  2
*D8
 70
     1
 10
0.0
 20
0.0
 30
0.0
  3
*D8
  1

  0
LINE
  5
18C0C
330
18C0A
100
AcDbEntity
  8
寸法
 62
     0
 48
50.0
370
    -2
100
AcDbLine
 10
4159.896575106992
 20
7826.123139034546
 30
0.0
 11
4159.896575106992
 21
6804.372203245664
 31
0.0
  0
LINE
  5
18C0D
330
18C0A
100
AcDbEntity
  8
寸法
 62
     0
 48
50.0
370
    -2
100
AcDbLine
 10
7629.896575106974
 20
7826.123139034674
 30
0.0
 11
7629.896575106974
 21
6804.372203245664
 31
0.0
  0
LINE
  5
18C0E
330
18C0A
100
AcDbEntity
  8
寸法
 62
     0
 48
50.0
370
    -2
100
AcDbLine
 10
4159.896575106992
 20
6864.372203245665
 30
0.0
 11
7629.896575106974
 21
6864.372203245665
 31
0.0
  0
INSERT
  5
18C0F
330
18C0A
100
AcDbEntity
  8
寸法
 62
     0
 48
50.0
370
    -2
100
AcDbBlockReference
  2
_DOTSMALL
 10
4159.896575106992
 20
6864.372203245665
 30
0.0
 41
100.0
 42
100.0
 43
100.0
 50
180.0
  0
INSERT
  5
18C10
330
18C0A
100
AcDbEntity
  8
寸法
 62
     0
 48
50.0
370
    -2
100
AcDbBlockReference
  2
_DOTSMALL
 10
7629.896575106974
 20
6864.372203245665
 30
0.0
 41
100.0
 42
100.0
 43
100.0
  0
MTEXT
  5
18C11
330
18C0A
100
AcDbEntity
  8
寸法
 62
     7
 48
50.0
100
AcDbMText
 10
5911.12376113973
 20
6964.372203245665
 30
0.0
 40
120.0
 41
0.0
 71
     5
 72
     1
  1
\A1;3470
  7
STYLE1
 73
     1
 44
1.0
1001
ACAD
1000
MTEXTBEGIN
1070
    73
1070
     1
1070
    44
1040
1.0
1070
    74
1070
     0
1000
MTEXTEND
  0
POINT
  5
18C12
330
18C0A
100
AcDbEntity
  8
DEFPOINTS
 62
     0
 48
50.0
100
AcDbPoint
 10
4159.896575106992
 20
7846.123139034546
 30
0.0
  0
POINT
  5
18C13
330
18C0A
100
AcDbEntity
  8
DEFPOINTS
 62
     0
 48
50.0
100
AcDbPoint
 10
7629.896575106974
 20
7846.123139034673
 30
0.0
  0
POINT
  5
18C14
330
18C0A
100
AcDbEntity
  8
DEFPOINTS
 62
     0
 48
50.0
100
AcDbPoint
 10
7629.896575106974
 20
6864.372203245665
 30
0.0
  0
ENDBLK
  5
18C15
330
18C0A
100
AcDbEntity
  8
0
 48
50.0
100
AcDbBlockEnd
  0
BLOCK
  5
18C17
330
18C16
100
AcDbEntity
  8
0
 48
50.0
100
AcDbBlockBegin
  2
*D9
 70
     1
 10
0.0
 20
0.0
 30
0.0
  3
*D9
  1

  0
LINE
  5
18C18
330
18C16
100
AcDbEntity
  8
寸法
 62
     0
 48
50.0
370
    -2
100
AcDbLine
 10
7649.896575106973
 20
7901.123139034706
 30
0.0
 11
8337.322920841385
 21
7901.123139034706
 31
0.0
  0
LINE
  5
18C19
330
18C16
100
AcDbEntity
  8
寸法
 62
     0
 48
50.0
370
    -2
100
AcDbLine
 10
7649.896575106973
 20
7846.123139034709
 30
0.0
 11
8337.322920841385
 21
7846.123139034709
 31
0.0
  0
LINE
  5
18C1A
330
18C16
100
AcDbEntity
  8
寸法
 62
     0
 48
50.0
370
    -2
100
AcDbLine
 10
8277.322920841385
 20
7901.123139034706
 30
0.0
 11
8277.322920841385
 21
8001.123139034707
 31
0.0
  0
LINE
  5
18C1B
330
18C16
100
AcDbEntity
  8
寸法
 62
     0
 48
50.0
370
    -2
100
AcDbLine
 10
8277.322920841385
 20
7846.123139034709
 30
0.0
 11
8277.322920841385
 21
7429.152576286229
 31
0.0
  0
LINE
  5
18C1C
330
18C16
100
AcDbEntity
  8
寸法
 62
     0
 48
50.0
370
    -2
100
AcDbLine
 10
8277.322920841385
 20
7901.123139034706
 30
0.0
 11
8277.322920841385
 21
7846.123139034709
 31
0.0
  0
INSERT
  5
18C1D
330
18C16
100
AcDbEntity
  8
寸法
 62
     0
 48
50.0
370
    -2
100
AcDbBlockReference
  2
_DOTSMALL
 10
8277.322920841385
 20
7901.123139034706
 30
0.0
 41
100.0
 42
100.0
 43
100.0
 50
270.0
  0
INSERT
  5
18C1E
330
18C16
100
AcDbEntity
  8
寸法
 62
     0
 48
50.0
370
    -2
100
AcDbBlockReference
  2
_DOTSMALL
 10
8277.322920841385
 20
7846.123139034709
 30
0.0
 41
100.0
 42
100.0
 43
100.0
 50
90.0
  0
MTEXT
  5
18C1F
330
18C16
100
AcDbEntity
  8
寸法
 62
     7
 48
50.0
100
AcDbMText
 10
8177.322920841383
 20
7537.637857660469
 30
0.0
 40
120.0
 41
0.0
 71
     5
 72
     1
  1
\A1;55
  7
STYLE1
 11
0.0000000000000001
 21
1.0
 31
0.0
 73
     1
 44
1.0
1001
ACAD
1000
MTEXTBEGIN
1070
    73
1070
     1
1070
    44
1040
1.0
1070
    74
1070
     0
1000
MTEXTEND
  0
POINT
  5
18C20
330
18C16
100
AcDbEntity
  8
DEFPOINTS
 62
     0
 48
50.0
100
AcDbPoint
 10
7629.896575106974
 20
7901.123139034706
 30
0.0
  0
POINT
  5
18C21
330
18C16
100
AcDbEntity
  8
DEFPOINTS
 62
     0
 48
50.0
100
AcDbPoint
 10
7629.896575106974
 20
7846.123139034709
 30
0.0
  0
POINT
  5
18C22
330
18C16
100
AcDbEntity
  8
DEFPOINTS
 62
     0
 48
50.0
100
AcDbPoint
 10
8277.322920841385
 20
7846.123139034709
 30
0.0
  0
ENDBLK
  5
18C23
330
18C16
100
AcDbEntity
  8
0
 48
50.0
100
AcDbBlockEnd
  0
BLOCK
  5
18C25
330
18C24
100
AcDbEntity
  8
0
 48
50.0
100
AcDbBlockBegin
  2
*D10
 70
     1
 10
0.0
 20
0.0
 30
0.0
  3
*D10
  1

  0
LINE
  5
18C26
330
18C24
100
AcDbEntity
  8
寸法
 62
     0
 48
50.0
370
    -2
100
AcDbLine
 10
6533.037591258376
 20
9136.123139034728
 30
0.0
 11
6465.083950562664
 21
8882.516699399049
 31
0.0
  0
LINE
  5
18C27
330
18C24
100
AcDbEntity
  8
寸法
 62
     0
 48
50.0
370
    -2
100
AcDbLine
 10
7596.037591258388
 20
9136.123139034721
 30
0.0
 11
7528.083950562677
 21
8882.516699399049
 31
0.0
  0
LINE
  5
18C28
330
18C24
100
AcDbEntity
  8
寸法
 62
     0
 48
50.0
370
    -2
100
AcDbLine
 10
6481.160902108531
 20
8942.51669939905
 30
0.0
 11
7544.160902108544
 21
8942.51669939905
 31
0.0
  0
INSERT
  5
18C29
330
18C24
100
AcDbEntity
  8
寸法
 62
     0
 48
50.0
370
    -2
100
AcDbBlockReference
  2
_DOTSMALL
 10
6481.160902108531
 20
8942.51669939905
 30
0.0
 41
100.0
 42
100.0
 43
100.0
 50
180.0
  0
INSERT
  5
18C2A
330
18C24
100
AcDbEntity
  8
寸法
 62
     0
 48
50.0
370
    -2
100
AcDbBlockReference
  2
_DOTSMALL
 10
7544.160902108544
 20
8942.51669939905
 30
0.0
 41
100.0
 42
100.0
 43
100.0
  0
MTEXT
  5
18C2B
330
18C24
100
AcDbEntity
  8
寸法
 62
     7
 48
50.0
100
AcDbMText
 10
7061.28653022935
 20
9042.516699399049
 30
0.0
 40
120.0
 41
0.0
 71
     5
 72
     1
  1
\A1;1063
  7
STYLE1
 73
     1
 44
1.0
1001
ACAD
1000
MTEXTBEGIN
1070
    73
1070
     1
1070
    44
1040
1.0
1070
    74
1070
     0
1000
MTEXTEND
  0
POINT
  5
18C2C
330
18C24
100
AcDbEntity
  8
DEFPOINTS
 62
     0
 48
50.0
100
AcDbPoint
 10
6538.396575106998
 20
9156.123139034727
 30
0.0
  0
POINT
  5
18C2D
330
18C24
100
AcDbEntity
  8
DEFPOINTS
 62
     0
 48
50.0
100
AcDbPoint
 10
7601.39657510701
 20
9156.12313903472
 30
0.0
  0
POINT
  5
18C2E
330
18C24
100
AcDbEntity
  8
DEFPOINTS
 62
     0
 48
50.0
100
AcDbPoint
 10
7544.160902108544
 20
8942.51669939905
 30
0.0
  0
ENDBLK
  5
18C2F
330
18C24
100
AcDbEntity
  8
0
 48
50.0
100
AcDbBlockEnd
  0
BLOCK
  5
18C31
330
18C30
100
AcDbEntity
  8
0
 48
50.0
100
AcDbBlockBegin
  2
*D11
 70
     1
 10
0.0
 20
0.0
 30
0.0
  3
*D11
  1

  0
LINE
  5
18C32
330
18C30
100
AcDbEntity
  8
寸法
 62
     0
 48
50.0
370
    -2
100
AcDbLine
 10
7621.396575106999
 20
9600.764155186094
 30
0.0
 11
8016.754300969024
 21
9494.828371819961
 31
0.0
  0
LINE
  5
18C33
330
18C30
100
AcDbEntity
  8
寸法
 62
     0
 48
50.0
370
    -2
100
AcDbLine
 10
7621.396575106999
 20
9150.764155186099
 30
0.0
 11
8016.754300969024
 21
9044.828371819964
 31
0.0
  0
LINE
  5
18C34
330
18C30
100
AcDbEntity
  8
寸法
 62
     0
 48
50.0
370
    -2
100
AcDbLine
 10
7956.754300969024
 20
9510.905323365827
 30
0.0
 11
7956.754300969024
 21
9060.90532336583
 31
0.0
  0
INSERT
  5
18C35
330
18C30
100
AcDbEntity
  8
寸法
 62
     0
 48
50.0
370
    -2
100
AcDbBlockReference
  2
_DOTSMALL
 10
7956.754300969024
 20
9510.905323365827
 30
0.0
 41
100.0
 42
100.0
 43
100.0
 50
90.0
  0
INSERT
  5
18C36
330
18C30
100
AcDbEntity
  8
寸法
 62
     0
 48
50.0
370
    -2
100
AcDbBlockReference
  2
_DOTSMALL
 10
7956.754300969024
 20
9060.90532336583
 30
0.0
 41
100.0
 42
100.0
 43
100.0
 50
270.0
  0
MTEXT
  5
18C37
330
18C30
100
AcDbEntity
  8
寸法
 62
     7
 48
50.0
100
AcDbMText
 10
7856.754300969022
 20
9285.905323365829
 30
0.0
 40
120.0
 41
0.0
 71
     5
 72
     1
  1
\A1;450
  7
STYLE1
 11
0.0000000000000001
 21
1.0
 31
0.0
 73
     1
 44
1.0
1001
ACAD
1000
MTEXTBEGIN
1070
    73
1070
     1
1070
    44
1040
1.0
1070
    74
1070
     0
1000
MTEXTEND
  0
POINT
  5
18C38
330
18C30
100
AcDbEntity
  8
DEFPOINTS
 62
     0
 48
50.0
100
AcDbPoint
 10
7601.396575106999
 20
9606.123139034718
 30
0.0
  0
POINT
  5
18C39
330
18C30
100
AcDbEntity
  8
DEFPOINTS
 62
     0
 48
50.0
100
AcDbPoint
 10
7601.396575106999
 20
9156.12313903472
 30
0.0
  0
POINT
  5
18C3A
330
18C30
100
AcDbEntity
  8
DEFPOINTS
 62
     0
 48
50.0
100
AcDbPoint
 10
7956.754300969024
 20
9060.90532336583
 30
0.0
  0
ENDBLK
  5
18C3B
330
18C30
100
AcDbEntity
  8
0
 48
50.0
100
AcDbBlockEnd
  0
BLOCK
  5
18C3D
330
18C3C
100
AcDbEntity
  8
0
 48
50.0
100
AcDbBlockBegin
  2
*D12
 70
     1
 10
0.0
 20
0.0
 30
0.0
  3
*D12
  1

  0
LINE
  5
18C3E
330
18C3C
100
AcDbEntity
  8
寸法
 62
     0
 48
50.0
370
    -2
100
AcDbLine
 10
7649.896575106999
 20
9581.123139034721
 30
0.0
 11
8337.32292084141
 21
9581.123139034721
 31
0.0
  0
LINE
  5
18C3F
330
18C3C
100
AcDbEntity
  8
寸法
 62
     0
 48
50.0
370
    -2
100
AcDbLine
 10
7649.896575106973
 20
7901.123139034706
 30
0.0
 11
8337.32292084141
 21
7901.123139034706
 31
0.0
  0
LINE
  5
18C40
330
18C3C
100
AcDbEntity
  8
寸法
 62
     0
 48
50.0
370
    -2
100
AcDbLine
 10
8277.322920841411
 20
9581.123139034721
 30
0.0
 11
8277.322920841411
 21
7901.123139034706
 31
0.0
  0
INSERT
  5
18C41
330
18C3C
100
AcDbEntity
  8
寸法
 62
     0
 48
50.0
370
    -2
100
AcDbBlockReference
  2
_DOTSMALL
 10
8277.322920841411
 20
9581.123139034721
 30
0.0
 41
100.0
 42
100.0
 43
100.0
 50
90.0
  0
INSERT
  5
18C42
330
18C3C
100
AcDbEntity
  8
寸法
 62
     0
 48
50.0
370
    -2
100
AcDbBlockReference
  2
_DOTSMALL
 10
8277.322920841411
 20
7901.123139034706
 30
0.0
 41
100.0
 42
100.0
 43
100.0
 50
270.0
  0
MTEXT
  5
18C43
330
18C3C
100
AcDbEntity
  8
寸法
 62
     7
 48
50.0
100
AcDbMText
 10
8177.311109817788
 20
8741.123139034712
 30
0.0
 40
120.0
 41
0.0
 71
     5
 72
     1
  1
\A1;4X420=1680
  7
STYLE1
 11
0.0000000000000001
 21
1.0
 31
0.0
 73
     1
 44
1.0
1001
ACAD
1000
MTEXTBEGIN
1070
    73
1070
     1
1070
    44
1040
1.0
1070
    74
1070
     0
1000
MTEXTEND
  0
POINT
  5
18C44
330
18C3C
100
AcDbEntity
  8
DEFPOINTS
 62
     0
 48
50.0
100
AcDbPoint
 10
7629.896575106998
 20
9581.123139034721
 30
0.0
  0
POINT
  5
18C45
330
18C3C
100
AcDbEntity
  8
DEFPOINTS
 62
     0
 48
50.0
100
AcDbPoint
 10
7629.896575106974
 20
7901.123139034706
 30
0.0
  0
POINT
  5
18C46
330
18C3C
100
AcDbEntity
  8
DEFPOINTS
 62
     0
 48
50.0
100
AcDbPoint
 10
8277.322920841411
 20
7901.123139034706
 30
0.0
  0
ENDBLK
  5
18C47
330
18C3C
100
AcDbEntity
  8
0
 48
50.0
100
AcDbBlockEnd
  0
BLOCK
  5
18C49
330
18C48
100
AcDbEntity
  8
0
 48
50.0
100
AcDbBlockBegin
  2
*D13
 70
     1
 10
0.0
 20
0.0
 30
0.0
  3
*D13
  1

  0
LINE
  5
18C4A
330
18C48
100
AcDbEntity
  8
寸法
 62
     0
 48
50.0
370
    -2
100
AcDbLine
 10
4183.037591258377
 20
9136.123139034619
 30
0.0
 11
4115.083950562663
 21
8882.516699398941
 31
0.0
  0
LINE
  5
18C4B
330
18C48
100
AcDbEntity
  8
寸法
 62
     0
 48
50.0
370
    -2
100
AcDbLine
 10
5246.037591258307
 20
9136.123139034671
 30
0.0
 11
5178.08395056258
 21
8882.516699398941
 31
0.0
  0
LINE
  5
18C4C
330
18C48
100
AcDbEntity
  8
寸法
 62
     0
 48
50.0
370
    -2
100
AcDbLine
 10
4131.160902108532
 20
8942.516699398941
 30
0.0
 11
5194.160902108448
 21
8942.516699398941
 31
0.0
  0
INSERT
  5
18C4D
330
18C48
100
AcDbEntity
  8
寸法
 62
     0
 48
50.0
370
    -2
100
AcDbBlockReference
  2
_DOTSMALL
 10
4131.160902108532
 20
8942.516699398941
 30
0.0
 41
100.0
 42
100.0
 43
100.0
 50
180.0
  0
INSERT
  5
18C4E
330
18C48
100
AcDbEntity
  8
寸法
 62
     0
 48
50.0
370
    -2
100
AcDbBlockReference
  2
_DOTSMALL
 10
5194.160902108448
 20
8942.516699398941
 30
0.0
 41
100.0
 42
100.0
 43
100.0
  0
MTEXT
  5
18C4F
330
18C48
100
AcDbEntity
  8
寸法
 62
     7
 48
50.0
100
AcDbMText
 10
4658.986452655306
 20
9042.516699398941
 30
0.0
 40
120.0
 41
0.0
 71
     5
 72
     1
  1
\A1;1063
  7
STYLE1
 73
     1
 44
1.0
1001
ACAD
1000
MTEXTBEGIN
1070
    73
1070
     1
1070
    44
1040
1.0
1070
    74
1070
     0
1000
MTEXTEND
  0
POINT
  5
18C50
330
18C48
100
AcDbEntity
  8
DEFPOINTS
 62
     0
 48
50.0
100
AcDbPoint
 10
4188.396575106999
 20
9156.123139034617
 30
0.0
  0
POINT
  5
18C51
330
18C48
100
AcDbEntity
  8
DEFPOINTS
 62
     0
 48
50.0
100
AcDbPoint
 10
5251.396575106929
 20
9156.123139034672
 30
0.0
  0
POINT
  5
18C52
330
18C48
100
AcDbEntity
  8
DEFPOINTS
 62
     0
 48
50.0
100
AcDbPoint
 10
5194.160902108448
 20
8942.516699398941
 30
0.0
  0
ENDBLK
  5
18C53
330
18C48
100
AcDbEntity
  8
0
 48
50.0
100
AcDbBlockEnd
  0
BLOCK
  5
18C55
330
18C54
100
AcDbEntity
  8
0
 48
50.0
100
AcDbBlockBegin
  2
*D14
 70
     1
 10
0.0
 20
0.0
 30
0.0
  3
*D14
  1

  0
LINE
  5
18C56
330
18C54
100
AcDbEntity
  8
寸法
 62
     0
 48
50.0
370
    -2
100
AcDbLine
 10
5274.037591258307
 20
9136.123139034669
 30
0.0
 11
5206.08395056258
 21
8882.516699398941
 31
0.0
  0
LINE
  5
18C57
330
18C54
100
AcDbEntity
  8
寸法
 62
     0
 48
50.0
370
    -2
100
AcDbLine
 10
6505.037591258377
 20
9136.123139034662
 30
0.0
 11
6437.083950562653
 21
8882.516699398941
 31
0.0
  0
LINE
  5
18C58
330
18C54
100
AcDbEntity
  8
寸法
 62
     0
 48
50.0
370
    -2
100
AcDbLine
 10
5222.160902108448
 20
8942.516699398941
 30
0.0
 11
6453.16090210852
 21
8942.516699398941
 31
0.0
  0
INSERT
  5
18C59
330
18C54
100
AcDbEntity
  8
寸法
 62
     0
 48
50.0
370
    -2
100
AcDbBlockReference
  2
_DOTSMALL
 10
5222.160902108448
 20
8942.516699398941
 30
0.0
 41
100.0
 42
100.0
 43
100.0
 50
180.0
  0
INSERT
  5
18C5A
330
18C54
100
AcDbEntity
  8
寸法
 62
     0
 48
50.0
370
    -2
100
AcDbBlockReference
  2
_DOTSMALL
 10
6453.16090210852
 20
8942.516699398941
 30
0.0
 41
100.0
 42
100.0
 43
100.0
  0
MTEXT
  5
18C5B
330
18C54
100
AcDbEntity
  8
寸法
 62
     7
 48
50.0
100
AcDbMText
 10
6081.244808320626
 20
9042.528510422561
 30
0.0
 40
120.0
 41
0.0
 71
     5
 72
     1
  1
\A1;1231
  7
STYLE1
 73
     1
 44
1.0
1001
ACAD
1000
MTEXTBEGIN
1070
    73
1070
     1
1070
    44
1040
1.0
1070
    74
1070
     0
1000
MTEXTEND
  0
POINT
  5
18C5C
330
18C54
100
AcDbEntity
  8
DEFPOINTS
 62
     0
 48
50.0
100
AcDbPoint
 10
5279.396575106929
 20
9156.123139034669
 30
0.0
  0
POINT
  5
18C5D
330
18C54
100
AcDbEntity
  8
DEFPOINTS
 62
     0
 48
50.0
100
AcDbPoint
 10
6510.396575106999
 20
9156.123139034662
 30
0.0
  0
POINT
  5
18C5E
330
18C54
100
AcDbEntity
  8
DEFPOINTS
 62
     0
 48
50.0
100
AcDbPoint
 10
6453.16090210852
 20
8942.516699398941
 30
0.0
  0
ENDBLK
  5
18C5F
330
18C54
100
AcDbEntity
  8
0
 48
50.0
100
AcDbBlockEnd
  0
BLOCK
  5
18C61
330
18C60
100
AcDbEntity
  8
0
 48
50.0
100
AcDbBlockBegin
  2
*D15
 70
     1
 10
0.0
 20
0.0
 30
0.0
  3
*D15
  1

  0
LINE
  5
18C62
330
18C60
100
AcDbEntity
  8
寸法
 62
     0
 48
50.0
370
    -2
100
AcDbLine
 10
5065.896575106966
 20
7749.123139034579
 30
0.0
 11
5065.896575106966
 21
7099.952920982538
 31
0.0
  0
LINE
  5
18C63
330
18C60
100
AcDbEntity
  8
寸法
 62
     0
 48
50.0
370
    -2
100
AcDbLine
 10
6331.896575106966
 20
7749.123139034579
 30
0.0
 11
6331.896575106966
 21
7099.952920982538
 31
0.0
  0
LINE
  5
18C64
330
18C60
100
AcDbEntity
  8
寸法
 62
     0
 48
50.0
370
    -2
100
AcDbLine
 10
5065.896575106966
 20
7159.952920982537
 30
0.0
 11
6331.896575106966
 21
7159.952920982537
 31
0.0
  0
INSERT
  5
18C65
330
18C60
100
AcDbEntity
  8
寸法
 62
     0
 48
50.0
370
    -2
100
AcDbBlockReference
  2
_DOTSMALL
 10
5065.896575106966
 20
7159.952920982537
 30
0.0
 41
100.0
 42
100.0
 43
100.0
 50
180.0
  0
INSERT
  5
18C66
330
18C60
100
AcDbEntity
  8
寸法
 62
     0
 48
50.0
370
    -2
100
AcDbBlockReference
  2
_DOTSMALL
 10
6331.896575106966
 20
7159.952920982537
 30
0.0
 41
100.0
 42
100.0
 43
100.0
  0
MTEXT
  5
18C67
330
18C60
100
AcDbEntity
  8
寸法
 62
     7
 48
50.0
100
AcDbMText
 10
5711.986008735934
 20
7359.964732006159
 30
0.0
 40
120.0
 41
0.0
 71
     5
 72
     1
  1
\A1;有効開口部間口\P1266
  7
STYLE1
 73
     1
 44
1.0
1001
ACAD
1000
MTEXTBEGIN
1070
    73
1070
     1
1070
    44
1040
1.0
1070
    74
1070
     0
1000
MTEXTEND
  0
POINT
  5
18C68
330
18C60
100
AcDbEntity
  8
DEFPOINTS
 62
     0
 48
50.0
100
AcDbPoint
 10
5065.896575106966
 20
7769.123139034579
 30
0.0
  0
POINT
  5
18C69
330
18C60
100
AcDbEntity
  8
DEFPOINTS
 62
     0
 48
50.0
100
AcDbPoint
 10
6331.896575106966
 20
7769.123139034579
 30
0.0
  0
POINT
  5
18C6A
330
18C60
100
AcDbEntity
  8
DEFPOINTS
 62
     0
 48
50.0
100
AcDbPoint
 10
6331.896575106966
 20
7159.952920982537
 30
0.0
  0
ENDBLK
  5
18C6B
330
18C60
100
AcDbEntity
  8
0
 48
50.0
100
AcDbBlockEnd
  0
BLOCK
  5
18C6D
330
18C6C
100
AcDbEntity
  8
0
 48
50.0
100
AcDbBlockBegin
  2
*D16
 70
     1
 10
0.0
 20
0.0
 30
0.0
  3
*D16
  1

  0
LINE
  5
18C6E
330
18C6C
100
AcDbEntity
  8
寸法
 62
     0
 48
50.0
370
    -2
100
AcDbLine
 10
7200.896575106966
 20
7846.123139034578
 30
0.0
 11
7457.192158500191
 21
7846.123139034578
 31
0.0
  0
LINE
  5
18C6F
330
18C6C
100
AcDbEntity
  8
寸法
 62
     0
 48
50.0
370
    -2
100
AcDbLine
 10
7199.896575106966
 20
7769.123139034579
 30
0.0
 11
7457.192158500191
 21
7769.123139034579
 31
0.0
  0
LINE
  5
18C70
330
18C6C
100
AcDbEntity
  8
寸法
 62
     0
 48
50.0
370
    -2
100
AcDbLine
 10
7417.192158500192
 20
7866.123139034579
 30
0.0
 11
7417.192158500192
 21
7886.123139034578
 31
0.0
  0
LINE
  5
18C71
330
18C6C
100
AcDbEntity
  8
寸法
 62
     0
 48
50.0
370
    -2
100
AcDbLine
 10
7417.192158500192
 20
7749.123139034579
 30
0.0
 11
7417.192158500192
 21
7533.123139034573
 31
0.0
  0
LINE
  5
18C72
330
18C6C
100
AcDbEntity
  8
寸法
 62
     0
 48
50.0
370
    -2
100
AcDbLine
 10
7417.192158500192
 20
7846.123139034578
 30
0.0
 11
7417.192158500192
 21
7769.123139034579
 31
0.0
  0
INSERT
  5
18C73
330
18C6C
100
AcDbEntity
  8
寸法
 62
     0
 48
50.0
370
    -2
100
AcDbBlockReference
  2
_DOT
 10
7417.192158500192
 20
7846.123139034578
 30
0.0
 41
20.0
 42
20.0
 43
20.0
 50
270.0
  0
INSERT
  5
18C74
330
18C6C
100
AcDbEntity
  8
寸法
 62
     0
 48
50.0
370
    -2
100
AcDbBlockReference
  2
_DOT
 10
7417.192158500192
 20
7769.123139034579
 30
0.0
 41
20.0
 42
20.0
 43
20.0
 50
90.0
  0
MTEXT
  5
18C75
330
18C6C
100
AcDbEntity
  8
寸法
 62
     7
 48
50.0
100
AcDbMText
 10
7325.192158500191
 20
7631.123139034575
 30
0.0
 40
120.0
 41
0.0
 71
     5
 72
     1
  1
\A1;77
  7
STYLE1
 11
0.0000000000000001
 21
1.0
 31
0.0
 73
     1
 44
1.0
1001
ACAD
1000
MTEXTBEGIN
1070
    73
1070
     1
1070
    44
1040
1.0
1070
    74
1070
     0
1000
MTEXTEND
  0
POINT
  5
18C76
330
18C6C
100
AcDbEntity
  8
DEFPOINTS
 62
     0
 48
50.0
100
AcDbPoint
 10
7180.896575106967
 20
7846.123139034578
 30
0.0
  0
POINT
  5
18C77
330
18C6C
100
AcDbEntity
  8
DEFPOINTS
 62
     0
 48
50.0
100
AcDbPoint
 10
7179.896575106965
 20
7769.123139034579
 30
0.0
  0
POINT
  5
18C78
330
18C6C
100
AcDbEntity
  8
DEFPOINTS
 62
     0
 48
50.0
100
AcDbPoint
 10
7417.192158500192
 20
7769.123139034579
 30
0.0
  0
ENDBLK
  5
18C79
330
18C6C
100
AcDbEntity
  8
0
 48
50.0
100
AcDbBlockEnd
  0
BLOCK
  5
18DA0
330
18C7A
100
AcDbEntity
  8
0
 48
50.0
100
AcDbBlockBegin
  2
A$C3B1A506B
 70
     0
 10
0.0
 20
0.0
 30
0.0
  3
A$C3B1A506B
  1

  0
MTEXT
  5
18C7B
330
18C7A
100
AcDbEntity
  8
寸法
 62
     7
 48
50.0
100
AcDbMText
 10
3342.250386887194
 20
2778.329429134012
 30
0.0
 40
96.0
 41
0.0
 71
     5
 72
     1
  1
棚 2段
  7
STYLE1
 73
     1
 44
1.0
1001
ACAD
1000
MTEXTBEGIN
1070
    73
1070
     1
1070
    44
1040
1.0
1070
    74
1070
     0
1000
MTEXTEND
  0
MTEXT
  5
18C7C
330
18C7A
100
AcDbEntity
  8
寸法
 62
     7
 48
50.0
100
AcDbMText
 10
2167.25038688716
 20
2778.329429133986
 30
0.0
 40
96.0
 41
0.0
 71
     5
 72
     1
  1
棚 2段
  7
STYLE1
 73
     1
 44
1.0
1001
ACAD
1000
MTEXTBEGIN
1070
    73
1070
     1
1070
    44
1040
1.0
1070
    74
1070
     0
1000
MTEXTEND
  0
MTEXT
  5
18C7D
330
18C7A
100
AcDbEntity
  8
寸法
 62
     7
 48
50.0
100
AcDbMText
 10
992.2503868871608
 20
2778.329429133935
 30
0.0
 40
96.0
 41
0.0
 71
     5
 72
     1
  1
棚 2段
  7
STYLE1
 73
     1
 44
1.0
1001
ACAD
1000
MTEXTBEGIN
1070
    73
1070
     1
1070
    44
1040
1.0
1070
    74
1070
     0
1000
MTEXTEND
  0
LINE
  5
18C7E
330
18C7A
100
AcDbEntity
  8
細線
 48
50.0
100
AcDbLine
 10
2771.970589276527
 20
1368.994384123192
 30
0.0
 11
3398.970589276523
 21
1368.994384123192
 31
0.0
  0
LINE
  5
18C7F
330
18C7A
100
AcDbEntity
  8
細線
 48
50.0
100
AcDbLine
 10
2117.970593930113
 20
1335.285615569113
 30
0.0
 11
3398.970589276523
 21
1335.285615569113
 31
0.0
  0
LINE
  5
18C80
330
18C7A
100
AcDbEntity
  8
細線
 48
50.0
100
AcDbLine
 10
2076.970593930115
 20
1364.690523565368
 30
0.0
 11
1322.970589276523
 21
1364.690523565367
 31
0.0
  0
LINE
  5
18C81
330
18C7A
100
AcDbEntity
  8
細線
100
AcDbLine
 10
3170.720579860066
 20
1388.494284088199
 30
0.0
 11
3173.052119381877
 21
1393.494286728162
 31
0.0
  0
LINE
  5
18C82
330
18C7A
100
AcDbEntity
  8
細線
100
AcDbLine
 10
3240.720589276525
 20
1388.494269174465
 30
0.0
 11
3238.389042800336
 21
1393.494286728144
 31
0.0
  0
LINE
  5
18C83
330
18C7A
100
AcDbEntity
  8
細線
100
AcDbLine
 10
3238.389042800336
 20
1393.494286728144
 30
0.0
 11
3173.052119381862
 21
1393.494286728133
 31
0.0
  0
LINE
  5
18C84
330
18C7A
100
AcDbEntity
  8
細線
100
AcDbLine
 10
3098.389042800336
 20
1393.494286728144
 30
0.0
 11
3033.052119381862
 21
1393.494286728133
 31
0.0
  0
LINE
  5
18C85
330
18C7A
100
AcDbEntity
  8
細線
100
AcDbLine
 10
3100.720589276523
 20
1388.494269174465
 30
0.0
 11
3098.389042800336
 21
1393.494286728144
 31
0.0
  0
LINE
  5
18C86
330
18C7A
100
AcDbEntity
  8
細線
100
AcDbLine
 10
3030.720579860066
 20
1388.494284088199
 30
0.0
 11
3033.052119381875
 21
1393.494286728162
 31
0.0
  0
LINE
  5
18C87
330
18C7A
100
AcDbEntity
  8
細線
100
AcDbLine
 10
2890.720589276525
 20
1388.494269174465
 30
0.0
 11
2893.052128798336
 21
1393.494271814428
 31
0.0
  0
LINE
  5
18C88
330
18C7A
100
AcDbEntity
  8
細線
100
AcDbLine
 10
2960.720598692984
 20
1388.494254260731
 30
0.0
 11
2958.389052216793
 21
1393.49427181441
 31
0.0
  0
LINE
  5
18C89
330
18C7A
100
AcDbEntity
  8
細線
100
AcDbLine
 10
2958.389052216795
 20
1393.49427181441
 30
0.0
 11
2893.052128798321
 21
1393.494271814399
 31
0.0
  0
LINE
  5
18C8A
330
18C7A
100
AcDbEntity
  8
細線
100
AcDbLine
 10
2667.139038146739
 20
1359.494298590735
 30
0.0
 11
2601.802114728263
 21
1359.494298590724
 31
0.0
  0
LINE
  5
18C8B
330
18C7A
100
AcDbEntity
  8
細線
100
AcDbLine
 10
2669.470584622926
 20
1354.494281037055
 30
0.0
 11
2667.139038146737
 21
1359.494298590735
 31
0.0
  0
LINE
  5
18C8C
330
18C7A
100
AcDbEntity
  8
細線
100
AcDbLine
 10
2599.470575206469
 20
1354.49429595079
 30
0.0
 11
2601.802114728278
 21
1359.494298590752
 31
0.0
  0
LINE
  5
18C8D
330
18C7A
100
AcDbEntity
  8
細線
 48
50.0
100
AcDbLine
 10
2440.853968524536
 20
1372.765132327548
 30
0.0
 11
2446.609486107205
 21
1354.494281037057
 31
0.0
  0
LINE
  5
18C8E
330
18C7A
100
AcDbEntity
  8
細線
 48
50.0
100
AcDbLine
 10
2429.925520044106
 20
1372.765132327546
 30
0.0
 11
2440.853968524536
 21
1372.765132327548
 31
0.0
  0
ARC
  5
18C8F
330
18C7A
100
AcDbEntity
  8
細線
 48
50.0
100
AcDbCircle
 10
2424.471163986787
 20
1374.265132327546
 30
0.0
 40
5.0
100
AcDbArc
 50
204.6243183520723
 51
335.3756816479278
  0
ARC
  5
18C90
330
18C7A
100
AcDbEntity
  8
細線
 48
50.0
100
AcDbCircle
 10
2429.925520044106
 20
1371.765132327546
 30
0.0
 40
1.0
100
AcDbArc
 50
90.0
 51
155.3756816479277
  0
ARC
  5
18C91
330
18C7A
100
AcDbEntity
  8
細線
 48
50.0
100
AcDbCircle
 10
2419.016807929469
 20
1371.765132327546
 30
0.0
 40
1.0
100
AcDbArc
 50
24.62431835207225
 51
90.0
  0
LINE
  5
18C92
330
18C7A
100
AcDbEntity
  8
細線
 48
50.0
100
AcDbLine
 10
2408.088359449037
 20
1372.765132327548
 30
0.0
 11
2419.016807929469
 21
1372.765132327546
 31
0.0
  0
LINE
  5
18C93
330
18C7A
100
AcDbEntity
  8
細線
 48
50.0
100
AcDbLine
 10
2402.33284186637
 20
1354.494281037054
 30
0.0
 11
2408.088359449037
 21
1372.765132327548
 31
0.0
  0
LINE
  5
18C94
330
18C7A
100
AcDbEntity
  8
細線
100
AcDbLine
 10
2458.070304175992
 20
1354.494278397076
 30
0.0
 11
2460.401843697802
 21
1359.494281037039
 31
0.0
  0
LINE
  5
18C95
330
18C7A
100
AcDbEntity
  8
細線
100
AcDbLine
 10
2528.070313592451
 20
1354.494263483342
 30
0.0
 11
2525.738767116262
 21
1359.494281037021
 31
0.0
  0
LINE
  5
18C96
330
18C7A
100
AcDbEntity
  8
細線
100
AcDbLine
 10
2525.738767116262
 20
1359.494281037021
 30
0.0
 11
2460.40184369779
 21
1359.49428103701
 31
0.0
  0
LINE
  5
18C97
330
18C7A
100
AcDbEntity
  8
細線
100
AcDbLine
 10
2387.139046332155
 20
1359.494281037021
 30
0.0
 11
2321.80212291368
 21
1359.49428103701
 31
0.0
  0
LINE
  5
18C98
330
18C7A
100
AcDbEntity
  8
細線
100
AcDbLine
 10
2389.470592808342
 20
1354.494263483342
 30
0.0
 11
2387.139046332153
 21
1359.494281037021
 31
0.0
  0
LINE
  5
18C99
330
18C7A
100
AcDbEntity
  8
細線
100
AcDbLine
 10
2319.470584622926
 20
1354.494281037054
 30
0.0
 11
2321.802122913694
 21
1359.494281037039
 31
0.0
  0
LINE
  5
18C9A
330
18C7A
100
AcDbEntity
  8
細線
100
AcDbLine
 10
2179.47061994182
 20
1354.494289224422
 30
0.0
 11
2181.802158232587
 21
1359.494289224407
 31
0.0
  0
LINE
  5
18C9B
330
18C7A
100
AcDbEntity
  8
細線
100
AcDbLine
 10
2249.470628127236
 20
1354.49427167071
 30
0.0
 11
2247.139081651047
 21
1359.494289224389
 31
0.0
  0
LINE
  5
18C9C
330
18C7A
100
AcDbEntity
  8
細線
100
AcDbLine
 10
2247.139081651047
 20
1359.494289224389
 30
0.0
 11
2181.802158232573
 21
1359.494289224378
 31
0.0
  0
LINE
  5
18C9D
330
18C7A
100
AcDbEntity
  8
細線
100
AcDbLine
 10
1807.970585744697
 20
1320.494460905133
 30
0.0
 11
1810.302124035464
 21
1325.494460905118
 31
0.0
  0
LINE
  5
18C9E
330
18C7A
100
AcDbEntity
  8
細線
100
AcDbLine
 10
1877.970593930113
 20
1320.494443351421
 30
0.0
 11
1875.639047453926
 21
1325.4944609051
 31
0.0
  0
LINE
  5
18C9F
330
18C7A
100
AcDbEntity
  8
細線
100
AcDbLine
 10
1875.639047453926
 20
1325.4944609051
 30
0.0
 11
1810.302124035452
 21
1325.494460905089
 31
0.0
  0
LINE
  5
18CA0
330
18C7A
100
AcDbEntity
  8
細線
100
AcDbLine
 10
2015.639047453926
 20
1325.4944609051
 30
0.0
 11
1950.302124035452
 21
1325.494460905089
 31
0.0
  0
LINE
  5
18CA1
330
18C7A
100
AcDbEntity
  8
細線
100
AcDbLine
 10
2017.970593930113
 20
1320.494443351421
 30
0.0
 11
2015.639047453924
 21
1325.4944609051
 31
0.0
  0
LINE
  5
18CA2
330
18C7A
100
AcDbEntity
  8
細線
100
AcDbLine
 10
1947.970585744697
 20
1320.494460905133
 30
0.0
 11
1950.302124035465
 21
1325.494460905118
 31
0.0
  0
LINE
  5
18CA3
330
18C7A
100
AcDbEntity
  8
細線
100
AcDbLine
 10
1735.639047453926
 20
1325.494460905098
 30
0.0
 11
1670.302124035454
 21
1325.494460905087
 31
0.0
  0
LINE
  5
18CA4
330
18C7A
100
AcDbEntity
  8
細線
100
AcDbLine
 10
1737.970593930113
 20
1320.494443351419
 30
0.0
 11
1735.639047453926
 21
1325.494460905098
 31
0.0
  0
LINE
  5
18CA5
330
18C7A
100
AcDbEntity
  8
細線
100
AcDbLine
 10
1667.970585744697
 20
1320.494460905131
 30
0.0
 11
1670.302124035465
 21
1325.494460905116
 31
0.0
  0
LINE
  5
18CA6
330
18C7A
100
AcDbEntity
  8
細線
100
AcDbLine
 10
1527.970593930113
 20
1320.494460905133
 30
0.0
 11
1530.302132220881
 21
1325.494460905118
 31
0.0
  0
LINE
  5
18CA7
330
18C7A
100
AcDbEntity
  8
細線
100
AcDbLine
 10
1597.970602115529
 20
1320.494443351421
 30
0.0
 11
1595.639055639342
 21
1325.4944609051
 31
0.0
  0
LINE
  5
18CA8
330
18C7A
100
AcDbEntity
  8
細線
100
AcDbLine
 10
1595.639055639342
 20
1325.4944609051
 30
0.0
 11
1530.302132220869
 21
1325.494460905089
 31
0.0
  0
ARC
  5
18CA9
330
18C7A
100
AcDbEntity
  8
部品1
 48
0.01
100
AcDbCircle
 10
1483.470482677778
 20
1319.493338720063
 30
0.0
 40
0.5
100
AcDbArc
 50
270.0
 51
0.0
  0
LINE
  5
18CAA
330
18C7A
100
AcDbEntity
  8
部品1
 48
0.01
100
AcDbLine
 10
1483.970482677778
 20
1320.493338720063
 30
0.0
 11
1483.970482677778
 21
1319.493338720063
 31
0.0
  0
LINE
  5
18CAB
330
18C7A
100
AcDbEntity
  8
部品1
 48
0.01
100
AcDbLine
 10
1483.970482677778
 20
1320.493338720063
 30
0.0
 11
1483.970482677778
 21
1319.493338720063
 31
0.0
  0
LINE
  5
18CAC
330
18C7A
100
AcDbEntity
  8
部品1
 48
0.01
100
AcDbLine
 10
1483.470482677778
 20
1318.993338720063
 30
0.0
 11
1476.857977247713
 21
1318.993338720062
 31
0.0
  0
ARC
  5
18CAD
330
18C7A
100
AcDbEntity
  8
部品1
100
AcDbCircle
 10
1476.926326800494
 20
1319.993338720062
 30
0.0
 40
1.0
100
AcDbArc
 50
160.5287793655865
 51
270.0
  0
ARC
  5
18CAE
330
18C7A
100
AcDbEntity
  8
部品1
100
AcDbCircle
 10
1451.470482677778
 20
1328.993338720062
 30
0.0
 40
26.0
100
AcDbArc
 50
340.5287793655865
 51
0.0
  0
LINE
  5
18CAF
330
18C7A
100
AcDbEntity
  8
部品1
100
AcDbLine
 10
1477.470482677778
 20
1328.993338720062
 30
0.0
 11
1477.470482677778
 21
1333.993338720061
 31
0.0
  0
ARC
  5
18CB0
330
18C7A
100
AcDbEntity
  8
部品1
 48
0.01
100
AcDbCircle
 10
1475.470482677778
 20
1333.993338720061
 30
0.0
 40
2.0
100
AcDbArc
 50
0.0
 51
90.0
  0
ARC
  5
18CB1
330
18C7A
100
AcDbEntity
  8
部品1
100
AcDbCircle
 10
1473.862091052968
 20
1332.993338720062
 30
0.0
 40
3.0
100
AcDbArc
 50
90.0
 51
141.6069559808035
  0
LINE
  5
18CB2
330
18C7A
100
AcDbEntity
  8
部品1
 48
0.01
100
AcDbLine
 10
1475.470482677778
 20
1335.993338720062
 30
0.0
 11
1473.862091052968
 21
1335.993338720062
 31
0.0
  0
ARC
  5
18CB3
330
18C7A
100
AcDbEntity
  8
部品1
100
AcDbCircle
 10
1455.399768463507
 20
1332.293338720065
 30
0.0
 40
3.0
100
AcDbArc
 50
254.0576313943215
 51
270.0
  0
ARC
  5
18CB4
330
18C7A
100
AcDbEntity
  8
部品1
100
AcDbCircle
 10
1462.541196892049
 20
1332.293338720065
 30
0.0
 40
3.0
100
AcDbArc
 50
270.0
 51
285.9423686056786
  0
LINE
  5
18CB5
330
18C7A
100
AcDbEntity
  8
部品1
100
AcDbLine
 10
1462.541196892049
 20
1329.293338720064
 30
0.0
 11
1455.399768463507
 21
1329.293338720064
 31
0.0
  0
ARC
  5
18CB6
330
18C7A
100
AcDbEntity
  8
部品1
100
AcDbCircle
 10
1458.970482677778
 20
1344.793338720065
 30
0.0
 40
16.0
100
AcDbArc
 50
285.9423686056786
 51
321.6069559808035
  0
LINE
  5
18CB7
330
18C7A
100
AcDbEntity
  8
部品1
 48
0.01
100
AcDbLine
 10
1442.470482677778
 20
1335.993338720062
 30
0.0
 11
1444.078874302588
 21
1335.993338720062
 31
0.0
  0
ARC
  5
18CB8
330
18C7A
100
AcDbEntity
  8
部品1
100
AcDbCircle
 10
1444.078874302588
 20
1332.993338720062
 30
0.0
 40
3.0
100
AcDbArc
 50
38.39304401919648
 51
90.0
  0
ARC
  5
18CB9
330
18C7A
100
AcDbEntity
  8
部品1
100
AcDbCircle
 10
1458.970482677778
 20
1344.793338720065
 30
0.0
 40
16.0
100
AcDbArc
 50
218.3930440191965
 51
254.0576313943215
  0
LINE
  5
18CBA
330
18C7A
100
AcDbEntity
  8
部品1
100
AcDbLine
 10
1440.470482677778
 20
1328.993338720062
 30
0.0
 11
1440.470482677778
 21
1333.993338720061
 31
0.0
  0
ARC
  5
18CBB
330
18C7A
100
AcDbEntity
  8
部品1
 48
0.01
100
AcDbCircle
 10
1442.470482677778
 20
1333.993338720061
 30
0.0
 40
2.0
100
AcDbArc
 50
90.0
 51
180.0
  0
ARC
  5
18CBC
330
18C7A
100
AcDbEntity
  8
部品1
100
AcDbCircle
 10
1466.470482677778
 20
1328.993338720062
 30
0.0
 40
26.0
100
AcDbArc
 50
180.0
 51
199.4712206344134
  0
ARC
  5
18CBD
330
18C7A
100
AcDbEntity
  8
部品1
 48
0.01
100
AcDbCircle
 10
1434.470482677778
 20
1319.493338720063
 30
0.0
 40
0.5
100
AcDbArc
 50
180.0
 51
270.0
  0
LINE
  5
18CBE
330
18C7A
100
AcDbEntity
  8
部品1
 48
0.01
100
AcDbLine
 10
1434.470482677778
 20
1318.993338720063
 30
0.0
 11
1441.014638555061
 21
1318.993338720062
 31
0.0
  0
LINE
  5
18CBF
330
18C7A
100
AcDbEntity
  8
部品1
 48
0.01
100
AcDbLine
 10
1433.970482677778
 20
1320.493338720063
 30
0.0
 11
1433.970482677778
 21
1319.493338720063
 31
0.0
  0
ARC
  5
18CC0
330
18C7A
100
AcDbEntity
  8
部品1
100
AcDbCircle
 10
1441.014638555061
 20
1319.993338720062
 30
0.0
 40
1.0
100
AcDbArc
 50
270.0
 51
19.47122063441346
  0
LINE
  5
18CC1
330
18C7A
100
AcDbEntity
  8
細線
100
AcDbLine
 10
1479.470482677785
 20
1338.493338720065
 30
0.0
 11
1438.470482677785
 21
1338.493338720058
 31
0.0
  0
LINE
  5
18CC2
330
18C7A
100
AcDbEntity
  8
細線
100
AcDbLine
 10
1438.470482677785
 20
1338.493338720058
 30
0.0
 11
1438.470482677785
 21
1320.49333872004
 31
0.0
  0
LINE
  5
18CC3
330
18C7A
100
AcDbEntity
  8
細線
100
AcDbLine
 10
1479.470482677785
 20
1338.493338720065
 30
0.0
 11
1479.470482677785
 21
1320.49333872004
 31
0.0
  0
LINE
  5
18CC4
330
18C7A
100
AcDbEntity
  8
細線
100
AcDbLine
 10
1322.970589276523
 20
1324.494269174465
 30
0.0
 11
1322.970589276523
 21
1320.494269174513
 31
0.0
  0
LINE
  5
18CC5
330
18C7A
100
AcDbEntity
  8
寸法
 48
50.0
100
AcDbLine
 10
1746.17359555837
 20
1170.531020743327
 30
0.0
 11
1694.767587648266
 21
1170.531020743327
 31
0.0
  0
LINE
  5
18CC6
330
18C7A
100
AcDbEntity
  8
寸法
 48
50.0
100
AcDbLine
 10
1694.767587648266
 20
1170.531020743327
 30
0.0
 11
1694.767587648266
 21
1201.841179395494
 31
0.0
  0
LINE
  5
18CC7
330
18C7A
100
AcDbEntity
  8
寸法
 48
50.0
100
AcDbLine
 10
1694.767587648266
 20
1201.841179395494
 30
0.0
 11
1665.006255656843
 21
1201.841179395494
 31
0.0
  0
LINE
  5
18CC8
330
18C7A
100
AcDbEntity
  8
寸法
 48
50.0
100
AcDbLine
 10
1665.006255656843
 20
1201.841179395494
 30
0.0
 11
1720.470591603318
 21
1239.420630324105
 31
0.0
  0
LINE
  5
18CC9
330
18C7A
100
AcDbEntity
  8
寸法
 48
50.0
100
AcDbLine
 10
1775.934927549793
 20
1201.841179395494
 30
0.0
 11
1720.470591603318
 21
1239.420630324105
 31
0.0
  0
LINE
  5
18CCA
330
18C7A
100
AcDbEntity
  8
寸法
 48
50.0
100
AcDbLine
 10
1746.17359555837
 20
1201.841179395494
 30
0.0
 11
1775.934927549793
 21
1201.841179395494
 31
0.0
  0
LINE
  5
18CCB
330
18C7A
100
AcDbEntity
  8
寸法
 48
50.0
100
AcDbLine
 10
1746.17359555837
 20
1170.531020743327
 30
0.0
 11
1746.17359555837
 21
1201.841179395494
 31
0.0
  0
LINE
  5
18CCC
330
18C7A
100
AcDbEntity
  8
寸法
 48
50.0
100
AcDbLine
 10
1694.767587648266
 20
1170.531020743327
 30
0.0
 11
1746.17359555837
 21
1170.531020743327
 31
0.0
  0
LINE
  5
18CCD
330
18C7A
100
AcDbEntity
  8
寸法
 48
50.0
100
AcDbLine
 10
2025.339129835225
 20
1227.676611498152
 30
0.0
 11
2025.339129835225
 21
1174.01297691636
 31
0.0
  0
LINE
  5
18CCE
330
18C7A
100
AcDbEntity
  8
寸法
 48
50.0
100
AcDbLine
 10
2114.623348430647
 20
1203.752977228664
 30
0.0
 11
2025.339129835225
 21
1227.676611498152
 31
0.0
  0
LINE
  5
18CCF
330
18C7A
100
AcDbEntity
  8
寸法
 48
50.0
100
AcDbLine
 10
1895.471408254923
 20
1203.752977228664
 30
0.0
 11
2114.623348430647
 21
1203.752977228664
 31
0.0
  0
DIMENSION
  5
18CD0
330
18C7A
100
AcDbEntity
  8
寸法
 48
50.0
100
AcDbDimension
  2
*D15
 10
2588.970589276523
 20
706.3240511224249
 30
0.0
 11
1969.060022905491
 21
706.3240511224249
 31
0.0
 12
-3742.925985830444
 22
-6453.628869860112
 32
0.0
 70
   128
  1
有効開口部間口\P<>
 71
     5
 42
1266.0
  3
INABA_S40G
100
AcDbAlignedDimension
 13
1322.970589276523
 23
1315.494269174465
 33
0.0
 14
2588.970589276523
 24
1315.494269174465
 34
0.0
100
AcDbRotatedDimension
1001
ACAD
1000
DSTYLE
1002
{
1070
   341
1005
0
1002
}
  0
LINE
  5
18CD1
330
18C7A
100
AcDbEntity
  8
部品1
100
AcDbLine
 10
3409.970589276524
 20
1392.494269174465
 30
0.0
 11
3437.970589276523
 21
1392.494269174465
 31
0.0
  0
DIMENSION
  5
18CD2
330
18C7A
100
AcDbEntity
  8
寸法
100
AcDbDimension
  2
*D16
 10
3674.266172669749
 20
1315.494269174465
 30
0.0
 11
3674.266172669748
 21
1177.494269174462
 31
0.0
 12
-3742.925985830444
 22
-6453.628869860112
 32
0.0
 70
   128
 71
     5
 42
77.0
  3
INABA_S40
100
AcDbAlignedDimension
 13
3437.970589276523
 23
1392.494269174465
 33
0.0
 14
3436.970589276523
 24
1315.494269174465
 34
0.0
 50
90.0
100
AcDbRotatedDimension
1001
ACAD
1000
DSTYLE
1002
{
1070
    41
1040
0.5
1070
    44
1040
1.0
1070
   147
1040
0.8
1070
   271
1070
     2
1070
   272
1070
     2
1070
   289
1070
     3
1070
   340
1005
F706
1070
   343
1005
164B4
1070
   344
1005
164B4
1002
}
  0
LINE
  5
18CD3
330
18C7A
100
AcDbEntity
  8
部品1
100
AcDbLine
 10
3437.970589276523
 20
1315.494269174465
 30
0.0
 11
3437.970589276523
 21
1392.494269174465
 31
0.0
  0
LINE
  5
18CD4
330
18C7A
100
AcDbEntity
  8
部品1
100
AcDbLine
 10
3398.970589276523
 20
1388.494269174465
 30
0.0
 11
3409.970589276524
 21
1388.494269174465
 31
0.0
  0
LINE
  5
18CD5
330
18C7A
100
AcDbEntity
  8
部品1
100
AcDbLine
 10
3407.970589276523
 20
1324.494269174465
 30
0.0
 11
3407.970589276523
 21
1315.494269174465
 31
0.0
  0
LINE
  5
18CD6
330
18C7A
100
AcDbEntity
  8
部品1
100
AcDbLine
 10
3398.970589276523
 20
1324.494269174465
 30
0.0
 11
3407.970589276523
 21
1324.494269174465
 31
0.0
  0
LINE
  5
18CD7
330
18C7A
100
AcDbEntity
  8
部品1
100
AcDbLine
 10
3398.970589276523
 20
1388.494269174465
 30
0.0
 11
3398.970589276523
 21
1324.494269174465
 31
0.0
  0
LINE
  5
18CD8
330
18C7A
100
AcDbEntity
  8
部品1
100
AcDbLine
 10
3409.970589276524
 20
1419.494269174465
 30
0.0
 11
3409.970589276524
 21
1388.494269174465
 31
0.0
  0
LINE
  5
18CD9
330
18C7A
100
AcDbEntity
  8
部品1
100
AcDbLine
 10
1322.970589276523
 20
1388.494269174465
 30
0.0
 11
1311.970589276523
 21
1388.494269174465
 31
0.0
  0
LINE
  5
18CDA
330
18C7A
100
AcDbEntity
  8
部品1
100
AcDbLine
 10
1283.970589276523
 20
1392.494269174465
 30
0.0
 11
1311.970589276523
 21
1392.494269174465
 31
0.0
  0
LINE
  5
18CDB
330
18C7A
100
AcDbEntity
  8
部品1
100
AcDbLine
 10
1313.970589276523
 20
1324.494269174465
 30
0.0
 11
1313.970589276523
 21
1315.494269174465
 31
0.0
  0
LINE
  5
18CDC
330
18C7A
100
AcDbEntity
  8
部品1
100
AcDbLine
 10
1322.970589276523
 20
1324.494269174465
 30
0.0
 11
1313.970589276523
 21
1324.494269174465
 31
0.0
  0
LINE
  5
18CDD
330
18C7A
100
AcDbEntity
  8
部品1
100
AcDbLine
 10
1313.970589276523
 20
1315.494269174465
 30
0.0
 11
1283.970589276523
 21
1315.494269174465
 31
0.0
  0
LINE
  5
18CDE
330
18C7A
100
AcDbEntity
  8
部品1
100
AcDbLine
 10
1283.970589276523
 20
1315.494269174465
 30
0.0
 11
1283.970589276523
 21
1392.494269174465
 31
0.0
  0
LINE
  5
18CDF
330
18C7A
100
AcDbEntity
  8
部品1
100
AcDbLine
 10
1322.970589276523
 20
1388.494269174465
 30
0.0
 11
1322.970589276523
 21
1324.494269174465
 31
0.0
  0
LINE
  5
18CE0
330
18C7A
100
AcDbEntity
  8
部品1
100
AcDbLine
 10
1311.970589276523
 20
1419.494269174462
 30
0.0
 11
1311.970589276523
 21
1388.494269174465
 31
0.0
  0
LINE
  5
18CE1
330
18C7A
100
AcDbEntity
  8
部品1
100
AcDbLine
 10
1311.970589276523
 20
1419.494269174462
 30
0.0
 11
3409.970589276524
 21
1419.494269174465
 31
0.0
  0
LINE
  5
18CE2
330
18C7A
100
AcDbEntity
  8
部品1
100
AcDbLine
 10
3407.970589276523
 20
1315.494269174465
 30
0.0
 11
3437.970589276523
 21
1315.494269174465
 31
0.0
  0
LINE
  5
18CE3
330
18C7A
100
AcDbEntity
  8
部品1
100
AcDbLine
 10
1313.970589276523
 20
1315.494269174465
 30
0.0
 11
3410.970589276523
 21
1315.494269174465
 31
0.0
  0
LINE
  5
18CE4
330
18C7A
100
AcDbEntity
  8
細線
  6
Continuous
 62
     5
100
AcDbLine
 10
2689.970589276527
 20
1354.494269174462
 30
0.0
 11
2689.970589276527
 21
1354.494269174462
 31
0.0
  0
LINE
  5
18CE5
330
18C7A
100
AcDbEntity
  8
細線
  6
Continuous
 62
     5
100
AcDbLine
 10
2682.470589276527
 20
1354.494269174462
 30
0.0
 11
2682.470589276527
 21
1354.494269174462
 31
0.0
  0
LINE
  5
18CE6
330
18C7A
100
AcDbEntity
  8
細線
  6
Continuous
 62
     5
100
AcDbLine
 10
2676.470589276527
 20
1354.494269174462
 30
0.0
 11
2676.470589276527
 21
1354.494269174462
 31
0.0
  0
LINE
  5
18CE7
330
18C7A
100
AcDbEntity
  8
細線
  6
Continuous
 62
     5
100
AcDbLine
 10
2743.970589276527
 20
1373.494269174462
 30
0.0
 11
2743.970589276527
 21
1373.494269174462
 31
0.0
  0
LINE
  5
18CE8
330
18C7A
100
AcDbEntity
  8
細線
 48
50.0
100
AcDbLine
 10
1336.970593930116
 20
1341.094443351418
 30
0.0
 11
1336.970593930113
 21
1349.490593759059
 31
0.0
  0
LINE
  5
18CE9
330
18C7A
100
AcDbEntity
  8
細線
 48
50.0
100
AcDbLine
 10
1336.970593930113
 20
1349.490593759059
 30
0.0
 11
1322.970589276523
 21
1349.490593759057
 31
0.0
  0
LINE
  5
18CEA
330
18C7A
100
AcDbEntity
  8
細線
 48
50.0
100
AcDbLine
 10
2087.970593930113
 20
1337.644443351419
 30
0.0
 11
2087.970593930113
 21
1342.494443351421
 31
0.0
  0
LINE
  5
18CEB
330
18C7A
100
AcDbEntity
  8
細線
 48
50.0
100
AcDbLine
 10
2087.970593930113
 20
1342.494443351421
 30
0.0
 11
2102.970593930113
 21
1342.494443351421
 31
0.0
  0
LINE
  5
18CEC
330
18C7A
100
AcDbEntity
  8
細線
 48
50.0
100
AcDbLine
 10
2102.970593930113
 20
1342.494443351421
 30
0.0
 11
2102.970593930115
 21
1349.494443351419
 31
0.0
  0
LINE
  5
18CED
330
18C7A
100
AcDbEntity
  8
細線
 48
50.0
100
AcDbLine
 10
2102.970593930115
 20
1349.494443351419
 30
0.0
 11
2117.970593930113
 21
1349.494443351419
 31
0.0
  0
LINE
  5
18CEE
330
18C7A
100
AcDbEntity
  8
細線
 48
50.0
100
AcDbLine
 10
2117.970593930113
 20
1349.494443351419
 30
0.0
 11
2117.970593930113
 21
1320.494443351421
 31
0.0
  0
LINE
  5
18CEF
330
18C7A
100
AcDbEntity
  8
細線
 48
50.0
100
AcDbLine
 10
1313.970589276523
 20
1320.491777694889
 30
0.0
 11
1527.970593930113
 21
1320.494460905133
 31
0.0
  0
LINE
  5
18CF0
330
18C7A
100
AcDbEntity
  8
細線
 48
50.0
100
AcDbLine
 10
2017.970593930113
 20
1320.494443351421
 30
0.0
 11
2117.970593930113
 21
1320.494443351421
 31
0.0
  0
LINE
  5
18CF1
330
18C7A
100
AcDbEntity
  8
細線
 48
50.0
100
AcDbLine
 10
1737.970593930113
 20
1320.494443351419
 30
0.0
 11
1807.970593930113
 21
1320.494443351423
 31
0.0
  0
LINE
  5
18CF2
330
18C7A
100
AcDbEntity
  8
細線
 48
50.0
100
AcDbLine
 10
1750.832558942642
 20
1320.494443351419
 30
0.0
 11
1756.588076525309
 21
1338.765294641913
 31
0.0
  0
LINE
  5
18CF3
330
18C7A
100
AcDbEntity
  8
細線
 48
50.0
100
AcDbLine
 10
1756.588076525309
 20
1338.765294641913
 30
0.0
 11
1767.516525005743
 21
1338.765294641911
 31
0.0
  0
ARC
  5
18CF4
330
18C7A
100
AcDbEntity
  8
細線
 48
50.0
100
AcDbCircle
 10
1767.516525005743
 20
1337.765294641911
 30
0.0
 40
1.0
100
AcDbArc
 50
24.62431835207225
 51
90.0
  0
ARC
  5
18CF5
330
18C7A
100
AcDbEntity
  8
細線
 48
50.0
100
AcDbCircle
 10
1778.425237120377
 20
1337.765294641911
 30
0.0
 40
1.0
100
AcDbArc
 50
90.0
 51
155.3756816479277
  0
ARC
  5
18CF6
330
18C7A
100
AcDbEntity
  8
細線
 48
50.0
100
AcDbCircle
 10
1772.970881063058
 20
1340.265294641911
 30
0.0
 40
5.0
100
AcDbArc
 50
204.6243183520723
 51
335.3756816479278
  0
LINE
  5
18CF7
330
18C7A
100
AcDbEntity
  8
細線
 48
50.0
100
AcDbLine
 10
1778.425237120377
 20
1338.765294641911
 30
0.0
 11
1789.35368560081
 21
1338.765294641913
 31
0.0
  0
LINE
  5
18CF8
330
18C7A
100
AcDbEntity
  8
細線
 48
50.0
100
AcDbLine
 10
1789.35368560081
 20
1338.765294641913
 30
0.0
 11
1795.109203183478
 21
1320.494443351423
 31
0.0
  0
LINE
  5
18CF9
330
18C7A
100
AcDbEntity
  8
細線
 48
50.0
100
AcDbLine
 10
2087.970593930113
 20
1341.094443351419
 30
0.0
 11
1336.970593930116
 21
1341.094443351418
 31
0.0
  0
LINE
  5
18CFA
330
18C7A
100
AcDbEntity
  8
細線
 48
50.0
100
AcDbLine
 10
1947.970593930113
 20
1320.494443351421
 30
0.0
 11
1877.970593930113
 21
1320.494443351421
 31
0.0
  0
LINE
  5
18CFB
330
18C7A
100
AcDbEntity
  8
細線
100
AcDbLine
 10
1667.970593930113
 20
1320.494443351421
 30
0.0
 11
1597.970602115529
 21
1320.494443351421
 31
0.0
  0
LINE
  5
18CFC
330
18C7A
100
AcDbEntity
  8
細線
 48
50.0
100
AcDbLine
 10
2741.970584622936
 20
1375.094487209288
 30
0.0
 11
2106.970593930113
 21
1375.094487209284
 31
0.0
  0
LINE
  5
18CFD
330
18C7A
100
AcDbEntity
  8
細線
 48
50.0
100
AcDbLine
 10
2106.970593930113
 20
1371.990637616925
 30
0.0
 11
2106.970593930113
 21
1376.490637616925
 31
0.0
  0
LINE
  5
18CFE
330
18C7A
100
AcDbEntity
  8
細線
 48
50.0
100
AcDbLine
 10
2106.970593930113
 20
1376.490637616925
 30
0.0
 11
2091.970593930113
 21
1376.490637616925
 31
0.0
  0
LINE
  5
18CFF
330
18C7A
100
AcDbEntity
  8
細線
 48
50.0
100
AcDbLine
 10
2091.970593930113
 20
1376.490637616925
 30
0.0
 11
2091.970593930113
 21
1383.490637616927
 31
0.0
  0
LINE
  5
18D00
330
18C7A
100
AcDbEntity
  8
細線
 48
50.0
100
AcDbLine
 10
2091.970593930113
 20
1383.490637616927
 30
0.0
 11
2076.970593930115
 21
1383.490637616924
 31
0.0
  0
LINE
  5
18D01
330
18C7A
100
AcDbEntity
  8
細線
 48
50.0
100
AcDbLine
 10
2076.970593930115
 20
1383.490637616924
 30
0.0
 11
2076.970593930115
 21
1345.890409513813
 31
0.0
  0
LINE
  5
18D02
330
18C7A
100
AcDbEntity
  8
細線
 48
50.0
100
AcDbLine
 10
2076.970593930115
 20
1345.890409513813
 30
0.0
 11
2096.970601231289
 21
1345.890451063353
 31
0.0
  0
LINE
  5
18D03
330
18C7A
100
AcDbEntity
  8
細線
 48
50.0
100
AcDbLine
 10
2096.970556362348
 20
1354.493912699161
 30
0.0
 11
2096.970601231289
 21
1345.890451063353
 31
0.0
  0
LINE
  5
18D04
330
18C7A
100
AcDbEntity
  8
細線
 48
50.0
100
AcDbLine
 10
2741.970584622936
 20
1371.644487209287
 30
0.0
 11
2741.970584622936
 21
1376.494487209284
 31
0.0
  0
LINE
  5
18D05
330
18C7A
100
AcDbEntity
  8
細線
 48
50.0
100
AcDbLine
 10
2741.970584622936
 20
1376.494487209284
 30
0.0
 11
2756.970584622934
 21
1376.494487209285
 31
0.0
  0
LINE
  5
18D06
330
18C7A
100
AcDbEntity
  8
細線
 48
50.0
100
AcDbLine
 10
2756.970584622934
 20
1376.494487209285
 30
0.0
 11
2756.970596256909
 21
1383.494487209331
 31
0.0
  0
LINE
  5
18D07
330
18C7A
100
AcDbEntity
  8
細線
 48
50.0
100
AcDbLine
 10
2756.970596256909
 20
1383.494487209331
 30
0.0
 11
2771.970594427439
 21
1383.494487209329
 31
0.0
  0
LINE
  5
18D08
330
18C7A
100
AcDbEntity
  8
細線
 48
50.0
100
AcDbLine
 10
2771.970594427439
 20
1383.494487209329
 30
0.0
 11
2771.970584125617
 21
1354.494281037055
 31
0.0
  0
LINE
  5
18D09
330
18C7A
100
AcDbEntity
  8
細線
 48
50.0
100
AcDbLine
 10
2458.070304175992
 20
1354.494278397076
 30
0.0
 11
2389.470863838818
 21
1354.494283787084
 31
0.0
  0
LINE
  5
18D0A
330
18C7A
100
AcDbEntity
  8
細線
 48
50.0
100
AcDbLine
 10
2096.970556362348
 20
1354.493912699161
 30
0.0
 11
2108.203245717057
 21
1354.494095652309
 31
0.0
  0
ARC
  5
18D0B
330
18C7A
100
AcDbEntity
  8
細線
 48
50.0
100
AcDbCircle
 10
2114.785538024393
 20
1353.294259565922
 30
0.0
 40
1.8
100
AcDbArc
 50
270.0006665777295
 51
345.000555481349
  0
LINE
  5
18D0C
330
18C7A
100
AcDbEntity
  8
細線
 48
50.0
100
AcDbLine
 10
2116.771971470473
 20
1353.753100023201
 30
0.0
 11
2116.524209028273
 21
1352.828402141094
 31
0.0
  0
LINE
  5
18D0D
330
18C7A
100
AcDbEntity
  8
細線
 48
50.0
100
AcDbLine
 10
2114.785558965548
 20
1351.494259566043
 30
0.0
 11
2111.155631546781
 21
1351.494217335563
 31
0.0
  0
ARC
  5
18D0E
330
18C7A
100
AcDbEntity
  8
細線
 48
50.0
100
AcDbCircle
 10
2111.155610605627
 20
1353.29421733544
 30
0.0
 40
1.8
100
AcDbArc
 50
195.0010443049965
 51
270.0006665777295
  0
LINE
  5
18D0F
330
18C7A
100
AcDbEntity
  8
細線
 48
50.0
100
AcDbLine
 10
2109.169183113368
 20
1353.752932303007
 30
0.0
 11
2109.416952609882
 21
1352.828311364425
 31
0.0
  0
ARC
  5
18D10
330
18C7A
100
AcDbEntity
  8
細線
 48
50.0
100
AcDbCircle
 10
2108.203262004622
 20
1353.494095652444
 30
0.0
 40
1.0
100
AcDbArc
 50
15.00104430499651
 51
90.00093320877969
  0
LINE
  5
18D11
330
18C7A
100
AcDbEntity
  8
細線
 48
50.0
100
AcDbLine
 10
2117.737892825577
 20
1354.494290342714
 30
0.0
 11
2118.679652976481
 21
1354.494296916564
 31
0.0
  0
ARC
  5
18D12
330
18C7A
100
AcDbEntity
  8
細線
 48
50.0
100
AcDbCircle
 10
2117.737899805961
 20
1353.49429034274
 30
0.0
 40
1.0
100
AcDbArc
 50
90.0003999466794
 51
165.000555481349
  0
LINE
  5
18D13
330
18C7A
100
AcDbEntity
  8
細線
 48
50.0
100
AcDbLine
 10
2669.470584622926
 20
1354.494281037055
 30
0.0
 11
2771.970584125617
 21
1354.494281037055
 31
0.0
  0
LINE
  5
18D14
330
18C7A
100
AcDbEntity
  8
細線
 48
50.0
100
AcDbLine
 10
2179.47061994182
 20
1354.494289224422
 30
0.0
 11
2118.370558714898
 21
1354.494296916564
 31
0.0
  0
LINE
  5
18D15
330
18C7A
100
AcDbEntity
  8
細線
 48
50.0
100
AcDbLine
 10
2599.470584622926
 20
1354.494281037057
 30
0.0
 11
2529.470584622926
 21
1354.494281037055
 31
0.0
  0
LINE
  5
18D16
330
18C7A
100
AcDbEntity
  8
細線
 48
50.0
100
AcDbLine
 10
2319.470584622926
 20
1354.494281037054
 30
0.0
 11
2249.470567335051
 21
1354.494281037057
 31
0.0
  0
ARC
  5
18D17
330
18C7A
100
AcDbEntity
  8
細線
 48
50.0
100
AcDbCircle
 10
2756.170589276533
 20
1387.694269174466
 30
0.0
 40
0.8
100
AcDbArc
 50
359.9997333689499
 51
89.99986668437072
  0
ARC
  5
18D18
330
18C7A
100
AcDbEntity
  8
細線
 48
50.0
100
AcDbCircle
 10
2763.770596101631
 20
1387.694280343081
 30
0.0
 40
0.8
100
AcDbArc
 50
90.00014387753465
 51
179.9997333689498
  0
LINE
  5
18D19
330
18C7A
100
AcDbEntity
  8
細線
 48
50.0
100
AcDbLine
 10
2756.170591137969
 20
1388.494269174465
 30
0.0
 11
2750.970589276525
 21
1388.494269174465
 31
0.0
  0
ARC
  5
18D1A
330
18C7A
100
AcDbEntity
  8
細線
 48
50.0
100
AcDbCircle
 10
2757.670589276524
 20
1386.194269174464
 30
0.0
 40
0.7
100
AcDbArc
 50
180.0
 51
270.0
  0
ARC
  5
18D1B
330
18C7A
100
AcDbEntity
  8
細線
 48
50.0
100
AcDbCircle
 10
2762.270589276524
 20
1386.194269174464
 30
0.0
 40
0.7
100
AcDbArc
 50
270.0
 51
0.0
  0
LINE
  5
18D1C
330
18C7A
100
AcDbEntity
  8
細線
 48
50.0
100
AcDbLine
 10
2762.970589276525
 20
1386.194269174464
 30
0.0
 11
2762.970596101639
 21
1387.694284065954
 31
0.0
  0
LINE
  5
18D1D
330
18C7A
100
AcDbEntity
  8
細線
 48
50.0
100
AcDbLine
 10
2757.670589276524
 20
1385.494269174465
 30
0.0
 11
2762.270589276524
 21
1385.494269174465
 31
0.0
  0
LINE
  5
18D1E
330
18C7A
100
AcDbEntity
  8
細線
 48
50.0
100
AcDbLine
 10
2756.970589276525
 20
1387.694269174466
 30
0.0
 11
2756.970589276525
 21
1386.194269174464
 31
0.0
  0
LINE
  5
18D1F
330
18C7A
100
AcDbEntity
  8
細線
 48
50.0
100
AcDbLine
 10
3382.570589276527
 20
1418.494269174465
 30
0.0
 11
2745.970589276525
 21
1418.494269174463
 31
0.0
  0
LINE
  5
18D20
330
18C7A
100
AcDbEntity
  8
細線
 48
50.0
100
AcDbLine
 10
3408.470589276525
 20
1413.494269174467
 30
0.0
 11
3392.570589276527
 21
1413.494269174465
 31
0.0
  0
LINE
  5
18D21
330
18C7A
100
AcDbEntity
  8
細線
 48
50.0
100
AcDbLine
 10
3392.570589276526
 20
1413.494269174465
 30
0.0
 11
3382.570589276527
 21
1418.494269174465
 31
0.0
  0
LINE
  5
18D22
330
18C7A
100
AcDbEntity
  8
細線
100
AcDbLine
 10
2993.470589276525
 20
1388.494269174465
 30
0.0
 11
2993.470589276525
 21
1417.794269174464
 31
0.0
  0
LINE
  5
18D23
330
18C7A
100
AcDbEntity
  8
細線
100
AcDbLine
 10
2993.470589276525
 20
1417.794269174464
 30
0.0
 11
3013.470589276525
 21
1417.794269174464
 31
0.0
  0
LINE
  5
18D24
330
18C7A
100
AcDbEntity
  8
細線
100
AcDbLine
 10
3013.470589276525
 20
1388.494269174465
 30
0.0
 11
3013.470589276525
 21
1417.794269174464
 31
0.0
  0
LINE
  5
18D25
330
18C7A
100
AcDbEntity
  8
細線
100
AcDbLine
 10
3170.720589276524
 20
1388.494269174465
 30
0.0
 11
3100.720589276523
 21
1388.494269174465
 31
0.0
  0
LINE
  5
18D26
330
18C7A
100
AcDbEntity
  8
細線
 48
50.0
100
AcDbLine
 10
2890.720589276525
 20
1388.494269174465
 30
0.0
 11
2763.766368849365
 21
1388.494269174465
 31
0.0
  0
LINE
  5
18D27
330
18C7A
100
AcDbEntity
  8
細線
100
AcDbLine
 10
3030.720589276525
 20
1388.494269174465
 30
0.0
 11
2960.720589276525
 21
1388.494269174465
 31
0.0
  0
LINE
  5
18D28
330
18C7A
100
AcDbEntity
  8
細線
 48
50.0
100
AcDbLine
 10
2750.970589276525
 20
1380.494269174465
 30
0.0
 11
2750.970589276525
 21
1388.494269174465
 31
0.0
  0
LINE
  5
18D29
330
18C7A
100
AcDbEntity
  8
細線
 48
50.0
100
AcDbLine
 10
2730.970589276524
 20
1380.494269174467
 30
0.0
 11
2750.970589276525
 21
1380.494269174465
 31
0.0
  0
LINE
  5
18D2A
330
18C7A
100
AcDbEntity
  8
細線
 48
50.0
100
AcDbLine
 10
2745.970589276525
 20
1418.494269174465
 30
0.0
 11
2745.970589276525
 21
1413.494269174465
 31
0.0
  0
LINE
  5
18D2B
330
18C7A
100
AcDbEntity
  8
細線
 48
50.0
100
AcDbLine
 10
2730.970589276525
 20
1418.494269174463
 30
0.0
 11
2745.970589276525
 21
1418.494269174465
 31
0.0
  0
LINE
  5
18D2C
330
18C7A
100
AcDbEntity
  8
細線
 48
50.0
100
AcDbLine
 10
2730.970589276524
 20
1380.494269174467
 30
0.0
 11
2730.970589276525
 21
1418.494269174463
 31
0.0
  0
LINE
  5
18D2D
330
18C7A
100
AcDbEntity
  8
細線
100
AcDbLine
 10
3398.970589276523
 20
1388.494269174465
 30
0.0
 11
3240.720589276525
 21
1388.494269174465
 31
0.0
  0
LINE
  5
18D2E
330
18C7A
100
AcDbEntity
  8
細線
 48
50.0
100
AcDbLine
 10
3408.470589276525
 20
1413.494269174467
 30
0.0
 11
3408.470589276524
 21
1388.494269174465
 31
0.0
  0
TEXT
  5
18D2F
330
18C7A
100
AcDbEntity
  8
部品1
100
AcDbText
 10
1860.154865991392
 20
46.99880823813145
 30
0.0
 40
135.0
  1
平面図
  7
STYLE2
100
AcDbText
  0
LWPOLYLINE
  5
18D30
330
18C7A
100
AcDbEntity
  8
部品1
100
AcDbPolyline
 90
        4
 70
     1
 43
0.0
 10
1770.23525616235
 20
239.8923374566548
 10
1770.23525616235
 20
0.0000159111223184
 10
2533.705922390791
 20
0.0000159111223184
 10
2533.705922390791
 20
239.8923374566548
  0
LINE
  5
18D31
330
18C7A
100
AcDbEntity
  8
部品1
100
AcDbLine
 10
1534.470589276487
 20
3154.494269174626
 30
0.0
 11
2769.470589276552
 21
3154.494269174626
 31
0.0
  0
LINE
  5
18D32
330
18C7A
100
AcDbEntity
  8
部品1
 48
50.0
100
AcDbLine
 10
1311.970589276523
 20
1420.494269174462
 30
0.0
 11
3411.970589276523
 21
1420.494269174465
 31
0.0
  0
LINE
  5
18D33
330
18C7A
100
AcDbEntity
  8
部品1
 48
50.0
100
AcDbLine
 10
471.9705892765232
 20
1392.494269174465
 30
0.0
 11
1311.970589276523
 21
1392.494269174465
 31
0.0
  0
DIMENSION
  5
18D34
330
18C7A
100
AcDbEntity
  8
寸法
100
AcDbDimension
  2
*D14
 10
2710.234916278077
 20
2488.887829538828
 30
0.0
 11
2338.318822490183
 21
2488.887829538828
 31
0.0
 12
-3742.925985830444
 22
-6453.628869860112
 32
0.0
 70
   128
 71
     5
 42
1231.00000000007
  3
INABA_S40G
100
AcDbAlignedDimension
 13
1536.470589276486
 23
2702.494269174557
 33
0.0
 14
2767.470589276556
 24
2702.494269174549
 34
0.0
100
AcDbRotatedDimension
1001
ACAD
1000
DSTYLE
1002
{
1002
}
  0
LINE
  5
18D35
330
18C7A
100
AcDbEntity
  8
部品1
100
AcDbLine
 10
1536.470589276487
 20
2702.494269174557
 30
0.0
 11
2767.470589276554
 21
2702.494269174615
 31
0.0
  0
LINE
  5
18D36
330
18C7A
100
AcDbEntity
  8
部品1
100
AcDbLine
 10
1536.470589276487
 20
3152.494269174557
 30
0.0
 11
2767.470589276556
 21
3152.494269174615
 31
0.0
  0
LINE
  5
18D37
330
18C7A
100
AcDbEntity
  8
細線
 48
50.0
100
AcDbLine
 10
1508.470589276487
 20
3152.494269174558
 30
0.0
 11
445.4705892765559
 21
2702.494269174509
 31
0.0
  0
LINE
  5
18D38
330
18C7A
100
AcDbEntity
  8
細線
 48
50.0
100
AcDbLine
 10
1508.470589276487
 20
2702.494269174558
 30
0.0
 11
445.4705892765542
 21
3152.494269174509
 31
0.0
  0
LINE
  5
18D39
330
18C7A
100
AcDbEntity
  8
部品1
100
AcDbLine
 10
1556.970589276487
 20
3172.494269174611
 30
0.0
 11
1556.970589276487
 21
3154.494269174611
 31
0.0
  0
LINE
  5
18D3A
330
18C7A
100
AcDbEntity
  8
部品1
100
AcDbLine
 10
1556.970589276487
 20
3172.494269174611
 30
0.0
 11
1550.970589276487
 21
3172.494269174611
 31
0.0
  0
LINE
  5
18D3B
330
18C7A
100
AcDbEntity
  8
部品1
100
AcDbLine
 10
1534.470589276487
 20
3146.494269174608
 30
0.0
 11
1509.470589276487
 21
3146.494269174611
 31
0.0
  0
LINE
  5
18D3C
330
18C7A
100
AcDbEntity
  8
部品1
100
AcDbLine
 10
1486.970589276487
 20
3172.494269174611
 30
0.0
 11
1486.970589276487
 21
3154.494269174611
 31
0.0
  0
LINE
  5
18D3D
330
18C7A
100
AcDbEntity
  8
部品1
100
AcDbLine
 10
1492.970589276487
 20
3172.494269174611
 30
0.0
 11
1486.970589276487
 21
3172.494269174611
 31
0.0
  0
LINE
  5
18D3E
330
18C7A
100
AcDbEntity
  8
部品1
100
AcDbLine
 10
1534.470589276487
 20
2702.494269174615
 30
0.0
 11
1509.470589276487
 21
2702.494269174615
 31
0.0
  0
LINE
  5
18D3F
330
18C7A
100
AcDbEntity
  8
部品1
 48
50.0
100
AcDbLine
 10
1536.470589276487
 20
3152.494269174611
 30
0.0
 11
1536.470589276487
 21
2702.494269174615
 31
0.0
  0
LINE
  5
18D40
330
18C7A
100
AcDbEntity
  8
部品1
 48
50.0
100
AcDbLine
 10
1508.470589276487
 20
3152.494269174607
 30
0.0
 11
1508.470589276487
 21
2702.494269174615
 31
0.0
  0
LINE
  5
18D41
330
18C7A
100
AcDbEntity
  8
部品1
 48
50.0
100
AcDbLine
 10
1534.470589276487
 20
3154.494269174618
 30
0.0
 11
1534.470589276487
 21
2702.494269174615
 31
0.0
  0
LINE
  5
18D42
330
18C7A
100
AcDbEntity
  8
部品1
 48
50.0
100
AcDbLine
 10
1509.470589276487
 20
3154.494269174615
 30
0.0
 11
1509.470589276487
 21
2702.494269174615
 31
0.0
  0
LINE
  5
18D43
330
18C7A
100
AcDbEntity
  8
部品1
100
AcDbLine
 10
3411.970589276556
 20
1392.494269174582
 30
0.0
 11
3411.970589276556
 21
1420.494269174596
 31
0.0
  0
LINE
  5
18D44
330
18C7A
100
AcDbEntity
  8
部品1
100
AcDbLine
 10
1311.970589276523
 20
1392.494269174596
 30
0.0
 11
1311.970589276523
 21
1420.494269174596
 31
0.0
  0
LINE
  5
18D45
330
18C7A
100
AcDbEntity
  8
部品1
100
AcDbLine
 10
891.9705892765232
 20
1392.494269174596
 30
0.0
 11
891.9705892765232
 21
1420.494269174596
 31
0.0
  0
LINE
  5
18D46
330
18C7A
100
AcDbEntity
  8
部品1
100
AcDbLine
 10
3411.97058927652
 20
3182.494269174477
 30
0.0
 11
3411.970589276523
 21
3154.494269174477
 31
0.0
  0
LINE
  5
18D47
330
18C7A
100
AcDbEntity
  8
部品1
100
AcDbLine
 10
2571.97058927652
 20
3182.494269174477
 30
0.0
 11
2571.970589276523
 21
3154.494269174477
 31
0.0
  0
LINE
  5
18D48
330
18C7A
100
AcDbEntity
  8
部品1
100
AcDbLine
 10
2991.97058927652
 20
3182.494269174477
 30
0.0
 11
2991.970589276523
 21
3154.494269174477
 31
0.0
  0
LINE
  5
18D49
330
18C7A
100
AcDbEntity
  8
部品1
100
AcDbLine
 10
2151.970589276519
 20
3182.494269174477
 30
0.0
 11
2151.970589276523
 21
3154.494269174477
 31
0.0
  0
LINE
  5
18D4A
330
18C7A
100
AcDbEntity
  8
部品1
100
AcDbLine
 10
1731.970589276519
 20
3182.494269174477
 30
0.0
 11
1731.970589276523
 21
3154.494269174477
 31
0.0
  0
LINE
  5
18D4B
330
18C7A
100
AcDbEntity
  8
部品1
100
AcDbLine
 10
1311.970589276519
 20
3182.494269174477
 30
0.0
 11
1311.970589276523
 21
3154.494269174477
 31
0.0
  0
LINE
  5
18D4C
330
18C7A
100
AcDbEntity
  8
部品1
100
AcDbLine
 10
891.9705892765195
 20
3182.494269174477
 30
0.0
 11
891.9705892765232
 21
3154.494269174477
 31
0.0
  0
LINE
  5
18D4D
330
18C7A
100
AcDbEntity
  8
部品1
100
AcDbLine
 10
471.9705892765232
 20
1392.494269174596
 30
0.0
 11
471.9705892765232
 21
1420.494269174596
 31
0.0
  0
LINE
  5
18D4E
330
18C7A
100
AcDbEntity
  8
部品1
100
AcDbLine
 10
444.9705892765305
 20
1420.494269174558
 30
0.0
 11
3858.970589276556
 21
1420.494269174596
 31
0.0
  0
LINE
  5
18D4F
330
18C7A
100
AcDbEntity
  8
部品1
100
AcDbLine
 10
3831.970589276556
 20
1392.494269174596
 30
0.0
 11
3831.970589276556
 21
1420.494269174596
 31
0.0
  0
LINE
  5
18D50
330
18C7A
100
AcDbEntity
  8
部品1
100
AcDbLine
 10
3858.970589276556
 20
1447.494269174593
 30
0.0
 11
3886.970589276556
 21
1447.494269174593
 31
0.0
  0
LINE
  5
18D51
330
18C7A
100
AcDbEntity
  8
部品1
100
AcDbLine
 10
3858.970589276556
 20
1867.494269174607
 30
0.0
 11
3886.970589276556
 21
1867.494269174607
 31
0.0
  0
LINE
  5
18D52
330
18C7A
100
AcDbEntity
  8
部品1
100
AcDbLine
 10
444.9705892765305
 20
1867.49426917448
 30
0.0
 11
416.9705892765305
 21
1867.49426917448
 31
0.0
  0
LINE
  5
18D53
330
18C7A
100
AcDbEntity
  8
部品1
100
AcDbLine
 10
3830.470589276541
 20
1867.49426917458
 30
0.0
 11
473.4705892765396
 21
1867.49426917448
 31
0.0
  0
LINE
  5
18D54
330
18C7A
100
AcDbEntity
  8
部品1
100
AcDbLine
 10
3830.470589276541
 20
2287.49426917458
 30
0.0
 11
473.4705892765396
 21
2287.49426917448
 31
0.0
  0
LINE
  5
18D55
330
18C7A
100
AcDbEntity
  8
部品1
100
AcDbLine
 10
444.9705892765305
 20
2287.49426917448
 30
0.0
 11
416.9705892765305
 21
2287.49426917448
 31
0.0
  0
LINE
  5
18D56
330
18C7A
100
AcDbEntity
  8
部品1
100
AcDbLine
 10
3858.970589276556
 20
2287.494269174608
 30
0.0
 11
3886.970589276556
 21
2287.494269174608
 31
0.0
  0
LINE
  5
18D57
330
18C7A
100
AcDbEntity
  8
部品1
 48
50.0
100
AcDbLine
 10
2151.970589276551
 20
2702.494269174586
 30
0.0
 11
2151.970589276581
 21
1448.994269174494
 31
0.0
  0
LINE
  5
18D58
330
18C7A
100
AcDbEntity
  8
破線
 48
10.0
100
AcDbLine
 10
2959.470589276535
 20
1472.494269174522
 30
0.0
 11
2176.970589276532
 21
1472.494269174505
 31
0.0
  0
LINE
  5
18D59
330
18C7A
100
AcDbEntity
  8
破線
 48
10.0
100
AcDbLine
 10
3009.47058927653
 20
1448.994269174509
 30
0.0
 11
3009.47058927653
 21
2702.494269174615
 31
0.0
  0
LINE
  5
18D5A
330
18C7A
100
AcDbEntity
  8
破線
 48
10.0
100
AcDbLine
 10
2959.470589276535
 20
1448.994269174505
 30
0.0
 11
2959.470589276531
 21
2702.494269174615
 31
0.0
  0
LINE
  5
18D5B
330
18C7A
100
AcDbEntity
  8
破線
 48
10.0
100
AcDbLine
 10
1344.47058927653
 20
1448.994269174509
 30
0.0
 11
1344.47058927653
 21
2702.494269174615
 31
0.0
  0
LINE
  5
18D5C
330
18C7A
100
AcDbEntity
  8
破線
 48
10.0
100
AcDbLine
 10
1294.470589276534
 20
1448.994269174505
 30
0.0
 11
1294.47058927653
 21
2702.494269174615
 31
0.0
  0
DIMENSION
  5
18D5D
330
18C7A
100
AcDbEntity
  8
寸法
100
AcDbDimension
  2
*D13
 10
1451.234916278005
 20
2488.887829538828
 30
0.0
 11
916.0604668248634
 21
2488.887829538828
 31
0.0
 12
-3742.925985830444
 22
-6453.628869860112
 32
0.0
 70
   128
 71
     5
 42
1062.99999999993
  3
INABA_S40G
100
AcDbAlignedDimension
 13
445.4705892765559
 23
2702.494269174505
 33
0.0
 14
1508.470589276486
 24
2702.494269174558
 34
0.0
100
AcDbRotatedDimension
1001
ACAD
1000
DSTYLE
1002
{
1002
}
  0
LINE
  5
18D5E
330
18C7A
100
AcDbEntity
  8
破線
 48
10.0
100
AcDbLine
 10
1294.470589276534
 20
1472.494269174469
 30
0.0
 11
496.9705892765414
 21
1472.494269174476
 31
0.0
  0
LINE
  5
18D5F
330
18C7A
100
AcDbEntity
  8
部品1
100
AcDbLine
 10
3831.970589276556
 20
3182.494269174604
 30
0.0
 11
3831.970589276556
 21
3154.494269174604
 31
0.0
  0
LINE
  5
18D60
330
18C7A
100
AcDbEntity
  8
部品1
100
AcDbLine
 10
3831.970589276556
 20
3182.494269174626
 30
0.0
 11
3831.970589276556
 21
3154.494269174626
 31
0.0
  0
LINE
  5
18D61
330
18C7A
100
AcDbEntity
  8
部品1
100
AcDbLine
 10
3858.970589276556
 20
3127.494269174607
 30
0.0
 11
3886.970589276556
 21
3127.494269174607
 31
0.0
  0
LINE
  5
18D62
330
18C7A
100
AcDbEntity
  8
部品1
100
AcDbLine
 10
3858.970589276556
 20
2707.494269174608
 30
0.0
 11
3886.970589276556
 21
2707.494269174608
 31
0.0
  0
LINE
  5
18D63
330
18C7A
100
AcDbEntity
  8
部品1
100
AcDbLine
 10
3858.470589276556
 20
3152.494269174604
 30
0.0
 11
3858.470589276556
 21
2702.494269174608
 31
0.0
  0
LINE
  5
18D64
330
18C7A
100
AcDbEntity
  8
部品1
100
AcDbLine
 10
3886.970589276533
 20
1447.494269174593
 30
0.0
 11
3886.970589276531
 21
1392.494269174596
 31
0.0
  0
LINE
  5
18D65
330
18C7A
100
AcDbEntity
  8
部品1
 48
50.0
100
AcDbLine
 10
3830.470589276556
 20
1448.994269174596
 30
0.0
 11
3858.970589276554
 21
1420.494269174596
 31
0.0
  0
LINE
  5
18D66
330
18C7A
100
AcDbEntity
  8
部品1
100
AcDbLine
 10
3886.970589276531
 20
1392.494269174596
 30
0.0
 11
3835.970589276531
 21
1392.494269174596
 31
0.0
  0
LINE
  5
18D67
330
18C7A
100
AcDbEntity
  8
部品1
100
AcDbLine
 10
3858.970589276533
 20
1447.494269174593
 30
0.0
 11
3886.970589276531
 21
1447.494269174593
 31
0.0
  0
LINE
  5
18D68
330
18C7A
100
AcDbEntity
  8
部品1
100
AcDbLine
 10
3886.970589276556
 20
3182.494269174604
 30
0.0
 11
3886.970589276531
 21
1392.494269174596
 31
0.0
  0
DIMENSION
  5
18D69
330
18C7A
100
AcDbEntity
  8
寸法
100
AcDbDimension
  2
*D12
 10
4534.396935010967
 20
1447.494269174593
 30
0.0
 11
4534.396935010965
 21
2287.4942691746
 31
0.0
 12
-3742.925985830444
 22
-6453.628869860112
 32
0.0
 70
   128
  1
4X420=<>
 71
     5
 42
1680.000000000014
  3
INABA_S40G
100
AcDbAlignedDimension
 13
3886.970589276556
 23
3127.494269174607
 33
0.0
 14
3886.970589276531
 24
1447.494269174593
 34
0.0
 50
90.0
100
AcDbRotatedDimension
1001
ACAD
1000
DSTYLE
1002
{
1002
}
  0
LINE
  5
18D6A
330
18C7A
100
AcDbEntity
  8
部品1
100
AcDbLine
 10
3858.970589276556
 20
3154.494269174604
 30
0.0
 11
3858.970589276534
 21
1420.494269174596
 31
0.0
  0
DIMENSION
  5
18D6B
330
18C7A
100
AcDbEntity
  8
寸法
100
AcDbDimension
  2
*D11
 10
4213.82831513858
 20
2607.276453505718
 30
0.0
 11
4113.828315138579
 21
2832.276453505718
 31
0.0
 12
-3742.925985830444
 22
-6453.628869860112
 32
0.0
 71
     5
 42
449.9999999999963
  3
INABA_S40G
100
AcDbAlignedDimension
 13
3858.470589276556
 23
3152.494269174604
 33
0.0
 14
3858.470589276556
 24
2702.494269174608
 34
0.0
 50
90.0
100
AcDbRotatedDimension
1001
ACAD
1000
DSTYLE
1002
{
1002
}
  0
LINE
  5
18D6C
330
18C7A
100
AcDbEntity
  8
部品1
100
AcDbLine
 10
3830.470589276547
 20
2702.494269174608
 30
0.0
 11
3830.470589276556
 21
1448.994269174596
 31
0.0
  0
LINE
  5
18D6D
330
18C7A
100
AcDbEntity
  8
破線
 48
10.0
100
AcDbLine
 10
3806.970589276549
 20
2702.494269174608
 30
0.0
 11
3806.970589276558
 21
1472.494269174593
 31
0.0
  0
LINE
  5
18D6E
330
18C7A
100
AcDbEntity
  8
部品1
100
AcDbLine
 10
2769.470589276556
 20
3146.494269174608
 30
0.0
 11
2794.470589276556
 21
3146.494269174611
 31
0.0
  0
LINE
  5
18D6F
330
18C7A
100
AcDbEntity
  8
部品1
100
AcDbLine
 10
2810.970589276556
 20
3172.494269174611
 30
0.0
 11
2816.970589276556
 21
3172.494269174611
 31
0.0
  0
LINE
  5
18D70
330
18C7A
100
AcDbEntity
  8
部品1
100
AcDbLine
 10
2816.970589276556
 20
3172.494269174611
 30
0.0
 11
2816.970589276556
 21
3154.494269174611
 31
0.0
  0
LINE
  5
18D71
330
18C7A
100
AcDbEntity
  8
部品1
100
AcDbLine
 10
2746.970589276556
 20
3172.494269174611
 30
0.0
 11
2752.970589276556
 21
3172.494269174611
 31
0.0
  0
LINE
  5
18D72
330
18C7A
100
AcDbEntity
  8
部品1
100
AcDbLine
 10
2746.970589276556
 20
3172.494269174611
 30
0.0
 11
2746.970589276556
 21
3154.494269174611
 31
0.0
  0
LINE
  5
18D73
330
18C7A
100
AcDbEntity
  8
部品1
100
AcDbLine
 10
2769.470589276556
 20
2702.494269174615
 30
0.0
 11
2794.470589276556
 21
2702.494269174615
 31
0.0
  0
LINE
  5
18D74
330
18C7A
100
AcDbEntity
  8
部品1
 48
50.0
100
AcDbLine
 10
2794.470589276556
 20
3154.494269174615
 30
0.0
 11
2794.470589276556
 21
2702.494269174615
 31
0.0
  0
LINE
  5
18D75
330
18C7A
100
AcDbEntity
  8
部品1
 48
50.0
100
AcDbLine
 10
2769.470589276554
 20
3154.494269174618
 30
0.0
 11
2769.470589276556
 21
2702.494269174615
 31
0.0
  0
LINE
  5
18D76
330
18C7A
100
AcDbEntity
  8
部品1
 48
50.0
100
AcDbLine
 10
2795.470589276556
 20
3152.494269174607
 30
0.0
 11
2795.470589276556
 21
2702.494269174615
 31
0.0
  0
LINE
  5
18D77
330
18C7A
100
AcDbEntity
  8
部品1
 48
50.0
100
AcDbLine
 10
2767.470589276556
 20
3152.494269174611
 30
0.0
 11
2767.470589276556
 21
2702.494269174615
 31
0.0
  0
LINE
  5
18D78
330
18C7A
100
AcDbEntity
  8
破線
 48
10.0
100
AcDbLine
 10
2176.97058927653
 20
1448.994269174509
 30
0.0
 11
2176.97058927653
 21
2702.494269174588
 31
0.0
  0
LINE
  5
18D79
330
18C7A
100
AcDbEntity
  8
破線
 48
10.0
100
AcDbLine
 10
2126.970589276534
 20
1448.994269174505
 30
0.0
 11
2126.970589276531
 21
2702.494269174586
 31
0.0
  0
LINE
  5
18D7A
330
18C7A
100
AcDbEntity
  8
部品1
100
AcDbLine
 10
2794.470589276556
 20
3154.494269174622
 30
0.0
 11
3858.970589276556
 21
3154.494269174604
 31
0.0
  0
LINE
  5
18D7B
330
18C7A
100
AcDbEntity
  8
細線
 48
50.0
100
AcDbLine
 10
3858.470589276556
 20
2702.494269174608
 30
0.0
 11
2795.470589276556
 21
3152.494269174607
 31
0.0
  0
LINE
  5
18D7C
330
18C7A
100
AcDbEntity
  8
部品1
100
AcDbLine
 10
2795.470589276555
 20
2702.494269174615
 30
0.0
 11
3858.470589276556
 21
2702.494269174608
 31
0.0
  0
LINE
  5
18D7D
330
18C7A
100
AcDbEntity
  8
部品1
100
AcDbLine
 10
2795.470589276556
 20
3152.494269174611
 30
0.0
 11
3858.470589276556
 21
3152.494269174604
 31
0.0
  0
LINE
  5
18D7E
330
18C7A
100
AcDbEntity
  8
細線
 48
50.0
100
AcDbLine
 10
3858.470589276556
 20
3152.494269174604
 30
0.0
 11
2795.470589276555
 21
2702.494269174615
 31
0.0
  0
DIMENSION
  5
18D7F
330
18C7A
100
AcDbEntity
  8
寸法
100
AcDbDimension
  2
*D10
 10
3801.234916278101
 20
2488.887829538937
 30
0.0
 11
3318.360544398907
 21
2488.887829538937
 31
0.0
 12
-3742.925985830444
 22
-6453.628869860112
 32
0.0
 70
   128
 71
     5
 42
1063.000000000012
  3
INABA_S40G
100
AcDbAlignedDimension
 13
2795.470589276555
 23
2702.494269174615
 33
0.0
 14
3858.470589276567
 24
2702.494269174608
 34
0.0
100
AcDbRotatedDimension
1001
ACAD
1000
DSTYLE
1002
{
1002
}
  0
LINE
  5
18D80
330
18C7A
100
AcDbEntity
  8
破線
 48
10.0
100
AcDbLine
 10
3806.970589276556
 20
1472.494269174594
 30
0.0
 11
3009.47058927653
 21
1472.494269174523
 31
0.0
  0
DIMENSION
  5
18D81
330
18C7A
100
AcDbEntity
  8
寸法
100
AcDbDimension
  2
*D9
 10
4534.396935010941
 20
1392.494269174596
 30
0.0
 11
4534.39693501094
 21
1084.008987800356
 31
0.0
 12
-3742.925985830444
 22
-6453.628869860112
 32
0.0
 70
   128
 71
     5
 42
54.99999999999636
  3
INABA_S40G
100
AcDbAlignedDimension
 13
3886.970589276531
 23
1447.494269174593
 33
0.0
 14
3886.970589276531
 24
1392.494269174596
 34
0.0
 50
90.0
100
AcDbRotatedDimension
1001
ACAD
1000
DSTYLE
1002
{
1002
}
  0
LINE
  5
18D82
330
18C7A
100
AcDbEntity
  8
部品1
100
AcDbLine
 10
471.9705892765196
 20
3182.494269174477
 30
0.0
 11
471.9705892765232
 21
3154.494269174477
 31
0.0
  0
LINE
  5
18D83
330
18C7A
100
AcDbEntity
  8
部品1
100
AcDbLine
 10
471.9705892765559
 20
3182.494269174509
 30
0.0
 11
471.9705892765559
 21
3154.494269174509
 31
0.0
  0
LINE
  5
18D84
330
18C7A
100
AcDbEntity
  8
部品1
100
AcDbLine
 10
444.9705892765232
 20
3127.49426917448
 30
0.0
 11
416.9705892765232
 21
3127.49426917448
 31
0.0
  0
LINE
  5
18D85
330
18C7A
100
AcDbEntity
  8
部品1
100
AcDbLine
 10
444.9705892765305
 20
2707.49426917448
 30
0.0
 11
416.9705892765305
 21
2707.49426917448
 31
0.0
  0
LINE
  5
18D86
330
18C7A
100
AcDbEntity
  8
部品1
 48
50.0
100
AcDbLine
 10
445.4705892765542
 20
3152.494269174506
 30
0.0
 11
445.4705892765559
 21
2702.494269174505
 31
0.0
  0
LINE
  5
18D87
330
18C7A
100
AcDbEntity
  8
部品1
 48
50.0
100
AcDbLine
 10
473.470589276545
 20
1448.994269174573
 30
0.0
 11
444.970589276545
 21
1420.494269174574
 31
0.0
  0
LINE
  5
18D88
330
18C7A
100
AcDbEntity
  8
部品1
100
AcDbLine
 10
471.9705892765232
 20
1392.494269174465
 30
0.0
 11
416.9705892765486
 21
1392.494269174465
 31
0.0
  0
LINE
  5
18D89
330
18C7A
100
AcDbEntity
  8
部品1
100
AcDbLine
 10
444.9705892765305
 20
1447.494269174429
 30
0.0
 11
416.9705892765469
 21
1447.494269174429
 31
0.0
  0
LINE
  5
18D8A
330
18C7A
100
AcDbEntity
  8
部品1
100
AcDbLine
 10
444.9705892765305
 20
1447.494269174465
 30
0.0
 11
416.9705892765469
 21
1447.494269174465
 31
0.0
  0
LINE
  5
18D8B
330
18C7A
100
AcDbEntity
  8
部品1
100
AcDbLine
 10
444.9705892765469
 20
1447.49426917448
 30
0.0
 11
416.9705892765469
 21
1447.49426917448
 31
0.0
  0
LINE
  5
18D8C
330
18C7A
100
AcDbEntity
  8
部品1
100
AcDbLine
 10
416.9705892765469
 20
1447.494269174429
 30
0.0
 11
416.9705892765486
 21
1392.494269174433
 31
0.0
  0
LINE
  5
18D8D
330
18C7A
100
AcDbEntity
  8
部品1
100
AcDbLine
 10
416.9705892765196
 20
3182.494269174477
 30
0.0
 11
416.9705892765486
 21
1392.494269174465
 31
0.0
  0
LINE
  5
18D8E
330
18C7A
100
AcDbEntity
  8
部品1
100
AcDbLine
 10
444.9705892765305
 20
1420.494269174556
 30
0.0
 11
444.9705892765559
 21
3154.494269174509
 31
0.0
  0
LINE
  5
18D8F
330
18C7A
100
AcDbEntity
  8
部品1
100
AcDbLine
 10
473.4705892765323
 20
2702.494269174608
 30
0.0
 11
473.470589276545
 21
1448.994269174571
 31
0.0
  0
LINE
  5
18D90
330
18C7A
100
AcDbEntity
  8
破線
 48
10.0
100
AcDbLine
 10
496.9705892765305
 20
2702.494269174608
 30
0.0
 11
496.9705892765451
 21
1472.494269174476
 31
0.0
  0
DIMENSION
  5
18D91
330
18C7A
100
AcDbEntity
  8
寸法
100
AcDbDimension
  2
*D8
 10
3886.970589276531
 20
410.7433333855515
 30
0.0
 11
2168.197775309287
 21
410.7433333855515
 31
0.0
 12
-3742.925985830444
 22
-6453.628869860112
 32
0.0
 70
   128
 71
     5
 42
3469.999999999982
  3
INABA_S40G
100
AcDbAlignedDimension
 13
416.9705892765486
 23
1392.494269174433
 33
0.0
 14
3886.970589276531
 24
1392.49426917456
 34
0.0
100
AcDbRotatedDimension
1001
ACAD
1000
DSTYLE
1002
{
1070
   341
1005
0
1002
}
  0
LINE
  5
18D92
330
18C7A
100
AcDbEntity
  8
部品1
100
AcDbLine
 10
444.9705892765559
 20
3154.494269174624
 30
0.0
 11
1509.470589276487
 21
3154.494269174626
 31
0.0
  0
LINE
  5
18D93
330
18C7A
100
AcDbEntity
  8
部品1
100
AcDbLine
 10
3886.970589276531
 20
1392.494269174596
 30
0.0
 11
3411.970589276556
 21
1392.494269174582
 31
0.0
  0
LINE
  5
18D94
330
18C7A
100
AcDbEntity
  8
部品1
100
AcDbLine
 10
416.9705892765559
 20
3182.494269174509
 30
0.0
 11
3886.970589276556
 21
3182.494269174604
 31
0.0
  0
LINE
  5
18D95
330
18C7A
100
AcDbEntity
  8
部品1
100
AcDbLine
 10
445.4705892765559
 20
2702.494269174509
 30
0.0
 11
1508.470589276487
 21
2702.494269174558
 31
0.0
  0
LINE
  5
18D96
330
18C7A
100
AcDbEntity
  8
細線
 48
50.0
100
AcDbLine
 10
2767.470589276556
 20
3152.494269174611
 30
0.0
 11
1536.470589276487
 21
2702.494269174558
 31
0.0
  0
LINE
  5
18D97
330
18C7A
100
AcDbEntity
  8
部品1
100
AcDbLine
 10
445.4705892765542
 20
3152.494269174509
 30
0.0
 11
1508.470589276485
 21
3152.494269174558
 31
0.0
  0
LINE
  5
18D98
330
18C7A
100
AcDbEntity
  8
細線
 48
50.0
100
AcDbLine
 10
2767.470589276554
 20
2702.494269174615
 30
0.0
 11
1536.470589276485
 21
3152.494269174558
 31
0.0
  0
LINE
  5
18D99
330
18C7A
100
AcDbEntity
  8
破線
 48
10.0
100
AcDbLine
 10
2126.970589276534
 20
1472.494269174502
 30
0.0
 11
1344.47058927653
 21
1472.494269174473
 31
0.0
  0
LINE
  5
18D9A
330
18C7A
100
AcDbEntity
  8
部品1
100
AcDbLine
 10
3830.470589276556
 20
1448.994269174596
 30
0.0
 11
473.4705892764487
 21
1448.994269174476
 31
0.0
  0
DIMENSION
  5
18D9B
330
18C7A
100
AcDbEntity
  8
寸法
100
AcDbDimension
  2
*D7
 10
471.970589276555
 20
3698.302488799491
 30
0.0
 11
108.4853079022819
 21
3698.302488799491
 31
0.0
 12
-3742.925985830444
 22
-6453.628869860112
 32
0.0
 70
   128
 71
     5
 42
55.00000000003456
  3
INABA_S40G
100
AcDbAlignedDimension
 13
416.9705892765205
 23
3182.494269174509
 33
0.0
 14
471.970589276555
 24
3182.494269174509
 34
0.0
100
AcDbRotatedDimension
1001
ACAD
1000
DSTYLE
1002
{
1002
}
  0
DIMENSION
  5
18D9C
330
18C7A
100
AcDbEntity
  8
寸法
100
AcDbDimension
  2
*D6
 10
4534.396935010967
 20
3127.494269174607
 30
0.0
 11
4534.396935010965
 21
3490.979550548844
 31
0.0
 12
-3742.925985830444
 22
-6453.628869860112
 32
0.0
 70
   128
 71
     5
 42
54.99999999999636
  3
INABA_S40G
100
AcDbAlignedDimension
 13
3886.970589276556
 23
3182.494269174604
 33
0.0
 14
3886.970589276556
 24
3127.494269174607
 34
0.0
 50
90.0
100
AcDbRotatedDimension
1001
ACAD
1000
DSTYLE
1002
{
1002
}
  0
DIMENSION
  5
18D9D
330
18C7A
100
AcDbEntity
  8
寸法
100
AcDbDimension
  2
*D5
 10
3886.970589276556
 20
3698.302488799589
 30
0.0
 11
4195.455870650794
 21
3698.302488799589
 31
0.0
 12
-3742.925985830444
 22
-6453.628869860112
 32
0.0
 70
   128
 71
     5
 42
55.0
  3
INABA_S40G
100
AcDbAlignedDimension
 13
3831.970589276556
 23
3182.494269174604
 33
0.0
 14
3886.970589276556
 24
3182.494269174604
 34
0.0
100
AcDbRotatedDimension
1001
ACAD
1000
DSTYLE
1002
{
1002
}
  0
DIMENSION
  5
18D9E
330
18C7A
100
AcDbEntity
  8
寸法
100
AcDbDimension
  2
*D4
 10
3831.970589276556
 20
3698.302488799607
 30
0.0
 11
2151.970589276555
 21
3698.302488799607
 31
0.0
 12
-3742.925985830444
 22
-6453.628869860112
 32
0.0
 70
   128
  1
8X420=<>
 71
     5
 42
3360.000000000001
  3
INABA_S40G
100
AcDbAlignedDimension
 13
471.970589276555
 23
3182.494269174509
 33
0.0
 14
3831.970589276556
 24
3182.494269174604
 34
0.0
100
AcDbRotatedDimension
1001
ACAD
1000
DSTYLE
1002
{
1002
}
  0
DIMENSION
  5
18D9F
330
18C7A
100
AcDbEntity
  8
寸法
100
AcDbDimension
  2
*D3
 10
4899.503876750603
 20
1392.494269174596
 30
0.0
 11
4899.503876750601
 21
2287.4942691746
 31
0.0
 12
-3742.925985830444
 22
-6453.628869860112
 32
0.0
 70
   128
 71
     5
 42
1790.000000000007
  3
INABA_S40G
100
AcDbAlignedDimension
 13
3886.970589276556
 23
3182.494269174604
 33
0.0
 14
3886.970589276531
 24
1392.494269174596
 34
0.0
 50
90.0
100
AcDbRotatedDimension
1001
ACAD
1000
DSTYLE
1002
{
1002
}
  0
ENDBLK
  5
18DA1
330
18C7A
100
AcDbEntity
  8
0
 48
50.0
100
AcDbBlockEnd
  0
BLOCK
  5
1C4CB
330
1C4CA
100
AcDbEntity
  8
0
 48
50.0
100
AcDbBlockBegin
  2
_NONE
 70
     0
 10
0.0
 20
0.0
 30
0.0
  3
_NONE
  1

  0
CIRCLE
  5
1C4CC
330
1C4CA
100
AcDbEntity
  8
0
  6
ByBlock
 62
     0
 48
50.0
100
AcDbCircle
 10
0.0
 20
0.0
 30
0.0
 40
0.25
  0
ENDBLK
  5
1C4CD
330
1C4CA
100
AcDbEntity
  8
0
 48
50.0
100
AcDbBlockEnd
  0
BLOCK
  5
20DEE
330
20DE2
100
AcDbEntity
  8
0
 48
50.0
100
AcDbBlockBegin
  2
*D19
 70
     1
 10
0.0
 20
0.0
 30
0.0
  3
*D19
  1

  0
LINE
  5
275E7
330
20DE2
100
AcDbEntity
  8
寸法
 62
     0
 48
50.0
370
    -2
100
AcDbLine
 10
11553.6
 20
7742.21928541168
 30
0.0
 11
11553.6
 21
8740.439607470602
 31
0.0
  0
LINE
  5
275E8
330
20DE2
100
AcDbEntity
  8
寸法
 62
     0
 48
50.0
370
    -2
100
AcDbLine
 10
11598.6
 20
8468.485743505592
 30
0.0
 11
11598.6
 21
8740.439607470602
 31
0.0
  0
LINE
  5
275E9
330
20DE2
100
AcDbEntity
  8
寸法
 62
     0
 48
50.0
370
    -2
100
AcDbLine
 10
11553.6
 20
8680.439607470601
 30
0.0
 11
11453.6
 21
8680.439607470601
 31
0.0
  0
LINE
  5
275EA
330
20DE2
100
AcDbEntity
  8
寸法
 62
     0
 48
50.0
370
    -2
100
AcDbLine
 10
11598.6
 20
8680.439607470601
 30
0.0
 11
11935.94924240492
 21
8680.439607470601
 31
0.0
  0
LINE
  5
275EB
330
20DE2
100
AcDbEntity
  8
寸法
 62
     0
 48
50.0
370
    -2
100
AcDbLine
 10
11553.6
 20
8680.439607470601
 30
0.0
 11
11598.6
 21
8680.439607470601
 31
0.0
  0
INSERT
  5
275EC
330
20DE2
100
AcDbEntity
  8
寸法
 62
     0
 48
50.0
370
    -2
100
AcDbBlockReference
  2
_DOTSMALL
 10
11553.6
 20
8680.439607470601
 30
0.0
 41
100.0
 42
100.0
 43
100.0
  0
INSERT
  5
275ED
330
20DE2
100
AcDbEntity
  8
寸法
 62
     0
 48
50.0
370
    -2
100
AcDbBlockReference
  2
_DOTSMALL
 10
11598.6
 20
8680.439607470601
 30
0.0
 41
100.0
 42
100.0
 43
100.0
 50
180.0
  0
MTEXT
  5
275EE
330
20DE2
100
AcDbEntity
  8
寸法
 62
     7
 48
50.0
100
AcDbMText
 10
11869.77462120246
 20
8780.439607470603
 30
0.0
 40
120.0
 41
0.0
 71
     5
 72
     1
  1
\A1;a
  7
STYLE1
 73
     1
 44
1.0
1001
ACAD
1000
MTEXTBEGIN
1070
    73
1070
     1
1070
    44
1040
1.0
1070
    74
1070
     0
1000
MTEXTEND
  0
POINT
  5
275EF
330
20DE2
100
AcDbEntity
  8
DEFPOINTS
 62
     0
 48
50.0
100
AcDbPoint
 10
11553.6
 20
7722.21928541168
 30
0.0
  0
POINT
  5
275F0
330
20DE2
100
AcDbEntity
  8
DEFPOINTS
 62
     0
 48
50.0
100
AcDbPoint
 10
11598.6
 20
8448.485743505591
 30
0.0
  0
POINT
  5
275F1
330
20DE2
100
AcDbEntity
  8
DEFPOINTS
 62
     0
 48
50.0
100
AcDbPoint
 10
11598.6
 20
8680.439607470601
 30
0.0
  0
ENDBLK
  5
20DEF
330
20DE2
100
AcDbEntity
  8
0
 48
50.0
100
AcDbBlockEnd
  0
BLOCK
  5
20E08
330
20DFC
100
AcDbEntity
  8
0
 48
50.0
100
AcDbBlockBegin
  2
*D20
 70
     1
 10
0.0
 20
0.0
 30
0.0
  3
*D20
  1

  0
LINE
  5
275DC
330
20DFC
100
AcDbEntity
  8
寸法
 62
     0
 48
50.0
370
    -2
100
AcDbLine
 10
4848.600000000008
 20
8468.485743505594
 30
0.0
 11
4848.600000000008
 21
8740.439607470602
 31
0.0
  0
LINE
  5
275DD
330
20DFC
100
AcDbEntity
  8
寸法
 62
     0
 48
50.0
370
    -2
100
AcDbLine
 10
4893.600000000001
 20
7742.21928541168
 30
0.0
 11
4893.600000000001
 21
8740.439607470602
 31
0.0
  0
LINE
  5
275DE
330
20DFC
100
AcDbEntity
  8
寸法
 62
     0
 48
50.0
370
    -2
100
AcDbLine
 10
4893.600000000001
 20
8680.439607470601
 30
0.0
 11
4993.6
 21
8680.439607470601
 31
0.0
  0
LINE
  5
275DF
330
20DFC
100
AcDbEntity
  8
寸法
 62
     0
 48
50.0
370
    -2
100
AcDbLine
 10
4848.600000000008
 20
8680.439607470601
 30
0.0
 11
4511.250757595083
 21
8680.439607470601
 31
0.0
  0
LINE
  5
275E0
330
20DFC
100
AcDbEntity
  8
寸法
 62
     0
 48
50.0
370
    -2
100
AcDbLine
 10
4893.600000000001
 20
8680.439607470601
 30
0.0
 11
4848.600000000008
 21
8680.439607470601
 31
0.0
  0
INSERT
  5
275E1
330
20DFC
100
AcDbEntity
  8
寸法
 62
     0
 48
50.0
370
    -2
100
AcDbBlockReference
  2
_DOTSMALL
 10
4893.600000000001
 20
8680.439607470601
 30
0.0
 41
100.0
 42
100.0
 43
100.0
 50
180.0
  0
INSERT
  5
275E2
330
20DFC
100
AcDbEntity
  8
寸法
 62
     0
 48
50.0
370
    -2
100
AcDbBlockReference
  2
_DOTSMALL
 10
4848.600000000008
 20
8680.439607470601
 30
0.0
 41
100.0
 42
100.0
 43
100.0
  0
MTEXT
  5
275E3
330
20DFC
100
AcDbEntity
  8
寸法
 62
     7
 48
50.0
100
AcDbMText
 10
4577.425378797541
 20
8780.439607470603
 30
0.0
 40
120.0
 41
0.0
 71
     5
 72
     1
  1
\A1;a
  7
STYLE1
 73
     1
 44
1.0
1001
ACAD
1000
MTEXTBEGIN
1070
    73
1070
     1
1070
    44
1040
1.0
1070
    74
1070
     0
1000
MTEXTEND
  0
POINT
  5
275E4
330
20DFC
100
AcDbEntity
  8
DEFPOINTS
 62
     0
 48
50.0
100
AcDbPoint
 10
4848.600000000008
 20
8448.485743505592
 30
0.0
  0
POINT
  5
275E5
330
20DFC
100
AcDbEntity
  8
DEFPOINTS
 62
     0
 48
50.0
100
AcDbPoint
 10
4893.600000000001
 20
7722.21928541168
 30
0.0
  0
POINT
  5
275E6
330
20DFC
100
AcDbEntity
  8
DEFPOINTS
 62
     0
 48
50.0
100
AcDbPoint
 10
4893.600000000001
 20
8680.439607470601
 30
0.0
  0
ENDBLK
  5
20E09
330
20DFC
100
AcDbEntity
  8
0
 48
50.0
100
AcDbBlockEnd
  0
BLOCK
  5
2274E
330
22742
100
AcDbEntity
  8
0
 48
50.0
100
AcDbBlockBegin
  2
*D21
 70
     1
 10
0.0
 20
0.0
 30
0.0
  3
*D21
  1

  0
LINE
  5
275D1
330
22742
100
AcDbEntity
  8
寸法
 62
     0
 48
50.0
370
    -2
100
AcDbLine
 10
4250.665006330071
 20
7797.219285411687
 30
0.0
 11
3958.721909610677
 21
7797.219285411687
 31
0.0
  0
LINE
  5
275D2
330
22742
100
AcDbEntity
  8
寸法
 62
     0
 48
50.0
370
    -2
100
AcDbLine
 10
4873.6
 20
7722.21928541168
 30
0.0
 11
3958.721909610677
 21
7722.21928541168
 31
0.0
  0
LINE
  5
275D3
330
22742
100
AcDbEntity
  8
寸法
 62
     0
 48
50.0
370
    -2
100
AcDbLine
 10
4018.721909610676
 20
7797.219285411687
 30
0.0
 11
4018.721909610676
 21
7897.219285411686
 31
0.0
  0
LINE
  5
275D4
330
22742
100
AcDbEntity
  8
寸法
 62
     0
 48
50.0
370
    -2
100
AcDbLine
 10
4018.721909610676
 20
7722.21928541168
 30
0.0
 11
4018.721909610676
 21
7622.21928541168
 31
0.0
  0
LINE
  5
275D5
330
22742
100
AcDbEntity
  8
寸法
 62
     0
 48
50.0
370
    -2
100
AcDbLine
 10
4018.721909610676
 20
7797.219285411687
 30
0.0
 11
4018.721909610676
 21
7722.21928541168
 31
0.0
  0
INSERT
  5
275D6
330
22742
100
AcDbEntity
  8
寸法
 62
     0
 48
50.0
370
    -2
100
AcDbBlockReference
  2
_DOTSMALL
 10
4018.721909610676
 20
7797.219285411687
 30
0.0
 41
100.0
 42
100.0
 43
100.0
 50
270.0
  0
INSERT
  5
275D7
330
22742
100
AcDbEntity
  8
寸法
 62
     0
 48
50.0
370
    -2
100
AcDbBlockReference
  2
_DOTSMALL
 10
4018.721909610676
 20
7722.21928541168
 30
0.0
 41
100.0
 42
100.0
 43
100.0
 50
90.0
  0
MTEXT
  5
275D8
330
22742
100
AcDbEntity
  8
寸法
 62
     7
 48
50.0
100
AcDbMText
 10
3918.721909610675
 20
7759.719285411684
 30
0.0
 40
120.0
 41
0.0
 71
     5
 72
     1
  1
\A1;c
  7
STYLE1
 11
0.0000000000000001
 21
1.0
 31
0.0
 73
     1
 44
1.0
1001
ACAD
1000
MTEXTBEGIN
1070
    73
1070
     1
1070
    44
1040
1.0
1070
    74
1070
     0
1000
MTEXTEND
  0
POINT
  5
275D9
330
22742
100
AcDbEntity
  8
DEFPOINTS
 62
     0
 48
50.0
100
AcDbPoint
 10
4270.665006330071
 20
7797.219285411687
 30
0.0
  0
POINT
  5
275DA
330
22742
100
AcDbEntity
  8
DEFPOINTS
 62
     0
 48
50.0
100
AcDbPoint
 10
4893.600000000001
 20
7722.21928541168
 30
0.0
  0
POINT
  5
275DB
330
22742
100
AcDbEntity
  8
DEFPOINTS
 62
     0
 48
50.0
100
AcDbPoint
 10
4018.721909610676
 20
7722.21928541168
 30
0.0
  0
ENDBLK
  5
2274F
330
22742
100
AcDbEntity
  8
0
 48
50.0
100
AcDbBlockEnd
  0
BLOCK
  5
22768
330
2275C
100
AcDbEntity
  8
0
 48
50.0
100
AcDbBlockBegin
  2
*D22
 70
     1
 10
0.0
 20
0.0
 30
0.0
  3
*D22
  1

  0
LINE
  5
275C6
330
2275C
100
AcDbEntity
  8
寸法
 62
     0
 48
50.0
370
    -2
100
AcDbLine
 10
4873.6
 20
6342.219285411681
 30
0.0
 11
3958.721909610677
 21
6342.219285411681
 31
0.0
  0
LINE
  5
275C7
330
2275C
100
AcDbEntity
  8
寸法
 62
     0
 48
50.0
370
    -2
100
AcDbLine
 10
4250.665006330074
 20
6287.219285411707
 30
0.0
 11
3958.721909610677
 21
6287.219285411707
 31
0.0
  0
LINE
  5
275C8
330
2275C
100
AcDbEntity
  8
寸法
 62
     0
 48
50.0
370
    -2
100
AcDbLine
 10
4018.721909610676
 20
6342.219285411681
 30
0.0
 11
4018.721909610676
 21
6442.219285411681
 31
0.0
  0
LINE
  5
275C9
330
2275C
100
AcDbEntity
  8
寸法
 62
     0
 48
50.0
370
    -2
100
AcDbLine
 10
4018.721909610676
 20
6287.219285411707
 30
0.0
 11
4018.721909610676
 21
6187.219285411707
 31
0.0
  0
LINE
  5
275CA
330
2275C
100
AcDbEntity
  8
寸法
 62
     0
 48
50.0
370
    -2
100
AcDbLine
 10
4018.721909610676
 20
6342.219285411681
 30
0.0
 11
4018.721909610676
 21
6287.219285411707
 31
0.0
  0
INSERT
  5
275CB
330
2275C
100
AcDbEntity
  8
寸法
 62
     0
 48
50.0
370
    -2
100
AcDbBlockReference
  2
_DOTSMALL
 10
4018.721909610676
 20
6342.219285411681
 30
0.0
 41
100.0
 42
100.0
 43
100.0
 50
270.0
  0
INSERT
  5
275CC
330
2275C
100
AcDbEntity
  8
寸法
 62
     0
 48
50.0
370
    -2
100
AcDbBlockReference
  2
_DOTSMALL
 10
4018.721909610676
 20
6287.219285411707
 30
0.0
 41
100.0
 42
100.0
 43
100.0
 50
90.0
  0
MTEXT
  5
275CD
330
2275C
100
AcDbEntity
  8
寸法
 62
     7
 48
50.0
100
AcDbMText
 10
3918.721909610676
 20
6314.719285411695
 30
0.0
 40
120.0
 41
0.0
 71
     5
 72
     1
  1
\A1;b
  7
STYLE1
 11
0.0000000000000001
 21
1.0
 31
0.0
 73
     1
 44
1.0
1001
ACAD
1000
MTEXTBEGIN
1070
    73
1070
     1
1070
    44
1040
1.0
1070
    74
1070
     0
1000
MTEXTEND
  0
POINT
  5
275CE
330
2275C
100
AcDbEntity
  8
DEFPOINTS
 62
     0
 48
50.0
100
AcDbPoint
 10
4893.600000000001
 20
6342.219285411681
 30
0.0
  0
POINT
  5
275CF
330
2275C
100
AcDbEntity
  8
DEFPOINTS
 62
     0
 48
50.0
100
AcDbPoint
 10
4270.665006330075
 20
6287.219285411707
 30
0.0
  0
POINT
  5
275D0
330
2275C
100
AcDbEntity
  8
DEFPOINTS
 62
     0
 48
50.0
100
AcDbPoint
 10
4018.721909610676
 20
6287.219285411707
 30
0.0
  0
ENDBLK
  5
22769
330
2275C
100
AcDbEntity
  8
0
 48
50.0
100
AcDbBlockEnd
  0
BLOCK
  5
240CF
330
240C4
100
AcDbEntity
  8
0
 48
50.0
100
AcDbBlockBegin
  2
*D23
 70
     1
 10
0.0
 20
0.0
 30
0.0
  3
*D23
  1

  0
LINE
  5
275A8
330
240C4
100
AcDbEntity
  8
寸法
 62
     0
 48
50.0
370
    -2
100
AcDbLine
 10
11553.6
 20
7177.219285411718
 30
0.0
 11
11553.6
 21
7331.817898509791
 31
0.0
  0
LINE
  5
275A9
330
240C4
100
AcDbEntity
  8
寸法
 62
     0
 48
50.0
370
    -2
100
AcDbLine
 10
11433.6
 20
7177.219285411713
 30
0.0
 11
11433.6
 21
7331.817898509791
 31
0.0
  0
LINE
  5
275AA
330
240C4
100
AcDbEntity
  8
寸法
 62
     0
 48
50.0
370
    -2
100
AcDbLine
 10
11433.6
 20
7271.817898509791
 30
0.0
 11
11553.6
 21
7271.817898509791
 31
0.0
  0
LINE
  5
275AB
330
240C4
100
AcDbEntity
  8
寸法
 62
     0
 48
50.0
370
    -2
100
AcDbLine
 10
11553.6
 20
7271.817898509791
 30
0.0
 11
11959.7062992126
 21
7271.817898509791
 31
0.0
  0
INSERT
  5
275AC
330
240C4
100
AcDbEntity
  8
寸法
 62
     0
 48
50.0
370
    -2
100
AcDbBlockReference
  2
_DOTSMALL
 10
11433.6
 20
7271.817898509791
 30
0.0
 41
100.0
 42
100.0
 43
100.0
 50
180.0
  0
INSERT
  5
275AD
330
240C4
100
AcDbEntity
  8
寸法
 62
     0
 48
50.0
370
    -2
100
AcDbBlockReference
  2
_DOTSMALL
 10
11553.6
 20
7271.817898509791
 30
0.0
 41
100.0
 42
100.0
 43
100.0
  0
MTEXT
  5
275AE
330
240C4
100
AcDbEntity
  8
寸法
 62
     7
 48
50.0
100
AcDbMText
 10
11823.65905511811
 20
7371.829709533414
 30
0.0
 40
120.0
 41
0.0
 71
     5
 72
     1
  1
\A1;120
  7
STYLE1
 73
     1
 44
1.0
1001
ACAD
1000
MTEXTBEGIN
1070
    73
1070
     1
1070
    44
1040
1.0
1070
    74
1070
     0
1000
MTEXTEND
  0
POINT
  5
275AF
330
240C4
100
AcDbEntity
  8
DEFPOINTS
 62
     0
 48
50.0
100
AcDbPoint
 10
11553.6
 20
7157.219285411717
 30
0.0
  0
POINT
  5
275B0
330
240C4
100
AcDbEntity
  8
DEFPOINTS
 62
     0
 48
50.0
100
AcDbPoint
 10
11433.6
 20
7157.219285411713
 30
0.0
  0
POINT
  5
275B1
330
240C4
100
AcDbEntity
  8
DEFPOINTS
 62
     0
 48
50.0
100
AcDbPoint
 10
11433.6
 20
7271.817898509791
 30
0.0
  0
ENDBLK
  5
240D0
330
240C4
100
AcDbEntity
  8
0
 48
50.0
100
AcDbBlockEnd
  0
BLOCK
  5
240DC
330
240D1
100
AcDbEntity
  8
0
 48
50.0
100
AcDbBlockBegin
  2
*D24
 70
     1
 10
0.0
 20
0.0
 30
0.0
  3
*D24
  1

  0
LINE
  5
275BC
330
240D1
100
AcDbEntity
  8
寸法
 62
     0
 48
50.0
370
    -2
100
AcDbLine
 10
10953.59999999998
 20
6622.21928541168
 30
0.0
 11
10812.81202022565
 21
6622.21928541168
 31
0.0
  0
LINE
  5
275BD
330
240D1
100
AcDbEntity
  8
寸法
 62
     0
 48
50.0
370
    -2
100
AcDbLine
 10
10953.6
 20
6342.219285411698
 30
0.0
 11
10812.81202022565
 21
6342.219285411698
 31
0.0
  0
LINE
  5
275BE
330
240D1
100
AcDbEntity
  8
寸法
 62
     0
 48
50.0
370
    -2
100
AcDbLine
 10
10872.81202022565
 20
6622.21928541168
 30
0.0
 11
10872.81202022565
 21
6342.219285411698
 31
0.0
  0
LINE
  5
275BF
330
240D1
100
AcDbEntity
  8
寸法
 62
     0
 48
50.0
370
    -2
100
AcDbLine
 10
10872.81202022565
 20
6342.219285411698
 30
0.0
 11
10872.81202022565
 21
5905.684836592792
 31
0.0
  0
INSERT
  5
275C0
330
240D1
100
AcDbEntity
  8
寸法
 62
     0
 48
50.0
370
    -2
100
AcDbBlockReference
  2
_DOTSMALL
 10
10872.81202022565
 20
6622.21928541168
 30
0.0
 41
100.0
 42
100.0
 43
100.0
 50
90.0
  0
INSERT
  5
275C1
330
240D1
100
AcDbEntity
  8
寸法
 62
     0
 48
50.0
370
    -2
100
AcDbBlockReference
  2
_DOTSMALL
 10
10872.81202022565
 20
6342.219285411698
 30
0.0
 41
100.0
 42
100.0
 43
100.0
 50
270.0
  0
MTEXT
  5
275C2
330
240D1
100
AcDbEntity
  8
寸法
 62
     7
 48
50.0
100
AcDbMText
 10
10772.80020920203
 20
6055.255702734527
 30
0.0
 40
120.0
 41
0.0
 71
     5
 72
     1
  1
\A1;280
  7
STYLE1
 11
0.0000000000000001
 21
1.0
 31
0.0
 73
     1
 44
1.0
1001
ACAD
1000
MTEXTBEGIN
1070
    73
1070
     1
1070
    44
1040
1.0
1070
    74
1070
     0
1000
MTEXTEND
  0
POINT
  5
275C3
330
240D1
100
AcDbEntity
  8
DEFPOINTS
 62
     0
 48
50.0
100
AcDbPoint
 10
10973.59999999998
 20
6622.21928541168
 30
0.0
  0
POINT
  5
275C4
330
240D1
100
AcDbEntity
  8
DEFPOINTS
 62
     0
 48
50.0
100
AcDbPoint
 10
10973.6
 20
6342.219285411698
 30
0.0
  0
POINT
  5
275C5
330
240D1
100
AcDbEntity
  8
DEFPOINTS
 62
     0
 48
50.0
100
AcDbPoint
 10
10872.81202022565
 20
6342.219285411698
 30
0.0
  0
ENDBLK
  5
240DD
330
240D1
100
AcDbEntity
  8
0
 48
50.0
100
AcDbBlockEnd
  0
BLOCK
  5
240E9
330
240DE
100
AcDbEntity
  8
0
 48
50.0
100
AcDbBlockBegin
  2
*D25
 70
     1
 10
0.0
 20
0.0
 30
0.0
  3
*D25
  1

  0
LINE
  5
275B2
330
240DE
100
AcDbEntity
  8
寸法
 62
     0
 48
50.0
370
    -2
100
AcDbLine
 10
10953.6
 20
7722.219285411667
 30
0.0
 11
10812.81202022565
 21
7722.219285411667
 31
0.0
  0
LINE
  5
275B3
330
240DE
100
AcDbEntity
  8
寸法
 62
     0
 48
50.0
370
    -2
100
AcDbLine
 10
10953.60000000001
 20
7522.219285411683
 30
0.0
 11
10812.81202022565
 21
7522.219285411683
 31
0.0
  0
LINE
  5
275B4
330
240DE
100
AcDbEntity
  8
寸法
 62
     0
 48
50.0
370
    -2
100
AcDbLine
 10
10872.81202022565
 20
7522.219285411683
 30
0.0
 11
10872.81202022565
 21
7722.219285411667
 31
0.0
  0
LINE
  5
275B5
330
240DE
100
AcDbEntity
  8
寸法
 62
     0
 48
50.0
370
    -2
100
AcDbLine
 10
10872.81202022565
 20
7722.219285411667
 30
0.0
 11
10872.81202022565
 21
8158.75373423057
 31
0.0
  0
INSERT
  5
275B6
330
240DE
100
AcDbEntity
  8
寸法
 62
     0
 48
50.0
370
    -2
100
AcDbBlockReference
  2
_DOTSMALL
 10
10872.81202022565
 20
7522.219285411683
 30
0.0
 41
100.0
 42
100.0
 43
100.0
 50
270.0
  0
INSERT
  5
275B7
330
240DE
100
AcDbEntity
  8
寸法
 62
     0
 48
50.0
370
    -2
100
AcDbBlockReference
  2
_DOTSMALL
 10
10872.81202022565
 20
7722.219285411667
 30
0.0
 41
100.0
 42
100.0
 43
100.0
 50
90.0
  0
MTEXT
  5
275B8
330
240DE
100
AcDbEntity
  8
寸法
 62
     7
 48
50.0
100
AcDbMText
 10
10772.80020920203
 20
8009.182868088839
 30
0.0
 40
120.0
 41
0.0
 71
     5
 72
     1
  1
\A1;200
  7
STYLE1
 11
0.0000000000000001
 21
1.0
 31
0.0
 73
     1
 44
1.0
1001
ACAD
1000
MTEXTBEGIN
1070
    73
1070
     1
1070
    44
1040
1.0
1070
    74
1070
     0
1000
MTEXTEND
  0
POINT
  5
275B9
330
240DE
100
AcDbEntity
  8
DEFPOINTS
 62
     0
 48
50.0
100
AcDbPoint
 10
10973.6
 20
7722.219285411667
 30
0.0
  0
POINT
  5
275BA
330
240DE
100
AcDbEntity
  8
DEFPOINTS
 62
     0
 48
50.0
100
AcDbPoint
 10
10973.60000000001
 20
7522.219285411683
 30
0.0
  0
POINT
  5
275BB
330
240DE
100
AcDbEntity
  8
DEFPOINTS
 62
     0
 48
50.0
100
AcDbPoint
 10
10872.81202022565
 20
7522.219285411683
 30
0.0
  0
ENDBLK
  5
240EA
330
240DE
100
AcDbEntity
  8
0
 48
50.0
100
AcDbBlockEnd
  0
BLOCK
  5
26AB5
330
26AAB
100
AcDbEntity
  8
0
 48
50.0
100
AcDbBlockBegin
  2
*D26
 70
     1
 10
0.0
 20
0.0
 30
0.0
  3
*D26
  1

  0
LINE
  5
27584
330
26AAB
100
AcDbEntity
  8
寸法
 62
     0
 48
50.0
370
    -2
100
AcDbLine
 10
7748.600000000007
 20
7139.21928541168
 30
0.0
 11
7748.600000000007
 21
8264.828102081928
 31
0.0
  0
LINE
  5
27585
330
26AAB
100
AcDbEntity
  8
寸法
 62
     0
 48
50.0
370
    -2
100
AcDbLine
 10
6798.600000000007
 20
7139.21928541168
 30
0.0
 11
6798.600000000007
 21
8264.828102081928
 31
0.0
  0
LINE
  5
27586
330
26AAB
100
AcDbEntity
  8
寸法
 62
     0
 48
50.0
370
    -2
100
AcDbLine
 10
7748.600000000007
 20
8204.828102081929
 30
0.0
 11
6798.600000000007
 21
8204.828102081929
 31
0.0
  0
INSERT
  5
27587
330
26AAB
100
AcDbEntity
  8
寸法
 62
     0
 48
50.0
370
    -2
100
AcDbBlockReference
  2
_DOTSMALL
 10
7748.600000000007
 20
8204.828102081929
 30
0.0
 41
100.0
 42
100.0
 43
100.0
  0
INSERT
  5
27588
330
26AAB
100
AcDbEntity
  8
寸法
 62
     0
 48
50.0
370
    -2
100
AcDbBlockReference
  2
_DOTSMALL
 10
6798.600000000007
 20
8204.828102081929
 30
0.0
 41
100.0
 42
100.0
 43
100.0
 50
180.0
  0
MTEXT
  5
27589
330
26AAB
100
AcDbEntity
  8
寸法
 62
     7
 48
50.0
100
AcDbMText
 10
7273.600000000008
 20
8304.828102081929
 30
0.0
 40
120.0
 41
0.0
 71
     5
 72
     1
  1
\A1;950
  7
STYLE1
 73
     1
 44
1.0
1001
ACAD
1000
MTEXTBEGIN
1070
    73
1070
     1
1070
    44
1040
1.0
1070
    74
1070
     0
1000
MTEXTEND
  0
POINT
  5
2758A
330
26AAB
100
AcDbEntity
  8
DEFPOINTS
 62
     0
 48
50.0
100
AcDbPoint
 10
7748.600000000007
 20
7119.21928541168
 30
0.0
  0
POINT
  5
2758B
330
26AAB
100
AcDbEntity
  8
DEFPOINTS
 62
     0
 48
50.0
100
AcDbPoint
 10
6798.600000000007
 20
7119.21928541168
 30
0.0
  0
POINT
  5
2758C
330
26AAB
100
AcDbEntity
  8
DEFPOINTS
 62
     0
 48
50.0
100
AcDbPoint
 10
6798.600000000007
 20
8204.828102081929
 30
0.0
  0
ENDBLK
  5
26AB6
330
26AAB
100
AcDbEntity
  8
0
 48
50.0
100
AcDbBlockEnd
  0
BLOCK
  5
26AC0
330
26AB7
100
AcDbEntity
  8
0
 48
50.0
100
AcDbBlockBegin
  2
*D27
 70
     1
 10
0.0
 20
0.0
 30
0.0
  3
*D27
  1

  0
LINE
  5
2757B
330
26AB7
100
AcDbEntity
  8
寸法
 62
     0
 48
50.0
370
    -2
100
AcDbLine
 10
6798.600000000007
 20
7139.21928541168
 30
0.0
 11
6798.600000000007
 21
8264.828102081928
 31
0.0
  0
LINE
  5
2757C
330
26AB7
100
AcDbEntity
  8
寸法
 62
     0
 48
50.0
370
    -2
100
AcDbLine
 10
5848.600000000008
 20
7139.21928541168
 30
0.0
 11
5848.600000000008
 21
8264.828102081928
 31
0.0
  0
LINE
  5
2757D
330
26AB7
100
AcDbEntity
  8
寸法
 62
     0
 48
50.0
370
    -2
100
AcDbLine
 10
6798.600000000007
 20
8204.828102081929
 30
0.0
 11
5848.600000000008
 21
8204.828102081929
 31
0.0
  0
INSERT
  5
2757E
330
26AB7
100
AcDbEntity
  8
寸法
 62
     0
 48
50.0
370
    -2
100
AcDbBlockReference
  2
_DOTSMALL
 10
6798.600000000007
 20
8204.828102081929
 30
0.0
 41
100.0
 42
100.0
 43
100.0
  0
INSERT
  5
2757F
330
26AB7
100
AcDbEntity
  8
寸法
 62
     0
 48
50.0
370
    -2
100
AcDbBlockReference
  2
_DOTSMALL
 10
5848.600000000008
 20
8204.828102081929
 30
0.0
 41
100.0
 42
100.0
 43
100.0
 50
180.0
  0
MTEXT
  5
27580
330
26AB7
100
AcDbEntity
  8
寸法
 62
     7
 48
50.0
100
AcDbMText
 10
6323.600000000007
 20
8304.828102081929
 30
0.0
 40
120.0
 41
0.0
 71
     5
 72
     1
  1
\A1;950
  7
STYLE1
 73
     1
 44
1.0
1001
ACAD
1000
MTEXTBEGIN
1070
    73
1070
     1
1070
    44
1040
1.0
1070
    74
1070
     0
1000
MTEXTEND
  0
POINT
  5
27581
330
26AB7
100
AcDbEntity
  8
DEFPOINTS
 62
     0
 48
50.0
100
AcDbPoint
 10
6798.600000000007
 20
7119.21928541168
 30
0.0
  0
POINT
  5
27582
330
26AB7
100
AcDbEntity
  8
DEFPOINTS
 62
     0
 48
50.0
100
AcDbPoint
 10
5848.600000000008
 20
7119.21928541168
 30
0.0
  0
POINT
  5
27583
330
26AB7
100
AcDbEntity
  8
DEFPOINTS
 62
     0
 48
50.0
100
AcDbPoint
 10
5848.600000000008
 20
8204.828102081929
 30
0.0
  0
ENDBLK
  5
26AC1
330
26AB7
100
AcDbEntity
  8
0
 48
50.0
100
AcDbBlockEnd
  0
BLOCK
  5
26ACC
330
26AC2
100
AcDbEntity
  8
0
 48
50.0
100
AcDbBlockBegin
  2
*D28
 70
     1
 10
0.0
 20
0.0
 30
0.0
  3
*D28
  1

  0
LINE
  5
27572
330
26AC2
100
AcDbEntity
  8
寸法
 62
     0
 48
50.0
370
    -2
100
AcDbLine
 10
5848.600000000008
 20
7139.21928541168
 30
0.0
 11
5848.600000000008
 21
8264.828102081928
 31
0.0
  0
LINE
  5
27573
330
26AC2
100
AcDbEntity
  8
寸法
 62
     0
 48
50.0
370
    -2
100
AcDbLine
 10
4893.600000000001
 20
7742.21928541168
 30
0.0
 11
4893.600000000001
 21
8264.828102081928
 31
0.0
  0
LINE
  5
27574
330
26AC2
100
AcDbEntity
  8
寸法
 62
     0
 48
50.0
370
    -2
100
AcDbLine
 10
5848.600000000008
 20
8204.828102081929
 30
0.0
 11
4893.600000000001
 21
8204.828102081929
 31
0.0
  0
INSERT
  5
27575
330
26AC2
100
AcDbEntity
  8
寸法
 62
     0
 48
50.0
370
    -2
100
AcDbBlockReference
  2
_DOTSMALL
 10
5848.600000000008
 20
8204.828102081929
 30
0.0
 41
100.0
 42
100.0
 43
100.0
  0
INSERT
  5
27576
330
26AC2
100
AcDbEntity
  8
寸法
 62
     0
 48
50.0
370
    -2
100
AcDbBlockReference
  2
_DOTSMALL
 10
4893.600000000001
 20
8204.828102081929
 30
0.0
 41
100.0
 42
100.0
 43
100.0
 50
180.0
  0
MTEXT
  5
27577
330
26AC2
100
AcDbEntity
  8
寸法
 62
     7
 48
50.0
100
AcDbMText
 10
5371.100000000004
 20
8304.828102081929
 30
0.0
 40
120.0
 41
0.0
 71
     5
 72
     1
  1
\A1;955
  7
STYLE1
 73
     1
 44
1.0
1001
ACAD
1000
MTEXTBEGIN
1070
    73
1070
     1
1070
    44
1040
1.0
1070
    74
1070
     0
1000
MTEXTEND
  0
POINT
  5
27578
330
26AC2
100
AcDbEntity
  8
DEFPOINTS
 62
     0
 48
50.0
100
AcDbPoint
 10
5848.600000000008
 20
7119.21928541168
 30
0.0
  0
POINT
  5
27579
330
26AC2
100
AcDbEntity
  8
DEFPOINTS
 62
     0
 48
50.0
100
AcDbPoint
 10
4893.600000000001
 20
7722.21928541168
 30
0.0
  0
POINT
  5
2757A
330
26AC2
100
AcDbEntity
  8
DEFPOINTS
 62
     0
 48
50.0
100
AcDbPoint
 10
4893.600000000001
 20
8204.828102081929
 30
0.0
  0
ENDBLK
  5
26ACD
330
26AC2
100
AcDbEntity
  8
0
 48
50.0
100
AcDbBlockEnd
  0
BLOCK
  5
26AD8
330
26ACE
100
AcDbEntity
  8
0
 48
50.0
100
AcDbBlockBegin
  2
*D29
 70
     1
 10
0.0
 20
0.0
 30
0.0
  3
*D29
  1

  0
LINE
  5
27569
330
26ACE
100
AcDbEntity
  8
寸法
 62
     0
 48
50.0
370
    -2
100
AcDbLine
 10
5778.600000000007
 20
7069.21928541168
 30
0.0
 11
5155.498373010142
 21
7069.21928541168
 31
0.0
  0
LINE
  5
2756A
330
26ACE
100
AcDbEntity
  8
寸法
 62
     0
 48
50.0
370
    -2
100
AcDbLine
 10
5447.765475140901
 20
7722.21928541168
 30
0.0
 11
5155.498373010142
 21
7722.21928541168
 31
0.0
  0
LINE
  5
2756B
330
26ACE
100
AcDbEntity
  8
寸法
 62
     0
 48
50.0
370
    -2
100
AcDbLine
 10
5215.498373010142
 20
7069.21928541168
 30
0.0
 11
5215.498373010142
 21
7722.21928541168
 31
0.0
  0
INSERT
  5
2756C
330
26ACE
100
AcDbEntity
  8
寸法
 62
     0
 48
50.0
370
    -2
100
AcDbBlockReference
  2
_DOTSMALL
 10
5215.498373010142
 20
7069.21928541168
 30
0.0
 41
100.0
 42
100.0
 43
100.0
 50
270.0
  0
INSERT
  5
2756D
330
26ACE
100
AcDbEntity
  8
寸法
 62
     0
 48
50.0
370
    -2
100
AcDbBlockReference
  2
_DOTSMALL
 10
5215.498373010142
 20
7722.21928541168
 30
0.0
 41
100.0
 42
100.0
 43
100.0
 50
90.0
  0
MTEXT
  5
2756E
330
26ACE
100
AcDbEntity
  8
寸法
 62
     7
 48
50.0
100
AcDbMText
 10
5115.49837301014
 20
7355.731163815898
 30
0.0
 40
120.0
 41
0.0
 71
     5
 72
     1
  1
\A1;653
  7
STYLE1
 11
0.0000000000000001
 21
1.0
 31
0.0
 73
     1
 44
1.0
1001
ACAD
1000
MTEXTBEGIN
1070
    73
1070
     1
1070
    44
1040
1.0
1070
    74
1070
     0
1000
MTEXTEND
  0
POINT
  5
2756F
330
26ACE
100
AcDbEntity
  8
DEFPOINTS
 62
     0
 48
50.0
100
AcDbPoint
 10
5798.600000000007
 20
7069.21928541168
 30
0.0
  0
POINT
  5
27570
330
26ACE
100
AcDbEntity
  8
DEFPOINTS
 62
     0
 48
50.0
100
AcDbPoint
 10
5467.7654751409
 20
7722.21928541168
 30
0.0
  0
POINT
  5
27571
330
26ACE
100
AcDbEntity
  8
DEFPOINTS
 62
     0
 48
50.0
100
AcDbPoint
 10
5215.498373010142
 20
7722.21928541168
 30
0.0
  0
ENDBLK
  5
26AD9
330
26ACE
100
AcDbEntity
  8
0
 48
50.0
100
AcDbBlockEnd
  0
BLOCK
  5
26AE4
330
26ADA
100
AcDbEntity
  8
0
 48
50.0
100
AcDbBlockBegin
  2
*D30
 70
     1
 10
0.0
 20
0.0
 30
0.0
  3
*D30
  1

  0
LINE
  5
27560
330
26ADA
100
AcDbEntity
  8
寸法
 62
     0
 48
50.0
370
    -2
100
AcDbLine
 10
4873.6
 20
7722.21928541168
 30
0.0
 11
3958.721909610675
 21
7722.21928541168
 31
0.0
  0
LINE
  5
27561
330
26ADA
100
AcDbEntity
  8
寸法
 62
     0
 48
50.0
370
    -2
100
AcDbLine
 10
4873.6
 20
6342.21928541168
 30
0.0
 11
3958.721909610673
 21
6342.21928541168
 31
0.0
  0
LINE
  5
27562
330
26ADA
100
AcDbEntity
  8
寸法
 62
     0
 48
50.0
370
    -2
100
AcDbLine
 10
4018.721909610674
 20
7722.21928541168
 30
0.0
 11
4018.721909610674
 21
6342.21928541168
 31
0.0
  0
INSERT
  5
27563
330
26ADA
100
AcDbEntity
  8
寸法
 62
     0
 48
50.0
370
    -2
100
AcDbBlockReference
  2
_DOTSMALL
 10
4018.721909610674
 20
7722.21928541168
 30
0.0
 41
100.0
 42
100.0
 43
100.0
 50
90.0
  0
INSERT
  5
27564
330
26ADA
100
AcDbEntity
  8
寸法
 62
     0
 48
50.0
370
    -2
100
AcDbBlockReference
  2
_DOTSMALL
 10
4018.721909610674
 20
6342.21928541168
 30
0.0
 41
100.0
 42
100.0
 43
100.0
 50
270.0
  0
MTEXT
  5
27565
330
26ADA
100
AcDbEntity
  8
寸法
 62
     7
 48
50.0
100
AcDbMText
 10
3918.721909610673
 20
7069.719285411681
 30
0.0
 40
120.0
 41
0.0
 71
     5
 72
     1
  1
\A1;1380
  7
STYLE1
 11
0.0000000000000001
 21
1.0
 31
0.0
 73
     1
 44
1.0
1001
ACAD
1000
MTEXTBEGIN
1070
    73
1070
     1
1070
    44
1040
1.0
1070
    74
1070
     0
1000
MTEXTEND
  0
POINT
  5
27566
330
26ADA
100
AcDbEntity
  8
DEFPOINTS
 62
     0
 48
50.0
100
AcDbPoint
 10
4893.600000000001
 20
7722.21928541168
 30
0.0
  0
POINT
  5
27567
330
26ADA
100
AcDbEntity
  8
DEFPOINTS
 62
     0
 48
50.0
100
AcDbPoint
 10
4893.600000000001
 20
6342.21928541168
 30
0.0
  0
POINT
  5
27568
330
26ADA
100
AcDbEntity
  8
DEFPOINTS
 62
     0
 48
50.0
100
AcDbPoint
 10
4018.721909610674
 20
6342.21928541168
 30
0.0
  0
ENDBLK
  5
26AE5
330
26ADA
100
AcDbEntity
  8
0
 48
50.0
100
AcDbBlockEnd
  0
BLOCK
  5
26AF0
330
26AE6
100
AcDbEntity
  8
0
 48
50.0
100
AcDbBlockBegin
  2
*D31
 70
     1
 10
0.0
 20
0.0
 30
0.0
  3
*D31
  1

  0
LINE
  5
27557
330
26AE6
100
AcDbEntity
  8
寸法
 62
     0
 48
50.0
370
    -2
100
AcDbLine
 10
4946.6
 20
7599.219285411681
 30
0.0
 11
4210.665006330073
 21
7599.219285411681
 31
0.0
  0
LINE
  5
27558
330
26AE6
100
AcDbEntity
  8
寸法
 62
     0
 48
50.0
370
    -2
100
AcDbLine
 10
4946.600000000008
 20
6540.219285411684
 30
0.0
 11
4210.665006330073
 21
6540.219285411684
 31
0.0
  0
LINE
  5
27559
330
26AE6
100
AcDbEntity
  8
寸法
 62
     0
 48
50.0
370
    -2
100
AcDbLine
 10
4270.665006330073
 20
7599.219285411681
 30
0.0
 11
4270.665006330073
 21
6540.219285411684
 31
0.0
  0
INSERT
  5
2755A
330
26AE6
100
AcDbEntity
  8
寸法
 62
     0
 48
50.0
370
    -2
100
AcDbBlockReference
  2
_DOTSMALL
 10
4270.665006330073
 20
7599.219285411681
 30
0.0
 41
100.0
 42
100.0
 43
100.0
 50
90.0
  0
INSERT
  5
2755B
330
26AE6
100
AcDbEntity
  8
寸法
 62
     0
 48
50.0
370
    -2
100
AcDbBlockReference
  2
_DOTSMALL
 10
4270.665006330073
 20
6540.219285411684
 30
0.0
 41
100.0
 42
100.0
 43
100.0
 50
270.0
  0
MTEXT
  5
2755C
330
26AE6
100
AcDbEntity
  8
寸法
 62
     7
 48
50.0
100
AcDbMText
 10
4170.665006330071
 20
7069.719285411681
 30
0.0
 40
120.0
 41
0.0
 71
     5
 72
     1
  1
\A1;1059
  7
STYLE1
 11
0.0000000000000001
 21
1.0
 31
0.0
 73
     1
 44
1.0
1001
ACAD
1000
MTEXTBEGIN
1070
    73
1070
     1
1070
    44
1040
1.0
1070
    74
1070
     0
1000
MTEXTEND
  0
POINT
  5
2755D
330
26AE6
100
AcDbEntity
  8
DEFPOINTS
 62
     0
 48
50.0
100
AcDbPoint
 10
4966.6
 20
7599.219285411681
 30
0.0
  0
POINT
  5
2755E
330
26AE6
100
AcDbEntity
  8
DEFPOINTS
 62
     0
 48
50.0
100
AcDbPoint
 10
4966.600000000007
 20
6540.219285411684
 30
0.0
  0
POINT
  5
2755F
330
26AE6
100
AcDbEntity
  8
DEFPOINTS
 62
     0
 48
50.0
100
AcDbPoint
 10
4270.665006330073
 20
6540.219285411684
 30
0.0
  0
ENDBLK
  5
26AF1
330
26AE6
100
AcDbEntity
  8
0
 48
50.0
100
AcDbBlockEnd
  0
BLOCK
  5
26AFC
330
26AF2
100
AcDbEntity
  8
0
 48
50.0
100
AcDbBlockBegin
  2
*D32
 70
     1
 10
0.0
 20
0.0
 30
0.0
  3
*D32
  1

  0
LINE
  5
2754E
330
26AF2
100
AcDbEntity
  8
寸法
 62
     0
 48
50.0
370
    -2
100
AcDbLine
 10
4873.600000000004
 20
6342.219285411676
 30
0.0
 11
4720.51267376788
 21
6342.219285411676
 31
0.0
  0
LINE
  5
2754F
330
26AF2
100
AcDbEntity
  8
寸法
 62
     0
 48
50.0
370
    -2
100
AcDbLine
 10
5229.325326928808
 20
5622.219285411677
 30
0.0
 11
4720.512673767879
 21
5622.219285411677
 31
0.0
  0
LINE
  5
27550
330
26AF2
100
AcDbEntity
  8
寸法
 62
     0
 48
50.0
370
    -2
100
AcDbLine
 10
4780.51267376788
 20
6342.219285411676
 30
0.0
 11
4780.512673767879
 21
5622.219285411677
 31
0.0
  0
INSERT
  5
27551
330
26AF2
100
AcDbEntity
  8
寸法
 62
     0
 48
50.0
370
    -2
100
AcDbBlockReference
  2
_DOTSMALL
 10
4780.51267376788
 20
6342.219285411676
 30
0.0
 41
100.0
 42
100.0
 43
100.0
 50
90.0
  0
INSERT
  5
27552
330
26AF2
100
AcDbEntity
  8
寸法
 62
     0
 48
50.0
370
    -2
100
AcDbBlockReference
  2
_DOTSMALL
 10
4780.512673767879
 20
5622.219285411677
 30
0.0
 41
100.0
 42
100.0
 43
100.0
 50
270.0
  0
MTEXT
  5
27553
330
26AF2
100
AcDbEntity
  8
寸法
 62
     7
 48
50.0
100
AcDbMText
 10
4680.500862744256
 20
5982.219285411678
 30
0.0
 40
120.0
 41
0.0
 71
     5
 72
     1
  1
\A1;扉の出720
  7
STYLE1
 11
0.0000000000000001
 21
1.0
 31
0.0
 73
     1
 44
1.0
1001
ACAD
1000
MTEXTBEGIN
1070
    73
1070
     1
1070
    44
1040
1.0
1070
    74
1070
     0
1000
MTEXTEND
  0
POINT
  5
27554
330
26AF2
100
AcDbEntity
  8
DEFPOINTS
 62
     0
 48
50.0
100
AcDbPoint
 10
4893.600000000004
 20
6342.219285411676
 30
0.0
  0
POINT
  5
27555
330
26AF2
100
AcDbEntity
  8
DEFPOINTS
 62
     0
 48
50.0
100
AcDbPoint
 10
5249.325326928809
 20
5622.219285411677
 30
0.0
  0
POINT
  5
27556
330
26AF2
100
AcDbEntity
  8
DEFPOINTS
 62
     0
 48
50.0
100
AcDbPoint
 10
4780.512673767879
 20
5622.219285411677
 30
0.0
  0
ENDBLK
  5
26AFD
330
26AF2
100
AcDbEntity
  8
0
 48
50.0
100
AcDbBlockEnd
  0
BLOCK
  5
26B09
330
26AFE
100
AcDbEntity
  8
0
 48
50.0
100
AcDbBlockBegin
  2
*D33
 70
     1
 10
0.0
 20
0.0
 30
0.0
  3
*D33
  1

  0
LINE
  5
27544
330
26AFE
100
AcDbEntity
  8
寸法
 62
     0
 48
50.0
370
    -2
100
AcDbLine
 10
4946.600000000008
 20
6540.219285411684
 30
0.0
 11
4210.665006330073
 21
6540.219285411684
 31
0.0
  0
LINE
  5
27545
330
26AFE
100
AcDbEntity
  8
寸法
 62
     0
 48
50.0
370
    -2
100
AcDbLine
 10
4873.6
 20
6342.21928541168
 30
0.0
 11
4210.665006330073
 21
6342.21928541168
 31
0.0
  0
LINE
  5
27546
330
26AFE
100
AcDbEntity
  8
寸法
 62
     0
 48
50.0
370
    -2
100
AcDbLine
 10
4270.665006330073
 20
6540.219285411684
 30
0.0
 11
4270.665006330073
 21
6342.21928541168
 31
0.0
  0
LINE
  5
27547
330
26AFE
100
AcDbEntity
  8
寸法
 62
     0
 48
50.0
370
    -2
100
AcDbLine
 10
4270.665006330073
 20
6342.21928541168
 30
0.0
 11
4270.665006330072
 21
5870.478676739431
 31
0.0
  0
INSERT
  5
27548
330
26AFE
100
AcDbEntity
  8
寸法
 62
     0
 48
50.0
370
    -2
100
AcDbBlockReference
  2
_DOTSMALL
 10
4270.665006330073
 20
6540.219285411684
 30
0.0
 41
100.0
 42
100.0
 43
100.0
 50
90.0
  0
INSERT
  5
27549
330
26AFE
100
AcDbEntity
  8
寸法
 62
     0
 48
50.0
370
    -2
100
AcDbBlockReference
  2
_DOTSMALL
 10
4270.665006330073
 20
6342.21928541168
 30
0.0
 41
100.0
 42
100.0
 43
100.0
 50
270.0
  0
MTEXT
  5
2754A
330
26AFE
100
AcDbEntity
  8
寸法
 62
     7
 48
50.0
100
AcDbMText
 10
4170.665006330071
 20
6006.688336569088
 30
0.0
 40
120.0
 41
0.0
 71
     5
 72
     1
  1
\A1;198
  7
STYLE1
 11
0.0000000000000001
 21
1.0
 31
0.0
 73
     1
 44
1.0
1001
ACAD
1000
MTEXTBEGIN
1070
    73
1070
     1
1070
    44
1040
1.0
1070
    74
1070
     0
1000
MTEXTEND
  0
POINT
  5
2754B
330
26AFE
100
AcDbEntity
  8
DEFPOINTS
 62
     0
 48
50.0
100
AcDbPoint
 10
4966.600000000007
 20
6540.219285411684
 30
0.0
  0
POINT
  5
2754C
330
26AFE
100
AcDbEntity
  8
DEFPOINTS
 62
     0
 48
50.0
100
AcDbPoint
 10
4893.600000000001
 20
6342.21928541168
 30
0.0
  0
POINT
  5
2754D
330
26AFE
100
AcDbEntity
  8
DEFPOINTS
 62
     0
 48
50.0
100
AcDbPoint
 10
4270.665006330073
 20
6342.21928541168
 30
0.0
  0
ENDBLK
  5
26B0A
330
26AFE
100
AcDbEntity
  8
0
 48
50.0
100
AcDbBlockEnd
  0
BLOCK
  5
26B2E
330
26B24
100
AcDbEntity
  8
0
 48
50.0
100
AcDbBlockBegin
  2
*D34
 70
     1
 10
0.0
 20
0.0
 30
0.0
  3
*D34
  1

  0
LINE
  5
2753B
330
26B24
100
AcDbEntity
  8
寸法
 62
     0
 48
50.0
370
    -2
100
AcDbLine
 10
5447.765475140901
 20
6342.219285411691
 30
0.0
 11
5155.498373010144
 21
6342.219285411691
 31
0.0
  0
LINE
  5
2753C
330
26B24
100
AcDbEntity
  8
寸法
 62
     0
 48
50.0
370
    -2
100
AcDbLine
 10
5778.600000000007
 20
7069.21928541168
 30
0.0
 11
5155.498373010144
 21
7069.21928541168
 31
0.0
  0
LINE
  5
2753D
330
26B24
100
AcDbEntity
  8
寸法
 62
     0
 48
50.0
370
    -2
100
AcDbLine
 10
5215.498373010144
 20
6342.219285411691
 30
0.0
 11
5215.498373010144
 21
7069.21928541168
 31
0.0
  0
INSERT
  5
2753E
330
26B24
100
AcDbEntity
  8
寸法
 62
     0
 48
50.0
370
    -2
100
AcDbBlockReference
  2
_DOTSMALL
 10
5215.498373010144
 20
6342.219285411691
 30
0.0
 41
100.0
 42
100.0
 43
100.0
 50
270.0
  0
INSERT
  5
2753F
330
26B24
100
AcDbEntity
  8
寸法
 62
     0
 48
50.0
370
    -2
100
AcDbBlockReference
  2
_DOTSMALL
 10
5215.498373010144
 20
7069.21928541168
 30
0.0
 41
100.0
 42
100.0
 43
100.0
 50
90.0
  0
MTEXT
  5
27540
330
26B24
100
AcDbEntity
  8
寸法
 62
     7
 48
50.0
100
AcDbMText
 10
5115.486561986521
 20
6849.634918032844
 30
0.0
 40
120.0
 41
0.0
 71
     5
 72
     1
  1
\A1;727
  7
STYLE1
 11
0.0000000000000001
 21
1.0
 31
0.0
 73
     1
 44
1.0
1001
ACAD
1000
MTEXTBEGIN
1070
    73
1070
     1
1070
    44
1040
1.0
1070
    74
1070
     0
1000
MTEXTEND
  0
POINT
  5
27541
330
26B24
100
AcDbEntity
  8
DEFPOINTS
 62
     0
 48
50.0
100
AcDbPoint
 10
5467.7654751409
 20
6342.219285411691
 30
0.0
  0
POINT
  5
27542
330
26B24
100
AcDbEntity
  8
DEFPOINTS
 62
     0
 48
50.0
100
AcDbPoint
 10
5798.600000000007
 20
7069.21928541168
 30
0.0
  0
POINT
  5
27543
330
26B24
100
AcDbEntity
  8
DEFPOINTS
 62
     0
 48
50.0
100
AcDbPoint
 10
5215.498373010144
 20
7069.21928541168
 30
0.0
  0
ENDBLK
  5
26B2F
330
26B24
100
AcDbEntity
  8
0
 48
50.0
100
AcDbBlockEnd
  0
BLOCK
  5
26B39
330
26B30
100
AcDbEntity
  8
0
 48
50.0
100
AcDbBlockBegin
  2
*D35
 70
     1
 10
0.0
 20
0.0
 30
0.0
  3
*D35
  1

  0
LINE
  5
27532
330
26B30
100
AcDbEntity
  8
寸法
 62
     0
 48
50.0
370
    -2
100
AcDbLine
 10
6680.600000000001
 20
7669.21928541168
 30
0.0
 11
6680.600000000001
 21
8508.485743505591
 31
0.0
  0
LINE
  5
27533
330
26B30
100
AcDbEntity
  8
寸法
 62
     0
 48
50.0
370
    -2
100
AcDbLine
 10
5016.6
 20
7669.21928541168
 30
0.0
 11
5016.6
 21
8508.485743505591
 31
0.0
  0
LINE
  5
27534
330
26B30
100
AcDbEntity
  8
寸法
 62
     0
 48
50.0
370
    -2
100
AcDbLine
 10
6680.600000000001
 20
8448.485743505591
 30
0.0
 11
5016.6
 21
8448.485743505591
 31
0.0
  0
INSERT
  5
27535
330
26B30
100
AcDbEntity
  8
寸法
 62
     0
 48
50.0
370
    -2
100
AcDbBlockReference
  2
_DOTSMALL
 10
6680.600000000001
 20
8448.485743505591
 30
0.0
 41
100.0
 42
100.0
 43
100.0
  0
INSERT
  5
27536
330
26B30
100
AcDbEntity
  8
寸法
 62
     0
 48
50.0
370
    -2
100
AcDbBlockReference
  2
_DOTSMALL
 10
5016.6
 20
8448.485743505591
 30
0.0
 41
100.0
 42
100.0
 43
100.0
 50
180.0
  0
MTEXT
  5
27537
330
26B30
100
AcDbEntity
  8
寸法
 62
     7
 48
50.0
100
AcDbMText
 10
5848.600000000001
 20
8548.485743505592
 30
0.0
 40
120.0
 41
0.0
 71
     5
 72
     1
  1
\A1;1664
  7
STYLE1
 73
     1
 44
1.0
1001
ACAD
1000
MTEXTBEGIN
1070
    73
1070
     1
1070
    44
1040
1.0
1070
    74
1070
     0
1000
MTEXTEND
  0
POINT
  5
27538
330
26B30
100
AcDbEntity
  8
DEFPOINTS
 62
     0
 48
50.0
100
AcDbPoint
 10
6680.600000000001
 20
7649.219285411681
 30
0.0
  0
POINT
  5
27539
330
26B30
100
AcDbEntity
  8
DEFPOINTS
 62
     0
 48
50.0
100
AcDbPoint
 10
5016.6
 20
7649.219285411681
 30
0.0
  0
POINT
  5
2753A
330
26B30
100
AcDbEntity
  8
DEFPOINTS
 62
     0
 48
50.0
100
AcDbPoint
 10
5016.6
 20
8448.485743505591
 30
0.0
  0
ENDBLK
  5
26B3A
330
26B30
100
AcDbEntity
  8
0
 48
50.0
100
AcDbBlockEnd
  0
BLOCK
  5
26B46
330
26B3B
100
AcDbEntity
  8
0
 48
50.0
100
AcDbBlockBegin
  2
*D36
 70
     1
 10
0.0
 20
0.0
 30
0.0
  3
*D36
  1

  0
LINE
  5
27528
330
26B3B
100
AcDbEntity
  8
寸法
 62
     0
 48
50.0
370
    -2
100
AcDbLine
 10
5016.6
 20
7669.21928541168
 30
0.0
 11
5016.6
 21
8508.485743505591
 31
0.0
  0
LINE
  5
27529
330
26B3B
100
AcDbEntity
  8
寸法
 62
     0
 48
50.0
370
    -2
100
AcDbLine
 10
4893.600000000001
 20
7742.21928541168
 30
0.0
 11
4893.600000000001
 21
8508.485743505591
 31
0.0
  0
LINE
  5
2752A
330
26B3B
100
AcDbEntity
  8
寸法
 62
     0
 48
50.0
370
    -2
100
AcDbLine
 10
5016.6
 20
8448.485743505591
 30
0.0
 11
4893.600000000001
 21
8448.485743505591
 31
0.0
  0
LINE
  5
2752B
330
26B3B
100
AcDbEntity
  8
寸法
 62
     0
 48
50.0
370
    -2
100
AcDbLine
 10
4893.600000000001
 20
8448.485743505591
 30
0.0
 11
4482.008116907962
 21
8448.485743505591
 31
0.0
  0
INSERT
  5
2752C
330
26B3B
100
AcDbEntity
  8
寸法
 62
     0
 48
50.0
370
    -2
100
AcDbBlockReference
  2
_DOTSMALL
 10
5016.6
 20
8448.485743505591
 30
0.0
 41
100.0
 42
100.0
 43
100.0
  0
INSERT
  5
2752D
330
26B3B
100
AcDbEntity
  8
寸法
 62
     0
 48
50.0
370
    -2
100
AcDbBlockReference
  2
_DOTSMALL
 10
4893.600000000001
 20
8448.485743505591
 30
0.0
 41
100.0
 42
100.0
 43
100.0
 50
180.0
  0
MTEXT
  5
2752E
330
26B3B
100
AcDbEntity
  8
寸法
 62
     7
 48
50.0
100
AcDbMText
 10
4620.493398282202
 20
8548.497554529213
 30
0.0
 40
120.0
 41
0.0
 71
     5
 72
     1
  1
\A1;123
  7
STYLE1
 73
     1
 44
1.0
1001
ACAD
1000
MTEXTBEGIN
1070
    73
1070
     1
1070
    44
1040
1.0
1070
    74
1070
     0
1000
MTEXTEND
  0
POINT
  5
2752F
330
26B3B
100
AcDbEntity
  8
DEFPOINTS
 62
     0
 48
50.0
100
AcDbPoint
 10
5016.6
 20
7649.219285411681
 30
0.0
  0
POINT
  5
27530
330
26B3B
100
AcDbEntity
  8
DEFPOINTS
 62
     0
 48
50.0
100
AcDbPoint
 10
4893.600000000001
 20
7722.21928541168
 30
0.0
  0
POINT
  5
27531
330
26B3B
100
AcDbEntity
  8
DEFPOINTS
 62
     0
 48
50.0
100
AcDbPoint
 10
4893.600000000001
 20
8448.485743505591
 30
0.0
  0
ENDBLK
  5
26B47
330
26B3B
100
AcDbEntity
  8
0
 48
50.0
100
AcDbBlockEnd
  0
BLOCK
  5
26B6A
330
26B5F
100
AcDbEntity
  8
0
 48
50.0
100
AcDbBlockBegin
  2
*D37
 70
     1
 10
0.0
 20
0.0
 30
0.0
  3
*D37
  1

  0
LINE
  5
2751E
330
26B5F
100
AcDbEntity
  8
寸法
 62
     0
 48
50.0
370
    -2
100
AcDbLine
 10
4873.6
 20
7722.21928541168
 30
0.0
 11
4210.665006330072
 21
7722.21928541168
 31
0.0
  0
LINE
  5
2751F
330
26B5F
100
AcDbEntity
  8
寸法
 62
     0
 48
50.0
370
    -2
100
AcDbLine
 10
4946.6
 20
7599.219285411681
 30
0.0
 11
4210.665006330072
 21
7599.219285411681
 31
0.0
  0
LINE
  5
27520
330
26B5F
100
AcDbEntity
  8
寸法
 62
     0
 48
50.0
370
    -2
100
AcDbLine
 10
4270.665006330072
 20
7599.219285411681
 30
0.0
 11
4270.665006330072
 21
7722.21928541168
 31
0.0
  0
LINE
  5
27521
330
26B5F
100
AcDbEntity
  8
寸法
 62
     0
 48
50.0
370
    -2
100
AcDbLine
 10
4270.665006330072
 20
7722.21928541168
 30
0.0
 11
4270.665006330072
 21
8133.811168503719
 31
0.0
  0
INSERT
  5
27522
330
26B5F
100
AcDbEntity
  8
寸法
 62
     0
 48
50.0
370
    -2
100
AcDbBlockReference
  2
_DOTSMALL
 10
4270.665006330072
 20
7599.219285411681
 30
0.0
 41
100.0
 42
100.0
 43
100.0
 50
270.0
  0
INSERT
  5
27523
330
26B5F
100
AcDbEntity
  8
寸法
 62
     0
 48
50.0
370
    -2
100
AcDbBlockReference
  2
_DOTSMALL
 10
4270.665006330072
 20
7722.21928541168
 30
0.0
 41
100.0
 42
100.0
 43
100.0
 50
90.0
  0
MTEXT
  5
27524
330
26B5F
100
AcDbEntity
  8
寸法
 62
     7
 48
50.0
100
AcDbMText
 10
4170.653195306449
 20
7995.325887129481
 30
0.0
 40
120.0
 41
0.0
 71
     5
 72
     1
  1
\A1;123
  7
STYLE1
 11
0.0000000000000001
 21
1.0
 31
0.0
 73
     1
 44
1.0
1001
ACAD
1000
MTEXTBEGIN
1070
    73
1070
     1
1070
    44
1040
1.0
1070
    74
1070
     0
1000
MTEXTEND
  0
POINT
  5
27525
330
26B5F
100
AcDbEntity
  8
DEFPOINTS
 62
     0
 48
50.0
100
AcDbPoint
 10
4893.600000000001
 20
7722.21928541168
 30
0.0
  0
POINT
  5
27526
330
26B5F
100
AcDbEntity
  8
DEFPOINTS
 62
     0
 48
50.0
100
AcDbPoint
 10
4966.6
 20
7599.219285411681
 30
0.0
  0
POINT
  5
27527
330
26B5F
100
AcDbEntity
  8
DEFPOINTS
 62
     0
 48
50.0
100
AcDbPoint
 10
4270.665006330072
 20
7599.219285411681
 30
0.0
  0
ENDBLK
  5
26B6B
330
26B5F
100
AcDbEntity
  8
0
 48
50.0
100
AcDbBlockEnd
  0
BLOCK
  5
26B83
330
26B79
100
AcDbEntity
  8
0
 48
50.0
100
AcDbBlockBegin
  2
*D38
 70
     1
 10
0.0
 20
0.0
 30
0.0
  3
*D38
  1

  0
LINE
  5
27515
330
26B79
100
AcDbEntity
  8
寸法
 62
     0
 48
50.0
370
    -2
100
AcDbLine
 10
11553.6
 20
7742.21928541168
 30
0.0
 11
11553.6
 21
8264.828102081928
 31
0.0
  0
LINE
  5
27516
330
26B79
100
AcDbEntity
  8
寸法
 62
     0
 48
50.0
370
    -2
100
AcDbLine
 10
10598.60000000001
 20
7139.21928541168
 30
0.0
 11
10598.60000000001
 21
8264.828102081928
 31
0.0
  0
LINE
  5
27517
330
26B79
100
AcDbEntity
  8
寸法
 62
     0
 48
50.0
370
    -2
100
AcDbLine
 10
11553.6
 20
8204.828102081929
 30
0.0
 11
10598.60000000001
 21
8204.828102081929
 31
0.0
  0
INSERT
  5
27518
330
26B79
100
AcDbEntity
  8
寸法
 62
     0
 48
50.0
370
    -2
100
AcDbBlockReference
  2
_DOTSMALL
 10
11553.6
 20
8204.828102081929
 30
0.0
 41
100.0
 42
100.0
 43
100.0
  0
INSERT
  5
27519
330
26B79
100
AcDbEntity
  8
寸法
 62
     0
 48
50.0
370
    -2
100
AcDbBlockReference
  2
_DOTSMALL
 10
10598.60000000001
 20
8204.828102081929
 30
0.0
 41
100.0
 42
100.0
 43
100.0
 50
180.0
  0
MTEXT
  5
2751A
330
26B79
100
AcDbEntity
  8
寸法
 62
     7
 48
50.0
100
AcDbMText
 10
11076.1
 20
8304.828102081929
 30
0.0
 40
120.0
 41
0.0
 71
     5
 72
     1
  1
\A1;955
  7
STYLE1
 73
     1
 44
1.0
1001
ACAD
1000
MTEXTBEGIN
1070
    73
1070
     1
1070
    44
1040
1.0
1070
    74
1070
     0
1000
MTEXTEND
  0
POINT
  5
2751B
330
26B79
100
AcDbEntity
  8
DEFPOINTS
 62
     0
 48
50.0
100
AcDbPoint
 10
11553.6
 20
7722.21928541168
 30
0.0
  0
POINT
  5
2751C
330
26B79
100
AcDbEntity
  8
DEFPOINTS
 62
     0
 48
50.0
100
AcDbPoint
 10
10598.60000000001
 20
7119.21928541168
 30
0.0
  0
POINT
  5
2751D
330
26B79
100
AcDbEntity
  8
DEFPOINTS
 62
     0
 48
50.0
100
AcDbPoint
 10
10598.60000000001
 20
8204.828102081929
 30
0.0
  0
ENDBLK
  5
26B84
330
26B79
100
AcDbEntity
  8
0
 48
50.0
100
AcDbBlockEnd
  0
BLOCK
  5
26B8F
330
26B85
100
AcDbEntity
  8
0
 48
50.0
100
AcDbBlockBegin
  2
*D39
 70
     1
 10
0.0
 20
0.0
 30
0.0
  3
*D39
  1

  0
LINE
  5
2750C
330
26B85
100
AcDbEntity
  8
寸法
 62
     0
 48
50.0
370
    -2
100
AcDbLine
 10
9648.600000000008
 20
7139.21928541168
 30
0.0
 11
9648.600000000008
 21
8264.828102081928
 31
0.0
  0
LINE
  5
2750D
330
26B85
100
AcDbEntity
  8
寸法
 62
     0
 48
50.0
370
    -2
100
AcDbLine
 10
8698.600000000007
 20
7139.21928541168
 30
0.0
 11
8698.600000000007
 21
8264.828102081928
 31
0.0
  0
LINE
  5
2750E
330
26B85
100
AcDbEntity
  8
寸法
 62
     0
 48
50.0
370
    -2
100
AcDbLine
 10
9648.600000000008
 20
8204.828102081929
 30
0.0
 11
8698.600000000007
 21
8204.828102081929
 31
0.0
  0
INSERT
  5
2750F
330
26B85
100
AcDbEntity
  8
寸法
 62
     0
 48
50.0
370
    -2
100
AcDbBlockReference
  2
_DOTSMALL
 10
9648.600000000008
 20
8204.828102081929
 30
0.0
 41
100.0
 42
100.0
 43
100.0
  0
INSERT
  5
27510
330
26B85
100
AcDbEntity
  8
寸法
 62
     0
 48
50.0
370
    -2
100
AcDbBlockReference
  2
_DOTSMALL
 10
8698.600000000007
 20
8204.828102081929
 30
0.0
 41
100.0
 42
100.0
 43
100.0
 50
180.0
  0
MTEXT
  5
27511
330
26B85
100
AcDbEntity
  8
寸法
 62
     7
 48
50.0
100
AcDbMText
 10
9173.600000000007
 20
8304.828102081929
 30
0.0
 40
120.0
 41
0.0
 71
     5
 72
     1
  1
\A1;950
  7
STYLE1
 73
     1
 44
1.0
1001
ACAD
1000
MTEXTBEGIN
1070
    73
1070
     1
1070
    44
1040
1.0
1070
    74
1070
     0
1000
MTEXTEND
  0
POINT
  5
27512
330
26B85
100
AcDbEntity
  8
DEFPOINTS
 62
     0
 48
50.0
100
AcDbPoint
 10
9648.600000000008
 20
7119.21928541168
 30
0.0
  0
POINT
  5
27513
330
26B85
100
AcDbEntity
  8
DEFPOINTS
 62
     0
 48
50.0
100
AcDbPoint
 10
8698.600000000007
 20
7119.21928541168
 30
0.0
  0
POINT
  5
27514
330
26B85
100
AcDbEntity
  8
DEFPOINTS
 62
     0
 48
50.0
100
AcDbPoint
 10
8698.600000000007
 20
8204.828102081929
 30
0.0
  0
ENDBLK
  5
26B90
330
26B85
100
AcDbEntity
  8
0
 48
50.0
100
AcDbBlockEnd
  0
BLOCK
  5
26B9B
330
26B91
100
AcDbEntity
  8
0
 48
50.0
100
AcDbBlockBegin
  2
*D40
 70
     1
 10
0.0
 20
0.0
 30
0.0
  3
*D40
  1

  0
LINE
  5
27503
330
26B91
100
AcDbEntity
  8
寸法
 62
     0
 48
50.0
370
    -2
100
AcDbLine
 10
10598.60000000001
 20
7139.21928541168
 30
0.0
 11
10598.60000000001
 21
8264.828102081928
 31
0.0
  0
LINE
  5
27504
330
26B91
100
AcDbEntity
  8
寸法
 62
     0
 48
50.0
370
    -2
100
AcDbLine
 10
9648.600000000008
 20
7139.21928541168
 30
0.0
 11
9648.600000000008
 21
8264.828102081928
 31
0.0
  0
LINE
  5
27505
330
26B91
100
AcDbEntity
  8
寸法
 62
     0
 48
50.0
370
    -2
100
AcDbLine
 10
10598.60000000001
 20
8204.828102081929
 30
0.0
 11
9648.600000000008
 21
8204.828102081929
 31
0.0
  0
INSERT
  5
27506
330
26B91
100
AcDbEntity
  8
寸法
 62
     0
 48
50.0
370
    -2
100
AcDbBlockReference
  2
_DOTSMALL
 10
10598.60000000001
 20
8204.828102081929
 30
0.0
 41
100.0
 42
100.0
 43
100.0
  0
INSERT
  5
27507
330
26B91
100
AcDbEntity
  8
寸法
 62
     0
 48
50.0
370
    -2
100
AcDbBlockReference
  2
_DOTSMALL
 10
9648.600000000008
 20
8204.828102081929
 30
0.0
 41
100.0
 42
100.0
 43
100.0
 50
180.0
  0
MTEXT
  5
27508
330
26B91
100
AcDbEntity
  8
寸法
 62
     7
 48
50.0
100
AcDbMText
 10
10123.60000000001
 20
8304.828102081929
 30
0.0
 40
120.0
 41
0.0
 71
     5
 72
     1
  1
\A1;950
  7
STYLE1
 73
     1
 44
1.0
1001
ACAD
1000
MTEXTBEGIN
1070
    73
1070
     1
1070
    44
1040
1.0
1070
    74
1070
     0
1000
MTEXTEND
  0
POINT
  5
27509
330
26B91
100
AcDbEntity
  8
DEFPOINTS
 62
     0
 48
50.0
100
AcDbPoint
 10
10598.60000000001
 20
7119.21928541168
 30
0.0
  0
POINT
  5
2750A
330
26B91
100
AcDbEntity
  8
DEFPOINTS
 62
     0
 48
50.0
100
AcDbPoint
 10
9648.600000000008
 20
7119.21928541168
 30
0.0
  0
POINT
  5
2750B
330
26B91
100
AcDbEntity
  8
DEFPOINTS
 62
     0
 48
50.0
100
AcDbPoint
 10
9648.600000000008
 20
8204.828102081929
 30
0.0
  0
ENDBLK
  5
26B9C
330
26B91
100
AcDbEntity
  8
0
 48
50.0
100
AcDbBlockEnd
  0
BLOCK
  5
26BB5
330
26BAA
100
AcDbEntity
  8
0
 48
50.0
100
AcDbBlockBegin
  2
*D41
 70
     1
 10
0.0
 20
0.0
 30
0.0
  3
*D41
  1

  0
LINE
  5
274F9
330
26BAA
100
AcDbEntity
  8
寸法
 62
     0
 48
50.0
370
    -2
100
AcDbLine
 10
11553.6
 20
7742.21928541168
 30
0.0
 11
11553.6
 21
8508.485743505591
 31
0.0
  0
LINE
  5
274FA
330
26BAA
100
AcDbEntity
  8
寸法
 62
     0
 48
50.0
370
    -2
100
AcDbLine
 10
11430.6
 20
7669.21928541168
 30
0.0
 11
11430.6
 21
8508.485743505591
 31
0.0
  0
LINE
  5
274FB
330
26BAA
100
AcDbEntity
  8
寸法
 62
     0
 48
50.0
370
    -2
100
AcDbLine
 10
11430.6
 20
8448.485743505591
 30
0.0
 11
11553.6
 21
8448.485743505591
 31
0.0
  0
LINE
  5
274FC
330
26BAA
100
AcDbEntity
  8
寸法
 62
     0
 48
50.0
370
    -2
100
AcDbLine
 10
11553.6
 20
8448.485743505591
 30
0.0
 11
11965.19188309203
 21
8448.485743505591
 31
0.0
  0
INSERT
  5
274FD
330
26BAA
100
AcDbEntity
  8
寸法
 62
     0
 48
50.0
370
    -2
100
AcDbBlockReference
  2
_DOTSMALL
 10
11430.6
 20
8448.485743505591
 30
0.0
 41
100.0
 42
100.0
 43
100.0
 50
180.0
  0
INSERT
  5
274FE
330
26BAA
100
AcDbEntity
  8
寸法
 62
     0
 48
50.0
370
    -2
100
AcDbBlockReference
  2
_DOTSMALL
 10
11553.6
 20
8448.485743505591
 30
0.0
 41
100.0
 42
100.0
 43
100.0
  0
MTEXT
  5
274FF
330
26BAA
100
AcDbEntity
  8
寸法
 62
     7
 48
50.0
100
AcDbMText
 10
11826.7066017178
 20
8548.497554529213
 30
0.0
 40
120.0
 41
0.0
 71
     5
 72
     1
  1
\A1;123
  7
STYLE1
 73
     1
 44
1.0
1001
ACAD
1000
MTEXTBEGIN
1070
    73
1070
     1
1070
    44
1040
1.0
1070
    74
1070
     0
1000
MTEXTEND
  0
POINT
  5
27500
330
26BAA
100
AcDbEntity
  8
DEFPOINTS
 62
     0
 48
50.0
100
AcDbPoint
 10
11553.6
 20
7722.21928541168
 30
0.0
  0
POINT
  5
27501
330
26BAA
100
AcDbEntity
  8
DEFPOINTS
 62
     0
 48
50.0
100
AcDbPoint
 10
11430.6
 20
7649.219285411681
 30
0.0
  0
POINT
  5
27502
330
26BAA
100
AcDbEntity
  8
DEFPOINTS
 62
     0
 48
50.0
100
AcDbPoint
 10
11430.6
 20
8448.485743505591
 30
0.0
  0
ENDBLK
  5
26BB6
330
26BAA
100
AcDbEntity
  8
0
 48
50.0
100
AcDbBlockEnd
  0
BLOCK
  5
26BCE
330
26BC4
100
AcDbEntity
  8
0
 48
50.0
100
AcDbBlockBegin
  2
*D42
 70
     1
 10
0.0
 20
0.0
 30
0.0
  3
*D42
  1

  0
LINE
  5
274F0
330
26BC4
100
AcDbEntity
  8
寸法
 62
     0
 48
50.0
370
    -2
100
AcDbLine
 10
11430.6
 20
7669.21928541168
 30
0.0
 11
11430.6
 21
8508.485743505591
 31
0.0
  0
LINE
  5
274F1
330
26BC4
100
AcDbEntity
  8
寸法
 62
     0
 48
50.0
370
    -2
100
AcDbLine
 10
8580.600000000002
 20
7669.21928541168
 30
0.0
 11
8580.600000000002
 21
8508.485743505591
 31
0.0
  0
LINE
  5
274F2
330
26BC4
100
AcDbEntity
  8
寸法
 62
     0
 48
50.0
370
    -2
100
AcDbLine
 10
11430.6
 20
8448.485743505591
 30
0.0
 11
8580.600000000002
 21
8448.485743505591
 31
0.0
  0
INSERT
  5
274F3
330
26BC4
100
AcDbEntity
  8
寸法
 62
     0
 48
50.0
370
    -2
100
AcDbBlockReference
  2
_DOTSMALL
 10
11430.6
 20
8448.485743505591
 30
0.0
 41
100.0
 42
100.0
 43
100.0
  0
INSERT
  5
274F4
330
26BC4
100
AcDbEntity
  8
寸法
 62
     0
 48
50.0
370
    -2
100
AcDbBlockReference
  2
_DOTSMALL
 10
8580.600000000002
 20
8448.485743505591
 30
0.0
 41
100.0
 42
100.0
 43
100.0
 50
180.0
  0
MTEXT
  5
274F5
330
26BC4
100
AcDbEntity
  8
寸法
 62
     7
 48
50.0
100
AcDbMText
 10
10005.6
 20
8548.497554529213
 30
0.0
 40
120.0
 41
0.0
 71
     5
 72
     1
  1
\A1;2850
  7
STYLE1
 73
     1
 44
1.0
1001
ACAD
1000
MTEXTBEGIN
1070
    73
1070
     1
1070
    44
1040
1.0
1070
    74
1070
     0
1000
MTEXTEND
  0
POINT
  5
274F6
330
26BC4
100
AcDbEntity
  8
DEFPOINTS
 62
     0
 48
50.0
100
AcDbPoint
 10
11430.6
 20
7649.219285411681
 30
0.0
  0
POINT
  5
274F7
330
26BC4
100
AcDbEntity
  8
DEFPOINTS
 62
     0
 48
50.0
100
AcDbPoint
 10
8580.600000000002
 20
7649.219285411681
 30
0.0
  0
POINT
  5
274F8
330
26BC4
100
AcDbEntity
  8
DEFPOINTS
 62
     0
 48
50.0
100
AcDbPoint
 10
8580.600000000002
 20
8448.485743505591
 30
0.0
  0
ENDBLK
  5
26BCF
330
26BC4
100
AcDbEntity
  8
0
 48
50.0
100
AcDbBlockEnd
  0
BLOCK
  5
26BDA
330
26BD0
100
AcDbEntity
  8
0
 48
50.0
100
AcDbBlockBegin
  2
*D43
 70
     1
 10
0.0
 20
0.0
 30
0.0
  3
*D43
  1

  0
LINE
  5
2759F
330
26BD0
100
AcDbEntity
  8
寸法
 62
     0
 48
50.0
370
    -2
100
AcDbLine
 10
8580.600000000002
 20
7669.21928541168
 30
0.0
 11
8580.600000000002
 21
8508.485743505591
 31
0.0
  0
LINE
  5
275A0
330
26BD0
100
AcDbEntity
  8
寸法
 62
     0
 48
50.0
370
    -2
100
AcDbLine
 10
6680.600000000001
 20
7669.21928541168
 30
0.0
 11
6680.600000000001
 21
8508.485743505591
 31
0.0
  0
LINE
  5
275A1
330
26BD0
100
AcDbEntity
  8
寸法
 62
     0
 48
50.0
370
    -2
100
AcDbLine
 10
8580.600000000002
 20
8448.485743505591
 30
0.0
 11
6680.600000000001
 21
8448.485743505591
 31
0.0
  0
INSERT
  5
275A2
330
26BD0
100
AcDbEntity
  8
寸法
 62
     0
 48
50.0
370
    -2
100
AcDbBlockReference
  2
_DOTSMALL
 10
8580.600000000002
 20
8448.485743505591
 30
0.0
 41
100.0
 42
100.0
 43
100.0
  0
INSERT
  5
275A3
330
26BD0
100
AcDbEntity
  8
寸法
 62
     0
 48
50.0
370
    -2
100
AcDbBlockReference
  2
_DOTSMALL
 10
6680.600000000001
 20
8448.485743505591
 30
0.0
 41
100.0
 42
100.0
 43
100.0
 50
180.0
  0
MTEXT
  5
275A4
330
26BD0
100
AcDbEntity
  8
寸法
 62
     7
 48
50.0
100
AcDbMText
 10
7630.600000000001
 20
8548.485743505592
 30
0.0
 40
120.0
 41
0.0
 71
     5
 72
     1
  1
\A1;1900
  7
STYLE1
 73
     1
 44
1.0
1001
ACAD
1000
MTEXTBEGIN
1070
    73
1070
     1
1070
    44
1040
1.0
1070
    74
1070
     0
1000
MTEXTEND
  0
POINT
  5
275A5
330
26BD0
100
AcDbEntity
  8
DEFPOINTS
 62
     0
 48
50.0
100
AcDbPoint
 10
8580.600000000002
 20
7649.219285411681
 30
0.0
  0
POINT
  5
275A6
330
26BD0
100
AcDbEntity
  8
DEFPOINTS
 62
     0
 48
50.0
100
AcDbPoint
 10
6680.600000000001
 20
7649.219285411681
 30
0.0
  0
POINT
  5
275A7
330
26BD0
100
AcDbEntity
  8
DEFPOINTS
 62
     0
 48
50.0
100
AcDbPoint
 10
6680.600000000001
 20
8448.485743505591
 30
0.0
  0
ENDBLK
  5
26BDB
330
26BD0
100
AcDbEntity
  8
0
 48
50.0
100
AcDbBlockEnd
  0
BLOCK
  5
26BE6
330
26BDC
100
AcDbEntity
  8
0
 48
50.0
100
AcDbBlockBegin
  2
*D44
 70
     1
 10
0.0
 20
0.0
 30
0.0
  3
*D44
  1

  0
LINE
  5
27596
330
26BDC
100
AcDbEntity
  8
寸法
 62
     0
 48
50.0
370
    -2
100
AcDbLine
 10
4893.600000000001
 20
7742.21928541168
 30
0.0
 11
4893.600000000001
 21
8740.439607470598
 31
0.0
  0
LINE
  5
27597
330
26BDC
100
AcDbEntity
  8
寸法
 62
     0
 48
50.0
370
    -2
100
AcDbLine
 10
11553.6
 20
7742.21928541168
 30
0.0
 11
11553.6
 21
8740.439607470598
 31
0.0
  0
LINE
  5
27598
330
26BDC
100
AcDbEntity
  8
寸法
 62
     0
 48
50.0
370
    -2
100
AcDbLine
 10
4893.600000000001
 20
8680.439607470599
 30
0.0
 11
11553.6
 21
8680.439607470599
 31
0.0
  0
INSERT
  5
27599
330
26BDC
100
AcDbEntity
  8
寸法
 62
     0
 48
50.0
370
    -2
100
AcDbBlockReference
  2
_DOTSMALL
 10
4893.600000000001
 20
8680.439607470599
 30
0.0
 41
100.0
 42
100.0
 43
100.0
 50
180.0
  0
INSERT
  5
2759A
330
26BDC
100
AcDbEntity
  8
寸法
 62
     0
 48
50.0
370
    -2
100
AcDbBlockReference
  2
_DOTSMALL
 10
11553.6
 20
8680.439607470599
 30
0.0
 41
100.0
 42
100.0
 43
100.0
  0
MTEXT
  5
2759B
330
26BDC
100
AcDbEntity
  8
寸法
 62
     7
 48
50.0
100
AcDbMText
 10
8223.600000000001
 20
8780.439607470599
 30
0.0
 40
120.0
 41
0.0
 71
     5
 72
     1
  1
\A1;6660
  7
STYLE1
 73
     1
 44
1.0
1001
ACAD
1000
MTEXTBEGIN
1070
    73
1070
     1
1070
    44
1040
1.0
1070
    74
1070
     0
1000
MTEXTEND
  0
POINT
  5
2759C
330
26BDC
100
AcDbEntity
  8
DEFPOINTS
 62
     0
 48
50.0
100
AcDbPoint
 10
4893.600000000001
 20
7722.21928541168
 30
0.0
  0
POINT
  5
2759D
330
26BDC
100
AcDbEntity
  8
DEFPOINTS
 62
     0
 48
50.0
100
AcDbPoint
 10
11553.6
 20
7722.21928541168
 30
0.0
  0
POINT
  5
2759E
330
26BDC
100
AcDbEntity
  8
DEFPOINTS
 62
     0
 48
50.0
100
AcDbPoint
 10
11553.6
 20
8680.439607470599
 30
0.0
  0
ENDBLK
  5
26BE7
330
26BDC
100
AcDbEntity
  8
0
 48
50.0
100
AcDbBlockEnd
  0
BLOCK
  5
26BF2
330
26BE8
100
AcDbEntity
  8
0
 48
50.0
100
AcDbBlockBegin
  2
*D45
 70
     1
 10
0.0
 20
0.0
 30
0.0
  3
*D45
  1

  0
LINE
  5
2758D
330
26BE8
100
AcDbEntity
  8
寸法
 62
     0
 48
50.0
370
    -2
100
AcDbLine
 10
8698.600000000007
 20
7139.21928541168
 30
0.0
 11
8698.600000000007
 21
8264.828102081928
 31
0.0
  0
LINE
  5
2758E
330
26BE8
100
AcDbEntity
  8
寸法
 62
     0
 48
50.0
370
    -2
100
AcDbLine
 10
7748.600000000007
 20
7139.21928541168
 30
0.0
 11
7748.600000000007
 21
8264.828102081928
 31
0.0
  0
LINE
  5
2758F
330
26BE8
100
AcDbEntity
  8
寸法
 62
     0
 48
50.0
370
    -2
100
AcDbLine
 10
8698.600000000007
 20
8204.828102081929
 30
0.0
 11
7748.600000000007
 21
8204.828102081929
 31
0.0
  0
INSERT
  5
27590
330
26BE8
100
AcDbEntity
  8
寸法
 62
     0
 48
50.0
370
    -2
100
AcDbBlockReference
  2
_DOTSMALL
 10
8698.600000000007
 20
8204.828102081929
 30
0.0
 41
100.0
 42
100.0
 43
100.0
  0
INSERT
  5
27591
330
26BE8
100
AcDbEntity
  8
寸法
 62
     0
 48
50.0
370
    -2
100
AcDbBlockReference
  2
_DOTSMALL
 10
7748.600000000007
 20
8204.828102081929
 30
0.0
 41
100.0
 42
100.0
 43
100.0
 50
180.0
  0
MTEXT
  5
27592
330
26BE8
100
AcDbEntity
  8
寸法
 62
     7
 48
50.0
100
AcDbMText
 10
8223.600000000008
 20
8304.828102081929
 30
0.0
 40
120.0
 41
0.0
 71
     5
 72
     1
  1
\A1;950
  7
STYLE1
 73
     1
 44
1.0
1001
ACAD
1000
MTEXTBEGIN
1070
    73
1070
     1
1070
    44
1040
1.0
1070
    74
1070
     0
1000
MTEXTEND
  0
POINT
  5
27593
330
26BE8
100
AcDbEntity
  8
DEFPOINTS
 62
     0
 48
50.0
100
AcDbPoint
 10
8698.600000000007
 20
7119.21928541168
 30
0.0
  0
POINT
  5
27594
330
26BE8
100
AcDbEntity
  8
DEFPOINTS
 62
     0
 48
50.0
100
AcDbPoint
 10
7748.600000000007
 20
7119.21928541168
 30
0.0
  0
POINT
  5
27595
330
26BE8
100
AcDbEntity
  8
DEFPOINTS
 62
     0
 48
50.0
100
AcDbPoint
 10
7748.600000000007
 20
8204.828102081929
 30
0.0
  0
ENDBLK
  5
26BF3
330
26BE8
100
AcDbEntity
  8
0
 48
50.0
100
AcDbBlockEnd
  0
BLOCK
  5
2746F
330
27465
100
AcDbEntity
  8
0
 48
50.0
100
AcDbBlockBegin
  2
*D46
 70
     1
 10
0.0
 20
0.0
 30
0.0
  3
*D46
  1

  0
LINE
  5
274AF
330
27465
100
AcDbEntity
  8
寸法
 62
     0
 48
50.0
370
    -2
100
AcDbLine
 10
6448.235599500144
 20
1867.976166357153
 30
0.0
 11
6448.235599500144
 21
2327.643974273534
 31
0.0
  0
LINE
  5
274B0
330
27465
100
AcDbEntity
  8
寸法
 62
     0
 48
50.0
370
    -2
100
AcDbLine
 10
6256.235599500144
 20
1867.976166357153
 30
0.0
 11
6256.235599500144
 21
2327.643974273534
 31
0.0
  0
LINE
  5
274B1
330
27465
100
AcDbEntity
  8
寸法
 62
     0
 48
50.0
370
    -2
100
AcDbLine
 10
6448.235599500144
 20
2267.643974273534
 30
0.0
 11
6256.235599500144
 21
2267.643974273534
 31
0.0
  0
INSERT
  5
274B2
330
27465
100
AcDbEntity
  8
寸法
 62
     0
 48
50.0
370
    -2
100
AcDbBlockReference
  2
_DOTSMALL
 10
6448.235599500144
 20
2267.643974273534
 30
0.0
 41
100.0
 42
100.0
 43
100.0
  0
INSERT
  5
274B3
330
27465
100
AcDbEntity
  8
寸法
 62
     0
 48
50.0
370
    -2
100
AcDbBlockReference
  2
_DOTSMALL
 10
6256.235599500144
 20
2267.643974273534
 30
0.0
 41
100.0
 42
100.0
 43
100.0
 50
180.0
  0
MTEXT
  5
274B4
330
27465
100
AcDbEntity
  8
寸法
 62
     7
 48
50.0
100
AcDbMText
 10
6352.235599500144
 20
2567.6794073444
 30
0.0
 40
120.0
 41
0.0
 71
     5
 72
     1
  1
\A1;120\P200\P280
  7
STYLE1
 73
     1
 44
1.0
1001
ACAD
1000
MTEXTBEGIN
1070
    73
1070
     1
1070
    44
1040
1.0
1070
    74
1070
     0
1000
MTEXTEND
  0
POINT
  5
274B5
330
27465
100
AcDbEntity
  8
DEFPOINTS
 62
     0
 48
50.0
100
AcDbPoint
 10
6448.235599500144
 20
1847.976166357153
 30
0.0
  0
POINT
  5
274B6
330
27465
100
AcDbEntity
  8
DEFPOINTS
 62
     0
 48
50.0
100
AcDbPoint
 10
6256.235599500144
 20
1847.976166357153
 30
0.0
  0
POINT
  5
274B7
330
27465
100
AcDbEntity
  8
DEFPOINTS
 62
     0
 48
50.0
100
AcDbPoint
 10
6256.235599500144
 20
2267.643974273534
 30
0.0
  0
ENDBLK
  5
27470
330
27465
100
AcDbEntity
  8
0
 48
50.0
100
AcDbBlockEnd
  0
BLOCK
  5
2747B
330
27471
100
AcDbEntity
  8
0
 48
50.0
100
AcDbBlockBegin
  2
*D47
 70
     1
 10
0.0
 20
0.0
 30
0.0
  3
*D47
  1

  0
LINE
  5
274B8
330
27471
100
AcDbEntity
  8
寸法
 62
     0
 48
50.0
370
    -2
100
AcDbLine
 10
6128.235599500144
 20
915.9761663571535
 30
0.0
 11
6128.235599500144
 21
465.5465283519934
 31
0.0
  0
LINE
  5
274B9
330
27471
100
AcDbEntity
  8
寸法
 62
     0
 48
50.0
370
    -2
100
AcDbLine
 10
6576.235599500144
 20
915.9761663571535
 30
0.0
 11
6576.235599500144
 21
465.5465283519934
 31
0.0
  0
LINE
  5
274BA
330
27471
100
AcDbEntity
  8
寸法
 62
     0
 48
50.0
370
    -2
100
AcDbLine
 10
6128.235599500144
 20
525.5465283519933
 30
0.0
 11
6576.235599500144
 21
525.5465283519933
 31
0.0
  0
INSERT
  5
274BB
330
27471
100
AcDbEntity
  8
寸法
 62
     0
 48
50.0
370
    -2
100
AcDbBlockReference
  2
_DOTSMALL
 10
6128.235599500144
 20
525.5465283519933
 30
0.0
 41
100.0
 42
100.0
 43
100.0
 50
180.0
  0
INSERT
  5
274BC
330
27471
100
AcDbEntity
  8
寸法
 62
     0
 48
50.0
370
    -2
100
AcDbBlockReference
  2
_DOTSMALL
 10
6576.235599500144
 20
525.5465283519933
 30
0.0
 41
100.0
 42
100.0
 43
100.0
  0
MTEXT
  5
274BD
330
27471
100
AcDbEntity
  8
寸法
 62
     7
 48
50.0
100
AcDbMText
 10
6332.138840821921
 20
625.5465283519933
 30
0.0
 40
120.0
 41
0.0
 71
     5
 72
     1
  1
\A1;300
  7
STYLE1
 73
     1
 44
1.0
1001
ACAD
1000
MTEXTBEGIN
1070
    73
1070
     1
1070
    44
1040
1.0
1070
    74
1070
     0
1000
MTEXTEND
  0
POINT
  5
274BE
330
27471
100
AcDbEntity
  8
DEFPOINTS
 62
     0
 48
50.0
100
AcDbPoint
 10
6128.235599500144
 20
935.9761663571534
 30
0.0
  0
POINT
  5
274BF
330
27471
100
AcDbEntity
  8
DEFPOINTS
 62
     0
 48
50.0
100
AcDbPoint
 10
6576.235599500144
 20
935.9761663571534
 30
0.0
  0
POINT
  5
274C0
330
27471
100
AcDbEntity
  8
DEFPOINTS
 62
     0
 48
50.0
100
AcDbPoint
 10
6576.235599500144
 20
525.5465283519933
 30
0.0
  0
ENDBLK
  5
2747C
330
27471
100
AcDbEntity
  8
0
 48
50.0
100
AcDbBlockEnd
  0
BLOCK
  5
27487
330
2747D
100
AcDbEntity
  8
0
 48
50.0
100
AcDbBlockBegin
  2
*D48
 70
     1
 10
0.0
 20
0.0
 30
0.0
  3
*D48
  1

  0
LINE
  5
274C1
330
2747D
100
AcDbEntity
  8
寸法
 62
     0
 48
50.0
370
    -2
100
AcDbLine
 10
6236.235599500144
 20
1847.976166357153
 30
0.0
 11
5461.198360938404
 21
1847.976166357154
 31
0.0
  0
LINE
  5
274C2
330
2747D
100
AcDbEntity
  8
寸法
 62
     0
 48
50.0
370
    -2
100
AcDbLine
 10
6028.235599500148
 20
1063.976166357153
 30
0.0
 11
5461.198360938404
 21
1063.976166357154
 31
0.0
  0
LINE
  5
274C3
330
2747D
100
AcDbEntity
  8
寸法
 62
     0
 48
50.0
370
    -2
100
AcDbLine
 10
5521.198360938404
 20
1847.976166357154
 30
0.0
 11
5521.198360938404
 21
1063.976166357154
 31
0.0
  0
INSERT
  5
274C4
330
2747D
100
AcDbEntity
  8
寸法
 62
     0
 48
50.0
370
    -2
100
AcDbBlockReference
  2
_DOTSMALL
 10
5521.198360938404
 20
1847.976166357154
 30
0.0
 41
100.0
 42
100.0
 43
100.0
 50
90.0
  0
INSERT
  5
274C5
330
2747D
100
AcDbEntity
  8
寸法
 62
     0
 48
50.0
370
    -2
100
AcDbBlockReference
  2
_DOTSMALL
 10
5521.198360938404
 20
1063.976166357154
 30
0.0
 41
100.0
 42
100.0
 43
100.0
 50
270.0
  0
MTEXT
  5
274C6
330
2747D
100
AcDbEntity
  8
寸法
 62
     7
 48
50.0
100
AcDbMText
 10
5421.198360938404
 20
1435.516316013154
 30
0.0
 40
120.0
 41
0.0
 71
     5
 72
     1
  1
\A1;540
  7
STYLE1
 11
0.0000000000000001
 21
1.0
 31
0.0
 73
     1
 44
1.0
1001
ACAD
1000
MTEXTBEGIN
1070
    73
1070
     1
1070
    44
1040
1.0
1070
    74
1070
     0
1000
MTEXTEND
  0
POINT
  5
274C7
330
2747D
100
AcDbEntity
  8
DEFPOINTS
 62
     0
 48
50.0
100
AcDbPoint
 10
6256.235599500144
 20
1847.976166357153
 30
0.0
  0
POINT
  5
274C8
330
2747D
100
AcDbEntity
  8
DEFPOINTS
 62
     0
 48
50.0
100
AcDbPoint
 10
6048.235599500149
 20
1063.976166357153
 30
0.0
  0
POINT
  5
274C9
330
2747D
100
AcDbEntity
  8
DEFPOINTS
 62
     0
 48
50.0
100
AcDbPoint
 10
5521.198360938404
 20
1063.976166357154
 30
0.0
  0
ENDBLK
  5
27488
330
2747D
100
AcDbEntity
  8
0
 48
50.0
100
AcDbBlockEnd
  0
BLOCK
  5
27493
330
27489
100
AcDbEntity
  8
0
 48
50.0
100
AcDbBlockBegin
  2
*D49
 70
     1
 10
0.0
 20
0.0
 30
0.0
  3
*D49
  1

  0
LINE
  5
274CA
330
27489
100
AcDbEntity
  8
寸法
 62
     0
 48
50.0
370
    -2
100
AcDbLine
 10
6108.235599500144
 20
1303.976166357153
 30
0.0
 11
5925.815285767686
 21
1303.976166357153
 31
0.0
  0
LINE
  5
274CB
330
27489
100
AcDbEntity
  8
寸法
 62
     0
 48
50.0
370
    -2
100
AcDbLine
 10
6028.235599500148
 20
1063.976166357153
 30
0.0
 11
5925.815285767686
 21
1063.976166357153
 31
0.0
  0
LINE
  5
274CC
330
27489
100
AcDbEntity
  8
寸法
 62
     0
 48
50.0
370
    -2
100
AcDbLine
 10
5985.815285767685
 20
1303.976166357153
 30
0.0
 11
5985.815285767685
 21
1063.976166357153
 31
0.0
  0
INSERT
  5
274CD
330
27489
100
AcDbEntity
  8
寸法
 62
     0
 48
50.0
370
    -2
100
AcDbBlockReference
  2
_DOTSMALL
 10
5985.815285767685
 20
1303.976166357153
 30
0.0
 41
100.0
 42
100.0
 43
100.0
 50
90.0
  0
INSERT
  5
274CE
330
27489
100
AcDbEntity
  8
寸法
 62
     0
 48
50.0
370
    -2
100
AcDbBlockReference
  2
_DOTSMALL
 10
5985.815285767685
 20
1063.976166357153
 30
0.0
 41
100.0
 42
100.0
 43
100.0
 50
270.0
  0
MTEXT
  5
274CF
330
27489
100
AcDbEntity
  8
寸法
 62
     7
 48
50.0
100
AcDbMText
 10
5885.815285767685
 20
1183.976166357154
 30
0.0
 40
120.0
 41
0.0
 71
     5
 72
     1
  1
\A1;150
  7
STYLE1
 11
0.0000000000000001
 21
1.0
 31
0.0
 73
     1
 44
1.0
1001
ACAD
1000
MTEXTBEGIN
1070
    73
1070
     1
1070
    44
1040
1.0
1070
    74
1070
     0
1000
MTEXTEND
  0
POINT
  5
274D0
330
27489
100
AcDbEntity
  8
DEFPOINTS
 62
     0
 48
50.0
100
AcDbPoint
 10
6128.235599500144
 20
1303.976166357153
 30
0.0
  0
POINT
  5
274D1
330
27489
100
AcDbEntity
  8
DEFPOINTS
 62
     0
 48
50.0
100
AcDbPoint
 10
6048.235599500149
 20
1063.976166357153
 30
0.0
  0
POINT
  5
274D2
330
27489
100
AcDbEntity
  8
DEFPOINTS
 62
     0
 48
50.0
100
AcDbPoint
 10
5985.815285767685
 20
1063.976166357153
 30
0.0
  0
ENDBLK
  5
27494
330
27489
100
AcDbEntity
  8
0
 48
50.0
100
AcDbBlockEnd
  0
BLOCK
  5
274A1
330
27495
100
AcDbEntity
  8
0
 48
50.0
100
AcDbBlockBegin
  2
*D50
 70
     1
 10
0.0
 20
0.0
 30
0.0
  3
*D50
  1

  0
LINE
  5
274D3
330
27495
100
AcDbEntity
  8
寸法
 62
     0
 48
50.0
370
    -2
100
AcDbLine
 10
8203.074912677339
 20
1900.736166357155
 30
0.0
 11
9208.19817856521
 21
1900.736166357154
 31
0.0
  0
LINE
  5
274D4
330
27495
100
AcDbEntity
  8
寸法
 62
     0
 48
50.0
370
    -2
100
AcDbLine
 10
8390.274912677339
 20
1847.976166357153
 30
0.0
 11
9208.19817856521
 21
1847.976166357153
 31
0.0
  0
LINE
  5
274D5
330
27495
100
AcDbEntity
  8
寸法
 62
     0
 48
50.0
370
    -2
100
AcDbLine
 10
9148.198178565209
 20
1900.736166357154
 30
0.0
 11
9148.198178565209
 21
2000.736166357155
 31
0.0
  0
LINE
  5
274D6
330
27495
100
AcDbEntity
  8
寸法
 62
     0
 48
50.0
370
    -2
100
AcDbLine
 10
9148.198178565209
 20
1847.976166357153
 30
0.0
 11
9148.198178565209
 21
1115.958359514187
 31
0.0
  0
LINE
  5
274D7
330
27495
100
AcDbEntity
  8
寸法
 62
     0
 48
50.0
370
    -2
100
AcDbLine
 10
9148.198178565209
 20
1900.736166357154
 30
0.0
 11
9148.198178565209
 21
1847.976166357153
 31
0.0
  0
INSERT
  5
274D8
330
27495
100
AcDbEntity
  8
寸法
 62
     0
 48
50.0
370
    -2
100
AcDbBlockReference
  2
_DOTSMALL
 10
9148.198178565209
 20
1900.736166357154
 30
0.0
 41
100.0
 42
100.0
 43
100.0
 50
270.0
  0
INSERT
  5
274D9
330
27495
100
AcDbEntity
  8
寸法
 62
     0
 48
50.0
370
    -2
100
AcDbBlockReference
  2
_DOTSMALL
 10
9148.198178565209
 20
1847.976166357153
 30
0.0
 41
100.0
 42
100.0
 43
100.0
 50
90.0
  0
MTEXT
  5
274DA
330
27495
100
AcDbEntity
  8
寸法
 62
     7
 48
50.0
100
AcDbMText
 10
9048.186367541587
 20
1381.967262935671
 30
0.0
 40
120.0
 41
0.0
 71
     5
 72
     1
  1
\A1;20～25
  7
STYLE1
 11
0.0000000000000001
 21
1.0
 31
0.0
 73
     1
 44
1.0
1001
ACAD
1000
MTEXTBEGIN
1070
    73
1070
     1
1070
    44
1040
1.0
1070
    74
1070
     0
1000
MTEXTEND
  0
POINT
  5
274DB
330
27495
100
AcDbEntity
  8
DEFPOINTS
 62
     0
 48
50.0
100
AcDbPoint
 10
8183.074912677339
 20
1900.736166357155
 30
0.0
  0
POINT
  5
274DC
330
27495
100
AcDbEntity
  8
DEFPOINTS
 62
     0
 48
50.0
100
AcDbPoint
 10
8370.274912677338
 20
1847.976166357153
 30
0.0
  0
POINT
  5
274DD
330
27495
100
AcDbEntity
  8
DEFPOINTS
 62
     0
 48
50.0
100
AcDbPoint
 10
9148.198178565209
 20
1847.976166357153
 30
0.0
  0
ENDBLK
  5
274A2
330
27495
100
AcDbEntity
  8
0
 48
50.0
100
AcDbBlockEnd
  0
BLOCK
  5
274AD
330
274A3
100
AcDbEntity
  8
0
 48
50.0
100
AcDbBlockBegin
  2
*D51
 70
     1
 10
0.0
 20
0.0
 30
0.0
  3
*D51
  1

  0
LINE
  5
274DE
330
274A3
100
AcDbEntity
  8
寸法
 62
     0
 48
50.0
370
    -2
100
AcDbLine
 10
8390.274912677339
 20
1847.976166357153
 30
0.0
 11
8932.143512446183
 21
1847.976166357153
 31
0.0
  0
LINE
  5
274DF
330
274A3
100
AcDbEntity
  8
寸法
 62
     0
 48
50.0
370
    -2
100
AcDbLine
 10
8390.274912677339
 20
1523.976166357152
 30
0.0
 11
8932.143512446183
 21
1523.976166357152
 31
0.0
  0
LINE
  5
274E0
330
274A3
100
AcDbEntity
  8
寸法
 62
     0
 48
50.0
370
    -2
100
AcDbLine
 10
8872.143512446182
 20
1847.976166357153
 30
0.0
 11
8872.143512446182
 21
1523.976166357152
 31
0.0
  0
INSERT
  5
274E1
330
274A3
100
AcDbEntity
  8
寸法
 62
     0
 48
50.0
370
    -2
100
AcDbBlockReference
  2
_DOTSMALL
 10
8872.143512446182
 20
1847.976166357153
 30
0.0
 41
100.0
 42
100.0
 43
100.0
 50
90.0
  0
INSERT
  5
274E2
330
274A3
100
AcDbEntity
  8
寸法
 62
     0
 48
50.0
370
    -2
100
AcDbBlockReference
  2
_DOTSMALL
 10
8872.143512446182
 20
1523.976166357152
 30
0.0
 41
100.0
 42
100.0
 43
100.0
 50
270.0
  0
MTEXT
  5
274E3
330
274A3
100
AcDbEntity
  8
寸法
 62
     7
 48
50.0
100
AcDbMText
 10
8772.143512446183
 20
1685.976166357154
 30
0.0
 40
120.0
 41
0.0
 71
     5
 72
     1
  1
\A1;180
  7
STYLE1
 11
0.0000000000000001
 21
1.0
 31
0.0
 73
     1
 44
1.0
1001
ACAD
1000
MTEXTBEGIN
1070
    73
1070
     1
1070
    44
1040
1.0
1070
    74
1070
     0
1000
MTEXTEND
  0
POINT
  5
274E4
330
274A3
100
AcDbEntity
  8
DEFPOINTS
 62
     0
 48
50.0
100
AcDbPoint
 10
8370.274912677338
 20
1847.976166357153
 30
0.0
  0
POINT
  5
274E5
330
274A3
100
AcDbEntity
  8
DEFPOINTS
 62
     0
 48
50.0
100
AcDbPoint
 10
8370.274912677338
 20
1523.976166357152
 30
0.0
  0
POINT
  5
274E6
330
274A3
100
AcDbEntity
  8
DEFPOINTS
 62
     0
 48
50.0
100
AcDbPoint
 10
8872.143512446182
 20
1523.976166357152
 30
0.0
  0
ENDBLK
  5
274AE
330
274A3
100
AcDbEntity
  8
0
 48
50.0
100
AcDbBlockEnd
  0
ENDSEC
  0
SECTION
  2
ENTITIES
  0
MTEXT
  5
763F
330
747D
100
AcDbEntity
  8
0
100
AcDbMText
 10
302.846345836809
 20
280.1983726409901
 30
0.0
 40
3.5
 41
5.323721266742722
 71
     1
 72
     5
  1

  7
MSMINCHO
 73
     1
 44
1.0
1001
ACAD
1000
MTEXTBEGIN
1070
    73
1070
     1
1070
    44
1040
1.0
1070
    74
1070
     0
1000
MTEXTEND
  0
LINE
  5
10B57
330
747D
100
AcDbEntity
  8
補助
  6
PHANTOM
 62
   230
 48
50.0
100
AcDbLine
 10
139.9999999999995
 20
11409.6
 30
0.0
 11
16307.2
 21
11409.6
 31
0.0
  0
LINE
  5
10B59
330
747D
100
AcDbEntity
  8
仕様書枠
  6
Continuous
 48
50.0
100
AcDbLine
 10
13107.2
 20
1200.0
 30
0.0
 11
13107.2
 21
-0.0000000000000729
 31
0.0
  0
LINE
  5
10B5D
330
747D
100
AcDbEntity
  8
仕様書枠
 48
50.0
100
AcDbLine
 10
140.0
 20
0.0
 30
0.0
 11
16307.2
 21
-0.0000000000000909
 31
0.0
  0
LINE
  5
10B5E
330
747D
100
AcDbEntity
  8
補助
  6
PHANTOM
 62
   230
 48
50.0
100
AcDbLine
 10
16307.2
 20
11409.6
 30
0.0
 11
16307.2
 21
1200.0
 31
0.0
  0
LINE
  5
10B6C
330
747D
100
AcDbEntity
  8
仕様書枠
 48
50.0
100
AcDbLine
 10
13107.2
 20
1200.0
 30
0.0
 11
16307.2
 21
1200.0
 31
0.0
  0
TEXT
  5
10B73
330
747D
100
AcDbEntity
  8
文字
 62
     7
 48
50.0
100
AcDbText
 10
13162.9790565769
 20
895.0906074299405
 30
0.0
 40
200.0
  1
基 礎 図
  7
STYLE2
100
AcDbText
  0
LINE
  5
10B7B
330
747D
100
AcDbEntity
  8
仕様書枠
 48
50.0
100
AcDbLine
 10
13107.2
 20
800.0
 30
0.0
 11
14251.2
 21
800.0
 31
0.0
  0
LINE
  5
10B88
330
747D
100
AcDbEntity
  8
仕様書枠
  6
Continuous
 48
50.0
100
AcDbLine
 10
14251.2
 20
1200.0
 30
0.0
 11
14251.2
 21
800.0
 31
0.0
  0
LINE
  5
16462
330
747D
100
AcDbEntity
  8
仕様書枠
 48
50.0
100
AcDbLine
 10
16307.2
 20
1200.0
 30
0.0
 11
16307.2
 21
-0.0000000000000909
 31
0.0
  0
LINE
  5
1903B
330
747D
100
AcDbEntity
  8
補助
  6
PHANTOM
 62
   230
 48
50.0
100
AcDbLine
 10
140.0
 20
0.0
 30
0.0
 11
139.9999999999995
 21
11409.6
 31
0.0
  0
LEADER
  5
1AC27
330
747D
100
AcDbEntity
  8
寸法
 48
50.0
100
AcDbLeader
  3
INABA_S40G
 73
     0
 74
     0
 75
     1
 40
120.0
 41
720.0000000000001
 76
     3
 10
11555.05985718447
 20
7028.206221865926
 30
0.0
 10
11721.83343157075
 20
6752.192308298093
 30
0.0
 10
11821.83343157075
 20
6752.192308298093
 30
0.0
340
1AC28
1001
ACAD
1000
DSTYLE
1002
{
1070
   341
1005
0
1002
}
  0
MTEXT
  5
1AC28
102
{ACAD_REACTORS
330
1AC27
102
}
330
747D
100
AcDbEntity
  8
部品1
 62
     7
 48
50.0
100
AcDbMText
 10
12581.83343157075
 20
6852.192308298093
 30
0.0
 40
120.0
 41
0.0
 71
     6
 72
     1
  1
\A1;床下換気口
  7
STYLE1
 73
     1
 44
1.0
1001
ACAD
1000
MTEXTBEGIN
1070
    73
1070
     1
1070
    44
1040
1.0
1070
    74
1070
     0
1000
MTEXTEND
  0
TEXT
  5
1AC29
330
747D
100
AcDbEntity
  8
部品1
 48
50.0
100
AcDbText
 10
11902.43013846117
 20
6034.917860340111
 30
0.0
 40
80.0
  1
(a=45,b=55,c=75)
  7
STYLE1
100
AcDbText
  0
TEXT
  5
1AC2A
330
747D
100
AcDbEntity
  8
部品1
 48
50.0
100
AcDbText
 10
11743.85112970688
 20
6141.763081208864
 30
0.0
 40
80.0
  1
※a,b,cは屋根の出幅です。
  7
STYLE1
100
AcDbText
  0
MTEXT
  5
1AC2B
102
{ACAD_REACTORS
330
1AC2C
102
}
330
747D
100
AcDbEntity
  8
部品1
 62
     7
 48
50.0
100
AcDbMText
 10
12541.63832569548
 20
6321.073768141939
 30
0.0
 40
120.0
 41
0.0
 71
     6
 72
     1
  1
\A1;屋根の外寸
  7
STYLE1
 73
     1
 44
1.0
1001
ACAD
1000
MTEXTBEGIN
1070
    73
1070
     1
1070
    44
1040
1.0
1070
    74
1070
     0
1000
MTEXTEND
  0
LEADER
  5
1AC2C
330
747D
100
AcDbEntity
  8
寸法
 48
50.0
100
AcDbLeader
  3
INABA_S40G
 73
     0
 74
     0
 75
     1
 40
120.0
 41
672.0
 76
     3
 10
11603.69831350344
 20
6494.963111605516
 30
0.0
 10
11729.63832569548
 20
6221.073768141939
 30
0.0
 10
11829.63832569548
 20
6221.073768141939
 30
0.0
340
1AC2B
1001
ACAD
1000
DSTYLE
1002
{
1070
   341
1005
0
1002
}
  0
TEXT
  5
1C7A1
330
747D
100
AcDbEntity
  8
文字
 62
     7
 48
50.0
100
AcDbText
 10
13188.16259899338
 20
79.80631269190417
 30
0.0
 40
80.0
  1
※布基礎には換気口を設けてください。
  7
STYLE2
100
AcDbText
  0
TEXT
  5
1C7E7
330
747D
100
AcDbEntity
  8
文字
 62
     7
 48
50.0
100
AcDbText
 10
13188.16259899338
 20
246.7109242801889
 30
0.0
 40
80.0
  1
※寒冷地等は地域の実情に合わせた基礎にして下さい。
  7
STYLE2
100
AcDbText
  0
TEXT
  5
1C7E8
330
747D
100
AcDbEntity
  8
文字
 62
     7
 48
50.0
100
AcDbText
 10
14325.79230300687
 20
499.5983841039506
 30
0.0
 40
160.0
  1
ＮＸＮ－１３ＤＬ－７
  7
STYLE2
100
AcDbText
  0
TEXT
  5
1C7EC
330
747D
100
AcDbEntity
  8
文字
 62
     7
 48
50.0
100
AcDbText
 10
14524.131837222
 20
1031.557706291229
 30
0.0
 40
100.0
  1
<縮尺> S=1/40
  7
STYLE2
100
AcDbText
  0
TEXT
  5
1C7ED
330
747D
100
AcDbEntity
  8
文字
 62
     7
 48
50.0
100
AcDbText
 10
13201.43669998441
 20
477.2740661031257
 30
0.0
 40
160.0
  1
機種名
  7
STYLE2
100
AcDbText
  0
LINE
  5
1C7EF
330
747D
100
AcDbEntity
  8
文字
 62
     7
 48
50.0
100
AcDbLine
 10
13187.2
 20
400.0
 30
0.0
 11
16227.2
 21
400.0
 31
0.0
  0
MTEXT
  5
1D2D5
102
{ACAD_REACTORS
330
1D2D6
102
}
330
747D
100
AcDbEntity
  8
部品1
 62
     7
 48
50.0
100
AcDbMText
 10
12748.99523070988
 20
8037.832029654188
 30
0.0
 40
120.0
 41
0.0
 71
     6
 72
     1
  1
アンカーボルト
  7
STYLE1
 73
     1
 44
1.0
1001
ACAD
1000
MTEXTBEGIN
1070
    73
1070
     1
1070
    44
1040
1.0
1070
    74
1070
     0
1000
MTEXTEND
  0
LEADER
  5
1D2D6
330
747D
100
AcDbEntity
  8
寸法
 48
50.0
100
AcDbLeader
  3
INABA_S40G
 73
     0
 74
     0
 75
     1
 40
120.0
 41
994.3492424049171
 76
     3
 10
11430.680085757
 20
7599.427129770392
 30
0.0
 10
11614.64598830496
 20
7937.832029654188
 30
0.0
 10
11714.64598830496
 20
7937.832029654188
 30
0.0
340
1D2D5
1001
ACAD
1000
DSTYLE
1002
{
1070
   341
1005
0
1002
}
  0
MTEXT
  5
1D332
102
{ACAD_REACTORS
330
1D333
102
}
330
747D
100
AcDbEntity
  8
部品1
 62
     7
 48
50.0
100
AcDbMText
 10
11113.82869701569
 20
6892.809806345237
 30
0.0
 40
120.0
 41
0.0
 71
     6
 72
     1
  1
CB
  7
STYLE1
 73
     1
 44
1.0
1001
ACAD
1000
MTEXTBEGIN
1070
    73
1070
     1
1070
    44
1040
1.0
1070
    74
1070
     0
1000
MTEXTEND
  0
LEADER
  5
1D333
330
747D
100
AcDbEntity
  8
寸法
 48
50.0
100
AcDbLeader
  3
INABA_S40G
 73
     0
 74
     0
 75
     1
 40
120.0
 41
149.591883092037
 76
     3
 10
10686.95401106101
 20
7030.528119900063
 30
0.0
 10
10824.23681392365
 20
6792.809806345236
 30
0.0
 10
10924.23681392365
 20
6792.809806345236
 30
0.0
340
1D332
1001
ACAD
1000
DSTYLE
1002
{
1070
   341
1005
0
1002
}
  0
DIMENSION
  5
20DE1
330
747D
100
AcDbEntity
  8
寸法
 48
50.0
100
AcDbDimension
  2
*D19
 10
11598.6
 20
8680.439607470601
 30
0.0
 11
11869.77462120246
 21
8680.439607470601
 31
0.0
 70
   160
  1
a
 71
     5
 42
45.0
  3
INABA_S40G
100
AcDbAlignedDimension
 13
11553.6
 23
7722.21928541168
 33
0.0
 14
11598.6
 24
8448.485743505591
 34
0.0
100
AcDbRotatedDimension
1001
ACAD
1000
DSTYLE
1002
{
1070
   341
1005
0
1002
}
  0
DIMENSION
  5
20DFB
330
747D
100
AcDbEntity
  8
寸法
 48
50.0
100
AcDbDimension
  2
*D20
 10
4893.600000000001
 20
8680.439607470601
 30
0.0
 11
4577.425378797541
 21
8680.439607470601
 31
0.0
 70
   160
  1
a
 71
     5
 42
44.99999999999272
  3
INABA_S40G
100
AcDbAlignedDimension
 13
4848.600000000008
 23
8448.485743505592
 33
0.0
 14
4893.600000000001
 24
7722.21928541168
 34
0.0
100
AcDbRotatedDimension
1001
ACAD
1000
DSTYLE
1002
{
1070
   341
1005
0
1002
}
  0
LINE
  5
22711
330
747D
100
AcDbEntity
  8
想像線
 48
10.0
100
AcDbLine
 10
11598.6
 20
7797.219285411682
 30
0.0
 11
4848.600000000001
 21
7797.219285411698
 31
0.0
  0
LINE
  5
22712
330
747D
100
AcDbEntity
  8
想像線
 48
10.0
100
AcDbLine
 10
4848.600000000001
 20
6287.21928541169
 30
0.0
 11
4848.600000000001
 21
7797.219285411689
 31
0.0
  0
LINE
  5
22713
330
747D
100
AcDbEntity
  8
想像線
 48
10.0
100
AcDbLine
 10
11598.6
 20
6287.219285411697
 30
0.0
 11
11598.6
 21
7797.219285411682
 31
0.0
  0
LINE
  5
22714
330
747D
100
AcDbEntity
  8
想像線
 48
10.0
100
AcDbLine
 10
11598.6
 20
6287.219285411697
 30
0.0
 11
4848.600000000001
 21
6287.21928541168
 31
0.0
  0
DIMENSION
  5
22741
330
747D
100
AcDbEntity
  8
寸法
 48
50.0
100
AcDbDimension
  2
*D21
 10
4018.721909610676
 20
7722.21928541168
 30
0.0
 11
3918.721909610675
 21
7759.719285411684
 31
0.0
 70
    32
  1
c
 71
     5
 42
75.00000000000636
  3
INABA_S40G
100
AcDbAlignedDimension
 13
4270.665006330071
 23
7797.219285411687
 33
0.0
 14
4893.600000000001
 24
7722.21928541168
 34
0.0
 50
90.0
100
AcDbRotatedDimension
1001
ACAD
1000
DSTYLE
1002
{
1070
   341
1005
0
1002
}
  0
DIMENSION
  5
2275B
330
747D
100
AcDbEntity
  8
寸法
 48
50.0
100
AcDbDimension
  2
*D22
 10
4018.721909610676
 20
6287.219285411707
 30
0.0
 11
3918.721909610676
 21
6314.719285411695
 31
0.0
 70
    32
  1
b
 71
     5
 42
54.99999999997453
  3
INABA_S40G
100
AcDbAlignedDimension
 13
4893.600000000001
 23
6342.219285411681
 33
0.0
 14
4270.665006330075
 24
6287.219285411707
 34
0.0
 50
90.0
100
AcDbRotatedDimension
1001
ACAD
1000
DSTYLE
1002
{
1070
   341
1005
0
1002
}
  0
DIMENSION
  5
23FD9
330
747D
100
AcDbEntity
  8
寸法
 48
50.0
100
AcDbDimension
  2
*D24
 10
10872.81202022565
 20
6342.219285411698
 30
0.0
 11
10872.81202022565
 21
6055.255702734527
 31
0.0
 70
   160
 71
     5
 42
279.9999999999818
  3
INABA_S40G
100
AcDbAlignedDimension
 13
10973.59999999998
 23
6622.21928541168
 33
0.0
 14
10973.6
 24
6342.219285411698
 34
0.0
 50
90.0
100
AcDbRotatedDimension
1001
ACAD
1000
DSTYLE
1002
{
1070
   341
1005
0
1002
}
  0
DIMENSION
  5
23FDA
330
747D
100
AcDbEntity
  8
寸法
 48
50.0
100
AcDbDimension
  2
*D25
 10
10872.81202022565
 20
7522.219285411683
 30
0.0
 11
10872.81202022565
 21
8009.182868088839
 31
0.0
 70
   160
 71
     5
 42
199.9999999999854
  3
INABA_S40G
100
AcDbAlignedDimension
 13
10973.6
 23
7722.219285411667
 33
0.0
 14
10973.60000000001
 24
7522.219285411683
 34
0.0
 50
90.0
100
AcDbRotatedDimension
1001
ACAD
1000
DSTYLE
1002
{
1070
   341
1005
0
1002
}
  0
DIMENSION
  5
24043
330
747D
100
AcDbEntity
  8
寸法
 48
50.0
100
AcDbDimension
  2
*D23
 10
11433.6
 20
7271.817898509791
 30
0.0
 11
11823.65905511811
 21
7271.817898509791
 31
0.0
 70
   160
 71
     5
 42
120.0
  3
INABA_S40G
100
AcDbAlignedDimension
 13
11553.6
 23
7157.219285411717
 33
0.0
 14
11433.6
 24
7157.219285411713
 34
0.0
100
AcDbRotatedDimension
1001
ACAD
1000
DSTYLE
1002
{
1070
   341
1005
0
1002
}
  0
LINE
  5
2698B
330
747D
100
AcDbEntity
  8
部品1
 48
50.0
100
AcDbLine
 10
11433.6
 20
7522.219285411681
 30
0.0
 11
5013.599999999996
 21
7522.219285411679
 31
0.0
  0
DIMENSION
  5
2698C
330
747D
100
AcDbEntity
  8
寸法
 48
50.0
100
AcDbDimension
  2
*D43
 10
6680.600000000001
 20
8448.485743505591
 30
0.0
 11
7630.600000000001
 21
8548.485743505592
 31
0.0
 70
    32
 71
     5
 42
1900.0
  3
INABA_S40G
100
AcDbAlignedDimension
 13
8580.600000000002
 23
7649.219285411681
 33
0.0
 14
6680.600000000001
 24
7649.219285411681
 34
0.0
100
AcDbRotatedDimension
1001
ACAD
1000
DSTYLE
1002
{
1070
   341
1005
0
1002
}
  0
DIMENSION
  5
2698D
330
747D
100
AcDbEntity
  8
寸法
 48
50.0
100
AcDbDimension
  2
*D44
 10
11553.6
 20
8680.439607470599
 30
0.0
 11
8223.600000000001
 21
8780.439607470599
 31
0.0
 70
    32
 71
     5
 42
6660.0
  3
INABA_S40G
100
AcDbAlignedDimension
 13
4893.600000000001
 23
7722.21928541168
 33
0.0
 14
11553.6
 24
7722.21928541168
 34
0.0
100
AcDbRotatedDimension
1001
ACAD
1000
DSTYLE
1002
{
1070
   341
1005
0
1002
}
  0
LINE
  5
2698E
330
747D
100
AcDbEntity
  8
部品1
 48
50.0
100
AcDbLine
 10
11553.6
 20
7722.21928541168
 30
0.0
 11
4893.600000000001
 21
7722.21928541168
 31
0.0
  0
LINE
  5
26990
330
747D
100
AcDbEntity
  8
部品1
 48
50.0
100
AcDbLine
 10
11553.6
 20
6342.219285411715
 30
0.0
 11
4893.599999999997
 21
6342.219285411676
 31
0.0
  0
DIMENSION
  5
26992
330
747D
100
AcDbEntity
  8
寸法
 48
50.0
100
AcDbDimension
  2
*D45
 10
7748.600000000007
 20
8204.828102081929
 30
0.0
 11
8223.600000000008
 21
8304.828102081929
 31
0.0
 70
    32
 71
     5
 42
950.0
  3
INABA_S40G
100
AcDbAlignedDimension
 13
8698.600000000007
 23
7119.21928541168
 33
0.0
 14
7748.600000000007
 24
7119.21928541168
 34
0.0
100
AcDbRotatedDimension
1001
ACAD
1000
DSTYLE
1002
{
1070
   341
1005
0
1002
}
  0
LINE
  5
26993
330
747D
100
AcDbEntity
  8
細線
 48
50.0
100
AcDbLine
 10
4893.599999999992
 20
7044.341813174843
 30
0.0
 11
5006.477472236864
 21
7157.219285411715
 31
0.0
  0
LINE
  5
26994
330
747D
100
AcDbEntity
  8
細線
 48
50.0
100
AcDbLine
 10
4893.599999999992
 20
7089.243093780189
 30
0.0
 11
4961.576191631515
 21
7157.219285411712
 31
0.0
  0
LINE
  5
26997
330
747D
100
AcDbEntity
  8
部品1
 48
50.0
100
AcDbLine
 10
7648.600000000008
 20
6969.219285411679
 30
0.0
 11
7648.600000000008
 21
7169.21928541168
 31
0.0
  0
LINE
  5
26998
330
747D
100
AcDbEntity
  8
部品1
 48
50.0
100
AcDbLine
 10
7848.600000000008
 20
6969.219285411679
 30
0.0
 11
7848.600000000008
 21
7169.21928541168
 31
0.0
  0
LINE
  5
26999
330
747D
100
AcDbEntity
  8
部品1
 48
50.0
100
AcDbLine
 10
6698.600000000007
 20
6969.219285411679
 30
0.0
 11
6698.600000000007
 21
7169.21928541168
 31
0.0
  0
LINE
  5
2699A
330
747D
100
AcDbEntity
  8
部品1
 48
50.0
100
AcDbLine
 10
6898.600000000008
 20
6969.219285411679
 30
0.0
 11
6898.600000000008
 21
7169.21928541168
 31
0.0
  0
LINE
  5
2699B
330
747D
100
AcDbEntity
  8
部品1
 48
50.0
100
AcDbLine
 10
5948.600000000007
 20
6969.219285411679
 30
0.0
 11
5948.600000000007
 21
7169.21928541168
 31
0.0
  0
LINE
  5
2699C
330
747D
100
AcDbEntity
  8
部品1
 48
50.0
100
AcDbLine
 10
5748.600000000007
 20
6969.219285411679
 30
0.0
 11
5748.600000000007
 21
7169.21928541168
 31
0.0
  0
DIMENSION
  5
2699D
330
747D
100
AcDbEntity
  8
寸法
 48
50.0
100
AcDbDimension
  2
*D26
 10
6798.600000000007
 20
8204.828102081929
 30
0.0
 11
7273.600000000008
 21
8304.828102081929
 31
0.0
 70
    32
 71
     5
 42
950.0
  3
INABA_S40G
100
AcDbAlignedDimension
 13
7748.600000000007
 23
7119.21928541168
 33
0.0
 14
6798.600000000007
 24
7119.21928541168
 34
0.0
100
AcDbRotatedDimension
1001
ACAD
1000
DSTYLE
1002
{
1070
   341
1005
0
1002
}
  0
DIMENSION
  5
2699E
330
747D
100
AcDbEntity
  8
寸法
 48
50.0
100
AcDbDimension
  2
*D27
 10
5848.600000000008
 20
8204.828102081929
 30
0.0
 11
6323.600000000007
 21
8304.828102081929
 31
0.0
 70
    32
 71
     5
 42
950.0
  3
INABA_S40G
100
AcDbAlignedDimension
 13
6798.600000000007
 23
7119.21928541168
 33
0.0
 14
5848.600000000008
 24
7119.21928541168
 34
0.0
100
AcDbRotatedDimension
1001
ACAD
1000
DSTYLE
1002
{
1070
   341
1005
0
1002
}
  0
DIMENSION
  5
2699F
330
747D
100
AcDbEntity
  8
寸法
 48
50.0
100
AcDbDimension
  2
*D28
 10
4893.600000000001
 20
8204.828102081929
 30
0.0
 11
5371.100000000004
 21
8304.828102081929
 31
0.0
 70
    32
 71
     5
 42
955.0000000000073
  3
INABA_S40G
100
AcDbAlignedDimension
 13
5848.600000000008
 23
7119.21928541168
 33
0.0
 14
4893.600000000001
 24
7722.21928541168
 34
0.0
100
AcDbRotatedDimension
1001
ACAD
1000
DSTYLE
1002
{
1070
   341
1005
0
1002
}
  0
DIMENSION
  5
269A0
330
747D
100
AcDbEntity
  8
寸法
 48
50.0
100
AcDbDimension
  2
*D29
 10
5215.498373010142
 20
7722.21928541168
 30
0.0
 11
5215.498373010141
 21
7355.731163815898
 31
0.0
 70
   160
 71
     5
 42
653.0
  3
INABA_S40G
100
AcDbAlignedDimension
 13
5798.600000000007
 23
7069.21928541168
 33
0.0
 14
5467.7654751409
 24
7722.21928541168
 34
0.0
 50
90.0
100
AcDbRotatedDimension
1001
ACAD
1000
DSTYLE
1002
{
1070
   341
1005
0
1002
}
  0
LINE
  5
269A2
330
747D
100
AcDbEntity
  8
部品1
 48
50.0
100
AcDbLine
 10
4893.600000000001
 20
6342.21928541168
 30
0.0
 11
4893.600000000001
 21
7722.21928541168
 31
0.0
  0
DIMENSION
  5
269A4
330
747D
100
AcDbEntity
  8
寸法
 48
50.0
100
AcDbDimension
  2
*D30
 10
4018.721909610674
 20
6342.21928541168
 30
0.0
 11
4018.721909610673
 21
7069.719285411681
 31
0.0
 70
   160
 71
     5
 42
1380.0
  3
INABA_S40G
100
AcDbAlignedDimension
 13
4893.600000000001
 23
7722.21928541168
 33
0.0
 14
4893.600000000001
 24
6342.21928541168
 34
0.0
 50
90.0
100
AcDbRotatedDimension
1001
ACAD
1000
DSTYLE
1002
{
1070
   341
1005
0
1002
}
  0
DIMENSION
  5
269A5
330
747D
100
AcDbEntity
  8
寸法
 48
50.0
100
AcDbDimension
  2
*D31
 10
4270.665006330073
 20
6540.219285411684
 30
0.0
 11
4270.665006330071
 21
7069.719285411681
 31
0.0
 70
   160
 71
     5
 42
1058.999999999996
  3
INABA_S40G
100
AcDbAlignedDimension
 13
4966.6
 23
7599.219285411681
 33
0.0
 14
4966.600000000007
 24
6540.219285411684
 34
0.0
 50
90.0
100
AcDbRotatedDimension
1001
ACAD
1000
DSTYLE
1002
{
1070
   341
1005
0
1002
}
  0
ARC
  5
269A6
330
747D
100
AcDbEntity
  8
想像線
 48
5.0
100
AcDbCircle
 10
5663.600000000004
 20
6342.219285411683
 30
0.0
 40
720.0
100
AcDbArc
 50
180.0
 51
270.0
  0
DIMENSION
  5
269A7
330
747D
100
AcDbEntity
  8
寸法
 48
50.0
100
AcDbDimension
  2
*D32
 10
4780.512673767879
 20
5622.219285411677
 30
0.0
 11
4780.512673767878
 21
5982.219285411678
 31
0.0
 70
   160
  1
扉の出<>
 71
     5
 42
720.0
  3
INABA_S40G
100
AcDbAlignedDimension
 13
4893.600000000004
 23
6342.219285411676
 33
0.0
 14
5249.325326928809
 24
5622.219285411677
 34
0.0
 50
90.0
100
AcDbRotatedDimension
1001
ACAD
1000
DSTYLE
1002
{
1070
   341
1005
0
1002
}
  0
DIMENSION
  5
269A8
330
747D
100
AcDbEntity
  8
寸法
 48
50.0
100
AcDbDimension
  2
*D33
 10
4270.665006330073
 20
6342.21928541168
 30
0.0
 11
4270.665006330071
 21
6006.688336569088
 31
0.0
 70
   160
 71
     5
 42
198.0000000000036
  3
INABA_S40G
100
AcDbAlignedDimension
 13
4966.600000000007
 23
6540.219285411684
 33
0.0
 14
4893.600000000001
 24
6342.21928541168
 34
0.0
 50
90.0
100
AcDbRotatedDimension
1001
ACAD
1000
DSTYLE
1002
{
1070
   341
1005
0
1002
}
  0
CIRCLE
  5
269AA
330
747D
100
AcDbEntity
  8
部品1
 48
50.0
100
AcDbCircle
 10
5016.599999999993
 20
6540.219285411684
 30
0.0
 40
35.0
  0
LINE
  5
269AB
330
747D
100
AcDbEntity
  8
センター
 48
2.0
100
AcDbLine
 10
5016.600000000007
 20
6590.219285411683
 30
0.0
 11
5016.600000000007
 21
6490.219285411683
 31
0.0
  0
LINE
  5
269AC
330
747D
100
AcDbEntity
  8
センター
 48
2.0
100
AcDbLine
 10
4966.600000000007
 20
6540.219285411684
 30
0.0
 11
5066.600000000008
 21
6540.219285411684
 31
0.0
  0
LINE
  5
269AD
330
747D
100
AcDbEntity
  8
細線
 48
50.0
100
AcDbLine
 10
4941.181314052899
 20
6957.219285411714
 30
0.0
 11
5013.599999999996
 21
7029.637971358811
 31
0.0
  0
LINE
  5
269AE
330
747D
100
AcDbEntity
  8
細線
 48
50.0
100
AcDbLine
 10
4896.280033447554
 20
6957.219285411714
 30
0.0
 11
5013.599999999997
 21
7074.53925196416
 31
0.0
  0
LINE
  5
269AF
330
747D
100
AcDbEntity
  8
細線
 48
50.0
100
AcDbLine
 10
4893.599999999992
 20
6999.440532569497
 30
0.0
 11
5013.599999999997
 21
7119.440532569503
 31
0.0
  0
LINE
  5
269B0
330
747D
100
AcDbEntity
  8
部品1
 48
50.0
100
AcDbLine
 10
5013.599999999999
 20
6957.219285411714
 30
0.0
 11
4893.599999999992
 21
6957.219285411714
 31
0.0
  0
LINE
  5
269B1
330
747D
100
AcDbEntity
  8
細線
 48
50.0
100
AcDbLine
 10
4986.082594658244
 20
6957.219285411712
 30
0.0
 11
5013.599999999997
 21
6984.736690753469
 31
0.0
  0
LINE
  5
269B2
330
747D
100
AcDbEntity
  8
センター
 48
2.0
100
AcDbLine
 10
6748.600000000007
 20
7069.21928541168
 30
0.0
 11
6848.600000000008
 21
7069.21928541168
 31
0.0
  0
LINE
  5
269B3
330
747D
100
AcDbEntity
  8
部品1
 48
50.0
100
AcDbLine
 10
6898.600000000008
 20
6969.219285411679
 30
0.0
 11
6698.600000000007
 21
6969.219285411679
 31
0.0
  0
LINE
  5
269B4
330
747D
100
AcDbEntity
  8
想像線
 48
5.0
100
AcDbLine
 10
5663.600000000004
 20
6342.219285411695
 30
0.0
 11
5663.600000000004
 21
5622.219285411684
 31
0.0
  0
LINE
  5
269B6
330
747D
100
AcDbEntity
  8
細線
 48
50.0
100
AcDbLine
 10
5273.599999999987
 20
6520.723884700029
 30
0.0
 11
5375.095400711643
 21
6622.219285411681
 31
0.0
  0
LINE
  5
269B7
330
747D
100
AcDbEntity
  8
細線
 48
50.0
100
AcDbLine
 10
5274.700523133066
 20
6342.219285411716
 30
0.0
 11
5473.599999999987
 21
6541.11876227864
 31
0.0
  0
LINE
  5
269B8
330
747D
100
AcDbEntity
  8
細線
 48
50.0
100
AcDbLine
 10
5273.599999999991
 20
6386.020042883989
 30
0.0
 11
5473.599999999986
 21
6586.020042883983
 31
0.0
  0
LINE
  5
269B9
330
747D
100
AcDbEntity
  8
細線
 48
50.0
100
AcDbLine
 10
5273.599999999987
 20
6430.921323489335
 30
0.0
 11
5464.897961922332
 21
6622.21928541168
 31
0.0
  0
LINE
  5
269BA
330
747D
100
AcDbEntity
  8
細線
 48
50.0
100
AcDbLine
 10
5273.599999999987
 20
6475.82260409468
 30
0.0
 11
5419.996681316991
 21
6622.219285411683
 31
0.0
  0
LINE
  5
269BB
330
747D
100
AcDbEntity
  8
部品1
 48
50.0
100
AcDbLine
 10
5473.599999999983
 20
6622.219285411683
 30
0.0
 11
5473.599999999991
 21
6342.21928541172
 31
0.0
  0
LINE
  5
269BC
330
747D
100
AcDbEntity
  8
部品1
 48
50.0
100
AcDbLine
 10
5273.599999999984
 20
6622.21928541168
 30
0.0
 11
5273.599999999991
 21
6342.219285411716
 31
0.0
  0
DIMENSION
  5
269BD
330
747D
100
AcDbEntity
  8
寸法
 48
50.0
100
AcDbDimension
  2
*D34
 10
5215.498373010144
 20
7069.21928541168
 30
0.0
 11
5215.498373010142
 21
6849.634918032844
 31
0.0
 70
   160
 71
     5
 42
726.9999999999891
  3
INABA_S40G
100
AcDbAlignedDimension
 13
5467.7654751409
 23
6342.219285411691
 33
0.0
 14
5798.600000000007
 24
7069.21928541168
 34
0.0
 50
90.0
100
AcDbRotatedDimension
1001
ACAD
1000
DSTYLE
1002
{
1070
   341
1005
0
1002
}
  0
LINE
  5
269BE
330
747D
100
AcDbEntity
  8
細線
 48
50.0
100
AcDbLine
 10
5364.503084343758
 20
6342.219285411719
 30
0.0
 11
5473.599999999994
 21
6451.316201067955
 31
0.0
  0
LINE
  5
269BF
330
747D
100
AcDbEntity
  8
細線
 48
50.0
100
AcDbLine
 10
5319.601803738409
 20
6342.219285411719
 30
0.0
 11
5473.599999999987
 21
6496.217481673292
 31
0.0
  0
LINE
  5
269C0
330
747D
100
AcDbEntity
  8
細線
 48
50.0
100
AcDbLine
 10
5454.30564555445
 20
6342.21928541172
 30
0.0
 11
5473.599999999994
 21
6361.513639857265
 31
0.0
  0
LINE
  5
269C1
330
747D
100
AcDbEntity
  8
細線
 48
50.0
100
AcDbLine
 10
5409.404364949104
 20
6342.21928541172
 30
0.0
 11
5473.599999999994
 21
6406.414920462609
 31
0.0
  0
LINE
  5
269C2
330
747D
100
AcDbEntity
  8
細線
 48
50.0
100
AcDbLine
 10
5273.599999999986
 20
6565.625165305367
 30
0.0
 11
5330.194120106299
 21
6622.219285411681
 31
0.0
  0
LINE
  5
269C3
330
747D
100
AcDbEntity
  8
部品1
 48
50.0
100
AcDbLine
 10
5948.600000000007
 20
6969.219285411679
 30
0.0
 11
5748.600000000007
 21
6969.219285411679
 31
0.0
  0
LINE
  5
269C4
330
747D
100
AcDbEntity
  8
センター
 48
2.0
100
AcDbLine
 10
5848.600000000008
 20
7119.21928541168
 30
0.0
 11
5848.600000000008
 21
7019.219285411679
 31
0.0
  0
LINE
  5
269C5
330
747D
100
AcDbEntity
  8
センター
 48
2.0
100
AcDbLine
 10
5798.600000000007
 20
7069.21928541168
 30
0.0
 11
5898.600000000008
 21
7069.21928541168
 31
0.0
  0
CIRCLE
  5
269CD
330
747D
100
AcDbEntity
  8
部品1
 48
50.0
100
AcDbCircle
 10
6680.600000000008
 20
6540.219285411684
 30
0.0
 40
35.0
  0
LINE
  5
269CE
330
747D
100
AcDbEntity
  8
センター
 48
2.0
100
AcDbLine
 10
6680.600000000008
 20
6590.219285411683
 30
0.0
 11
6680.600000000008
 21
6490.219285411683
 31
0.0
  0
LINE
  5
269D3
330
747D
100
AcDbEntity
  8
センター
 48
2.0
100
AcDbLine
 10
6630.600000000008
 20
6540.219285411684
 30
0.0
 11
6730.600000000008
 21
6540.219285411684
 31
0.0
  0
LINE
  5
269D5
330
747D
100
AcDbEntity
  8
センター
 48
2.0
100
AcDbLine
 10
6798.600000000007
 20
7119.21928541168
 30
0.0
 11
6798.600000000007
 21
7019.219285411679
 31
0.0
  0
TEXT
  5
269E9
330
747D
100
AcDbEntity
  8
寸法
 48
50.0
100
AcDbText
 10
7845.149616983717
 20
6360.900576204418
 30
0.0
 40
120.0
  1
扉面
  7
STYLE1
100
AcDbText
  0
LINE
  5
269EE
330
747D
100
AcDbEntity
  8
部品1
 48
50.0
100
AcDbLine
 10
7848.600000000008
 20
6969.219285411679
 30
0.0
 11
7648.600000000008
 21
6969.219285411679
 31
0.0
  0
LINE
  5
269EF
330
747D
100
AcDbEntity
  8
センター
 48
2.0
100
AcDbLine
 10
7748.600000000007
 20
7119.21928541168
 30
0.0
 11
7748.600000000007
 21
7019.219285411679
 31
0.0
  0
LINE
  5
269F0
330
747D
100
AcDbEntity
  8
センター
 48
2.0
100
AcDbLine
 10
7698.600000000007
 20
7069.21928541168
 30
0.0
 11
7798.600000000007
 21
7069.21928541168
 31
0.0
  0
DIMENSION
  5
269F2
330
747D
100
AcDbEntity
  8
寸法
 48
50.0
100
AcDbDimension
  2
*D35
 10
5016.6
 20
8448.485743505591
 30
0.0
 11
5848.600000000001
 21
8548.485743505592
 31
0.0
 70
    32
 71
     5
 42
1664.0
  3
INABA_S40G
100
AcDbAlignedDimension
 13
6680.600000000001
 23
7649.219285411681
 33
0.0
 14
5016.6
 24
7649.219285411681
 34
0.0
100
AcDbRotatedDimension
1001
ACAD
1000
DSTYLE
1002
{
1070
   341
1005
0
1002
}
  0
DIMENSION
  5
269F3
330
747D
100
AcDbEntity
  8
寸法
 48
50.0
100
AcDbDimension
  2
*D36
 10
4893.600000000001
 20
8448.485743505591
 30
0.0
 11
4620.493398282202
 21
8448.485743505591
 31
0.0
 70
   160
 71
     5
 42
123.0
  3
INABA_S40G
100
AcDbAlignedDimension
 13
5016.6
 23
7649.219285411681
 33
0.0
 14
4893.600000000001
 24
7722.21928541168
 34
0.0
100
AcDbRotatedDimension
1001
ACAD
1000
DSTYLE
1002
{
1070
   341
1005
0
1002
}
  0
DIMENSION
  5
269F6
330
747D
100
AcDbEntity
  8
寸法
 48
50.0
100
AcDbDimension
  2
*D37
 10
4270.665006330072
 20
7599.219285411681
 30
0.0
 11
4270.665006330071
 21
7995.325887129481
 31
0.0
 70
   160
 71
     5
 42
123.0
  3
INABA_S40G
100
AcDbAlignedDimension
 13
4893.600000000001
 23
7722.21928541168
 33
0.0
 14
4966.6
 24
7599.219285411681
 34
0.0
 50
90.0
100
AcDbRotatedDimension
1001
ACAD
1000
DSTYLE
1002
{
1070
   341
1005
0
1002
}
  0
LINE
  5
269F7
330
747D
100
AcDbEntity
  8
部品1
 48
50.0
100
AcDbLine
 10
5013.599999999997
 20
7157.219285411713
 30
0.0
 11
4893.599999999992
 21
7157.219285411713
 31
0.0
  0
LINE
  5
269F8
330
747D
100
AcDbEntity
  8
細線
 48
50.0
100
AcDbLine
 10
4893.599999999992
 20
7134.144374385535
 30
0.0
 11
4916.67491102617
 21
7157.219285411713
 31
0.0
  0
LINE
  5
269F9
330
747D
100
AcDbEntity
  8
センター
 48
2.0
100
AcDbLine
 10
5016.6
 20
7649.219285411681
 30
0.0
 11
5016.6
 21
7549.21928541168
 31
0.0
  0
CIRCLE
  5
269FA
330
747D
100
AcDbEntity
  8
部品1
 48
50.0
100
AcDbCircle
 10
5016.6
 20
7599.219285411681
 30
0.0
 40
35.0
  0
LINE
  5
269FB
330
747D
100
AcDbEntity
  8
センター
 48
2.0
100
AcDbLine
 10
4966.6
 20
7599.219285411681
 30
0.0
 11
5066.600000000001
 21
7599.219285411681
 31
0.0
  0
LINE
  5
269FC
330
747D
100
AcDbEntity
  8
部品1
 48
50.0
100
AcDbLine
 10
6898.600000000008
 20
7169.21928541168
 30
0.0
 11
6698.600000000007
 21
7169.21928541168
 31
0.0
  0
LINE
  5
269FD
330
747D
100
AcDbEntity
  8
細線
 48
50.0
100
AcDbLine
 10
5273.599999999997
 20
7524.440532569517
 30
0.0
 11
5471.378752842185
 21
7722.219285411705
 31
0.0
  0
LINE
  5
269FE
330
747D
100
AcDbEntity
  8
細線
 48
50.0
100
AcDbLine
 10
5273.599999999994
 20
7569.341813174863
 30
0.0
 11
5426.477472236842
 21
7722.219285411705
 31
0.0
  0
LINE
  5
269FF
330
747D
100
AcDbEntity
  8
細線
 48
50.0
100
AcDbLine
 10
5273.599999999993
 20
7614.243093780206
 30
0.0
 11
5381.576191631495
 21
7722.219285411705
 31
0.0
  0
LINE
  5
26A00
330
747D
100
AcDbEntity
  8
細線
 48
50.0
100
AcDbLine
 10
5273.599999999991
 20
7659.144374385551
 30
0.0
 11
5336.674911026151
 21
7722.219285411708
 31
0.0
  0
LINE
  5
26A01
330
747D
100
AcDbEntity
  8
部品1
 48
50.0
100
AcDbLine
 10
5473.59999999999
 20
7722.219285411708
 30
0.0
 11
5473.599999999997
 21
7522.219285411683
 31
0.0
  0
LINE
  5
26A02
330
747D
100
AcDbEntity
  8
部品1
 48
50.0
100
AcDbLine
 10
5273.59999999999
 20
7722.219285411708
 30
0.0
 11
5273.599999999997
 21
7522.219285411683
 31
0.0
  0
LINE
  5
26A03
330
747D
100
AcDbEntity
  8
細線
 48
50.0
100
AcDbLine
 10
5361.18131405285
 20
7522.219285411678
 30
0.0
 11
5473.599999999994
 21
7634.637971358822
 31
0.0
  0
LINE
  5
26A04
330
747D
100
AcDbEntity
  8
細線
 48
50.0
100
AcDbLine
 10
5316.280033447501
 20
7522.219285411679
 30
0.0
 11
5473.599999999991
 21
7679.539251964165
 31
0.0
  0
LINE
  5
26A05
330
747D
100
AcDbEntity
  8
細線
 48
50.0
100
AcDbLine
 10
5450.983875263545
 20
7522.219285411679
 30
0.0
 11
5473.599999999997
 21
7544.835410148133
 31
0.0
  0
LINE
  5
26A06
330
747D
100
AcDbEntity
  8
細線
 48
50.0
100
AcDbLine
 10
5406.082594658197
 20
7522.219285411679
 30
0.0
 11
5473.599999999994
 21
7589.736690753476
 31
0.0
  0
LINE
  5
26A07
330
747D
100
AcDbEntity
  8
部品1
 48
50.0
100
AcDbLine
 10
5948.600000000007
 20
7169.21928541168
 30
0.0
 11
5748.600000000007
 21
7169.21928541168
 31
0.0
  0
LINE
  5
26A08
330
747D
100
AcDbEntity
  8
細線
 48
50.0
100
AcDbLine
 10
5273.599999999991
 20
7704.045654990892
 30
0.0
 11
5291.773630420805
 21
7722.21928541171
 31
0.0
  0
LINE
  5
26A09
330
747D
100
AcDbEntity
  8
部品1
 48
50.0
100
AcDbLine
 10
6423.599999999989
 20
7722.219285411708
 30
0.0
 11
6423.599999999996
 21
7522.219285411683
 31
0.0
  0
LINE
  5
26A0A
330
747D
100
AcDbEntity
  8
細線
 48
50.0
100
AcDbLine
 10
6223.599999999994
 20
7659.144374385551
 30
0.0
 11
6286.67491102615
 21
7722.219285411708
 31
0.0
  0
LINE
  5
26A0B
330
747D
100
AcDbEntity
  8
部品1
 48
50.0
100
AcDbLine
 10
6223.59999999999
 20
7722.219285411708
 30
0.0
 11
6223.599999999997
 21
7522.219285411683
 31
0.0
  0
LINE
  5
26A0C
330
747D
100
AcDbEntity
  8
細線
 48
50.0
100
AcDbLine
 10
6223.599999999997
 20
7524.440532569517
 30
0.0
 11
6421.378752842187
 21
7722.219285411705
 31
0.0
  0
LINE
  5
26A0D
330
747D
100
AcDbEntity
  8
細線
 48
50.0
100
AcDbLine
 10
6223.599999999994
 20
7569.341813174863
 30
0.0
 11
6376.477472236842
 21
7722.219285411705
 31
0.0
  0
LINE
  5
26A0E
330
747D
100
AcDbEntity
  8
細線
 48
50.0
100
AcDbLine
 10
6223.599999999994
 20
7614.243093780206
 30
0.0
 11
6331.576191631495
 21
7722.219285411705
 31
0.0
  0
LINE
  5
26A10
330
747D
100
AcDbEntity
  8
細線
 48
50.0
100
AcDbLine
 10
6356.082594658196
 20
7522.219285411679
 30
0.0
 11
6423.599999999995
 21
7589.736690753476
 31
0.0
  0
LINE
  5
26A11
330
747D
100
AcDbEntity
  8
細線
 48
50.0
100
AcDbLine
 10
6311.181314052852
 20
7522.219285411678
 30
0.0
 11
6423.599999999993
 21
7634.637971358822
 31
0.0
  0
LINE
  5
26A12
330
747D
100
AcDbEntity
  8
細線
 48
50.0
100
AcDbLine
 10
6266.280033447501
 20
7522.219285411679
 30
0.0
 11
6423.599999999992
 21
7679.539251964165
 31
0.0
  0
LINE
  5
26A13
330
747D
100
AcDbEntity
  8
細線
 48
50.0
100
AcDbLine
 10
6400.983875263543
 20
7522.219285411679
 30
0.0
 11
6423.599999999996
 21
7544.835410148133
 31
0.0
  0
LINE
  5
26A14
330
747D
100
AcDbEntity
  8
センター
 48
2.0
100
AcDbLine
 10
6680.600000000001
 20
7649.219285411681
 30
0.0
 11
6680.600000000001
 21
7549.21928541168
 31
0.0
  0
CIRCLE
  5
26A15
330
747D
100
AcDbEntity
  8
部品1
 48
50.0
100
AcDbCircle
 10
6680.600000000001
 20
7599.219285411681
 30
0.0
 40
35.0
  0
LINE
  5
26A16
330
747D
100
AcDbEntity
  8
センター
 48
2.0
100
AcDbLine
 10
6630.600000000001
 20
7599.219285411681
 30
0.0
 11
6730.600000000001
 21
7599.219285411681
 31
0.0
  0
LINE
  5
26A17
330
747D
100
AcDbEntity
  8
細線
 48
50.0
100
AcDbLine
 10
6223.599999999991
 20
7704.045654990892
 30
0.0
 11
6241.773630420805
 21
7722.21928541171
 31
0.0
  0
LINE
  5
26A18
330
747D
100
AcDbEntity
  8
部品1
 48
50.0
100
AcDbLine
 10
7373.599999999989
 20
7722.219285411708
 30
0.0
 11
7373.599999999997
 21
7522.219285411683
 31
0.0
  0
LINE
  5
26A19
330
747D
100
AcDbEntity
  8
細線
 48
50.0
100
AcDbLine
 10
7173.599999999993
 20
7614.243093780206
 30
0.0
 11
7281.576191631495
 21
7722.219285411705
 31
0.0
  0
LINE
  5
26A1A
330
747D
100
AcDbEntity
  8
細線
 48
50.0
100
AcDbLine
 10
7173.599999999995
 20
7569.341813174863
 30
0.0
 11
7326.477472236842
 21
7722.219285411705
 31
0.0
  0
LINE
  5
26A1B
330
747D
100
AcDbEntity
  8
部品1
 48
50.0
100
AcDbLine
 10
7173.599999999989
 20
7722.219285411708
 30
0.0
 11
7173.599999999997
 21
7522.219285411683
 31
0.0
  0
LINE
  5
26A1C
330
747D
100
AcDbEntity
  8
細線
 48
50.0
100
AcDbLine
 10
7173.599999999993
 20
7659.144374385551
 30
0.0
 11
7236.674911026149
 21
7722.219285411708
 31
0.0
  0
LINE
  5
26A1D
330
747D
100
AcDbEntity
  8
細線
 48
50.0
100
AcDbLine
 10
7173.599999999997
 20
7524.440532569517
 30
0.0
 11
7371.378752842187
 21
7722.219285411705
 31
0.0
  0
LINE
  5
26A1E
330
747D
100
AcDbEntity
  8
細線
 48
50.0
100
AcDbLine
 10
7216.280033447502
 20
7522.219285411679
 30
0.0
 11
7373.599999999992
 21
7679.539251964165
 31
0.0
  0
LINE
  5
26A1F
330
747D
100
AcDbEntity
  8
細線
 48
50.0
100
AcDbLine
 10
7261.181314052852
 20
7522.219285411678
 30
0.0
 11
7373.599999999993
 21
7634.637971358822
 31
0.0
  0
LINE
  5
26A20
330
747D
100
AcDbEntity
  8
細線
 48
50.0
100
AcDbLine
 10
7306.082594658196
 20
7522.219285411679
 30
0.0
 11
7373.599999999995
 21
7589.736690753476
 31
0.0
  0
LINE
  5
26A21
330
747D
100
AcDbEntity
  8
細線
 48
50.0
100
AcDbLine
 10
7350.983875263543
 20
7522.219285411679
 30
0.0
 11
7373.599999999997
 21
7544.835410148133
 31
0.0
  0
LINE
  5
26A22
330
747D
100
AcDbEntity
  8
細線
 48
50.0
100
AcDbLine
 10
7173.599999999992
 20
7704.045654990892
 30
0.0
 11
7191.773630420804
 21
7722.21928541171
 31
0.0
  0
LINE
  5
26A23
330
747D
100
AcDbEntity
  8
部品1
 48
50.0
100
AcDbLine
 10
8323.59999999999
 20
7722.219285411776
 30
0.0
 11
8323.599999999997
 21
7522.21928541175
 31
0.0
  0
LINE
  5
26A24
330
747D
100
AcDbEntity
  8
細線
 48
50.0
100
AcDbLine
 10
8123.599999999994
 20
7614.243093780274
 30
0.0
 11
8231.576191631495
 21
7722.219285411775
 31
0.0
  0
LINE
  5
26A25
330
747D
100
AcDbEntity
  8
細線
 48
50.0
100
AcDbLine
 10
8123.599999999994
 20
7569.341813174931
 30
0.0
 11
8276.477472236841
 21
7722.219285411775
 31
0.0
  0
LINE
  5
26A26
330
747D
100
AcDbEntity
  8
部品1
 48
50.0
100
AcDbLine
 10
8123.599999999989
 20
7722.219285411776
 30
0.0
 11
8123.599999999997
 21
7522.21928541175
 31
0.0
  0
LINE
  5
26A27
330
747D
100
AcDbEntity
  8
細線
 48
50.0
100
AcDbLine
 10
8123.599999999994
 20
7659.14437438562
 30
0.0
 11
8186.674911026152
 21
7722.219285411776
 31
0.0
  0
LINE
  5
26A28
330
747D
100
AcDbEntity
  8
細線
 48
50.0
100
AcDbLine
 10
8123.599999999997
 20
7524.440532569586
 30
0.0
 11
8321.378752842187
 21
7722.219285411775
 31
0.0
  0
LINE
  5
26A29
330
747D
100
AcDbEntity
  8
部品1
 48
50.0
100
AcDbLine
 10
7848.600000000008
 20
7169.21928541168
 30
0.0
 11
7648.600000000008
 21
7169.21928541168
 31
0.0
  0
LINE
  5
26A2A
330
747D
100
AcDbEntity
  8
細線
 48
50.0
100
AcDbLine
 10
8166.280033447502
 20
7522.21928541175
 30
0.0
 11
8323.599999999991
 21
7679.539251964233
 31
0.0
  0
LINE
  5
26A2B
330
747D
100
AcDbEntity
  8
細線
 48
50.0
100
AcDbLine
 10
8211.181314052852
 20
7522.219285411748
 30
0.0
 11
8323.599999999993
 21
7634.63797135889
 31
0.0
  0
LINE
  5
26A2C
330
747D
100
AcDbEntity
  8
細線
 48
50.0
100
AcDbLine
 10
8256.082594658197
 20
7522.21928541175
 30
0.0
 11
8323.599999999995
 21
7589.736690753546
 31
0.0
  0
LINE
  5
26A2D
330
747D
100
AcDbEntity
  8
細線
 48
50.0
100
AcDbLine
 10
8300.983875263545
 20
7522.21928541175
 30
0.0
 11
8323.599999999997
 21
7544.835410148202
 31
0.0
  0
LINE
  5
26A2E
330
747D
100
AcDbEntity
  8
細線
 48
50.0
100
AcDbLine
 10
8123.599999999992
 20
7704.045654990962
 30
0.0
 11
8141.773630420805
 21
7722.219285411778
 31
0.0
  0
LINE
  5
26A2F
330
747D
100
AcDbEntity
  8
細線
 48
50.0
100
AcDbLine
 10
11433.6
 20
7024.341813174853
 30
0.0
 11
11553.59999999999
 21
7144.341813174844
 31
0.0
  0
LINE
  5
26A30
330
747D
100
AcDbEntity
  8
細線
 48
50.0
100
AcDbLine
 10
11433.6
 20
7069.243093780197
 30
0.0
 11
11521.57619163151
 21
7157.219285411712
 31
0.0
  0
LINE
  5
26A31
330
747D
100
AcDbEntity
  8
部品1
 48
50.0
100
AcDbLine
 10
10498.60000000001
 20
6969.219285411679
 30
0.0
 11
10498.60000000001
 21
7169.21928541168
 31
0.0
  0
LINE
  5
26A32
330
747D
100
AcDbEntity
  8
部品1
 48
50.0
100
AcDbLine
 10
10698.60000000001
 20
6969.219285411679
 30
0.0
 11
10698.60000000001
 21
7169.21928541168
 31
0.0
  0
LINE
  5
26A33
330
747D
100
AcDbEntity
  8
部品1
 48
50.0
100
AcDbLine
 10
9548.600000000007
 20
6969.219285411679
 30
0.0
 11
9548.600000000007
 21
7169.21928541168
 31
0.0
  0
LINE
  5
26A34
330
747D
100
AcDbEntity
  8
部品1
 48
50.0
100
AcDbLine
 10
9748.600000000008
 20
6969.219285411679
 30
0.0
 11
9748.600000000008
 21
7169.21928541168
 31
0.0
  0
LINE
  5
26A35
330
747D
100
AcDbEntity
  8
部品1
 48
50.0
100
AcDbLine
 10
8798.600000000007
 20
6969.219285411679
 30
0.0
 11
8798.600000000007
 21
7169.21928541168
 31
0.0
  0
LINE
  5
26A36
330
747D
100
AcDbEntity
  8
部品1
 48
50.0
100
AcDbLine
 10
8598.600000000008
 20
6969.219285411679
 30
0.0
 11
8598.600000000008
 21
7169.21928541168
 31
0.0
  0
LINE
  5
26A39
330
747D
100
AcDbEntity
  8
部品1
 48
50.0
100
AcDbLine
 10
11553.6
 20
6342.219285411698
 30
0.0
 11
11553.6
 21
7722.21928541168
 31
0.0
  0
DIMENSION
  5
26A3A
330
747D
100
AcDbEntity
  8
寸法
 48
50.0
100
AcDbDimension
  2
*D38
 10
10598.60000000001
 20
8204.828102081929
 30
0.0
 11
11076.1
 21
8304.828102081929
 31
0.0
 70
    32
 71
     5
 42
954.9999999999927
  3
INABA_S40G
100
AcDbAlignedDimension
 13
11553.6
 23
7722.21928541168
 33
0.0
 14
10598.60000000001
 24
7119.21928541168
 34
0.0
100
AcDbRotatedDimension
1001
ACAD
1000
DSTYLE
1002
{
1070
   341
1005
0
1002
}
  0
DIMENSION
  5
26A3B
330
747D
100
AcDbEntity
  8
寸法
 48
50.0
100
AcDbDimension
  2
*D39
 10
8698.600000000007
 20
8204.828102081929
 30
0.0
 11
9173.600000000007
 21
8304.828102081929
 31
0.0
 70
    32
 71
     5
 42
950.0
  3
INABA_S40G
100
AcDbAlignedDimension
 13
9648.600000000008
 23
7119.21928541168
 33
0.0
 14
8698.600000000007
 24
7119.21928541168
 34
0.0
100
AcDbRotatedDimension
1001
ACAD
1000
DSTYLE
1002
{
1070
   341
1005
0
1002
}
  0
DIMENSION
  5
26A3C
330
747D
100
AcDbEntity
  8
寸法
 48
50.0
100
AcDbDimension
  2
*D40
 10
9648.600000000008
 20
8204.828102081929
 30
0.0
 11
10123.60000000001
 21
8304.828102081929
 31
0.0
 70
    32
 71
     5
 42
950.0
  3
INABA_S40G
100
AcDbAlignedDimension
 13
10598.60000000001
 23
7119.21928541168
 33
0.0
 14
9648.600000000008
 24
7119.21928541168
 34
0.0
100
AcDbRotatedDimension
1001
ACAD
1000
DSTYLE
1002
{
1070
   341
1005
0
1002
}
  0
CIRCLE
  5
26A53
330
747D
100
AcDbEntity
  8
部品1
 48
50.0
100
AcDbCircle
 10
8580.600000000009
 20
6540.219285411684
 30
0.0
 40
35.0
  0
LINE
  5
26A54
330
747D
100
AcDbEntity
  8
センター
 48
2.0
100
AcDbLine
 10
8580.600000000009
 20
6590.219285411683
 30
0.0
 11
8580.600000000009
 21
6490.219285411683
 31
0.0
  0
LINE
  5
26A55
330
747D
100
AcDbEntity
  8
センター
 48
2.0
100
AcDbLine
 10
8530.600000000008
 20
6540.219285411684
 30
0.0
 11
8630.600000000008
 21
6540.219285411684
 31
0.0
  0
LINE
  5
26A56
330
747D
100
AcDbEntity
  8
センター
 48
2.0
100
AcDbLine
 10
8648.600000000007
 20
7069.21928541168
 30
0.0
 11
8748.600000000008
 21
7069.21928541168
 31
0.0
  0
LINE
  5
26A57
330
747D
100
AcDbEntity
  8
部品1
 48
50.0
100
AcDbLine
 10
8798.600000000007
 20
6969.219285411679
 30
0.0
 11
8598.600000000008
 21
6969.219285411679
 31
0.0
  0
LINE
  5
26A58
330
747D
100
AcDbEntity
  8
センター
 48
2.0
100
AcDbLine
 10
8698.600000000007
 20
7119.21928541168
 30
0.0
 11
8698.600000000007
 21
7019.219285411679
 31
0.0
  0
LINE
  5
26A5C
330
747D
100
AcDbEntity
  8
センター
 48
2.0
100
AcDbLine
 10
9598.600000000008
 20
7069.21928541168
 30
0.0
 11
9698.600000000007
 21
7069.21928541168
 31
0.0
  0
LINE
  5
26A5D
330
747D
100
AcDbEntity
  8
部品1
 48
50.0
100
AcDbLine
 10
9748.600000000008
 20
6969.219285411679
 30
0.0
 11
9548.600000000007
 21
6969.219285411679
 31
0.0
  0
LINE
  5
26A5E
330
747D
100
AcDbEntity
  8
センター
 48
2.0
100
AcDbLine
 10
9648.600000000008
 20
7119.21928541168
 30
0.0
 11
9648.600000000008
 21
7019.219285411679
 31
0.0
  0
LINE
  5
26A64
330
747D
100
AcDbEntity
  8
センター
 48
2.0
100
AcDbLine
 10
10548.60000000001
 20
7069.21928541168
 30
0.0
 11
10648.60000000001
 21
7069.21928541168
 31
0.0
  0
LINE
  5
26A65
330
747D
100
AcDbEntity
  8
センター
 48
2.0
100
AcDbLine
 10
10598.60000000001
 20
7119.21928541168
 30
0.0
 11
10598.60000000001
 21
7019.219285411679
 31
0.0
  0
LINE
  5
26A66
330
747D
100
AcDbEntity
  8
部品1
 48
50.0
100
AcDbLine
 10
10698.60000000001
 20
6969.219285411679
 30
0.0
 11
10498.60000000001
 21
6969.219285411679
 31
0.0
  0
CIRCLE
  5
26A6E
330
747D
100
AcDbEntity
  8
部品1
 48
50.0
100
AcDbCircle
 10
11430.60000000001
 20
6540.219285411684
 30
0.0
 40
35.0
  0
LINE
  5
26A6F
330
747D
100
AcDbEntity
  8
センター
 48
2.0
100
AcDbLine
 10
11430.60000000001
 20
6590.219285411683
 30
0.0
 11
11430.60000000001
 21
6490.219285411683
 31
0.0
  0
LINE
  5
26A74
330
747D
100
AcDbEntity
  8
センター
 48
2.0
100
AcDbLine
 10
11380.6
 20
6540.219285411684
 30
0.0
 11
11480.6
 21
6540.219285411684
 31
0.0
  0
LINE
  5
26A76
330
747D
100
AcDbEntity
  8
細線
 48
50.0
100
AcDbLine
 10
11501.18131405289
 20
6957.219285411712
 30
0.0
 11
11553.59999999999
 21
7009.637971358806
 31
0.0
  0
LINE
  5
26A77
330
747D
100
AcDbEntity
  8
細線
 48
50.0
100
AcDbLine
 10
11456.28003344755
 20
6957.219285411714
 30
0.0
 11
11553.59999999999
 21
7054.539251964152
 31
0.0
  0
LINE
  5
26A78
330
747D
100
AcDbEntity
  8
細線
 48
50.0
100
AcDbLine
 10
11433.6
 20
6979.440532569509
 30
0.0
 11
11553.59999999999
 21
7099.440532569497
 31
0.0
  0
LINE
  5
26A79
330
747D
100
AcDbEntity
  8
部品1
 48
50.0
100
AcDbLine
 10
11553.59999999999
 20
6957.219285411714
 30
0.0
 11
11433.6
 21
6957.219285411714
 31
0.0
  0
LINE
  5
26A7A
330
747D
100
AcDbEntity
  8
細線
 48
50.0
100
AcDbLine
 10
11546.08259465824
 20
6957.219285411709
 30
0.0
 11
11553.59999999999
 21
6964.73669075346
 31
0.0
  0
DIMENSION
  5
26A7C
330
747D
100
AcDbEntity
  8
寸法
 48
50.0
100
AcDbDimension
  2
*D41
 10
11430.6
 20
8448.485743505591
 30
0.0
 11
11826.7066017178
 21
8448.485743505591
 31
0.0
 70
   160
 71
     5
 42
123.0
  3
INABA_S40G
100
AcDbAlignedDimension
 13
11553.6
 23
7722.21928541168
 33
0.0
 14
11430.6
 24
7649.219285411681
 34
0.0
100
AcDbRotatedDimension
1001
ACAD
1000
DSTYLE
1002
{
1070
   341
1005
0
1002
}
  0
LINE
  5
26A7E
330
747D
100
AcDbEntity
  8
細線
 48
50.0
100
AcDbLine
 10
10023.59999999999
 20
7659.14437438562
 30
0.0
 11
10086.67491102615
 21
7722.219285411776
 31
0.0
  0
LINE
  5
26A7F
330
747D
100
AcDbEntity
  8
細線
 48
50.0
100
AcDbLine
 10
10023.59999999999
 20
7614.243093780274
 30
0.0
 11
10131.57619163149
 21
7722.219285411775
 31
0.0
  0
LINE
  5
26A80
330
747D
100
AcDbEntity
  8
細線
 48
50.0
100
AcDbLine
 10
10066.2800334475
 20
7522.21928541175
 30
0.0
 11
10223.59999999999
 21
7679.539251964233
 31
0.0
  0
LINE
  5
26A81
330
747D
100
AcDbEntity
  8
細線
 48
50.0
100
AcDbLine
 10
10023.6
 20
7524.440532569586
 30
0.0
 11
10221.37875284218
 21
7722.219285411775
 31
0.0
  0
LINE
  5
26A82
330
747D
100
AcDbEntity
  8
細線
 48
50.0
100
AcDbLine
 10
10023.59999999999
 20
7569.341813174931
 30
0.0
 11
10176.47747223684
 21
7722.219285411775
 31
0.0
  0
DIMENSION
  5
26A83
330
747D
100
AcDbEntity
  8
寸法
 48
50.0
100
AcDbDimension
  2
*D42
 10
8580.600000000002
 20
8448.485743505591
 30
0.0
 11
10005.6
 21
8548.497554529213
 31
0.0
 70
    32
 71
     5
 42
2850.0
  3
INABA_S40G
100
AcDbAlignedDimension
 13
11430.6
 23
7649.219285411681
 33
0.0
 14
8580.600000000002
 24
7649.219285411681
 34
0.0
100
AcDbRotatedDimension
1001
ACAD
1000
DSTYLE
1002
{
1070
   341
1005
0
1002
}
  0
LINE
  5
26A84
330
747D
100
AcDbEntity
  8
細線
 48
50.0
100
AcDbLine
 10
9250.983875263544
 20
7522.21928541175
 30
0.0
 11
9273.599999999998
 21
7544.835410148202
 31
0.0
  0
LINE
  5
26A85
330
747D
100
AcDbEntity
  8
細線
 48
50.0
100
AcDbLine
 10
9206.082594658196
 20
7522.21928541175
 30
0.0
 11
9273.599999999994
 21
7589.736690753546
 31
0.0
  0
LINE
  5
26A86
330
747D
100
AcDbEntity
  8
細線
 48
50.0
100
AcDbLine
 10
9161.181314052852
 20
7522.219285411748
 30
0.0
 11
9273.599999999992
 21
7634.63797135889
 31
0.0
  0
LINE
  5
26A87
330
747D
100
AcDbEntity
  8
細線
 48
50.0
100
AcDbLine
 10
9116.280033447502
 20
7522.21928541175
 30
0.0
 11
9273.599999999992
 21
7679.539251964233
 31
0.0
  0
LINE
  5
26A88
330
747D
100
AcDbEntity
  8
細線
 48
50.0
100
AcDbLine
 10
9073.599999999997
 20
7524.440532569586
 30
0.0
 11
9271.378752842187
 21
7722.219285411775
 31
0.0
  0
LINE
  5
26A89
330
747D
100
AcDbEntity
  8
部品1
 48
50.0
100
AcDbLine
 10
9073.59999999999
 20
7722.219285411776
 30
0.0
 11
9073.599999999997
 21
7522.21928541175
 31
0.0
  0
LINE
  5
26A8A
330
747D
100
AcDbEntity
  8
細線
 48
50.0
100
AcDbLine
 10
9073.599999999993
 20
7659.14437438562
 30
0.0
 11
9136.674911026153
 21
7722.219285411776
 31
0.0
  0
LINE
  5
26A8B
330
747D
100
AcDbEntity
  8
細線
 48
50.0
100
AcDbLine
 10
9073.599999999995
 20
7569.341813174931
 30
0.0
 11
9226.477472236842
 21
7722.219285411775
 31
0.0
  0
LINE
  5
26A8C
330
747D
100
AcDbEntity
  8
細線
 48
50.0
100
AcDbLine
 10
9073.599999999993
 20
7614.243093780274
 30
0.0
 11
9181.576191631496
 21
7722.219285411775
 31
0.0
  0
LINE
  5
26A8D
330
747D
100
AcDbEntity
  8
部品1
 48
50.0
100
AcDbLine
 10
8798.600000000007
 20
7169.21928541168
 30
0.0
 11
8598.600000000008
 21
7169.21928541168
 31
0.0
  0
LINE
  5
26A8E
330
747D
100
AcDbEntity
  8
センター
 48
2.0
100
AcDbLine
 10
8530.600000000001
 20
7599.219285411681
 30
0.0
 11
8630.600000000001
 21
7599.219285411681
 31
0.0
  0
LINE
  5
26A8F
330
747D
100
AcDbEntity
  8
センター
 48
2.0
100
AcDbLine
 10
8580.600000000002
 20
7649.219285411681
 30
0.0
 11
8580.600000000002
 21
7549.21928541168
 31
0.0
  0
CIRCLE
  5
26A90
330
747D
100
AcDbEntity
  8
部品1
 48
50.0
100
AcDbCircle
 10
8580.600000000002
 20
7599.219285411681
 30
0.0
 40
35.0
  0
LINE
  5
26A91
330
747D
100
AcDbEntity
  8
細線
 48
50.0
100
AcDbLine
 10
9073.599999999991
 20
7704.045654990962
 30
0.0
 11
9091.773630420805
 21
7722.219285411778
 31
0.0
  0
LINE
  5
26A92
330
747D
100
AcDbEntity
  8
部品1
 48
50.0
100
AcDbLine
 10
10023.59999999999
 20
7722.219285411776
 30
0.0
 11
10023.59999999999
 21
7522.21928541175
 31
0.0
  0
LINE
  5
26A93
330
747D
100
AcDbEntity
  8
部品1
 48
50.0
100
AcDbLine
 10
9273.599999999989
 20
7722.219285411776
 30
0.0
 11
9273.599999999998
 21
7522.21928541175
 31
0.0
  0
LINE
  5
26A94
330
747D
100
AcDbEntity
  8
部品1
 48
50.0
100
AcDbLine
 10
9748.600000000008
 20
7169.21928541168
 30
0.0
 11
9548.600000000007
 21
7169.21928541168
 31
0.0
  0
LINE
  5
26A95
330
747D
100
AcDbEntity
  8
細線
 48
50.0
100
AcDbLine
 10
10023.59999999999
 20
7704.045654990962
 30
0.0
 11
10041.7736304208
 21
7722.219285411778
 31
0.0
  0
LINE
  5
26A96
330
747D
100
AcDbEntity
  8
部品1
 48
50.0
100
AcDbLine
 10
10223.59999999999
 20
7722.219285411776
 30
0.0
 11
10223.59999999999
 21
7522.21928541175
 31
0.0
  0
LINE
  5
26A97
330
747D
100
AcDbEntity
  8
細線
 48
50.0
100
AcDbLine
 10
10200.98387526354
 20
7522.21928541175
 30
0.0
 11
10223.59999999999
 21
7544.835410148202
 31
0.0
  0
LINE
  5
26A98
330
747D
100
AcDbEntity
  8
細線
 48
50.0
100
AcDbLine
 10
10156.0825946582
 20
7522.21928541175
 30
0.0
 11
10223.59999999999
 21
7589.736690753546
 31
0.0
  0
LINE
  5
26A99
330
747D
100
AcDbEntity
  8
細線
 48
50.0
100
AcDbLine
 10
10111.18131405285
 20
7522.219285411748
 30
0.0
 11
10223.59999999999
 21
7634.63797135889
 31
0.0
  0
LINE
  5
26A9A
330
747D
100
AcDbEntity
  8
部品1
 48
50.0
100
AcDbLine
 10
10698.60000000001
 20
7169.21928541168
 30
0.0
 11
10498.60000000001
 21
7169.21928541168
 31
0.0
  0
LINE
  5
26A9B
330
747D
100
AcDbEntity
  8
部品1
 48
50.0
100
AcDbLine
 10
11173.59999999999
 20
7722.219285411776
 30
0.0
 11
11173.59999999999
 21
7522.21928541175
 31
0.0
  0
LINE
  5
26A9C
330
747D
100
AcDbEntity
  8
細線
 48
50.0
100
AcDbLine
 10
10973.59999999999
 20
7614.243093780274
 30
0.0
 11
11081.57619163149
 21
7722.219285411775
 31
0.0
  0
LINE
  5
26A9D
330
747D
100
AcDbEntity
  8
細線
 48
50.0
100
AcDbLine
 10
10973.59999999999
 20
7569.341813174931
 30
0.0
 11
11126.47747223684
 21
7722.219285411775
 31
0.0
  0
LINE
  5
26A9E
330
747D
100
AcDbEntity
  8
細線
 48
50.0
100
AcDbLine
 10
10973.59999999999
 20
7659.14437438562
 30
0.0
 11
11036.67491102615
 21
7722.219285411776
 31
0.0
  0
LINE
  5
26A9F
330
747D
100
AcDbEntity
  8
細線
 48
50.0
100
AcDbLine
 10
10973.6
 20
7524.440532569586
 30
0.0
 11
11171.37875284218
 21
7722.219285411775
 31
0.0
  0
LINE
  5
26AA0
330
747D
100
AcDbEntity
  8
部品1
 48
50.0
100
AcDbLine
 10
10973.59999999999
 20
7722.219285411776
 30
0.0
 11
10973.59999999999
 21
7522.21928541175
 31
0.0
  0
LINE
  5
26AA1
330
747D
100
AcDbEntity
  8
細線
 48
50.0
100
AcDbLine
 10
11016.2800334475
 20
7522.21928541175
 30
0.0
 11
11173.59999999999
 21
7679.539251964233
 31
0.0
  0
LINE
  5
26AA2
330
747D
100
AcDbEntity
  8
細線
 48
50.0
100
AcDbLine
 10
11061.18131405285
 20
7522.219285411748
 30
0.0
 11
11173.59999999999
 21
7634.63797135889
 31
0.0
  0
LINE
  5
26AA3
330
747D
100
AcDbEntity
  8
細線
 48
50.0
100
AcDbLine
 10
11106.08259465819
 20
7522.21928541175
 30
0.0
 11
11173.59999999999
 21
7589.736690753546
 31
0.0
  0
LINE
  5
26AA4
330
747D
100
AcDbEntity
  8
細線
 48
50.0
100
AcDbLine
 10
11150.98387526354
 20
7522.21928541175
 30
0.0
 11
11173.59999999999
 21
7544.835410148202
 31
0.0
  0
LINE
  5
26AA5
330
747D
100
AcDbEntity
  8
部品1
 48
50.0
100
AcDbLine
 10
11553.59999999999
 20
7157.219285411713
 30
0.0
 11
11433.6
 21
7157.219285411713
 31
0.0
  0
LINE
  5
26AA6
330
747D
100
AcDbEntity
  8
細線
 48
50.0
100
AcDbLine
 10
11433.6
 20
7114.144374385543
 30
0.0
 11
11476.67491102617
 21
7157.219285411713
 31
0.0
  0
LINE
  5
26AA7
330
747D
100
AcDbEntity
  8
センター
 48
2.0
100
AcDbLine
 10
11380.6
 20
7599.219285411681
 30
0.0
 11
11480.6
 21
7599.219285411681
 31
0.0
  0
CIRCLE
  5
26AA8
330
747D
100
AcDbEntity
  8
部品1
 48
50.0
100
AcDbCircle
 10
11430.6
 20
7599.219285411681
 30
0.0
 40
35.0
  0
LINE
  5
26AA9
330
747D
100
AcDbEntity
  8
センター
 48
2.0
100
AcDbLine
 10
11430.6
 20
7649.219285411681
 30
0.0
 11
11430.6
 21
7549.21928541168
 31
0.0
  0
LINE
  5
26AAA
330
747D
100
AcDbEntity
  8
細線
 48
50.0
100
AcDbLine
 10
10973.59999999999
 20
7704.045654990962
 30
0.0
 11
10991.7736304208
 21
7722.219285411778
 31
0.0
  0
TEXT
  5
27055
330
747D
100
AcDbEntity
  8
文字
 62
     7
 48
50.0
100
AcDbText
 10
14267.69561199343
 20
838.2527270729188
 30
0.0
 40
100.0
  1
～一般型・多雪地型・豪雪地型～
  7
STYLE2
100
AcDbText
  0
LINE
  5
27075
330
747D
100
AcDbEntity
  8
部品1
 48
50.0
100
AcDbLine
 10
11433.6
 20
6622.219285411715
 30
0.0
 11
5013.599999999997
 21
6622.219285411677
 31
0.0
  0
LINE
  5
27088
330
747D
100
AcDbEntity
  8
細線
 48
50.0
100
AcDbLine
 10
6223.599999999986
 20
6565.625165305367
 30
0.0
 11
6280.194120106299
 21
6622.219285411681
 31
0.0
  0
LINE
  5
27089
330
747D
100
AcDbEntity
  8
細線
 48
50.0
100
AcDbLine
 10
6359.404364949103
 20
6342.21928541172
 30
0.0
 11
6423.599999999995
 21
6406.414920462609
 31
0.0
  0
LINE
  5
2708A
330
747D
100
AcDbEntity
  8
細線
 48
50.0
100
AcDbLine
 10
6404.30564555445
 20
6342.21928541172
 30
0.0
 11
6423.599999999995
 21
6361.513639857265
 31
0.0
  0
LINE
  5
2708B
330
747D
100
AcDbEntity
  8
細線
 48
50.0
100
AcDbLine
 10
6269.601803738409
 20
6342.219285411719
 30
0.0
 11
6423.599999999987
 21
6496.217481673292
 31
0.0
  0
LINE
  5
2708C
330
747D
100
AcDbEntity
  8
細線
 48
50.0
100
AcDbLine
 10
6314.503084343758
 20
6342.219285411719
 30
0.0
 11
6423.599999999993
 21
6451.316201067955
 31
0.0
  0
LINE
  5
2708D
330
747D
100
AcDbEntity
  8
部品1
 48
50.0
100
AcDbLine
 10
6223.599999999983
 20
6622.21928541168
 30
0.0
 11
6223.599999999991
 21
6342.219285411716
 31
0.0
  0
LINE
  5
2708E
330
747D
100
AcDbEntity
  8
部品1
 48
50.0
100
AcDbLine
 10
6423.599999999983
 20
6622.219285411683
 30
0.0
 11
6423.599999999992
 21
6342.21928541172
 31
0.0
  0
LINE
  5
2708F
330
747D
100
AcDbEntity
  8
細線
 48
50.0
100
AcDbLine
 10
6223.599999999987
 20
6475.82260409468
 30
0.0
 11
6369.996681316991
 21
6622.219285411683
 31
0.0
  0
LINE
  5
27090
330
747D
100
AcDbEntity
  8
細線
 48
50.0
100
AcDbLine
 10
6223.599999999987
 20
6430.921323489335
 30
0.0
 11
6414.897961922332
 21
6622.21928541168
 31
0.0
  0
LINE
  5
27091
330
747D
100
AcDbEntity
  8
細線
 48
50.0
100
AcDbLine
 10
6223.599999999991
 20
6386.020042883989
 30
0.0
 11
6423.599999999986
 21
6586.020042883983
 31
0.0
  0
LINE
  5
27092
330
747D
100
AcDbEntity
  8
細線
 48
50.0
100
AcDbLine
 10
6224.700523133066
 20
6342.219285411716
 30
0.0
 11
6423.599999999987
 21
6541.11876227864
 31
0.0
  0
LINE
  5
27093
330
747D
100
AcDbEntity
  8
細線
 48
50.0
100
AcDbLine
 10
6223.599999999987
 20
6520.723884700029
 30
0.0
 11
6325.095400711642
 21
6622.219285411681
 31
0.0
  0
LINE
  5
27094
330
747D
100
AcDbEntity
  8
細線
 48
50.0
100
AcDbLine
 10
7173.599999999986
 20
6565.625165305367
 30
0.0
 11
7230.194120106299
 21
6622.219285411681
 31
0.0
  0
LINE
  5
27095
330
747D
100
AcDbEntity
  8
細線
 48
50.0
100
AcDbLine
 10
7309.404364949102
 20
6342.21928541172
 30
0.0
 11
7373.599999999995
 21
6406.414920462609
 31
0.0
  0
LINE
  5
27096
330
747D
100
AcDbEntity
  8
細線
 48
50.0
100
AcDbLine
 10
7354.30564555445
 20
6342.21928541172
 30
0.0
 11
7373.599999999995
 21
6361.513639857265
 31
0.0
  0
LINE
  5
27097
330
747D
100
AcDbEntity
  8
細線
 48
50.0
100
AcDbLine
 10
7219.601803738409
 20
6342.219285411719
 30
0.0
 11
7373.599999999988
 21
6496.217481673292
 31
0.0
  0
LINE
  5
27098
330
747D
100
AcDbEntity
  8
細線
 48
50.0
100
AcDbLine
 10
7264.503084343758
 20
6342.219285411719
 30
0.0
 11
7373.599999999993
 21
6451.316201067955
 31
0.0
  0
LINE
  5
27099
330
747D
100
AcDbEntity
  8
部品1
 48
50.0
100
AcDbLine
 10
7173.599999999983
 20
6622.21928541168
 30
0.0
 11
7173.599999999992
 21
6342.219285411716
 31
0.0
  0
LINE
  5
2709A
330
747D
100
AcDbEntity
  8
部品1
 48
50.0
100
AcDbLine
 10
7373.599999999983
 20
6622.219285411683
 30
0.0
 11
7373.599999999992
 21
6342.21928541172
 31
0.0
  0
LINE
  5
2709B
330
747D
100
AcDbEntity
  8
細線
 48
50.0
100
AcDbLine
 10
7173.599999999987
 20
6475.82260409468
 30
0.0
 11
7319.99668131699
 21
6622.219285411683
 31
0.0
  0
LINE
  5
2709C
330
747D
100
AcDbEntity
  8
細線
 48
50.0
100
AcDbLine
 10
7173.599999999987
 20
6430.921323489335
 30
0.0
 11
7364.897961922332
 21
6622.21928541168
 31
0.0
  0
LINE
  5
2709D
330
747D
100
AcDbEntity
  8
細線
 48
50.0
100
AcDbLine
 10
7173.599999999992
 20
6386.020042883989
 30
0.0
 11
7373.599999999986
 21
6586.020042883983
 31
0.0
  0
LINE
  5
2709E
330
747D
100
AcDbEntity
  8
細線
 48
50.0
100
AcDbLine
 10
7174.700523133066
 20
6342.219285411716
 30
0.0
 11
7373.599999999988
 21
6541.11876227864
 31
0.0
  0
LINE
  5
2709F
330
747D
100
AcDbEntity
  8
細線
 48
50.0
100
AcDbLine
 10
7173.599999999987
 20
6520.723884700029
 30
0.0
 11
7275.095400711641
 21
6622.219285411681
 31
0.0
  0
LINE
  5
270A0
330
747D
100
AcDbEntity
  8
細線
 48
50.0
100
AcDbLine
 10
8123.599999999987
 20
6565.625165305367
 30
0.0
 11
8180.194120106298
 21
6622.219285411681
 31
0.0
  0
LINE
  5
270A1
330
747D
100
AcDbEntity
  8
細線
 48
50.0
100
AcDbLine
 10
8259.404364949103
 20
6342.21928541172
 30
0.0
 11
8323.599999999995
 21
6406.414920462609
 31
0.0
  0
LINE
  5
270A2
330
747D
100
AcDbEntity
  8
細線
 48
50.0
100
AcDbLine
 10
8304.30564555445
 20
6342.21928541172
 30
0.0
 11
8323.599999999995
 21
6361.513639857265
 31
0.0
  0
LINE
  5
270A3
330
747D
100
AcDbEntity
  8
細線
 48
50.0
100
AcDbLine
 10
8169.601803738409
 20
6342.219285411719
 30
0.0
 11
8323.599999999988
 21
6496.217481673292
 31
0.0
  0
LINE
  5
270A4
330
747D
100
AcDbEntity
  8
細線
 48
50.0
100
AcDbLine
 10
8214.503084343759
 20
6342.219285411719
 30
0.0
 11
8323.599999999993
 21
6451.316201067955
 31
0.0
  0
LINE
  5
270A5
330
747D
100
AcDbEntity
  8
部品1
 48
50.0
100
AcDbLine
 10
8123.599999999983
 20
6622.21928541168
 30
0.0
 11
8123.599999999992
 21
6342.219285411716
 31
0.0
  0
LINE
  5
270A6
330
747D
100
AcDbEntity
  8
部品1
 48
50.0
100
AcDbLine
 10
8323.599999999984
 20
6622.219285411683
 30
0.0
 11
8323.599999999991
 21
6342.21928541172
 31
0.0
  0
LINE
  5
270A7
330
747D
100
AcDbEntity
  8
細線
 48
50.0
100
AcDbLine
 10
8123.599999999987
 20
6475.82260409468
 30
0.0
 11
8269.996681316992
 21
6622.219285411683
 31
0.0
  0
LINE
  5
270A8
330
747D
100
AcDbEntity
  8
細線
 48
50.0
100
AcDbLine
 10
8123.599999999987
 20
6430.921323489335
 30
0.0
 11
8314.897961922332
 21
6622.21928541168
 31
0.0
  0
LINE
  5
270A9
330
747D
100
AcDbEntity
  8
細線
 48
50.0
100
AcDbLine
 10
8123.599999999992
 20
6386.020042883989
 30
0.0
 11
8323.599999999986
 21
6586.020042883983
 31
0.0
  0
LINE
  5
270AA
330
747D
100
AcDbEntity
  8
細線
 48
50.0
100
AcDbLine
 10
8124.700523133066
 20
6342.219285411716
 30
0.0
 11
8323.599999999988
 21
6541.11876227864
 31
0.0
  0
LINE
  5
270AB
330
747D
100
AcDbEntity
  8
細線
 48
50.0
100
AcDbLine
 10
8123.599999999987
 20
6520.723884700029
 30
0.0
 11
8225.095400711643
 21
6622.219285411681
 31
0.0
  0
LINE
  5
270AC
330
747D
100
AcDbEntity
  8
細線
 48
50.0
100
AcDbLine
 10
9073.599999999986
 20
6565.625165305367
 30
0.0
 11
9130.194120106299
 21
6622.219285411681
 31
0.0
  0
LINE
  5
270AD
330
747D
100
AcDbEntity
  8
細線
 48
50.0
100
AcDbLine
 10
9209.404364949103
 20
6342.21928541172
 30
0.0
 11
9273.599999999994
 21
6406.414920462609
 31
0.0
  0
LINE
  5
270AE
330
747D
100
AcDbEntity
  8
細線
 48
50.0
100
AcDbLine
 10
9254.305645554451
 20
6342.21928541172
 30
0.0
 11
9273.599999999994
 21
6361.513639857265
 31
0.0
  0
LINE
  5
270AF
330
747D
100
AcDbEntity
  8
細線
 48
50.0
100
AcDbLine
 10
9119.60180373841
 20
6342.219285411719
 30
0.0
 11
9273.599999999987
 21
6496.217481673292
 31
0.0
  0
LINE
  5
270B0
330
747D
100
AcDbEntity
  8
細線
 48
50.0
100
AcDbLine
 10
9164.503084343758
 20
6342.219285411719
 30
0.0
 11
9273.599999999992
 21
6451.316201067955
 31
0.0
  0
LINE
  5
270B1
330
747D
100
AcDbEntity
  8
部品1
 48
50.0
100
AcDbLine
 10
9073.599999999984
 20
6622.21928541168
 30
0.0
 11
9073.599999999991
 21
6342.219285411716
 31
0.0
  0
LINE
  5
270B2
330
747D
100
AcDbEntity
  8
部品1
 48
50.0
100
AcDbLine
 10
9273.599999999985
 20
6622.219285411683
 30
0.0
 11
9273.599999999992
 21
6342.21928541172
 31
0.0
  0
LINE
  5
270B3
330
747D
100
AcDbEntity
  8
細線
 48
50.0
100
AcDbLine
 10
9073.599999999988
 20
6475.82260409468
 30
0.0
 11
9219.996681316992
 21
6622.219285411683
 31
0.0
  0
LINE
  5
270B4
330
747D
100
AcDbEntity
  8
細線
 48
50.0
100
AcDbLine
 10
9073.599999999988
 20
6430.921323489335
 30
0.0
 11
9264.897961922333
 21
6622.21928541168
 31
0.0
  0
LINE
  5
270B5
330
747D
100
AcDbEntity
  8
細線
 48
50.0
100
AcDbLine
 10
9073.599999999991
 20
6386.020042883989
 30
0.0
 11
9273.599999999985
 21
6586.020042883983
 31
0.0
  0
LINE
  5
270B6
330
747D
100
AcDbEntity
  8
細線
 48
50.0
100
AcDbLine
 10
9074.700523133065
 20
6342.219285411716
 30
0.0
 11
9273.599999999987
 21
6541.11876227864
 31
0.0
  0
LINE
  5
270B7
330
747D
100
AcDbEntity
  8
細線
 48
50.0
100
AcDbLine
 10
9073.599999999988
 20
6520.723884700029
 30
0.0
 11
9175.095400711642
 21
6622.219285411681
 31
0.0
  0
LINE
  5
270B8
330
747D
100
AcDbEntity
  8
細線
 48
50.0
100
AcDbLine
 10
10023.59999999998
 20
6565.625165305367
 30
0.0
 11
10080.1941201063
 21
6622.219285411681
 31
0.0
  0
LINE
  5
270B9
330
747D
100
AcDbEntity
  8
細線
 48
50.0
100
AcDbLine
 10
10159.4043649491
 20
6342.21928541172
 30
0.0
 11
10223.59999999999
 21
6406.414920462609
 31
0.0
  0
LINE
  5
270BA
330
747D
100
AcDbEntity
  8
細線
 48
50.0
100
AcDbLine
 10
10204.30564555445
 20
6342.21928541172
 30
0.0
 11
10223.59999999999
 21
6361.513639857265
 31
0.0
  0
LINE
  5
270BB
330
747D
100
AcDbEntity
  8
細線
 48
50.0
100
AcDbLine
 10
10069.60180373841
 20
6342.219285411719
 30
0.0
 11
10223.59999999999
 21
6496.217481673292
 31
0.0
  0
LINE
  5
270BC
330
747D
100
AcDbEntity
  8
細線
 48
50.0
100
AcDbLine
 10
10114.50308434375
 20
6342.219285411719
 30
0.0
 11
10223.59999999999
 21
6451.316201067955
 31
0.0
  0
LINE
  5
270BD
330
747D
100
AcDbEntity
  8
部品1
 48
50.0
100
AcDbLine
 10
10023.59999999998
 20
6622.21928541168
 30
0.0
 11
10023.59999999999
 21
6342.219285411716
 31
0.0
  0
LINE
  5
270BE
330
747D
100
AcDbEntity
  8
部品1
 48
50.0
100
AcDbLine
 10
10223.59999999998
 20
6622.219285411683
 30
0.0
 11
10223.59999999999
 21
6342.21928541172
 31
0.0
  0
LINE
  5
270BF
330
747D
100
AcDbEntity
  8
細線
 48
50.0
100
AcDbLine
 10
10023.59999999999
 20
6475.82260409468
 30
0.0
 11
10169.99668131699
 21
6622.219285411683
 31
0.0
  0
LINE
  5
270C0
330
747D
100
AcDbEntity
  8
細線
 48
50.0
100
AcDbLine
 10
10023.59999999999
 20
6430.921323489335
 30
0.0
 11
10214.89796192233
 21
6622.21928541168
 31
0.0
  0
LINE
  5
270C1
330
747D
100
AcDbEntity
  8
細線
 48
50.0
100
AcDbLine
 10
10023.59999999999
 20
6386.020042883989
 30
0.0
 11
10223.59999999998
 21
6586.020042883983
 31
0.0
  0
LINE
  5
270C2
330
747D
100
AcDbEntity
  8
細線
 48
50.0
100
AcDbLine
 10
10024.70052313306
 20
6342.219285411716
 30
0.0
 11
10223.59999999999
 21
6541.11876227864
 31
0.0
  0
LINE
  5
270C3
330
747D
100
AcDbEntity
  8
細線
 48
50.0
100
AcDbLine
 10
10023.59999999999
 20
6520.723884700029
 30
0.0
 11
10125.09540071164
 21
6622.219285411681
 31
0.0
  0
LINE
  5
270C4
330
747D
100
AcDbEntity
  8
細線
 48
50.0
100
AcDbLine
 10
10973.59999999998
 20
6565.625165305367
 30
0.0
 11
11030.1941201063
 21
6622.219285411681
 31
0.0
  0
LINE
  5
270C5
330
747D
100
AcDbEntity
  8
細線
 48
50.0
100
AcDbLine
 10
11109.4043649491
 20
6342.21928541172
 30
0.0
 11
11173.59999999999
 21
6406.414920462609
 31
0.0
  0
LINE
  5
270C6
330
747D
100
AcDbEntity
  8
細線
 48
50.0
100
AcDbLine
 10
11154.30564555445
 20
6342.21928541172
 30
0.0
 11
11173.59999999999
 21
6361.513639857265
 31
0.0
  0
LINE
  5
270C7
330
747D
100
AcDbEntity
  8
細線
 48
50.0
100
AcDbLine
 10
11019.60180373841
 20
6342.219285411719
 30
0.0
 11
11173.59999999999
 21
6496.217481673292
 31
0.0
  0
LINE
  5
270C8
330
747D
100
AcDbEntity
  8
細線
 48
50.0
100
AcDbLine
 10
11064.50308434375
 20
6342.219285411719
 30
0.0
 11
11173.59999999999
 21
6451.316201067955
 31
0.0
  0
LINE
  5
270C9
330
747D
100
AcDbEntity
  8
部品1
 48
50.0
100
AcDbLine
 10
10973.59999999998
 20
6622.21928541168
 30
0.0
 11
10973.59999999999
 21
6342.219285411716
 31
0.0
  0
LINE
  5
270CA
330
747D
100
AcDbEntity
  8
部品1
 48
50.0
100
AcDbLine
 10
11173.59999999998
 20
6622.219285411683
 30
0.0
 11
11173.59999999999
 21
6342.21928541172
 31
0.0
  0
LINE
  5
270CB
330
747D
100
AcDbEntity
  8
細線
 48
50.0
100
AcDbLine
 10
10973.59999999999
 20
6475.82260409468
 30
0.0
 11
11119.99668131699
 21
6622.219285411683
 31
0.0
  0
LINE
  5
270CC
330
747D
100
AcDbEntity
  8
細線
 48
50.0
100
AcDbLine
 10
10973.59999999999
 20
6430.921323489335
 30
0.0
 11
11164.89796192233
 21
6622.21928541168
 31
0.0
  0
LINE
  5
270CD
330
747D
100
AcDbEntity
  8
細線
 48
50.0
100
AcDbLine
 10
10973.59999999999
 20
6386.020042883989
 30
0.0
 11
11173.59999999998
 21
6586.020042883983
 31
0.0
  0
LINE
  5
270CE
330
747D
100
AcDbEntity
  8
細線
 48
50.0
100
AcDbLine
 10
10974.70052313306
 20
6342.219285411716
 30
0.0
 11
11173.59999999999
 21
6541.11876227864
 31
0.0
  0
LINE
  5
270CF
330
747D
100
AcDbEntity
  8
細線
 48
50.0
100
AcDbLine
 10
10973.59999999999
 20
6520.723884700029
 30
0.0
 11
11075.09540071164
 21
6622.219285411681
 31
0.0
  0
LINE
  5
271A1
330
747D
100
AcDbEntity
  8
部品1
 48
50.0
100
AcDbLine
 10
5013.6
 20
6622.219285411678
 30
0.0
 11
5013.599999999996
 21
7522.219285411679
 31
0.0
  0
LINE
  5
271A2
330
747D
100
AcDbEntity
  8
部品1
 48
50.0
100
AcDbLine
 10
11433.6
 20
6622.219285411715
 30
0.0
 11
11433.6
 21
7522.219285411679
 31
0.0
  0
MTEXT
  5
27330
102
{ACAD_REACTORS
330
27331
102
}
330
747D
100
AcDbEntity
  8
寸法
 62
     7
 48
50.0
100
AcDbMText
 10
10663.67346322966
 20
2105.122487038292
 30
0.0
 40
120.0
 41
0.8
 71
     4
 72
     1
  1
\A1;C.B
  7
STYLE1
 73
     1
 44
1.0
1001
ACAD
1000
MTEXTBEGIN
1070
    73
1070
     1
1070
    44
1040
1.0
1070
    74
1070
     0
1000
MTEXTEND
  0
LEADER
  5
27331
330
747D
100
AcDbEntity
  8
寸法
 48
50.0
100
AcDbLeader
  3
INABA_S50G
 73
     0
 74
     0
 75
     1
 40
120.0
 41
185.591883092037
 76
     3
 10
10480.53525659602
 20
1847.976166357153
 30
0.0
 10
10513.67346322966
 20
2020.122487038291
 30
0.0
 10
10638.67346322966
 20
2020.122487038291
 30
0.0
340
27330
1001
ACAD
1000
DSTYLE
1002
{
1070
    40
1040
1.0
1002
}
  0
LINE
  5
27332
330
747D
100
AcDbEntity
  8
細線
 48
50.0
100
AcDbLine
 10
10626.18867017243
 20
1492.277250703802
 30
0.0
 11
10619.75788955408
 21
1516.277250703802
 31
0.0
  0
LINE
  5
27333
330
747D
100
AcDbEntity
  8
細線
 48
50.0
100
AcDbLine
 10
10604.75273477794
 20
1412.277250703802
 30
0.0
 11
10611.18351539628
 21
1388.277250703803
 31
0.0
  0
LINE
  5
27334
330
747D
100
AcDbEntity
  8
部品1
100
AcDbLine
 10
10669.81084498009
 20
1607.976166357153
 30
0.0
 11
10669.8108449801
 21
1388.277250703803
 31
0.0
  0
LINE
  5
27335
330
747D
100
AcDbEntity
  8
細線
 48
50.0
100
AcDbLine
 10
10598.32195415959
 20
1388.277250703803
 30
0.0
 11
10632.61945079077
 21
1516.277250703801
 31
0.0
  0
LINE
  5
27336
330
747D
100
AcDbEntity
  8
細線
 48
50.0
100
AcDbLine
 10
10547.30062522518
 20
1492.277250703802
 30
0.0
 11
10540.86984460683
 21
1516.277250703802
 31
0.0
  0
LINE
  5
27337
330
747D
100
AcDbEntity
  8
細線
100
AcDbLine
 10
10422.84723947943
 20
1516.277250703805
 30
0.0
 11
10514.54615513277
 21
1607.976166357153
 31
0.0
  0
LINE
  5
27338
330
747D
100
AcDbEntity
  8
細線
 48
50.0
100
AcDbLine
 10
10468.41258027792
 20
1492.277250703803
 30
0.0
 11
10461.98179965958
 21
1516.277250703803
 31
0.0
  0
LINE
  5
27339
330
747D
100
AcDbEntity
  8
細線
100
AcDbLine
 10
10456.78836497638
 20
1516.277250703805
 30
0.0
 11
10548.48728062973
 21
1607.976166357153
 31
0.0
  0
LINE
  5
2733A
330
747D
100
AcDbEntity
  8
細線
 48
50.0
100
AcDbLine
 10
10231.74844543619
 20
1492.277250703803
 30
0.0
 11
10225.31766481785
 21
1516.277250703803
 31
0.0
  0
LINE
  5
2733B
330
747D
100
AcDbEntity
  8
細線
 48
50.0
100
AcDbLine
 10
10310.63649038344
 20
1492.277250703803
 30
0.0
 11
10304.20570976509
 21
1516.277250703803
 31
0.0
  0
LINE
  5
2733C
330
747D
100
AcDbEntity
  8
細線
 48
50.0
100
AcDbLine
 10
10389.52453533068
 20
1492.277250703803
 30
0.0
 11
10383.09375471234
 21
1516.277250703803
 31
0.0
  0
LINE
  5
2733D
330
747D
100
AcDbEntity
  8
細線
 48
50.0
100
AcDbLine
 10
10525.86468983069
 20
1412.277250703802
 30
0.0
 11
10532.29547044904
 21
1388.277250703803
 31
0.0
  0
LINE
  5
2733E
330
747D
100
AcDbEntity
  8
細線
 48
50.0
100
AcDbLine
 10
10446.97664488344
 20
1412.277250703803
 30
0.0
 11
10453.4074255018
 21
1388.277250703803
 31
0.0
  0
LINE
  5
2733F
330
747D
100
AcDbEntity
  8
細線
 48
50.0
100
AcDbLine
 10
10289.20055498895
 20
1412.277250703803
 30
0.0
 11
10295.6313356073
 21
1388.277250703803
 31
0.0
  0
LINE
  5
27340
330
747D
100
AcDbEntity
  8
細線
 48
50.0
100
AcDbLine
 10
10368.0885999362
 20
1412.277250703803
 30
0.0
 11
10374.51938055454
 21
1388.277250703803
 31
0.0
  0
LINE
  5
27341
330
747D
100
AcDbEntity
  8
細線
 48
50.0
100
AcDbLine
 10
10361.65781931784
 20
1388.277250703803
 30
0.0
 11
10395.95531594903
 21
1516.277250703802
 31
0.0
  0
LINE
  5
27342
330
747D
100
AcDbEntity
  8
細線
 48
50.0
100
AcDbLine
 10
10282.7697743706
 20
1388.277250703803
 30
0.0
 11
10317.06727100178
 21
1516.277250703802
 31
0.0
  0
LINE
  5
27343
330
747D
100
AcDbEntity
  8
細線
 48
50.0
100
AcDbLine
 10
10440.54586426509
 20
1388.277250703803
 30
0.0
 11
10474.84336089627
 21
1516.277250703803
 31
0.0
  0
LINE
  5
27344
330
747D
100
AcDbEntity
  8
細線
100
AcDbLine
 10
10490.72949047334
 20
1516.277250703805
 30
0.0
 11
10582.42840612668
 21
1607.976166357153
 31
0.0
  0
LINE
  5
27345
330
747D
100
AcDbEntity
  8
細線
 48
50.0
100
AcDbLine
 10
10519.43390921234
 20
1388.277250703801
 30
0.0
 11
10553.73140584352
 21
1516.277250703801
 31
0.0
  0
LINE
  5
27346
330
747D
100
AcDbEntity
  8
部品1
100
AcDbLine
 10
10549.81084498009
 20
1847.976166357153
 30
0.0
 11
10549.81084498009
 21
1607.976166357153
 31
0.0
  0
LINE
  5
27347
330
747D
100
AcDbEntity
  8
細線
100
AcDbLine
 10
10535.97318263251
 20
1607.976166357155
 30
0.0
 11
10295.97318263252
 21
1847.976166357153
 31
0.0
  0
LINE
  5
27348
330
747D
100
AcDbEntity
  8
細線
100
AcDbLine
 10
10485.06149438708
 20
1607.976166357153
 30
0.0
 11
10245.06149438708
 21
1847.976166357153
 31
0.0
  0
LINE
  5
27349
330
747D
100
AcDbEntity
  8
細線
100
AcDbLine
 10
10096.78836497638
 20
1516.277250703803
 30
0.0
 11
10188.48728062972
 21
1607.976166357153
 31
0.0
  0
LINE
  5
2734A
330
747D
100
AcDbEntity
  8
細線
100
AcDbLine
 10
10062.84723947942
 20
1516.277250703803
 30
0.0
 11
10154.54615513277
 21
1607.976166357153
 31
0.0
  0
LINE
  5
2734B
330
747D
100
AcDbEntity
  8
細線
 48
50.0
100
AcDbLine
 10
10073.9723555417
 20
1492.277250703803
 30
0.0
 11
10067.54157492335
 21
1516.277250703803
 31
0.0
  0
LINE
  5
2734C
330
747D
100
AcDbEntity
  8
細線
 48
50.0
100
AcDbLine
 10
10152.86040048895
 20
1492.277250703803
 30
0.0
 11
10146.4296198706
 21
1516.277250703803
 31
0.0
  0
LINE
  5
2734D
330
747D
100
AcDbEntity
  8
細線
 48
50.0
100
AcDbLine
 10
9995.084310594446
 20
1492.277250703803
 30
0.0
 11
9988.653529976097
 21
1516.277250703803
 31
0.0
  0
LINE
  5
2734E
330
747D
100
AcDbEntity
  8
細線
 48
50.0
100
AcDbLine
 10
10210.3125100417
 20
1412.277250703803
 30
0.0
 11
10216.74329066005
 21
1388.277250703803
 31
0.0
  0
LINE
  5
2734F
330
747D
100
AcDbEntity
  8
細線
 48
50.0
100
AcDbLine
 10
10131.42446509446
 20
1412.277250703803
 30
0.0
 11
10137.8552457128
 21
1388.277250703803
 31
0.0
  0
LINE
  5
27350
330
747D
100
AcDbEntity
  8
細線
 48
50.0
100
AcDbLine
 10
9973.648375199957
 20
1412.277250703803
 30
0.0
 11
9980.079155818305
 21
1388.277250703803
 31
0.0
  0
LINE
  5
27351
330
747D
100
AcDbEntity
  8
細線
 48
50.0
100
AcDbLine
 10
10052.53642014721
 20
1412.277250703803
 30
0.0
 11
10058.96720076555
 21
1388.277250703803
 31
0.0
  0
LINE
  5
27352
330
747D
100
AcDbEntity
  8
部品1
100
AcDbLine
 10
9949.810844980097
 20
1388.2772507038
 30
0.0
 11
9949.810844980097
 21
1607.976166357153
 31
0.0
  0
LINE
  5
27353
330
747D
100
AcDbEntity
  8
細線
 48
50.0
100
AcDbLine
 10
9967.21759458161
 20
1388.277250703803
 30
0.0
 11
10001.51509121279
 21
1516.277250703803
 31
0.0
  0
LINE
  5
27354
330
747D
100
AcDbEntity
  8
細線
 48
50.0
100
AcDbLine
 10
10124.9936844761
 20
1388.277250703803
 30
0.0
 11
10159.29118110729
 21
1516.277250703803
 31
0.0
  0
LINE
  5
27355
330
747D
100
AcDbEntity
  8
細線
 48
50.0
100
AcDbLine
 10
10046.10563952885
 20
1388.277250703803
 30
0.0
 11
10080.40313616004
 21
1516.277250703802
 31
0.0
  0
LINE
  5
27356
330
747D
100
AcDbEntity
  8
部品1
100
AcDbLine
 10
10069.81084498009
 20
1607.976166357153
 30
0.0
 11
10069.81084498009
 21
1847.976166357153
 31
0.0
  0
TEXT
  5
27357
330
747D
100
AcDbEntity
  8
部品1
 48
50.0
100
AcDbText
 10
9305.692758221594
 20
1341.176425719845
 30
0.0
 40
80.0
  1
ボルトの出
 50
90.0
  7
STYLE2
100
AcDbText
  0
LINE
  5
27358
330
747D
100
AcDbEntity
  8
細線
100
AcDbLine
 10
10213.53249041145
 20
1607.976166357153
 30
0.0
 11
10069.81084498009
 21
1751.697811788506
 31
0.0
  0
LWPOLYLINE
  5
27359
330
747D
100
AcDbEntity
  8
部品1
 48
50.0
100
AcDbPolyline
 90
        2
 70
     0
 43
12.0
 10
9685.199582879709
 20
1607.976166357153
 10
10886.29188601133
 20
1607.976166357153
  0
LINE
  5
2735A
330
747D
100
AcDbEntity
  8
細線
100
AcDbLine
 10
10130.72949047334
 20
1516.277250703803
 30
0.0
 11
10222.42840612668
 21
1607.976166357153
 31
0.0
  0
LINE
  5
2735B
330
747D
100
AcDbEntity
  8
部品1
100
AcDbLine
 10
9949.810844980097
 20
1516.277250703803
 30
0.0
 11
10669.81084498009
 21
1516.277250703806
 31
0.0
  0
LINE
  5
2735C
330
747D
100
AcDbEntity
  8
部品1
100
AcDbLine
 10
9949.810844980097
 20
1388.2772507038
 30
0.0
 11
10669.81084498009
 21
1388.277250703803
 31
0.0
  0
LINE
  5
2735D
330
747D
100
AcDbEntity
  8
細線
 48
50.0
100
AcDbLine
 10
10203.88172942335
 20
1388.277250703803
 30
0.0
 11
10238.17922605454
 21
1516.277250703802
 31
0.0
  0
LINE
  5
2735E
330
747D
100
AcDbEntity
  8
部品1
100
AcDbLine
 10
10069.81084498009
 20
1847.976166357153
 30
0.0
 11
10549.81084498009
 21
1847.976166357153
 31
0.0
  0
LINE
  5
2735F
330
747D
100
AcDbEntity
  8
細線
100
AcDbLine
 10
10264.44417865688
 20
1607.976166357153
 30
0.0
 11
10069.81084498009
 21
1802.609500033936
 31
0.0
  0
LINE
  5
27360
330
747D
100
AcDbEntity
  8
部品1
100
AcDbLine
 10
11256.55234607713
 20
283.0078639730918
 30
0.0
 11
11256.55234607713
 21
3247.314833557739
 31
0.0
  0
TEXT
  5
27361
330
747D
100
AcDbEntity
  8
部品1
100
AcDbText
 10
7878.447161869269
 20
3067.762901606311
 30
0.0
 40
120.0
  1
基礎詳細
  7
STYLE2
100
AcDbText
  0
LINE
  5
27362
330
747D
100
AcDbEntity
  8
部品1
 48
50.0
100
AcDbLine
 10
8193.674912677339
 20
2246.851447466296
 30
0.0
 11
8209.674912677339
 21
2238.851447466296
 31
0.0
  0
LINE
  5
27363
330
747D
100
AcDbEntity
  8
細線
 48
50.0
100
AcDbLine
 10
8161.674912677339
 20
2198.851447466296
 30
0.0
 11
8161.674912677339
 21
2230.851447466296
 31
0.0
  0
LINE
  5
27364
330
747D
100
AcDbEntity
  8
部品1
 48
50.0
100
AcDbLine
 10
8209.674912677339
 20
2206.851447466296
 30
0.0
 11
8209.674912677339
 21
2238.851447466296
 31
0.0
  0
LINE
  5
27365
330
747D
100
AcDbEntity
  8
細線
 48
50.0
100
AcDbLine
 10
8193.674912677339
 20
2198.851447466296
 30
0.0
 11
8193.674912677339
 21
2230.851447466296
 31
0.0
  0
LINE
  5
27366
330
747D
100
AcDbEntity
  8
部品1
 48
50.0
100
AcDbLine
 10
8193.674912677339
 20
2230.851447466296
 30
0.0
 11
8209.674912677339
 21
2238.851447466296
 31
0.0
  0
LINE
  5
27367
330
747D
100
AcDbEntity
  8
部品1
 48
50.0
100
AcDbLine
 10
8161.674912677339
 20
2230.851447466296
 30
0.0
 11
8193.674912677339
 21
2230.851447466296
 31
0.0
  0
LINE
  5
27368
330
747D
100
AcDbEntity
  8
部品1
 48
50.0
100
AcDbLine
 10
8193.674912677339
 20
2198.851447466296
 30
0.0
 11
8209.674912677339
 21
2206.851447466296
 31
0.0
  0
LINE
  5
27369
330
747D
100
AcDbEntity
  8
部品1
 48
50.0
100
AcDbLine
 10
8161.674912677339
 20
2198.851447466296
 30
0.0
 11
8193.674912677339
 21
2198.851447466296
 31
0.0
  0
ELLIPSE
  5
2736A
330
747D
100
AcDbEntity
  8
細線
 48
50.0
100
AcDbEllipse
 10
8177.674912677339
 20
2238.851447466296
 30
0.0
 11
14.76670786606846
 21
0.0
 31
0.0
210
0.0
220
0.0
230
1.0
 40
0.2071254069489396
 41
0.0
 42
6.283185307179586
  0
LINE
  5
2736B
330
747D
100
AcDbEntity
  8
部品1
 48
50.0
100
AcDbLine
 10
8161.674912677339
 20
2246.851447466296
 30
0.0
 11
8193.674912677339
 21
2246.851447466296
 31
0.0
  0
LINE
  5
2736C
330
747D
100
AcDbEntity
  8
部品1
 48
50.0
100
AcDbLine
 10
8145.674912677339
 20
2206.851447466296
 30
0.0
 11
8145.674912677339
 21
2238.851447466296
 31
0.0
  0
LINE
  5
2736D
330
747D
100
AcDbEntity
  8
部品1
 48
50.0
100
AcDbLine
 10
8145.674912677339
 20
2238.851447466296
 30
0.0
 11
8161.674912677339
 21
2246.851447466296
 31
0.0
  0
LINE
  5
2736E
330
747D
100
AcDbEntity
  8
部品1
 48
50.0
100
AcDbLine
 10
8145.674912677339
 20
2206.851447466296
 30
0.0
 11
8161.674912677339
 21
2198.851447466296
 31
0.0
  0
LINE
  5
2736F
330
747D
100
AcDbEntity
  8
部品1
 48
50.0
100
AcDbLine
 10
8145.674912677339
 20
2238.851447466296
 30
0.0
 11
8161.674912677339
 21
2230.851447466296
 31
0.0
  0
LINE
  5
27370
330
747D
100
AcDbEntity
  8
部品1
 48
50.0
100
AcDbLine
 10
8217.67491267734
 20
2107.499454801426
 30
0.0
 11
8217.67491267734
 21
2117.099454801426
 31
0.0
  0
ELLIPSE
  5
27371
330
747D
100
AcDbEntity
  8
部品1
 48
50.0
100
AcDbEllipse
 10
8177.674912677339
 20
2117.099454801426
 30
0.0
 11
18.4
 21
0.0
 31
0.0
210
0.0
220
0.0
230
1.0
 40
0.3478260869565217
 41
0.0
 42
6.283185307179586
  0
ARC
  5
27372
330
747D
100
AcDbEntity
  8
部品1
100
AcDbCircle
 10
8016.57491267734
 20
1946.076166357154
 30
0.0
 40
2.7
100
AcDbArc
 50
90.0
 51
180.0
  0
LINE
  5
27373
330
747D
100
AcDbEntity
  8
部品1
100
AcDbLine
 10
8019.274912677337
 20
1959.576166357154
 30
0.0
 11
8061.57491267734
 21
1959.57616635715
 31
0.0
  0
LINE
  5
27374
330
747D
100
AcDbEntity
  8
部品1
100
AcDbLine
 10
8016.57491267734
 20
1948.776166357153
 30
0.0
 11
8016.57491267734
 21
1956.876166357153
 31
0.0
  0
LINE
  5
27375
330
747D
100
AcDbEntity
  8
部品1
100
AcDbLine
 10
8016.57491267734
 20
1948.776166357153
 30
0.0
 11
8016.57491267734
 21
1948.776166357153
 31
0.0
  0
ARC
  5
27376
330
747D
100
AcDbEntity
  8
部品1
100
AcDbCircle
 10
8019.274912677337
 20
1956.876166357153
 30
0.0
 40
2.7
100
AcDbArc
 50
90.0
 51
180.0
  0
ARC
  5
27377
330
747D
100
AcDbEntity
  8
部品1
100
AcDbCircle
 10
8061.57491267734
 20
1956.87616635715
 30
0.0
 40
2.7
100
AcDbArc
 50
0.0
 51
90.0
  0
LINE
  5
27378
330
747D
100
AcDbEntity
  8
部品1
 48
50.0
100
AcDbLine
 10
8137.674912677338
 20
2117.099454801426
 30
0.0
 11
8137.674912677338
 21
2107.499454801426
 31
0.0
  0
ELLIPSE
  5
27379
330
747D
100
AcDbEntity
  8
部品1
 48
50.0
100
AcDbEllipse
 10
8177.674912677339
 20
2107.499454801427
 30
0.0
 11
40.0
 21
0.0
 31
0.0
210
0.0
220
0.0
230
1.0
 40
0.4
 41
3.141592653589793
 42
6.283185307179586
  0
ELLIPSE
  5
2737A
330
747D
100
AcDbEntity
  8
部品1
 48
50.0
100
AcDbEllipse
 10
8177.674912677339
 20
2117.099454801426
 30
0.0
 11
40.0
 21
0.0
 31
0.0
210
0.0
220
0.0
230
1.0
 40
0.4
 41
0.0
 42
6.283185307179586
  0
LINE
  5
2737B
330
747D
100
AcDbEntity
  8
部品1
100
AcDbLine
 10
8172.274912677337
 20
1900.736166357154
 30
0.0
 11
8183.074912677339
 21
1900.736166357154
 31
0.0
  0
LINE
  5
2737C
330
747D
100
AcDbEntity
  8
部品1
100
AcDbLine
 10
8168.674912677339
 20
1897.136166357154
 30
0.0
 11
8186.674912677339
 21
1897.136166357154
 31
0.0
  0
LINE
  5
2737D
330
747D
100
AcDbEntity
  8
細線
100
AcDbLine
 10
8172.274912677343
 20
1857.536166357154
 30
0.0
 11
8172.274912677337
 21
1900.736166357154
 31
0.0
  0
LINE
  5
2737E
330
747D
100
AcDbEntity
  8
細線
100
AcDbLine
 10
8183.074912677339
 20
1857.536166357154
 30
0.0
 11
8183.074912677339
 21
1900.736166357154
 31
0.0
  0
LINE
  5
2737F
330
747D
100
AcDbEntity
  8
部品1
100
AcDbLine
 10
8084.974912677338
 20
1914.836166357154
 30
0.0
 11
8084.974912677338
 21
1897.736166357154
 31
0.0
  0
LINE
  5
27380
330
747D
100
AcDbEntity
  8
部品1
100
AcDbLine
 10
8118.53491267734
 20
1914.836166357154
 30
0.0
 11
8118.534912677336
 21
1860.236166357154
 31
0.0
  0
ARC
  5
27381
330
747D
100
AcDbEntity
  8
部品1
100
AcDbCircle
 10
8103.874912677339
 20
1902.876166357153
 30
0.0
 40
2.7
100
AcDbArc
 50
0.0
 51
90.0
  0
LINE
  5
27382
330
747D
100
AcDbEntity
  8
部品1
100
AcDbLine
 10
8064.274912677339
 20
1905.576166357153
 30
0.0
 11
8103.874912677339
 21
1905.576166357153
 31
0.0
  0
ARC
  5
27383
330
747D
100
AcDbEntity
  8
部品1
100
AcDbCircle
 10
8103.874912677339
 20
1860.236166357154
 30
0.0
 40
2.7
100
AcDbArc
 50
270.0
 51
0.0
  0
ARC
  5
27384
330
747D
100
AcDbEntity
  8
部品1
100
AcDbCircle
 10
8121.234912677333
 20
1860.236166357154
 30
0.0
 40
2.7
100
AcDbArc
 50
180.0
 51
270.0
  0
LINE
  5
27385
330
747D
100
AcDbEntity
  8
部品1
100
AcDbLine
 10
8092.174912677339
 20
1857.536166357154
 30
0.0
 11
8103.874912677339
 21
1857.536166357154
 31
0.0
  0
LINE
  5
27386
330
747D
100
AcDbEntity
  8
部品1
100
AcDbLine
 10
8106.57491267734
 20
1902.876166357153
 30
0.0
 11
8106.57491267734
 21
1860.236166357154
 31
0.0
  0
ARC
  5
27387
330
747D
100
AcDbEntity
  8
部品1
100
AcDbCircle
 10
8115.834912677339
 20
1914.836166357154
 30
0.0
 40
2.7
100
AcDbArc
 50
0.0
 51
90.0
  0
ARC
  5
27388
330
747D
100
AcDbEntity
  8
部品1
100
AcDbCircle
 10
8087.674912677339
 20
1914.836166357154
 30
0.0
 40
2.7
100
AcDbArc
 50
90.0
 51
180.0
  0
LINE
  5
27389
330
747D
100
AcDbEntity
  8
部品1
100
AcDbLine
 10
8087.674912677339
 20
1917.536166357154
 30
0.0
 11
8115.834912677339
 21
1917.536166357154
 31
0.0
  0
LINE
  5
2738A
330
747D
100
AcDbEntity
  8
部品1
100
AcDbLine
 10
8064.274912677339
 20
1956.87616635715
 30
0.0
 11
8064.274912677339
 21
1905.576166357153
 31
0.0
  0
LINE
  5
2738B
330
747D
100
AcDbEntity
  8
部品1
100
AcDbLine
 10
8013.874912677341
 20
1937.976166357153
 30
0.0
 11
8013.874912677341
 21
1946.076166357154
 31
0.0
  0
LINE
  5
2738C
330
747D
100
AcDbEntity
  8
部品1
100
AcDbLine
 10
8121.234912677333
 20
1857.536166357154
 30
0.0
 11
8322.574912677334
 21
1857.536166357154
 31
0.0
  0
LINE
  5
2738D
330
747D
100
AcDbEntity
  8
部品1
100
AcDbLine
 10
7962.574912677339
 20
1860.236166357154
 30
0.0
 11
7962.574912677339
 21
1922.368070059862
 31
0.0
  0
LINE
  5
2738E
330
747D
100
AcDbEntity
  8
部品1
100
AcDbLine
 10
7965.274912677339
 20
1857.536166357154
 30
0.0
 11
7976.974912677333
 21
1857.536166357154
 31
0.0
  0
LINE
  5
2738F
330
747D
100
AcDbEntity
  8
細線
 48
50.0
100
AcDbLine
 10
7956.274912677338
 20
1835.756742657058
 30
0.0
 11
7968.494336377432
 21
1847.976166357153
 31
0.0
  0
ARC
  5
27390
330
747D
100
AcDbEntity
  8
部品1
100
AcDbCircle
 10
7965.274912677339
 20
1860.236166357154
 30
0.0
 40
2.7
100
AcDbArc
 50
180.0
 51
270.0
  0
LINE
  5
27391
330
747D
100
AcDbEntity
  8
部品1
100
AcDbLine
 10
7964.62006648974
 20
1924.987454810253
 30
0.0
 11
7973.37491267734
 21
1927.176166357153
 31
0.0
  0
ARC
  5
27392
330
747D
100
AcDbEntity
  8
部品1
100
AcDbCircle
 10
7965.274912677339
 20
1922.368070059862
 30
0.0
 40
2.7
100
AcDbArc
 50
104.0362434679067
 51
180.0
  0
ARC
  5
27393
330
747D
100
AcDbEntity
  8
部品1
100
AcDbCircle
 10
7976.074912677339
 20
1935.276166357154
 30
0.0
 40
2.7
100
AcDbArc
 50
90.0
 51
180.0
  0
LINE
  5
27394
330
747D
100
AcDbEntity
  8
部品1
100
AcDbLine
 10
7973.37491267734
 20
1927.176166357153
 30
0.0
 11
7973.37491267734
 21
1935.276166357154
 31
0.0
  0
LINE
  5
27395
330
747D
100
AcDbEntity
  8
部品1
 48
50.0
100
AcDbLine
 10
7956.274912677338
 20
1847.976166357153
 30
0.0
 11
8370.274912677341
 21
1847.976166357153
 31
0.0
  0
LINE
  5
27396
330
747D
100
AcDbEntity
  8
細線
 48
50.0
100
AcDbLine
 10
7956.274912677338
 20
1781.875205930643
 30
0.0
 11
8022.375873103849
 21
1847.976166357153
 31
0.0
  0
LINE
  5
27397
330
747D
100
AcDbEntity
  8
細線
 48
50.0
100
AcDbLine
 10
7956.274912677338
 20
1808.815974293851
 30
0.0
 11
7995.435104740646
 21
1847.976166357153
 31
0.0
  0
LINE
  5
27398
330
747D
100
AcDbEntity
  8
部品1
100
AcDbLine
 10
7976.074912677339
 20
1937.976166357153
 30
0.0
 11
8013.874912677341
 21
1937.976166357153
 31
0.0
  0
LINE
  5
27399
330
747D
100
AcDbEntity
  8
部品1
 48
50.0
100
AcDbLine
 10
8370.274912677338
 20
1303.976166357153
 30
0.0
 11
8498.274912677338
 21
1303.976166357153
 31
0.0
  0
LINE
  5
2739A
330
747D
100
AcDbEntity
  8
部品1
100
AcDbLine
 10
8186.674912677339
 20
1622.976166357153
 30
0.0
 11
8222.674912677339
 21
1622.976166357153
 31
0.0
  0
LINE
  5
2739B
330
747D
100
AcDbEntity
  8
部品1
100
AcDbLine
 10
8186.674912677339
 20
1604.976166357153
 30
0.0
 11
8222.674912677339
 21
1604.976166357153
 31
0.0
  0
ARC
  5
2739C
330
747D
100
AcDbEntity
  8
部品1
100
AcDbCircle
 10
8186.674912677339
 20
1622.976166357153
 30
0.0
 40
18.0
100
AcDbArc
 50
180.0
 51
270.0
  0
LINE
  5
2739D
330
747D
100
AcDbEntity
  8
部品1
100
AcDbLine
 10
8222.674912677339
 20
1604.976166357153
 30
0.0
 11
8222.674912677339
 21
1622.976166357153
 31
0.0
  0
LINE
  5
2739E
330
747D
100
AcDbEntity
  8
部品1
100
AcDbLine
 10
8240.67491267734
 20
1523.976166357152
 30
0.0
 11
8114.674912677331
 21
1523.976166357152
 31
0.0
  0
LINE
  5
2739F
330
747D
100
AcDbEntity
  8
細線
 48
50.0
100
AcDbLine
 10
8534.652737869674
 20
1039.976166357152
 30
0.0
 11
8528.221957251329
 21
1063.976166357152
 31
0.0
  0
LINE
  5
273A0
330
747D
100
AcDbEntity
  8
細線
 48
50.0
100
AcDbLine
 10
8455.764692922429
 20
1039.976166357152
 30
0.0
 11
8449.333912304082
 21
1063.976166357152
 31
0.0
  0
LINE
  5
273A1
330
747D
100
AcDbEntity
  8
細線
 48
50.0
100
AcDbLine
 10
8376.876647975171
 20
1039.976166357153
 30
0.0
 11
8370.445867356824
 21
1063.976166357153
 31
0.0
  0
LINE
  5
273A2
330
747D
100
AcDbEntity
  8
細線
 48
50.0
100
AcDbLine
 10
8513.216802475184
 20
959.9761663571516
 30
0.0
 11
8519.647583093533
 21
935.9761663571516
 31
0.0
  0
LINE
  5
273A3
330
747D
100
AcDbEntity
  8
細線
 48
50.0
100
AcDbLine
 10
8434.328757527939
 20
959.9761663571516
 30
0.0
 11
8440.759538146286
 21
935.9761663571516
 31
0.0
  0
LINE
  5
273A4
330
747D
100
AcDbEntity
  8
細線
 48
50.0
100
AcDbLine
 10
8355.440712580691
 20
959.9761663571534
 30
0.0
 11
8361.871493199046
 21
935.9761663571534
 31
0.0
  0
LINE
  5
273A5
330
747D
100
AcDbEntity
  8
細線
 48
50.0
100
AcDbLine
 10
8427.897976909589
 20
935.9761663571507
 30
0.0
 11
8462.195473540772
 21
1063.97616635715
 31
0.0
  0
LINE
  5
273A6
330
747D
100
AcDbEntity
  8
細線
 48
50.0
100
AcDbLine
 10
8349.00993196234
 20
935.9761663571516
 30
0.0
 11
8383.307428593514
 21
1063.976166357153
 31
0.0
  0
LINE
  5
273A7
330
747D
100
AcDbEntity
  8
細線
 48
50.0
100
AcDbLine
 10
8506.786021856832
 20
935.9761663571516
 30
0.0
 11
8541.08351848802
 21
1063.97616635715
 31
0.0
  0
LINE
  5
273A8
330
747D
100
AcDbEntity
  8
部品1
 48
50.0
100
AcDbLine
 10
8578.274912677342
 20
1063.976166357153
 30
0.0
 11
8578.274912677342
 21
935.9761663571534
 31
0.0
  0
LINE
  5
273A9
330
747D
100
AcDbEntity
  8
細線
 48
50.0
100
AcDbLine
 10
8297.988603027935
 20
1039.976166357153
 30
0.0
 11
8291.557822409588
 21
1063.976166357153
 31
0.0
  0
LINE
  5
273AA
330
747D
100
AcDbEntity
  8
細線
 48
50.0
100
AcDbLine
 10
8219.100558080688
 20
1039.976166357153
 30
0.0
 11
8212.669777462341
 21
1063.976166357153
 31
0.0
  0
LINE
  5
273AB
330
747D
100
AcDbEntity
  8
細線
 48
50.0
100
AcDbLine
 10
8061.324468186194
 20
1039.976166357153
 30
0.0
 11
8054.893687567847
 21
1063.976166357153
 31
0.0
  0
LINE
  5
273AC
330
747D
100
AcDbEntity
  8
細線
 48
50.0
100
AcDbLine
 10
8140.212513133441
 20
1039.976166357153
 30
0.0
 11
8133.781732515094
 21
1063.976166357153
 31
0.0
  0
LINE
  5
273AD
330
747D
100
AcDbEntity
  8
細線
 48
50.0
100
AcDbLine
 10
8197.6646226862
 20
959.9761663571534
 30
0.0
 11
8204.095403304545
 21
935.9761663571534
 31
0.0
  0
LINE
  5
273AE
330
747D
100
AcDbEntity
  8
細線
 48
50.0
100
AcDbLine
 10
8276.552667633444
 20
959.9761663571534
 30
0.0
 11
8282.983448251791
 21
935.9761663571534
 31
0.0
  0
LINE
  5
273AF
330
747D
100
AcDbEntity
  8
細線
 48
50.0
100
AcDbLine
 10
8039.888532791705
 20
959.9761663571534
 30
0.0
 11
8046.319313410053
 21
935.9761663571534
 31
0.0
  0
LINE
  5
273B0
330
747D
100
AcDbEntity
  8
細線
 48
50.0
100
AcDbLine
 10
8118.776577738954
 20
959.9761663571534
 30
0.0
 11
8125.2073583573
 21
935.9761663571534
 31
0.0
  0
LINE
  5
273B1
330
747D
100
AcDbEntity
  8
細線
 48
50.0
100
AcDbLine
 10
8270.121887015092
 20
935.9761663571534
 30
0.0
 11
8304.419383646276
 21
1063.976166357152
 31
0.0
  0
LINE
  5
273B2
330
747D
100
AcDbEntity
  8
細線
 48
50.0
100
AcDbLine
 10
8112.345797120601
 20
935.9761663571534
 30
0.0
 11
8146.643293751786
 21
1063.976166357152
 31
0.0
  0
LINE
  5
273B3
330
747D
100
AcDbEntity
  8
細線
 48
50.0
100
AcDbLine
 10
8033.457752173353
 20
935.9761663571534
 30
0.0
 11
8067.755248804536
 21
1063.976166357153
 31
0.0
  0
LINE
  5
273B4
330
747D
100
AcDbEntity
  8
細線
 48
50.0
100
AcDbLine
 10
8191.23384206785
 20
935.9761663571516
 30
0.0
 11
8225.531338699031
 21
1063.976166357152
 31
0.0
  0
LINE
  5
273B5
330
747D
100
AcDbEntity
  8
細線
 48
50.0
100
AcDbLine
 10
8316.006607632147
 20
1063.976166357153
 30
0.0
 11
8498.274912677338
 21
1246.244471402349
 31
0.0
  0
LINE
  5
273B6
330
747D
100
AcDbEntity
  8
部品1
 48
50.0
100
AcDbLine
 10
8498.274912677338
 20
1303.976166357153
 30
0.0
 11
8498.274912677338
 21
1063.976166357153
 31
0.0
  0
LINE
  5
273B7
330
747D
100
AcDbEntity
  8
細線
 48
50.0
100
AcDbLine
 10
8289.065839268944
 20
1063.976166357153
 30
0.0
 11
8498.274912677338
 21
1273.185239765546
 31
0.0
  0
LINE
  5
273B8
330
747D
100
AcDbEntity
  8
細線
 48
50.0
100
AcDbLine
 10
8262.125070905732
 20
1063.976166357153
 30
0.0
 11
8498.274912677338
 21
1300.126008128762
 31
0.0
  0
LINE
  5
273B9
330
747D
100
AcDbEntity
  8
細線
 48
50.0
100
AcDbLine
 10
8046.598924000072
 20
1063.976166357153
 30
0.0
 11
8370.274912677338
 21
1387.652155034419
 31
0.0
  0
LINE
  5
273BA
330
747D
100
AcDbEntity
  8
細線
 48
50.0
100
AcDbLine
 10
8100.480460726489
 20
1063.976166357153
 30
0.0
 11
8370.274912677338
 21
1333.770618308011
 31
0.0
  0
LINE
  5
273BB
330
747D
100
AcDbEntity
  8
細線
 48
50.0
100
AcDbLine
 10
8073.539692363283
 20
1063.976166357153
 30
0.0
 11
8370.274912677338
 21
1360.711386671206
 31
0.0
  0
LINE
  5
273BC
330
747D
100
AcDbEntity
  8
細線
 48
50.0
100
AcDbLine
 10
7828.274912677334
 20
1276.704448845739
 30
0.0
 11
7855.546630188753
 21
1303.976166357153
 31
0.0
  0
LINE
  5
273BD
330
747D
100
AcDbEntity
  8
部品1
 48
50.0
100
AcDbLine
 10
7828.274912677338
 20
1303.976166357153
 30
0.0
 11
7956.274912677338
 21
1303.976166357153
 31
0.0
  0
LINE
  5
273BE
330
747D
100
AcDbEntity
  8
細線
 48
50.0
100
AcDbLine
 10
7828.274912677334
 20
1249.763680482529
 30
0.0
 11
7882.487398551963
 21
1303.976166357153
 31
0.0
  0
LWPOLYLINE
  5
273BF
330
747D
100
AcDbEntity
  8
部品1
 48
50.0
100
AcDbPolyline
 90
        2
 70
     0
 43
8.0
 10
7542.135010844382
 20
1607.976166357154
 10
7956.274912677338
 20
1607.976166357154
  0
LINE
  5
273C0
330
747D
100
AcDbEntity
  8
細線
 48
50.0
100
AcDbLine
 10
7903.548378291692
 20
1039.976166357153
 30
0.0
 11
7897.117597673345
 21
1063.976166357153
 31
0.0
  0
LINE
  5
273C1
330
747D
100
AcDbEntity
  8
細線
 48
50.0
100
AcDbLine
 10
7982.436423238944
 20
1039.976166357153
 30
0.0
 11
7976.005642620596
 21
1063.976166357153
 31
0.0
  0
LINE
  5
273C2
330
747D
100
AcDbEntity
  8
細線
 48
50.0
100
AcDbLine
 10
7824.660333344439
 20
1039.976166357153
 30
0.0
 11
7818.229552726094
 21
1063.976166357153
 31
0.0
  0
LINE
  5
273C3
330
747D
100
AcDbEntity
  8
細線
 48
50.0
100
AcDbLine
 10
7748.274912677338
 20
1049.316087322933
 30
0.0
 11
7752.203069015533
 21
1063.976166357153
 31
0.0
  0
LINE
  5
273C4
330
747D
100
AcDbEntity
  8
細線
 48
50.0
100
AcDbLine
 10
7882.112442897204
 20
959.9761663571534
 30
0.0
 11
7888.543223515549
 21
935.9761663571534
 31
0.0
  0
LINE
  5
273C5
330
747D
100
AcDbEntity
  8
細線
 48
50.0
100
AcDbLine
 10
7961.000487844454
 20
959.9761663571534
 30
0.0
 11
7967.431268462802
 21
935.9761663571534
 31
0.0
  0
LINE
  5
273C6
330
747D
100
AcDbEntity
  8
細線
 48
50.0
100
AcDbLine
 10
7803.224397949951
 20
959.9761663571534
 30
0.0
 11
7809.655178568298
 21
935.9761663571534
 31
0.0
  0
LINE
  5
273C7
330
747D
100
AcDbEntity
  8
細線
 48
50.0
100
AcDbLine
 10
7954.569707226103
 20
935.9761663571516
 30
0.0
 11
7988.867203857283
 21
1063.976166357152
 31
0.0
  0
LINE
  5
273C8
330
747D
100
AcDbEntity
  8
細線
 48
50.0
100
AcDbLine
 10
7796.793617331598
 20
935.9761663571516
 30
0.0
 11
7831.091113962781
 21
1063.976166357152
 31
0.0
  0
LINE
  5
273C9
330
747D
100
AcDbEntity
  8
部品1
 48
50.0
100
AcDbLine
 10
7748.274912677342
 20
935.9761663571534
 30
0.0
 11
7748.274912677342
 21
1063.976166357153
 31
0.0
  0
LINE
  5
273CA
330
747D
100
AcDbEntity
  8
細線
 48
50.0
100
AcDbLine
 10
7875.681662278856
 20
935.9761663571534
 30
0.0
 11
7909.979158910039
 21
1063.976166357153
 31
0.0
  0
LINE
  5
273CB
330
747D
100
AcDbEntity
  8
部品1
 48
50.0
100
AcDbLine
 10
7828.274912677338
 20
1063.976166357153
 30
0.0
 11
7828.274912677338
 21
1303.976166357153
 31
0.0
  0
LINE
  5
273CC
330
747D
100
AcDbEntity
  8
細線
 48
50.0
100
AcDbLine
 10
7828.274912677334
 20
1222.822912119324
 30
0.0
 11
7909.428166915168
 21
1303.976166357153
 31
0.0
  0
LINE
  5
273CD
330
747D
100
AcDbEntity
  8
部品1
 48
50.0
100
AcDbLine
 10
8578.274912677342
 20
935.9761663571534
 30
0.0
 11
7748.274912677342
 21
935.9761663571534
 31
0.0
  0
LINE
  5
273CE
330
747D
100
AcDbEntity
  8
部品1
 48
50.0
100
AcDbLine
 10
8578.274912677342
 20
1063.976166357153
 30
0.0
 11
7748.274912677342
 21
1063.976166357153
 31
0.0
  0
LINE
  5
273CF
330
747D
100
AcDbEntity
  8
細線
 48
50.0
100
AcDbLine
 10
7831.072777094414
 20
1063.976166357153
 30
0.0
 11
8370.274912677338
 21
1603.178301940079
 31
0.0
  0
LINE
  5
273D0
330
747D
100
AcDbEntity
  8
細線
 48
50.0
100
AcDbLine
 10
7858.013545457623
 20
1063.976166357153
 30
0.0
 11
8370.274912677341
 21
1576.237533576867
 31
0.0
  0
LINE
  5
273D1
330
747D
100
AcDbEntity
  8
細線
 48
50.0
100
AcDbLine
 10
7884.954313820829
 20
1063.976166357153
 30
0.0
 11
8370.274912677338
 21
1549.296765213661
 31
0.0
  0
LINE
  5
273D2
330
747D
100
AcDbEntity
  8
細線
 48
50.0
100
AcDbLine
 10
7956.274912677338
 20
1404.704448845739
 30
0.0
 11
8114.674912677331
 21
1563.104448845735
 31
0.0
  0
LINE
  5
273D3
330
747D
100
AcDbEntity
  8
細線
 48
50.0
100
AcDbLine
 10
7956.274912677338
 20
1350.822912119324
 30
0.0
 11
8129.428166915175
 21
1523.976166357152
 31
0.0
  0
LINE
  5
273D4
330
747D
100
AcDbEntity
  8
細線
 48
50.0
100
AcDbLine
 10
7956.274912677338
 20
1377.763680482531
 30
0.0
 11
8114.674912677331
 21
1536.16368048252
 31
0.0
  0
LINE
  5
273D5
330
747D
100
AcDbEntity
  8
部品1
100
AcDbLine
 10
8114.674912677331
 20
1523.976166357153
 30
0.0
 11
8114.67491267734
 21
1847.976166357153
 31
0.0
  0
LINE
  5
273D6
330
747D
100
AcDbEntity
  8
部品1
100
AcDbLine
 10
8240.67491267734
 20
1523.976166357153
 30
0.0
 11
8240.67491267734
 21
1847.976166357153
 31
0.0
  0
LINE
  5
273D7
330
747D
100
AcDbEntity
  8
細線
 48
50.0
100
AcDbLine
 10
8240.67491267734
 20
1662.163680482525
 30
0.0
 11
8370.274912677338
 21
1791.763680482521
 31
0.0
  0
LINE
  5
273D8
330
747D
100
AcDbEntity
  8
細線
 48
50.0
100
AcDbLine
 10
8240.67491267734
 20
1635.222912119312
 30
0.0
 11
8370.274912677338
 21
1764.822912119304
 31
0.0
  0
LINE
  5
273D9
330
747D
100
AcDbEntity
  8
部品1
100
AcDbLine
 10
8168.674912677339
 20
1622.976166357153
 30
0.0
 11
8168.674912677337
 21
1897.136166357154
 31
0.0
  0
LINE
  5
273DA
330
747D
100
AcDbEntity
  8
部品1
100
AcDbLine
 10
8186.674912677339
 20
1622.976166357153
 30
0.0
 11
8186.674912677336
 21
1897.136166357154
 31
0.0
  0
TEXT
  5
273DB
330
747D
100
AcDbEntity
  8
部品1
 48
50.0
100
AcDbText
 10
7542.135010844382
 20
1619.215158640409
 30
0.0
 40
80.0
  1
▽G.L
  7
STYLE2
100
AcDbText
  0
LINE
  5
273DC
330
747D
100
AcDbEntity
  8
細線
 48
50.0
100
AcDbLine
 10
7956.274912677338
 20
1566.349059024984
 30
0.0
 11
8114.674912677335
 21
1724.749059024976
 31
0.0
  0
LINE
  5
273DD
330
747D
100
AcDbEntity
  8
細線
 48
50.0
100
AcDbLine
 10
7956.274912677338
 20
1593.289827388191
 30
0.0
 11
8114.674912677337
 21
1751.689827388189
 31
0.0
  0
LINE
  5
273DE
330
747D
100
AcDbEntity
  8
細線
 48
50.0
100
AcDbLine
 10
7956.274912677338
 20
1620.230595751399
 30
0.0
 11
8114.674912677337
 21
1778.630595751396
 31
0.0
  0
LINE
  5
273DF
330
747D
100
AcDbEntity
  8
部品1
 48
50.0
100
AcDbLine
 10
7956.274912677338
 20
1303.976166357153
 30
0.0
 11
7956.274912677338
 21
1847.976166357153
 31
0.0
  0
LINE
  5
273E0
330
747D
100
AcDbEntity
  8
部品1
100
AcDbLine
 10
8370.274912677338
 20
1303.976166357153
 30
0.0
 11
8370.274912677338
 21
1847.976166357153
 31
0.0
  0
LINE
  5
273E1
330
747D
100
AcDbEntity
  8
細線
 48
50.0
100
AcDbLine
 10
8240.67491267734
 20
1689.104448845742
 30
0.0
 11
8370.274912677338
 21
1818.70444884574
 31
0.0
  0
LINE
  5
273E2
330
747D
100
AcDbEntity
  8
細線
 48
50.0
100
AcDbLine
 10
6364.728022002616
 20
1728.723018253869
 30
0.0
 11
6448.235599500145
 21
1812.230595751399
 31
0.0
  0
LINE
  5
273E3
330
747D
100
AcDbEntity
  8
細線
 48
50.0
100
AcDbLine
 10
6375.788306766132
 20
1712.842534654175
 30
0.0
 11
6448.235599500145
 21
1785.289827388191
 31
0.0
  0
LINE
  5
273E4
330
747D
100
AcDbEntity
  8
細線
 48
50.0
100
AcDbLine
 10
6256.235599500145
 20
1835.756742657058
 30
0.0
 11
6268.45502320024
 21
1847.976166357153
 31
0.0
  0
LINE
  5
273E5
330
747D
100
AcDbEntity
  8
細線
 48
50.0
100
AcDbLine
 10
6256.235599500145
 20
1781.875205930643
 30
0.0
 11
6322.336559926654
 21
1847.976166357153
 31
0.0
  0
LINE
  5
273E6
330
747D
100
AcDbEntity
  8
細線
 48
50.0
100
AcDbLine
 10
6256.235599500145
 20
1808.815974293851
 30
0.0
 11
6295.395791563449
 21
1847.976166357153
 31
0.0
  0
LINE
  5
273E7
330
747D
100
AcDbEntity
  8
部品1
 48
50.0
100
AcDbLine
 10
6256.235599500145
 20
1847.976166357153
 30
0.0
 11
6448.235599500145
 21
1847.976166357153
 31
0.0
  0
DIMENSION
  5
273E8
330
747D
100
AcDbEntity
  8
寸法
 48
50.0
100
AcDbDimension
  2
*D46
 10
6256.235599500144
 20
2267.643974273534
 30
0.0
 11
6352.235599500144
 21
2267.643974273534
 31
0.0
 70
   160
  1
120\P200\P280
 71
     5
 42
192.0
  3
INABA_S40G
100
AcDbAlignedDimension
 13
6448.235599500144
 23
1847.976166357153
 33
0.0
 14
6256.235599500144
 24
1847.976166357153
 34
0.0
100
AcDbRotatedDimension
1001
ACAD
1000
DSTYLE
1002
{
1070
   341
1005
0
1002
}
  0
MTEXT
  5
273E9
102
{ACAD_REACTORS
330
2743E
102
}
330
747D
100
AcDbEntity
  8
寸法
 62
     7
 48
50.0
100
AcDbMText
 10
6689.974055361395
 20
886.6270806250003
 30
0.0
 40
80.0
 41
0.8
 71
     4
 72
     1
  1
\A1;D10@300
  7
STYLE2
 73
     1
 44
1.0
1001
ACAD
1000
MTEXTBEGIN
1070
    73
1070
     1
1070
    44
1040
1.0
1070
    74
1070
     0
1000
MTEXTEND
  0
LINE
  5
273EA
330
747D
100
AcDbEntity
  8
細線
 48
50.0
100
AcDbLine
 10
6376.235599500151
 20
1497.763680482534
 30
0.0
 11
6448.235599500138
 21
1569.763680482529
 31
0.0
  0
LINE
  5
273EB
330
747D
100
AcDbEntity
  8
細線
 48
50.0
100
AcDbLine
 10
6376.235599500145
 20
1524.704448845739
 30
0.0
 11
6448.235599500145
 21
1596.704448845739
 31
0.0
  0
LINE
  5
273EC
330
747D
100
AcDbEntity
  8
細線
 48
50.0
100
AcDbLine
 10
6376.235599500151
 20
1255.296765213665
 30
0.0
 11
6448.235599500138
 21
1327.296765213665
 31
0.0
  0
LINE
  5
273ED
330
747D
100
AcDbEntity
  8
細線
 48
50.0
100
AcDbLine
 10
6376.235599500151
 20
1309.178301940083
 30
0.0
 11
6448.235599500138
 21
1381.178301940079
 31
0.0
  0
LINE
  5
273EE
330
747D
100
AcDbEntity
  8
細線
 48
50.0
100
AcDbLine
 10
6376.235599500151
 20
1282.237533576874
 30
0.0
 11
6448.235599500138
 21
1354.237533576869
 31
0.0
  0
LINE
  5
273EF
330
747D
100
AcDbEntity
  8
部品1
 48
50.0
100
AcDbLine
 10
6448.235599500145
 20
1303.976166357153
 30
0.0
 11
6576.235599500146
 21
1303.976166357153
 31
0.0
  0
LINE
  5
273F0
330
747D
100
AcDbEntity
  8
細線
 48
50.0
100
AcDbLine
 10
6376.235599500151
 20
1470.822912119324
 30
0.0
 11
6448.235599500138
 21
1542.822912119324
 31
0.0
  0
LINE
  5
273F1
330
747D
100
AcDbEntity
  8
部品1
 48
50.0
100
AcDbLine
 10
6344.235599500145
 20
1650.103381054275
 30
0.0
 11
6344.235599500145
 21
1708.230595751399
 31
0.0
  0
LINE
  5
273F2
330
747D
100
AcDbEntity
  8
細線
 48
50.0
100
AcDbLine
 10
6256.235599500145
 20
1620.230595751399
 30
0.0
 11
6328.235599500145
 21
1692.230595751399
 31
0.0
  0
LINE
  5
273F3
330
747D
100
AcDbEntity
  8
部品1
 48
50.0
100
AcDbLine
 10
6328.235599500145
 20
1650.103381054279
 30
0.0
 11
6328.235599500145
 21
1708.230595751399
 31
0.0
  0
LINE
  5
273F4
330
747D
100
AcDbEntity
  8
細線
 48
50.0
100
AcDbLine
 10
6256.235599500145
 20
1593.289827388191
 30
0.0
 11
6328.235599500145
 21
1665.289827388191
 31
0.0
  0
LINE
  5
273F5
330
747D
100
AcDbEntity
  8
細線
 48
50.0
100
AcDbLine
 10
6256.235599500145
 20
1566.349059024984
 30
0.0
 11
6339.989921529439
 21
1650.103381054275
 31
0.0
  0
LINE
  5
273F6
330
747D
100
AcDbEntity
  8
部品1
 48
50.0
100
AcDbLine
 10
6344.235599500145
 20
1650.103381054275
 30
0.0
 11
6328.235599500145
 21
1650.103381054279
 31
0.0
  0
LINE
  5
273F7
330
747D
100
AcDbEntity
  8
細線
 48
50.0
100
AcDbLine
 10
6128.235599500138
 20
1276.704448845739
 30
0.0
 11
6155.507317011559
 21
1303.976166357153
 31
0.0
  0
LINE
  5
273F8
330
747D
100
AcDbEntity
  8
細線
 48
50.0
100
AcDbLine
 10
6128.235599500138
 20
1249.763680482529
 30
0.0
 11
6182.44808537477
 21
1303.976166357153
 31
0.0
  0
LINE
  5
273F9
330
747D
100
AcDbEntity
  8
部品1
 48
50.0
100
AcDbLine
 10
6128.235599500145
 20
1303.976166357153
 30
0.0
 11
6256.235599500145
 21
1303.976166357153
 31
0.0
  0
LINE
  5
273FA
330
747D
100
AcDbEntity
  8
細線
 48
50.0
100
AcDbLine
 10
6344.235599500145
 20
1681.289827388191
 30
0.0
 11
6360.235599500145
 21
1697.289827388191
 31
0.0
  0
LINE
  5
273FB
330
747D
100
AcDbEntity
  8
細線
 48
50.0
100
AcDbLine
 10
6344.235599500145
 20
1654.349059024984
 30
0.0
 11
6360.235599500145
 21
1670.349059024984
 31
0.0
  0
LINE
  5
273FC
330
747D
100
AcDbEntity
  8
細線
 48
50.0
100
AcDbLine
 10
6256.235599500145
 20
1350.822912119324
 30
0.0
 11
6360.235599500151
 21
1454.822912119324
 31
0.0
  0
LINE
  5
273FD
330
747D
100
AcDbEntity
  8
細線
 48
50.0
100
AcDbLine
 10
6256.235599500145
 20
1404.704448845739
 30
0.0
 11
6360.235599500145
 21
1508.704448845739
 31
0.0
  0
LINE
  5
273FE
330
747D
100
AcDbEntity
  8
細線
 48
50.0
100
AcDbLine
 10
6256.235599500145
 20
1377.763680482531
 30
0.0
 11
6360.235599500151
 21
1481.763680482534
 31
0.0
  0
LINE
  5
273FF
330
747D
100
AcDbEntity
  8
細線
 48
50.0
100
AcDbLine
 10
6519.061244903493
 20
1039.976166357153
 30
0.0
 11
6512.630464285146
 21
1063.976166357153
 31
0.0
  0
LINE
  5
27400
330
747D
100
AcDbEntity
  8
細線
 48
50.0
100
AcDbLine
 10
6562.085757728539
 20
1063.976166357153
 30
0.0
 11
6576.235599500146
 21
1078.12600812876
 31
0.0
  0
LINE
  5
27401
330
747D
100
AcDbEntity
  8
細線
 48
50.0
100
AcDbLine
 10
6597.94928985074
 20
1039.976166357153
 30
0.0
 11
6591.518509232392
 21
1063.976166357153
 31
0.0
  0
LINE
  5
27402
330
747D
100
AcDbEntity
  8
部品1
 48
50.0
100
AcDbLine
 10
6520.235599500145
 20
1175.976166357153
 30
0.0
 11
6520.235599500145
 21
1159.976166357153
 31
0.0
  0
LINE
  5
27403
330
747D
100
AcDbEntity
  8
細線
 48
50.0
100
AcDbLine
 10
6400.441147549293
 20
1063.976166357153
 30
0.0
 11
6496.442035394429
 21
1159.977054202292
 31
0.0
  0
LINE
  5
27404
330
747D
100
AcDbEntity
  8
細線
 48
50.0
100
AcDbLine
 10
6373.500379186089
 20
1063.976166357153
 30
0.0
 11
6469.50037918609
 21
1159.976166357153
 31
0.0
  0
LINE
  5
27405
330
747D
100
AcDbEntity
  8
細線
 48
50.0
100
AcDbLine
 10
6440.173199956247
 20
1039.976166357153
 30
0.0
 11
6433.7424193379
 21
1063.976166357153
 31
0.0
  0
LINE
  5
27406
330
747D
100
AcDbEntity
  8
細線
 48
50.0
100
AcDbLine
 10
6361.285155009002
 20
1039.976166357153
 30
0.0
 11
6354.854374390654
 21
1063.976166357153
 31
0.0
  0
ARC
  5
27407
330
747D
100
AcDbEntity
  8
部品1
 48
50.0
100
AcDbCircle
 10
6352.235599500145
 20
1183.976166357153
 30
0.0
 40
24.0
100
AcDbArc
 50
340.5287793655256
 51
0.0
  0
CIRCLE
  5
27408
330
747D
100
AcDbEntity
  8
部品1
 48
50.0
100
AcDbCircle
 10
6480.235599500145
 20
1183.976166357153
 30
0.0
 40
8.0
  0
LINE
  5
27409
330
747D
100
AcDbEntity
  8
細線
 48
50.0
100
AcDbLine
 10
6512.441147549292
 20
1175.976166357153
 30
0.0
 11
6576.235599500146
 21
1239.770618308004
 31
0.0
  0
LINE
  5
2740A
330
747D
100
AcDbEntity
  8
細線
 48
50.0
100
AcDbLine
 10
6648.970618785148
 20
935.9761663571516
 30
0.0
 11
6656.235599500146
 21
963.0894435015417
 31
0.0
  0
LINE
  5
2740B
330
747D
100
AcDbEntity
  8
細線
 48
50.0
100
AcDbLine
 10
6655.401399403498
 20
959.9761663571534
 30
0.0
 11
6656.235599500146
 21
956.862889212789
 31
0.0
  0
LINE
  5
2740C
330
747D
100
AcDbEntity
  8
細線
 48
50.0
100
AcDbLine
 10
6576.51335445625
 20
959.9761663571534
 30
0.0
 11
6582.944135074598
 21
935.9761663571534
 31
0.0
  0
LINE
  5
2740D
330
747D
100
AcDbEntity
  8
細線
 48
50.0
100
AcDbLine
 10
6418.737264561759
 20
959.9761663571534
 30
0.0
 11
6425.168045180104
 21
935.9761663571534
 31
0.0
  0
LINE
  5
2740E
330
747D
100
AcDbEntity
  8
細線
 48
50.0
100
AcDbLine
 10
6497.625309509003
 20
959.9761663571534
 30
0.0
 11
6504.056090127351
 21
935.9761663571534
 31
0.0
  0
LINE
  5
2740F
330
747D
100
AcDbEntity
  8
細線
 48
50.0
100
AcDbLine
 10
6491.194528890654
 20
935.9761663571516
 30
0.0
 11
6525.492025521838
 21
1063.976166357152
 31
0.0
  0
LINE
  5
27410
330
747D
100
AcDbEntity
  8
細線
 48
50.0
100
AcDbLine
 10
6412.306483943405
 20
935.9761663571534
 30
0.0
 11
6446.60398057459
 21
1063.976166357152
 31
0.0
  0
LINE
  5
27411
330
747D
100
AcDbEntity
  8
細線
 48
50.0
100
AcDbLine
 10
6570.0825738379
 20
935.9761663571534
 30
0.0
 11
6604.380070469083
 21
1063.976166357152
 31
0.0
  0
LINE
  5
27412
330
747D
100
AcDbEntity
  8
部品1
 48
50.0
100
AcDbLine
 10
6656.235599500149
 20
1063.976166357153
 30
0.0
 11
6656.235599500149
 21
935.9761663571534
 31
0.0
  0
LINE
  5
27413
330
747D
100
AcDbEntity
  8
部品1
 48
50.0
100
AcDbLine
 10
6344.235599500145
 20
1242.103381054276
 30
0.0
 11
6344.235599500145
 21
1183.976166357153
 31
0.0
  0
LINE
  5
27414
330
747D
100
AcDbEntity
  8
細線
 48
50.0
100
AcDbLine
 10
6269.974232280429
 20
1175.976166357153
 30
0.0
 11
6328.235599500145
 21
1234.237533576872
 31
0.0
  0
LINE
  5
27415
330
747D
100
AcDbEntity
  8
部品1
 48
50.0
100
AcDbLine
 10
6328.235599500145
 20
1242.103381054276
 30
0.0
 11
6328.235599500145
 21
1183.976166357153
 31
0.0
  0
LINE
  5
27416
330
747D
100
AcDbEntity
  8
細線
 48
50.0
100
AcDbLine
 10
6184.915000643634
 20
1063.976166357153
 30
0.0
 11
6280.915000643634
 21
1159.976166357153
 31
0.0
  0
LINE
  5
27417
330
747D
100
AcDbEntity
  8
細線
 48
50.0
100
AcDbLine
 10
6282.397110061749
 20
1039.976166357153
 30
0.0
 11
6275.966329443403
 21
1063.976166357153
 31
0.0
  0
LINE
  5
27418
330
747D
100
AcDbEntity
  8
細線
 48
50.0
100
AcDbLine
 10
6203.509065114497
 20
1039.976166357153
 30
0.0
 11
6197.07828449615
 21
1063.976166357153
 31
0.0
  0
ARC
  5
27419
330
747D
100
AcDbEntity
  8
部品1
 48
50.0
100
AcDbCircle
 10
6352.235599500145
 20
1183.976166357153
 30
0.0
 40
24.0
100
AcDbArc
 50
180.0
 51
199.4712206344743
  0
LINE
  5
2741A
330
747D
100
AcDbEntity
  8
細線
 48
50.0
100
AcDbLine
 10
6296.915000643634
 20
1175.976166357153
 30
0.0
 11
6328.235599500145
 21
1207.296765213665
 31
0.0
  0
CIRCLE
  5
2741B
330
747D
100
AcDbEntity
  8
部品1
 48
50.0
100
AcDbCircle
 10
6224.235599500145
 20
1183.976166357153
 30
0.0
 40
8.0
  0
LINE
  5
2741C
330
747D
100
AcDbEntity
  8
部品1
 48
50.0
100
AcDbLine
 10
6344.235599500145
 20
1242.103381054276
 30
0.0
 11
6328.235599500145
 21
1242.103381054276
 31
0.0
  0
LINE
  5
2741D
330
747D
100
AcDbEntity
  8
細線
 48
50.0
100
AcDbLine
 10
6048.235599500145
 20
1049.316087322933
 30
0.0
 11
6052.163755838341
 21
1063.976166357153
 31
0.0
  0
LINE
  5
2741E
330
747D
100
AcDbEntity
  8
細線
 48
50.0
100
AcDbLine
 10
6124.621020167245
 20
1039.976166357153
 30
0.0
 11
6118.190239548898
 21
1063.976166357153
 31
0.0
  0
LINE
  5
2741F
330
747D
100
AcDbEntity
  8
部品1
 48
50.0
100
AcDbLine
 10
6184.235599500145
 20
1175.976166357153
 30
0.0
 11
6184.235599500145
 21
1159.976166357153
 31
0.0
  0
LINE
  5
27420
330
747D
100
AcDbEntity
  8
細線
 48
50.0
100
AcDbLine
 10
6131.033463917218
 20
1063.976166357153
 30
0.0
 11
6227.033463917218
 21
1159.976166357153
 31
0.0
  0
LINE
  5
27421
330
747D
100
AcDbEntity
  8
細線
 48
50.0
100
AcDbLine
 10
6157.974232280428
 20
1063.976166357153
 30
0.0
 11
6253.974232280429
 21
1159.976166357153
 31
0.0
  0
LINE
  5
27422
330
747D
100
AcDbEntity
  8
細線
 48
50.0
100
AcDbLine
 10
6260.96117466726
 20
959.9761663571534
 30
0.0
 11
6267.391955285606
 21
935.9761663571534
 31
0.0
  0
LINE
  5
27423
330
747D
100
AcDbEntity
  8
細線
 48
50.0
100
AcDbLine
 10
6339.849219614513
 20
959.9761663571534
 30
0.0
 11
6346.280000232859
 21
935.9761663571534
 31
0.0
  0
LINE
  5
27424
330
747D
100
AcDbEntity
  8
細線
 48
50.0
100
AcDbLine
 10
6103.185084772757
 20
959.9761663571534
 30
0.0
 11
6109.615865391102
 21
935.9761663571534
 31
0.0
  0
LINE
  5
27425
330
747D
100
AcDbEntity
  8
細線
 48
50.0
100
AcDbLine
 10
6182.073129720007
 20
959.9761663571534
 30
0.0
 11
6188.503910338355
 21
935.9761663571534
 31
0.0
  0
LINE
  5
27426
330
747D
100
AcDbEntity
  8
部品1
 48
50.0
100
AcDbLine
 10
6048.235599500147
 20
935.9761663571534
 30
0.0
 11
6048.235599500147
 21
1063.976166357153
 31
0.0
  0
LINE
  5
27427
330
747D
100
AcDbEntity
  8
細線
 48
50.0
100
AcDbLine
 10
6096.754304154403
 20
935.9761663571516
 30
0.0
 11
6131.051800785586
 21
1063.976166357152
 31
0.0
  0
LINE
  5
27428
330
747D
100
AcDbEntity
  8
細線
 48
50.0
100
AcDbLine
 10
6254.530394048907
 20
935.9761663571516
 30
0.0
 11
6288.82789068009
 21
1063.976166357152
 31
0.0
  0
LINE
  5
27429
330
747D
100
AcDbEntity
  8
細線
 48
50.0
100
AcDbLine
 10
6175.642349101661
 20
935.9761663571534
 30
0.0
 11
6209.939845732844
 21
1063.976166357153
 31
0.0
  0
LINE
  5
2742A
330
747D
100
AcDbEntity
  8
細線
 48
50.0
100
AcDbLine
 10
6346.559610822879
 20
1063.976166357153
 30
0.0
 11
6442.559610822879
 21
1159.976166357153
 31
0.0
  0
CIRCLE
  5
2742B
330
747D
100
AcDbEntity
  8
部品1
 48
50.0
100
AcDbCircle
 10
6352.235599500145
 20
1183.976166357153
 30
0.0
 40
8.0
  0
LINE
  5
2742C
330
747D
100
AcDbEntity
  8
部品1
 48
50.0
100
AcDbLine
 10
6656.235599500149
 20
1063.976166357153
 30
0.0
 11
6048.235599500147
 21
1063.976166357153
 31
0.0
  0
LINE
  5
2742D
330
747D
100
AcDbEntity
  8
部品1
 48
50.0
100
AcDbLine
 10
6184.235599500145
 20
1175.976166357153
 30
0.0
 11
6520.235599500145
 21
1175.976166357153
 31
0.0
  0
LINE
  5
2742E
330
747D
100
AcDbEntity
  8
部品1
 48
50.0
100
AcDbLine
 10
6184.235599500145
 20
1159.976166357153
 30
0.0
 11
6520.235599500145
 21
1159.976166357153
 31
0.0
  0
LINE
  5
2742F
330
747D
100
AcDbEntity
  8
部品1
 48
50.0
100
AcDbLine
 10
6656.235599500149
 20
935.9761663571534
 30
0.0
 11
6048.235599500147
 21
935.9761663571534
 31
0.0
  0
LINE
  5
27430
330
747D
100
AcDbEntity
  8
細線
 48
50.0
100
AcDbLine
 10
6333.418438996159
 20
935.9761663571534
 30
0.0
 11
6367.715935627343
 21
1063.976166357153
 31
0.0
  0
LINE
  5
27431
330
747D
100
AcDbEntity
  8
細線
 48
50.0
100
AcDbLine
 10
6344.235599500145
 20
1223.296765213665
 30
0.0
 11
6360.235599500151
 21
1239.296765213665
 31
0.0
  0
LINE
  5
27432
330
747D
100
AcDbEntity
  8
部品1
 48
50.0
100
AcDbLine
 10
6360.235599500151
 20
1183.976166357153
 30
0.0
 11
6360.235599500138
 21
1708.230595751399
 31
0.0
  0
LINE
  5
27433
330
747D
100
AcDbEntity
  8
部品1
 48
50.0
100
AcDbLine
 10
6376.235599500151
 20
1183.976166357153
 30
0.0
 11
6376.235599500145
 21
1708.230595751399
 31
0.0
  0
LINE
  5
27434
330
747D
100
AcDbEntity
  8
部品1
 48
50.0
100
AcDbLine
 10
6576.235599500146
 20
1303.976166357153
 30
0.0
 11
6576.235599500146
 21
1063.976166357153
 31
0.0
  0
LINE
  5
27435
330
747D
100
AcDbEntity
  8
細線
 48
50.0
100
AcDbLine
 10
6458.559610822873
 20
1175.976166357153
 30
0.0
 11
6576.235599500146
 21
1293.652155034419
 31
0.0
  0
LINE
  5
27436
330
747D
100
AcDbEntity
  8
細線
 48
50.0
100
AcDbLine
 10
6485.500379186089
 20
1175.976166357153
 30
0.0
 11
6576.235599500146
 21
1266.711386671212
 31
0.0
  0
LINE
  5
27437
330
747D
100
AcDbEntity
  8
部品1
 48
50.0
100
AcDbLine
 10
6128.235599500145
 20
1063.976166357153
 30
0.0
 11
6128.235599500145
 21
1303.976166357153
 31
0.0
  0
LINE
  5
27438
330
747D
100
AcDbEntity
  8
細線
 48
50.0
100
AcDbLine
 10
6243.033463917218
 20
1175.976166357153
 30
0.0
 11
6360.235599500145
 21
1293.178301940079
 31
0.0
  0
LINE
  5
27439
330
747D
100
AcDbEntity
  8
細線
 48
50.0
100
AcDbLine
 10
6336.101446977549
 20
1242.103381054276
 30
0.0
 11
6360.235599500151
 21
1266.237533576874
 31
0.0
  0
LINE
  5
2743A
330
747D
100
AcDbEntity
  8
細線
 48
50.0
100
AcDbLine
 10
6128.235599500138
 20
1222.822912119324
 30
0.0
 11
6209.388853737973
 21
1303.976166357153
 31
0.0
  0
LEADER
  5
2743B
330
747D
100
AcDbEntity
  8
寸法
 48
50.0
100
AcDbLeader
  3
INABA_S50G
 71
     0
 73
     0
 74
     0
 75
     1
 40
100.0
 41
222.7272727272727
 76
     3
 10
6352.235599500144
 20
1708.230595751399
 30
0.0
 10
6406.121536527539
 20
1807.466168604573
 30
0.0
 10
6531.121536527539
 20
1807.466168604573
 30
0.0
1001
ACAD
1000
DSTYLE
1002
{
1070
    40
1040
1.0
1070
   272
1070
     1
1070
   279
1070
     1
1070
   341
1005
0
1002
}
  0
LWPOLYLINE
  5
2743C
330
747D
100
AcDbEntity
  8
部品1
 48
50.0
100
AcDbPolyline
 90
        2
 70
     0
 43
8.0
 10
6448.235599500144
 20
1607.976166357154
 10
6862.375501333102
 20
1607.976166357154
  0
MTEXT
  5
2743D
102
{ACAD_REACTORS
330
2743F
102
}
330
747D
100
AcDbEntity
  8
寸法
 62
     7
 48
50.0
100
AcDbMText
 10
6679.563259306829
 20
1148.579097414181
 30
0.0
 40
80.0
 41
0.8
 71
     4
 72
     1
  1
D10
  7
STYLE2
 73
     1
 44
1.0
1001
ACAD
1000
MTEXTBEGIN
1070
    73
1070
     1
1070
    44
1040
1.0
1070
    74
1070
     0
1000
MTEXTEND
  0
LEADER
  5
2743E
330
747D
100
AcDbEntity
  8
寸法
 48
50.0
100
AcDbLeader
  3
INABA_S50G
 71
     0
 73
     0
 74
     0
 75
     1
 40
100.0
 41
540.3409090909091
 76
     3
 10
6426.180768513319
 20
1167.235635943628
 30
0.0
 10
6544.974055361397
 20
825.6048179487306
 30
0.0
 10
6669.974055361397
 20
825.6048179487306
 30
0.0
213
0.0
223
-1.022262676269383
233
0.0
1001
ACAD
1000
DSTYLE
1002
{
1070
    40
1040
1.0
1070
   272
1070
     1
1070
   279
1070
     1
1070
   341
1005
0
1002
}
  0
LEADER
  5
2743F
330
747D
100
AcDbEntity
  8
寸法
 48
50.0
100
AcDbLeader
  3
INABA_S50G
 71
     0
 73
     0
 74
     0
 75
     1
 40
100.0
 41
225.0
 76
     3
 10
6480.138551852288
 20
1183.976166357153
 30
0.0
 10
6534.56325930683
 20
1088.579097414181
 30
0.0
 10
6659.56325930683
 20
1088.579097414181
 30
0.0
1001
ACAD
1000
DSTYLE
1002
{
1070
    40
1040
1.0
1070
   272
1070
     1
1070
   279
1070
     1
1070
   341
1005
0
1002
}
  0
MTEXT
  5
27440
102
{ACAD_REACTORS
330
2743B
102
}
330
747D
100
AcDbEntity
  8
寸法
 62
     7
 48
50.0
100
AcDbMText
 10
6531.121536527539
 20
1870.532065649964
 30
0.0
 40
80.0
 41
0.8
 71
     4
 72
     1
  1
D13
  7
STYLE2
 73
     1
 44
1.0
1001
ACAD
1000
MTEXTBEGIN
1070
    73
1070
     1
1070
    44
1040
1.0
1070
    74
1070
     0
1000
MTEXTEND
  0
LINE
  5
27441
330
747D
100
AcDbEntity
  8
部品1
 48
50.0
100
AcDbLine
 10
6448.235599500145
 20
1847.976166357153
 30
0.0
 11
6448.235599500145
 21
1303.976166357153
 31
0.0
  0
LINE
  5
27442
330
747D
100
AcDbEntity
  8
部品1
 48
50.0
100
AcDbLine
 10
6256.235599500145
 20
1303.976166357153
 30
0.0
 11
6256.235599500145
 21
1847.976166357153
 31
0.0
  0
CIRCLE
  5
27443
330
747D
100
AcDbEntity
  8
部品1
 48
50.0
100
AcDbCircle
 10
6352.235599500145
 20
1708.230595751399
 30
0.0
 40
8.0
  0
ARC
  5
27444
330
747D
100
AcDbEntity
  8
部品1
 48
50.0
100
AcDbCircle
 10
6352.235599500145
 20
1708.230595751399
 30
0.0
 40
24.0
100
AcDbArc
 50
0.0
 51
180.0
  0
LINE
  5
27445
330
747D
100
AcDbEntity
  8
細線
 48
50.0
100
AcDbLine
 10
6376.235599500145
 20
1686.349059024984
 30
0.0
 11
6448.235599500145
 21
1758.349059024984
 31
0.0
  0
LEADER
  5
27446
330
747D
100
AcDbEntity
  8
寸法
 48
50.0
100
AcDbLeader
  3
INABA_S50G
 73
     0
 75
     1
 40
106.3636363636363
 41
893.1818181818181
 76
     3
 10
8087.674912677339
 20
1917.536166357155
 30
0.0
 10
8039.250840332398
 20
2291.595741073487
 30
0.0
 10
7914.250840332399
 20
2291.595741073487
 30
0.0
340
27447
1001
ACAD
1000
DSTYLE
1002
{
1070
   341
1005
0
1070
    40
1040
1.0
1070
   343
1005
0
1070
   344
1005
0
1002
}
  0
MTEXT
  5
27447
102
{ACAD_REACTORS
330
27446
102
}
330
747D
100
AcDbEntity
  8
寸法
 62
     7
 48
50.0
100
AcDbMText
 10
7889.250840332398
 20
2369.777559255306
 30
0.0
 40
80.0
 41
0.8
 71
     6
 72
     1
  1
\A1;アンカープレート L
  7
STYLE2
 73
     1
 44
1.0
1001
ACAD
1000
MTEXTBEGIN
1070
    73
1070
     1
1070
    44
1040
1.0
1070
    74
1070
     0
1000
MTEXTEND
  0
DIMENSION
  5
27448
330
747D
100
AcDbEntity
  8
寸法
 48
50.0
100
AcDbDimension
  2
*D47
 10
6576.235599500144
 20
525.5465283519933
 30
0.0
 11
6332.138840821921
 21
525.5465283519933
 31
0.0
 70
   160
  1
300
 71
     5
 42
448.0
  3
INABA_S40G
100
AcDbAlignedDimension
 13
6128.235599500144
 23
935.9761663571534
 33
0.0
 14
6576.235599500144
 24
935.9761663571534
 34
0.0
100
AcDbRotatedDimension
1001
ACAD
1000
DSTYLE
1002
{
1070
   341
1005
0
1002
}
  0
MTEXT
  5
27449
102
{ACAD_REACTORS
330
27451
102
}
330
747D
100
AcDbEntity
  8
寸法
 62
     7
 48
50.0
100
AcDbMText
 10
5957.300573304951
 20
980.4534727387173
 30
0.0
 40
80.0
 41
0.8
 71
     6
 72
     1
  1
D10
  7
STYLE2
 73
     1
 44
1.0
1001
ACAD
1000
MTEXTBEGIN
1070
    73
1070
     1
1070
    44
1040
1.0
1070
    74
1070
     0
1000
MTEXTEND
  0
MTEXT
  5
2744A
102
{ACAD_REACTORS
330
27450
102
}
330
747D
100
AcDbEntity
  8
寸法
 62
     7
 48
50.0
100
AcDbMText
 10
5985.423300862385
 20
800.1373201992738
 30
0.0
 40
80.0
 41
0.8
 71
     6
 72
     1
  1
D13
  7
STYLE2
 73
     1
 44
1.0
1001
ACAD
1000
MTEXTBEGIN
1070
    73
1070
     1
1070
    44
1040
1.0
1070
    74
1070
     0
1000
MTEXTEND
  0
DIMENSION
  5
2744B
330
747D
100
AcDbEntity
  8
寸法
 48
50.0
100
AcDbDimension
  2
*D48
 10
5521.198360938404
 20
1063.976166357154
 30
0.0
 11
5521.198360938404
 21
1435.516316013154
 31
0.0
 70
   160
  1
540
 71
     5
 42
784.0
  3
INABA_S40G
100
AcDbAlignedDimension
 13
6256.235599500144
 23
1847.976166357153
 33
0.0
 14
6048.235599500149
 24
1063.976166357153
 34
0.0
 50
90.0
100
AcDbRotatedDimension
1001
ACAD
1000
DSTYLE
1002
{
1070
   341
1005
0
1002
}
  0
MTEXT
  5
2744C
102
{ACAD_REACTORS
330
2744D
102
}
330
747D
100
AcDbEntity
  8
寸法
 62
     7
 48
50.0
100
AcDbMText
 10
6036.137120016872
 20
2060.492386359196
 30
0.0
 40
80.0
 41
0.8
 71
     6
 72
     1
  1
\A1;金コテ押エ
  7
STYLE2
 73
     1
 44
1.0
1001
ACAD
1000
MTEXTBEGIN
1070
    73
1070
     1
1070
    44
1040
1.0
1070
    74
1070
     0
1000
MTEXTEND
  0
LEADER
  5
2744D
330
747D
100
AcDbEntity
  8
寸法
 48
50.0
100
AcDbLeader
  3
INABA_S50G
 71
     0
 73
     0
 75
     1
 40
130.1136363636363
 41
651.1363636363636
 76
     3
 10
6336.235599500144
 20
1847.976166357153
 30
0.0
 10
6223.811019336128
 20
1988.446931813741
 30
0.0
 10
6098.811019336128
 20
1988.446931813741
 30
0.0
1001
ACAD
1000
DSTYLE
1002
{
1070
    40
1040
1.0
1070
   272
1070
     1
1070
   279
1070
     1
1070
   341
1005
0
1002
}
  0
LEADER
  5
2744E
330
747D
100
AcDbEntity
  8
寸法
 48
50.0
100
AcDbLeader
  3
INABA_S50G
 71
     0
 73
     0
 75
     1
 40
100.0
 41
540.3409090909091
 76
     3
 10
6360.235599500144
 20
1606.103381054277
 30
0.0
 10
6302.253362971447
 20
1384.633052513472
 30
0.0
 10
6177.253362971447
 20
1384.633052513472
 30
0.0
213
-9.732182305893367
223
-4.643716661138569
233
0.0
1001
ACAD
1000
DSTYLE
1002
{
1070
    40
1040
1.0
1070
   272
1070
     1
1070
   279
1070
     1
1070
   341
1005
0
1002
}
  0
MTEXT
  5
2744F
102
{ACAD_REACTORS
330
2744E
102
}
330
747D
100
AcDbEntity
  8
寸法
 62
     7
 48
50.0
100
AcDbMText
 10
6166.98554527734
 20
1449.27676917461
 30
0.0
 40
80.0
 41
0.8
 71
     6
 72
     1
  1
\A1;D10@300
  7
STYLE2
 73
     1
 44
1.0
1001
ACAD
1000
MTEXTBEGIN
1070
    73
1070
     1
1070
    44
1040
1.0
1070
    74
1070
     0
1000
MTEXTEND
  0
LEADER
  5
27450
330
747D
100
AcDbEntity
  8
寸法
 48
50.0
100
AcDbLeader
  3
INABA_S50G
 71
     0
 73
     0
 75
     1
 40
100.0
 41
222.7272727272727
 76
     3
 10
6352.235599500144
 20
1183.976166357153
 30
0.0
 10
6130.423300862386
 20
740.1373201992737
 30
0.0
 10
6005.423300862386
 20
740.1373201992737
 30
0.0
1001
ACAD
1000
DSTYLE
1002
{
1070
    40
1040
1.0
1070
   272
1070
     1
1070
   279
1070
     1
1070
   341
1005
0
1002
}
  0
LEADER
  5
27451
330
747D
100
AcDbEntity
  8
寸法
 48
50.0
100
AcDbLeader
  3
INABA_S50G
 71
     0
 73
     0
 75
     1
 40
100.0
 41
225.0
 76
     3
 10
6224.138551852288
 20
1183.976166357153
 30
0.0
 10
6102.30057330495
 20
920.4534727387171
 30
0.0
 10
5977.30057330495
 20
920.4534727387171
 30
0.0
1001
ACAD
1000
DSTYLE
1002
{
1070
    40
1040
1.0
1070
   272
1070
     1
1070
   279
1070
     1
1070
   341
1005
0
1002
}
  0
DIMENSION
  5
27452
330
747D
100
AcDbEntity
  8
寸法
 48
50.0
100
AcDbDimension
  2
*D49
 10
5985.815285767685
 20
1063.976166357153
 30
0.0
 11
5985.815285767685
 21
1183.976166357154
 31
0.0
 70
   160
  1
150
 71
     5
 42
240.0
  3
INABA_S40G
100
AcDbAlignedDimension
 13
6128.235599500144
 23
1303.976166357153
 33
0.0
 14
6048.235599500149
 24
1063.976166357153
 34
0.0
 50
90.0
100
AcDbRotatedDimension
1001
ACAD
1000
DSTYLE
1002
{
1070
   341
1005
0
1002
}
  0
TEXT
  5
27453
330
747D
100
AcDbEntity
  8
部品1
 48
50.0
100
AcDbText
 10
5842.095697667188
 20
1619.215158640409
 30
0.0
 40
80.0
  1
▽G.L
  7
STYLE2
100
AcDbText
  0
LWPOLYLINE
  5
27454
330
747D
100
AcDbEntity
  8
部品1
 48
50.0
100
AcDbPolyline
 90
        2
 70
     0
 43
8.0
 10
5842.095697667188
 20
1607.976166357154
 10
6256.235599500144
 20
1607.976166357154
  0
MTEXT
  5
27455
102
{ACAD_REACTORS
330
27456
102
}
330
747D
100
AcDbEntity
  8
寸法
 62
     7
 48
50.0
100
AcDbMText
 10
7862.607834124041
 20
2730.461831162819
 30
0.0
 40
80.0
 41
0.8
 71
     6
 72
     1
  1
\A1;φ70スリーブ
  7
STYLE2
 73
     1
 44
1.0
1001
ACAD
1000
MTEXTBEGIN
1070
    73
1070
     1
1070
    44
1040
1.0
1070
    74
1070
     0
1000
MTEXTEND
  0
LEADER
  5
27456
330
747D
100
AcDbEntity
  8
寸法
 48
50.0
100
AcDbLeader
  3
INABA_S50G
 73
     0
 75
     1
 40
113.1818181818182
 41
608.6363636363635
 76
     3
 10
8146.41166281539
 20
1797.491839715432
 30
0.0
 10
8012.607834124041
 20
2648.87092207191
 30
0.0
 10
7887.607834124041
 20
2648.87092207191
 30
0.0
340
27455
1001
ACAD
1000
DSTYLE
1002
{
1070
   341
1005
0
1070
    40
1040
1.0
1070
   343
1005
0
1070
   344
1005
0
1002
}
  0
LINE
  5
27457
330
747D
100
AcDbEntity
  8
部品1
100
AcDbLine
 10
5185.567160690882
 20
3247.314833557739
 30
0.0
 11
5185.567160690883
 21
283.0078639730918
 31
0.0
  0
LEADER
  5
27458
330
747D
100
AcDbEntity
  8
寸法
 48
50.0
100
AcDbLeader
  3
INABA_S50G
 73
     0
 74
     0
 75
     1
 40
80.0
 41
435.0
 76
     3
 10
8186.674912677339
 20
1897.136166357154
 30
0.0
 10
8229.219375096658
 20
2047.359492510384
 30
0.0
 10
8354.219375096658
 20
2047.359492510384
 30
0.0
340
27459
1001
ACAD
1000
DSTYLE
1002
{
1070
   341
1005
0
1070
    40
1040
1.0
1070
   343
1005
0
1070
   344
1005
0
1002
}
  0
MTEXT
  5
27459
102
{ACAD_REACTORS
330
27458
102
}
330
747D
100
AcDbEntity
  8
部品1
 62
     7
 48
50.0
100
AcDbMText
 10
8379.219375096658
 20
2112.359492510384
 30
0.0
 40
80.0
 41
0.8
 71
     4
 72
     1
  1
M10X160
  7
STYLE2
 73
     1
 44
1.0
1001
ACAD
1000
MTEXTBEGIN
1070
    73
1070
     1
1070
    44
1040
1.0
1070
    74
1070
     0
1000
MTEXTEND
  0
DIMENSION
  5
2745A
330
747D
100
AcDbEntity
  8
寸法
 48
50.0
100
AcDbDimension
  2
*D50
 10
9148.198178565209
 20
1847.976166357153
 30
0.0
 11
9148.198178565209
 21
1381.967262935671
 31
0.0
 70
   160
  1
20～25
 71
     5
 42
52.76000000000113
  3
INABA_S40G
100
AcDbAlignedDimension
 13
8183.074912677339
 23
1900.736166357155
 33
0.0
 14
8370.274912677338
 24
1847.976166357153
 34
0.0
 50
90.0
100
AcDbRotatedDimension
1001
ACAD
1000
DSTYLE
1002
{
1070
   341
1005
0
1002
}
  0
DIMENSION
  5
2745B
330
747D
100
AcDbEntity
  8
寸法
 48
50.0
100
AcDbDimension
  2
*D51
 10
8872.143512446182
 20
1523.976166357152
 30
0.0
 11
8772.143512446183
 21
1685.976166357154
 31
0.0
 70
    32
  1
180
 71
     5
 42
324.0000000000009
  3
INABA_S40G
100
AcDbAlignedDimension
 13
8370.274912677338
 23
1847.976166357153
 33
0.0
 14
8370.274912677338
 24
1523.976166357152
 34
0.0
 50
90.0
100
AcDbRotatedDimension
1001
ACAD
1000
DSTYLE
1002
{
1070
   341
1005
0
1002
}
  0
TEXT
  5
2745C
330
747D
100
AcDbEntity
  8
部品1
 48
50.0
100
AcDbText
 10
8374.628496961767
 20
2203.854847119353
 30
0.0
 40
80.0
  1
基礎ボルト(市販品)
  7
STYLE2
100
AcDbText
  0
LWPOLYLINE
  5
2745D
330
747D
100
AcDbEntity
  8
部品1
 48
50.0
100
AcDbPolyline
 90
        2
 70
     0
 43
8.0
 10
8370.274912677338
 20
1607.976166357154
 10
8663.977376076722
 20
1607.976166357154
  0
MTEXT
  5
2745E
102
{ACAD_REACTORS
330
2745F
102
}
330
747D
100
AcDbEntity
  8
部品1
 62
     7
 48
50.0
100
AcDbMText
 10
8409.546503046177
 20
2548.471539444414
 30
0.0
 40
80.0
 41
0.8
 71
     4
 72
     1
  1
\A1;ワッシャー(市販品)
  7
STYLE2
 73
     1
 44
1.0
1001
ACAD
1000
MTEXTBEGIN
1070
    73
1070
     1
1070
    44
1040
1.0
1070
    74
1070
     0
1000
MTEXTEND
  0
LEADER
  5
2745F
330
747D
100
AcDbEntity
  8
寸法
 48
50.0
100
AcDbLeader
  3
INABA_S50G
 73
     0
 74
     0
 75
     1
 40
102.2727272727273
 41
906.8181818181818
 76
     3
 10
8217.67491267734
 20
2117.099454801433
 30
0.0
 10
8259.546503046179
 20
2472.33517580805
 30
0.0
 10
8384.546503046179
 20
2472.33517580805
 30
0.0
340
2745E
1001
ACAD
1000
DSTYLE
1002
{
1070
   341
1005
0
1070
    40
1040
1.0
1070
   343
1005
0
1070
   344
1005
0
1002
}
  0
MTEXT
  5
27460
102
{ACAD_REACTORS
330
27461
102
}
330
747D
100
AcDbEntity
  8
部品1
 62
     7
 48
50.0
100
AcDbMText
 10
8378.028883790696
 20
2733.440622209201
 30
0.0
 40
80.0
 41
0.8
 71
     4
 72
     1
  1
\A1;ナット(市販品)
  7
STYLE2
 73
     1
 44
1.0
1001
ACAD
1000
MTEXTBEGIN
1070
    73
1070
     1
1070
    44
1040
1.0
1070
    74
1070
     0
1000
MTEXTEND
  0
LEADER
  5
27461
330
747D
100
AcDbEntity
  8
寸法
 48
50.0
100
AcDbLeader
  3
INABA_S50G
 73
     0
 74
     0
 75
     1
 40
102.2727272727273
 41
680.0000000000001
 76
     3
 10
8193.674912677339
 20
2246.851447466296
 30
0.0
 10
8228.028883790695
 20
2657.304258572838
 30
0.0
 10
8353.028883790695
 20
2657.304258572838
 30
0.0
340
27460
1001
ACAD
1000
DSTYLE
1002
{
1070
   341
1005
0
1070
    40
1040
1.0
1070
   343
1005
0
1070
   344
1005
0
1002
}
  0
LINE
  5
27462
330
747D
100
AcDbEntity
  8
部品1
100
AcDbLine
 10
5185.567160690886
 20
283.0078639730918
 30
0.0
 11
11256.55234607713
 21
283.0078639730918
 31
0.0
  0
LINE
  5
27463
330
747D
100
AcDbEntity
  8
部品1
100
AcDbLine
 10
11256.55234607713
 20
3007.314833557737
 30
0.0
 11
5185.567160690883
 21
3007.314833557737
 31
0.0
  0
LINE
  5
27464
330
747D
100
AcDbEntity
  8
部品1
100
AcDbLine
 10
11256.55234607713
 20
3247.314833557739
 30
0.0
 11
5185.567160690879
 21
3247.314833557739
 31
0.0
  0
ENDSEC
  0
SECTION
  2
OBJECTS
  0
DICTIONARY
  5
7471
330
0
100
AcDbDictionary
281
     1
  3
ACAD_COLOR
350
173D2
  3
ACAD_GROUP
350
7472
  3
ACAD_LAYOUT
350
173D3
  3
ACAD_MATERIAL
350
173D1
  3
ACAD_MLINESTYLE
350
7473
  3
ACAD_PLOTSETTINGS
350
173D4
  3
ACAD_PLOTSTYLENAME
350
173CF
  3
ACDBHEADERROUNDTRIPXREC
350
275FE
  3
AcDbVariableDictionary
350
27026
  3
CONTENTDICTIONARY
350
E71C
  3
DRAWINGVARIABLESDICT
350
F3B9
  0
DICTIONARY
  5
1758F
330
7467
100
AcDbDictionary
280
     1
281
     1
  3
ACAD_LAYERSTATES
360
17590
  0
DICTIONARY
  5
173D2
102
{ACAD_REACTORS
330
7471
102
}
330
7471
100
AcDbDictionary
281
     1
  0
DICTIONARY
  5
7472
102
{ACAD_REACTORS
330
7471
102
}
330
7471
100
AcDbDictionary
281
     1
  3
*A1
350
1D2A9
  0
DICTIONARY
  5
173D3
102
{ACAD_REACTORS
330
7471
102
}
330
7471
100
AcDbDictionary
281
     1
  3
Model
350
173D5
  3
レイアウト1
350
173D6
  0
DICTIONARY
  5
173D1
102
{ACAD_REACTORS
330
7471
102
}
330
7471
100
AcDbDictionary
281
     1
  0
DICTIONARY
  5
7473
102
{ACAD_REACTORS
330
7471
102
}
330
7471
100
AcDbDictionary
281
     1
  3
STANDARD
350
7480
  0
DICTIONARY
  5
173D4
102
{ACAD_REACTORS
330
7471
102
}
330
7471
100
AcDbDictionary
281
     1
  0
ACDBDICTIONARYWDFLT
  5
173CF
102
{ACAD_REACTORS
330
7471
102
}
330
7471
100
AcDbDictionary
281
     1
  3
Normal
350
173D0
100
AcDbDictionaryWithDefault
340
173D0
  0
DICTIONARY
  5
275FE
102
{ACAD_REACTORS
330
7471
102
}
330
7471
100
AcDbDictionary
281
     1
  3
COLORDICT
350
27600
  3
MATERIALDICT
350
275FF
  0
DICTIONARY
  5
27026
102
{ACAD_REACTORS
330
7471
102
}
330
7471
100
AcDbDictionary
281
     1
  3
DIMASSOC
350
27027
  3
PROJECTNAME
350
27028
  0
DICTIONARY
  5
E71C
102
{ACAD_REACTORS
330
7471
102
}
330
7471
100
AcDbDictionary
281
     1
  0
DICTIONARY
  5
F3B9
102
{ACAD_REACTORS
330
7471
102
}
330
7471
100
AcDbDictionary
281
     1
1001
DRAWINGVARIABLESXDATA
1000
POLARMODE
1000
1
  0
DICTIONARY
  5
17590
102
{ACAD_REACTORS
330
1758F
102
}
330
1758F
100
AcDbDictionary
281
     1
  0
GROUP
  5
1D2A9
102
{ACAD_REACTORS
330
7472
102
}
330
7472
100
AcDbGroup
300

 70
     1
 71
     1
  0
LAYOUT
  5
173D5
102
{ACAD_XDICTIONARY
360
27601
102
}
102
{ACAD_REACTORS
330
173D3
102
}
330
173D3
100
AcDbPlotSettings
  1

  2
クセロPDFよこ.pc3
  4
A3
  6

 40
3.174999952316284
 41
3.174999952316284
 42
3.17498779296875
 43
3.17498779296875
 44
419.9466552734374
 45
296.9259948730469
 46
0.0
 47
0.0
 48
0.0
 49
0.0
140
0.0
141
0.0
142
1.0
143
40.0
 70
 11952
 72
     1
 73
     0
 74
     2
  7
ACA3.ctb
 75
    24
147
0.025
148
0.0
149
0.0
100
AcDbLayout
  1
Model
 70
     1
 71
     0
 10
0.0
 20
0.0
 11
12.0
 21
9.0
 12
0.0
 22
0.0
 32
0.0
 14
0.0
 24
0.0
 34
0.0
 15
0.0
 25
0.0
 35
0.0
146
0.0
 13
0.0
 23
0.0
 33
0.0
 16
1.0
 26
0.0
 36
0.0
 17
0.0
 27
1.0
 37
0.0
 76
     0
330
747D
  0
LAYOUT
  5
173D6
102
{ACAD_XDICTIONARY
360
27603
102
}
102
{ACAD_REACTORS
330
173D3
102
}
330
173D3
100
AcDbPlotSettings
  1

  2
Microsoft Office Document Image Writer
  4

  6

 40
0.0
 41
0.0
 42
0.0
 43
0.0
 44
0.0
 45
0.0
 46
0.0
 47
0.0
 48
0.0
 49
0.0
140
0.0
141
0.0
142
1.0
143
1.0
 70
   688
 72
     0
 73
     0
 74
     5
  7
ACA3.ctb
 75
    16
147
1.0
148
0.0
149
0.0
100
AcDbLayout
  1
レイアウト1
 70
     0
 71
     1
 10
0.0
 20
0.0
 11
420.0
 21
297.0
 12
0.0
 22
0.0
 32
0.0
 14
1.000000000000000E+20
 24
1.000000000000000E+20
 34
1.000000000000000E+20
 15
-1.000000000000000E+20
 25
-1.000000000000000E+20
 35
-1.000000000000000E+20
146
0.0
 13
0.0
 23
0.0
 33
0.0
 16
1.0
 26
0.0
 36
0.0
 17
0.0
 27
1.0
 37
0.0
 76
     0
330
747A
  0
MLINESTYLE
  5
7480
102
{ACAD_REACTORS
330
7473
102
}
330
7473
100
AcDbMlineStyle
  2
STANDARD
 70
     0
  3

 62
     0
 51
90.0
 52
90.0
 71
     2
 49
0.5
 62
   256
  6
BYLAYER
 49
-0.5
 62
   256
  6
BYLAYER
  0
ACDBPLACEHOLDER
  5
173D0
102
{ACAD_REACTORS
330
173CF
102
}
330
173CF
  0
XRECORD
  5
27600
102
{ACAD_REACTORS
330
275FE
102
}
330
275FE
100
AcDbXrecord
280
     1
340
173D2
  0
XRECORD
  5
275FF
102
{ACAD_REACTORS
330
275FE
102
}
330
275FE
100
AcDbXrecord
280
     1
340
173D1
  0
DICTIONARYVAR
  5
27027
102
{ACAD_REACTORS
330
27026
102
}
330
27026
100
DictionaryVariables
280
     0
  1
1
  0
DICTIONARYVAR
  5
27028
102
{ACAD_REACTORS
330
27026
102
}
330
27026
100
DictionaryVariables
280
     0
  1

  0
DICTIONARY
  5
27601
330
173D5
100
AcDbDictionary
280
     1
281
     1
  3
ACAD_XREC_ROUNDTRIP
360
27602
  0
DICTIONARY
  5
27603
330
173D6
100
AcDbDictionary
280
     1
281
     1
  3
ACAD_XREC_ROUNDTRIP
360
27604
  0
XRECORD
  5
27602
102
{ACAD_REACTORS
330
27601
102
}
330
27601
100
AcDbXrecord
280
     1
102
SHADEPLOT
 70
     0
102
SHADEPLOTRESLEVEL
 70
     2
102
SHADEPLOTCUSTOMDPI
 70
   150
  0
XRECORD
  5
27604
102
{ACAD_REACTORS
330
27603
102
}
330
27603
100
AcDbXrecord
280
     1
102
SHADEPLOT
 70
     0
102
SHADEPLOTRESLEVEL
 70
     2
102
SHADEPLOTCUSTOMDPI
 70
   300
  0
ENDSEC
  0
EOF
