  0
SECTION
  2
HEADER
  9
$ACADVER
  1
AC1015
  9
$ACADMAINTVER
 70
    20
  9
$DWGCODEPAGE
  3
ANSI_932
  9
$INSBASE
 10
0.0
 20
0.0
 30
0.0
  9
$EXTMIN
 10
139.9999999999995
 20
-0.0000000000000909
 30
0.0
  9
$EXTMAX
 10
16307.2
 20
11409.6
 30
0.0
  9
$LIMMIN
 10
0.0
 20
0.0
  9
$LIMMAX
 10
16800.0
 20
11880.0
  9
$ORTHOMODE
 70
     0
  9
$REGENMODE
 70
     1
  9
$FILLMODE
 70
     1
  9
$QTEXTMODE
 70
     0
  9
$MIRRTEXT
 70
     1
  9
$LTSCALE
 40
20.0
  9
$ATTMODE
 70
     1
  9
$TEXTSIZE
 40
4.0
  9
$TRACEWID
 40
1.0
  9
$TEXTSTYLE
  7
STYLE1
  9
$CLAYER
  8
寸法
  9
$CELTYPE
  6
BYLAYER
  9
$CECOLOR
 62
   256
  9
$CELTSCALE
 40
50.0
  9
$DISPSILH
 70
     0
  9
$DIMSCALE
 40
40.0
  9
$DIMASZ
 40
2.5
  9
$DIMEXO
 40
0.5
  9
$DIMDLI
 40
7.0
  9
$DIMRND
 40
0.0
  9
$DIMDLE
 40
0.0
  9
$DIMEXE
 40
1.5
  9
$DIMTP
 40
0.0
  9
$DIMTM
 40
0.0
  9
$DIMTXT
 40
3.0
  9
$DIMCEN
 40
0.0
  9
$DIMTSZ
 40
0.0
  9
$DIMTOL
 70
     0
  9
$DIMLIM
 70
     0
  9
$DIMTIH
 70
     0
  9
$DIMTOH
 70
     0
  9
$DIMSE1
 70
     0
  9
$DIMSE2
 70
     0
  9
$DIMTAD
 70
     3
  9
$DIMZIN
 70
     8
  9
$DIMBLK
  1

  9
$DIMASO
 70
     1
  9
$DIMSHO
 70
     1
  9
$DIMPOST
  1

  9
$DIMAPOST
  1

  9
$DIMALT
 70
     0
  9
$DIMALTD
 70
     2
  9
$DIMALTF
 40
0.0394
  9
$DIMLFAC
 40
1.0
  9
$DIMTOFL
 70
     1
  9
$DIMTVP
 40
0.0
  9
$DIMTIX
 70
     1
  9
$DIMSOXD
 70
     0
  9
$DIMSAH
 70
     1
  9
$DIMBLK1
  1
DOTSMALL
  9
$DIMBLK2
  1
DOTSMALL
  9
$DIMSTYLE
  2
INABA_S40G
  9
$DIMCLRD
 70
     0
  9
$DIMCLRE
 70
     0
  9
$DIMCLRT
 70
     7
  9
$DIMTFAC
 40
1.0
  9
$DIMGAP
 40
1.0
  9
$DIMJUST
 70
     0
  9
$DIMSD1
 70
     0
  9
$DIMSD2
 70
     0
  9
$DIMTOLJ
 70
     1
  9
$DIMTZIN
 70
     0
  9
$DIMALTZ
 70
     0
  9
$DIMALTTZ
 70
     0
  9
$DIMUPT
 70
     0
  9
$DIMDEC
 70
     1
  9
$DIMTDEC
 70
     4
  9
$DIMALTU
 70
     2
  9
$DIMALTTD
 70
     2
  9
$DIMTXSTY
  7
STYLE1
  9
$DIMAUNIT
 70
     0
  9
$DIMADEC
 70
     0
  9
$DIMALTRND
 40
0.0
  9
$DIMAZIN
 70
     0
  9
$DIMDSEP
 70
    46
  9
$DIMATFIT
 70
     3
  9
$DIMFRAC
 70
     0
  9
$DIMLDRBLK
  1

  9
$DIMLUNIT
 70
     2
  9
$DIMLWD
 70
    -2
  9
$DIMLWE
 70
    -2
  9
$DIMTMOVE
 70
     0
  9
$LUNITS
 70
     2
  9
$LUPREC
 70
     1
  9
$SKETCHINC
 40
1.0
  9
$FILLETRAD
 40
3.0
  9
$AUNITS
 70
     0
  9
$AUPREC
 70
     0
  9
$MENU
  1
acad
  9
$ELEVATION
 40
0.0
  9
$PELEVATION
 40
0.0
  9
$THICKNESS
 40
0.0
  9
$LIMCHECK
 70
     0
  9
$CHAMFERA
 40
0.0
  9
$CHAMFERB
 40
0.0
  9
$CHAMFERC
 40
0.0
  9
$CHAMFERD
 40
0.0
  9
$SKPOLY
 70
     0
  9
$TDCREATE
 40
2451368.612993866
  9
$TDUCREATE
 40
2451368.237993866
  9
$TDUPDATE
 40
2455827.641122998
  9
$TDUUPDATE
 40
2455827.266122998
  9
$TDINDWG
 40
0.8720264120
  9
$TDUSRTIMER
 40
0.8720264120
  9
$USRTIMER
 70
     1
  9
$ANGBASE
 50
0.0
  9
$ANGDIR
 70
     0
  9
$PDMODE
 70
     3
  9
$PDSIZE
 40
2.0
  9
$PLINEWID
 40
0.0
  9
$SPLFRAME
 70
     0
  9
$SPLINETYPE
 70
     6
  9
$SPLINESEGS
 70
     8
  9
$HANDSEED
  5
26B78
  9
$SURFTAB1
 70
     6
  9
$SURFTAB2
 70
     6
  9
$SURFTYPE
 70
     6
  9
$SURFU
 70
     6
  9
$SURFV
 70
     6
  9
$UCSBASE
  2

  9
$UCSNAME
  2

  9
$UCSORG
 10
0.0
 20
0.0
 30
0.0
  9
$UCSXDIR
 10
1.0
 20
0.0
 30
0.0
  9
$UCSYDIR
 10
0.0
 20
1.0
 30
0.0
  9
$UCSORTHOREF
  2

  9
$UCSORTHOVIEW
 70
     0
  9
$UCSORGTOP
 10
0.0
 20
0.0
 30
0.0
  9
$UCSORGBOTTOM
 10
0.0
 20
0.0
 30
0.0
  9
$UCSORGLEFT
 10
0.0
 20
0.0
 30
0.0
  9
$UCSORGRIGHT
 10
0.0
 20
0.0
 30
0.0
  9
$UCSORGFRONT
 10
0.0
 20
0.0
 30
0.0
  9
$UCSORGBACK
 10
0.0
 20
0.0
 30
0.0
  9
$PUCSBASE
  2

  9
$PUCSNAME
  2

  9
$PUCSORG
 10
0.0
 20
0.0
 30
0.0
  9
$PUCSXDIR
 10
1.0
 20
0.0
 30
0.0
  9
$PUCSYDIR
 10
0.0
 20
1.0
 30
0.0
  9
$PUCSORTHOREF
  2

  9
$PUCSORTHOVIEW
 70
     0
  9
$PUCSORGTOP
 10
0.0
 20
0.0
 30
0.0
  9
$PUCSORGBOTTOM
 10
0.0
 20
0.0
 30
0.0
  9
$PUCSORGLEFT
 10
0.0
 20
0.0
 30
0.0
  9
$PUCSORGRIGHT
 10
0.0
 20
0.0
 30
0.0
  9
$PUCSORGFRONT
 10
0.0
 20
0.0
 30
0.0
  9
$PUCSORGBACK
 10
0.0
 20
0.0
 30
0.0
  9
$USERI1
 70
     0
  9
$USERI2
 70
     0
  9
$USERI3
 70
     0
  9
$USERI4
 70
     0
  9
$USERI5
 70
     0
  9
$USERR1
 40
0.0
  9
$USERR2
 40
0.0
  9
$USERR3
 40
0.0
  9
$USERR4
 40
0.0
  9
$USERR5
 40
0.0
  9
$WORLDVIEW
 70
     1
  9
$SHADEDGE
 70
     3
  9
$SHADEDIF
 70
    70
  9
$TILEMODE
 70
     1
  9
$MAXACTVP
 70
    16
  9
$PINSBASE
 10
0.0
 20
0.0
 30
0.0
  9
$PLIMCHECK
 70
     0
  9
$PEXTMIN
 10
1.000000000000000E+20
 20
1.000000000000000E+20
 30
1.000000000000000E+20
  9
$PEXTMAX
 10
-1.000000000000000E+20
 20
-1.000000000000000E+20
 30
-1.000000000000000E+20
  9
$PLIMMIN
 10
0.0
 20
0.0
  9
$PLIMMAX
 10
420.0
 20
297.0
  9
$UNITMODE
 70
     0
  9
$VISRETAIN
 70
     0
  9
$PLINEGEN
 70
     0
  9
$PSLTSCALE
 70
     0
  9
$TREEDEPTH
 70
  3020
  9
$CMLSTYLE
  2
STANDARD
  9
$CMLJUST
 70
     0
  9
$CMLSCALE
 40
1.0
  9
$PROXYGRAPHICS
 70
     1
  9
$MEASUREMENT
 70
     1
  9
$CELWEIGHT
370
    -1
  9
$ENDCAPS
280
     0
  9
$JOINSTYLE
280
     0
  9
$LWDISPLAY
290
     0
  9
$INSUNITS
 70
     0
  9
$HYPERLINKBASE
  1

  9
$STYLESHEET
  1

  9
$XEDIT
290
     1
  9
$CEPSNTYPE
380
     0
  9
$PSTYLEMODE
290
     1
  9
$FINGERPRINTGUID
  2
{5EAC461A-2277-4BF8-9AB0-99C43BB394F0}
  9
$VERSIONGUID
  2
{C88DA702-F157-4D21-9272-B6C55097D007}
  9
$EXTNAMES
290
     1
  9
$PSVPSCALE
 40
0.0
  9
$OLESTARTUP
290
     0
  0
ENDSEC
  0
SECTION
  2
CLASSES
  0
CLASS
  1
ACDBDICTIONARYWDFLT
  2
AcDbDictionaryWithDefault
  3
ObjectDBX Classes
 90
        0
280
     0
281
     0
  0
CLASS
  1
DICTIONARYVAR
  2
AcDbDictionaryVar
  3
ObjectDBX Classes
 90
        0
280
     0
281
     0
  0
CLASS
  1
ACDBPLACEHOLDER
  2
AcDbPlaceHolder
  3
ObjectDBX Classes
 90
        0
280
     0
281
     0
  0
CLASS
  1
LAYOUT
  2
AcDbLayout
  3
ObjectDBX Classes
 90
        0
280
     0
281
     0
  0
ENDSEC
  0
SECTION
  2
TABLES
  0
TABLE
  2
VPORT
  5
746D
330
0
100
AcDbSymbolTable
 70
     2
  0
VPORT
  5
26B70
330
746D
100
AcDbSymbolTableRecord
100
AcDbViewportTableRecord
  2
*Active
 70
     0
 10
0.0
 20
0.0
 11
1.0
 21
1.0
 12
8400.000000000002
 22
6532.467989526317
 13
0.0
 23
0.0
 14
10.0
 24
10.0
 15
10.0
 25
10.0
 16
0.0
 26
0.0
 36
1.0
 17
0.0
 27
0.0
 37
0.0
 40
13159.96111582214
 41
1.522222222222222
 42
50.0
 43
0.0
 44
0.0
 50
0.0
 51
0.0
 71
     0
 72
     0
 73
     1
 74
     0
 75
     0
 76
     0
 77
     0
 78
     0
281
     0
 65
     1
110
0.0
120
0.0
130
0.0
111
1.0
121
0.0
131
0.0
112
0.0
122
1.0
132
0.0
 79
     0
146
0.0
  0
ENDTAB
  0
TABLE
  2
LTYPE
  5
746A
330
0
100
AcDbSymbolTable
 70
     5
  0
LTYPE
  5
7477
330
746A
100
AcDbSymbolTableRecord
100
AcDbLinetypeTableRecord
  2
BYBLOCK
 70
     0
  3

 72
    65
 73
     0
 40
0.0
  0
LTYPE
  5
7478
330
746A
100
AcDbSymbolTableRecord
100
AcDbLinetypeTableRecord
  2
BYLAYER
 70
     0
  3

 72
    65
 73
     0
 40
0.0
  0
LTYPE
  5
7479
330
746A
100
AcDbSymbolTableRecord
100
AcDbLinetypeTableRecord
  2
CONTINUOUS
 70
     0
  3
Solid line
 72
    65
 73
     0
 40
0.0
  0
LTYPE
  5
7816
330
746A
100
AcDbSymbolTableRecord
100
AcDbLinetypeTableRecord
  2
CENTER
 70
     0
  3
____ _ ____ _ ____ _ ____ _ ____ _ ____ _ ____ 
 72
    65
 73
     4
 40
2.0
 49
1.25
 74
     0
 49
-0.25
 74
     0
 49
0.25
 74
     0
 49
-0.25
 74
     0
  0
LTYPE
  5
781A
330
746A
100
AcDbSymbolTableRecord
100
AcDbLinetypeTableRecord
  2
HIDDEN
 70
     0
  3
__ __ __ __ __ __ __ __ __ __ __ __ __ __ __ __
 72
    65
 73
     2
 40
0.375
 49
0.25
 74
     0
 49
-0.125
 74
     0
  0
LTYPE
  5
781B
330
746A
100
AcDbSymbolTableRecord
100
AcDbLinetypeTableRecord
  2
PHANTOM
 70
     0
  3
______  __  __  ______  __  __  ______  __  __ 
 72
    65
 73
     6
 40
2.5
 49
1.25
 74
     0
 49
-0.25
 74
     0
 49
0.25
 74
     0
 49
-0.25
 74
     0
 49
0.25
 74
     0
 49
-0.25
 74
     0
  0
LTYPE
  5
12CC3
330
746A
100
AcDbSymbolTableRecord
100
AcDbLinetypeTableRecord
  2
HIDDENX2
 70
     0
  3
Hidden (2x) ____ ____ ____ ____ ____ ____ ____
 72
    65
 73
     2
 40
19.05
 49
12.7
 74
     0
 49
-6.349999999999999
 74
     0
  0
ENDTAB
  0
TABLE
  2
LAYER
  5
7467
102
{ACAD_XDICTIONARY
360
1758F
102
}
330
0
100
AcDbSymbolTable
 70
    12
  0
LAYER
  5
7474
330
7467
100
AcDbSymbolTableRecord
100
AcDbLayerTableRecord
  2
0
 70
     0
 62
     7
  6
CONTINUOUS
370
    -3
390
173D0
  0
LAYER
  5
DEB2
330
7467
100
AcDbSymbolTableRecord
100
AcDbLayerTableRecord
  2
センター
 70
     0
 62
     3
  6
CENTER
370
    -3
390
173D0
  0
LAYER
  5
DEB3
330
7467
100
AcDbSymbolTableRecord
100
AcDbLayerTableRecord
  2
寸法
 70
     0
 62
     4
  6
CONTINUOUS
370
    -3
390
173D0
  0
LAYER
  5
DEB4
330
7467
100
AcDbSymbolTableRecord
100
AcDbLayerTableRecord
  2
部品1
 70
     0
 62
     7
  6
CONTINUOUS
370
    -3
390
173D0
  0
LAYER
  5
DEB5
330
7467
100
AcDbSymbolTableRecord
100
AcDbLayerTableRecord
  2
補助
 70
     0
 62
    -1
  6
CONTINUOUS
370
    -3
390
173D0
  0
LAYER
  5
DEB6
330
7467
100
AcDbSymbolTableRecord
100
AcDbLayerTableRecord
  2
文字
 70
     0
 62
     7
  6
CONTINUOUS
370
    -3
390
173D0
  0
LAYER
  5
F255
330
7467
100
AcDbSymbolTableRecord
100
AcDbLayerTableRecord
  2
DEFPOINTS
 70
     0
 62
     7
  6
CONTINUOUS
290
     0
370
    -3
390
173D0
  0
LAYER
  5
10B54
330
7467
100
AcDbSymbolTableRecord
100
AcDbLayerTableRecord
  2
仕様書枠
 70
     0
 62
   230
  6
CONTINUOUS
370
    -3
390
173D0
  0
LAYER
  5
11729
330
7467
100
AcDbSymbolTableRecord
100
AcDbLayerTableRecord
  2
Ｇ．Ｌ
 70
     0
 62
    30
  6
CONTINUOUS
370
    -3
390
173D0
  0
LAYER
  5
1173F
330
7467
100
AcDbSymbolTableRecord
100
AcDbLayerTableRecord
  2
細線
 70
     0
 62
     5
  6
CONTINUOUS
370
    -3
390
173D0
  0
LAYER
  5
12CC4
330
7467
100
AcDbSymbolTableRecord
100
AcDbLayerTableRecord
  2
想像線
 70
     0
 62
     6
  6
PHANTOM
370
    -3
390
173D0
  0
LAYER
  5
142E2
330
7467
100
AcDbSymbolTableRecord
100
AcDbLayerTableRecord
  2
破線
 70
     0
 62
     2
  6
HIDDEN
370
    -3
390
173D0
  0
ENDTAB
  0
TABLE
  2
STYLE
  5
7468
330
0
100
AcDbSymbolTable
 70
     7
  0
STYLE
  5
7475
330
7468
100
AcDbSymbolTableRecord
100
AcDbTextStyleTableRecord
  2
STANDARD
 70
     0
 40
0.0
 41
1.0
 50
0.0
 71
     0
 42
4.0
  3
txt
  4
C:\AutoCAD LT\bigfont.shx
  0
STYLE
  5
763C
330
7468
100
AcDbSymbolTableRecord
100
AcDbTextStyleTableRecord
  2
MSMINCHO
 70
     0
 40
0.0
 41
1.0
 50
0.0
 71
     0
 42
1.199999999999999
  3
C:\AutoCAD LT\msminch2.TTF
  4

  0
STYLE
  5
F706
330
7468
100
AcDbSymbolTableRecord
100
AcDbTextStyleTableRecord
  2
STYLE1
 70
     0
 40
0.0
 41
1.0
 50
0.0
 71
     0
 42
4.0
  3
isocp.shx
  4
bigfont.shx
  0
STYLE
  5
103BF
330
7468
100
AcDbSymbolTableRecord
100
AcDbTextStyleTableRecord
  2
STYLE2
 70
     0
 40
0.0
 41
1.0
 50
0.0
 71
     0
 42
100.0
  3
MS PGothic.ttf
  4

1001
ACAD
1000
MS PGothic
1071
    32818
  0
STYLE
  5
10BAA
330
7468
100
AcDbSymbolTableRecord
100
AcDbTextStyleTableRecord
  2
STYLE3
 70
     0
 40
0.0
 41
1.0
 50
0.0
 71
     0
 42
100.0
  3

  4

1001
ACAD
1000
DFPGothic-EB
1071
    32818
  0
STYLE
  5
11A15
330
7468
100
AcDbSymbolTableRecord
100
AcDbTextStyleTableRecord
  2
MSGOTHIC
 70
     0
 40
0.0
 41
1.0
 50
0.0
 71
     0
 42
3.5
  3
msgothi2.ttf
  4

  0
STYLE
  5
13E96
330
7468
100
AcDbSymbolTableRecord
100
AcDbTextStyleTableRecord
  2
MSPゴシック
 70
     0
 40
0.0
 41
1.0
 50
0.0
 71
     0
 42
4.0
  3
MS PGothic.ttf
  4

1001
ACAD
1000
MS PGothic
1071
    32818
  0
ENDTAB
  0
TABLE
  2
VIEW
  5
746B
330
0
100
AcDbSymbolTable
 70
     0
  0
ENDTAB
  0
TABLE
  2
UCS
  5
746C
330
0
100
AcDbSymbolTable
 70
     0
  0
ENDTAB
  0
TABLE
  2
APPID
  5
746E
330
0
100
AcDbSymbolTable
 70
     6
  0
APPID
  5
7476
330
746E
100
AcDbSymbolTableRecord
100
AcDbRegAppTableRecord
  2
ACAD
 70
     0
  0
APPID
  5
DEA9
330
746E
100
AcDbSymbolTableRecord
100
AcDbRegAppTableRecord
  2
CONTENTBLOCKICON
 70
     0
  0
APPID
  5
DEAA
330
746E
100
AcDbSymbolTableRecord
100
AcDbRegAppTableRecord
  2
CONTENTBLOCKDESCRIPTION
 70
     0
  0
APPID
  5
E71D
330
746E
100
AcDbSymbolTableRecord
100
AcDbRegAppTableRecord
  2
CONTENTTABDATA
 70
     0
  0
APPID
  5
E71E
330
746E
100
AcDbSymbolTableRecord
100
AcDbRegAppTableRecord
  2
CONTENTCURRENTTAB
 70
     0
  0
APPID
  5
F3BA
330
746E
100
AcDbSymbolTableRecord
100
AcDbRegAppTableRecord
  2
DRAWINGVARIABLESXDATA
 70
     0
  0
ENDTAB
  0
TABLE
  2
DIMSTYLE
  5
746F
330
0
100
AcDbSymbolTable
 70
     6
100
AcDbDimStyleTable
 71
     1
340
F71F
  0
DIMSTYLE
105
7484
330
746F
100
AcDbSymbolTableRecord
100
AcDbDimStyleTableRecord
  2
JIS
 70
     0
 41
2.5
 42
1.0
 43
7.0
 44
1.0
 73
     0
 74
     0
 77
     1
 78
     8
140
2.5
141
0.0
143
0.0394
147
0.0
172
     1
174
     1
175
     1
340
7475
  0
DIMSTYLE
105
F236
330
746F
100
AcDbSymbolTableRecord
100
AcDbDimStyleTableRecord
  2
INABA_S40
 70
     0
 40
40.0
 41
2.5
 42
0.5
 43
7.0
 44
1.5
 73
     0
 74
     0
 77
     3
 78
     8
140
3.0
141
0.0
143
0.0394
147
1.0
172
     1
173
     1
174
     1
175
     1
178
     7
289
     0
340
7475
341
DEAC
343
DEAC
344
DEAC
  0
DIMSTYLE
105
F71F
102
{ACAD_REACTORS
330
20DE1
330
20DFB
330
22741
330
2275B
330
23FDA
330
23FD9
330
24043
330
26144
330
260F3
330
260EF
330
260BE
330
260B8
330
26073
330
26072
330
26069
330
26062
330
2605F
330
2605E
330
26076
330
260B6
330
26077
330
26075
330
26074
330
26082
330
2606E
330
26A67
330
26AC7
330
26ACA
330
26AD1
330
26AD9
330
26ADA
102
}
330
746F
100
AcDbSymbolTableRecord
100
AcDbDimStyleTableRecord
  2
INABA_S40G
 70
     0
 40
40.0
 41
2.5
 42
0.5
 43
7.0
 44
1.5
 73
     0
 74
     0
 77
     3
 78
     8
140
3.0
141
0.0
143
0.0394
147
1.0
172
     1
173
     1
174
     1
178
     7
271
     1
340
F706
341
F770
343
F770
344
F770
  0
DIMSTYLE
105
142E3
330
746F
100
AcDbSymbolTableRecord
100
AcDbDimStyleTableRecord
  2
INABA_S1
 70
     0
 40
0.0
 41
2.5
 42
0.5
 43
7.0
 44
1.5
 73
     0
 74
     0
 77
     3
 78
     8
140
3.0
141
0.0
143
0.0394
146
0.5
147
0.5
172
     1
173
     1
176
   256
177
   256
178
     7
271
     2
272
     2
284
     8
288
     1
340
7475
341
DEAC
343
DEAC
344
DEAC
  0
DIMSTYLE
105
14463
330
746F
100
AcDbSymbolTableRecord
100
AcDbDimStyleTableRecord
  2
INABA_S30G
 70
     0
 40
30.0
 41
2.5
 42
0.5
 43
7.0
 44
1.5
 73
     0
 74
     0
 77
     3
 78
     8
140
3.0
141
0.0
143
0.0394
147
1.0
172
     1
173
     1
174
     1
175
     1
178
     7
271
     1
340
F706
341
F770
343
F770
344
F770
  0
DIMSTYLE
105
1758E
330
746F
100
AcDbSymbolTableRecord
100
AcDbDimStyleTableRecord
  2
INABA_S50G
 70
     0
 41
125.0
 42
25.0
 43
7.0
 44
75.0
 73
     0
 74
     0
 77
     3
 78
     8
140
150.0
141
0.0
143
0.0394
147
25.0
172
     1
173
     1
174
     1
175
     1
178
     7
271
     1
340
F706
341
F770
343
F770
344
F770
  0
ENDTAB
  0
TABLE
  2
BLOCK_RECORD
  5
7466
330
0
100
AcDbSymbolTable
 70
    60
  0
BLOCK_RECORD
  5
747D
330
7466
100
AcDbSymbolTableRecord
100
AcDbBlockTableRecord
  2
*MODEL_SPACE
340
173D5
  0
BLOCK_RECORD
  5
747A
330
7466
100
AcDbSymbolTableRecord
100
AcDbBlockTableRecord
  2
*PAPER_SPACE
340
173D6
  0
BLOCK_RECORD
  5
DEAC
330
7466
100
AcDbSymbolTableRecord
100
AcDbBlockTableRecord
  2
_OPEN
340
0
  0
BLOCK_RECORD
  5
F770
330
7466
100
AcDbSymbolTableRecord
100
AcDbBlockTableRecord
  2
_DOTSMALL
340
0
102
{BLKREFS
331
18C65
331
18C66
331
18C59
331
18C5A
331
18C4D
331
18C4E
331
18C41
331
18C42
331
18C35
331
18C36
331
18C29
331
18C2A
331
18C1D
331
18C1E
331
18C0F
331
18C10
331
18C03
331
18C04
331
18BF5
331
18BF6
331
18BE7
331
18BE8
331
18BD9
331
18BDA
331
18BCD
331
18BCE
331
21316
331
21317
331
21321
331
21322
331
2132A
331
2132B
331
26621
331
26622
331
2663C
331
2663D
331
26646
331
26647
331
2666A
331
2666B
331
26673
331
26674
331
26685
331
26686
331
2668F
331
26690
331
266AB
331
266AC
331
266D1
331
266D2
331
266E6
331
266E7
331
266F1
331
266F2
331
266FC
331
266FD
331
26707
331
26708
331
2672B
331
2672C
331
26734
331
26735
331
267AB
331
267AC
331
267B5
331
267B6
331
267C7
331
267C8
331
267D0
331
267D1
331
267D9
331
267DA
331
267E2
331
267E3
331
267EB
331
267EC
331
267FD
331
267FE
331
26806
331
26807
331
2680F
331
26810
331
26826
331
26827
331
2686F
331
26870
331
26863
331
26864
331
26857
331
26858
331
2684B
331
2684C
331
2683F
331
26840
331
26831
331
26832
331
26B31
331
26B32
331
26B3A
331
26B3B
331
26B43
331
26B44
331
26B4C
331
26B4D
331
26B57
331
26B58
331
26B60
331
26B61
102
}
  0
BLOCK_RECORD
  5
164B4
330
7466
100
AcDbSymbolTableRecord
100
AcDbBlockTableRecord
  2
_DOT
340
0
102
{BLKREFS
331
18C73
331
18C74
102
}
  0
BLOCK_RECORD
  5
18BC8
330
7466
100
AcDbSymbolTableRecord
100
AcDbBlockTableRecord
  2
*D3
340
0
  0
BLOCK_RECORD
  5
18BD4
330
7466
100
AcDbSymbolTableRecord
100
AcDbBlockTableRecord
  2
*D4
340
0
  0
BLOCK_RECORD
  5
18BE0
330
7466
100
AcDbSymbolTableRecord
100
AcDbBlockTableRecord
  2
*D5
340
0
  0
BLOCK_RECORD
  5
18BEE
330
7466
100
AcDbSymbolTableRecord
100
AcDbBlockTableRecord
  2
*D6
340
0
  0
BLOCK_RECORD
  5
18BFC
330
7466
100
AcDbSymbolTableRecord
100
AcDbBlockTableRecord
  2
*D7
340
0
  0
BLOCK_RECORD
  5
18C0A
330
7466
100
AcDbSymbolTableRecord
100
AcDbBlockTableRecord
  2
*D8
340
0
  0
BLOCK_RECORD
  5
18C16
330
7466
100
AcDbSymbolTableRecord
100
AcDbBlockTableRecord
  2
*D9
340
0
  0
BLOCK_RECORD
  5
18C24
330
7466
100
AcDbSymbolTableRecord
100
AcDbBlockTableRecord
  2
*D10
340
0
  0
BLOCK_RECORD
  5
18C30
330
7466
100
AcDbSymbolTableRecord
100
AcDbBlockTableRecord
  2
*D11
340
0
  0
BLOCK_RECORD
  5
18C3C
330
7466
100
AcDbSymbolTableRecord
100
AcDbBlockTableRecord
  2
*D12
340
0
  0
BLOCK_RECORD
  5
18C48
330
7466
100
AcDbSymbolTableRecord
100
AcDbBlockTableRecord
  2
*D13
340
0
  0
BLOCK_RECORD
  5
18C54
330
7466
100
AcDbSymbolTableRecord
100
AcDbBlockTableRecord
  2
*D14
340
0
  0
BLOCK_RECORD
  5
18C60
330
7466
100
AcDbSymbolTableRecord
100
AcDbBlockTableRecord
  2
*D15
340
0
  0
BLOCK_RECORD
  5
18C6C
330
7466
100
AcDbSymbolTableRecord
100
AcDbBlockTableRecord
  2
*D16
340
0
  0
BLOCK_RECORD
  5
18C7A
330
7466
100
AcDbSymbolTableRecord
100
AcDbBlockTableRecord
  2
A$C3B1A506B
340
0
  0
BLOCK_RECORD
  5
1C4CA
330
7466
100
AcDbSymbolTableRecord
100
AcDbBlockTableRecord
  2
_NONE
340
0
  0
BLOCK_RECORD
  5
20DE2
330
7466
100
AcDbSymbolTableRecord
100
AcDbBlockTableRecord
  2
*D19
340
0
  0
BLOCK_RECORD
  5
20DFC
330
7466
100
AcDbSymbolTableRecord
100
AcDbBlockTableRecord
  2
*D20
340
0
  0
BLOCK_RECORD
  5
22742
330
7466
100
AcDbSymbolTableRecord
100
AcDbBlockTableRecord
  2
*D25
340
0
  0
BLOCK_RECORD
  5
2275C
330
7466
100
AcDbSymbolTableRecord
100
AcDbBlockTableRecord
  2
*D26
340
0
  0
BLOCK_RECORD
  5
240C4
330
7466
100
AcDbSymbolTableRecord
100
AcDbBlockTableRecord
  2
*D27
340
0
  0
BLOCK_RECORD
  5
240D1
330
7466
100
AcDbSymbolTableRecord
100
AcDbBlockTableRecord
  2
*D28
340
0
  0
BLOCK_RECORD
  5
240DE
330
7466
100
AcDbSymbolTableRecord
100
AcDbBlockTableRecord
  2
*D29
340
0
  0
BLOCK_RECORD
  5
26157
330
7466
100
AcDbSymbolTableRecord
100
AcDbBlockTableRecord
  2
*D30
340
0
  0
BLOCK_RECORD
  5
26163
330
7466
100
AcDbSymbolTableRecord
100
AcDbBlockTableRecord
  2
*D31
340
0
  0
BLOCK_RECORD
  5
2616F
330
7466
100
AcDbSymbolTableRecord
100
AcDbBlockTableRecord
  2
*D32
340
0
  0
BLOCK_RECORD
  5
26196
330
7466
100
AcDbSymbolTableRecord
100
AcDbBlockTableRecord
  2
*D33
340
0
  0
BLOCK_RECORD
  5
261A2
330
7466
100
AcDbSymbolTableRecord
100
AcDbBlockTableRecord
  2
*D34
340
0
  0
BLOCK_RECORD
  5
261AE
330
7466
100
AcDbSymbolTableRecord
100
AcDbBlockTableRecord
  2
*D35
340
0
  0
BLOCK_RECORD
  5
261BA
330
7466
100
AcDbSymbolTableRecord
100
AcDbBlockTableRecord
  2
*D36
340
0
  0
BLOCK_RECORD
  5
261C5
330
7466
100
AcDbSymbolTableRecord
100
AcDbBlockTableRecord
  2
*D37
340
0
  0
BLOCK_RECORD
  5
261D1
330
7466
100
AcDbSymbolTableRecord
100
AcDbBlockTableRecord
  2
*D38
340
0
  0
BLOCK_RECORD
  5
261DD
330
7466
100
AcDbSymbolTableRecord
100
AcDbBlockTableRecord
  2
*D39
340
0
  0
BLOCK_RECORD
  5
261E8
330
7466
100
AcDbSymbolTableRecord
100
AcDbBlockTableRecord
  2
*D40
340
0
  0
BLOCK_RECORD
  5
261F4
330
7466
100
AcDbSymbolTableRecord
100
AcDbBlockTableRecord
  2
*D41
340
0
  0
BLOCK_RECORD
  5
26200
330
7466
100
AcDbSymbolTableRecord
100
AcDbBlockTableRecord
  2
*D42
340
0
  0
BLOCK_RECORD
  5
2620C
330
7466
100
AcDbSymbolTableRecord
100
AcDbBlockTableRecord
  2
*D43
340
0
  0
BLOCK_RECORD
  5
26232
330
7466
100
AcDbSymbolTableRecord
100
AcDbBlockTableRecord
  2
*D44
340
0
  0
BLOCK_RECORD
  5
2624B
330
7466
100
AcDbSymbolTableRecord
100
AcDbBlockTableRecord
  2
*D45
340
0
  0
BLOCK_RECORD
  5
26262
330
7466
100
AcDbSymbolTableRecord
100
AcDbBlockTableRecord
  2
*D46
340
0
  0
BLOCK_RECORD
  5
2626F
330
7466
100
AcDbSymbolTableRecord
100
AcDbBlockTableRecord
  2
*D47
340
0
  0
BLOCK_RECORD
  5
26AE4
330
7466
100
AcDbSymbolTableRecord
100
AcDbBlockTableRecord
  2
*D54
340
0
  0
BLOCK_RECORD
  5
26AF0
330
7466
100
AcDbSymbolTableRecord
100
AcDbBlockTableRecord
  2
*D55
340
0
  0
BLOCK_RECORD
  5
26AFC
330
7466
100
AcDbSymbolTableRecord
100
AcDbBlockTableRecord
  2
*D56
340
0
  0
BLOCK_RECORD
  5
26B08
330
7466
100
AcDbSymbolTableRecord
100
AcDbBlockTableRecord
  2
*D57
340
0
  0
BLOCK_RECORD
  5
26B14
330
7466
100
AcDbSymbolTableRecord
100
AcDbBlockTableRecord
  2
*D58
340
0
  0
BLOCK_RECORD
  5
26B22
330
7466
100
AcDbSymbolTableRecord
100
AcDbBlockTableRecord
  2
*D59
340
0
  0
ENDTAB
  0
ENDSEC
  0
SECTION
  2
BLOCKS
  0
BLOCK
  5
7489
330
747D
100
AcDbEntity
  8
0
100
AcDbBlockBegin
  2
*MODEL_SPACE
 70
     0
 10
0.0
 20
0.0
 30
0.0
  3
*MODEL_SPACE
  1

  0
ENDBLK
  5
748A
330
747D
100
AcDbEntity
  8
0
100
AcDbBlockEnd
  0
BLOCK
  5
7487
330
747A
100
AcDbEntity
 67
     1
  8
0
100
AcDbBlockBegin
  2
*PAPER_SPACE
 70
     0
 10
0.0
 20
0.0
 30
0.0
  3
*PAPER_SPACE
  1

  0
ENDBLK
  5
7488
330
747A
100
AcDbEntity
 67
     1
  8
0
100
AcDbBlockEnd
  0
BLOCK
  5
DEAD
330
DEAC
100
AcDbEntity
  8
0
100
AcDbBlockBegin
  2
_OPEN
 70
     0
 10
0.0
 20
0.0
 30
0.0
  3
_OPEN
  1

  0
LINE
  5
DEAE
330
DEAC
100
AcDbEntity
  8
0
  6
ByBlock
 62
     0
100
AcDbLine
 10
-1.0
 20
0.1666666666666666
 30
0.0
 11
0.0
 21
0.0
 31
0.0
  0
LINE
  5
DEAF
330
DEAC
100
AcDbEntity
  8
0
  6
ByBlock
 62
     0
100
AcDbLine
 10
0.0
 20
0.0
 30
0.0
 11
-1.0
 21
-0.1666666666666666
 31
0.0
  0
LINE
  5
DEB0
330
DEAC
100
AcDbEntity
  8
0
  6
ByBlock
 62
     0
100
AcDbLine
 10
0.0
 20
0.0
 30
0.0
 11
-1.0
 21
0.0
 31
0.0
  0
ENDBLK
  5
DEB1
330
DEAC
100
AcDbEntity
  8
0
100
AcDbBlockEnd
  0
BLOCK
  5
F771
330
F770
100
AcDbEntity
  8
0
 48
50.0
100
AcDbBlockBegin
  2
_DOTSMALL
 70
     0
 10
0.0
 20
0.0
 30
0.0
  3
_DOTSMALL
  1

  0
LWPOLYLINE
  5
F772
330
F770
100
AcDbEntity
  8
0
  6
ByBlock
 62
     0
 48
50.0
100
AcDbPolyline
 90
        2
 70
     1
 43
0.5
 10
-0.0625
 20
0.0
 42
1.0
 10
0.0625
 20
0.0
 42
1.0
  0
ENDBLK
  5
F776
330
F770
100
AcDbEntity
  8
0
 48
50.0
100
AcDbBlockEnd
  0
BLOCK
  5
164BA
330
164B4
100
AcDbEntity
  8
0
 48
50.0
100
AcDbBlockBegin
  2
_DOT
 70
     0
 10
0.0
 20
0.0
 30
0.0
  3
_DOT
  1

  0
LWPOLYLINE
  5
164B5
330
164B4
100
AcDbEntity
  8
0
  6
ByBlock
 62
     0
 48
50.0
100
AcDbPolyline
 90
        2
 70
     1
 43
0.5
 10
-0.25
 20
0.0
 42
1.0
 10
0.25
 20
0.0
 42
1.0
  0
LINE
  5
164B9
330
164B4
100
AcDbEntity
  8
0
  6
ByBlock
 62
     0
 48
50.0
100
AcDbLine
 10
-0.5
 20
0.0
 30
0.0
 11
-1.0
 21
0.0
 31
0.0
  0
ENDBLK
  5
164BB
330
164B4
100
AcDbEntity
  8
0
 48
50.0
100
AcDbBlockEnd
  0
BLOCK
  5
18BC9
330
18BC8
100
AcDbEntity
  8
0
 48
50.0
100
AcDbBlockBegin
  2
*D3
 70
     1
 10
0.0
 20
0.0
 30
0.0
  3
*D3
  1

  0
LINE
  5
18BCA
330
18BC8
100
AcDbEntity
  8
寸法
 62
     0
 48
50.0
370
    -2
100
AcDbLine
 10
7649.896575106999
 20
9636.123139034717
 30
0.0
 11
8702.429862581047
 21
9636.123139034717
 31
0.0
  0
LINE
  5
18BCB
330
18BC8
100
AcDbEntity
  8
寸法
 62
     0
 48
50.0
370
    -2
100
AcDbLine
 10
7649.896575106973
 20
7846.123139034709
 30
0.0
 11
8702.429862581047
 21
7846.123139034709
 31
0.0
  0
LINE
  5
18BCC
330
18BC8
100
AcDbEntity
  8
寸法
 62
     0
 48
50.0
370
    -2
100
AcDbLine
 10
8642.429862581046
 20
9636.123139034717
 30
0.0
 11
8642.429862581046
 21
7846.123139034709
 31
0.0
  0
INSERT
  5
18BCD
330
18BC8
100
AcDbEntity
  8
寸法
 62
     0
 48
50.0
370
    -2
100
AcDbBlockReference
  2
_DOTSMALL
 10
8642.429862581046
 20
9636.123139034717
 30
0.0
 41
100.0
 42
100.0
 43
100.0
 50
90.0
  0
INSERT
  5
18BCE
330
18BC8
100
AcDbEntity
  8
寸法
 62
     0
 48
50.0
370
    -2
100
AcDbBlockReference
  2
_DOTSMALL
 10
8642.429862581046
 20
7846.123139034709
 30
0.0
 41
100.0
 42
100.0
 43
100.0
 50
270.0
  0
MTEXT
  5
18BCF
330
18BC8
100
AcDbEntity
  8
寸法
 62
     7
 48
50.0
100
AcDbMText
 10
8542.429862581045
 20
8741.123139034712
 30
0.0
 40
120.0
 41
0.0
 71
     5
 72
     1
  1
\A1;1790
  7
STYLE1
 11
0.0000000000000001
 21
1.0
 31
0.0
 73
     1
 44
1.0
1001
ACAD
1000
MTEXTBEGIN
1070
    73
1070
     1
1070
    44
1040
1.0
1070
    74
1070
     0
1000
MTEXTEND
  0
POINT
  5
18BD0
330
18BC8
100
AcDbEntity
  8
DEFPOINTS
 62
     0
 48
50.0
100
AcDbPoint
 10
7629.896575106998
 20
9636.123139034717
 30
0.0
  0
POINT
  5
18BD1
330
18BC8
100
AcDbEntity
  8
DEFPOINTS
 62
     0
 48
50.0
100
AcDbPoint
 10
7629.896575106974
 20
7846.123139034709
 30
0.0
  0
POINT
  5
18BD2
330
18BC8
100
AcDbEntity
  8
DEFPOINTS
 62
     0
 48
50.0
100
AcDbPoint
 10
8642.429862581046
 20
7846.123139034709
 30
0.0
  0
ENDBLK
  5
18BD3
330
18BC8
100
AcDbEntity
  8
0
 48
50.0
100
AcDbBlockEnd
  0
BLOCK
  5
18BD5
330
18BD4
100
AcDbEntity
  8
0
 48
50.0
100
AcDbBlockBegin
  2
*D4
 70
     1
 10
0.0
 20
0.0
 30
0.0
  3
*D4
  1

  0
LINE
  5
18BD6
330
18BD4
100
AcDbEntity
  8
寸法
 62
     0
 48
50.0
370
    -2
100
AcDbLine
 10
4214.896575106998
 20
9656.123139034622
 30
0.0
 11
4214.896575106998
 21
10211.93135865972
 31
0.0
  0
LINE
  5
18BD7
330
18BD4
100
AcDbEntity
  8
寸法
 62
     0
 48
50.0
370
    -2
100
AcDbLine
 10
7574.896575106999
 20
9656.123139034718
 30
0.0
 11
7574.896575106999
 21
10211.93135865972
 31
0.0
  0
LINE
  5
18BD8
330
18BD4
100
AcDbEntity
  8
寸法
 62
     0
 48
50.0
370
    -2
100
AcDbLine
 10
4214.896575106998
 20
10151.93135865972
 30
0.0
 11
7574.896575106999
 21
10151.93135865972
 31
0.0
  0
INSERT
  5
18BD9
330
18BD4
100
AcDbEntity
  8
寸法
 62
     0
 48
50.0
370
    -2
100
AcDbBlockReference
  2
_DOTSMALL
 10
4214.896575106998
 20
10151.93135865972
 30
0.0
 41
100.0
 42
100.0
 43
100.0
 50
180.0
  0
INSERT
  5
18BDA
330
18BD4
100
AcDbEntity
  8
寸法
 62
     0
 48
50.0
370
    -2
100
AcDbBlockReference
  2
_DOTSMALL
 10
7574.896575106999
 20
10151.93135865972
 30
0.0
 41
100.0
 42
100.0
 43
100.0
  0
MTEXT
  5
18BDB
330
18BD4
100
AcDbEntity
  8
寸法
 62
     7
 48
50.0
100
AcDbMText
 10
5894.896575106997
 20
10251.94316968334
 30
0.0
 40
120.0
 41
0.0
 71
     5
 72
     1
  1
\A1;8X420=3360
  7
STYLE1
 73
     1
 44
1.0
1001
ACAD
1000
MTEXTBEGIN
1070
    73
1070
     1
1070
    44
1040
1.0
1070
    74
1070
     0
1000
MTEXTEND
  0
POINT
  5
18BDC
330
18BD4
100
AcDbEntity
  8
DEFPOINTS
 62
     0
 48
50.0
100
AcDbPoint
 10
4214.896575106998
 20
9636.123139034623
 30
0.0
  0
POINT
  5
18BDD
330
18BD4
100
AcDbEntity
  8
DEFPOINTS
 62
     0
 48
50.0
100
AcDbPoint
 10
7574.896575106999
 20
9636.123139034717
 30
0.0
  0
POINT
  5
18BDE
330
18BD4
100
AcDbEntity
  8
DEFPOINTS
 62
     0
 48
50.0
100
AcDbPoint
 10
7574.896575106999
 20
10151.93135865972
 30
0.0
  0
ENDBLK
  5
18BDF
330
18BD4
100
AcDbEntity
  8
0
 48
50.0
100
AcDbBlockEnd
  0
BLOCK
  5
18BE1
330
18BE0
100
AcDbEntity
  8
0
 48
50.0
100
AcDbBlockBegin
  2
*D5
 70
     1
 10
0.0
 20
0.0
 30
0.0
  3
*D5
  1

  0
LINE
  5
18BE2
330
18BE0
100
AcDbEntity
  8
寸法
 62
     0
 48
50.0
370
    -2
100
AcDbLine
 10
7574.896575106999
 20
9656.123139034718
 30
0.0
 11
7574.896575106999
 21
10211.9313586597
 31
0.0
  0
LINE
  5
18BE3
330
18BE0
100
AcDbEntity
  8
寸法
 62
     0
 48
50.0
370
    -2
100
AcDbLine
 10
7629.896575106998
 20
9656.123139034718
 30
0.0
 11
7629.896575106998
 21
10211.9313586597
 31
0.0
  0
LINE
  5
18BE4
330
18BE0
100
AcDbEntity
  8
寸法
 62
     0
 48
50.0
370
    -2
100
AcDbLine
 10
7574.896575106999
 20
10151.9313586597
 30
0.0
 11
7474.896575106999
 21
10151.9313586597
 31
0.0
  0
LINE
  5
18BE5
330
18BE0
100
AcDbEntity
  8
寸法
 62
     0
 48
50.0
370
    -2
100
AcDbLine
 10
7629.896575106998
 20
10151.9313586597
 30
0.0
 11
8046.867137855477
 21
10151.9313586597
 31
0.0
  0
LINE
  5
18BE6
330
18BE0
100
AcDbEntity
  8
寸法
 62
     0
 48
50.0
370
    -2
100
AcDbLine
 10
7574.896575106999
 20
10151.9313586597
 30
0.0
 11
7629.896575106998
 21
10151.9313586597
 31
0.0
  0
INSERT
  5
18BE7
330
18BE0
100
AcDbEntity
  8
寸法
 62
     0
 48
50.0
370
    -2
100
AcDbBlockReference
  2
_DOTSMALL
 10
7574.896575106999
 20
10151.9313586597
 30
0.0
 41
100.0
 42
100.0
 43
100.0
  0
INSERT
  5
18BE8
330
18BE0
100
AcDbEntity
  8
寸法
 62
     0
 48
50.0
370
    -2
100
AcDbBlockReference
  2
_DOTSMALL
 10
7629.896575106998
 20
10151.9313586597
 30
0.0
 41
100.0
 42
100.0
 43
100.0
 50
180.0
  0
MTEXT
  5
18BE9
330
18BE0
100
AcDbEntity
  8
寸法
 62
     7
 48
50.0
100
AcDbMText
 10
7938.381856481237
 20
10251.9313586597
 30
0.0
 40
120.0
 41
0.0
 71
     5
 72
     1
  1
\A1;55
  7
STYLE1
 73
     1
 44
1.0
1001
ACAD
1000
MTEXTBEGIN
1070
    73
1070
     1
1070
    44
1040
1.0
1070
    74
1070
     0
1000
MTEXTEND
  0
POINT
  5
18BEA
330
18BE0
100
AcDbEntity
  8
DEFPOINTS
 62
     0
 48
50.0
100
AcDbPoint
 10
7574.896575106999
 20
9636.123139034717
 30
0.0
  0
POINT
  5
18BEB
330
18BE0
100
AcDbEntity
  8
DEFPOINTS
 62
     0
 48
50.0
100
AcDbPoint
 10
7629.896575106998
 20
9636.123139034717
 30
0.0
  0
POINT
  5
18BEC
330
18BE0
100
AcDbEntity
  8
DEFPOINTS
 62
     0
 48
50.0
100
AcDbPoint
 10
7629.896575106998
 20
10151.9313586597
 30
0.0
  0
ENDBLK
  5
18BED
330
18BE0
100
AcDbEntity
  8
0
 48
50.0
100
AcDbBlockEnd
  0
BLOCK
  5
18BEF
330
18BEE
100
AcDbEntity
  8
0
 48
50.0
100
AcDbBlockBegin
  2
*D6
 70
     1
 10
0.0
 20
0.0
 30
0.0
  3
*D6
  1

  0
LINE
  5
18BF0
330
18BEE
100
AcDbEntity
  8
寸法
 62
     0
 48
50.0
370
    -2
100
AcDbLine
 10
7649.896575106999
 20
9636.123139034717
 30
0.0
 11
8337.32292084141
 21
9636.123139034717
 31
0.0
  0
LINE
  5
18BF1
330
18BEE
100
AcDbEntity
  8
寸法
 62
     0
 48
50.0
370
    -2
100
AcDbLine
 10
7649.896575106999
 20
9581.123139034721
 30
0.0
 11
8337.32292084141
 21
9581.123139034721
 31
0.0
  0
LINE
  5
18BF2
330
18BEE
100
AcDbEntity
  8
寸法
 62
     0
 48
50.0
370
    -2
100
AcDbLine
 10
8277.322920841411
 20
9581.123139034721
 30
0.0
 11
8277.322920841411
 21
9481.123139034719
 31
0.0
  0
LINE
  5
18BF3
330
18BEE
100
AcDbEntity
  8
寸法
 62
     0
 48
50.0
370
    -2
100
AcDbLine
 10
8277.322920841411
 20
9636.123139034717
 30
0.0
 11
8277.322920841411
 21
10053.09370178319
 31
0.0
  0
LINE
  5
18BF4
330
18BEE
100
AcDbEntity
  8
寸法
 62
     0
 48
50.0
370
    -2
100
AcDbLine
 10
8277.322920841411
 20
9581.123139034721
 30
0.0
 11
8277.322920841411
 21
9636.123139034717
 31
0.0
  0
INSERT
  5
18BF5
330
18BEE
100
AcDbEntity
  8
寸法
 62
     0
 48
50.0
370
    -2
100
AcDbBlockReference
  2
_DOTSMALL
 10
8277.322920841411
 20
9581.123139034721
 30
0.0
 41
100.0
 42
100.0
 43
100.0
 50
90.0
  0
INSERT
  5
18BF6
330
18BEE
100
AcDbEntity
  8
寸法
 62
     0
 48
50.0
370
    -2
100
AcDbBlockReference
  2
_DOTSMALL
 10
8277.322920841411
 20
9636.123139034717
 30
0.0
 41
100.0
 42
100.0
 43
100.0
 50
270.0
  0
MTEXT
  5
18BF7
330
18BEE
100
AcDbEntity
  8
寸法
 62
     7
 48
50.0
100
AcDbMText
 10
8177.32292084141
 20
9944.608420408957
 30
0.0
 40
120.0
 41
0.0
 71
     5
 72
     1
  1
\A1;55
  7
STYLE1
 11
0.0000000000000001
 21
1.0
 31
0.0
 73
     1
 44
1.0
1001
ACAD
1000
MTEXTBEGIN
1070
    73
1070
     1
1070
    44
1040
1.0
1070
    74
1070
     0
1000
MTEXTEND
  0
POINT
  5
18BF8
330
18BEE
100
AcDbEntity
  8
DEFPOINTS
 62
     0
 48
50.0
100
AcDbPoint
 10
7629.896575106998
 20
9636.123139034717
 30
0.0
  0
POINT
  5
18BF9
330
18BEE
100
AcDbEntity
  8
DEFPOINTS
 62
     0
 48
50.0
100
AcDbPoint
 10
7629.896575106998
 20
9581.123139034721
 30
0.0
  0
POINT
  5
18BFA
330
18BEE
100
AcDbEntity
  8
DEFPOINTS
 62
     0
 48
50.0
100
AcDbPoint
 10
8277.322920841411
 20
9581.123139034721
 30
0.0
  0
ENDBLK
  5
18BFB
330
18BEE
100
AcDbEntity
  8
0
 48
50.0
100
AcDbBlockEnd
  0
BLOCK
  5
18BFD
330
18BFC
100
AcDbEntity
  8
0
 48
50.0
100
AcDbBlockBegin
  2
*D7
 70
     1
 10
0.0
 20
0.0
 30
0.0
  3
*D7
  1

  0
LINE
  5
18BFE
330
18BFC
100
AcDbEntity
  8
寸法
 62
     0
 48
50.0
370
    -2
100
AcDbLine
 10
4159.896575106963
 20
9656.123139034622
 30
0.0
 11
4159.896575106963
 21
10211.9313586596
 31
0.0
  0
LINE
  5
18BFF
330
18BFC
100
AcDbEntity
  8
寸法
 62
     0
 48
50.0
370
    -2
100
AcDbLine
 10
4214.896575106998
 20
9656.123139034622
 30
0.0
 11
4214.896575106998
 21
10211.9313586596
 31
0.0
  0
LINE
  5
18C00
330
18BFC
100
AcDbEntity
  8
寸法
 62
     0
 48
50.0
370
    -2
100
AcDbLine
 10
4214.896575106998
 20
10151.9313586596
 30
0.0
 11
4314.896575106998
 21
10151.9313586596
 31
0.0
  0
LINE
  5
18C01
330
18BFC
100
AcDbEntity
  8
寸法
 62
     0
 48
50.0
370
    -2
100
AcDbLine
 10
4159.896575106963
 20
10151.9313586596
 30
0.0
 11
3742.926012358486
 21
10151.9313586596
 31
0.0
  0
LINE
  5
18C02
330
18BFC
100
AcDbEntity
  8
寸法
 62
     0
 48
50.0
370
    -2
100
AcDbLine
 10
4214.896575106998
 20
10151.9313586596
 30
0.0
 11
4159.896575106963
 21
10151.9313586596
 31
0.0
  0
INSERT
  5
18C03
330
18BFC
100
AcDbEntity
  8
寸法
 62
     0
 48
50.0
370
    -2
100
AcDbBlockReference
  2
_DOTSMALL
 10
4214.896575106998
 20
10151.9313586596
 30
0.0
 41
100.0
 42
100.0
 43
100.0
 50
180.0
  0
INSERT
  5
18C04
330
18BFC
100
AcDbEntity
  8
寸法
 62
     0
 48
50.0
370
    -2
100
AcDbBlockReference
  2
_DOTSMALL
 10
4159.896575106963
 20
10151.9313586596
 30
0.0
 41
100.0
 42
100.0
 43
100.0
  0
MTEXT
  5
18C05
330
18BFC
100
AcDbEntity
  8
寸法
 62
     7
 48
50.0
100
AcDbMText
 10
3851.411293732725
 20
10251.9313586596
 30
0.0
 40
120.0
 41
0.0
 71
     5
 72
     1
  1
\A1;55
  7
STYLE1
 73
     1
 44
1.0
1001
ACAD
1000
MTEXTBEGIN
1070
    73
1070
     1
1070
    44
1040
1.0
1070
    74
1070
     0
1000
MTEXTEND
  0
POINT
  5
18C06
330
18BFC
100
AcDbEntity
  8
DEFPOINTS
 62
     0
 48
50.0
100
AcDbPoint
 10
4159.896575106963
 20
9636.123139034623
 30
0.0
  0
POINT
  5
18C07
330
18BFC
100
AcDbEntity
  8
DEFPOINTS
 62
     0
 48
50.0
100
AcDbPoint
 10
4214.896575106998
 20
9636.123139034623
 30
0.0
  0
POINT
  5
18C08
330
18BFC
100
AcDbEntity
  8
DEFPOINTS
 62
     0
 48
50.0
100
AcDbPoint
 10
4214.896575106998
 20
10151.9313586596
 30
0.0
  0
ENDBLK
  5
18C09
330
18BFC
100
AcDbEntity
  8
0
 48
50.0
100
AcDbBlockEnd
  0
BLOCK
  5
18C0B
330
18C0A
100
AcDbEntity
  8
0
 48
50.0
100
AcDbBlockBegin
  2
*D8
 70
     1
 10
0.0
 20
0.0
 30
0.0
  3
*D8
  1

  0
LINE
  5
18C0C
330
18C0A
100
AcDbEntity
  8
寸法
 62
     0
 48
50.0
370
    -2
100
AcDbLine
 10
4159.896575106992
 20
7826.123139034546
 30
0.0
 11
4159.896575106992
 21
6804.372203245664
 31
0.0
  0
LINE
  5
18C0D
330
18C0A
100
AcDbEntity
  8
寸法
 62
     0
 48
50.0
370
    -2
100
AcDbLine
 10
7629.896575106974
 20
7826.123139034674
 30
0.0
 11
7629.896575106974
 21
6804.372203245664
 31
0.0
  0
LINE
  5
18C0E
330
18C0A
100
AcDbEntity
  8
寸法
 62
     0
 48
50.0
370
    -2
100
AcDbLine
 10
4159.896575106992
 20
6864.372203245665
 30
0.0
 11
7629.896575106974
 21
6864.372203245665
 31
0.0
  0
INSERT
  5
18C0F
330
18C0A
100
AcDbEntity
  8
寸法
 62
     0
 48
50.0
370
    -2
100
AcDbBlockReference
  2
_DOTSMALL
 10
4159.896575106992
 20
6864.372203245665
 30
0.0
 41
100.0
 42
100.0
 43
100.0
 50
180.0
  0
INSERT
  5
18C10
330
18C0A
100
AcDbEntity
  8
寸法
 62
     0
 48
50.0
370
    -2
100
AcDbBlockReference
  2
_DOTSMALL
 10
7629.896575106974
 20
6864.372203245665
 30
0.0
 41
100.0
 42
100.0
 43
100.0
  0
MTEXT
  5
18C11
330
18C0A
100
AcDbEntity
  8
寸法
 62
     7
 48
50.0
100
AcDbMText
 10
5911.12376113973
 20
6964.372203245665
 30
0.0
 40
120.0
 41
0.0
 71
     5
 72
     1
  1
\A1;3470
  7
STYLE1
 73
     1
 44
1.0
1001
ACAD
1000
MTEXTBEGIN
1070
    73
1070
     1
1070
    44
1040
1.0
1070
    74
1070
     0
1000
MTEXTEND
  0
POINT
  5
18C12
330
18C0A
100
AcDbEntity
  8
DEFPOINTS
 62
     0
 48
50.0
100
AcDbPoint
 10
4159.896575106992
 20
7846.123139034546
 30
0.0
  0
POINT
  5
18C13
330
18C0A
100
AcDbEntity
  8
DEFPOINTS
 62
     0
 48
50.0
100
AcDbPoint
 10
7629.896575106974
 20
7846.123139034673
 30
0.0
  0
POINT
  5
18C14
330
18C0A
100
AcDbEntity
  8
DEFPOINTS
 62
     0
 48
50.0
100
AcDbPoint
 10
7629.896575106974
 20
6864.372203245665
 30
0.0
  0
ENDBLK
  5
18C15
330
18C0A
100
AcDbEntity
  8
0
 48
50.0
100
AcDbBlockEnd
  0
BLOCK
  5
18C17
330
18C16
100
AcDbEntity
  8
0
 48
50.0
100
AcDbBlockBegin
  2
*D9
 70
     1
 10
0.0
 20
0.0
 30
0.0
  3
*D9
  1

  0
LINE
  5
18C18
330
18C16
100
AcDbEntity
  8
寸法
 62
     0
 48
50.0
370
    -2
100
AcDbLine
 10
7649.896575106973
 20
7901.123139034706
 30
0.0
 11
8337.322920841385
 21
7901.123139034706
 31
0.0
  0
LINE
  5
18C19
330
18C16
100
AcDbEntity
  8
寸法
 62
     0
 48
50.0
370
    -2
100
AcDbLine
 10
7649.896575106973
 20
7846.123139034709
 30
0.0
 11
8337.322920841385
 21
7846.123139034709
 31
0.0
  0
LINE
  5
18C1A
330
18C16
100
AcDbEntity
  8
寸法
 62
     0
 48
50.0
370
    -2
100
AcDbLine
 10
8277.322920841385
 20
7901.123139034706
 30
0.0
 11
8277.322920841385
 21
8001.123139034707
 31
0.0
  0
LINE
  5
18C1B
330
18C16
100
AcDbEntity
  8
寸法
 62
     0
 48
50.0
370
    -2
100
AcDbLine
 10
8277.322920841385
 20
7846.123139034709
 30
0.0
 11
8277.322920841385
 21
7429.152576286229
 31
0.0
  0
LINE
  5
18C1C
330
18C16
100
AcDbEntity
  8
寸法
 62
     0
 48
50.0
370
    -2
100
AcDbLine
 10
8277.322920841385
 20
7901.123139034706
 30
0.0
 11
8277.322920841385
 21
7846.123139034709
 31
0.0
  0
INSERT
  5
18C1D
330
18C16
100
AcDbEntity
  8
寸法
 62
     0
 48
50.0
370
    -2
100
AcDbBlockReference
  2
_DOTSMALL
 10
8277.322920841385
 20
7901.123139034706
 30
0.0
 41
100.0
 42
100.0
 43
100.0
 50
270.0
  0
INSERT
  5
18C1E
330
18C16
100
AcDbEntity
  8
寸法
 62
     0
 48
50.0
370
    -2
100
AcDbBlockReference
  2
_DOTSMALL
 10
8277.322920841385
 20
7846.123139034709
 30
0.0
 41
100.0
 42
100.0
 43
100.0
 50
90.0
  0
MTEXT
  5
18C1F
330
18C16
100
AcDbEntity
  8
寸法
 62
     7
 48
50.0
100
AcDbMText
 10
8177.322920841383
 20
7537.637857660469
 30
0.0
 40
120.0
 41
0.0
 71
     5
 72
     1
  1
\A1;55
  7
STYLE1
 11
0.0000000000000001
 21
1.0
 31
0.0
 73
     1
 44
1.0
1001
ACAD
1000
MTEXTBEGIN
1070
    73
1070
     1
1070
    44
1040
1.0
1070
    74
1070
     0
1000
MTEXTEND
  0
POINT
  5
18C20
330
18C16
100
AcDbEntity
  8
DEFPOINTS
 62
     0
 48
50.0
100
AcDbPoint
 10
7629.896575106974
 20
7901.123139034706
 30
0.0
  0
POINT
  5
18C21
330
18C16
100
AcDbEntity
  8
DEFPOINTS
 62
     0
 48
50.0
100
AcDbPoint
 10
7629.896575106974
 20
7846.123139034709
 30
0.0
  0
POINT
  5
18C22
330
18C16
100
AcDbEntity
  8
DEFPOINTS
 62
     0
 48
50.0
100
AcDbPoint
 10
8277.322920841385
 20
7846.123139034709
 30
0.0
  0
ENDBLK
  5
18C23
330
18C16
100
AcDbEntity
  8
0
 48
50.0
100
AcDbBlockEnd
  0
BLOCK
  5
18C25
330
18C24
100
AcDbEntity
  8
0
 48
50.0
100
AcDbBlockBegin
  2
*D10
 70
     1
 10
0.0
 20
0.0
 30
0.0
  3
*D10
  1

  0
LINE
  5
18C26
330
18C24
100
AcDbEntity
  8
寸法
 62
     0
 48
50.0
370
    -2
100
AcDbLine
 10
6533.037591258376
 20
9136.123139034728
 30
0.0
 11
6465.083950562664
 21
8882.516699399049
 31
0.0
  0
LINE
  5
18C27
330
18C24
100
AcDbEntity
  8
寸法
 62
     0
 48
50.0
370
    -2
100
AcDbLine
 10
7596.037591258388
 20
9136.123139034721
 30
0.0
 11
7528.083950562677
 21
8882.516699399049
 31
0.0
  0
LINE
  5
18C28
330
18C24
100
AcDbEntity
  8
寸法
 62
     0
 48
50.0
370
    -2
100
AcDbLine
 10
6481.160902108531
 20
8942.51669939905
 30
0.0
 11
7544.160902108544
 21
8942.51669939905
 31
0.0
  0
INSERT
  5
18C29
330
18C24
100
AcDbEntity
  8
寸法
 62
     0
 48
50.0
370
    -2
100
AcDbBlockReference
  2
_DOTSMALL
 10
6481.160902108531
 20
8942.51669939905
 30
0.0
 41
100.0
 42
100.0
 43
100.0
 50
180.0
  0
INSERT
  5
18C2A
330
18C24
100
AcDbEntity
  8
寸法
 62
     0
 48
50.0
370
    -2
100
AcDbBlockReference
  2
_DOTSMALL
 10
7544.160902108544
 20
8942.51669939905
 30
0.0
 41
100.0
 42
100.0
 43
100.0
  0
MTEXT
  5
18C2B
330
18C24
100
AcDbEntity
  8
寸法
 62
     7
 48
50.0
100
AcDbMText
 10
7061.28653022935
 20
9042.516699399049
 30
0.0
 40
120.0
 41
0.0
 71
     5
 72
     1
  1
\A1;1063
  7
STYLE1
 73
     1
 44
1.0
1001
ACAD
1000
MTEXTBEGIN
1070
    73
1070
     1
1070
    44
1040
1.0
1070
    74
1070
     0
1000
MTEXTEND
  0
POINT
  5
18C2C
330
18C24
100
AcDbEntity
  8
DEFPOINTS
 62
     0
 48
50.0
100
AcDbPoint
 10
6538.396575106998
 20
9156.123139034727
 30
0.0
  0
POINT
  5
18C2D
330
18C24
100
AcDbEntity
  8
DEFPOINTS
 62
     0
 48
50.0
100
AcDbPoint
 10
7601.39657510701
 20
9156.12313903472
 30
0.0
  0
POINT
  5
18C2E
330
18C24
100
AcDbEntity
  8
DEFPOINTS
 62
     0
 48
50.0
100
AcDbPoint
 10
7544.160902108544
 20
8942.51669939905
 30
0.0
  0
ENDBLK
  5
18C2F
330
18C24
100
AcDbEntity
  8
0
 48
50.0
100
AcDbBlockEnd
  0
BLOCK
  5
18C31
330
18C30
100
AcDbEntity
  8
0
 48
50.0
100
AcDbBlockBegin
  2
*D11
 70
     1
 10
0.0
 20
0.0
 30
0.0
  3
*D11
  1

  0
LINE
  5
18C32
330
18C30
100
AcDbEntity
  8
寸法
 62
     0
 48
50.0
370
    -2
100
AcDbLine
 10
7621.396575106999
 20
9600.764155186094
 30
0.0
 11
8016.754300969024
 21
9494.828371819961
 31
0.0
  0
LINE
  5
18C33
330
18C30
100
AcDbEntity
  8
寸法
 62
     0
 48
50.0
370
    -2
100
AcDbLine
 10
7621.396575106999
 20
9150.764155186099
 30
0.0
 11
8016.754300969024
 21
9044.828371819964
 31
0.0
  0
LINE
  5
18C34
330
18C30
100
AcDbEntity
  8
寸法
 62
     0
 48
50.0
370
    -2
100
AcDbLine
 10
7956.754300969024
 20
9510.905323365827
 30
0.0
 11
7956.754300969024
 21
9060.90532336583
 31
0.0
  0
INSERT
  5
18C35
330
18C30
100
AcDbEntity
  8
寸法
 62
     0
 48
50.0
370
    -2
100
AcDbBlockReference
  2
_DOTSMALL
 10
7956.754300969024
 20
9510.905323365827
 30
0.0
 41
100.0
 42
100.0
 43
100.0
 50
90.0
  0
INSERT
  5
18C36
330
18C30
100
AcDbEntity
  8
寸法
 62
     0
 48
50.0
370
    -2
100
AcDbBlockReference
  2
_DOTSMALL
 10
7956.754300969024
 20
9060.90532336583
 30
0.0
 41
100.0
 42
100.0
 43
100.0
 50
270.0
  0
MTEXT
  5
18C37
330
18C30
100
AcDbEntity
  8
寸法
 62
     7
 48
50.0
100
AcDbMText
 10
7856.754300969022
 20
9285.905323365829
 30
0.0
 40
120.0
 41
0.0
 71
     5
 72
     1
  1
\A1;450
  7
STYLE1
 11
0.0000000000000001
 21
1.0
 31
0.0
 73
     1
 44
1.0
1001
ACAD
1000
MTEXTBEGIN
1070
    73
1070
     1
1070
    44
1040
1.0
1070
    74
1070
     0
1000
MTEXTEND
  0
POINT
  5
18C38
330
18C30
100
AcDbEntity
  8
DEFPOINTS
 62
     0
 48
50.0
100
AcDbPoint
 10
7601.396575106999
 20
9606.123139034718
 30
0.0
  0
POINT
  5
18C39
330
18C30
100
AcDbEntity
  8
DEFPOINTS
 62
     0
 48
50.0
100
AcDbPoint
 10
7601.396575106999
 20
9156.12313903472
 30
0.0
  0
POINT
  5
18C3A
330
18C30
100
AcDbEntity
  8
DEFPOINTS
 62
     0
 48
50.0
100
AcDbPoint
 10
7956.754300969024
 20
9060.90532336583
 30
0.0
  0
ENDBLK
  5
18C3B
330
18C30
100
AcDbEntity
  8
0
 48
50.0
100
AcDbBlockEnd
  0
BLOCK
  5
18C3D
330
18C3C
100
AcDbEntity
  8
0
 48
50.0
100
AcDbBlockBegin
  2
*D12
 70
     1
 10
0.0
 20
0.0
 30
0.0
  3
*D12
  1

  0
LINE
  5
18C3E
330
18C3C
100
AcDbEntity
  8
寸法
 62
     0
 48
50.0
370
    -2
100
AcDbLine
 10
7649.896575106999
 20
9581.123139034721
 30
0.0
 11
8337.32292084141
 21
9581.123139034721
 31
0.0
  0
LINE
  5
18C3F
330
18C3C
100
AcDbEntity
  8
寸法
 62
     0
 48
50.0
370
    -2
100
AcDbLine
 10
7649.896575106973
 20
7901.123139034706
 30
0.0
 11
8337.32292084141
 21
7901.123139034706
 31
0.0
  0
LINE
  5
18C40
330
18C3C
100
AcDbEntity
  8
寸法
 62
     0
 48
50.0
370
    -2
100
AcDbLine
 10
8277.322920841411
 20
9581.123139034721
 30
0.0
 11
8277.322920841411
 21
7901.123139034706
 31
0.0
  0
INSERT
  5
18C41
330
18C3C
100
AcDbEntity
  8
寸法
 62
     0
 48
50.0
370
    -2
100
AcDbBlockReference
  2
_DOTSMALL
 10
8277.322920841411
 20
9581.123139034721
 30
0.0
 41
100.0
 42
100.0
 43
100.0
 50
90.0
  0
INSERT
  5
18C42
330
18C3C
100
AcDbEntity
  8
寸法
 62
     0
 48
50.0
370
    -2
100
AcDbBlockReference
  2
_DOTSMALL
 10
8277.322920841411
 20
7901.123139034706
 30
0.0
 41
100.0
 42
100.0
 43
100.0
 50
270.0
  0
MTEXT
  5
18C43
330
18C3C
100
AcDbEntity
  8
寸法
 62
     7
 48
50.0
100
AcDbMText
 10
8177.311109817788
 20
8741.123139034712
 30
0.0
 40
120.0
 41
0.0
 71
     5
 72
     1
  1
\A1;4X420=1680
  7
STYLE1
 11
0.0000000000000001
 21
1.0
 31
0.0
 73
     1
 44
1.0
1001
ACAD
1000
MTEXTBEGIN
1070
    73
1070
     1
1070
    44
1040
1.0
1070
    74
1070
     0
1000
MTEXTEND
  0
POINT
  5
18C44
330
18C3C
100
AcDbEntity
  8
DEFPOINTS
 62
     0
 48
50.0
100
AcDbPoint
 10
7629.896575106998
 20
9581.123139034721
 30
0.0
  0
POINT
  5
18C45
330
18C3C
100
AcDbEntity
  8
DEFPOINTS
 62
     0
 48
50.0
100
AcDbPoint
 10
7629.896575106974
 20
7901.123139034706
 30
0.0
  0
POINT
  5
18C46
330
18C3C
100
AcDbEntity
  8
DEFPOINTS
 62
     0
 48
50.0
100
AcDbPoint
 10
8277.322920841411
 20
7901.123139034706
 30
0.0
  0
ENDBLK
  5
18C47
330
18C3C
100
AcDbEntity
  8
0
 48
50.0
100
AcDbBlockEnd
  0
BLOCK
  5
18C49
330
18C48
100
AcDbEntity
  8
0
 48
50.0
100
AcDbBlockBegin
  2
*D13
 70
     1
 10
0.0
 20
0.0
 30
0.0
  3
*D13
  1

  0
LINE
  5
18C4A
330
18C48
100
AcDbEntity
  8
寸法
 62
     0
 48
50.0
370
    -2
100
AcDbLine
 10
4183.037591258377
 20
9136.123139034619
 30
0.0
 11
4115.083950562663
 21
8882.516699398941
 31
0.0
  0
LINE
  5
18C4B
330
18C48
100
AcDbEntity
  8
寸法
 62
     0
 48
50.0
370
    -2
100
AcDbLine
 10
5246.037591258307
 20
9136.123139034671
 30
0.0
 11
5178.08395056258
 21
8882.516699398941
 31
0.0
  0
LINE
  5
18C4C
330
18C48
100
AcDbEntity
  8
寸法
 62
     0
 48
50.0
370
    -2
100
AcDbLine
 10
4131.160902108532
 20
8942.516699398941
 30
0.0
 11
5194.160902108448
 21
8942.516699398941
 31
0.0
  0
INSERT
  5
18C4D
330
18C48
100
AcDbEntity
  8
寸法
 62
     0
 48
50.0
370
    -2
100
AcDbBlockReference
  2
_DOTSMALL
 10
4131.160902108532
 20
8942.516699398941
 30
0.0
 41
100.0
 42
100.0
 43
100.0
 50
180.0
  0
INSERT
  5
18C4E
330
18C48
100
AcDbEntity
  8
寸法
 62
     0
 48
50.0
370
    -2
100
AcDbBlockReference
  2
_DOTSMALL
 10
5194.160902108448
 20
8942.516699398941
 30
0.0
 41
100.0
 42
100.0
 43
100.0
  0
MTEXT
  5
18C4F
330
18C48
100
AcDbEntity
  8
寸法
 62
     7
 48
50.0
100
AcDbMText
 10
4658.986452655306
 20
9042.516699398941
 30
0.0
 40
120.0
 41
0.0
 71
     5
 72
     1
  1
\A1;1063
  7
STYLE1
 73
     1
 44
1.0
1001
ACAD
1000
MTEXTBEGIN
1070
    73
1070
     1
1070
    44
1040
1.0
1070
    74
1070
     0
1000
MTEXTEND
  0
POINT
  5
18C50
330
18C48
100
AcDbEntity
  8
DEFPOINTS
 62
     0
 48
50.0
100
AcDbPoint
 10
4188.396575106999
 20
9156.123139034617
 30
0.0
  0
POINT
  5
18C51
330
18C48
100
AcDbEntity
  8
DEFPOINTS
 62
     0
 48
50.0
100
AcDbPoint
 10
5251.396575106929
 20
9156.123139034672
 30
0.0
  0
POINT
  5
18C52
330
18C48
100
AcDbEntity
  8
DEFPOINTS
 62
     0
 48
50.0
100
AcDbPoint
 10
5194.160902108448
 20
8942.516699398941
 30
0.0
  0
ENDBLK
  5
18C53
330
18C48
100
AcDbEntity
  8
0
 48
50.0
100
AcDbBlockEnd
  0
BLOCK
  5
18C55
330
18C54
100
AcDbEntity
  8
0
 48
50.0
100
AcDbBlockBegin
  2
*D14
 70
     1
 10
0.0
 20
0.0
 30
0.0
  3
*D14
  1

  0
LINE
  5
18C56
330
18C54
100
AcDbEntity
  8
寸法
 62
     0
 48
50.0
370
    -2
100
AcDbLine
 10
5274.037591258307
 20
9136.123139034669
 30
0.0
 11
5206.08395056258
 21
8882.516699398941
 31
0.0
  0
LINE
  5
18C57
330
18C54
100
AcDbEntity
  8
寸法
 62
     0
 48
50.0
370
    -2
100
AcDbLine
 10
6505.037591258377
 20
9136.123139034662
 30
0.0
 11
6437.083950562653
 21
8882.516699398941
 31
0.0
  0
LINE
  5
18C58
330
18C54
100
AcDbEntity
  8
寸法
 62
     0
 48
50.0
370
    -2
100
AcDbLine
 10
5222.160902108448
 20
8942.516699398941
 30
0.0
 11
6453.16090210852
 21
8942.516699398941
 31
0.0
  0
INSERT
  5
18C59
330
18C54
100
AcDbEntity
  8
寸法
 62
     0
 48
50.0
370
    -2
100
AcDbBlockReference
  2
_DOTSMALL
 10
5222.160902108448
 20
8942.516699398941
 30
0.0
 41
100.0
 42
100.0
 43
100.0
 50
180.0
  0
INSERT
  5
18C5A
330
18C54
100
AcDbEntity
  8
寸法
 62
     0
 48
50.0
370
    -2
100
AcDbBlockReference
  2
_DOTSMALL
 10
6453.16090210852
 20
8942.516699398941
 30
0.0
 41
100.0
 42
100.0
 43
100.0
  0
MTEXT
  5
18C5B
330
18C54
100
AcDbEntity
  8
寸法
 62
     7
 48
50.0
100
AcDbMText
 10
6081.244808320626
 20
9042.528510422561
 30
0.0
 40
120.0
 41
0.0
 71
     5
 72
     1
  1
\A1;1231
  7
STYLE1
 73
     1
 44
1.0
1001
ACAD
1000
MTEXTBEGIN
1070
    73
1070
     1
1070
    44
1040
1.0
1070
    74
1070
     0
1000
MTEXTEND
  0
POINT
  5
18C5C
330
18C54
100
AcDbEntity
  8
DEFPOINTS
 62
     0
 48
50.0
100
AcDbPoint
 10
5279.396575106929
 20
9156.123139034669
 30
0.0
  0
POINT
  5
18C5D
330
18C54
100
AcDbEntity
  8
DEFPOINTS
 62
     0
 48
50.0
100
AcDbPoint
 10
6510.396575106999
 20
9156.123139034662
 30
0.0
  0
POINT
  5
18C5E
330
18C54
100
AcDbEntity
  8
DEFPOINTS
 62
     0
 48
50.0
100
AcDbPoint
 10
6453.16090210852
 20
8942.516699398941
 30
0.0
  0
ENDBLK
  5
18C5F
330
18C54
100
AcDbEntity
  8
0
 48
50.0
100
AcDbBlockEnd
  0
BLOCK
  5
18C61
330
18C60
100
AcDbEntity
  8
0
 48
50.0
100
AcDbBlockBegin
  2
*D15
 70
     1
 10
0.0
 20
0.0
 30
0.0
  3
*D15
  1

  0
LINE
  5
18C62
330
18C60
100
AcDbEntity
  8
寸法
 62
     0
 48
50.0
370
    -2
100
AcDbLine
 10
5065.896575106966
 20
7749.123139034579
 30
0.0
 11
5065.896575106966
 21
7099.952920982538
 31
0.0
  0
LINE
  5
18C63
330
18C60
100
AcDbEntity
  8
寸法
 62
     0
 48
50.0
370
    -2
100
AcDbLine
 10
6331.896575106966
 20
7749.123139034579
 30
0.0
 11
6331.896575106966
 21
7099.952920982538
 31
0.0
  0
LINE
  5
18C64
330
18C60
100
AcDbEntity
  8
寸法
 62
     0
 48
50.0
370
    -2
100
AcDbLine
 10
5065.896575106966
 20
7159.952920982537
 30
0.0
 11
6331.896575106966
 21
7159.952920982537
 31
0.0
  0
INSERT
  5
18C65
330
18C60
100
AcDbEntity
  8
寸法
 62
     0
 48
50.0
370
    -2
100
AcDbBlockReference
  2
_DOTSMALL
 10
5065.896575106966
 20
7159.952920982537
 30
0.0
 41
100.0
 42
100.0
 43
100.0
 50
180.0
  0
INSERT
  5
18C66
330
18C60
100
AcDbEntity
  8
寸法
 62
     0
 48
50.0
370
    -2
100
AcDbBlockReference
  2
_DOTSMALL
 10
6331.896575106966
 20
7159.952920982537
 30
0.0
 41
100.0
 42
100.0
 43
100.0
  0
MTEXT
  5
18C67
330
18C60
100
AcDbEntity
  8
寸法
 62
     7
 48
50.0
100
AcDbMText
 10
5711.986008735934
 20
7359.964732006159
 30
0.0
 40
120.0
 41
0.0
 71
     5
 72
     1
  1
\A1;有効開口部間口\P1266
  7
STYLE1
 73
     1
 44
1.0
1001
ACAD
1000
MTEXTBEGIN
1070
    73
1070
     1
1070
    44
1040
1.0
1070
    74
1070
     0
1000
MTEXTEND
  0
POINT
  5
18C68
330
18C60
100
AcDbEntity
  8
DEFPOINTS
 62
     0
 48
50.0
100
AcDbPoint
 10
5065.896575106966
 20
7769.123139034579
 30
0.0
  0
POINT
  5
18C69
330
18C60
100
AcDbEntity
  8
DEFPOINTS
 62
     0
 48
50.0
100
AcDbPoint
 10
6331.896575106966
 20
7769.123139034579
 30
0.0
  0
POINT
  5
18C6A
330
18C60
100
AcDbEntity
  8
DEFPOINTS
 62
     0
 48
50.0
100
AcDbPoint
 10
6331.896575106966
 20
7159.952920982537
 30
0.0
  0
ENDBLK
  5
18C6B
330
18C60
100
AcDbEntity
  8
0
 48
50.0
100
AcDbBlockEnd
  0
BLOCK
  5
18C6D
330
18C6C
100
AcDbEntity
  8
0
 48
50.0
100
AcDbBlockBegin
  2
*D16
 70
     1
 10
0.0
 20
0.0
 30
0.0
  3
*D16
  1

  0
LINE
  5
18C6E
330
18C6C
100
AcDbEntity
  8
寸法
 62
     0
 48
50.0
370
    -2
100
AcDbLine
 10
7200.896575106966
 20
7846.123139034578
 30
0.0
 11
7457.192158500191
 21
7846.123139034578
 31
0.0
  0
LINE
  5
18C6F
330
18C6C
100
AcDbEntity
  8
寸法
 62
     0
 48
50.0
370
    -2
100
AcDbLine
 10
7199.896575106966
 20
7769.123139034579
 30
0.0
 11
7457.192158500191
 21
7769.123139034579
 31
0.0
  0
LINE
  5
18C70
330
18C6C
100
AcDbEntity
  8
寸法
 62
     0
 48
50.0
370
    -2
100
AcDbLine
 10
7417.192158500192
 20
7866.123139034579
 30
0.0
 11
7417.192158500192
 21
7886.123139034578
 31
0.0
  0
LINE
  5
18C71
330
18C6C
100
AcDbEntity
  8
寸法
 62
     0
 48
50.0
370
    -2
100
AcDbLine
 10
7417.192158500192
 20
7749.123139034579
 30
0.0
 11
7417.192158500192
 21
7533.123139034573
 31
0.0
  0
LINE
  5
18C72
330
18C6C
100
AcDbEntity
  8
寸法
 62
     0
 48
50.0
370
    -2
100
AcDbLine
 10
7417.192158500192
 20
7846.123139034578
 30
0.0
 11
7417.192158500192
 21
7769.123139034579
 31
0.0
  0
INSERT
  5
18C73
330
18C6C
100
AcDbEntity
  8
寸法
 62
     0
 48
50.0
370
    -2
100
AcDbBlockReference
  2
_DOT
 10
7417.192158500192
 20
7846.123139034578
 30
0.0
 41
20.0
 42
20.0
 43
20.0
 50
270.0
  0
INSERT
  5
18C74
330
18C6C
100
AcDbEntity
  8
寸法
 62
     0
 48
50.0
370
    -2
100
AcDbBlockReference
  2
_DOT
 10
7417.192158500192
 20
7769.123139034579
 30
0.0
 41
20.0
 42
20.0
 43
20.0
 50
90.0
  0
MTEXT
  5
18C75
330
18C6C
100
AcDbEntity
  8
寸法
 62
     7
 48
50.0
100
AcDbMText
 10
7325.192158500191
 20
7631.123139034575
 30
0.0
 40
120.0
 41
0.0
 71
     5
 72
     1
  1
\A1;77
  7
STYLE1
 11
0.0000000000000001
 21
1.0
 31
0.0
 73
     1
 44
1.0
1001
ACAD
1000
MTEXTBEGIN
1070
    73
1070
     1
1070
    44
1040
1.0
1070
    74
1070
     0
1000
MTEXTEND
  0
POINT
  5
18C76
330
18C6C
100
AcDbEntity
  8
DEFPOINTS
 62
     0
 48
50.0
100
AcDbPoint
 10
7180.896575106967
 20
7846.123139034578
 30
0.0
  0
POINT
  5
18C77
330
18C6C
100
AcDbEntity
  8
DEFPOINTS
 62
     0
 48
50.0
100
AcDbPoint
 10
7179.896575106965
 20
7769.123139034579
 30
0.0
  0
POINT
  5
18C78
330
18C6C
100
AcDbEntity
  8
DEFPOINTS
 62
     0
 48
50.0
100
AcDbPoint
 10
7417.192158500192
 20
7769.123139034579
 30
0.0
  0
ENDBLK
  5
18C79
330
18C6C
100
AcDbEntity
  8
0
 48
50.0
100
AcDbBlockEnd
  0
BLOCK
  5
18DA0
330
18C7A
100
AcDbEntity
  8
0
 48
50.0
100
AcDbBlockBegin
  2
A$C3B1A506B
 70
     0
 10
0.0
 20
0.0
 30
0.0
  3
A$C3B1A506B
  1

  0
MTEXT
  5
18C7B
330
18C7A
100
AcDbEntity
  8
寸法
 62
     7
 48
50.0
100
AcDbMText
 10
3342.250386887194
 20
2778.329429134012
 30
0.0
 40
96.0
 41
0.0
 71
     5
 72
     1
  1
棚 2段
  7
STYLE1
 73
     1
 44
1.0
1001
ACAD
1000
MTEXTBEGIN
1070
    73
1070
     1
1070
    44
1040
1.0
1070
    74
1070
     0
1000
MTEXTEND
  0
MTEXT
  5
18C7C
330
18C7A
100
AcDbEntity
  8
寸法
 62
     7
 48
50.0
100
AcDbMText
 10
2167.25038688716
 20
2778.329429133986
 30
0.0
 40
96.0
 41
0.0
 71
     5
 72
     1
  1
棚 2段
  7
STYLE1
 73
     1
 44
1.0
1001
ACAD
1000
MTEXTBEGIN
1070
    73
1070
     1
1070
    44
1040
1.0
1070
    74
1070
     0
1000
MTEXTEND
  0
MTEXT
  5
18C7D
330
18C7A
100
AcDbEntity
  8
寸法
 62
     7
 48
50.0
100
AcDbMText
 10
992.2503868871608
 20
2778.329429133935
 30
0.0
 40
96.0
 41
0.0
 71
     5
 72
     1
  1
棚 2段
  7
STYLE1
 73
     1
 44
1.0
1001
ACAD
1000
MTEXTBEGIN
1070
    73
1070
     1
1070
    44
1040
1.0
1070
    74
1070
     0
1000
MTEXTEND
  0
LINE
  5
18C7E
330
18C7A
100
AcDbEntity
  8
細線
 48
50.0
100
AcDbLine
 10
2771.970589276527
 20
1368.994384123192
 30
0.0
 11
3398.970589276523
 21
1368.994384123192
 31
0.0
  0
LINE
  5
18C7F
330
18C7A
100
AcDbEntity
  8
細線
 48
50.0
100
AcDbLine
 10
2117.970593930113
 20
1335.285615569113
 30
0.0
 11
3398.970589276523
 21
1335.285615569113
 31
0.0
  0
LINE
  5
18C80
330
18C7A
100
AcDbEntity
  8
細線
 48
50.0
100
AcDbLine
 10
2076.970593930115
 20
1364.690523565368
 30
0.0
 11
1322.970589276523
 21
1364.690523565367
 31
0.0
  0
LINE
  5
18C81
330
18C7A
100
AcDbEntity
  8
細線
100
AcDbLine
 10
3170.720579860066
 20
1388.494284088199
 30
0.0
 11
3173.052119381877
 21
1393.494286728162
 31
0.0
  0
LINE
  5
18C82
330
18C7A
100
AcDbEntity
  8
細線
100
AcDbLine
 10
3240.720589276525
 20
1388.494269174465
 30
0.0
 11
3238.389042800336
 21
1393.494286728144
 31
0.0
  0
LINE
  5
18C83
330
18C7A
100
AcDbEntity
  8
細線
100
AcDbLine
 10
3238.389042800336
 20
1393.494286728144
 30
0.0
 11
3173.052119381862
 21
1393.494286728133
 31
0.0
  0
LINE
  5
18C84
330
18C7A
100
AcDbEntity
  8
細線
100
AcDbLine
 10
3098.389042800336
 20
1393.494286728144
 30
0.0
 11
3033.052119381862
 21
1393.494286728133
 31
0.0
  0
LINE
  5
18C85
330
18C7A
100
AcDbEntity
  8
細線
100
AcDbLine
 10
3100.720589276523
 20
1388.494269174465
 30
0.0
 11
3098.389042800336
 21
1393.494286728144
 31
0.0
  0
LINE
  5
18C86
330
18C7A
100
AcDbEntity
  8
細線
100
AcDbLine
 10
3030.720579860066
 20
1388.494284088199
 30
0.0
 11
3033.052119381875
 21
1393.494286728162
 31
0.0
  0
LINE
  5
18C87
330
18C7A
100
AcDbEntity
  8
細線
100
AcDbLine
 10
2890.720589276525
 20
1388.494269174465
 30
0.0
 11
2893.052128798336
 21
1393.494271814428
 31
0.0
  0
LINE
  5
18C88
330
18C7A
100
AcDbEntity
  8
細線
100
AcDbLine
 10
2960.720598692984
 20
1388.494254260731
 30
0.0
 11
2958.389052216793
 21
1393.49427181441
 31
0.0
  0
LINE
  5
18C89
330
18C7A
100
AcDbEntity
  8
細線
100
AcDbLine
 10
2958.389052216795
 20
1393.49427181441
 30
0.0
 11
2893.052128798321
 21
1393.494271814399
 31
0.0
  0
LINE
  5
18C8A
330
18C7A
100
AcDbEntity
  8
細線
100
AcDbLine
 10
2667.139038146739
 20
1359.494298590735
 30
0.0
 11
2601.802114728263
 21
1359.494298590724
 31
0.0
  0
LINE
  5
18C8B
330
18C7A
100
AcDbEntity
  8
細線
100
AcDbLine
 10
2669.470584622926
 20
1354.494281037055
 30
0.0
 11
2667.139038146737
 21
1359.494298590735
 31
0.0
  0
LINE
  5
18C8C
330
18C7A
100
AcDbEntity
  8
細線
100
AcDbLine
 10
2599.470575206469
 20
1354.49429595079
 30
0.0
 11
2601.802114728278
 21
1359.494298590752
 31
0.0
  0
LINE
  5
18C8D
330
18C7A
100
AcDbEntity
  8
細線
 48
50.0
100
AcDbLine
 10
2440.853968524536
 20
1372.765132327548
 30
0.0
 11
2446.609486107205
 21
1354.494281037057
 31
0.0
  0
LINE
  5
18C8E
330
18C7A
100
AcDbEntity
  8
細線
 48
50.0
100
AcDbLine
 10
2429.925520044106
 20
1372.765132327546
 30
0.0
 11
2440.853968524536
 21
1372.765132327548
 31
0.0
  0
ARC
  5
18C8F
330
18C7A
100
AcDbEntity
  8
細線
 48
50.0
100
AcDbCircle
 10
2424.471163986787
 20
1374.265132327546
 30
0.0
 40
5.0
100
AcDbArc
 50
204.6243183520723
 51
335.3756816479278
  0
ARC
  5
18C90
330
18C7A
100
AcDbEntity
  8
細線
 48
50.0
100
AcDbCircle
 10
2429.925520044106
 20
1371.765132327546
 30
0.0
 40
1.0
100
AcDbArc
 50
90.0
 51
155.3756816479277
  0
ARC
  5
18C91
330
18C7A
100
AcDbEntity
  8
細線
 48
50.0
100
AcDbCircle
 10
2419.016807929469
 20
1371.765132327546
 30
0.0
 40
1.0
100
AcDbArc
 50
24.62431835207225
 51
90.0
  0
LINE
  5
18C92
330
18C7A
100
AcDbEntity
  8
細線
 48
50.0
100
AcDbLine
 10
2408.088359449037
 20
1372.765132327548
 30
0.0
 11
2419.016807929469
 21
1372.765132327546
 31
0.0
  0
LINE
  5
18C93
330
18C7A
100
AcDbEntity
  8
細線
 48
50.0
100
AcDbLine
 10
2402.33284186637
 20
1354.494281037054
 30
0.0
 11
2408.088359449037
 21
1372.765132327548
 31
0.0
  0
LINE
  5
18C94
330
18C7A
100
AcDbEntity
  8
細線
100
AcDbLine
 10
2458.070304175992
 20
1354.494278397076
 30
0.0
 11
2460.401843697802
 21
1359.494281037039
 31
0.0
  0
LINE
  5
18C95
330
18C7A
100
AcDbEntity
  8
細線
100
AcDbLine
 10
2528.070313592451
 20
1354.494263483342
 30
0.0
 11
2525.738767116262
 21
1359.494281037021
 31
0.0
  0
LINE
  5
18C96
330
18C7A
100
AcDbEntity
  8
細線
100
AcDbLine
 10
2525.738767116262
 20
1359.494281037021
 30
0.0
 11
2460.40184369779
 21
1359.49428103701
 31
0.0
  0
LINE
  5
18C97
330
18C7A
100
AcDbEntity
  8
細線
100
AcDbLine
 10
2387.139046332155
 20
1359.494281037021
 30
0.0
 11
2321.80212291368
 21
1359.49428103701
 31
0.0
  0
LINE
  5
18C98
330
18C7A
100
AcDbEntity
  8
細線
100
AcDbLine
 10
2389.470592808342
 20
1354.494263483342
 30
0.0
 11
2387.139046332153
 21
1359.494281037021
 31
0.0
  0
LINE
  5
18C99
330
18C7A
100
AcDbEntity
  8
細線
100
AcDbLine
 10
2319.470584622926
 20
1354.494281037054
 30
0.0
 11
2321.802122913694
 21
1359.494281037039
 31
0.0
  0
LINE
  5
18C9A
330
18C7A
100
AcDbEntity
  8
細線
100
AcDbLine
 10
2179.47061994182
 20
1354.494289224422
 30
0.0
 11
2181.802158232587
 21
1359.494289224407
 31
0.0
  0
LINE
  5
18C9B
330
18C7A
100
AcDbEntity
  8
細線
100
AcDbLine
 10
2249.470628127236
 20
1354.49427167071
 30
0.0
 11
2247.139081651047
 21
1359.494289224389
 31
0.0
  0
LINE
  5
18C9C
330
18C7A
100
AcDbEntity
  8
細線
100
AcDbLine
 10
2247.139081651047
 20
1359.494289224389
 30
0.0
 11
2181.802158232573
 21
1359.494289224378
 31
0.0
  0
LINE
  5
18C9D
330
18C7A
100
AcDbEntity
  8
細線
100
AcDbLine
 10
1807.970585744697
 20
1320.494460905133
 30
0.0
 11
1810.302124035464
 21
1325.494460905118
 31
0.0
  0
LINE
  5
18C9E
330
18C7A
100
AcDbEntity
  8
細線
100
AcDbLine
 10
1877.970593930113
 20
1320.494443351421
 30
0.0
 11
1875.639047453926
 21
1325.4944609051
 31
0.0
  0
LINE
  5
18C9F
330
18C7A
100
AcDbEntity
  8
細線
100
AcDbLine
 10
1875.639047453926
 20
1325.4944609051
 30
0.0
 11
1810.302124035452
 21
1325.494460905089
 31
0.0
  0
LINE
  5
18CA0
330
18C7A
100
AcDbEntity
  8
細線
100
AcDbLine
 10
2015.639047453926
 20
1325.4944609051
 30
0.0
 11
1950.302124035452
 21
1325.494460905089
 31
0.0
  0
LINE
  5
18CA1
330
18C7A
100
AcDbEntity
  8
細線
100
AcDbLine
 10
2017.970593930113
 20
1320.494443351421
 30
0.0
 11
2015.639047453924
 21
1325.4944609051
 31
0.0
  0
LINE
  5
18CA2
330
18C7A
100
AcDbEntity
  8
細線
100
AcDbLine
 10
1947.970585744697
 20
1320.494460905133
 30
0.0
 11
1950.302124035465
 21
1325.494460905118
 31
0.0
  0
LINE
  5
18CA3
330
18C7A
100
AcDbEntity
  8
細線
100
AcDbLine
 10
1735.639047453926
 20
1325.494460905098
 30
0.0
 11
1670.302124035454
 21
1325.494460905087
 31
0.0
  0
LINE
  5
18CA4
330
18C7A
100
AcDbEntity
  8
細線
100
AcDbLine
 10
1737.970593930113
 20
1320.494443351419
 30
0.0
 11
1735.639047453926
 21
1325.494460905098
 31
0.0
  0
LINE
  5
18CA5
330
18C7A
100
AcDbEntity
  8
細線
100
AcDbLine
 10
1667.970585744697
 20
1320.494460905131
 30
0.0
 11
1670.302124035465
 21
1325.494460905116
 31
0.0
  0
LINE
  5
18CA6
330
18C7A
100
AcDbEntity
  8
細線
100
AcDbLine
 10
1527.970593930113
 20
1320.494460905133
 30
0.0
 11
1530.302132220881
 21
1325.494460905118
 31
0.0
  0
LINE
  5
18CA7
330
18C7A
100
AcDbEntity
  8
細線
100
AcDbLine
 10
1597.970602115529
 20
1320.494443351421
 30
0.0
 11
1595.639055639342
 21
1325.4944609051
 31
0.0
  0
LINE
  5
18CA8
330
18C7A
100
AcDbEntity
  8
細線
100
AcDbLine
 10
1595.639055639342
 20
1325.4944609051
 30
0.0
 11
1530.302132220869
 21
1325.494460905089
 31
0.0
  0
ARC
  5
18CA9
330
18C7A
100
AcDbEntity
  8
部品1
 48
0.01
100
AcDbCircle
 10
1483.470482677778
 20
1319.493338720063
 30
0.0
 40
0.5
100
AcDbArc
 50
270.0
 51
0.0
  0
LINE
  5
18CAA
330
18C7A
100
AcDbEntity
  8
部品1
 48
0.01
100
AcDbLine
 10
1483.970482677778
 20
1320.493338720063
 30
0.0
 11
1483.970482677778
 21
1319.493338720063
 31
0.0
  0
LINE
  5
18CAB
330
18C7A
100
AcDbEntity
  8
部品1
 48
0.01
100
AcDbLine
 10
1483.970482677778
 20
1320.493338720063
 30
0.0
 11
1483.970482677778
 21
1319.493338720063
 31
0.0
  0
LINE
  5
18CAC
330
18C7A
100
AcDbEntity
  8
部品1
 48
0.01
100
AcDbLine
 10
1483.470482677778
 20
1318.993338720063
 30
0.0
 11
1476.857977247713
 21
1318.993338720062
 31
0.0
  0
ARC
  5
18CAD
330
18C7A
100
AcDbEntity
  8
部品1
100
AcDbCircle
 10
1476.926326800494
 20
1319.993338720062
 30
0.0
 40
1.0
100
AcDbArc
 50
160.5287793655865
 51
270.0
  0
ARC
  5
18CAE
330
18C7A
100
AcDbEntity
  8
部品1
100
AcDbCircle
 10
1451.470482677778
 20
1328.993338720062
 30
0.0
 40
26.0
100
AcDbArc
 50
340.5287793655865
 51
0.0
  0
LINE
  5
18CAF
330
18C7A
100
AcDbEntity
  8
部品1
100
AcDbLine
 10
1477.470482677778
 20
1328.993338720062
 30
0.0
 11
1477.470482677778
 21
1333.993338720061
 31
0.0
  0
ARC
  5
18CB0
330
18C7A
100
AcDbEntity
  8
部品1
 48
0.01
100
AcDbCircle
 10
1475.470482677778
 20
1333.993338720061
 30
0.0
 40
2.0
100
AcDbArc
 50
0.0
 51
90.0
  0
ARC
  5
18CB1
330
18C7A
100
AcDbEntity
  8
部品1
100
AcDbCircle
 10
1473.862091052968
 20
1332.993338720062
 30
0.0
 40
3.0
100
AcDbArc
 50
90.0
 51
141.6069559808035
  0
LINE
  5
18CB2
330
18C7A
100
AcDbEntity
  8
部品1
 48
0.01
100
AcDbLine
 10
1475.470482677778
 20
1335.993338720062
 30
0.0
 11
1473.862091052968
 21
1335.993338720062
 31
0.0
  0
ARC
  5
18CB3
330
18C7A
100
AcDbEntity
  8
部品1
100
AcDbCircle
 10
1455.399768463507
 20
1332.293338720065
 30
0.0
 40
3.0
100
AcDbArc
 50
254.0576313943215
 51
270.0
  0
ARC
  5
18CB4
330
18C7A
100
AcDbEntity
  8
部品1
100
AcDbCircle
 10
1462.541196892049
 20
1332.293338720065
 30
0.0
 40
3.0
100
AcDbArc
 50
270.0
 51
285.9423686056786
  0
LINE
  5
18CB5
330
18C7A
100
AcDbEntity
  8
部品1
100
AcDbLine
 10
1462.541196892049
 20
1329.293338720064
 30
0.0
 11
1455.399768463507
 21
1329.293338720064
 31
0.0
  0
ARC
  5
18CB6
330
18C7A
100
AcDbEntity
  8
部品1
100
AcDbCircle
 10
1458.970482677778
 20
1344.793338720065
 30
0.0
 40
16.0
100
AcDbArc
 50
285.9423686056786
 51
321.6069559808035
  0
LINE
  5
18CB7
330
18C7A
100
AcDbEntity
  8
部品1
 48
0.01
100
AcDbLine
 10
1442.470482677778
 20
1335.993338720062
 30
0.0
 11
1444.078874302588
 21
1335.993338720062
 31
0.0
  0
ARC
  5
18CB8
330
18C7A
100
AcDbEntity
  8
部品1
100
AcDbCircle
 10
1444.078874302588
 20
1332.993338720062
 30
0.0
 40
3.0
100
AcDbArc
 50
38.39304401919648
 51
90.0
  0
ARC
  5
18CB9
330
18C7A
100
AcDbEntity
  8
部品1
100
AcDbCircle
 10
1458.970482677778
 20
1344.793338720065
 30
0.0
 40
16.0
100
AcDbArc
 50
218.3930440191965
 51
254.0576313943215
  0
LINE
  5
18CBA
330
18C7A
100
AcDbEntity
  8
部品1
100
AcDbLine
 10
1440.470482677778
 20
1328.993338720062
 30
0.0
 11
1440.470482677778
 21
1333.993338720061
 31
0.0
  0
ARC
  5
18CBB
330
18C7A
100
AcDbEntity
  8
部品1
 48
0.01
100
AcDbCircle
 10
1442.470482677778
 20
1333.993338720061
 30
0.0
 40
2.0
100
AcDbArc
 50
90.0
 51
180.0
  0
ARC
  5
18CBC
330
18C7A
100
AcDbEntity
  8
部品1
100
AcDbCircle
 10
1466.470482677778
 20
1328.993338720062
 30
0.0
 40
26.0
100
AcDbArc
 50
180.0
 51
199.4712206344134
  0
ARC
  5
18CBD
330
18C7A
100
AcDbEntity
  8
部品1
 48
0.01
100
AcDbCircle
 10
1434.470482677778
 20
1319.493338720063
 30
0.0
 40
0.5
100
AcDbArc
 50
180.0
 51
270.0
  0
LINE
  5
18CBE
330
18C7A
100
AcDbEntity
  8
部品1
 48
0.01
100
AcDbLine
 10
1434.470482677778
 20
1318.993338720063
 30
0.0
 11
1441.014638555061
 21
1318.993338720062
 31
0.0
  0
LINE
  5
18CBF
330
18C7A
100
AcDbEntity
  8
部品1
 48
0.01
100
AcDbLine
 10
1433.970482677778
 20
1320.493338720063
 30
0.0
 11
1433.970482677778
 21
1319.493338720063
 31
0.0
  0
ARC
  5
18CC0
330
18C7A
100
AcDbEntity
  8
部品1
100
AcDbCircle
 10
1441.014638555061
 20
1319.993338720062
 30
0.0
 40
1.0
100
AcDbArc
 50
270.0
 51
19.47122063441346
  0
LINE
  5
18CC1
330
18C7A
100
AcDbEntity
  8
細線
100
AcDbLine
 10
1479.470482677785
 20
1338.493338720065
 30
0.0
 11
1438.470482677785
 21
1338.493338720058
 31
0.0
  0
LINE
  5
18CC2
330
18C7A
100
AcDbEntity
  8
細線
100
AcDbLine
 10
1438.470482677785
 20
1338.493338720058
 30
0.0
 11
1438.470482677785
 21
1320.49333872004
 31
0.0
  0
LINE
  5
18CC3
330
18C7A
100
AcDbEntity
  8
細線
100
AcDbLine
 10
1479.470482677785
 20
1338.493338720065
 30
0.0
 11
1479.470482677785
 21
1320.49333872004
 31
0.0
  0
LINE
  5
18CC4
330
18C7A
100
AcDbEntity
  8
細線
100
AcDbLine
 10
1322.970589276523
 20
1324.494269174465
 30
0.0
 11
1322.970589276523
 21
1320.494269174513
 31
0.0
  0
LINE
  5
18CC5
330
18C7A
100
AcDbEntity
  8
寸法
 48
50.0
100
AcDbLine
 10
1746.17359555837
 20
1170.531020743327
 30
0.0
 11
1694.767587648266
 21
1170.531020743327
 31
0.0
  0
LINE
  5
18CC6
330
18C7A
100
AcDbEntity
  8
寸法
 48
50.0
100
AcDbLine
 10
1694.767587648266
 20
1170.531020743327
 30
0.0
 11
1694.767587648266
 21
1201.841179395494
 31
0.0
  0
LINE
  5
18CC7
330
18C7A
100
AcDbEntity
  8
寸法
 48
50.0
100
AcDbLine
 10
1694.767587648266
 20
1201.841179395494
 30
0.0
 11
1665.006255656843
 21
1201.841179395494
 31
0.0
  0
LINE
  5
18CC8
330
18C7A
100
AcDbEntity
  8
寸法
 48
50.0
100
AcDbLine
 10
1665.006255656843
 20
1201.841179395494
 30
0.0
 11
1720.470591603318
 21
1239.420630324105
 31
0.0
  0
LINE
  5
18CC9
330
18C7A
100
AcDbEntity
  8
寸法
 48
50.0
100
AcDbLine
 10
1775.934927549793
 20
1201.841179395494
 30
0.0
 11
1720.470591603318
 21
1239.420630324105
 31
0.0
  0
LINE
  5
18CCA
330
18C7A
100
AcDbEntity
  8
寸法
 48
50.0
100
AcDbLine
 10
1746.17359555837
 20
1201.841179395494
 30
0.0
 11
1775.934927549793
 21
1201.841179395494
 31
0.0
  0
LINE
  5
18CCB
330
18C7A
100
AcDbEntity
  8
寸法
 48
50.0
100
AcDbLine
 10
1746.17359555837
 20
1170.531020743327
 30
0.0
 11
1746.17359555837
 21
1201.841179395494
 31
0.0
  0
LINE
  5
18CCC
330
18C7A
100
AcDbEntity
  8
寸法
 48
50.0
100
AcDbLine
 10
1694.767587648266
 20
1170.531020743327
 30
0.0
 11
1746.17359555837
 21
1170.531020743327
 31
0.0
  0
LINE
  5
18CCD
330
18C7A
100
AcDbEntity
  8
寸法
 48
50.0
100
AcDbLine
 10
2025.339129835225
 20
1227.676611498152
 30
0.0
 11
2025.339129835225
 21
1174.01297691636
 31
0.0
  0
LINE
  5
18CCE
330
18C7A
100
AcDbEntity
  8
寸法
 48
50.0
100
AcDbLine
 10
2114.623348430647
 20
1203.752977228664
 30
0.0
 11
2025.339129835225
 21
1227.676611498152
 31
0.0
  0
LINE
  5
18CCF
330
18C7A
100
AcDbEntity
  8
寸法
 48
50.0
100
AcDbLine
 10
1895.471408254923
 20
1203.752977228664
 30
0.0
 11
2114.623348430647
 21
1203.752977228664
 31
0.0
  0
DIMENSION
  5
18CD0
330
18C7A
100
AcDbEntity
  8
寸法
 48
50.0
100
AcDbDimension
  2
*D15
 10
2588.970589276523
 20
706.3240511224249
 30
0.0
 11
1969.060022905491
 21
706.3240511224249
 31
0.0
 12
-3742.925985830444
 22
-6453.628869860112
 32
0.0
 70
   128
  1
有効開口部間口\P<>
 71
     5
 42
1266.0
  3
INABA_S40G
100
AcDbAlignedDimension
 13
1322.970589276523
 23
1315.494269174465
 33
0.0
 14
2588.970589276523
 24
1315.494269174465
 34
0.0
100
AcDbRotatedDimension
1001
ACAD
1000
DSTYLE
1002
{
1070
   341
1005
0
1002
}
  0
LINE
  5
18CD1
330
18C7A
100
AcDbEntity
  8
部品1
100
AcDbLine
 10
3409.970589276524
 20
1392.494269174465
 30
0.0
 11
3437.970589276523
 21
1392.494269174465
 31
0.0
  0
DIMENSION
  5
18CD2
330
18C7A
100
AcDbEntity
  8
寸法
100
AcDbDimension
  2
*D16
 10
3674.266172669749
 20
1315.494269174465
 30
0.0
 11
3674.266172669748
 21
1177.494269174462
 31
0.0
 12
-3742.925985830444
 22
-6453.628869860112
 32
0.0
 70
   128
 71
     5
 42
77.0
  3
INABA_S40
100
AcDbAlignedDimension
 13
3437.970589276523
 23
1392.494269174465
 33
0.0
 14
3436.970589276523
 24
1315.494269174465
 34
0.0
 50
90.0
100
AcDbRotatedDimension
1001
ACAD
1000
DSTYLE
1002
{
1070
    41
1040
0.5
1070
    44
1040
1.0
1070
   147
1040
0.8
1070
   271
1070
     2
1070
   272
1070
     2
1070
   289
1070
     3
1070
   340
1005
F706
1070
   343
1005
164B4
1070
   344
1005
164B4
1002
}
  0
LINE
  5
18CD3
330
18C7A
100
AcDbEntity
  8
部品1
100
AcDbLine
 10
3437.970589276523
 20
1315.494269174465
 30
0.0
 11
3437.970589276523
 21
1392.494269174465
 31
0.0
  0
LINE
  5
18CD4
330
18C7A
100
AcDbEntity
  8
部品1
100
AcDbLine
 10
3398.970589276523
 20
1388.494269174465
 30
0.0
 11
3409.970589276524
 21
1388.494269174465
 31
0.0
  0
LINE
  5
18CD5
330
18C7A
100
AcDbEntity
  8
部品1
100
AcDbLine
 10
3407.970589276523
 20
1324.494269174465
 30
0.0
 11
3407.970589276523
 21
1315.494269174465
 31
0.0
  0
LINE
  5
18CD6
330
18C7A
100
AcDbEntity
  8
部品1
100
AcDbLine
 10
3398.970589276523
 20
1324.494269174465
 30
0.0
 11
3407.970589276523
 21
1324.494269174465
 31
0.0
  0
LINE
  5
18CD7
330
18C7A
100
AcDbEntity
  8
部品1
100
AcDbLine
 10
3398.970589276523
 20
1388.494269174465
 30
0.0
 11
3398.970589276523
 21
1324.494269174465
 31
0.0
  0
LINE
  5
18CD8
330
18C7A
100
AcDbEntity
  8
部品1
100
AcDbLine
 10
3409.970589276524
 20
1419.494269174465
 30
0.0
 11
3409.970589276524
 21
1388.494269174465
 31
0.0
  0
LINE
  5
18CD9
330
18C7A
100
AcDbEntity
  8
部品1
100
AcDbLine
 10
1322.970589276523
 20
1388.494269174465
 30
0.0
 11
1311.970589276523
 21
1388.494269174465
 31
0.0
  0
LINE
  5
18CDA
330
18C7A
100
AcDbEntity
  8
部品1
100
AcDbLine
 10
1283.970589276523
 20
1392.494269174465
 30
0.0
 11
1311.970589276523
 21
1392.494269174465
 31
0.0
  0
LINE
  5
18CDB
330
18C7A
100
AcDbEntity
  8
部品1
100
AcDbLine
 10
1313.970589276523
 20
1324.494269174465
 30
0.0
 11
1313.970589276523
 21
1315.494269174465
 31
0.0
  0
LINE
  5
18CDC
330
18C7A
100
AcDbEntity
  8
部品1
100
AcDbLine
 10
1322.970589276523
 20
1324.494269174465
 30
0.0
 11
1313.970589276523
 21
1324.494269174465
 31
0.0
  0
LINE
  5
18CDD
330
18C7A
100
AcDbEntity
  8
部品1
100
AcDbLine
 10
1313.970589276523
 20
1315.494269174465
 30
0.0
 11
1283.970589276523
 21
1315.494269174465
 31
0.0
  0
LINE
  5
18CDE
330
18C7A
100
AcDbEntity
  8
部品1
100
AcDbLine
 10
1283.970589276523
 20
1315.494269174465
 30
0.0
 11
1283.970589276523
 21
1392.494269174465
 31
0.0
  0
LINE
  5
18CDF
330
18C7A
100
AcDbEntity
  8
部品1
100
AcDbLine
 10
1322.970589276523
 20
1388.494269174465
 30
0.0
 11
1322.970589276523
 21
1324.494269174465
 31
0.0
  0
LINE
  5
18CE0
330
18C7A
100
AcDbEntity
  8
部品1
100
AcDbLine
 10
1311.970589276523
 20
1419.494269174462
 30
0.0
 11
1311.970589276523
 21
1388.494269174465
 31
0.0
  0
LINE
  5
18CE1
330
18C7A
100
AcDbEntity
  8
部品1
100
AcDbLine
 10
1311.970589276523
 20
1419.494269174462
 30
0.0
 11
3409.970589276524
 21
1419.494269174465
 31
0.0
  0
LINE
  5
18CE2
330
18C7A
100
AcDbEntity
  8
部品1
100
AcDbLine
 10
3407.970589276523
 20
1315.494269174465
 30
0.0
 11
3437.970589276523
 21
1315.494269174465
 31
0.0
  0
LINE
  5
18CE3
330
18C7A
100
AcDbEntity
  8
部品1
100
AcDbLine
 10
1313.970589276523
 20
1315.494269174465
 30
0.0
 11
3410.970589276523
 21
1315.494269174465
 31
0.0
  0
LINE
  5
18CE4
330
18C7A
100
AcDbEntity
  8
細線
  6
Continuous
 62
     5
100
AcDbLine
 10
2689.970589276527
 20
1354.494269174462
 30
0.0
 11
2689.970589276527
 21
1354.494269174462
 31
0.0
  0
LINE
  5
18CE5
330
18C7A
100
AcDbEntity
  8
細線
  6
Continuous
 62
     5
100
AcDbLine
 10
2682.470589276527
 20
1354.494269174462
 30
0.0
 11
2682.470589276527
 21
1354.494269174462
 31
0.0
  0
LINE
  5
18CE6
330
18C7A
100
AcDbEntity
  8
細線
  6
Continuous
 62
     5
100
AcDbLine
 10
2676.470589276527
 20
1354.494269174462
 30
0.0
 11
2676.470589276527
 21
1354.494269174462
 31
0.0
  0
LINE
  5
18CE7
330
18C7A
100
AcDbEntity
  8
細線
  6
Continuous
 62
     5
100
AcDbLine
 10
2743.970589276527
 20
1373.494269174462
 30
0.0
 11
2743.970589276527
 21
1373.494269174462
 31
0.0
  0
LINE
  5
18CE8
330
18C7A
100
AcDbEntity
  8
細線
 48
50.0
100
AcDbLine
 10
1336.970593930116
 20
1341.094443351418
 30
0.0
 11
1336.970593930113
 21
1349.490593759059
 31
0.0
  0
LINE
  5
18CE9
330
18C7A
100
AcDbEntity
  8
細線
 48
50.0
100
AcDbLine
 10
1336.970593930113
 20
1349.490593759059
 30
0.0
 11
1322.970589276523
 21
1349.490593759057
 31
0.0
  0
LINE
  5
18CEA
330
18C7A
100
AcDbEntity
  8
細線
 48
50.0
100
AcDbLine
 10
2087.970593930113
 20
1337.644443351419
 30
0.0
 11
2087.970593930113
 21
1342.494443351421
 31
0.0
  0
LINE
  5
18CEB
330
18C7A
100
AcDbEntity
  8
細線
 48
50.0
100
AcDbLine
 10
2087.970593930113
 20
1342.494443351421
 30
0.0
 11
2102.970593930113
 21
1342.494443351421
 31
0.0
  0
LINE
  5
18CEC
330
18C7A
100
AcDbEntity
  8
細線
 48
50.0
100
AcDbLine
 10
2102.970593930113
 20
1342.494443351421
 30
0.0
 11
2102.970593930115
 21
1349.494443351419
 31
0.0
  0
LINE
  5
18CED
330
18C7A
100
AcDbEntity
  8
細線
 48
50.0
100
AcDbLine
 10
2102.970593930115
 20
1349.494443351419
 30
0.0
 11
2117.970593930113
 21
1349.494443351419
 31
0.0
  0
LINE
  5
18CEE
330
18C7A
100
AcDbEntity
  8
細線
 48
50.0
100
AcDbLine
 10
2117.970593930113
 20
1349.494443351419
 30
0.0
 11
2117.970593930113
 21
1320.494443351421
 31
0.0
  0
LINE
  5
18CEF
330
18C7A
100
AcDbEntity
  8
細線
 48
50.0
100
AcDbLine
 10
1313.970589276523
 20
1320.491777694889
 30
0.0
 11
1527.970593930113
 21
1320.494460905133
 31
0.0
  0
LINE
  5
18CF0
330
18C7A
100
AcDbEntity
  8
細線
 48
50.0
100
AcDbLine
 10
2017.970593930113
 20
1320.494443351421
 30
0.0
 11
2117.970593930113
 21
1320.494443351421
 31
0.0
  0
LINE
  5
18CF1
330
18C7A
100
AcDbEntity
  8
細線
 48
50.0
100
AcDbLine
 10
1737.970593930113
 20
1320.494443351419
 30
0.0
 11
1807.970593930113
 21
1320.494443351423
 31
0.0
  0
LINE
  5
18CF2
330
18C7A
100
AcDbEntity
  8
細線
 48
50.0
100
AcDbLine
 10
1750.832558942642
 20
1320.494443351419
 30
0.0
 11
1756.588076525309
 21
1338.765294641913
 31
0.0
  0
LINE
  5
18CF3
330
18C7A
100
AcDbEntity
  8
細線
 48
50.0
100
AcDbLine
 10
1756.588076525309
 20
1338.765294641913
 30
0.0
 11
1767.516525005743
 21
1338.765294641911
 31
0.0
  0
ARC
  5
18CF4
330
18C7A
100
AcDbEntity
  8
細線
 48
50.0
100
AcDbCircle
 10
1767.516525005743
 20
1337.765294641911
 30
0.0
 40
1.0
100
AcDbArc
 50
24.62431835207225
 51
90.0
  0
ARC
  5
18CF5
330
18C7A
100
AcDbEntity
  8
細線
 48
50.0
100
AcDbCircle
 10
1778.425237120377
 20
1337.765294641911
 30
0.0
 40
1.0
100
AcDbArc
 50
90.0
 51
155.3756816479277
  0
ARC
  5
18CF6
330
18C7A
100
AcDbEntity
  8
細線
 48
50.0
100
AcDbCircle
 10
1772.970881063058
 20
1340.265294641911
 30
0.0
 40
5.0
100
AcDbArc
 50
204.6243183520723
 51
335.3756816479278
  0
LINE
  5
18CF7
330
18C7A
100
AcDbEntity
  8
細線
 48
50.0
100
AcDbLine
 10
1778.425237120377
 20
1338.765294641911
 30
0.0
 11
1789.35368560081
 21
1338.765294641913
 31
0.0
  0
LINE
  5
18CF8
330
18C7A
100
AcDbEntity
  8
細線
 48
50.0
100
AcDbLine
 10
1789.35368560081
 20
1338.765294641913
 30
0.0
 11
1795.109203183478
 21
1320.494443351423
 31
0.0
  0
LINE
  5
18CF9
330
18C7A
100
AcDbEntity
  8
細線
 48
50.0
100
AcDbLine
 10
2087.970593930113
 20
1341.094443351419
 30
0.0
 11
1336.970593930116
 21
1341.094443351418
 31
0.0
  0
LINE
  5
18CFA
330
18C7A
100
AcDbEntity
  8
細線
 48
50.0
100
AcDbLine
 10
1947.970593930113
 20
1320.494443351421
 30
0.0
 11
1877.970593930113
 21
1320.494443351421
 31
0.0
  0
LINE
  5
18CFB
330
18C7A
100
AcDbEntity
  8
細線
100
AcDbLine
 10
1667.970593930113
 20
1320.494443351421
 30
0.0
 11
1597.970602115529
 21
1320.494443351421
 31
0.0
  0
LINE
  5
18CFC
330
18C7A
100
AcDbEntity
  8
細線
 48
50.0
100
AcDbLine
 10
2741.970584622936
 20
1375.094487209288
 30
0.0
 11
2106.970593930113
 21
1375.094487209284
 31
0.0
  0
LINE
  5
18CFD
330
18C7A
100
AcDbEntity
  8
細線
 48
50.0
100
AcDbLine
 10
2106.970593930113
 20
1371.990637616925
 30
0.0
 11
2106.970593930113
 21
1376.490637616925
 31
0.0
  0
LINE
  5
18CFE
330
18C7A
100
AcDbEntity
  8
細線
 48
50.0
100
AcDbLine
 10
2106.970593930113
 20
1376.490637616925
 30
0.0
 11
2091.970593930113
 21
1376.490637616925
 31
0.0
  0
LINE
  5
18CFF
330
18C7A
100
AcDbEntity
  8
細線
 48
50.0
100
AcDbLine
 10
2091.970593930113
 20
1376.490637616925
 30
0.0
 11
2091.970593930113
 21
1383.490637616927
 31
0.0
  0
LINE
  5
18D00
330
18C7A
100
AcDbEntity
  8
細線
 48
50.0
100
AcDbLine
 10
2091.970593930113
 20
1383.490637616927
 30
0.0
 11
2076.970593930115
 21
1383.490637616924
 31
0.0
  0
LINE
  5
18D01
330
18C7A
100
AcDbEntity
  8
細線
 48
50.0
100
AcDbLine
 10
2076.970593930115
 20
1383.490637616924
 30
0.0
 11
2076.970593930115
 21
1345.890409513813
 31
0.0
  0
LINE
  5
18D02
330
18C7A
100
AcDbEntity
  8
細線
 48
50.0
100
AcDbLine
 10
2076.970593930115
 20
1345.890409513813
 30
0.0
 11
2096.970601231289
 21
1345.890451063353
 31
0.0
  0
LINE
  5
18D03
330
18C7A
100
AcDbEntity
  8
細線
 48
50.0
100
AcDbLine
 10
2096.970556362348
 20
1354.493912699161
 30
0.0
 11
2096.970601231289
 21
1345.890451063353
 31
0.0
  0
LINE
  5
18D04
330
18C7A
100
AcDbEntity
  8
細線
 48
50.0
100
AcDbLine
 10
2741.970584622936
 20
1371.644487209287
 30
0.0
 11
2741.970584622936
 21
1376.494487209284
 31
0.0
  0
LINE
  5
18D05
330
18C7A
100
AcDbEntity
  8
細線
 48
50.0
100
AcDbLine
 10
2741.970584622936
 20
1376.494487209284
 30
0.0
 11
2756.970584622934
 21
1376.494487209285
 31
0.0
  0
LINE
  5
18D06
330
18C7A
100
AcDbEntity
  8
細線
 48
50.0
100
AcDbLine
 10
2756.970584622934
 20
1376.494487209285
 30
0.0
 11
2756.970596256909
 21
1383.494487209331
 31
0.0
  0
LINE
  5
18D07
330
18C7A
100
AcDbEntity
  8
細線
 48
50.0
100
AcDbLine
 10
2756.970596256909
 20
1383.494487209331
 30
0.0
 11
2771.970594427439
 21
1383.494487209329
 31
0.0
  0
LINE
  5
18D08
330
18C7A
100
AcDbEntity
  8
細線
 48
50.0
100
AcDbLine
 10
2771.970594427439
 20
1383.494487209329
 30
0.0
 11
2771.970584125617
 21
1354.494281037055
 31
0.0
  0
LINE
  5
18D09
330
18C7A
100
AcDbEntity
  8
細線
 48
50.0
100
AcDbLine
 10
2458.070304175992
 20
1354.494278397076
 30
0.0
 11
2389.470863838818
 21
1354.494283787084
 31
0.0
  0
LINE
  5
18D0A
330
18C7A
100
AcDbEntity
  8
細線
 48
50.0
100
AcDbLine
 10
2096.970556362348
 20
1354.493912699161
 30
0.0
 11
2108.203245717057
 21
1354.494095652309
 31
0.0
  0
ARC
  5
18D0B
330
18C7A
100
AcDbEntity
  8
細線
 48
50.0
100
AcDbCircle
 10
2114.785538024393
 20
1353.294259565922
 30
0.0
 40
1.8
100
AcDbArc
 50
270.0006665777295
 51
345.000555481349
  0
LINE
  5
18D0C
330
18C7A
100
AcDbEntity
  8
細線
 48
50.0
100
AcDbLine
 10
2116.771971470473
 20
1353.753100023201
 30
0.0
 11
2116.524209028273
 21
1352.828402141094
 31
0.0
  0
LINE
  5
18D0D
330
18C7A
100
AcDbEntity
  8
細線
 48
50.0
100
AcDbLine
 10
2114.785558965548
 20
1351.494259566043
 30
0.0
 11
2111.155631546781
 21
1351.494217335563
 31
0.0
  0
ARC
  5
18D0E
330
18C7A
100
AcDbEntity
  8
細線
 48
50.0
100
AcDbCircle
 10
2111.155610605627
 20
1353.29421733544
 30
0.0
 40
1.8
100
AcDbArc
 50
195.0010443049965
 51
270.0006665777295
  0
LINE
  5
18D0F
330
18C7A
100
AcDbEntity
  8
細線
 48
50.0
100
AcDbLine
 10
2109.169183113368
 20
1353.752932303007
 30
0.0
 11
2109.416952609882
 21
1352.828311364425
 31
0.0
  0
ARC
  5
18D10
330
18C7A
100
AcDbEntity
  8
細線
 48
50.0
100
AcDbCircle
 10
2108.203262004622
 20
1353.494095652444
 30
0.0
 40
1.0
100
AcDbArc
 50
15.00104430499651
 51
90.00093320877969
  0
LINE
  5
18D11
330
18C7A
100
AcDbEntity
  8
細線
 48
50.0
100
AcDbLine
 10
2117.737892825577
 20
1354.494290342714
 30
0.0
 11
2118.679652976481
 21
1354.494296916564
 31
0.0
  0
ARC
  5
18D12
330
18C7A
100
AcDbEntity
  8
細線
 48
50.0
100
AcDbCircle
 10
2117.737899805961
 20
1353.49429034274
 30
0.0
 40
1.0
100
AcDbArc
 50
90.0003999466794
 51
165.000555481349
  0
LINE
  5
18D13
330
18C7A
100
AcDbEntity
  8
細線
 48
50.0
100
AcDbLine
 10
2669.470584622926
 20
1354.494281037055
 30
0.0
 11
2771.970584125617
 21
1354.494281037055
 31
0.0
  0
LINE
  5
18D14
330
18C7A
100
AcDbEntity
  8
細線
 48
50.0
100
AcDbLine
 10
2179.47061994182
 20
1354.494289224422
 30
0.0
 11
2118.370558714898
 21
1354.494296916564
 31
0.0
  0
LINE
  5
18D15
330
18C7A
100
AcDbEntity
  8
細線
 48
50.0
100
AcDbLine
 10
2599.470584622926
 20
1354.494281037057
 30
0.0
 11
2529.470584622926
 21
1354.494281037055
 31
0.0
  0
LINE
  5
18D16
330
18C7A
100
AcDbEntity
  8
細線
 48
50.0
100
AcDbLine
 10
2319.470584622926
 20
1354.494281037054
 30
0.0
 11
2249.470567335051
 21
1354.494281037057
 31
0.0
  0
ARC
  5
18D17
330
18C7A
100
AcDbEntity
  8
細線
 48
50.0
100
AcDbCircle
 10
2756.170589276533
 20
1387.694269174466
 30
0.0
 40
0.8
100
AcDbArc
 50
359.9997333689499
 51
89.99986668437072
  0
ARC
  5
18D18
330
18C7A
100
AcDbEntity
  8
細線
 48
50.0
100
AcDbCircle
 10
2763.770596101631
 20
1387.694280343081
 30
0.0
 40
0.8
100
AcDbArc
 50
90.00014387753465
 51
179.9997333689498
  0
LINE
  5
18D19
330
18C7A
100
AcDbEntity
  8
細線
 48
50.0
100
AcDbLine
 10
2756.170591137969
 20
1388.494269174465
 30
0.0
 11
2750.970589276525
 21
1388.494269174465
 31
0.0
  0
ARC
  5
18D1A
330
18C7A
100
AcDbEntity
  8
細線
 48
50.0
100
AcDbCircle
 10
2757.670589276524
 20
1386.194269174464
 30
0.0
 40
0.7
100
AcDbArc
 50
180.0
 51
270.0
  0
ARC
  5
18D1B
330
18C7A
100
AcDbEntity
  8
細線
 48
50.0
100
AcDbCircle
 10
2762.270589276524
 20
1386.194269174464
 30
0.0
 40
0.7
100
AcDbArc
 50
270.0
 51
0.0
  0
LINE
  5
18D1C
330
18C7A
100
AcDbEntity
  8
細線
 48
50.0
100
AcDbLine
 10
2762.970589276525
 20
1386.194269174464
 30
0.0
 11
2762.970596101639
 21
1387.694284065954
 31
0.0
  0
LINE
  5
18D1D
330
18C7A
100
AcDbEntity
  8
細線
 48
50.0
100
AcDbLine
 10
2757.670589276524
 20
1385.494269174465
 30
0.0
 11
2762.270589276524
 21
1385.494269174465
 31
0.0
  0
LINE
  5
18D1E
330
18C7A
100
AcDbEntity
  8
細線
 48
50.0
100
AcDbLine
 10
2756.970589276525
 20
1387.694269174466
 30
0.0
 11
2756.970589276525
 21
1386.194269174464
 31
0.0
  0
LINE
  5
18D1F
330
18C7A
100
AcDbEntity
  8
細線
 48
50.0
100
AcDbLine
 10
3382.570589276527
 20
1418.494269174465
 30
0.0
 11
2745.970589276525
 21
1418.494269174463
 31
0.0
  0
LINE
  5
18D20
330
18C7A
100
AcDbEntity
  8
細線
 48
50.0
100
AcDbLine
 10
3408.470589276525
 20
1413.494269174467
 30
0.0
 11
3392.570589276527
 21
1413.494269174465
 31
0.0
  0
LINE
  5
18D21
330
18C7A
100
AcDbEntity
  8
細線
 48
50.0
100
AcDbLine
 10
3392.570589276526
 20
1413.494269174465
 30
0.0
 11
3382.570589276527
 21
1418.494269174465
 31
0.0
  0
LINE
  5
18D22
330
18C7A
100
AcDbEntity
  8
細線
100
AcDbLine
 10
2993.470589276525
 20
1388.494269174465
 30
0.0
 11
2993.470589276525
 21
1417.794269174464
 31
0.0
  0
LINE
  5
18D23
330
18C7A
100
AcDbEntity
  8
細線
100
AcDbLine
 10
2993.470589276525
 20
1417.794269174464
 30
0.0
 11
3013.470589276525
 21
1417.794269174464
 31
0.0
  0
LINE
  5
18D24
330
18C7A
100
AcDbEntity
  8
細線
100
AcDbLine
 10
3013.470589276525
 20
1388.494269174465
 30
0.0
 11
3013.470589276525
 21
1417.794269174464
 31
0.0
  0
LINE
  5
18D25
330
18C7A
100
AcDbEntity
  8
細線
100
AcDbLine
 10
3170.720589276524
 20
1388.494269174465
 30
0.0
 11
3100.720589276523
 21
1388.494269174465
 31
0.0
  0
LINE
  5
18D26
330
18C7A
100
AcDbEntity
  8
細線
 48
50.0
100
AcDbLine
 10
2890.720589276525
 20
1388.494269174465
 30
0.0
 11
2763.766368849365
 21
1388.494269174465
 31
0.0
  0
LINE
  5
18D27
330
18C7A
100
AcDbEntity
  8
細線
100
AcDbLine
 10
3030.720589276525
 20
1388.494269174465
 30
0.0
 11
2960.720589276525
 21
1388.494269174465
 31
0.0
  0
LINE
  5
18D28
330
18C7A
100
AcDbEntity
  8
細線
 48
50.0
100
AcDbLine
 10
2750.970589276525
 20
1380.494269174465
 30
0.0
 11
2750.970589276525
 21
1388.494269174465
 31
0.0
  0
LINE
  5
18D29
330
18C7A
100
AcDbEntity
  8
細線
 48
50.0
100
AcDbLine
 10
2730.970589276524
 20
1380.494269174467
 30
0.0
 11
2750.970589276525
 21
1380.494269174465
 31
0.0
  0
LINE
  5
18D2A
330
18C7A
100
AcDbEntity
  8
細線
 48
50.0
100
AcDbLine
 10
2745.970589276525
 20
1418.494269174465
 30
0.0
 11
2745.970589276525
 21
1413.494269174465
 31
0.0
  0
LINE
  5
18D2B
330
18C7A
100
AcDbEntity
  8
細線
 48
50.0
100
AcDbLine
 10
2730.970589276525
 20
1418.494269174463
 30
0.0
 11
2745.970589276525
 21
1418.494269174465
 31
0.0
  0
LINE
  5
18D2C
330
18C7A
100
AcDbEntity
  8
細線
 48
50.0
100
AcDbLine
 10
2730.970589276524
 20
1380.494269174467
 30
0.0
 11
2730.970589276525
 21
1418.494269174463
 31
0.0
  0
LINE
  5
18D2D
330
18C7A
100
AcDbEntity
  8
細線
100
AcDbLine
 10
3398.970589276523
 20
1388.494269174465
 30
0.0
 11
3240.720589276525
 21
1388.494269174465
 31
0.0
  0
LINE
  5
18D2E
330
18C7A
100
AcDbEntity
  8
細線
 48
50.0
100
AcDbLine
 10
3408.470589276525
 20
1413.494269174467
 30
0.0
 11
3408.470589276524
 21
1388.494269174465
 31
0.0
  0
TEXT
  5
18D2F
330
18C7A
100
AcDbEntity
  8
部品1
100
AcDbText
 10
1860.154865991392
 20
46.99880823813145
 30
0.0
 40
135.0
  1
平面図
  7
STYLE2
100
AcDbText
  0
LWPOLYLINE
  5
18D30
330
18C7A
100
AcDbEntity
  8
部品1
100
AcDbPolyline
 90
        4
 70
     1
 43
0.0
 10
1770.23525616235
 20
239.8923374566548
 10
1770.23525616235
 20
0.0000159111223184
 10
2533.705922390791
 20
0.0000159111223184
 10
2533.705922390791
 20
239.8923374566548
  0
LINE
  5
18D31
330
18C7A
100
AcDbEntity
  8
部品1
100
AcDbLine
 10
1534.470589276487
 20
3154.494269174626
 30
0.0
 11
2769.470589276552
 21
3154.494269174626
 31
0.0
  0
LINE
  5
18D32
330
18C7A
100
AcDbEntity
  8
部品1
 48
50.0
100
AcDbLine
 10
1311.970589276523
 20
1420.494269174462
 30
0.0
 11
3411.970589276523
 21
1420.494269174465
 31
0.0
  0
LINE
  5
18D33
330
18C7A
100
AcDbEntity
  8
部品1
 48
50.0
100
AcDbLine
 10
471.9705892765232
 20
1392.494269174465
 30
0.0
 11
1311.970589276523
 21
1392.494269174465
 31
0.0
  0
DIMENSION
  5
18D34
330
18C7A
100
AcDbEntity
  8
寸法
100
AcDbDimension
  2
*D14
 10
2710.234916278077
 20
2488.887829538828
 30
0.0
 11
2338.318822490183
 21
2488.887829538828
 31
0.0
 12
-3742.925985830444
 22
-6453.628869860112
 32
0.0
 70
   128
 71
     5
 42
1231.00000000007
  3
INABA_S40G
100
AcDbAlignedDimension
 13
1536.470589276486
 23
2702.494269174557
 33
0.0
 14
2767.470589276556
 24
2702.494269174549
 34
0.0
100
AcDbRotatedDimension
1001
ACAD
1000
DSTYLE
1002
{
1002
}
  0
LINE
  5
18D35
330
18C7A
100
AcDbEntity
  8
部品1
100
AcDbLine
 10
1536.470589276487
 20
2702.494269174557
 30
0.0
 11
2767.470589276554
 21
2702.494269174615
 31
0.0
  0
LINE
  5
18D36
330
18C7A
100
AcDbEntity
  8
部品1
100
AcDbLine
 10
1536.470589276487
 20
3152.494269174557
 30
0.0
 11
2767.470589276556
 21
3152.494269174615
 31
0.0
  0
LINE
  5
18D37
330
18C7A
100
AcDbEntity
  8
細線
 48
50.0
100
AcDbLine
 10
1508.470589276487
 20
3152.494269174558
 30
0.0
 11
445.4705892765559
 21
2702.494269174509
 31
0.0
  0
LINE
  5
18D38
330
18C7A
100
AcDbEntity
  8
細線
 48
50.0
100
AcDbLine
 10
1508.470589276487
 20
2702.494269174558
 30
0.0
 11
445.4705892765542
 21
3152.494269174509
 31
0.0
  0
LINE
  5
18D39
330
18C7A
100
AcDbEntity
  8
部品1
100
AcDbLine
 10
1556.970589276487
 20
3172.494269174611
 30
0.0
 11
1556.970589276487
 21
3154.494269174611
 31
0.0
  0
LINE
  5
18D3A
330
18C7A
100
AcDbEntity
  8
部品1
100
AcDbLine
 10
1556.970589276487
 20
3172.494269174611
 30
0.0
 11
1550.970589276487
 21
3172.494269174611
 31
0.0
  0
LINE
  5
18D3B
330
18C7A
100
AcDbEntity
  8
部品1
100
AcDbLine
 10
1534.470589276487
 20
3146.494269174608
 30
0.0
 11
1509.470589276487
 21
3146.494269174611
 31
0.0
  0
LINE
  5
18D3C
330
18C7A
100
AcDbEntity
  8
部品1
100
AcDbLine
 10
1486.970589276487
 20
3172.494269174611
 30
0.0
 11
1486.970589276487
 21
3154.494269174611
 31
0.0
  0
LINE
  5
18D3D
330
18C7A
100
AcDbEntity
  8
部品1
100
AcDbLine
 10
1492.970589276487
 20
3172.494269174611
 30
0.0
 11
1486.970589276487
 21
3172.494269174611
 31
0.0
  0
LINE
  5
18D3E
330
18C7A
100
AcDbEntity
  8
部品1
100
AcDbLine
 10
1534.470589276487
 20
2702.494269174615
 30
0.0
 11
1509.470589276487
 21
2702.494269174615
 31
0.0
  0
LINE
  5
18D3F
330
18C7A
100
AcDbEntity
  8
部品1
 48
50.0
100
AcDbLine
 10
1536.470589276487
 20
3152.494269174611
 30
0.0
 11
1536.470589276487
 21
2702.494269174615
 31
0.0
  0
LINE
  5
18D40
330
18C7A
100
AcDbEntity
  8
部品1
 48
50.0
100
AcDbLine
 10
1508.470589276487
 20
3152.494269174607
 30
0.0
 11
1508.470589276487
 21
2702.494269174615
 31
0.0
  0
LINE
  5
18D41
330
18C7A
100
AcDbEntity
  8
部品1
 48
50.0
100
AcDbLine
 10
1534.470589276487
 20
3154.494269174618
 30
0.0
 11
1534.470589276487
 21
2702.494269174615
 31
0.0
  0
LINE
  5
18D42
330
18C7A
100
AcDbEntity
  8
部品1
 48
50.0
100
AcDbLine
 10
1509.470589276487
 20
3154.494269174615
 30
0.0
 11
1509.470589276487
 21
2702.494269174615
 31
0.0
  0
LINE
  5
18D43
330
18C7A
100
AcDbEntity
  8
部品1
100
AcDbLine
 10
3411.970589276556
 20
1392.494269174582
 30
0.0
 11
3411.970589276556
 21
1420.494269174596
 31
0.0
  0
LINE
  5
18D44
330
18C7A
100
AcDbEntity
  8
部品1
100
AcDbLine
 10
1311.970589276523
 20
1392.494269174596
 30
0.0
 11
1311.970589276523
 21
1420.494269174596
 31
0.0
  0
LINE
  5
18D45
330
18C7A
100
AcDbEntity
  8
部品1
100
AcDbLine
 10
891.9705892765232
 20
1392.494269174596
 30
0.0
 11
891.9705892765232
 21
1420.494269174596
 31
0.0
  0
LINE
  5
18D46
330
18C7A
100
AcDbEntity
  8
部品1
100
AcDbLine
 10
3411.97058927652
 20
3182.494269174477
 30
0.0
 11
3411.970589276523
 21
3154.494269174477
 31
0.0
  0
LINE
  5
18D47
330
18C7A
100
AcDbEntity
  8
部品1
100
AcDbLine
 10
2571.97058927652
 20
3182.494269174477
 30
0.0
 11
2571.970589276523
 21
3154.494269174477
 31
0.0
  0
LINE
  5
18D48
330
18C7A
100
AcDbEntity
  8
部品1
100
AcDbLine
 10
2991.97058927652
 20
3182.494269174477
 30
0.0
 11
2991.970589276523
 21
3154.494269174477
 31
0.0
  0
LINE
  5
18D49
330
18C7A
100
AcDbEntity
  8
部品1
100
AcDbLine
 10
2151.970589276519
 20
3182.494269174477
 30
0.0
 11
2151.970589276523
 21
3154.494269174477
 31
0.0
  0
LINE
  5
18D4A
330
18C7A
100
AcDbEntity
  8
部品1
100
AcDbLine
 10
1731.970589276519
 20
3182.494269174477
 30
0.0
 11
1731.970589276523
 21
3154.494269174477
 31
0.0
  0
LINE
  5
18D4B
330
18C7A
100
AcDbEntity
  8
部品1
100
AcDbLine
 10
1311.970589276519
 20
3182.494269174477
 30
0.0
 11
1311.970589276523
 21
3154.494269174477
 31
0.0
  0
LINE
  5
18D4C
330
18C7A
100
AcDbEntity
  8
部品1
100
AcDbLine
 10
891.9705892765195
 20
3182.494269174477
 30
0.0
 11
891.9705892765232
 21
3154.494269174477
 31
0.0
  0
LINE
  5
18D4D
330
18C7A
100
AcDbEntity
  8
部品1
100
AcDbLine
 10
471.9705892765232
 20
1392.494269174596
 30
0.0
 11
471.9705892765232
 21
1420.494269174596
 31
0.0
  0
LINE
  5
18D4E
330
18C7A
100
AcDbEntity
  8
部品1
100
AcDbLine
 10
444.9705892765305
 20
1420.494269174558
 30
0.0
 11
3858.970589276556
 21
1420.494269174596
 31
0.0
  0
LINE
  5
18D4F
330
18C7A
100
AcDbEntity
  8
部品1
100
AcDbLine
 10
3831.970589276556
 20
1392.494269174596
 30
0.0
 11
3831.970589276556
 21
1420.494269174596
 31
0.0
  0
LINE
  5
18D50
330
18C7A
100
AcDbEntity
  8
部品1
100
AcDbLine
 10
3858.970589276556
 20
1447.494269174593
 30
0.0
 11
3886.970589276556
 21
1447.494269174593
 31
0.0
  0
LINE
  5
18D51
330
18C7A
100
AcDbEntity
  8
部品1
100
AcDbLine
 10
3858.970589276556
 20
1867.494269174607
 30
0.0
 11
3886.970589276556
 21
1867.494269174607
 31
0.0
  0
LINE
  5
18D52
330
18C7A
100
AcDbEntity
  8
部品1
100
AcDbLine
 10
444.9705892765305
 20
1867.49426917448
 30
0.0
 11
416.9705892765305
 21
1867.49426917448
 31
0.0
  0
LINE
  5
18D53
330
18C7A
100
AcDbEntity
  8
部品1
100
AcDbLine
 10
3830.470589276541
 20
1867.49426917458
 30
0.0
 11
473.4705892765396
 21
1867.49426917448
 31
0.0
  0
LINE
  5
18D54
330
18C7A
100
AcDbEntity
  8
部品1
100
AcDbLine
 10
3830.470589276541
 20
2287.49426917458
 30
0.0
 11
473.4705892765396
 21
2287.49426917448
 31
0.0
  0
LINE
  5
18D55
330
18C7A
100
AcDbEntity
  8
部品1
100
AcDbLine
 10
444.9705892765305
 20
2287.49426917448
 30
0.0
 11
416.9705892765305
 21
2287.49426917448
 31
0.0
  0
LINE
  5
18D56
330
18C7A
100
AcDbEntity
  8
部品1
100
AcDbLine
 10
3858.970589276556
 20
2287.494269174608
 30
0.0
 11
3886.970589276556
 21
2287.494269174608
 31
0.0
  0
LINE
  5
18D57
330
18C7A
100
AcDbEntity
  8
部品1
 48
50.0
100
AcDbLine
 10
2151.970589276551
 20
2702.494269174586
 30
0.0
 11
2151.970589276581
 21
1448.994269174494
 31
0.0
  0
LINE
  5
18D58
330
18C7A
100
AcDbEntity
  8
破線
 48
10.0
100
AcDbLine
 10
2959.470589276535
 20
1472.494269174522
 30
0.0
 11
2176.970589276532
 21
1472.494269174505
 31
0.0
  0
LINE
  5
18D59
330
18C7A
100
AcDbEntity
  8
破線
 48
10.0
100
AcDbLine
 10
3009.47058927653
 20
1448.994269174509
 30
0.0
 11
3009.47058927653
 21
2702.494269174615
 31
0.0
  0
LINE
  5
18D5A
330
18C7A
100
AcDbEntity
  8
破線
 48
10.0
100
AcDbLine
 10
2959.470589276535
 20
1448.994269174505
 30
0.0
 11
2959.470589276531
 21
2702.494269174615
 31
0.0
  0
LINE
  5
18D5B
330
18C7A
100
AcDbEntity
  8
破線
 48
10.0
100
AcDbLine
 10
1344.47058927653
 20
1448.994269174509
 30
0.0
 11
1344.47058927653
 21
2702.494269174615
 31
0.0
  0
LINE
  5
18D5C
330
18C7A
100
AcDbEntity
  8
破線
 48
10.0
100
AcDbLine
 10
1294.470589276534
 20
1448.994269174505
 30
0.0
 11
1294.47058927653
 21
2702.494269174615
 31
0.0
  0
DIMENSION
  5
18D5D
330
18C7A
100
AcDbEntity
  8
寸法
100
AcDbDimension
  2
*D13
 10
1451.234916278005
 20
2488.887829538828
 30
0.0
 11
916.0604668248634
 21
2488.887829538828
 31
0.0
 12
-3742.925985830444
 22
-6453.628869860112
 32
0.0
 70
   128
 71
     5
 42
1062.99999999993
  3
INABA_S40G
100
AcDbAlignedDimension
 13
445.4705892765559
 23
2702.494269174505
 33
0.0
 14
1508.470589276486
 24
2702.494269174558
 34
0.0
100
AcDbRotatedDimension
1001
ACAD
1000
DSTYLE
1002
{
1002
}
  0
LINE
  5
18D5E
330
18C7A
100
AcDbEntity
  8
破線
 48
10.0
100
AcDbLine
 10
1294.470589276534
 20
1472.494269174469
 30
0.0
 11
496.9705892765414
 21
1472.494269174476
 31
0.0
  0
LINE
  5
18D5F
330
18C7A
100
AcDbEntity
  8
部品1
100
AcDbLine
 10
3831.970589276556
 20
3182.494269174604
 30
0.0
 11
3831.970589276556
 21
3154.494269174604
 31
0.0
  0
LINE
  5
18D60
330
18C7A
100
AcDbEntity
  8
部品1
100
AcDbLine
 10
3831.970589276556
 20
3182.494269174626
 30
0.0
 11
3831.970589276556
 21
3154.494269174626
 31
0.0
  0
LINE
  5
18D61
330
18C7A
100
AcDbEntity
  8
部品1
100
AcDbLine
 10
3858.970589276556
 20
3127.494269174607
 30
0.0
 11
3886.970589276556
 21
3127.494269174607
 31
0.0
  0
LINE
  5
18D62
330
18C7A
100
AcDbEntity
  8
部品1
100
AcDbLine
 10
3858.970589276556
 20
2707.494269174608
 30
0.0
 11
3886.970589276556
 21
2707.494269174608
 31
0.0
  0
LINE
  5
18D63
330
18C7A
100
AcDbEntity
  8
部品1
100
AcDbLine
 10
3858.470589276556
 20
3152.494269174604
 30
0.0
 11
3858.470589276556
 21
2702.494269174608
 31
0.0
  0
LINE
  5
18D64
330
18C7A
100
AcDbEntity
  8
部品1
100
AcDbLine
 10
3886.970589276533
 20
1447.494269174593
 30
0.0
 11
3886.970589276531
 21
1392.494269174596
 31
0.0
  0
LINE
  5
18D65
330
18C7A
100
AcDbEntity
  8
部品1
 48
50.0
100
AcDbLine
 10
3830.470589276556
 20
1448.994269174596
 30
0.0
 11
3858.970589276554
 21
1420.494269174596
 31
0.0
  0
LINE
  5
18D66
330
18C7A
100
AcDbEntity
  8
部品1
100
AcDbLine
 10
3886.970589276531
 20
1392.494269174596
 30
0.0
 11
3835.970589276531
 21
1392.494269174596
 31
0.0
  0
LINE
  5
18D67
330
18C7A
100
AcDbEntity
  8
部品1
100
AcDbLine
 10
3858.970589276533
 20
1447.494269174593
 30
0.0
 11
3886.970589276531
 21
1447.494269174593
 31
0.0
  0
LINE
  5
18D68
330
18C7A
100
AcDbEntity
  8
部品1
100
AcDbLine
 10
3886.970589276556
 20
3182.494269174604
 30
0.0
 11
3886.970589276531
 21
1392.494269174596
 31
0.0
  0
DIMENSION
  5
18D69
330
18C7A
100
AcDbEntity
  8
寸法
100
AcDbDimension
  2
*D12
 10
4534.396935010967
 20
1447.494269174593
 30
0.0
 11
4534.396935010965
 21
2287.4942691746
 31
0.0
 12
-3742.925985830444
 22
-6453.628869860112
 32
0.0
 70
   128
  1
4X420=<>
 71
     5
 42
1680.000000000014
  3
INABA_S40G
100
AcDbAlignedDimension
 13
3886.970589276556
 23
3127.494269174607
 33
0.0
 14
3886.970589276531
 24
1447.494269174593
 34
0.0
 50
90.0
100
AcDbRotatedDimension
1001
ACAD
1000
DSTYLE
1002
{
1002
}
  0
LINE
  5
18D6A
330
18C7A
100
AcDbEntity
  8
部品1
100
AcDbLine
 10
3858.970589276556
 20
3154.494269174604
 30
0.0
 11
3858.970589276534
 21
1420.494269174596
 31
0.0
  0
DIMENSION
  5
18D6B
330
18C7A
100
AcDbEntity
  8
寸法
100
AcDbDimension
  2
*D11
 10
4213.82831513858
 20
2607.276453505718
 30
0.0
 11
4113.828315138579
 21
2832.276453505718
 31
0.0
 12
-3742.925985830444
 22
-6453.628869860112
 32
0.0
 71
     5
 42
449.9999999999963
  3
INABA_S40G
100
AcDbAlignedDimension
 13
3858.470589276556
 23
3152.494269174604
 33
0.0
 14
3858.470589276556
 24
2702.494269174608
 34
0.0
 50
90.0
100
AcDbRotatedDimension
1001
ACAD
1000
DSTYLE
1002
{
1002
}
  0
LINE
  5
18D6C
330
18C7A
100
AcDbEntity
  8
部品1
100
AcDbLine
 10
3830.470589276547
 20
2702.494269174608
 30
0.0
 11
3830.470589276556
 21
1448.994269174596
 31
0.0
  0
LINE
  5
18D6D
330
18C7A
100
AcDbEntity
  8
破線
 48
10.0
100
AcDbLine
 10
3806.970589276549
 20
2702.494269174608
 30
0.0
 11
3806.970589276558
 21
1472.494269174593
 31
0.0
  0
LINE
  5
18D6E
330
18C7A
100
AcDbEntity
  8
部品1
100
AcDbLine
 10
2769.470589276556
 20
3146.494269174608
 30
0.0
 11
2794.470589276556
 21
3146.494269174611
 31
0.0
  0
LINE
  5
18D6F
330
18C7A
100
AcDbEntity
  8
部品1
100
AcDbLine
 10
2810.970589276556
 20
3172.494269174611
 30
0.0
 11
2816.970589276556
 21
3172.494269174611
 31
0.0
  0
LINE
  5
18D70
330
18C7A
100
AcDbEntity
  8
部品1
100
AcDbLine
 10
2816.970589276556
 20
3172.494269174611
 30
0.0
 11
2816.970589276556
 21
3154.494269174611
 31
0.0
  0
LINE
  5
18D71
330
18C7A
100
AcDbEntity
  8
部品1
100
AcDbLine
 10
2746.970589276556
 20
3172.494269174611
 30
0.0
 11
2752.970589276556
 21
3172.494269174611
 31
0.0
  0
LINE
  5
18D72
330
18C7A
100
AcDbEntity
  8
部品1
100
AcDbLine
 10
2746.970589276556
 20
3172.494269174611
 30
0.0
 11
2746.970589276556
 21
3154.494269174611
 31
0.0
  0
LINE
  5
18D73
330
18C7A
100
AcDbEntity
  8
部品1
100
AcDbLine
 10
2769.470589276556
 20
2702.494269174615
 30
0.0
 11
2794.470589276556
 21
2702.494269174615
 31
0.0
  0
LINE
  5
18D74
330
18C7A
100
AcDbEntity
  8
部品1
 48
50.0
100
AcDbLine
 10
2794.470589276556
 20
3154.494269174615
 30
0.0
 11
2794.470589276556
 21
2702.494269174615
 31
0.0
  0
LINE
  5
18D75
330
18C7A
100
AcDbEntity
  8
部品1
 48
50.0
100
AcDbLine
 10
2769.470589276554
 20
3154.494269174618
 30
0.0
 11
2769.470589276556
 21
2702.494269174615
 31
0.0
  0
LINE
  5
18D76
330
18C7A
100
AcDbEntity
  8
部品1
 48
50.0
100
AcDbLine
 10
2795.470589276556
 20
3152.494269174607
 30
0.0
 11
2795.470589276556
 21
2702.494269174615
 31
0.0
  0
LINE
  5
18D77
330
18C7A
100
AcDbEntity
  8
部品1
 48
50.0
100
AcDbLine
 10
2767.470589276556
 20
3152.494269174611
 30
0.0
 11
2767.470589276556
 21
2702.494269174615
 31
0.0
  0
LINE
  5
18D78
330
18C7A
100
AcDbEntity
  8
破線
 48
10.0
100
AcDbLine
 10
2176.97058927653
 20
1448.994269174509
 30
0.0
 11
2176.97058927653
 21
2702.494269174588
 31
0.0
  0
LINE
  5
18D79
330
18C7A
100
AcDbEntity
  8
破線
 48
10.0
100
AcDbLine
 10
2126.970589276534
 20
1448.994269174505
 30
0.0
 11
2126.970589276531
 21
2702.494269174586
 31
0.0
  0
LINE
  5
18D7A
330
18C7A
100
AcDbEntity
  8
部品1
100
AcDbLine
 10
2794.470589276556
 20
3154.494269174622
 30
0.0
 11
3858.970589276556
 21
3154.494269174604
 31
0.0
  0
LINE
  5
18D7B
330
18C7A
100
AcDbEntity
  8
細線
 48
50.0
100
AcDbLine
 10
3858.470589276556
 20
2702.494269174608
 30
0.0
 11
2795.470589276556
 21
3152.494269174607
 31
0.0
  0
LINE
  5
18D7C
330
18C7A
100
AcDbEntity
  8
部品1
100
AcDbLine
 10
2795.470589276555
 20
2702.494269174615
 30
0.0
 11
3858.470589276556
 21
2702.494269174608
 31
0.0
  0
LINE
  5
18D7D
330
18C7A
100
AcDbEntity
  8
部品1
100
AcDbLine
 10
2795.470589276556
 20
3152.494269174611
 30
0.0
 11
3858.470589276556
 21
3152.494269174604
 31
0.0
  0
LINE
  5
18D7E
330
18C7A
100
AcDbEntity
  8
細線
 48
50.0
100
AcDbLine
 10
3858.470589276556
 20
3152.494269174604
 30
0.0
 11
2795.470589276555
 21
2702.494269174615
 31
0.0
  0
DIMENSION
  5
18D7F
330
18C7A
100
AcDbEntity
  8
寸法
100
AcDbDimension
  2
*D10
 10
3801.234916278101
 20
2488.887829538937
 30
0.0
 11
3318.360544398907
 21
2488.887829538937
 31
0.0
 12
-3742.925985830444
 22
-6453.628869860112
 32
0.0
 70
   128
 71
     5
 42
1063.000000000012
  3
INABA_S40G
100
AcDbAlignedDimension
 13
2795.470589276555
 23
2702.494269174615
 33
0.0
 14
3858.470589276567
 24
2702.494269174608
 34
0.0
100
AcDbRotatedDimension
1001
ACAD
1000
DSTYLE
1002
{
1002
}
  0
LINE
  5
18D80
330
18C7A
100
AcDbEntity
  8
破線
 48
10.0
100
AcDbLine
 10
3806.970589276556
 20
1472.494269174594
 30
0.0
 11
3009.47058927653
 21
1472.494269174523
 31
0.0
  0
DIMENSION
  5
18D81
330
18C7A
100
AcDbEntity
  8
寸法
100
AcDbDimension
  2
*D9
 10
4534.396935010941
 20
1392.494269174596
 30
0.0
 11
4534.39693501094
 21
1084.008987800356
 31
0.0
 12
-3742.925985830444
 22
-6453.628869860112
 32
0.0
 70
   128
 71
     5
 42
54.99999999999636
  3
INABA_S40G
100
AcDbAlignedDimension
 13
3886.970589276531
 23
1447.494269174593
 33
0.0
 14
3886.970589276531
 24
1392.494269174596
 34
0.0
 50
90.0
100
AcDbRotatedDimension
1001
ACAD
1000
DSTYLE
1002
{
1002
}
  0
LINE
  5
18D82
330
18C7A
100
AcDbEntity
  8
部品1
100
AcDbLine
 10
471.9705892765196
 20
3182.494269174477
 30
0.0
 11
471.9705892765232
 21
3154.494269174477
 31
0.0
  0
LINE
  5
18D83
330
18C7A
100
AcDbEntity
  8
部品1
100
AcDbLine
 10
471.9705892765559
 20
3182.494269174509
 30
0.0
 11
471.9705892765559
 21
3154.494269174509
 31
0.0
  0
LINE
  5
18D84
330
18C7A
100
AcDbEntity
  8
部品1
100
AcDbLine
 10
444.9705892765232
 20
3127.49426917448
 30
0.0
 11
416.9705892765232
 21
3127.49426917448
 31
0.0
  0
LINE
  5
18D85
330
18C7A
100
AcDbEntity
  8
部品1
100
AcDbLine
 10
444.9705892765305
 20
2707.49426917448
 30
0.0
 11
416.9705892765305
 21
2707.49426917448
 31
0.0
  0
LINE
  5
18D86
330
18C7A
100
AcDbEntity
  8
部品1
 48
50.0
100
AcDbLine
 10
445.4705892765542
 20
3152.494269174506
 30
0.0
 11
445.4705892765559
 21
2702.494269174505
 31
0.0
  0
LINE
  5
18D87
330
18C7A
100
AcDbEntity
  8
部品1
 48
50.0
100
AcDbLine
 10
473.470589276545
 20
1448.994269174573
 30
0.0
 11
444.970589276545
 21
1420.494269174574
 31
0.0
  0
LINE
  5
18D88
330
18C7A
100
AcDbEntity
  8
部品1
100
AcDbLine
 10
471.9705892765232
 20
1392.494269174465
 30
0.0
 11
416.9705892765486
 21
1392.494269174465
 31
0.0
  0
LINE
  5
18D89
330
18C7A
100
AcDbEntity
  8
部品1
100
AcDbLine
 10
444.9705892765305
 20
1447.494269174429
 30
0.0
 11
416.9705892765469
 21
1447.494269174429
 31
0.0
  0
LINE
  5
18D8A
330
18C7A
100
AcDbEntity
  8
部品1
100
AcDbLine
 10
444.9705892765305
 20
1447.494269174465
 30
0.0
 11
416.9705892765469
 21
1447.494269174465
 31
0.0
  0
LINE
  5
18D8B
330
18C7A
100
AcDbEntity
  8
部品1
100
AcDbLine
 10
444.9705892765469
 20
1447.49426917448
 30
0.0
 11
416.9705892765469
 21
1447.49426917448
 31
0.0
  0
LINE
  5
18D8C
330
18C7A
100
AcDbEntity
  8
部品1
100
AcDbLine
 10
416.9705892765469
 20
1447.494269174429
 30
0.0
 11
416.9705892765486
 21
1392.494269174433
 31
0.0
  0
LINE
  5
18D8D
330
18C7A
100
AcDbEntity
  8
部品1
100
AcDbLine
 10
416.9705892765196
 20
3182.494269174477
 30
0.0
 11
416.9705892765486
 21
1392.494269174465
 31
0.0
  0
LINE
  5
18D8E
330
18C7A
100
AcDbEntity
  8
部品1
100
AcDbLine
 10
444.9705892765305
 20
1420.494269174556
 30
0.0
 11
444.9705892765559
 21
3154.494269174509
 31
0.0
  0
LINE
  5
18D8F
330
18C7A
100
AcDbEntity
  8
部品1
100
AcDbLine
 10
473.4705892765323
 20
2702.494269174608
 30
0.0
 11
473.470589276545
 21
1448.994269174571
 31
0.0
  0
LINE
  5
18D90
330
18C7A
100
AcDbEntity
  8
破線
 48
10.0
100
AcDbLine
 10
496.9705892765305
 20
2702.494269174608
 30
0.0
 11
496.9705892765451
 21
1472.494269174476
 31
0.0
  0
DIMENSION
  5
18D91
330
18C7A
100
AcDbEntity
  8
寸法
100
AcDbDimension
  2
*D8
 10
3886.970589276531
 20
410.7433333855515
 30
0.0
 11
2168.197775309287
 21
410.7433333855515
 31
0.0
 12
-3742.925985830444
 22
-6453.628869860112
 32
0.0
 70
   128
 71
     5
 42
3469.999999999982
  3
INABA_S40G
100
AcDbAlignedDimension
 13
416.9705892765486
 23
1392.494269174433
 33
0.0
 14
3886.970589276531
 24
1392.49426917456
 34
0.0
100
AcDbRotatedDimension
1001
ACAD
1000
DSTYLE
1002
{
1070
   341
1005
0
1002
}
  0
LINE
  5
18D92
330
18C7A
100
AcDbEntity
  8
部品1
100
AcDbLine
 10
444.9705892765559
 20
3154.494269174624
 30
0.0
 11
1509.470589276487
 21
3154.494269174626
 31
0.0
  0
LINE
  5
18D93
330
18C7A
100
AcDbEntity
  8
部品1
100
AcDbLine
 10
3886.970589276531
 20
1392.494269174596
 30
0.0
 11
3411.970589276556
 21
1392.494269174582
 31
0.0
  0
LINE
  5
18D94
330
18C7A
100
AcDbEntity
  8
部品1
100
AcDbLine
 10
416.9705892765559
 20
3182.494269174509
 30
0.0
 11
3886.970589276556
 21
3182.494269174604
 31
0.0
  0
LINE
  5
18D95
330
18C7A
100
AcDbEntity
  8
部品1
100
AcDbLine
 10
445.4705892765559
 20
2702.494269174509
 30
0.0
 11
1508.470589276487
 21
2702.494269174558
 31
0.0
  0
LINE
  5
18D96
330
18C7A
100
AcDbEntity
  8
細線
 48
50.0
100
AcDbLine
 10
2767.470589276556
 20
3152.494269174611
 30
0.0
 11
1536.470589276487
 21
2702.494269174558
 31
0.0
  0
LINE
  5
18D97
330
18C7A
100
AcDbEntity
  8
部品1
100
AcDbLine
 10
445.4705892765542
 20
3152.494269174509
 30
0.0
 11
1508.470589276485
 21
3152.494269174558
 31
0.0
  0
LINE
  5
18D98
330
18C7A
100
AcDbEntity
  8
細線
 48
50.0
100
AcDbLine
 10
2767.470589276554
 20
2702.494269174615
 30
0.0
 11
1536.470589276485
 21
3152.494269174558
 31
0.0
  0
LINE
  5
18D99
330
18C7A
100
AcDbEntity
  8
破線
 48
10.0
100
AcDbLine
 10
2126.970589276534
 20
1472.494269174502
 30
0.0
 11
1344.47058927653
 21
1472.494269174473
 31
0.0
  0
LINE
  5
18D9A
330
18C7A
100
AcDbEntity
  8
部品1
100
AcDbLine
 10
3830.470589276556
 20
1448.994269174596
 30
0.0
 11
473.4705892764487
 21
1448.994269174476
 31
0.0
  0
DIMENSION
  5
18D9B
330
18C7A
100
AcDbEntity
  8
寸法
100
AcDbDimension
  2
*D7
 10
471.970589276555
 20
3698.302488799491
 30
0.0
 11
108.4853079022819
 21
3698.302488799491
 31
0.0
 12
-3742.925985830444
 22
-6453.628869860112
 32
0.0
 70
   128
 71
     5
 42
55.00000000003456
  3
INABA_S40G
100
AcDbAlignedDimension
 13
416.9705892765205
 23
3182.494269174509
 33
0.0
 14
471.970589276555
 24
3182.494269174509
 34
0.0
100
AcDbRotatedDimension
1001
ACAD
1000
DSTYLE
1002
{
1002
}
  0
DIMENSION
  5
18D9C
330
18C7A
100
AcDbEntity
  8
寸法
100
AcDbDimension
  2
*D6
 10
4534.396935010967
 20
3127.494269174607
 30
0.0
 11
4534.396935010965
 21
3490.979550548844
 31
0.0
 12
-3742.925985830444
 22
-6453.628869860112
 32
0.0
 70
   128
 71
     5
 42
54.99999999999636
  3
INABA_S40G
100
AcDbAlignedDimension
 13
3886.970589276556
 23
3182.494269174604
 33
0.0
 14
3886.970589276556
 24
3127.494269174607
 34
0.0
 50
90.0
100
AcDbRotatedDimension
1001
ACAD
1000
DSTYLE
1002
{
1002
}
  0
DIMENSION
  5
18D9D
330
18C7A
100
AcDbEntity
  8
寸法
100
AcDbDimension
  2
*D5
 10
3886.970589276556
 20
3698.302488799589
 30
0.0
 11
4195.455870650794
 21
3698.302488799589
 31
0.0
 12
-3742.925985830444
 22
-6453.628869860112
 32
0.0
 70
   128
 71
     5
 42
55.0
  3
INABA_S40G
100
AcDbAlignedDimension
 13
3831.970589276556
 23
3182.494269174604
 33
0.0
 14
3886.970589276556
 24
3182.494269174604
 34
0.0
100
AcDbRotatedDimension
1001
ACAD
1000
DSTYLE
1002
{
1002
}
  0
DIMENSION
  5
18D9E
330
18C7A
100
AcDbEntity
  8
寸法
100
AcDbDimension
  2
*D4
 10
3831.970589276556
 20
3698.302488799607
 30
0.0
 11
2151.970589276555
 21
3698.302488799607
 31
0.0
 12
-3742.925985830444
 22
-6453.628869860112
 32
0.0
 70
   128
  1
8X420=<>
 71
     5
 42
3360.000000000001
  3
INABA_S40G
100
AcDbAlignedDimension
 13
471.970589276555
 23
3182.494269174509
 33
0.0
 14
3831.970589276556
 24
3182.494269174604
 34
0.0
100
AcDbRotatedDimension
1001
ACAD
1000
DSTYLE
1002
{
1002
}
  0
DIMENSION
  5
18D9F
330
18C7A
100
AcDbEntity
  8
寸法
100
AcDbDimension
  2
*D3
 10
4899.503876750603
 20
1392.494269174596
 30
0.0
 11
4899.503876750601
 21
2287.4942691746
 31
0.0
 12
-3742.925985830444
 22
-6453.628869860112
 32
0.0
 70
   128
 71
     5
 42
1790.000000000007
  3
INABA_S40G
100
AcDbAlignedDimension
 13
3886.970589276556
 23
3182.494269174604
 33
0.0
 14
3886.970589276531
 24
1392.494269174596
 34
0.0
 50
90.0
100
AcDbRotatedDimension
1001
ACAD
1000
DSTYLE
1002
{
1002
}
  0
ENDBLK
  5
18DA1
330
18C7A
100
AcDbEntity
  8
0
 48
50.0
100
AcDbBlockEnd
  0
BLOCK
  5
1C4CB
330
1C4CA
100
AcDbEntity
  8
0
 48
50.0
100
AcDbBlockBegin
  2
_NONE
 70
     0
 10
0.0
 20
0.0
 30
0.0
  3
_NONE
  1

  0
CIRCLE
  5
1C4CC
330
1C4CA
100
AcDbEntity
  8
0
  6
ByBlock
 62
     0
 48
50.0
100
AcDbCircle
 10
0.0
 20
0.0
 30
0.0
 40
0.25
  0
ENDBLK
  5
1C4CD
330
1C4CA
100
AcDbEntity
  8
0
 48
50.0
100
AcDbBlockEnd
  0
BLOCK
  5
20DEE
330
20DE2
100
AcDbEntity
  8
0
 48
50.0
100
AcDbBlockBegin
  2
*D19
 70
     1
 10
0.0
 20
0.0
 30
0.0
  3
*D19
  1

  0
LINE
  5
266E1
330
20DE2
100
AcDbEntity
  8
寸法
 62
     0
 48
50.0
370
    -2
100
AcDbLine
 10
11078.6
 20
7356.898168834388
 30
0.0
 11
11078.6
 21
8355.11849089331
 31
0.0
  0
LINE
  5
266E2
330
20DE2
100
AcDbEntity
  8
寸法
 62
     0
 48
50.0
370
    -2
100
AcDbLine
 10
11123.6
 20
8083.164626928299
 30
0.0
 11
11123.6
 21
8355.11849089331
 31
0.0
  0
LINE
  5
266E3
330
20DE2
100
AcDbEntity
  8
寸法
 62
     0
 48
50.0
370
    -2
100
AcDbLine
 10
11078.6
 20
8295.11849089331
 30
0.0
 11
10978.6
 21
8295.11849089331
 31
0.0
  0
LINE
  5
266E4
330
20DE2
100
AcDbEntity
  8
寸法
 62
     0
 48
50.0
370
    -2
100
AcDbLine
 10
11123.6
 20
8295.11849089331
 30
0.0
 11
11460.94924240492
 21
8295.11849089331
 31
0.0
  0
LINE
  5
266E5
330
20DE2
100
AcDbEntity
  8
寸法
 62
     0
 48
50.0
370
    -2
100
AcDbLine
 10
11078.6
 20
8295.11849089331
 30
0.0
 11
11123.6
 21
8295.11849089331
 31
0.0
  0
INSERT
  5
266E6
330
20DE2
100
AcDbEntity
  8
寸法
 62
     0
 48
50.0
370
    -2
100
AcDbBlockReference
  2
_DOTSMALL
 10
11078.6
 20
8295.11849089331
 30
0.0
 41
100.0
 42
100.0
 43
100.0
  0
INSERT
  5
266E7
330
20DE2
100
AcDbEntity
  8
寸法
 62
     0
 48
50.0
370
    -2
100
AcDbBlockReference
  2
_DOTSMALL
 10
11123.6
 20
8295.11849089331
 30
0.0
 41
100.0
 42
100.0
 43
100.0
 50
180.0
  0
MTEXT
  5
266E8
330
20DE2
100
AcDbEntity
  8
寸法
 62
     7
 48
50.0
100
AcDbMText
 10
11394.77462120246
 20
8395.11849089331
 30
0.0
 40
120.0
 41
0.0
 71
     5
 72
     1
  1
\A1;a
  7
STYLE1
 73
     1
 44
1.0
1001
ACAD
1000
MTEXTBEGIN
1070
    73
1070
     1
1070
    44
1040
1.0
1070
    74
1070
     0
1000
MTEXTEND
  0
POINT
  5
266E9
330
20DE2
100
AcDbEntity
  8
DEFPOINTS
 62
     0
 48
50.0
100
AcDbPoint
 10
11078.6
 20
7336.898168834387
 30
0.0
  0
POINT
  5
266EA
330
20DE2
100
AcDbEntity
  8
DEFPOINTS
 62
     0
 48
50.0
100
AcDbPoint
 10
11123.6
 20
8063.164626928299
 30
0.0
  0
POINT
  5
266EB
330
20DE2
100
AcDbEntity
  8
DEFPOINTS
 62
     0
 48
50.0
100
AcDbPoint
 10
11123.6
 20
8295.11849089331
 30
0.0
  0
ENDBLK
  5
20DEF
330
20DE2
100
AcDbEntity
  8
0
 48
50.0
100
AcDbBlockEnd
  0
BLOCK
  5
20E08
330
20DFC
100
AcDbEntity
  8
0
 48
50.0
100
AcDbBlockBegin
  2
*D20
 70
     1
 10
0.0
 20
0.0
 30
0.0
  3
*D20
  1

  0
LINE
  5
266EC
330
20DFC
100
AcDbEntity
  8
寸法
 62
     0
 48
50.0
370
    -2
100
AcDbLine
 10
5323.600000000007
 20
8083.164626928301
 30
0.0
 11
5323.600000000007
 21
8355.11849089331
 31
0.0
  0
LINE
  5
266ED
330
20DFC
100
AcDbEntity
  8
寸法
 62
     0
 48
50.0
370
    -2
100
AcDbLine
 10
5368.6
 20
7356.898168834388
 30
0.0
 11
5368.6
 21
8355.11849089331
 31
0.0
  0
LINE
  5
266EE
330
20DFC
100
AcDbEntity
  8
寸法
 62
     0
 48
50.0
370
    -2
100
AcDbLine
 10
5368.6
 20
8295.11849089331
 30
0.0
 11
5468.600000000001
 21
8295.11849089331
 31
0.0
  0
LINE
  5
266EF
330
20DFC
100
AcDbEntity
  8
寸法
 62
     0
 48
50.0
370
    -2
100
AcDbLine
 10
5323.600000000007
 20
8295.11849089331
 30
0.0
 11
4986.250757595083
 21
8295.11849089331
 31
0.0
  0
LINE
  5
266F0
330
20DFC
100
AcDbEntity
  8
寸法
 62
     0
 48
50.0
370
    -2
100
AcDbLine
 10
5368.6
 20
8295.11849089331
 30
0.0
 11
5323.600000000007
 21
8295.11849089331
 31
0.0
  0
INSERT
  5
266F1
330
20DFC
100
AcDbEntity
  8
寸法
 62
     0
 48
50.0
370
    -2
100
AcDbBlockReference
  2
_DOTSMALL
 10
5368.6
 20
8295.11849089331
 30
0.0
 41
100.0
 42
100.0
 43
100.0
 50
180.0
  0
INSERT
  5
266F2
330
20DFC
100
AcDbEntity
  8
寸法
 62
     0
 48
50.0
370
    -2
100
AcDbBlockReference
  2
_DOTSMALL
 10
5323.600000000007
 20
8295.11849089331
 30
0.0
 41
100.0
 42
100.0
 43
100.0
  0
MTEXT
  5
266F3
330
20DFC
100
AcDbEntity
  8
寸法
 62
     7
 48
50.0
100
AcDbMText
 10
5052.425378797541
 20
8395.11849089331
 30
0.0
 40
120.0
 41
0.0
 71
     5
 72
     1
  1
\A1;a
  7
STYLE1
 73
     1
 44
1.0
1001
ACAD
1000
MTEXTBEGIN
1070
    73
1070
     1
1070
    44
1040
1.0
1070
    74
1070
     0
1000
MTEXTEND
  0
POINT
  5
266F4
330
20DFC
100
AcDbEntity
  8
DEFPOINTS
 62
     0
 48
50.0
100
AcDbPoint
 10
5323.600000000007
 20
8063.164626928301
 30
0.0
  0
POINT
  5
266F5
330
20DFC
100
AcDbEntity
  8
DEFPOINTS
 62
     0
 48
50.0
100
AcDbPoint
 10
5368.6
 20
7336.898168834387
 30
0.0
  0
POINT
  5
266F6
330
20DFC
100
AcDbEntity
  8
DEFPOINTS
 62
     0
 48
50.0
100
AcDbPoint
 10
5368.6
 20
8295.11849089331
 30
0.0
  0
ENDBLK
  5
20E09
330
20DFC
100
AcDbEntity
  8
0
 48
50.0
100
AcDbBlockEnd
  0
BLOCK
  5
2274E
330
22742
100
AcDbEntity
  8
0
 48
50.0
100
AcDbBlockBegin
  2
*D25
 70
     1
 10
0.0
 20
0.0
 30
0.0
  3
*D25
  1

  0
LINE
  5
266F7
330
22742
100
AcDbEntity
  8
寸法
 62
     0
 48
50.0
370
    -2
100
AcDbLine
 10
4725.66500633007
 20
7411.898168834395
 30
0.0
 11
4433.721909610675
 21
7411.898168834395
 31
0.0
  0
LINE
  5
266F8
330
22742
100
AcDbEntity
  8
寸法
 62
     0
 48
50.0
370
    -2
100
AcDbLine
 10
5348.600000000001
 20
7336.898168834387
 30
0.0
 11
4433.721909610675
 21
7336.898168834387
 31
0.0
  0
LINE
  5
266F9
330
22742
100
AcDbEntity
  8
寸法
 62
     0
 48
50.0
370
    -2
100
AcDbLine
 10
4493.721909610674
 20
7411.898168834395
 30
0.0
 11
4493.721909610674
 21
7511.898168834395
 31
0.0
  0
LINE
  5
266FA
330
22742
100
AcDbEntity
  8
寸法
 62
     0
 48
50.0
370
    -2
100
AcDbLine
 10
4493.721909610674
 20
7336.898168834387
 30
0.0
 11
4493.721909610674
 21
7236.898168834388
 31
0.0
  0
LINE
  5
266FB
330
22742
100
AcDbEntity
  8
寸法
 62
     0
 48
50.0
370
    -2
100
AcDbLine
 10
4493.721909610674
 20
7411.898168834395
 30
0.0
 11
4493.721909610674
 21
7336.898168834387
 31
0.0
  0
INSERT
  5
266FC
330
22742
100
AcDbEntity
  8
寸法
 62
     0
 48
50.0
370
    -2
100
AcDbBlockReference
  2
_DOTSMALL
 10
4493.721909610674
 20
7411.898168834395
 30
0.0
 41
100.0
 42
100.0
 43
100.0
 50
270.0
  0
INSERT
  5
266FD
330
22742
100
AcDbEntity
  8
寸法
 62
     0
 48
50.0
370
    -2
100
AcDbBlockReference
  2
_DOTSMALL
 10
4493.721909610674
 20
7336.898168834387
 30
0.0
 41
100.0
 42
100.0
 43
100.0
 50
90.0
  0
MTEXT
  5
266FE
330
22742
100
AcDbEntity
  8
寸法
 62
     7
 48
50.0
100
AcDbMText
 10
4393.721909610673
 20
7374.398168834392
 30
0.0
 40
120.0
 41
0.0
 71
     5
 72
     1
  1
\A1;c
  7
STYLE1
 11
0.0000000000000001
 21
1.0
 31
0.0
 73
     1
 44
1.0
1001
ACAD
1000
MTEXTBEGIN
1070
    73
1070
     1
1070
    44
1040
1.0
1070
    74
1070
     0
1000
MTEXTEND
  0
POINT
  5
266FF
330
22742
100
AcDbEntity
  8
DEFPOINTS
 62
     0
 48
50.0
100
AcDbPoint
 10
4745.665006330069
 20
7411.898168834395
 30
0.0
  0
POINT
  5
26700
330
22742
100
AcDbEntity
  8
DEFPOINTS
 62
     0
 48
50.0
100
AcDbPoint
 10
5368.6
 20
7336.898168834387
 30
0.0
  0
POINT
  5
26701
330
22742
100
AcDbEntity
  8
DEFPOINTS
 62
     0
 48
50.0
100
AcDbPoint
 10
4493.721909610674
 20
7336.898168834387
 30
0.0
  0
ENDBLK
  5
2274F
330
22742
100
AcDbEntity
  8
0
 48
50.0
100
AcDbBlockEnd
  0
BLOCK
  5
22768
330
2275C
100
AcDbEntity
  8
0
 48
50.0
100
AcDbBlockBegin
  2
*D26
 70
     1
 10
0.0
 20
0.0
 30
0.0
  3
*D26
  1

  0
LINE
  5
26702
330
2275C
100
AcDbEntity
  8
寸法
 62
     0
 48
50.0
370
    -2
100
AcDbLine
 10
5348.600000000001
 20
5956.898168834389
 30
0.0
 11
4433.721909610675
 21
5956.898168834389
 31
0.0
  0
LINE
  5
26703
330
2275C
100
AcDbEntity
  8
寸法
 62
     0
 48
50.0
370
    -2
100
AcDbLine
 10
4725.665006330073
 20
5901.898168834414
 30
0.0
 11
4433.721909610675
 21
5901.898168834414
 31
0.0
  0
LINE
  5
26704
330
2275C
100
AcDbEntity
  8
寸法
 62
     0
 48
50.0
370
    -2
100
AcDbLine
 10
4493.721909610674
 20
5956.898168834389
 30
0.0
 11
4493.721909610674
 21
6056.89816883439
 31
0.0
  0
LINE
  5
26705
330
2275C
100
AcDbEntity
  8
寸法
 62
     0
 48
50.0
370
    -2
100
AcDbLine
 10
4493.721909610674
 20
5901.898168834414
 30
0.0
 11
4493.721909610674
 21
5801.898168834415
 31
0.0
  0
LINE
  5
26706
330
2275C
100
AcDbEntity
  8
寸法
 62
     0
 48
50.0
370
    -2
100
AcDbLine
 10
4493.721909610674
 20
5956.898168834389
 30
0.0
 11
4493.721909610674
 21
5901.898168834414
 31
0.0
  0
INSERT
  5
26707
330
2275C
100
AcDbEntity
  8
寸法
 62
     0
 48
50.0
370
    -2
100
AcDbBlockReference
  2
_DOTSMALL
 10
4493.721909610674
 20
5956.898168834389
 30
0.0
 41
100.0
 42
100.0
 43
100.0
 50
270.0
  0
INSERT
  5
26708
330
2275C
100
AcDbEntity
  8
寸法
 62
     0
 48
50.0
370
    -2
100
AcDbBlockReference
  2
_DOTSMALL
 10
4493.721909610674
 20
5901.898168834414
 30
0.0
 41
100.0
 42
100.0
 43
100.0
 50
90.0
  0
MTEXT
  5
26709
330
2275C
100
AcDbEntity
  8
寸法
 62
     7
 48
50.0
100
AcDbMText
 10
4393.721909610674
 20
5929.398168834403
 30
0.0
 40
120.0
 41
0.0
 71
     5
 72
     1
  1
\A1;b
  7
STYLE1
 11
0.0000000000000001
 21
1.0
 31
0.0
 73
     1
 44
1.0
1001
ACAD
1000
MTEXTBEGIN
1070
    73
1070
     1
1070
    44
1040
1.0
1070
    74
1070
     0
1000
MTEXTEND
  0
POINT
  5
2670A
330
2275C
100
AcDbEntity
  8
DEFPOINTS
 62
     0
 48
50.0
100
AcDbPoint
 10
5368.6
 20
5956.898168834389
 30
0.0
  0
POINT
  5
2670B
330
2275C
100
AcDbEntity
  8
DEFPOINTS
 62
     0
 48
50.0
100
AcDbPoint
 10
4745.665006330074
 20
5901.898168834414
 30
0.0
  0
POINT
  5
2670C
330
2275C
100
AcDbEntity
  8
DEFPOINTS
 62
     0
 48
50.0
100
AcDbPoint
 10
4493.721909610674
 20
5901.898168834414
 30
0.0
  0
ENDBLK
  5
22769
330
2275C
100
AcDbEntity
  8
0
 48
50.0
100
AcDbBlockEnd
  0
BLOCK
  5
240CF
330
240C4
100
AcDbEntity
  8
0
 48
50.0
100
AcDbBlockBegin
  2
*D27
 70
     1
 10
0.0
 20
0.0
 30
0.0
  3
*D27
  1

  0
LINE
  5
26822
330
240C4
100
AcDbEntity
  8
寸法
 62
     0
 48
50.0
370
    -2
100
AcDbLine
 10
11078.6
 20
6791.898168834426
 30
0.0
 11
11078.6
 21
6946.496781932499
 31
0.0
  0
LINE
  5
26823
330
240C4
100
AcDbEntity
  8
寸法
 62
     0
 48
50.0
370
    -2
100
AcDbLine
 10
10958.6
 20
6791.898168834435
 30
0.0
 11
10958.6
 21
6946.496781932499
 31
0.0
  0
LINE
  5
26824
330
240C4
100
AcDbEntity
  8
寸法
 62
     0
 48
50.0
370
    -2
100
AcDbLine
 10
10958.6
 20
6886.496781932499
 30
0.0
 11
11078.6
 21
6886.496781932499
 31
0.0
  0
LINE
  5
26825
330
240C4
100
AcDbEntity
  8
寸法
 62
     0
 48
50.0
370
    -2
100
AcDbLine
 10
11078.6
 20
6886.496781932499
 30
0.0
 11
11484.70629921261
 21
6886.496781932499
 31
0.0
  0
INSERT
  5
26826
330
240C4
100
AcDbEntity
  8
寸法
 62
     0
 48
50.0
370
    -2
100
AcDbBlockReference
  2
_DOTSMALL
 10
10958.6
 20
6886.496781932499
 30
0.0
 41
100.0
 42
100.0
 43
100.0
 50
180.0
  0
INSERT
  5
26827
330
240C4
100
AcDbEntity
  8
寸法
 62
     0
 48
50.0
370
    -2
100
AcDbBlockReference
  2
_DOTSMALL
 10
11078.6
 20
6886.496781932499
 30
0.0
 41
100.0
 42
100.0
 43
100.0
  0
MTEXT
  5
26828
330
240C4
100
AcDbEntity
  8
寸法
 62
     7
 48
50.0
100
AcDbMText
 10
11348.65905511811
 20
6986.508592956122
 30
0.0
 40
120.0
 41
0.0
 71
     5
 72
     1
  1
\A1;120
  7
STYLE1
 73
     1
 44
1.0
1001
ACAD
1000
MTEXTBEGIN
1070
    73
1070
     1
1070
    44
1040
1.0
1070
    74
1070
     0
1000
MTEXTEND
  0
POINT
  5
26829
330
240C4
100
AcDbEntity
  8
DEFPOINTS
 62
     0
 48
50.0
100
AcDbPoint
 10
11078.6
 20
6771.898168834425
 30
0.0
  0
POINT
  5
2682A
330
240C4
100
AcDbEntity
  8
DEFPOINTS
 62
     0
 48
50.0
100
AcDbPoint
 10
10958.6
 20
6771.898168834437
 30
0.0
  0
POINT
  5
2682B
330
240C4
100
AcDbEntity
  8
DEFPOINTS
 62
     0
 48
50.0
100
AcDbPoint
 10
10958.6
 20
6886.496781932499
 30
0.0
  0
ENDBLK
  5
240D0
330
240C4
100
AcDbEntity
  8
0
 48
50.0
100
AcDbBlockEnd
  0
BLOCK
  5
240DC
330
240D1
100
AcDbEntity
  8
0
 48
50.0
100
AcDbBlockBegin
  2
*D28
 70
     1
 10
0.0
 20
0.0
 30
0.0
  3
*D28
  1

  0
LINE
  5
267A7
330
240D1
100
AcDbEntity
  8
寸法
 62
     0
 48
50.0
370
    -2
100
AcDbLine
 10
10478.59999999999
 20
6236.898168834403
 30
0.0
 11
10337.81202022566
 21
6236.898168834403
 31
0.0
  0
LINE
  5
267A8
330
240D1
100
AcDbEntity
  8
寸法
 62
     0
 48
50.0
370
    -2
100
AcDbLine
 10
10478.6
 20
5956.898168834406
 30
0.0
 11
10337.81202022566
 21
5956.898168834406
 31
0.0
  0
LINE
  5
267A9
330
240D1
100
AcDbEntity
  8
寸法
 62
     0
 48
50.0
370
    -2
100
AcDbLine
 10
10397.81202022566
 20
6236.898168834403
 30
0.0
 11
10397.81202022566
 21
5956.898168834406
 31
0.0
  0
LINE
  5
267AA
330
240D1
100
AcDbEntity
  8
寸法
 62
     0
 48
50.0
370
    -2
100
AcDbLine
 10
10397.81202022566
 20
5956.898168834406
 30
0.0
 11
10397.81202022566
 21
5520.3637200155
 31
0.0
  0
INSERT
  5
267AB
330
240D1
100
AcDbEntity
  8
寸法
 62
     0
 48
50.0
370
    -2
100
AcDbBlockReference
  2
_DOTSMALL
 10
10397.81202022566
 20
6236.898168834403
 30
0.0
 41
100.0
 42
100.0
 43
100.0
 50
90.0
  0
INSERT
  5
267AC
330
240D1
100
AcDbEntity
  8
寸法
 62
     0
 48
50.0
370
    -2
100
AcDbBlockReference
  2
_DOTSMALL
 10
10397.81202022566
 20
5956.898168834406
 30
0.0
 41
100.0
 42
100.0
 43
100.0
 50
270.0
  0
MTEXT
  5
267AD
330
240D1
100
AcDbEntity
  8
寸法
 62
     7
 48
50.0
100
AcDbMText
 10
10297.80020920203
 20
5669.934586157235
 30
0.0
 40
120.0
 41
0.0
 71
     5
 72
     1
  1
\A1;280
  7
STYLE1
 11
0.0000000000000001
 21
1.0
 31
0.0
 73
     1
 44
1.0
1001
ACAD
1000
MTEXTBEGIN
1070
    73
1070
     1
1070
    44
1040
1.0
1070
    74
1070
     0
1000
MTEXTEND
  0
POINT
  5
267AE
330
240D1
100
AcDbEntity
  8
DEFPOINTS
 62
     0
 48
50.0
100
AcDbPoint
 10
10498.59999999999
 20
6236.898168834403
 30
0.0
  0
POINT
  5
267AF
330
240D1
100
AcDbEntity
  8
DEFPOINTS
 62
     0
 48
50.0
100
AcDbPoint
 10
10498.6
 20
5956.898168834406
 30
0.0
  0
POINT
  5
267B0
330
240D1
100
AcDbEntity
  8
DEFPOINTS
 62
     0
 48
50.0
100
AcDbPoint
 10
10397.81202022566
 20
5956.898168834406
 30
0.0
  0
ENDBLK
  5
240DD
330
240D1
100
AcDbEntity
  8
0
 48
50.0
100
AcDbBlockEnd
  0
BLOCK
  5
240E9
330
240DE
100
AcDbEntity
  8
0
 48
50.0
100
AcDbBlockBegin
  2
*D29
 70
     1
 10
0.0
 20
0.0
 30
0.0
  3
*D29
  1

  0
LINE
  5
266CD
330
240DE
100
AcDbEntity
  8
寸法
 62
     0
 48
50.0
370
    -2
100
AcDbLine
 10
10478.6
 20
7336.898168834375
 30
0.0
 11
10337.81202022566
 21
7336.898168834375
 31
0.0
  0
LINE
  5
266CE
330
240DE
100
AcDbEntity
  8
寸法
 62
     0
 48
50.0
370
    -2
100
AcDbLine
 10
10478.60000000001
 20
7136.898168834391
 30
0.0
 11
10337.81202022566
 21
7136.898168834391
 31
0.0
  0
LINE
  5
266CF
330
240DE
100
AcDbEntity
  8
寸法
 62
     0
 48
50.0
370
    -2
100
AcDbLine
 10
10397.81202022566
 20
7136.898168834391
 30
0.0
 11
10397.81202022566
 21
7336.898168834375
 31
0.0
  0
LINE
  5
266D0
330
240DE
100
AcDbEntity
  8
寸法
 62
     0
 48
50.0
370
    -2
100
AcDbLine
 10
10397.81202022566
 20
7336.898168834375
 30
0.0
 11
10397.81202022566
 21
7773.432617653277
 31
0.0
  0
INSERT
  5
266D1
330
240DE
100
AcDbEntity
  8
寸法
 62
     0
 48
50.0
370
    -2
100
AcDbBlockReference
  2
_DOTSMALL
 10
10397.81202022566
 20
7136.898168834391
 30
0.0
 41
100.0
 42
100.0
 43
100.0
 50
270.0
  0
INSERT
  5
266D2
330
240DE
100
AcDbEntity
  8
寸法
 62
     0
 48
50.0
370
    -2
100
AcDbBlockReference
  2
_DOTSMALL
 10
10397.81202022566
 20
7336.898168834375
 30
0.0
 41
100.0
 42
100.0
 43
100.0
 50
90.0
  0
MTEXT
  5
266D3
330
240DE
100
AcDbEntity
  8
寸法
 62
     7
 48
50.0
100
AcDbMText
 10
10297.80020920203
 20
7623.861751511546
 30
0.0
 40
120.0
 41
0.0
 71
     5
 72
     1
  1
\A1;200
  7
STYLE1
 11
0.0000000000000001
 21
1.0
 31
0.0
 73
     1
 44
1.0
1001
ACAD
1000
MTEXTBEGIN
1070
    73
1070
     1
1070
    44
1040
1.0
1070
    74
1070
     0
1000
MTEXTEND
  0
POINT
  5
266D4
330
240DE
100
AcDbEntity
  8
DEFPOINTS
 62
     0
 48
50.0
100
AcDbPoint
 10
10498.6
 20
7336.898168834375
 30
0.0
  0
POINT
  5
266D5
330
240DE
100
AcDbEntity
  8
DEFPOINTS
 62
     0
 48
50.0
100
AcDbPoint
 10
10498.60000000001
 20
7136.898168834391
 30
0.0
  0
POINT
  5
266D6
330
240DE
100
AcDbEntity
  8
DEFPOINTS
 62
     0
 48
50.0
100
AcDbPoint
 10
10397.81202022566
 20
7136.898168834391
 30
0.0
  0
ENDBLK
  5
240EA
330
240DE
100
AcDbEntity
  8
0
 48
50.0
100
AcDbBlockEnd
  0
BLOCK
  5
26161
330
26157
100
AcDbEntity
  8
0
 48
50.0
100
AcDbBlockBegin
  2
*D30
 70
     1
 10
0.0
 20
0.0
 30
0.0
  3
*D30
  1

  0
LINE
  5
267CD
330
26157
100
AcDbEntity
  8
寸法
 62
     0
 48
50.0
370
    -2
100
AcDbLine
 10
11078.6
 20
7356.898168834388
 30
0.0
 11
11078.6
 21
7879.506985504637
 31
0.0
  0
LINE
  5
267CE
330
26157
100
AcDbEntity
  8
寸法
 62
     0
 48
50.0
370
    -2
100
AcDbLine
 10
10123.60000000001
 20
6753.898168834388
 30
0.0
 11
10123.60000000001
 21
7879.506985504637
 31
0.0
  0
LINE
  5
267CF
330
26157
100
AcDbEntity
  8
寸法
 62
     0
 48
50.0
370
    -2
100
AcDbLine
 10
11078.6
 20
7819.506985504637
 30
0.0
 11
10123.60000000001
 21
7819.506985504637
 31
0.0
  0
INSERT
  5
267D0
330
26157
100
AcDbEntity
  8
寸法
 62
     0
 48
50.0
370
    -2
100
AcDbBlockReference
  2
_DOTSMALL
 10
11078.6
 20
7819.506985504637
 30
0.0
 41
100.0
 42
100.0
 43
100.0
  0
INSERT
  5
267D1
330
26157
100
AcDbEntity
  8
寸法
 62
     0
 48
50.0
370
    -2
100
AcDbBlockReference
  2
_DOTSMALL
 10
10123.60000000001
 20
7819.506985504637
 30
0.0
 41
100.0
 42
100.0
 43
100.0
 50
180.0
  0
MTEXT
  5
267D2
330
26157
100
AcDbEntity
  8
寸法
 62
     7
 48
50.0
100
AcDbMText
 10
10601.1
 20
7919.506985504637
 30
0.0
 40
120.0
 41
0.0
 71
     5
 72
     1
  1
\A1;955
  7
STYLE1
 73
     1
 44
1.0
1001
ACAD
1000
MTEXTBEGIN
1070
    73
1070
     1
1070
    44
1040
1.0
1070
    74
1070
     0
1000
MTEXTEND
  0
POINT
  5
267D3
330
26157
100
AcDbEntity
  8
DEFPOINTS
 62
     0
 48
50.0
100
AcDbPoint
 10
11078.6
 20
7336.898168834387
 30
0.0
  0
POINT
  5
267D4
330
26157
100
AcDbEntity
  8
DEFPOINTS
 62
     0
 48
50.0
100
AcDbPoint
 10
10123.60000000001
 20
6733.898168834388
 30
0.0
  0
POINT
  5
267D5
330
26157
100
AcDbEntity
  8
DEFPOINTS
 62
     0
 48
50.0
100
AcDbPoint
 10
10123.60000000001
 20
7819.506985504637
 30
0.0
  0
ENDBLK
  5
26162
330
26157
100
AcDbEntity
  8
0
 48
50.0
100
AcDbBlockEnd
  0
BLOCK
  5
2616D
330
26163
100
AcDbEntity
  8
0
 48
50.0
100
AcDbBlockBegin
  2
*D31
 70
     1
 10
0.0
 20
0.0
 30
0.0
  3
*D31
  1

  0
LINE
  5
267C4
330
26163
100
AcDbEntity
  8
寸法
 62
     0
 48
50.0
370
    -2
100
AcDbLine
 10
10123.60000000001
 20
6753.898168834388
 30
0.0
 11
10123.60000000001
 21
7879.506985504637
 31
0.0
  0
LINE
  5
267C5
330
26163
100
AcDbEntity
  8
寸法
 62
     0
 48
50.0
370
    -2
100
AcDbLine
 10
9173.600000000009
 20
6753.898168834388
 30
0.0
 11
9173.600000000009
 21
7879.506985504637
 31
0.0
  0
LINE
  5
267C6
330
26163
100
AcDbEntity
  8
寸法
 62
     0
 48
50.0
370
    -2
100
AcDbLine
 10
10123.60000000001
 20
7819.506985504637
 30
0.0
 11
9173.600000000009
 21
7819.506985504637
 31
0.0
  0
INSERT
  5
267C7
330
26163
100
AcDbEntity
  8
寸法
 62
     0
 48
50.0
370
    -2
100
AcDbBlockReference
  2
_DOTSMALL
 10
10123.60000000001
 20
7819.506985504637
 30
0.0
 41
100.0
 42
100.0
 43
100.0
  0
INSERT
  5
267C8
330
26163
100
AcDbEntity
  8
寸法
 62
     0
 48
50.0
370
    -2
100
AcDbBlockReference
  2
_DOTSMALL
 10
9173.600000000009
 20
7819.506985504637
 30
0.0
 41
100.0
 42
100.0
 43
100.0
 50
180.0
  0
MTEXT
  5
267C9
330
26163
100
AcDbEntity
  8
寸法
 62
     7
 48
50.0
100
AcDbMText
 10
9648.60000000001
 20
7919.506985504637
 30
0.0
 40
120.0
 41
0.0
 71
     5
 72
     1
  1
\A1;950
  7
STYLE1
 73
     1
 44
1.0
1001
ACAD
1000
MTEXTBEGIN
1070
    73
1070
     1
1070
    44
1040
1.0
1070
    74
1070
     0
1000
MTEXTEND
  0
POINT
  5
267CA
330
26163
100
AcDbEntity
  8
DEFPOINTS
 62
     0
 48
50.0
100
AcDbPoint
 10
10123.60000000001
 20
6733.898168834388
 30
0.0
  0
POINT
  5
267CB
330
26163
100
AcDbEntity
  8
DEFPOINTS
 62
     0
 48
50.0
100
AcDbPoint
 10
9173.600000000009
 20
6733.898168834388
 30
0.0
  0
POINT
  5
267CC
330
26163
100
AcDbEntity
  8
DEFPOINTS
 62
     0
 48
50.0
100
AcDbPoint
 10
9173.600000000009
 20
7819.506985504637
 30
0.0
  0
ENDBLK
  5
2616E
330
26163
100
AcDbEntity
  8
0
 48
50.0
100
AcDbBlockEnd
  0
BLOCK
  5
2617A
330
2616F
100
AcDbEntity
  8
0
 48
50.0
100
AcDbBlockBegin
  2
*D32
 70
     1
 10
0.0
 20
0.0
 30
0.0
  3
*D32
  1

  0
LINE
  5
2661D
330
2616F
100
AcDbEntity
  8
寸法
 62
     0
 48
50.0
370
    -2
100
AcDbLine
 10
11078.6
 20
7356.898168834388
 30
0.0
 11
11078.6
 21
8123.164626928298
 31
0.0
  0
LINE
  5
2661E
330
2616F
100
AcDbEntity
  8
寸法
 62
     0
 48
50.0
370
    -2
100
AcDbLine
 10
10955.6
 20
7283.898168834388
 30
0.0
 11
10955.6
 21
8123.164626928298
 31
0.0
  0
LINE
  5
2661F
330
2616F
100
AcDbEntity
  8
寸法
 62
     0
 48
50.0
370
    -2
100
AcDbLine
 10
10955.6
 20
8063.164626928299
 30
0.0
 11
11078.6
 21
8063.164626928299
 31
0.0
  0
LINE
  5
26620
330
2616F
100
AcDbEntity
  8
寸法
 62
     0
 48
50.0
370
    -2
100
AcDbLine
 10
11078.6
 20
8063.164626928299
 30
0.0
 11
11490.19188309204
 21
8063.164626928299
 31
0.0
  0
INSERT
  5
26621
330
2616F
100
AcDbEntity
  8
寸法
 62
     0
 48
50.0
370
    -2
100
AcDbBlockReference
  2
_DOTSMALL
 10
10955.6
 20
8063.164626928299
 30
0.0
 41
100.0
 42
100.0
 43
100.0
 50
180.0
  0
INSERT
  5
26622
330
2616F
100
AcDbEntity
  8
寸法
 62
     0
 48
50.0
370
    -2
100
AcDbBlockReference
  2
_DOTSMALL
 10
11078.6
 20
8063.164626928299
 30
0.0
 41
100.0
 42
100.0
 43
100.0
  0
MTEXT
  5
26623
330
2616F
100
AcDbEntity
  8
寸法
 62
     7
 48
50.0
100
AcDbMText
 10
11351.7066017178
 20
8163.176437951921
 30
0.0
 40
120.0
 41
0.0
 71
     5
 72
     1
  1
\A1;123
  7
STYLE1
 73
     1
 44
1.0
1001
ACAD
1000
MTEXTBEGIN
1070
    73
1070
     1
1070
    44
1040
1.0
1070
    74
1070
     0
1000
MTEXTEND
  0
POINT
  5
26624
330
2616F
100
AcDbEntity
  8
DEFPOINTS
 62
     0
 48
50.0
100
AcDbPoint
 10
11078.6
 20
7336.898168834387
 30
0.0
  0
POINT
  5
26625
330
2616F
100
AcDbEntity
  8
DEFPOINTS
 62
     0
 48
50.0
100
AcDbPoint
 10
10955.6
 20
7263.898168834389
 30
0.0
  0
POINT
  5
26626
330
2616F
100
AcDbEntity
  8
DEFPOINTS
 62
     0
 48
50.0
100
AcDbPoint
 10
10955.6
 20
8063.164626928299
 30
0.0
  0
ENDBLK
  5
2617B
330
2616F
100
AcDbEntity
  8
0
 48
50.0
100
AcDbBlockEnd
  0
BLOCK
  5
261A0
330
26196
100
AcDbEntity
  8
0
 48
50.0
100
AcDbBlockBegin
  2
*D33
 70
     1
 10
0.0
 20
0.0
 30
0.0
  3
*D33
  1

  0
LINE
  5
26803
330
26196
100
AcDbEntity
  8
寸法
 62
     0
 48
50.0
370
    -2
100
AcDbLine
 10
9173.600000000009
 20
6753.898168834388
 30
0.0
 11
9173.600000000009
 21
7879.506985504637
 31
0.0
  0
LINE
  5
26804
330
26196
100
AcDbEntity
  8
寸法
 62
     0
 48
50.0
370
    -2
100
AcDbLine
 10
8223.60000000001
 20
6753.898168834388
 30
0.0
 11
8223.60000000001
 21
7879.506985504637
 31
0.0
  0
LINE
  5
26805
330
26196
100
AcDbEntity
  8
寸法
 62
     0
 48
50.0
370
    -2
100
AcDbLine
 10
9173.600000000009
 20
7819.506985504637
 30
0.0
 11
8223.60000000001
 21
7819.506985504637
 31
0.0
  0
INSERT
  5
26806
330
26196
100
AcDbEntity
  8
寸法
 62
     0
 48
50.0
370
    -2
100
AcDbBlockReference
  2
_DOTSMALL
 10
9173.600000000009
 20
7819.506985504637
 30
0.0
 41
100.0
 42
100.0
 43
100.0
  0
INSERT
  5
26807
330
26196
100
AcDbEntity
  8
寸法
 62
     0
 48
50.0
370
    -2
100
AcDbBlockReference
  2
_DOTSMALL
 10
8223.60000000001
 20
7819.506985504637
 30
0.0
 41
100.0
 42
100.0
 43
100.0
 50
180.0
  0
MTEXT
  5
26808
330
26196
100
AcDbEntity
  8
寸法
 62
     7
 48
50.0
100
AcDbMText
 10
8698.600000000009
 20
7919.506985504637
 30
0.0
 40
120.0
 41
0.0
 71
     5
 72
     1
  1
\A1;950
  7
STYLE1
 73
     1
 44
1.0
1001
ACAD
1000
MTEXTBEGIN
1070
    73
1070
     1
1070
    44
1040
1.0
1070
    74
1070
     0
1000
MTEXTEND
  0
POINT
  5
26809
330
26196
100
AcDbEntity
  8
DEFPOINTS
 62
     0
 48
50.0
100
AcDbPoint
 10
9173.600000000009
 20
6733.898168834388
 30
0.0
  0
POINT
  5
2680A
330
26196
100
AcDbEntity
  8
DEFPOINTS
 62
     0
 48
50.0
100
AcDbPoint
 10
8223.60000000001
 20
6733.898168834388
 30
0.0
  0
POINT
  5
2680B
330
26196
100
AcDbEntity
  8
DEFPOINTS
 62
     0
 48
50.0
100
AcDbPoint
 10
8223.60000000001
 20
7819.506985504637
 30
0.0
  0
ENDBLK
  5
261A1
330
26196
100
AcDbEntity
  8
0
 48
50.0
100
AcDbBlockEnd
  0
BLOCK
  5
261AC
330
261A2
100
AcDbEntity
  8
0
 48
50.0
100
AcDbBlockBegin
  2
*D34
 70
     1
 10
0.0
 20
0.0
 30
0.0
  3
*D34
  1

  0
LINE
  5
26670
330
261A2
100
AcDbEntity
  8
寸法
 62
     0
 48
50.0
370
    -2
100
AcDbLine
 10
10955.6
 20
7283.898168834388
 30
0.0
 11
10955.6
 21
8123.164626928298
 31
0.0
  0
LINE
  5
26671
330
261A2
100
AcDbEntity
  8
寸法
 62
     0
 48
50.0
370
    -2
100
AcDbLine
 10
8105.600000000002
 20
7283.898168834388
 30
0.0
 11
8105.600000000002
 21
8123.164626928298
 31
0.0
  0
LINE
  5
26672
330
261A2
100
AcDbEntity
  8
寸法
 62
     0
 48
50.0
370
    -2
100
AcDbLine
 10
10955.6
 20
8063.164626928299
 30
0.0
 11
8105.600000000002
 21
8063.164626928299
 31
0.0
  0
INSERT
  5
26673
330
261A2
100
AcDbEntity
  8
寸法
 62
     0
 48
50.0
370
    -2
100
AcDbBlockReference
  2
_DOTSMALL
 10
10955.6
 20
8063.164626928299
 30
0.0
 41
100.0
 42
100.0
 43
100.0
  0
INSERT
  5
26674
330
261A2
100
AcDbEntity
  8
寸法
 62
     0
 48
50.0
370
    -2
100
AcDbBlockReference
  2
_DOTSMALL
 10
8105.600000000002
 20
8063.164626928299
 30
0.0
 41
100.0
 42
100.0
 43
100.0
 50
180.0
  0
MTEXT
  5
26675
330
261A2
100
AcDbEntity
  8
寸法
 62
     7
 48
50.0
100
AcDbMText
 10
9530.600000000003
 20
8163.176437951921
 30
0.0
 40
120.0
 41
0.0
 71
     5
 72
     1
  1
\A1;2850
  7
STYLE1
 73
     1
 44
1.0
1001
ACAD
1000
MTEXTBEGIN
1070
    73
1070
     1
1070
    44
1040
1.0
1070
    74
1070
     0
1000
MTEXTEND
  0
POINT
  5
26676
330
261A2
100
AcDbEntity
  8
DEFPOINTS
 62
     0
 48
50.0
100
AcDbPoint
 10
10955.6
 20
7263.898168834389
 30
0.0
  0
POINT
  5
26677
330
261A2
100
AcDbEntity
  8
DEFPOINTS
 62
     0
 48
50.0
100
AcDbPoint
 10
8105.600000000002
 20
7263.898168834389
 30
0.0
  0
POINT
  5
26678
330
261A2
100
AcDbEntity
  8
DEFPOINTS
 62
     0
 48
50.0
100
AcDbPoint
 10
8105.600000000002
 20
8063.164626928299
 30
0.0
  0
ENDBLK
  5
261AD
330
261A2
100
AcDbEntity
  8
0
 48
50.0
100
AcDbBlockEnd
  0
BLOCK
  5
261B8
330
261AE
100
AcDbEntity
  8
0
 48
50.0
100
AcDbBlockBegin
  2
*D35
 70
     1
 10
0.0
 20
0.0
 30
0.0
  3
*D35
  1

  0
LINE
  5
26667
330
261AE
100
AcDbEntity
  8
寸法
 62
     0
 48
50.0
370
    -2
100
AcDbLine
 10
5368.6
 20
7356.898168834388
 30
0.0
 11
5368.6
 21
8355.118490893307
 31
0.0
  0
LINE
  5
26668
330
261AE
100
AcDbEntity
  8
寸法
 62
     0
 48
50.0
370
    -2
100
AcDbLine
 10
11078.6
 20
7356.898168834388
 30
0.0
 11
11078.6
 21
8355.118490893307
 31
0.0
  0
LINE
  5
26669
330
261AE
100
AcDbEntity
  8
寸法
 62
     0
 48
50.0
370
    -2
100
AcDbLine
 10
5368.6
 20
8295.118490893306
 30
0.0
 11
11078.6
 21
8295.118490893306
 31
0.0
  0
INSERT
  5
2666A
330
261AE
100
AcDbEntity
  8
寸法
 62
     0
 48
50.0
370
    -2
100
AcDbBlockReference
  2
_DOTSMALL
 10
5368.6
 20
8295.118490893306
 30
0.0
 41
100.0
 42
100.0
 43
100.0
 50
180.0
  0
INSERT
  5
2666B
330
261AE
100
AcDbEntity
  8
寸法
 62
     0
 48
50.0
370
    -2
100
AcDbBlockReference
  2
_DOTSMALL
 10
11078.6
 20
8295.118490893306
 30
0.0
 41
100.0
 42
100.0
 43
100.0
  0
MTEXT
  5
2666C
330
261AE
100
AcDbEntity
  8
寸法
 62
     7
 48
50.0
100
AcDbMText
 10
8223.600000000002
 20
8395.118490893308
 30
0.0
 40
120.0
 41
0.0
 71
     5
 72
     1
  1
\A1;5710
  7
STYLE1
 73
     1
 44
1.0
1001
ACAD
1000
MTEXTBEGIN
1070
    73
1070
     1
1070
    44
1040
1.0
1070
    74
1070
     0
1000
MTEXTEND
  0
POINT
  5
2666D
330
261AE
100
AcDbEntity
  8
DEFPOINTS
 62
     0
 48
50.0
100
AcDbPoint
 10
5368.6
 20
7336.898168834387
 30
0.0
  0
POINT
  5
2666E
330
261AE
100
AcDbEntity
  8
DEFPOINTS
 62
     0
 48
50.0
100
AcDbPoint
 10
11078.6
 20
7336.898168834387
 30
0.0
  0
POINT
  5
2666F
330
261AE
100
AcDbEntity
  8
DEFPOINTS
 62
     0
 48
50.0
100
AcDbPoint
 10
11078.6
 20
8295.118490893306
 30
0.0
  0
ENDBLK
  5
261B9
330
261AE
100
AcDbEntity
  8
0
 48
50.0
100
AcDbBlockEnd
  0
BLOCK
  5
261C3
330
261BA
100
AcDbEntity
  8
0
 48
50.0
100
AcDbBlockBegin
  2
*D36
 70
     1
 10
0.0
 20
0.0
 30
0.0
  3
*D36
  1

  0
LINE
  5
267FA
330
261BA
100
AcDbEntity
  8
寸法
 62
     0
 48
50.0
370
    -2
100
AcDbLine
 10
7273.600000000008
 20
6753.898168834388
 30
0.0
 11
7273.600000000008
 21
7879.506985504637
 31
0.0
  0
LINE
  5
267FB
330
261BA
100
AcDbEntity
  8
寸法
 62
     0
 48
50.0
370
    -2
100
AcDbLine
 10
6323.600000000007
 20
6753.898168834388
 30
0.0
 11
6323.600000000007
 21
7879.506985504637
 31
0.0
  0
LINE
  5
267FC
330
261BA
100
AcDbEntity
  8
寸法
 62
     0
 48
50.0
370
    -2
100
AcDbLine
 10
7273.600000000008
 20
7819.506985504637
 30
0.0
 11
6323.600000000007
 21
7819.506985504637
 31
0.0
  0
INSERT
  5
267FD
330
261BA
100
AcDbEntity
  8
寸法
 62
     0
 48
50.0
370
    -2
100
AcDbBlockReference
  2
_DOTSMALL
 10
7273.600000000008
 20
7819.506985504637
 30
0.0
 41
100.0
 42
100.0
 43
100.0
  0
INSERT
  5
267FE
330
261BA
100
AcDbEntity
  8
寸法
 62
     0
 48
50.0
370
    -2
100
AcDbBlockReference
  2
_DOTSMALL
 10
6323.600000000007
 20
7819.506985504637
 30
0.0
 41
100.0
 42
100.0
 43
100.0
 50
180.0
  0
MTEXT
  5
267FF
330
261BA
100
AcDbEntity
  8
寸法
 62
     7
 48
50.0
100
AcDbMText
 10
6798.600000000009
 20
7919.506985504637
 30
0.0
 40
120.0
 41
0.0
 71
     5
 72
     1
  1
\A1;950
  7
STYLE1
 73
     1
 44
1.0
1001
ACAD
1000
MTEXTBEGIN
1070
    73
1070
     1
1070
    44
1040
1.0
1070
    74
1070
     0
1000
MTEXTEND
  0
POINT
  5
26800
330
261BA
100
AcDbEntity
  8
DEFPOINTS
 62
     0
 48
50.0
100
AcDbPoint
 10
7273.600000000008
 20
6733.898168834388
 30
0.0
  0
POINT
  5
26801
330
261BA
100
AcDbEntity
  8
DEFPOINTS
 62
     0
 48
50.0
100
AcDbPoint
 10
6323.600000000007
 20
6733.898168834388
 30
0.0
  0
POINT
  5
26802
330
261BA
100
AcDbEntity
  8
DEFPOINTS
 62
     0
 48
50.0
100
AcDbPoint
 10
6323.600000000007
 20
7819.506985504637
 30
0.0
  0
ENDBLK
  5
261C4
330
261BA
100
AcDbEntity
  8
0
 48
50.0
100
AcDbBlockEnd
  0
BLOCK
  5
261CF
330
261C5
100
AcDbEntity
  8
0
 48
50.0
100
AcDbBlockBegin
  2
*D37
 70
     1
 10
0.0
 20
0.0
 30
0.0
  3
*D37
  1

  0
LINE
  5
2680C
330
261C5
100
AcDbEntity
  8
寸法
 62
     0
 48
50.0
370
    -2
100
AcDbLine
 10
6253.600000000008
 20
6683.898168834388
 30
0.0
 11
5791.285990614304
 21
6683.898168834389
 31
0.0
  0
LINE
  5
2680D
330
261C5
100
AcDbEntity
  8
寸法
 62
     0
 48
50.0
370
    -2
100
AcDbLine
 10
5922.765475140901
 20
7336.898168834387
 30
0.0
 11
5791.285990614304
 21
7336.898168834387
 31
0.0
  0
LINE
  5
2680E
330
261C5
100
AcDbEntity
  8
寸法
 62
     0
 48
50.0
370
    -2
100
AcDbLine
 10
5851.285990614304
 20
6683.898168834389
 30
0.0
 11
5851.285990614304
 21
7336.898168834387
 31
0.0
  0
INSERT
  5
2680F
330
261C5
100
AcDbEntity
  8
寸法
 62
     0
 48
50.0
370
    -2
100
AcDbBlockReference
  2
_DOTSMALL
 10
5851.285990614304
 20
6683.898168834389
 30
0.0
 41
100.0
 42
100.0
 43
100.0
 50
270.0
  0
INSERT
  5
26810
330
261C5
100
AcDbEntity
  8
寸法
 62
     0
 48
50.0
370
    -2
100
AcDbBlockReference
  2
_DOTSMALL
 10
5851.285990614304
 20
7336.898168834387
 30
0.0
 41
100.0
 42
100.0
 43
100.0
 50
90.0
  0
MTEXT
  5
26811
330
261C5
100
AcDbEntity
  8
寸法
 62
     7
 48
50.0
100
AcDbMText
 10
5751.285990614302
 20
6957.6040189378
 30
0.0
 40
120.0
 41
0.0
 71
     5
 72
     1
  1
\A1;653
  7
STYLE1
 11
0.0000000000000001
 21
1.0
 31
0.0
 73
     1
 44
1.0
1001
ACAD
1000
MTEXTBEGIN
1070
    73
1070
     1
1070
    44
1040
1.0
1070
    74
1070
     0
1000
MTEXTEND
  0
POINT
  5
26812
330
261C5
100
AcDbEntity
  8
DEFPOINTS
 62
     0
 48
50.0
100
AcDbPoint
 10
6273.600000000008
 20
6683.898168834388
 30
0.0
  0
POINT
  5
26813
330
261C5
100
AcDbEntity
  8
DEFPOINTS
 62
     0
 48
50.0
100
AcDbPoint
 10
5942.765475140901
 20
7336.898168834387
 30
0.0
  0
POINT
  5
26814
330
261C5
100
AcDbEntity
  8
DEFPOINTS
 62
     0
 48
50.0
100
AcDbPoint
 10
5851.285990614304
 20
7336.898168834387
 30
0.0
  0
ENDBLK
  5
261D0
330
261C5
100
AcDbEntity
  8
0
 48
50.0
100
AcDbBlockEnd
  0
BLOCK
  5
261DB
330
261D1
100
AcDbEntity
  8
0
 48
50.0
100
AcDbBlockBegin
  2
*D38
 70
     1
 10
0.0
 20
0.0
 30
0.0
  3
*D38
  1

  0
LINE
  5
267E8
330
261D1
100
AcDbEntity
  8
寸法
 62
     0
 48
50.0
370
    -2
100
AcDbLine
 10
6323.600000000007
 20
6753.898168834388
 30
0.0
 11
6323.600000000007
 21
7879.506985504637
 31
0.0
  0
LINE
  5
267E9
330
261D1
100
AcDbEntity
  8
寸法
 62
     0
 48
50.0
370
    -2
100
AcDbLine
 10
5368.6
 20
7356.898168834388
 30
0.0
 11
5368.6
 21
7879.506985504637
 31
0.0
  0
LINE
  5
267EA
330
261D1
100
AcDbEntity
  8
寸法
 62
     0
 48
50.0
370
    -2
100
AcDbLine
 10
6323.600000000007
 20
7819.506985504637
 30
0.0
 11
5368.6
 21
7819.506985504637
 31
0.0
  0
INSERT
  5
267EB
330
261D1
100
AcDbEntity
  8
寸法
 62
     0
 48
50.0
370
    -2
100
AcDbBlockReference
  2
_DOTSMALL
 10
6323.600000000007
 20
7819.506985504637
 30
0.0
 41
100.0
 42
100.0
 43
100.0
  0
INSERT
  5
267EC
330
261D1
100
AcDbEntity
  8
寸法
 62
     0
 48
50.0
370
    -2
100
AcDbBlockReference
  2
_DOTSMALL
 10
5368.6
 20
7819.506985504637
 30
0.0
 41
100.0
 42
100.0
 43
100.0
 50
180.0
  0
MTEXT
  5
267ED
330
261D1
100
AcDbEntity
  8
寸法
 62
     7
 48
50.0
100
AcDbMText
 10
5846.100000000004
 20
7919.506985504637
 30
0.0
 40
120.0
 41
0.0
 71
     5
 72
     1
  1
\A1;955
  7
STYLE1
 73
     1
 44
1.0
1001
ACAD
1000
MTEXTBEGIN
1070
    73
1070
     1
1070
    44
1040
1.0
1070
    74
1070
     0
1000
MTEXTEND
  0
POINT
  5
267EE
330
261D1
100
AcDbEntity
  8
DEFPOINTS
 62
     0
 48
50.0
100
AcDbPoint
 10
6323.600000000007
 20
6733.898168834388
 30
0.0
  0
POINT
  5
267EF
330
261D1
100
AcDbEntity
  8
DEFPOINTS
 62
     0
 48
50.0
100
AcDbPoint
 10
5368.6
 20
7336.898168834387
 30
0.0
  0
POINT
  5
267F0
330
261D1
100
AcDbEntity
  8
DEFPOINTS
 62
     0
 48
50.0
100
AcDbPoint
 10
5368.6
 20
7819.506985504637
 30
0.0
  0
ENDBLK
  5
261DC
330
261D1
100
AcDbEntity
  8
0
 48
50.0
100
AcDbBlockEnd
  0
BLOCK
  5
261E6
330
261DD
100
AcDbEntity
  8
0
 48
50.0
100
AcDbBlockBegin
  2
*D39
 70
     1
 10
0.0
 20
0.0
 30
0.0
  3
*D39
  1

  0
LINE
  5
267DF
330
261DD
100
AcDbEntity
  8
寸法
 62
     0
 48
50.0
370
    -2
100
AcDbLine
 10
8223.60000000001
 20
6753.898168834388
 30
0.0
 11
8223.60000000001
 21
7879.506985504637
 31
0.0
  0
LINE
  5
267E0
330
261DD
100
AcDbEntity
  8
寸法
 62
     0
 48
50.0
370
    -2
100
AcDbLine
 10
7273.600000000008
 20
6753.898168834388
 30
0.0
 11
7273.600000000008
 21
7879.506985504637
 31
0.0
  0
LINE
  5
267E1
330
261DD
100
AcDbEntity
  8
寸法
 62
     0
 48
50.0
370
    -2
100
AcDbLine
 10
8223.60000000001
 20
7819.506985504637
 30
0.0
 11
7273.600000000008
 21
7819.506985504637
 31
0.0
  0
INSERT
  5
267E2
330
261DD
100
AcDbEntity
  8
寸法
 62
     0
 48
50.0
370
    -2
100
AcDbBlockReference
  2
_DOTSMALL
 10
8223.60000000001
 20
7819.506985504637
 30
0.0
 41
100.0
 42
100.0
 43
100.0
  0
INSERT
  5
267E3
330
261DD
100
AcDbEntity
  8
寸法
 62
     0
 48
50.0
370
    -2
100
AcDbBlockReference
  2
_DOTSMALL
 10
7273.600000000008
 20
7819.506985504637
 30
0.0
 41
100.0
 42
100.0
 43
100.0
 50
180.0
  0
MTEXT
  5
267E4
330
261DD
100
AcDbEntity
  8
寸法
 62
     7
 48
50.0
100
AcDbMText
 10
7748.600000000009
 20
7919.506985504637
 30
0.0
 40
120.0
 41
0.0
 71
     5
 72
     1
  1
\A1;950
  7
STYLE1
 73
     1
 44
1.0
1001
ACAD
1000
MTEXTBEGIN
1070
    73
1070
     1
1070
    44
1040
1.0
1070
    74
1070
     0
1000
MTEXTEND
  0
POINT
  5
267E5
330
261DD
100
AcDbEntity
  8
DEFPOINTS
 62
     0
 48
50.0
100
AcDbPoint
 10
8223.60000000001
 20
6733.898168834388
 30
0.0
  0
POINT
  5
267E6
330
261DD
100
AcDbEntity
  8
DEFPOINTS
 62
     0
 48
50.0
100
AcDbPoint
 10
7273.600000000008
 20
6733.898168834388
 30
0.0
  0
POINT
  5
267E7
330
261DD
100
AcDbEntity
  8
DEFPOINTS
 62
     0
 48
50.0
100
AcDbPoint
 10
7273.600000000008
 20
7819.506985504637
 30
0.0
  0
ENDBLK
  5
261E7
330
261DD
100
AcDbEntity
  8
0
 48
50.0
100
AcDbBlockEnd
  0
BLOCK
  5
261F2
330
261E8
100
AcDbEntity
  8
0
 48
50.0
100
AcDbBlockBegin
  2
*D40
 70
     1
 10
0.0
 20
0.0
 30
0.0
  3
*D40
  1

  0
LINE
  5
266A8
330
261E8
100
AcDbEntity
  8
寸法
 62
     0
 48
50.0
370
    -2
100
AcDbLine
 10
5348.600000000001
 20
7336.898168834387
 30
0.0
 11
4433.721909610675
 21
7336.898168834387
 31
0.0
  0
LINE
  5
266A9
330
261E8
100
AcDbEntity
  8
寸法
 62
     0
 48
50.0
370
    -2
100
AcDbLine
 10
5348.600000000001
 20
5956.898168834388
 30
0.0
 11
4433.721909610674
 21
5956.898168834388
 31
0.0
  0
LINE
  5
266AA
330
261E8
100
AcDbEntity
  8
寸法
 62
     0
 48
50.0
370
    -2
100
AcDbLine
 10
4493.721909610674
 20
7336.898168834387
 30
0.0
 11
4493.721909610673
 21
5956.898168834388
 31
0.0
  0
INSERT
  5
266AB
330
261E8
100
AcDbEntity
  8
寸法
 62
     0
 48
50.0
370
    -2
100
AcDbBlockReference
  2
_DOTSMALL
 10
4493.721909610674
 20
7336.898168834387
 30
0.0
 41
100.0
 42
100.0
 43
100.0
 50
90.0
  0
INSERT
  5
266AC
330
261E8
100
AcDbEntity
  8
寸法
 62
     0
 48
50.0
370
    -2
100
AcDbBlockReference
  2
_DOTSMALL
 10
4493.721909610673
 20
5956.898168834388
 30
0.0
 41
100.0
 42
100.0
 43
100.0
 50
270.0
  0
MTEXT
  5
266AD
330
261E8
100
AcDbEntity
  8
寸法
 62
     7
 48
50.0
100
AcDbMText
 10
4393.721909610673
 20
6684.398168834388
 30
0.0
 40
120.0
 41
0.0
 71
     5
 72
     1
  1
\A1;1380
  7
STYLE1
 11
0.0000000000000001
 21
1.0
 31
0.0
 73
     1
 44
1.0
1001
ACAD
1000
MTEXTBEGIN
1070
    73
1070
     1
1070
    44
1040
1.0
1070
    74
1070
     0
1000
MTEXTEND
  0
POINT
  5
266AE
330
261E8
100
AcDbEntity
  8
DEFPOINTS
 62
     0
 48
50.0
100
AcDbPoint
 10
5368.6
 20
7336.898168834387
 30
0.0
  0
POINT
  5
266AF
330
261E8
100
AcDbEntity
  8
DEFPOINTS
 62
     0
 48
50.0
100
AcDbPoint
 10
5368.6
 20
5956.898168834388
 30
0.0
  0
POINT
  5
266B0
330
261E8
100
AcDbEntity
  8
DEFPOINTS
 62
     0
 48
50.0
100
AcDbPoint
 10
4493.721909610673
 20
5956.898168834388
 30
0.0
  0
ENDBLK
  5
261F3
330
261E8
100
AcDbEntity
  8
0
 48
50.0
100
AcDbBlockEnd
  0
BLOCK
  5
261FE
330
261F4
100
AcDbEntity
  8
0
 48
50.0
100
AcDbBlockBegin
  2
*D41
 70
     1
 10
0.0
 20
0.0
 30
0.0
  3
*D41
  1

  0
LINE
  5
26731
330
261F4
100
AcDbEntity
  8
寸法
 62
     0
 48
50.0
370
    -2
100
AcDbLine
 10
5421.600000000001
 20
7213.898168834389
 30
0.0
 11
4685.665006330073
 21
7213.898168834389
 31
0.0
  0
LINE
  5
26732
330
261F4
100
AcDbEntity
  8
寸法
 62
     0
 48
50.0
370
    -2
100
AcDbLine
 10
5421.600000000008
 20
6154.898168834392
 30
0.0
 11
4685.665006330073
 21
6154.898168834392
 31
0.0
  0
LINE
  5
26733
330
261F4
100
AcDbEntity
  8
寸法
 62
     0
 48
50.0
370
    -2
100
AcDbLine
 10
4745.665006330074
 20
7213.898168834389
 30
0.0
 11
4745.665006330074
 21
6154.898168834392
 31
0.0
  0
INSERT
  5
26734
330
261F4
100
AcDbEntity
  8
寸法
 62
     0
 48
50.0
370
    -2
100
AcDbBlockReference
  2
_DOTSMALL
 10
4745.665006330074
 20
7213.898168834389
 30
0.0
 41
100.0
 42
100.0
 43
100.0
 50
90.0
  0
INSERT
  5
26735
330
261F4
100
AcDbEntity
  8
寸法
 62
     0
 48
50.0
370
    -2
100
AcDbBlockReference
  2
_DOTSMALL
 10
4745.665006330074
 20
6154.898168834392
 30
0.0
 41
100.0
 42
100.0
 43
100.0
 50
270.0
  0
MTEXT
  5
26736
330
261F4
100
AcDbEntity
  8
寸法
 62
     7
 48
50.0
100
AcDbMText
 10
4645.665006330071
 20
6684.398168834388
 30
0.0
 40
120.0
 41
0.0
 71
     5
 72
     1
  1
\A1;1059
  7
STYLE1
 11
0.0000000000000001
 21
1.0
 31
0.0
 73
     1
 44
1.0
1001
ACAD
1000
MTEXTBEGIN
1070
    73
1070
     1
1070
    44
1040
1.0
1070
    74
1070
     0
1000
MTEXTEND
  0
POINT
  5
26737
330
261F4
100
AcDbEntity
  8
DEFPOINTS
 62
     0
 48
50.0
100
AcDbPoint
 10
5441.600000000001
 20
7213.898168834389
 30
0.0
  0
POINT
  5
26738
330
261F4
100
AcDbEntity
  8
DEFPOINTS
 62
     0
 48
50.0
100
AcDbPoint
 10
5441.600000000008
 20
6154.898168834392
 30
0.0
  0
POINT
  5
26739
330
261F4
100
AcDbEntity
  8
DEFPOINTS
 62
     0
 48
50.0
100
AcDbPoint
 10
4745.665006330074
 20
6154.898168834392
 30
0.0
  0
ENDBLK
  5
261FF
330
261F4
100
AcDbEntity
  8
0
 48
50.0
100
AcDbBlockEnd
  0
BLOCK
  5
2620A
330
26200
100
AcDbEntity
  8
0
 48
50.0
100
AcDbBlockBegin
  2
*D42
 70
     1
 10
0.0
 20
0.0
 30
0.0
  3
*D42
  1

  0
LINE
  5
26682
330
26200
100
AcDbEntity
  8
寸法
 62
     0
 48
50.0
370
    -2
100
AcDbLine
 10
5348.600000000004
 20
5956.898168834385
 30
0.0
 11
5195.512673767881
 21
5956.898168834385
 31
0.0
  0
LINE
  5
26683
330
26200
100
AcDbEntity
  8
寸法
 62
     0
 48
50.0
370
    -2
100
AcDbLine
 10
5704.325326928809
 20
5236.898168834385
 30
0.0
 11
5195.512673767881
 21
5236.898168834385
 31
0.0
  0
LINE
  5
26684
330
26200
100
AcDbEntity
  8
寸法
 62
     0
 48
50.0
370
    -2
100
AcDbLine
 10
5255.512673767881
 20
5956.898168834385
 30
0.0
 11
5255.512673767881
 21
5236.898168834385
 31
0.0
  0
INSERT
  5
26685
330
26200
100
AcDbEntity
  8
寸法
 62
     0
 48
50.0
370
    -2
100
AcDbBlockReference
  2
_DOTSMALL
 10
5255.512673767881
 20
5956.898168834385
 30
0.0
 41
100.0
 42
100.0
 43
100.0
 50
90.0
  0
INSERT
  5
26686
330
26200
100
AcDbEntity
  8
寸法
 62
     0
 48
50.0
370
    -2
100
AcDbBlockReference
  2
_DOTSMALL
 10
5255.512673767881
 20
5236.898168834385
 30
0.0
 41
100.0
 42
100.0
 43
100.0
 50
270.0
  0
MTEXT
  5
26687
330
26200
100
AcDbEntity
  8
寸法
 62
     7
 48
50.0
100
AcDbMText
 10
5155.500862744259
 20
5596.898168834385
 30
0.0
 40
120.0
 41
0.0
 71
     5
 72
     1
  1
\A1;扉の出720
  7
STYLE1
 11
0.0000000000000001
 21
1.0
 31
0.0
 73
     1
 44
1.0
1001
ACAD
1000
MTEXTBEGIN
1070
    73
1070
     1
1070
    44
1040
1.0
1070
    74
1070
     0
1000
MTEXTEND
  0
POINT
  5
26688
330
26200
100
AcDbEntity
  8
DEFPOINTS
 62
     0
 48
50.0
100
AcDbPoint
 10
5368.600000000004
 20
5956.898168834385
 30
0.0
  0
POINT
  5
26689
330
26200
100
AcDbEntity
  8
DEFPOINTS
 62
     0
 48
50.0
100
AcDbPoint
 10
5724.325326928809
 20
5236.898168834385
 30
0.0
  0
POINT
  5
2668A
330
26200
100
AcDbEntity
  8
DEFPOINTS
 62
     0
 48
50.0
100
AcDbPoint
 10
5255.512673767881
 20
5236.898168834385
 30
0.0
  0
ENDBLK
  5
2620B
330
26200
100
AcDbEntity
  8
0
 48
50.0
100
AcDbBlockEnd
  0
BLOCK
  5
26217
330
2620C
100
AcDbEntity
  8
0
 48
50.0
100
AcDbBlockBegin
  2
*D43
 70
     1
 10
0.0
 20
0.0
 30
0.0
  3
*D43
  1

  0
LINE
  5
26727
330
2620C
100
AcDbEntity
  8
寸法
 62
     0
 48
50.0
370
    -2
100
AcDbLine
 10
5421.600000000008
 20
6154.898168834392
 30
0.0
 11
4685.665006330073
 21
6154.898168834392
 31
0.0
  0
LINE
  5
26728
330
2620C
100
AcDbEntity
  8
寸法
 62
     0
 48
50.0
370
    -2
100
AcDbLine
 10
5348.600000000001
 20
5956.898168834388
 30
0.0
 11
4685.665006330071
 21
5956.898168834388
 31
0.0
  0
LINE
  5
26729
330
2620C
100
AcDbEntity
  8
寸法
 62
     0
 48
50.0
370
    -2
100
AcDbLine
 10
4745.665006330074
 20
6154.898168834392
 30
0.0
 11
4745.665006330072
 21
5956.898168834388
 31
0.0
  0
LINE
  5
2672A
330
2620C
100
AcDbEntity
  8
寸法
 62
     0
 48
50.0
370
    -2
100
AcDbLine
 10
4745.665006330072
 20
5956.898168834388
 30
0.0
 11
4745.665006330072
 21
5485.157560162139
 31
0.0
  0
INSERT
  5
2672B
330
2620C
100
AcDbEntity
  8
寸法
 62
     0
 48
50.0
370
    -2
100
AcDbBlockReference
  2
_DOTSMALL
 10
4745.665006330074
 20
6154.898168834392
 30
0.0
 41
100.0
 42
100.0
 43
100.0
 50
90.0
  0
INSERT
  5
2672C
330
2620C
100
AcDbEntity
  8
寸法
 62
     0
 48
50.0
370
    -2
100
AcDbBlockReference
  2
_DOTSMALL
 10
4745.665006330072
 20
5956.898168834388
 30
0.0
 41
100.0
 42
100.0
 43
100.0
 50
270.0
  0
MTEXT
  5
2672D
330
2620C
100
AcDbEntity
  8
寸法
 62
     7
 48
50.0
100
AcDbMText
 10
4645.665006330071
 20
5621.367219991796
 30
0.0
 40
120.0
 41
0.0
 71
     5
 72
     1
  1
\A1;198
  7
STYLE1
 11
0.0000000000000001
 21
1.0
 31
0.0
 73
     1
 44
1.0
1001
ACAD
1000
MTEXTBEGIN
1070
    73
1070
     1
1070
    44
1040
1.0
1070
    74
1070
     0
1000
MTEXTEND
  0
POINT
  5
2672E
330
2620C
100
AcDbEntity
  8
DEFPOINTS
 62
     0
 48
50.0
100
AcDbPoint
 10
5441.600000000008
 20
6154.898168834392
 30
0.0
  0
POINT
  5
2672F
330
2620C
100
AcDbEntity
  8
DEFPOINTS
 62
     0
 48
50.0
100
AcDbPoint
 10
5368.6
 20
5956.898168834388
 30
0.0
  0
POINT
  5
26730
330
2620C
100
AcDbEntity
  8
DEFPOINTS
 62
     0
 48
50.0
100
AcDbPoint
 10
4745.665006330072
 20
5956.898168834388
 30
0.0
  0
ENDBLK
  5
26218
330
2620C
100
AcDbEntity
  8
0
 48
50.0
100
AcDbBlockEnd
  0
BLOCK
  5
2623C
330
26232
100
AcDbEntity
  8
0
 48
50.0
100
AcDbBlockBegin
  2
*D44
 70
     1
 10
0.0
 20
0.0
 30
0.0
  3
*D44
  1

  0
LINE
  5
267D6
330
26232
100
AcDbEntity
  8
寸法
 62
     0
 48
50.0
370
    -2
100
AcDbLine
 10
5922.765475140901
 20
5956.898168834399
 30
0.0
 11
5791.285990614301
 21
5956.898168834399
 31
0.0
  0
LINE
  5
267D7
330
26232
100
AcDbEntity
  8
寸法
 62
     0
 48
50.0
370
    -2
100
AcDbLine
 10
6253.600000000008
 20
6683.898168834388
 30
0.0
 11
5791.285990614301
 21
6683.898168834389
 31
0.0
  0
LINE
  5
267D8
330
26232
100
AcDbEntity
  8
寸法
 62
     0
 48
50.0
370
    -2
100
AcDbLine
 10
5851.285990614301
 20
5956.898168834399
 30
0.0
 11
5851.285990614302
 21
6683.898168834389
 31
0.0
  0
INSERT
  5
267D9
330
26232
100
AcDbEntity
  8
寸法
 62
     0
 48
50.0
370
    -2
100
AcDbBlockReference
  2
_DOTSMALL
 10
5851.285990614301
 20
5956.898168834399
 30
0.0
 41
100.0
 42
100.0
 43
100.0
 50
270.0
  0
INSERT
  5
267DA
330
26232
100
AcDbEntity
  8
寸法
 62
     0
 48
50.0
370
    -2
100
AcDbBlockReference
  2
_DOTSMALL
 10
5851.285990614302
 20
6683.898168834389
 30
0.0
 41
100.0
 42
100.0
 43
100.0
 50
90.0
  0
MTEXT
  5
267DB
330
26232
100
AcDbEntity
  8
寸法
 62
     7
 48
50.0
100
AcDbMText
 10
5751.274179590678
 20
6398.898168834389
 30
0.0
 40
120.0
 41
0.0
 71
     5
 72
     1
  1
\A1;727
  7
STYLE1
 11
0.0000000000000001
 21
1.0
 31
0.0
 73
     1
 44
1.0
1001
ACAD
1000
MTEXTBEGIN
1070
    73
1070
     1
1070
    44
1040
1.0
1070
    74
1070
     0
1000
MTEXTEND
  0
POINT
  5
267DC
330
26232
100
AcDbEntity
  8
DEFPOINTS
 62
     0
 48
50.0
100
AcDbPoint
 10
5942.765475140901
 20
5956.898168834399
 30
0.0
  0
POINT
  5
267DD
330
26232
100
AcDbEntity
  8
DEFPOINTS
 62
     0
 48
50.0
100
AcDbPoint
 10
6273.600000000008
 20
6683.898168834388
 30
0.0
  0
POINT
  5
267DE
330
26232
100
AcDbEntity
  8
DEFPOINTS
 62
     0
 48
50.0
100
AcDbPoint
 10
5851.285990614302
 20
6683.898168834389
 30
0.0
  0
ENDBLK
  5
2623D
330
26232
100
AcDbEntity
  8
0
 48
50.0
100
AcDbBlockEnd
  0
BLOCK
  5
26256
330
2624B
100
AcDbEntity
  8
0
 48
50.0
100
AcDbBlockBegin
  2
*D45
 70
     1
 10
0.0
 20
0.0
 30
0.0
  3
*D45
  1

  0
LINE
  5
2668B
330
2624B
100
AcDbEntity
  8
寸法
 62
     0
 48
50.0
370
    -2
100
AcDbLine
 10
5348.600000000001
 20
7336.898168834387
 30
0.0
 11
4685.665006330071
 21
7336.898168834387
 31
0.0
  0
LINE
  5
2668C
330
2624B
100
AcDbEntity
  8
寸法
 62
     0
 48
50.0
370
    -2
100
AcDbLine
 10
5421.600000000001
 20
7213.898168834389
 30
0.0
 11
4685.665006330071
 21
7213.898168834389
 31
0.0
  0
LINE
  5
2668D
330
2624B
100
AcDbEntity
  8
寸法
 62
     0
 48
50.0
370
    -2
100
AcDbLine
 10
4745.665006330072
 20
7213.898168834389
 30
0.0
 11
4745.665006330072
 21
7336.898168834387
 31
0.0
  0
LINE
  5
2668E
330
2624B
100
AcDbEntity
  8
寸法
 62
     0
 48
50.0
370
    -2
100
AcDbLine
 10
4745.665006330072
 20
7336.898168834387
 30
0.0
 11
4745.665006330072
 21
7748.490051926427
 31
0.0
  0
INSERT
  5
2668F
330
2624B
100
AcDbEntity
  8
寸法
 62
     0
 48
50.0
370
    -2
100
AcDbBlockReference
  2
_DOTSMALL
 10
4745.665006330072
 20
7213.898168834389
 30
0.0
 41
100.0
 42
100.0
 43
100.0
 50
270.0
  0
INSERT
  5
26690
330
2624B
100
AcDbEntity
  8
寸法
 62
     0
 48
50.0
370
    -2
100
AcDbBlockReference
  2
_DOTSMALL
 10
4745.665006330072
 20
7336.898168834387
 30
0.0
 41
100.0
 42
100.0
 43
100.0
 50
90.0
  0
MTEXT
  5
26691
330
2624B
100
AcDbEntity
  8
寸法
 62
     7
 48
50.0
100
AcDbMText
 10
4645.65319530645
 20
7610.004770552189
 30
0.0
 40
120.0
 41
0.0
 71
     5
 72
     1
  1
\A1;123
  7
STYLE1
 11
0.0000000000000001
 21
1.0
 31
0.0
 73
     1
 44
1.0
1001
ACAD
1000
MTEXTBEGIN
1070
    73
1070
     1
1070
    44
1040
1.0
1070
    74
1070
     0
1000
MTEXTEND
  0
POINT
  5
26692
330
2624B
100
AcDbEntity
  8
DEFPOINTS
 62
     0
 48
50.0
100
AcDbPoint
 10
5368.6
 20
7336.898168834387
 30
0.0
  0
POINT
  5
26693
330
2624B
100
AcDbEntity
  8
DEFPOINTS
 62
     0
 48
50.0
100
AcDbPoint
 10
5441.600000000001
 20
7213.898168834389
 30
0.0
  0
POINT
  5
26694
330
2624B
100
AcDbEntity
  8
DEFPOINTS
 62
     0
 48
50.0
100
AcDbPoint
 10
4745.665006330072
 20
7213.898168834389
 30
0.0
  0
ENDBLK
  5
26257
330
2624B
100
AcDbEntity
  8
0
 48
50.0
100
AcDbBlockEnd
  0
BLOCK
  5
2626D
330
26262
100
AcDbEntity
  8
0
 48
50.0
100
AcDbBlockBegin
  2
*D46
 70
     1
 10
0.0
 20
0.0
 30
0.0
  3
*D46
  1

  0
LINE
  5
26642
330
26262
100
AcDbEntity
  8
寸法
 62
     0
 48
50.0
370
    -2
100
AcDbLine
 10
5491.6
 20
7283.898168834388
 30
0.0
 11
5491.6
 21
8123.164626928298
 31
0.0
  0
LINE
  5
26643
330
26262
100
AcDbEntity
  8
寸法
 62
     0
 48
50.0
370
    -2
100
AcDbLine
 10
5368.6
 20
7356.898168834388
 30
0.0
 11
5368.6
 21
8123.164626928298
 31
0.0
  0
LINE
  5
26644
330
26262
100
AcDbEntity
  8
寸法
 62
     0
 48
50.0
370
    -2
100
AcDbLine
 10
5491.6
 20
8063.164626928299
 30
0.0
 11
5368.6
 21
8063.164626928299
 31
0.0
  0
LINE
  5
26645
330
26262
100
AcDbEntity
  8
寸法
 62
     0
 48
50.0
370
    -2
100
AcDbLine
 10
5368.6
 20
8063.164626928299
 30
0.0
 11
4957.008116907963
 21
8063.164626928299
 31
0.0
  0
INSERT
  5
26646
330
26262
100
AcDbEntity
  8
寸法
 62
     0
 48
50.0
370
    -2
100
AcDbBlockReference
  2
_DOTSMALL
 10
5491.6
 20
8063.164626928299
 30
0.0
 41
100.0
 42
100.0
 43
100.0
  0
INSERT
  5
26647
330
26262
100
AcDbEntity
  8
寸法
 62
     0
 48
50.0
370
    -2
100
AcDbBlockReference
  2
_DOTSMALL
 10
5368.6
 20
8063.164626928299
 30
0.0
 41
100.0
 42
100.0
 43
100.0
 50
180.0
  0
MTEXT
  5
26648
330
26262
100
AcDbEntity
  8
寸法
 62
     7
 48
50.0
100
AcDbMText
 10
5095.493398282202
 20
8163.176437951921
 30
0.0
 40
120.0
 41
0.0
 71
     5
 72
     1
  1
\A1;123
  7
STYLE1
 73
     1
 44
1.0
1001
ACAD
1000
MTEXTBEGIN
1070
    73
1070
     1
1070
    44
1040
1.0
1070
    74
1070
     0
1000
MTEXTEND
  0
POINT
  5
26649
330
26262
100
AcDbEntity
  8
DEFPOINTS
 62
     0
 48
50.0
100
AcDbPoint
 10
5491.6
 20
7263.898168834389
 30
0.0
  0
POINT
  5
2664A
330
26262
100
AcDbEntity
  8
DEFPOINTS
 62
     0
 48
50.0
100
AcDbPoint
 10
5368.6
 20
7336.898168834387
 30
0.0
  0
POINT
  5
2664B
330
26262
100
AcDbEntity
  8
DEFPOINTS
 62
     0
 48
50.0
100
AcDbPoint
 10
5368.6
 20
8063.164626928299
 30
0.0
  0
ENDBLK
  5
2626E
330
26262
100
AcDbEntity
  8
0
 48
50.0
100
AcDbBlockEnd
  0
BLOCK
  5
26278
330
2626F
100
AcDbEntity
  8
0
 48
50.0
100
AcDbBlockBegin
  2
*D47
 70
     1
 10
0.0
 20
0.0
 30
0.0
  3
*D47
  1

  0
LINE
  5
26639
330
2626F
100
AcDbEntity
  8
寸法
 62
     0
 48
50.0
370
    -2
100
AcDbLine
 10
8105.600000000002
 20
7283.898168834388
 30
0.0
 11
8105.600000000002
 21
8123.164626928298
 31
0.0
  0
LINE
  5
2663A
330
2626F
100
AcDbEntity
  8
寸法
 62
     0
 48
50.0
370
    -2
100
AcDbLine
 10
5491.6
 20
7283.898168834388
 30
0.0
 11
5491.6
 21
8123.164626928298
 31
0.0
  0
LINE
  5
2663B
330
2626F
100
AcDbEntity
  8
寸法
 62
     0
 48
50.0
370
    -2
100
AcDbLine
 10
8105.600000000002
 20
8063.164626928299
 30
0.0
 11
5491.6
 21
8063.164626928299
 31
0.0
  0
INSERT
  5
2663C
330
2626F
100
AcDbEntity
  8
寸法
 62
     0
 48
50.0
370
    -2
100
AcDbBlockReference
  2
_DOTSMALL
 10
8105.600000000002
 20
8063.164626928299
 30
0.0
 41
100.0
 42
100.0
 43
100.0
  0
INSERT
  5
2663D
330
2626F
100
AcDbEntity
  8
寸法
 62
     0
 48
50.0
370
    -2
100
AcDbBlockReference
  2
_DOTSMALL
 10
5491.6
 20
8063.164626928299
 30
0.0
 41
100.0
 42
100.0
 43
100.0
 50
180.0
  0
MTEXT
  5
2663E
330
2626F
100
AcDbEntity
  8
寸法
 62
     7
 48
50.0
100
AcDbMText
 10
6798.600000000002
 20
8163.176437951921
 30
0.0
 40
120.0
 41
0.0
 71
     5
 72
     1
  1
\A1;2614
  7
STYLE1
 73
     1
 44
1.0
1001
ACAD
1000
MTEXTBEGIN
1070
    73
1070
     1
1070
    44
1040
1.0
1070
    74
1070
     0
1000
MTEXTEND
  0
POINT
  5
2663F
330
2626F
100
AcDbEntity
  8
DEFPOINTS
 62
     0
 48
50.0
100
AcDbPoint
 10
8105.600000000002
 20
7263.898168834389
 30
0.0
  0
POINT
  5
26640
330
2626F
100
AcDbEntity
  8
DEFPOINTS
 62
     0
 48
50.0
100
AcDbPoint
 10
5491.6
 20
7263.898168834389
 30
0.0
  0
POINT
  5
26641
330
2626F
100
AcDbEntity
  8
DEFPOINTS
 62
     0
 48
50.0
100
AcDbPoint
 10
5491.6
 20
8063.164626928299
 30
0.0
  0
ENDBLK
  5
26279
330
2626F
100
AcDbEntity
  8
0
 48
50.0
100
AcDbBlockEnd
  0
BLOCK
  5
26AEE
330
26AE4
100
AcDbEntity
  8
0
 48
50.0
100
AcDbBlockBegin
  2
*D54
 70
     1
 10
0.0
 20
0.0
 30
0.0
  3
*D54
  1

  0
LINE
  5
26B2E
330
26AE4
100
AcDbEntity
  8
寸法
 62
     0
 48
50.0
370
    -2
100
AcDbLine
 10
6449.207242936451
 20
1930.900942910246
 30
0.0
 11
6449.207242936451
 21
2390.568750826627
 31
0.0
  0
LINE
  5
26B2F
330
26AE4
100
AcDbEntity
  8
寸法
 62
     0
 48
50.0
370
    -2
100
AcDbLine
 10
6257.207242936452
 20
1930.900942910246
 30
0.0
 11
6257.207242936452
 21
2390.568750826627
 31
0.0
  0
LINE
  5
26B30
330
26AE4
100
AcDbEntity
  8
寸法
 62
     0
 48
50.0
370
    -2
100
AcDbLine
 10
6449.207242936451
 20
2330.568750826627
 30
0.0
 11
6257.207242936452
 21
2330.568750826627
 31
0.0
  0
INSERT
  5
26B31
330
26AE4
100
AcDbEntity
  8
寸法
 62
     0
 48
50.0
370
    -2
100
AcDbBlockReference
  2
_DOTSMALL
 10
6449.207242936451
 20
2330.568750826627
 30
0.0
 41
100.0
 42
100.0
 43
100.0
  0
INSERT
  5
26B32
330
26AE4
100
AcDbEntity
  8
寸法
 62
     0
 48
50.0
370
    -2
100
AcDbBlockReference
  2
_DOTSMALL
 10
6257.207242936452
 20
2330.568750826627
 30
0.0
 41
100.0
 42
100.0
 43
100.0
 50
180.0
  0
MTEXT
  5
26B33
330
26AE4
100
AcDbEntity
  8
寸法
 62
     7
 48
50.0
100
AcDbMText
 10
6353.207242936452
 20
2630.604183897493
 30
0.0
 40
120.0
 41
0.0
 71
     5
 72
     1
  1
\A1;120\P200\P280
  7
STYLE1
 73
     1
 44
1.0
1001
ACAD
1000
MTEXTBEGIN
1070
    73
1070
     1
1070
    44
1040
1.0
1070
    74
1070
     0
1000
MTEXTEND
  0
POINT
  5
26B34
330
26AE4
100
AcDbEntity
  8
DEFPOINTS
 62
     0
 48
50.0
100
AcDbPoint
 10
6449.207242936451
 20
1910.900942910246
 30
0.0
  0
POINT
  5
26B35
330
26AE4
100
AcDbEntity
  8
DEFPOINTS
 62
     0
 48
50.0
100
AcDbPoint
 10
6257.207242936452
 20
1910.900942910246
 30
0.0
  0
POINT
  5
26B36
330
26AE4
100
AcDbEntity
  8
DEFPOINTS
 62
     0
 48
50.0
100
AcDbPoint
 10
6257.207242936452
 20
2330.568750826627
 30
0.0
  0
ENDBLK
  5
26AEF
330
26AE4
100
AcDbEntity
  8
0
 48
50.0
100
AcDbBlockEnd
  0
BLOCK
  5
26AFA
330
26AF0
100
AcDbEntity
  8
0
 48
50.0
100
AcDbBlockBegin
  2
*D55
 70
     1
 10
0.0
 20
0.0
 30
0.0
  3
*D55
  1

  0
LINE
  5
26B37
330
26AF0
100
AcDbEntity
  8
寸法
 62
     0
 48
50.0
370
    -2
100
AcDbLine
 10
6129.207242936452
 20
978.9009429102462
 30
0.0
 11
6129.207242936452
 21
528.4713049050861
 31
0.0
  0
LINE
  5
26B38
330
26AF0
100
AcDbEntity
  8
寸法
 62
     0
 48
50.0
370
    -2
100
AcDbLine
 10
6577.207242936451
 20
978.9009429102462
 30
0.0
 11
6577.207242936451
 21
528.4713049050861
 31
0.0
  0
LINE
  5
26B39
330
26AF0
100
AcDbEntity
  8
寸法
 62
     0
 48
50.0
370
    -2
100
AcDbLine
 10
6129.207242936452
 20
588.471304905086
 30
0.0
 11
6577.207242936451
 21
588.471304905086
 31
0.0
  0
INSERT
  5
26B3A
330
26AF0
100
AcDbEntity
  8
寸法
 62
     0
 48
50.0
370
    -2
100
AcDbBlockReference
  2
_DOTSMALL
 10
6129.207242936452
 20
588.471304905086
 30
0.0
 41
100.0
 42
100.0
 43
100.0
 50
180.0
  0
INSERT
  5
26B3B
330
26AF0
100
AcDbEntity
  8
寸法
 62
     0
 48
50.0
370
    -2
100
AcDbBlockReference
  2
_DOTSMALL
 10
6577.207242936451
 20
588.471304905086
 30
0.0
 41
100.0
 42
100.0
 43
100.0
  0
MTEXT
  5
26B3C
330
26AF0
100
AcDbEntity
  8
寸法
 62
     7
 48
50.0
100
AcDbMText
 10
6333.110484258228
 20
688.471304905086
 30
0.0
 40
120.0
 41
0.0
 71
     5
 72
     1
  1
\A1;300
  7
STYLE1
 73
     1
 44
1.0
1001
ACAD
1000
MTEXTBEGIN
1070
    73
1070
     1
1070
    44
1040
1.0
1070
    74
1070
     0
1000
MTEXTEND
  0
POINT
  5
26B3D
330
26AF0
100
AcDbEntity
  8
DEFPOINTS
 62
     0
 48
50.0
100
AcDbPoint
 10
6129.207242936452
 20
998.9009429102461
 30
0.0
  0
POINT
  5
26B3E
330
26AF0
100
AcDbEntity
  8
DEFPOINTS
 62
     0
 48
50.0
100
AcDbPoint
 10
6577.207242936451
 20
998.9009429102461
 30
0.0
  0
POINT
  5
26B3F
330
26AF0
100
AcDbEntity
  8
DEFPOINTS
 62
     0
 48
50.0
100
AcDbPoint
 10
6577.207242936451
 20
588.471304905086
 30
0.0
  0
ENDBLK
  5
26AFB
330
26AF0
100
AcDbEntity
  8
0
 48
50.0
100
AcDbBlockEnd
  0
BLOCK
  5
26B06
330
26AFC
100
AcDbEntity
  8
0
 48
50.0
100
AcDbBlockBegin
  2
*D56
 70
     1
 10
0.0
 20
0.0
 30
0.0
  3
*D56
  1

  0
LINE
  5
26B40
330
26AFC
100
AcDbEntity
  8
寸法
 62
     0
 48
50.0
370
    -2
100
AcDbLine
 10
6237.207242936452
 20
1910.900942910246
 30
0.0
 11
5462.170004374712
 21
1910.900942910246
 31
0.0
  0
LINE
  5
26B41
330
26AFC
100
AcDbEntity
  8
寸法
 62
     0
 48
50.0
370
    -2
100
AcDbLine
 10
6029.207242936455
 20
1126.900942910246
 30
0.0
 11
5462.170004374712
 21
1126.900942910246
 31
0.0
  0
LINE
  5
26B42
330
26AFC
100
AcDbEntity
  8
寸法
 62
     0
 48
50.0
370
    -2
100
AcDbLine
 10
5522.170004374711
 20
1910.900942910246
 30
0.0
 11
5522.170004374711
 21
1126.900942910246
 31
0.0
  0
INSERT
  5
26B43
330
26AFC
100
AcDbEntity
  8
寸法
 62
     0
 48
50.0
370
    -2
100
AcDbBlockReference
  2
_DOTSMALL
 10
5522.170004374711
 20
1910.900942910246
 30
0.0
 41
100.0
 42
100.0
 43
100.0
 50
90.0
  0
INSERT
  5
26B44
330
26AFC
100
AcDbEntity
  8
寸法
 62
     0
 48
50.0
370
    -2
100
AcDbBlockReference
  2
_DOTSMALL
 10
5522.170004374711
 20
1126.900942910246
 30
0.0
 41
100.0
 42
100.0
 43
100.0
 50
270.0
  0
MTEXT
  5
26B45
330
26AFC
100
AcDbEntity
  8
寸法
 62
     7
 48
50.0
100
AcDbMText
 10
5422.170004374711
 20
1498.441092566247
 30
0.0
 40
120.0
 41
0.0
 71
     5
 72
     1
  1
\A1;540
  7
STYLE1
 11
0.0000000000000001
 21
1.0
 31
0.0
 73
     1
 44
1.0
1001
ACAD
1000
MTEXTBEGIN
1070
    73
1070
     1
1070
    44
1040
1.0
1070
    74
1070
     0
1000
MTEXTEND
  0
POINT
  5
26B46
330
26AFC
100
AcDbEntity
  8
DEFPOINTS
 62
     0
 48
50.0
100
AcDbPoint
 10
6257.207242936452
 20
1910.900942910246
 30
0.0
  0
POINT
  5
26B47
330
26AFC
100
AcDbEntity
  8
DEFPOINTS
 62
     0
 48
50.0
100
AcDbPoint
 10
6049.207242936455
 20
1126.900942910246
 30
0.0
  0
POINT
  5
26B48
330
26AFC
100
AcDbEntity
  8
DEFPOINTS
 62
     0
 48
50.0
100
AcDbPoint
 10
5522.170004374711
 20
1126.900942910246
 30
0.0
  0
ENDBLK
  5
26B07
330
26AFC
100
AcDbEntity
  8
0
 48
50.0
100
AcDbBlockEnd
  0
BLOCK
  5
26B12
330
26B08
100
AcDbEntity
  8
0
 48
50.0
100
AcDbBlockBegin
  2
*D57
 70
     1
 10
0.0
 20
0.0
 30
0.0
  3
*D57
  1

  0
LINE
  5
26B49
330
26B08
100
AcDbEntity
  8
寸法
 62
     0
 48
50.0
370
    -2
100
AcDbLine
 10
6109.207242936452
 20
1366.900942910246
 30
0.0
 11
5926.786929203992
 21
1366.900942910246
 31
0.0
  0
LINE
  5
26B4A
330
26B08
100
AcDbEntity
  8
寸法
 62
     0
 48
50.0
370
    -2
100
AcDbLine
 10
6029.207242936455
 20
1126.900942910246
 30
0.0
 11
5926.786929203992
 21
1126.900942910246
 31
0.0
  0
LINE
  5
26B4B
330
26B08
100
AcDbEntity
  8
寸法
 62
     0
 48
50.0
370
    -2
100
AcDbLine
 10
5986.786929203993
 20
1366.900942910246
 30
0.0
 11
5986.786929203993
 21
1126.900942910246
 31
0.0
  0
INSERT
  5
26B4C
330
26B08
100
AcDbEntity
  8
寸法
 62
     0
 48
50.0
370
    -2
100
AcDbBlockReference
  2
_DOTSMALL
 10
5986.786929203993
 20
1366.900942910246
 30
0.0
 41
100.0
 42
100.0
 43
100.0
 50
90.0
  0
INSERT
  5
26B4D
330
26B08
100
AcDbEntity
  8
寸法
 62
     0
 48
50.0
370
    -2
100
AcDbBlockReference
  2
_DOTSMALL
 10
5986.786929203993
 20
1126.900942910246
 30
0.0
 41
100.0
 42
100.0
 43
100.0
 50
270.0
  0
MTEXT
  5
26B4E
330
26B08
100
AcDbEntity
  8
寸法
 62
     7
 48
50.0
100
AcDbMText
 10
5886.786929203992
 20
1246.900942910247
 30
0.0
 40
120.0
 41
0.0
 71
     5
 72
     1
  1
\A1;150
  7
STYLE1
 11
0.0000000000000001
 21
1.0
 31
0.0
 73
     1
 44
1.0
1001
ACAD
1000
MTEXTBEGIN
1070
    73
1070
     1
1070
    44
1040
1.0
1070
    74
1070
     0
1000
MTEXTEND
  0
POINT
  5
26B4F
330
26B08
100
AcDbEntity
  8
DEFPOINTS
 62
     0
 48
50.0
100
AcDbPoint
 10
6129.207242936452
 20
1366.900942910246
 30
0.0
  0
POINT
  5
26B50
330
26B08
100
AcDbEntity
  8
DEFPOINTS
 62
     0
 48
50.0
100
AcDbPoint
 10
6049.207242936455
 20
1126.900942910246
 30
0.0
  0
POINT
  5
26B51
330
26B08
100
AcDbEntity
  8
DEFPOINTS
 62
     0
 48
50.0
100
AcDbPoint
 10
5986.786929203993
 20
1126.900942910246
 30
0.0
  0
ENDBLK
  5
26B13
330
26B08
100
AcDbEntity
  8
0
 48
50.0
100
AcDbBlockEnd
  0
BLOCK
  5
26B20
330
26B14
100
AcDbEntity
  8
0
 48
50.0
100
AcDbBlockBegin
  2
*D58
 70
     1
 10
0.0
 20
0.0
 30
0.0
  3
*D58
  1

  0
LINE
  5
26B52
330
26B14
100
AcDbEntity
  8
寸法
 62
     0
 48
50.0
370
    -2
100
AcDbLine
 10
8204.046556113645
 20
1963.660942910247
 30
0.0
 11
9209.169822001518
 21
1963.660942910247
 31
0.0
  0
LINE
  5
26B53
330
26B14
100
AcDbEntity
  8
寸法
 62
     0
 48
50.0
370
    -2
100
AcDbLine
 10
8391.246556113646
 20
1910.900942910246
 30
0.0
 11
9209.169822001518
 21
1910.900942910246
 31
0.0
  0
LINE
  5
26B54
330
26B14
100
AcDbEntity
  8
寸法
 62
     0
 48
50.0
370
    -2
100
AcDbLine
 10
9149.169822001516
 20
1963.660942910247
 30
0.0
 11
9149.169822001516
 21
2063.660942910248
 31
0.0
  0
LINE
  5
26B55
330
26B14
100
AcDbEntity
  8
寸法
 62
     0
 48
50.0
370
    -2
100
AcDbLine
 10
9149.169822001516
 20
1910.900942910246
 30
0.0
 11
9149.169822001516
 21
1178.88313606728
 31
0.0
  0
LINE
  5
26B56
330
26B14
100
AcDbEntity
  8
寸法
 62
     0
 48
50.0
370
    -2
100
AcDbLine
 10
9149.169822001516
 20
1963.660942910247
 30
0.0
 11
9149.169822001516
 21
1910.900942910246
 31
0.0
  0
INSERT
  5
26B57
330
26B14
100
AcDbEntity
  8
寸法
 62
     0
 48
50.0
370
    -2
100
AcDbBlockReference
  2
_DOTSMALL
 10
9149.169822001516
 20
1963.660942910247
 30
0.0
 41
100.0
 42
100.0
 43
100.0
 50
270.0
  0
INSERT
  5
26B58
330
26B14
100
AcDbEntity
  8
寸法
 62
     0
 48
50.0
370
    -2
100
AcDbBlockReference
  2
_DOTSMALL
 10
9149.169822001516
 20
1910.900942910246
 30
0.0
 41
100.0
 42
100.0
 43
100.0
 50
90.0
  0
MTEXT
  5
26B59
330
26B14
100
AcDbEntity
  8
寸法
 62
     7
 48
50.0
100
AcDbMText
 10
9049.158010977896
 20
1444.892039488763
 30
0.0
 40
120.0
 41
0.0
 71
     5
 72
     1
  1
\A1;20～25
  7
STYLE1
 11
0.0000000000000001
 21
1.0
 31
0.0
 73
     1
 44
1.0
1001
ACAD
1000
MTEXTBEGIN
1070
    73
1070
     1
1070
    44
1040
1.0
1070
    74
1070
     0
1000
MTEXTEND
  0
POINT
  5
26B5A
330
26B14
100
AcDbEntity
  8
DEFPOINTS
 62
     0
 48
50.0
100
AcDbPoint
 10
8184.046556113647
 20
1963.660942910247
 30
0.0
  0
POINT
  5
26B5B
330
26B14
100
AcDbEntity
  8
DEFPOINTS
 62
     0
 48
50.0
100
AcDbPoint
 10
8371.246556113645
 20
1910.900942910246
 30
0.0
  0
POINT
  5
26B5C
330
26B14
100
AcDbEntity
  8
DEFPOINTS
 62
     0
 48
50.0
100
AcDbPoint
 10
9149.169822001516
 20
1910.900942910246
 30
0.0
  0
ENDBLK
  5
26B21
330
26B14
100
AcDbEntity
  8
0
 48
50.0
100
AcDbBlockEnd
  0
BLOCK
  5
26B2C
330
26B22
100
AcDbEntity
  8
0
 48
50.0
100
AcDbBlockBegin
  2
*D59
 70
     1
 10
0.0
 20
0.0
 30
0.0
  3
*D59
  1

  0
LINE
  5
26B5D
330
26B22
100
AcDbEntity
  8
寸法
 62
     0
 48
50.0
370
    -2
100
AcDbLine
 10
8391.246556113646
 20
1910.900942910246
 30
0.0
 11
8933.115155882489
 21
1910.900942910246
 31
0.0
  0
LINE
  5
26B5E
330
26B22
100
AcDbEntity
  8
寸法
 62
     0
 48
50.0
370
    -2
100
AcDbLine
 10
8391.246556113646
 20
1586.900942910245
 30
0.0
 11
8933.115155882489
 21
1586.900942910245
 31
0.0
  0
LINE
  5
26B5F
330
26B22
100
AcDbEntity
  8
寸法
 62
     0
 48
50.0
370
    -2
100
AcDbLine
 10
8873.115155882489
 20
1910.900942910246
 30
0.0
 11
8873.115155882489
 21
1586.900942910245
 31
0.0
  0
INSERT
  5
26B60
330
26B22
100
AcDbEntity
  8
寸法
 62
     0
 48
50.0
370
    -2
100
AcDbBlockReference
  2
_DOTSMALL
 10
8873.115155882489
 20
1910.900942910246
 30
0.0
 41
100.0
 42
100.0
 43
100.0
 50
90.0
  0
INSERT
  5
26B61
330
26B22
100
AcDbEntity
  8
寸法
 62
     0
 48
50.0
370
    -2
100
AcDbBlockReference
  2
_DOTSMALL
 10
8873.115155882489
 20
1586.900942910245
 30
0.0
 41
100.0
 42
100.0
 43
100.0
 50
270.0
  0
MTEXT
  5
26B62
330
26B22
100
AcDbEntity
  8
寸法
 62
     7
 48
50.0
100
AcDbMText
 10
8773.115155882489
 20
1748.900942910247
 30
0.0
 40
120.0
 41
0.0
 71
     5
 72
     1
  1
\A1;180
  7
STYLE1
 11
0.0000000000000001
 21
1.0
 31
0.0
 73
     1
 44
1.0
1001
ACAD
1000
MTEXTBEGIN
1070
    73
1070
     1
1070
    44
1040
1.0
1070
    74
1070
     0
1000
MTEXTEND
  0
POINT
  5
26B63
330
26B22
100
AcDbEntity
  8
DEFPOINTS
 62
     0
 48
50.0
100
AcDbPoint
 10
8371.246556113645
 20
1910.900942910246
 30
0.0
  0
POINT
  5
26B64
330
26B22
100
AcDbEntity
  8
DEFPOINTS
 62
     0
 48
50.0
100
AcDbPoint
 10
8371.246556113645
 20
1586.900942910245
 30
0.0
  0
POINT
  5
26B65
330
26B22
100
AcDbEntity
  8
DEFPOINTS
 62
     0
 48
50.0
100
AcDbPoint
 10
8873.115155882489
 20
1586.900942910245
 30
0.0
  0
ENDBLK
  5
26B2D
330
26B22
100
AcDbEntity
  8
0
 48
50.0
100
AcDbBlockEnd
  0
ENDSEC
  0
SECTION
  2
ENTITIES
  0
MTEXT
  5
763F
330
747D
100
AcDbEntity
  8
0
100
AcDbMText
 10
302.846345836809
 20
280.1983726409901
 30
0.0
 40
3.5
 41
5.323721266742722
 71
     1
 72
     5
  1

  7
MSMINCHO
 73
     1
 44
1.0
1001
ACAD
1000
MTEXTBEGIN
1070
    73
1070
     1
1070
    44
1040
1.0
1070
    74
1070
     0
1000
MTEXTEND
  0
LINE
  5
10B57
330
747D
100
AcDbEntity
  8
補助
  6
PHANTOM
 62
   230
 48
50.0
100
AcDbLine
 10
139.9999999999995
 20
11409.6
 30
0.0
 11
16307.2
 21
11409.6
 31
0.0
  0
LINE
  5
10B59
330
747D
100
AcDbEntity
  8
仕様書枠
  6
Continuous
 48
50.0
100
AcDbLine
 10
13107.2
 20
1200.0
 30
0.0
 11
13107.2
 21
-0.0000000000000729
 31
0.0
  0
LINE
  5
10B5D
330
747D
100
AcDbEntity
  8
仕様書枠
 48
50.0
100
AcDbLine
 10
140.0
 20
0.0
 30
0.0
 11
16307.2
 21
-0.0000000000000909
 31
0.0
  0
LINE
  5
10B5E
330
747D
100
AcDbEntity
  8
補助
  6
PHANTOM
 62
   230
 48
50.0
100
AcDbLine
 10
16307.2
 20
11409.6
 30
0.0
 11
16307.2
 21
1200.0
 31
0.0
  0
LINE
  5
10B6C
330
747D
100
AcDbEntity
  8
仕様書枠
 48
50.0
100
AcDbLine
 10
13107.2
 20
1200.0
 30
0.0
 11
16307.2
 21
1200.0
 31
0.0
  0
TEXT
  5
10B73
330
747D
100
AcDbEntity
  8
文字
 62
     7
 48
50.0
100
AcDbText
 10
13162.9790565769
 20
895.0906074299405
 30
0.0
 40
200.0
  1
基 礎 図
  7
STYLE2
100
AcDbText
  0
LINE
  5
10B7B
330
747D
100
AcDbEntity
  8
仕様書枠
 48
50.0
100
AcDbLine
 10
13107.2
 20
800.0
 30
0.0
 11
14251.2
 21
800.0
 31
0.0
  0
LINE
  5
10B88
330
747D
100
AcDbEntity
  8
仕様書枠
  6
Continuous
 48
50.0
100
AcDbLine
 10
14251.2
 20
1200.0
 30
0.0
 11
14251.2
 21
800.0
 31
0.0
  0
LINE
  5
16462
330
747D
100
AcDbEntity
  8
仕様書枠
 48
50.0
100
AcDbLine
 10
16307.2
 20
1200.0
 30
0.0
 11
16307.2
 21
-0.0000000000000909
 31
0.0
  0
LINE
  5
1903B
330
747D
100
AcDbEntity
  8
補助
  6
PHANTOM
 62
   230
 48
50.0
100
AcDbLine
 10
140.0
 20
0.0
 30
0.0
 11
139.9999999999995
 21
11409.6
 31
0.0
  0
LEADER
  5
1AC27
330
747D
100
AcDbEntity
  8
寸法
 48
50.0
100
AcDbLeader
  3
INABA_S50G
 73
     0
 74
     0
 75
     1
 40
120.0
 41
720.0000000000001
 76
     3
 10
11080.05985718447
 20
6642.885105288634
 30
0.0
 10
11236.83343157076
 20
6381.871191720801
 30
0.0
 10
11361.83343157076
 20
6381.871191720801
 30
0.0
340
1AC28
1001
ACAD
1000
DSTYLE
1002
{
1070
   341
1005
0
1070
    40
1040
1.0
1070
   343
1005
0
1070
   344
1005
0
1002
}
  0
MTEXT
  5
1AC28
102
{ACAD_REACTORS
330
1AC27
102
}
330
747D
100
AcDbEntity
  8
部品1
 62
     7
 48
50.0
100
AcDbMText
 10
12106.83343157076
 20
6466.871191720802
 30
0.0
 40
120.0
 41
0.0
 71
     6
 72
     1
  1
\A1;床下換気口
  7
STYLE1
 73
     1
 44
1.0
1001
ACAD
1000
MTEXTBEGIN
1070
    73
1070
     1
1070
    44
1040
1.0
1070
    74
1070
     0
1000
MTEXTEND
  0
TEXT
  5
1AC29
330
747D
100
AcDbEntity
  8
部品1
 48
50.0
100
AcDbText
 10
11427.43013846118
 20
5649.596743762819
 30
0.0
 40
80.0
  1
(a=45,b=55,c=75)
  7
STYLE1
100
AcDbText
  0
TEXT
  5
1AC2A
330
747D
100
AcDbEntity
  8
部品1
 48
50.0
100
AcDbText
 10
11268.85112970688
 20
5756.441964631573
 30
0.0
 40
80.0
  1
※a,b,cは屋根の出幅です。
  7
STYLE1
100
AcDbText
  0
MTEXT
  5
1AC2B
102
{ACAD_REACTORS
330
1AC2C
102
}
330
747D
100
AcDbEntity
  8
部品1
 62
     7
 48
50.0
100
AcDbMText
 10
12066.63832569548
 20
5935.752651564648
 30
0.0
 40
120.0
 41
0.0
 71
     6
 72
     1
  1
\A1;屋根の外寸
  7
STYLE1
 73
     1
 44
1.0
1001
ACAD
1000
MTEXTBEGIN
1070
    73
1070
     1
1070
    44
1040
1.0
1070
    74
1070
     0
1000
MTEXTEND
  0
LEADER
  5
1AC2C
330
747D
100
AcDbEntity
  8
寸法
 48
50.0
100
AcDbLeader
  3
INABA_S50G
 73
     0
 74
     0
 75
     1
 40
120.0
 41
672.0
 76
     3
 10
11128.69831350344
 20
6109.641995028223
 30
0.0
 10
11244.63832569548
 20
5850.752651564647
 30
0.0
 10
11369.63832569548
 20
5850.752651564647
 30
0.0
340
1AC2B
1001
ACAD
1000
DSTYLE
1002
{
1070
   341
1005
0
1070
    40
1040
1.0
1070
   343
1005
0
1070
   344
1005
0
1002
}
  0
TEXT
  5
1C7A1
330
747D
100
AcDbEntity
  8
文字
 62
     7
 48
50.0
100
AcDbText
 10
13188.16259899338
 20
79.80631269190417
 30
0.0
 40
80.0
  1
※布基礎には換気口を設けてください。
  7
STYLE2
100
AcDbText
  0
TEXT
  5
1C7E7
330
747D
100
AcDbEntity
  8
文字
 62
     7
 48
50.0
100
AcDbText
 10
13188.16259899338
 20
246.7109242801889
 30
0.0
 40
80.0
  1
※寒冷地等は地域の実情に合わせた基礎にして下さい。
  7
STYLE2
100
AcDbText
  0
TEXT
  5
1C7E8
330
747D
100
AcDbEntity
  8
文字
 62
     7
 48
50.0
100
AcDbText
 10
14325.79230300687
 20
499.5983841039506
 30
0.0
 40
160.0
  1
ＮＸＮ－１３ＤＬ－６
  7
STYLE2
100
AcDbText
  0
TEXT
  5
1C7EC
330
747D
100
AcDbEntity
  8
文字
 62
     7
 48
50.0
100
AcDbText
 10
14524.131837222
 20
1031.557706291229
 30
0.0
 40
100.0
  1
<縮尺> S=1/40
  7
STYLE2
100
AcDbText
  0
TEXT
  5
1C7ED
330
747D
100
AcDbEntity
  8
文字
 62
     7
 48
50.0
100
AcDbText
 10
13201.43669998441
 20
477.2740661031257
 30
0.0
 40
160.0
  1
機種名
  7
STYLE2
100
AcDbText
  0
LINE
  5
1C7EF
330
747D
100
AcDbEntity
  8
文字
 62
     7
 48
50.0
100
AcDbLine
 10
13187.2
 20
400.0
 30
0.0
 11
16227.2
 21
400.0
 31
0.0
  0
MTEXT
  5
1D2D5
102
{ACAD_REACTORS
330
1D2D6
102
}
330
747D
100
AcDbEntity
  8
部品1
 62
     7
 48
50.0
100
AcDbMText
 10
12273.99523070988
 20
7652.510913076897
 30
0.0
 40
120.0
 41
0.0
 71
     6
 72
     1
  1
アンカーボルト
  7
STYLE1
 73
     1
 44
1.0
1001
ACAD
1000
MTEXTBEGIN
1070
    73
1070
     1
1070
    44
1040
1.0
1070
    74
1070
     0
1000
MTEXTEND
  0
LEADER
  5
1D2D6
330
747D
100
AcDbEntity
  8
寸法
 48
50.0
100
AcDbLeader
  3
INABA_S50G
 73
     0
 74
     0
 75
     1
 40
120.0
 41
994.3492424049171
 76
     3
 10
10955.680085757
 20
7214.1060131931
 30
0.0
 10
11129.64598830497
 20
7567.510913076898
 30
0.0
 10
11254.64598830496
 20
7567.510913076898
 30
0.0
340
1D2D5
1001
ACAD
1000
DSTYLE
1002
{
1070
   341
1005
0
1070
    40
1040
1.0
1070
   343
1005
0
1070
   344
1005
0
1002
}
  0
MTEXT
  5
1D332
102
{ACAD_REACTORS
330
1D333
102
}
330
747D
100
AcDbEntity
  8
部品1
 62
     7
 48
50.0
100
AcDbMText
 10
10638.82869701569
 20
6507.488689767945
 30
0.0
 40
120.0
 41
0.0
 71
     6
 72
     1
  1
CB
  7
STYLE1
 73
     1
 44
1.0
1001
ACAD
1000
MTEXTBEGIN
1070
    73
1070
     1
1070
    44
1040
1.0
1070
    74
1070
     0
1000
MTEXTEND
  0
LEADER
  5
1D333
330
747D
100
AcDbEntity
  8
寸法
 48
50.0
100
AcDbLeader
  3
INABA_S50G
 73
     0
 74
     0
 75
     1
 40
120.0
 41
149.591883092037
 76
     3
 10
10211.95401106101
 20
6645.207003322771
 30
0.0
 10
10339.23681392366
 20
6422.488689767945
 30
0.0
 10
10464.23681392366
 20
6422.488689767945
 30
0.0
340
1D332
1001
ACAD
1000
DSTYLE
1002
{
1070
   341
1005
0
1070
    40
1040
1.0
1070
   343
1005
0
1070
   344
1005
0
1002
}
  0
DIMENSION
  5
20DE1
330
747D
100
AcDbEntity
  8
寸法
 48
50.0
100
AcDbDimension
  2
*D19
 10
11123.6
 20
8295.11849089331
 30
0.0
 11
11394.77462120246
 21
8295.11849089331
 31
0.0
 70
   160
  1
a
 71
     5
 42
45.0
  3
INABA_S40G
100
AcDbAlignedDimension
 13
11078.6
 23
7336.898168834387
 33
0.0
 14
11123.6
 24
8063.164626928299
 34
0.0
100
AcDbRotatedDimension
1001
ACAD
1000
DSTYLE
1002
{
1070
   341
1005
0
1002
}
  0
DIMENSION
  5
20DFB
330
747D
100
AcDbEntity
  8
寸法
 48
50.0
100
AcDbDimension
  2
*D20
 10
5368.6
 20
8295.11849089331
 30
0.0
 11
5052.425378797541
 21
8295.11849089331
 31
0.0
 70
   160
  1
a
 71
     5
 42
44.99999999999272
  3
INABA_S40G
100
AcDbAlignedDimension
 13
5323.600000000007
 23
8063.164626928301
 33
0.0
 14
5368.6
 24
7336.898168834387
 34
0.0
100
AcDbRotatedDimension
1001
ACAD
1000
DSTYLE
1002
{
1070
   341
1005
0
1002
}
  0
LINE
  5
22711
330
747D
100
AcDbEntity
  8
想像線
 48
10.0
100
AcDbLine
 10
11123.6
 20
7411.89816883439
 30
0.0
 11
5323.6
 21
7411.898168834404
 31
0.0
  0
LINE
  5
22712
330
747D
100
AcDbEntity
  8
想像線
 48
10.0
100
AcDbLine
 10
5323.6
 20
5901.898168834398
 30
0.0
 11
5323.6
 21
7411.898168834397
 31
0.0
  0
LINE
  5
22713
330
747D
100
AcDbEntity
  8
想像線
 48
10.0
100
AcDbLine
 10
11123.6
 20
5901.898168834405
 30
0.0
 11
11123.6
 21
7411.89816883439
 31
0.0
  0
LINE
  5
22714
330
747D
100
AcDbEntity
  8
想像線
 48
10.0
100
AcDbLine
 10
11123.6
 20
5901.898168834405
 30
0.0
 11
5323.6
 21
5901.89816883439
 31
0.0
  0
DIMENSION
  5
22741
330
747D
100
AcDbEntity
  8
寸法
 48
50.0
100
AcDbDimension
  2
*D25
 10
4493.721909610674
 20
7336.898168834387
 30
0.0
 11
4393.721909610673
 21
7374.398168834392
 31
0.0
 70
    32
  1
c
 71
     5
 42
75.00000000000636
  3
INABA_S40G
100
AcDbAlignedDimension
 13
4745.665006330069
 23
7411.898168834395
 33
0.0
 14
5368.6
 24
7336.898168834387
 34
0.0
 50
90.0
100
AcDbRotatedDimension
1001
ACAD
1000
DSTYLE
1002
{
1070
   341
1005
0
1002
}
  0
DIMENSION
  5
2275B
330
747D
100
AcDbEntity
  8
寸法
 48
50.0
100
AcDbDimension
  2
*D26
 10
4493.721909610674
 20
5901.898168834414
 30
0.0
 11
4393.721909610674
 21
5929.398168834403
 31
0.0
 70
    32
  1
b
 71
     5
 42
54.99999999997453
  3
INABA_S40G
100
AcDbAlignedDimension
 13
5368.6
 23
5956.898168834389
 33
0.0
 14
4745.665006330074
 24
5901.898168834414
 34
0.0
 50
90.0
100
AcDbRotatedDimension
1001
ACAD
1000
DSTYLE
1002
{
1070
   341
1005
0
1002
}
  0
DIMENSION
  5
23FD9
330
747D
100
AcDbEntity
  8
寸法
 48
50.0
100
AcDbDimension
  2
*D28
 10
10397.81202022566
 20
5956.898168834406
 30
0.0
 11
10397.81202022566
 21
5669.934586157235
 31
0.0
 70
   160
 71
     5
 42
279.9999999999964
  3
INABA_S40G
100
AcDbAlignedDimension
 13
10498.59999999999
 23
6236.898168834403
 33
0.0
 14
10498.6
 24
5956.898168834406
 34
0.0
 50
90.0
100
AcDbRotatedDimension
1001
ACAD
1000
DSTYLE
1002
{
1070
   341
1005
0
1002
}
  0
DIMENSION
  5
23FDA
330
747D
100
AcDbEntity
  8
寸法
 48
50.0
100
AcDbDimension
  2
*D29
 10
10397.81202022566
 20
7136.898168834391
 30
0.0
 11
10397.81202022566
 21
7623.861751511546
 31
0.0
 70
   160
 71
     5
 42
199.9999999999854
  3
INABA_S40G
100
AcDbAlignedDimension
 13
10498.6
 23
7336.898168834375
 33
0.0
 14
10498.60000000001
 24
7136.898168834391
 34
0.0
 50
90.0
100
AcDbRotatedDimension
1001
ACAD
1000
DSTYLE
1002
{
1070
   341
1005
0
1002
}
  0
DIMENSION
  5
24043
330
747D
100
AcDbEntity
  8
寸法
 48
50.0
100
AcDbDimension
  2
*D27
 10
10958.6
 20
6886.496781932499
 30
0.0
 11
11348.65905511811
 21
6886.496781932499
 31
0.0
 70
   160
 71
     5
 42
120.0
  3
INABA_S40G
100
AcDbAlignedDimension
 13
11078.6
 23
6771.898168834425
 33
0.0
 14
10958.6
 24
6771.898168834437
 34
0.0
100
AcDbRotatedDimension
1001
ACAD
1000
DSTYLE
1002
{
1070
   341
1005
0
1002
}
  0
LINE
  5
2605C
330
747D
100
AcDbEntity
  8
部品1
 48
50.0
100
AcDbLine
 10
10958.6
 20
7136.898168834389
 30
0.0
 11
5488.599999999993
 21
7136.898168834389
 31
0.0
  0
TEXT
  5
2605D
330
747D
100
AcDbEntity
  8
寸法
 48
50.0
100
AcDbText
 10
8257.077215946603
 20
5975.579459627127
 30
0.0
 40
120.0
  1
扉面
  7
STYLE1
100
AcDbText
  0
DIMENSION
  5
2605E
330
747D
100
AcDbEntity
  8
寸法
 48
50.0
100
AcDbDimension
  2
*D33
 10
8223.60000000001
 20
7819.506985504637
 30
0.0
 11
8698.600000000009
 21
7919.506985504637
 31
0.0
 70
    32
 71
     5
 42
950.0
  3
INABA_S40G
100
AcDbAlignedDimension
 13
9173.600000000009
 23
6733.898168834388
 33
0.0
 14
8223.60000000001
 24
6733.898168834388
 34
0.0
100
AcDbRotatedDimension
1001
ACAD
1000
DSTYLE
1002
{
1070
   341
1005
0
1002
}
  0
DIMENSION
  5
2605F
330
747D
100
AcDbEntity
  8
寸法
 48
50.0
100
AcDbDimension
  2
*D34
 10
8105.600000000002
 20
8063.164626928299
 30
0.0
 11
9530.600000000003
 21
8163.176437951921
 31
0.0
 70
    32
 71
     5
 42
2850.0
  3
INABA_S40G
100
AcDbAlignedDimension
 13
10955.6
 23
7263.898168834389
 33
0.0
 14
8105.600000000002
 24
7263.898168834389
 34
0.0
100
AcDbRotatedDimension
1001
ACAD
1000
DSTYLE
1002
{
1070
   341
1005
0
1002
}
  0
LINE
  5
26061
330
747D
100
AcDbEntity
  8
部品1
 48
50.0
100
AcDbLine
 10
11078.6
 20
7336.898168834387
 30
0.0
 11
5368.6
 21
7336.898168834387
 31
0.0
  0
DIMENSION
  5
26062
330
747D
100
AcDbEntity
  8
寸法
 48
50.0
100
AcDbDimension
  2
*D35
 10
11078.6
 20
8295.118490893306
 30
0.0
 11
8223.600000000002
 21
8395.118490893308
 31
0.0
 70
    32
 71
     5
 42
5710.000000000002
  3
INABA_S40G
100
AcDbAlignedDimension
 13
5368.6
 23
7336.898168834387
 33
0.0
 14
11078.6
 24
7336.898168834387
 34
0.0
100
AcDbRotatedDimension
1001
ACAD
1000
DSTYLE
1002
{
1070
   341
1005
0
1002
}
  0
LINE
  5
26064
330
747D
100
AcDbEntity
  8
部品1
 48
50.0
100
AcDbLine
 10
11078.6
 20
5956.898168834406
 30
0.0
 11
5368.599999999997
 21
5956.898168834385
 31
0.0
  0
LINE
  5
26065
330
747D
100
AcDbEntity
  8
細線
 48
50.0
100
AcDbLine
 10
5368.599999999986
 20
6659.020696597497
 30
0.0
 11
5481.477472236858
 21
6771.898168834368
 31
0.0
  0
LINE
  5
26066
330
747D
100
AcDbEntity
  8
細線
 48
50.0
100
AcDbLine
 10
5368.599999999984
 20
6703.921977202843
 30
0.0
 11
5436.576191631509
 21
6771.898168834366
 31
0.0
  0
LINE
  5
26067
330
747D
100
AcDbEntity
  8
部品1
 48
50.0
100
AcDbLine
 10
7373.600000000007
 20
6583.898168834387
 30
0.0
 11
7373.600000000007
 21
6783.898168834388
 31
0.0
  0
LINE
  5
26068
330
747D
100
AcDbEntity
  8
部品1
 48
50.0
100
AcDbLine
 10
7173.600000000007
 20
6583.898168834387
 30
0.0
 11
7173.600000000007
 21
6783.898168834388
 31
0.0
  0
DIMENSION
  5
26069
330
747D
100
AcDbEntity
  8
寸法
 48
50.0
100
AcDbDimension
  2
*D36
 10
6323.600000000007
 20
7819.506985504637
 30
0.0
 11
6798.600000000009
 21
7919.506985504637
 31
0.0
 70
    32
 71
     5
 42
950.0000000000017
  3
INABA_S40G
100
AcDbAlignedDimension
 13
7273.600000000008
 23
6733.898168834388
 33
0.0
 14
6323.600000000007
 24
6733.898168834388
 34
0.0
100
AcDbRotatedDimension
1001
ACAD
1000
DSTYLE
1002
{
1070
   341
1005
0
1002
}
  0
LINE
  5
2606A
330
747D
100
AcDbEntity
  8
部品1
 48
50.0
100
AcDbLine
 10
8123.600000000008
 20
6583.898168834387
 30
0.0
 11
8123.600000000008
 21
6783.898168834388
 31
0.0
  0
LINE
  5
2606B
330
747D
100
AcDbEntity
  8
部品1
 48
50.0
100
AcDbLine
 10
8323.600000000009
 20
6583.898168834387
 30
0.0
 11
8323.600000000009
 21
6783.898168834388
 31
0.0
  0
LINE
  5
2606C
330
747D
100
AcDbEntity
  8
部品1
 48
50.0
100
AcDbLine
 10
6223.600000000008
 20
6583.898168834387
 30
0.0
 11
6223.600000000008
 21
6783.898168834388
 31
0.0
  0
LINE
  5
2606D
330
747D
100
AcDbEntity
  8
部品1
 48
50.0
100
AcDbLine
 10
6423.600000000007
 20
6583.898168834387
 30
0.0
 11
6423.600000000007
 21
6783.898168834388
 31
0.0
  0
DIMENSION
  5
2606E
330
747D
100
AcDbEntity
  8
寸法
 48
50.0
100
AcDbDimension
  2
*D37
 10
5851.285990614304
 20
7336.898168834387
 30
0.0
 11
5851.285990614302
 21
6957.6040189378
 31
0.0
 70
   160
 71
     5
 42
652.9999999999991
  3
INABA_S40G
100
AcDbAlignedDimension
 13
6273.600000000008
 23
6683.898168834388
 33
0.0
 14
5942.765475140901
 24
7336.898168834387
 34
0.0
 50
90.0
100
AcDbRotatedDimension
1001
ACAD
1000
DSTYLE
1002
{
1070
   341
1005
0
1002
}
  0
LINE
  5
26071
330
747D
100
AcDbEntity
  8
部品1
 48
50.0
100
AcDbLine
 10
5368.6
 20
5956.898168834388
 30
0.0
 11
5368.6
 21
7336.898168834387
 31
0.0
  0
DIMENSION
  5
26072
330
747D
100
AcDbEntity
  8
寸法
 48
50.0
100
AcDbDimension
  2
*D38
 10
5368.6
 20
7819.506985504637
 30
0.0
 11
5846.100000000004
 21
7919.506985504637
 31
0.0
 70
    32
 71
     5
 42
955.0000000000073
  3
INABA_S40G
100
AcDbAlignedDimension
 13
6323.600000000007
 23
6733.898168834388
 33
0.0
 14
5368.6
 24
7336.898168834387
 34
0.0
100
AcDbRotatedDimension
1001
ACAD
1000
DSTYLE
1002
{
1070
   341
1005
0
1002
}
  0
DIMENSION
  5
26073
330
747D
100
AcDbEntity
  8
寸法
 48
50.0
100
AcDbDimension
  2
*D39
 10
7273.600000000008
 20
7819.506985504637
 30
0.0
 11
7748.600000000009
 21
7919.506985504637
 31
0.0
 70
    32
 71
     5
 42
950.0000000000017
  3
INABA_S40G
100
AcDbAlignedDimension
 13
8223.60000000001
 23
6733.898168834388
 33
0.0
 14
7273.600000000008
 24
6733.898168834388
 34
0.0
100
AcDbRotatedDimension
1001
ACAD
1000
DSTYLE
1002
{
1070
   341
1005
0
1002
}
  0
DIMENSION
  5
26074
330
747D
100
AcDbEntity
  8
寸法
 48
50.0
100
AcDbDimension
  2
*D40
 10
4493.721909610673
 20
5956.898168834388
 30
0.0
 11
4493.721909610672
 21
6684.398168834388
 31
0.0
 70
   160
 71
     5
 42
1380.0
  3
INABA_S40G
100
AcDbAlignedDimension
 13
5368.6
 23
7336.898168834387
 33
0.0
 14
5368.6
 24
5956.898168834388
 34
0.0
 50
90.0
100
AcDbRotatedDimension
1001
ACAD
1000
DSTYLE
1002
{
1070
   341
1005
0
1002
}
  0
DIMENSION
  5
26075
330
747D
100
AcDbEntity
  8
寸法
 48
50.0
100
AcDbDimension
  2
*D41
 10
4745.665006330074
 20
6154.898168834392
 30
0.0
 11
4745.665006330071
 21
6684.398168834388
 31
0.0
 70
   160
 71
     5
 42
1058.999999999996
  3
INABA_S40G
100
AcDbAlignedDimension
 13
5441.600000000001
 23
7213.898168834389
 33
0.0
 14
5441.600000000008
 24
6154.898168834392
 34
0.0
 50
90.0
100
AcDbRotatedDimension
1001
ACAD
1000
DSTYLE
1002
{
1070
   341
1005
0
1002
}
  0
DIMENSION
  5
26076
330
747D
100
AcDbEntity
  8
寸法
 48
50.0
100
AcDbDimension
  2
*D42
 10
5255.512673767881
 20
5236.898168834385
 30
0.0
 11
5255.512673767881
 21
5596.898168834385
 31
0.0
 70
   160
  1
扉の出<>
 71
     5
 42
720.0
  3
INABA_S40G
100
AcDbAlignedDimension
 13
5368.600000000004
 23
5956.898168834385
 33
0.0
 14
5724.325326928809
 24
5236.898168834385
 34
0.0
 50
90.0
100
AcDbRotatedDimension
1001
ACAD
1000
DSTYLE
1002
{
1070
   341
1005
0
1002
}
  0
DIMENSION
  5
26077
330
747D
100
AcDbEntity
  8
寸法
 48
50.0
100
AcDbDimension
  2
*D43
 10
4745.665006330072
 20
5956.898168834388
 30
0.0
 11
4745.665006330071
 21
5621.367219991796
 31
0.0
 70
   160
 71
     5
 42
198.0000000000036
  3
INABA_S40G
100
AcDbAlignedDimension
 13
5441.600000000008
 23
6154.898168834392
 33
0.0
 14
5368.6
 24
5956.898168834388
 34
0.0
 50
90.0
100
AcDbRotatedDimension
1001
ACAD
1000
DSTYLE
1002
{
1070
   341
1005
0
1002
}
  0
LINE
  5
26080
330
747D
100
AcDbEntity
  8
想像線
 48
5.0
100
AcDbLine
 10
6138.600000000003
 20
5956.898168834403
 30
0.0
 11
6138.600000000003
 21
5236.898168834392
 31
0.0
  0
ARC
  5
26081
330
747D
100
AcDbEntity
  8
想像線
 48
5.0
100
AcDbCircle
 10
6138.600000000003
 20
5956.898168834392
 30
0.0
 40
720.0
100
AcDbArc
 50
180.0
 51
270.0
  0
DIMENSION
  5
26082
330
747D
100
AcDbEntity
  8
寸法
 48
50.0
100
AcDbDimension
  2
*D44
 10
5851.285990614302
 20
6683.898168834389
 30
0.0
 11
5851.2859906143
 21
6398.898168834389
 31
0.0
 70
   160
 71
     5
 42
726.99999999999
  3
INABA_S40G
100
AcDbAlignedDimension
 13
5942.765475140901
 23
5956.898168834399
 33
0.0
 14
6273.600000000008
 24
6683.898168834388
 34
0.0
 50
90.0
100
AcDbRotatedDimension
1001
ACAD
1000
DSTYLE
1002
{
1070
   341
1005
0
1002
}
  0
LINE
  5
26083
330
747D
100
AcDbEntity
  8
細線
 48
50.0
100
AcDbLine
 10
5748.599999999995
 20
6135.402768122711
 30
0.0
 11
5850.095400711671
 21
6236.898168834386
 31
0.0
  0
LINE
  5
26084
330
747D
100
AcDbEntity
  8
細線
 48
50.0
100
AcDbLine
 10
5749.700523133071
 20
5956.898168834406
 30
0.0
 11
5948.599999999995
 21
6155.797645701326
 31
0.0
  0
LINE
  5
26085
330
747D
100
AcDbEntity
  8
細線
 48
50.0
100
AcDbLine
 10
5748.599999999997
 20
6000.698926306679
 30
0.0
 11
5948.599999999993
 21
6200.698926306674
 31
0.0
  0
LINE
  5
26086
330
747D
100
AcDbEntity
  8
細線
 48
50.0
100
AcDbLine
 10
5748.599999999997
 20
6045.600206912024
 30
0.0
 11
5939.897961922361
 21
6236.898168834387
 31
0.0
  0
LINE
  5
26087
330
747D
100
AcDbEntity
  8
細線
 48
50.0
100
AcDbLine
 10
5748.599999999997
 20
6090.501487517368
 30
0.0
 11
5894.996681317017
 21
6236.898168834386
 31
0.0
  0
LINE
  5
26088
330
747D
100
AcDbEntity
  8
部品1
 48
50.0
100
AcDbLine
 10
5748.599999999991
 20
6236.898168834386
 30
0.0
 11
5748.599999999999
 21
5956.898168834406
 31
0.0
  0
LINE
  5
26089
330
747D
100
AcDbEntity
  8
部品1
 48
50.0
100
AcDbLine
 10
5948.599999999991
 20
6236.898168834387
 30
0.0
 11
5948.599999999998
 21
5956.89816883441
 31
0.0
  0
CIRCLE
  5
2608A
330
747D
100
AcDbEntity
  8
部品1
 48
50.0
100
AcDbCircle
 10
5491.599999999993
 20
6154.898168834392
 30
0.0
 40
35.0
  0
LINE
  5
2608B
330
747D
100
AcDbEntity
  8
センター
 48
2.0
100
AcDbLine
 10
5491.600000000008
 20
6204.898168834392
 30
0.0
 11
5491.600000000008
 21
6104.898168834392
 31
0.0
  0
LINE
  5
2608C
330
747D
100
AcDbEntity
  8
センター
 48
2.0
100
AcDbLine
 10
5441.600000000008
 20
6154.898168834392
 30
0.0
 11
5541.600000000007
 21
6154.898168834392
 31
0.0
  0
LINE
  5
2608D
330
747D
100
AcDbEntity
  8
細線
 48
50.0
100
AcDbLine
 10
5884.404364949112
 20
5956.898168834408
 30
0.0
 11
5948.6
 21
6021.0938038853
 31
0.0
  0
LINE
  5
2608E
330
747D
100
AcDbEntity
  8
細線
 48
50.0
100
AcDbLine
 10
5839.503084343764
 20
5956.898168834408
 30
0.0
 11
5948.6
 21
6065.995084490645
 31
0.0
  0
LINE
  5
2608F
330
747D
100
AcDbEntity
  8
細線
 48
50.0
100
AcDbLine
 10
5929.305645554457
 20
5956.898168834412
 30
0.0
 11
5948.6
 21
5976.192523279955
 31
0.0
  0
LINE
  5
26090
330
747D
100
AcDbEntity
  8
細線
 48
50.0
100
AcDbLine
 10
5794.601803738419
 20
5956.898168834408
 30
0.0
 11
5948.599999999995
 21
6110.896365095985
 31
0.0
  0
LINE
  5
26091
330
747D
100
AcDbEntity
  8
細線
 48
50.0
100
AcDbLine
 10
5461.082594658237
 20
6571.898168834366
 30
0.0
 11
5488.599999999999
 21
6599.415574176127
 31
0.0
  0
LINE
  5
26092
330
747D
100
AcDbEntity
  8
細線
 48
50.0
100
AcDbLine
 10
5416.181314052894
 20
6571.898168834369
 30
0.0
 11
5488.599999999999
 21
6644.316854781471
 31
0.0
  0
LINE
  5
26093
330
747D
100
AcDbEntity
  8
細線
 48
50.0
100
AcDbLine
 10
5371.280033447547
 20
6571.898168834369
 30
0.0
 11
5488.599999999998
 21
6689.218135386816
 31
0.0
  0
LINE
  5
26094
330
747D
100
AcDbEntity
  8
細線
 48
50.0
100
AcDbLine
 10
5368.599999999986
 20
6614.119415992151
 30
0.0
 11
5488.599999999997
 21
6734.119415992161
 31
0.0
  0
LINE
  5
26095
330
747D
100
AcDbEntity
  8
部品1
 48
50.0
100
AcDbLine
 10
5488.599999999999
 20
6571.898168834369
 30
0.0
 11
5368.599999999986
 21
6571.898168834369
 31
0.0
  0
LINE
  5
26096
330
747D
100
AcDbEntity
  8
細線
 48
50.0
100
AcDbLine
 10
5748.599999999993
 20
6180.304048728056
 30
0.0
 11
5805.194120106327
 21
6236.898168834387
 31
0.0
  0
LINE
  5
26099
330
747D
100
AcDbEntity
  8
部品1
 48
50.0
100
AcDbLine
 10
6423.600000000007
 20
6583.898168834387
 30
0.0
 11
6223.600000000008
 21
6583.898168834387
 31
0.0
  0
LINE
  5
2609A
330
747D
100
AcDbEntity
  8
センター
 48
2.0
100
AcDbLine
 10
6273.600000000008
 20
6683.898168834388
 30
0.0
 11
6373.600000000007
 21
6683.898168834388
 31
0.0
  0
LINE
  5
2609B
330
747D
100
AcDbEntity
  8
センター
 48
2.0
100
AcDbLine
 10
6323.600000000007
 20
6733.898168834388
 30
0.0
 11
6323.600000000007
 21
6633.898168834388
 31
0.0
  0
LINE
  5
260A0
330
747D
100
AcDbEntity
  8
部品1
 48
50.0
100
AcDbLine
 10
7373.600000000007
 20
6583.898168834387
 30
0.0
 11
7173.600000000007
 21
6583.898168834387
 31
0.0
  0
LINE
  5
260A1
330
747D
100
AcDbEntity
  8
センター
 48
2.0
100
AcDbLine
 10
7273.600000000008
 20
6733.898168834388
 30
0.0
 11
7273.600000000008
 21
6633.898168834388
 31
0.0
  0
LINE
  5
260A2
330
747D
100
AcDbEntity
  8
センター
 48
2.0
100
AcDbLine
 10
7223.600000000008
 20
6683.898168834388
 30
0.0
 11
7323.600000000007
 21
6683.898168834388
 31
0.0
  0
CIRCLE
  5
260AA
330
747D
100
AcDbEntity
  8
部品1
 48
50.0
100
AcDbCircle
 10
8105.600000000009
 20
6154.898168834392
 30
0.0
 40
35.0
  0
LINE
  5
260AB
330
747D
100
AcDbEntity
  8
センター
 48
2.0
100
AcDbLine
 10
8105.600000000009
 20
6204.898168834392
 30
0.0
 11
8105.600000000009
 21
6104.898168834392
 31
0.0
  0
LINE
  5
260B0
330
747D
100
AcDbEntity
  8
センター
 48
2.0
100
AcDbLine
 10
8055.60000000001
 20
6154.898168834392
 30
0.0
 11
8155.60000000001
 21
6154.898168834392
 31
0.0
  0
LINE
  5
260B2
330
747D
100
AcDbEntity
  8
センター
 48
2.0
100
AcDbLine
 10
8173.600000000009
 20
6683.898168834388
 30
0.0
 11
8273.600000000008
 21
6683.898168834388
 31
0.0
  0
LINE
  5
260B3
330
747D
100
AcDbEntity
  8
部品1
 48
50.0
100
AcDbLine
 10
8323.600000000009
 20
6583.898168834387
 30
0.0
 11
8123.600000000008
 21
6583.898168834387
 31
0.0
  0
LINE
  5
260B4
330
747D
100
AcDbEntity
  8
センター
 48
2.0
100
AcDbLine
 10
8223.60000000001
 20
6733.898168834388
 30
0.0
 11
8223.60000000001
 21
6633.898168834388
 31
0.0
  0
DIMENSION
  5
260B6
330
747D
100
AcDbEntity
  8
寸法
 48
50.0
100
AcDbDimension
  2
*D45
 10
4745.665006330072
 20
7213.898168834389
 30
0.0
 11
4745.665006330071
 21
7610.004770552189
 31
0.0
 70
   160
 71
     5
 42
123.0
  3
INABA_S40G
100
AcDbAlignedDimension
 13
5368.6
 23
7336.898168834387
 33
0.0
 14
5441.600000000001
 24
7213.898168834389
 34
0.0
 50
90.0
100
AcDbRotatedDimension
1001
ACAD
1000
DSTYLE
1002
{
1070
   341
1005
0
1002
}
  0
DIMENSION
  5
260B8
330
747D
100
AcDbEntity
  8
寸法
 48
50.0
100
AcDbDimension
  2
*D46
 10
5368.6
 20
8063.164626928299
 30
0.0
 11
5095.493398282202
 21
8063.164626928299
 31
0.0
 70
   160
 71
     5
 42
123.0
  3
INABA_S40G
100
AcDbAlignedDimension
 13
5491.6
 23
7263.898168834389
 33
0.0
 14
5368.6
 24
7336.898168834387
 34
0.0
100
AcDbRotatedDimension
1001
ACAD
1000
DSTYLE
1002
{
1070
   341
1005
0
1002
}
  0
LINE
  5
260B9
330
747D
100
AcDbEntity
  8
細線
 48
50.0
100
AcDbLine
 10
6698.6
 20
7228.921977202894
 30
0.0
 11
6806.576191631503
 21
7336.898168834396
 31
0.0
  0
LINE
  5
260BA
330
747D
100
AcDbEntity
  8
細線
 48
50.0
100
AcDbLine
 10
6741.280033447535
 20
7136.898168834391
 30
0.0
 11
6898.599999999999
 21
7294.218135386855
 31
0.0
  0
LINE
  5
260BB
330
747D
100
AcDbEntity
  8
細線
 48
50.0
100
AcDbLine
 10
6698.600000000002
 20
7139.119415992205
 30
0.0
 11
6896.378752842195
 21
7336.898168834396
 31
0.0
  0
LINE
  5
260BC
330
747D
100
AcDbEntity
  8
細線
 48
50.0
100
AcDbLine
 10
6698.6
 20
7184.020696597542
 30
0.0
 11
6851.47747223685
 21
7336.898168834398
 31
0.0
  0
LINE
  5
260BD
330
747D
100
AcDbEntity
  8
細線
 48
50.0
100
AcDbLine
 10
6786.181314052895
 20
7136.898168834391
 30
0.0
 11
6898.600000000001
 21
7249.316854781513
 31
0.0
  0
DIMENSION
  5
260BE
330
747D
100
AcDbEntity
  8
寸法
 48
50.0
100
AcDbDimension
  2
*D47
 10
5491.6
 20
8063.164626928299
 30
0.0
 11
6798.600000000002
 21
8163.176437951921
 31
0.0
 70
    32
 71
     5
 42
2614.000000000002
  3
INABA_S40G
100
AcDbAlignedDimension
 13
8105.600000000002
 23
7263.898168834389
 33
0.0
 14
5491.6
 24
7263.898168834389
 34
0.0
100
AcDbRotatedDimension
1001
ACAD
1000
DSTYLE
1002
{
1070
   341
1005
0
1002
}
  0
LINE
  5
260BF
330
747D
100
AcDbEntity
  8
細線
 48
50.0
100
AcDbLine
 10
5748.6
 20
7273.82325780824
 30
0.0
 11
5811.674911026157
 21
7336.898168834398
 31
0.0
  0
LINE
  5
260C0
330
747D
100
AcDbEntity
  8
細線
 48
50.0
100
AcDbLine
 10
5748.6
 20
7228.921977202894
 30
0.0
 11
5856.576191631503
 21
7336.898168834396
 31
0.0
  0
LINE
  5
260C1
330
747D
100
AcDbEntity
  8
細線
 48
50.0
100
AcDbLine
 10
5748.6
 20
7184.020696597542
 30
0.0
 11
5901.477472236849
 21
7336.898168834398
 31
0.0
  0
LINE
  5
260C2
330
747D
100
AcDbEntity
  8
細線
 48
50.0
100
AcDbLine
 10
5748.600000000003
 20
7139.119415992205
 30
0.0
 11
5946.378752842194
 21
7336.898168834396
 31
0.0
  0
LINE
  5
260C3
330
747D
100
AcDbEntity
  8
部品1
 48
50.0
100
AcDbLine
 10
5748.599999999997
 20
7336.898168834398
 30
0.0
 11
5748.600000000004
 21
7136.898168834391
 31
0.0
  0
LINE
  5
260C4
330
747D
100
AcDbEntity
  8
部品1
 48
50.0
100
AcDbLine
 10
5948.599999999997
 20
7336.898168834398
 30
0.0
 11
5948.600000000004
 21
7136.898168834391
 31
0.0
  0
LINE
  5
260C5
330
747D
100
AcDbEntity
  8
細線
 48
50.0
100
AcDbLine
 10
5368.599999999986
 20
6748.823257808189
 30
0.0
 11
5391.674911026166
 21
6771.898168834368
 31
0.0
  0
LINE
  5
260C6
330
747D
100
AcDbEntity
  8
部品1
 48
50.0
100
AcDbLine
 10
5488.599999999997
 20
6771.898168834368
 30
0.0
 11
5368.599999999986
 21
6771.898168834368
 31
0.0
  0
LINE
  5
260C7
330
747D
100
AcDbEntity
  8
センター
 48
2.0
100
AcDbLine
 10
5441.600000000001
 20
7213.898168834389
 30
0.0
 11
5541.6
 21
7213.898168834389
 31
0.0
  0
LINE
  5
260C8
330
747D
100
AcDbEntity
  8
センター
 48
2.0
100
AcDbLine
 10
5491.6
 20
7263.898168834389
 30
0.0
 11
5491.6
 21
7163.898168834389
 31
0.0
  0
CIRCLE
  5
260C9
330
747D
100
AcDbEntity
  8
部品1
 48
50.0
100
AcDbCircle
 10
5491.6
 20
7213.898168834389
 30
0.0
 40
35.0
  0
LINE
  5
260CA
330
747D
100
AcDbEntity
  8
細線
 48
50.0
100
AcDbLine
 10
5881.082594658235
 20
7136.898168834391
 30
0.0
 11
5948.6
 21
7204.415574176157
 31
0.0
  0
LINE
  5
260CB
330
747D
100
AcDbEntity
  8
細線
 48
50.0
100
AcDbLine
 10
5836.181314052896
 20
7136.898168834391
 30
0.0
 11
5948.600000000002
 21
7249.316854781513
 31
0.0
  0
LINE
  5
260CC
330
747D
100
AcDbEntity
  8
細線
 48
50.0
100
AcDbLine
 10
5925.98387526359
 20
7136.898168834392
 30
0.0
 11
5948.600000000002
 21
7159.514293570807
 31
0.0
  0
LINE
  5
260CD
330
747D
100
AcDbEntity
  8
細線
 48
50.0
100
AcDbLine
 10
5791.280033447534
 20
7136.898168834391
 30
0.0
 11
5948.599999999998
 21
7294.218135386855
 31
0.0
  0
LINE
  5
260CE
330
747D
100
AcDbEntity
  8
細線
 48
50.0
100
AcDbLine
 10
5748.599999999997
 20
7318.724538413583
 30
0.0
 11
5766.773630420812
 21
7336.898168834398
 31
0.0
  0
LINE
  5
260CF
330
747D
100
AcDbEntity
  8
細線
 48
50.0
100
AcDbLine
 10
6698.6
 20
7273.82325780824
 30
0.0
 11
6761.674911026156
 21
7336.898168834398
 31
0.0
  0
LINE
  5
260D0
330
747D
100
AcDbEntity
  8
部品1
 48
50.0
100
AcDbLine
 10
6698.599999999996
 20
7336.898168834398
 30
0.0
 11
6698.600000000005
 21
7136.898168834391
 31
0.0
  0
LINE
  5
260D1
330
747D
100
AcDbEntity
  8
部品1
 48
50.0
100
AcDbLine
 10
6423.600000000007
 20
6783.898168834388
 30
0.0
 11
6223.600000000008
 21
6783.898168834388
 31
0.0
  0
LINE
  5
260D2
330
747D
100
AcDbEntity
  8
細線
 48
50.0
100
AcDbLine
 10
6698.599999999996
 20
7318.724538413583
 30
0.0
 11
6716.773630420812
 21
7336.898168834398
 31
0.0
  0
LINE
  5
260D4
330
747D
100
AcDbEntity
  8
部品1
 48
50.0
100
AcDbLine
 10
6898.599999999998
 20
7336.898168834398
 30
0.0
 11
6898.600000000005
 21
7136.898168834391
 31
0.0
  0
LINE
  5
260D5
330
747D
100
AcDbEntity
  8
部品1
 48
50.0
100
AcDbLine
 10
7373.600000000007
 20
6783.898168834388
 30
0.0
 11
7173.600000000007
 21
6783.898168834388
 31
0.0
  0
LINE
  5
260D6
330
747D
100
AcDbEntity
  8
細線
 48
50.0
100
AcDbLine
 10
6875.98387526359
 20
7136.898168834392
 30
0.0
 11
6898.600000000001
 21
7159.514293570807
 31
0.0
  0
LINE
  5
260D7
330
747D
100
AcDbEntity
  8
細線
 48
50.0
100
AcDbLine
 10
6831.082594658235
 20
7136.898168834391
 30
0.0
 11
6898.6
 21
7204.415574176157
 31
0.0
  0
LINE
  5
260D8
330
747D
100
AcDbEntity
  8
細線
 48
50.0
100
AcDbLine
 10
7648.599999999999
 20
7273.82325780824
 30
0.0
 11
7711.674911026159
 21
7336.898168834398
 31
0.0
  0
LINE
  5
260D9
330
747D
100
AcDbEntity
  8
細線
 48
50.0
100
AcDbLine
 10
7648.599999999999
 20
7184.020696597542
 30
0.0
 11
7801.47747223685
 21
7336.898168834398
 31
0.0
  0
LINE
  5
260DA
330
747D
100
AcDbEntity
  8
細線
 48
50.0
100
AcDbLine
 10
7648.600000000001
 20
7139.119415992205
 30
0.0
 11
7846.378752842196
 21
7336.898168834396
 31
0.0
  0
LINE
  5
260DB
330
747D
100
AcDbEntity
  8
細線
 48
50.0
100
AcDbLine
 10
7648.599999999999
 20
7228.921977202894
 30
0.0
 11
7756.576191631502
 21
7336.898168834396
 31
0.0
  0
LINE
  5
260DC
330
747D
100
AcDbEntity
  8
部品1
 48
50.0
100
AcDbLine
 10
7648.599999999999
 20
7336.898168834398
 30
0.0
 11
7648.600000000006
 21
7136.898168834391
 31
0.0
  0
LINE
  5
260DD
330
747D
100
AcDbEntity
  8
部品1
 48
50.0
100
AcDbLine
 10
7848.599999999999
 20
7336.898168834398
 30
0.0
 11
7848.600000000006
 21
7136.898168834391
 31
0.0
  0
LINE
  5
260DE
330
747D
100
AcDbEntity
  8
細線
 48
50.0
100
AcDbLine
 10
7736.181314052898
 20
7136.898168834391
 30
0.0
 11
7848.600000000002
 21
7249.316854781513
 31
0.0
  0
LINE
  5
260DF
330
747D
100
AcDbEntity
  8
細線
 48
50.0
100
AcDbLine
 10
7781.082594658234
 20
7136.898168834391
 30
0.0
 11
7848.599999999999
 21
7204.415574176157
 31
0.0
  0
LINE
  5
260E0
330
747D
100
AcDbEntity
  8
細線
 48
50.0
100
AcDbLine
 10
7825.983875263592
 20
7136.898168834392
 30
0.0
 11
7848.600000000002
 21
7159.514293570807
 31
0.0
  0
LINE
  5
260E1
330
747D
100
AcDbEntity
  8
細線
 48
50.0
100
AcDbLine
 10
7691.280033447532
 20
7136.898168834391
 30
0.0
 11
7848.599999999999
 21
7294.218135386855
 31
0.0
  0
LINE
  5
260E2
330
747D
100
AcDbEntity
  8
部品1
 48
50.0
100
AcDbLine
 10
8323.600000000009
 20
6783.898168834388
 30
0.0
 11
8123.600000000008
 21
6783.898168834388
 31
0.0
  0
LINE
  5
260E3
330
747D
100
AcDbEntity
  8
センター
 48
2.0
100
AcDbLine
 10
8055.600000000003
 20
7213.898168834389
 30
0.0
 11
8155.600000000003
 21
7213.898168834389
 31
0.0
  0
LINE
  5
260E4
330
747D
100
AcDbEntity
  8
センター
 48
2.0
100
AcDbLine
 10
8105.600000000002
 20
7263.898168834389
 30
0.0
 11
8105.600000000002
 21
7163.898168834389
 31
0.0
  0
CIRCLE
  5
260E5
330
747D
100
AcDbEntity
  8
部品1
 48
50.0
100
AcDbCircle
 10
8105.600000000002
 20
7213.898168834389
 30
0.0
 40
35.0
  0
LINE
  5
260E6
330
747D
100
AcDbEntity
  8
細線
 48
50.0
100
AcDbLine
 10
7648.599999999999
 20
7318.724538413583
 30
0.0
 11
7666.773630420812
 21
7336.898168834398
 31
0.0
  0
LINE
  5
260E7
330
747D
100
AcDbEntity
  8
細線
 48
50.0
100
AcDbLine
 10
10958.6
 20
6639.020696597589
 30
0.0
 11
11078.59999999998
 21
6759.020696597568
 31
0.0
  0
LINE
  5
260E8
330
747D
100
AcDbEntity
  8
細線
 48
50.0
100
AcDbLine
 10
10958.6
 20
6683.921977202931
 30
0.0
 11
11046.5761916315
 21
6771.898168834436
 31
0.0
  0
LINE
  5
260E9
330
747D
100
AcDbEntity
  8
部品1
 48
50.0
100
AcDbLine
 10
11078.6
 20
5956.898168834406
 30
0.0
 11
11078.6
 21
7336.898168834387
 31
0.0
  0
LINE
  5
260EC
330
747D
100
AcDbEntity
  8
部品1
 48
50.0
100
AcDbLine
 10
10023.60000000001
 20
6583.898168834387
 30
0.0
 11
10023.60000000001
 21
6783.898168834388
 31
0.0
  0
LINE
  5
260ED
330
747D
100
AcDbEntity
  8
部品1
 48
50.0
100
AcDbLine
 10
10223.60000000001
 20
6583.898168834387
 30
0.0
 11
10223.60000000001
 21
6783.898168834388
 31
0.0
  0
LINE
  5
260EE
330
747D
100
AcDbEntity
  8
部品1
 48
50.0
100
AcDbLine
 10
9273.600000000008
 20
6583.898168834387
 30
0.0
 11
9273.600000000008
 21
6783.898168834388
 31
0.0
  0
DIMENSION
  5
260EF
330
747D
100
AcDbEntity
  8
寸法
 48
50.0
100
AcDbDimension
  2
*D30
 10
10123.60000000001
 20
7819.506985504637
 30
0.0
 11
10601.1
 21
7919.506985504637
 31
0.0
 70
    32
 71
     5
 42
954.9999999999927
  3
INABA_S40G
100
AcDbAlignedDimension
 13
11078.6
 23
7336.898168834387
 33
0.0
 14
10123.60000000001
 24
6733.898168834388
 34
0.0
100
AcDbRotatedDimension
1001
ACAD
1000
DSTYLE
1002
{
1070
   341
1005
0
1002
}
  0
LINE
  5
260F0
330
747D
100
AcDbEntity
  8
部品1
 48
50.0
100
AcDbLine
 10
9073.600000000009
 20
6583.898168834387
 30
0.0
 11
9073.600000000009
 21
6783.898168834388
 31
0.0
  0
DIMENSION
  5
260F3
330
747D
100
AcDbEntity
  8
寸法
 48
50.0
100
AcDbDimension
  2
*D31
 10
9173.600000000009
 20
7819.506985504637
 30
0.0
 11
9648.60000000001
 21
7919.506985504637
 31
0.0
 70
    32
 71
     5
 42
950.0
  3
INABA_S40G
100
AcDbAlignedDimension
 13
10123.60000000001
 23
6733.898168834388
 33
0.0
 14
9173.600000000009
 24
6733.898168834388
 34
0.0
100
AcDbRotatedDimension
1001
ACAD
1000
DSTYLE
1002
{
1070
   341
1005
0
1002
}
  0
LINE
  5
260FA
330
747D
100
AcDbEntity
  8
センター
 48
2.0
100
AcDbLine
 10
10073.60000000001
 20
6683.898168834388
 30
0.0
 11
10173.60000000001
 21
6683.898168834388
 31
0.0
  0
LINE
  5
260FB
330
747D
100
AcDbEntity
  8
部品1
 48
50.0
100
AcDbLine
 10
10223.60000000001
 20
6583.898168834387
 30
0.0
 11
10023.60000000001
 21
6583.898168834387
 31
0.0
  0
LINE
  5
260FC
330
747D
100
AcDbEntity
  8
部品1
 48
50.0
100
AcDbLine
 10
9273.600000000008
 20
6583.898168834387
 30
0.0
 11
9073.600000000009
 21
6583.898168834387
 31
0.0
  0
LINE
  5
26109
330
747D
100
AcDbEntity
  8
センター
 48
2.0
100
AcDbLine
 10
9173.600000000009
 20
6733.898168834388
 30
0.0
 11
9173.600000000009
 21
6633.898168834388
 31
0.0
  0
LINE
  5
2610A
330
747D
100
AcDbEntity
  8
センター
 48
2.0
100
AcDbLine
 10
9123.600000000008
 20
6683.898168834388
 30
0.0
 11
9223.60000000001
 21
6683.898168834388
 31
0.0
  0
LINE
  5
26122
330
747D
100
AcDbEntity
  8
センター
 48
2.0
100
AcDbLine
 10
10123.60000000001
 20
6733.898168834388
 30
0.0
 11
10123.60000000001
 21
6633.898168834388
 31
0.0
  0
CIRCLE
  5
26124
330
747D
100
AcDbEntity
  8
部品1
 48
50.0
100
AcDbCircle
 10
10955.60000000001
 20
6154.898168834392
 30
0.0
 40
35.0
  0
LINE
  5
26125
330
747D
100
AcDbEntity
  8
センター
 48
2.0
100
AcDbLine
 10
10955.60000000001
 20
6204.898168834392
 30
0.0
 11
10955.60000000001
 21
6104.898168834392
 31
0.0
  0
LINE
  5
26126
330
747D
100
AcDbEntity
  8
センター
 48
2.0
100
AcDbLine
 10
10905.60000000001
 20
6154.898168834392
 30
0.0
 11
11005.60000000001
 21
6154.898168834392
 31
0.0
  0
LINE
  5
26127
330
747D
100
AcDbEntity
  8
細線
 48
50.0
100
AcDbLine
 10
11071.08259465823
 20
6571.898168834434
 30
0.0
 11
11078.59999999998
 21
6579.415574176184
 31
0.0
  0
LINE
  5
26128
330
747D
100
AcDbEntity
  8
細線
 48
50.0
100
AcDbLine
 10
11026.18131405289
 20
6571.898168834437
 30
0.0
 11
11078.59999999998
 21
6624.31685478153
 31
0.0
  0
LINE
  5
26129
330
747D
100
AcDbEntity
  8
細線
 48
50.0
100
AcDbLine
 10
10981.28003344754
 20
6571.898168834436
 30
0.0
 11
11078.59999999998
 21
6669.218135386876
 31
0.0
  0
LINE
  5
2612A
330
747D
100
AcDbEntity
  8
細線
 48
50.0
100
AcDbLine
 10
10958.6
 20
6594.119415992235
 30
0.0
 11
11078.59999999998
 21
6714.119415992221
 31
0.0
  0
LINE
  5
2612B
330
747D
100
AcDbEntity
  8
部品1
 48
50.0
100
AcDbLine
 10
11078.59999999998
 20
6571.898168834437
 30
0.0
 11
10958.6
 21
6571.898168834437
 31
0.0
  0
LINE
  5
2612C
330
747D
100
AcDbEntity
  8
部品1
 48
50.0
100
AcDbLine
 10
10223.60000000001
 20
6783.898168834388
 30
0.0
 11
10023.60000000001
 21
6783.898168834388
 31
0.0
  0
LINE
  5
2612D
330
747D
100
AcDbEntity
  8
部品1
 48
50.0
100
AcDbLine
 10
9273.600000000008
 20
6783.898168834388
 30
0.0
 11
9073.600000000009
 21
6783.898168834388
 31
0.0
  0
LINE
  5
2612E
330
747D
100
AcDbEntity
  8
細線
 48
50.0
100
AcDbLine
 10
8598.599999999999
 20
7273.82325780824
 30
0.0
 11
8661.674911026159
 21
7336.898168834398
 31
0.0
  0
LINE
  5
2612F
330
747D
100
AcDbEntity
  8
部品1
 48
50.0
100
AcDbLine
 10
8798.599999999998
 20
7336.898168834398
 30
0.0
 11
8798.600000000005
 21
7136.898168834391
 31
0.0
  0
LINE
  5
26130
330
747D
100
AcDbEntity
  8
部品1
 48
50.0
100
AcDbLine
 10
8598.599999999999
 20
7336.898168834398
 30
0.0
 11
8598.600000000006
 21
7136.898168834391
 31
0.0
  0
LINE
  5
26131
330
747D
100
AcDbEntity
  8
細線
 48
50.0
100
AcDbLine
 10
8598.599999999999
 20
7228.921977202894
 30
0.0
 11
8706.576191631503
 21
7336.898168834396
 31
0.0
  0
LINE
  5
26132
330
747D
100
AcDbEntity
  8
細線
 48
50.0
100
AcDbLine
 10
8598.600000000002
 20
7139.119415992205
 30
0.0
 11
8796.378752842196
 21
7336.898168834396
 31
0.0
  0
LINE
  5
26133
330
747D
100
AcDbEntity
  8
細線
 48
50.0
100
AcDbLine
 10
8598.599999999999
 20
7184.020696597542
 30
0.0
 11
8751.47747223685
 21
7336.898168834398
 31
0.0
  0
LINE
  5
26134
330
747D
100
AcDbEntity
  8
細線
 48
50.0
100
AcDbLine
 10
8641.280033447532
 20
7136.898168834391
 30
0.0
 11
8798.599999999998
 21
7294.218135386855
 31
0.0
  0
LINE
  5
26135
330
747D
100
AcDbEntity
  8
細線
 48
50.0
100
AcDbLine
 10
8731.082594658234
 20
7136.898168834391
 30
0.0
 11
8798.599999999998
 21
7204.415574176157
 31
0.0
  0
LINE
  5
26136
330
747D
100
AcDbEntity
  8
細線
 48
50.0
100
AcDbLine
 10
8686.181314052898
 20
7136.898168834391
 30
0.0
 11
8798.600000000002
 21
7249.316854781513
 31
0.0
  0
LINE
  5
26137
330
747D
100
AcDbEntity
  8
細線
 48
50.0
100
AcDbLine
 10
8775.983875263591
 20
7136.898168834392
 30
0.0
 11
8798.600000000002
 21
7159.514293570807
 31
0.0
  0
LINE
  5
26138
330
747D
100
AcDbEntity
  8
細線
 48
50.0
100
AcDbLine
 10
8598.599999999999
 20
7318.724538413583
 30
0.0
 11
8616.773630420812
 21
7336.898168834398
 31
0.0
  0
LINE
  5
26139
330
747D
100
AcDbEntity
  8
細線
 48
50.0
100
AcDbLine
 10
9548.599999999998
 20
7273.82325780824
 30
0.0
 11
9611.67491102616
 21
7336.898168834398
 31
0.0
  0
LINE
  5
2613A
330
747D
100
AcDbEntity
  8
細線
 48
50.0
100
AcDbLine
 10
9548.599999999998
 20
7184.020696597542
 30
0.0
 11
9701.477472236851
 21
7336.898168834398
 31
0.0
  0
LINE
  5
2613B
330
747D
100
AcDbEntity
  8
細線
 48
50.0
100
AcDbLine
 10
9548.600000000002
 20
7139.119415992205
 30
0.0
 11
9746.378752842197
 21
7336.898168834396
 31
0.0
  0
LINE
  5
2613C
330
747D
100
AcDbEntity
  8
細線
 48
50.0
100
AcDbLine
 10
9548.599999999998
 20
7228.921977202894
 30
0.0
 11
9656.576191631502
 21
7336.898168834396
 31
0.0
  0
LINE
  5
2613D
330
747D
100
AcDbEntity
  8
部品1
 48
50.0
100
AcDbLine
 10
9548.599999999998
 20
7336.898168834398
 30
0.0
 11
9548.600000000005
 21
7136.898168834391
 31
0.0
  0
LINE
  5
2613E
330
747D
100
AcDbEntity
  8
部品1
 48
50.0
100
AcDbLine
 10
9748.599999999999
 20
7336.898168834398
 30
0.0
 11
9748.600000000006
 21
7136.898168834391
 31
0.0
  0
LINE
  5
2613F
330
747D
100
AcDbEntity
  8
細線
 48
50.0
100
AcDbLine
 10
9636.181314052898
 20
7136.898168834391
 30
0.0
 11
9748.600000000003
 21
7249.316854781513
 31
0.0
  0
LINE
  5
26140
330
747D
100
AcDbEntity
  8
細線
 48
50.0
100
AcDbLine
 10
9591.280033447532
 20
7136.898168834391
 30
0.0
 11
9748.599999999999
 21
7294.218135386855
 31
0.0
  0
LINE
  5
26141
330
747D
100
AcDbEntity
  8
細線
 48
50.0
100
AcDbLine
 10
9725.983875263592
 20
7136.898168834392
 30
0.0
 11
9748.600000000003
 21
7159.514293570807
 31
0.0
  0
LINE
  5
26142
330
747D
100
AcDbEntity
  8
細線
 48
50.0
100
AcDbLine
 10
9681.082594658235
 20
7136.898168834391
 30
0.0
 11
9748.599999999999
 21
7204.415574176157
 31
0.0
  0
LINE
  5
26143
330
747D
100
AcDbEntity
  8
細線
 48
50.0
100
AcDbLine
 10
9548.599999999998
 20
7318.724538413583
 30
0.0
 11
9566.773630420811
 21
7336.898168834398
 31
0.0
  0
DIMENSION
  5
26144
330
747D
100
AcDbEntity
  8
寸法
 48
50.0
100
AcDbDimension
  2
*D32
 10
10955.6
 20
8063.164626928299
 30
0.0
 11
11351.7066017178
 21
8063.164626928299
 31
0.0
 70
   160
 71
     5
 42
123.0
  3
INABA_S40G
100
AcDbAlignedDimension
 13
11078.6
 23
7336.898168834387
 33
0.0
 14
10955.6
 24
7263.898168834389
 34
0.0
100
AcDbRotatedDimension
1001
ACAD
1000
DSTYLE
1002
{
1070
   341
1005
0
1002
}
  0
LINE
  5
26146
330
747D
100
AcDbEntity
  8
細線
 48
50.0
100
AcDbLine
 10
10498.6
 20
7273.82325780824
 30
0.0
 11
10561.67491102616
 21
7336.898168834398
 31
0.0
  0
LINE
  5
26147
330
747D
100
AcDbEntity
  8
部品1
 48
50.0
100
AcDbLine
 10
10698.6
 20
7336.898168834398
 30
0.0
 11
10698.6
 21
7136.898168834391
 31
0.0
  0
LINE
  5
26148
330
747D
100
AcDbEntity
  8
部品1
 48
50.0
100
AcDbLine
 10
10498.6
 20
7336.898168834398
 30
0.0
 11
10498.6
 21
7136.898168834391
 31
0.0
  0
LINE
  5
26149
330
747D
100
AcDbEntity
  8
細線
 48
50.0
100
AcDbLine
 10
10498.6
 20
7228.921977202894
 30
0.0
 11
10606.5761916315
 21
7336.898168834396
 31
0.0
  0
LINE
  5
2614A
330
747D
100
AcDbEntity
  8
細線
 48
50.0
100
AcDbLine
 10
10498.6
 20
7139.119415992205
 30
0.0
 11
10696.37875284219
 21
7336.898168834396
 31
0.0
  0
LINE
  5
2614B
330
747D
100
AcDbEntity
  8
細線
 48
50.0
100
AcDbLine
 10
10498.6
 20
7184.020696597542
 30
0.0
 11
10651.47747223685
 21
7336.898168834398
 31
0.0
  0
LINE
  5
2614C
330
747D
100
AcDbEntity
  8
細線
 48
50.0
100
AcDbLine
 10
10586.1813140529
 20
7136.898168834391
 30
0.0
 11
10698.6
 21
7249.316854781513
 31
0.0
  0
LINE
  5
2614D
330
747D
100
AcDbEntity
  8
細線
 48
50.0
100
AcDbLine
 10
10631.08259465823
 20
7136.898168834391
 30
0.0
 11
10698.6
 21
7204.415574176157
 31
0.0
  0
LINE
  5
2614E
330
747D
100
AcDbEntity
  8
細線
 48
50.0
100
AcDbLine
 10
10675.98387526359
 20
7136.898168834392
 30
0.0
 11
10698.6
 21
7159.514293570807
 31
0.0
  0
LINE
  5
2614F
330
747D
100
AcDbEntity
  8
細線
 48
50.0
100
AcDbLine
 10
10541.28003344753
 20
7136.898168834391
 30
0.0
 11
10698.6
 21
7294.218135386855
 31
0.0
  0
LINE
  5
26150
330
747D
100
AcDbEntity
  8
細線
 48
50.0
100
AcDbLine
 10
10498.6
 20
7318.724538413583
 30
0.0
 11
10516.77363042081
 21
7336.898168834398
 31
0.0
  0
LINE
  5
26152
330
747D
100
AcDbEntity
  8
細線
 48
50.0
100
AcDbLine
 10
10958.6
 20
6728.823257808274
 30
0.0
 11
11001.67491102616
 21
6771.898168834437
 31
0.0
  0
LINE
  5
26153
330
747D
100
AcDbEntity
  8
部品1
 48
50.0
100
AcDbLine
 10
11078.59999999998
 20
6771.898168834437
 30
0.0
 11
10958.6
 21
6771.898168834437
 31
0.0
  0
LINE
  5
26154
330
747D
100
AcDbEntity
  8
センター
 48
2.0
100
AcDbLine
 10
10905.6
 20
7213.898168834389
 30
0.0
 11
11005.6
 21
7213.898168834389
 31
0.0
  0
CIRCLE
  5
26155
330
747D
100
AcDbEntity
  8
部品1
 48
50.0
100
AcDbCircle
 10
10955.6
 20
7213.898168834389
 30
0.0
 40
35.0
  0
LINE
  5
26156
330
747D
100
AcDbEntity
  8
センター
 48
2.0
100
AcDbLine
 10
10955.6
 20
7263.898168834389
 30
0.0
 11
10955.6
 21
7163.898168834389
 31
0.0
  0
TEXT
  5
2674A
330
747D
100
AcDbEntity
  8
文字
 62
     7
 48
50.0
100
AcDbText
 10
14267.69561199343
 20
838.2527270729188
 30
0.0
 40
100.0
  1
～一般型・多雪地型・豪雪地型～
  7
STYLE2
100
AcDbText
  0
LINE
  5
2676A
330
747D
100
AcDbEntity
  8
部品1
 48
50.0
100
AcDbLine
 10
10958.6
 20
6236.898168834404
 30
0.0
 11
5488.600000000003
 21
6236.898168834386
 31
0.0
  0
LINE
  5
2676B
330
747D
100
AcDbEntity
  8
細線
 48
50.0
100
AcDbLine
 10
6698.599999999993
 20
6180.304048728056
 30
0.0
 11
6755.194120106327
 21
6236.898168834387
 31
0.0
  0
LINE
  5
2676C
330
747D
100
AcDbEntity
  8
細線
 48
50.0
100
AcDbLine
 10
6744.601803738418
 20
5956.898168834408
 30
0.0
 11
6898.599999999994
 21
6110.896365095985
 31
0.0
  0
LINE
  5
2676D
330
747D
100
AcDbEntity
  8
細線
 48
50.0
100
AcDbLine
 10
6879.305645554457
 20
5956.898168834412
 30
0.0
 11
6898.6
 21
5976.192523279955
 31
0.0
  0
LINE
  5
2676E
330
747D
100
AcDbEntity
  8
細線
 48
50.0
100
AcDbLine
 10
6789.503084343763
 20
5956.898168834408
 30
0.0
 11
6898.6
 21
6065.995084490645
 31
0.0
  0
LINE
  5
2676F
330
747D
100
AcDbEntity
  8
細線
 48
50.0
100
AcDbLine
 10
6834.404364949112
 20
5956.898168834408
 30
0.0
 11
6898.6
 21
6021.0938038853
 31
0.0
  0
LINE
  5
26770
330
747D
100
AcDbEntity
  8
部品1
 48
50.0
100
AcDbLine
 10
6898.599999999992
 20
6236.898168834387
 30
0.0
 11
6898.599999999999
 21
5956.89816883441
 31
0.0
  0
LINE
  5
26771
330
747D
100
AcDbEntity
  8
部品1
 48
50.0
100
AcDbLine
 10
6698.599999999991
 20
6236.898168834386
 30
0.0
 11
6698.599999999998
 21
5956.898168834406
 31
0.0
  0
LINE
  5
26772
330
747D
100
AcDbEntity
  8
細線
 48
50.0
100
AcDbLine
 10
6698.599999999996
 20
6090.501487517368
 30
0.0
 11
6844.996681317017
 21
6236.898168834386
 31
0.0
  0
LINE
  5
26773
330
747D
100
AcDbEntity
  8
細線
 48
50.0
100
AcDbLine
 10
6698.599999999996
 20
6045.600206912024
 30
0.0
 11
6889.897961922361
 21
6236.898168834387
 31
0.0
  0
LINE
  5
26774
330
747D
100
AcDbEntity
  8
細線
 48
50.0
100
AcDbLine
 10
6698.599999999996
 20
6000.698926306679
 30
0.0
 11
6898.599999999993
 21
6200.698926306674
 31
0.0
  0
LINE
  5
26775
330
747D
100
AcDbEntity
  8
細線
 48
50.0
100
AcDbLine
 10
6699.700523133071
 20
5956.898168834406
 30
0.0
 11
6898.599999999994
 21
6155.797645701326
 31
0.0
  0
LINE
  5
26776
330
747D
100
AcDbEntity
  8
細線
 48
50.0
100
AcDbLine
 10
6698.599999999995
 20
6135.402768122711
 30
0.0
 11
6800.09540071167
 21
6236.898168834386
 31
0.0
  0
LINE
  5
26777
330
747D
100
AcDbEntity
  8
細線
 48
50.0
100
AcDbLine
 10
7648.599999999993
 20
6180.304048728056
 30
0.0
 11
7705.194120106327
 21
6236.898168834387
 31
0.0
  0
LINE
  5
26778
330
747D
100
AcDbEntity
  8
細線
 48
50.0
100
AcDbLine
 10
7694.601803738418
 20
5956.898168834408
 30
0.0
 11
7848.599999999994
 21
6110.896365095985
 31
0.0
  0
LINE
  5
26779
330
747D
100
AcDbEntity
  8
細線
 48
50.0
100
AcDbLine
 10
7829.305645554457
 20
5956.898168834412
 30
0.0
 11
7848.600000000001
 21
5976.192523279955
 31
0.0
  0
LINE
  5
2677A
330
747D
100
AcDbEntity
  8
細線
 48
50.0
100
AcDbLine
 10
7739.503084343763
 20
5956.898168834408
 30
0.0
 11
7848.600000000001
 21
6065.995084490645
 31
0.0
  0
LINE
  5
2677B
330
747D
100
AcDbEntity
  8
細線
 48
50.0
100
AcDbLine
 10
7784.404364949113
 20
5956.898168834408
 30
0.0
 11
7848.600000000001
 21
6021.0938038853
 31
0.0
  0
LINE
  5
2677C
330
747D
100
AcDbEntity
  8
部品1
 48
50.0
100
AcDbLine
 10
7848.599999999992
 20
6236.898168834387
 30
0.0
 11
7848.599999999999
 21
5956.89816883441
 31
0.0
  0
LINE
  5
2677D
330
747D
100
AcDbEntity
  8
部品1
 48
50.0
100
AcDbLine
 10
7648.599999999992
 20
6236.898168834386
 30
0.0
 11
7648.599999999999
 21
5956.898168834406
 31
0.0
  0
LINE
  5
2677E
330
747D
100
AcDbEntity
  8
細線
 48
50.0
100
AcDbLine
 10
7648.599999999998
 20
6090.501487517368
 30
0.0
 11
7794.996681317016
 21
6236.898168834386
 31
0.0
  0
LINE
  5
2677F
330
747D
100
AcDbEntity
  8
細線
 48
50.0
100
AcDbLine
 10
7648.599999999998
 20
6045.600206912024
 30
0.0
 11
7839.89796192236
 21
6236.898168834387
 31
0.0
  0
LINE
  5
26780
330
747D
100
AcDbEntity
  8
細線
 48
50.0
100
AcDbLine
 10
7648.599999999998
 20
6000.698926306679
 30
0.0
 11
7848.599999999994
 21
6200.698926306674
 31
0.0
  0
LINE
  5
26781
330
747D
100
AcDbEntity
  8
細線
 48
50.0
100
AcDbLine
 10
7649.700523133072
 20
5956.898168834406
 30
0.0
 11
7848.599999999994
 21
6155.797645701326
 31
0.0
  0
LINE
  5
26782
330
747D
100
AcDbEntity
  8
細線
 48
50.0
100
AcDbLine
 10
7648.599999999994
 20
6135.402768122711
 30
0.0
 11
7750.09540071167
 21
6236.898168834386
 31
0.0
  0
LINE
  5
26783
330
747D
100
AcDbEntity
  8
細線
 48
50.0
100
AcDbLine
 10
8598.599999999994
 20
6180.304048728056
 30
0.0
 11
8655.194120106328
 21
6236.898168834387
 31
0.0
  0
LINE
  5
26784
330
747D
100
AcDbEntity
  8
細線
 48
50.0
100
AcDbLine
 10
8644.601803738417
 20
5956.898168834408
 30
0.0
 11
8798.599999999995
 21
6110.896365095985
 31
0.0
  0
LINE
  5
26785
330
747D
100
AcDbEntity
  8
細線
 48
50.0
100
AcDbLine
 10
8779.305645554456
 20
5956.898168834412
 30
0.0
 11
8798.6
 21
5976.192523279955
 31
0.0
  0
LINE
  5
26786
330
747D
100
AcDbEntity
  8
細線
 48
50.0
100
AcDbLine
 10
8689.503084343764
 20
5956.898168834408
 30
0.0
 11
8798.6
 21
6065.995084490645
 31
0.0
  0
LINE
  5
26787
330
747D
100
AcDbEntity
  8
細線
 48
50.0
100
AcDbLine
 10
8734.404364949112
 20
5956.898168834408
 30
0.0
 11
8798.6
 21
6021.0938038853
 31
0.0
  0
LINE
  5
26788
330
747D
100
AcDbEntity
  8
部品1
 48
50.0
100
AcDbLine
 10
8798.599999999991
 20
6236.898168834387
 30
0.0
 11
8798.599999999998
 21
5956.89816883441
 31
0.0
  0
LINE
  5
26789
330
747D
100
AcDbEntity
  8
部品1
 48
50.0
100
AcDbLine
 10
8598.599999999992
 20
6236.898168834386
 30
0.0
 11
8598.599999999999
 21
5956.898168834406
 31
0.0
  0
LINE
  5
2678A
330
747D
100
AcDbEntity
  8
細線
 48
50.0
100
AcDbLine
 10
8598.599999999997
 20
6090.501487517368
 30
0.0
 11
8744.996681317017
 21
6236.898168834386
 31
0.0
  0
LINE
  5
2678B
330
747D
100
AcDbEntity
  8
細線
 48
50.0
100
AcDbLine
 10
8598.599999999997
 20
6045.600206912024
 30
0.0
 11
8789.897961922362
 21
6236.898168834387
 31
0.0
  0
LINE
  5
2678C
330
747D
100
AcDbEntity
  8
細線
 48
50.0
100
AcDbLine
 10
8598.599999999997
 20
6000.698926306679
 30
0.0
 11
8798.599999999993
 21
6200.698926306674
 31
0.0
  0
LINE
  5
2678D
330
747D
100
AcDbEntity
  8
細線
 48
50.0
100
AcDbLine
 10
8599.700523133071
 20
5956.898168834406
 30
0.0
 11
8798.599999999995
 21
6155.797645701326
 31
0.0
  0
LINE
  5
2678E
330
747D
100
AcDbEntity
  8
細線
 48
50.0
100
AcDbLine
 10
8598.599999999995
 20
6135.402768122711
 30
0.0
 11
8700.095400711671
 21
6236.898168834386
 31
0.0
  0
LINE
  5
2678F
330
747D
100
AcDbEntity
  8
細線
 48
50.0
100
AcDbLine
 10
9548.599999999993
 20
6180.304048728056
 30
0.0
 11
9605.194120106327
 21
6236.898168834387
 31
0.0
  0
LINE
  5
26790
330
747D
100
AcDbEntity
  8
細線
 48
50.0
100
AcDbLine
 10
9594.601803738418
 20
5956.898168834408
 30
0.0
 11
9748.599999999996
 21
6110.896365095985
 31
0.0
  0
LINE
  5
26791
330
747D
100
AcDbEntity
  8
細線
 48
50.0
100
AcDbLine
 10
9729.305645554457
 20
5956.898168834412
 30
0.0
 11
9748.600000000001
 21
5976.192523279955
 31
0.0
  0
LINE
  5
26792
330
747D
100
AcDbEntity
  8
細線
 48
50.0
100
AcDbLine
 10
9639.503084343765
 20
5956.898168834408
 30
0.0
 11
9748.600000000001
 21
6065.995084490645
 31
0.0
  0
LINE
  5
26793
330
747D
100
AcDbEntity
  8
細線
 48
50.0
100
AcDbLine
 10
9684.404364949113
 20
5956.898168834408
 30
0.0
 11
9748.600000000001
 21
6021.0938038853
 31
0.0
  0
LINE
  5
26794
330
747D
100
AcDbEntity
  8
部品1
 48
50.0
100
AcDbLine
 10
9748.599999999992
 20
6236.898168834387
 30
0.0
 11
9748.599999999999
 21
5956.89816883441
 31
0.0
  0
LINE
  5
26795
330
747D
100
AcDbEntity
  8
部品1
 48
50.0
100
AcDbLine
 10
9548.599999999991
 20
6236.898168834386
 30
0.0
 11
9548.599999999998
 21
5956.898168834406
 31
0.0
  0
LINE
  5
26796
330
747D
100
AcDbEntity
  8
細線
 48
50.0
100
AcDbLine
 10
9548.599999999998
 20
6090.501487517368
 30
0.0
 11
9694.996681317018
 21
6236.898168834386
 31
0.0
  0
LINE
  5
26797
330
747D
100
AcDbEntity
  8
細線
 48
50.0
100
AcDbLine
 10
9548.599999999998
 20
6045.600206912024
 30
0.0
 11
9739.897961922361
 21
6236.898168834387
 31
0.0
  0
LINE
  5
26798
330
747D
100
AcDbEntity
  8
細線
 48
50.0
100
AcDbLine
 10
9548.599999999998
 20
6000.698926306679
 30
0.0
 11
9748.599999999994
 21
6200.698926306674
 31
0.0
  0
LINE
  5
26799
330
747D
100
AcDbEntity
  8
細線
 48
50.0
100
AcDbLine
 10
9549.700523133072
 20
5956.898168834406
 30
0.0
 11
9748.599999999996
 21
6155.797645701326
 31
0.0
  0
LINE
  5
2679A
330
747D
100
AcDbEntity
  8
細線
 48
50.0
100
AcDbLine
 10
9548.599999999995
 20
6135.402768122711
 30
0.0
 11
9650.09540071167
 21
6236.898168834386
 31
0.0
  0
LINE
  5
2679B
330
747D
100
AcDbEntity
  8
細線
 48
50.0
100
AcDbLine
 10
10498.59999999999
 20
6180.304048728056
 30
0.0
 11
10555.19412010633
 21
6236.898168834387
 31
0.0
  0
LINE
  5
2679C
330
747D
100
AcDbEntity
  8
細線
 48
50.0
100
AcDbLine
 10
10544.60180373842
 20
5956.898168834408
 30
0.0
 11
10698.59999999999
 21
6110.896365095985
 31
0.0
  0
LINE
  5
2679D
330
747D
100
AcDbEntity
  8
細線
 48
50.0
100
AcDbLine
 10
10679.30564555445
 20
5956.898168834412
 30
0.0
 11
10698.6
 21
5976.192523279955
 31
0.0
  0
LINE
  5
2679E
330
747D
100
AcDbEntity
  8
細線
 48
50.0
100
AcDbLine
 10
10589.50308434376
 20
5956.898168834408
 30
0.0
 11
10698.6
 21
6065.995084490645
 31
0.0
  0
LINE
  5
2679F
330
747D
100
AcDbEntity
  8
細線
 48
50.0
100
AcDbLine
 10
10634.40436494911
 20
5956.898168834408
 30
0.0
 11
10698.6
 21
6021.0938038853
 31
0.0
  0
LINE
  5
267A0
330
747D
100
AcDbEntity
  8
部品1
 48
50.0
100
AcDbLine
 10
10698.59999999999
 20
6236.898168834387
 30
0.0
 11
10698.6
 21
5956.89816883441
 31
0.0
  0
LINE
  5
267A1
330
747D
100
AcDbEntity
  8
部品1
 48
50.0
100
AcDbLine
 10
10498.59999999999
 20
6236.898168834386
 30
0.0
 11
10498.6
 21
5956.898168834406
 31
0.0
  0
LINE
  5
267A2
330
747D
100
AcDbEntity
  8
細線
 48
50.0
100
AcDbLine
 10
10498.6
 20
6090.501487517368
 30
0.0
 11
10644.99668131702
 21
6236.898168834386
 31
0.0
  0
LINE
  5
267A3
330
747D
100
AcDbEntity
  8
細線
 48
50.0
100
AcDbLine
 10
10498.6
 20
6045.600206912024
 30
0.0
 11
10689.89796192236
 21
6236.898168834387
 31
0.0
  0
LINE
  5
267A4
330
747D
100
AcDbEntity
  8
細線
 48
50.0
100
AcDbLine
 10
10498.6
 20
6000.698926306679
 30
0.0
 11
10698.59999999999
 21
6200.698926306674
 31
0.0
  0
LINE
  5
267A5
330
747D
100
AcDbEntity
  8
細線
 48
50.0
100
AcDbLine
 10
10499.70052313307
 20
5956.898168834406
 30
0.0
 11
10698.59999999999
 21
6155.797645701326
 31
0.0
  0
LINE
  5
267A6
330
747D
100
AcDbEntity
  8
細線
 48
50.0
100
AcDbLine
 10
10498.59999999999
 20
6135.402768122711
 30
0.0
 11
10600.09540071167
 21
6236.898168834386
 31
0.0
  0
LINE
  5
2681F
330
747D
100
AcDbEntity
  8
部品1
 48
50.0
100
AcDbLine
 10
10958.6
 20
6236.898168834406
 30
0.0
 11
10958.6
 21
7136.898168834389
 31
0.0
  0
LINE
  5
26821
330
747D
100
AcDbEntity
  8
部品1
 48
50.0
100
AcDbLine
 10
5488.600000000003
 20
6236.898168834386
 30
0.0
 11
5488.599999999993
 21
7136.898168834388
 31
0.0
  0
MTEXT
  5
269AF
102
{ACAD_REACTORS
330
269B0
102
}
330
747D
100
AcDbEntity
  8
寸法
 62
     7
 48
50.0
100
AcDbMText
 10
10664.64510666597
 20
2168.047263591384
 30
0.0
 40
120.0
 41
0.8
 71
     4
 72
     1
  1
\A1;C.B
  7
STYLE1
 73
     1
 44
1.0
1001
ACAD
1000
MTEXTBEGIN
1070
    73
1070
     1
1070
    44
1040
1.0
1070
    74
1070
     0
1000
MTEXTEND
  0
LEADER
  5
269B0
330
747D
100
AcDbEntity
  8
寸法
 48
50.0
100
AcDbLeader
  3
INABA_S50G
 73
     0
 74
     0
 75
     1
 40
120.0
 41
185.591883092037
 76
     3
 10
10481.50690003232
 20
1910.900942910246
 30
0.0
 10
10514.64510666597
 20
2083.047263591384
 30
0.0
 10
10639.64510666597
 20
2083.047263591384
 30
0.0
340
269AF
1001
ACAD
1000
DSTYLE
1002
{
1070
    40
1040
1.0
1002
}
  0
LINE
  5
269B1
330
747D
100
AcDbEntity
  8
細線
 48
50.0
100
AcDbLine
 10
10627.16031360873
 20
1555.202027256895
 30
0.0
 11
10620.72953299039
 21
1579.202027256895
 31
0.0
  0
LINE
  5
269B2
330
747D
100
AcDbEntity
  8
細線
 48
50.0
100
AcDbLine
 10
10605.72437821424
 20
1475.202027256895
 30
0.0
 11
10612.15515883259
 21
1451.202027256895
 31
0.0
  0
LINE
  5
269B3
330
747D
100
AcDbEntity
  8
部品1
100
AcDbLine
 10
10670.7824884164
 20
1670.900942910246
 30
0.0
 11
10670.7824884164
 21
1451.202027256896
 31
0.0
  0
LINE
  5
269B4
330
747D
100
AcDbEntity
  8
細線
 48
50.0
100
AcDbLine
 10
10599.29359759589
 20
1451.202027256895
 30
0.0
 11
10633.59109422708
 21
1579.202027256893
 31
0.0
  0
LINE
  5
269B5
330
747D
100
AcDbEntity
  8
細線
 48
50.0
100
AcDbLine
 10
10548.27226866149
 20
1555.202027256895
 30
0.0
 11
10541.84148804314
 21
1579.202027256895
 31
0.0
  0
LINE
  5
269B6
330
747D
100
AcDbEntity
  8
細線
100
AcDbLine
 10
10423.81888291574
 20
1579.202027256898
 30
0.0
 11
10515.51779856908
 21
1670.900942910246
 31
0.0
  0
LINE
  5
269B7
330
747D
100
AcDbEntity
  8
細線
 48
50.0
100
AcDbLine
 10
10469.38422371423
 20
1555.202027256896
 30
0.0
 11
10462.95344309589
 21
1579.202027256896
 31
0.0
  0
LINE
  5
269B8
330
747D
100
AcDbEntity
  8
細線
100
AcDbLine
 10
10457.76000841269
 20
1579.202027256898
 30
0.0
 11
10549.45892406603
 21
1670.900942910246
 31
0.0
  0
LINE
  5
269B9
330
747D
100
AcDbEntity
  8
細線
 48
50.0
100
AcDbLine
 10
10232.7200888725
 20
1555.202027256896
 30
0.0
 11
10226.28930825415
 21
1579.202027256896
 31
0.0
  0
LINE
  5
269BA
330
747D
100
AcDbEntity
  8
細線
 48
50.0
100
AcDbLine
 10
10311.60813381975
 20
1555.202027256896
 30
0.0
 11
10305.1773532014
 21
1579.202027256896
 31
0.0
  0
LINE
  5
269BB
330
747D
100
AcDbEntity
  8
細線
 48
50.0
100
AcDbLine
 10
10390.49617876699
 20
1555.202027256896
 30
0.0
 11
10384.06539814865
 21
1579.202027256896
 31
0.0
  0
LINE
  5
269BC
330
747D
100
AcDbEntity
  8
細線
 48
50.0
100
AcDbLine
 10
10526.836333267
 20
1475.202027256895
 30
0.0
 11
10533.26711388534
 21
1451.202027256895
 31
0.0
  0
LINE
  5
269BD
330
747D
100
AcDbEntity
  8
細線
 48
50.0
100
AcDbLine
 10
10447.94828831975
 20
1475.202027256896
 30
0.0
 11
10454.37906893811
 21
1451.202027256896
 31
0.0
  0
LINE
  5
269BE
330
747D
100
AcDbEntity
  8
細線
 48
50.0
100
AcDbLine
 10
10290.17219842526
 20
1475.202027256896
 30
0.0
 11
10296.6029790436
 21
1451.202027256896
 31
0.0
  0
LINE
  5
269BF
330
747D
100
AcDbEntity
  8
細線
 48
50.0
100
AcDbLine
 10
10369.0602433725
 20
1475.202027256896
 30
0.0
 11
10375.49102399085
 21
1451.202027256896
 31
0.0
  0
LINE
  5
269C0
330
747D
100
AcDbEntity
  8
細線
 48
50.0
100
AcDbLine
 10
10362.62946275415
 20
1451.202027256896
 30
0.0
 11
10396.92695938534
 21
1579.202027256895
 31
0.0
  0
LINE
  5
269C1
330
747D
100
AcDbEntity
  8
細線
 48
50.0
100
AcDbLine
 10
10283.74141780691
 20
1451.202027256895
 30
0.0
 11
10318.03891443809
 21
1579.202027256895
 31
0.0
  0
LINE
  5
269C2
330
747D
100
AcDbEntity
  8
細線
 48
50.0
100
AcDbLine
 10
10441.5175077014
 20
1451.202027256895
 30
0.0
 11
10475.81500433258
 21
1579.202027256896
 31
0.0
  0
LINE
  5
269C3
330
747D
100
AcDbEntity
  8
細線
100
AcDbLine
 10
10491.70113390964
 20
1579.202027256898
 30
0.0
 11
10583.40004956299
 21
1670.900942910246
 31
0.0
  0
LINE
  5
269C4
330
747D
100
AcDbEntity
  8
細線
 48
50.0
100
AcDbLine
 10
10520.40555264865
 20
1451.202027256893
 30
0.0
 11
10554.70304927983
 21
1579.202027256893
 31
0.0
  0
LINE
  5
269C5
330
747D
100
AcDbEntity
  8
部品1
100
AcDbLine
 10
10550.7824884164
 20
1910.900942910246
 30
0.0
 11
10550.7824884164
 21
1670.900942910246
 31
0.0
  0
LINE
  5
269C6
330
747D
100
AcDbEntity
  8
細線
100
AcDbLine
 10
10536.94482606882
 20
1670.900942910248
 30
0.0
 11
10296.94482606882
 21
1910.900942910246
 31
0.0
  0
LINE
  5
269C7
330
747D
100
AcDbEntity
  8
細線
100
AcDbLine
 10
10486.03313782339
 20
1670.900942910246
 30
0.0
 11
10246.03313782339
 21
1910.900942910246
 31
0.0
  0
LINE
  5
269C8
330
747D
100
AcDbEntity
  8
細線
100
AcDbLine
 10
10097.76000841269
 20
1579.202027256896
 30
0.0
 11
10189.45892406603
 21
1670.900942910246
 31
0.0
  0
LINE
  5
269C9
330
747D
100
AcDbEntity
  8
細線
100
AcDbLine
 10
10063.81888291573
 20
1579.202027256896
 30
0.0
 11
10155.51779856908
 21
1670.900942910246
 31
0.0
  0
LINE
  5
269CA
330
747D
100
AcDbEntity
  8
細線
 48
50.0
100
AcDbLine
 10
10074.943998978
 20
1555.202027256896
 30
0.0
 11
10068.51321835966
 21
1579.202027256896
 31
0.0
  0
LINE
  5
269CB
330
747D
100
AcDbEntity
  8
細線
 48
50.0
100
AcDbLine
 10
10153.83204392525
 20
1555.202027256896
 30
0.0
 11
10147.40126330691
 21
1579.202027256896
 31
0.0
  0
LINE
  5
269CC
330
747D
100
AcDbEntity
  8
細線
 48
50.0
100
AcDbLine
 10
9996.055954030753
 20
1555.202027256896
 30
0.0
 11
9989.625173412406
 21
1579.202027256896
 31
0.0
  0
LINE
  5
269CD
330
747D
100
AcDbEntity
  8
細線
 48
50.0
100
AcDbLine
 10
10211.28415347801
 20
1475.202027256896
 30
0.0
 11
10217.71493409636
 21
1451.202027256896
 31
0.0
  0
LINE
  5
269CE
330
747D
100
AcDbEntity
  8
細線
 48
50.0
100
AcDbLine
 10
10132.39610853077
 20
1475.202027256896
 30
0.0
 11
10138.82688914911
 21
1451.202027256896
 31
0.0
  0
LINE
  5
269CF
330
747D
100
AcDbEntity
  8
細線
 48
50.0
100
AcDbLine
 10
9974.620018636265
 20
1475.202027256896
 30
0.0
 11
9981.050799254612
 21
1451.202027256896
 31
0.0
  0
LINE
  5
269D0
330
747D
100
AcDbEntity
  8
細線
 48
50.0
100
AcDbLine
 10
10053.50806358351
 20
1475.202027256896
 30
0.0
 11
10059.93884420186
 21
1451.202027256896
 31
0.0
  0
LINE
  5
269D1
330
747D
100
AcDbEntity
  8
部品1
100
AcDbLine
 10
9950.782488416404
 20
1451.202027256892
 30
0.0
 11
9950.782488416404
 21
1670.900942910246
 31
0.0
  0
LINE
  5
269D2
330
747D
100
AcDbEntity
  8
細線
 48
50.0
100
AcDbLine
 10
9968.189238017917
 20
1451.202027256896
 30
0.0
 11
10002.4867346491
 21
1579.202027256896
 31
0.0
  0
LINE
  5
269D3
330
747D
100
AcDbEntity
  8
細線
 48
50.0
100
AcDbLine
 10
10125.96532791241
 20
1451.202027256896
 30
0.0
 11
10160.2628245436
 21
1579.202027256896
 31
0.0
  0
LINE
  5
269D4
330
747D
100
AcDbEntity
  8
細線
 48
50.0
100
AcDbLine
 10
10047.07728296516
 20
1451.202027256895
 30
0.0
 11
10081.37477959634
 21
1579.202027256895
 31
0.0
  0
LINE
  5
269D5
330
747D
100
AcDbEntity
  8
部品1
100
AcDbLine
 10
10070.7824884164
 20
1670.900942910246
 30
0.0
 11
10070.7824884164
 21
1910.900942910246
 31
0.0
  0
TEXT
  5
269D6
330
747D
100
AcDbEntity
  8
部品1
 48
50.0
100
AcDbText
 10
9306.664401657902
 20
1404.101202272937
 30
0.0
 40
80.0
  1
ボルトの出
 50
90.0
  7
STYLE2
100
AcDbText
  0
LINE
  5
269D7
330
747D
100
AcDbEntity
  8
細線
100
AcDbLine
 10
10214.50413384775
 20
1670.900942910246
 30
0.0
 11
10070.7824884164
 21
1814.622588341599
 31
0.0
  0
LWPOLYLINE
  5
269D8
330
747D
100
AcDbEntity
  8
部品1
 48
50.0
100
AcDbPolyline
 90
        2
 70
     0
 43
12.0
 10
9686.171226316016
 20
1670.900942910246
 10
10887.26352944764
 20
1670.900942910246
  0
LINE
  5
269D9
330
747D
100
AcDbEntity
  8
細線
100
AcDbLine
 10
10131.70113390964
 20
1579.202027256896
 30
0.0
 11
10223.40004956299
 21
1670.900942910246
 31
0.0
  0
LINE
  5
269DA
330
747D
100
AcDbEntity
  8
部品1
100
AcDbLine
 10
9950.782488416404
 20
1579.202027256896
 30
0.0
 11
10670.7824884164
 21
1579.202027256899
 31
0.0
  0
LINE
  5
269DB
330
747D
100
AcDbEntity
  8
部品1
100
AcDbLine
 10
9950.782488416404
 20
1451.202027256892
 30
0.0
 11
10670.7824884164
 21
1451.202027256896
 31
0.0
  0
LINE
  5
269DC
330
747D
100
AcDbEntity
  8
細線
 48
50.0
100
AcDbLine
 10
10204.85337285966
 20
1451.202027256896
 30
0.0
 11
10239.15086949085
 21
1579.202027256895
 31
0.0
  0
LINE
  5
269DD
330
747D
100
AcDbEntity
  8
部品1
100
AcDbLine
 10
10070.7824884164
 20
1910.900942910246
 30
0.0
 11
10550.7824884164
 21
1910.900942910246
 31
0.0
  0
LINE
  5
269DE
330
747D
100
AcDbEntity
  8
細線
100
AcDbLine
 10
10265.41582209319
 20
1670.900942910246
 30
0.0
 11
10070.7824884164
 21
1865.534276587029
 31
0.0
  0
LINE
  5
269DF
330
747D
100
AcDbEntity
  8
部品1
100
AcDbLine
 10
11257.52398951343
 20
345.9326405261845
 30
0.0
 11
11257.52398951344
 21
3310.239610110832
 31
0.0
  0
TEXT
  5
269E0
330
747D
100
AcDbEntity
  8
部品1
100
AcDbText
 10
7879.418805305578
 20
3130.687678159404
 30
0.0
 40
120.0
  1
基礎詳細
  7
STYLE2
100
AcDbText
  0
LINE
  5
269E1
330
747D
100
AcDbEntity
  8
部品1
 48
50.0
100
AcDbLine
 10
8194.646556113646
 20
2309.776224019389
 30
0.0
 11
8210.646556113646
 21
2301.776224019389
 31
0.0
  0
LINE
  5
269E2
330
747D
100
AcDbEntity
  8
細線
 48
50.0
100
AcDbLine
 10
8162.646556113648
 20
2261.776224019389
 30
0.0
 11
8162.646556113648
 21
2293.776224019389
 31
0.0
  0
LINE
  5
269E3
330
747D
100
AcDbEntity
  8
部品1
 48
50.0
100
AcDbLine
 10
8210.646556113646
 20
2269.776224019389
 30
0.0
 11
8210.646556113646
 21
2301.776224019389
 31
0.0
  0
LINE
  5
269E4
330
747D
100
AcDbEntity
  8
細線
 48
50.0
100
AcDbLine
 10
8194.646556113646
 20
2261.776224019389
 30
0.0
 11
8194.646556113646
 21
2293.776224019389
 31
0.0
  0
LINE
  5
269E5
330
747D
100
AcDbEntity
  8
部品1
 48
50.0
100
AcDbLine
 10
8194.646556113646
 20
2293.776224019389
 30
0.0
 11
8210.646556113646
 21
2301.776224019389
 31
0.0
  0
LINE
  5
269E6
330
747D
100
AcDbEntity
  8
部品1
 48
50.0
100
AcDbLine
 10
8162.646556113648
 20
2293.776224019389
 30
0.0
 11
8194.646556113646
 21
2293.776224019389
 31
0.0
  0
LINE
  5
269E7
330
747D
100
AcDbEntity
  8
部品1
 48
50.0
100
AcDbLine
 10
8194.646556113646
 20
2261.776224019389
 30
0.0
 11
8210.646556113646
 21
2269.776224019389
 31
0.0
  0
LINE
  5
269E8
330
747D
100
AcDbEntity
  8
部品1
 48
50.0
100
AcDbLine
 10
8162.646556113648
 20
2261.776224019389
 30
0.0
 11
8194.646556113646
 21
2261.776224019389
 31
0.0
  0
ELLIPSE
  5
269E9
330
747D
100
AcDbEntity
  8
細線
 48
50.0
100
AcDbEllipse
 10
8178.646556113646
 20
2301.776224019389
 30
0.0
 11
14.76670786606846
 21
0.0
 31
0.0
210
0.0
220
0.0
230
1.0
 40
0.2071254069489396
 41
0.0
 42
6.283185307179586
  0
LINE
  5
269EA
330
747D
100
AcDbEntity
  8
部品1
 48
50.0
100
AcDbLine
 10
8162.646556113648
 20
2309.776224019389
 30
0.0
 11
8194.646556113646
 21
2309.776224019389
 31
0.0
  0
LINE
  5
269EB
330
747D
100
AcDbEntity
  8
部品1
 48
50.0
100
AcDbLine
 10
8146.646556113648
 20
2269.776224019389
 30
0.0
 11
8146.646556113648
 21
2301.776224019389
 31
0.0
  0
LINE
  5
269EC
330
747D
100
AcDbEntity
  8
部品1
 48
50.0
100
AcDbLine
 10
8146.646556113648
 20
2301.776224019389
 30
0.0
 11
8162.646556113648
 21
2309.776224019389
 31
0.0
  0
LINE
  5
269ED
330
747D
100
AcDbEntity
  8
部品1
 48
50.0
100
AcDbLine
 10
8146.646556113648
 20
2269.776224019389
 30
0.0
 11
8162.646556113648
 21
2261.776224019389
 31
0.0
  0
LINE
  5
269EE
330
747D
100
AcDbEntity
  8
部品1
 48
50.0
100
AcDbLine
 10
8146.646556113648
 20
2301.776224019389
 30
0.0
 11
8162.646556113648
 21
2293.776224019389
 31
0.0
  0
LINE
  5
269EF
330
747D
100
AcDbEntity
  8
部品1
 48
50.0
100
AcDbLine
 10
8218.646556113647
 20
2170.424231354518
 30
0.0
 11
8218.646556113647
 21
2180.024231354519
 31
0.0
  0
ELLIPSE
  5
269F0
330
747D
100
AcDbEntity
  8
部品1
 48
50.0
100
AcDbEllipse
 10
8178.646556113646
 20
2180.024231354519
 30
0.0
 11
18.4
 21
0.0
 31
0.0
210
0.0
220
0.0
230
1.0
 40
0.3478260869565217
 41
0.0
 42
6.283185307179586
  0
ARC
  5
269F1
330
747D
100
AcDbEntity
  8
部品1
100
AcDbCircle
 10
8017.546556113646
 20
2009.000942910247
 30
0.0
 40
2.7
100
AcDbArc
 50
90.0
 51
180.0
  0
LINE
  5
269F2
330
747D
100
AcDbEntity
  8
部品1
100
AcDbLine
 10
8020.246556113646
 20
2022.500942910247
 30
0.0
 11
8062.546556113646
 21
2022.500942910243
 31
0.0
  0
LINE
  5
269F3
330
747D
100
AcDbEntity
  8
部品1
100
AcDbLine
 10
8017.546556113646
 20
2011.700942910247
 30
0.0
 11
8017.546556113646
 21
2019.800942910246
 31
0.0
  0
LINE
  5
269F4
330
747D
100
AcDbEntity
  8
部品1
100
AcDbLine
 10
8017.546556113646
 20
2011.700942910247
 30
0.0
 11
8017.546556113646
 21
2011.700942910247
 31
0.0
  0
ARC
  5
269F5
330
747D
100
AcDbEntity
  8
部品1
100
AcDbCircle
 10
8020.246556113646
 20
2019.800942910246
 30
0.0
 40
2.7
100
AcDbArc
 50
90.0
 51
180.0
  0
ARC
  5
269F6
330
747D
100
AcDbEntity
  8
部品1
100
AcDbCircle
 10
8062.546556113646
 20
2019.800942910243
 30
0.0
 40
2.7
100
AcDbArc
 50
0.0
 51
90.0
  0
LINE
  5
269F7
330
747D
100
AcDbEntity
  8
部品1
 48
50.0
100
AcDbLine
 10
8138.646556113647
 20
2180.024231354519
 30
0.0
 11
8138.646556113647
 21
2170.424231354518
 31
0.0
  0
ELLIPSE
  5
269F8
330
747D
100
AcDbEntity
  8
部品1
 48
50.0
100
AcDbEllipse
 10
8178.646556113646
 20
2170.424231354519
 30
0.0
 11
40.0
 21
0.0
 31
0.0
210
0.0
220
0.0
230
1.0
 40
0.4
 41
3.141592653589793
 42
6.283185307179586
  0
ELLIPSE
  5
269F9
330
747D
100
AcDbEntity
  8
部品1
 48
50.0
100
AcDbEllipse
 10
8178.646556113646
 20
2180.024231354519
 30
0.0
 11
40.0
 21
0.0
 31
0.0
210
0.0
220
0.0
230
1.0
 40
0.4
 41
0.0
 42
6.283185307179586
  0
LINE
  5
269FA
330
747D
100
AcDbEntity
  8
部品1
100
AcDbLine
 10
8173.246556113644
 20
1963.660942910246
 30
0.0
 11
8184.046556113647
 21
1963.660942910246
 31
0.0
  0
LINE
  5
269FB
330
747D
100
AcDbEntity
  8
部品1
100
AcDbLine
 10
8169.646556113645
 20
1960.060942910247
 30
0.0
 11
8187.646556113646
 21
1960.060942910247
 31
0.0
  0
LINE
  5
269FC
330
747D
100
AcDbEntity
  8
細線
100
AcDbLine
 10
8173.24655611365
 20
1920.460942910246
 30
0.0
 11
8173.246556113644
 21
1963.660942910246
 31
0.0
  0
LINE
  5
269FD
330
747D
100
AcDbEntity
  8
細線
100
AcDbLine
 10
8184.046556113647
 20
1920.460942910246
 30
0.0
 11
8184.046556113647
 21
1963.660942910246
 31
0.0
  0
LINE
  5
269FE
330
747D
100
AcDbEntity
  8
部品1
100
AcDbLine
 10
8085.946556113645
 20
1977.760942910247
 30
0.0
 11
8085.946556113645
 21
1960.660942910246
 31
0.0
  0
LINE
  5
269FF
330
747D
100
AcDbEntity
  8
部品1
100
AcDbLine
 10
8119.506556113647
 20
1977.760942910247
 30
0.0
 11
8119.506556113643
 21
1923.160942910246
 31
0.0
  0
ARC
  5
26A00
330
747D
100
AcDbEntity
  8
部品1
100
AcDbCircle
 10
8104.846556113647
 20
1965.800942910246
 30
0.0
 40
2.7
100
AcDbArc
 50
0.0
 51
90.0
  0
LINE
  5
26A01
330
747D
100
AcDbEntity
  8
部品1
100
AcDbLine
 10
8065.246556113645
 20
1968.500942910246
 30
0.0
 11
8104.846556113647
 21
1968.500942910246
 31
0.0
  0
ARC
  5
26A02
330
747D
100
AcDbEntity
  8
部品1
100
AcDbCircle
 10
8104.846556113647
 20
1923.160942910246
 30
0.0
 40
2.7
100
AcDbArc
 50
270.0
 51
0.0
  0
ARC
  5
26A03
330
747D
100
AcDbEntity
  8
部品1
100
AcDbCircle
 10
8122.20655611364
 20
1923.160942910246
 30
0.0
 40
2.7
100
AcDbArc
 50
180.0
 51
270.0
  0
LINE
  5
26A04
330
747D
100
AcDbEntity
  8
部品1
100
AcDbLine
 10
8093.146556113646
 20
1920.460942910246
 30
0.0
 11
8104.846556113647
 21
1920.460942910246
 31
0.0
  0
LINE
  5
26A05
330
747D
100
AcDbEntity
  8
部品1
100
AcDbLine
 10
8107.546556113646
 20
1965.800942910246
 30
0.0
 11
8107.546556113646
 21
1923.160942910246
 31
0.0
  0
ARC
  5
26A06
330
747D
100
AcDbEntity
  8
部品1
100
AcDbCircle
 10
8116.806556113646
 20
1977.760942910247
 30
0.0
 40
2.7
100
AcDbArc
 50
0.0
 51
90.0
  0
ARC
  5
26A07
330
747D
100
AcDbEntity
  8
部品1
100
AcDbCircle
 10
8088.646556113646
 20
1977.760942910247
 30
0.0
 40
2.7
100
AcDbArc
 50
90.0
 51
180.0
  0
LINE
  5
26A08
330
747D
100
AcDbEntity
  8
部品1
100
AcDbLine
 10
8088.646556113646
 20
1980.460942910246
 30
0.0
 11
8116.806556113646
 21
1980.460942910246
 31
0.0
  0
LINE
  5
26A09
330
747D
100
AcDbEntity
  8
部品1
100
AcDbLine
 10
8065.246556113645
 20
2019.800942910243
 30
0.0
 11
8065.246556113645
 21
1968.500942910246
 31
0.0
  0
LINE
  5
26A0A
330
747D
100
AcDbEntity
  8
部品1
100
AcDbLine
 10
8014.846556113647
 20
2000.900942910246
 30
0.0
 11
8014.846556113647
 21
2009.000942910247
 31
0.0
  0
LINE
  5
26A0B
330
747D
100
AcDbEntity
  8
部品1
100
AcDbLine
 10
8122.20655611364
 20
1920.460942910246
 30
0.0
 11
8323.54655611364
 21
1920.460942910246
 31
0.0
  0
LINE
  5
26A0C
330
747D
100
AcDbEntity
  8
部品1
100
AcDbLine
 10
7963.546556113645
 20
1923.160942910246
 30
0.0
 11
7963.546556113645
 21
1985.292846612954
 31
0.0
  0
LINE
  5
26A0D
330
747D
100
AcDbEntity
  8
部品1
100
AcDbLine
 10
7966.246556113645
 20
1920.460942910246
 30
0.0
 11
7977.94655611364
 21
1920.460942910246
 31
0.0
  0
LINE
  5
26A0E
330
747D
100
AcDbEntity
  8
細線
 48
50.0
100
AcDbLine
 10
7957.246556113645
 20
1898.681519210151
 30
0.0
 11
7969.46597981374
 21
1910.900942910246
 31
0.0
  0
ARC
  5
26A0F
330
747D
100
AcDbEntity
  8
部品1
100
AcDbCircle
 10
7966.246556113645
 20
1923.160942910246
 30
0.0
 40
2.7
100
AcDbArc
 50
180.0
 51
270.0
  0
LINE
  5
26A10
330
747D
100
AcDbEntity
  8
部品1
100
AcDbLine
 10
7965.591709926048
 20
1987.912231363346
 30
0.0
 11
7974.346556113648
 21
1990.100942910246
 31
0.0
  0
ARC
  5
26A11
330
747D
100
AcDbEntity
  8
部品1
100
AcDbCircle
 10
7966.246556113645
 20
1985.292846612954
 30
0.0
 40
2.7
100
AcDbArc
 50
104.0362434679067
 51
180.0
  0
ARC
  5
26A12
330
747D
100
AcDbEntity
  8
部品1
100
AcDbCircle
 10
7977.046556113646
 20
1998.200942910246
 30
0.0
 40
2.7
100
AcDbArc
 50
90.0
 51
180.0
  0
LINE
  5
26A13
330
747D
100
AcDbEntity
  8
部品1
100
AcDbLine
 10
7974.346556113648
 20
1990.100942910246
 30
0.0
 11
7974.346556113648
 21
1998.200942910246
 31
0.0
  0
LINE
  5
26A14
330
747D
100
AcDbEntity
  8
部品1
 48
50.0
100
AcDbLine
 10
7957.246556113645
 20
1910.900942910246
 30
0.0
 11
8371.246556113648
 21
1910.900942910246
 31
0.0
  0
LINE
  5
26A15
330
747D
100
AcDbEntity
  8
細線
 48
50.0
100
AcDbLine
 10
7957.246556113645
 20
1844.799982483736
 30
0.0
 11
8023.347516540155
 21
1910.900942910246
 31
0.0
  0
LINE
  5
26A16
330
747D
100
AcDbEntity
  8
細線
 48
50.0
100
AcDbLine
 10
7957.246556113645
 20
1871.740750846944
 30
0.0
 11
7996.406748176953
 21
1910.900942910246
 31
0.0
  0
LINE
  5
26A17
330
747D
100
AcDbEntity
  8
部品1
100
AcDbLine
 10
7977.046556113646
 20
2000.900942910246
 30
0.0
 11
8014.846556113647
 21
2000.900942910246
 31
0.0
  0
LINE
  5
26A18
330
747D
100
AcDbEntity
  8
部品1
 48
50.0
100
AcDbLine
 10
8371.246556113645
 20
1366.900942910246
 30
0.0
 11
8499.246556113645
 21
1366.900942910246
 31
0.0
  0
LINE
  5
26A19
330
747D
100
AcDbEntity
  8
部品1
100
AcDbLine
 10
8187.646556113646
 20
1685.900942910246
 30
0.0
 11
8223.646556113648
 21
1685.900942910246
 31
0.0
  0
LINE
  5
26A1A
330
747D
100
AcDbEntity
  8
部品1
100
AcDbLine
 10
8187.646556113646
 20
1667.900942910246
 30
0.0
 11
8223.646556113648
 21
1667.900942910246
 31
0.0
  0
ARC
  5
26A1B
330
747D
100
AcDbEntity
  8
部品1
100
AcDbCircle
 10
8187.646556113646
 20
1685.900942910246
 30
0.0
 40
18.0
100
AcDbArc
 50
180.0
 51
270.0
  0
LINE
  5
26A1C
330
747D
100
AcDbEntity
  8
部品1
100
AcDbLine
 10
8223.646556113648
 20
1667.900942910246
 30
0.0
 11
8223.646556113648
 21
1685.900942910246
 31
0.0
  0
LINE
  5
26A1D
330
747D
100
AcDbEntity
  8
部品1
100
AcDbLine
 10
8241.646556113646
 20
1586.900942910244
 30
0.0
 11
8115.64655611364
 21
1586.900942910244
 31
0.0
  0
LINE
  5
26A1E
330
747D
100
AcDbEntity
  8
細線
 48
50.0
100
AcDbLine
 10
8535.62438130598
 20
1102.900942910244
 30
0.0
 11
8529.193600687635
 21
1126.900942910244
 31
0.0
  0
LINE
  5
26A1F
330
747D
100
AcDbEntity
  8
細線
 48
50.0
100
AcDbLine
 10
8456.736336358735
 20
1102.900942910244
 30
0.0
 11
8450.30555574039
 21
1126.900942910244
 31
0.0
  0
LINE
  5
26A20
330
747D
100
AcDbEntity
  8
細線
 48
50.0
100
AcDbLine
 10
8377.84829141148
 20
1102.900942910246
 30
0.0
 11
8371.417510793131
 21
1126.900942910246
 31
0.0
  0
LINE
  5
26A21
330
747D
100
AcDbEntity
  8
細線
 48
50.0
100
AcDbLine
 10
8514.188445911491
 20
1022.900942910244
 30
0.0
 11
8520.61922652984
 21
998.9009429102443
 31
0.0
  0
LINE
  5
26A22
330
747D
100
AcDbEntity
  8
細線
 48
50.0
100
AcDbLine
 10
8435.300400964246
 20
1022.900942910244
 30
0.0
 11
8441.731181582593
 21
998.9009429102443
 31
0.0
  0
LINE
  5
26A23
330
747D
100
AcDbEntity
  8
細線
 48
50.0
100
AcDbLine
 10
8356.412356016997
 20
1022.900942910246
 30
0.0
 11
8362.843136635353
 21
998.9009429102461
 31
0.0
  0
LINE
  5
26A24
330
747D
100
AcDbEntity
  8
細線
 48
50.0
100
AcDbLine
 10
8428.869620345897
 20
998.9009429102434
 30
0.0
 11
8463.16711697708
 21
1126.900942910243
 31
0.0
  0
LINE
  5
26A25
330
747D
100
AcDbEntity
  8
細線
 48
50.0
100
AcDbLine
 10
8349.981575398649
 20
998.9009429102443
 30
0.0
 11
8384.279072029823
 21
1126.900942910246
 31
0.0
  0
LINE
  5
26A26
330
747D
100
AcDbEntity
  8
細線
 48
50.0
100
AcDbLine
 10
8507.757665293139
 20
998.9009429102443
 30
0.0
 11
8542.055161924327
 21
1126.900942910243
 31
0.0
  0
LINE
  5
26A27
330
747D
100
AcDbEntity
  8
部品1
 48
50.0
100
AcDbLine
 10
8579.24655611365
 20
1126.900942910246
 30
0.0
 11
8579.24655611365
 21
998.9009429102461
 31
0.0
  0
LINE
  5
26A28
330
747D
100
AcDbEntity
  8
細線
 48
50.0
100
AcDbLine
 10
8298.960246464242
 20
1102.900942910246
 30
0.0
 11
8292.529465845895
 21
1126.900942910246
 31
0.0
  0
LINE
  5
26A29
330
747D
100
AcDbEntity
  8
細線
 48
50.0
100
AcDbLine
 10
8220.072201516996
 20
1102.900942910246
 30
0.0
 11
8213.641420898648
 21
1126.900942910246
 31
0.0
  0
LINE
  5
26A2A
330
747D
100
AcDbEntity
  8
細線
 48
50.0
100
AcDbLine
 10
8062.296111622501
 20
1102.900942910246
 30
0.0
 11
8055.865331004154
 21
1126.900942910246
 31
0.0
  0
LINE
  5
26A2B
330
747D
100
AcDbEntity
  8
細線
 48
50.0
100
AcDbLine
 10
8141.184156569748
 20
1102.900942910246
 30
0.0
 11
8134.753375951401
 21
1126.900942910246
 31
0.0
  0
LINE
  5
26A2C
330
747D
100
AcDbEntity
  8
細線
 48
50.0
100
AcDbLine
 10
8198.636266122507
 20
1022.900942910246
 30
0.0
 11
8205.067046740852
 21
998.9009429102461
 31
0.0
  0
LINE
  5
26A2D
330
747D
100
AcDbEntity
  8
細線
 48
50.0
100
AcDbLine
 10
8277.524311069752
 20
1022.900942910246
 30
0.0
 11
8283.955091688097
 21
998.9009429102461
 31
0.0
  0
LINE
  5
26A2E
330
747D
100
AcDbEntity
  8
細線
 48
50.0
100
AcDbLine
 10
8040.860176228013
 20
1022.900942910246
 30
0.0
 11
8047.29095684636
 21
998.9009429102461
 31
0.0
  0
LINE
  5
26A2F
330
747D
100
AcDbEntity
  8
細線
 48
50.0
100
AcDbLine
 10
8119.74822117526
 20
1022.900942910246
 30
0.0
 11
8126.179001793607
 21
998.9009429102461
 31
0.0
  0
LINE
  5
26A30
330
747D
100
AcDbEntity
  8
細線
 48
50.0
100
AcDbLine
 10
8271.0935304514
 20
998.9009429102461
 30
0.0
 11
8305.391027082583
 21
1126.900942910244
 31
0.0
  0
LINE
  5
26A31
330
747D
100
AcDbEntity
  8
細線
 48
50.0
100
AcDbLine
 10
8113.317440556908
 20
998.9009429102461
 30
0.0
 11
8147.614937188093
 21
1126.900942910244
 31
0.0
  0
LINE
  5
26A32
330
747D
100
AcDbEntity
  8
細線
 48
50.0
100
AcDbLine
 10
8034.429395609661
 20
998.9009429102461
 30
0.0
 11
8068.726892240844
 21
1126.900942910246
 31
0.0
  0
LINE
  5
26A33
330
747D
100
AcDbEntity
  8
細線
 48
50.0
100
AcDbLine
 10
8192.205485504157
 20
998.9009429102443
 30
0.0
 11
8226.502982135338
 21
1126.900942910244
 31
0.0
  0
LINE
  5
26A34
330
747D
100
AcDbEntity
  8
細線
 48
50.0
100
AcDbLine
 10
8316.978251068453
 20
1126.900942910246
 30
0.0
 11
8499.246556113645
 21
1309.169247955442
 31
0.0
  0
LINE
  5
26A35
330
747D
100
AcDbEntity
  8
部品1
 48
50.0
100
AcDbLine
 10
8499.246556113645
 20
1366.900942910246
 30
0.0
 11
8499.246556113645
 21
1126.900942910246
 31
0.0
  0
LINE
  5
26A36
330
747D
100
AcDbEntity
  8
細線
 48
50.0
100
AcDbLine
 10
8290.037482705251
 20
1126.900942910246
 30
0.0
 11
8499.246556113645
 21
1336.110016318639
 31
0.0
  0
LINE
  5
26A37
330
747D
100
AcDbEntity
  8
細線
 48
50.0
100
AcDbLine
 10
8263.096714342038
 20
1126.900942910246
 30
0.0
 11
8499.246556113645
 21
1363.050784681854
 31
0.0
  0
LINE
  5
26A38
330
747D
100
AcDbEntity
  8
細線
 48
50.0
100
AcDbLine
 10
8047.570567436379
 20
1126.900942910246
 30
0.0
 11
8371.246556113645
 21
1450.576931587512
 31
0.0
  0
LINE
  5
26A39
330
747D
100
AcDbEntity
  8
細線
 48
50.0
100
AcDbLine
 10
8101.452104162795
 20
1126.900942910246
 30
0.0
 11
8371.246556113645
 21
1396.695394861103
 31
0.0
  0
LINE
  5
26A3A
330
747D
100
AcDbEntity
  8
細線
 48
50.0
100
AcDbLine
 10
8074.51133579959
 20
1126.900942910246
 30
0.0
 11
8371.246556113645
 21
1423.636163224299
 31
0.0
  0
LINE
  5
26A3B
330
747D
100
AcDbEntity
  8
細線
 48
50.0
100
AcDbLine
 10
7829.246556113641
 20
1339.629225398832
 30
0.0
 11
7856.51827362506
 21
1366.900942910246
 31
0.0
  0
LINE
  5
26A3C
330
747D
100
AcDbEntity
  8
部品1
 48
50.0
100
AcDbLine
 10
7829.246556113645
 20
1366.900942910246
 30
0.0
 11
7957.246556113645
 21
1366.900942910246
 31
0.0
  0
LINE
  5
26A3D
330
747D
100
AcDbEntity
  8
細線
 48
50.0
100
AcDbLine
 10
7829.246556113641
 20
1312.688457035621
 30
0.0
 11
7883.45904198827
 21
1366.900942910246
 31
0.0
  0
LWPOLYLINE
  5
26A3E
330
747D
100
AcDbEntity
  8
部品1
 48
50.0
100
AcDbPolyline
 90
        2
 70
     0
 43
8.0
 10
7543.106654280689
 20
1670.900942910247
 10
7957.246556113645
 20
1670.900942910247
  0
LINE
  5
26A3F
330
747D
100
AcDbEntity
  8
細線
 48
50.0
100
AcDbLine
 10
7904.520021728
 20
1102.900942910246
 30
0.0
 11
7898.089241109651
 21
1126.900942910246
 31
0.0
  0
LINE
  5
26A40
330
747D
100
AcDbEntity
  8
細線
 48
50.0
100
AcDbLine
 10
7983.408066675251
 20
1102.900942910246
 30
0.0
 11
7976.977286056904
 21
1126.900942910246
 31
0.0
  0
LINE
  5
26A41
330
747D
100
AcDbEntity
  8
細線
 48
50.0
100
AcDbLine
 10
7825.631976780747
 20
1102.900942910246
 30
0.0
 11
7819.201196162402
 21
1126.900942910246
 31
0.0
  0
LINE
  5
26A42
330
747D
100
AcDbEntity
  8
細線
 48
50.0
100
AcDbLine
 10
7749.246556113646
 20
1112.240863876026
 30
0.0
 11
7753.174712451841
 21
1126.900942910246
 31
0.0
  0
LINE
  5
26A43
330
747D
100
AcDbEntity
  8
細線
 48
50.0
100
AcDbLine
 10
7883.084086333511
 20
1022.900942910246
 30
0.0
 11
7889.514866951856
 21
998.9009429102461
 31
0.0
  0
LINE
  5
26A44
330
747D
100
AcDbEntity
  8
細線
 48
50.0
100
AcDbLine
 10
7961.972131280761
 20
1022.900942910246
 30
0.0
 11
7968.402911899109
 21
998.9009429102461
 31
0.0
  0
LINE
  5
26A45
330
747D
100
AcDbEntity
  8
細線
 48
50.0
100
AcDbLine
 10
7804.196041386258
 20
1022.900942910246
 30
0.0
 11
7810.626822004604
 21
998.9009429102461
 31
0.0
  0
LINE
  5
26A46
330
747D
100
AcDbEntity
  8
細線
 48
50.0
100
AcDbLine
 10
7955.541350662411
 20
998.9009429102443
 30
0.0
 11
7989.838847293592
 21
1126.900942910244
 31
0.0
  0
LINE
  5
26A47
330
747D
100
AcDbEntity
  8
細線
 48
50.0
100
AcDbLine
 10
7797.765260767905
 20
998.9009429102443
 30
0.0
 11
7832.062757399087
 21
1126.900942910244
 31
0.0
  0
LINE
  5
26A48
330
747D
100
AcDbEntity
  8
部品1
 48
50.0
100
AcDbLine
 10
7749.246556113648
 20
998.9009429102461
 30
0.0
 11
7749.246556113648
 21
1126.900942910246
 31
0.0
  0
LINE
  5
26A49
330
747D
100
AcDbEntity
  8
細線
 48
50.0
100
AcDbLine
 10
7876.653305715163
 20
998.9009429102461
 30
0.0
 11
7910.950802346346
 21
1126.900942910246
 31
0.0
  0
LINE
  5
26A4A
330
747D
100
AcDbEntity
  8
部品1
 48
50.0
100
AcDbLine
 10
7829.246556113645
 20
1126.900942910246
 30
0.0
 11
7829.246556113645
 21
1366.900942910246
 31
0.0
  0
LINE
  5
26A4B
330
747D
100
AcDbEntity
  8
細線
 48
50.0
100
AcDbLine
 10
7829.246556113641
 20
1285.747688672417
 30
0.0
 11
7910.399810351475
 21
1366.900942910246
 31
0.0
  0
LINE
  5
26A4C
330
747D
100
AcDbEntity
  8
部品1
 48
50.0
100
AcDbLine
 10
8579.24655611365
 20
998.9009429102461
 30
0.0
 11
7749.246556113648
 21
998.9009429102461
 31
0.0
  0
LINE
  5
26A4D
330
747D
100
AcDbEntity
  8
部品1
 48
50.0
100
AcDbLine
 10
8579.24655611365
 20
1126.900942910246
 30
0.0
 11
7749.246556113648
 21
1126.900942910246
 31
0.0
  0
LINE
  5
26A4E
330
747D
100
AcDbEntity
  8
細線
 48
50.0
100
AcDbLine
 10
7832.044420530721
 20
1126.900942910246
 30
0.0
 11
8371.246556113645
 21
1666.103078493172
 31
0.0
  0
LINE
  5
26A4F
330
747D
100
AcDbEntity
  8
細線
 48
50.0
100
AcDbLine
 10
7858.985188893931
 20
1126.900942910246
 30
0.0
 11
8371.246556113648
 21
1639.16231012996
 31
0.0
  0
LINE
  5
26A50
330
747D
100
AcDbEntity
  8
細線
 48
50.0
100
AcDbLine
 10
7885.925957257136
 20
1126.900942910246
 30
0.0
 11
8371.246556113645
 21
1612.221541766754
 31
0.0
  0
LINE
  5
26A51
330
747D
100
AcDbEntity
  8
細線
 48
50.0
100
AcDbLine
 10
7957.246556113645
 20
1467.629225398832
 30
0.0
 11
8115.64655611364
 21
1626.029225398827
 31
0.0
  0
LINE
  5
26A52
330
747D
100
AcDbEntity
  8
細線
 48
50.0
100
AcDbLine
 10
7957.246556113645
 20
1413.747688672417
 30
0.0
 11
8130.399810351482
 21
1586.900942910244
 31
0.0
  0
LINE
  5
26A53
330
747D
100
AcDbEntity
  8
細線
 48
50.0
100
AcDbLine
 10
7957.246556113645
 20
1440.688457035624
 30
0.0
 11
8115.64655611364
 21
1599.088457035613
 31
0.0
  0
LINE
  5
26A54
330
747D
100
AcDbEntity
  8
部品1
100
AcDbLine
 10
8115.64655611364
 20
1586.900942910246
 30
0.0
 11
8115.646556113647
 21
1910.900942910246
 31
0.0
  0
LINE
  5
26A55
330
747D
100
AcDbEntity
  8
部品1
100
AcDbLine
 10
8241.646556113646
 20
1586.900942910246
 30
0.0
 11
8241.646556113646
 21
1910.900942910246
 31
0.0
  0
LINE
  5
26A56
330
747D
100
AcDbEntity
  8
細線
 48
50.0
100
AcDbLine
 10
8241.646556113646
 20
1725.088457035617
 30
0.0
 11
8371.246556113645
 21
1854.688457035614
 31
0.0
  0
LINE
  5
26A57
330
747D
100
AcDbEntity
  8
細線
 48
50.0
100
AcDbLine
 10
8241.646556113646
 20
1698.147688672405
 30
0.0
 11
8371.246556113645
 21
1827.747688672396
 31
0.0
  0
LINE
  5
26A58
330
747D
100
AcDbEntity
  8
部品1
100
AcDbLine
 10
8169.646556113645
 20
1685.900942910246
 30
0.0
 11
8169.646556113644
 21
1960.060942910247
 31
0.0
  0
LINE
  5
26A59
330
747D
100
AcDbEntity
  8
部品1
100
AcDbLine
 10
8187.646556113646
 20
1685.900942910246
 30
0.0
 11
8187.646556113643
 21
1960.060942910247
 31
0.0
  0
TEXT
  5
26A5A
330
747D
100
AcDbEntity
  8
部品1
 48
50.0
100
AcDbText
 10
7543.106654280689
 20
1682.139935193501
 30
0.0
 40
80.0
  1
▽G.L
  7
STYLE2
100
AcDbText
  0
LINE
  5
26A5B
330
747D
100
AcDbEntity
  8
細線
 48
50.0
100
AcDbLine
 10
7957.246556113645
 20
1629.273835578076
 30
0.0
 11
8115.646556113643
 21
1787.673835578069
 31
0.0
  0
LINE
  5
26A5C
330
747D
100
AcDbEntity
  8
細線
 48
50.0
100
AcDbLine
 10
7957.246556113645
 20
1656.214603941284
 30
0.0
 11
8115.646556113643
 21
1814.614603941281
 31
0.0
  0
LINE
  5
26A5D
330
747D
100
AcDbEntity
  8
細線
 48
50.0
100
AcDbLine
 10
7957.246556113645
 20
1683.155372304491
 30
0.0
 11
8115.646556113643
 21
1841.555372304489
 31
0.0
  0
LINE
  5
26A5E
330
747D
100
AcDbEntity
  8
部品1
 48
50.0
100
AcDbLine
 10
7957.246556113645
 20
1366.900942910246
 30
0.0
 11
7957.246556113645
 21
1910.900942910246
 31
0.0
  0
LINE
  5
26A5F
330
747D
100
AcDbEntity
  8
部品1
100
AcDbLine
 10
8371.246556113645
 20
1366.900942910246
 30
0.0
 11
8371.246556113645
 21
1910.900942910246
 31
0.0
  0
LINE
  5
26A60
330
747D
100
AcDbEntity
  8
細線
 48
50.0
100
AcDbLine
 10
8241.646556113646
 20
1752.029225398834
 30
0.0
 11
8371.246556113645
 21
1881.629225398833
 31
0.0
  0
LINE
  5
26A61
330
747D
100
AcDbEntity
  8
細線
 48
50.0
100
AcDbLine
 10
6365.699665438922
 20
1791.647794806962
 30
0.0
 11
6449.207242936452
 21
1875.155372304492
 31
0.0
  0
LINE
  5
26A62
330
747D
100
AcDbEntity
  8
細線
 48
50.0
100
AcDbLine
 10
6376.759950202439
 20
1775.767311207268
 30
0.0
 11
6449.207242936452
 21
1848.214603941283
 31
0.0
  0
LINE
  5
26A63
330
747D
100
AcDbEntity
  8
細線
 48
50.0
100
AcDbLine
 10
6257.207242936452
 20
1898.681519210151
 30
0.0
 11
6269.426666636547
 21
1910.900942910246
 31
0.0
  0
LINE
  5
26A64
330
747D
100
AcDbEntity
  8
細線
 48
50.0
100
AcDbLine
 10
6257.207242936452
 20
1844.799982483736
 30
0.0
 11
6323.308203362962
 21
1910.900942910246
 31
0.0
  0
LINE
  5
26A65
330
747D
100
AcDbEntity
  8
細線
 48
50.0
100
AcDbLine
 10
6257.207242936452
 20
1871.740750846944
 30
0.0
 11
6296.367434999757
 21
1910.900942910246
 31
0.0
  0
LINE
  5
26A66
330
747D
100
AcDbEntity
  8
部品1
 48
50.0
100
AcDbLine
 10
6257.207242936452
 20
1910.900942910246
 30
0.0
 11
6449.207242936452
 21
1910.900942910246
 31
0.0
  0
DIMENSION
  5
26A67
330
747D
100
AcDbEntity
  8
寸法
 48
50.0
100
AcDbDimension
  2
*D54
 10
6257.207242936452
 20
2330.568750826627
 30
0.0
 11
6353.207242936452
 21
2330.568750826627
 31
0.0
 70
   160
  1
120\P200\P280
 71
     5
 42
192.0
  3
INABA_S40G
100
AcDbAlignedDimension
 13
6449.207242936451
 23
1910.900942910246
 33
0.0
 14
6257.207242936452
 24
1910.900942910246
 34
0.0
100
AcDbRotatedDimension
1001
ACAD
1000
DSTYLE
1002
{
1070
   341
1005
0
1002
}
  0
MTEXT
  5
26A68
102
{ACAD_REACTORS
330
26ABD
102
}
330
747D
100
AcDbEntity
  8
寸法
 62
     7
 48
50.0
100
AcDbMText
 10
6690.945698797702
 20
949.551857178093
 30
0.0
 40
80.0
 41
0.8
 71
     4
 72
     1
  1
\A1;D10@300
  7
STYLE2
 73
     1
 44
1.0
1001
ACAD
1000
MTEXTBEGIN
1070
    73
1070
     1
1070
    44
1040
1.0
1070
    74
1070
     0
1000
MTEXTEND
  0
LINE
  5
26A69
330
747D
100
AcDbEntity
  8
細線
 48
50.0
100
AcDbLine
 10
6377.207242936458
 20
1560.688457035627
 30
0.0
 11
6449.207242936445
 21
1632.688457035621
 31
0.0
  0
LINE
  5
26A6A
330
747D
100
AcDbEntity
  8
細線
 48
50.0
100
AcDbLine
 10
6377.207242936453
 20
1587.629225398832
 30
0.0
 11
6449.207242936452
 21
1659.629225398832
 31
0.0
  0
LINE
  5
26A6B
330
747D
100
AcDbEntity
  8
細線
 48
50.0
100
AcDbLine
 10
6377.207242936458
 20
1318.221541766757
 30
0.0
 11
6449.207242936445
 21
1390.221541766758
 31
0.0
  0
LINE
  5
26A6C
330
747D
100
AcDbEntity
  8
細線
 48
50.0
100
AcDbLine
 10
6377.207242936458
 20
1372.103078493175
 30
0.0
 11
6449.207242936445
 21
1444.103078493172
 31
0.0
  0
LINE
  5
26A6D
330
747D
100
AcDbEntity
  8
細線
 48
50.0
100
AcDbLine
 10
6377.207242936458
 20
1345.162310129967
 30
0.0
 11
6449.207242936445
 21
1417.162310129962
 31
0.0
  0
LINE
  5
26A6E
330
747D
100
AcDbEntity
  8
部品1
 48
50.0
100
AcDbLine
 10
6449.207242936452
 20
1366.900942910246
 30
0.0
 11
6577.207242936452
 21
1366.900942910246
 31
0.0
  0
LINE
  5
26A6F
330
747D
100
AcDbEntity
  8
細線
 48
50.0
100
AcDbLine
 10
6377.207242936458
 20
1533.747688672417
 30
0.0
 11
6449.207242936445
 21
1605.747688672417
 31
0.0
  0
LINE
  5
26A70
330
747D
100
AcDbEntity
  8
部品1
 48
50.0
100
AcDbLine
 10
6345.207242936453
 20
1713.028157607368
 30
0.0
 11
6345.207242936453
 21
1771.155372304492
 31
0.0
  0
LINE
  5
26A71
330
747D
100
AcDbEntity
  8
細線
 48
50.0
100
AcDbLine
 10
6257.207242936452
 20
1683.155372304491
 30
0.0
 11
6329.207242936452
 21
1755.155372304492
 31
0.0
  0
LINE
  5
26A72
330
747D
100
AcDbEntity
  8
部品1
 48
50.0
100
AcDbLine
 10
6329.207242936452
 20
1713.028157607372
 30
0.0
 11
6329.207242936452
 21
1771.155372304492
 31
0.0
  0
LINE
  5
26A73
330
747D
100
AcDbEntity
  8
細線
 48
50.0
100
AcDbLine
 10
6257.207242936452
 20
1656.214603941284
 30
0.0
 11
6329.207242936452
 21
1728.214603941284
 31
0.0
  0
LINE
  5
26A74
330
747D
100
AcDbEntity
  8
細線
 48
50.0
100
AcDbLine
 10
6257.207242936452
 20
1629.273835578076
 30
0.0
 11
6340.961564965746
 21
1713.028157607368
 31
0.0
  0
LINE
  5
26A75
330
747D
100
AcDbEntity
  8
部品1
 48
50.0
100
AcDbLine
 10
6345.207242936453
 20
1713.028157607368
 30
0.0
 11
6329.207242936452
 21
1713.028157607372
 31
0.0
  0
LINE
  5
26A76
330
747D
100
AcDbEntity
  8
細線
 48
50.0
100
AcDbLine
 10
6129.207242936445
 20
1339.629225398832
 30
0.0
 11
6156.478960447866
 21
1366.900942910246
 31
0.0
  0
LINE
  5
26A77
330
747D
100
AcDbEntity
  8
細線
 48
50.0
100
AcDbLine
 10
6129.207242936445
 20
1312.688457035621
 30
0.0
 11
6183.419728811077
 21
1366.900942910246
 31
0.0
  0
LINE
  5
26A78
330
747D
100
AcDbEntity
  8
部品1
 48
50.0
100
AcDbLine
 10
6129.207242936452
 20
1366.900942910246
 30
0.0
 11
6257.207242936452
 21
1366.900942910246
 31
0.0
  0
LINE
  5
26A79
330
747D
100
AcDbEntity
  8
細線
 48
50.0
100
AcDbLine
 10
6345.207242936453
 20
1744.214603941284
 30
0.0
 11
6361.207242936452
 21
1760.214603941284
 31
0.0
  0
LINE
  5
26A7A
330
747D
100
AcDbEntity
  8
細線
 48
50.0
100
AcDbLine
 10
6345.207242936453
 20
1717.273835578076
 30
0.0
 11
6361.207242936452
 21
1733.273835578076
 31
0.0
  0
LINE
  5
26A7B
330
747D
100
AcDbEntity
  8
細線
 48
50.0
100
AcDbLine
 10
6257.207242936452
 20
1413.747688672417
 30
0.0
 11
6361.207242936458
 21
1517.747688672417
 31
0.0
  0
LINE
  5
26A7C
330
747D
100
AcDbEntity
  8
細線
 48
50.0
100
AcDbLine
 10
6257.207242936452
 20
1467.629225398832
 30
0.0
 11
6361.207242936452
 21
1571.629225398832
 31
0.0
  0
LINE
  5
26A7D
330
747D
100
AcDbEntity
  8
細線
 48
50.0
100
AcDbLine
 10
6257.207242936452
 20
1440.688457035624
 30
0.0
 11
6361.207242936458
 21
1544.688457035627
 31
0.0
  0
LINE
  5
26A7E
330
747D
100
AcDbEntity
  8
細線
 48
50.0
100
AcDbLine
 10
6520.0328883398
 20
1102.900942910246
 30
0.0
 11
6513.602107721453
 21
1126.900942910246
 31
0.0
  0
LINE
  5
26A7F
330
747D
100
AcDbEntity
  8
細線
 48
50.0
100
AcDbLine
 10
6563.057401164846
 20
1126.900942910246
 30
0.0
 11
6577.207242936452
 21
1141.050784681852
 31
0.0
  0
LINE
  5
26A80
330
747D
100
AcDbEntity
  8
細線
 48
50.0
100
AcDbLine
 10
6598.920933287047
 20
1102.900942910246
 30
0.0
 11
6592.490152668699
 21
1126.900942910246
 31
0.0
  0
LINE
  5
26A81
330
747D
100
AcDbEntity
  8
部品1
 48
50.0
100
AcDbLine
 10
6521.207242936452
 20
1238.900942910246
 30
0.0
 11
6521.207242936452
 21
1222.900942910246
 31
0.0
  0
LINE
  5
26A82
330
747D
100
AcDbEntity
  8
細線
 48
50.0
100
AcDbLine
 10
6401.4127909856
 20
1126.900942910246
 30
0.0
 11
6497.413678830738
 21
1222.901830755385
 31
0.0
  0
LINE
  5
26A83
330
747D
100
AcDbEntity
  8
細線
 48
50.0
100
AcDbLine
 10
6374.472022622396
 20
1126.900942910246
 30
0.0
 11
6470.472022622397
 21
1222.900942910246
 31
0.0
  0
LINE
  5
26A84
330
747D
100
AcDbEntity
  8
細線
 48
50.0
100
AcDbLine
 10
6441.144843392554
 20
1102.900942910246
 30
0.0
 11
6434.714062774208
 21
1126.900942910246
 31
0.0
  0
LINE
  5
26A85
330
747D
100
AcDbEntity
  8
細線
 48
50.0
100
AcDbLine
 10
6362.256798445309
 20
1102.900942910246
 30
0.0
 11
6355.826017826961
 21
1126.900942910246
 31
0.0
  0
ARC
  5
26A86
330
747D
100
AcDbEntity
  8
部品1
 48
50.0
100
AcDbCircle
 10
6353.207242936452
 20
1246.900942910246
 30
0.0
 40
24.0
100
AcDbArc
 50
340.5287793655256
 51
0.0
  0
CIRCLE
  5
26A87
330
747D
100
AcDbEntity
  8
部品1
 48
50.0
100
AcDbCircle
 10
6481.207242936452
 20
1246.900942910246
 30
0.0
 40
8.0
  0
LINE
  5
26A88
330
747D
100
AcDbEntity
  8
細線
 48
50.0
100
AcDbLine
 10
6513.412790985601
 20
1238.900942910246
 30
0.0
 11
6577.207242936452
 21
1302.695394861097
 31
0.0
  0
LINE
  5
26A89
330
747D
100
AcDbEntity
  8
細線
 48
50.0
100
AcDbLine
 10
6649.942262221455
 20
998.9009429102443
 30
0.0
 11
6657.207242936452
 21
1026.014220054634
 31
0.0
  0
LINE
  5
26A8A
330
747D
100
AcDbEntity
  8
細線
 48
50.0
100
AcDbLine
 10
6656.373042839804
 20
1022.900942910246
 30
0.0
 11
6657.207242936452
 21
1019.787665765881
 31
0.0
  0
LINE
  5
26A8B
330
747D
100
AcDbEntity
  8
細線
 48
50.0
100
AcDbLine
 10
6577.484997892558
 20
1022.900942910246
 30
0.0
 11
6583.915778510905
 21
998.9009429102461
 31
0.0
  0
LINE
  5
26A8C
330
747D
100
AcDbEntity
  8
細線
 48
50.0
100
AcDbLine
 10
6419.708907998066
 20
1022.900942910246
 30
0.0
 11
6426.139688616411
 21
998.9009429102461
 31
0.0
  0
LINE
  5
26A8D
330
747D
100
AcDbEntity
  8
細線
 48
50.0
100
AcDbLine
 10
6498.59695294531
 20
1022.900942910246
 30
0.0
 11
6505.027733563657
 21
998.9009429102461
 31
0.0
  0
LINE
  5
26A8E
330
747D
100
AcDbEntity
  8
細線
 48
50.0
100
AcDbLine
 10
6492.16617232696
 20
998.9009429102443
 30
0.0
 11
6526.463668958147
 21
1126.900942910244
 31
0.0
  0
LINE
  5
26A8F
330
747D
100
AcDbEntity
  8
細線
 48
50.0
100
AcDbLine
 10
6413.278127379712
 20
998.9009429102461
 30
0.0
 11
6447.575624010899
 21
1126.900942910244
 31
0.0
  0
LINE
  5
26A90
330
747D
100
AcDbEntity
  8
細線
 48
50.0
100
AcDbLine
 10
6571.054217274206
 20
998.9009429102461
 30
0.0
 11
6605.351713905391
 21
1126.900942910244
 31
0.0
  0
LINE
  5
26A91
330
747D
100
AcDbEntity
  8
部品1
 48
50.0
100
AcDbLine
 10
6657.207242936457
 20
1126.900942910246
 30
0.0
 11
6657.207242936457
 21
998.9009429102461
 31
0.0
  0
LINE
  5
26A92
330
747D
100
AcDbEntity
  8
部品1
 48
50.0
100
AcDbLine
 10
6345.207242936453
 20
1305.028157607368
 30
0.0
 11
6345.207242936453
 21
1246.900942910246
 31
0.0
  0
LINE
  5
26A93
330
747D
100
AcDbEntity
  8
細線
 48
50.0
100
AcDbLine
 10
6270.945875716736
 20
1238.900942910246
 30
0.0
 11
6329.207242936452
 21
1297.162310129964
 31
0.0
  0
LINE
  5
26A94
330
747D
100
AcDbEntity
  8
部品1
 48
50.0
100
AcDbLine
 10
6329.207242936452
 20
1305.028157607368
 30
0.0
 11
6329.207242936452
 21
1246.900942910246
 31
0.0
  0
LINE
  5
26A95
330
747D
100
AcDbEntity
  8
細線
 48
50.0
100
AcDbLine
 10
6185.886644079941
 20
1126.900942910246
 30
0.0
 11
6281.886644079941
 21
1222.900942910246
 31
0.0
  0
LINE
  5
26A96
330
747D
100
AcDbEntity
  8
細線
 48
50.0
100
AcDbLine
 10
6283.368753498056
 20
1102.900942910246
 30
0.0
 11
6276.937972879711
 21
1126.900942910246
 31
0.0
  0
LINE
  5
26A97
330
747D
100
AcDbEntity
  8
細線
 48
50.0
100
AcDbLine
 10
6204.480708550804
 20
1102.900942910246
 30
0.0
 11
6198.049927932458
 21
1126.900942910246
 31
0.0
  0
ARC
  5
26A98
330
747D
100
AcDbEntity
  8
部品1
 48
50.0
100
AcDbCircle
 10
6353.207242936452
 20
1246.900942910246
 30
0.0
 40
24.0
100
AcDbArc
 50
180.0
 51
199.4712206344743
  0
LINE
  5
26A99
330
747D
100
AcDbEntity
  8
細線
 48
50.0
100
AcDbLine
 10
6297.886644079941
 20
1238.900942910246
 30
0.0
 11
6329.207242936452
 21
1270.221541766757
 31
0.0
  0
CIRCLE
  5
26A9A
330
747D
100
AcDbEntity
  8
部品1
 48
50.0
100
AcDbCircle
 10
6225.207242936452
 20
1246.900942910246
 30
0.0
 40
8.0
  0
LINE
  5
26A9B
330
747D
100
AcDbEntity
  8
部品1
 48
50.0
100
AcDbLine
 10
6345.207242936453
 20
1305.028157607368
 30
0.0
 11
6329.207242936452
 21
1305.028157607368
 31
0.0
  0
LINE
  5
26A9C
330
747D
100
AcDbEntity
  8
細線
 48
50.0
100
AcDbLine
 10
6049.207242936453
 20
1112.240863876026
 30
0.0
 11
6053.135399274648
 21
1126.900942910246
 31
0.0
  0
LINE
  5
26A9D
330
747D
100
AcDbEntity
  8
細線
 48
50.0
100
AcDbLine
 10
6125.592663603553
 20
1102.900942910246
 30
0.0
 11
6119.161882985205
 21
1126.900942910246
 31
0.0
  0
LINE
  5
26A9E
330
747D
100
AcDbEntity
  8
部品1
 48
50.0
100
AcDbLine
 10
6185.207242936453
 20
1238.900942910246
 30
0.0
 11
6185.207242936453
 21
1222.900942910246
 31
0.0
  0
LINE
  5
26A9F
330
747D
100
AcDbEntity
  8
細線
 48
50.0
100
AcDbLine
 10
6132.005107353525
 20
1126.900942910246
 30
0.0
 11
6228.005107353525
 21
1222.900942910246
 31
0.0
  0
LINE
  5
26AA0
330
747D
100
AcDbEntity
  8
細線
 48
50.0
100
AcDbLine
 10
6158.945875716735
 20
1126.900942910246
 30
0.0
 11
6254.945875716735
 21
1222.900942910246
 31
0.0
  0
LINE
  5
26AA1
330
747D
100
AcDbEntity
  8
細線
 48
50.0
100
AcDbLine
 10
6261.932818103566
 20
1022.900942910246
 30
0.0
 11
6268.363598721913
 21
998.9009429102461
 31
0.0
  0
LINE
  5
26AA2
330
747D
100
AcDbEntity
  8
細線
 48
50.0
100
AcDbLine
 10
6340.82086305082
 20
1022.900942910246
 30
0.0
 11
6347.251643669165
 21
998.9009429102461
 31
0.0
  0
LINE
  5
26AA3
330
747D
100
AcDbEntity
  8
細線
 48
50.0
100
AcDbLine
 10
6104.156728209064
 20
1022.900942910246
 30
0.0
 11
6110.58750882741
 21
998.9009429102461
 31
0.0
  0
LINE
  5
26AA4
330
747D
100
AcDbEntity
  8
細線
 48
50.0
100
AcDbLine
 10
6183.044773156314
 20
1022.900942910246
 30
0.0
 11
6189.475553774663
 21
998.9009429102461
 31
0.0
  0
LINE
  5
26AA5
330
747D
100
AcDbEntity
  8
部品1
 48
50.0
100
AcDbLine
 10
6049.207242936454
 20
998.9009429102461
 30
0.0
 11
6049.207242936454
 21
1126.900942910246
 31
0.0
  0
LINE
  5
26AA6
330
747D
100
AcDbEntity
  8
細線
 48
50.0
100
AcDbLine
 10
6097.72594759071
 20
998.9009429102443
 30
0.0
 11
6132.023444221893
 21
1126.900942910244
 31
0.0
  0
LINE
  5
26AA7
330
747D
100
AcDbEntity
  8
細線
 48
50.0
100
AcDbLine
 10
6255.502037485214
 20
998.9009429102443
 30
0.0
 11
6289.799534116397
 21
1126.900942910244
 31
0.0
  0
LINE
  5
26AA8
330
747D
100
AcDbEntity
  8
細線
 48
50.0
100
AcDbLine
 10
6176.613992537968
 20
998.9009429102461
 30
0.0
 11
6210.911489169152
 21
1126.900942910246
 31
0.0
  0
LINE
  5
26AA9
330
747D
100
AcDbEntity
  8
細線
 48
50.0
100
AcDbLine
 10
6347.531254259186
 20
1126.900942910246
 30
0.0
 11
6443.531254259186
 21
1222.900942910246
 31
0.0
  0
CIRCLE
  5
26AAA
330
747D
100
AcDbEntity
  8
部品1
 48
50.0
100
AcDbCircle
 10
6353.207242936452
 20
1246.900942910246
 30
0.0
 40
8.0
  0
LINE
  5
26AAB
330
747D
100
AcDbEntity
  8
部品1
 48
50.0
100
AcDbLine
 10
6657.207242936457
 20
1126.900942910246
 30
0.0
 11
6049.207242936454
 21
1126.900942910246
 31
0.0
  0
LINE
  5
26AAC
330
747D
100
AcDbEntity
  8
部品1
 48
50.0
100
AcDbLine
 10
6185.207242936453
 20
1238.900942910246
 30
0.0
 11
6521.207242936452
 21
1238.900942910246
 31
0.0
  0
LINE
  5
26AAD
330
747D
100
AcDbEntity
  8
部品1
 48
50.0
100
AcDbLine
 10
6185.207242936453
 20
1222.900942910246
 30
0.0
 11
6521.207242936452
 21
1222.900942910246
 31
0.0
  0
LINE
  5
26AAE
330
747D
100
AcDbEntity
  8
部品1
 48
50.0
100
AcDbLine
 10
6657.207242936457
 20
998.9009429102461
 30
0.0
 11
6049.207242936454
 21
998.9009429102461
 31
0.0
  0
LINE
  5
26AAF
330
747D
100
AcDbEntity
  8
細線
 48
50.0
100
AcDbLine
 10
6334.390082432467
 20
998.9009429102461
 30
0.0
 11
6368.687579063649
 21
1126.900942910246
 31
0.0
  0
LINE
  5
26AB0
330
747D
100
AcDbEntity
  8
細線
 48
50.0
100
AcDbLine
 10
6345.207242936453
 20
1286.221541766757
 30
0.0
 11
6361.207242936458
 21
1302.221541766757
 31
0.0
  0
LINE
  5
26AB1
330
747D
100
AcDbEntity
  8
部品1
 48
50.0
100
AcDbLine
 10
6361.207242936458
 20
1246.900942910246
 30
0.0
 11
6361.207242936445
 21
1771.155372304492
 31
0.0
  0
LINE
  5
26AB2
330
747D
100
AcDbEntity
  8
部品1
 48
50.0
100
AcDbLine
 10
6377.207242936458
 20
1246.900942910246
 30
0.0
 11
6377.207242936453
 21
1771.155372304492
 31
0.0
  0
LINE
  5
26AB3
330
747D
100
AcDbEntity
  8
部品1
 48
50.0
100
AcDbLine
 10
6577.207242936452
 20
1366.900942910246
 30
0.0
 11
6577.207242936452
 21
1126.900942910246
 31
0.0
  0
LINE
  5
26AB4
330
747D
100
AcDbEntity
  8
細線
 48
50.0
100
AcDbLine
 10
6459.53125425918
 20
1238.900942910246
 30
0.0
 11
6577.207242936452
 21
1356.576931587512
 31
0.0
  0
LINE
  5
26AB5
330
747D
100
AcDbEntity
  8
細線
 48
50.0
100
AcDbLine
 10
6486.472022622397
 20
1238.900942910246
 30
0.0
 11
6577.207242936452
 21
1329.636163224305
 31
0.0
  0
LINE
  5
26AB6
330
747D
100
AcDbEntity
  8
部品1
 48
50.0
100
AcDbLine
 10
6129.207242936452
 20
1126.900942910246
 30
0.0
 11
6129.207242936452
 21
1366.900942910246
 31
0.0
  0
LINE
  5
26AB7
330
747D
100
AcDbEntity
  8
細線
 48
50.0
100
AcDbLine
 10
6244.005107353525
 20
1238.900942910246
 30
0.0
 11
6361.207242936452
 21
1356.103078493172
 31
0.0
  0
LINE
  5
26AB8
330
747D
100
AcDbEntity
  8
細線
 48
50.0
100
AcDbLine
 10
6337.073090413856
 20
1305.028157607368
 30
0.0
 11
6361.207242936458
 21
1329.162310129967
 31
0.0
  0
LINE
  5
26AB9
330
747D
100
AcDbEntity
  8
細線
 48
50.0
100
AcDbLine
 10
6129.207242936445
 20
1285.747688672417
 30
0.0
 11
6210.360497174281
 21
1366.900942910246
 31
0.0
  0
LEADER
  5
26ABA
330
747D
100
AcDbEntity
  8
寸法
 48
50.0
100
AcDbLeader
  3
INABA_S50G
 71
     0
 73
     0
 74
     0
 75
     1
 40
100.0
 41
222.7272727272727
 76
     3
 10
6353.207242936452
 20
1771.155372304492
 30
0.0
 10
6407.093179963847
 20
1870.390945157665
 30
0.0
 10
6532.093179963847
 20
1870.390945157665
 30
0.0
1001
ACAD
1000
DSTYLE
1002
{
1070
    40
1040
1.0
1070
   272
1070
     1
1070
   279
1070
     1
1070
   341
1005
0
1002
}
  0
LWPOLYLINE
  5
26ABB
330
747D
100
AcDbEntity
  8
部品1
 48
50.0
100
AcDbPolyline
 90
        2
 70
     0
 43
8.0
 10
6449.207242936451
 20
1670.900942910247
 10
6863.347144769409
 20
1670.900942910247
  0
MTEXT
  5
26ABC
102
{ACAD_REACTORS
330
26ABE
102
}
330
747D
100
AcDbEntity
  8
寸法
 62
     7
 48
50.0
100
AcDbMText
 10
6680.534902743136
 20
1211.503873967274
 30
0.0
 40
80.0
 41
0.8
 71
     4
 72
     1
  1
D10
  7
STYLE2
 73
     1
 44
1.0
1001
ACAD
1000
MTEXTBEGIN
1070
    73
1070
     1
1070
    44
1040
1.0
1070
    74
1070
     0
1000
MTEXTEND
  0
LEADER
  5
26ABD
330
747D
100
AcDbEntity
  8
寸法
 48
50.0
100
AcDbLeader
  3
INABA_S50G
 71
     0
 73
     0
 74
     0
 75
     1
 40
100.0
 41
540.3409090909091
 76
     3
 10
6427.152411949626
 20
1230.160412496721
 30
0.0
 10
6545.945698797703
 20
888.5295945018233
 30
0.0
 10
6670.945698797703
 20
888.5295945018233
 30
0.0
213
0.0
223
-1.022262676269383
233
0.0
1001
ACAD
1000
DSTYLE
1002
{
1070
    40
1040
1.0
1070
   272
1070
     1
1070
   279
1070
     1
1070
   341
1005
0
1002
}
  0
LEADER
  5
26ABE
330
747D
100
AcDbEntity
  8
寸法
 48
50.0
100
AcDbLeader
  3
INABA_S50G
 71
     0
 73
     0
 74
     0
 75
     1
 40
100.0
 41
225.0
 76
     3
 10
6481.110195288595
 20
1246.900942910246
 30
0.0
 10
6535.534902743137
 20
1151.503873967273
 30
0.0
 10
6660.534902743137
 20
1151.503873967273
 30
0.0
1001
ACAD
1000
DSTYLE
1002
{
1070
    40
1040
1.0
1070
   272
1070
     1
1070
   279
1070
     1
1070
   341
1005
0
1002
}
  0
MTEXT
  5
26ABF
102
{ACAD_REACTORS
330
26ABA
102
}
330
747D
100
AcDbEntity
  8
寸法
 62
     7
 48
50.0
100
AcDbMText
 10
6532.093179963847
 20
1933.456842203057
 30
0.0
 40
80.0
 41
0.8
 71
     4
 72
     1
  1
D13
  7
STYLE2
 73
     1
 44
1.0
1001
ACAD
1000
MTEXTBEGIN
1070
    73
1070
     1
1070
    44
1040
1.0
1070
    74
1070
     0
1000
MTEXTEND
  0
LINE
  5
26AC0
330
747D
100
AcDbEntity
  8
部品1
 48
50.0
100
AcDbLine
 10
6449.207242936452
 20
1910.900942910246
 30
0.0
 11
6449.207242936452
 21
1366.900942910246
 31
0.0
  0
LINE
  5
26AC1
330
747D
100
AcDbEntity
  8
部品1
 48
50.0
100
AcDbLine
 10
6257.207242936452
 20
1366.900942910246
 30
0.0
 11
6257.207242936452
 21
1910.900942910246
 31
0.0
  0
CIRCLE
  5
26AC2
330
747D
100
AcDbEntity
  8
部品1
 48
50.0
100
AcDbCircle
 10
6353.207242936452
 20
1771.155372304492
 30
0.0
 40
8.0
  0
ARC
  5
26AC3
330
747D
100
AcDbEntity
  8
部品1
 48
50.0
100
AcDbCircle
 10
6353.207242936452
 20
1771.155372304492
 30
0.0
 40
24.0
100
AcDbArc
 50
0.0
 51
180.0
  0
LINE
  5
26AC4
330
747D
100
AcDbEntity
  8
細線
 48
50.0
100
AcDbLine
 10
6377.207242936453
 20
1749.273835578076
 30
0.0
 11
6449.207242936452
 21
1821.273835578077
 31
0.0
  0
LEADER
  5
26AC5
330
747D
100
AcDbEntity
  8
寸法
 48
50.0
100
AcDbLeader
  3
INABA_S50G
 73
     0
 75
     1
 40
106.3636363636363
 41
893.1818181818181
 76
     3
 10
8088.646556113646
 20
1980.460942910247
 30
0.0
 10
8040.222483768706
 20
2354.52051762658
 30
0.0
 10
7915.222483768705
 20
2354.52051762658
 30
0.0
340
26AC6
1001
ACAD
1000
DSTYLE
1002
{
1070
   341
1005
0
1070
    40
1040
1.0
1070
   343
1005
0
1070
   344
1005
0
1002
}
  0
MTEXT
  5
26AC6
102
{ACAD_REACTORS
330
26AC5
102
}
330
747D
100
AcDbEntity
  8
寸法
 62
     7
 48
50.0
100
AcDbMText
 10
7890.222483768706
 20
2432.702335808398
 30
0.0
 40
80.0
 41
0.8
 71
     6
 72
     1
  1
\A1;アンカープレート L
  7
STYLE2
 73
     1
 44
1.0
1001
ACAD
1000
MTEXTBEGIN
1070
    73
1070
     1
1070
    44
1040
1.0
1070
    74
1070
     0
1000
MTEXTEND
  0
DIMENSION
  5
26AC7
330
747D
100
AcDbEntity
  8
寸法
 48
50.0
100
AcDbDimension
  2
*D55
 10
6577.207242936451
 20
588.471304905086
 30
0.0
 11
6333.110484258228
 21
588.471304905086
 31
0.0
 70
   160
  1
300
 71
     5
 42
448.0
  3
INABA_S40G
100
AcDbAlignedDimension
 13
6129.207242936452
 23
998.9009429102461
 33
0.0
 14
6577.207242936451
 24
998.9009429102461
 34
0.0
100
AcDbRotatedDimension
1001
ACAD
1000
DSTYLE
1002
{
1070
   341
1005
0
1002
}
  0
MTEXT
  5
26AC8
102
{ACAD_REACTORS
330
26AD0
102
}
330
747D
100
AcDbEntity
  8
寸法
 62
     7
 48
50.0
100
AcDbMText
 10
5958.272216741257
 20
1043.37824929181
 30
0.0
 40
80.0
 41
0.8
 71
     6
 72
     1
  1
D10
  7
STYLE2
 73
     1
 44
1.0
1001
ACAD
1000
MTEXTBEGIN
1070
    73
1070
     1
1070
    44
1040
1.0
1070
    74
1070
     0
1000
MTEXTEND
  0
MTEXT
  5
26AC9
102
{ACAD_REACTORS
330
26ACF
102
}
330
747D
100
AcDbEntity
  8
寸法
 62
     7
 48
50.0
100
AcDbMText
 10
5986.394944298692
 20
863.0620967523665
 30
0.0
 40
80.0
 41
0.8
 71
     6
 72
     1
  1
D13
  7
STYLE2
 73
     1
 44
1.0
1001
ACAD
1000
MTEXTBEGIN
1070
    73
1070
     1
1070
    44
1040
1.0
1070
    74
1070
     0
1000
MTEXTEND
  0
DIMENSION
  5
26ACA
330
747D
100
AcDbEntity
  8
寸法
 48
50.0
100
AcDbDimension
  2
*D56
 10
5522.170004374711
 20
1126.900942910246
 30
0.0
 11
5522.170004374711
 21
1498.441092566247
 31
0.0
 70
   160
  1
540
 71
     5
 42
784.0
  3
INABA_S40G
100
AcDbAlignedDimension
 13
6257.207242936452
 23
1910.900942910246
 33
0.0
 14
6049.207242936455
 24
1126.900942910246
 34
0.0
 50
90.0
100
AcDbRotatedDimension
1001
ACAD
1000
DSTYLE
1002
{
1070
   341
1005
0
1002
}
  0
MTEXT
  5
26ACB
102
{ACAD_REACTORS
330
26ACC
102
}
330
747D
100
AcDbEntity
  8
寸法
 62
     7
 48
50.0
100
AcDbMText
 10
6037.108763453179
 20
2123.417162912288
 30
0.0
 40
80.0
 41
0.8
 71
     6
 72
     1
  1
\A1;金コテ押エ
  7
STYLE2
 73
     1
 44
1.0
1001
ACAD
1000
MTEXTBEGIN
1070
    73
1070
     1
1070
    44
1040
1.0
1070
    74
1070
     0
1000
MTEXTEND
  0
LEADER
  5
26ACC
330
747D
100
AcDbEntity
  8
寸法
 48
50.0
100
AcDbLeader
  3
INABA_S50G
 71
     0
 73
     0
 75
     1
 40
130.1136363636363
 41
651.1363636363636
 76
     3
 10
6337.207242936451
 20
1910.900942910246
 30
0.0
 10
6224.782662772436
 20
2051.371708366835
 30
0.0
 10
6099.782662772435
 20
2051.371708366835
 30
0.0
1001
ACAD
1000
DSTYLE
1002
{
1070
    40
1040
1.0
1070
   272
1070
     1
1070
   279
1070
     1
1070
   341
1005
0
1002
}
  0
LEADER
  5
26ACD
330
747D
100
AcDbEntity
  8
寸法
 48
50.0
100
AcDbLeader
  3
INABA_S50G
 71
     0
 73
     0
 75
     1
 40
100.0
 41
540.3409090909091
 76
     3
 10
6361.207242936451
 20
1669.028157607369
 30
0.0
 10
6303.225006407753
 20
1447.557829066564
 30
0.0
 10
6178.225006407753
 20
1447.557829066564
 30
0.0
213
-9.732182305893367
223
-4.643716661138569
233
0.0
1001
ACAD
1000
DSTYLE
1002
{
1070
    40
1040
1.0
1070
   272
1070
     1
1070
   279
1070
     1
1070
   341
1005
0
1002
}
  0
MTEXT
  5
26ACE
102
{ACAD_REACTORS
330
26ACD
102
}
330
747D
100
AcDbEntity
  8
寸法
 62
     7
 48
50.0
100
AcDbMText
 10
6167.957188713647
 20
1512.201545727703
 30
0.0
 40
80.0
 41
0.8
 71
     6
 72
     1
  1
\A1;D10@300
  7
STYLE2
 73
     1
 44
1.0
1001
ACAD
1000
MTEXTBEGIN
1070
    73
1070
     1
1070
    44
1040
1.0
1070
    74
1070
     0
1000
MTEXTEND
  0
LEADER
  5
26ACF
330
747D
100
AcDbEntity
  8
寸法
 48
50.0
100
AcDbLeader
  3
INABA_S50G
 71
     0
 73
     0
 75
     1
 40
100.0
 41
222.7272727272727
 76
     3
 10
6353.207242936452
 20
1246.900942910246
 30
0.0
 10
6131.394944298692
 20
803.0620967523663
 30
0.0
 10
6006.394944298692
 20
803.0620967523663
 30
0.0
1001
ACAD
1000
DSTYLE
1002
{
1070
    40
1040
1.0
1070
   272
1070
     1
1070
   279
1070
     1
1070
   341
1005
0
1002
}
  0
LEADER
  5
26AD0
330
747D
100
AcDbEntity
  8
寸法
 48
50.0
100
AcDbLeader
  3
INABA_S50G
 71
     0
 73
     0
 75
     1
 40
100.0
 41
225.0
 76
     3
 10
6225.110195288594
 20
1246.900942910246
 30
0.0
 10
6103.272216741258
 20
983.3782492918098
 30
0.0
 10
5978.272216741258
 20
983.3782492918098
 30
0.0
1001
ACAD
1000
DSTYLE
1002
{
1070
    40
1040
1.0
1070
   272
1070
     1
1070
   279
1070
     1
1070
   341
1005
0
1002
}
  0
DIMENSION
  5
26AD1
330
747D
100
AcDbEntity
  8
寸法
 48
50.0
100
AcDbDimension
  2
*D57
 10
5986.786929203993
 20
1126.900942910246
 30
0.0
 11
5986.786929203993
 21
1246.900942910247
 31
0.0
 70
   160
  1
150
 71
     5
 42
240.0
  3
INABA_S40G
100
AcDbAlignedDimension
 13
6129.207242936452
 23
1366.900942910246
 33
0.0
 14
6049.207242936455
 24
1126.900942910246
 34
0.0
 50
90.0
100
AcDbRotatedDimension
1001
ACAD
1000
DSTYLE
1002
{
1070
   341
1005
0
1002
}
  0
TEXT
  5
26AD2
330
747D
100
AcDbEntity
  8
部品1
 48
50.0
100
AcDbText
 10
5843.067341103495
 20
1682.139935193501
 30
0.0
 40
80.0
  1
▽G.L
  7
STYLE2
100
AcDbText
  0
LWPOLYLINE
  5
26AD3
330
747D
100
AcDbEntity
  8
部品1
 48
50.0
100
AcDbPolyline
 90
        2
 70
     0
 43
8.0
 10
5843.067341103495
 20
1670.900942910247
 10
6257.207242936452
 20
1670.900942910247
  0
MTEXT
  5
26AD4
102
{ACAD_REACTORS
330
26AD5
102
}
330
747D
100
AcDbEntity
  8
寸法
 62
     7
 48
50.0
100
AcDbMText
 10
7863.579477560349
 20
2793.386607715912
 30
0.0
 40
80.0
 41
0.8
 71
     6
 72
     1
  1
\A1;φ70スリーブ
  7
STYLE2
 73
     1
 44
1.0
1001
ACAD
1000
MTEXTBEGIN
1070
    73
1070
     1
1070
    44
1040
1.0
1070
    74
1070
     0
1000
MTEXTEND
  0
LEADER
  5
26AD5
330
747D
100
AcDbEntity
  8
寸法
 48
50.0
100
AcDbLeader
  3
INABA_S50G
 73
     0
 75
     1
 40
113.1818181818182
 41
608.6363636363635
 76
     3
 10
8147.383306251697
 20
1860.416616268525
 30
0.0
 10
8013.579477560348
 20
2711.795698625003
 30
0.0
 10
7888.579477560348
 20
2711.795698625003
 30
0.0
340
26AD4
1001
ACAD
1000
DSTYLE
1002
{
1070
   341
1005
0
1070
    40
1040
1.0
1070
   343
1005
0
1070
   344
1005
0
1002
}
  0
LINE
  5
26AD6
330
747D
100
AcDbEntity
  8
部品1
100
AcDbLine
 10
5186.538804127189
 20
3310.239610110832
 30
0.0
 11
5186.538804127191
 21
345.9326405261845
 31
0.0
  0
LEADER
  5
26AD7
330
747D
100
AcDbEntity
  8
寸法
 48
50.0
100
AcDbLeader
  3
INABA_S50G
 73
     0
 74
     0
 75
     1
 40
80.0
 41
435.0
 76
     3
 10
8187.646556113646
 20
1960.060942910247
 30
0.0
 10
8230.191018532966
 20
2110.284269063476
 30
0.0
 10
8355.191018532966
 20
2110.284269063476
 30
0.0
340
26AD8
1001
ACAD
1000
DSTYLE
1002
{
1070
   341
1005
0
1070
    40
1040
1.0
1070
   343
1005
0
1070
   344
1005
0
1002
}
  0
MTEXT
  5
26AD8
102
{ACAD_REACTORS
330
26AD7
102
}
330
747D
100
AcDbEntity
  8
部品1
 62
     7
 48
50.0
100
AcDbMText
 10
8380.191018532967
 20
2175.284269063476
 30
0.0
 40
80.0
 41
0.8
 71
     4
 72
     1
  1
M10X160
  7
STYLE2
 73
     1
 44
1.0
1001
ACAD
1000
MTEXTBEGIN
1070
    73
1070
     1
1070
    44
1040
1.0
1070
    74
1070
     0
1000
MTEXTEND
  0
DIMENSION
  5
26AD9
330
747D
100
AcDbEntity
  8
寸法
 48
50.0
100
AcDbDimension
  2
*D58
 10
9149.169822001516
 20
1910.900942910246
 30
0.0
 11
9149.169822001516
 21
1444.892039488763
 31
0.0
 70
   160
  1
20～25
 71
     5
 42
52.76000000000113
  3
INABA_S40G
100
AcDbAlignedDimension
 13
8184.046556113647
 23
1963.660942910247
 33
0.0
 14
8371.246556113645
 24
1910.900942910246
 34
0.0
 50
90.0
100
AcDbRotatedDimension
1001
ACAD
1000
DSTYLE
1002
{
1070
   341
1005
0
1002
}
  0
DIMENSION
  5
26ADA
330
747D
100
AcDbEntity
  8
寸法
 48
50.0
100
AcDbDimension
  2
*D59
 10
8873.115155882489
 20
1586.900942910245
 30
0.0
 11
8773.115155882489
 21
1748.900942910247
 31
0.0
 70
    32
  1
180
 71
     5
 42
324.0000000000009
  3
INABA_S40G
100
AcDbAlignedDimension
 13
8371.246556113645
 23
1910.900942910246
 33
0.0
 14
8371.246556113645
 24
1586.900942910245
 34
0.0
 50
90.0
100
AcDbRotatedDimension
1001
ACAD
1000
DSTYLE
1002
{
1070
   341
1005
0
1002
}
  0
TEXT
  5
26ADB
330
747D
100
AcDbEntity
  8
部品1
 48
50.0
100
AcDbText
 10
8375.600140398073
 20
2266.779623672446
 30
0.0
 40
80.0
  1
基礎ボルト(市販品)
  7
STYLE2
100
AcDbText
  0
LWPOLYLINE
  5
26ADC
330
747D
100
AcDbEntity
  8
部品1
 48
50.0
100
AcDbPolyline
 90
        2
 70
     0
 43
8.0
 10
8371.246556113645
 20
1670.900942910247
 10
8664.949019513029
 20
1670.900942910247
  0
MTEXT
  5
26ADD
102
{ACAD_REACTORS
330
26ADE
102
}
330
747D
100
AcDbEntity
  8
部品1
 62
     7
 48
50.0
100
AcDbMText
 10
8410.518146482486
 20
2611.396315997506
 30
0.0
 40
80.0
 41
0.8
 71
     4
 72
     1
  1
\A1;ワッシャー(市販品)
  7
STYLE2
 73
     1
 44
1.0
1001
ACAD
1000
MTEXTBEGIN
1070
    73
1070
     1
1070
    44
1040
1.0
1070
    74
1070
     0
1000
MTEXTEND
  0
LEADER
  5
26ADE
330
747D
100
AcDbEntity
  8
寸法
 48
50.0
100
AcDbLeader
  3
INABA_S50G
 73
     0
 74
     0
 75
     1
 40
102.2727272727273
 41
906.8181818181818
 76
     3
 10
8218.646556113647
 20
2180.024231354526
 30
0.0
 10
8260.518146482485
 20
2535.259952361143
 30
0.0
 10
8385.518146482485
 20
2535.259952361143
 30
0.0
340
26ADD
1001
ACAD
1000
DSTYLE
1002
{
1070
   341
1005
0
1070
    40
1040
1.0
1070
   343
1005
0
1070
   344
1005
0
1002
}
  0
MTEXT
  5
26ADF
102
{ACAD_REACTORS
330
26AE0
102
}
330
747D
100
AcDbEntity
  8
部品1
 62
     7
 48
50.0
100
AcDbMText
 10
8379.000527227002
 20
2796.365398762294
 30
0.0
 40
80.0
 41
0.8
 71
     4
 72
     1
  1
\A1;ナット(市販品)
  7
STYLE2
 73
     1
 44
1.0
1001
ACAD
1000
MTEXTBEGIN
1070
    73
1070
     1
1070
    44
1040
1.0
1070
    74
1070
     0
1000
MTEXTEND
  0
LEADER
  5
26AE0
330
747D
100
AcDbEntity
  8
寸法
 48
50.0
100
AcDbLeader
  3
INABA_S50G
 73
     0
 74
     0
 75
     1
 40
102.2727272727273
 41
680.0000000000001
 76
     3
 10
8194.646556113646
 20
2309.776224019389
 30
0.0
 10
8229.000527227002
 20
2720.22903512593
 30
0.0
 10
8354.000527227002
 20
2720.22903512593
 30
0.0
340
26ADF
1001
ACAD
1000
DSTYLE
1002
{
1070
   341
1005
0
1070
    40
1040
1.0
1070
   343
1005
0
1070
   344
1005
0
1002
}
  0
LINE
  5
26AE1
330
747D
100
AcDbEntity
  8
部品1
100
AcDbLine
 10
5186.538804127192
 20
345.9326405261845
 30
0.0
 11
11257.52398951344
 21
345.9326405261845
 31
0.0
  0
LINE
  5
26AE2
330
747D
100
AcDbEntity
  8
部品1
100
AcDbLine
 10
11257.52398951344
 20
3070.23961011083
 30
0.0
 11
5186.538804127191
 21
3070.23961011083
 31
0.0
  0
LINE
  5
26AE3
330
747D
100
AcDbEntity
  8
部品1
100
AcDbLine
 10
11257.52398951344
 20
3310.239610110832
 30
0.0
 11
5186.538804127187
 21
3310.239610110832
 31
0.0
  0
ENDSEC
  0
SECTION
  2
OBJECTS
  0
DICTIONARY
  5
7471
330
0
100
AcDbDictionary
281
     1
  3
ACAD_COLOR
350
173D2
  3
ACAD_GROUP
350
7472
  3
ACAD_LAYOUT
350
173D3
  3
ACAD_MATERIAL
350
173D1
  3
ACAD_MLINESTYLE
350
7473
  3
ACAD_PLOTSETTINGS
350
173D4
  3
ACAD_PLOTSTYLENAME
350
173CF
  3
ACDBHEADERROUNDTRIPXREC
350
26B71
  3
AcDbVariableDictionary
350
2671B
  3
CONTENTDICTIONARY
350
E71C
  3
DRAWINGVARIABLESDICT
350
F3B9
  0
DICTIONARY
  5
1758F
330
7467
100
AcDbDictionary
280
     1
281
     1
  3
ACAD_LAYERSTATES
360
17590
  0
DICTIONARY
  5
173D2
102
{ACAD_REACTORS
330
7471
102
}
330
7471
100
AcDbDictionary
281
     1
  0
DICTIONARY
  5
7472
102
{ACAD_REACTORS
330
7471
102
}
330
7471
100
AcDbDictionary
281
     1
  3
*A1
350
1D2A9
  0
DICTIONARY
  5
173D3
102
{ACAD_REACTORS
330
7471
102
}
330
7471
100
AcDbDictionary
281
     1
  3
Model
350
173D5
  3
レイアウト1
350
173D6
  0
DICTIONARY
  5
173D1
102
{ACAD_REACTORS
330
7471
102
}
330
7471
100
AcDbDictionary
281
     1
  0
DICTIONARY
  5
7473
102
{ACAD_REACTORS
330
7471
102
}
330
7471
100
AcDbDictionary
281
     1
  3
STANDARD
350
7480
  0
DICTIONARY
  5
173D4
102
{ACAD_REACTORS
330
7471
102
}
330
7471
100
AcDbDictionary
281
     1
  0
ACDBDICTIONARYWDFLT
  5
173CF
102
{ACAD_REACTORS
330
7471
102
}
330
7471
100
AcDbDictionary
281
     1
  3
Normal
350
173D0
100
AcDbDictionaryWithDefault
340
173D0
  0
DICTIONARY
  5
26B71
102
{ACAD_REACTORS
330
7471
102
}
330
7471
100
AcDbDictionary
281
     1
  3
COLORDICT
350
26B73
  3
MATERIALDICT
350
26B72
  0
DICTIONARY
  5
2671B
102
{ACAD_REACTORS
330
7471
102
}
330
7471
100
AcDbDictionary
281
     1
  3
DIMASSOC
350
2671C
  3
PROJECTNAME
350
2671D
  0
DICTIONARY
  5
E71C
102
{ACAD_REACTORS
330
7471
102
}
330
7471
100
AcDbDictionary
281
     1
  0
DICTIONARY
  5
F3B9
102
{ACAD_REACTORS
330
7471
102
}
330
7471
100
AcDbDictionary
281
     1
1001
DRAWINGVARIABLESXDATA
1000
POLARMODE
1000
1
  0
DICTIONARY
  5
17590
102
{ACAD_REACTORS
330
1758F
102
}
330
1758F
100
AcDbDictionary
281
     1
  0
GROUP
  5
1D2A9
102
{ACAD_REACTORS
330
7472
102
}
330
7472
100
AcDbGroup
300

 70
     1
 71
     1
  0
LAYOUT
  5
173D5
102
{ACAD_XDICTIONARY
360
26B74
102
}
102
{ACAD_REACTORS
330
173D3
102
}
330
173D3
100
AcDbPlotSettings
  1

  2
Microsoft Office Document Image Writer
  4

  6

 40
0.0
 41
0.0
 42
0.0
 43
0.0
 44
0.0
 45
0.0
 46
0.0
 47
0.0
 48
0.0
 49
0.0
140
0.0
141
0.0
142
1.0
143
1.0
 70
  1712
 72
     0
 73
     0
 74
     0
  7

 75
     0
147
1.0
148
0.0
149
0.0
100
AcDbLayout
  1
Model
 70
     1
 71
     0
 10
0.0
 20
0.0
 11
12.0
 21
9.0
 12
0.0
 22
0.0
 32
0.0
 14
0.0
 24
0.0
 34
0.0
 15
0.0
 25
0.0
 35
0.0
146
0.0
 13
0.0
 23
0.0
 33
0.0
 16
1.0
 26
0.0
 36
0.0
 17
0.0
 27
1.0
 37
0.0
 76
     0
330
747D
  0
LAYOUT
  5
173D6
102
{ACAD_XDICTIONARY
360
26B76
102
}
102
{ACAD_REACTORS
330
173D3
102
}
330
173D3
100
AcDbPlotSettings
  1

  2
Microsoft Office Document Image Writer
  4

  6

 40
0.0
 41
0.0
 42
0.0
 43
0.0
 44
0.0
 45
0.0
 46
0.0
 47
0.0
 48
0.0
 49
0.0
140
0.0
141
0.0
142
1.0
143
1.0
 70
   688
 72
     0
 73
     0
 74
     5
  7

 75
    16
147
1.0
148
0.0
149
0.0
100
AcDbLayout
  1
レイアウト1
 70
     0
 71
     1
 10
0.0
 20
0.0
 11
420.0
 21
297.0
 12
0.0
 22
0.0
 32
0.0
 14
1.000000000000000E+20
 24
1.000000000000000E+20
 34
1.000000000000000E+20
 15
-1.000000000000000E+20
 25
-1.000000000000000E+20
 35
-1.000000000000000E+20
146
0.0
 13
0.0
 23
0.0
 33
0.0
 16
1.0
 26
0.0
 36
0.0
 17
0.0
 27
1.0
 37
0.0
 76
     0
330
747A
  0
MLINESTYLE
  5
7480
102
{ACAD_REACTORS
330
7473
102
}
330
7473
100
AcDbMlineStyle
  2
STANDARD
 70
     0
  3

 62
     0
 51
90.0
 52
90.0
 71
     2
 49
0.5
 62
   256
  6
BYLAYER
 49
-0.5
 62
   256
  6
BYLAYER
  0
ACDBPLACEHOLDER
  5
173D0
102
{ACAD_REACTORS
330
173CF
102
}
330
173CF
  0
XRECORD
  5
26B73
102
{ACAD_REACTORS
330
26B71
102
}
330
26B71
100
AcDbXrecord
280
     1
340
173D2
  0
XRECORD
  5
26B72
102
{ACAD_REACTORS
330
26B71
102
}
330
26B71
100
AcDbXrecord
280
     1
340
173D1
  0
DICTIONARYVAR
  5
2671C
102
{ACAD_REACTORS
330
2671B
102
}
330
2671B
100
DictionaryVariables
280
     0
  1
1
  0
DICTIONARYVAR
  5
2671D
102
{ACAD_REACTORS
330
2671B
102
}
330
2671B
100
DictionaryVariables
280
     0
  1

  0
DICTIONARY
  5
26B74
330
173D5
100
AcDbDictionary
280
     1
281
     1
  3
ACAD_XREC_ROUNDTRIP
360
26B75
  0
DICTIONARY
  5
26B76
330
173D6
100
AcDbDictionary
280
     1
281
     1
  3
ACAD_XREC_ROUNDTRIP
360
26B77
  0
XRECORD
  5
26B75
102
{ACAD_REACTORS
330
26B74
102
}
330
26B74
100
AcDbXrecord
280
     1
102
SHADEPLOT
 70
     0
102
SHADEPLOTRESLEVEL
 70
     2
102
SHADEPLOTCUSTOMDPI
 70
   300
  0
XRECORD
  5
26B77
102
{ACAD_REACTORS
330
26B76
102
}
330
26B76
100
AcDbXrecord
280
     1
102
SHADEPLOT
 70
     0
102
SHADEPLOTRESLEVEL
 70
     2
102
SHADEPLOTCUSTOMDPI
 70
   300
  0
ENDSEC
  0
EOF
