  0
SECTION
  2
HEADER
  9
$ACADVER
  1
AC1015
  9
$ACADMAINTVER
 70
    20
  9
$DWGCODEPAGE
  3
ANSI_932
  9
$INSBASE
 10
0.0
 20
0.0
 30
0.0
  9
$EXTMIN
 10
139.9999999999995
 20
-0.0000000000000909
 30
0.0
  9
$EXTMAX
 10
16307.2
 20
11409.6
 30
0.0
  9
$LIMMIN
 10
0.0
 20
0.0
  9
$LIMMAX
 10
16800.0
 20
11880.0
  9
$ORTHOMODE
 70
     0
  9
$REGENMODE
 70
     1
  9
$FILLMODE
 70
     1
  9
$QTEXTMODE
 70
     0
  9
$MIRRTEXT
 70
     1
  9
$LTSCALE
 40
20.0
  9
$ATTMODE
 70
     1
  9
$TEXTSIZE
 40
4.0
  9
$TRACEWID
 40
1.0
  9
$TEXTSTYLE
  7
STYLE1
  9
$CLAYER
  8
寸法
  9
$CELTYPE
  6
BYLAYER
  9
$CECOLOR
 62
   256
  9
$CELTSCALE
 40
50.0
  9
$DISPSILH
 70
     0
  9
$DIMSCALE
 40
40.0
  9
$DIMASZ
 40
2.5
  9
$DIMEXO
 40
0.5
  9
$DIMDLI
 40
7.0
  9
$DIMRND
 40
0.0
  9
$DIMDLE
 40
0.0
  9
$DIMEXE
 40
1.5
  9
$DIMTP
 40
0.0
  9
$DIMTM
 40
0.0
  9
$DIMTXT
 40
3.0
  9
$DIMCEN
 40
0.0
  9
$DIMTSZ
 40
0.0
  9
$DIMTOL
 70
     0
  9
$DIMLIM
 70
     0
  9
$DIMTIH
 70
     0
  9
$DIMTOH
 70
     0
  9
$DIMSE1
 70
     0
  9
$DIMSE2
 70
     0
  9
$DIMTAD
 70
     3
  9
$DIMZIN
 70
     8
  9
$DIMBLK
  1

  9
$DIMASO
 70
     1
  9
$DIMSHO
 70
     1
  9
$DIMPOST
  1

  9
$DIMAPOST
  1

  9
$DIMALT
 70
     0
  9
$DIMALTD
 70
     2
  9
$DIMALTF
 40
0.0394
  9
$DIMLFAC
 40
1.0
  9
$DIMTOFL
 70
     1
  9
$DIMTVP
 40
0.0
  9
$DIMTIX
 70
     1
  9
$DIMSOXD
 70
     0
  9
$DIMSAH
 70
     1
  9
$DIMBLK1
  1
DOTSMALL
  9
$DIMBLK2
  1
DOTSMALL
  9
$DIMSTYLE
  2
INABA_S40G
  9
$DIMCLRD
 70
     0
  9
$DIMCLRE
 70
     0
  9
$DIMCLRT
 70
     7
  9
$DIMTFAC
 40
1.0
  9
$DIMGAP
 40
1.0
  9
$DIMJUST
 70
     0
  9
$DIMSD1
 70
     0
  9
$DIMSD2
 70
     0
  9
$DIMTOLJ
 70
     1
  9
$DIMTZIN
 70
     0
  9
$DIMALTZ
 70
     0
  9
$DIMALTTZ
 70
     0
  9
$DIMUPT
 70
     0
  9
$DIMDEC
 70
     1
  9
$DIMTDEC
 70
     4
  9
$DIMALTU
 70
     2
  9
$DIMALTTD
 70
     2
  9
$DIMTXSTY
  7
STYLE1
  9
$DIMAUNIT
 70
     0
  9
$DIMADEC
 70
     0
  9
$DIMALTRND
 40
0.0
  9
$DIMAZIN
 70
     0
  9
$DIMDSEP
 70
    46
  9
$DIMATFIT
 70
     3
  9
$DIMFRAC
 70
     0
  9
$DIMLDRBLK
  1

  9
$DIMLUNIT
 70
     2
  9
$DIMLWD
 70
    -2
  9
$DIMLWE
 70
    -2
  9
$DIMTMOVE
 70
     0
  9
$LUNITS
 70
     2
  9
$LUPREC
 70
     1
  9
$SKETCHINC
 40
1.0
  9
$FILLETRAD
 40
3.0
  9
$AUNITS
 70
     0
  9
$AUPREC
 70
     0
  9
$MENU
  1
acad
  9
$ELEVATION
 40
0.0
  9
$PELEVATION
 40
0.0
  9
$THICKNESS
 40
0.0
  9
$LIMCHECK
 70
     0
  9
$CHAMFERA
 40
0.0
  9
$CHAMFERB
 40
0.0
  9
$CHAMFERC
 40
0.0
  9
$CHAMFERD
 40
0.0
  9
$SKPOLY
 70
     0
  9
$TDCREATE
 40
2451368.612993866
  9
$TDUCREATE
 40
2451368.237993866
  9
$TDUPDATE
 40
2455827.641090995
  9
$TDUUPDATE
 40
2455827.266090995
  9
$TDINDWG
 40
0.8426852778
  9
$TDUSRTIMER
 40
0.8426852778
  9
$USRTIMER
 70
     1
  9
$ANGBASE
 50
0.0
  9
$ANGDIR
 70
     0
  9
$PDMODE
 70
     3
  9
$PDSIZE
 40
2.0
  9
$PLINEWID
 40
0.0
  9
$SPLFRAME
 70
     0
  9
$SPLINETYPE
 70
     6
  9
$SPLINESEGS
 70
     8
  9
$HANDSEED
  5
266CB
  9
$SURFTAB1
 70
     6
  9
$SURFTAB2
 70
     6
  9
$SURFTYPE
 70
     6
  9
$SURFU
 70
     6
  9
$SURFV
 70
     6
  9
$UCSBASE
  2

  9
$UCSNAME
  2

  9
$UCSORG
 10
0.0
 20
0.0
 30
0.0
  9
$UCSXDIR
 10
1.0
 20
0.0
 30
0.0
  9
$UCSYDIR
 10
0.0
 20
1.0
 30
0.0
  9
$UCSORTHOREF
  2

  9
$UCSORTHOVIEW
 70
     0
  9
$UCSORGTOP
 10
0.0
 20
0.0
 30
0.0
  9
$UCSORGBOTTOM
 10
0.0
 20
0.0
 30
0.0
  9
$UCSORGLEFT
 10
0.0
 20
0.0
 30
0.0
  9
$UCSORGRIGHT
 10
0.0
 20
0.0
 30
0.0
  9
$UCSORGFRONT
 10
0.0
 20
0.0
 30
0.0
  9
$UCSORGBACK
 10
0.0
 20
0.0
 30
0.0
  9
$PUCSBASE
  2

  9
$PUCSNAME
  2

  9
$PUCSORG
 10
0.0
 20
0.0
 30
0.0
  9
$PUCSXDIR
 10
1.0
 20
0.0
 30
0.0
  9
$PUCSYDIR
 10
0.0
 20
1.0
 30
0.0
  9
$PUCSORTHOREF
  2

  9
$PUCSORTHOVIEW
 70
     0
  9
$PUCSORGTOP
 10
0.0
 20
0.0
 30
0.0
  9
$PUCSORGBOTTOM
 10
0.0
 20
0.0
 30
0.0
  9
$PUCSORGLEFT
 10
0.0
 20
0.0
 30
0.0
  9
$PUCSORGRIGHT
 10
0.0
 20
0.0
 30
0.0
  9
$PUCSORGFRONT
 10
0.0
 20
0.0
 30
0.0
  9
$PUCSORGBACK
 10
0.0
 20
0.0
 30
0.0
  9
$USERI1
 70
     0
  9
$USERI2
 70
     0
  9
$USERI3
 70
     0
  9
$USERI4
 70
     0
  9
$USERI5
 70
     0
  9
$USERR1
 40
0.0
  9
$USERR2
 40
0.0
  9
$USERR3
 40
0.0
  9
$USERR4
 40
0.0
  9
$USERR5
 40
0.0
  9
$WORLDVIEW
 70
     1
  9
$SHADEDGE
 70
     3
  9
$SHADEDIF
 70
    70
  9
$TILEMODE
 70
     1
  9
$MAXACTVP
 70
    16
  9
$PINSBASE
 10
0.0
 20
0.0
 30
0.0
  9
$PLIMCHECK
 70
     0
  9
$PEXTMIN
 10
1.000000000000000E+20
 20
1.000000000000000E+20
 30
1.000000000000000E+20
  9
$PEXTMAX
 10
-1.000000000000000E+20
 20
-1.000000000000000E+20
 30
-1.000000000000000E+20
  9
$PLIMMIN
 10
0.0
 20
0.0
  9
$PLIMMAX
 10
420.0
 20
297.0
  9
$UNITMODE
 70
     0
  9
$VISRETAIN
 70
     0
  9
$PLINEGEN
 70
     0
  9
$PSLTSCALE
 70
     0
  9
$TREEDEPTH
 70
  3020
  9
$CMLSTYLE
  2
STANDARD
  9
$CMLJUST
 70
     0
  9
$CMLSCALE
 40
1.0
  9
$PROXYGRAPHICS
 70
     1
  9
$MEASUREMENT
 70
     1
  9
$CELWEIGHT
370
    -1
  9
$ENDCAPS
280
     0
  9
$JOINSTYLE
280
     0
  9
$LWDISPLAY
290
     0
  9
$INSUNITS
 70
     0
  9
$HYPERLINKBASE
  1

  9
$STYLESHEET
  1
ACA3.ctb
  9
$XEDIT
290
     1
  9
$CEPSNTYPE
380
     0
  9
$PSTYLEMODE
290
     1
  9
$FINGERPRINTGUID
  2
{5EAC461A-2277-4BF8-9AB0-99C43BB394F0}
  9
$VERSIONGUID
  2
{5ACA6D97-C399-41DD-AA59-BE93390CA94C}
  9
$EXTNAMES
290
     1
  9
$PSVPSCALE
 40
0.0
  9
$OLESTARTUP
290
     0
  0
ENDSEC
  0
SECTION
  2
CLASSES
  0
CLASS
  1
ACDBDICTIONARYWDFLT
  2
AcDbDictionaryWithDefault
  3
ObjectDBX Classes
 90
        0
280
     0
281
     0
  0
CLASS
  1
DICTIONARYVAR
  2
AcDbDictionaryVar
  3
ObjectDBX Classes
 90
        0
280
     0
281
     0
  0
CLASS
  1
ACDBPLACEHOLDER
  2
AcDbPlaceHolder
  3
ObjectDBX Classes
 90
        0
280
     0
281
     0
  0
CLASS
  1
LAYOUT
  2
AcDbLayout
  3
ObjectDBX Classes
 90
        0
280
     0
281
     0
  0
ENDSEC
  0
SECTION
  2
TABLES
  0
TABLE
  2
VPORT
  5
746D
330
0
100
AcDbSymbolTable
 70
     2
  0
VPORT
  5
266C3
330
746D
100
AcDbSymbolTableRecord
100
AcDbViewportTableRecord
  2
*Active
 70
     0
 10
0.0
 20
0.0
 11
1.0
 21
1.0
 12
8400.000000000002
 22
6549.702152612964
 13
0.0
 23
0.0
 14
10.0
 24
10.0
 15
10.0
 25
10.0
 16
0.0
 26
0.0
 36
1.0
 17
0.0
 27
0.0
 37
0.0
 40
13196.13746169708
 41
1.522222222222222
 42
50.0
 43
0.0
 44
0.0
 50
0.0
 51
0.0
 71
     0
 72
     0
 73
     1
 74
     0
 75
     0
 76
     0
 77
     0
 78
     0
281
     0
 65
     1
110
0.0
120
0.0
130
0.0
111
1.0
121
0.0
131
0.0
112
0.0
122
1.0
132
0.0
 79
     0
146
0.0
  0
ENDTAB
  0
TABLE
  2
LTYPE
  5
746A
330
0
100
AcDbSymbolTable
 70
     5
  0
LTYPE
  5
7477
330
746A
100
AcDbSymbolTableRecord
100
AcDbLinetypeTableRecord
  2
BYBLOCK
 70
     0
  3

 72
    65
 73
     0
 40
0.0
  0
LTYPE
  5
7478
330
746A
100
AcDbSymbolTableRecord
100
AcDbLinetypeTableRecord
  2
BYLAYER
 70
     0
  3

 72
    65
 73
     0
 40
0.0
  0
LTYPE
  5
7479
330
746A
100
AcDbSymbolTableRecord
100
AcDbLinetypeTableRecord
  2
CONTINUOUS
 70
     0
  3
Solid line
 72
    65
 73
     0
 40
0.0
  0
LTYPE
  5
7816
330
746A
100
AcDbSymbolTableRecord
100
AcDbLinetypeTableRecord
  2
CENTER
 70
     0
  3
____ _ ____ _ ____ _ ____ _ ____ _ ____ _ ____ 
 72
    65
 73
     4
 40
2.0
 49
1.25
 74
     0
 49
-0.25
 74
     0
 49
0.25
 74
     0
 49
-0.25
 74
     0
  0
LTYPE
  5
781A
330
746A
100
AcDbSymbolTableRecord
100
AcDbLinetypeTableRecord
  2
HIDDEN
 70
     0
  3
__ __ __ __ __ __ __ __ __ __ __ __ __ __ __ __
 72
    65
 73
     2
 40
0.375
 49
0.25
 74
     0
 49
-0.125
 74
     0
  0
LTYPE
  5
781B
330
746A
100
AcDbSymbolTableRecord
100
AcDbLinetypeTableRecord
  2
PHANTOM
 70
     0
  3
______  __  __  ______  __  __  ______  __  __ 
 72
    65
 73
     6
 40
2.5
 49
1.25
 74
     0
 49
-0.25
 74
     0
 49
0.25
 74
     0
 49
-0.25
 74
     0
 49
0.25
 74
     0
 49
-0.25
 74
     0
  0
LTYPE
  5
12CC3
330
746A
100
AcDbSymbolTableRecord
100
AcDbLinetypeTableRecord
  2
HIDDENX2
 70
     0
  3
Hidden (2x) ____ ____ ____ ____ ____ ____ ____
 72
    65
 73
     2
 40
19.05
 49
12.7
 74
     0
 49
-6.349999999999999
 74
     0
  0
ENDTAB
  0
TABLE
  2
LAYER
  5
7467
102
{ACAD_XDICTIONARY
360
1758F
102
}
330
0
100
AcDbSymbolTable
 70
    12
  0
LAYER
  5
7474
330
7467
100
AcDbSymbolTableRecord
100
AcDbLayerTableRecord
  2
0
 70
     0
 62
     7
  6
CONTINUOUS
370
    -3
390
173D0
  0
LAYER
  5
DEB2
330
7467
100
AcDbSymbolTableRecord
100
AcDbLayerTableRecord
  2
センター
 70
     0
 62
     3
  6
CENTER
370
    -3
390
173D0
  0
LAYER
  5
DEB3
330
7467
100
AcDbSymbolTableRecord
100
AcDbLayerTableRecord
  2
寸法
 70
     0
 62
     4
  6
CONTINUOUS
370
    -3
390
173D0
  0
LAYER
  5
DEB4
330
7467
100
AcDbSymbolTableRecord
100
AcDbLayerTableRecord
  2
部品1
 70
     0
 62
     7
  6
CONTINUOUS
370
    -3
390
173D0
  0
LAYER
  5
DEB5
330
7467
100
AcDbSymbolTableRecord
100
AcDbLayerTableRecord
  2
補助
 70
     0
 62
    -1
  6
CONTINUOUS
370
    -3
390
173D0
  0
LAYER
  5
DEB6
330
7467
100
AcDbSymbolTableRecord
100
AcDbLayerTableRecord
  2
文字
 70
     0
 62
     7
  6
CONTINUOUS
370
    -3
390
173D0
  0
LAYER
  5
F255
330
7467
100
AcDbSymbolTableRecord
100
AcDbLayerTableRecord
  2
DEFPOINTS
 70
     0
 62
     7
  6
CONTINUOUS
290
     0
370
    -3
390
173D0
  0
LAYER
  5
10B54
330
7467
100
AcDbSymbolTableRecord
100
AcDbLayerTableRecord
  2
仕様書枠
 70
     0
 62
   230
  6
CONTINUOUS
370
    -3
390
173D0
  0
LAYER
  5
11729
330
7467
100
AcDbSymbolTableRecord
100
AcDbLayerTableRecord
  2
Ｇ．Ｌ
 70
     0
 62
    30
  6
CONTINUOUS
370
    -3
390
173D0
  0
LAYER
  5
1173F
330
7467
100
AcDbSymbolTableRecord
100
AcDbLayerTableRecord
  2
細線
 70
     0
 62
     5
  6
CONTINUOUS
370
    -3
390
173D0
  0
LAYER
  5
12CC4
330
7467
100
AcDbSymbolTableRecord
100
AcDbLayerTableRecord
  2
想像線
 70
     0
 62
     6
  6
PHANTOM
370
    -3
390
173D0
  0
LAYER
  5
142E2
330
7467
100
AcDbSymbolTableRecord
100
AcDbLayerTableRecord
  2
破線
 70
     0
 62
     2
  6
HIDDEN
370
    -3
390
173D0
  0
ENDTAB
  0
TABLE
  2
STYLE
  5
7468
330
0
100
AcDbSymbolTable
 70
     7
  0
STYLE
  5
7475
330
7468
100
AcDbSymbolTableRecord
100
AcDbTextStyleTableRecord
  2
STANDARD
 70
     0
 40
0.0
 41
1.0
 50
0.0
 71
     0
 42
4.0
  3
txt
  4
C:\AutoCAD LT\bigfont.shx
  0
STYLE
  5
763C
330
7468
100
AcDbSymbolTableRecord
100
AcDbTextStyleTableRecord
  2
MSMINCHO
 70
     0
 40
0.0
 41
1.0
 50
0.0
 71
     0
 42
1.199999999999999
  3
C:\AutoCAD LT\msminch2.TTF
  4

  0
STYLE
  5
F706
330
7468
100
AcDbSymbolTableRecord
100
AcDbTextStyleTableRecord
  2
STYLE1
 70
     0
 40
0.0
 41
1.0
 50
0.0
 71
     0
 42
4.0
  3
isocp.shx
  4
bigfont.shx
  0
STYLE
  5
103BF
330
7468
100
AcDbSymbolTableRecord
100
AcDbTextStyleTableRecord
  2
STYLE2
 70
     0
 40
0.0
 41
1.0
 50
0.0
 71
     0
 42
100.0
  3
MS PGothic.ttf
  4

1001
ACAD
1000
MS PGothic
1071
    32818
  0
STYLE
  5
10BAA
330
7468
100
AcDbSymbolTableRecord
100
AcDbTextStyleTableRecord
  2
STYLE3
 70
     0
 40
0.0
 41
1.0
 50
0.0
 71
     0
 42
100.0
  3

  4

1001
ACAD
1000
DFPGothic-EB
1071
    32818
  0
STYLE
  5
11A15
330
7468
100
AcDbSymbolTableRecord
100
AcDbTextStyleTableRecord
  2
MSGOTHIC
 70
     0
 40
0.0
 41
1.0
 50
0.0
 71
     0
 42
3.5
  3
msgothi2.ttf
  4

  0
STYLE
  5
13E96
330
7468
100
AcDbSymbolTableRecord
100
AcDbTextStyleTableRecord
  2
MSPゴシック
 70
     0
 40
0.0
 41
1.0
 50
0.0
 71
     0
 42
4.0
  3
MS PGothic.ttf
  4

1001
ACAD
1000
MS PGothic
1071
    32818
  0
ENDTAB
  0
TABLE
  2
VIEW
  5
746B
330
0
100
AcDbSymbolTable
 70
     0
  0
ENDTAB
  0
TABLE
  2
UCS
  5
746C
330
0
100
AcDbSymbolTable
 70
     0
  0
ENDTAB
  0
TABLE
  2
APPID
  5
746E
330
0
100
AcDbSymbolTable
 70
     6
  0
APPID
  5
7476
330
746E
100
AcDbSymbolTableRecord
100
AcDbRegAppTableRecord
  2
ACAD
 70
     0
  0
APPID
  5
DEA9
330
746E
100
AcDbSymbolTableRecord
100
AcDbRegAppTableRecord
  2
CONTENTBLOCKICON
 70
     0
  0
APPID
  5
DEAA
330
746E
100
AcDbSymbolTableRecord
100
AcDbRegAppTableRecord
  2
CONTENTBLOCKDESCRIPTION
 70
     0
  0
APPID
  5
E71D
330
746E
100
AcDbSymbolTableRecord
100
AcDbRegAppTableRecord
  2
CONTENTTABDATA
 70
     0
  0
APPID
  5
E71E
330
746E
100
AcDbSymbolTableRecord
100
AcDbRegAppTableRecord
  2
CONTENTCURRENTTAB
 70
     0
  0
APPID
  5
F3BA
330
746E
100
AcDbSymbolTableRecord
100
AcDbRegAppTableRecord
  2
DRAWINGVARIABLESXDATA
 70
     0
  0
ENDTAB
  0
TABLE
  2
DIMSTYLE
  5
746F
330
0
100
AcDbSymbolTable
 70
     6
100
AcDbDimStyleTable
 71
     1
340
F71F
  0
DIMSTYLE
105
7484
330
746F
100
AcDbSymbolTableRecord
100
AcDbDimStyleTableRecord
  2
JIS
 70
     0
 41
2.5
 42
1.0
 43
7.0
 44
1.0
 73
     0
 74
     0
 77
     1
 78
     8
140
2.5
141
0.0
143
0.0394
147
0.0
172
     1
174
     1
175
     1
340
7475
  0
DIMSTYLE
105
F236
330
746F
100
AcDbSymbolTableRecord
100
AcDbDimStyleTableRecord
  2
INABA_S40
 70
     0
 40
40.0
 41
2.5
 42
0.5
 43
7.0
 44
1.5
 73
     0
 74
     0
 77
     3
 78
     8
140
3.0
141
0.0
143
0.0394
147
1.0
172
     1
173
     1
174
     1
175
     1
178
     7
289
     0
340
7475
341
DEAC
343
DEAC
344
DEAC
  0
DIMSTYLE
105
F71F
102
{ACAD_REACTORS
330
26529
330
2652C
330
26533
330
2653B
330
2653C
330
264C9
330
2584D
330
2580C
330
25806
330
257D6
330
257D4
330
257D2
330
257AB
330
2579B
330
25796
330
25794
330
25793
330
25792
330
2578F
330
2578E
330
25786
330
25782
330
2577F
330
24043
330
23FDA
330
23FD9
330
2275B
330
22741
330
20DFB
330
20DE1
330
1D333
330
1D2D6
330
1AC2C
330
1AC27
102
}
330
746F
100
AcDbSymbolTableRecord
100
AcDbDimStyleTableRecord
  2
INABA_S40G
 70
     0
 40
40.0
 41
2.5
 42
0.5
 43
7.0
 44
1.5
 73
     0
 74
     0
 77
     3
 78
     8
140
3.0
141
0.0
143
0.0394
147
1.0
172
     1
173
     1
174
     1
178
     7
271
     1
340
F706
341
F770
343
F770
344
F770
  0
DIMSTYLE
105
142E3
330
746F
100
AcDbSymbolTableRecord
100
AcDbDimStyleTableRecord
  2
INABA_S1
 70
     0
 40
0.0
 41
2.5
 42
0.5
 43
7.0
 44
1.5
 73
     0
 74
     0
 77
     3
 78
     8
140
3.0
141
0.0
143
0.0394
146
0.5
147
0.5
172
     1
173
     1
176
   256
177
   256
178
     7
271
     2
272
     2
284
     8
288
     1
340
7475
341
DEAC
343
DEAC
344
DEAC
  0
DIMSTYLE
105
14463
330
746F
100
AcDbSymbolTableRecord
100
AcDbDimStyleTableRecord
  2
INABA_S30G
 70
     0
 40
30.0
 41
2.5
 42
0.5
 43
7.0
 44
1.5
 73
     0
 74
     0
 77
     3
 78
     8
140
3.0
141
0.0
143
0.0394
147
1.0
172
     1
173
     1
174
     1
175
     1
178
     7
271
     1
340
F706
341
F770
343
F770
344
F770
  0
DIMSTYLE
105
1758E
330
746F
100
AcDbSymbolTableRecord
100
AcDbDimStyleTableRecord
  2
INABA_S50G
 70
     0
 41
125.0
 42
25.0
 43
7.0
 44
75.0
 73
     0
 74
     0
 77
     3
 78
     8
140
150.0
141
0.0
143
0.0394
147
25.0
172
     1
173
     1
174
     1
175
     1
178
     7
271
     1
340
F706
341
F770
343
F770
344
F770
  0
ENDTAB
  0
TABLE
  2
BLOCK_RECORD
  5
7466
330
0
100
AcDbSymbolTable
 70
    49
  0
BLOCK_RECORD
  5
747D
330
7466
100
AcDbSymbolTableRecord
100
AcDbBlockTableRecord
  2
*MODEL_SPACE
340
173D5
  0
BLOCK_RECORD
  5
747A
330
7466
100
AcDbSymbolTableRecord
100
AcDbBlockTableRecord
  2
*PAPER_SPACE
340
173D6
  0
BLOCK_RECORD
  5
DEAC
330
7466
100
AcDbSymbolTableRecord
100
AcDbBlockTableRecord
  2
_OPEN
340
0
  0
BLOCK_RECORD
  5
F770
330
7466
100
AcDbSymbolTableRecord
100
AcDbBlockTableRecord
  2
_DOTSMALL
340
0
102
{BLKREFS
331
18C65
331
18C66
331
18C59
331
18C5A
331
18C4D
331
18C4E
331
18C41
331
18C42
331
18C35
331
18C36
331
18C29
331
18C2A
331
18C1D
331
18C1E
331
18C0F
331
18C10
331
18C03
331
18C04
331
18BF5
331
18BF6
331
18BE7
331
18BE8
331
18BD9
331
18BDA
331
18BCD
331
18BCE
331
26593
331
26594
331
2659C
331
2659D
331
265A5
331
265A6
331
265B0
331
265B1
331
265B9
331
265BA
331
265C2
331
265C3
331
265D5
331
265D6
331
265DE
331
265DF
331
265E7
331
265E8
331
265F1
331
265F2
331
265FA
331
265FB
331
26604
331
26605
331
2660D
331
2660E
331
26616
331
26617
331
26620
331
26621
331
26629
331
2662A
331
26632
331
26633
331
2663B
331
2663C
331
26644
331
26645
331
2664D
331
2664E
331
26656
331
26657
331
2665F
331
26660
331
26668
331
26669
331
26672
331
26673
331
2667C
331
2667D
331
26686
331
26687
331
26691
331
26692
331
2669C
331
2669D
331
266A7
331
266A8
331
266B2
331
266B3
102
}
  0
BLOCK_RECORD
  5
164B4
330
7466
100
AcDbSymbolTableRecord
100
AcDbBlockTableRecord
  2
_DOT
340
0
102
{BLKREFS
331
18C73
331
18C74
102
}
  0
BLOCK_RECORD
  5
18BC8
330
7466
100
AcDbSymbolTableRecord
100
AcDbBlockTableRecord
  2
*D3
340
0
  0
BLOCK_RECORD
  5
18BD4
330
7466
100
AcDbSymbolTableRecord
100
AcDbBlockTableRecord
  2
*D4
340
0
  0
BLOCK_RECORD
  5
18BE0
330
7466
100
AcDbSymbolTableRecord
100
AcDbBlockTableRecord
  2
*D5
340
0
  0
BLOCK_RECORD
  5
18BEE
330
7466
100
AcDbSymbolTableRecord
100
AcDbBlockTableRecord
  2
*D6
340
0
  0
BLOCK_RECORD
  5
18BFC
330
7466
100
AcDbSymbolTableRecord
100
AcDbBlockTableRecord
  2
*D7
340
0
  0
BLOCK_RECORD
  5
18C0A
330
7466
100
AcDbSymbolTableRecord
100
AcDbBlockTableRecord
  2
*D8
340
0
  0
BLOCK_RECORD
  5
18C16
330
7466
100
AcDbSymbolTableRecord
100
AcDbBlockTableRecord
  2
*D9
340
0
  0
BLOCK_RECORD
  5
18C24
330
7466
100
AcDbSymbolTableRecord
100
AcDbBlockTableRecord
  2
*D10
340
0
  0
BLOCK_RECORD
  5
18C30
330
7466
100
AcDbSymbolTableRecord
100
AcDbBlockTableRecord
  2
*D11
340
0
  0
BLOCK_RECORD
  5
18C3C
330
7466
100
AcDbSymbolTableRecord
100
AcDbBlockTableRecord
  2
*D12
340
0
  0
BLOCK_RECORD
  5
18C48
330
7466
100
AcDbSymbolTableRecord
100
AcDbBlockTableRecord
  2
*D13
340
0
  0
BLOCK_RECORD
  5
18C54
330
7466
100
AcDbSymbolTableRecord
100
AcDbBlockTableRecord
  2
*D14
340
0
  0
BLOCK_RECORD
  5
18C60
330
7466
100
AcDbSymbolTableRecord
100
AcDbBlockTableRecord
  2
*D15
340
0
  0
BLOCK_RECORD
  5
18C6C
330
7466
100
AcDbSymbolTableRecord
100
AcDbBlockTableRecord
  2
*D16
340
0
  0
BLOCK_RECORD
  5
18C7A
330
7466
100
AcDbSymbolTableRecord
100
AcDbBlockTableRecord
  2
A$C3B1A506B
340
0
  0
BLOCK_RECORD
  5
1C4CA
330
7466
100
AcDbSymbolTableRecord
100
AcDbBlockTableRecord
  2
_NONE
340
0
  0
BLOCK_RECORD
  5
20DE2
330
7466
100
AcDbSymbolTableRecord
100
AcDbBlockTableRecord
  2
*D19
340
0
  0
BLOCK_RECORD
  5
20DFC
330
7466
100
AcDbSymbolTableRecord
100
AcDbBlockTableRecord
  2
*D20
340
0
  0
BLOCK_RECORD
  5
22742
330
7466
100
AcDbSymbolTableRecord
100
AcDbBlockTableRecord
  2
*D21
340
0
  0
BLOCK_RECORD
  5
2275C
330
7466
100
AcDbSymbolTableRecord
100
AcDbBlockTableRecord
  2
*D22
340
0
  0
BLOCK_RECORD
  5
240C4
330
7466
100
AcDbSymbolTableRecord
100
AcDbBlockTableRecord
  2
*D23
340
0
  0
BLOCK_RECORD
  5
240D1
330
7466
100
AcDbSymbolTableRecord
100
AcDbBlockTableRecord
  2
*D24
340
0
  0
BLOCK_RECORD
  5
240DE
330
7466
100
AcDbSymbolTableRecord
100
AcDbBlockTableRecord
  2
*D25
340
0
  0
BLOCK_RECORD
  5
25859
330
7466
100
AcDbSymbolTableRecord
100
AcDbBlockTableRecord
  2
*D26
340
0
  0
BLOCK_RECORD
  5
25865
330
7466
100
AcDbSymbolTableRecord
100
AcDbBlockTableRecord
  2
*D27
340
0
  0
BLOCK_RECORD
  5
25871
330
7466
100
AcDbSymbolTableRecord
100
AcDbBlockTableRecord
  2
*D28
340
0
  0
BLOCK_RECORD
  5
2587D
330
7466
100
AcDbSymbolTableRecord
100
AcDbBlockTableRecord
  2
*D29
340
0
  0
BLOCK_RECORD
  5
25889
330
7466
100
AcDbSymbolTableRecord
100
AcDbBlockTableRecord
  2
*D30
340
0
  0
BLOCK_RECORD
  5
25895
330
7466
100
AcDbSymbolTableRecord
100
AcDbBlockTableRecord
  2
*D31
340
0
  0
BLOCK_RECORD
  5
258A1
330
7466
100
AcDbSymbolTableRecord
100
AcDbBlockTableRecord
  2
*D32
340
0
  0
BLOCK_RECORD
  5
258AC
330
7466
100
AcDbSymbolTableRecord
100
AcDbBlockTableRecord
  2
*D33
340
0
  0
BLOCK_RECORD
  5
258C4
330
7466
100
AcDbSymbolTableRecord
100
AcDbBlockTableRecord
  2
*D34
340
0
  0
BLOCK_RECORD
  5
258D1
330
7466
100
AcDbSymbolTableRecord
100
AcDbBlockTableRecord
  2
*D35
340
0
  0
BLOCK_RECORD
  5
258DD
330
7466
100
AcDbSymbolTableRecord
100
AcDbBlockTableRecord
  2
*D36
340
0
  0
BLOCK_RECORD
  5
25900
330
7466
100
AcDbSymbolTableRecord
100
AcDbBlockTableRecord
  2
*D37
340
0
  0
BLOCK_RECORD
  5
2590D
330
7466
100
AcDbSymbolTableRecord
100
AcDbBlockTableRecord
  2
*D38
340
0
  0
BLOCK_RECORD
  5
25925
330
7466
100
AcDbSymbolTableRecord
100
AcDbBlockTableRecord
  2
*D39
340
0
  0
BLOCK_RECORD
  5
2593F
330
7466
100
AcDbSymbolTableRecord
100
AcDbBlockTableRecord
  2
*D40
340
0
  0
BLOCK_RECORD
  5
2594B
330
7466
100
AcDbSymbolTableRecord
100
AcDbBlockTableRecord
  2
*D41
340
0
  0
BLOCK_RECORD
  5
25957
330
7466
100
AcDbSymbolTableRecord
100
AcDbBlockTableRecord
  2
*D42
340
0
  0
BLOCK_RECORD
  5
26546
330
7466
100
AcDbSymbolTableRecord
100
AcDbBlockTableRecord
  2
*D43
340
0
  0
BLOCK_RECORD
  5
26552
330
7466
100
AcDbSymbolTableRecord
100
AcDbBlockTableRecord
  2
*D44
340
0
  0
BLOCK_RECORD
  5
2655E
330
7466
100
AcDbSymbolTableRecord
100
AcDbBlockTableRecord
  2
*D45
340
0
  0
BLOCK_RECORD
  5
2656A
330
7466
100
AcDbSymbolTableRecord
100
AcDbBlockTableRecord
  2
*D46
340
0
  0
BLOCK_RECORD
  5
26578
330
7466
100
AcDbSymbolTableRecord
100
AcDbBlockTableRecord
  2
*D47
340
0
  0
BLOCK_RECORD
  5
26584
330
7466
100
AcDbSymbolTableRecord
100
AcDbBlockTableRecord
  2
*D48
340
0
  0
ENDTAB
  0
ENDSEC
  0
SECTION
  2
BLOCKS
  0
BLOCK
  5
7489
330
747D
100
AcDbEntity
  8
0
100
AcDbBlockBegin
  2
*MODEL_SPACE
 70
     0
 10
0.0
 20
0.0
 30
0.0
  3
*MODEL_SPACE
  1

  0
ENDBLK
  5
748A
330
747D
100
AcDbEntity
  8
0
100
AcDbBlockEnd
  0
BLOCK
  5
7487
330
747A
100
AcDbEntity
 67
     1
  8
0
100
AcDbBlockBegin
  2
*PAPER_SPACE
 70
     0
 10
0.0
 20
0.0
 30
0.0
  3
*PAPER_SPACE
  1

  0
ENDBLK
  5
7488
330
747A
100
AcDbEntity
 67
     1
  8
0
100
AcDbBlockEnd
  0
BLOCK
  5
DEAD
330
DEAC
100
AcDbEntity
  8
0
100
AcDbBlockBegin
  2
_OPEN
 70
     0
 10
0.0
 20
0.0
 30
0.0
  3
_OPEN
  1

  0
LINE
  5
DEAE
330
DEAC
100
AcDbEntity
  8
0
  6
ByBlock
 62
     0
100
AcDbLine
 10
-1.0
 20
0.1666666666666666
 30
0.0
 11
0.0
 21
0.0
 31
0.0
  0
LINE
  5
DEAF
330
DEAC
100
AcDbEntity
  8
0
  6
ByBlock
 62
     0
100
AcDbLine
 10
0.0
 20
0.0
 30
0.0
 11
-1.0
 21
-0.1666666666666666
 31
0.0
  0
LINE
  5
DEB0
330
DEAC
100
AcDbEntity
  8
0
  6
ByBlock
 62
     0
100
AcDbLine
 10
0.0
 20
0.0
 30
0.0
 11
-1.0
 21
0.0
 31
0.0
  0
ENDBLK
  5
DEB1
330
DEAC
100
AcDbEntity
  8
0
100
AcDbBlockEnd
  0
BLOCK
  5
F771
330
F770
100
AcDbEntity
  8
0
 48
50.0
100
AcDbBlockBegin
  2
_DOTSMALL
 70
     0
 10
0.0
 20
0.0
 30
0.0
  3
_DOTSMALL
  1

  0
LWPOLYLINE
  5
F772
330
F770
100
AcDbEntity
  8
0
  6
ByBlock
 62
     0
 48
50.0
100
AcDbPolyline
 90
        2
 70
     1
 43
0.5
 10
-0.0625
 20
0.0
 42
1.0
 10
0.0625
 20
0.0
 42
1.0
  0
ENDBLK
  5
F776
330
F770
100
AcDbEntity
  8
0
 48
50.0
100
AcDbBlockEnd
  0
BLOCK
  5
164BA
330
164B4
100
AcDbEntity
  8
0
 48
50.0
100
AcDbBlockBegin
  2
_DOT
 70
     0
 10
0.0
 20
0.0
 30
0.0
  3
_DOT
  1

  0
LWPOLYLINE
  5
164B5
330
164B4
100
AcDbEntity
  8
0
  6
ByBlock
 62
     0
 48
50.0
100
AcDbPolyline
 90
        2
 70
     1
 43
0.5
 10
-0.25
 20
0.0
 42
1.0
 10
0.25
 20
0.0
 42
1.0
  0
LINE
  5
164B9
330
164B4
100
AcDbEntity
  8
0
  6
ByBlock
 62
     0
 48
50.0
100
AcDbLine
 10
-0.5
 20
0.0
 30
0.0
 11
-1.0
 21
0.0
 31
0.0
  0
ENDBLK
  5
164BB
330
164B4
100
AcDbEntity
  8
0
 48
50.0
100
AcDbBlockEnd
  0
BLOCK
  5
18BC9
330
18BC8
100
AcDbEntity
  8
0
 48
50.0
100
AcDbBlockBegin
  2
*D3
 70
     1
 10
0.0
 20
0.0
 30
0.0
  3
*D3
  1

  0
LINE
  5
18BCA
330
18BC8
100
AcDbEntity
  8
寸法
 62
     0
 48
50.0
370
    -2
100
AcDbLine
 10
7649.896575106999
 20
9636.123139034717
 30
0.0
 11
8702.429862581047
 21
9636.123139034717
 31
0.0
  0
LINE
  5
18BCB
330
18BC8
100
AcDbEntity
  8
寸法
 62
     0
 48
50.0
370
    -2
100
AcDbLine
 10
7649.896575106973
 20
7846.123139034709
 30
0.0
 11
8702.429862581047
 21
7846.123139034709
 31
0.0
  0
LINE
  5
18BCC
330
18BC8
100
AcDbEntity
  8
寸法
 62
     0
 48
50.0
370
    -2
100
AcDbLine
 10
8642.429862581046
 20
9636.123139034717
 30
0.0
 11
8642.429862581046
 21
7846.123139034709
 31
0.0
  0
INSERT
  5
18BCD
330
18BC8
100
AcDbEntity
  8
寸法
 62
     0
 48
50.0
370
    -2
100
AcDbBlockReference
  2
_DOTSMALL
 10
8642.429862581046
 20
9636.123139034717
 30
0.0
 41
100.0
 42
100.0
 43
100.0
 50
90.0
  0
INSERT
  5
18BCE
330
18BC8
100
AcDbEntity
  8
寸法
 62
     0
 48
50.0
370
    -2
100
AcDbBlockReference
  2
_DOTSMALL
 10
8642.429862581046
 20
7846.123139034709
 30
0.0
 41
100.0
 42
100.0
 43
100.0
 50
270.0
  0
MTEXT
  5
18BCF
330
18BC8
100
AcDbEntity
  8
寸法
 62
     7
 48
50.0
100
AcDbMText
 10
8542.429862581045
 20
8741.123139034712
 30
0.0
 40
120.0
 41
0.0
 71
     5
 72
     1
  1
\A1;1790
  7
STYLE1
 11
0.0000000000000001
 21
1.0
 31
0.0
 73
     1
 44
1.0
1001
ACAD
1000
MTEXTBEGIN
1070
    73
1070
     1
1070
    44
1040
1.0
1070
    74
1070
     0
1000
MTEXTEND
  0
POINT
  5
18BD0
330
18BC8
100
AcDbEntity
  8
DEFPOINTS
 62
     0
 48
50.0
100
AcDbPoint
 10
7629.896575106998
 20
9636.123139034717
 30
0.0
  0
POINT
  5
18BD1
330
18BC8
100
AcDbEntity
  8
DEFPOINTS
 62
     0
 48
50.0
100
AcDbPoint
 10
7629.896575106974
 20
7846.123139034709
 30
0.0
  0
POINT
  5
18BD2
330
18BC8
100
AcDbEntity
  8
DEFPOINTS
 62
     0
 48
50.0
100
AcDbPoint
 10
8642.429862581046
 20
7846.123139034709
 30
0.0
  0
ENDBLK
  5
18BD3
330
18BC8
100
AcDbEntity
  8
0
 48
50.0
100
AcDbBlockEnd
  0
BLOCK
  5
18BD5
330
18BD4
100
AcDbEntity
  8
0
 48
50.0
100
AcDbBlockBegin
  2
*D4
 70
     1
 10
0.0
 20
0.0
 30
0.0
  3
*D4
  1

  0
LINE
  5
18BD6
330
18BD4
100
AcDbEntity
  8
寸法
 62
     0
 48
50.0
370
    -2
100
AcDbLine
 10
4214.896575106998
 20
9656.123139034622
 30
0.0
 11
4214.896575106998
 21
10211.93135865972
 31
0.0
  0
LINE
  5
18BD7
330
18BD4
100
AcDbEntity
  8
寸法
 62
     0
 48
50.0
370
    -2
100
AcDbLine
 10
7574.896575106999
 20
9656.123139034718
 30
0.0
 11
7574.896575106999
 21
10211.93135865972
 31
0.0
  0
LINE
  5
18BD8
330
18BD4
100
AcDbEntity
  8
寸法
 62
     0
 48
50.0
370
    -2
100
AcDbLine
 10
4214.896575106998
 20
10151.93135865972
 30
0.0
 11
7574.896575106999
 21
10151.93135865972
 31
0.0
  0
INSERT
  5
18BD9
330
18BD4
100
AcDbEntity
  8
寸法
 62
     0
 48
50.0
370
    -2
100
AcDbBlockReference
  2
_DOTSMALL
 10
4214.896575106998
 20
10151.93135865972
 30
0.0
 41
100.0
 42
100.0
 43
100.0
 50
180.0
  0
INSERT
  5
18BDA
330
18BD4
100
AcDbEntity
  8
寸法
 62
     0
 48
50.0
370
    -2
100
AcDbBlockReference
  2
_DOTSMALL
 10
7574.896575106999
 20
10151.93135865972
 30
0.0
 41
100.0
 42
100.0
 43
100.0
  0
MTEXT
  5
18BDB
330
18BD4
100
AcDbEntity
  8
寸法
 62
     7
 48
50.0
100
AcDbMText
 10
5894.896575106997
 20
10251.94316968334
 30
0.0
 40
120.0
 41
0.0
 71
     5
 72
     1
  1
\A1;8X420=3360
  7
STYLE1
 73
     1
 44
1.0
1001
ACAD
1000
MTEXTBEGIN
1070
    73
1070
     1
1070
    44
1040
1.0
1070
    74
1070
     0
1000
MTEXTEND
  0
POINT
  5
18BDC
330
18BD4
100
AcDbEntity
  8
DEFPOINTS
 62
     0
 48
50.0
100
AcDbPoint
 10
4214.896575106998
 20
9636.123139034623
 30
0.0
  0
POINT
  5
18BDD
330
18BD4
100
AcDbEntity
  8
DEFPOINTS
 62
     0
 48
50.0
100
AcDbPoint
 10
7574.896575106999
 20
9636.123139034717
 30
0.0
  0
POINT
  5
18BDE
330
18BD4
100
AcDbEntity
  8
DEFPOINTS
 62
     0
 48
50.0
100
AcDbPoint
 10
7574.896575106999
 20
10151.93135865972
 30
0.0
  0
ENDBLK
  5
18BDF
330
18BD4
100
AcDbEntity
  8
0
 48
50.0
100
AcDbBlockEnd
  0
BLOCK
  5
18BE1
330
18BE0
100
AcDbEntity
  8
0
 48
50.0
100
AcDbBlockBegin
  2
*D5
 70
     1
 10
0.0
 20
0.0
 30
0.0
  3
*D5
  1

  0
LINE
  5
18BE2
330
18BE0
100
AcDbEntity
  8
寸法
 62
     0
 48
50.0
370
    -2
100
AcDbLine
 10
7574.896575106999
 20
9656.123139034718
 30
0.0
 11
7574.896575106999
 21
10211.9313586597
 31
0.0
  0
LINE
  5
18BE3
330
18BE0
100
AcDbEntity
  8
寸法
 62
     0
 48
50.0
370
    -2
100
AcDbLine
 10
7629.896575106998
 20
9656.123139034718
 30
0.0
 11
7629.896575106998
 21
10211.9313586597
 31
0.0
  0
LINE
  5
18BE4
330
18BE0
100
AcDbEntity
  8
寸法
 62
     0
 48
50.0
370
    -2
100
AcDbLine
 10
7574.896575106999
 20
10151.9313586597
 30
0.0
 11
7474.896575106999
 21
10151.9313586597
 31
0.0
  0
LINE
  5
18BE5
330
18BE0
100
AcDbEntity
  8
寸法
 62
     0
 48
50.0
370
    -2
100
AcDbLine
 10
7629.896575106998
 20
10151.9313586597
 30
0.0
 11
8046.867137855477
 21
10151.9313586597
 31
0.0
  0
LINE
  5
18BE6
330
18BE0
100
AcDbEntity
  8
寸法
 62
     0
 48
50.0
370
    -2
100
AcDbLine
 10
7574.896575106999
 20
10151.9313586597
 30
0.0
 11
7629.896575106998
 21
10151.9313586597
 31
0.0
  0
INSERT
  5
18BE7
330
18BE0
100
AcDbEntity
  8
寸法
 62
     0
 48
50.0
370
    -2
100
AcDbBlockReference
  2
_DOTSMALL
 10
7574.896575106999
 20
10151.9313586597
 30
0.0
 41
100.0
 42
100.0
 43
100.0
  0
INSERT
  5
18BE8
330
18BE0
100
AcDbEntity
  8
寸法
 62
     0
 48
50.0
370
    -2
100
AcDbBlockReference
  2
_DOTSMALL
 10
7629.896575106998
 20
10151.9313586597
 30
0.0
 41
100.0
 42
100.0
 43
100.0
 50
180.0
  0
MTEXT
  5
18BE9
330
18BE0
100
AcDbEntity
  8
寸法
 62
     7
 48
50.0
100
AcDbMText
 10
7938.381856481237
 20
10251.9313586597
 30
0.0
 40
120.0
 41
0.0
 71
     5
 72
     1
  1
\A1;55
  7
STYLE1
 73
     1
 44
1.0
1001
ACAD
1000
MTEXTBEGIN
1070
    73
1070
     1
1070
    44
1040
1.0
1070
    74
1070
     0
1000
MTEXTEND
  0
POINT
  5
18BEA
330
18BE0
100
AcDbEntity
  8
DEFPOINTS
 62
     0
 48
50.0
100
AcDbPoint
 10
7574.896575106999
 20
9636.123139034717
 30
0.0
  0
POINT
  5
18BEB
330
18BE0
100
AcDbEntity
  8
DEFPOINTS
 62
     0
 48
50.0
100
AcDbPoint
 10
7629.896575106998
 20
9636.123139034717
 30
0.0
  0
POINT
  5
18BEC
330
18BE0
100
AcDbEntity
  8
DEFPOINTS
 62
     0
 48
50.0
100
AcDbPoint
 10
7629.896575106998
 20
10151.9313586597
 30
0.0
  0
ENDBLK
  5
18BED
330
18BE0
100
AcDbEntity
  8
0
 48
50.0
100
AcDbBlockEnd
  0
BLOCK
  5
18BEF
330
18BEE
100
AcDbEntity
  8
0
 48
50.0
100
AcDbBlockBegin
  2
*D6
 70
     1
 10
0.0
 20
0.0
 30
0.0
  3
*D6
  1

  0
LINE
  5
18BF0
330
18BEE
100
AcDbEntity
  8
寸法
 62
     0
 48
50.0
370
    -2
100
AcDbLine
 10
7649.896575106999
 20
9636.123139034717
 30
0.0
 11
8337.32292084141
 21
9636.123139034717
 31
0.0
  0
LINE
  5
18BF1
330
18BEE
100
AcDbEntity
  8
寸法
 62
     0
 48
50.0
370
    -2
100
AcDbLine
 10
7649.896575106999
 20
9581.123139034721
 30
0.0
 11
8337.32292084141
 21
9581.123139034721
 31
0.0
  0
LINE
  5
18BF2
330
18BEE
100
AcDbEntity
  8
寸法
 62
     0
 48
50.0
370
    -2
100
AcDbLine
 10
8277.322920841411
 20
9581.123139034721
 30
0.0
 11
8277.322920841411
 21
9481.123139034719
 31
0.0
  0
LINE
  5
18BF3
330
18BEE
100
AcDbEntity
  8
寸法
 62
     0
 48
50.0
370
    -2
100
AcDbLine
 10
8277.322920841411
 20
9636.123139034717
 30
0.0
 11
8277.322920841411
 21
10053.09370178319
 31
0.0
  0
LINE
  5
18BF4
330
18BEE
100
AcDbEntity
  8
寸法
 62
     0
 48
50.0
370
    -2
100
AcDbLine
 10
8277.322920841411
 20
9581.123139034721
 30
0.0
 11
8277.322920841411
 21
9636.123139034717
 31
0.0
  0
INSERT
  5
18BF5
330
18BEE
100
AcDbEntity
  8
寸法
 62
     0
 48
50.0
370
    -2
100
AcDbBlockReference
  2
_DOTSMALL
 10
8277.322920841411
 20
9581.123139034721
 30
0.0
 41
100.0
 42
100.0
 43
100.0
 50
90.0
  0
INSERT
  5
18BF6
330
18BEE
100
AcDbEntity
  8
寸法
 62
     0
 48
50.0
370
    -2
100
AcDbBlockReference
  2
_DOTSMALL
 10
8277.322920841411
 20
9636.123139034717
 30
0.0
 41
100.0
 42
100.0
 43
100.0
 50
270.0
  0
MTEXT
  5
18BF7
330
18BEE
100
AcDbEntity
  8
寸法
 62
     7
 48
50.0
100
AcDbMText
 10
8177.32292084141
 20
9944.608420408957
 30
0.0
 40
120.0
 41
0.0
 71
     5
 72
     1
  1
\A1;55
  7
STYLE1
 11
0.0000000000000001
 21
1.0
 31
0.0
 73
     1
 44
1.0
1001
ACAD
1000
MTEXTBEGIN
1070
    73
1070
     1
1070
    44
1040
1.0
1070
    74
1070
     0
1000
MTEXTEND
  0
POINT
  5
18BF8
330
18BEE
100
AcDbEntity
  8
DEFPOINTS
 62
     0
 48
50.0
100
AcDbPoint
 10
7629.896575106998
 20
9636.123139034717
 30
0.0
  0
POINT
  5
18BF9
330
18BEE
100
AcDbEntity
  8
DEFPOINTS
 62
     0
 48
50.0
100
AcDbPoint
 10
7629.896575106998
 20
9581.123139034721
 30
0.0
  0
POINT
  5
18BFA
330
18BEE
100
AcDbEntity
  8
DEFPOINTS
 62
     0
 48
50.0
100
AcDbPoint
 10
8277.322920841411
 20
9581.123139034721
 30
0.0
  0
ENDBLK
  5
18BFB
330
18BEE
100
AcDbEntity
  8
0
 48
50.0
100
AcDbBlockEnd
  0
BLOCK
  5
18BFD
330
18BFC
100
AcDbEntity
  8
0
 48
50.0
100
AcDbBlockBegin
  2
*D7
 70
     1
 10
0.0
 20
0.0
 30
0.0
  3
*D7
  1

  0
LINE
  5
18BFE
330
18BFC
100
AcDbEntity
  8
寸法
 62
     0
 48
50.0
370
    -2
100
AcDbLine
 10
4159.896575106963
 20
9656.123139034622
 30
0.0
 11
4159.896575106963
 21
10211.9313586596
 31
0.0
  0
LINE
  5
18BFF
330
18BFC
100
AcDbEntity
  8
寸法
 62
     0
 48
50.0
370
    -2
100
AcDbLine
 10
4214.896575106998
 20
9656.123139034622
 30
0.0
 11
4214.896575106998
 21
10211.9313586596
 31
0.0
  0
LINE
  5
18C00
330
18BFC
100
AcDbEntity
  8
寸法
 62
     0
 48
50.0
370
    -2
100
AcDbLine
 10
4214.896575106998
 20
10151.9313586596
 30
0.0
 11
4314.896575106998
 21
10151.9313586596
 31
0.0
  0
LINE
  5
18C01
330
18BFC
100
AcDbEntity
  8
寸法
 62
     0
 48
50.0
370
    -2
100
AcDbLine
 10
4159.896575106963
 20
10151.9313586596
 30
0.0
 11
3742.926012358486
 21
10151.9313586596
 31
0.0
  0
LINE
  5
18C02
330
18BFC
100
AcDbEntity
  8
寸法
 62
     0
 48
50.0
370
    -2
100
AcDbLine
 10
4214.896575106998
 20
10151.9313586596
 30
0.0
 11
4159.896575106963
 21
10151.9313586596
 31
0.0
  0
INSERT
  5
18C03
330
18BFC
100
AcDbEntity
  8
寸法
 62
     0
 48
50.0
370
    -2
100
AcDbBlockReference
  2
_DOTSMALL
 10
4214.896575106998
 20
10151.9313586596
 30
0.0
 41
100.0
 42
100.0
 43
100.0
 50
180.0
  0
INSERT
  5
18C04
330
18BFC
100
AcDbEntity
  8
寸法
 62
     0
 48
50.0
370
    -2
100
AcDbBlockReference
  2
_DOTSMALL
 10
4159.896575106963
 20
10151.9313586596
 30
0.0
 41
100.0
 42
100.0
 43
100.0
  0
MTEXT
  5
18C05
330
18BFC
100
AcDbEntity
  8
寸法
 62
     7
 48
50.0
100
AcDbMText
 10
3851.411293732725
 20
10251.9313586596
 30
0.0
 40
120.0
 41
0.0
 71
     5
 72
     1
  1
\A1;55
  7
STYLE1
 73
     1
 44
1.0
1001
ACAD
1000
MTEXTBEGIN
1070
    73
1070
     1
1070
    44
1040
1.0
1070
    74
1070
     0
1000
MTEXTEND
  0
POINT
  5
18C06
330
18BFC
100
AcDbEntity
  8
DEFPOINTS
 62
     0
 48
50.0
100
AcDbPoint
 10
4159.896575106963
 20
9636.123139034623
 30
0.0
  0
POINT
  5
18C07
330
18BFC
100
AcDbEntity
  8
DEFPOINTS
 62
     0
 48
50.0
100
AcDbPoint
 10
4214.896575106998
 20
9636.123139034623
 30
0.0
  0
POINT
  5
18C08
330
18BFC
100
AcDbEntity
  8
DEFPOINTS
 62
     0
 48
50.0
100
AcDbPoint
 10
4214.896575106998
 20
10151.9313586596
 30
0.0
  0
ENDBLK
  5
18C09
330
18BFC
100
AcDbEntity
  8
0
 48
50.0
100
AcDbBlockEnd
  0
BLOCK
  5
18C0B
330
18C0A
100
AcDbEntity
  8
0
 48
50.0
100
AcDbBlockBegin
  2
*D8
 70
     1
 10
0.0
 20
0.0
 30
0.0
  3
*D8
  1

  0
LINE
  5
18C0C
330
18C0A
100
AcDbEntity
  8
寸法
 62
     0
 48
50.0
370
    -2
100
AcDbLine
 10
4159.896575106992
 20
7826.123139034546
 30
0.0
 11
4159.896575106992
 21
6804.372203245664
 31
0.0
  0
LINE
  5
18C0D
330
18C0A
100
AcDbEntity
  8
寸法
 62
     0
 48
50.0
370
    -2
100
AcDbLine
 10
7629.896575106974
 20
7826.123139034674
 30
0.0
 11
7629.896575106974
 21
6804.372203245664
 31
0.0
  0
LINE
  5
18C0E
330
18C0A
100
AcDbEntity
  8
寸法
 62
     0
 48
50.0
370
    -2
100
AcDbLine
 10
4159.896575106992
 20
6864.372203245665
 30
0.0
 11
7629.896575106974
 21
6864.372203245665
 31
0.0
  0
INSERT
  5
18C0F
330
18C0A
100
AcDbEntity
  8
寸法
 62
     0
 48
50.0
370
    -2
100
AcDbBlockReference
  2
_DOTSMALL
 10
4159.896575106992
 20
6864.372203245665
 30
0.0
 41
100.0
 42
100.0
 43
100.0
 50
180.0
  0
INSERT
  5
18C10
330
18C0A
100
AcDbEntity
  8
寸法
 62
     0
 48
50.0
370
    -2
100
AcDbBlockReference
  2
_DOTSMALL
 10
7629.896575106974
 20
6864.372203245665
 30
0.0
 41
100.0
 42
100.0
 43
100.0
  0
MTEXT
  5
18C11
330
18C0A
100
AcDbEntity
  8
寸法
 62
     7
 48
50.0
100
AcDbMText
 10
5911.12376113973
 20
6964.372203245665
 30
0.0
 40
120.0
 41
0.0
 71
     5
 72
     1
  1
\A1;3470
  7
STYLE1
 73
     1
 44
1.0
1001
ACAD
1000
MTEXTBEGIN
1070
    73
1070
     1
1070
    44
1040
1.0
1070
    74
1070
     0
1000
MTEXTEND
  0
POINT
  5
18C12
330
18C0A
100
AcDbEntity
  8
DEFPOINTS
 62
     0
 48
50.0
100
AcDbPoint
 10
4159.896575106992
 20
7846.123139034546
 30
0.0
  0
POINT
  5
18C13
330
18C0A
100
AcDbEntity
  8
DEFPOINTS
 62
     0
 48
50.0
100
AcDbPoint
 10
7629.896575106974
 20
7846.123139034673
 30
0.0
  0
POINT
  5
18C14
330
18C0A
100
AcDbEntity
  8
DEFPOINTS
 62
     0
 48
50.0
100
AcDbPoint
 10
7629.896575106974
 20
6864.372203245665
 30
0.0
  0
ENDBLK
  5
18C15
330
18C0A
100
AcDbEntity
  8
0
 48
50.0
100
AcDbBlockEnd
  0
BLOCK
  5
18C17
330
18C16
100
AcDbEntity
  8
0
 48
50.0
100
AcDbBlockBegin
  2
*D9
 70
     1
 10
0.0
 20
0.0
 30
0.0
  3
*D9
  1

  0
LINE
  5
18C18
330
18C16
100
AcDbEntity
  8
寸法
 62
     0
 48
50.0
370
    -2
100
AcDbLine
 10
7649.896575106973
 20
7901.123139034706
 30
0.0
 11
8337.322920841385
 21
7901.123139034706
 31
0.0
  0
LINE
  5
18C19
330
18C16
100
AcDbEntity
  8
寸法
 62
     0
 48
50.0
370
    -2
100
AcDbLine
 10
7649.896575106973
 20
7846.123139034709
 30
0.0
 11
8337.322920841385
 21
7846.123139034709
 31
0.0
  0
LINE
  5
18C1A
330
18C16
100
AcDbEntity
  8
寸法
 62
     0
 48
50.0
370
    -2
100
AcDbLine
 10
8277.322920841385
 20
7901.123139034706
 30
0.0
 11
8277.322920841385
 21
8001.123139034707
 31
0.0
  0
LINE
  5
18C1B
330
18C16
100
AcDbEntity
  8
寸法
 62
     0
 48
50.0
370
    -2
100
AcDbLine
 10
8277.322920841385
 20
7846.123139034709
 30
0.0
 11
8277.322920841385
 21
7429.152576286229
 31
0.0
  0
LINE
  5
18C1C
330
18C16
100
AcDbEntity
  8
寸法
 62
     0
 48
50.0
370
    -2
100
AcDbLine
 10
8277.322920841385
 20
7901.123139034706
 30
0.0
 11
8277.322920841385
 21
7846.123139034709
 31
0.0
  0
INSERT
  5
18C1D
330
18C16
100
AcDbEntity
  8
寸法
 62
     0
 48
50.0
370
    -2
100
AcDbBlockReference
  2
_DOTSMALL
 10
8277.322920841385
 20
7901.123139034706
 30
0.0
 41
100.0
 42
100.0
 43
100.0
 50
270.0
  0
INSERT
  5
18C1E
330
18C16
100
AcDbEntity
  8
寸法
 62
     0
 48
50.0
370
    -2
100
AcDbBlockReference
  2
_DOTSMALL
 10
8277.322920841385
 20
7846.123139034709
 30
0.0
 41
100.0
 42
100.0
 43
100.0
 50
90.0
  0
MTEXT
  5
18C1F
330
18C16
100
AcDbEntity
  8
寸法
 62
     7
 48
50.0
100
AcDbMText
 10
8177.322920841383
 20
7537.637857660469
 30
0.0
 40
120.0
 41
0.0
 71
     5
 72
     1
  1
\A1;55
  7
STYLE1
 11
0.0000000000000001
 21
1.0
 31
0.0
 73
     1
 44
1.0
1001
ACAD
1000
MTEXTBEGIN
1070
    73
1070
     1
1070
    44
1040
1.0
1070
    74
1070
     0
1000
MTEXTEND
  0
POINT
  5
18C20
330
18C16
100
AcDbEntity
  8
DEFPOINTS
 62
     0
 48
50.0
100
AcDbPoint
 10
7629.896575106974
 20
7901.123139034706
 30
0.0
  0
POINT
  5
18C21
330
18C16
100
AcDbEntity
  8
DEFPOINTS
 62
     0
 48
50.0
100
AcDbPoint
 10
7629.896575106974
 20
7846.123139034709
 30
0.0
  0
POINT
  5
18C22
330
18C16
100
AcDbEntity
  8
DEFPOINTS
 62
     0
 48
50.0
100
AcDbPoint
 10
8277.322920841385
 20
7846.123139034709
 30
0.0
  0
ENDBLK
  5
18C23
330
18C16
100
AcDbEntity
  8
0
 48
50.0
100
AcDbBlockEnd
  0
BLOCK
  5
18C25
330
18C24
100
AcDbEntity
  8
0
 48
50.0
100
AcDbBlockBegin
  2
*D10
 70
     1
 10
0.0
 20
0.0
 30
0.0
  3
*D10
  1

  0
LINE
  5
18C26
330
18C24
100
AcDbEntity
  8
寸法
 62
     0
 48
50.0
370
    -2
100
AcDbLine
 10
6533.037591258376
 20
9136.123139034728
 30
0.0
 11
6465.083950562664
 21
8882.516699399049
 31
0.0
  0
LINE
  5
18C27
330
18C24
100
AcDbEntity
  8
寸法
 62
     0
 48
50.0
370
    -2
100
AcDbLine
 10
7596.037591258388
 20
9136.123139034721
 30
0.0
 11
7528.083950562677
 21
8882.516699399049
 31
0.0
  0
LINE
  5
18C28
330
18C24
100
AcDbEntity
  8
寸法
 62
     0
 48
50.0
370
    -2
100
AcDbLine
 10
6481.160902108531
 20
8942.51669939905
 30
0.0
 11
7544.160902108544
 21
8942.51669939905
 31
0.0
  0
INSERT
  5
18C29
330
18C24
100
AcDbEntity
  8
寸法
 62
     0
 48
50.0
370
    -2
100
AcDbBlockReference
  2
_DOTSMALL
 10
6481.160902108531
 20
8942.51669939905
 30
0.0
 41
100.0
 42
100.0
 43
100.0
 50
180.0
  0
INSERT
  5
18C2A
330
18C24
100
AcDbEntity
  8
寸法
 62
     0
 48
50.0
370
    -2
100
AcDbBlockReference
  2
_DOTSMALL
 10
7544.160902108544
 20
8942.51669939905
 30
0.0
 41
100.0
 42
100.0
 43
100.0
  0
MTEXT
  5
18C2B
330
18C24
100
AcDbEntity
  8
寸法
 62
     7
 48
50.0
100
AcDbMText
 10
7061.28653022935
 20
9042.516699399049
 30
0.0
 40
120.0
 41
0.0
 71
     5
 72
     1
  1
\A1;1063
  7
STYLE1
 73
     1
 44
1.0
1001
ACAD
1000
MTEXTBEGIN
1070
    73
1070
     1
1070
    44
1040
1.0
1070
    74
1070
     0
1000
MTEXTEND
  0
POINT
  5
18C2C
330
18C24
100
AcDbEntity
  8
DEFPOINTS
 62
     0
 48
50.0
100
AcDbPoint
 10
6538.396575106998
 20
9156.123139034727
 30
0.0
  0
POINT
  5
18C2D
330
18C24
100
AcDbEntity
  8
DEFPOINTS
 62
     0
 48
50.0
100
AcDbPoint
 10
7601.39657510701
 20
9156.12313903472
 30
0.0
  0
POINT
  5
18C2E
330
18C24
100
AcDbEntity
  8
DEFPOINTS
 62
     0
 48
50.0
100
AcDbPoint
 10
7544.160902108544
 20
8942.51669939905
 30
0.0
  0
ENDBLK
  5
18C2F
330
18C24
100
AcDbEntity
  8
0
 48
50.0
100
AcDbBlockEnd
  0
BLOCK
  5
18C31
330
18C30
100
AcDbEntity
  8
0
 48
50.0
100
AcDbBlockBegin
  2
*D11
 70
     1
 10
0.0
 20
0.0
 30
0.0
  3
*D11
  1

  0
LINE
  5
18C32
330
18C30
100
AcDbEntity
  8
寸法
 62
     0
 48
50.0
370
    -2
100
AcDbLine
 10
7621.396575106999
 20
9600.764155186094
 30
0.0
 11
8016.754300969024
 21
9494.828371819961
 31
0.0
  0
LINE
  5
18C33
330
18C30
100
AcDbEntity
  8
寸法
 62
     0
 48
50.0
370
    -2
100
AcDbLine
 10
7621.396575106999
 20
9150.764155186099
 30
0.0
 11
8016.754300969024
 21
9044.828371819964
 31
0.0
  0
LINE
  5
18C34
330
18C30
100
AcDbEntity
  8
寸法
 62
     0
 48
50.0
370
    -2
100
AcDbLine
 10
7956.754300969024
 20
9510.905323365827
 30
0.0
 11
7956.754300969024
 21
9060.90532336583
 31
0.0
  0
INSERT
  5
18C35
330
18C30
100
AcDbEntity
  8
寸法
 62
     0
 48
50.0
370
    -2
100
AcDbBlockReference
  2
_DOTSMALL
 10
7956.754300969024
 20
9510.905323365827
 30
0.0
 41
100.0
 42
100.0
 43
100.0
 50
90.0
  0
INSERT
  5
18C36
330
18C30
100
AcDbEntity
  8
寸法
 62
     0
 48
50.0
370
    -2
100
AcDbBlockReference
  2
_DOTSMALL
 10
7956.754300969024
 20
9060.90532336583
 30
0.0
 41
100.0
 42
100.0
 43
100.0
 50
270.0
  0
MTEXT
  5
18C37
330
18C30
100
AcDbEntity
  8
寸法
 62
     7
 48
50.0
100
AcDbMText
 10
7856.754300969022
 20
9285.905323365829
 30
0.0
 40
120.0
 41
0.0
 71
     5
 72
     1
  1
\A1;450
  7
STYLE1
 11
0.0000000000000001
 21
1.0
 31
0.0
 73
     1
 44
1.0
1001
ACAD
1000
MTEXTBEGIN
1070
    73
1070
     1
1070
    44
1040
1.0
1070
    74
1070
     0
1000
MTEXTEND
  0
POINT
  5
18C38
330
18C30
100
AcDbEntity
  8
DEFPOINTS
 62
     0
 48
50.0
100
AcDbPoint
 10
7601.396575106999
 20
9606.123139034718
 30
0.0
  0
POINT
  5
18C39
330
18C30
100
AcDbEntity
  8
DEFPOINTS
 62
     0
 48
50.0
100
AcDbPoint
 10
7601.396575106999
 20
9156.12313903472
 30
0.0
  0
POINT
  5
18C3A
330
18C30
100
AcDbEntity
  8
DEFPOINTS
 62
     0
 48
50.0
100
AcDbPoint
 10
7956.754300969024
 20
9060.90532336583
 30
0.0
  0
ENDBLK
  5
18C3B
330
18C30
100
AcDbEntity
  8
0
 48
50.0
100
AcDbBlockEnd
  0
BLOCK
  5
18C3D
330
18C3C
100
AcDbEntity
  8
0
 48
50.0
100
AcDbBlockBegin
  2
*D12
 70
     1
 10
0.0
 20
0.0
 30
0.0
  3
*D12
  1

  0
LINE
  5
18C3E
330
18C3C
100
AcDbEntity
  8
寸法
 62
     0
 48
50.0
370
    -2
100
AcDbLine
 10
7649.896575106999
 20
9581.123139034721
 30
0.0
 11
8337.32292084141
 21
9581.123139034721
 31
0.0
  0
LINE
  5
18C3F
330
18C3C
100
AcDbEntity
  8
寸法
 62
     0
 48
50.0
370
    -2
100
AcDbLine
 10
7649.896575106973
 20
7901.123139034706
 30
0.0
 11
8337.32292084141
 21
7901.123139034706
 31
0.0
  0
LINE
  5
18C40
330
18C3C
100
AcDbEntity
  8
寸法
 62
     0
 48
50.0
370
    -2
100
AcDbLine
 10
8277.322920841411
 20
9581.123139034721
 30
0.0
 11
8277.322920841411
 21
7901.123139034706
 31
0.0
  0
INSERT
  5
18C41
330
18C3C
100
AcDbEntity
  8
寸法
 62
     0
 48
50.0
370
    -2
100
AcDbBlockReference
  2
_DOTSMALL
 10
8277.322920841411
 20
9581.123139034721
 30
0.0
 41
100.0
 42
100.0
 43
100.0
 50
90.0
  0
INSERT
  5
18C42
330
18C3C
100
AcDbEntity
  8
寸法
 62
     0
 48
50.0
370
    -2
100
AcDbBlockReference
  2
_DOTSMALL
 10
8277.322920841411
 20
7901.123139034706
 30
0.0
 41
100.0
 42
100.0
 43
100.0
 50
270.0
  0
MTEXT
  5
18C43
330
18C3C
100
AcDbEntity
  8
寸法
 62
     7
 48
50.0
100
AcDbMText
 10
8177.311109817788
 20
8741.123139034712
 30
0.0
 40
120.0
 41
0.0
 71
     5
 72
     1
  1
\A1;4X420=1680
  7
STYLE1
 11
0.0000000000000001
 21
1.0
 31
0.0
 73
     1
 44
1.0
1001
ACAD
1000
MTEXTBEGIN
1070
    73
1070
     1
1070
    44
1040
1.0
1070
    74
1070
     0
1000
MTEXTEND
  0
POINT
  5
18C44
330
18C3C
100
AcDbEntity
  8
DEFPOINTS
 62
     0
 48
50.0
100
AcDbPoint
 10
7629.896575106998
 20
9581.123139034721
 30
0.0
  0
POINT
  5
18C45
330
18C3C
100
AcDbEntity
  8
DEFPOINTS
 62
     0
 48
50.0
100
AcDbPoint
 10
7629.896575106974
 20
7901.123139034706
 30
0.0
  0
POINT
  5
18C46
330
18C3C
100
AcDbEntity
  8
DEFPOINTS
 62
     0
 48
50.0
100
AcDbPoint
 10
8277.322920841411
 20
7901.123139034706
 30
0.0
  0
ENDBLK
  5
18C47
330
18C3C
100
AcDbEntity
  8
0
 48
50.0
100
AcDbBlockEnd
  0
BLOCK
  5
18C49
330
18C48
100
AcDbEntity
  8
0
 48
50.0
100
AcDbBlockBegin
  2
*D13
 70
     1
 10
0.0
 20
0.0
 30
0.0
  3
*D13
  1

  0
LINE
  5
18C4A
330
18C48
100
AcDbEntity
  8
寸法
 62
     0
 48
50.0
370
    -2
100
AcDbLine
 10
4183.037591258377
 20
9136.123139034619
 30
0.0
 11
4115.083950562663
 21
8882.516699398941
 31
0.0
  0
LINE
  5
18C4B
330
18C48
100
AcDbEntity
  8
寸法
 62
     0
 48
50.0
370
    -2
100
AcDbLine
 10
5246.037591258307
 20
9136.123139034671
 30
0.0
 11
5178.08395056258
 21
8882.516699398941
 31
0.0
  0
LINE
  5
18C4C
330
18C48
100
AcDbEntity
  8
寸法
 62
     0
 48
50.0
370
    -2
100
AcDbLine
 10
4131.160902108532
 20
8942.516699398941
 30
0.0
 11
5194.160902108448
 21
8942.516699398941
 31
0.0
  0
INSERT
  5
18C4D
330
18C48
100
AcDbEntity
  8
寸法
 62
     0
 48
50.0
370
    -2
100
AcDbBlockReference
  2
_DOTSMALL
 10
4131.160902108532
 20
8942.516699398941
 30
0.0
 41
100.0
 42
100.0
 43
100.0
 50
180.0
  0
INSERT
  5
18C4E
330
18C48
100
AcDbEntity
  8
寸法
 62
     0
 48
50.0
370
    -2
100
AcDbBlockReference
  2
_DOTSMALL
 10
5194.160902108448
 20
8942.516699398941
 30
0.0
 41
100.0
 42
100.0
 43
100.0
  0
MTEXT
  5
18C4F
330
18C48
100
AcDbEntity
  8
寸法
 62
     7
 48
50.0
100
AcDbMText
 10
4658.986452655306
 20
9042.516699398941
 30
0.0
 40
120.0
 41
0.0
 71
     5
 72
     1
  1
\A1;1063
  7
STYLE1
 73
     1
 44
1.0
1001
ACAD
1000
MTEXTBEGIN
1070
    73
1070
     1
1070
    44
1040
1.0
1070
    74
1070
     0
1000
MTEXTEND
  0
POINT
  5
18C50
330
18C48
100
AcDbEntity
  8
DEFPOINTS
 62
     0
 48
50.0
100
AcDbPoint
 10
4188.396575106999
 20
9156.123139034617
 30
0.0
  0
POINT
  5
18C51
330
18C48
100
AcDbEntity
  8
DEFPOINTS
 62
     0
 48
50.0
100
AcDbPoint
 10
5251.396575106929
 20
9156.123139034672
 30
0.0
  0
POINT
  5
18C52
330
18C48
100
AcDbEntity
  8
DEFPOINTS
 62
     0
 48
50.0
100
AcDbPoint
 10
5194.160902108448
 20
8942.516699398941
 30
0.0
  0
ENDBLK
  5
18C53
330
18C48
100
AcDbEntity
  8
0
 48
50.0
100
AcDbBlockEnd
  0
BLOCK
  5
18C55
330
18C54
100
AcDbEntity
  8
0
 48
50.0
100
AcDbBlockBegin
  2
*D14
 70
     1
 10
0.0
 20
0.0
 30
0.0
  3
*D14
  1

  0
LINE
  5
18C56
330
18C54
100
AcDbEntity
  8
寸法
 62
     0
 48
50.0
370
    -2
100
AcDbLine
 10
5274.037591258307
 20
9136.123139034669
 30
0.0
 11
5206.08395056258
 21
8882.516699398941
 31
0.0
  0
LINE
  5
18C57
330
18C54
100
AcDbEntity
  8
寸法
 62
     0
 48
50.0
370
    -2
100
AcDbLine
 10
6505.037591258377
 20
9136.123139034662
 30
0.0
 11
6437.083950562653
 21
8882.516699398941
 31
0.0
  0
LINE
  5
18C58
330
18C54
100
AcDbEntity
  8
寸法
 62
     0
 48
50.0
370
    -2
100
AcDbLine
 10
5222.160902108448
 20
8942.516699398941
 30
0.0
 11
6453.16090210852
 21
8942.516699398941
 31
0.0
  0
INSERT
  5
18C59
330
18C54
100
AcDbEntity
  8
寸法
 62
     0
 48
50.0
370
    -2
100
AcDbBlockReference
  2
_DOTSMALL
 10
5222.160902108448
 20
8942.516699398941
 30
0.0
 41
100.0
 42
100.0
 43
100.0
 50
180.0
  0
INSERT
  5
18C5A
330
18C54
100
AcDbEntity
  8
寸法
 62
     0
 48
50.0
370
    -2
100
AcDbBlockReference
  2
_DOTSMALL
 10
6453.16090210852
 20
8942.516699398941
 30
0.0
 41
100.0
 42
100.0
 43
100.0
  0
MTEXT
  5
18C5B
330
18C54
100
AcDbEntity
  8
寸法
 62
     7
 48
50.0
100
AcDbMText
 10
6081.244808320626
 20
9042.528510422561
 30
0.0
 40
120.0
 41
0.0
 71
     5
 72
     1
  1
\A1;1231
  7
STYLE1
 73
     1
 44
1.0
1001
ACAD
1000
MTEXTBEGIN
1070
    73
1070
     1
1070
    44
1040
1.0
1070
    74
1070
     0
1000
MTEXTEND
  0
POINT
  5
18C5C
330
18C54
100
AcDbEntity
  8
DEFPOINTS
 62
     0
 48
50.0
100
AcDbPoint
 10
5279.396575106929
 20
9156.123139034669
 30
0.0
  0
POINT
  5
18C5D
330
18C54
100
AcDbEntity
  8
DEFPOINTS
 62
     0
 48
50.0
100
AcDbPoint
 10
6510.396575106999
 20
9156.123139034662
 30
0.0
  0
POINT
  5
18C5E
330
18C54
100
AcDbEntity
  8
DEFPOINTS
 62
     0
 48
50.0
100
AcDbPoint
 10
6453.16090210852
 20
8942.516699398941
 30
0.0
  0
ENDBLK
  5
18C5F
330
18C54
100
AcDbEntity
  8
0
 48
50.0
100
AcDbBlockEnd
  0
BLOCK
  5
18C61
330
18C60
100
AcDbEntity
  8
0
 48
50.0
100
AcDbBlockBegin
  2
*D15
 70
     1
 10
0.0
 20
0.0
 30
0.0
  3
*D15
  1

  0
LINE
  5
18C62
330
18C60
100
AcDbEntity
  8
寸法
 62
     0
 48
50.0
370
    -2
100
AcDbLine
 10
5065.896575106966
 20
7749.123139034579
 30
0.0
 11
5065.896575106966
 21
7099.952920982538
 31
0.0
  0
LINE
  5
18C63
330
18C60
100
AcDbEntity
  8
寸法
 62
     0
 48
50.0
370
    -2
100
AcDbLine
 10
6331.896575106966
 20
7749.123139034579
 30
0.0
 11
6331.896575106966
 21
7099.952920982538
 31
0.0
  0
LINE
  5
18C64
330
18C60
100
AcDbEntity
  8
寸法
 62
     0
 48
50.0
370
    -2
100
AcDbLine
 10
5065.896575106966
 20
7159.952920982537
 30
0.0
 11
6331.896575106966
 21
7159.952920982537
 31
0.0
  0
INSERT
  5
18C65
330
18C60
100
AcDbEntity
  8
寸法
 62
     0
 48
50.0
370
    -2
100
AcDbBlockReference
  2
_DOTSMALL
 10
5065.896575106966
 20
7159.952920982537
 30
0.0
 41
100.0
 42
100.0
 43
100.0
 50
180.0
  0
INSERT
  5
18C66
330
18C60
100
AcDbEntity
  8
寸法
 62
     0
 48
50.0
370
    -2
100
AcDbBlockReference
  2
_DOTSMALL
 10
6331.896575106966
 20
7159.952920982537
 30
0.0
 41
100.0
 42
100.0
 43
100.0
  0
MTEXT
  5
18C67
330
18C60
100
AcDbEntity
  8
寸法
 62
     7
 48
50.0
100
AcDbMText
 10
5711.986008735934
 20
7359.964732006159
 30
0.0
 40
120.0
 41
0.0
 71
     5
 72
     1
  1
\A1;有効開口部間口\P1266
  7
STYLE1
 73
     1
 44
1.0
1001
ACAD
1000
MTEXTBEGIN
1070
    73
1070
     1
1070
    44
1040
1.0
1070
    74
1070
     0
1000
MTEXTEND
  0
POINT
  5
18C68
330
18C60
100
AcDbEntity
  8
DEFPOINTS
 62
     0
 48
50.0
100
AcDbPoint
 10
5065.896575106966
 20
7769.123139034579
 30
0.0
  0
POINT
  5
18C69
330
18C60
100
AcDbEntity
  8
DEFPOINTS
 62
     0
 48
50.0
100
AcDbPoint
 10
6331.896575106966
 20
7769.123139034579
 30
0.0
  0
POINT
  5
18C6A
330
18C60
100
AcDbEntity
  8
DEFPOINTS
 62
     0
 48
50.0
100
AcDbPoint
 10
6331.896575106966
 20
7159.952920982537
 30
0.0
  0
ENDBLK
  5
18C6B
330
18C60
100
AcDbEntity
  8
0
 48
50.0
100
AcDbBlockEnd
  0
BLOCK
  5
18C6D
330
18C6C
100
AcDbEntity
  8
0
 48
50.0
100
AcDbBlockBegin
  2
*D16
 70
     1
 10
0.0
 20
0.0
 30
0.0
  3
*D16
  1

  0
LINE
  5
18C6E
330
18C6C
100
AcDbEntity
  8
寸法
 62
     0
 48
50.0
370
    -2
100
AcDbLine
 10
7200.896575106966
 20
7846.123139034578
 30
0.0
 11
7457.192158500191
 21
7846.123139034578
 31
0.0
  0
LINE
  5
18C6F
330
18C6C
100
AcDbEntity
  8
寸法
 62
     0
 48
50.0
370
    -2
100
AcDbLine
 10
7199.896575106966
 20
7769.123139034579
 30
0.0
 11
7457.192158500191
 21
7769.123139034579
 31
0.0
  0
LINE
  5
18C70
330
18C6C
100
AcDbEntity
  8
寸法
 62
     0
 48
50.0
370
    -2
100
AcDbLine
 10
7417.192158500192
 20
7866.123139034579
 30
0.0
 11
7417.192158500192
 21
7886.123139034578
 31
0.0
  0
LINE
  5
18C71
330
18C6C
100
AcDbEntity
  8
寸法
 62
     0
 48
50.0
370
    -2
100
AcDbLine
 10
7417.192158500192
 20
7749.123139034579
 30
0.0
 11
7417.192158500192
 21
7533.123139034573
 31
0.0
  0
LINE
  5
18C72
330
18C6C
100
AcDbEntity
  8
寸法
 62
     0
 48
50.0
370
    -2
100
AcDbLine
 10
7417.192158500192
 20
7846.123139034578
 30
0.0
 11
7417.192158500192
 21
7769.123139034579
 31
0.0
  0
INSERT
  5
18C73
330
18C6C
100
AcDbEntity
  8
寸法
 62
     0
 48
50.0
370
    -2
100
AcDbBlockReference
  2
_DOT
 10
7417.192158500192
 20
7846.123139034578
 30
0.0
 41
20.0
 42
20.0
 43
20.0
 50
270.0
  0
INSERT
  5
18C74
330
18C6C
100
AcDbEntity
  8
寸法
 62
     0
 48
50.0
370
    -2
100
AcDbBlockReference
  2
_DOT
 10
7417.192158500192
 20
7769.123139034579
 30
0.0
 41
20.0
 42
20.0
 43
20.0
 50
90.0
  0
MTEXT
  5
18C75
330
18C6C
100
AcDbEntity
  8
寸法
 62
     7
 48
50.0
100
AcDbMText
 10
7325.192158500191
 20
7631.123139034575
 30
0.0
 40
120.0
 41
0.0
 71
     5
 72
     1
  1
\A1;77
  7
STYLE1
 11
0.0000000000000001
 21
1.0
 31
0.0
 73
     1
 44
1.0
1001
ACAD
1000
MTEXTBEGIN
1070
    73
1070
     1
1070
    44
1040
1.0
1070
    74
1070
     0
1000
MTEXTEND
  0
POINT
  5
18C76
330
18C6C
100
AcDbEntity
  8
DEFPOINTS
 62
     0
 48
50.0
100
AcDbPoint
 10
7180.896575106967
 20
7846.123139034578
 30
0.0
  0
POINT
  5
18C77
330
18C6C
100
AcDbEntity
  8
DEFPOINTS
 62
     0
 48
50.0
100
AcDbPoint
 10
7179.896575106965
 20
7769.123139034579
 30
0.0
  0
POINT
  5
18C78
330
18C6C
100
AcDbEntity
  8
DEFPOINTS
 62
     0
 48
50.0
100
AcDbPoint
 10
7417.192158500192
 20
7769.123139034579
 30
0.0
  0
ENDBLK
  5
18C79
330
18C6C
100
AcDbEntity
  8
0
 48
50.0
100
AcDbBlockEnd
  0
BLOCK
  5
18DA0
330
18C7A
100
AcDbEntity
  8
0
 48
50.0
100
AcDbBlockBegin
  2
A$C3B1A506B
 70
     0
 10
0.0
 20
0.0
 30
0.0
  3
A$C3B1A506B
  1

  0
MTEXT
  5
18C7B
330
18C7A
100
AcDbEntity
  8
寸法
 62
     7
 48
50.0
100
AcDbMText
 10
3342.250386887194
 20
2778.329429134012
 30
0.0
 40
96.0
 41
0.0
 71
     5
 72
     1
  1
棚 2段
  7
STYLE1
 73
     1
 44
1.0
1001
ACAD
1000
MTEXTBEGIN
1070
    73
1070
     1
1070
    44
1040
1.0
1070
    74
1070
     0
1000
MTEXTEND
  0
MTEXT
  5
18C7C
330
18C7A
100
AcDbEntity
  8
寸法
 62
     7
 48
50.0
100
AcDbMText
 10
2167.25038688716
 20
2778.329429133986
 30
0.0
 40
96.0
 41
0.0
 71
     5
 72
     1
  1
棚 2段
  7
STYLE1
 73
     1
 44
1.0
1001
ACAD
1000
MTEXTBEGIN
1070
    73
1070
     1
1070
    44
1040
1.0
1070
    74
1070
     0
1000
MTEXTEND
  0
MTEXT
  5
18C7D
330
18C7A
100
AcDbEntity
  8
寸法
 62
     7
 48
50.0
100
AcDbMText
 10
992.2503868871608
 20
2778.329429133935
 30
0.0
 40
96.0
 41
0.0
 71
     5
 72
     1
  1
棚 2段
  7
STYLE1
 73
     1
 44
1.0
1001
ACAD
1000
MTEXTBEGIN
1070
    73
1070
     1
1070
    44
1040
1.0
1070
    74
1070
     0
1000
MTEXTEND
  0
LINE
  5
18C7E
330
18C7A
100
AcDbEntity
  8
細線
 48
50.0
100
AcDbLine
 10
2771.970589276527
 20
1368.994384123192
 30
0.0
 11
3398.970589276523
 21
1368.994384123192
 31
0.0
  0
LINE
  5
18C7F
330
18C7A
100
AcDbEntity
  8
細線
 48
50.0
100
AcDbLine
 10
2117.970593930113
 20
1335.285615569113
 30
0.0
 11
3398.970589276523
 21
1335.285615569113
 31
0.0
  0
LINE
  5
18C80
330
18C7A
100
AcDbEntity
  8
細線
 48
50.0
100
AcDbLine
 10
2076.970593930115
 20
1364.690523565368
 30
0.0
 11
1322.970589276523
 21
1364.690523565367
 31
0.0
  0
LINE
  5
18C81
330
18C7A
100
AcDbEntity
  8
細線
100
AcDbLine
 10
3170.720579860066
 20
1388.494284088199
 30
0.0
 11
3173.052119381877
 21
1393.494286728162
 31
0.0
  0
LINE
  5
18C82
330
18C7A
100
AcDbEntity
  8
細線
100
AcDbLine
 10
3240.720589276525
 20
1388.494269174465
 30
0.0
 11
3238.389042800336
 21
1393.494286728144
 31
0.0
  0
LINE
  5
18C83
330
18C7A
100
AcDbEntity
  8
細線
100
AcDbLine
 10
3238.389042800336
 20
1393.494286728144
 30
0.0
 11
3173.052119381862
 21
1393.494286728133
 31
0.0
  0
LINE
  5
18C84
330
18C7A
100
AcDbEntity
  8
細線
100
AcDbLine
 10
3098.389042800336
 20
1393.494286728144
 30
0.0
 11
3033.052119381862
 21
1393.494286728133
 31
0.0
  0
LINE
  5
18C85
330
18C7A
100
AcDbEntity
  8
細線
100
AcDbLine
 10
3100.720589276523
 20
1388.494269174465
 30
0.0
 11
3098.389042800336
 21
1393.494286728144
 31
0.0
  0
LINE
  5
18C86
330
18C7A
100
AcDbEntity
  8
細線
100
AcDbLine
 10
3030.720579860066
 20
1388.494284088199
 30
0.0
 11
3033.052119381875
 21
1393.494286728162
 31
0.0
  0
LINE
  5
18C87
330
18C7A
100
AcDbEntity
  8
細線
100
AcDbLine
 10
2890.720589276525
 20
1388.494269174465
 30
0.0
 11
2893.052128798336
 21
1393.494271814428
 31
0.0
  0
LINE
  5
18C88
330
18C7A
100
AcDbEntity
  8
細線
100
AcDbLine
 10
2960.720598692984
 20
1388.494254260731
 30
0.0
 11
2958.389052216793
 21
1393.49427181441
 31
0.0
  0
LINE
  5
18C89
330
18C7A
100
AcDbEntity
  8
細線
100
AcDbLine
 10
2958.389052216795
 20
1393.49427181441
 30
0.0
 11
2893.052128798321
 21
1393.494271814399
 31
0.0
  0
LINE
  5
18C8A
330
18C7A
100
AcDbEntity
  8
細線
100
AcDbLine
 10
2667.139038146739
 20
1359.494298590735
 30
0.0
 11
2601.802114728263
 21
1359.494298590724
 31
0.0
  0
LINE
  5
18C8B
330
18C7A
100
AcDbEntity
  8
細線
100
AcDbLine
 10
2669.470584622926
 20
1354.494281037055
 30
0.0
 11
2667.139038146737
 21
1359.494298590735
 31
0.0
  0
LINE
  5
18C8C
330
18C7A
100
AcDbEntity
  8
細線
100
AcDbLine
 10
2599.470575206469
 20
1354.49429595079
 30
0.0
 11
2601.802114728278
 21
1359.494298590752
 31
0.0
  0
LINE
  5
18C8D
330
18C7A
100
AcDbEntity
  8
細線
 48
50.0
100
AcDbLine
 10
2440.853968524536
 20
1372.765132327548
 30
0.0
 11
2446.609486107205
 21
1354.494281037057
 31
0.0
  0
LINE
  5
18C8E
330
18C7A
100
AcDbEntity
  8
細線
 48
50.0
100
AcDbLine
 10
2429.925520044106
 20
1372.765132327546
 30
0.0
 11
2440.853968524536
 21
1372.765132327548
 31
0.0
  0
ARC
  5
18C8F
330
18C7A
100
AcDbEntity
  8
細線
 48
50.0
100
AcDbCircle
 10
2424.471163986787
 20
1374.265132327546
 30
0.0
 40
5.0
100
AcDbArc
 50
204.6243183520723
 51
335.3756816479278
  0
ARC
  5
18C90
330
18C7A
100
AcDbEntity
  8
細線
 48
50.0
100
AcDbCircle
 10
2429.925520044106
 20
1371.765132327546
 30
0.0
 40
1.0
100
AcDbArc
 50
90.0
 51
155.3756816479277
  0
ARC
  5
18C91
330
18C7A
100
AcDbEntity
  8
細線
 48
50.0
100
AcDbCircle
 10
2419.016807929469
 20
1371.765132327546
 30
0.0
 40
1.0
100
AcDbArc
 50
24.62431835207225
 51
90.0
  0
LINE
  5
18C92
330
18C7A
100
AcDbEntity
  8
細線
 48
50.0
100
AcDbLine
 10
2408.088359449037
 20
1372.765132327548
 30
0.0
 11
2419.016807929469
 21
1372.765132327546
 31
0.0
  0
LINE
  5
18C93
330
18C7A
100
AcDbEntity
  8
細線
 48
50.0
100
AcDbLine
 10
2402.33284186637
 20
1354.494281037054
 30
0.0
 11
2408.088359449037
 21
1372.765132327548
 31
0.0
  0
LINE
  5
18C94
330
18C7A
100
AcDbEntity
  8
細線
100
AcDbLine
 10
2458.070304175992
 20
1354.494278397076
 30
0.0
 11
2460.401843697802
 21
1359.494281037039
 31
0.0
  0
LINE
  5
18C95
330
18C7A
100
AcDbEntity
  8
細線
100
AcDbLine
 10
2528.070313592451
 20
1354.494263483342
 30
0.0
 11
2525.738767116262
 21
1359.494281037021
 31
0.0
  0
LINE
  5
18C96
330
18C7A
100
AcDbEntity
  8
細線
100
AcDbLine
 10
2525.738767116262
 20
1359.494281037021
 30
0.0
 11
2460.40184369779
 21
1359.49428103701
 31
0.0
  0
LINE
  5
18C97
330
18C7A
100
AcDbEntity
  8
細線
100
AcDbLine
 10
2387.139046332155
 20
1359.494281037021
 30
0.0
 11
2321.80212291368
 21
1359.49428103701
 31
0.0
  0
LINE
  5
18C98
330
18C7A
100
AcDbEntity
  8
細線
100
AcDbLine
 10
2389.470592808342
 20
1354.494263483342
 30
0.0
 11
2387.139046332153
 21
1359.494281037021
 31
0.0
  0
LINE
  5
18C99
330
18C7A
100
AcDbEntity
  8
細線
100
AcDbLine
 10
2319.470584622926
 20
1354.494281037054
 30
0.0
 11
2321.802122913694
 21
1359.494281037039
 31
0.0
  0
LINE
  5
18C9A
330
18C7A
100
AcDbEntity
  8
細線
100
AcDbLine
 10
2179.47061994182
 20
1354.494289224422
 30
0.0
 11
2181.802158232587
 21
1359.494289224407
 31
0.0
  0
LINE
  5
18C9B
330
18C7A
100
AcDbEntity
  8
細線
100
AcDbLine
 10
2249.470628127236
 20
1354.49427167071
 30
0.0
 11
2247.139081651047
 21
1359.494289224389
 31
0.0
  0
LINE
  5
18C9C
330
18C7A
100
AcDbEntity
  8
細線
100
AcDbLine
 10
2247.139081651047
 20
1359.494289224389
 30
0.0
 11
2181.802158232573
 21
1359.494289224378
 31
0.0
  0
LINE
  5
18C9D
330
18C7A
100
AcDbEntity
  8
細線
100
AcDbLine
 10
1807.970585744697
 20
1320.494460905133
 30
0.0
 11
1810.302124035464
 21
1325.494460905118
 31
0.0
  0
LINE
  5
18C9E
330
18C7A
100
AcDbEntity
  8
細線
100
AcDbLine
 10
1877.970593930113
 20
1320.494443351421
 30
0.0
 11
1875.639047453926
 21
1325.4944609051
 31
0.0
  0
LINE
  5
18C9F
330
18C7A
100
AcDbEntity
  8
細線
100
AcDbLine
 10
1875.639047453926
 20
1325.4944609051
 30
0.0
 11
1810.302124035452
 21
1325.494460905089
 31
0.0
  0
LINE
  5
18CA0
330
18C7A
100
AcDbEntity
  8
細線
100
AcDbLine
 10
2015.639047453926
 20
1325.4944609051
 30
0.0
 11
1950.302124035452
 21
1325.494460905089
 31
0.0
  0
LINE
  5
18CA1
330
18C7A
100
AcDbEntity
  8
細線
100
AcDbLine
 10
2017.970593930113
 20
1320.494443351421
 30
0.0
 11
2015.639047453924
 21
1325.4944609051
 31
0.0
  0
LINE
  5
18CA2
330
18C7A
100
AcDbEntity
  8
細線
100
AcDbLine
 10
1947.970585744697
 20
1320.494460905133
 30
0.0
 11
1950.302124035465
 21
1325.494460905118
 31
0.0
  0
LINE
  5
18CA3
330
18C7A
100
AcDbEntity
  8
細線
100
AcDbLine
 10
1735.639047453926
 20
1325.494460905098
 30
0.0
 11
1670.302124035454
 21
1325.494460905087
 31
0.0
  0
LINE
  5
18CA4
330
18C7A
100
AcDbEntity
  8
細線
100
AcDbLine
 10
1737.970593930113
 20
1320.494443351419
 30
0.0
 11
1735.639047453926
 21
1325.494460905098
 31
0.0
  0
LINE
  5
18CA5
330
18C7A
100
AcDbEntity
  8
細線
100
AcDbLine
 10
1667.970585744697
 20
1320.494460905131
 30
0.0
 11
1670.302124035465
 21
1325.494460905116
 31
0.0
  0
LINE
  5
18CA6
330
18C7A
100
AcDbEntity
  8
細線
100
AcDbLine
 10
1527.970593930113
 20
1320.494460905133
 30
0.0
 11
1530.302132220881
 21
1325.494460905118
 31
0.0
  0
LINE
  5
18CA7
330
18C7A
100
AcDbEntity
  8
細線
100
AcDbLine
 10
1597.970602115529
 20
1320.494443351421
 30
0.0
 11
1595.639055639342
 21
1325.4944609051
 31
0.0
  0
LINE
  5
18CA8
330
18C7A
100
AcDbEntity
  8
細線
100
AcDbLine
 10
1595.639055639342
 20
1325.4944609051
 30
0.0
 11
1530.302132220869
 21
1325.494460905089
 31
0.0
  0
ARC
  5
18CA9
330
18C7A
100
AcDbEntity
  8
部品1
 48
0.01
100
AcDbCircle
 10
1483.470482677778
 20
1319.493338720063
 30
0.0
 40
0.5
100
AcDbArc
 50
270.0
 51
0.0
  0
LINE
  5
18CAA
330
18C7A
100
AcDbEntity
  8
部品1
 48
0.01
100
AcDbLine
 10
1483.970482677778
 20
1320.493338720063
 30
0.0
 11
1483.970482677778
 21
1319.493338720063
 31
0.0
  0
LINE
  5
18CAB
330
18C7A
100
AcDbEntity
  8
部品1
 48
0.01
100
AcDbLine
 10
1483.970482677778
 20
1320.493338720063
 30
0.0
 11
1483.970482677778
 21
1319.493338720063
 31
0.0
  0
LINE
  5
18CAC
330
18C7A
100
AcDbEntity
  8
部品1
 48
0.01
100
AcDbLine
 10
1483.470482677778
 20
1318.993338720063
 30
0.0
 11
1476.857977247713
 21
1318.993338720062
 31
0.0
  0
ARC
  5
18CAD
330
18C7A
100
AcDbEntity
  8
部品1
100
AcDbCircle
 10
1476.926326800494
 20
1319.993338720062
 30
0.0
 40
1.0
100
AcDbArc
 50
160.5287793655865
 51
270.0
  0
ARC
  5
18CAE
330
18C7A
100
AcDbEntity
  8
部品1
100
AcDbCircle
 10
1451.470482677778
 20
1328.993338720062
 30
0.0
 40
26.0
100
AcDbArc
 50
340.5287793655865
 51
0.0
  0
LINE
  5
18CAF
330
18C7A
100
AcDbEntity
  8
部品1
100
AcDbLine
 10
1477.470482677778
 20
1328.993338720062
 30
0.0
 11
1477.470482677778
 21
1333.993338720061
 31
0.0
  0
ARC
  5
18CB0
330
18C7A
100
AcDbEntity
  8
部品1
 48
0.01
100
AcDbCircle
 10
1475.470482677778
 20
1333.993338720061
 30
0.0
 40
2.0
100
AcDbArc
 50
0.0
 51
90.0
  0
ARC
  5
18CB1
330
18C7A
100
AcDbEntity
  8
部品1
100
AcDbCircle
 10
1473.862091052968
 20
1332.993338720062
 30
0.0
 40
3.0
100
AcDbArc
 50
90.0
 51
141.6069559808035
  0
LINE
  5
18CB2
330
18C7A
100
AcDbEntity
  8
部品1
 48
0.01
100
AcDbLine
 10
1475.470482677778
 20
1335.993338720062
 30
0.0
 11
1473.862091052968
 21
1335.993338720062
 31
0.0
  0
ARC
  5
18CB3
330
18C7A
100
AcDbEntity
  8
部品1
100
AcDbCircle
 10
1455.399768463507
 20
1332.293338720065
 30
0.0
 40
3.0
100
AcDbArc
 50
254.0576313943215
 51
270.0
  0
ARC
  5
18CB4
330
18C7A
100
AcDbEntity
  8
部品1
100
AcDbCircle
 10
1462.541196892049
 20
1332.293338720065
 30
0.0
 40
3.0
100
AcDbArc
 50
270.0
 51
285.9423686056786
  0
LINE
  5
18CB5
330
18C7A
100
AcDbEntity
  8
部品1
100
AcDbLine
 10
1462.541196892049
 20
1329.293338720064
 30
0.0
 11
1455.399768463507
 21
1329.293338720064
 31
0.0
  0
ARC
  5
18CB6
330
18C7A
100
AcDbEntity
  8
部品1
100
AcDbCircle
 10
1458.970482677778
 20
1344.793338720065
 30
0.0
 40
16.0
100
AcDbArc
 50
285.9423686056786
 51
321.6069559808035
  0
LINE
  5
18CB7
330
18C7A
100
AcDbEntity
  8
部品1
 48
0.01
100
AcDbLine
 10
1442.470482677778
 20
1335.993338720062
 30
0.0
 11
1444.078874302588
 21
1335.993338720062
 31
0.0
  0
ARC
  5
18CB8
330
18C7A
100
AcDbEntity
  8
部品1
100
AcDbCircle
 10
1444.078874302588
 20
1332.993338720062
 30
0.0
 40
3.0
100
AcDbArc
 50
38.39304401919648
 51
90.0
  0
ARC
  5
18CB9
330
18C7A
100
AcDbEntity
  8
部品1
100
AcDbCircle
 10
1458.970482677778
 20
1344.793338720065
 30
0.0
 40
16.0
100
AcDbArc
 50
218.3930440191965
 51
254.0576313943215
  0
LINE
  5
18CBA
330
18C7A
100
AcDbEntity
  8
部品1
100
AcDbLine
 10
1440.470482677778
 20
1328.993338720062
 30
0.0
 11
1440.470482677778
 21
1333.993338720061
 31
0.0
  0
ARC
  5
18CBB
330
18C7A
100
AcDbEntity
  8
部品1
 48
0.01
100
AcDbCircle
 10
1442.470482677778
 20
1333.993338720061
 30
0.0
 40
2.0
100
AcDbArc
 50
90.0
 51
180.0
  0
ARC
  5
18CBC
330
18C7A
100
AcDbEntity
  8
部品1
100
AcDbCircle
 10
1466.470482677778
 20
1328.993338720062
 30
0.0
 40
26.0
100
AcDbArc
 50
180.0
 51
199.4712206344134
  0
ARC
  5
18CBD
330
18C7A
100
AcDbEntity
  8
部品1
 48
0.01
100
AcDbCircle
 10
1434.470482677778
 20
1319.493338720063
 30
0.0
 40
0.5
100
AcDbArc
 50
180.0
 51
270.0
  0
LINE
  5
18CBE
330
18C7A
100
AcDbEntity
  8
部品1
 48
0.01
100
AcDbLine
 10
1434.470482677778
 20
1318.993338720063
 30
0.0
 11
1441.014638555061
 21
1318.993338720062
 31
0.0
  0
LINE
  5
18CBF
330
18C7A
100
AcDbEntity
  8
部品1
 48
0.01
100
AcDbLine
 10
1433.970482677778
 20
1320.493338720063
 30
0.0
 11
1433.970482677778
 21
1319.493338720063
 31
0.0
  0
ARC
  5
18CC0
330
18C7A
100
AcDbEntity
  8
部品1
100
AcDbCircle
 10
1441.014638555061
 20
1319.993338720062
 30
0.0
 40
1.0
100
AcDbArc
 50
270.0
 51
19.47122063441346
  0
LINE
  5
18CC1
330
18C7A
100
AcDbEntity
  8
細線
100
AcDbLine
 10
1479.470482677785
 20
1338.493338720065
 30
0.0
 11
1438.470482677785
 21
1338.493338720058
 31
0.0
  0
LINE
  5
18CC2
330
18C7A
100
AcDbEntity
  8
細線
100
AcDbLine
 10
1438.470482677785
 20
1338.493338720058
 30
0.0
 11
1438.470482677785
 21
1320.49333872004
 31
0.0
  0
LINE
  5
18CC3
330
18C7A
100
AcDbEntity
  8
細線
100
AcDbLine
 10
1479.470482677785
 20
1338.493338720065
 30
0.0
 11
1479.470482677785
 21
1320.49333872004
 31
0.0
  0
LINE
  5
18CC4
330
18C7A
100
AcDbEntity
  8
細線
100
AcDbLine
 10
1322.970589276523
 20
1324.494269174465
 30
0.0
 11
1322.970589276523
 21
1320.494269174513
 31
0.0
  0
LINE
  5
18CC5
330
18C7A
100
AcDbEntity
  8
寸法
 48
50.0
100
AcDbLine
 10
1746.17359555837
 20
1170.531020743327
 30
0.0
 11
1694.767587648266
 21
1170.531020743327
 31
0.0
  0
LINE
  5
18CC6
330
18C7A
100
AcDbEntity
  8
寸法
 48
50.0
100
AcDbLine
 10
1694.767587648266
 20
1170.531020743327
 30
0.0
 11
1694.767587648266
 21
1201.841179395494
 31
0.0
  0
LINE
  5
18CC7
330
18C7A
100
AcDbEntity
  8
寸法
 48
50.0
100
AcDbLine
 10
1694.767587648266
 20
1201.841179395494
 30
0.0
 11
1665.006255656843
 21
1201.841179395494
 31
0.0
  0
LINE
  5
18CC8
330
18C7A
100
AcDbEntity
  8
寸法
 48
50.0
100
AcDbLine
 10
1665.006255656843
 20
1201.841179395494
 30
0.0
 11
1720.470591603318
 21
1239.420630324105
 31
0.0
  0
LINE
  5
18CC9
330
18C7A
100
AcDbEntity
  8
寸法
 48
50.0
100
AcDbLine
 10
1775.934927549793
 20
1201.841179395494
 30
0.0
 11
1720.470591603318
 21
1239.420630324105
 31
0.0
  0
LINE
  5
18CCA
330
18C7A
100
AcDbEntity
  8
寸法
 48
50.0
100
AcDbLine
 10
1746.17359555837
 20
1201.841179395494
 30
0.0
 11
1775.934927549793
 21
1201.841179395494
 31
0.0
  0
LINE
  5
18CCB
330
18C7A
100
AcDbEntity
  8
寸法
 48
50.0
100
AcDbLine
 10
1746.17359555837
 20
1170.531020743327
 30
0.0
 11
1746.17359555837
 21
1201.841179395494
 31
0.0
  0
LINE
  5
18CCC
330
18C7A
100
AcDbEntity
  8
寸法
 48
50.0
100
AcDbLine
 10
1694.767587648266
 20
1170.531020743327
 30
0.0
 11
1746.17359555837
 21
1170.531020743327
 31
0.0
  0
LINE
  5
18CCD
330
18C7A
100
AcDbEntity
  8
寸法
 48
50.0
100
AcDbLine
 10
2025.339129835225
 20
1227.676611498152
 30
0.0
 11
2025.339129835225
 21
1174.01297691636
 31
0.0
  0
LINE
  5
18CCE
330
18C7A
100
AcDbEntity
  8
寸法
 48
50.0
100
AcDbLine
 10
2114.623348430647
 20
1203.752977228664
 30
0.0
 11
2025.339129835225
 21
1227.676611498152
 31
0.0
  0
LINE
  5
18CCF
330
18C7A
100
AcDbEntity
  8
寸法
 48
50.0
100
AcDbLine
 10
1895.471408254923
 20
1203.752977228664
 30
0.0
 11
2114.623348430647
 21
1203.752977228664
 31
0.0
  0
DIMENSION
  5
18CD0
330
18C7A
100
AcDbEntity
  8
寸法
 48
50.0
100
AcDbDimension
  2
*D15
 10
2588.970589276523
 20
706.3240511224249
 30
0.0
 11
1969.060022905491
 21
706.3240511224249
 31
0.0
 12
-3742.925985830444
 22
-6453.628869860112
 32
0.0
 70
   128
  1
有効開口部間口\P<>
 71
     5
 42
1266.0
  3
INABA_S40G
100
AcDbAlignedDimension
 13
1322.970589276523
 23
1315.494269174465
 33
0.0
 14
2588.970589276523
 24
1315.494269174465
 34
0.0
100
AcDbRotatedDimension
1001
ACAD
1000
DSTYLE
1002
{
1070
   341
1005
0
1002
}
  0
LINE
  5
18CD1
330
18C7A
100
AcDbEntity
  8
部品1
100
AcDbLine
 10
3409.970589276524
 20
1392.494269174465
 30
0.0
 11
3437.970589276523
 21
1392.494269174465
 31
0.0
  0
DIMENSION
  5
18CD2
330
18C7A
100
AcDbEntity
  8
寸法
100
AcDbDimension
  2
*D16
 10
3674.266172669749
 20
1315.494269174465
 30
0.0
 11
3674.266172669748
 21
1177.494269174462
 31
0.0
 12
-3742.925985830444
 22
-6453.628869860112
 32
0.0
 70
   128
 71
     5
 42
77.0
  3
INABA_S40
100
AcDbAlignedDimension
 13
3437.970589276523
 23
1392.494269174465
 33
0.0
 14
3436.970589276523
 24
1315.494269174465
 34
0.0
 50
90.0
100
AcDbRotatedDimension
1001
ACAD
1000
DSTYLE
1002
{
1070
    41
1040
0.5
1070
    44
1040
1.0
1070
   147
1040
0.8
1070
   271
1070
     2
1070
   272
1070
     2
1070
   289
1070
     3
1070
   340
1005
F706
1070
   343
1005
164B4
1070
   344
1005
164B4
1002
}
  0
LINE
  5
18CD3
330
18C7A
100
AcDbEntity
  8
部品1
100
AcDbLine
 10
3437.970589276523
 20
1315.494269174465
 30
0.0
 11
3437.970589276523
 21
1392.494269174465
 31
0.0
  0
LINE
  5
18CD4
330
18C7A
100
AcDbEntity
  8
部品1
100
AcDbLine
 10
3398.970589276523
 20
1388.494269174465
 30
0.0
 11
3409.970589276524
 21
1388.494269174465
 31
0.0
  0
LINE
  5
18CD5
330
18C7A
100
AcDbEntity
  8
部品1
100
AcDbLine
 10
3407.970589276523
 20
1324.494269174465
 30
0.0
 11
3407.970589276523
 21
1315.494269174465
 31
0.0
  0
LINE
  5
18CD6
330
18C7A
100
AcDbEntity
  8
部品1
100
AcDbLine
 10
3398.970589276523
 20
1324.494269174465
 30
0.0
 11
3407.970589276523
 21
1324.494269174465
 31
0.0
  0
LINE
  5
18CD7
330
18C7A
100
AcDbEntity
  8
部品1
100
AcDbLine
 10
3398.970589276523
 20
1388.494269174465
 30
0.0
 11
3398.970589276523
 21
1324.494269174465
 31
0.0
  0
LINE
  5
18CD8
330
18C7A
100
AcDbEntity
  8
部品1
100
AcDbLine
 10
3409.970589276524
 20
1419.494269174465
 30
0.0
 11
3409.970589276524
 21
1388.494269174465
 31
0.0
  0
LINE
  5
18CD9
330
18C7A
100
AcDbEntity
  8
部品1
100
AcDbLine
 10
1322.970589276523
 20
1388.494269174465
 30
0.0
 11
1311.970589276523
 21
1388.494269174465
 31
0.0
  0
LINE
  5
18CDA
330
18C7A
100
AcDbEntity
  8
部品1
100
AcDbLine
 10
1283.970589276523
 20
1392.494269174465
 30
0.0
 11
1311.970589276523
 21
1392.494269174465
 31
0.0
  0
LINE
  5
18CDB
330
18C7A
100
AcDbEntity
  8
部品1
100
AcDbLine
 10
1313.970589276523
 20
1324.494269174465
 30
0.0
 11
1313.970589276523
 21
1315.494269174465
 31
0.0
  0
LINE
  5
18CDC
330
18C7A
100
AcDbEntity
  8
部品1
100
AcDbLine
 10
1322.970589276523
 20
1324.494269174465
 30
0.0
 11
1313.970589276523
 21
1324.494269174465
 31
0.0
  0
LINE
  5
18CDD
330
18C7A
100
AcDbEntity
  8
部品1
100
AcDbLine
 10
1313.970589276523
 20
1315.494269174465
 30
0.0
 11
1283.970589276523
 21
1315.494269174465
 31
0.0
  0
LINE
  5
18CDE
330
18C7A
100
AcDbEntity
  8
部品1
100
AcDbLine
 10
1283.970589276523
 20
1315.494269174465
 30
0.0
 11
1283.970589276523
 21
1392.494269174465
 31
0.0
  0
LINE
  5
18CDF
330
18C7A
100
AcDbEntity
  8
部品1
100
AcDbLine
 10
1322.970589276523
 20
1388.494269174465
 30
0.0
 11
1322.970589276523
 21
1324.494269174465
 31
0.0
  0
LINE
  5
18CE0
330
18C7A
100
AcDbEntity
  8
部品1
100
AcDbLine
 10
1311.970589276523
 20
1419.494269174462
 30
0.0
 11
1311.970589276523
 21
1388.494269174465
 31
0.0
  0
LINE
  5
18CE1
330
18C7A
100
AcDbEntity
  8
部品1
100
AcDbLine
 10
1311.970589276523
 20
1419.494269174462
 30
0.0
 11
3409.970589276524
 21
1419.494269174465
 31
0.0
  0
LINE
  5
18CE2
330
18C7A
100
AcDbEntity
  8
部品1
100
AcDbLine
 10
3407.970589276523
 20
1315.494269174465
 30
0.0
 11
3437.970589276523
 21
1315.494269174465
 31
0.0
  0
LINE
  5
18CE3
330
18C7A
100
AcDbEntity
  8
部品1
100
AcDbLine
 10
1313.970589276523
 20
1315.494269174465
 30
0.0
 11
3410.970589276523
 21
1315.494269174465
 31
0.0
  0
LINE
  5
18CE4
330
18C7A
100
AcDbEntity
  8
細線
  6
Continuous
 62
     5
100
AcDbLine
 10
2689.970589276527
 20
1354.494269174462
 30
0.0
 11
2689.970589276527
 21
1354.494269174462
 31
0.0
  0
LINE
  5
18CE5
330
18C7A
100
AcDbEntity
  8
細線
  6
Continuous
 62
     5
100
AcDbLine
 10
2682.470589276527
 20
1354.494269174462
 30
0.0
 11
2682.470589276527
 21
1354.494269174462
 31
0.0
  0
LINE
  5
18CE6
330
18C7A
100
AcDbEntity
  8
細線
  6
Continuous
 62
     5
100
AcDbLine
 10
2676.470589276527
 20
1354.494269174462
 30
0.0
 11
2676.470589276527
 21
1354.494269174462
 31
0.0
  0
LINE
  5
18CE7
330
18C7A
100
AcDbEntity
  8
細線
  6
Continuous
 62
     5
100
AcDbLine
 10
2743.970589276527
 20
1373.494269174462
 30
0.0
 11
2743.970589276527
 21
1373.494269174462
 31
0.0
  0
LINE
  5
18CE8
330
18C7A
100
AcDbEntity
  8
細線
 48
50.0
100
AcDbLine
 10
1336.970593930116
 20
1341.094443351418
 30
0.0
 11
1336.970593930113
 21
1349.490593759059
 31
0.0
  0
LINE
  5
18CE9
330
18C7A
100
AcDbEntity
  8
細線
 48
50.0
100
AcDbLine
 10
1336.970593930113
 20
1349.490593759059
 30
0.0
 11
1322.970589276523
 21
1349.490593759057
 31
0.0
  0
LINE
  5
18CEA
330
18C7A
100
AcDbEntity
  8
細線
 48
50.0
100
AcDbLine
 10
2087.970593930113
 20
1337.644443351419
 30
0.0
 11
2087.970593930113
 21
1342.494443351421
 31
0.0
  0
LINE
  5
18CEB
330
18C7A
100
AcDbEntity
  8
細線
 48
50.0
100
AcDbLine
 10
2087.970593930113
 20
1342.494443351421
 30
0.0
 11
2102.970593930113
 21
1342.494443351421
 31
0.0
  0
LINE
  5
18CEC
330
18C7A
100
AcDbEntity
  8
細線
 48
50.0
100
AcDbLine
 10
2102.970593930113
 20
1342.494443351421
 30
0.0
 11
2102.970593930115
 21
1349.494443351419
 31
0.0
  0
LINE
  5
18CED
330
18C7A
100
AcDbEntity
  8
細線
 48
50.0
100
AcDbLine
 10
2102.970593930115
 20
1349.494443351419
 30
0.0
 11
2117.970593930113
 21
1349.494443351419
 31
0.0
  0
LINE
  5
18CEE
330
18C7A
100
AcDbEntity
  8
細線
 48
50.0
100
AcDbLine
 10
2117.970593930113
 20
1349.494443351419
 30
0.0
 11
2117.970593930113
 21
1320.494443351421
 31
0.0
  0
LINE
  5
18CEF
330
18C7A
100
AcDbEntity
  8
細線
 48
50.0
100
AcDbLine
 10
1313.970589276523
 20
1320.491777694889
 30
0.0
 11
1527.970593930113
 21
1320.494460905133
 31
0.0
  0
LINE
  5
18CF0
330
18C7A
100
AcDbEntity
  8
細線
 48
50.0
100
AcDbLine
 10
2017.970593930113
 20
1320.494443351421
 30
0.0
 11
2117.970593930113
 21
1320.494443351421
 31
0.0
  0
LINE
  5
18CF1
330
18C7A
100
AcDbEntity
  8
細線
 48
50.0
100
AcDbLine
 10
1737.970593930113
 20
1320.494443351419
 30
0.0
 11
1807.970593930113
 21
1320.494443351423
 31
0.0
  0
LINE
  5
18CF2
330
18C7A
100
AcDbEntity
  8
細線
 48
50.0
100
AcDbLine
 10
1750.832558942642
 20
1320.494443351419
 30
0.0
 11
1756.588076525309
 21
1338.765294641913
 31
0.0
  0
LINE
  5
18CF3
330
18C7A
100
AcDbEntity
  8
細線
 48
50.0
100
AcDbLine
 10
1756.588076525309
 20
1338.765294641913
 30
0.0
 11
1767.516525005743
 21
1338.765294641911
 31
0.0
  0
ARC
  5
18CF4
330
18C7A
100
AcDbEntity
  8
細線
 48
50.0
100
AcDbCircle
 10
1767.516525005743
 20
1337.765294641911
 30
0.0
 40
1.0
100
AcDbArc
 50
24.62431835207225
 51
90.0
  0
ARC
  5
18CF5
330
18C7A
100
AcDbEntity
  8
細線
 48
50.0
100
AcDbCircle
 10
1778.425237120377
 20
1337.765294641911
 30
0.0
 40
1.0
100
AcDbArc
 50
90.0
 51
155.3756816479277
  0
ARC
  5
18CF6
330
18C7A
100
AcDbEntity
  8
細線
 48
50.0
100
AcDbCircle
 10
1772.970881063058
 20
1340.265294641911
 30
0.0
 40
5.0
100
AcDbArc
 50
204.6243183520723
 51
335.3756816479278
  0
LINE
  5
18CF7
330
18C7A
100
AcDbEntity
  8
細線
 48
50.0
100
AcDbLine
 10
1778.425237120377
 20
1338.765294641911
 30
0.0
 11
1789.35368560081
 21
1338.765294641913
 31
0.0
  0
LINE
  5
18CF8
330
18C7A
100
AcDbEntity
  8
細線
 48
50.0
100
AcDbLine
 10
1789.35368560081
 20
1338.765294641913
 30
0.0
 11
1795.109203183478
 21
1320.494443351423
 31
0.0
  0
LINE
  5
18CF9
330
18C7A
100
AcDbEntity
  8
細線
 48
50.0
100
AcDbLine
 10
2087.970593930113
 20
1341.094443351419
 30
0.0
 11
1336.970593930116
 21
1341.094443351418
 31
0.0
  0
LINE
  5
18CFA
330
18C7A
100
AcDbEntity
  8
細線
 48
50.0
100
AcDbLine
 10
1947.970593930113
 20
1320.494443351421
 30
0.0
 11
1877.970593930113
 21
1320.494443351421
 31
0.0
  0
LINE
  5
18CFB
330
18C7A
100
AcDbEntity
  8
細線
100
AcDbLine
 10
1667.970593930113
 20
1320.494443351421
 30
0.0
 11
1597.970602115529
 21
1320.494443351421
 31
0.0
  0
LINE
  5
18CFC
330
18C7A
100
AcDbEntity
  8
細線
 48
50.0
100
AcDbLine
 10
2741.970584622936
 20
1375.094487209288
 30
0.0
 11
2106.970593930113
 21
1375.094487209284
 31
0.0
  0
LINE
  5
18CFD
330
18C7A
100
AcDbEntity
  8
細線
 48
50.0
100
AcDbLine
 10
2106.970593930113
 20
1371.990637616925
 30
0.0
 11
2106.970593930113
 21
1376.490637616925
 31
0.0
  0
LINE
  5
18CFE
330
18C7A
100
AcDbEntity
  8
細線
 48
50.0
100
AcDbLine
 10
2106.970593930113
 20
1376.490637616925
 30
0.0
 11
2091.970593930113
 21
1376.490637616925
 31
0.0
  0
LINE
  5
18CFF
330
18C7A
100
AcDbEntity
  8
細線
 48
50.0
100
AcDbLine
 10
2091.970593930113
 20
1376.490637616925
 30
0.0
 11
2091.970593930113
 21
1383.490637616927
 31
0.0
  0
LINE
  5
18D00
330
18C7A
100
AcDbEntity
  8
細線
 48
50.0
100
AcDbLine
 10
2091.970593930113
 20
1383.490637616927
 30
0.0
 11
2076.970593930115
 21
1383.490637616924
 31
0.0
  0
LINE
  5
18D01
330
18C7A
100
AcDbEntity
  8
細線
 48
50.0
100
AcDbLine
 10
2076.970593930115
 20
1383.490637616924
 30
0.0
 11
2076.970593930115
 21
1345.890409513813
 31
0.0
  0
LINE
  5
18D02
330
18C7A
100
AcDbEntity
  8
細線
 48
50.0
100
AcDbLine
 10
2076.970593930115
 20
1345.890409513813
 30
0.0
 11
2096.970601231289
 21
1345.890451063353
 31
0.0
  0
LINE
  5
18D03
330
18C7A
100
AcDbEntity
  8
細線
 48
50.0
100
AcDbLine
 10
2096.970556362348
 20
1354.493912699161
 30
0.0
 11
2096.970601231289
 21
1345.890451063353
 31
0.0
  0
LINE
  5
18D04
330
18C7A
100
AcDbEntity
  8
細線
 48
50.0
100
AcDbLine
 10
2741.970584622936
 20
1371.644487209287
 30
0.0
 11
2741.970584622936
 21
1376.494487209284
 31
0.0
  0
LINE
  5
18D05
330
18C7A
100
AcDbEntity
  8
細線
 48
50.0
100
AcDbLine
 10
2741.970584622936
 20
1376.494487209284
 30
0.0
 11
2756.970584622934
 21
1376.494487209285
 31
0.0
  0
LINE
  5
18D06
330
18C7A
100
AcDbEntity
  8
細線
 48
50.0
100
AcDbLine
 10
2756.970584622934
 20
1376.494487209285
 30
0.0
 11
2756.970596256909
 21
1383.494487209331
 31
0.0
  0
LINE
  5
18D07
330
18C7A
100
AcDbEntity
  8
細線
 48
50.0
100
AcDbLine
 10
2756.970596256909
 20
1383.494487209331
 30
0.0
 11
2771.970594427439
 21
1383.494487209329
 31
0.0
  0
LINE
  5
18D08
330
18C7A
100
AcDbEntity
  8
細線
 48
50.0
100
AcDbLine
 10
2771.970594427439
 20
1383.494487209329
 30
0.0
 11
2771.970584125617
 21
1354.494281037055
 31
0.0
  0
LINE
  5
18D09
330
18C7A
100
AcDbEntity
  8
細線
 48
50.0
100
AcDbLine
 10
2458.070304175992
 20
1354.494278397076
 30
0.0
 11
2389.470863838818
 21
1354.494283787084
 31
0.0
  0
LINE
  5
18D0A
330
18C7A
100
AcDbEntity
  8
細線
 48
50.0
100
AcDbLine
 10
2096.970556362348
 20
1354.493912699161
 30
0.0
 11
2108.203245717057
 21
1354.494095652309
 31
0.0
  0
ARC
  5
18D0B
330
18C7A
100
AcDbEntity
  8
細線
 48
50.0
100
AcDbCircle
 10
2114.785538024393
 20
1353.294259565922
 30
0.0
 40
1.8
100
AcDbArc
 50
270.0006665777295
 51
345.000555481349
  0
LINE
  5
18D0C
330
18C7A
100
AcDbEntity
  8
細線
 48
50.0
100
AcDbLine
 10
2116.771971470473
 20
1353.753100023201
 30
0.0
 11
2116.524209028273
 21
1352.828402141094
 31
0.0
  0
LINE
  5
18D0D
330
18C7A
100
AcDbEntity
  8
細線
 48
50.0
100
AcDbLine
 10
2114.785558965548
 20
1351.494259566043
 30
0.0
 11
2111.155631546781
 21
1351.494217335563
 31
0.0
  0
ARC
  5
18D0E
330
18C7A
100
AcDbEntity
  8
細線
 48
50.0
100
AcDbCircle
 10
2111.155610605627
 20
1353.29421733544
 30
0.0
 40
1.8
100
AcDbArc
 50
195.0010443049965
 51
270.0006665777295
  0
LINE
  5
18D0F
330
18C7A
100
AcDbEntity
  8
細線
 48
50.0
100
AcDbLine
 10
2109.169183113368
 20
1353.752932303007
 30
0.0
 11
2109.416952609882
 21
1352.828311364425
 31
0.0
  0
ARC
  5
18D10
330
18C7A
100
AcDbEntity
  8
細線
 48
50.0
100
AcDbCircle
 10
2108.203262004622
 20
1353.494095652444
 30
0.0
 40
1.0
100
AcDbArc
 50
15.00104430499651
 51
90.00093320877969
  0
LINE
  5
18D11
330
18C7A
100
AcDbEntity
  8
細線
 48
50.0
100
AcDbLine
 10
2117.737892825577
 20
1354.494290342714
 30
0.0
 11
2118.679652976481
 21
1354.494296916564
 31
0.0
  0
ARC
  5
18D12
330
18C7A
100
AcDbEntity
  8
細線
 48
50.0
100
AcDbCircle
 10
2117.737899805961
 20
1353.49429034274
 30
0.0
 40
1.0
100
AcDbArc
 50
90.0003999466794
 51
165.000555481349
  0
LINE
  5
18D13
330
18C7A
100
AcDbEntity
  8
細線
 48
50.0
100
AcDbLine
 10
2669.470584622926
 20
1354.494281037055
 30
0.0
 11
2771.970584125617
 21
1354.494281037055
 31
0.0
  0
LINE
  5
18D14
330
18C7A
100
AcDbEntity
  8
細線
 48
50.0
100
AcDbLine
 10
2179.47061994182
 20
1354.494289224422
 30
0.0
 11
2118.370558714898
 21
1354.494296916564
 31
0.0
  0
LINE
  5
18D15
330
18C7A
100
AcDbEntity
  8
細線
 48
50.0
100
AcDbLine
 10
2599.470584622926
 20
1354.494281037057
 30
0.0
 11
2529.470584622926
 21
1354.494281037055
 31
0.0
  0
LINE
  5
18D16
330
18C7A
100
AcDbEntity
  8
細線
 48
50.0
100
AcDbLine
 10
2319.470584622926
 20
1354.494281037054
 30
0.0
 11
2249.470567335051
 21
1354.494281037057
 31
0.0
  0
ARC
  5
18D17
330
18C7A
100
AcDbEntity
  8
細線
 48
50.0
100
AcDbCircle
 10
2756.170589276533
 20
1387.694269174466
 30
0.0
 40
0.8
100
AcDbArc
 50
359.9997333689499
 51
89.99986668437072
  0
ARC
  5
18D18
330
18C7A
100
AcDbEntity
  8
細線
 48
50.0
100
AcDbCircle
 10
2763.770596101631
 20
1387.694280343081
 30
0.0
 40
0.8
100
AcDbArc
 50
90.00014387753465
 51
179.9997333689498
  0
LINE
  5
18D19
330
18C7A
100
AcDbEntity
  8
細線
 48
50.0
100
AcDbLine
 10
2756.170591137969
 20
1388.494269174465
 30
0.0
 11
2750.970589276525
 21
1388.494269174465
 31
0.0
  0
ARC
  5
18D1A
330
18C7A
100
AcDbEntity
  8
細線
 48
50.0
100
AcDbCircle
 10
2757.670589276524
 20
1386.194269174464
 30
0.0
 40
0.7
100
AcDbArc
 50
180.0
 51
270.0
  0
ARC
  5
18D1B
330
18C7A
100
AcDbEntity
  8
細線
 48
50.0
100
AcDbCircle
 10
2762.270589276524
 20
1386.194269174464
 30
0.0
 40
0.7
100
AcDbArc
 50
270.0
 51
0.0
  0
LINE
  5
18D1C
330
18C7A
100
AcDbEntity
  8
細線
 48
50.0
100
AcDbLine
 10
2762.970589276525
 20
1386.194269174464
 30
0.0
 11
2762.970596101639
 21
1387.694284065954
 31
0.0
  0
LINE
  5
18D1D
330
18C7A
100
AcDbEntity
  8
細線
 48
50.0
100
AcDbLine
 10
2757.670589276524
 20
1385.494269174465
 30
0.0
 11
2762.270589276524
 21
1385.494269174465
 31
0.0
  0
LINE
  5
18D1E
330
18C7A
100
AcDbEntity
  8
細線
 48
50.0
100
AcDbLine
 10
2756.970589276525
 20
1387.694269174466
 30
0.0
 11
2756.970589276525
 21
1386.194269174464
 31
0.0
  0
LINE
  5
18D1F
330
18C7A
100
AcDbEntity
  8
細線
 48
50.0
100
AcDbLine
 10
3382.570589276527
 20
1418.494269174465
 30
0.0
 11
2745.970589276525
 21
1418.494269174463
 31
0.0
  0
LINE
  5
18D20
330
18C7A
100
AcDbEntity
  8
細線
 48
50.0
100
AcDbLine
 10
3408.470589276525
 20
1413.494269174467
 30
0.0
 11
3392.570589276527
 21
1413.494269174465
 31
0.0
  0
LINE
  5
18D21
330
18C7A
100
AcDbEntity
  8
細線
 48
50.0
100
AcDbLine
 10
3392.570589276526
 20
1413.494269174465
 30
0.0
 11
3382.570589276527
 21
1418.494269174465
 31
0.0
  0
LINE
  5
18D22
330
18C7A
100
AcDbEntity
  8
細線
100
AcDbLine
 10
2993.470589276525
 20
1388.494269174465
 30
0.0
 11
2993.470589276525
 21
1417.794269174464
 31
0.0
  0
LINE
  5
18D23
330
18C7A
100
AcDbEntity
  8
細線
100
AcDbLine
 10
2993.470589276525
 20
1417.794269174464
 30
0.0
 11
3013.470589276525
 21
1417.794269174464
 31
0.0
  0
LINE
  5
18D24
330
18C7A
100
AcDbEntity
  8
細線
100
AcDbLine
 10
3013.470589276525
 20
1388.494269174465
 30
0.0
 11
3013.470589276525
 21
1417.794269174464
 31
0.0
  0
LINE
  5
18D25
330
18C7A
100
AcDbEntity
  8
細線
100
AcDbLine
 10
3170.720589276524
 20
1388.494269174465
 30
0.0
 11
3100.720589276523
 21
1388.494269174465
 31
0.0
  0
LINE
  5
18D26
330
18C7A
100
AcDbEntity
  8
細線
 48
50.0
100
AcDbLine
 10
2890.720589276525
 20
1388.494269174465
 30
0.0
 11
2763.766368849365
 21
1388.494269174465
 31
0.0
  0
LINE
  5
18D27
330
18C7A
100
AcDbEntity
  8
細線
100
AcDbLine
 10
3030.720589276525
 20
1388.494269174465
 30
0.0
 11
2960.720589276525
 21
1388.494269174465
 31
0.0
  0
LINE
  5
18D28
330
18C7A
100
AcDbEntity
  8
細線
 48
50.0
100
AcDbLine
 10
2750.970589276525
 20
1380.494269174465
 30
0.0
 11
2750.970589276525
 21
1388.494269174465
 31
0.0
  0
LINE
  5
18D29
330
18C7A
100
AcDbEntity
  8
細線
 48
50.0
100
AcDbLine
 10
2730.970589276524
 20
1380.494269174467
 30
0.0
 11
2750.970589276525
 21
1380.494269174465
 31
0.0
  0
LINE
  5
18D2A
330
18C7A
100
AcDbEntity
  8
細線
 48
50.0
100
AcDbLine
 10
2745.970589276525
 20
1418.494269174465
 30
0.0
 11
2745.970589276525
 21
1413.494269174465
 31
0.0
  0
LINE
  5
18D2B
330
18C7A
100
AcDbEntity
  8
細線
 48
50.0
100
AcDbLine
 10
2730.970589276525
 20
1418.494269174463
 30
0.0
 11
2745.970589276525
 21
1418.494269174465
 31
0.0
  0
LINE
  5
18D2C
330
18C7A
100
AcDbEntity
  8
細線
 48
50.0
100
AcDbLine
 10
2730.970589276524
 20
1380.494269174467
 30
0.0
 11
2730.970589276525
 21
1418.494269174463
 31
0.0
  0
LINE
  5
18D2D
330
18C7A
100
AcDbEntity
  8
細線
100
AcDbLine
 10
3398.970589276523
 20
1388.494269174465
 30
0.0
 11
3240.720589276525
 21
1388.494269174465
 31
0.0
  0
LINE
  5
18D2E
330
18C7A
100
AcDbEntity
  8
細線
 48
50.0
100
AcDbLine
 10
3408.470589276525
 20
1413.494269174467
 30
0.0
 11
3408.470589276524
 21
1388.494269174465
 31
0.0
  0
TEXT
  5
18D2F
330
18C7A
100
AcDbEntity
  8
部品1
100
AcDbText
 10
1860.154865991392
 20
46.99880823813145
 30
0.0
 40
135.0
  1
平面図
  7
STYLE2
100
AcDbText
  0
LWPOLYLINE
  5
18D30
330
18C7A
100
AcDbEntity
  8
部品1
100
AcDbPolyline
 90
        4
 70
     1
 43
0.0
 10
1770.23525616235
 20
239.8923374566548
 10
1770.23525616235
 20
0.0000159111223184
 10
2533.705922390791
 20
0.0000159111223184
 10
2533.705922390791
 20
239.8923374566548
  0
LINE
  5
18D31
330
18C7A
100
AcDbEntity
  8
部品1
100
AcDbLine
 10
1534.470589276487
 20
3154.494269174626
 30
0.0
 11
2769.470589276552
 21
3154.494269174626
 31
0.0
  0
LINE
  5
18D32
330
18C7A
100
AcDbEntity
  8
部品1
 48
50.0
100
AcDbLine
 10
1311.970589276523
 20
1420.494269174462
 30
0.0
 11
3411.970589276523
 21
1420.494269174465
 31
0.0
  0
LINE
  5
18D33
330
18C7A
100
AcDbEntity
  8
部品1
 48
50.0
100
AcDbLine
 10
471.9705892765232
 20
1392.494269174465
 30
0.0
 11
1311.970589276523
 21
1392.494269174465
 31
0.0
  0
DIMENSION
  5
18D34
330
18C7A
100
AcDbEntity
  8
寸法
100
AcDbDimension
  2
*D14
 10
2710.234916278077
 20
2488.887829538828
 30
0.0
 11
2338.318822490183
 21
2488.887829538828
 31
0.0
 12
-3742.925985830444
 22
-6453.628869860112
 32
0.0
 70
   128
 71
     5
 42
1231.00000000007
  3
INABA_S40G
100
AcDbAlignedDimension
 13
1536.470589276486
 23
2702.494269174557
 33
0.0
 14
2767.470589276556
 24
2702.494269174549
 34
0.0
100
AcDbRotatedDimension
1001
ACAD
1000
DSTYLE
1002
{
1002
}
  0
LINE
  5
18D35
330
18C7A
100
AcDbEntity
  8
部品1
100
AcDbLine
 10
1536.470589276487
 20
2702.494269174557
 30
0.0
 11
2767.470589276554
 21
2702.494269174615
 31
0.0
  0
LINE
  5
18D36
330
18C7A
100
AcDbEntity
  8
部品1
100
AcDbLine
 10
1536.470589276487
 20
3152.494269174557
 30
0.0
 11
2767.470589276556
 21
3152.494269174615
 31
0.0
  0
LINE
  5
18D37
330
18C7A
100
AcDbEntity
  8
細線
 48
50.0
100
AcDbLine
 10
1508.470589276487
 20
3152.494269174558
 30
0.0
 11
445.4705892765559
 21
2702.494269174509
 31
0.0
  0
LINE
  5
18D38
330
18C7A
100
AcDbEntity
  8
細線
 48
50.0
100
AcDbLine
 10
1508.470589276487
 20
2702.494269174558
 30
0.0
 11
445.4705892765542
 21
3152.494269174509
 31
0.0
  0
LINE
  5
18D39
330
18C7A
100
AcDbEntity
  8
部品1
100
AcDbLine
 10
1556.970589276487
 20
3172.494269174611
 30
0.0
 11
1556.970589276487
 21
3154.494269174611
 31
0.0
  0
LINE
  5
18D3A
330
18C7A
100
AcDbEntity
  8
部品1
100
AcDbLine
 10
1556.970589276487
 20
3172.494269174611
 30
0.0
 11
1550.970589276487
 21
3172.494269174611
 31
0.0
  0
LINE
  5
18D3B
330
18C7A
100
AcDbEntity
  8
部品1
100
AcDbLine
 10
1534.470589276487
 20
3146.494269174608
 30
0.0
 11
1509.470589276487
 21
3146.494269174611
 31
0.0
  0
LINE
  5
18D3C
330
18C7A
100
AcDbEntity
  8
部品1
100
AcDbLine
 10
1486.970589276487
 20
3172.494269174611
 30
0.0
 11
1486.970589276487
 21
3154.494269174611
 31
0.0
  0
LINE
  5
18D3D
330
18C7A
100
AcDbEntity
  8
部品1
100
AcDbLine
 10
1492.970589276487
 20
3172.494269174611
 30
0.0
 11
1486.970589276487
 21
3172.494269174611
 31
0.0
  0
LINE
  5
18D3E
330
18C7A
100
AcDbEntity
  8
部品1
100
AcDbLine
 10
1534.470589276487
 20
2702.494269174615
 30
0.0
 11
1509.470589276487
 21
2702.494269174615
 31
0.0
  0
LINE
  5
18D3F
330
18C7A
100
AcDbEntity
  8
部品1
 48
50.0
100
AcDbLine
 10
1536.470589276487
 20
3152.494269174611
 30
0.0
 11
1536.470589276487
 21
2702.494269174615
 31
0.0
  0
LINE
  5
18D40
330
18C7A
100
AcDbEntity
  8
部品1
 48
50.0
100
AcDbLine
 10
1508.470589276487
 20
3152.494269174607
 30
0.0
 11
1508.470589276487
 21
2702.494269174615
 31
0.0
  0
LINE
  5
18D41
330
18C7A
100
AcDbEntity
  8
部品1
 48
50.0
100
AcDbLine
 10
1534.470589276487
 20
3154.494269174618
 30
0.0
 11
1534.470589276487
 21
2702.494269174615
 31
0.0
  0
LINE
  5
18D42
330
18C7A
100
AcDbEntity
  8
部品1
 48
50.0
100
AcDbLine
 10
1509.470589276487
 20
3154.494269174615
 30
0.0
 11
1509.470589276487
 21
2702.494269174615
 31
0.0
  0
LINE
  5
18D43
330
18C7A
100
AcDbEntity
  8
部品1
100
AcDbLine
 10
3411.970589276556
 20
1392.494269174582
 30
0.0
 11
3411.970589276556
 21
1420.494269174596
 31
0.0
  0
LINE
  5
18D44
330
18C7A
100
AcDbEntity
  8
部品1
100
AcDbLine
 10
1311.970589276523
 20
1392.494269174596
 30
0.0
 11
1311.970589276523
 21
1420.494269174596
 31
0.0
  0
LINE
  5
18D45
330
18C7A
100
AcDbEntity
  8
部品1
100
AcDbLine
 10
891.9705892765232
 20
1392.494269174596
 30
0.0
 11
891.9705892765232
 21
1420.494269174596
 31
0.0
  0
LINE
  5
18D46
330
18C7A
100
AcDbEntity
  8
部品1
100
AcDbLine
 10
3411.97058927652
 20
3182.494269174477
 30
0.0
 11
3411.970589276523
 21
3154.494269174477
 31
0.0
  0
LINE
  5
18D47
330
18C7A
100
AcDbEntity
  8
部品1
100
AcDbLine
 10
2571.97058927652
 20
3182.494269174477
 30
0.0
 11
2571.970589276523
 21
3154.494269174477
 31
0.0
  0
LINE
  5
18D48
330
18C7A
100
AcDbEntity
  8
部品1
100
AcDbLine
 10
2991.97058927652
 20
3182.494269174477
 30
0.0
 11
2991.970589276523
 21
3154.494269174477
 31
0.0
  0
LINE
  5
18D49
330
18C7A
100
AcDbEntity
  8
部品1
100
AcDbLine
 10
2151.970589276519
 20
3182.494269174477
 30
0.0
 11
2151.970589276523
 21
3154.494269174477
 31
0.0
  0
LINE
  5
18D4A
330
18C7A
100
AcDbEntity
  8
部品1
100
AcDbLine
 10
1731.970589276519
 20
3182.494269174477
 30
0.0
 11
1731.970589276523
 21
3154.494269174477
 31
0.0
  0
LINE
  5
18D4B
330
18C7A
100
AcDbEntity
  8
部品1
100
AcDbLine
 10
1311.970589276519
 20
3182.494269174477
 30
0.0
 11
1311.970589276523
 21
3154.494269174477
 31
0.0
  0
LINE
  5
18D4C
330
18C7A
100
AcDbEntity
  8
部品1
100
AcDbLine
 10
891.9705892765195
 20
3182.494269174477
 30
0.0
 11
891.9705892765232
 21
3154.494269174477
 31
0.0
  0
LINE
  5
18D4D
330
18C7A
100
AcDbEntity
  8
部品1
100
AcDbLine
 10
471.9705892765232
 20
1392.494269174596
 30
0.0
 11
471.9705892765232
 21
1420.494269174596
 31
0.0
  0
LINE
  5
18D4E
330
18C7A
100
AcDbEntity
  8
部品1
100
AcDbLine
 10
444.9705892765305
 20
1420.494269174558
 30
0.0
 11
3858.970589276556
 21
1420.494269174596
 31
0.0
  0
LINE
  5
18D4F
330
18C7A
100
AcDbEntity
  8
部品1
100
AcDbLine
 10
3831.970589276556
 20
1392.494269174596
 30
0.0
 11
3831.970589276556
 21
1420.494269174596
 31
0.0
  0
LINE
  5
18D50
330
18C7A
100
AcDbEntity
  8
部品1
100
AcDbLine
 10
3858.970589276556
 20
1447.494269174593
 30
0.0
 11
3886.970589276556
 21
1447.494269174593
 31
0.0
  0
LINE
  5
18D51
330
18C7A
100
AcDbEntity
  8
部品1
100
AcDbLine
 10
3858.970589276556
 20
1867.494269174607
 30
0.0
 11
3886.970589276556
 21
1867.494269174607
 31
0.0
  0
LINE
  5
18D52
330
18C7A
100
AcDbEntity
  8
部品1
100
AcDbLine
 10
444.9705892765305
 20
1867.49426917448
 30
0.0
 11
416.9705892765305
 21
1867.49426917448
 31
0.0
  0
LINE
  5
18D53
330
18C7A
100
AcDbEntity
  8
部品1
100
AcDbLine
 10
3830.470589276541
 20
1867.49426917458
 30
0.0
 11
473.4705892765396
 21
1867.49426917448
 31
0.0
  0
LINE
  5
18D54
330
18C7A
100
AcDbEntity
  8
部品1
100
AcDbLine
 10
3830.470589276541
 20
2287.49426917458
 30
0.0
 11
473.4705892765396
 21
2287.49426917448
 31
0.0
  0
LINE
  5
18D55
330
18C7A
100
AcDbEntity
  8
部品1
100
AcDbLine
 10
444.9705892765305
 20
2287.49426917448
 30
0.0
 11
416.9705892765305
 21
2287.49426917448
 31
0.0
  0
LINE
  5
18D56
330
18C7A
100
AcDbEntity
  8
部品1
100
AcDbLine
 10
3858.970589276556
 20
2287.494269174608
 30
0.0
 11
3886.970589276556
 21
2287.494269174608
 31
0.0
  0
LINE
  5
18D57
330
18C7A
100
AcDbEntity
  8
部品1
 48
50.0
100
AcDbLine
 10
2151.970589276551
 20
2702.494269174586
 30
0.0
 11
2151.970589276581
 21
1448.994269174494
 31
0.0
  0
LINE
  5
18D58
330
18C7A
100
AcDbEntity
  8
破線
 48
10.0
100
AcDbLine
 10
2959.470589276535
 20
1472.494269174522
 30
0.0
 11
2176.970589276532
 21
1472.494269174505
 31
0.0
  0
LINE
  5
18D59
330
18C7A
100
AcDbEntity
  8
破線
 48
10.0
100
AcDbLine
 10
3009.47058927653
 20
1448.994269174509
 30
0.0
 11
3009.47058927653
 21
2702.494269174615
 31
0.0
  0
LINE
  5
18D5A
330
18C7A
100
AcDbEntity
  8
破線
 48
10.0
100
AcDbLine
 10
2959.470589276535
 20
1448.994269174505
 30
0.0
 11
2959.470589276531
 21
2702.494269174615
 31
0.0
  0
LINE
  5
18D5B
330
18C7A
100
AcDbEntity
  8
破線
 48
10.0
100
AcDbLine
 10
1344.47058927653
 20
1448.994269174509
 30
0.0
 11
1344.47058927653
 21
2702.494269174615
 31
0.0
  0
LINE
  5
18D5C
330
18C7A
100
AcDbEntity
  8
破線
 48
10.0
100
AcDbLine
 10
1294.470589276534
 20
1448.994269174505
 30
0.0
 11
1294.47058927653
 21
2702.494269174615
 31
0.0
  0
DIMENSION
  5
18D5D
330
18C7A
100
AcDbEntity
  8
寸法
100
AcDbDimension
  2
*D13
 10
1451.234916278005
 20
2488.887829538828
 30
0.0
 11
916.0604668248634
 21
2488.887829538828
 31
0.0
 12
-3742.925985830444
 22
-6453.628869860112
 32
0.0
 70
   128
 71
     5
 42
1062.99999999993
  3
INABA_S40G
100
AcDbAlignedDimension
 13
445.4705892765559
 23
2702.494269174505
 33
0.0
 14
1508.470589276486
 24
2702.494269174558
 34
0.0
100
AcDbRotatedDimension
1001
ACAD
1000
DSTYLE
1002
{
1002
}
  0
LINE
  5
18D5E
330
18C7A
100
AcDbEntity
  8
破線
 48
10.0
100
AcDbLine
 10
1294.470589276534
 20
1472.494269174469
 30
0.0
 11
496.9705892765414
 21
1472.494269174476
 31
0.0
  0
LINE
  5
18D5F
330
18C7A
100
AcDbEntity
  8
部品1
100
AcDbLine
 10
3831.970589276556
 20
3182.494269174604
 30
0.0
 11
3831.970589276556
 21
3154.494269174604
 31
0.0
  0
LINE
  5
18D60
330
18C7A
100
AcDbEntity
  8
部品1
100
AcDbLine
 10
3831.970589276556
 20
3182.494269174626
 30
0.0
 11
3831.970589276556
 21
3154.494269174626
 31
0.0
  0
LINE
  5
18D61
330
18C7A
100
AcDbEntity
  8
部品1
100
AcDbLine
 10
3858.970589276556
 20
3127.494269174607
 30
0.0
 11
3886.970589276556
 21
3127.494269174607
 31
0.0
  0
LINE
  5
18D62
330
18C7A
100
AcDbEntity
  8
部品1
100
AcDbLine
 10
3858.970589276556
 20
2707.494269174608
 30
0.0
 11
3886.970589276556
 21
2707.494269174608
 31
0.0
  0
LINE
  5
18D63
330
18C7A
100
AcDbEntity
  8
部品1
100
AcDbLine
 10
3858.470589276556
 20
3152.494269174604
 30
0.0
 11
3858.470589276556
 21
2702.494269174608
 31
0.0
  0
LINE
  5
18D64
330
18C7A
100
AcDbEntity
  8
部品1
100
AcDbLine
 10
3886.970589276533
 20
1447.494269174593
 30
0.0
 11
3886.970589276531
 21
1392.494269174596
 31
0.0
  0
LINE
  5
18D65
330
18C7A
100
AcDbEntity
  8
部品1
 48
50.0
100
AcDbLine
 10
3830.470589276556
 20
1448.994269174596
 30
0.0
 11
3858.970589276554
 21
1420.494269174596
 31
0.0
  0
LINE
  5
18D66
330
18C7A
100
AcDbEntity
  8
部品1
100
AcDbLine
 10
3886.970589276531
 20
1392.494269174596
 30
0.0
 11
3835.970589276531
 21
1392.494269174596
 31
0.0
  0
LINE
  5
18D67
330
18C7A
100
AcDbEntity
  8
部品1
100
AcDbLine
 10
3858.970589276533
 20
1447.494269174593
 30
0.0
 11
3886.970589276531
 21
1447.494269174593
 31
0.0
  0
LINE
  5
18D68
330
18C7A
100
AcDbEntity
  8
部品1
100
AcDbLine
 10
3886.970589276556
 20
3182.494269174604
 30
0.0
 11
3886.970589276531
 21
1392.494269174596
 31
0.0
  0
DIMENSION
  5
18D69
330
18C7A
100
AcDbEntity
  8
寸法
100
AcDbDimension
  2
*D12
 10
4534.396935010967
 20
1447.494269174593
 30
0.0
 11
4534.396935010965
 21
2287.4942691746
 31
0.0
 12
-3742.925985830444
 22
-6453.628869860112
 32
0.0
 70
   128
  1
4X420=<>
 71
     5
 42
1680.000000000014
  3
INABA_S40G
100
AcDbAlignedDimension
 13
3886.970589276556
 23
3127.494269174607
 33
0.0
 14
3886.970589276531
 24
1447.494269174593
 34
0.0
 50
90.0
100
AcDbRotatedDimension
1001
ACAD
1000
DSTYLE
1002
{
1002
}
  0
LINE
  5
18D6A
330
18C7A
100
AcDbEntity
  8
部品1
100
AcDbLine
 10
3858.970589276556
 20
3154.494269174604
 30
0.0
 11
3858.970589276534
 21
1420.494269174596
 31
0.0
  0
DIMENSION
  5
18D6B
330
18C7A
100
AcDbEntity
  8
寸法
100
AcDbDimension
  2
*D11
 10
4213.82831513858
 20
2607.276453505718
 30
0.0
 11
4113.828315138579
 21
2832.276453505718
 31
0.0
 12
-3742.925985830444
 22
-6453.628869860112
 32
0.0
 71
     5
 42
449.9999999999963
  3
INABA_S40G
100
AcDbAlignedDimension
 13
3858.470589276556
 23
3152.494269174604
 33
0.0
 14
3858.470589276556
 24
2702.494269174608
 34
0.0
 50
90.0
100
AcDbRotatedDimension
1001
ACAD
1000
DSTYLE
1002
{
1002
}
  0
LINE
  5
18D6C
330
18C7A
100
AcDbEntity
  8
部品1
100
AcDbLine
 10
3830.470589276547
 20
2702.494269174608
 30
0.0
 11
3830.470589276556
 21
1448.994269174596
 31
0.0
  0
LINE
  5
18D6D
330
18C7A
100
AcDbEntity
  8
破線
 48
10.0
100
AcDbLine
 10
3806.970589276549
 20
2702.494269174608
 30
0.0
 11
3806.970589276558
 21
1472.494269174593
 31
0.0
  0
LINE
  5
18D6E
330
18C7A
100
AcDbEntity
  8
部品1
100
AcDbLine
 10
2769.470589276556
 20
3146.494269174608
 30
0.0
 11
2794.470589276556
 21
3146.494269174611
 31
0.0
  0
LINE
  5
18D6F
330
18C7A
100
AcDbEntity
  8
部品1
100
AcDbLine
 10
2810.970589276556
 20
3172.494269174611
 30
0.0
 11
2816.970589276556
 21
3172.494269174611
 31
0.0
  0
LINE
  5
18D70
330
18C7A
100
AcDbEntity
  8
部品1
100
AcDbLine
 10
2816.970589276556
 20
3172.494269174611
 30
0.0
 11
2816.970589276556
 21
3154.494269174611
 31
0.0
  0
LINE
  5
18D71
330
18C7A
100
AcDbEntity
  8
部品1
100
AcDbLine
 10
2746.970589276556
 20
3172.494269174611
 30
0.0
 11
2752.970589276556
 21
3172.494269174611
 31
0.0
  0
LINE
  5
18D72
330
18C7A
100
AcDbEntity
  8
部品1
100
AcDbLine
 10
2746.970589276556
 20
3172.494269174611
 30
0.0
 11
2746.970589276556
 21
3154.494269174611
 31
0.0
  0
LINE
  5
18D73
330
18C7A
100
AcDbEntity
  8
部品1
100
AcDbLine
 10
2769.470589276556
 20
2702.494269174615
 30
0.0
 11
2794.470589276556
 21
2702.494269174615
 31
0.0
  0
LINE
  5
18D74
330
18C7A
100
AcDbEntity
  8
部品1
 48
50.0
100
AcDbLine
 10
2794.470589276556
 20
3154.494269174615
 30
0.0
 11
2794.470589276556
 21
2702.494269174615
 31
0.0
  0
LINE
  5
18D75
330
18C7A
100
AcDbEntity
  8
部品1
 48
50.0
100
AcDbLine
 10
2769.470589276554
 20
3154.494269174618
 30
0.0
 11
2769.470589276556
 21
2702.494269174615
 31
0.0
  0
LINE
  5
18D76
330
18C7A
100
AcDbEntity
  8
部品1
 48
50.0
100
AcDbLine
 10
2795.470589276556
 20
3152.494269174607
 30
0.0
 11
2795.470589276556
 21
2702.494269174615
 31
0.0
  0
LINE
  5
18D77
330
18C7A
100
AcDbEntity
  8
部品1
 48
50.0
100
AcDbLine
 10
2767.470589276556
 20
3152.494269174611
 30
0.0
 11
2767.470589276556
 21
2702.494269174615
 31
0.0
  0
LINE
  5
18D78
330
18C7A
100
AcDbEntity
  8
破線
 48
10.0
100
AcDbLine
 10
2176.97058927653
 20
1448.994269174509
 30
0.0
 11
2176.97058927653
 21
2702.494269174588
 31
0.0
  0
LINE
  5
18D79
330
18C7A
100
AcDbEntity
  8
破線
 48
10.0
100
AcDbLine
 10
2126.970589276534
 20
1448.994269174505
 30
0.0
 11
2126.970589276531
 21
2702.494269174586
 31
0.0
  0
LINE
  5
18D7A
330
18C7A
100
AcDbEntity
  8
部品1
100
AcDbLine
 10
2794.470589276556
 20
3154.494269174622
 30
0.0
 11
3858.970589276556
 21
3154.494269174604
 31
0.0
  0
LINE
  5
18D7B
330
18C7A
100
AcDbEntity
  8
細線
 48
50.0
100
AcDbLine
 10
3858.470589276556
 20
2702.494269174608
 30
0.0
 11
2795.470589276556
 21
3152.494269174607
 31
0.0
  0
LINE
  5
18D7C
330
18C7A
100
AcDbEntity
  8
部品1
100
AcDbLine
 10
2795.470589276555
 20
2702.494269174615
 30
0.0
 11
3858.470589276556
 21
2702.494269174608
 31
0.0
  0
LINE
  5
18D7D
330
18C7A
100
AcDbEntity
  8
部品1
100
AcDbLine
 10
2795.470589276556
 20
3152.494269174611
 30
0.0
 11
3858.470589276556
 21
3152.494269174604
 31
0.0
  0
LINE
  5
18D7E
330
18C7A
100
AcDbEntity
  8
細線
 48
50.0
100
AcDbLine
 10
3858.470589276556
 20
3152.494269174604
 30
0.0
 11
2795.470589276555
 21
2702.494269174615
 31
0.0
  0
DIMENSION
  5
18D7F
330
18C7A
100
AcDbEntity
  8
寸法
100
AcDbDimension
  2
*D10
 10
3801.234916278101
 20
2488.887829538937
 30
0.0
 11
3318.360544398907
 21
2488.887829538937
 31
0.0
 12
-3742.925985830444
 22
-6453.628869860112
 32
0.0
 70
   128
 71
     5
 42
1063.000000000012
  3
INABA_S40G
100
AcDbAlignedDimension
 13
2795.470589276555
 23
2702.494269174615
 33
0.0
 14
3858.470589276567
 24
2702.494269174608
 34
0.0
100
AcDbRotatedDimension
1001
ACAD
1000
DSTYLE
1002
{
1002
}
  0
LINE
  5
18D80
330
18C7A
100
AcDbEntity
  8
破線
 48
10.0
100
AcDbLine
 10
3806.970589276556
 20
1472.494269174594
 30
0.0
 11
3009.47058927653
 21
1472.494269174523
 31
0.0
  0
DIMENSION
  5
18D81
330
18C7A
100
AcDbEntity
  8
寸法
100
AcDbDimension
  2
*D9
 10
4534.396935010941
 20
1392.494269174596
 30
0.0
 11
4534.39693501094
 21
1084.008987800356
 31
0.0
 12
-3742.925985830444
 22
-6453.628869860112
 32
0.0
 70
   128
 71
     5
 42
54.99999999999636
  3
INABA_S40G
100
AcDbAlignedDimension
 13
3886.970589276531
 23
1447.494269174593
 33
0.0
 14
3886.970589276531
 24
1392.494269174596
 34
0.0
 50
90.0
100
AcDbRotatedDimension
1001
ACAD
1000
DSTYLE
1002
{
1002
}
  0
LINE
  5
18D82
330
18C7A
100
AcDbEntity
  8
部品1
100
AcDbLine
 10
471.9705892765196
 20
3182.494269174477
 30
0.0
 11
471.9705892765232
 21
3154.494269174477
 31
0.0
  0
LINE
  5
18D83
330
18C7A
100
AcDbEntity
  8
部品1
100
AcDbLine
 10
471.9705892765559
 20
3182.494269174509
 30
0.0
 11
471.9705892765559
 21
3154.494269174509
 31
0.0
  0
LINE
  5
18D84
330
18C7A
100
AcDbEntity
  8
部品1
100
AcDbLine
 10
444.9705892765232
 20
3127.49426917448
 30
0.0
 11
416.9705892765232
 21
3127.49426917448
 31
0.0
  0
LINE
  5
18D85
330
18C7A
100
AcDbEntity
  8
部品1
100
AcDbLine
 10
444.9705892765305
 20
2707.49426917448
 30
0.0
 11
416.9705892765305
 21
2707.49426917448
 31
0.0
  0
LINE
  5
18D86
330
18C7A
100
AcDbEntity
  8
部品1
 48
50.0
100
AcDbLine
 10
445.4705892765542
 20
3152.494269174506
 30
0.0
 11
445.4705892765559
 21
2702.494269174505
 31
0.0
  0
LINE
  5
18D87
330
18C7A
100
AcDbEntity
  8
部品1
 48
50.0
100
AcDbLine
 10
473.470589276545
 20
1448.994269174573
 30
0.0
 11
444.970589276545
 21
1420.494269174574
 31
0.0
  0
LINE
  5
18D88
330
18C7A
100
AcDbEntity
  8
部品1
100
AcDbLine
 10
471.9705892765232
 20
1392.494269174465
 30
0.0
 11
416.9705892765486
 21
1392.494269174465
 31
0.0
  0
LINE
  5
18D89
330
18C7A
100
AcDbEntity
  8
部品1
100
AcDbLine
 10
444.9705892765305
 20
1447.494269174429
 30
0.0
 11
416.9705892765469
 21
1447.494269174429
 31
0.0
  0
LINE
  5
18D8A
330
18C7A
100
AcDbEntity
  8
部品1
100
AcDbLine
 10
444.9705892765305
 20
1447.494269174465
 30
0.0
 11
416.9705892765469
 21
1447.494269174465
 31
0.0
  0
LINE
  5
18D8B
330
18C7A
100
AcDbEntity
  8
部品1
100
AcDbLine
 10
444.9705892765469
 20
1447.49426917448
 30
0.0
 11
416.9705892765469
 21
1447.49426917448
 31
0.0
  0
LINE
  5
18D8C
330
18C7A
100
AcDbEntity
  8
部品1
100
AcDbLine
 10
416.9705892765469
 20
1447.494269174429
 30
0.0
 11
416.9705892765486
 21
1392.494269174433
 31
0.0
  0
LINE
  5
18D8D
330
18C7A
100
AcDbEntity
  8
部品1
100
AcDbLine
 10
416.9705892765196
 20
3182.494269174477
 30
0.0
 11
416.9705892765486
 21
1392.494269174465
 31
0.0
  0
LINE
  5
18D8E
330
18C7A
100
AcDbEntity
  8
部品1
100
AcDbLine
 10
444.9705892765305
 20
1420.494269174556
 30
0.0
 11
444.9705892765559
 21
3154.494269174509
 31
0.0
  0
LINE
  5
18D8F
330
18C7A
100
AcDbEntity
  8
部品1
100
AcDbLine
 10
473.4705892765323
 20
2702.494269174608
 30
0.0
 11
473.470589276545
 21
1448.994269174571
 31
0.0
  0
LINE
  5
18D90
330
18C7A
100
AcDbEntity
  8
破線
 48
10.0
100
AcDbLine
 10
496.9705892765305
 20
2702.494269174608
 30
0.0
 11
496.9705892765451
 21
1472.494269174476
 31
0.0
  0
DIMENSION
  5
18D91
330
18C7A
100
AcDbEntity
  8
寸法
100
AcDbDimension
  2
*D8
 10
3886.970589276531
 20
410.7433333855515
 30
0.0
 11
2168.197775309287
 21
410.7433333855515
 31
0.0
 12
-3742.925985830444
 22
-6453.628869860112
 32
0.0
 70
   128
 71
     5
 42
3469.999999999982
  3
INABA_S40G
100
AcDbAlignedDimension
 13
416.9705892765486
 23
1392.494269174433
 33
0.0
 14
3886.970589276531
 24
1392.49426917456
 34
0.0
100
AcDbRotatedDimension
1001
ACAD
1000
DSTYLE
1002
{
1070
   341
1005
0
1002
}
  0
LINE
  5
18D92
330
18C7A
100
AcDbEntity
  8
部品1
100
AcDbLine
 10
444.9705892765559
 20
3154.494269174624
 30
0.0
 11
1509.470589276487
 21
3154.494269174626
 31
0.0
  0
LINE
  5
18D93
330
18C7A
100
AcDbEntity
  8
部品1
100
AcDbLine
 10
3886.970589276531
 20
1392.494269174596
 30
0.0
 11
3411.970589276556
 21
1392.494269174582
 31
0.0
  0
LINE
  5
18D94
330
18C7A
100
AcDbEntity
  8
部品1
100
AcDbLine
 10
416.9705892765559
 20
3182.494269174509
 30
0.0
 11
3886.970589276556
 21
3182.494269174604
 31
0.0
  0
LINE
  5
18D95
330
18C7A
100
AcDbEntity
  8
部品1
100
AcDbLine
 10
445.4705892765559
 20
2702.494269174509
 30
0.0
 11
1508.470589276487
 21
2702.494269174558
 31
0.0
  0
LINE
  5
18D96
330
18C7A
100
AcDbEntity
  8
細線
 48
50.0
100
AcDbLine
 10
2767.470589276556
 20
3152.494269174611
 30
0.0
 11
1536.470589276487
 21
2702.494269174558
 31
0.0
  0
LINE
  5
18D97
330
18C7A
100
AcDbEntity
  8
部品1
100
AcDbLine
 10
445.4705892765542
 20
3152.494269174509
 30
0.0
 11
1508.470589276485
 21
3152.494269174558
 31
0.0
  0
LINE
  5
18D98
330
18C7A
100
AcDbEntity
  8
細線
 48
50.0
100
AcDbLine
 10
2767.470589276554
 20
2702.494269174615
 30
0.0
 11
1536.470589276485
 21
3152.494269174558
 31
0.0
  0
LINE
  5
18D99
330
18C7A
100
AcDbEntity
  8
破線
 48
10.0
100
AcDbLine
 10
2126.970589276534
 20
1472.494269174502
 30
0.0
 11
1344.47058927653
 21
1472.494269174473
 31
0.0
  0
LINE
  5
18D9A
330
18C7A
100
AcDbEntity
  8
部品1
100
AcDbLine
 10
3830.470589276556
 20
1448.994269174596
 30
0.0
 11
473.4705892764487
 21
1448.994269174476
 31
0.0
  0
DIMENSION
  5
18D9B
330
18C7A
100
AcDbEntity
  8
寸法
100
AcDbDimension
  2
*D7
 10
471.970589276555
 20
3698.302488799491
 30
0.0
 11
108.4853079022819
 21
3698.302488799491
 31
0.0
 12
-3742.925985830444
 22
-6453.628869860112
 32
0.0
 70
   128
 71
     5
 42
55.00000000003456
  3
INABA_S40G
100
AcDbAlignedDimension
 13
416.9705892765205
 23
3182.494269174509
 33
0.0
 14
471.970589276555
 24
3182.494269174509
 34
0.0
100
AcDbRotatedDimension
1001
ACAD
1000
DSTYLE
1002
{
1002
}
  0
DIMENSION
  5
18D9C
330
18C7A
100
AcDbEntity
  8
寸法
100
AcDbDimension
  2
*D6
 10
4534.396935010967
 20
3127.494269174607
 30
0.0
 11
4534.396935010965
 21
3490.979550548844
 31
0.0
 12
-3742.925985830444
 22
-6453.628869860112
 32
0.0
 70
   128
 71
     5
 42
54.99999999999636
  3
INABA_S40G
100
AcDbAlignedDimension
 13
3886.970589276556
 23
3182.494269174604
 33
0.0
 14
3886.970589276556
 24
3127.494269174607
 34
0.0
 50
90.0
100
AcDbRotatedDimension
1001
ACAD
1000
DSTYLE
1002
{
1002
}
  0
DIMENSION
  5
18D9D
330
18C7A
100
AcDbEntity
  8
寸法
100
AcDbDimension
  2
*D5
 10
3886.970589276556
 20
3698.302488799589
 30
0.0
 11
4195.455870650794
 21
3698.302488799589
 31
0.0
 12
-3742.925985830444
 22
-6453.628869860112
 32
0.0
 70
   128
 71
     5
 42
55.0
  3
INABA_S40G
100
AcDbAlignedDimension
 13
3831.970589276556
 23
3182.494269174604
 33
0.0
 14
3886.970589276556
 24
3182.494269174604
 34
0.0
100
AcDbRotatedDimension
1001
ACAD
1000
DSTYLE
1002
{
1002
}
  0
DIMENSION
  5
18D9E
330
18C7A
100
AcDbEntity
  8
寸法
100
AcDbDimension
  2
*D4
 10
3831.970589276556
 20
3698.302488799607
 30
0.0
 11
2151.970589276555
 21
3698.302488799607
 31
0.0
 12
-3742.925985830444
 22
-6453.628869860112
 32
0.0
 70
   128
  1
8X420=<>
 71
     5
 42
3360.000000000001
  3
INABA_S40G
100
AcDbAlignedDimension
 13
471.970589276555
 23
3182.494269174509
 33
0.0
 14
3831.970589276556
 24
3182.494269174604
 34
0.0
100
AcDbRotatedDimension
1001
ACAD
1000
DSTYLE
1002
{
1002
}
  0
DIMENSION
  5
18D9F
330
18C7A
100
AcDbEntity
  8
寸法
100
AcDbDimension
  2
*D3
 10
4899.503876750603
 20
1392.494269174596
 30
0.0
 11
4899.503876750601
 21
2287.4942691746
 31
0.0
 12
-3742.925985830444
 22
-6453.628869860112
 32
0.0
 70
   128
 71
     5
 42
1790.000000000007
  3
INABA_S40G
100
AcDbAlignedDimension
 13
3886.970589276556
 23
3182.494269174604
 33
0.0
 14
3886.970589276531
 24
1392.494269174596
 34
0.0
 50
90.0
100
AcDbRotatedDimension
1001
ACAD
1000
DSTYLE
1002
{
1002
}
  0
ENDBLK
  5
18DA1
330
18C7A
100
AcDbEntity
  8
0
 48
50.0
100
AcDbBlockEnd
  0
BLOCK
  5
1C4CB
330
1C4CA
100
AcDbEntity
  8
0
 48
50.0
100
AcDbBlockBegin
  2
_NONE
 70
     0
 10
0.0
 20
0.0
 30
0.0
  3
_NONE
  1

  0
CIRCLE
  5
1C4CC
330
1C4CA
100
AcDbEntity
  8
0
  6
ByBlock
 62
     0
 48
50.0
100
AcDbCircle
 10
0.0
 20
0.0
 30
0.0
 40
0.25
  0
ENDBLK
  5
1C4CD
330
1C4CA
100
AcDbEntity
  8
0
 48
50.0
100
AcDbBlockEnd
  0
BLOCK
  5
20DEE
330
20DE2
100
AcDbEntity
  8
0
 48
50.0
100
AcDbBlockBegin
  2
*D19
 70
     1
 10
0.0
 20
0.0
 30
0.0
  3
*D19
  1

  0
LINE
  5
266AD
330
20DE2
100
AcDbEntity
  8
寸法
 62
     0
 48
50.0
370
    -2
100
AcDbLine
 10
10603.6
 20
7720.967546015486
 30
0.0
 11
10603.6
 21
8719.187868074408
 31
0.0
  0
LINE
  5
266AE
330
20DE2
100
AcDbEntity
  8
寸法
 62
     0
 48
50.0
370
    -2
100
AcDbLine
 10
10648.6
 20
8447.234004109397
 30
0.0
 11
10648.6
 21
8719.187868074408
 31
0.0
  0
LINE
  5
266AF
330
20DE2
100
AcDbEntity
  8
寸法
 62
     0
 48
50.0
370
    -2
100
AcDbLine
 10
10603.6
 20
8659.187868074409
 30
0.0
 11
10503.6
 21
8659.187868074409
 31
0.0
  0
LINE
  5
266B0
330
20DE2
100
AcDbEntity
  8
寸法
 62
     0
 48
50.0
370
    -2
100
AcDbLine
 10
10648.6
 20
8659.187868074409
 30
0.0
 11
10985.94924240492
 21
8659.187868074409
 31
0.0
  0
LINE
  5
266B1
330
20DE2
100
AcDbEntity
  8
寸法
 62
     0
 48
50.0
370
    -2
100
AcDbLine
 10
10603.6
 20
8659.187868074409
 30
0.0
 11
10648.6
 21
8659.187868074409
 31
0.0
  0
INSERT
  5
266B2
330
20DE2
100
AcDbEntity
  8
寸法
 62
     0
 48
50.0
370
    -2
100
AcDbBlockReference
  2
_DOTSMALL
 10
10603.6
 20
8659.187868074409
 30
0.0
 41
100.0
 42
100.0
 43
100.0
  0
INSERT
  5
266B3
330
20DE2
100
AcDbEntity
  8
寸法
 62
     0
 48
50.0
370
    -2
100
AcDbBlockReference
  2
_DOTSMALL
 10
10648.6
 20
8659.187868074409
 30
0.0
 41
100.0
 42
100.0
 43
100.0
 50
180.0
  0
MTEXT
  5
266B4
330
20DE2
100
AcDbEntity
  8
寸法
 62
     7
 48
50.0
100
AcDbMText
 10
10919.77462120246
 20
8759.187868074409
 30
0.0
 40
120.0
 41
0.0
 71
     5
 72
     1
  1
\A1;a
  7
STYLE1
 73
     1
 44
1.0
1001
ACAD
1000
MTEXTBEGIN
1070
    73
1070
     1
1070
    44
1040
1.0
1070
    74
1070
     0
1000
MTEXTEND
  0
POINT
  5
266B5
330
20DE2
100
AcDbEntity
  8
DEFPOINTS
 62
     0
 48
50.0
100
AcDbPoint
 10
10603.6
 20
7700.967546015487
 30
0.0
  0
POINT
  5
266B6
330
20DE2
100
AcDbEntity
  8
DEFPOINTS
 62
     0
 48
50.0
100
AcDbPoint
 10
10648.6
 20
8427.234004109399
 30
0.0
  0
POINT
  5
266B7
330
20DE2
100
AcDbEntity
  8
DEFPOINTS
 62
     0
 48
50.0
100
AcDbPoint
 10
10648.6
 20
8659.187868074409
 30
0.0
  0
ENDBLK
  5
20DEF
330
20DE2
100
AcDbEntity
  8
0
 48
50.0
100
AcDbBlockEnd
  0
BLOCK
  5
20E08
330
20DFC
100
AcDbEntity
  8
0
 48
50.0
100
AcDbBlockBegin
  2
*D20
 70
     1
 10
0.0
 20
0.0
 30
0.0
  3
*D20
  1

  0
LINE
  5
266A2
330
20DFC
100
AcDbEntity
  8
寸法
 62
     0
 48
50.0
370
    -2
100
AcDbLine
 10
5798.600000000003
 20
8447.2340041094
 30
0.0
 11
5798.600000000003
 21
8719.187868074408
 31
0.0
  0
LINE
  5
266A3
330
20DFC
100
AcDbEntity
  8
寸法
 62
     0
 48
50.0
370
    -2
100
AcDbLine
 10
5843.600000000001
 20
7720.967546015486
 30
0.0
 11
5843.600000000001
 21
8719.187868074408
 31
0.0
  0
LINE
  5
266A4
330
20DFC
100
AcDbEntity
  8
寸法
 62
     0
 48
50.0
370
    -2
100
AcDbLine
 10
5843.600000000001
 20
8659.187868074409
 30
0.0
 11
5943.6
 21
8659.187868074409
 31
0.0
  0
LINE
  5
266A5
330
20DFC
100
AcDbEntity
  8
寸法
 62
     0
 48
50.0
370
    -2
100
AcDbLine
 10
5798.600000000003
 20
8659.187868074409
 30
0.0
 11
5461.250757595083
 21
8659.187868074409
 31
0.0
  0
LINE
  5
266A6
330
20DFC
100
AcDbEntity
  8
寸法
 62
     0
 48
50.0
370
    -2
100
AcDbLine
 10
5843.600000000001
 20
8659.187868074409
 30
0.0
 11
5798.600000000003
 21
8659.187868074409
 31
0.0
  0
INSERT
  5
266A7
330
20DFC
100
AcDbEntity
  8
寸法
 62
     0
 48
50.0
370
    -2
100
AcDbBlockReference
  2
_DOTSMALL
 10
5843.600000000001
 20
8659.187868074409
 30
0.0
 41
100.0
 42
100.0
 43
100.0
 50
180.0
  0
INSERT
  5
266A8
330
20DFC
100
AcDbEntity
  8
寸法
 62
     0
 48
50.0
370
    -2
100
AcDbBlockReference
  2
_DOTSMALL
 10
5798.600000000003
 20
8659.187868074409
 30
0.0
 41
100.0
 42
100.0
 43
100.0
  0
MTEXT
  5
266A9
330
20DFC
100
AcDbEntity
  8
寸法
 62
     7
 48
50.0
100
AcDbMText
 10
5527.425378797541
 20
8759.187868074409
 30
0.0
 40
120.0
 41
0.0
 71
     5
 72
     1
  1
\A1;a
  7
STYLE1
 73
     1
 44
1.0
1001
ACAD
1000
MTEXTBEGIN
1070
    73
1070
     1
1070
    44
1040
1.0
1070
    74
1070
     0
1000
MTEXTEND
  0
POINT
  5
266AA
330
20DFC
100
AcDbEntity
  8
DEFPOINTS
 62
     0
 48
50.0
100
AcDbPoint
 10
5798.600000000003
 20
8427.234004109399
 30
0.0
  0
POINT
  5
266AB
330
20DFC
100
AcDbEntity
  8
DEFPOINTS
 62
     0
 48
50.0
100
AcDbPoint
 10
5843.600000000001
 20
7700.967546015487
 30
0.0
  0
POINT
  5
266AC
330
20DFC
100
AcDbEntity
  8
DEFPOINTS
 62
     0
 48
50.0
100
AcDbPoint
 10
5843.600000000001
 20
8659.187868074409
 30
0.0
  0
ENDBLK
  5
20E09
330
20DFC
100
AcDbEntity
  8
0
 48
50.0
100
AcDbBlockEnd
  0
BLOCK
  5
2274E
330
22742
100
AcDbEntity
  8
0
 48
50.0
100
AcDbBlockBegin
  2
*D21
 70
     1
 10
0.0
 20
0.0
 30
0.0
  3
*D21
  1

  0
LINE
  5
26697
330
22742
100
AcDbEntity
  8
寸法
 62
     0
 48
50.0
370
    -2
100
AcDbLine
 10
5200.665006330067
 20
7775.967546015493
 30
0.0
 11
4908.721909610672
 21
7775.967546015493
 31
0.0
  0
LINE
  5
26698
330
22742
100
AcDbEntity
  8
寸法
 62
     0
 48
50.0
370
    -2
100
AcDbLine
 10
5823.6
 20
7700.967546015487
 30
0.0
 11
4908.721909610672
 21
7700.967546015487
 31
0.0
  0
LINE
  5
26699
330
22742
100
AcDbEntity
  8
寸法
 62
     0
 48
50.0
370
    -2
100
AcDbLine
 10
4968.721909610673
 20
7775.967546015493
 30
0.0
 11
4968.721909610673
 21
7875.967546015494
 31
0.0
  0
LINE
  5
2669A
330
22742
100
AcDbEntity
  8
寸法
 62
     0
 48
50.0
370
    -2
100
AcDbLine
 10
4968.721909610673
 20
7700.967546015487
 30
0.0
 11
4968.721909610673
 21
7600.967546015486
 31
0.0
  0
LINE
  5
2669B
330
22742
100
AcDbEntity
  8
寸法
 62
     0
 48
50.0
370
    -2
100
AcDbLine
 10
4968.721909610673
 20
7775.967546015493
 30
0.0
 11
4968.721909610673
 21
7700.967546015487
 31
0.0
  0
INSERT
  5
2669C
330
22742
100
AcDbEntity
  8
寸法
 62
     0
 48
50.0
370
    -2
100
AcDbBlockReference
  2
_DOTSMALL
 10
4968.721909610673
 20
7775.967546015493
 30
0.0
 41
100.0
 42
100.0
 43
100.0
 50
270.0
  0
INSERT
  5
2669D
330
22742
100
AcDbEntity
  8
寸法
 62
     0
 48
50.0
370
    -2
100
AcDbBlockReference
  2
_DOTSMALL
 10
4968.721909610673
 20
7700.967546015487
 30
0.0
 41
100.0
 42
100.0
 43
100.0
 50
90.0
  0
MTEXT
  5
2669E
330
22742
100
AcDbEntity
  8
寸法
 62
     7
 48
50.0
100
AcDbMText
 10
4868.721909610672
 20
7738.467546015491
 30
0.0
 40
120.0
 41
0.0
 71
     5
 72
     1
  1
\A1;c
  7
STYLE1
 11
0.0000000000000001
 21
1.0
 31
0.0
 73
     1
 44
1.0
1001
ACAD
1000
MTEXTBEGIN
1070
    73
1070
     1
1070
    44
1040
1.0
1070
    74
1070
     0
1000
MTEXTEND
  0
POINT
  5
2669F
330
22742
100
AcDbEntity
  8
DEFPOINTS
 62
     0
 48
50.0
100
AcDbPoint
 10
5220.665006330068
 20
7775.967546015493
 30
0.0
  0
POINT
  5
266A0
330
22742
100
AcDbEntity
  8
DEFPOINTS
 62
     0
 48
50.0
100
AcDbPoint
 10
5843.600000000001
 20
7700.967546015487
 30
0.0
  0
POINT
  5
266A1
330
22742
100
AcDbEntity
  8
DEFPOINTS
 62
     0
 48
50.0
100
AcDbPoint
 10
4968.721909610673
 20
7700.967546015487
 30
0.0
  0
ENDBLK
  5
2274F
330
22742
100
AcDbEntity
  8
0
 48
50.0
100
AcDbBlockEnd
  0
BLOCK
  5
22768
330
2275C
100
AcDbEntity
  8
0
 48
50.0
100
AcDbBlockBegin
  2
*D22
 70
     1
 10
0.0
 20
0.0
 30
0.0
  3
*D22
  1

  0
LINE
  5
2668C
330
2275C
100
AcDbEntity
  8
寸法
 62
     0
 48
50.0
370
    -2
100
AcDbLine
 10
5823.599999999997
 20
6320.967546015488
 30
0.0
 11
4908.721909610672
 21
6320.967546015488
 31
0.0
  0
LINE
  5
2668D
330
2275C
100
AcDbEntity
  8
寸法
 62
     0
 48
50.0
370
    -2
100
AcDbLine
 10
5200.665006330071
 20
6265.967546015513
 30
0.0
 11
4908.721909610672
 21
6265.967546015513
 31
0.0
  0
LINE
  5
2668E
330
2275C
100
AcDbEntity
  8
寸法
 62
     0
 48
50.0
370
    -2
100
AcDbLine
 10
4968.721909610673
 20
6320.967546015488
 30
0.0
 11
4968.721909610673
 21
6420.967546015488
 31
0.0
  0
LINE
  5
2668F
330
2275C
100
AcDbEntity
  8
寸法
 62
     0
 48
50.0
370
    -2
100
AcDbLine
 10
4968.721909610673
 20
6265.967546015513
 30
0.0
 11
4968.721909610673
 21
6165.967546015513
 31
0.0
  0
LINE
  5
26690
330
2275C
100
AcDbEntity
  8
寸法
 62
     0
 48
50.0
370
    -2
100
AcDbLine
 10
4968.721909610673
 20
6320.967546015488
 30
0.0
 11
4968.721909610673
 21
6265.967546015513
 31
0.0
  0
INSERT
  5
26691
330
2275C
100
AcDbEntity
  8
寸法
 62
     0
 48
50.0
370
    -2
100
AcDbBlockReference
  2
_DOTSMALL
 10
4968.721909610673
 20
6320.967546015488
 30
0.0
 41
100.0
 42
100.0
 43
100.0
 50
270.0
  0
INSERT
  5
26692
330
2275C
100
AcDbEntity
  8
寸法
 62
     0
 48
50.0
370
    -2
100
AcDbBlockReference
  2
_DOTSMALL
 10
4968.721909610673
 20
6265.967546015513
 30
0.0
 41
100.0
 42
100.0
 43
100.0
 50
90.0
  0
MTEXT
  5
26693
330
2275C
100
AcDbEntity
  8
寸法
 62
     7
 48
50.0
100
AcDbMText
 10
4868.721909610671
 20
6293.467546015501
 30
0.0
 40
120.0
 41
0.0
 71
     5
 72
     1
  1
\A1;b
  7
STYLE1
 11
0.0000000000000001
 21
1.0
 31
0.0
 73
     1
 44
1.0
1001
ACAD
1000
MTEXTBEGIN
1070
    73
1070
     1
1070
    44
1040
1.0
1070
    74
1070
     0
1000
MTEXTEND
  0
POINT
  5
26694
330
2275C
100
AcDbEntity
  8
DEFPOINTS
 62
     0
 48
50.0
100
AcDbPoint
 10
5843.599999999997
 20
6320.967546015488
 30
0.0
  0
POINT
  5
26695
330
2275C
100
AcDbEntity
  8
DEFPOINTS
 62
     0
 48
50.0
100
AcDbPoint
 10
5220.665006330071
 20
6265.967546015513
 30
0.0
  0
POINT
  5
26696
330
2275C
100
AcDbEntity
  8
DEFPOINTS
 62
     0
 48
50.0
100
AcDbPoint
 10
4968.721909610673
 20
6265.967546015513
 30
0.0
  0
ENDBLK
  5
22769
330
2275C
100
AcDbEntity
  8
0
 48
50.0
100
AcDbBlockEnd
  0
BLOCK
  5
240CF
330
240C4
100
AcDbEntity
  8
0
 48
50.0
100
AcDbBlockBegin
  2
*D23
 70
     1
 10
0.0
 20
0.0
 30
0.0
  3
*D23
  1

  0
LINE
  5
2666E
330
240C4
100
AcDbEntity
  8
寸法
 62
     0
 48
50.0
370
    -2
100
AcDbLine
 10
10603.6
 20
7155.967546015524
 30
0.0
 11
10603.6
 21
7310.566159113598
 31
0.0
  0
LINE
  5
2666F
330
240C4
100
AcDbEntity
  8
寸法
 62
     0
 48
50.0
370
    -2
100
AcDbLine
 10
10483.6
 20
7155.967546015538
 30
0.0
 11
10483.6
 21
7310.566159113598
 31
0.0
  0
LINE
  5
26670
330
240C4
100
AcDbEntity
  8
寸法
 62
     0
 48
50.0
370
    -2
100
AcDbLine
 10
10483.6
 20
7250.566159113597
 30
0.0
 11
10603.6
 21
7250.566159113597
 31
0.0
  0
LINE
  5
26671
330
240C4
100
AcDbEntity
  8
寸法
 62
     0
 48
50.0
370
    -2
100
AcDbLine
 10
10603.6
 20
7250.566159113597
 30
0.0
 11
11009.7062992126
 21
7250.566159113597
 31
0.0
  0
INSERT
  5
26672
330
240C4
100
AcDbEntity
  8
寸法
 62
     0
 48
50.0
370
    -2
100
AcDbBlockReference
  2
_DOTSMALL
 10
10483.6
 20
7250.566159113597
 30
0.0
 41
100.0
 42
100.0
 43
100.0
 50
180.0
  0
INSERT
  5
26673
330
240C4
100
AcDbEntity
  8
寸法
 62
     0
 48
50.0
370
    -2
100
AcDbBlockReference
  2
_DOTSMALL
 10
10603.6
 20
7250.566159113597
 30
0.0
 41
100.0
 42
100.0
 43
100.0
  0
MTEXT
  5
26674
330
240C4
100
AcDbEntity
  8
寸法
 62
     7
 48
50.0
100
AcDbMText
 10
10873.65905511811
 20
7350.577970137219
 30
0.0
 40
120.0
 41
0.0
 71
     5
 72
     1
  1
\A1;120
  7
STYLE1
 73
     1
 44
1.0
1001
ACAD
1000
MTEXTBEGIN
1070
    73
1070
     1
1070
    44
1040
1.0
1070
    74
1070
     0
1000
MTEXTEND
  0
POINT
  5
26675
330
240C4
100
AcDbEntity
  8
DEFPOINTS
 62
     0
 48
50.0
100
AcDbPoint
 10
10603.6
 20
7135.967546015525
 30
0.0
  0
POINT
  5
26676
330
240C4
100
AcDbEntity
  8
DEFPOINTS
 62
     0
 48
50.0
100
AcDbPoint
 10
10483.6
 20
7135.967546015539
 30
0.0
  0
POINT
  5
26677
330
240C4
100
AcDbEntity
  8
DEFPOINTS
 62
     0
 48
50.0
100
AcDbPoint
 10
10483.6
 20
7250.566159113597
 30
0.0
  0
ENDBLK
  5
240D0
330
240C4
100
AcDbEntity
  8
0
 48
50.0
100
AcDbBlockEnd
  0
BLOCK
  5
240DC
330
240D1
100
AcDbEntity
  8
0
 48
50.0
100
AcDbBlockBegin
  2
*D24
 70
     1
 10
0.0
 20
0.0
 30
0.0
  3
*D24
  1

  0
LINE
  5
26682
330
240D1
100
AcDbEntity
  8
寸法
 62
     0
 48
50.0
370
    -2
100
AcDbLine
 10
10011.63847577293
 20
6600.967546015503
 30
0.0
 11
9862.812020225659
 21
6600.967546015503
 31
0.0
  0
LINE
  5
26683
330
240D1
100
AcDbEntity
  8
寸法
 62
     0
 48
50.0
370
    -2
100
AcDbLine
 10
10003.6
 20
6320.967546015505
 30
0.0
 11
9862.812020225659
 21
6320.967546015505
 31
0.0
  0
LINE
  5
26684
330
240D1
100
AcDbEntity
  8
寸法
 62
     0
 48
50.0
370
    -2
100
AcDbLine
 10
9922.812020225658
 20
6600.967546015503
 30
0.0
 11
9922.812020225658
 21
6320.967546015505
 31
0.0
  0
LINE
  5
26685
330
240D1
100
AcDbEntity
  8
寸法
 62
     0
 48
50.0
370
    -2
100
AcDbLine
 10
9922.812020225658
 20
6320.967546015505
 30
0.0
 11
9922.812020225658
 21
5884.433097196599
 31
0.0
  0
INSERT
  5
26686
330
240D1
100
AcDbEntity
  8
寸法
 62
     0
 48
50.0
370
    -2
100
AcDbBlockReference
  2
_DOTSMALL
 10
9922.812020225658
 20
6600.967546015503
 30
0.0
 41
100.0
 42
100.0
 43
100.0
 50
90.0
  0
INSERT
  5
26687
330
240D1
100
AcDbEntity
  8
寸法
 62
     0
 48
50.0
370
    -2
100
AcDbBlockReference
  2
_DOTSMALL
 10
9922.812020225658
 20
6320.967546015505
 30
0.0
 41
100.0
 42
100.0
 43
100.0
 50
270.0
  0
MTEXT
  5
26688
330
240D1
100
AcDbEntity
  8
寸法
 62
     7
 48
50.0
100
AcDbMText
 10
9822.800209202036
 20
6034.003963338333
 30
0.0
 40
120.0
 41
0.0
 71
     5
 72
     1
  1
\A1;280
  7
STYLE1
 11
0.0000000000000001
 21
1.0
 31
0.0
 73
     1
 44
1.0
1001
ACAD
1000
MTEXTBEGIN
1070
    73
1070
     1
1070
    44
1040
1.0
1070
    74
1070
     0
1000
MTEXTEND
  0
POINT
  5
26689
330
240D1
100
AcDbEntity
  8
DEFPOINTS
 62
     0
 48
50.0
100
AcDbPoint
 10
10031.63847577293
 20
6600.967546015503
 30
0.0
  0
POINT
  5
2668A
330
240D1
100
AcDbEntity
  8
DEFPOINTS
 62
     0
 48
50.0
100
AcDbPoint
 10
10023.6
 20
6320.967546015505
 30
0.0
  0
POINT
  5
2668B
330
240D1
100
AcDbEntity
  8
DEFPOINTS
 62
     0
 48
50.0
100
AcDbPoint
 10
9922.812020225658
 20
6320.967546015505
 30
0.0
  0
ENDBLK
  5
240DD
330
240D1
100
AcDbEntity
  8
0
 48
50.0
100
AcDbBlockEnd
  0
BLOCK
  5
240E9
330
240DE
100
AcDbEntity
  8
0
 48
50.0
100
AcDbBlockBegin
  2
*D25
 70
     1
 10
0.0
 20
0.0
 30
0.0
  3
*D25
  1

  0
LINE
  5
26678
330
240DE
100
AcDbEntity
  8
寸法
 62
     0
 48
50.0
370
    -2
100
AcDbLine
 10
10003.6
 20
7700.967546015474
 30
0.0
 11
9862.812020225659
 21
7700.967546015474
 31
0.0
  0
LINE
  5
26679
330
240DE
100
AcDbEntity
  8
寸法
 62
     0
 48
50.0
370
    -2
100
AcDbLine
 10
10003.60000000001
 20
7500.967546015488
 30
0.0
 11
9862.812020225659
 21
7500.967546015488
 31
0.0
  0
LINE
  5
2667A
330
240DE
100
AcDbEntity
  8
寸法
 62
     0
 48
50.0
370
    -2
100
AcDbLine
 10
9922.812020225658
 20
7500.967546015488
 30
0.0
 11
9922.812020225658
 21
7700.967546015474
 31
0.0
  0
LINE
  5
2667B
330
240DE
100
AcDbEntity
  8
寸法
 62
     0
 48
50.0
370
    -2
100
AcDbLine
 10
9922.812020225658
 20
7700.967546015474
 30
0.0
 11
9922.812020225658
 21
8137.501994834376
 31
0.0
  0
INSERT
  5
2667C
330
240DE
100
AcDbEntity
  8
寸法
 62
     0
 48
50.0
370
    -2
100
AcDbBlockReference
  2
_DOTSMALL
 10
9922.812020225658
 20
7500.967546015488
 30
0.0
 41
100.0
 42
100.0
 43
100.0
 50
270.0
  0
INSERT
  5
2667D
330
240DE
100
AcDbEntity
  8
寸法
 62
     0
 48
50.0
370
    -2
100
AcDbBlockReference
  2
_DOTSMALL
 10
9922.812020225658
 20
7700.967546015474
 30
0.0
 41
100.0
 42
100.0
 43
100.0
 50
90.0
  0
MTEXT
  5
2667E
330
240DE
100
AcDbEntity
  8
寸法
 62
     7
 48
50.0
100
AcDbMText
 10
9822.800209202036
 20
7987.931128692643
 30
0.0
 40
120.0
 41
0.0
 71
     5
 72
     1
  1
\A1;200
  7
STYLE1
 11
0.0000000000000001
 21
1.0
 31
0.0
 73
     1
 44
1.0
1001
ACAD
1000
MTEXTBEGIN
1070
    73
1070
     1
1070
    44
1040
1.0
1070
    74
1070
     0
1000
MTEXTEND
  0
POINT
  5
2667F
330
240DE
100
AcDbEntity
  8
DEFPOINTS
 62
     0
 48
50.0
100
AcDbPoint
 10
10023.6
 20
7700.967546015474
 30
0.0
  0
POINT
  5
26680
330
240DE
100
AcDbEntity
  8
DEFPOINTS
 62
     0
 48
50.0
100
AcDbPoint
 10
10023.60000000001
 20
7500.967546015488
 30
0.0
  0
POINT
  5
26681
330
240DE
100
AcDbEntity
  8
DEFPOINTS
 62
     0
 48
50.0
100
AcDbPoint
 10
9922.812020225658
 20
7500.967546015488
 30
0.0
  0
ENDBLK
  5
240EA
330
240DE
100
AcDbEntity
  8
0
 48
50.0
100
AcDbBlockEnd
  0
BLOCK
  5
25863
330
25859
100
AcDbEntity
  8
0
 48
50.0
100
AcDbBlockBegin
  2
*D26
 70
     1
 10
0.0
 20
0.0
 30
0.0
  3
*D26
  1

  0
LINE
  5
26665
330
25859
100
AcDbEntity
  8
寸法
 62
     0
 48
50.0
370
    -2
100
AcDbLine
 10
10480.6
 20
7647.967546015486
 30
0.0
 11
10480.6
 21
8487.234004109398
 31
0.0
  0
LINE
  5
26666
330
25859
100
AcDbEntity
  8
寸法
 62
     0
 48
50.0
370
    -2
100
AcDbLine
 10
7630.600000000001
 20
7647.967546015486
 30
0.0
 11
7630.600000000001
 21
8487.234004109398
 31
0.0
  0
LINE
  5
26667
330
25859
100
AcDbEntity
  8
寸法
 62
     0
 48
50.0
370
    -2
100
AcDbLine
 10
10480.6
 20
8427.234004109399
 30
0.0
 11
7630.600000000001
 21
8427.234004109399
 31
0.0
  0
INSERT
  5
26668
330
25859
100
AcDbEntity
  8
寸法
 62
     0
 48
50.0
370
    -2
100
AcDbBlockReference
  2
_DOTSMALL
 10
10480.6
 20
8427.234004109399
 30
0.0
 41
100.0
 42
100.0
 43
100.0
  0
INSERT
  5
26669
330
25859
100
AcDbEntity
  8
寸法
 62
     0
 48
50.0
370
    -2
100
AcDbBlockReference
  2
_DOTSMALL
 10
7630.600000000001
 20
8427.234004109399
 30
0.0
 41
100.0
 42
100.0
 43
100.0
 50
180.0
  0
MTEXT
  5
2666A
330
25859
100
AcDbEntity
  8
寸法
 62
     7
 48
50.0
100
AcDbMText
 10
9055.600000000001
 20
8527.245815133019
 30
0.0
 40
120.0
 41
0.0
 71
     5
 72
     1
  1
\A1;2850
  7
STYLE1
 73
     1
 44
1.0
1001
ACAD
1000
MTEXTBEGIN
1070
    73
1070
     1
1070
    44
1040
1.0
1070
    74
1070
     0
1000
MTEXTEND
  0
POINT
  5
2666B
330
25859
100
AcDbEntity
  8
DEFPOINTS
 62
     0
 48
50.0
100
AcDbPoint
 10
10480.6
 20
7627.967546015486
 30
0.0
  0
POINT
  5
2666C
330
25859
100
AcDbEntity
  8
DEFPOINTS
 62
     0
 48
50.0
100
AcDbPoint
 10
7630.600000000001
 20
7627.967546015486
 30
0.0
  0
POINT
  5
2666D
330
25859
100
AcDbEntity
  8
DEFPOINTS
 62
     0
 48
50.0
100
AcDbPoint
 10
7630.600000000001
 20
8427.234004109399
 30
0.0
  0
ENDBLK
  5
25864
330
25859
100
AcDbEntity
  8
0
 48
50.0
100
AcDbBlockEnd
  0
BLOCK
  5
2586F
330
25865
100
AcDbEntity
  8
0
 48
50.0
100
AcDbBlockBegin
  2
*D27
 70
     1
 10
0.0
 20
0.0
 30
0.0
  3
*D27
  1

  0
LINE
  5
2665C
330
25865
100
AcDbEntity
  8
寸法
 62
     0
 48
50.0
370
    -2
100
AcDbLine
 10
5843.600000000001
 20
7720.967546015486
 30
0.0
 11
5843.600000000001
 21
8719.187868074405
 31
0.0
  0
LINE
  5
2665D
330
25865
100
AcDbEntity
  8
寸法
 62
     0
 48
50.0
370
    -2
100
AcDbLine
 10
10603.6
 20
7720.967546015486
 30
0.0
 11
10603.6
 21
8719.187868074405
 31
0.0
  0
LINE
  5
2665E
330
25865
100
AcDbEntity
  8
寸法
 62
     0
 48
50.0
370
    -2
100
AcDbLine
 10
5843.600000000001
 20
8659.187868074404
 30
0.0
 11
10603.6
 21
8659.187868074404
 31
0.0
  0
INSERT
  5
2665F
330
25865
100
AcDbEntity
  8
寸法
 62
     0
 48
50.0
370
    -2
100
AcDbBlockReference
  2
_DOTSMALL
 10
5843.600000000001
 20
8659.187868074404
 30
0.0
 41
100.0
 42
100.0
 43
100.0
 50
180.0
  0
INSERT
  5
26660
330
25865
100
AcDbEntity
  8
寸法
 62
     0
 48
50.0
370
    -2
100
AcDbBlockReference
  2
_DOTSMALL
 10
10603.6
 20
8659.187868074404
 30
0.0
 41
100.0
 42
100.0
 43
100.0
  0
MTEXT
  5
26661
330
25865
100
AcDbEntity
  8
寸法
 62
     7
 48
50.0
100
AcDbMText
 10
8223.600000000001
 20
8759.187868074404
 30
0.0
 40
120.0
 41
0.0
 71
     5
 72
     1
  1
\A1;4760
  7
STYLE1
 73
     1
 44
1.0
1001
ACAD
1000
MTEXTBEGIN
1070
    73
1070
     1
1070
    44
1040
1.0
1070
    74
1070
     0
1000
MTEXTEND
  0
POINT
  5
26662
330
25865
100
AcDbEntity
  8
DEFPOINTS
 62
     0
 48
50.0
100
AcDbPoint
 10
5843.600000000001
 20
7700.967546015487
 30
0.0
  0
POINT
  5
26663
330
25865
100
AcDbEntity
  8
DEFPOINTS
 62
     0
 48
50.0
100
AcDbPoint
 10
10603.6
 20
7700.967546015487
 30
0.0
  0
POINT
  5
26664
330
25865
100
AcDbEntity
  8
DEFPOINTS
 62
     0
 48
50.0
100
AcDbPoint
 10
10603.6
 20
8659.187868074404
 30
0.0
  0
ENDBLK
  5
25870
330
25865
100
AcDbEntity
  8
0
 48
50.0
100
AcDbBlockEnd
  0
BLOCK
  5
2587B
330
25871
100
AcDbEntity
  8
0
 48
50.0
100
AcDbBlockBegin
  2
*D28
 70
     1
 10
0.0
 20
0.0
 30
0.0
  3
*D28
  1

  0
LINE
  5
26653
330
25871
100
AcDbEntity
  8
寸法
 62
     0
 48
50.0
370
    -2
100
AcDbLine
 10
8698.600000000007
 20
7117.967546015487
 30
0.0
 11
8698.600000000007
 21
8243.576362685734
 31
0.0
  0
LINE
  5
26654
330
25871
100
AcDbEntity
  8
寸法
 62
     0
 48
50.0
370
    -2
100
AcDbLine
 10
7748.600000000007
 20
7117.967546015487
 30
0.0
 11
7748.600000000007
 21
8243.576362685734
 31
0.0
  0
LINE
  5
26655
330
25871
100
AcDbEntity
  8
寸法
 62
     0
 48
50.0
370
    -2
100
AcDbLine
 10
8698.600000000007
 20
8183.576362685736
 30
0.0
 11
7748.600000000007
 21
8183.576362685736
 31
0.0
  0
INSERT
  5
26656
330
25871
100
AcDbEntity
  8
寸法
 62
     0
 48
50.0
370
    -2
100
AcDbBlockReference
  2
_DOTSMALL
 10
8698.600000000007
 20
8183.576362685736
 30
0.0
 41
100.0
 42
100.0
 43
100.0
  0
INSERT
  5
26657
330
25871
100
AcDbEntity
  8
寸法
 62
     0
 48
50.0
370
    -2
100
AcDbBlockReference
  2
_DOTSMALL
 10
7748.600000000007
 20
8183.576362685736
 30
0.0
 41
100.0
 42
100.0
 43
100.0
 50
180.0
  0
MTEXT
  5
26658
330
25871
100
AcDbEntity
  8
寸法
 62
     7
 48
50.0
100
AcDbMText
 10
8223.600000000008
 20
8283.576362685735
 30
0.0
 40
120.0
 41
0.0
 71
     5
 72
     1
  1
\A1;950
  7
STYLE1
 73
     1
 44
1.0
1001
ACAD
1000
MTEXTBEGIN
1070
    73
1070
     1
1070
    44
1040
1.0
1070
    74
1070
     0
1000
MTEXTEND
  0
POINT
  5
26659
330
25871
100
AcDbEntity
  8
DEFPOINTS
 62
     0
 48
50.0
100
AcDbPoint
 10
8698.600000000007
 20
7097.967546015486
 30
0.0
  0
POINT
  5
2665A
330
25871
100
AcDbEntity
  8
DEFPOINTS
 62
     0
 48
50.0
100
AcDbPoint
 10
7748.600000000007
 20
7097.967546015486
 30
0.0
  0
POINT
  5
2665B
330
25871
100
AcDbEntity
  8
DEFPOINTS
 62
     0
 48
50.0
100
AcDbPoint
 10
7748.600000000007
 20
8183.576362685736
 30
0.0
  0
ENDBLK
  5
2587C
330
25871
100
AcDbEntity
  8
0
 48
50.0
100
AcDbBlockEnd
  0
BLOCK
  5
25887
330
2587D
100
AcDbEntity
  8
0
 48
50.0
100
AcDbBlockBegin
  2
*D29
 70
     1
 10
0.0
 20
0.0
 30
0.0
  3
*D29
  1

  0
LINE
  5
2664A
330
2587D
100
AcDbEntity
  8
寸法
 62
     0
 48
50.0
370
    -2
100
AcDbLine
 10
5896.600000000001
 20
7577.967546015486
 30
0.0
 11
5160.665006330074
 21
7577.967546015486
 31
0.0
  0
LINE
  5
2664B
330
2587D
100
AcDbEntity
  8
寸法
 62
     0
 48
50.0
370
    -2
100
AcDbLine
 10
5896.600000000008
 20
6518.96754601549
 30
0.0
 11
5160.665006330074
 21
6518.96754601549
 31
0.0
  0
LINE
  5
2664C
330
2587D
100
AcDbEntity
  8
寸法
 62
     0
 48
50.0
370
    -2
100
AcDbLine
 10
5220.665006330073
 20
7577.967546015486
 30
0.0
 11
5220.665006330073
 21
6518.96754601549
 31
0.0
  0
INSERT
  5
2664D
330
2587D
100
AcDbEntity
  8
寸法
 62
     0
 48
50.0
370
    -2
100
AcDbBlockReference
  2
_DOTSMALL
 10
5220.665006330073
 20
7577.967546015486
 30
0.0
 41
100.0
 42
100.0
 43
100.0
 50
90.0
  0
INSERT
  5
2664E
330
2587D
100
AcDbEntity
  8
寸法
 62
     0
 48
50.0
370
    -2
100
AcDbBlockReference
  2
_DOTSMALL
 10
5220.665006330073
 20
6518.96754601549
 30
0.0
 41
100.0
 42
100.0
 43
100.0
 50
270.0
  0
MTEXT
  5
2664F
330
2587D
100
AcDbEntity
  8
寸法
 62
     7
 48
50.0
100
AcDbMText
 10
5120.665006330071
 20
7048.467546015487
 30
0.0
 40
120.0
 41
0.0
 71
     5
 72
     1
  1
\A1;1059
  7
STYLE1
 11
0.0000000000000001
 21
1.0
 31
0.0
 73
     1
 44
1.0
1001
ACAD
1000
MTEXTBEGIN
1070
    73
1070
     1
1070
    44
1040
1.0
1070
    74
1070
     0
1000
MTEXTEND
  0
POINT
  5
26650
330
2587D
100
AcDbEntity
  8
DEFPOINTS
 62
     0
 48
50.0
100
AcDbPoint
 10
5916.6
 20
7577.967546015486
 30
0.0
  0
POINT
  5
26651
330
2587D
100
AcDbEntity
  8
DEFPOINTS
 62
     0
 48
50.0
100
AcDbPoint
 10
5916.600000000007
 20
6518.96754601549
 30
0.0
  0
POINT
  5
26652
330
2587D
100
AcDbEntity
  8
DEFPOINTS
 62
     0
 48
50.0
100
AcDbPoint
 10
5220.665006330073
 20
6518.96754601549
 30
0.0
  0
ENDBLK
  5
25888
330
2587D
100
AcDbEntity
  8
0
 48
50.0
100
AcDbBlockEnd
  0
BLOCK
  5
25893
330
25889
100
AcDbEntity
  8
0
 48
50.0
100
AcDbBlockBegin
  2
*D30
 70
     1
 10
0.0
 20
0.0
 30
0.0
  3
*D30
  1

  0
LINE
  5
26641
330
25889
100
AcDbEntity
  8
寸法
 62
     0
 48
50.0
370
    -2
100
AcDbLine
 10
5823.6
 20
7700.967546015487
 30
0.0
 11
4908.721909610675
 21
7700.967546015487
 31
0.0
  0
LINE
  5
26642
330
25889
100
AcDbEntity
  8
寸法
 62
     0
 48
50.0
370
    -2
100
AcDbLine
 10
5823.6
 20
6320.967546015487
 30
0.0
 11
4908.721909610675
 21
6320.967546015487
 31
0.0
  0
LINE
  5
26643
330
25889
100
AcDbEntity
  8
寸法
 62
     0
 48
50.0
370
    -2
100
AcDbLine
 10
4968.721909610675
 20
7700.967546015487
 30
0.0
 11
4968.721909610675
 21
6320.967546015487
 31
0.0
  0
INSERT
  5
26644
330
25889
100
AcDbEntity
  8
寸法
 62
     0
 48
50.0
370
    -2
100
AcDbBlockReference
  2
_DOTSMALL
 10
4968.721909610675
 20
7700.967546015487
 30
0.0
 41
100.0
 42
100.0
 43
100.0
 50
90.0
  0
INSERT
  5
26645
330
25889
100
AcDbEntity
  8
寸法
 62
     0
 48
50.0
370
    -2
100
AcDbBlockReference
  2
_DOTSMALL
 10
4968.721909610675
 20
6320.967546015487
 30
0.0
 41
100.0
 42
100.0
 43
100.0
 50
270.0
  0
MTEXT
  5
26646
330
25889
100
AcDbEntity
  8
寸法
 62
     7
 48
50.0
100
AcDbMText
 10
4868.721909610673
 20
7048.467546015487
 30
0.0
 40
120.0
 41
0.0
 71
     5
 72
     1
  1
\A1;1380
  7
STYLE1
 11
0.0000000000000001
 21
1.0
 31
0.0
 73
     1
 44
1.0
1001
ACAD
1000
MTEXTBEGIN
1070
    73
1070
     1
1070
    44
1040
1.0
1070
    74
1070
     0
1000
MTEXTEND
  0
POINT
  5
26647
330
25889
100
AcDbEntity
  8
DEFPOINTS
 62
     0
 48
50.0
100
AcDbPoint
 10
5843.600000000001
 20
7700.967546015487
 30
0.0
  0
POINT
  5
26648
330
25889
100
AcDbEntity
  8
DEFPOINTS
 62
     0
 48
50.0
100
AcDbPoint
 10
5843.600000000001
 20
6320.967546015487
 30
0.0
  0
POINT
  5
26649
330
25889
100
AcDbEntity
  8
DEFPOINTS
 62
     0
 48
50.0
100
AcDbPoint
 10
4968.721909610675
 20
6320.967546015487
 30
0.0
  0
ENDBLK
  5
25894
330
25889
100
AcDbEntity
  8
0
 48
50.0
100
AcDbBlockEnd
  0
BLOCK
  5
2589F
330
25895
100
AcDbEntity
  8
0
 48
50.0
100
AcDbBlockBegin
  2
*D31
 70
     1
 10
0.0
 20
0.0
 30
0.0
  3
*D31
  1

  0
LINE
  5
26638
330
25895
100
AcDbEntity
  8
寸法
 62
     0
 48
50.0
370
    -2
100
AcDbLine
 10
6728.600000000007
 20
7047.967546015486
 30
0.0
 11
6112.957458789076
 21
7047.967546015488
 31
0.0
  0
LINE
  5
26639
330
25895
100
AcDbEntity
  8
寸法
 62
     0
 48
50.0
370
    -2
100
AcDbLine
 10
6397.765475140901
 20
7700.967546015487
 30
0.0
 11
6112.957458789076
 21
7700.967546015488
 31
0.0
  0
LINE
  5
2663A
330
25895
100
AcDbEntity
  8
寸法
 62
     0
 48
50.0
370
    -2
100
AcDbLine
 10
6172.957458789077
 20
7047.967546015486
 30
0.0
 11
6172.957458789077
 21
7700.967546015487
 31
0.0
  0
INSERT
  5
2663B
330
25895
100
AcDbEntity
  8
寸法
 62
     0
 48
50.0
370
    -2
100
AcDbBlockReference
  2
_DOTSMALL
 10
6172.957458789077
 20
7047.967546015486
 30
0.0
 41
100.0
 42
100.0
 43
100.0
 50
270.0
  0
INSERT
  5
2663C
330
25895
100
AcDbEntity
  8
寸法
 62
     0
 48
50.0
370
    -2
100
AcDbBlockReference
  2
_DOTSMALL
 10
6172.957458789077
 20
7700.967546015487
 30
0.0
 41
100.0
 42
100.0
 43
100.0
 50
90.0
  0
MTEXT
  5
2663D
330
25895
100
AcDbEntity
  8
寸法
 62
     7
 48
50.0
100
AcDbMText
 10
6072.957458789074
 20
7305.780105117593
 30
0.0
 40
120.0
 41
0.0
 71
     5
 72
     1
  1
\A1;653
  7
STYLE1
 11
0.0000000000000001
 21
1.0
 31
0.0
 73
     1
 44
1.0
1001
ACAD
1000
MTEXTBEGIN
1070
    73
1070
     1
1070
    44
1040
1.0
1070
    74
1070
     0
1000
MTEXTEND
  0
POINT
  5
2663E
330
25895
100
AcDbEntity
  8
DEFPOINTS
 62
     0
 48
50.0
100
AcDbPoint
 10
6748.600000000007
 20
7047.967546015486
 30
0.0
  0
POINT
  5
2663F
330
25895
100
AcDbEntity
  8
DEFPOINTS
 62
     0
 48
50.0
100
AcDbPoint
 10
6417.765475140901
 20
7700.967546015487
 30
0.0
  0
POINT
  5
26640
330
25895
100
AcDbEntity
  8
DEFPOINTS
 62
     0
 48
50.0
100
AcDbPoint
 10
6172.957458789077
 20
7700.967546015487
 30
0.0
  0
ENDBLK
  5
258A0
330
25895
100
AcDbEntity
  8
0
 48
50.0
100
AcDbBlockEnd
  0
BLOCK
  5
258AA
330
258A1
100
AcDbEntity
  8
0
 48
50.0
100
AcDbBlockBegin
  2
*D32
 70
     1
 10
0.0
 20
0.0
 30
0.0
  3
*D32
  1

  0
LINE
  5
2662F
330
258A1
100
AcDbEntity
  8
寸法
 62
     0
 48
50.0
370
    -2
100
AcDbLine
 10
7748.600000000007
 20
7117.967546015487
 30
0.0
 11
7748.600000000007
 21
8243.576362685734
 31
0.0
  0
LINE
  5
26630
330
258A1
100
AcDbEntity
  8
寸法
 62
     0
 48
50.0
370
    -2
100
AcDbLine
 10
6798.600000000007
 20
7117.967546015487
 30
0.0
 11
6798.600000000007
 21
8243.576362685734
 31
0.0
  0
LINE
  5
26631
330
258A1
100
AcDbEntity
  8
寸法
 62
     0
 48
50.0
370
    -2
100
AcDbLine
 10
7748.600000000007
 20
8183.576362685736
 30
0.0
 11
6798.600000000007
 21
8183.576362685736
 31
0.0
  0
INSERT
  5
26632
330
258A1
100
AcDbEntity
  8
寸法
 62
     0
 48
50.0
370
    -2
100
AcDbBlockReference
  2
_DOTSMALL
 10
7748.600000000007
 20
8183.576362685736
 30
0.0
 41
100.0
 42
100.0
 43
100.0
  0
INSERT
  5
26633
330
258A1
100
AcDbEntity
  8
寸法
 62
     0
 48
50.0
370
    -2
100
AcDbBlockReference
  2
_DOTSMALL
 10
6798.600000000007
 20
8183.576362685736
 30
0.0
 41
100.0
 42
100.0
 43
100.0
 50
180.0
  0
MTEXT
  5
26634
330
258A1
100
AcDbEntity
  8
寸法
 62
     7
 48
50.0
100
AcDbMText
 10
7273.600000000008
 20
8283.576362685735
 30
0.0
 40
120.0
 41
0.0
 71
     5
 72
     1
  1
\A1;950
  7
STYLE1
 73
     1
 44
1.0
1001
ACAD
1000
MTEXTBEGIN
1070
    73
1070
     1
1070
    44
1040
1.0
1070
    74
1070
     0
1000
MTEXTEND
  0
POINT
  5
26635
330
258A1
100
AcDbEntity
  8
DEFPOINTS
 62
     0
 48
50.0
100
AcDbPoint
 10
7748.600000000007
 20
7097.967546015486
 30
0.0
  0
POINT
  5
26636
330
258A1
100
AcDbEntity
  8
DEFPOINTS
 62
     0
 48
50.0
100
AcDbPoint
 10
6798.600000000007
 20
7097.967546015486
 30
0.0
  0
POINT
  5
26637
330
258A1
100
AcDbEntity
  8
DEFPOINTS
 62
     0
 48
50.0
100
AcDbPoint
 10
6798.600000000007
 20
8183.576362685736
 30
0.0
  0
ENDBLK
  5
258AB
330
258A1
100
AcDbEntity
  8
0
 48
50.0
100
AcDbBlockEnd
  0
BLOCK
  5
258B6
330
258AC
100
AcDbEntity
  8
0
 48
50.0
100
AcDbBlockBegin
  2
*D33
 70
     1
 10
0.0
 20
0.0
 30
0.0
  3
*D33
  1

  0
LINE
  5
26626
330
258AC
100
AcDbEntity
  8
寸法
 62
     0
 48
50.0
370
    -2
100
AcDbLine
 10
6798.600000000007
 20
7117.967546015487
 30
0.0
 11
6798.600000000007
 21
8243.576362685734
 31
0.0
  0
LINE
  5
26627
330
258AC
100
AcDbEntity
  8
寸法
 62
     0
 48
50.0
370
    -2
100
AcDbLine
 10
5843.600000000001
 20
7720.967546015486
 30
0.0
 11
5843.600000000001
 21
8243.576362685734
 31
0.0
  0
LINE
  5
26628
330
258AC
100
AcDbEntity
  8
寸法
 62
     0
 48
50.0
370
    -2
100
AcDbLine
 10
6798.600000000007
 20
8183.576362685736
 30
0.0
 11
5843.600000000001
 21
8183.576362685736
 31
0.0
  0
INSERT
  5
26629
330
258AC
100
AcDbEntity
  8
寸法
 62
     0
 48
50.0
370
    -2
100
AcDbBlockReference
  2
_DOTSMALL
 10
6798.600000000007
 20
8183.576362685736
 30
0.0
 41
100.0
 42
100.0
 43
100.0
  0
INSERT
  5
2662A
330
258AC
100
AcDbEntity
  8
寸法
 62
     0
 48
50.0
370
    -2
100
AcDbBlockReference
  2
_DOTSMALL
 10
5843.600000000001
 20
8183.576362685736
 30
0.0
 41
100.0
 42
100.0
 43
100.0
 50
180.0
  0
MTEXT
  5
2662B
330
258AC
100
AcDbEntity
  8
寸法
 62
     7
 48
50.0
100
AcDbMText
 10
6321.100000000004
 20
8283.576362685735
 30
0.0
 40
120.0
 41
0.0
 71
     5
 72
     1
  1
\A1;955
  7
STYLE1
 73
     1
 44
1.0
1001
ACAD
1000
MTEXTBEGIN
1070
    73
1070
     1
1070
    44
1040
1.0
1070
    74
1070
     0
1000
MTEXTEND
  0
POINT
  5
2662C
330
258AC
100
AcDbEntity
  8
DEFPOINTS
 62
     0
 48
50.0
100
AcDbPoint
 10
6798.600000000007
 20
7097.967546015486
 30
0.0
  0
POINT
  5
2662D
330
258AC
100
AcDbEntity
  8
DEFPOINTS
 62
     0
 48
50.0
100
AcDbPoint
 10
5843.600000000001
 20
7700.967546015487
 30
0.0
  0
POINT
  5
2662E
330
258AC
100
AcDbEntity
  8
DEFPOINTS
 62
     0
 48
50.0
100
AcDbPoint
 10
5843.600000000001
 20
8183.576362685736
 30
0.0
  0
ENDBLK
  5
258B7
330
258AC
100
AcDbEntity
  8
0
 48
50.0
100
AcDbBlockEnd
  0
BLOCK
  5
258CF
330
258C4
100
AcDbEntity
  8
0
 48
50.0
100
AcDbBlockBegin
  2
*D34
 70
     1
 10
0.0
 20
0.0
 30
0.0
  3
*D34
  1

  0
LINE
  5
2661C
330
258C4
100
AcDbEntity
  8
寸法
 62
     0
 48
50.0
370
    -2
100
AcDbLine
 10
5896.600000000008
 20
6518.96754601549
 30
0.0
 11
5160.665006330074
 21
6518.96754601549
 31
0.0
  0
LINE
  5
2661D
330
258C4
100
AcDbEntity
  8
寸法
 62
     0
 48
50.0
370
    -2
100
AcDbLine
 10
5823.6
 20
6320.967546015487
 30
0.0
 11
5160.665006330074
 21
6320.967546015487
 31
0.0
  0
LINE
  5
2661E
330
258C4
100
AcDbEntity
  8
寸法
 62
     0
 48
50.0
370
    -2
100
AcDbLine
 10
5220.665006330073
 20
6518.96754601549
 30
0.0
 11
5220.665006330073
 21
6320.967546015487
 31
0.0
  0
LINE
  5
2661F
330
258C4
100
AcDbEntity
  8
寸法
 62
     0
 48
50.0
370
    -2
100
AcDbLine
 10
5220.665006330073
 20
6320.967546015487
 30
0.0
 11
5220.665006330072
 21
5849.226937343237
 31
0.0
  0
INSERT
  5
26620
330
258C4
100
AcDbEntity
  8
寸法
 62
     0
 48
50.0
370
    -2
100
AcDbBlockReference
  2
_DOTSMALL
 10
5220.665006330073
 20
6518.96754601549
 30
0.0
 41
100.0
 42
100.0
 43
100.0
 50
90.0
  0
INSERT
  5
26621
330
258C4
100
AcDbEntity
  8
寸法
 62
     0
 48
50.0
370
    -2
100
AcDbBlockReference
  2
_DOTSMALL
 10
5220.665006330073
 20
6320.967546015487
 30
0.0
 41
100.0
 42
100.0
 43
100.0
 50
270.0
  0
MTEXT
  5
26622
330
258C4
100
AcDbEntity
  8
寸法
 62
     7
 48
50.0
100
AcDbMText
 10
5120.665006330071
 20
5985.436597172896
 30
0.0
 40
120.0
 41
0.0
 71
     5
 72
     1
  1
\A1;198
  7
STYLE1
 11
0.0000000000000001
 21
1.0
 31
0.0
 73
     1
 44
1.0
1001
ACAD
1000
MTEXTBEGIN
1070
    73
1070
     1
1070
    44
1040
1.0
1070
    74
1070
     0
1000
MTEXTEND
  0
POINT
  5
26623
330
258C4
100
AcDbEntity
  8
DEFPOINTS
 62
     0
 48
50.0
100
AcDbPoint
 10
5916.600000000007
 20
6518.96754601549
 30
0.0
  0
POINT
  5
26624
330
258C4
100
AcDbEntity
  8
DEFPOINTS
 62
     0
 48
50.0
100
AcDbPoint
 10
5843.600000000001
 20
6320.967546015487
 30
0.0
  0
POINT
  5
26625
330
258C4
100
AcDbEntity
  8
DEFPOINTS
 62
     0
 48
50.0
100
AcDbPoint
 10
5220.665006330073
 20
6320.967546015487
 30
0.0
  0
ENDBLK
  5
258D0
330
258C4
100
AcDbEntity
  8
0
 48
50.0
100
AcDbBlockEnd
  0
BLOCK
  5
258DB
330
258D1
100
AcDbEntity
  8
0
 48
50.0
100
AcDbBlockBegin
  2
*D35
 70
     1
 10
0.0
 20
0.0
 30
0.0
  3
*D35
  1

  0
LINE
  5
26613
330
258D1
100
AcDbEntity
  8
寸法
 62
     0
 48
50.0
370
    -2
100
AcDbLine
 10
5823.600000000004
 20
6320.967546015483
 30
0.0
 11
5670.512673767882
 21
6320.967546015483
 31
0.0
  0
LINE
  5
26614
330
258D1
100
AcDbEntity
  8
寸法
 62
     0
 48
50.0
370
    -2
100
AcDbLine
 10
6179.325326928808
 20
5600.967546015483
 30
0.0
 11
5670.512673767881
 21
5600.967546015484
 31
0.0
  0
LINE
  5
26615
330
258D1
100
AcDbEntity
  8
寸法
 62
     0
 48
50.0
370
    -2
100
AcDbLine
 10
5730.512673767882
 20
6320.967546015483
 30
0.0
 11
5730.512673767881
 21
5600.967546015484
 31
0.0
  0
INSERT
  5
26616
330
258D1
100
AcDbEntity
  8
寸法
 62
     0
 48
50.0
370
    -2
100
AcDbBlockReference
  2
_DOTSMALL
 10
5730.512673767882
 20
6320.967546015483
 30
0.0
 41
100.0
 42
100.0
 43
100.0
 50
90.0
  0
INSERT
  5
26617
330
258D1
100
AcDbEntity
  8
寸法
 62
     0
 48
50.0
370
    -2
100
AcDbBlockReference
  2
_DOTSMALL
 10
5730.512673767881
 20
5600.967546015484
 30
0.0
 41
100.0
 42
100.0
 43
100.0
 50
270.0
  0
MTEXT
  5
26618
330
258D1
100
AcDbEntity
  8
寸法
 62
     7
 48
50.0
100
AcDbMText
 10
5630.500862744259
 20
5960.967546015485
 30
0.0
 40
120.0
 41
0.0
 71
     5
 72
     1
  1
\A1;扉の出720
  7
STYLE1
 11
0.0000000000000001
 21
1.0
 31
0.0
 73
     1
 44
1.0
1001
ACAD
1000
MTEXTBEGIN
1070
    73
1070
     1
1070
    44
1040
1.0
1070
    74
1070
     0
1000
MTEXTEND
  0
POINT
  5
26619
330
258D1
100
AcDbEntity
  8
DEFPOINTS
 62
     0
 48
50.0
100
AcDbPoint
 10
5843.600000000004
 20
6320.967546015483
 30
0.0
  0
POINT
  5
2661A
330
258D1
100
AcDbEntity
  8
DEFPOINTS
 62
     0
 48
50.0
100
AcDbPoint
 10
6199.325326928809
 20
5600.967546015483
 30
0.0
  0
POINT
  5
2661B
330
258D1
100
AcDbEntity
  8
DEFPOINTS
 62
     0
 48
50.0
100
AcDbPoint
 10
5730.512673767881
 20
5600.967546015484
 30
0.0
  0
ENDBLK
  5
258DC
330
258D1
100
AcDbEntity
  8
0
 48
50.0
100
AcDbBlockEnd
  0
BLOCK
  5
258E7
330
258DD
100
AcDbEntity
  8
0
 48
50.0
100
AcDbBlockBegin
  2
*D36
 70
     1
 10
0.0
 20
0.0
 30
0.0
  3
*D36
  1

  0
LINE
  5
2660A
330
258DD
100
AcDbEntity
  8
寸法
 62
     0
 48
50.0
370
    -2
100
AcDbLine
 10
6397.765475140901
 20
6320.967546015498
 30
0.0
 11
6112.957458789076
 21
6320.967546015499
 31
0.0
  0
LINE
  5
2660B
330
258DD
100
AcDbEntity
  8
寸法
 62
     0
 48
50.0
370
    -2
100
AcDbLine
 10
6728.600000000007
 20
7047.967546015486
 30
0.0
 11
6112.957458789076
 21
7047.967546015488
 31
0.0
  0
LINE
  5
2660C
330
258DD
100
AcDbEntity
  8
寸法
 62
     0
 48
50.0
370
    -2
100
AcDbLine
 10
6172.957458789077
 20
6320.967546015498
 30
0.0
 11
6172.957458789077
 21
7047.967546015486
 31
0.0
  0
INSERT
  5
2660D
330
258DD
100
AcDbEntity
  8
寸法
 62
     0
 48
50.0
370
    -2
100
AcDbBlockReference
  2
_DOTSMALL
 10
6172.957458789077
 20
6320.967546015498
 30
0.0
 41
100.0
 42
100.0
 43
100.0
 50
270.0
  0
INSERT
  5
2660E
330
258DD
100
AcDbEntity
  8
寸法
 62
     0
 48
50.0
370
    -2
100
AcDbBlockReference
  2
_DOTSMALL
 10
6172.957458789077
 20
7047.967546015486
 30
0.0
 41
100.0
 42
100.0
 43
100.0
 50
90.0
  0
MTEXT
  5
2660F
330
258DD
100
AcDbEntity
  8
寸法
 62
     7
 48
50.0
100
AcDbMText
 10
6072.945647765453
 20
6815.908744423587
 30
0.0
 40
120.0
 41
0.0
 71
     5
 72
     1
  1
\A1;727
  7
STYLE1
 11
0.0000000000000001
 21
1.0
 31
0.0
 73
     1
 44
1.0
1001
ACAD
1000
MTEXTBEGIN
1070
    73
1070
     1
1070
    44
1040
1.0
1070
    74
1070
     0
1000
MTEXTEND
  0
POINT
  5
26610
330
258DD
100
AcDbEntity
  8
DEFPOINTS
 62
     0
 48
50.0
100
AcDbPoint
 10
6417.765475140901
 20
6320.967546015498
 30
0.0
  0
POINT
  5
26611
330
258DD
100
AcDbEntity
  8
DEFPOINTS
 62
     0
 48
50.0
100
AcDbPoint
 10
6748.600000000007
 20
7047.967546015486
 30
0.0
  0
POINT
  5
26612
330
258DD
100
AcDbEntity
  8
DEFPOINTS
 62
     0
 48
50.0
100
AcDbPoint
 10
6172.957458789077
 20
7047.967546015486
 30
0.0
  0
ENDBLK
  5
258E8
330
258DD
100
AcDbEntity
  8
0
 48
50.0
100
AcDbBlockEnd
  0
BLOCK
  5
2590B
330
25900
100
AcDbEntity
  8
0
 48
50.0
100
AcDbBlockBegin
  2
*D37
 70
     1
 10
0.0
 20
0.0
 30
0.0
  3
*D37
  1

  0
LINE
  5
26600
330
25900
100
AcDbEntity
  8
寸法
 62
     0
 48
50.0
370
    -2
100
AcDbLine
 10
5823.6
 20
7700.967546015487
 30
0.0
 11
5160.665006330072
 21
7700.967546015487
 31
0.0
  0
LINE
  5
26601
330
25900
100
AcDbEntity
  8
寸法
 62
     0
 48
50.0
370
    -2
100
AcDbLine
 10
5896.600000000001
 20
7577.967546015486
 30
0.0
 11
5160.665006330072
 21
7577.967546015486
 31
0.0
  0
LINE
  5
26602
330
25900
100
AcDbEntity
  8
寸法
 62
     0
 48
50.0
370
    -2
100
AcDbLine
 10
5220.665006330072
 20
7577.967546015486
 30
0.0
 11
5220.665006330072
 21
7700.967546015487
 31
0.0
  0
LINE
  5
26603
330
25900
100
AcDbEntity
  8
寸法
 62
     0
 48
50.0
370
    -2
100
AcDbLine
 10
5220.665006330072
 20
7700.967546015487
 30
0.0
 11
5220.665006330072
 21
8112.559429107525
 31
0.0
  0
INSERT
  5
26604
330
25900
100
AcDbEntity
  8
寸法
 62
     0
 48
50.0
370
    -2
100
AcDbBlockReference
  2
_DOTSMALL
 10
5220.665006330072
 20
7577.967546015486
 30
0.0
 41
100.0
 42
100.0
 43
100.0
 50
270.0
  0
INSERT
  5
26605
330
25900
100
AcDbEntity
  8
寸法
 62
     0
 48
50.0
370
    -2
100
AcDbBlockReference
  2
_DOTSMALL
 10
5220.665006330072
 20
7700.967546015487
 30
0.0
 41
100.0
 42
100.0
 43
100.0
 50
90.0
  0
MTEXT
  5
26606
330
25900
100
AcDbEntity
  8
寸法
 62
     7
 48
50.0
100
AcDbMText
 10
5120.65319530645
 20
7974.074147733287
 30
0.0
 40
120.0
 41
0.0
 71
     5
 72
     1
  1
\A1;123
  7
STYLE1
 11
0.0000000000000001
 21
1.0
 31
0.0
 73
     1
 44
1.0
1001
ACAD
1000
MTEXTBEGIN
1070
    73
1070
     1
1070
    44
1040
1.0
1070
    74
1070
     0
1000
MTEXTEND
  0
POINT
  5
26607
330
25900
100
AcDbEntity
  8
DEFPOINTS
 62
     0
 48
50.0
100
AcDbPoint
 10
5843.600000000001
 20
7700.967546015487
 30
0.0
  0
POINT
  5
26608
330
25900
100
AcDbEntity
  8
DEFPOINTS
 62
     0
 48
50.0
100
AcDbPoint
 10
5916.6
 20
7577.967546015486
 30
0.0
  0
POINT
  5
26609
330
25900
100
AcDbEntity
  8
DEFPOINTS
 62
     0
 48
50.0
100
AcDbPoint
 10
5220.665006330072
 20
7577.967546015486
 30
0.0
  0
ENDBLK
  5
2590C
330
25900
100
AcDbEntity
  8
0
 48
50.0
100
AcDbBlockEnd
  0
BLOCK
  5
25916
330
2590D
100
AcDbEntity
  8
0
 48
50.0
100
AcDbBlockBegin
  2
*D38
 70
     1
 10
0.0
 20
0.0
 30
0.0
  3
*D38
  1

  0
LINE
  5
265F7
330
2590D
100
AcDbEntity
  8
寸法
 62
     0
 48
50.0
370
    -2
100
AcDbLine
 10
7630.600000000001
 20
7647.967546015486
 30
0.0
 11
7630.600000000001
 21
8487.234004109398
 31
0.0
  0
LINE
  5
265F8
330
2590D
100
AcDbEntity
  8
寸法
 62
     0
 48
50.0
370
    -2
100
AcDbLine
 10
5966.6
 20
7647.967546015486
 30
0.0
 11
5966.6
 21
8487.234004109398
 31
0.0
  0
LINE
  5
265F9
330
2590D
100
AcDbEntity
  8
寸法
 62
     0
 48
50.0
370
    -2
100
AcDbLine
 10
7630.600000000001
 20
8427.234004109399
 30
0.0
 11
5966.6
 21
8427.234004109399
 31
0.0
  0
INSERT
  5
265FA
330
2590D
100
AcDbEntity
  8
寸法
 62
     0
 48
50.0
370
    -2
100
AcDbBlockReference
  2
_DOTSMALL
 10
7630.600000000001
 20
8427.234004109399
 30
0.0
 41
100.0
 42
100.0
 43
100.0
  0
INSERT
  5
265FB
330
2590D
100
AcDbEntity
  8
寸法
 62
     0
 48
50.0
370
    -2
100
AcDbBlockReference
  2
_DOTSMALL
 10
5966.6
 20
8427.234004109399
 30
0.0
 41
100.0
 42
100.0
 43
100.0
 50
180.0
  0
MTEXT
  5
265FC
330
2590D
100
AcDbEntity
  8
寸法
 62
     7
 48
50.0
100
AcDbMText
 10
6798.6
 20
8527.234004109399
 30
0.0
 40
120.0
 41
0.0
 71
     5
 72
     1
  1
\A1;1664
  7
STYLE1
 73
     1
 44
1.0
1001
ACAD
1000
MTEXTBEGIN
1070
    73
1070
     1
1070
    44
1040
1.0
1070
    74
1070
     0
1000
MTEXTEND
  0
POINT
  5
265FD
330
2590D
100
AcDbEntity
  8
DEFPOINTS
 62
     0
 48
50.0
100
AcDbPoint
 10
7630.600000000001
 20
7627.967546015486
 30
0.0
  0
POINT
  5
265FE
330
2590D
100
AcDbEntity
  8
DEFPOINTS
 62
     0
 48
50.0
100
AcDbPoint
 10
5966.6
 20
7627.967546015486
 30
0.0
  0
POINT
  5
265FF
330
2590D
100
AcDbEntity
  8
DEFPOINTS
 62
     0
 48
50.0
100
AcDbPoint
 10
5966.6
 20
8427.234004109399
 30
0.0
  0
ENDBLK
  5
25917
330
2590D
100
AcDbEntity
  8
0
 48
50.0
100
AcDbBlockEnd
  0
BLOCK
  5
25930
330
25925
100
AcDbEntity
  8
0
 48
50.0
100
AcDbBlockBegin
  2
*D39
 70
     1
 10
0.0
 20
0.0
 30
0.0
  3
*D39
  1

  0
LINE
  5
265ED
330
25925
100
AcDbEntity
  8
寸法
 62
     0
 48
50.0
370
    -2
100
AcDbLine
 10
5966.6
 20
7647.967546015486
 30
0.0
 11
5966.6
 21
8487.234004109398
 31
0.0
  0
LINE
  5
265EE
330
25925
100
AcDbEntity
  8
寸法
 62
     0
 48
50.0
370
    -2
100
AcDbLine
 10
5843.600000000001
 20
7720.967546015486
 30
0.0
 11
5843.600000000001
 21
8487.234004109398
 31
0.0
  0
LINE
  5
265EF
330
25925
100
AcDbEntity
  8
寸法
 62
     0
 48
50.0
370
    -2
100
AcDbLine
 10
5966.6
 20
8427.234004109399
 30
0.0
 11
5843.600000000001
 21
8427.234004109399
 31
0.0
  0
LINE
  5
265F0
330
25925
100
AcDbEntity
  8
寸法
 62
     0
 48
50.0
370
    -2
100
AcDbLine
 10
5843.600000000001
 20
8427.234004109399
 30
0.0
 11
5432.008116907963
 21
8427.234004109399
 31
0.0
  0
INSERT
  5
265F1
330
25925
100
AcDbEntity
  8
寸法
 62
     0
 48
50.0
370
    -2
100
AcDbBlockReference
  2
_DOTSMALL
 10
5966.6
 20
8427.234004109399
 30
0.0
 41
100.0
 42
100.0
 43
100.0
  0
INSERT
  5
265F2
330
25925
100
AcDbEntity
  8
寸法
 62
     0
 48
50.0
370
    -2
100
AcDbBlockReference
  2
_DOTSMALL
 10
5843.600000000001
 20
8427.234004109399
 30
0.0
 41
100.0
 42
100.0
 43
100.0
 50
180.0
  0
MTEXT
  5
265F3
330
25925
100
AcDbEntity
  8
寸法
 62
     7
 48
50.0
100
AcDbMText
 10
5570.493398282202
 20
8527.245815133019
 30
0.0
 40
120.0
 41
0.0
 71
     5
 72
     1
  1
\A1;123
  7
STYLE1
 73
     1
 44
1.0
1001
ACAD
1000
MTEXTBEGIN
1070
    73
1070
     1
1070
    44
1040
1.0
1070
    74
1070
     0
1000
MTEXTEND
  0
POINT
  5
265F4
330
25925
100
AcDbEntity
  8
DEFPOINTS
 62
     0
 48
50.0
100
AcDbPoint
 10
5966.6
 20
7627.967546015486
 30
0.0
  0
POINT
  5
265F5
330
25925
100
AcDbEntity
  8
DEFPOINTS
 62
     0
 48
50.0
100
AcDbPoint
 10
5843.600000000001
 20
7700.967546015487
 30
0.0
  0
POINT
  5
265F6
330
25925
100
AcDbEntity
  8
DEFPOINTS
 62
     0
 48
50.0
100
AcDbPoint
 10
5843.600000000001
 20
8427.234004109399
 30
0.0
  0
ENDBLK
  5
25931
330
25925
100
AcDbEntity
  8
0
 48
50.0
100
AcDbBlockEnd
  0
BLOCK
  5
25949
330
2593F
100
AcDbEntity
  8
0
 48
50.0
100
AcDbBlockBegin
  2
*D40
 70
     1
 10
0.0
 20
0.0
 30
0.0
  3
*D40
  1

  0
LINE
  5
265E4
330
2593F
100
AcDbEntity
  8
寸法
 62
     0
 48
50.0
370
    -2
100
AcDbLine
 10
9648.600000000008
 20
7117.967546015487
 30
0.0
 11
9648.600000000008
 21
8243.576362685734
 31
0.0
  0
LINE
  5
265E5
330
2593F
100
AcDbEntity
  8
寸法
 62
     0
 48
50.0
370
    -2
100
AcDbLine
 10
8698.600000000007
 20
7117.967546015487
 30
0.0
 11
8698.600000000007
 21
8243.576362685734
 31
0.0
  0
LINE
  5
265E6
330
2593F
100
AcDbEntity
  8
寸法
 62
     0
 48
50.0
370
    -2
100
AcDbLine
 10
9648.600000000008
 20
8183.576362685736
 30
0.0
 11
8698.600000000007
 21
8183.576362685736
 31
0.0
  0
INSERT
  5
265E7
330
2593F
100
AcDbEntity
  8
寸法
 62
     0
 48
50.0
370
    -2
100
AcDbBlockReference
  2
_DOTSMALL
 10
9648.600000000008
 20
8183.576362685736
 30
0.0
 41
100.0
 42
100.0
 43
100.0
  0
INSERT
  5
265E8
330
2593F
100
AcDbEntity
  8
寸法
 62
     0
 48
50.0
370
    -2
100
AcDbBlockReference
  2
_DOTSMALL
 10
8698.600000000007
 20
8183.576362685736
 30
0.0
 41
100.0
 42
100.0
 43
100.0
 50
180.0
  0
MTEXT
  5
265E9
330
2593F
100
AcDbEntity
  8
寸法
 62
     7
 48
50.0
100
AcDbMText
 10
9173.600000000007
 20
8283.576362685735
 30
0.0
 40
120.0
 41
0.0
 71
     5
 72
     1
  1
\A1;950
  7
STYLE1
 73
     1
 44
1.0
1001
ACAD
1000
MTEXTBEGIN
1070
    73
1070
     1
1070
    44
1040
1.0
1070
    74
1070
     0
1000
MTEXTEND
  0
POINT
  5
265EA
330
2593F
100
AcDbEntity
  8
DEFPOINTS
 62
     0
 48
50.0
100
AcDbPoint
 10
9648.600000000008
 20
7097.967546015486
 30
0.0
  0
POINT
  5
265EB
330
2593F
100
AcDbEntity
  8
DEFPOINTS
 62
     0
 48
50.0
100
AcDbPoint
 10
8698.600000000007
 20
7097.967546015486
 30
0.0
  0
POINT
  5
265EC
330
2593F
100
AcDbEntity
  8
DEFPOINTS
 62
     0
 48
50.0
100
AcDbPoint
 10
8698.600000000007
 20
8183.576362685736
 30
0.0
  0
ENDBLK
  5
2594A
330
2593F
100
AcDbEntity
  8
0
 48
50.0
100
AcDbBlockEnd
  0
BLOCK
  5
25955
330
2594B
100
AcDbEntity
  8
0
 48
50.0
100
AcDbBlockBegin
  2
*D41
 70
     1
 10
0.0
 20
0.0
 30
0.0
  3
*D41
  1

  0
LINE
  5
265DB
330
2594B
100
AcDbEntity
  8
寸法
 62
     0
 48
50.0
370
    -2
100
AcDbLine
 10
10603.6
 20
7720.967546015486
 30
0.0
 11
10603.6
 21
8243.576362685734
 31
0.0
  0
LINE
  5
265DC
330
2594B
100
AcDbEntity
  8
寸法
 62
     0
 48
50.0
370
    -2
100
AcDbLine
 10
9648.600000000008
 20
7117.967546015487
 30
0.0
 11
9648.600000000008
 21
8243.576362685734
 31
0.0
  0
LINE
  5
265DD
330
2594B
100
AcDbEntity
  8
寸法
 62
     0
 48
50.0
370
    -2
100
AcDbLine
 10
10603.6
 20
8183.576362685736
 30
0.0
 11
9648.600000000008
 21
8183.576362685736
 31
0.0
  0
INSERT
  5
265DE
330
2594B
100
AcDbEntity
  8
寸法
 62
     0
 48
50.0
370
    -2
100
AcDbBlockReference
  2
_DOTSMALL
 10
10603.6
 20
8183.576362685736
 30
0.0
 41
100.0
 42
100.0
 43
100.0
  0
INSERT
  5
265DF
330
2594B
100
AcDbEntity
  8
寸法
 62
     0
 48
50.0
370
    -2
100
AcDbBlockReference
  2
_DOTSMALL
 10
9648.600000000008
 20
8183.576362685736
 30
0.0
 41
100.0
 42
100.0
 43
100.0
 50
180.0
  0
MTEXT
  5
265E0
330
2594B
100
AcDbEntity
  8
寸法
 62
     7
 48
50.0
100
AcDbMText
 10
10126.1
 20
8283.576362685735
 30
0.0
 40
120.0
 41
0.0
 71
     5
 72
     1
  1
\A1;955
  7
STYLE1
 73
     1
 44
1.0
1001
ACAD
1000
MTEXTBEGIN
1070
    73
1070
     1
1070
    44
1040
1.0
1070
    74
1070
     0
1000
MTEXTEND
  0
POINT
  5
265E1
330
2594B
100
AcDbEntity
  8
DEFPOINTS
 62
     0
 48
50.0
100
AcDbPoint
 10
10603.6
 20
7700.967546015487
 30
0.0
  0
POINT
  5
265E2
330
2594B
100
AcDbEntity
  8
DEFPOINTS
 62
     0
 48
50.0
100
AcDbPoint
 10
9648.600000000008
 20
7097.967546015486
 30
0.0
  0
POINT
  5
265E3
330
2594B
100
AcDbEntity
  8
DEFPOINTS
 62
     0
 48
50.0
100
AcDbPoint
 10
9648.600000000008
 20
8183.576362685736
 30
0.0
  0
ENDBLK
  5
25956
330
2594B
100
AcDbEntity
  8
0
 48
50.0
100
AcDbBlockEnd
  0
BLOCK
  5
25962
330
25957
100
AcDbEntity
  8
0
 48
50.0
100
AcDbBlockBegin
  2
*D42
 70
     1
 10
0.0
 20
0.0
 30
0.0
  3
*D42
  1

  0
LINE
  5
265D1
330
25957
100
AcDbEntity
  8
寸法
 62
     0
 48
50.0
370
    -2
100
AcDbLine
 10
10603.6
 20
7720.967546015486
 30
0.0
 11
10603.6
 21
8487.234004109398
 31
0.0
  0
LINE
  5
265D2
330
25957
100
AcDbEntity
  8
寸法
 62
     0
 48
50.0
370
    -2
100
AcDbLine
 10
10480.6
 20
7647.967546015486
 30
0.0
 11
10480.6
 21
8487.234004109398
 31
0.0
  0
LINE
  5
265D3
330
25957
100
AcDbEntity
  8
寸法
 62
     0
 48
50.0
370
    -2
100
AcDbLine
 10
10480.6
 20
8427.234004109399
 30
0.0
 11
10603.6
 21
8427.234004109399
 31
0.0
  0
LINE
  5
265D4
330
25957
100
AcDbEntity
  8
寸法
 62
     0
 48
50.0
370
    -2
100
AcDbLine
 10
10603.6
 20
8427.234004109399
 30
0.0
 11
11015.19188309203
 21
8427.234004109399
 31
0.0
  0
INSERT
  5
265D5
330
25957
100
AcDbEntity
  8
寸法
 62
     0
 48
50.0
370
    -2
100
AcDbBlockReference
  2
_DOTSMALL
 10
10480.6
 20
8427.234004109399
 30
0.0
 41
100.0
 42
100.0
 43
100.0
 50
180.0
  0
INSERT
  5
265D6
330
25957
100
AcDbEntity
  8
寸法
 62
     0
 48
50.0
370
    -2
100
AcDbBlockReference
  2
_DOTSMALL
 10
10603.6
 20
8427.234004109399
 30
0.0
 41
100.0
 42
100.0
 43
100.0
  0
MTEXT
  5
265D7
330
25957
100
AcDbEntity
  8
寸法
 62
     7
 48
50.0
100
AcDbMText
 10
10876.7066017178
 20
8527.245815133019
 30
0.0
 40
120.0
 41
0.0
 71
     5
 72
     1
  1
\A1;123
  7
STYLE1
 73
     1
 44
1.0
1001
ACAD
1000
MTEXTBEGIN
1070
    73
1070
     1
1070
    44
1040
1.0
1070
    74
1070
     0
1000
MTEXTEND
  0
POINT
  5
265D8
330
25957
100
AcDbEntity
  8
DEFPOINTS
 62
     0
 48
50.0
100
AcDbPoint
 10
10603.6
 20
7700.967546015487
 30
0.0
  0
POINT
  5
265D9
330
25957
100
AcDbEntity
  8
DEFPOINTS
 62
     0
 48
50.0
100
AcDbPoint
 10
10480.6
 20
7627.967546015486
 30
0.0
  0
POINT
  5
265DA
330
25957
100
AcDbEntity
  8
DEFPOINTS
 62
     0
 48
50.0
100
AcDbPoint
 10
10480.6
 20
8427.234004109399
 30
0.0
  0
ENDBLK
  5
25963
330
25957
100
AcDbEntity
  8
0
 48
50.0
100
AcDbBlockEnd
  0
BLOCK
  5
26550
330
26546
100
AcDbEntity
  8
0
 48
50.0
100
AcDbBlockBegin
  2
*D43
 70
     1
 10
0.0
 20
0.0
 30
0.0
  3
*D43
  1

  0
LINE
  5
26590
330
26546
100
AcDbEntity
  8
寸法
 62
     0
 48
50.0
370
    -2
100
AcDbLine
 10
6147.442726088589
 20
940.7148729049531
 30
0.0
 11
6147.442726088589
 21
490.2852348997931
 31
0.0
  0
LINE
  5
26591
330
26546
100
AcDbEntity
  8
寸法
 62
     0
 48
50.0
370
    -2
100
AcDbLine
 10
6595.442726088589
 20
940.7148729049531
 30
0.0
 11
6595.442726088589
 21
490.2852348997931
 31
0.0
  0
LINE
  5
26592
330
26546
100
AcDbEntity
  8
寸法
 62
     0
 48
50.0
370
    -2
100
AcDbLine
 10
6147.442726088589
 20
550.285234899793
 30
0.0
 11
6595.442726088589
 21
550.285234899793
 31
0.0
  0
INSERT
  5
26593
330
26546
100
AcDbEntity
  8
寸法
 62
     0
 48
50.0
370
    -2
100
AcDbBlockReference
  2
_DOTSMALL
 10
6147.442726088589
 20
550.285234899793
 30
0.0
 41
100.0
 42
100.0
 43
100.0
 50
180.0
  0
INSERT
  5
26594
330
26546
100
AcDbEntity
  8
寸法
 62
     0
 48
50.0
370
    -2
100
AcDbBlockReference
  2
_DOTSMALL
 10
6595.442726088589
 20
550.285234899793
 30
0.0
 41
100.0
 42
100.0
 43
100.0
  0
MTEXT
  5
26595
330
26546
100
AcDbEntity
  8
寸法
 62
     7
 48
50.0
100
AcDbMText
 10
6351.345967410365
 20
650.285234899793
 30
0.0
 40
120.0
 41
0.0
 71
     5
 72
     1
  1
\A1;300
  7
STYLE1
 73
     1
 44
1.0
1001
ACAD
1000
MTEXTBEGIN
1070
    73
1070
     1
1070
    44
1040
1.0
1070
    74
1070
     0
1000
MTEXTEND
  0
POINT
  5
26596
330
26546
100
AcDbEntity
  8
DEFPOINTS
 62
     0
 48
50.0
100
AcDbPoint
 10
6147.442726088589
 20
960.7148729049532
 30
0.0
  0
POINT
  5
26597
330
26546
100
AcDbEntity
  8
DEFPOINTS
 62
     0
 48
50.0
100
AcDbPoint
 10
6595.442726088589
 20
960.7148729049532
 30
0.0
  0
POINT
  5
26598
330
26546
100
AcDbEntity
  8
DEFPOINTS
 62
     0
 48
50.0
100
AcDbPoint
 10
6595.442726088589
 20
550.285234899793
 30
0.0
  0
ENDBLK
  5
26551
330
26546
100
AcDbEntity
  8
0
 48
50.0
100
AcDbBlockEnd
  0
BLOCK
  5
2655C
330
26552
100
AcDbEntity
  8
0
 48
50.0
100
AcDbBlockBegin
  2
*D44
 70
     1
 10
0.0
 20
0.0
 30
0.0
  3
*D44
  1

  0
LINE
  5
26599
330
26552
100
AcDbEntity
  8
寸法
 62
     0
 48
50.0
370
    -2
100
AcDbLine
 10
6255.442726088588
 20
1872.714872904953
 30
0.0
 11
5480.405487526848
 21
1872.714872904953
 31
0.0
  0
LINE
  5
2659A
330
26552
100
AcDbEntity
  8
寸法
 62
     0
 48
50.0
370
    -2
100
AcDbLine
 10
6047.442726088593
 20
1088.714872904953
 30
0.0
 11
5480.405487526848
 21
1088.714872904953
 31
0.0
  0
LINE
  5
2659B
330
26552
100
AcDbEntity
  8
寸法
 62
     0
 48
50.0
370
    -2
100
AcDbLine
 10
5540.405487526848
 20
1872.714872904953
 30
0.0
 11
5540.405487526848
 21
1088.714872904953
 31
0.0
  0
INSERT
  5
2659C
330
26552
100
AcDbEntity
  8
寸法
 62
     0
 48
50.0
370
    -2
100
AcDbBlockReference
  2
_DOTSMALL
 10
5540.405487526848
 20
1872.714872904953
 30
0.0
 41
100.0
 42
100.0
 43
100.0
 50
90.0
  0
INSERT
  5
2659D
330
26552
100
AcDbEntity
  8
寸法
 62
     0
 48
50.0
370
    -2
100
AcDbBlockReference
  2
_DOTSMALL
 10
5540.405487526848
 20
1088.714872904953
 30
0.0
 41
100.0
 42
100.0
 43
100.0
 50
270.0
  0
MTEXT
  5
2659E
330
26552
100
AcDbEntity
  8
寸法
 62
     7
 48
50.0
100
AcDbMText
 10
5440.405487526849
 20
1460.255022560954
 30
0.0
 40
120.0
 41
0.0
 71
     5
 72
     1
  1
\A1;540
  7
STYLE1
 11
0.0000000000000001
 21
1.0
 31
0.0
 73
     1
 44
1.0
1001
ACAD
1000
MTEXTBEGIN
1070
    73
1070
     1
1070
    44
1040
1.0
1070
    74
1070
     0
1000
MTEXTEND
  0
POINT
  5
2659F
330
26552
100
AcDbEntity
  8
DEFPOINTS
 62
     0
 48
50.0
100
AcDbPoint
 10
6275.442726088589
 20
1872.714872904953
 30
0.0
  0
POINT
  5
265A0
330
26552
100
AcDbEntity
  8
DEFPOINTS
 62
     0
 48
50.0
100
AcDbPoint
 10
6067.442726088592
 20
1088.714872904953
 30
0.0
  0
POINT
  5
265A1
330
26552
100
AcDbEntity
  8
DEFPOINTS
 62
     0
 48
50.0
100
AcDbPoint
 10
5540.405487526848
 20
1088.714872904953
 30
0.0
  0
ENDBLK
  5
2655D
330
26552
100
AcDbEntity
  8
0
 48
50.0
100
AcDbBlockEnd
  0
BLOCK
  5
26568
330
2655E
100
AcDbEntity
  8
0
 48
50.0
100
AcDbBlockBegin
  2
*D45
 70
     1
 10
0.0
 20
0.0
 30
0.0
  3
*D45
  1

  0
LINE
  5
265A2
330
2655E
100
AcDbEntity
  8
寸法
 62
     0
 48
50.0
370
    -2
100
AcDbLine
 10
6127.442726088588
 20
1328.714872904953
 30
0.0
 11
5945.022412356129
 21
1328.714872904953
 31
0.0
  0
LINE
  5
265A3
330
2655E
100
AcDbEntity
  8
寸法
 62
     0
 48
50.0
370
    -2
100
AcDbLine
 10
6047.442726088593
 20
1088.714872904953
 30
0.0
 11
5945.022412356129
 21
1088.714872904953
 31
0.0
  0
LINE
  5
265A4
330
2655E
100
AcDbEntity
  8
寸法
 62
     0
 48
50.0
370
    -2
100
AcDbLine
 10
6005.022412356129
 20
1328.714872904953
 30
0.0
 11
6005.022412356129
 21
1088.714872904953
 31
0.0
  0
INSERT
  5
265A5
330
2655E
100
AcDbEntity
  8
寸法
 62
     0
 48
50.0
370
    -2
100
AcDbBlockReference
  2
_DOTSMALL
 10
6005.022412356129
 20
1328.714872904953
 30
0.0
 41
100.0
 42
100.0
 43
100.0
 50
90.0
  0
INSERT
  5
265A6
330
2655E
100
AcDbEntity
  8
寸法
 62
     0
 48
50.0
370
    -2
100
AcDbBlockReference
  2
_DOTSMALL
 10
6005.022412356129
 20
1088.714872904953
 30
0.0
 41
100.0
 42
100.0
 43
100.0
 50
270.0
  0
MTEXT
  5
265A7
330
2655E
100
AcDbEntity
  8
寸法
 62
     7
 48
50.0
100
AcDbMText
 10
5905.022412356129
 20
1208.714872904954
 30
0.0
 40
120.0
 41
0.0
 71
     5
 72
     1
  1
\A1;150
  7
STYLE1
 11
0.0000000000000001
 21
1.0
 31
0.0
 73
     1
 44
1.0
1001
ACAD
1000
MTEXTBEGIN
1070
    73
1070
     1
1070
    44
1040
1.0
1070
    74
1070
     0
1000
MTEXTEND
  0
POINT
  5
265A8
330
2655E
100
AcDbEntity
  8
DEFPOINTS
 62
     0
 48
50.0
100
AcDbPoint
 10
6147.442726088589
 20
1328.714872904953
 30
0.0
  0
POINT
  5
265A9
330
2655E
100
AcDbEntity
  8
DEFPOINTS
 62
     0
 48
50.0
100
AcDbPoint
 10
6067.442726088592
 20
1088.714872904953
 30
0.0
  0
POINT
  5
265AA
330
2655E
100
AcDbEntity
  8
DEFPOINTS
 62
     0
 48
50.0
100
AcDbPoint
 10
6005.022412356129
 20
1088.714872904953
 30
0.0
  0
ENDBLK
  5
26569
330
2655E
100
AcDbEntity
  8
0
 48
50.0
100
AcDbBlockEnd
  0
BLOCK
  5
26576
330
2656A
100
AcDbEntity
  8
0
 48
50.0
100
AcDbBlockBegin
  2
*D46
 70
     1
 10
0.0
 20
0.0
 30
0.0
  3
*D46
  1

  0
LINE
  5
265AB
330
2656A
100
AcDbEntity
  8
寸法
 62
     0
 48
50.0
370
    -2
100
AcDbLine
 10
8222.282039265783
 20
1925.474872904954
 30
0.0
 11
9227.405305153654
 21
1925.474872904954
 31
0.0
  0
LINE
  5
265AC
330
2656A
100
AcDbEntity
  8
寸法
 62
     0
 48
50.0
370
    -2
100
AcDbLine
 10
8409.482039265782
 20
1872.714872904953
 30
0.0
 11
9227.405305153654
 21
1872.714872904953
 31
0.0
  0
LINE
  5
265AD
330
2656A
100
AcDbEntity
  8
寸法
 62
     0
 48
50.0
370
    -2
100
AcDbLine
 10
9167.405305153655
 20
1925.474872904954
 30
0.0
 11
9167.405305153655
 21
2025.474872904954
 31
0.0
  0
LINE
  5
265AE
330
2656A
100
AcDbEntity
  8
寸法
 62
     0
 48
50.0
370
    -2
100
AcDbLine
 10
9167.405305153655
 20
1872.714872904953
 30
0.0
 11
9167.405305153655
 21
1140.697066061986
 31
0.0
  0
LINE
  5
265AF
330
2656A
100
AcDbEntity
  8
寸法
 62
     0
 48
50.0
370
    -2
100
AcDbLine
 10
9167.405305153655
 20
1925.474872904954
 30
0.0
 11
9167.405305153655
 21
1872.714872904953
 31
0.0
  0
INSERT
  5
265B0
330
2656A
100
AcDbEntity
  8
寸法
 62
     0
 48
50.0
370
    -2
100
AcDbBlockReference
  2
_DOTSMALL
 10
9167.405305153655
 20
1925.474872904954
 30
0.0
 41
100.0
 42
100.0
 43
100.0
 50
270.0
  0
INSERT
  5
265B1
330
2656A
100
AcDbEntity
  8
寸法
 62
     0
 48
50.0
370
    -2
100
AcDbBlockReference
  2
_DOTSMALL
 10
9167.405305153655
 20
1872.714872904953
 30
0.0
 41
100.0
 42
100.0
 43
100.0
 50
90.0
  0
MTEXT
  5
265B2
330
2656A
100
AcDbEntity
  8
寸法
 62
     7
 48
50.0
100
AcDbMText
 10
9067.393494130032
 20
1406.705969483471
 30
0.0
 40
120.0
 41
0.0
 71
     5
 72
     1
  1
\A1;20～25
  7
STYLE1
 11
0.0000000000000001
 21
1.0
 31
0.0
 73
     1
 44
1.0
1001
ACAD
1000
MTEXTBEGIN
1070
    73
1070
     1
1070
    44
1040
1.0
1070
    74
1070
     0
1000
MTEXTEND
  0
POINT
  5
265B3
330
2656A
100
AcDbEntity
  8
DEFPOINTS
 62
     0
 48
50.0
100
AcDbPoint
 10
8202.282039265783
 20
1925.474872904954
 30
0.0
  0
POINT
  5
265B4
330
2656A
100
AcDbEntity
  8
DEFPOINTS
 62
     0
 48
50.0
100
AcDbPoint
 10
8389.482039265782
 20
1872.714872904953
 30
0.0
  0
POINT
  5
265B5
330
2656A
100
AcDbEntity
  8
DEFPOINTS
 62
     0
 48
50.0
100
AcDbPoint
 10
9167.405305153655
 20
1872.714872904953
 30
0.0
  0
ENDBLK
  5
26577
330
2656A
100
AcDbEntity
  8
0
 48
50.0
100
AcDbBlockEnd
  0
BLOCK
  5
26582
330
26578
100
AcDbEntity
  8
0
 48
50.0
100
AcDbBlockBegin
  2
*D47
 70
     1
 10
0.0
 20
0.0
 30
0.0
  3
*D47
  1

  0
LINE
  5
265B6
330
26578
100
AcDbEntity
  8
寸法
 62
     0
 48
50.0
370
    -2
100
AcDbLine
 10
8409.482039265782
 20
1872.714872904953
 30
0.0
 11
8951.350639034627
 21
1872.714872904953
 31
0.0
  0
LINE
  5
265B7
330
26578
100
AcDbEntity
  8
寸法
 62
     0
 48
50.0
370
    -2
100
AcDbLine
 10
8409.482039265782
 20
1548.714872904952
 30
0.0
 11
8951.350639034627
 21
1548.714872904952
 31
0.0
  0
LINE
  5
265B8
330
26578
100
AcDbEntity
  8
寸法
 62
     0
 48
50.0
370
    -2
100
AcDbLine
 10
8891.350639034627
 20
1872.714872904953
 30
0.0
 11
8891.350639034627
 21
1548.714872904952
 31
0.0
  0
INSERT
  5
265B9
330
26578
100
AcDbEntity
  8
寸法
 62
     0
 48
50.0
370
    -2
100
AcDbBlockReference
  2
_DOTSMALL
 10
8891.350639034627
 20
1872.714872904953
 30
0.0
 41
100.0
 42
100.0
 43
100.0
 50
90.0
  0
INSERT
  5
265BA
330
26578
100
AcDbEntity
  8
寸法
 62
     0
 48
50.0
370
    -2
100
AcDbBlockReference
  2
_DOTSMALL
 10
8891.350639034627
 20
1548.714872904952
 30
0.0
 41
100.0
 42
100.0
 43
100.0
 50
270.0
  0
MTEXT
  5
265BB
330
26578
100
AcDbEntity
  8
寸法
 62
     7
 48
50.0
100
AcDbMText
 10
8791.350639034627
 20
1710.714872904954
 30
0.0
 40
120.0
 41
0.0
 71
     5
 72
     1
  1
\A1;180
  7
STYLE1
 11
0.0000000000000001
 21
1.0
 31
0.0
 73
     1
 44
1.0
1001
ACAD
1000
MTEXTBEGIN
1070
    73
1070
     1
1070
    44
1040
1.0
1070
    74
1070
     0
1000
MTEXTEND
  0
POINT
  5
265BC
330
26578
100
AcDbEntity
  8
DEFPOINTS
 62
     0
 48
50.0
100
AcDbPoint
 10
8389.482039265782
 20
1872.714872904953
 30
0.0
  0
POINT
  5
265BD
330
26578
100
AcDbEntity
  8
DEFPOINTS
 62
     0
 48
50.0
100
AcDbPoint
 10
8389.482039265782
 20
1548.714872904952
 30
0.0
  0
POINT
  5
265BE
330
26578
100
AcDbEntity
  8
DEFPOINTS
 62
     0
 48
50.0
100
AcDbPoint
 10
8891.350639034627
 20
1548.714872904952
 30
0.0
  0
ENDBLK
  5
26583
330
26578
100
AcDbEntity
  8
0
 48
50.0
100
AcDbBlockEnd
  0
BLOCK
  5
2658E
330
26584
100
AcDbEntity
  8
0
 48
50.0
100
AcDbBlockBegin
  2
*D48
 70
     1
 10
0.0
 20
0.0
 30
0.0
  3
*D48
  1

  0
LINE
  5
265BF
330
26584
100
AcDbEntity
  8
寸法
 62
     0
 48
50.0
370
    -2
100
AcDbLine
 10
6467.442726088589
 20
1892.714872904953
 30
0.0
 11
6467.442726088589
 21
2352.382680821333
 31
0.0
  0
LINE
  5
265C0
330
26584
100
AcDbEntity
  8
寸法
 62
     0
 48
50.0
370
    -2
100
AcDbLine
 10
6275.442726088589
 20
1892.714872904953
 30
0.0
 11
6275.442726088589
 21
2352.382680821333
 31
0.0
  0
LINE
  5
265C1
330
26584
100
AcDbEntity
  8
寸法
 62
     0
 48
50.0
370
    -2
100
AcDbLine
 10
6467.442726088589
 20
2292.382680821333
 30
0.0
 11
6275.442726088589
 21
2292.382680821333
 31
0.0
  0
INSERT
  5
265C2
330
26584
100
AcDbEntity
  8
寸法
 62
     0
 48
50.0
370
    -2
100
AcDbBlockReference
  2
_DOTSMALL
 10
6467.442726088589
 20
2292.382680821333
 30
0.0
 41
100.0
 42
100.0
 43
100.0
  0
INSERT
  5
265C3
330
26584
100
AcDbEntity
  8
寸法
 62
     0
 48
50.0
370
    -2
100
AcDbBlockReference
  2
_DOTSMALL
 10
6275.442726088589
 20
2292.382680821333
 30
0.0
 41
100.0
 42
100.0
 43
100.0
 50
180.0
  0
MTEXT
  5
265C4
330
26584
100
AcDbEntity
  8
寸法
 62
     7
 48
50.0
100
AcDbMText
 10
6371.442726088589
 20
2592.4181138922
 30
0.0
 40
120.0
 41
0.0
 71
     5
 72
     1
  1
\A1;120\P200\P280
  7
STYLE1
 73
     1
 44
1.0
1001
ACAD
1000
MTEXTBEGIN
1070
    73
1070
     1
1070
    44
1040
1.0
1070
    74
1070
     0
1000
MTEXTEND
  0
POINT
  5
265C5
330
26584
100
AcDbEntity
  8
DEFPOINTS
 62
     0
 48
50.0
100
AcDbPoint
 10
6467.442726088589
 20
1872.714872904953
 30
0.0
  0
POINT
  5
265C6
330
26584
100
AcDbEntity
  8
DEFPOINTS
 62
     0
 48
50.0
100
AcDbPoint
 10
6275.442726088589
 20
1872.714872904953
 30
0.0
  0
POINT
  5
265C7
330
26584
100
AcDbEntity
  8
DEFPOINTS
 62
     0
 48
50.0
100
AcDbPoint
 10
6275.442726088589
 20
2292.382680821333
 30
0.0
  0
ENDBLK
  5
2658F
330
26584
100
AcDbEntity
  8
0
 48
50.0
100
AcDbBlockEnd
  0
ENDSEC
  0
SECTION
  2
ENTITIES
  0
MTEXT
  5
763F
330
747D
100
AcDbEntity
  8
0
100
AcDbMText
 10
302.846345836809
 20
280.1983726409901
 30
0.0
 40
3.5
 41
5.323721266742722
 71
     1
 72
     5
  1

  7
MSMINCHO
 73
     1
 44
1.0
1001
ACAD
1000
MTEXTBEGIN
1070
    73
1070
     1
1070
    44
1040
1.0
1070
    74
1070
     0
1000
MTEXTEND
  0
LINE
  5
10B57
330
747D
100
AcDbEntity
  8
補助
  6
PHANTOM
 62
   230
 48
50.0
100
AcDbLine
 10
139.9999999999995
 20
11409.6
 30
0.0
 11
16307.2
 21
11409.6
 31
0.0
  0
LINE
  5
10B59
330
747D
100
AcDbEntity
  8
仕様書枠
  6
Continuous
 48
50.0
100
AcDbLine
 10
13107.2
 20
1200.0
 30
0.0
 11
13107.2
 21
-0.0000000000000729
 31
0.0
  0
LINE
  5
10B5D
330
747D
100
AcDbEntity
  8
仕様書枠
 48
50.0
100
AcDbLine
 10
140.0
 20
0.0
 30
0.0
 11
16307.2
 21
-0.0000000000000909
 31
0.0
  0
LINE
  5
10B5E
330
747D
100
AcDbEntity
  8
補助
  6
PHANTOM
 62
   230
 48
50.0
100
AcDbLine
 10
16307.2
 20
11409.6
 30
0.0
 11
16307.2
 21
1200.0
 31
0.0
  0
LINE
  5
10B6C
330
747D
100
AcDbEntity
  8
仕様書枠
 48
50.0
100
AcDbLine
 10
13107.2
 20
1200.0
 30
0.0
 11
16307.2
 21
1200.0
 31
0.0
  0
TEXT
  5
10B73
330
747D
100
AcDbEntity
  8
文字
 62
     7
 48
50.0
100
AcDbText
 10
13162.9790565769
 20
895.0906074299405
 30
0.0
 40
200.0
  1
基 礎 図
  7
STYLE2
100
AcDbText
  0
LINE
  5
10B7B
330
747D
100
AcDbEntity
  8
仕様書枠
 48
50.0
100
AcDbLine
 10
13107.2
 20
800.0
 30
0.0
 11
14251.2
 21
800.0
 31
0.0
  0
LINE
  5
10B88
330
747D
100
AcDbEntity
  8
仕様書枠
  6
Continuous
 48
50.0
100
AcDbLine
 10
14251.2
 20
1200.0
 30
0.0
 11
14251.2
 21
800.0
 31
0.0
  0
LINE
  5
16462
330
747D
100
AcDbEntity
  8
仕様書枠
 48
50.0
100
AcDbLine
 10
16307.2
 20
1200.0
 30
0.0
 11
16307.2
 21
-0.0000000000000909
 31
0.0
  0
LINE
  5
1903B
330
747D
100
AcDbEntity
  8
補助
  6
PHANTOM
 62
   230
 48
50.0
100
AcDbLine
 10
140.0
 20
0.0
 30
0.0
 11
139.9999999999995
 21
11409.6
 31
0.0
  0
LEADER
  5
1AC27
330
747D
100
AcDbEntity
  8
寸法
 48
50.0
100
AcDbLeader
  3
INABA_S40G
 73
     0
 74
     0
 75
     1
 40
120.0
 41
720.0000000000001
 76
     3
 10
10605.05985718447
 20
7006.954482469733
 30
0.0
 10
10771.83343157075
 20
6730.9405689019
 30
0.0
 10
10871.83343157075
 20
6730.9405689019
 30
0.0
340
1AC28
1001
ACAD
1000
DSTYLE
1002
{
1070
   341
1005
0
1002
}
  0
MTEXT
  5
1AC28
102
{ACAD_REACTORS
330
1AC27
102
}
330
747D
100
AcDbEntity
  8
部品1
 62
     7
 48
50.0
100
AcDbMText
 10
11631.83343157075
 20
6830.9405689019
 30
0.0
 40
120.0
 41
0.0
 71
     6
 72
     1
  1
\A1;床下換気口
  7
STYLE1
 73
     1
 44
1.0
1001
ACAD
1000
MTEXTBEGIN
1070
    73
1070
     1
1070
    44
1040
1.0
1070
    74
1070
     0
1000
MTEXTEND
  0
TEXT
  5
1AC29
330
747D
100
AcDbEntity
  8
部品1
 48
50.0
100
AcDbText
 10
10952.43013846117
 20
6013.666120943917
 30
0.0
 40
80.0
  1
(a=45,b=55,c=75)
  7
STYLE1
100
AcDbText
  0
TEXT
  5
1AC2A
330
747D
100
AcDbEntity
  8
部品1
 48
50.0
100
AcDbText
 10
10793.85112970688
 20
6120.511341812671
 30
0.0
 40
80.0
  1
※a,b,cは屋根の出幅です。
  7
STYLE1
100
AcDbText
  0
MTEXT
  5
1AC2B
102
{ACAD_REACTORS
330
1AC2C
102
}
330
747D
100
AcDbEntity
  8
部品1
 62
     7
 48
50.0
100
AcDbMText
 10
11591.63832569548
 20
6299.822028745746
 30
0.0
 40
120.0
 41
0.0
 71
     6
 72
     1
  1
\A1;屋根の外寸
  7
STYLE1
 73
     1
 44
1.0
1001
ACAD
1000
MTEXTBEGIN
1070
    73
1070
     1
1070
    44
1040
1.0
1070
    74
1070
     0
1000
MTEXTEND
  0
LEADER
  5
1AC2C
330
747D
100
AcDbEntity
  8
寸法
 48
50.0
100
AcDbLeader
  3
INABA_S40G
 73
     0
 74
     0
 75
     1
 40
120.0
 41
672.0
 76
     3
 10
10653.69831350344
 20
6473.711372209321
 30
0.0
 10
10779.63832569548
 20
6199.822028745746
 30
0.0
 10
10879.63832569548
 20
6199.822028745746
 30
0.0
340
1AC2B
1001
ACAD
1000
DSTYLE
1002
{
1070
   341
1005
0
1002
}
  0
TEXT
  5
1C7A1
330
747D
100
AcDbEntity
  8
文字
 62
     7
 48
50.0
100
AcDbText
 10
13188.16259899338
 20
79.80631269190417
 30
0.0
 40
80.0
  1
※布基礎には換気口を設けてください。
  7
STYLE2
100
AcDbText
  0
TEXT
  5
1C7E7
330
747D
100
AcDbEntity
  8
文字
 62
     7
 48
50.0
100
AcDbText
 10
13188.16259899338
 20
246.7109242801889
 30
0.0
 40
80.0
  1
※寒冷地等は地域の実情に合わせた基礎にして下さい。
  7
STYLE2
100
AcDbText
  0
TEXT
  5
1C7E8
330
747D
100
AcDbEntity
  8
文字
 62
     7
 48
50.0
100
AcDbText
 10
14325.79230300687
 20
499.5983841039506
 30
0.0
 40
160.0
  1
ＮＸＮ－１３ＤＬ－５
  7
STYLE2
100
AcDbText
  0
TEXT
  5
1C7EC
330
747D
100
AcDbEntity
  8
文字
 62
     7
 48
50.0
100
AcDbText
 10
14524.131837222
 20
1031.557706291229
 30
0.0
 40
100.0
  1
<縮尺> S=1/40
  7
STYLE2
100
AcDbText
  0
TEXT
  5
1C7ED
330
747D
100
AcDbEntity
  8
文字
 62
     7
 48
50.0
100
AcDbText
 10
13201.43669998441
 20
477.2740661031257
 30
0.0
 40
160.0
  1
機種名
  7
STYLE2
100
AcDbText
  0
LINE
  5
1C7EF
330
747D
100
AcDbEntity
  8
文字
 62
     7
 48
50.0
100
AcDbLine
 10
13187.2
 20
400.0
 30
0.0
 11
16227.2
 21
400.0
 31
0.0
  0
MTEXT
  5
1D2D5
102
{ACAD_REACTORS
330
1D2D6
102
}
330
747D
100
AcDbEntity
  8
部品1
 62
     7
 48
50.0
100
AcDbMText
 10
11798.99523070988
 20
8016.580290257996
 30
0.0
 40
120.0
 41
0.0
 71
     6
 72
     1
  1
アンカーボルト
  7
STYLE1
 73
     1
 44
1.0
1001
ACAD
1000
MTEXTBEGIN
1070
    73
1070
     1
1070
    44
1040
1.0
1070
    74
1070
     0
1000
MTEXTEND
  0
LEADER
  5
1D2D6
330
747D
100
AcDbEntity
  8
寸法
 48
50.0
100
AcDbLeader
  3
INABA_S40G
 73
     0
 74
     0
 75
     1
 40
120.0
 41
994.3492424049171
 76
     3
 10
10480.680085757
 20
7578.175390374198
 30
0.0
 10
10664.64598830496
 20
7916.580290257996
 30
0.0
 10
10764.64598830496
 20
7916.580290257996
 30
0.0
340
1D2D5
1001
ACAD
1000
DSTYLE
1002
{
1070
   341
1005
0
1002
}
  0
MTEXT
  5
1D332
102
{ACAD_REACTORS
330
1D333
102
}
330
747D
100
AcDbEntity
  8
部品1
 62
     7
 48
50.0
100
AcDbMText
 10
10163.82869701569
 20
6871.558066949043
 30
0.0
 40
120.0
 41
0.0
 71
     6
 72
     1
  1
CB
  7
STYLE1
 73
     1
 44
1.0
1001
ACAD
1000
MTEXTBEGIN
1070
    73
1070
     1
1070
    44
1040
1.0
1070
    74
1070
     0
1000
MTEXTEND
  0
LEADER
  5
1D333
330
747D
100
AcDbEntity
  8
寸法
 48
50.0
100
AcDbLeader
  3
INABA_S40G
 73
     0
 74
     0
 75
     1
 40
120.0
 41
149.591883092037
 76
     3
 10
9736.954011061014
 20
7009.27638050387
 30
0.0
 10
9874.236813923658
 20
6771.558066949044
 30
0.0
 10
9974.236813923658
 20
6771.558066949044
 30
0.0
340
1D332
1001
ACAD
1000
DSTYLE
1002
{
1070
   341
1005
0
1002
}
  0
DIMENSION
  5
20DE1
330
747D
100
AcDbEntity
  8
寸法
 48
50.0
100
AcDbDimension
  2
*D19
 10
10648.6
 20
8659.187868074409
 30
0.0
 11
10919.77462120246
 21
8659.187868074409
 31
0.0
 70
   160
  1
a
 71
     5
 42
45.0
  3
INABA_S40G
100
AcDbAlignedDimension
 13
10603.6
 23
7700.967546015487
 33
0.0
 14
10648.6
 24
8427.234004109399
 34
0.0
100
AcDbRotatedDimension
1001
ACAD
1000
DSTYLE
1002
{
1070
   341
1005
0
1002
}
  0
DIMENSION
  5
20DFB
330
747D
100
AcDbEntity
  8
寸法
 48
50.0
100
AcDbDimension
  2
*D20
 10
5843.600000000001
 20
8659.187868074409
 30
0.0
 11
5527.425378797541
 21
8659.187868074409
 31
0.0
 70
   160
  1
a
 71
     5
 42
44.99999999999636
  3
INABA_S40G
100
AcDbAlignedDimension
 13
5798.600000000003
 23
8427.234004109399
 33
0.0
 14
5843.600000000001
 24
7700.967546015487
 34
0.0
100
AcDbRotatedDimension
1001
ACAD
1000
DSTYLE
1002
{
1070
   341
1005
0
1002
}
  0
LINE
  5
22711
330
747D
100
AcDbEntity
  8
想像線
 48
10.0
100
AcDbLine
 10
10648.6
 20
7775.96754601549
 30
0.0
 11
5798.600000000001
 21
7775.967546015499
 31
0.0
  0
LINE
  5
22712
330
747D
100
AcDbEntity
  8
想像線
 48
10.0
100
AcDbLine
 10
5798.599999999996
 20
6265.967546015495
 30
0.0
 11
5798.6
 21
7775.967546015495
 31
0.0
  0
LINE
  5
22713
330
747D
100
AcDbEntity
  8
想像線
 48
10.0
100
AcDbLine
 10
10648.6
 20
6265.967546015503
 30
0.0
 11
10648.6
 21
7775.96754601549
 31
0.0
  0
LINE
  5
22714
330
747D
100
AcDbEntity
  8
想像線
 48
10.0
100
AcDbLine
 10
10648.6
 20
6265.967546015503
 30
0.0
 11
5798.599999999997
 21
6265.967546015492
 31
0.0
  0
DIMENSION
  5
22741
330
747D
100
AcDbEntity
  8
寸法
 48
50.0
100
AcDbDimension
  2
*D21
 10
4968.721909610673
 20
7700.967546015487
 30
0.0
 11
4868.721909610672
 21
7738.467546015491
 31
0.0
 70
    32
  1
c
 71
     5
 42
75.00000000000636
  3
INABA_S40G
100
AcDbAlignedDimension
 13
5220.665006330068
 23
7775.967546015493
 33
0.0
 14
5843.600000000001
 24
7700.967546015487
 34
0.0
 50
90.0
100
AcDbRotatedDimension
1001
ACAD
1000
DSTYLE
1002
{
1070
   341
1005
0
1002
}
  0
DIMENSION
  5
2275B
330
747D
100
AcDbEntity
  8
寸法
 48
50.0
100
AcDbDimension
  2
*D22
 10
4968.721909610673
 20
6265.967546015513
 30
0.0
 11
4868.721909610671
 21
6293.467546015501
 31
0.0
 70
    32
  1
b
 71
     5
 42
54.99999999997453
  3
INABA_S40G
100
AcDbAlignedDimension
 13
5843.599999999997
 23
6320.967546015488
 33
0.0
 14
5220.665006330071
 24
6265.967546015513
 34
0.0
 50
90.0
100
AcDbRotatedDimension
1001
ACAD
1000
DSTYLE
1002
{
1070
   341
1005
0
1002
}
  0
DIMENSION
  5
23FD9
330
747D
100
AcDbEntity
  8
寸法
 48
50.0
100
AcDbDimension
  2
*D24
 10
9922.812020225658
 20
6320.967546015505
 30
0.0
 11
9922.812020225656
 21
6034.003963338333
 31
0.0
 70
   160
 71
     5
 42
279.9999999999982
  3
INABA_S40G
100
AcDbAlignedDimension
 13
10031.63847577293
 23
6600.967546015503
 33
0.0
 14
10023.6
 24
6320.967546015505
 34
0.0
 50
90.0
100
AcDbRotatedDimension
1001
ACAD
1000
DSTYLE
1002
{
1070
   341
1005
0
1002
}
  0
DIMENSION
  5
23FDA
330
747D
100
AcDbEntity
  8
寸法
 48
50.0
100
AcDbDimension
  2
*D25
 10
9922.812020225658
 20
7500.967546015488
 30
0.0
 11
9922.812020225656
 21
7987.931128692643
 31
0.0
 70
   160
 71
     5
 42
199.9999999999854
  3
INABA_S40G
100
AcDbAlignedDimension
 13
10023.6
 23
7700.967546015474
 33
0.0
 14
10023.60000000001
 24
7500.967546015488
 34
0.0
 50
90.0
100
AcDbRotatedDimension
1001
ACAD
1000
DSTYLE
1002
{
1070
   341
1005
0
1002
}
  0
DIMENSION
  5
24043
330
747D
100
AcDbEntity
  8
寸法
 48
50.0
100
AcDbDimension
  2
*D23
 10
10483.6
 20
7250.566159113597
 30
0.0
 11
10873.65905511811
 21
7250.566159113597
 31
0.0
 70
   160
 71
     5
 42
119.9999999999981
  3
INABA_S40G
100
AcDbAlignedDimension
 13
10603.6
 23
7135.967546015525
 33
0.0
 14
10483.6
 24
7135.967546015539
 34
0.0
100
AcDbRotatedDimension
1001
ACAD
1000
DSTYLE
1002
{
1070
   341
1005
0
1002
}
  0
LINE
  5
2577C
330
747D
100
AcDbEntity
  8
部品1
 48
50.0
100
AcDbLine
 10
10483.6
 20
7500.967546015487
 30
0.0
 11
5963.599999999997
 21
7500.967546015487
 31
0.0
  0
DIMENSION
  5
2577F
330
747D
100
AcDbEntity
  8
寸法
 48
50.0
100
AcDbDimension
  2
*D26
 10
7630.600000000001
 20
8427.234004109399
 30
0.0
 11
9055.600000000001
 21
8527.245815133019
 31
0.0
 70
    32
 71
     5
 42
2850.0
  3
INABA_S40G
100
AcDbAlignedDimension
 13
10480.6
 23
7627.967546015486
 33
0.0
 14
7630.600000000001
 24
7627.967546015486
 34
0.0
100
AcDbRotatedDimension
1001
ACAD
1000
DSTYLE
1002
{
1070
   341
1005
0
1002
}
  0
LINE
  5
25781
330
747D
100
AcDbEntity
  8
部品1
 48
50.0
100
AcDbLine
 10
10603.6
 20
7700.967546015487
 30
0.0
 11
5843.600000000001
 21
7700.967546015487
 31
0.0
  0
DIMENSION
  5
25782
330
747D
100
AcDbEntity
  8
寸法
 48
50.0
100
AcDbDimension
  2
*D27
 10
10603.6
 20
8659.187868074404
 30
0.0
 11
8223.600000000001
 21
8759.187868074404
 31
0.0
 70
    32
 71
     5
 42
4760.0
  3
INABA_S40G
100
AcDbAlignedDimension
 13
5843.600000000001
 23
7700.967546015487
 33
0.0
 14
10603.6
 24
7700.967546015487
 34
0.0
100
AcDbRotatedDimension
1001
ACAD
1000
DSTYLE
1002
{
1070
   341
1005
0
1002
}
  0
TEXT
  5
25783
330
747D
100
AcDbEntity
  8
寸法
 48
50.0
100
AcDbText
 10
8552.160509688038
 20
6339.648836808224
 30
0.0
 40
120.0
  1
扉面
  7
STYLE1
100
AcDbText
  0
LINE
  5
25785
330
747D
100
AcDbEntity
  8
部品1
 48
50.0
100
AcDbLine
 10
10603.6
 20
6320.967546015505
 30
0.0
 11
5843.599999999997
 21
6320.967546015483
 31
0.0
  0
DIMENSION
  5
25786
330
747D
100
AcDbEntity
  8
寸法
 48
50.0
100
AcDbDimension
  2
*D28
 10
7748.600000000007
 20
8183.576362685736
 30
0.0
 11
8223.600000000008
 21
8283.576362685735
 31
0.0
 70
    32
 71
     5
 42
950.0
  3
INABA_S40G
100
AcDbAlignedDimension
 13
8698.600000000007
 23
7097.967546015486
 33
0.0
 14
7748.600000000007
 24
7097.967546015486
 34
0.0
100
AcDbRotatedDimension
1001
ACAD
1000
DSTYLE
1002
{
1070
   341
1005
0
1002
}
  0
LINE
  5
25787
330
747D
100
AcDbEntity
  8
細線
 48
50.0
100
AcDbLine
 10
5843.599999999986
 20
7023.090073778597
 30
0.0
 11
5956.477472236858
 21
7135.967546015466
 31
0.0
  0
LINE
  5
25788
330
747D
100
AcDbEntity
  8
細線
 48
50.0
100
AcDbLine
 10
5843.599999999987
 20
7067.991354383943
 30
0.0
 11
5911.576191631509
 21
7135.967546015464
 31
0.0
  0
LINE
  5
25789
330
747D
100
AcDbEntity
  8
部品1
 48
50.0
100
AcDbLine
 10
7848.600000000008
 20
6947.967546015487
 30
0.0
 11
7848.600000000008
 21
7147.967546015486
 31
0.0
  0
LINE
  5
2578A
330
747D
100
AcDbEntity
  8
部品1
 48
50.0
100
AcDbLine
 10
7648.600000000008
 20
6947.967546015487
 30
0.0
 11
7648.600000000008
 21
7147.967546015486
 31
0.0
  0
LINE
  5
2578B
330
747D
100
AcDbEntity
  8
部品1
 48
50.0
100
AcDbLine
 10
6898.600000000008
 20
6947.967546015487
 30
0.0
 11
6898.600000000008
 21
7147.967546015486
 31
0.0
  0
LINE
  5
2578C
330
747D
100
AcDbEntity
  8
部品1
 48
50.0
100
AcDbLine
 10
6698.600000000007
 20
6947.967546015487
 30
0.0
 11
6698.600000000007
 21
7147.967546015486
 31
0.0
  0
LINE
  5
2578D
330
747D
100
AcDbEntity
  8
部品1
 48
50.0
100
AcDbLine
 10
5843.600000000001
 20
6320.967546015487
 30
0.0
 11
5843.600000000001
 21
7700.967546015487
 31
0.0
  0
DIMENSION
  5
2578E
330
747D
100
AcDbEntity
  8
寸法
 48
50.0
100
AcDbDimension
  2
*D29
 10
5220.665006330073
 20
6518.96754601549
 30
0.0
 11
5220.665006330071
 21
7048.467546015487
 31
0.0
 70
   160
 71
     5
 42
1058.999999999996
  3
INABA_S40G
100
AcDbAlignedDimension
 13
5916.6
 23
7577.967546015486
 33
0.0
 14
5916.600000000007
 24
6518.96754601549
 34
0.0
 50
90.0
100
AcDbRotatedDimension
1001
ACAD
1000
DSTYLE
1002
{
1070
   341
1005
0
1002
}
  0
DIMENSION
  5
2578F
330
747D
100
AcDbEntity
  8
寸法
 48
50.0
100
AcDbDimension
  2
*D30
 10
4968.721909610675
 20
6320.967546015487
 30
0.0
 11
4968.721909610673
 21
7048.467546015487
 31
0.0
 70
   160
 71
     5
 42
1380.0
  3
INABA_S40G
100
AcDbAlignedDimension
 13
5843.600000000001
 23
7700.967546015487
 33
0.0
 14
5843.600000000001
 24
6320.967546015487
 34
0.0
 50
90.0
100
AcDbRotatedDimension
1001
ACAD
1000
DSTYLE
1002
{
1070
   341
1005
0
1002
}
  0
DIMENSION
  5
25792
330
747D
100
AcDbEntity
  8
寸法
 48
50.0
100
AcDbDimension
  2
*D31
 10
6172.957458789077
 20
7700.967546015487
 30
0.0
 11
6172.957458789074
 21
7305.780105117593
 31
0.0
 70
   160
 71
     5
 42
653.0
  3
INABA_S40G
100
AcDbAlignedDimension
 13
6748.600000000007
 23
7047.967546015486
 33
0.0
 14
6417.765475140901
 24
7700.967546015487
 34
0.0
 50
90.0
100
AcDbRotatedDimension
1001
ACAD
1000
DSTYLE
1002
{
1070
   341
1005
0
1002
}
  0
DIMENSION
  5
25793
330
747D
100
AcDbEntity
  8
寸法
 48
50.0
100
AcDbDimension
  2
*D32
 10
6798.600000000007
 20
8183.576362685736
 30
0.0
 11
7273.600000000008
 21
8283.576362685735
 31
0.0
 70
    32
 71
     5
 42
950.0
  3
INABA_S40G
100
AcDbAlignedDimension
 13
7748.600000000007
 23
7097.967546015486
 33
0.0
 14
6798.600000000007
 24
7097.967546015486
 34
0.0
100
AcDbRotatedDimension
1001
ACAD
1000
DSTYLE
1002
{
1070
   341
1005
0
1002
}
  0
DIMENSION
  5
25794
330
747D
100
AcDbEntity
  8
寸法
 48
50.0
100
AcDbDimension
  2
*D33
 10
5843.600000000001
 20
8183.576362685736
 30
0.0
 11
6321.100000000004
 21
8283.576362685735
 31
0.0
 70
    32
 71
     5
 42
955.0000000000073
  3
INABA_S40G
100
AcDbAlignedDimension
 13
6798.600000000007
 23
7097.967546015486
 33
0.0
 14
5843.600000000001
 24
7700.967546015487
 34
0.0
100
AcDbRotatedDimension
1001
ACAD
1000
DSTYLE
1002
{
1070
   341
1005
0
1002
}
  0
DIMENSION
  5
25796
330
747D
100
AcDbEntity
  8
寸法
 48
50.0
100
AcDbDimension
  2
*D34
 10
5220.665006330073
 20
6320.967546015487
 30
0.0
 11
5220.665006330071
 21
5985.436597172896
 31
0.0
 70
   160
 71
     5
 42
198.0000000000036
  3
INABA_S40G
100
AcDbAlignedDimension
 13
5916.600000000007
 23
6518.96754601549
 33
0.0
 14
5843.600000000001
 24
6320.967546015487
 34
0.0
 50
90.0
100
AcDbRotatedDimension
1001
ACAD
1000
DSTYLE
1002
{
1070
   341
1005
0
1002
}
  0
LINE
  5
25797
330
747D
100
AcDbEntity
  8
センター
 48
2.0
100
AcDbLine
 10
6748.600000000007
 20
7047.967546015486
 30
0.0
 11
6848.600000000008
 21
7047.967546015486
 31
0.0
  0
LINE
  5
25798
330
747D
100
AcDbEntity
  8
部品1
 48
50.0
100
AcDbLine
 10
6898.600000000008
 20
6947.967546015487
 30
0.0
 11
6698.600000000007
 21
6947.967546015487
 31
0.0
  0
LINE
  5
25799
330
747D
100
AcDbEntity
  8
想像線
 48
5.0
100
AcDbLine
 10
6613.600000000004
 20
6320.967546015501
 30
0.0
 11
6613.600000000004
 21
5600.96754601549
 31
0.0
  0
ARC
  5
2579A
330
747D
100
AcDbEntity
  8
想像線
 48
5.0
100
AcDbCircle
 10
6613.600000000004
 20
6320.967546015491
 30
0.0
 40
720.0
100
AcDbArc
 50
180.0
 51
270.0
  0
DIMENSION
  5
2579B
330
747D
100
AcDbEntity
  8
寸法
 48
50.0
100
AcDbDimension
  2
*D35
 10
5730.512673767881
 20
5600.967546015484
 30
0.0
 11
5730.51267376788
 21
5960.967546015485
 31
0.0
 70
   160
  1
扉の出<>
 71
     5
 42
719.9999999999991
  3
INABA_S40G
100
AcDbAlignedDimension
 13
5843.600000000004
 23
6320.967546015483
 33
0.0
 14
6199.325326928809
 24
5600.967546015483
 34
0.0
 50
90.0
100
AcDbRotatedDimension
1001
ACAD
1000
DSTYLE
1002
{
1070
   341
1005
0
1002
}
  0
CIRCLE
  5
2579C
330
747D
100
AcDbEntity
  8
部品1
 48
50.0
100
AcDbCircle
 10
5966.599999999993
 20
6518.96754601549
 30
0.0
 40
35.0
  0
LINE
  5
2579D
330
747D
100
AcDbEntity
  8
センター
 48
2.0
100
AcDbLine
 10
5916.600000000007
 20
6518.96754601549
 30
0.0
 11
6016.600000000007
 21
6518.96754601549
 31
0.0
  0
LINE
  5
2579E
330
747D
100
AcDbEntity
  8
センター
 48
2.0
100
AcDbLine
 10
5966.600000000007
 20
6568.96754601549
 30
0.0
 11
5966.600000000007
 21
6468.96754601549
 31
0.0
  0
LINE
  5
2579F
330
747D
100
AcDbEntity
  8
細線
 48
50.0
100
AcDbLine
 10
5936.082594658238
 20
6935.967546015465
 30
0.0
 11
5963.599999999999
 21
6963.484951357227
 31
0.0
  0
LINE
  5
257A0
330
747D
100
AcDbEntity
  8
細線
 48
50.0
100
AcDbLine
 10
5891.181314052894
 20
6935.967546015466
 30
0.0
 11
5963.599999999999
 21
7008.386231962571
 31
0.0
  0
LINE
  5
257A1
330
747D
100
AcDbEntity
  8
細線
 48
50.0
100
AcDbLine
 10
5846.280033447548
 20
6935.967546015466
 30
0.0
 11
5963.599999999999
 21
7053.287512567918
 31
0.0
  0
LINE
  5
257A2
330
747D
100
AcDbEntity
  8
細線
 48
50.0
100
AcDbLine
 10
5843.599999999986
 20
6978.18879317325
 30
0.0
 11
5963.599999999997
 21
7098.188793173261
 31
0.0
  0
LINE
  5
257A3
330
747D
100
AcDbEntity
  8
部品1
 48
50.0
100
AcDbLine
 10
5963.599999999999
 20
6935.967546015468
 30
0.0
 11
5843.599999999986
 21
6935.967546015466
 31
0.0
  0
LINE
  5
257A4
330
747D
100
AcDbEntity
  8
細線
 48
50.0
100
AcDbLine
 10
6223.599999999994
 20
6499.472145303809
 30
0.0
 11
6325.095400711671
 21
6600.967546015485
 31
0.0
  0
LINE
  5
257A5
330
747D
100
AcDbEntity
  8
部品1
 48
50.0
100
AcDbLine
 10
6423.599999999993
 20
6600.967546015485
 30
0.0
 11
6423.599999999999
 21
6320.967546015509
 31
0.0
  0
LINE
  5
257A6
330
747D
100
AcDbEntity
  8
部品1
 48
50.0
100
AcDbLine
 10
6223.599999999994
 20
6600.967546015485
 30
0.0
 11
6223.599999999999
 21
6320.967546015505
 31
0.0
  0
LINE
  5
257A7
330
747D
100
AcDbEntity
  8
細線
 48
50.0
100
AcDbLine
 10
6223.599999999997
 20
6454.570864698466
 30
0.0
 11
6369.996681317015
 21
6600.967546015485
 31
0.0
  0
LINE
  5
257A8
330
747D
100
AcDbEntity
  8
細線
 48
50.0
100
AcDbLine
 10
6223.599999999997
 20
6409.669584093123
 30
0.0
 11
6414.89796192236
 21
6600.967546015484
 31
0.0
  0
LINE
  5
257A9
330
747D
100
AcDbEntity
  8
細線
 48
50.0
100
AcDbLine
 10
6223.599999999997
 20
6364.768303487777
 30
0.0
 11
6423.599999999993
 21
6564.768303487771
 31
0.0
  0
LINE
  5
257AA
330
747D
100
AcDbEntity
  8
細線
 48
50.0
100
AcDbLine
 10
6224.700523133072
 20
6320.967546015505
 30
0.0
 11
6423.599999999995
 21
6519.867022882426
 31
0.0
  0
DIMENSION
  5
257AB
330
747D
100
AcDbEntity
  8
寸法
 48
50.0
100
AcDbDimension
  2
*D36
 10
6172.957458789077
 20
7047.967546015486
 30
0.0
 11
6172.957458789074
 21
6815.908744423587
 31
0.0
 70
   160
 71
     5
 42
726.9999999999891
  3
INABA_S40G
100
AcDbAlignedDimension
 13
6417.765475140901
 23
6320.967546015498
 33
0.0
 14
6748.600000000007
 24
7047.967546015486
 34
0.0
 50
90.0
100
AcDbRotatedDimension
1001
ACAD
1000
DSTYLE
1002
{
1070
   341
1005
0
1002
}
  0
LINE
  5
257AC
330
747D
100
AcDbEntity
  8
細線
 48
50.0
100
AcDbLine
 10
6314.503084343764
 20
6320.967546015507
 30
0.0
 11
6423.6
 21
6430.064461671744
 31
0.0
  0
LINE
  5
257AD
330
747D
100
AcDbEntity
  8
細線
 48
50.0
100
AcDbLine
 10
6359.404364949113
 20
6320.967546015507
 30
0.0
 11
6423.6
 21
6385.163181066399
 31
0.0
  0
LINE
  5
257AE
330
747D
100
AcDbEntity
  8
細線
 48
50.0
100
AcDbLine
 10
6269.601803738418
 20
6320.967546015507
 30
0.0
 11
6423.599999999995
 21
6474.965742277084
 31
0.0
  0
LINE
  5
257AF
330
747D
100
AcDbEntity
  8
細線
 48
50.0
100
AcDbLine
 10
6404.305645554457
 20
6320.96754601551
 30
0.0
 11
6423.6
 21
6340.261900461054
 31
0.0
  0
LINE
  5
257B0
330
747D
100
AcDbEntity
  8
細線
 48
50.0
100
AcDbLine
 10
6223.599999999994
 20
6544.373425909154
 30
0.0
 11
6280.194120106327
 21
6600.967546015485
 31
0.0
  0
LINE
  5
257B1
330
747D
100
AcDbEntity
  8
センター
 48
2.0
100
AcDbLine
 10
6798.600000000007
 20
7097.967546015486
 30
0.0
 11
6798.600000000007
 21
6997.967546015487
 31
0.0
  0
CIRCLE
  5
257B3
330
747D
100
AcDbEntity
  8
部品1
 48
50.0
100
AcDbCircle
 10
7630.600000000008
 20
6518.96754601549
 30
0.0
 40
35.0
  0
LINE
  5
257B4
330
747D
100
AcDbEntity
  8
センター
 48
2.0
100
AcDbLine
 10
7580.600000000008
 20
6518.96754601549
 30
0.0
 11
7680.600000000008
 21
6518.96754601549
 31
0.0
  0
LINE
  5
257C8
330
747D
100
AcDbEntity
  8
センター
 48
2.0
100
AcDbLine
 10
7630.600000000008
 20
6568.96754601549
 30
0.0
 11
7630.600000000008
 21
6468.96754601549
 31
0.0
  0
LINE
  5
257CD
330
747D
100
AcDbEntity
  8
部品1
 48
50.0
100
AcDbLine
 10
7848.600000000008
 20
6947.967546015487
 30
0.0
 11
7648.600000000008
 21
6947.967546015487
 31
0.0
  0
LINE
  5
257CE
330
747D
100
AcDbEntity
  8
センター
 48
2.0
100
AcDbLine
 10
7698.600000000007
 20
7047.967546015486
 30
0.0
 11
7798.600000000007
 21
7047.967546015486
 31
0.0
  0
LINE
  5
257CF
330
747D
100
AcDbEntity
  8
センター
 48
2.0
100
AcDbLine
 10
7748.600000000007
 20
7097.967546015486
 30
0.0
 11
7748.600000000007
 21
6997.967546015487
 31
0.0
  0
DIMENSION
  5
257D2
330
747D
100
AcDbEntity
  8
寸法
 48
50.0
100
AcDbDimension
  2
*D37
 10
5220.665006330072
 20
7577.967546015486
 30
0.0
 11
5220.665006330071
 21
7974.074147733287
 31
0.0
 70
   160
 71
     5
 42
123.0
  3
INABA_S40G
100
AcDbAlignedDimension
 13
5843.600000000001
 23
7700.967546015487
 33
0.0
 14
5916.6
 24
7577.967546015486
 34
0.0
 50
90.0
100
AcDbRotatedDimension
1001
ACAD
1000
DSTYLE
1002
{
1070
   341
1005
0
1002
}
  0
LINE
  5
257D3
330
747D
100
AcDbEntity
  8
部品1
 48
50.0
100
AcDbLine
 10
6898.600000000008
 20
7147.967546015486
 30
0.0
 11
6698.600000000007
 21
7147.967546015486
 31
0.0
  0
DIMENSION
  5
257D4
330
747D
100
AcDbEntity
  8
寸法
 48
50.0
100
AcDbDimension
  2
*D38
 10
5966.6
 20
8427.234004109399
 30
0.0
 11
6798.6
 21
8527.234004109399
 31
0.0
 70
    32
 71
     5
 42
1664.0
  3
INABA_S40G
100
AcDbAlignedDimension
 13
7630.600000000001
 23
7627.967546015486
 33
0.0
 14
5966.6
 24
7627.967546015486
 34
0.0
100
AcDbRotatedDimension
1001
ACAD
1000
DSTYLE
1002
{
1070
   341
1005
0
1002
}
  0
DIMENSION
  5
257D6
330
747D
100
AcDbEntity
  8
寸法
 48
50.0
100
AcDbDimension
  2
*D39
 10
5843.600000000001
 20
8427.234004109399
 30
0.0
 11
5570.493398282202
 21
8427.234004109399
 31
0.0
 70
   160
 71
     5
 42
123.0
  3
INABA_S40G
100
AcDbAlignedDimension
 13
5966.6
 23
7627.967546015486
 33
0.0
 14
5843.600000000001
 24
7700.967546015487
 34
0.0
100
AcDbRotatedDimension
1001
ACAD
1000
DSTYLE
1002
{
1070
   341
1005
0
1002
}
  0
LINE
  5
257D7
330
747D
100
AcDbEntity
  8
センター
 48
2.0
100
AcDbLine
 10
5916.6
 20
7577.967546015486
 30
0.0
 11
6016.6
 21
7577.967546015486
 31
0.0
  0
CIRCLE
  5
257D8
330
747D
100
AcDbEntity
  8
部品1
 48
50.0
100
AcDbCircle
 10
5966.6
 20
7577.967546015486
 30
0.0
 40
35.0
  0
LINE
  5
257D9
330
747D
100
AcDbEntity
  8
細線
 48
50.0
100
AcDbLine
 10
5843.599999999986
 20
7112.892634989288
 30
0.0
 11
5866.674911026166
 21
7135.967546015466
 31
0.0
  0
LINE
  5
257DA
330
747D
100
AcDbEntity
  8
部品1
 48
50.0
100
AcDbLine
 10
5963.599999999999
 20
7135.967546015466
 30
0.0
 11
5843.599999999986
 21
7135.967546015466
 31
0.0
  0
LINE
  5
257DB
330
747D
100
AcDbEntity
  8
センター
 48
2.0
100
AcDbLine
 10
5966.6
 20
7627.967546015486
 30
0.0
 11
5966.6
 21
7527.967546015486
 31
0.0
  0
LINE
  5
257DC
330
747D
100
AcDbEntity
  8
細線
 48
50.0
100
AcDbLine
 10
6223.600000000001
 20
7637.892634989339
 30
0.0
 11
6286.674911026157
 21
7700.967546015497
 31
0.0
  0
LINE
  5
257DD
330
747D
100
AcDbEntity
  8
部品1
 48
50.0
100
AcDbLine
 10
6423.599999999996
 20
7700.967546015497
 30
0.0
 11
6423.600000000004
 21
7500.967546015488
 31
0.0
  0
LINE
  5
257DE
330
747D
100
AcDbEntity
  8
部品1
 48
50.0
100
AcDbLine
 10
6223.599999999997
 20
7700.967546015497
 30
0.0
 11
6223.600000000004
 21
7500.967546015488
 31
0.0
  0
LINE
  5
257DF
330
747D
100
AcDbEntity
  8
細線
 48
50.0
100
AcDbLine
 10
6223.600000000002
 20
7503.188793173304
 30
0.0
 11
6421.378752842194
 21
7700.967546015494
 31
0.0
  0
LINE
  5
257E0
330
747D
100
AcDbEntity
  8
細線
 48
50.0
100
AcDbLine
 10
6223.600000000001
 20
7548.090073778642
 30
0.0
 11
6376.47747223685
 21
7700.967546015497
 31
0.0
  0
LINE
  5
257E1
330
747D
100
AcDbEntity
  8
細線
 48
50.0
100
AcDbLine
 10
6223.600000000001
 20
7592.991354383991
 30
0.0
 11
6331.576191631502
 21
7700.967546015494
 31
0.0
  0
LINE
  5
257E2
330
747D
100
AcDbEntity
  8
細線
 48
50.0
100
AcDbLine
 10
6311.181314052896
 20
7500.967546015488
 30
0.0
 11
6423.600000000002
 21
7613.386231962611
 31
0.0
  0
LINE
  5
257E3
330
747D
100
AcDbEntity
  8
細線
 48
50.0
100
AcDbLine
 10
6356.082594658236
 20
7500.967546015488
 30
0.0
 11
6423.6
 21
7568.484951357255
 31
0.0
  0
LINE
  5
257E4
330
747D
100
AcDbEntity
  8
細線
 48
50.0
100
AcDbLine
 10
6266.280033447534
 20
7500.967546015488
 30
0.0
 11
6423.599999999999
 21
7658.287512567953
 31
0.0
  0
LINE
  5
257E5
330
747D
100
AcDbEntity
  8
細線
 48
50.0
100
AcDbLine
 10
6400.98387526359
 20
7500.967546015491
 30
0.0
 11
6423.600000000002
 21
7523.583670751905
 31
0.0
  0
LINE
  5
257E6
330
747D
100
AcDbEntity
  8
細線
 48
50.0
100
AcDbLine
 10
6223.599999999997
 20
7682.793915594682
 30
0.0
 11
6241.773630420812
 21
7700.967546015497
 31
0.0
  0
LINE
  5
257E7
330
747D
100
AcDbEntity
  8
センター
 48
2.0
100
AcDbLine
 10
7580.600000000001
 20
7577.967546015486
 30
0.0
 11
7680.600000000001
 21
7577.967546015486
 31
0.0
  0
CIRCLE
  5
257E8
330
747D
100
AcDbEntity
  8
部品1
 48
50.0
100
AcDbCircle
 10
7630.600000000001
 20
7577.967546015486
 30
0.0
 40
35.0
  0
LINE
  5
257E9
330
747D
100
AcDbEntity
  8
細線
 48
50.0
100
AcDbLine
 10
7173.6
 20
7637.892634989339
 30
0.0
 11
7236.674911026158
 21
7700.967546015497
 31
0.0
  0
LINE
  5
257EA
330
747D
100
AcDbEntity
  8
細線
 48
50.0
100
AcDbLine
 10
7173.6
 20
7548.090073778642
 30
0.0
 11
7326.47747223685
 21
7700.967546015497
 31
0.0
  0
LINE
  5
257EB
330
747D
100
AcDbEntity
  8
細線
 48
50.0
100
AcDbLine
 10
7173.600000000002
 20
7503.188793173304
 30
0.0
 11
7371.378752842194
 21
7700.967546015494
 31
0.0
  0
LINE
  5
257EC
330
747D
100
AcDbEntity
  8
細線
 48
50.0
100
AcDbLine
 10
7173.6
 20
7592.991354383991
 30
0.0
 11
7281.576191631502
 21
7700.967546015494
 31
0.0
  0
LINE
  5
257ED
330
747D
100
AcDbEntity
  8
部品1
 48
50.0
100
AcDbLine
 10
7173.599999999997
 20
7700.967546015497
 30
0.0
 11
7173.600000000004
 21
7500.967546015488
 31
0.0
  0
LINE
  5
257EE
330
747D
100
AcDbEntity
  8
部品1
 48
50.0
100
AcDbLine
 10
7373.599999999997
 20
7700.967546015497
 30
0.0
 11
7373.600000000005
 21
7500.967546015488
 31
0.0
  0
LINE
  5
257F0
330
747D
100
AcDbEntity
  8
細線
 48
50.0
100
AcDbLine
 10
7306.082594658235
 20
7500.967546015488
 30
0.0
 11
7373.6
 21
7568.484951357255
 31
0.0
  0
LINE
  5
257F1
330
747D
100
AcDbEntity
  8
細線
 48
50.0
100
AcDbLine
 10
7261.181314052895
 20
7500.967546015488
 30
0.0
 11
7373.600000000002
 21
7613.386231962611
 31
0.0
  0
LINE
  5
257F2
330
747D
100
AcDbEntity
  8
細線
 48
50.0
100
AcDbLine
 10
7350.98387526359
 20
7500.967546015491
 30
0.0
 11
7373.600000000002
 21
7523.583670751905
 31
0.0
  0
LINE
  5
257F3
330
747D
100
AcDbEntity
  8
細線
 48
50.0
100
AcDbLine
 10
7216.280033447535
 20
7500.967546015488
 30
0.0
 11
7373.599999999999
 21
7658.287512567953
 31
0.0
  0
LINE
  5
257F4
330
747D
100
AcDbEntity
  8
細線
 48
50.0
100
AcDbLine
 10
7173.599999999997
 20
7682.793915594682
 30
0.0
 11
7191.773630420811
 21
7700.967546015497
 31
0.0
  0
LINE
  5
257F5
330
747D
100
AcDbEntity
  8
部品1
 48
50.0
100
AcDbLine
 10
8323.599999999998
 20
7700.967546015497
 30
0.0
 11
8323.600000000006
 21
7500.967546015488
 31
0.0
  0
LINE
  5
257F6
330
747D
100
AcDbEntity
  8
細線
 48
50.0
100
AcDbLine
 10
8123.599999999999
 20
7637.892634989339
 30
0.0
 11
8186.674911026159
 21
7700.967546015497
 31
0.0
  0
LINE
  5
257F7
330
747D
100
AcDbEntity
  8
部品1
 48
50.0
100
AcDbLine
 10
8123.599999999999
 20
7700.967546015497
 30
0.0
 11
8123.600000000006
 21
7500.967546015488
 31
0.0
  0
LINE
  5
257F8
330
747D
100
AcDbEntity
  8
細線
 48
50.0
100
AcDbLine
 10
8123.599999999999
 20
7592.991354383991
 30
0.0
 11
8231.576191631502
 21
7700.967546015494
 31
0.0
  0
LINE
  5
257F9
330
747D
100
AcDbEntity
  8
細線
 48
50.0
100
AcDbLine
 10
8123.600000000001
 20
7503.188793173304
 30
0.0
 11
8321.378752842196
 21
7700.967546015494
 31
0.0
  0
LINE
  5
257FA
330
747D
100
AcDbEntity
  8
細線
 48
50.0
100
AcDbLine
 10
8123.599999999999
 20
7548.090073778642
 30
0.0
 11
8276.47747223685
 21
7700.967546015497
 31
0.0
  0
LINE
  5
257FB
330
747D
100
AcDbEntity
  8
部品1
 48
50.0
100
AcDbLine
 10
7848.600000000008
 20
7147.967546015486
 30
0.0
 11
7648.600000000008
 21
7147.967546015486
 31
0.0
  0
LINE
  5
257FC
330
747D
100
AcDbEntity
  8
センター
 48
2.0
100
AcDbLine
 10
7630.600000000001
 20
7627.967546015486
 30
0.0
 11
7630.600000000001
 21
7527.967546015486
 31
0.0
  0
LINE
  5
257FD
330
747D
100
AcDbEntity
  8
細線
 48
50.0
100
AcDbLine
 10
8166.280033447533
 20
7500.967546015488
 30
0.0
 11
8323.599999999998
 21
7658.287512567953
 31
0.0
  0
LINE
  5
257FE
330
747D
100
AcDbEntity
  8
細線
 48
50.0
100
AcDbLine
 10
8211.181314052899
 20
7500.967546015488
 30
0.0
 11
8323.600000000002
 21
7613.386231962611
 31
0.0
  0
LINE
  5
257FF
330
747D
100
AcDbEntity
  8
細線
 48
50.0
100
AcDbLine
 10
8300.983875263591
 20
7500.967546015491
 30
0.0
 11
8323.600000000002
 21
7523.583670751905
 31
0.0
  0
LINE
  5
25800
330
747D
100
AcDbEntity
  8
細線
 48
50.0
100
AcDbLine
 10
8256.082594658234
 20
7500.967546015488
 30
0.0
 11
8323.599999999998
 21
7568.484951357255
 31
0.0
  0
LINE
  5
25801
330
747D
100
AcDbEntity
  8
細線
 48
50.0
100
AcDbLine
 10
8123.599999999999
 20
7682.793915594682
 30
0.0
 11
8141.773630420813
 21
7700.967546015497
 31
0.0
  0
LINE
  5
25802
330
747D
100
AcDbEntity
  8
細線
 48
50.0
100
AcDbLine
 10
10483.6
 20
7003.090073778682
 30
0.0
 11
10603.59999999999
 21
7123.090073778669
 31
0.0
  0
LINE
  5
25803
330
747D
100
AcDbEntity
  8
細線
 48
50.0
100
AcDbLine
 10
10483.6
 20
7047.991354384024
 30
0.0
 11
10571.57619163151
 21
7135.96754601554
 31
0.0
  0
LINE
  5
25804
330
747D
100
AcDbEntity
  8
部品1
 48
50.0
100
AcDbLine
 10
9748.600000000008
 20
6947.967546015487
 30
0.0
 11
9748.600000000008
 21
7147.967546015486
 31
0.0
  0
LINE
  5
25805
330
747D
100
AcDbEntity
  8
部品1
 48
50.0
100
AcDbLine
 10
9548.600000000007
 20
6947.967546015487
 30
0.0
 11
9548.600000000007
 21
7147.967546015486
 31
0.0
  0
DIMENSION
  5
25806
330
747D
100
AcDbEntity
  8
寸法
 48
50.0
100
AcDbDimension
  2
*D40
 10
8698.600000000007
 20
8183.576362685736
 30
0.0
 11
9173.600000000007
 21
8283.576362685735
 31
0.0
 70
    32
 71
     5
 42
950.0
  3
INABA_S40G
100
AcDbAlignedDimension
 13
9648.600000000008
 23
7097.967546015486
 33
0.0
 14
8698.600000000007
 24
7097.967546015486
 34
0.0
100
AcDbRotatedDimension
1001
ACAD
1000
DSTYLE
1002
{
1070
   341
1005
0
1002
}
  0
LINE
  5
25807
330
747D
100
AcDbEntity
  8
部品1
 48
50.0
100
AcDbLine
 10
10603.6
 20
6320.967546015505
 30
0.0
 11
10603.6
 21
7700.967546015487
 31
0.0
  0
LINE
  5
2580A
330
747D
100
AcDbEntity
  8
部品1
 48
50.0
100
AcDbLine
 10
8798.600000000007
 20
6947.967546015487
 30
0.0
 11
8798.600000000007
 21
7147.967546015486
 31
0.0
  0
LINE
  5
2580B
330
747D
100
AcDbEntity
  8
部品1
 48
50.0
100
AcDbLine
 10
8598.600000000008
 20
6947.967546015487
 30
0.0
 11
8598.600000000008
 21
7147.967546015486
 31
0.0
  0
DIMENSION
  5
2580C
330
747D
100
AcDbEntity
  8
寸法
 48
50.0
100
AcDbDimension
  2
*D41
 10
9648.600000000008
 20
8183.576362685736
 30
0.0
 11
10126.1
 21
8283.576362685735
 31
0.0
 70
    32
 71
     5
 42
954.9999999999927
  3
INABA_S40G
100
AcDbAlignedDimension
 13
10603.6
 23
7700.967546015487
 33
0.0
 14
9648.600000000008
 24
7097.967546015486
 34
0.0
100
AcDbRotatedDimension
1001
ACAD
1000
DSTYLE
1002
{
1070
   341
1005
0
1002
}
  0
LINE
  5
25821
330
747D
100
AcDbEntity
  8
センター
 48
2.0
100
AcDbLine
 10
8648.600000000007
 20
7047.967546015486
 30
0.0
 11
8748.600000000008
 21
7047.967546015486
 31
0.0
  0
LINE
  5
25822
330
747D
100
AcDbEntity
  8
部品1
 48
50.0
100
AcDbLine
 10
8798.600000000007
 20
6947.967546015487
 30
0.0
 11
8598.600000000008
 21
6947.967546015487
 31
0.0
  0
LINE
  5
25823
330
747D
100
AcDbEntity
  8
センター
 48
2.0
100
AcDbLine
 10
8698.600000000007
 20
7097.967546015486
 30
0.0
 11
8698.600000000007
 21
6997.967546015487
 31
0.0
  0
LINE
  5
25827
330
747D
100
AcDbEntity
  8
部品1
 48
50.0
100
AcDbLine
 10
9748.600000000008
 20
6947.967546015487
 30
0.0
 11
9548.600000000007
 21
6947.967546015487
 31
0.0
  0
LINE
  5
25828
330
747D
100
AcDbEntity
  8
センター
 48
2.0
100
AcDbLine
 10
9598.600000000008
 20
7047.967546015486
 30
0.0
 11
9698.600000000007
 21
7047.967546015486
 31
0.0
  0
LINE
  5
25829
330
747D
100
AcDbEntity
  8
センター
 48
2.0
100
AcDbLine
 10
9648.600000000008
 20
7097.967546015486
 30
0.0
 11
9648.600000000008
 21
6997.967546015487
 31
0.0
  0
LINE
  5
2582E
330
747D
100
AcDbEntity
  8
センター
 48
2.0
100
AcDbLine
 10
10480.60000000001
 20
6568.96754601549
 30
0.0
 11
10480.60000000001
 21
6468.96754601549
 31
0.0
  0
CIRCLE
  5
2582F
330
747D
100
AcDbEntity
  8
部品1
 48
50.0
100
AcDbCircle
 10
10480.60000000001
 20
6518.96754601549
 30
0.0
 40
35.0
  0
LINE
  5
25830
330
747D
100
AcDbEntity
  8
センター
 48
2.0
100
AcDbLine
 10
10430.6
 20
6518.96754601549
 30
0.0
 11
10530.6
 21
6518.96754601549
 31
0.0
  0
LINE
  5
25834
330
747D
100
AcDbEntity
  8
細線
 48
50.0
100
AcDbLine
 10
10596.08259465824
 20
6935.967546015537
 30
0.0
 11
10603.59999999999
 21
6943.484951357286
 31
0.0
  0
LINE
  5
25835
330
747D
100
AcDbEntity
  8
細線
 48
50.0
100
AcDbLine
 10
10551.18131405289
 20
6935.96754601554
 30
0.0
 11
10603.59999999999
 21
6988.386231962632
 31
0.0
  0
LINE
  5
25836
330
747D
100
AcDbEntity
  8
細線
 48
50.0
100
AcDbLine
 10
10506.28003344755
 20
6935.96754601554
 30
0.0
 11
10603.59999999999
 21
7033.287512567977
 31
0.0
  0
LINE
  5
25837
330
747D
100
AcDbEntity
  8
細線
 48
50.0
100
AcDbLine
 10
10483.6
 20
6958.188793173334
 30
0.0
 11
10603.59999999999
 21
7078.188793173322
 31
0.0
  0
LINE
  5
25838
330
747D
100
AcDbEntity
  8
部品1
 48
50.0
100
AcDbLine
 10
10603.59999999999
 20
6935.96754601554
 30
0.0
 11
10483.6
 21
6935.96754601554
 31
0.0
  0
LINE
  5
25839
330
747D
100
AcDbEntity
  8
細線
 48
50.0
100
AcDbLine
 10
10023.6
 20
7637.892634989339
 30
0.0
 11
10086.67491102616
 21
7700.967546015497
 31
0.0
  0
LINE
  5
2583A
330
747D
100
AcDbEntity
  8
細線
 48
50.0
100
AcDbLine
 10
10023.6
 20
7592.991354383991
 30
0.0
 11
10131.5761916315
 21
7700.967546015494
 31
0.0
  0
LINE
  5
2583B
330
747D
100
AcDbEntity
  8
細線
 48
50.0
100
AcDbLine
 10
10023.6
 20
7503.188793173304
 30
0.0
 11
10221.37875284219
 21
7700.967546015494
 31
0.0
  0
LINE
  5
2583C
330
747D
100
AcDbEntity
  8
細線
 48
50.0
100
AcDbLine
 10
10023.6
 20
7548.090073778642
 30
0.0
 11
10176.47747223685
 21
7700.967546015497
 31
0.0
  0
LINE
  5
2583D
330
747D
100
AcDbEntity
  8
細線
 48
50.0
100
AcDbLine
 10
10066.28003344753
 20
7500.967546015488
 30
0.0
 11
10223.6
 21
7658.287512567953
 31
0.0
  0
LINE
  5
2583E
330
747D
100
AcDbEntity
  8
細線
 48
50.0
100
AcDbLine
 10
9250.983875263591
 20
7500.967546015491
 30
0.0
 11
9273.600000000001
 21
7523.583670751905
 31
0.0
  0
LINE
  5
2583F
330
747D
100
AcDbEntity
  8
細線
 48
50.0
100
AcDbLine
 10
9161.181314052898
 20
7500.967546015488
 30
0.0
 11
9273.600000000001
 21
7613.386231962611
 31
0.0
  0
LINE
  5
25840
330
747D
100
AcDbEntity
  8
細線
 48
50.0
100
AcDbLine
 10
9206.082594658234
 20
7500.967546015488
 30
0.0
 11
9273.6
 21
7568.484951357255
 31
0.0
  0
LINE
  5
25841
330
747D
100
AcDbEntity
  8
細線
 48
50.0
100
AcDbLine
 10
9116.280033447532
 20
7500.967546015488
 30
0.0
 11
9273.6
 21
7658.287512567953
 31
0.0
  0
LINE
  5
25842
330
747D
100
AcDbEntity
  8
細線
 48
50.0
100
AcDbLine
 10
9073.600000000002
 20
7503.188793173304
 30
0.0
 11
9271.378752842196
 21
7700.967546015494
 31
0.0
  0
LINE
  5
25843
330
747D
100
AcDbEntity
  8
細線
 48
50.0
100
AcDbLine
 10
9073.599999999998
 20
7637.892634989339
 30
0.0
 11
9136.67491102616
 21
7700.967546015497
 31
0.0
  0
LINE
  5
25844
330
747D
100
AcDbEntity
  8
細線
 48
50.0
100
AcDbLine
 10
9073.599999999998
 20
7548.090073778642
 30
0.0
 11
9226.477472236849
 21
7700.967546015497
 31
0.0
  0
LINE
  5
25845
330
747D
100
AcDbEntity
  8
細線
 48
50.0
100
AcDbLine
 10
9073.599999999998
 20
7592.991354383991
 30
0.0
 11
9181.576191631503
 21
7700.967546015494
 31
0.0
  0
LINE
  5
25846
330
747D
100
AcDbEntity
  8
部品1
 48
50.0
100
AcDbLine
 10
9073.599999999998
 20
7700.967546015497
 30
0.0
 11
9073.600000000006
 21
7500.967546015488
 31
0.0
  0
LINE
  5
25847
330
747D
100
AcDbEntity
  8
部品1
 48
50.0
100
AcDbLine
 10
8798.600000000007
 20
7147.967546015486
 30
0.0
 11
8598.600000000008
 21
7147.967546015486
 31
0.0
  0
LINE
  5
25848
330
747D
100
AcDbEntity
  8
細線
 48
50.0
100
AcDbLine
 10
9073.599999999998
 20
7682.793915594682
 30
0.0
 11
9091.773630420812
 21
7700.967546015497
 31
0.0
  0
LINE
  5
25849
330
747D
100
AcDbEntity
  8
部品1
 48
50.0
100
AcDbLine
 10
10023.6
 20
7700.967546015497
 30
0.0
 11
10023.6
 21
7500.967546015488
 31
0.0
  0
LINE
  5
2584A
330
747D
100
AcDbEntity
  8
部品1
 48
50.0
100
AcDbLine
 10
9273.6
 20
7700.967546015497
 30
0.0
 11
9273.600000000007
 21
7500.967546015488
 31
0.0
  0
LINE
  5
2584B
330
747D
100
AcDbEntity
  8
部品1
 48
50.0
100
AcDbLine
 10
9748.600000000008
 20
7147.967546015486
 30
0.0
 11
9548.600000000007
 21
7147.967546015486
 31
0.0
  0
LINE
  5
2584C
330
747D
100
AcDbEntity
  8
細線
 48
50.0
100
AcDbLine
 10
10023.6
 20
7682.793915594682
 30
0.0
 11
10041.77363042081
 21
7700.967546015497
 31
0.0
  0
DIMENSION
  5
2584D
330
747D
100
AcDbEntity
  8
寸法
 48
50.0
100
AcDbDimension
  2
*D42
 10
10480.6
 20
8427.234004109399
 30
0.0
 11
10876.7066017178
 21
8427.234004109399
 31
0.0
 70
   160
 71
     5
 42
123.0
  3
INABA_S40G
100
AcDbAlignedDimension
 13
10603.6
 23
7700.967546015487
 33
0.0
 14
10480.6
 24
7627.967546015486
 34
0.0
100
AcDbRotatedDimension
1001
ACAD
1000
DSTYLE
1002
{
1070
   341
1005
0
1002
}
  0
LINE
  5
25850
330
747D
100
AcDbEntity
  8
部品1
 48
50.0
100
AcDbLine
 10
10223.6
 20
7700.967546015497
 30
0.0
 11
10223.6
 21
7500.967546015488
 31
0.0
  0
LINE
  5
25851
330
747D
100
AcDbEntity
  8
センター
 48
2.0
100
AcDbLine
 10
10430.6
 20
7577.967546015486
 30
0.0
 11
10530.6
 21
7577.967546015486
 31
0.0
  0
CIRCLE
  5
25852
330
747D
100
AcDbEntity
  8
部品1
 48
50.0
100
AcDbCircle
 10
10480.6
 20
7577.967546015486
 30
0.0
 40
35.0
  0
LINE
  5
25853
330
747D
100
AcDbEntity
  8
細線
 48
50.0
100
AcDbLine
 10
10156.08259465823
 20
7500.967546015488
 30
0.0
 11
10223.6
 21
7568.484951357255
 31
0.0
  0
LINE
  5
25854
330
747D
100
AcDbEntity
  8
細線
 48
50.0
100
AcDbLine
 10
10111.18131405289
 20
7500.967546015488
 30
0.0
 11
10223.6
 21
7613.386231962611
 31
0.0
  0
LINE
  5
25855
330
747D
100
AcDbEntity
  8
細線
 48
50.0
100
AcDbLine
 10
10200.98387526359
 20
7500.967546015491
 30
0.0
 11
10223.6
 21
7523.583670751905
 31
0.0
  0
LINE
  5
25856
330
747D
100
AcDbEntity
  8
センター
 48
2.0
100
AcDbLine
 10
10480.6
 20
7627.967546015486
 30
0.0
 11
10480.6
 21
7527.967546015486
 31
0.0
  0
LINE
  5
25857
330
747D
100
AcDbEntity
  8
細線
 48
50.0
100
AcDbLine
 10
10483.6
 20
7092.892634989372
 30
0.0
 11
10526.67491102617
 21
7135.96754601554
 31
0.0
  0
LINE
  5
25858
330
747D
100
AcDbEntity
  8
部品1
 48
50.0
100
AcDbLine
 10
10603.59999999999
 20
7135.96754601554
 30
0.0
 11
10483.6
 21
7135.967546015539
 31
0.0
  0
TEXT
  5
25E59
330
747D
100
AcDbEntity
  8
文字
 62
     7
 48
50.0
100
AcDbText
 10
14267.69561199343
 20
838.2527270729188
 30
0.0
 40
100.0
  1
～一般型・多雪地型・豪雪地型～
  7
STYLE2
100
AcDbText
  0
LINE
  5
25E84
330
747D
100
AcDbEntity
  8
部品1
 48
50.0
100
AcDbLine
 10
10483.6
 20
6600.967546015503
 30
0.0
 11
5963.6
 21
6600.967546015484
 31
0.0
  0
LINE
  5
25E97
330
747D
100
AcDbEntity
  8
細線
 48
50.0
100
AcDbLine
 10
7173.599999999993
 20
6544.373425909154
 30
0.0
 11
7230.194120106327
 21
6600.967546015485
 31
0.0
  0
LINE
  5
25E98
330
747D
100
AcDbEntity
  8
細線
 48
50.0
100
AcDbLine
 10
7354.305645554457
 20
6320.96754601551
 30
0.0
 11
7373.6
 21
6340.261900461054
 31
0.0
  0
LINE
  5
25E99
330
747D
100
AcDbEntity
  8
細線
 48
50.0
100
AcDbLine
 10
7219.601803738417
 20
6320.967546015507
 30
0.0
 11
7373.599999999995
 21
6474.965742277084
 31
0.0
  0
LINE
  5
25E9A
330
747D
100
AcDbEntity
  8
細線
 48
50.0
100
AcDbLine
 10
7309.404364949113
 20
6320.967546015507
 30
0.0
 11
7373.6
 21
6385.163181066399
 31
0.0
  0
LINE
  5
25E9B
330
747D
100
AcDbEntity
  8
細線
 48
50.0
100
AcDbLine
 10
7264.503084343764
 20
6320.967546015507
 30
0.0
 11
7373.6
 21
6430.064461671744
 31
0.0
  0
LINE
  5
25E9C
330
747D
100
AcDbEntity
  8
細線
 48
50.0
100
AcDbLine
 10
7174.700523133072
 20
6320.967546015505
 30
0.0
 11
7373.599999999995
 21
6519.867022882426
 31
0.0
  0
LINE
  5
25E9D
330
747D
100
AcDbEntity
  8
細線
 48
50.0
100
AcDbLine
 10
7173.599999999997
 20
6364.768303487777
 30
0.0
 11
7373.599999999993
 21
6564.768303487771
 31
0.0
  0
LINE
  5
25E9E
330
747D
100
AcDbEntity
  8
細線
 48
50.0
100
AcDbLine
 10
7173.599999999997
 20
6409.669584093123
 30
0.0
 11
7364.897961922359
 21
6600.967546015484
 31
0.0
  0
LINE
  5
25E9F
330
747D
100
AcDbEntity
  8
細線
 48
50.0
100
AcDbLine
 10
7173.599999999997
 20
6454.570864698466
 30
0.0
 11
7319.996681317016
 21
6600.967546015485
 31
0.0
  0
LINE
  5
25EA0
330
747D
100
AcDbEntity
  8
部品1
 48
50.0
100
AcDbLine
 10
7173.599999999993
 20
6600.967546015485
 30
0.0
 11
7173.599999999999
 21
6320.967546015505
 31
0.0
  0
LINE
  5
25EA1
330
747D
100
AcDbEntity
  8
部品1
 48
50.0
100
AcDbLine
 10
7373.599999999993
 20
6600.967546015485
 30
0.0
 11
7373.599999999999
 21
6320.967546015509
 31
0.0
  0
LINE
  5
25EA2
330
747D
100
AcDbEntity
  8
細線
 48
50.0
100
AcDbLine
 10
7173.599999999995
 20
6499.472145303809
 30
0.0
 11
7275.09540071167
 21
6600.967546015485
 31
0.0
  0
LINE
  5
25EA3
330
747D
100
AcDbEntity
  8
細線
 48
50.0
100
AcDbLine
 10
8123.599999999994
 20
6544.373425909154
 30
0.0
 11
8180.194120106326
 21
6600.967546015485
 31
0.0
  0
LINE
  5
25EA4
330
747D
100
AcDbEntity
  8
細線
 48
50.0
100
AcDbLine
 10
8304.305645554457
 20
6320.96754601551
 30
0.0
 11
8323.6
 21
6340.261900461054
 31
0.0
  0
LINE
  5
25EA5
330
747D
100
AcDbEntity
  8
細線
 48
50.0
100
AcDbLine
 10
8169.601803738418
 20
6320.967546015507
 30
0.0
 11
8323.599999999995
 21
6474.965742277084
 31
0.0
  0
LINE
  5
25EA6
330
747D
100
AcDbEntity
  8
細線
 48
50.0
100
AcDbLine
 10
8259.404364949112
 20
6320.967546015507
 30
0.0
 11
8323.6
 21
6385.163181066399
 31
0.0
  0
LINE
  5
25EA7
330
747D
100
AcDbEntity
  8
細線
 48
50.0
100
AcDbLine
 10
8214.503084343764
 20
6320.967546015507
 30
0.0
 11
8323.6
 21
6430.064461671744
 31
0.0
  0
LINE
  5
25EA8
330
747D
100
AcDbEntity
  8
細線
 48
50.0
100
AcDbLine
 10
8124.700523133071
 20
6320.967546015505
 30
0.0
 11
8323.599999999995
 21
6519.867022882426
 31
0.0
  0
LINE
  5
25EA9
330
747D
100
AcDbEntity
  8
細線
 48
50.0
100
AcDbLine
 10
8123.599999999997
 20
6364.768303487777
 30
0.0
 11
8323.599999999993
 21
6564.768303487771
 31
0.0
  0
LINE
  5
25EAA
330
747D
100
AcDbEntity
  8
細線
 48
50.0
100
AcDbLine
 10
8123.599999999997
 20
6409.669584093123
 30
0.0
 11
8314.89796192236
 21
6600.967546015484
 31
0.0
  0
LINE
  5
25EAB
330
747D
100
AcDbEntity
  8
細線
 48
50.0
100
AcDbLine
 10
8123.599999999997
 20
6454.570864698466
 30
0.0
 11
8269.996681317016
 21
6600.967546015485
 31
0.0
  0
LINE
  5
25EAC
330
747D
100
AcDbEntity
  8
部品1
 48
50.0
100
AcDbLine
 10
8123.599999999994
 20
6600.967546015485
 30
0.0
 11
8123.599999999999
 21
6320.967546015505
 31
0.0
  0
LINE
  5
25EAD
330
747D
100
AcDbEntity
  8
部品1
 48
50.0
100
AcDbLine
 10
8323.599999999993
 20
6600.967546015485
 30
0.0
 11
8323.599999999998
 21
6320.967546015509
 31
0.0
  0
LINE
  5
25EAE
330
747D
100
AcDbEntity
  8
細線
 48
50.0
100
AcDbLine
 10
8123.599999999994
 20
6499.472145303809
 30
0.0
 11
8225.095400711671
 21
6600.967546015485
 31
0.0
  0
LINE
  5
25EAF
330
747D
100
AcDbEntity
  8
細線
 48
50.0
100
AcDbLine
 10
9073.599999999993
 20
6544.373425909154
 30
0.0
 11
9130.194120106327
 21
6600.967546015485
 31
0.0
  0
LINE
  5
25EB0
330
747D
100
AcDbEntity
  8
細線
 48
50.0
100
AcDbLine
 10
9254.305645554458
 20
6320.96754601551
 30
0.0
 11
9273.6
 21
6340.261900461054
 31
0.0
  0
LINE
  5
25EB1
330
747D
100
AcDbEntity
  8
細線
 48
50.0
100
AcDbLine
 10
9119.601803738417
 20
6320.967546015507
 30
0.0
 11
9273.599999999994
 21
6474.965742277084
 31
0.0
  0
LINE
  5
25EB2
330
747D
100
AcDbEntity
  8
細線
 48
50.0
100
AcDbLine
 10
9209.404364949113
 20
6320.967546015507
 30
0.0
 11
9273.6
 21
6385.163181066399
 31
0.0
  0
LINE
  5
25EB3
330
747D
100
AcDbEntity
  8
細線
 48
50.0
100
AcDbLine
 10
9164.503084343763
 20
6320.967546015507
 30
0.0
 11
9273.6
 21
6430.064461671744
 31
0.0
  0
LINE
  5
25EB4
330
747D
100
AcDbEntity
  8
細線
 48
50.0
100
AcDbLine
 10
9074.700523133072
 20
6320.967546015505
 30
0.0
 11
9273.599999999994
 21
6519.867022882426
 31
0.0
  0
LINE
  5
25EB5
330
747D
100
AcDbEntity
  8
細線
 48
50.0
100
AcDbLine
 10
9073.599999999997
 20
6364.768303487777
 30
0.0
 11
9273.599999999992
 21
6564.768303487771
 31
0.0
  0
LINE
  5
25EB6
330
747D
100
AcDbEntity
  8
細線
 48
50.0
100
AcDbLine
 10
9073.599999999997
 20
6409.669584093123
 30
0.0
 11
9264.897961922361
 21
6600.967546015484
 31
0.0
  0
LINE
  5
25EB7
330
747D
100
AcDbEntity
  8
細線
 48
50.0
100
AcDbLine
 10
9073.599999999997
 20
6454.570864698466
 30
0.0
 11
9219.996681317017
 21
6600.967546015485
 31
0.0
  0
LINE
  5
25EB8
330
747D
100
AcDbEntity
  8
部品1
 48
50.0
100
AcDbLine
 10
9073.599999999993
 20
6600.967546015485
 30
0.0
 11
9073.599999999998
 21
6320.967546015505
 31
0.0
  0
LINE
  5
25EB9
330
747D
100
AcDbEntity
  8
部品1
 48
50.0
100
AcDbLine
 10
9273.599999999992
 20
6600.967546015485
 30
0.0
 11
9273.6
 21
6320.967546015509
 31
0.0
  0
LINE
  5
25EBA
330
747D
100
AcDbEntity
  8
細線
 48
50.0
100
AcDbLine
 10
9073.599999999995
 20
6499.472145303809
 30
0.0
 11
9175.09540071167
 21
6600.967546015485
 31
0.0
  0
LINE
  5
25EBB
330
747D
100
AcDbEntity
  8
細線
 48
50.0
100
AcDbLine
 10
10023.59999999999
 20
6544.373425909154
 30
0.0
 11
10080.19412010632
 21
6600.967546015485
 31
0.0
  0
LINE
  5
25EBC
330
747D
100
AcDbEntity
  8
細線
 48
50.0
100
AcDbLine
 10
10204.30564555446
 20
6320.96754601551
 30
0.0
 11
10223.6
 21
6340.261900461054
 31
0.0
  0
LINE
  5
25EBD
330
747D
100
AcDbEntity
  8
細線
 48
50.0
100
AcDbLine
 10
10069.60180373842
 20
6320.967546015507
 30
0.0
 11
10223.59999999999
 21
6474.965742277084
 31
0.0
  0
LINE
  5
25EBE
330
747D
100
AcDbEntity
  8
細線
 48
50.0
100
AcDbLine
 10
10159.40436494911
 20
6320.967546015507
 30
0.0
 11
10223.6
 21
6385.163181066399
 31
0.0
  0
LINE
  5
25EBF
330
747D
100
AcDbEntity
  8
細線
 48
50.0
100
AcDbLine
 10
10114.50308434376
 20
6320.967546015507
 30
0.0
 11
10223.6
 21
6430.064461671744
 31
0.0
  0
LINE
  5
25EC0
330
747D
100
AcDbEntity
  8
細線
 48
50.0
100
AcDbLine
 10
10024.70052313307
 20
6320.967546015505
 30
0.0
 11
10223.59999999999
 21
6519.867022882426
 31
0.0
  0
LINE
  5
25EC1
330
747D
100
AcDbEntity
  8
細線
 48
50.0
100
AcDbLine
 10
10023.59999999999
 20
6364.768303487777
 30
0.0
 11
10223.59999999999
 21
6564.768303487771
 31
0.0
  0
LINE
  5
25EC2
330
747D
100
AcDbEntity
  8
細線
 48
50.0
100
AcDbLine
 10
10023.59999999999
 20
6409.669584093123
 30
0.0
 11
10214.89796192236
 21
6600.967546015484
 31
0.0
  0
LINE
  5
25EC3
330
747D
100
AcDbEntity
  8
細線
 48
50.0
100
AcDbLine
 10
10023.59999999999
 20
6454.570864698466
 30
0.0
 11
10169.99668131701
 21
6600.967546015485
 31
0.0
  0
LINE
  5
25EC4
330
747D
100
AcDbEntity
  8
部品1
 48
50.0
100
AcDbLine
 10
10023.59999999999
 20
6600.967546015485
 30
0.0
 11
10023.6
 21
6320.967546015505
 31
0.0
  0
LINE
  5
25EC5
330
747D
100
AcDbEntity
  8
部品1
 48
50.0
100
AcDbLine
 10
10223.59999999999
 20
6600.967546015485
 30
0.0
 11
10223.6
 21
6320.967546015509
 31
0.0
  0
LINE
  5
25EC6
330
747D
100
AcDbEntity
  8
細線
 48
50.0
100
AcDbLine
 10
10023.59999999999
 20
6499.472145303809
 30
0.0
 11
10125.09540071167
 21
6600.967546015485
 31
0.0
  0
LINE
  5
25F48
330
747D
100
AcDbEntity
  8
部品1
 48
50.0
100
AcDbLine
 10
5963.599999999999
 20
6600.967546015482
 30
0.0
 11
5963.599999999996
 21
7500.967546015487
 31
0.0
  0
LINE
  5
25F49
330
747D
100
AcDbEntity
  8
部品1
 48
50.0
100
AcDbLine
 10
10483.6
 20
6600.967546015505
 30
0.0
 11
10483.6
 21
7500.967546015487
 31
0.0
  0
MTEXT
  5
26411
102
{ACAD_REACTORS
330
26412
102
}
330
747D
100
AcDbEntity
  8
寸法
 62
     7
 48
50.0
100
AcDbMText
 10
10682.8805898181
 20
2129.861193586091
 30
0.0
 40
120.0
 41
0.8
 71
     4
 72
     1
  1
\A1;C.B
  7
STYLE1
 73
     1
 44
1.0
1001
ACAD
1000
MTEXTBEGIN
1070
    73
1070
     1
1070
    44
1040
1.0
1070
    74
1070
     0
1000
MTEXTEND
  0
LEADER
  5
26412
330
747D
100
AcDbEntity
  8
寸法
 48
50.0
100
AcDbLeader
  3
INABA_S50G
 73
     0
 74
     0
 75
     1
 40
120.0
 41
185.591883092037
 76
     3
 10
10499.74238318446
 20
1872.714872904953
 30
0.0
 10
10532.8805898181
 20
2044.861193586091
 30
0.0
 10
10657.8805898181
 20
2044.861193586091
 30
0.0
340
26411
1001
ACAD
1000
DSTYLE
1002
{
1070
    40
1040
1.0
1002
}
  0
LINE
  5
26413
330
747D
100
AcDbEntity
  8
細線
 48
50.0
100
AcDbLine
 10
10645.39579676087
 20
1517.015957251602
 30
0.0
 11
10638.96501614252
 21
1541.015957251602
 31
0.0
  0
LINE
  5
26414
330
747D
100
AcDbEntity
  8
細線
 48
50.0
100
AcDbLine
 10
10623.95986136638
 20
1437.015957251602
 30
0.0
 11
10630.39064198473
 21
1413.015957251602
 31
0.0
  0
LINE
  5
26415
330
747D
100
AcDbEntity
  8
部品1
100
AcDbLine
 10
10689.01797156854
 20
1632.714872904953
 30
0.0
 11
10689.01797156854
 21
1413.015957251603
 31
0.0
  0
LINE
  5
26416
330
747D
100
AcDbEntity
  8
細線
 48
50.0
100
AcDbLine
 10
10617.52908074803
 20
1413.015957251602
 30
0.0
 11
10651.82657737921
 21
1541.0159572516
 31
0.0
  0
LINE
  5
26417
330
747D
100
AcDbEntity
  8
細線
 48
50.0
100
AcDbLine
 10
10566.50775181362
 20
1517.015957251602
 30
0.0
 11
10560.07697119528
 21
1541.015957251602
 31
0.0
  0
LINE
  5
26418
330
747D
100
AcDbEntity
  8
細線
100
AcDbLine
 10
10442.05436606787
 20
1541.015957251605
 30
0.0
 11
10533.75328172122
 21
1632.714872904953
 31
0.0
  0
LINE
  5
26419
330
747D
100
AcDbEntity
  8
細線
 48
50.0
100
AcDbLine
 10
10487.61970686637
 20
1517.015957251603
 30
0.0
 11
10481.18892624802
 21
1541.015957251603
 31
0.0
  0
LINE
  5
2641A
330
747D
100
AcDbEntity
  8
細線
100
AcDbLine
 10
10475.99549156483
 20
1541.015957251605
 30
0.0
 11
10567.69440721817
 21
1632.714872904953
 31
0.0
  0
LINE
  5
2641B
330
747D
100
AcDbEntity
  8
細線
 48
50.0
100
AcDbLine
 10
10250.95557202464
 20
1517.015957251603
 30
0.0
 11
10244.52479140629
 21
1541.015957251603
 31
0.0
  0
LINE
  5
2641C
330
747D
100
AcDbEntity
  8
細線
 48
50.0
100
AcDbLine
 10
10329.84361697188
 20
1517.015957251603
 30
0.0
 11
10323.41283635354
 21
1541.015957251603
 31
0.0
  0
LINE
  5
2641D
330
747D
100
AcDbEntity
  8
細線
 48
50.0
100
AcDbLine
 10
10408.73166191913
 20
1517.015957251603
 30
0.0
 11
10402.30088130078
 21
1541.015957251603
 31
0.0
  0
LINE
  5
2641E
330
747D
100
AcDbEntity
  8
細線
 48
50.0
100
AcDbLine
 10
10545.07181641914
 20
1437.015957251602
 30
0.0
 11
10551.50259703748
 21
1413.015957251602
 31
0.0
  0
LINE
  5
2641F
330
747D
100
AcDbEntity
  8
細線
 48
50.0
100
AcDbLine
 10
10466.18377147189
 20
1437.015957251603
 30
0.0
 11
10472.61455209024
 21
1413.015957251603
 31
0.0
  0
LINE
  5
26420
330
747D
100
AcDbEntity
  8
細線
 48
50.0
100
AcDbLine
 10
10308.4076815774
 20
1437.015957251603
 30
0.0
 11
10314.83846219574
 21
1413.015957251603
 31
0.0
  0
LINE
  5
26421
330
747D
100
AcDbEntity
  8
細線
 48
50.0
100
AcDbLine
 10
10387.29572652464
 20
1437.015957251603
 30
0.0
 11
10393.72650714299
 21
1413.015957251603
 31
0.0
  0
LINE
  5
26422
330
747D
100
AcDbEntity
  8
細線
 48
50.0
100
AcDbLine
 10
10380.86494590629
 20
1413.015957251603
 30
0.0
 11
10415.16244253747
 21
1541.015957251602
 31
0.0
  0
LINE
  5
26423
330
747D
100
AcDbEntity
  8
細線
 48
50.0
100
AcDbLine
 10
10301.97690095904
 20
1413.015957251602
 30
0.0
 11
10336.27439759023
 21
1541.015957251602
 31
0.0
  0
LINE
  5
26424
330
747D
100
AcDbEntity
  8
細線
 48
50.0
100
AcDbLine
 10
10459.75299085354
 20
1413.015957251602
 30
0.0
 11
10494.05048748471
 21
1541.015957251603
 31
0.0
  0
LINE
  5
26425
330
747D
100
AcDbEntity
  8
細線
100
AcDbLine
 10
10509.93661706178
 20
1541.015957251605
 30
0.0
 11
10601.63553271513
 21
1632.714872904953
 31
0.0
  0
LINE
  5
26426
330
747D
100
AcDbEntity
  8
細線
 48
50.0
100
AcDbLine
 10
10538.64103580079
 20
1413.0159572516
 30
0.0
 11
10572.93853243197
 21
1541.0159572516
 31
0.0
  0
LINE
  5
26427
330
747D
100
AcDbEntity
  8
部品1
100
AcDbLine
 10
10569.01797156854
 20
1872.714872904953
 30
0.0
 11
10569.01797156854
 21
1632.714872904953
 31
0.0
  0
LINE
  5
26428
330
747D
100
AcDbEntity
  8
細線
100
AcDbLine
 10
10555.18030922096
 20
1632.714872904955
 30
0.0
 11
10315.18030922096
 21
1872.714872904953
 31
0.0
  0
LINE
  5
26429
330
747D
100
AcDbEntity
  8
細線
100
AcDbLine
 10
10504.26862097553
 20
1632.714872904953
 30
0.0
 11
10264.26862097553
 21
1872.714872904953
 31
0.0
  0
LINE
  5
2642A
330
747D
100
AcDbEntity
  8
細線
100
AcDbLine
 10
10115.99549156482
 20
1541.015957251603
 30
0.0
 11
10207.69440721817
 21
1632.714872904953
 31
0.0
  0
LINE
  5
2642B
330
747D
100
AcDbEntity
  8
細線
100
AcDbLine
 10
10082.05436606787
 20
1541.015957251603
 30
0.0
 11
10173.75328172122
 21
1632.714872904953
 31
0.0
  0
LINE
  5
2642C
330
747D
100
AcDbEntity
  8
細線
 48
50.0
100
AcDbLine
 10
10093.17948213014
 20
1517.015957251603
 30
0.0
 11
10086.74870151179
 21
1541.015957251603
 31
0.0
  0
LINE
  5
2642D
330
747D
100
AcDbEntity
  8
細線
 48
50.0
100
AcDbLine
 10
10172.06752707739
 20
1517.015957251603
 30
0.0
 11
10165.63674645905
 21
1541.015957251603
 31
0.0
  0
LINE
  5
2642E
330
747D
100
AcDbEntity
  8
細線
 48
50.0
100
AcDbLine
 10
10014.29143718289
 20
1517.015957251603
 30
0.0
 11
10007.86065656454
 21
1541.015957251603
 31
0.0
  0
LINE
  5
2642F
330
747D
100
AcDbEntity
  8
細線
 48
50.0
100
AcDbLine
 10
10229.51963663015
 20
1437.015957251603
 30
0.0
 11
10235.9504172485
 21
1413.015957251603
 31
0.0
  0
LINE
  5
26430
330
747D
100
AcDbEntity
  8
細線
 48
50.0
100
AcDbLine
 10
10150.6315916829
 20
1437.015957251603
 30
0.0
 11
10157.06237230125
 21
1413.015957251603
 31
0.0
  0
LINE
  5
26431
330
747D
100
AcDbEntity
  8
細線
 48
50.0
100
AcDbLine
 10
9992.855501788401
 20
1437.015957251603
 30
0.0
 11
9999.28628240675
 21
1413.015957251603
 31
0.0
  0
LINE
  5
26432
330
747D
100
AcDbEntity
  8
細線
 48
50.0
100
AcDbLine
 10
10071.74354673565
 20
1437.015957251603
 30
0.0
 11
10078.174327354
 21
1413.015957251603
 31
0.0
  0
LINE
  5
26433
330
747D
100
AcDbEntity
  8
部品1
100
AcDbLine
 10
9969.017971568542
 20
1413.015957251599
 30
0.0
 11
9969.017971568542
 21
1632.714872904953
 31
0.0
  0
LINE
  5
26434
330
747D
100
AcDbEntity
  8
細線
 48
50.0
100
AcDbLine
 10
9986.424721170052
 20
1413.015957251603
 30
0.0
 11
10020.72221780124
 21
1541.015957251603
 31
0.0
  0
LINE
  5
26435
330
747D
100
AcDbEntity
  8
細線
 48
50.0
100
AcDbLine
 10
10144.20081106455
 20
1413.015957251603
 30
0.0
 11
10178.49830769573
 21
1541.015957251603
 31
0.0
  0
LINE
  5
26436
330
747D
100
AcDbEntity
  8
細線
 48
50.0
100
AcDbLine
 10
10065.3127661173
 20
1413.015957251602
 30
0.0
 11
10099.61026274848
 21
1541.015957251602
 31
0.0
  0
LINE
  5
26437
330
747D
100
AcDbEntity
  8
部品1
100
AcDbLine
 10
10089.01797156854
 20
1632.714872904953
 30
0.0
 11
10089.01797156854
 21
1872.714872904953
 31
0.0
  0
TEXT
  5
26438
330
747D
100
AcDbEntity
  8
部品1
 48
50.0
100
AcDbText
 10
9324.899884810038
 20
1365.915132267644
 30
0.0
 40
80.0
  1
ボルトの出
 50
90.0
  7
STYLE2
100
AcDbText
  0
LINE
  5
26439
330
747D
100
AcDbEntity
  8
細線
100
AcDbLine
 10
10232.73961699989
 20
1632.714872904953
 30
0.0
 11
10089.01797156854
 21
1776.436518336306
 31
0.0
  0
LWPOLYLINE
  5
2643A
330
747D
100
AcDbEntity
  8
部品1
 48
50.0
100
AcDbPolyline
 90
        2
 70
     0
 43
12.0
 10
9704.406709468152
 20
1632.714872904953
 10
10905.49901259977
 20
1632.714872904953
  0
LINE
  5
2643B
330
747D
100
AcDbEntity
  8
細線
100
AcDbLine
 10
10149.93661706178
 20
1541.015957251603
 30
0.0
 11
10241.63553271513
 21
1632.714872904953
 31
0.0
  0
LINE
  5
2643C
330
747D
100
AcDbEntity
  8
部品1
100
AcDbLine
 10
9969.017971568542
 20
1541.015957251603
 30
0.0
 11
10689.01797156854
 21
1541.015957251606
 31
0.0
  0
LINE
  5
2643D
330
747D
100
AcDbEntity
  8
部品1
100
AcDbLine
 10
9969.017971568542
 20
1413.015957251599
 30
0.0
 11
10689.01797156854
 21
1413.015957251603
 31
0.0
  0
LINE
  5
2643E
330
747D
100
AcDbEntity
  8
細線
 48
50.0
100
AcDbLine
 10
10223.0888560118
 20
1413.015957251603
 30
0.0
 11
10257.38635264298
 21
1541.015957251602
 31
0.0
  0
LINE
  5
2643F
330
747D
100
AcDbEntity
  8
部品1
100
AcDbLine
 10
10089.01797156854
 20
1872.714872904953
 30
0.0
 11
10569.01797156854
 21
1872.714872904953
 31
0.0
  0
LINE
  5
26440
330
747D
100
AcDbEntity
  8
細線
100
AcDbLine
 10
10283.65130524532
 20
1632.714872904953
 30
0.0
 11
10089.01797156854
 21
1827.348206581736
 31
0.0
  0
LINE
  5
26441
330
747D
100
AcDbEntity
  8
部品1
100
AcDbLine
 10
11275.75947266557
 20
307.7465705208915
 30
0.0
 11
11275.75947266558
 21
3272.053540105539
 31
0.0
  0
TEXT
  5
26442
330
747D
100
AcDbEntity
  8
部品1
100
AcDbText
 10
7897.654288457714
 20
3092.501608154111
 30
0.0
 40
120.0
  1
基礎詳細
  7
STYLE2
100
AcDbText
  0
LINE
  5
26443
330
747D
100
AcDbEntity
  8
部品1
 48
50.0
100
AcDbLine
 10
8212.882039265783
 20
2271.590154014096
 30
0.0
 11
8228.882039265783
 21
2263.590154014096
 31
0.0
  0
LINE
  5
26444
330
747D
100
AcDbEntity
  8
細線
 48
50.0
100
AcDbLine
 10
8180.882039265783
 20
2223.590154014096
 30
0.0
 11
8180.882039265783
 21
2255.590154014096
 31
0.0
  0
LINE
  5
26445
330
747D
100
AcDbEntity
  8
部品1
 48
50.0
100
AcDbLine
 10
8228.882039265783
 20
2231.590154014096
 30
0.0
 11
8228.882039265783
 21
2263.590154014096
 31
0.0
  0
LINE
  5
26446
330
747D
100
AcDbEntity
  8
細線
 48
50.0
100
AcDbLine
 10
8212.882039265783
 20
2223.590154014096
 30
0.0
 11
8212.882039265783
 21
2255.590154014096
 31
0.0
  0
LINE
  5
26447
330
747D
100
AcDbEntity
  8
部品1
 48
50.0
100
AcDbLine
 10
8212.882039265783
 20
2255.590154014096
 30
0.0
 11
8228.882039265783
 21
2263.590154014096
 31
0.0
  0
LINE
  5
26448
330
747D
100
AcDbEntity
  8
部品1
 48
50.0
100
AcDbLine
 10
8180.882039265783
 20
2255.590154014096
 30
0.0
 11
8212.882039265783
 21
2255.590154014096
 31
0.0
  0
LINE
  5
26449
330
747D
100
AcDbEntity
  8
部品1
 48
50.0
100
AcDbLine
 10
8212.882039265783
 20
2223.590154014096
 30
0.0
 11
8228.882039265783
 21
2231.590154014096
 31
0.0
  0
LINE
  5
2644A
330
747D
100
AcDbEntity
  8
部品1
 48
50.0
100
AcDbLine
 10
8180.882039265783
 20
2223.590154014096
 30
0.0
 11
8212.882039265783
 21
2223.590154014096
 31
0.0
  0
ELLIPSE
  5
2644B
330
747D
100
AcDbEntity
  8
細線
 48
50.0
100
AcDbEllipse
 10
8196.882039265783
 20
2263.590154014096
 30
0.0
 11
14.76670786606846
 21
0.0
 31
0.0
210
0.0
220
0.0
230
1.0
 40
0.2071254069489396
 41
0.0
 42
6.283185307179586
  0
LINE
  5
2644C
330
747D
100
AcDbEntity
  8
部品1
 48
50.0
100
AcDbLine
 10
8180.882039265783
 20
2271.590154014096
 30
0.0
 11
8212.882039265783
 21
2271.590154014096
 31
0.0
  0
LINE
  5
2644D
330
747D
100
AcDbEntity
  8
部品1
 48
50.0
100
AcDbLine
 10
8164.882039265783
 20
2231.590154014096
 30
0.0
 11
8164.882039265783
 21
2263.590154014096
 31
0.0
  0
LINE
  5
2644E
330
747D
100
AcDbEntity
  8
部品1
 48
50.0
100
AcDbLine
 10
8164.882039265783
 20
2263.590154014096
 30
0.0
 11
8180.882039265783
 21
2271.590154014096
 31
0.0
  0
LINE
  5
2644F
330
747D
100
AcDbEntity
  8
部品1
 48
50.0
100
AcDbLine
 10
8164.882039265783
 20
2231.590154014096
 30
0.0
 11
8180.882039265783
 21
2223.590154014096
 31
0.0
  0
LINE
  5
26450
330
747D
100
AcDbEntity
  8
部品1
 48
50.0
100
AcDbLine
 10
8164.882039265783
 20
2263.590154014096
 30
0.0
 11
8180.882039265783
 21
2255.590154014096
 31
0.0
  0
LINE
  5
26451
330
747D
100
AcDbEntity
  8
部品1
 48
50.0
100
AcDbLine
 10
8236.882039265784
 20
2132.238161349226
 30
0.0
 11
8236.882039265784
 21
2141.838161349226
 31
0.0
  0
ELLIPSE
  5
26452
330
747D
100
AcDbEntity
  8
部品1
 48
50.0
100
AcDbEllipse
 10
8196.882039265783
 20
2141.838161349226
 30
0.0
 11
18.4
 21
0.0
 31
0.0
210
0.0
220
0.0
230
1.0
 40
0.3478260869565217
 41
0.0
 42
6.283185307179586
  0
ARC
  5
26453
330
747D
100
AcDbEntity
  8
部品1
100
AcDbCircle
 10
8035.782039265782
 20
1970.814872904954
 30
0.0
 40
2.7
100
AcDbArc
 50
90.0
 51
180.0
  0
LINE
  5
26454
330
747D
100
AcDbEntity
  8
部品1
100
AcDbLine
 10
8038.482039265783
 20
1984.314872904953
 30
0.0
 11
8080.782039265782
 21
1984.31487290495
 31
0.0
  0
LINE
  5
26455
330
747D
100
AcDbEntity
  8
部品1
100
AcDbLine
 10
8035.782039265782
 20
1973.514872904953
 30
0.0
 11
8035.782039265782
 21
1981.614872904953
 31
0.0
  0
LINE
  5
26456
330
747D
100
AcDbEntity
  8
部品1
100
AcDbLine
 10
8035.782039265782
 20
1973.514872904953
 30
0.0
 11
8035.782039265782
 21
1973.514872904953
 31
0.0
  0
ARC
  5
26457
330
747D
100
AcDbEntity
  8
部品1
100
AcDbCircle
 10
8038.482039265783
 20
1981.614872904953
 30
0.0
 40
2.7
100
AcDbArc
 50
90.0
 51
180.0
  0
ARC
  5
26458
330
747D
100
AcDbEntity
  8
部品1
100
AcDbCircle
 10
8080.782039265782
 20
1981.61487290495
 30
0.0
 40
2.7
100
AcDbArc
 50
0.0
 51
90.0
  0
LINE
  5
26459
330
747D
100
AcDbEntity
  8
部品1
 48
50.0
100
AcDbLine
 10
8156.882039265784
 20
2141.838161349226
 30
0.0
 11
8156.882039265784
 21
2132.238161349226
 31
0.0
  0
ELLIPSE
  5
2645A
330
747D
100
AcDbEntity
  8
部品1
 48
50.0
100
AcDbEllipse
 10
8196.882039265783
 20
2132.238161349226
 30
0.0
 11
40.0
 21
0.0
 31
0.0
210
0.0
220
0.0
230
1.0
 40
0.4
 41
3.141592653589793
 42
6.283185307179586
  0
ELLIPSE
  5
2645B
330
747D
100
AcDbEntity
  8
部品1
 48
50.0
100
AcDbEllipse
 10
8196.882039265783
 20
2141.838161349226
 30
0.0
 11
40.0
 21
0.0
 31
0.0
210
0.0
220
0.0
230
1.0
 40
0.4
 41
0.0
 42
6.283185307179586
  0
LINE
  5
2645C
330
747D
100
AcDbEntity
  8
部品1
100
AcDbLine
 10
8191.482039265782
 20
1925.474872904953
 30
0.0
 11
8202.282039265783
 21
1925.474872904953
 31
0.0
  0
LINE
  5
2645D
330
747D
100
AcDbEntity
  8
部品1
100
AcDbLine
 10
8187.882039265785
 20
1921.874872904954
 30
0.0
 11
8205.882039265784
 21
1921.874872904954
 31
0.0
  0
LINE
  5
2645E
330
747D
100
AcDbEntity
  8
細線
100
AcDbLine
 10
8191.482039265785
 20
1882.274872904953
 30
0.0
 11
8191.482039265782
 21
1925.474872904953
 31
0.0
  0
LINE
  5
2645F
330
747D
100
AcDbEntity
  8
細線
100
AcDbLine
 10
8202.282039265783
 20
1882.274872904953
 30
0.0
 11
8202.282039265783
 21
1925.474872904953
 31
0.0
  0
LINE
  5
26460
330
747D
100
AcDbEntity
  8
部品1
100
AcDbLine
 10
8104.182039265783
 20
1939.574872904954
 30
0.0
 11
8104.182039265783
 21
1922.474872904953
 31
0.0
  0
LINE
  5
26461
330
747D
100
AcDbEntity
  8
部品1
100
AcDbLine
 10
8137.742039265784
 20
1939.574872904954
 30
0.0
 11
8137.742039265781
 21
1884.974872904953
 31
0.0
  0
ARC
  5
26462
330
747D
100
AcDbEntity
  8
部品1
100
AcDbCircle
 10
8123.082039265785
 20
1927.614872904953
 30
0.0
 40
2.7
100
AcDbArc
 50
0.0
 51
90.0
  0
LINE
  5
26463
330
747D
100
AcDbEntity
  8
部品1
100
AcDbLine
 10
8083.482039265781
 20
1930.314872904953
 30
0.0
 11
8123.082039265785
 21
1930.314872904953
 31
0.0
  0
ARC
  5
26464
330
747D
100
AcDbEntity
  8
部品1
100
AcDbCircle
 10
8123.082039265785
 20
1884.974872904953
 30
0.0
 40
2.7
100
AcDbArc
 50
270.0
 51
0.0
  0
ARC
  5
26465
330
747D
100
AcDbEntity
  8
部品1
100
AcDbCircle
 10
8140.442039265778
 20
1884.974872904953
 30
0.0
 40
2.7
100
AcDbArc
 50
180.0
 51
270.0
  0
LINE
  5
26466
330
747D
100
AcDbEntity
  8
部品1
100
AcDbLine
 10
8111.382039265784
 20
1882.274872904953
 30
0.0
 11
8123.082039265785
 21
1882.274872904953
 31
0.0
  0
LINE
  5
26467
330
747D
100
AcDbEntity
  8
部品1
100
AcDbLine
 10
8125.782039265784
 20
1927.614872904953
 30
0.0
 11
8125.782039265784
 21
1884.974872904953
 31
0.0
  0
ARC
  5
26468
330
747D
100
AcDbEntity
  8
部品1
100
AcDbCircle
 10
8135.042039265783
 20
1939.574872904954
 30
0.0
 40
2.7
100
AcDbArc
 50
0.0
 51
90.0
  0
ARC
  5
26469
330
747D
100
AcDbEntity
  8
部品1
100
AcDbCircle
 10
8106.882039265784
 20
1939.574872904954
 30
0.0
 40
2.7
100
AcDbArc
 50
90.0
 51
180.0
  0
LINE
  5
2646A
330
747D
100
AcDbEntity
  8
部品1
100
AcDbLine
 10
8106.882039265784
 20
1942.274872904954
 30
0.0
 11
8135.042039265783
 21
1942.274872904954
 31
0.0
  0
LINE
  5
2646B
330
747D
100
AcDbEntity
  8
部品1
100
AcDbLine
 10
8083.482039265781
 20
1981.61487290495
 30
0.0
 11
8083.482039265781
 21
1930.314872904953
 31
0.0
  0
LINE
  5
2646C
330
747D
100
AcDbEntity
  8
部品1
100
AcDbLine
 10
8033.082039265783
 20
1962.714872904953
 30
0.0
 11
8033.082039265783
 21
1970.814872904954
 31
0.0
  0
LINE
  5
2646D
330
747D
100
AcDbEntity
  8
部品1
100
AcDbLine
 10
8140.442039265778
 20
1882.274872904953
 30
0.0
 11
8341.782039265778
 21
1882.274872904953
 31
0.0
  0
LINE
  5
2646E
330
747D
100
AcDbEntity
  8
部品1
100
AcDbLine
 10
7981.782039265784
 20
1884.974872904953
 30
0.0
 11
7981.782039265784
 21
1947.106776607661
 31
0.0
  0
LINE
  5
2646F
330
747D
100
AcDbEntity
  8
部品1
100
AcDbLine
 10
7984.482039265782
 20
1882.274872904953
 30
0.0
 11
7996.182039265777
 21
1882.274872904953
 31
0.0
  0
LINE
  5
26470
330
747D
100
AcDbEntity
  8
細線
 48
50.0
100
AcDbLine
 10
7975.482039265782
 20
1860.495449204858
 30
0.0
 11
7987.701462965877
 21
1872.714872904953
 31
0.0
  0
ARC
  5
26471
330
747D
100
AcDbEntity
  8
部品1
100
AcDbCircle
 10
7984.482039265782
 20
1884.974872904953
 30
0.0
 40
2.7
100
AcDbArc
 50
180.0
 51
270.0
  0
LINE
  5
26472
330
747D
100
AcDbEntity
  8
部品1
100
AcDbLine
 10
7983.827193078184
 20
1949.726161358053
 30
0.0
 11
7992.582039265784
 21
1951.914872904953
 31
0.0
  0
ARC
  5
26473
330
747D
100
AcDbEntity
  8
部品1
100
AcDbCircle
 10
7984.482039265782
 20
1947.106776607661
 30
0.0
 40
2.7
100
AcDbArc
 50
104.0362434679067
 51
180.0
  0
ARC
  5
26474
330
747D
100
AcDbEntity
  8
部品1
100
AcDbCircle
 10
7995.282039265783
 20
1960.014872904953
 30
0.0
 40
2.7
100
AcDbArc
 50
90.0
 51
180.0
  0
LINE
  5
26475
330
747D
100
AcDbEntity
  8
部品1
100
AcDbLine
 10
7992.582039265784
 20
1951.914872904953
 30
0.0
 11
7992.582039265784
 21
1960.014872904953
 31
0.0
  0
LINE
  5
26476
330
747D
100
AcDbEntity
  8
部品1
 48
50.0
100
AcDbLine
 10
7975.482039265782
 20
1872.714872904953
 30
0.0
 11
8389.482039265786
 21
1872.714872904953
 31
0.0
  0
LINE
  5
26477
330
747D
100
AcDbEntity
  8
細線
 48
50.0
100
AcDbLine
 10
7975.482039265782
 20
1806.613912478443
 30
0.0
 11
8041.582999692293
 21
1872.714872904953
 31
0.0
  0
LINE
  5
26478
330
747D
100
AcDbEntity
  8
細線
 48
50.0
100
AcDbLine
 10
7975.482039265782
 20
1833.554680841651
 30
0.0
 11
8014.642231329089
 21
1872.714872904953
 31
0.0
  0
LINE
  5
26479
330
747D
100
AcDbEntity
  8
部品1
100
AcDbLine
 10
7995.282039265783
 20
1962.714872904953
 30
0.0
 11
8033.082039265783
 21
1962.714872904953
 31
0.0
  0
LINE
  5
2647A
330
747D
100
AcDbEntity
  8
部品1
 48
50.0
100
AcDbLine
 10
8389.482039265782
 20
1328.714872904953
 30
0.0
 11
8517.482039265782
 21
1328.714872904953
 31
0.0
  0
LINE
  5
2647B
330
747D
100
AcDbEntity
  8
部品1
100
AcDbLine
 10
8205.882039265784
 20
1647.714872904953
 30
0.0
 11
8241.882039265783
 21
1647.714872904953
 31
0.0
  0
LINE
  5
2647C
330
747D
100
AcDbEntity
  8
部品1
100
AcDbLine
 10
8205.882039265784
 20
1629.714872904953
 30
0.0
 11
8241.882039265783
 21
1629.714872904953
 31
0.0
  0
ARC
  5
2647D
330
747D
100
AcDbEntity
  8
部品1
100
AcDbCircle
 10
8205.882039265784
 20
1647.714872904953
 30
0.0
 40
18.0
100
AcDbArc
 50
180.0
 51
270.0
  0
LINE
  5
2647E
330
747D
100
AcDbEntity
  8
部品1
100
AcDbLine
 10
8241.882039265783
 20
1629.714872904953
 30
0.0
 11
8241.882039265783
 21
1647.714872904953
 31
0.0
  0
LINE
  5
2647F
330
747D
100
AcDbEntity
  8
部品1
100
AcDbLine
 10
8259.882039265784
 20
1548.714872904951
 30
0.0
 11
8133.882039265776
 21
1548.714872904951
 31
0.0
  0
LINE
  5
26480
330
747D
100
AcDbEntity
  8
細線
 48
50.0
100
AcDbLine
 10
8553.859864458118
 20
1064.714872904951
 30
0.0
 11
8547.429083839771
 21
1088.714872904951
 31
0.0
  0
LINE
  5
26481
330
747D
100
AcDbEntity
  8
細線
 48
50.0
100
AcDbLine
 10
8474.971819510873
 20
1064.714872904951
 30
0.0
 11
8468.541038892526
 21
1088.714872904951
 31
0.0
  0
LINE
  5
26482
330
747D
100
AcDbEntity
  8
細線
 48
50.0
100
AcDbLine
 10
8396.083774563617
 20
1064.714872904953
 30
0.0
 11
8389.652993945269
 21
1088.714872904953
 31
0.0
  0
LINE
  5
26483
330
747D
100
AcDbEntity
  8
細線
 48
50.0
100
AcDbLine
 10
8532.423929063629
 20
984.7148729049512
 30
0.0
 11
8538.854709681976
 21
960.7148729049512
 31
0.0
  0
LINE
  5
26484
330
747D
100
AcDbEntity
  8
細線
 48
50.0
100
AcDbLine
 10
8453.535884116384
 20
984.7148729049512
 30
0.0
 11
8459.966664734729
 21
960.7148729049512
 31
0.0
  0
LINE
  5
26485
330
747D
100
AcDbEntity
  8
細線
 48
50.0
100
AcDbLine
 10
8374.647839169133
 20
984.7148729049532
 30
0.0
 11
8381.078619787492
 21
960.7148729049532
 31
0.0
  0
LINE
  5
26486
330
747D
100
AcDbEntity
  8
細線
 48
50.0
100
AcDbLine
 10
8447.105103498033
 20
960.7148729049503
 30
0.0
 11
8481.402600129216
 21
1088.71487290495
 31
0.0
  0
LINE
  5
26487
330
747D
100
AcDbEntity
  8
細線
 48
50.0
100
AcDbLine
 10
8368.217058550785
 20
960.7148729049512
 30
0.0
 11
8402.514555181959
 21
1088.714872904953
 31
0.0
  0
LINE
  5
26488
330
747D
100
AcDbEntity
  8
細線
 48
50.0
100
AcDbLine
 10
8525.993148445278
 20
960.7148729049512
 30
0.0
 11
8560.290645076463
 21
1088.71487290495
 31
0.0
  0
LINE
  5
26489
330
747D
100
AcDbEntity
  8
部品1
 48
50.0
100
AcDbLine
 10
8597.482039265786
 20
1088.714872904953
 30
0.0
 11
8597.482039265786
 21
960.7148729049532
 31
0.0
  0
LINE
  5
2648A
330
747D
100
AcDbEntity
  8
細線
 48
50.0
100
AcDbLine
 10
8317.195729616377
 20
1064.714872904953
 30
0.0
 11
8310.764948998032
 21
1088.714872904953
 31
0.0
  0
LINE
  5
2648B
330
747D
100
AcDbEntity
  8
細線
 48
50.0
100
AcDbLine
 10
8238.307684669132
 20
1064.714872904953
 30
0.0
 11
8231.876904050784
 21
1088.714872904953
 31
0.0
  0
LINE
  5
2648C
330
747D
100
AcDbEntity
  8
細線
 48
50.0
100
AcDbLine
 10
8080.531594774639
 20
1064.714872904953
 30
0.0
 11
8074.100814156293
 21
1088.714872904953
 31
0.0
  0
LINE
  5
2648D
330
747D
100
AcDbEntity
  8
細線
 48
50.0
100
AcDbLine
 10
8159.419639721885
 20
1064.714872904953
 30
0.0
 11
8152.988859103537
 21
1088.714872904953
 31
0.0
  0
LINE
  5
2648E
330
747D
100
AcDbEntity
  8
細線
 48
50.0
100
AcDbLine
 10
8216.871749274643
 20
984.7148729049532
 30
0.0
 11
8223.30252989299
 21
960.7148729049532
 31
0.0
  0
LINE
  5
2648F
330
747D
100
AcDbEntity
  8
細線
 48
50.0
100
AcDbLine
 10
8295.75979422189
 20
984.7148729049532
 30
0.0
 11
8302.190574840235
 21
960.7148729049532
 31
0.0
  0
LINE
  5
26490
330
747D
100
AcDbEntity
  8
細線
 48
50.0
100
AcDbLine
 10
8059.095659380149
 20
984.7148729049532
 30
0.0
 11
8065.526439998498
 21
960.7148729049532
 31
0.0
  0
LINE
  5
26491
330
747D
100
AcDbEntity
  8
細線
 48
50.0
100
AcDbLine
 10
8137.983704327396
 20
984.7148729049532
 30
0.0
 11
8144.414484945745
 21
960.7148729049532
 31
0.0
  0
LINE
  5
26492
330
747D
100
AcDbEntity
  8
細線
 48
50.0
100
AcDbLine
 10
8289.329013603536
 20
960.7148729049532
 30
0.0
 11
8323.626510234721
 21
1088.714872904951
 31
0.0
  0
LINE
  5
26493
330
747D
100
AcDbEntity
  8
細線
 48
50.0
100
AcDbLine
 10
8131.552923709044
 20
960.7148729049532
 30
0.0
 11
8165.85042034023
 21
1088.714872904951
 31
0.0
  0
LINE
  5
26494
330
747D
100
AcDbEntity
  8
細線
 48
50.0
100
AcDbLine
 10
8052.664878761799
 20
960.7148729049532
 30
0.0
 11
8086.962375392982
 21
1088.714872904953
 31
0.0
  0
LINE
  5
26495
330
747D
100
AcDbEntity
  8
細線
 48
50.0
100
AcDbLine
 10
8210.440968656294
 20
960.7148729049512
 30
0.0
 11
8244.738465287476
 21
1088.714872904951
 31
0.0
  0
LINE
  5
26496
330
747D
100
AcDbEntity
  8
細線
 48
50.0
100
AcDbLine
 10
8335.213734220593
 20
1088.714872904953
 30
0.0
 11
8517.482039265782
 21
1270.983177950149
 31
0.0
  0
LINE
  5
26497
330
747D
100
AcDbEntity
  8
部品1
 48
50.0
100
AcDbLine
 10
8517.482039265782
 20
1328.714872904953
 30
0.0
 11
8517.482039265782
 21
1088.714872904953
 31
0.0
  0
LINE
  5
26498
330
747D
100
AcDbEntity
  8
細線
 48
50.0
100
AcDbLine
 10
8308.272965857389
 20
1088.714872904953
 30
0.0
 11
8517.482039265782
 21
1297.923946313346
 31
0.0
  0
LINE
  5
26499
330
747D
100
AcDbEntity
  8
細線
 48
50.0
100
AcDbLine
 10
8281.332197494176
 20
1088.714872904953
 30
0.0
 11
8517.482039265782
 21
1324.864714676561
 31
0.0
  0
LINE
  5
2649A
330
747D
100
AcDbEntity
  8
細線
 48
50.0
100
AcDbLine
 10
8065.806050588518
 20
1088.714872904953
 30
0.0
 11
8389.482039265782
 21
1412.390861582219
 31
0.0
  0
LINE
  5
2649B
330
747D
100
AcDbEntity
  8
細線
 48
50.0
100
AcDbLine
 10
8119.687587314933
 20
1088.714872904953
 30
0.0
 11
8389.482039265782
 21
1358.50932485581
 31
0.0
  0
LINE
  5
2649C
330
747D
100
AcDbEntity
  8
細線
 48
50.0
100
AcDbLine
 10
8092.746818951729
 20
1088.714872904953
 30
0.0
 11
8389.482039265782
 21
1385.450093219006
 31
0.0
  0
LINE
  5
2649D
330
747D
100
AcDbEntity
  8
細線
 48
50.0
100
AcDbLine
 10
7847.482039265779
 20
1301.443155393539
 30
0.0
 11
7874.753756777199
 21
1328.714872904953
 31
0.0
  0
LINE
  5
2649E
330
747D
100
AcDbEntity
  8
部品1
 48
50.0
100
AcDbLine
 10
7847.482039265782
 20
1328.714872904953
 30
0.0
 11
7975.482039265782
 21
1328.714872904953
 31
0.0
  0
LINE
  5
2649F
330
747D
100
AcDbEntity
  8
細線
 48
50.0
100
AcDbLine
 10
7847.482039265779
 20
1274.502387030328
 30
0.0
 11
7901.694525140406
 21
1328.714872904953
 31
0.0
  0
LWPOLYLINE
  5
264A0
330
747D
100
AcDbEntity
  8
部品1
 48
50.0
100
AcDbPolyline
 90
        2
 70
     0
 43
8.0
 10
7561.342137432827
 20
1632.714872904954
 10
7975.482039265782
 20
1632.714872904954
  0
LINE
  5
264A1
330
747D
100
AcDbEntity
  8
細線
 48
50.0
100
AcDbLine
 10
7922.755504880136
 20
1064.714872904953
 30
0.0
 11
7916.324724261788
 21
1088.714872904953
 31
0.0
  0
LINE
  5
264A2
330
747D
100
AcDbEntity
  8
細線
 48
50.0
100
AcDbLine
 10
8001.643549827388
 20
1064.714872904953
 30
0.0
 11
7995.21276920904
 21
1088.714872904953
 31
0.0
  0
LINE
  5
264A3
330
747D
100
AcDbEntity
  8
細線
 48
50.0
100
AcDbLine
 10
7843.867459932885
 20
1064.714872904953
 30
0.0
 11
7837.436679314539
 21
1088.714872904953
 31
0.0
  0
LINE
  5
264A4
330
747D
100
AcDbEntity
  8
細線
 48
50.0
100
AcDbLine
 10
7767.482039265782
 20
1074.054793870733
 30
0.0
 11
7771.410195603978
 21
1088.714872904953
 31
0.0
  0
LINE
  5
264A5
330
747D
100
AcDbEntity
  8
細線
 48
50.0
100
AcDbLine
 10
7901.319569485647
 20
984.7148729049532
 30
0.0
 11
7907.750350103994
 21
960.7148729049532
 31
0.0
  0
LINE
  5
264A6
330
747D
100
AcDbEntity
  8
細線
 48
50.0
100
AcDbLine
 10
7980.207614432899
 20
984.7148729049532
 30
0.0
 11
7986.638395051247
 21
960.7148729049532
 31
0.0
  0
LINE
  5
264A7
330
747D
100
AcDbEntity
  8
細線
 48
50.0
100
AcDbLine
 10
7822.431524538394
 20
984.7148729049532
 30
0.0
 11
7828.862305156741
 21
960.7148729049532
 31
0.0
  0
LINE
  5
264A8
330
747D
100
AcDbEntity
  8
細線
 48
50.0
100
AcDbLine
 10
7973.776833814547
 20
960.7148729049512
 30
0.0
 11
8008.074330445728
 21
1088.714872904951
 31
0.0
  0
LINE
  5
264A9
330
747D
100
AcDbEntity
  8
細線
 48
50.0
100
AcDbLine
 10
7816.000743920041
 20
960.7148729049512
 30
0.0
 11
7850.298240551225
 21
1088.714872904951
 31
0.0
  0
LINE
  5
264AA
330
747D
100
AcDbEntity
  8
部品1
 48
50.0
100
AcDbLine
 10
7767.482039265786
 20
960.7148729049532
 30
0.0
 11
7767.482039265786
 21
1088.714872904953
 31
0.0
  0
LINE
  5
264AB
330
747D
100
AcDbEntity
  8
細線
 48
50.0
100
AcDbLine
 10
7894.8887888673
 20
960.7148729049532
 30
0.0
 11
7929.186285498483
 21
1088.714872904953
 31
0.0
  0
LINE
  5
264AC
330
747D
100
AcDbEntity
  8
部品1
 48
50.0
100
AcDbLine
 10
7847.482039265782
 20
1088.714872904953
 30
0.0
 11
7847.482039265782
 21
1328.714872904953
 31
0.0
  0
LINE
  5
264AD
330
747D
100
AcDbEntity
  8
細線
 48
50.0
100
AcDbLine
 10
7847.482039265779
 20
1247.561618667124
 30
0.0
 11
7928.635293503612
 21
1328.714872904953
 31
0.0
  0
LINE
  5
264AE
330
747D
100
AcDbEntity
  8
部品1
 48
50.0
100
AcDbLine
 10
8597.482039265786
 20
960.7148729049532
 30
0.0
 11
7767.482039265786
 21
960.7148729049532
 31
0.0
  0
LINE
  5
264AF
330
747D
100
AcDbEntity
  8
部品1
 48
50.0
100
AcDbLine
 10
8597.482039265786
 20
1088.714872904953
 30
0.0
 11
7767.482039265786
 21
1088.714872904953
 31
0.0
  0
LINE
  5
264B0
330
747D
100
AcDbEntity
  8
細線
 48
50.0
100
AcDbLine
 10
7850.279903682859
 20
1088.714872904953
 30
0.0
 11
8389.482039265782
 21
1627.917008487879
 31
0.0
  0
LINE
  5
264B1
330
747D
100
AcDbEntity
  8
細線
 48
50.0
100
AcDbLine
 10
7877.220672046068
 20
1088.714872904953
 30
0.0
 11
8389.482039265786
 21
1600.976240124667
 31
0.0
  0
LINE
  5
264B2
330
747D
100
AcDbEntity
  8
細線
 48
50.0
100
AcDbLine
 10
7904.161440409272
 20
1088.714872904953
 30
0.0
 11
8389.482039265782
 21
1574.035471761461
 31
0.0
  0
LINE
  5
264B3
330
747D
100
AcDbEntity
  8
細線
 48
50.0
100
AcDbLine
 10
7975.482039265782
 20
1429.443155393539
 30
0.0
 11
8133.882039265776
 21
1587.843155393534
 31
0.0
  0
LINE
  5
264B4
330
747D
100
AcDbEntity
  8
細線
 48
50.0
100
AcDbLine
 10
7975.482039265782
 20
1375.561618667124
 30
0.0
 11
8148.63529350362
 21
1548.714872904951
 31
0.0
  0
LINE
  5
264B5
330
747D
100
AcDbEntity
  8
細線
 48
50.0
100
AcDbLine
 10
7975.482039265782
 20
1402.502387030331
 30
0.0
 11
8133.882039265776
 21
1560.90238703032
 31
0.0
  0
LINE
  5
264B6
330
747D
100
AcDbEntity
  8
部品1
100
AcDbLine
 10
8133.882039265776
 20
1548.714872904953
 30
0.0
 11
8133.882039265783
 21
1872.714872904953
 31
0.0
  0
LINE
  5
264B7
330
747D
100
AcDbEntity
  8
部品1
100
AcDbLine
 10
8259.882039265784
 20
1548.714872904953
 30
0.0
 11
8259.882039265784
 21
1872.714872904953
 31
0.0
  0
LINE
  5
264B8
330
747D
100
AcDbEntity
  8
細線
 48
50.0
100
AcDbLine
 10
8259.882039265784
 20
1686.902387030324
 30
0.0
 11
8389.482039265782
 21
1816.502387030321
 31
0.0
  0
LINE
  5
264B9
330
747D
100
AcDbEntity
  8
細線
 48
50.0
100
AcDbLine
 10
8259.882039265784
 20
1659.961618667112
 30
0.0
 11
8389.482039265782
 21
1789.561618667103
 31
0.0
  0
LINE
  5
264BA
330
747D
100
AcDbEntity
  8
部品1
100
AcDbLine
 10
8187.882039265785
 20
1647.714872904953
 30
0.0
 11
8187.88203926578
 21
1921.874872904954
 31
0.0
  0
LINE
  5
264BB
330
747D
100
AcDbEntity
  8
部品1
100
AcDbLine
 10
8205.882039265784
 20
1647.714872904953
 30
0.0
 11
8205.88203926578
 21
1921.874872904954
 31
0.0
  0
TEXT
  5
264BC
330
747D
100
AcDbEntity
  8
部品1
 48
50.0
100
AcDbText
 10
7561.342137432827
 20
1643.953865188208
 30
0.0
 40
80.0
  1
▽G.L
  7
STYLE2
100
AcDbText
  0
LINE
  5
264BD
330
747D
100
AcDbEntity
  8
細線
 48
50.0
100
AcDbLine
 10
7975.482039265782
 20
1591.087765572783
 30
0.0
 11
8133.882039265779
 21
1749.487765572776
 31
0.0
  0
LINE
  5
264BE
330
747D
100
AcDbEntity
  8
細線
 48
50.0
100
AcDbLine
 10
7975.482039265782
 20
1618.028533935991
 30
0.0
 11
8133.882039265783
 21
1776.428533935989
 31
0.0
  0
LINE
  5
264BF
330
747D
100
AcDbEntity
  8
細線
 48
50.0
100
AcDbLine
 10
7975.482039265782
 20
1644.969302299198
 30
0.0
 11
8133.882039265783
 21
1803.369302299196
 31
0.0
  0
LINE
  5
264C0
330
747D
100
AcDbEntity
  8
部品1
 48
50.0
100
AcDbLine
 10
7975.482039265782
 20
1328.714872904953
 30
0.0
 11
7975.482039265782
 21
1872.714872904953
 31
0.0
  0
LINE
  5
264C1
330
747D
100
AcDbEntity
  8
部品1
100
AcDbLine
 10
8389.482039265782
 20
1328.714872904953
 30
0.0
 11
8389.482039265782
 21
1872.714872904953
 31
0.0
  0
LINE
  5
264C2
330
747D
100
AcDbEntity
  8
細線
 48
50.0
100
AcDbLine
 10
8259.882039265784
 20
1713.843155393541
 30
0.0
 11
8389.482039265782
 21
1843.44315539354
 31
0.0
  0
LINE
  5
264C3
330
747D
100
AcDbEntity
  8
細線
 48
50.0
100
AcDbLine
 10
6383.935148591059
 20
1753.461724801669
 30
0.0
 11
6467.442726088589
 21
1836.969302299199
 31
0.0
  0
LINE
  5
264C4
330
747D
100
AcDbEntity
  8
細線
 48
50.0
100
AcDbLine
 10
6394.995433354575
 20
1737.581241201975
 30
0.0
 11
6467.442726088589
 21
1810.028533935991
 31
0.0
  0
LINE
  5
264C5
330
747D
100
AcDbEntity
  8
細線
 48
50.0
100
AcDbLine
 10
6275.44272608859
 20
1860.495449204858
 30
0.0
 11
6287.662149788684
 21
1872.714872904953
 31
0.0
  0
LINE
  5
264C6
330
747D
100
AcDbEntity
  8
細線
 48
50.0
100
AcDbLine
 10
6275.44272608859
 20
1806.613912478443
 30
0.0
 11
6341.543686515098
 21
1872.714872904953
 31
0.0
  0
LINE
  5
264C7
330
747D
100
AcDbEntity
  8
細線
 48
50.0
100
AcDbLine
 10
6275.44272608859
 20
1833.554680841651
 30
0.0
 11
6314.602918151893
 21
1872.714872904953
 31
0.0
  0
LINE
  5
264C8
330
747D
100
AcDbEntity
  8
部品1
 48
50.0
100
AcDbLine
 10
6275.44272608859
 20
1872.714872904953
 30
0.0
 11
6467.442726088589
 21
1872.714872904953
 31
0.0
  0
DIMENSION
  5
264C9
330
747D
100
AcDbEntity
  8
寸法
 48
50.0
100
AcDbDimension
  2
*D48
 10
6275.442726088589
 20
2292.382680821333
 30
0.0
 11
6371.442726088589
 21
2292.382680821333
 31
0.0
 70
   160
  1
120\P200\P280
 71
     5
 42
192.0
  3
INABA_S40G
100
AcDbAlignedDimension
 13
6467.442726088589
 23
1872.714872904953
 33
0.0
 14
6275.442726088589
 24
1872.714872904953
 34
0.0
100
AcDbRotatedDimension
1001
ACAD
1000
DSTYLE
1002
{
1070
   341
1005
0
1002
}
  0
MTEXT
  5
264CA
102
{ACAD_REACTORS
330
2651F
102
}
330
747D
100
AcDbEntity
  8
寸法
 62
     7
 48
50.0
100
AcDbMText
 10
6709.181181949841
 20
911.3657871728001
 30
0.0
 40
80.0
 41
0.8
 71
     4
 72
     1
  1
\A1;D10@300
  7
STYLE2
 73
     1
 44
1.0
1001
ACAD
1000
MTEXTBEGIN
1070
    73
1070
     1
1070
    44
1040
1.0
1070
    74
1070
     0
1000
MTEXTEND
  0
LINE
  5
264CB
330
747D
100
AcDbEntity
  8
細線
 48
50.0
100
AcDbLine
 10
6395.442726088595
 20
1522.502387030334
 30
0.0
 11
6467.442726088582
 21
1594.502387030328
 31
0.0
  0
LINE
  5
264CC
330
747D
100
AcDbEntity
  8
細線
 48
50.0
100
AcDbLine
 10
6395.44272608859
 20
1549.443155393539
 30
0.0
 11
6467.442726088589
 21
1621.443155393539
 31
0.0
  0
LINE
  5
264CD
330
747D
100
AcDbEntity
  8
細線
 48
50.0
100
AcDbLine
 10
6395.442726088595
 20
1280.035471761464
 30
0.0
 11
6467.442726088582
 21
1352.035471761464
 31
0.0
  0
LINE
  5
264CE
330
747D
100
AcDbEntity
  8
細線
 48
50.0
100
AcDbLine
 10
6395.442726088595
 20
1333.917008487882
 30
0.0
 11
6467.442726088582
 21
1405.917008487879
 31
0.0
  0
LINE
  5
264CF
330
747D
100
AcDbEntity
  8
細線
 48
50.0
100
AcDbLine
 10
6395.442726088595
 20
1306.976240124674
 30
0.0
 11
6467.442726088582
 21
1378.976240124669
 31
0.0
  0
LINE
  5
264D0
330
747D
100
AcDbEntity
  8
部品1
 48
50.0
100
AcDbLine
 10
6467.442726088589
 20
1328.714872904953
 30
0.0
 11
6595.442726088589
 21
1328.714872904953
 31
0.0
  0
LINE
  5
264D1
330
747D
100
AcDbEntity
  8
細線
 48
50.0
100
AcDbLine
 10
6395.442726088595
 20
1495.561618667124
 30
0.0
 11
6467.442726088582
 21
1567.561618667124
 31
0.0
  0
LINE
  5
264D2
330
747D
100
AcDbEntity
  8
部品1
 48
50.0
100
AcDbLine
 10
6363.44272608859
 20
1674.842087602075
 30
0.0
 11
6363.44272608859
 21
1732.969302299198
 31
0.0
  0
LINE
  5
264D3
330
747D
100
AcDbEntity
  8
細線
 48
50.0
100
AcDbLine
 10
6275.44272608859
 20
1644.969302299198
 30
0.0
 11
6347.44272608859
 21
1716.969302299199
 31
0.0
  0
LINE
  5
264D4
330
747D
100
AcDbEntity
  8
部品1
 48
50.0
100
AcDbLine
 10
6347.44272608859
 20
1674.842087602079
 30
0.0
 11
6347.44272608859
 21
1732.969302299198
 31
0.0
  0
LINE
  5
264D5
330
747D
100
AcDbEntity
  8
細線
 48
50.0
100
AcDbLine
 10
6275.44272608859
 20
1618.028533935991
 30
0.0
 11
6347.44272608859
 21
1690.028533935991
 31
0.0
  0
LINE
  5
264D6
330
747D
100
AcDbEntity
  8
細線
 48
50.0
100
AcDbLine
 10
6275.44272608859
 20
1591.087765572783
 30
0.0
 11
6359.197048117883
 21
1674.842087602075
 31
0.0
  0
LINE
  5
264D7
330
747D
100
AcDbEntity
  8
部品1
 48
50.0
100
AcDbLine
 10
6363.44272608859
 20
1674.842087602075
 30
0.0
 11
6347.44272608859
 21
1674.842087602079
 31
0.0
  0
LINE
  5
264D8
330
747D
100
AcDbEntity
  8
細線
 48
50.0
100
AcDbLine
 10
6147.442726088582
 20
1301.443155393539
 30
0.0
 11
6174.714443600003
 21
1328.714872904953
 31
0.0
  0
LINE
  5
264D9
330
747D
100
AcDbEntity
  8
細線
 48
50.0
100
AcDbLine
 10
6147.442726088582
 20
1274.502387030328
 30
0.0
 11
6201.655211963214
 21
1328.714872904953
 31
0.0
  0
LINE
  5
264DA
330
747D
100
AcDbEntity
  8
部品1
 48
50.0
100
AcDbLine
 10
6147.442726088589
 20
1328.714872904953
 30
0.0
 11
6275.44272608859
 21
1328.714872904953
 31
0.0
  0
LINE
  5
264DB
330
747D
100
AcDbEntity
  8
細線
 48
50.0
100
AcDbLine
 10
6363.44272608859
 20
1706.028533935991
 30
0.0
 11
6379.44272608859
 21
1722.028533935991
 31
0.0
  0
LINE
  5
264DC
330
747D
100
AcDbEntity
  8
細線
 48
50.0
100
AcDbLine
 10
6363.44272608859
 20
1679.087765572784
 30
0.0
 11
6379.44272608859
 21
1695.087765572784
 31
0.0
  0
LINE
  5
264DD
330
747D
100
AcDbEntity
  8
細線
 48
50.0
100
AcDbLine
 10
6275.44272608859
 20
1375.561618667124
 30
0.0
 11
6379.442726088595
 21
1479.561618667124
 31
0.0
  0
LINE
  5
264DE
330
747D
100
AcDbEntity
  8
細線
 48
50.0
100
AcDbLine
 10
6275.44272608859
 20
1429.443155393539
 30
0.0
 11
6379.44272608859
 21
1533.443155393539
 31
0.0
  0
LINE
  5
264DF
330
747D
100
AcDbEntity
  8
細線
 48
50.0
100
AcDbLine
 10
6275.44272608859
 20
1402.502387030331
 30
0.0
 11
6379.442726088595
 21
1506.502387030334
 31
0.0
  0
LINE
  5
264E0
330
747D
100
AcDbEntity
  8
細線
 48
50.0
100
AcDbLine
 10
6538.268371491937
 20
1064.714872904953
 30
0.0
 11
6531.83759087359
 21
1088.714872904953
 31
0.0
  0
LINE
  5
264E1
330
747D
100
AcDbEntity
  8
細線
 48
50.0
100
AcDbLine
 10
6581.292884316983
 20
1088.714872904953
 30
0.0
 11
6595.442726088589
 21
1102.864714676559
 31
0.0
  0
LINE
  5
264E2
330
747D
100
AcDbEntity
  8
細線
 48
50.0
100
AcDbLine
 10
6617.156416439184
 20
1064.714872904953
 30
0.0
 11
6610.725635820836
 21
1088.714872904953
 31
0.0
  0
LINE
  5
264E3
330
747D
100
AcDbEntity
  8
部品1
 48
50.0
100
AcDbLine
 10
6539.442726088589
 20
1200.714872904953
 30
0.0
 11
6539.442726088589
 21
1184.714872904953
 31
0.0
  0
LINE
  5
264E4
330
747D
100
AcDbEntity
  8
細線
 48
50.0
100
AcDbLine
 10
6419.648274137736
 20
1088.714872904953
 30
0.0
 11
6515.649161982874
 21
1184.715760750092
 31
0.0
  0
LINE
  5
264E5
330
747D
100
AcDbEntity
  8
細線
 48
50.0
100
AcDbLine
 10
6392.707505774533
 20
1088.714872904953
 30
0.0
 11
6488.707505774534
 21
1184.714872904953
 31
0.0
  0
LINE
  5
264E6
330
747D
100
AcDbEntity
  8
細線
 48
50.0
100
AcDbLine
 10
6459.380326544691
 20
1064.714872904953
 30
0.0
 11
6452.949545926346
 21
1088.714872904953
 31
0.0
  0
LINE
  5
264E7
330
747D
100
AcDbEntity
  8
細線
 48
50.0
100
AcDbLine
 10
6380.492281597446
 20
1064.714872904953
 30
0.0
 11
6374.061500979099
 21
1088.714872904953
 31
0.0
  0
ARC
  5
264E8
330
747D
100
AcDbEntity
  8
部品1
 48
50.0
100
AcDbCircle
 10
6371.44272608859
 20
1208.714872904953
 30
0.0
 40
24.0
100
AcDbArc
 50
340.5287793655256
 51
0.0
  0
CIRCLE
  5
264E9
330
747D
100
AcDbEntity
  8
部品1
 48
50.0
100
AcDbCircle
 10
6499.44272608859
 20
1208.714872904953
 30
0.0
 40
8.0
  0
LINE
  5
264EA
330
747D
100
AcDbEntity
  8
細線
 48
50.0
100
AcDbLine
 10
6531.648274137737
 20
1200.714872904953
 30
0.0
 11
6595.442726088589
 21
1264.509324855804
 31
0.0
  0
LINE
  5
264EB
330
747D
100
AcDbEntity
  8
細線
 48
50.0
100
AcDbLine
 10
6668.177745373592
 20
960.7148729049512
 30
0.0
 11
6675.442726088589
 21
987.8281500493413
 31
0.0
  0
LINE
  5
264EC
330
747D
100
AcDbEntity
  8
細線
 48
50.0
100
AcDbLine
 10
6674.608525991942
 20
984.7148729049532
 30
0.0
 11
6675.442726088589
 21
981.6015957605886
 31
0.0
  0
LINE
  5
264ED
330
747D
100
AcDbEntity
  8
細線
 48
50.0
100
AcDbLine
 10
6595.720481044695
 20
984.7148729049532
 30
0.0
 11
6602.151261663043
 21
960.7148729049532
 31
0.0
  0
LINE
  5
264EE
330
747D
100
AcDbEntity
  8
細線
 48
50.0
100
AcDbLine
 10
6437.944391150202
 20
984.7148729049532
 30
0.0
 11
6444.375171768548
 21
960.7148729049532
 31
0.0
  0
LINE
  5
264EF
330
747D
100
AcDbEntity
  8
細線
 48
50.0
100
AcDbLine
 10
6516.832436097448
 20
984.7148729049532
 30
0.0
 11
6523.263216715796
 21
960.7148729049532
 31
0.0
  0
LINE
  5
264F0
330
747D
100
AcDbEntity
  8
細線
 48
50.0
100
AcDbLine
 10
6510.401655479097
 20
960.7148729049512
 30
0.0
 11
6544.699152110283
 21
1088.714872904951
 31
0.0
  0
LINE
  5
264F1
330
747D
100
AcDbEntity
  8
細線
 48
50.0
100
AcDbLine
 10
6431.513610531848
 20
960.7148729049532
 30
0.0
 11
6465.811107163036
 21
1088.714872904951
 31
0.0
  0
LINE
  5
264F2
330
747D
100
AcDbEntity
  8
細線
 48
50.0
100
AcDbLine
 10
6589.289700426343
 20
960.7148729049532
 30
0.0
 11
6623.587197057529
 21
1088.714872904951
 31
0.0
  0
LINE
  5
264F3
330
747D
100
AcDbEntity
  8
部品1
 48
50.0
100
AcDbLine
 10
6675.442726088594
 20
1088.714872904953
 30
0.0
 11
6675.442726088594
 21
960.7148729049532
 31
0.0
  0
LINE
  5
264F4
330
747D
100
AcDbEntity
  8
部品1
 48
50.0
100
AcDbLine
 10
6363.44272608859
 20
1266.842087602075
 30
0.0
 11
6363.44272608859
 21
1208.714872904953
 31
0.0
  0
LINE
  5
264F5
330
747D
100
AcDbEntity
  8
細線
 48
50.0
100
AcDbLine
 10
6289.181358868873
 20
1200.714872904953
 30
0.0
 11
6347.44272608859
 21
1258.976240124672
 31
0.0
  0
LINE
  5
264F6
330
747D
100
AcDbEntity
  8
部品1
 48
50.0
100
AcDbLine
 10
6347.44272608859
 20
1266.842087602075
 30
0.0
 11
6347.44272608859
 21
1208.714872904953
 31
0.0
  0
LINE
  5
264F7
330
747D
100
AcDbEntity
  8
細線
 48
50.0
100
AcDbLine
 10
6204.122127232079
 20
1088.714872904953
 30
0.0
 11
6300.122127232079
 21
1184.714872904953
 31
0.0
  0
LINE
  5
264F8
330
747D
100
AcDbEntity
  8
細線
 48
50.0
100
AcDbLine
 10
6301.604236650193
 20
1064.714872904953
 30
0.0
 11
6295.173456031847
 21
1088.714872904953
 31
0.0
  0
LINE
  5
264F9
330
747D
100
AcDbEntity
  8
細線
 48
50.0
100
AcDbLine
 10
6222.71619170294
 20
1064.714872904953
 30
0.0
 11
6216.285411084594
 21
1088.714872904953
 31
0.0
  0
ARC
  5
264FA
330
747D
100
AcDbEntity
  8
部品1
 48
50.0
100
AcDbCircle
 10
6371.44272608859
 20
1208.714872904953
 30
0.0
 40
24.0
100
AcDbArc
 50
180.0
 51
199.4712206344743
  0
LINE
  5
264FB
330
747D
100
AcDbEntity
  8
細線
 48
50.0
100
AcDbLine
 10
6316.122127232078
 20
1200.714872904953
 30
0.0
 11
6347.44272608859
 21
1232.035471761464
 31
0.0
  0
CIRCLE
  5
264FC
330
747D
100
AcDbEntity
  8
部品1
 48
50.0
100
AcDbCircle
 10
6243.44272608859
 20
1208.714872904953
 30
0.0
 40
8.0
  0
LINE
  5
264FD
330
747D
100
AcDbEntity
  8
部品1
 48
50.0
100
AcDbLine
 10
6363.44272608859
 20
1266.842087602075
 30
0.0
 11
6347.44272608859
 21
1266.842087602075
 31
0.0
  0
LINE
  5
264FE
330
747D
100
AcDbEntity
  8
細線
 48
50.0
100
AcDbLine
 10
6067.442726088589
 20
1074.054793870733
 30
0.0
 11
6071.370882426785
 21
1088.714872904953
 31
0.0
  0
LINE
  5
264FF
330
747D
100
AcDbEntity
  8
細線
 48
50.0
100
AcDbLine
 10
6143.82814675569
 20
1064.714872904953
 30
0.0
 11
6137.397366137342
 21
1088.714872904953
 31
0.0
  0
LINE
  5
26500
330
747D
100
AcDbEntity
  8
部品1
 48
50.0
100
AcDbLine
 10
6203.44272608859
 20
1200.714872904953
 30
0.0
 11
6203.44272608859
 21
1184.714872904953
 31
0.0
  0
LINE
  5
26501
330
747D
100
AcDbEntity
  8
細線
 48
50.0
100
AcDbLine
 10
6150.240590505662
 20
1088.714872904953
 30
0.0
 11
6246.240590505662
 21
1184.714872904953
 31
0.0
  0
LINE
  5
26502
330
747D
100
AcDbEntity
  8
細線
 48
50.0
100
AcDbLine
 10
6177.181358868873
 20
1088.714872904953
 30
0.0
 11
6273.181358868873
 21
1184.714872904953
 31
0.0
  0
LINE
  5
26503
330
747D
100
AcDbEntity
  8
細線
 48
50.0
100
AcDbLine
 10
6280.168301255704
 20
984.7148729049532
 30
0.0
 11
6286.599081874051
 21
960.7148729049532
 31
0.0
  0
LINE
  5
26504
330
747D
100
AcDbEntity
  8
細線
 48
50.0
100
AcDbLine
 10
6359.056346202957
 20
984.7148729049532
 30
0.0
 11
6365.487126821303
 21
960.7148729049532
 31
0.0
  0
LINE
  5
26505
330
747D
100
AcDbEntity
  8
細線
 48
50.0
100
AcDbLine
 10
6122.392211361201
 20
984.7148729049532
 30
0.0
 11
6128.822991979546
 21
960.7148729049532
 31
0.0
  0
LINE
  5
26506
330
747D
100
AcDbEntity
  8
細線
 48
50.0
100
AcDbLine
 10
6201.280256308451
 20
984.7148729049532
 30
0.0
 11
6207.711036926799
 21
960.7148729049532
 31
0.0
  0
LINE
  5
26507
330
747D
100
AcDbEntity
  8
部品1
 48
50.0
100
AcDbLine
 10
6067.442726088591
 20
960.7148729049532
 30
0.0
 11
6067.442726088591
 21
1088.714872904953
 31
0.0
  0
LINE
  5
26508
330
747D
100
AcDbEntity
  8
細線
 48
50.0
100
AcDbLine
 10
6115.961430742848
 20
960.7148729049512
 30
0.0
 11
6150.25892737403
 21
1088.714872904951
 31
0.0
  0
LINE
  5
26509
330
747D
100
AcDbEntity
  8
細線
 48
50.0
100
AcDbLine
 10
6273.73752063735
 20
960.7148729049512
 30
0.0
 11
6308.035017268534
 21
1088.714872904951
 31
0.0
  0
LINE
  5
2650A
330
747D
100
AcDbEntity
  8
細線
 48
50.0
100
AcDbLine
 10
6194.849475690105
 20
960.7148729049532
 30
0.0
 11
6229.146972321288
 21
1088.714872904953
 31
0.0
  0
LINE
  5
2650B
330
747D
100
AcDbEntity
  8
細線
 48
50.0
100
AcDbLine
 10
6365.766737411322
 20
1088.714872904953
 30
0.0
 11
6461.766737411323
 21
1184.714872904953
 31
0.0
  0
CIRCLE
  5
2650C
330
747D
100
AcDbEntity
  8
部品1
 48
50.0
100
AcDbCircle
 10
6371.44272608859
 20
1208.714872904953
 30
0.0
 40
8.0
  0
LINE
  5
2650D
330
747D
100
AcDbEntity
  8
部品1
 48
50.0
100
AcDbLine
 10
6675.442726088594
 20
1088.714872904953
 30
0.0
 11
6067.442726088591
 21
1088.714872904953
 31
0.0
  0
LINE
  5
2650E
330
747D
100
AcDbEntity
  8
部品1
 48
50.0
100
AcDbLine
 10
6203.44272608859
 20
1200.714872904953
 30
0.0
 11
6539.442726088589
 21
1200.714872904953
 31
0.0
  0
LINE
  5
2650F
330
747D
100
AcDbEntity
  8
部品1
 48
50.0
100
AcDbLine
 10
6203.44272608859
 20
1184.714872904953
 30
0.0
 11
6539.442726088589
 21
1184.714872904953
 31
0.0
  0
LINE
  5
26510
330
747D
100
AcDbEntity
  8
部品1
 48
50.0
100
AcDbLine
 10
6675.442726088594
 20
960.7148729049532
 30
0.0
 11
6067.442726088591
 21
960.7148729049532
 31
0.0
  0
LINE
  5
26511
330
747D
100
AcDbEntity
  8
細線
 48
50.0
100
AcDbLine
 10
6352.625565584603
 20
960.7148729049532
 30
0.0
 11
6386.923062215786
 21
1088.714872904953
 31
0.0
  0
LINE
  5
26512
330
747D
100
AcDbEntity
  8
細線
 48
50.0
100
AcDbLine
 10
6363.44272608859
 20
1248.035471761464
 30
0.0
 11
6379.442726088595
 21
1264.035471761464
 31
0.0
  0
LINE
  5
26513
330
747D
100
AcDbEntity
  8
部品1
 48
50.0
100
AcDbLine
 10
6379.442726088595
 20
1208.714872904953
 30
0.0
 11
6379.442726088583
 21
1732.969302299198
 31
0.0
  0
LINE
  5
26514
330
747D
100
AcDbEntity
  8
部品1
 48
50.0
100
AcDbLine
 10
6395.442726088595
 20
1208.714872904953
 30
0.0
 11
6395.44272608859
 21
1732.969302299198
 31
0.0
  0
LINE
  5
26515
330
747D
100
AcDbEntity
  8
部品1
 48
50.0
100
AcDbLine
 10
6595.442726088589
 20
1328.714872904953
 30
0.0
 11
6595.442726088589
 21
1088.714872904953
 31
0.0
  0
LINE
  5
26516
330
747D
100
AcDbEntity
  8
細線
 48
50.0
100
AcDbLine
 10
6477.766737411318
 20
1200.714872904953
 30
0.0
 11
6595.442726088589
 21
1318.390861582219
 31
0.0
  0
LINE
  5
26517
330
747D
100
AcDbEntity
  8
細線
 48
50.0
100
AcDbLine
 10
6504.707505774533
 20
1200.714872904953
 30
0.0
 11
6595.442726088589
 21
1291.450093219012
 31
0.0
  0
LINE
  5
26518
330
747D
100
AcDbEntity
  8
部品1
 48
50.0
100
AcDbLine
 10
6147.442726088589
 20
1088.714872904953
 30
0.0
 11
6147.442726088589
 21
1328.714872904953
 31
0.0
  0
LINE
  5
26519
330
747D
100
AcDbEntity
  8
細線
 48
50.0
100
AcDbLine
 10
6262.240590505662
 20
1200.714872904953
 30
0.0
 11
6379.44272608859
 21
1317.917008487879
 31
0.0
  0
LINE
  5
2651A
330
747D
100
AcDbEntity
  8
細線
 48
50.0
100
AcDbLine
 10
6355.308573565993
 20
1266.842087602075
 30
0.0
 11
6379.442726088595
 21
1290.976240124674
 31
0.0
  0
LINE
  5
2651B
330
747D
100
AcDbEntity
  8
細線
 48
50.0
100
AcDbLine
 10
6147.442726088582
 20
1247.561618667124
 30
0.0
 11
6228.595980326417
 21
1328.714872904953
 31
0.0
  0
LEADER
  5
2651C
330
747D
100
AcDbEntity
  8
寸法
 48
50.0
100
AcDbLeader
  3
INABA_S50G
 71
     0
 73
     0
 74
     0
 75
     1
 40
100.0
 41
222.7272727272727
 76
     3
 10
6371.442726088589
 20
1732.969302299198
 30
0.0
 10
6425.328663115983
 20
1832.204875152372
 30
0.0
 10
6550.328663115983
 20
1832.204875152372
 30
0.0
1001
ACAD
1000
DSTYLE
1002
{
1070
    40
1040
1.0
1070
   272
1070
     1
1070
   279
1070
     1
1070
   341
1005
0
1002
}
  0
LWPOLYLINE
  5
2651D
330
747D
100
AcDbEntity
  8
部品1
 48
50.0
100
AcDbPolyline
 90
        2
 70
     0
 43
8.0
 10
6467.442726088589
 20
1632.714872904954
 10
6881.582627921545
 20
1632.714872904954
  0
MTEXT
  5
2651E
102
{ACAD_REACTORS
330
26520
102
}
330
747D
100
AcDbEntity
  8
寸法
 62
     7
 48
50.0
100
AcDbMText
 10
6698.770385895274
 20
1173.31780396198
 30
0.0
 40
80.0
 41
0.8
 71
     4
 72
     1
  1
D10
  7
STYLE2
 73
     1
 44
1.0
1001
ACAD
1000
MTEXTBEGIN
1070
    73
1070
     1
1070
    44
1040
1.0
1070
    74
1070
     0
1000
MTEXTEND
  0
LEADER
  5
2651F
330
747D
100
AcDbEntity
  8
寸法
 48
50.0
100
AcDbLeader
  3
INABA_S50G
 71
     0
 73
     0
 74
     0
 75
     1
 40
100.0
 41
540.3409090909091
 76
     3
 10
6445.387895101763
 20
1191.974342491427
 30
0.0
 10
6564.18118194984
 20
850.3435244965302
 30
0.0
 10
6689.18118194984
 20
850.3435244965302
 30
0.0
213
0.0
223
-1.022262676269383
233
0.0
1001
ACAD
1000
DSTYLE
1002
{
1070
    40
1040
1.0
1070
   272
1070
     1
1070
   279
1070
     1
1070
   341
1005
0
1002
}
  0
LEADER
  5
26520
330
747D
100
AcDbEntity
  8
寸法
 48
50.0
100
AcDbLeader
  3
INABA_S50G
 71
     0
 73
     0
 74
     0
 75
     1
 40
100.0
 41
225.0
 76
     3
 10
6499.345678440731
 20
1208.714872904953
 30
0.0
 10
6553.770385895274
 20
1113.31780396198
 30
0.0
 10
6678.770385895274
 20
1113.31780396198
 30
0.0
1001
ACAD
1000
DSTYLE
1002
{
1070
    40
1040
1.0
1070
   272
1070
     1
1070
   279
1070
     1
1070
   341
1005
0
1002
}
  0
MTEXT
  5
26521
102
{ACAD_REACTORS
330
2651C
102
}
330
747D
100
AcDbEntity
  8
寸法
 62
     7
 48
50.0
100
AcDbMText
 10
6550.328663115983
 20
1895.270772197764
 30
0.0
 40
80.0
 41
0.8
 71
     4
 72
     1
  1
D13
  7
STYLE2
 73
     1
 44
1.0
1001
ACAD
1000
MTEXTBEGIN
1070
    73
1070
     1
1070
    44
1040
1.0
1070
    74
1070
     0
1000
MTEXTEND
  0
LINE
  5
26522
330
747D
100
AcDbEntity
  8
部品1
 48
50.0
100
AcDbLine
 10
6467.442726088589
 20
1872.714872904953
 30
0.0
 11
6467.442726088589
 21
1328.714872904953
 31
0.0
  0
LINE
  5
26523
330
747D
100
AcDbEntity
  8
部品1
 48
50.0
100
AcDbLine
 10
6275.44272608859
 20
1328.714872904953
 30
0.0
 11
6275.44272608859
 21
1872.714872904953
 31
0.0
  0
CIRCLE
  5
26524
330
747D
100
AcDbEntity
  8
部品1
 48
50.0
100
AcDbCircle
 10
6371.44272608859
 20
1732.969302299198
 30
0.0
 40
8.0
  0
ARC
  5
26525
330
747D
100
AcDbEntity
  8
部品1
 48
50.0
100
AcDbCircle
 10
6371.44272608859
 20
1732.969302299198
 30
0.0
 40
24.0
100
AcDbArc
 50
0.0
 51
180.0
  0
LINE
  5
26526
330
747D
100
AcDbEntity
  8
細線
 48
50.0
100
AcDbLine
 10
6395.44272608859
 20
1711.087765572784
 30
0.0
 11
6467.442726088589
 21
1783.087765572783
 31
0.0
  0
LEADER
  5
26527
330
747D
100
AcDbEntity
  8
寸法
 48
50.0
100
AcDbLeader
  3
INABA_S50G
 73
     0
 75
     1
 40
106.3636363636363
 41
893.1818181818181
 76
     3
 10
8106.882039265784
 20
1942.274872904954
 30
0.0
 10
8058.457966920844
 20
2316.334447621287
 30
0.0
 10
7933.457966920844
 20
2316.334447621287
 30
0.0
340
26528
1001
ACAD
1000
DSTYLE
1002
{
1070
   341
1005
0
1070
    40
1040
1.0
1070
   343
1005
0
1070
   344
1005
0
1002
}
  0
MTEXT
  5
26528
102
{ACAD_REACTORS
330
26527
102
}
330
747D
100
AcDbEntity
  8
寸法
 62
     7
 48
50.0
100
AcDbMText
 10
7908.457966920844
 20
2394.516265803105
 30
0.0
 40
80.0
 41
0.8
 71
     6
 72
     1
  1
\A1;アンカープレート L
  7
STYLE2
 73
     1
 44
1.0
1001
ACAD
1000
MTEXTBEGIN
1070
    73
1070
     1
1070
    44
1040
1.0
1070
    74
1070
     0
1000
MTEXTEND
  0
DIMENSION
  5
26529
330
747D
100
AcDbEntity
  8
寸法
 48
50.0
100
AcDbDimension
  2
*D43
 10
6595.442726088589
 20
550.285234899793
 30
0.0
 11
6351.345967410365
 21
550.285234899793
 31
0.0
 70
   160
  1
300
 71
     5
 42
448.0
  3
INABA_S40G
100
AcDbAlignedDimension
 13
6147.442726088589
 23
960.7148729049532
 33
0.0
 14
6595.442726088589
 24
960.7148729049532
 34
0.0
100
AcDbRotatedDimension
1001
ACAD
1000
DSTYLE
1002
{
1070
   341
1005
0
1002
}
  0
MTEXT
  5
2652A
102
{ACAD_REACTORS
330
26532
102
}
330
747D
100
AcDbEntity
  8
寸法
 62
     7
 48
50.0
100
AcDbMText
 10
5976.507699893395
 20
1005.192179286517
 30
0.0
 40
80.0
 41
0.8
 71
     6
 72
     1
  1
D10
  7
STYLE2
 73
     1
 44
1.0
1001
ACAD
1000
MTEXTBEGIN
1070
    73
1070
     1
1070
    44
1040
1.0
1070
    74
1070
     0
1000
MTEXTEND
  0
MTEXT
  5
2652B
102
{ACAD_REACTORS
330
26531
102
}
330
747D
100
AcDbEntity
  8
寸法
 62
     7
 48
50.0
100
AcDbMText
 10
6004.630427450829
 20
824.8760267470734
 30
0.0
 40
80.0
 41
0.8
 71
     6
 72
     1
  1
D13
  7
STYLE2
 73
     1
 44
1.0
1001
ACAD
1000
MTEXTBEGIN
1070
    73
1070
     1
1070
    44
1040
1.0
1070
    74
1070
     0
1000
MTEXTEND
  0
DIMENSION
  5
2652C
330
747D
100
AcDbEntity
  8
寸法
 48
50.0
100
AcDbDimension
  2
*D44
 10
5540.405487526848
 20
1088.714872904953
 30
0.0
 11
5540.405487526848
 21
1460.255022560954
 31
0.0
 70
   160
  1
540
 71
     5
 42
784.0
  3
INABA_S40G
100
AcDbAlignedDimension
 13
6275.442726088589
 23
1872.714872904953
 33
0.0
 14
6067.442726088592
 24
1088.714872904953
 34
0.0
 50
90.0
100
AcDbRotatedDimension
1001
ACAD
1000
DSTYLE
1002
{
1070
   341
1005
0
1002
}
  0
MTEXT
  5
2652D
102
{ACAD_REACTORS
330
2652E
102
}
330
747D
100
AcDbEntity
  8
寸法
 62
     7
 48
50.0
100
AcDbMText
 10
6055.344246605315
 20
2085.231092906996
 30
0.0
 40
80.0
 41
0.8
 71
     6
 72
     1
  1
\A1;金コテ押エ
  7
STYLE2
 73
     1
 44
1.0
1001
ACAD
1000
MTEXTBEGIN
1070
    73
1070
     1
1070
    44
1040
1.0
1070
    74
1070
     0
1000
MTEXTEND
  0
LEADER
  5
2652E
330
747D
100
AcDbEntity
  8
寸法
 48
50.0
100
AcDbLeader
  3
INABA_S50G
 71
     0
 73
     0
 75
     1
 40
130.1136363636363
 41
651.1363636363636
 76
     3
 10
6355.442726088589
 20
1872.714872904953
 30
0.0
 10
6243.018145924573
 20
2013.185638361541
 30
0.0
 10
6118.018145924573
 20
2013.185638361541
 30
0.0
1001
ACAD
1000
DSTYLE
1002
{
1070
    40
1040
1.0
1070
   272
1070
     1
1070
   279
1070
     1
1070
   341
1005
0
1002
}
  0
LEADER
  5
2652F
330
747D
100
AcDbEntity
  8
寸法
 48
50.0
100
AcDbLeader
  3
INABA_S50G
 71
     0
 73
     0
 75
     1
 40
100.0
 41
540.3409090909091
 76
     3
 10
6379.442726088589
 20
1630.842087602076
 30
0.0
 10
6321.46048955989
 20
1409.371759061271
 30
0.0
 10
6196.46048955989
 20
1409.371759061271
 30
0.0
213
-9.732182305893367
223
-4.643716661138569
233
0.0
1001
ACAD
1000
DSTYLE
1002
{
1070
    40
1040
1.0
1070
   272
1070
     1
1070
   279
1070
     1
1070
   341
1005
0
1002
}
  0
MTEXT
  5
26530
102
{ACAD_REACTORS
330
2652F
102
}
330
747D
100
AcDbEntity
  8
寸法
 62
     7
 48
50.0
100
AcDbMText
 10
6186.192671865784
 20
1474.01547572241
 30
0.0
 40
80.0
 41
0.8
 71
     6
 72
     1
  1
\A1;D10@300
  7
STYLE2
 73
     1
 44
1.0
1001
ACAD
1000
MTEXTBEGIN
1070
    73
1070
     1
1070
    44
1040
1.0
1070
    74
1070
     0
1000
MTEXTEND
  0
LEADER
  5
26531
330
747D
100
AcDbEntity
  8
寸法
 48
50.0
100
AcDbLeader
  3
INABA_S50G
 71
     0
 73
     0
 75
     1
 40
100.0
 41
222.7272727272727
 76
     3
 10
6371.442726088589
 20
1208.714872904953
 30
0.0
 10
6149.63042745083
 20
764.8760267470734
 30
0.0
 10
6024.63042745083
 20
764.8760267470734
 30
0.0
1001
ACAD
1000
DSTYLE
1002
{
1070
    40
1040
1.0
1070
   272
1070
     1
1070
   279
1070
     1
1070
   341
1005
0
1002
}
  0
LEADER
  5
26532
330
747D
100
AcDbEntity
  8
寸法
 48
50.0
100
AcDbLeader
  3
INABA_S50G
 71
     0
 73
     0
 75
     1
 40
100.0
 41
225.0
 76
     3
 10
6243.345678440732
 20
1208.714872904953
 30
0.0
 10
6121.507699893395
 20
945.1921792865169
 30
0.0
 10
5996.507699893395
 20
945.1921792865169
 30
0.0
1001
ACAD
1000
DSTYLE
1002
{
1070
    40
1040
1.0
1070
   272
1070
     1
1070
   279
1070
     1
1070
   341
1005
0
1002
}
  0
DIMENSION
  5
26533
330
747D
100
AcDbEntity
  8
寸法
 48
50.0
100
AcDbDimension
  2
*D45
 10
6005.022412356129
 20
1088.714872904953
 30
0.0
 11
6005.022412356129
 21
1208.714872904954
 31
0.0
 70
   160
  1
150
 71
     5
 42
240.0
  3
INABA_S40G
100
AcDbAlignedDimension
 13
6147.442726088589
 23
1328.714872904953
 33
0.0
 14
6067.442726088592
 24
1088.714872904953
 34
0.0
 50
90.0
100
AcDbRotatedDimension
1001
ACAD
1000
DSTYLE
1002
{
1070
   341
1005
0
1002
}
  0
TEXT
  5
26534
330
747D
100
AcDbEntity
  8
部品1
 48
50.0
100
AcDbText
 10
5861.302824255631
 20
1643.953865188208
 30
0.0
 40
80.0
  1
▽G.L
  7
STYLE2
100
AcDbText
  0
LWPOLYLINE
  5
26535
330
747D
100
AcDbEntity
  8
部品1
 48
50.0
100
AcDbPolyline
 90
        2
 70
     0
 43
8.0
 10
5861.302824255631
 20
1632.714872904954
 10
6275.442726088589
 20
1632.714872904954
  0
MTEXT
  5
26536
102
{ACAD_REACTORS
330
26537
102
}
330
747D
100
AcDbEntity
  8
寸法
 62
     7
 48
50.0
100
AcDbMText
 10
7881.814960712485
 20
2755.200537710619
 30
0.0
 40
80.0
 41
0.8
 71
     6
 72
     1
  1
\A1;φ70スリーブ
  7
STYLE2
 73
     1
 44
1.0
1001
ACAD
1000
MTEXTBEGIN
1070
    73
1070
     1
1070
    44
1040
1.0
1070
    74
1070
     0
1000
MTEXTEND
  0
LEADER
  5
26537
330
747D
100
AcDbEntity
  8
寸法
 48
50.0
100
AcDbLeader
  3
INABA_S50G
 73
     0
 75
     1
 40
113.1818181818182
 41
608.6363636363635
 76
     3
 10
8165.618789403835
 20
1822.230546263232
 30
0.0
 10
8031.814960712486
 20
2673.60962861971
 30
0.0
 10
7906.814960712485
 20
2673.60962861971
 30
0.0
340
26536
1001
ACAD
1000
DSTYLE
1002
{
1070
   341
1005
0
1070
    40
1040
1.0
1070
   343
1005
0
1070
   344
1005
0
1002
}
  0
LINE
  5
26538
330
747D
100
AcDbEntity
  8
部品1
100
AcDbLine
 10
5204.774287279327
 20
3272.053540105539
 30
0.0
 11
5204.774287279327
 21
307.7465705208915
 31
0.0
  0
LEADER
  5
26539
330
747D
100
AcDbEntity
  8
寸法
 48
50.0
100
AcDbLeader
  3
INABA_S50G
 73
     0
 74
     0
 75
     1
 40
80.0
 41
435.0
 76
     3
 10
8205.882039265784
 20
1921.874872904954
 30
0.0
 10
8248.426501685102
 20
2072.098199058183
 30
0.0
 10
8373.426501685102
 20
2072.098199058183
 30
0.0
340
2653A
1001
ACAD
1000
DSTYLE
1002
{
1070
   341
1005
0
1070
    40
1040
1.0
1070
   343
1005
0
1070
   344
1005
0
1002
}
  0
MTEXT
  5
2653A
102
{ACAD_REACTORS
330
26539
102
}
330
747D
100
AcDbEntity
  8
部品1
 62
     7
 48
50.0
100
AcDbMText
 10
8398.426501685102
 20
2137.098199058183
 30
0.0
 40
80.0
 41
0.8
 71
     4
 72
     1
  1
M10X160
  7
STYLE2
 73
     1
 44
1.0
1001
ACAD
1000
MTEXTBEGIN
1070
    73
1070
     1
1070
    44
1040
1.0
1070
    74
1070
     0
1000
MTEXTEND
  0
DIMENSION
  5
2653B
330
747D
100
AcDbEntity
  8
寸法
 48
50.0
100
AcDbDimension
  2
*D46
 10
9167.405305153655
 20
1872.714872904953
 30
0.0
 11
9167.405305153655
 21
1406.705969483471
 31
0.0
 70
   160
  1
20～25
 71
     5
 42
52.76000000000113
  3
INABA_S40G
100
AcDbAlignedDimension
 13
8202.282039265783
 23
1925.474872904954
 33
0.0
 14
8389.482039265782
 24
1872.714872904953
 34
0.0
 50
90.0
100
AcDbRotatedDimension
1001
ACAD
1000
DSTYLE
1002
{
1070
   341
1005
0
1002
}
  0
DIMENSION
  5
2653C
330
747D
100
AcDbEntity
  8
寸法
 48
50.0
100
AcDbDimension
  2
*D47
 10
8891.350639034627
 20
1548.714872904952
 30
0.0
 11
8791.350639034627
 21
1710.714872904954
 31
0.0
 70
    32
  1
180
 71
     5
 42
324.0000000000009
  3
INABA_S40G
100
AcDbAlignedDimension
 13
8389.482039265782
 23
1872.714872904953
 33
0.0
 14
8389.482039265782
 24
1548.714872904952
 34
0.0
 50
90.0
100
AcDbRotatedDimension
1001
ACAD
1000
DSTYLE
1002
{
1070
   341
1005
0
1002
}
  0
TEXT
  5
2653D
330
747D
100
AcDbEntity
  8
部品1
 48
50.0
100
AcDbText
 10
8393.835623550211
 20
2228.593553667153
 30
0.0
 40
80.0
  1
基礎ボルト(市販品)
  7
STYLE2
100
AcDbText
  0
LWPOLYLINE
  5
2653E
330
747D
100
AcDbEntity
  8
部品1
 48
50.0
100
AcDbPolyline
 90
        2
 70
     0
 43
8.0
 10
8389.482039265782
 20
1632.714872904954
 10
8683.184502665167
 20
1632.714872904954
  0
MTEXT
  5
2653F
102
{ACAD_REACTORS
330
26540
102
}
330
747D
100
AcDbEntity
  8
部品1
 62
     7
 48
50.0
100
AcDbMText
 10
8428.753629634623
 20
2573.210245992214
 30
0.0
 40
80.0
 41
0.8
 71
     4
 72
     1
  1
\A1;ワッシャー(市販品)
  7
STYLE2
 73
     1
 44
1.0
1001
ACAD
1000
MTEXTBEGIN
1070
    73
1070
     1
1070
    44
1040
1.0
1070
    74
1070
     0
1000
MTEXTEND
  0
LEADER
  5
26540
330
747D
100
AcDbEntity
  8
寸法
 48
50.0
100
AcDbLeader
  3
INABA_S50G
 73
     0
 74
     0
 75
     1
 40
102.2727272727273
 41
906.8181818181818
 76
     3
 10
8236.882039265784
 20
2141.838161349233
 30
0.0
 10
8278.753629634623
 20
2497.07388235585
 30
0.0
 10
8403.753629634623
 20
2497.07388235585
 30
0.0
340
2653F
1001
ACAD
1000
DSTYLE
1002
{
1070
   341
1005
0
1070
    40
1040
1.0
1070
   343
1005
0
1070
   344
1005
0
1002
}
  0
MTEXT
  5
26541
102
{ACAD_REACTORS
330
26542
102
}
330
747D
100
AcDbEntity
  8
部品1
 62
     7
 48
50.0
100
AcDbMText
 10
8397.23601037914
 20
2758.179328757001
 30
0.0
 40
80.0
 41
0.8
 71
     4
 72
     1
  1
\A1;ナット(市販品)
  7
STYLE2
 73
     1
 44
1.0
1001
ACAD
1000
MTEXTBEGIN
1070
    73
1070
     1
1070
    44
1040
1.0
1070
    74
1070
     0
1000
MTEXTEND
  0
LEADER
  5
26542
330
747D
100
AcDbEntity
  8
寸法
 48
50.0
100
AcDbLeader
  3
INABA_S50G
 73
     0
 74
     0
 75
     1
 40
102.2727272727273
 41
680.0000000000001
 76
     3
 10
8212.882039265783
 20
2271.590154014096
 30
0.0
 10
8247.23601037914
 20
2682.042965120637
 30
0.0
 10
8372.23601037914
 20
2682.042965120637
 30
0.0
340
26541
1001
ACAD
1000
DSTYLE
1002
{
1070
   341
1005
0
1070
    40
1040
1.0
1070
   343
1005
0
1070
   344
1005
0
1002
}
  0
LINE
  5
26543
330
747D
100
AcDbEntity
  8
部品1
100
AcDbLine
 10
5204.77428727933
 20
307.7465705208915
 30
0.0
 11
11275.75947266557
 21
307.7465705208915
 31
0.0
  0
LINE
  5
26544
330
747D
100
AcDbEntity
  8
部品1
100
AcDbLine
 10
11275.75947266557
 20
3032.053540105537
 30
0.0
 11
5204.774287279327
 21
3032.053540105537
 31
0.0
  0
LINE
  5
26545
330
747D
100
AcDbEntity
  8
部品1
100
AcDbLine
 10
11275.75947266558
 20
3272.053540105539
 30
0.0
 11
5204.774287279324
 21
3272.053540105539
 31
0.0
  0
ENDSEC
  0
SECTION
  2
OBJECTS
  0
DICTIONARY
  5
7471
330
0
100
AcDbDictionary
281
     1
  3
ACAD_COLOR
350
173D2
  3
ACAD_GROUP
350
7472
  3
ACAD_LAYOUT
350
173D3
  3
ACAD_MATERIAL
350
173D1
  3
ACAD_MLINESTYLE
350
7473
  3
ACAD_PLOTSETTINGS
350
173D4
  3
ACAD_PLOTSTYLENAME
350
173CF
  3
ACDBHEADERROUNDTRIPXREC
350
266C4
  3
AcDbVariableDictionary
350
25E2A
  3
CONTENTDICTIONARY
350
E71C
  3
DRAWINGVARIABLESDICT
350
F3B9
  0
DICTIONARY
  5
1758F
330
7467
100
AcDbDictionary
280
     1
281
     1
  3
ACAD_LAYERSTATES
360
17590
  0
DICTIONARY
  5
173D2
102
{ACAD_REACTORS
330
7471
102
}
330
7471
100
AcDbDictionary
281
     1
  0
DICTIONARY
  5
7472
102
{ACAD_REACTORS
330
7471
102
}
330
7471
100
AcDbDictionary
281
     1
  3
*A1
350
1D2A9
  0
DICTIONARY
  5
173D3
102
{ACAD_REACTORS
330
7471
102
}
330
7471
100
AcDbDictionary
281
     1
  3
Model
350
173D5
  3
レイアウト1
350
173D6
  0
DICTIONARY
  5
173D1
102
{ACAD_REACTORS
330
7471
102
}
330
7471
100
AcDbDictionary
281
     1
  0
DICTIONARY
  5
7473
102
{ACAD_REACTORS
330
7471
102
}
330
7471
100
AcDbDictionary
281
     1
  3
STANDARD
350
7480
  0
DICTIONARY
  5
173D4
102
{ACAD_REACTORS
330
7471
102
}
330
7471
100
AcDbDictionary
281
     1
  0
ACDBDICTIONARYWDFLT
  5
173CF
102
{ACAD_REACTORS
330
7471
102
}
330
7471
100
AcDbDictionary
281
     1
  3
Normal
350
173D0
100
AcDbDictionaryWithDefault
340
173D0
  0
DICTIONARY
  5
266C4
102
{ACAD_REACTORS
330
7471
102
}
330
7471
100
AcDbDictionary
281
     1
  3
COLORDICT
350
266C6
  3
MATERIALDICT
350
266C5
  0
DICTIONARY
  5
25E2A
102
{ACAD_REACTORS
330
7471
102
}
330
7471
100
AcDbDictionary
281
     1
  3
DIMASSOC
350
25E2B
  3
PROJECTNAME
350
25E2C
  0
DICTIONARY
  5
E71C
102
{ACAD_REACTORS
330
7471
102
}
330
7471
100
AcDbDictionary
281
     1
  0
DICTIONARY
  5
F3B9
102
{ACAD_REACTORS
330
7471
102
}
330
7471
100
AcDbDictionary
281
     1
1001
DRAWINGVARIABLESXDATA
1000
POLARMODE
1000
1
  0
DICTIONARY
  5
17590
102
{ACAD_REACTORS
330
1758F
102
}
330
1758F
100
AcDbDictionary
281
     1
  0
GROUP
  5
1D2A9
102
{ACAD_REACTORS
330
7472
102
}
330
7472
100
AcDbGroup
300

 70
     1
 71
     1
  0
LAYOUT
  5
173D5
102
{ACAD_XDICTIONARY
360
266C7
102
}
102
{ACAD_REACTORS
330
173D3
102
}
330
173D3
100
AcDbPlotSettings
  1

  2
クセロPDFよこ.pc3
  4
A3
  6

 40
3.174999952316284
 41
3.174999952316284
 42
3.17498779296875
 43
3.17498779296875
 44
419.9466552734374
 45
296.9259948730469
 46
0.0
 47
0.0
 48
0.0
 49
0.0
140
0.0
141
0.0
142
1.0
143
40.0
 70
 11952
 72
     1
 73
     0
 74
     2
  7
ACA3.ctb
 75
    24
147
0.025
148
0.0
149
0.0
100
AcDbLayout
  1
Model
 70
     1
 71
     0
 10
0.0
 20
0.0
 11
12.0
 21
9.0
 12
0.0
 22
0.0
 32
0.0
 14
0.0
 24
0.0
 34
0.0
 15
0.0
 25
0.0
 35
0.0
146
0.0
 13
0.0
 23
0.0
 33
0.0
 16
1.0
 26
0.0
 36
0.0
 17
0.0
 27
1.0
 37
0.0
 76
     0
330
747D
  0
LAYOUT
  5
173D6
102
{ACAD_XDICTIONARY
360
266C9
102
}
102
{ACAD_REACTORS
330
173D3
102
}
330
173D3
100
AcDbPlotSettings
  1

  2
Microsoft Office Document Image Writer
  4

  6

 40
0.0
 41
0.0
 42
0.0
 43
0.0
 44
0.0
 45
0.0
 46
0.0
 47
0.0
 48
0.0
 49
0.0
140
0.0
141
0.0
142
1.0
143
1.0
 70
   688
 72
     0
 73
     0
 74
     5
  7
ACA3.ctb
 75
    16
147
1.0
148
0.0
149
0.0
100
AcDbLayout
  1
レイアウト1
 70
     0
 71
     1
 10
0.0
 20
0.0
 11
420.0
 21
297.0
 12
0.0
 22
0.0
 32
0.0
 14
1.000000000000000E+20
 24
1.000000000000000E+20
 34
1.000000000000000E+20
 15
-1.000000000000000E+20
 25
-1.000000000000000E+20
 35
-1.000000000000000E+20
146
0.0
 13
0.0
 23
0.0
 33
0.0
 16
1.0
 26
0.0
 36
0.0
 17
0.0
 27
1.0
 37
0.0
 76
     0
330
747A
  0
MLINESTYLE
  5
7480
102
{ACAD_REACTORS
330
7473
102
}
330
7473
100
AcDbMlineStyle
  2
STANDARD
 70
     0
  3

 62
     0
 51
90.0
 52
90.0
 71
     2
 49
0.5
 62
   256
  6
BYLAYER
 49
-0.5
 62
   256
  6
BYLAYER
  0
ACDBPLACEHOLDER
  5
173D0
102
{ACAD_REACTORS
330
173CF
102
}
330
173CF
  0
XRECORD
  5
266C6
102
{ACAD_REACTORS
330
266C4
102
}
330
266C4
100
AcDbXrecord
280
     1
340
173D2
  0
XRECORD
  5
266C5
102
{ACAD_REACTORS
330
266C4
102
}
330
266C4
100
AcDbXrecord
280
     1
340
173D1
  0
DICTIONARYVAR
  5
25E2B
102
{ACAD_REACTORS
330
25E2A
102
}
330
25E2A
100
DictionaryVariables
280
     0
  1
1
  0
DICTIONARYVAR
  5
25E2C
102
{ACAD_REACTORS
330
25E2A
102
}
330
25E2A
100
DictionaryVariables
280
     0
  1

  0
DICTIONARY
  5
266C7
330
173D5
100
AcDbDictionary
280
     1
281
     1
  3
ACAD_XREC_ROUNDTRIP
360
266C8
  0
DICTIONARY
  5
266C9
330
173D6
100
AcDbDictionary
280
     1
281
     1
  3
ACAD_XREC_ROUNDTRIP
360
266CA
  0
XRECORD
  5
266C8
102
{ACAD_REACTORS
330
266C7
102
}
330
266C7
100
AcDbXrecord
280
     1
102
SHADEPLOT
 70
     0
102
SHADEPLOTRESLEVEL
 70
     2
102
SHADEPLOTCUSTOMDPI
 70
   150
  0
XRECORD
  5
266CA
102
{ACAD_REACTORS
330
266C9
102
}
330
266C9
100
AcDbXrecord
280
     1
102
SHADEPLOT
 70
     0
102
SHADEPLOTRESLEVEL
 70
     2
102
SHADEPLOTCUSTOMDPI
 70
   300
  0
ENDSEC
  0
EOF
