  0
SECTION
  2
HEADER
  9
$ACADVER
  1
AC1015
  9
$ACADMAINTVER
 70
    20
  9
$DWGCODEPAGE
  3
ANSI_932
  9
$INSBASE
 10
0.0
 20
0.0
 30
0.0
  9
$EXTMIN
 10
139.9999999999995
 20
-0.0000000000000909
 30
0.0
  9
$EXTMAX
 10
16307.2
 20
11409.6
 30
0.0
  9
$LIMMIN
 10
0.0
 20
0.0
  9
$LIMMAX
 10
16800.0
 20
11880.0
  9
$ORTHOMODE
 70
     0
  9
$REGENMODE
 70
     1
  9
$FILLMODE
 70
     1
  9
$QTEXTMODE
 70
     0
  9
$MIRRTEXT
 70
     1
  9
$LTSCALE
 40
20.0
  9
$ATTMODE
 70
     1
  9
$TEXTSIZE
 40
4.0
  9
$TRACEWID
 40
1.0
  9
$TEXTSTYLE
  7
STYLE1
  9
$CLAYER
  8
寸法
  9
$CELTYPE
  6
BYLAYER
  9
$CECOLOR
 62
   256
  9
$CELTSCALE
 40
50.0
  9
$DISPSILH
 70
     0
  9
$DIMSCALE
 40
40.0
  9
$DIMASZ
 40
2.5
  9
$DIMEXO
 40
0.5
  9
$DIMDLI
 40
7.0
  9
$DIMRND
 40
0.0
  9
$DIMDLE
 40
0.0
  9
$DIMEXE
 40
1.5
  9
$DIMTP
 40
0.0
  9
$DIMTM
 40
0.0
  9
$DIMTXT
 40
3.0
  9
$DIMCEN
 40
0.0
  9
$DIMTSZ
 40
0.0
  9
$DIMTOL
 70
     0
  9
$DIMLIM
 70
     0
  9
$DIMTIH
 70
     0
  9
$DIMTOH
 70
     0
  9
$DIMSE1
 70
     0
  9
$DIMSE2
 70
     0
  9
$DIMTAD
 70
     3
  9
$DIMZIN
 70
     8
  9
$DIMBLK
  1

  9
$DIMASO
 70
     1
  9
$DIMSHO
 70
     1
  9
$DIMPOST
  1

  9
$DIMAPOST
  1

  9
$DIMALT
 70
     0
  9
$DIMALTD
 70
     2
  9
$DIMALTF
 40
0.0394
  9
$DIMLFAC
 40
1.0
  9
$DIMTOFL
 70
     1
  9
$DIMTVP
 40
0.0
  9
$DIMTIX
 70
     1
  9
$DIMSOXD
 70
     0
  9
$DIMSAH
 70
     1
  9
$DIMBLK1
  1
DOTSMALL
  9
$DIMBLK2
  1
DOTSMALL
  9
$DIMSTYLE
  2
INABA_S40G
  9
$DIMCLRD
 70
     0
  9
$DIMCLRE
 70
     0
  9
$DIMCLRT
 70
     7
  9
$DIMTFAC
 40
1.0
  9
$DIMGAP
 40
1.0
  9
$DIMJUST
 70
     0
  9
$DIMSD1
 70
     0
  9
$DIMSD2
 70
     0
  9
$DIMTOLJ
 70
     1
  9
$DIMTZIN
 70
     0
  9
$DIMALTZ
 70
     0
  9
$DIMALTTZ
 70
     0
  9
$DIMUPT
 70
     0
  9
$DIMDEC
 70
     1
  9
$DIMTDEC
 70
     4
  9
$DIMALTU
 70
     2
  9
$DIMALTTD
 70
     2
  9
$DIMTXSTY
  7
STYLE1
  9
$DIMAUNIT
 70
     0
  9
$DIMADEC
 70
     0
  9
$DIMALTRND
 40
0.0
  9
$DIMAZIN
 70
     0
  9
$DIMDSEP
 70
    46
  9
$DIMATFIT
 70
     3
  9
$DIMFRAC
 70
     0
  9
$DIMLDRBLK
  1

  9
$DIMLUNIT
 70
     2
  9
$DIMLWD
 70
    -2
  9
$DIMLWE
 70
    -2
  9
$DIMTMOVE
 70
     0
  9
$LUNITS
 70
     2
  9
$LUPREC
 70
     1
  9
$SKETCHINC
 40
1.0
  9
$FILLETRAD
 40
3.0
  9
$AUNITS
 70
     0
  9
$AUPREC
 70
     0
  9
$MENU
  1
acad
  9
$ELEVATION
 40
0.0
  9
$PELEVATION
 40
0.0
  9
$THICKNESS
 40
0.0
  9
$LIMCHECK
 70
     0
  9
$CHAMFERA
 40
0.0
  9
$CHAMFERB
 40
0.0
  9
$CHAMFERC
 40
0.0
  9
$CHAMFERD
 40
0.0
  9
$SKPOLY
 70
     0
  9
$TDCREATE
 40
2451368.612993866
  9
$TDUCREATE
 40
2451368.237993866
  9
$TDUPDATE
 40
2455827.641058808
  9
$TDUUPDATE
 40
2455827.266058808
  9
$TDINDWG
 40
0.8356451968
  9
$TDUSRTIMER
 40
0.8356451968
  9
$USRTIMER
 70
     1
  9
$ANGBASE
 50
0.0
  9
$ANGDIR
 70
     0
  9
$PDMODE
 70
     3
  9
$PDSIZE
 40
2.0
  9
$PLINEWID
 40
0.0
  9
$SPLFRAME
 70
     0
  9
$SPLINETYPE
 70
     6
  9
$SPLINESEGS
 70
     8
  9
$HANDSEED
  5
2599C
  9
$SURFTAB1
 70
     6
  9
$SURFTAB2
 70
     6
  9
$SURFTYPE
 70
     6
  9
$SURFU
 70
     6
  9
$SURFV
 70
     6
  9
$UCSBASE
  2

  9
$UCSNAME
  2

  9
$UCSORG
 10
0.0
 20
0.0
 30
0.0
  9
$UCSXDIR
 10
1.0
 20
0.0
 30
0.0
  9
$UCSYDIR
 10
0.0
 20
1.0
 30
0.0
  9
$UCSORTHOREF
  2

  9
$UCSORTHOVIEW
 70
     0
  9
$UCSORGTOP
 10
0.0
 20
0.0
 30
0.0
  9
$UCSORGBOTTOM
 10
0.0
 20
0.0
 30
0.0
  9
$UCSORGLEFT
 10
0.0
 20
0.0
 30
0.0
  9
$UCSORGRIGHT
 10
0.0
 20
0.0
 30
0.0
  9
$UCSORGFRONT
 10
0.0
 20
0.0
 30
0.0
  9
$UCSORGBACK
 10
0.0
 20
0.0
 30
0.0
  9
$PUCSBASE
  2

  9
$PUCSNAME
  2

  9
$PUCSORG
 10
0.0
 20
0.0
 30
0.0
  9
$PUCSXDIR
 10
1.0
 20
0.0
 30
0.0
  9
$PUCSYDIR
 10
0.0
 20
1.0
 30
0.0
  9
$PUCSORTHOREF
  2

  9
$PUCSORTHOVIEW
 70
     0
  9
$PUCSORGTOP
 10
0.0
 20
0.0
 30
0.0
  9
$PUCSORGBOTTOM
 10
0.0
 20
0.0
 30
0.0
  9
$PUCSORGLEFT
 10
0.0
 20
0.0
 30
0.0
  9
$PUCSORGRIGHT
 10
0.0
 20
0.0
 30
0.0
  9
$PUCSORGFRONT
 10
0.0
 20
0.0
 30
0.0
  9
$PUCSORGBACK
 10
0.0
 20
0.0
 30
0.0
  9
$USERI1
 70
     0
  9
$USERI2
 70
     0
  9
$USERI3
 70
     0
  9
$USERI4
 70
     0
  9
$USERI5
 70
     0
  9
$USERR1
 40
0.0
  9
$USERR2
 40
0.0
  9
$USERR3
 40
0.0
  9
$USERR4
 40
0.0
  9
$USERR5
 40
0.0
  9
$WORLDVIEW
 70
     1
  9
$SHADEDGE
 70
     3
  9
$SHADEDIF
 70
    70
  9
$TILEMODE
 70
     1
  9
$MAXACTVP
 70
    16
  9
$PINSBASE
 10
0.0
 20
0.0
 30
0.0
  9
$PLIMCHECK
 70
     0
  9
$PEXTMIN
 10
1.000000000000000E+20
 20
1.000000000000000E+20
 30
1.000000000000000E+20
  9
$PEXTMAX
 10
-1.000000000000000E+20
 20
-1.000000000000000E+20
 30
-1.000000000000000E+20
  9
$PLIMMIN
 10
0.0
 20
0.0
  9
$PLIMMAX
 10
420.0
 20
297.0
  9
$UNITMODE
 70
     0
  9
$VISRETAIN
 70
     0
  9
$PLINEGEN
 70
     0
  9
$PSLTSCALE
 70
     0
  9
$TREEDEPTH
 70
  3020
  9
$CMLSTYLE
  2
STANDARD
  9
$CMLJUST
 70
     0
  9
$CMLSCALE
 40
1.0
  9
$PROXYGRAPHICS
 70
     1
  9
$MEASUREMENT
 70
     1
  9
$CELWEIGHT
370
    -1
  9
$ENDCAPS
280
     0
  9
$JOINSTYLE
280
     0
  9
$LWDISPLAY
290
     0
  9
$INSUNITS
 70
     0
  9
$HYPERLINKBASE
  1

  9
$STYLESHEET
  1

  9
$XEDIT
290
     1
  9
$CEPSNTYPE
380
     0
  9
$PSTYLEMODE
290
     1
  9
$FINGERPRINTGUID
  2
{5EAC461A-2277-4BF8-9AB0-99C43BB394F0}
  9
$VERSIONGUID
  2
{58E8EA09-022A-4C70-A5CE-F505581DC48B}
  9
$EXTNAMES
290
     1
  9
$PSVPSCALE
 40
0.0
  9
$OLESTARTUP
290
     0
  0
ENDSEC
  0
SECTION
  2
CLASSES
  0
CLASS
  1
ACDBDICTIONARYWDFLT
  2
AcDbDictionaryWithDefault
  3
ObjectDBX Classes
 90
        0
280
     0
281
     0
  0
CLASS
  1
DICTIONARYVAR
  2
AcDbDictionaryVar
  3
ObjectDBX Classes
 90
        0
280
     0
281
     0
  0
CLASS
  1
ACDBPLACEHOLDER
  2
AcDbPlaceHolder
  3
ObjectDBX Classes
 90
        0
280
     0
281
     0
  0
CLASS
  1
LAYOUT
  2
AcDbLayout
  3
ObjectDBX Classes
 90
        0
280
     0
281
     0
  0
ENDSEC
  0
SECTION
  2
TABLES
  0
TABLE
  2
VPORT
  5
746D
330
0
100
AcDbSymbolTable
 70
     2
  0
VPORT
  5
25994
330
746D
100
AcDbSymbolTableRecord
100
AcDbViewportTableRecord
  2
*Active
 70
     0
 10
0.0
 20
0.0
 11
1.0
 21
1.0
 12
8400.000000000002
 22
6532.467989526317
 13
0.0
 23
0.0
 14
10.0
 24
10.0
 15
10.0
 25
10.0
 16
0.0
 26
0.0
 36
1.0
 17
0.0
 27
0.0
 37
0.0
 40
13159.96111582214
 41
1.522222222222222
 42
50.0
 43
0.0
 44
0.0
 50
0.0
 51
0.0
 71
     0
 72
     0
 73
     1
 74
     0
 75
     0
 76
     0
 77
     0
 78
     0
281
     0
 65
     1
110
0.0
120
0.0
130
0.0
111
1.0
121
0.0
131
0.0
112
0.0
122
1.0
132
0.0
 79
     0
146
0.0
  0
ENDTAB
  0
TABLE
  2
LTYPE
  5
746A
330
0
100
AcDbSymbolTable
 70
     5
  0
LTYPE
  5
7477
330
746A
100
AcDbSymbolTableRecord
100
AcDbLinetypeTableRecord
  2
BYBLOCK
 70
     0
  3

 72
    65
 73
     0
 40
0.0
  0
LTYPE
  5
7478
330
746A
100
AcDbSymbolTableRecord
100
AcDbLinetypeTableRecord
  2
BYLAYER
 70
     0
  3

 72
    65
 73
     0
 40
0.0
  0
LTYPE
  5
7479
330
746A
100
AcDbSymbolTableRecord
100
AcDbLinetypeTableRecord
  2
CONTINUOUS
 70
     0
  3
Solid line
 72
    65
 73
     0
 40
0.0
  0
LTYPE
  5
7816
330
746A
100
AcDbSymbolTableRecord
100
AcDbLinetypeTableRecord
  2
CENTER
 70
     0
  3
____ _ ____ _ ____ _ ____ _ ____ _ ____ _ ____ 
 72
    65
 73
     4
 40
2.0
 49
1.25
 74
     0
 49
-0.25
 74
     0
 49
0.25
 74
     0
 49
-0.25
 74
     0
  0
LTYPE
  5
781A
330
746A
100
AcDbSymbolTableRecord
100
AcDbLinetypeTableRecord
  2
HIDDEN
 70
     0
  3
__ __ __ __ __ __ __ __ __ __ __ __ __ __ __ __
 72
    65
 73
     2
 40
0.375
 49
0.25
 74
     0
 49
-0.125
 74
     0
  0
LTYPE
  5
781B
330
746A
100
AcDbSymbolTableRecord
100
AcDbLinetypeTableRecord
  2
PHANTOM
 70
     0
  3
______  __  __  ______  __  __  ______  __  __ 
 72
    65
 73
     6
 40
2.5
 49
1.25
 74
     0
 49
-0.25
 74
     0
 49
0.25
 74
     0
 49
-0.25
 74
     0
 49
0.25
 74
     0
 49
-0.25
 74
     0
  0
LTYPE
  5
12CC3
330
746A
100
AcDbSymbolTableRecord
100
AcDbLinetypeTableRecord
  2
HIDDENX2
 70
     0
  3
Hidden (2x) ____ ____ ____ ____ ____ ____ ____
 72
    65
 73
     2
 40
19.05
 49
12.7
 74
     0
 49
-6.349999999999999
 74
     0
  0
ENDTAB
  0
TABLE
  2
LAYER
  5
7467
102
{ACAD_XDICTIONARY
360
1758F
102
}
330
0
100
AcDbSymbolTable
 70
    12
  0
LAYER
  5
7474
330
7467
100
AcDbSymbolTableRecord
100
AcDbLayerTableRecord
  2
0
 70
     0
 62
     7
  6
CONTINUOUS
370
    -3
390
173D0
  0
LAYER
  5
DEB2
330
7467
100
AcDbSymbolTableRecord
100
AcDbLayerTableRecord
  2
センター
 70
     0
 62
     3
  6
CENTER
370
    -3
390
173D0
  0
LAYER
  5
DEB3
330
7467
100
AcDbSymbolTableRecord
100
AcDbLayerTableRecord
  2
寸法
 70
     0
 62
     4
  6
CONTINUOUS
370
    -3
390
173D0
  0
LAYER
  5
DEB4
330
7467
100
AcDbSymbolTableRecord
100
AcDbLayerTableRecord
  2
部品1
 70
     0
 62
     7
  6
CONTINUOUS
370
    -3
390
173D0
  0
LAYER
  5
DEB5
330
7467
100
AcDbSymbolTableRecord
100
AcDbLayerTableRecord
  2
補助
 70
     0
 62
    -1
  6
CONTINUOUS
370
    -3
390
173D0
  0
LAYER
  5
DEB6
330
7467
100
AcDbSymbolTableRecord
100
AcDbLayerTableRecord
  2
文字
 70
     0
 62
     7
  6
CONTINUOUS
370
    -3
390
173D0
  0
LAYER
  5
F255
330
7467
100
AcDbSymbolTableRecord
100
AcDbLayerTableRecord
  2
DEFPOINTS
 70
     0
 62
     7
  6
CONTINUOUS
290
     0
370
    -3
390
173D0
  0
LAYER
  5
10B54
330
7467
100
AcDbSymbolTableRecord
100
AcDbLayerTableRecord
  2
仕様書枠
 70
     0
 62
   230
  6
CONTINUOUS
370
    -3
390
173D0
  0
LAYER
  5
11729
330
7467
100
AcDbSymbolTableRecord
100
AcDbLayerTableRecord
  2
Ｇ．Ｌ
 70
     0
 62
    30
  6
CONTINUOUS
370
    -3
390
173D0
  0
LAYER
  5
1173F
330
7467
100
AcDbSymbolTableRecord
100
AcDbLayerTableRecord
  2
細線
 70
     0
 62
     5
  6
CONTINUOUS
370
    -3
390
173D0
  0
LAYER
  5
12CC4
330
7467
100
AcDbSymbolTableRecord
100
AcDbLayerTableRecord
  2
想像線
 70
     0
 62
     6
  6
PHANTOM
370
    -3
390
173D0
  0
LAYER
  5
142E2
330
7467
100
AcDbSymbolTableRecord
100
AcDbLayerTableRecord
  2
破線
 70
     0
 62
     2
  6
HIDDEN
370
    -3
390
173D0
  0
ENDTAB
  0
TABLE
  2
STYLE
  5
7468
330
0
100
AcDbSymbolTable
 70
     7
  0
STYLE
  5
7475
330
7468
100
AcDbSymbolTableRecord
100
AcDbTextStyleTableRecord
  2
STANDARD
 70
     0
 40
0.0
 41
1.0
 50
0.0
 71
     0
 42
4.0
  3
txt
  4
C:\AutoCAD LT\bigfont.shx
  0
STYLE
  5
763C
330
7468
100
AcDbSymbolTableRecord
100
AcDbTextStyleTableRecord
  2
MSMINCHO
 70
     0
 40
0.0
 41
1.0
 50
0.0
 71
     0
 42
1.199999999999999
  3
C:\AutoCAD LT\msminch2.TTF
  4

  0
STYLE
  5
F706
330
7468
100
AcDbSymbolTableRecord
100
AcDbTextStyleTableRecord
  2
STYLE1
 70
     0
 40
0.0
 41
1.0
 50
0.0
 71
     0
 42
4.0
  3
isocp.shx
  4
bigfont.shx
  0
STYLE
  5
103BF
330
7468
100
AcDbSymbolTableRecord
100
AcDbTextStyleTableRecord
  2
STYLE2
 70
     0
 40
0.0
 41
1.0
 50
0.0
 71
     0
 42
100.0
  3
MS PGothic.ttf
  4

1001
ACAD
1000
MS PGothic
1071
    32818
  0
STYLE
  5
10BAA
330
7468
100
AcDbSymbolTableRecord
100
AcDbTextStyleTableRecord
  2
STYLE3
 70
     0
 40
0.0
 41
1.0
 50
0.0
 71
     0
 42
100.0
  3

  4

1001
ACAD
1000
DFPGothic-EB
1071
    32818
  0
STYLE
  5
11A15
330
7468
100
AcDbSymbolTableRecord
100
AcDbTextStyleTableRecord
  2
MSGOTHIC
 70
     0
 40
0.0
 41
1.0
 50
0.0
 71
     0
 42
3.5
  3
msgothi2.ttf
  4

  0
STYLE
  5
13E96
330
7468
100
AcDbSymbolTableRecord
100
AcDbTextStyleTableRecord
  2
MSPゴシック
 70
     0
 40
0.0
 41
1.0
 50
0.0
 71
     0
 42
4.0
  3
MS PGothic.ttf
  4

1001
ACAD
1000
MS PGothic
1071
    32818
  0
ENDTAB
  0
TABLE
  2
VIEW
  5
746B
330
0
100
AcDbSymbolTable
 70
     0
  0
ENDTAB
  0
TABLE
  2
UCS
  5
746C
330
0
100
AcDbSymbolTable
 70
     0
  0
ENDTAB
  0
TABLE
  2
APPID
  5
746E
330
0
100
AcDbSymbolTable
 70
     6
  0
APPID
  5
7476
330
746E
100
AcDbSymbolTableRecord
100
AcDbRegAppTableRecord
  2
ACAD
 70
     0
  0
APPID
  5
DEA9
330
746E
100
AcDbSymbolTableRecord
100
AcDbRegAppTableRecord
  2
CONTENTBLOCKICON
 70
     0
  0
APPID
  5
DEAA
330
746E
100
AcDbSymbolTableRecord
100
AcDbRegAppTableRecord
  2
CONTENTBLOCKDESCRIPTION
 70
     0
  0
APPID
  5
E71D
330
746E
100
AcDbSymbolTableRecord
100
AcDbRegAppTableRecord
  2
CONTENTTABDATA
 70
     0
  0
APPID
  5
E71E
330
746E
100
AcDbSymbolTableRecord
100
AcDbRegAppTableRecord
  2
CONTENTCURRENTTAB
 70
     0
  0
APPID
  5
F3BA
330
746E
100
AcDbSymbolTableRecord
100
AcDbRegAppTableRecord
  2
DRAWINGVARIABLESXDATA
 70
     0
  0
ENDTAB
  0
TABLE
  2
DIMSTYLE
  5
746F
330
0
100
AcDbSymbolTable
 70
     6
100
AcDbDimStyleTable
 71
     1
340
F71F
  0
DIMSTYLE
105
7484
330
746F
100
AcDbSymbolTableRecord
100
AcDbDimStyleTableRecord
  2
JIS
 70
     0
 41
2.5
 42
1.0
 43
7.0
 44
1.0
 73
     0
 74
     0
 77
     1
 78
     8
140
2.5
141
0.0
143
0.0394
147
0.0
172
     1
174
     1
175
     1
340
7475
  0
DIMSTYLE
105
F236
330
746F
100
AcDbSymbolTableRecord
100
AcDbDimStyleTableRecord
  2
INABA_S40
 70
     0
 40
40.0
 41
2.5
 42
0.5
 43
7.0
 44
1.5
 73
     0
 74
     0
 77
     3
 78
     8
140
3.0
141
0.0
143
0.0394
147
1.0
172
     1
173
     1
174
     1
175
     1
178
     7
289
     0
340
7475
341
DEAC
343
DEAC
344
DEAC
  0
DIMSTYLE
105
F71F
102
{ACAD_REACTORS
330
20DE1
330
20DFB
330
22741
330
2275B
330
23FDA
330
23FD9
330
24043
330
24E68
330
24E39
330
24E13
330
24E12
330
24DD7
330
24DD6
330
24DCD
330
24DCC
330
24DC9
330
24E15
330
24DE6
330
24DDC
330
24DDB
330
24DE5
330
24DE4
330
24DD1
330
2588B
330
258EB
330
258EE
330
258F5
330
258FD
330
258FE
102
}
330
746F
100
AcDbSymbolTableRecord
100
AcDbDimStyleTableRecord
  2
INABA_S40G
 70
     0
 40
40.0
 41
2.5
 42
0.5
 43
7.0
 44
1.5
 73
     0
 74
     0
 77
     3
 78
     8
140
3.0
141
0.0
143
0.0394
147
1.0
172
     1
173
     1
174
     1
178
     7
271
     1
340
F706
341
F770
343
F770
344
F770
  0
DIMSTYLE
105
142E3
330
746F
100
AcDbSymbolTableRecord
100
AcDbDimStyleTableRecord
  2
INABA_S1
 70
     0
 40
0.0
 41
2.5
 42
0.5
 43
7.0
 44
1.5
 73
     0
 74
     0
 77
     3
 78
     8
140
3.0
141
0.0
143
0.0394
146
0.5
147
0.5
172
     1
173
     1
176
   256
177
   256
178
     7
271
     2
272
     2
284
     8
288
     1
340
7475
341
DEAC
343
DEAC
344
DEAC
  0
DIMSTYLE
105
14463
330
746F
100
AcDbSymbolTableRecord
100
AcDbDimStyleTableRecord
  2
INABA_S30G
 70
     0
 40
30.0
 41
2.5
 42
0.5
 43
7.0
 44
1.5
 73
     0
 74
     0
 77
     3
 78
     8
140
3.0
141
0.0
143
0.0394
147
1.0
172
     1
173
     1
174
     1
175
     1
178
     7
271
     1
340
F706
341
F770
343
F770
344
F770
  0
DIMSTYLE
105
1758E
330
746F
100
AcDbSymbolTableRecord
100
AcDbDimStyleTableRecord
  2
INABA_S50G
 70
     0
 41
125.0
 42
25.0
 43
7.0
 44
75.0
 73
     0
 74
     0
 77
     3
 78
     8
140
150.0
141
0.0
143
0.0394
147
25.0
172
     1
173
     1
174
     1
175
     1
178
     7
271
     1
340
F706
341
F770
343
F770
344
F770
  0
ENDTAB
  0
TABLE
  2
BLOCK_RECORD
  5
7466
330
0
100
AcDbSymbolTable
 70
    58
  0
BLOCK_RECORD
  5
747D
330
7466
100
AcDbSymbolTableRecord
100
AcDbBlockTableRecord
  2
*MODEL_SPACE
340
173D5
  0
BLOCK_RECORD
  5
747A
330
7466
100
AcDbSymbolTableRecord
100
AcDbBlockTableRecord
  2
*PAPER_SPACE
340
173D6
  0
BLOCK_RECORD
  5
DEAC
330
7466
100
AcDbSymbolTableRecord
100
AcDbBlockTableRecord
  2
_OPEN
340
0
  0
BLOCK_RECORD
  5
F770
330
7466
100
AcDbSymbolTableRecord
100
AcDbBlockTableRecord
  2
_DOTSMALL
340
0
102
{BLKREFS
331
18C65
331
18C66
331
18C59
331
18C5A
331
18C4D
331
18C4E
331
18C41
331
18C42
331
18C35
331
18C36
331
18C29
331
18C2A
331
18C1D
331
18C1E
331
18C0F
331
18C10
331
18C03
331
18C04
331
18BF5
331
18BF6
331
18BE7
331
18BE8
331
18BD9
331
18BDA
331
18BCD
331
18BCE
331
21316
331
21317
331
21321
331
21322
331
2132A
331
2132B
331
2548B
331
2548C
331
2549E
331
2549F
331
254A7
331
254A8
331
254CB
331
254CC
331
254D4
331
254D5
331
254DE
331
254DF
331
254FA
331
254FB
331
25503
331
25504
331
2552A
331
2552B
331
2553E
331
2553F
331
25549
331
2554A
331
25554
331
25555
331
2555F
331
25560
331
25583
331
25584
331
2558C
331
2558D
331
255EB
331
255EC
331
255F5
331
255F6
331
25607
331
25608
331
25610
331
25611
331
25619
331
2561A
331
25622
331
25623
331
2562B
331
2562C
331
25634
331
25635
331
2564A
331
2564B
331
25693
331
25694
331
25687
331
25688
331
2567B
331
2567C
331
2566F
331
25670
331
25663
331
25664
331
25655
331
25656
331
25955
331
25956
331
2595E
331
2595F
331
25967
331
25968
331
25970
331
25971
331
2597B
331
2597C
331
25984
331
25985
102
}
  0
BLOCK_RECORD
  5
164B4
330
7466
100
AcDbSymbolTableRecord
100
AcDbBlockTableRecord
  2
_DOT
340
0
102
{BLKREFS
331
18C73
331
18C74
102
}
  0
BLOCK_RECORD
  5
18BC8
330
7466
100
AcDbSymbolTableRecord
100
AcDbBlockTableRecord
  2
*D3
340
0
  0
BLOCK_RECORD
  5
18BD4
330
7466
100
AcDbSymbolTableRecord
100
AcDbBlockTableRecord
  2
*D4
340
0
  0
BLOCK_RECORD
  5
18BE0
330
7466
100
AcDbSymbolTableRecord
100
AcDbBlockTableRecord
  2
*D5
340
0
  0
BLOCK_RECORD
  5
18BEE
330
7466
100
AcDbSymbolTableRecord
100
AcDbBlockTableRecord
  2
*D6
340
0
  0
BLOCK_RECORD
  5
18BFC
330
7466
100
AcDbSymbolTableRecord
100
AcDbBlockTableRecord
  2
*D7
340
0
  0
BLOCK_RECORD
  5
18C0A
330
7466
100
AcDbSymbolTableRecord
100
AcDbBlockTableRecord
  2
*D8
340
0
  0
BLOCK_RECORD
  5
18C16
330
7466
100
AcDbSymbolTableRecord
100
AcDbBlockTableRecord
  2
*D9
340
0
  0
BLOCK_RECORD
  5
18C24
330
7466
100
AcDbSymbolTableRecord
100
AcDbBlockTableRecord
  2
*D10
340
0
  0
BLOCK_RECORD
  5
18C30
330
7466
100
AcDbSymbolTableRecord
100
AcDbBlockTableRecord
  2
*D11
340
0
  0
BLOCK_RECORD
  5
18C3C
330
7466
100
AcDbSymbolTableRecord
100
AcDbBlockTableRecord
  2
*D12
340
0
  0
BLOCK_RECORD
  5
18C48
330
7466
100
AcDbSymbolTableRecord
100
AcDbBlockTableRecord
  2
*D13
340
0
  0
BLOCK_RECORD
  5
18C54
330
7466
100
AcDbSymbolTableRecord
100
AcDbBlockTableRecord
  2
*D14
340
0
  0
BLOCK_RECORD
  5
18C60
330
7466
100
AcDbSymbolTableRecord
100
AcDbBlockTableRecord
  2
*D15
340
0
  0
BLOCK_RECORD
  5
18C6C
330
7466
100
AcDbSymbolTableRecord
100
AcDbBlockTableRecord
  2
*D16
340
0
  0
BLOCK_RECORD
  5
18C7A
330
7466
100
AcDbSymbolTableRecord
100
AcDbBlockTableRecord
  2
A$C3B1A506B
340
0
  0
BLOCK_RECORD
  5
1C4CA
330
7466
100
AcDbSymbolTableRecord
100
AcDbBlockTableRecord
  2
_NONE
340
0
  0
BLOCK_RECORD
  5
20DE2
330
7466
100
AcDbSymbolTableRecord
100
AcDbBlockTableRecord
  2
*D19
340
0
  0
BLOCK_RECORD
  5
20DFC
330
7466
100
AcDbSymbolTableRecord
100
AcDbBlockTableRecord
  2
*D20
340
0
  0
BLOCK_RECORD
  5
22742
330
7466
100
AcDbSymbolTableRecord
100
AcDbBlockTableRecord
  2
*D25
340
0
  0
BLOCK_RECORD
  5
2275C
330
7466
100
AcDbSymbolTableRecord
100
AcDbBlockTableRecord
  2
*D26
340
0
  0
BLOCK_RECORD
  5
240C4
330
7466
100
AcDbSymbolTableRecord
100
AcDbBlockTableRecord
  2
*D27
340
0
  0
BLOCK_RECORD
  5
240D1
330
7466
100
AcDbSymbolTableRecord
100
AcDbBlockTableRecord
  2
*D28
340
0
  0
BLOCK_RECORD
  5
240DE
330
7466
100
AcDbSymbolTableRecord
100
AcDbBlockTableRecord
  2
*D29
340
0
  0
BLOCK_RECORD
  5
24E85
330
7466
100
AcDbSymbolTableRecord
100
AcDbBlockTableRecord
  2
*D30
340
0
  0
BLOCK_RECORD
  5
24E91
330
7466
100
AcDbSymbolTableRecord
100
AcDbBlockTableRecord
  2
*D31
340
0
  0
BLOCK_RECORD
  5
24E9D
330
7466
100
AcDbSymbolTableRecord
100
AcDbBlockTableRecord
  2
*D32
340
0
  0
BLOCK_RECORD
  5
24EA9
330
7466
100
AcDbSymbolTableRecord
100
AcDbBlockTableRecord
  2
*D33
340
0
  0
BLOCK_RECORD
  5
24EB5
330
7466
100
AcDbSymbolTableRecord
100
AcDbBlockTableRecord
  2
*D34
340
0
  0
BLOCK_RECORD
  5
24EC0
330
7466
100
AcDbSymbolTableRecord
100
AcDbBlockTableRecord
  2
*D35
340
0
  0
BLOCK_RECORD
  5
24ECC
330
7466
100
AcDbSymbolTableRecord
100
AcDbBlockTableRecord
  2
*D36
340
0
  0
BLOCK_RECORD
  5
24ED8
330
7466
100
AcDbSymbolTableRecord
100
AcDbBlockTableRecord
  2
*D37
340
0
  0
BLOCK_RECORD
  5
24EE4
330
7466
100
AcDbSymbolTableRecord
100
AcDbBlockTableRecord
  2
*D38
340
0
  0
BLOCK_RECORD
  5
24EF0
330
7466
100
AcDbSymbolTableRecord
100
AcDbBlockTableRecord
  2
*D39
340
0
  0
BLOCK_RECORD
  5
24EFC
330
7466
100
AcDbSymbolTableRecord
100
AcDbBlockTableRecord
  2
*D40
340
0
  0
BLOCK_RECORD
  5
24F22
330
7466
100
AcDbSymbolTableRecord
100
AcDbBlockTableRecord
  2
*D41
340
0
  0
BLOCK_RECORD
  5
24F2D
330
7466
100
AcDbSymbolTableRecord
100
AcDbBlockTableRecord
  2
*D42
340
0
  0
BLOCK_RECORD
  5
24F47
330
7466
100
AcDbSymbolTableRecord
100
AcDbBlockTableRecord
  2
*D43
340
0
  0
BLOCK_RECORD
  5
24F6B
330
7466
100
AcDbSymbolTableRecord
100
AcDbBlockTableRecord
  2
*D44
340
0
  0
BLOCK_RECORD
  5
24F84
330
7466
100
AcDbSymbolTableRecord
100
AcDbBlockTableRecord
  2
*D45
340
0
  0
BLOCK_RECORD
  5
25908
330
7466
100
AcDbSymbolTableRecord
100
AcDbBlockTableRecord
  2
*D52
340
0
  0
BLOCK_RECORD
  5
25914
330
7466
100
AcDbSymbolTableRecord
100
AcDbBlockTableRecord
  2
*D53
340
0
  0
BLOCK_RECORD
  5
25920
330
7466
100
AcDbSymbolTableRecord
100
AcDbBlockTableRecord
  2
*D54
340
0
  0
BLOCK_RECORD
  5
2592C
330
7466
100
AcDbSymbolTableRecord
100
AcDbBlockTableRecord
  2
*D55
340
0
  0
BLOCK_RECORD
  5
25938
330
7466
100
AcDbSymbolTableRecord
100
AcDbBlockTableRecord
  2
*D56
340
0
  0
BLOCK_RECORD
  5
25946
330
7466
100
AcDbSymbolTableRecord
100
AcDbBlockTableRecord
  2
*D57
340
0
  0
ENDTAB
  0
ENDSEC
  0
SECTION
  2
BLOCKS
  0
BLOCK
  5
7489
330
747D
100
AcDbEntity
  8
0
100
AcDbBlockBegin
  2
*MODEL_SPACE
 70
     0
 10
0.0
 20
0.0
 30
0.0
  3
*MODEL_SPACE
  1

  0
ENDBLK
  5
748A
330
747D
100
AcDbEntity
  8
0
100
AcDbBlockEnd
  0
BLOCK
  5
7487
330
747A
100
AcDbEntity
 67
     1
  8
0
100
AcDbBlockBegin
  2
*PAPER_SPACE
 70
     0
 10
0.0
 20
0.0
 30
0.0
  3
*PAPER_SPACE
  1

  0
ENDBLK
  5
7488
330
747A
100
AcDbEntity
 67
     1
  8
0
100
AcDbBlockEnd
  0
BLOCK
  5
DEAD
330
DEAC
100
AcDbEntity
  8
0
100
AcDbBlockBegin
  2
_OPEN
 70
     0
 10
0.0
 20
0.0
 30
0.0
  3
_OPEN
  1

  0
LINE
  5
DEAE
330
DEAC
100
AcDbEntity
  8
0
  6
ByBlock
 62
     0
100
AcDbLine
 10
-1.0
 20
0.1666666666666666
 30
0.0
 11
0.0
 21
0.0
 31
0.0
  0
LINE
  5
DEAF
330
DEAC
100
AcDbEntity
  8
0
  6
ByBlock
 62
     0
100
AcDbLine
 10
0.0
 20
0.0
 30
0.0
 11
-1.0
 21
-0.1666666666666666
 31
0.0
  0
LINE
  5
DEB0
330
DEAC
100
AcDbEntity
  8
0
  6
ByBlock
 62
     0
100
AcDbLine
 10
0.0
 20
0.0
 30
0.0
 11
-1.0
 21
0.0
 31
0.0
  0
ENDBLK
  5
DEB1
330
DEAC
100
AcDbEntity
  8
0
100
AcDbBlockEnd
  0
BLOCK
  5
F771
330
F770
100
AcDbEntity
  8
0
 48
50.0
100
AcDbBlockBegin
  2
_DOTSMALL
 70
     0
 10
0.0
 20
0.0
 30
0.0
  3
_DOTSMALL
  1

  0
LWPOLYLINE
  5
F772
330
F770
100
AcDbEntity
  8
0
  6
ByBlock
 62
     0
 48
50.0
100
AcDbPolyline
 90
        2
 70
     1
 43
0.5
 10
-0.0625
 20
0.0
 42
1.0
 10
0.0625
 20
0.0
 42
1.0
  0
ENDBLK
  5
F776
330
F770
100
AcDbEntity
  8
0
 48
50.0
100
AcDbBlockEnd
  0
BLOCK
  5
164BA
330
164B4
100
AcDbEntity
  8
0
 48
50.0
100
AcDbBlockBegin
  2
_DOT
 70
     0
 10
0.0
 20
0.0
 30
0.0
  3
_DOT
  1

  0
LWPOLYLINE
  5
164B5
330
164B4
100
AcDbEntity
  8
0
  6
ByBlock
 62
     0
 48
50.0
100
AcDbPolyline
 90
        2
 70
     1
 43
0.5
 10
-0.25
 20
0.0
 42
1.0
 10
0.25
 20
0.0
 42
1.0
  0
LINE
  5
164B9
330
164B4
100
AcDbEntity
  8
0
  6
ByBlock
 62
     0
 48
50.0
100
AcDbLine
 10
-0.5
 20
0.0
 30
0.0
 11
-1.0
 21
0.0
 31
0.0
  0
ENDBLK
  5
164BB
330
164B4
100
AcDbEntity
  8
0
 48
50.0
100
AcDbBlockEnd
  0
BLOCK
  5
18BC9
330
18BC8
100
AcDbEntity
  8
0
 48
50.0
100
AcDbBlockBegin
  2
*D3
 70
     1
 10
0.0
 20
0.0
 30
0.0
  3
*D3
  1

  0
LINE
  5
18BCA
330
18BC8
100
AcDbEntity
  8
寸法
 62
     0
 48
50.0
370
    -2
100
AcDbLine
 10
7649.896575106999
 20
9636.123139034717
 30
0.0
 11
8702.429862581047
 21
9636.123139034717
 31
0.0
  0
LINE
  5
18BCB
330
18BC8
100
AcDbEntity
  8
寸法
 62
     0
 48
50.0
370
    -2
100
AcDbLine
 10
7649.896575106973
 20
7846.123139034709
 30
0.0
 11
8702.429862581047
 21
7846.123139034709
 31
0.0
  0
LINE
  5
18BCC
330
18BC8
100
AcDbEntity
  8
寸法
 62
     0
 48
50.0
370
    -2
100
AcDbLine
 10
8642.429862581046
 20
9636.123139034717
 30
0.0
 11
8642.429862581046
 21
7846.123139034709
 31
0.0
  0
INSERT
  5
18BCD
330
18BC8
100
AcDbEntity
  8
寸法
 62
     0
 48
50.0
370
    -2
100
AcDbBlockReference
  2
_DOTSMALL
 10
8642.429862581046
 20
9636.123139034717
 30
0.0
 41
100.0
 42
100.0
 43
100.0
 50
90.0
  0
INSERT
  5
18BCE
330
18BC8
100
AcDbEntity
  8
寸法
 62
     0
 48
50.0
370
    -2
100
AcDbBlockReference
  2
_DOTSMALL
 10
8642.429862581046
 20
7846.123139034709
 30
0.0
 41
100.0
 42
100.0
 43
100.0
 50
270.0
  0
MTEXT
  5
18BCF
330
18BC8
100
AcDbEntity
  8
寸法
 62
     7
 48
50.0
100
AcDbMText
 10
8542.429862581045
 20
8741.123139034712
 30
0.0
 40
120.0
 41
0.0
 71
     5
 72
     1
  1
\A1;1790
  7
STYLE1
 11
0.0000000000000001
 21
1.0
 31
0.0
 73
     1
 44
1.0
1001
ACAD
1000
MTEXTBEGIN
1070
    73
1070
     1
1070
    44
1040
1.0
1070
    74
1070
     0
1000
MTEXTEND
  0
POINT
  5
18BD0
330
18BC8
100
AcDbEntity
  8
DEFPOINTS
 62
     0
 48
50.0
100
AcDbPoint
 10
7629.896575106998
 20
9636.123139034717
 30
0.0
  0
POINT
  5
18BD1
330
18BC8
100
AcDbEntity
  8
DEFPOINTS
 62
     0
 48
50.0
100
AcDbPoint
 10
7629.896575106974
 20
7846.123139034709
 30
0.0
  0
POINT
  5
18BD2
330
18BC8
100
AcDbEntity
  8
DEFPOINTS
 62
     0
 48
50.0
100
AcDbPoint
 10
8642.429862581046
 20
7846.123139034709
 30
0.0
  0
ENDBLK
  5
18BD3
330
18BC8
100
AcDbEntity
  8
0
 48
50.0
100
AcDbBlockEnd
  0
BLOCK
  5
18BD5
330
18BD4
100
AcDbEntity
  8
0
 48
50.0
100
AcDbBlockBegin
  2
*D4
 70
     1
 10
0.0
 20
0.0
 30
0.0
  3
*D4
  1

  0
LINE
  5
18BD6
330
18BD4
100
AcDbEntity
  8
寸法
 62
     0
 48
50.0
370
    -2
100
AcDbLine
 10
4214.896575106998
 20
9656.123139034622
 30
0.0
 11
4214.896575106998
 21
10211.93135865972
 31
0.0
  0
LINE
  5
18BD7
330
18BD4
100
AcDbEntity
  8
寸法
 62
     0
 48
50.0
370
    -2
100
AcDbLine
 10
7574.896575106999
 20
9656.123139034718
 30
0.0
 11
7574.896575106999
 21
10211.93135865972
 31
0.0
  0
LINE
  5
18BD8
330
18BD4
100
AcDbEntity
  8
寸法
 62
     0
 48
50.0
370
    -2
100
AcDbLine
 10
4214.896575106998
 20
10151.93135865972
 30
0.0
 11
7574.896575106999
 21
10151.93135865972
 31
0.0
  0
INSERT
  5
18BD9
330
18BD4
100
AcDbEntity
  8
寸法
 62
     0
 48
50.0
370
    -2
100
AcDbBlockReference
  2
_DOTSMALL
 10
4214.896575106998
 20
10151.93135865972
 30
0.0
 41
100.0
 42
100.0
 43
100.0
 50
180.0
  0
INSERT
  5
18BDA
330
18BD4
100
AcDbEntity
  8
寸法
 62
     0
 48
50.0
370
    -2
100
AcDbBlockReference
  2
_DOTSMALL
 10
7574.896575106999
 20
10151.93135865972
 30
0.0
 41
100.0
 42
100.0
 43
100.0
  0
MTEXT
  5
18BDB
330
18BD4
100
AcDbEntity
  8
寸法
 62
     7
 48
50.0
100
AcDbMText
 10
5894.896575106997
 20
10251.94316968334
 30
0.0
 40
120.0
 41
0.0
 71
     5
 72
     1
  1
\A1;8X420=3360
  7
STYLE1
 73
     1
 44
1.0
1001
ACAD
1000
MTEXTBEGIN
1070
    73
1070
     1
1070
    44
1040
1.0
1070
    74
1070
     0
1000
MTEXTEND
  0
POINT
  5
18BDC
330
18BD4
100
AcDbEntity
  8
DEFPOINTS
 62
     0
 48
50.0
100
AcDbPoint
 10
4214.896575106998
 20
9636.123139034623
 30
0.0
  0
POINT
  5
18BDD
330
18BD4
100
AcDbEntity
  8
DEFPOINTS
 62
     0
 48
50.0
100
AcDbPoint
 10
7574.896575106999
 20
9636.123139034717
 30
0.0
  0
POINT
  5
18BDE
330
18BD4
100
AcDbEntity
  8
DEFPOINTS
 62
     0
 48
50.0
100
AcDbPoint
 10
7574.896575106999
 20
10151.93135865972
 30
0.0
  0
ENDBLK
  5
18BDF
330
18BD4
100
AcDbEntity
  8
0
 48
50.0
100
AcDbBlockEnd
  0
BLOCK
  5
18BE1
330
18BE0
100
AcDbEntity
  8
0
 48
50.0
100
AcDbBlockBegin
  2
*D5
 70
     1
 10
0.0
 20
0.0
 30
0.0
  3
*D5
  1

  0
LINE
  5
18BE2
330
18BE0
100
AcDbEntity
  8
寸法
 62
     0
 48
50.0
370
    -2
100
AcDbLine
 10
7574.896575106999
 20
9656.123139034718
 30
0.0
 11
7574.896575106999
 21
10211.9313586597
 31
0.0
  0
LINE
  5
18BE3
330
18BE0
100
AcDbEntity
  8
寸法
 62
     0
 48
50.0
370
    -2
100
AcDbLine
 10
7629.896575106998
 20
9656.123139034718
 30
0.0
 11
7629.896575106998
 21
10211.9313586597
 31
0.0
  0
LINE
  5
18BE4
330
18BE0
100
AcDbEntity
  8
寸法
 62
     0
 48
50.0
370
    -2
100
AcDbLine
 10
7574.896575106999
 20
10151.9313586597
 30
0.0
 11
7474.896575106999
 21
10151.9313586597
 31
0.0
  0
LINE
  5
18BE5
330
18BE0
100
AcDbEntity
  8
寸法
 62
     0
 48
50.0
370
    -2
100
AcDbLine
 10
7629.896575106998
 20
10151.9313586597
 30
0.0
 11
8046.867137855477
 21
10151.9313586597
 31
0.0
  0
LINE
  5
18BE6
330
18BE0
100
AcDbEntity
  8
寸法
 62
     0
 48
50.0
370
    -2
100
AcDbLine
 10
7574.896575106999
 20
10151.9313586597
 30
0.0
 11
7629.896575106998
 21
10151.9313586597
 31
0.0
  0
INSERT
  5
18BE7
330
18BE0
100
AcDbEntity
  8
寸法
 62
     0
 48
50.0
370
    -2
100
AcDbBlockReference
  2
_DOTSMALL
 10
7574.896575106999
 20
10151.9313586597
 30
0.0
 41
100.0
 42
100.0
 43
100.0
  0
INSERT
  5
18BE8
330
18BE0
100
AcDbEntity
  8
寸法
 62
     0
 48
50.0
370
    -2
100
AcDbBlockReference
  2
_DOTSMALL
 10
7629.896575106998
 20
10151.9313586597
 30
0.0
 41
100.0
 42
100.0
 43
100.0
 50
180.0
  0
MTEXT
  5
18BE9
330
18BE0
100
AcDbEntity
  8
寸法
 62
     7
 48
50.0
100
AcDbMText
 10
7938.381856481237
 20
10251.9313586597
 30
0.0
 40
120.0
 41
0.0
 71
     5
 72
     1
  1
\A1;55
  7
STYLE1
 73
     1
 44
1.0
1001
ACAD
1000
MTEXTBEGIN
1070
    73
1070
     1
1070
    44
1040
1.0
1070
    74
1070
     0
1000
MTEXTEND
  0
POINT
  5
18BEA
330
18BE0
100
AcDbEntity
  8
DEFPOINTS
 62
     0
 48
50.0
100
AcDbPoint
 10
7574.896575106999
 20
9636.123139034717
 30
0.0
  0
POINT
  5
18BEB
330
18BE0
100
AcDbEntity
  8
DEFPOINTS
 62
     0
 48
50.0
100
AcDbPoint
 10
7629.896575106998
 20
9636.123139034717
 30
0.0
  0
POINT
  5
18BEC
330
18BE0
100
AcDbEntity
  8
DEFPOINTS
 62
     0
 48
50.0
100
AcDbPoint
 10
7629.896575106998
 20
10151.9313586597
 30
0.0
  0
ENDBLK
  5
18BED
330
18BE0
100
AcDbEntity
  8
0
 48
50.0
100
AcDbBlockEnd
  0
BLOCK
  5
18BEF
330
18BEE
100
AcDbEntity
  8
0
 48
50.0
100
AcDbBlockBegin
  2
*D6
 70
     1
 10
0.0
 20
0.0
 30
0.0
  3
*D6
  1

  0
LINE
  5
18BF0
330
18BEE
100
AcDbEntity
  8
寸法
 62
     0
 48
50.0
370
    -2
100
AcDbLine
 10
7649.896575106999
 20
9636.123139034717
 30
0.0
 11
8337.32292084141
 21
9636.123139034717
 31
0.0
  0
LINE
  5
18BF1
330
18BEE
100
AcDbEntity
  8
寸法
 62
     0
 48
50.0
370
    -2
100
AcDbLine
 10
7649.896575106999
 20
9581.123139034721
 30
0.0
 11
8337.32292084141
 21
9581.123139034721
 31
0.0
  0
LINE
  5
18BF2
330
18BEE
100
AcDbEntity
  8
寸法
 62
     0
 48
50.0
370
    -2
100
AcDbLine
 10
8277.322920841411
 20
9581.123139034721
 30
0.0
 11
8277.322920841411
 21
9481.123139034719
 31
0.0
  0
LINE
  5
18BF3
330
18BEE
100
AcDbEntity
  8
寸法
 62
     0
 48
50.0
370
    -2
100
AcDbLine
 10
8277.322920841411
 20
9636.123139034717
 30
0.0
 11
8277.322920841411
 21
10053.09370178319
 31
0.0
  0
LINE
  5
18BF4
330
18BEE
100
AcDbEntity
  8
寸法
 62
     0
 48
50.0
370
    -2
100
AcDbLine
 10
8277.322920841411
 20
9581.123139034721
 30
0.0
 11
8277.322920841411
 21
9636.123139034717
 31
0.0
  0
INSERT
  5
18BF5
330
18BEE
100
AcDbEntity
  8
寸法
 62
     0
 48
50.0
370
    -2
100
AcDbBlockReference
  2
_DOTSMALL
 10
8277.322920841411
 20
9581.123139034721
 30
0.0
 41
100.0
 42
100.0
 43
100.0
 50
90.0
  0
INSERT
  5
18BF6
330
18BEE
100
AcDbEntity
  8
寸法
 62
     0
 48
50.0
370
    -2
100
AcDbBlockReference
  2
_DOTSMALL
 10
8277.322920841411
 20
9636.123139034717
 30
0.0
 41
100.0
 42
100.0
 43
100.0
 50
270.0
  0
MTEXT
  5
18BF7
330
18BEE
100
AcDbEntity
  8
寸法
 62
     7
 48
50.0
100
AcDbMText
 10
8177.32292084141
 20
9944.608420408957
 30
0.0
 40
120.0
 41
0.0
 71
     5
 72
     1
  1
\A1;55
  7
STYLE1
 11
0.0000000000000001
 21
1.0
 31
0.0
 73
     1
 44
1.0
1001
ACAD
1000
MTEXTBEGIN
1070
    73
1070
     1
1070
    44
1040
1.0
1070
    74
1070
     0
1000
MTEXTEND
  0
POINT
  5
18BF8
330
18BEE
100
AcDbEntity
  8
DEFPOINTS
 62
     0
 48
50.0
100
AcDbPoint
 10
7629.896575106998
 20
9636.123139034717
 30
0.0
  0
POINT
  5
18BF9
330
18BEE
100
AcDbEntity
  8
DEFPOINTS
 62
     0
 48
50.0
100
AcDbPoint
 10
7629.896575106998
 20
9581.123139034721
 30
0.0
  0
POINT
  5
18BFA
330
18BEE
100
AcDbEntity
  8
DEFPOINTS
 62
     0
 48
50.0
100
AcDbPoint
 10
8277.322920841411
 20
9581.123139034721
 30
0.0
  0
ENDBLK
  5
18BFB
330
18BEE
100
AcDbEntity
  8
0
 48
50.0
100
AcDbBlockEnd
  0
BLOCK
  5
18BFD
330
18BFC
100
AcDbEntity
  8
0
 48
50.0
100
AcDbBlockBegin
  2
*D7
 70
     1
 10
0.0
 20
0.0
 30
0.0
  3
*D7
  1

  0
LINE
  5
18BFE
330
18BFC
100
AcDbEntity
  8
寸法
 62
     0
 48
50.0
370
    -2
100
AcDbLine
 10
4159.896575106963
 20
9656.123139034622
 30
0.0
 11
4159.896575106963
 21
10211.9313586596
 31
0.0
  0
LINE
  5
18BFF
330
18BFC
100
AcDbEntity
  8
寸法
 62
     0
 48
50.0
370
    -2
100
AcDbLine
 10
4214.896575106998
 20
9656.123139034622
 30
0.0
 11
4214.896575106998
 21
10211.9313586596
 31
0.0
  0
LINE
  5
18C00
330
18BFC
100
AcDbEntity
  8
寸法
 62
     0
 48
50.0
370
    -2
100
AcDbLine
 10
4214.896575106998
 20
10151.9313586596
 30
0.0
 11
4314.896575106998
 21
10151.9313586596
 31
0.0
  0
LINE
  5
18C01
330
18BFC
100
AcDbEntity
  8
寸法
 62
     0
 48
50.0
370
    -2
100
AcDbLine
 10
4159.896575106963
 20
10151.9313586596
 30
0.0
 11
3742.926012358486
 21
10151.9313586596
 31
0.0
  0
LINE
  5
18C02
330
18BFC
100
AcDbEntity
  8
寸法
 62
     0
 48
50.0
370
    -2
100
AcDbLine
 10
4214.896575106998
 20
10151.9313586596
 30
0.0
 11
4159.896575106963
 21
10151.9313586596
 31
0.0
  0
INSERT
  5
18C03
330
18BFC
100
AcDbEntity
  8
寸法
 62
     0
 48
50.0
370
    -2
100
AcDbBlockReference
  2
_DOTSMALL
 10
4214.896575106998
 20
10151.9313586596
 30
0.0
 41
100.0
 42
100.0
 43
100.0
 50
180.0
  0
INSERT
  5
18C04
330
18BFC
100
AcDbEntity
  8
寸法
 62
     0
 48
50.0
370
    -2
100
AcDbBlockReference
  2
_DOTSMALL
 10
4159.896575106963
 20
10151.9313586596
 30
0.0
 41
100.0
 42
100.0
 43
100.0
  0
MTEXT
  5
18C05
330
18BFC
100
AcDbEntity
  8
寸法
 62
     7
 48
50.0
100
AcDbMText
 10
3851.411293732725
 20
10251.9313586596
 30
0.0
 40
120.0
 41
0.0
 71
     5
 72
     1
  1
\A1;55
  7
STYLE1
 73
     1
 44
1.0
1001
ACAD
1000
MTEXTBEGIN
1070
    73
1070
     1
1070
    44
1040
1.0
1070
    74
1070
     0
1000
MTEXTEND
  0
POINT
  5
18C06
330
18BFC
100
AcDbEntity
  8
DEFPOINTS
 62
     0
 48
50.0
100
AcDbPoint
 10
4159.896575106963
 20
9636.123139034623
 30
0.0
  0
POINT
  5
18C07
330
18BFC
100
AcDbEntity
  8
DEFPOINTS
 62
     0
 48
50.0
100
AcDbPoint
 10
4214.896575106998
 20
9636.123139034623
 30
0.0
  0
POINT
  5
18C08
330
18BFC
100
AcDbEntity
  8
DEFPOINTS
 62
     0
 48
50.0
100
AcDbPoint
 10
4214.896575106998
 20
10151.9313586596
 30
0.0
  0
ENDBLK
  5
18C09
330
18BFC
100
AcDbEntity
  8
0
 48
50.0
100
AcDbBlockEnd
  0
BLOCK
  5
18C0B
330
18C0A
100
AcDbEntity
  8
0
 48
50.0
100
AcDbBlockBegin
  2
*D8
 70
     1
 10
0.0
 20
0.0
 30
0.0
  3
*D8
  1

  0
LINE
  5
18C0C
330
18C0A
100
AcDbEntity
  8
寸法
 62
     0
 48
50.0
370
    -2
100
AcDbLine
 10
4159.896575106992
 20
7826.123139034546
 30
0.0
 11
4159.896575106992
 21
6804.372203245664
 31
0.0
  0
LINE
  5
18C0D
330
18C0A
100
AcDbEntity
  8
寸法
 62
     0
 48
50.0
370
    -2
100
AcDbLine
 10
7629.896575106974
 20
7826.123139034674
 30
0.0
 11
7629.896575106974
 21
6804.372203245664
 31
0.0
  0
LINE
  5
18C0E
330
18C0A
100
AcDbEntity
  8
寸法
 62
     0
 48
50.0
370
    -2
100
AcDbLine
 10
4159.896575106992
 20
6864.372203245665
 30
0.0
 11
7629.896575106974
 21
6864.372203245665
 31
0.0
  0
INSERT
  5
18C0F
330
18C0A
100
AcDbEntity
  8
寸法
 62
     0
 48
50.0
370
    -2
100
AcDbBlockReference
  2
_DOTSMALL
 10
4159.896575106992
 20
6864.372203245665
 30
0.0
 41
100.0
 42
100.0
 43
100.0
 50
180.0
  0
INSERT
  5
18C10
330
18C0A
100
AcDbEntity
  8
寸法
 62
     0
 48
50.0
370
    -2
100
AcDbBlockReference
  2
_DOTSMALL
 10
7629.896575106974
 20
6864.372203245665
 30
0.0
 41
100.0
 42
100.0
 43
100.0
  0
MTEXT
  5
18C11
330
18C0A
100
AcDbEntity
  8
寸法
 62
     7
 48
50.0
100
AcDbMText
 10
5911.12376113973
 20
6964.372203245665
 30
0.0
 40
120.0
 41
0.0
 71
     5
 72
     1
  1
\A1;3470
  7
STYLE1
 73
     1
 44
1.0
1001
ACAD
1000
MTEXTBEGIN
1070
    73
1070
     1
1070
    44
1040
1.0
1070
    74
1070
     0
1000
MTEXTEND
  0
POINT
  5
18C12
330
18C0A
100
AcDbEntity
  8
DEFPOINTS
 62
     0
 48
50.0
100
AcDbPoint
 10
4159.896575106992
 20
7846.123139034546
 30
0.0
  0
POINT
  5
18C13
330
18C0A
100
AcDbEntity
  8
DEFPOINTS
 62
     0
 48
50.0
100
AcDbPoint
 10
7629.896575106974
 20
7846.123139034673
 30
0.0
  0
POINT
  5
18C14
330
18C0A
100
AcDbEntity
  8
DEFPOINTS
 62
     0
 48
50.0
100
AcDbPoint
 10
7629.896575106974
 20
6864.372203245665
 30
0.0
  0
ENDBLK
  5
18C15
330
18C0A
100
AcDbEntity
  8
0
 48
50.0
100
AcDbBlockEnd
  0
BLOCK
  5
18C17
330
18C16
100
AcDbEntity
  8
0
 48
50.0
100
AcDbBlockBegin
  2
*D9
 70
     1
 10
0.0
 20
0.0
 30
0.0
  3
*D9
  1

  0
LINE
  5
18C18
330
18C16
100
AcDbEntity
  8
寸法
 62
     0
 48
50.0
370
    -2
100
AcDbLine
 10
7649.896575106973
 20
7901.123139034706
 30
0.0
 11
8337.322920841385
 21
7901.123139034706
 31
0.0
  0
LINE
  5
18C19
330
18C16
100
AcDbEntity
  8
寸法
 62
     0
 48
50.0
370
    -2
100
AcDbLine
 10
7649.896575106973
 20
7846.123139034709
 30
0.0
 11
8337.322920841385
 21
7846.123139034709
 31
0.0
  0
LINE
  5
18C1A
330
18C16
100
AcDbEntity
  8
寸法
 62
     0
 48
50.0
370
    -2
100
AcDbLine
 10
8277.322920841385
 20
7901.123139034706
 30
0.0
 11
8277.322920841385
 21
8001.123139034707
 31
0.0
  0
LINE
  5
18C1B
330
18C16
100
AcDbEntity
  8
寸法
 62
     0
 48
50.0
370
    -2
100
AcDbLine
 10
8277.322920841385
 20
7846.123139034709
 30
0.0
 11
8277.322920841385
 21
7429.152576286229
 31
0.0
  0
LINE
  5
18C1C
330
18C16
100
AcDbEntity
  8
寸法
 62
     0
 48
50.0
370
    -2
100
AcDbLine
 10
8277.322920841385
 20
7901.123139034706
 30
0.0
 11
8277.322920841385
 21
7846.123139034709
 31
0.0
  0
INSERT
  5
18C1D
330
18C16
100
AcDbEntity
  8
寸法
 62
     0
 48
50.0
370
    -2
100
AcDbBlockReference
  2
_DOTSMALL
 10
8277.322920841385
 20
7901.123139034706
 30
0.0
 41
100.0
 42
100.0
 43
100.0
 50
270.0
  0
INSERT
  5
18C1E
330
18C16
100
AcDbEntity
  8
寸法
 62
     0
 48
50.0
370
    -2
100
AcDbBlockReference
  2
_DOTSMALL
 10
8277.322920841385
 20
7846.123139034709
 30
0.0
 41
100.0
 42
100.0
 43
100.0
 50
90.0
  0
MTEXT
  5
18C1F
330
18C16
100
AcDbEntity
  8
寸法
 62
     7
 48
50.0
100
AcDbMText
 10
8177.322920841383
 20
7537.637857660469
 30
0.0
 40
120.0
 41
0.0
 71
     5
 72
     1
  1
\A1;55
  7
STYLE1
 11
0.0000000000000001
 21
1.0
 31
0.0
 73
     1
 44
1.0
1001
ACAD
1000
MTEXTBEGIN
1070
    73
1070
     1
1070
    44
1040
1.0
1070
    74
1070
     0
1000
MTEXTEND
  0
POINT
  5
18C20
330
18C16
100
AcDbEntity
  8
DEFPOINTS
 62
     0
 48
50.0
100
AcDbPoint
 10
7629.896575106974
 20
7901.123139034706
 30
0.0
  0
POINT
  5
18C21
330
18C16
100
AcDbEntity
  8
DEFPOINTS
 62
     0
 48
50.0
100
AcDbPoint
 10
7629.896575106974
 20
7846.123139034709
 30
0.0
  0
POINT
  5
18C22
330
18C16
100
AcDbEntity
  8
DEFPOINTS
 62
     0
 48
50.0
100
AcDbPoint
 10
8277.322920841385
 20
7846.123139034709
 30
0.0
  0
ENDBLK
  5
18C23
330
18C16
100
AcDbEntity
  8
0
 48
50.0
100
AcDbBlockEnd
  0
BLOCK
  5
18C25
330
18C24
100
AcDbEntity
  8
0
 48
50.0
100
AcDbBlockBegin
  2
*D10
 70
     1
 10
0.0
 20
0.0
 30
0.0
  3
*D10
  1

  0
LINE
  5
18C26
330
18C24
100
AcDbEntity
  8
寸法
 62
     0
 48
50.0
370
    -2
100
AcDbLine
 10
6533.037591258376
 20
9136.123139034728
 30
0.0
 11
6465.083950562664
 21
8882.516699399049
 31
0.0
  0
LINE
  5
18C27
330
18C24
100
AcDbEntity
  8
寸法
 62
     0
 48
50.0
370
    -2
100
AcDbLine
 10
7596.037591258388
 20
9136.123139034721
 30
0.0
 11
7528.083950562677
 21
8882.516699399049
 31
0.0
  0
LINE
  5
18C28
330
18C24
100
AcDbEntity
  8
寸法
 62
     0
 48
50.0
370
    -2
100
AcDbLine
 10
6481.160902108531
 20
8942.51669939905
 30
0.0
 11
7544.160902108544
 21
8942.51669939905
 31
0.0
  0
INSERT
  5
18C29
330
18C24
100
AcDbEntity
  8
寸法
 62
     0
 48
50.0
370
    -2
100
AcDbBlockReference
  2
_DOTSMALL
 10
6481.160902108531
 20
8942.51669939905
 30
0.0
 41
100.0
 42
100.0
 43
100.0
 50
180.0
  0
INSERT
  5
18C2A
330
18C24
100
AcDbEntity
  8
寸法
 62
     0
 48
50.0
370
    -2
100
AcDbBlockReference
  2
_DOTSMALL
 10
7544.160902108544
 20
8942.51669939905
 30
0.0
 41
100.0
 42
100.0
 43
100.0
  0
MTEXT
  5
18C2B
330
18C24
100
AcDbEntity
  8
寸法
 62
     7
 48
50.0
100
AcDbMText
 10
7061.28653022935
 20
9042.516699399049
 30
0.0
 40
120.0
 41
0.0
 71
     5
 72
     1
  1
\A1;1063
  7
STYLE1
 73
     1
 44
1.0
1001
ACAD
1000
MTEXTBEGIN
1070
    73
1070
     1
1070
    44
1040
1.0
1070
    74
1070
     0
1000
MTEXTEND
  0
POINT
  5
18C2C
330
18C24
100
AcDbEntity
  8
DEFPOINTS
 62
     0
 48
50.0
100
AcDbPoint
 10
6538.396575106998
 20
9156.123139034727
 30
0.0
  0
POINT
  5
18C2D
330
18C24
100
AcDbEntity
  8
DEFPOINTS
 62
     0
 48
50.0
100
AcDbPoint
 10
7601.39657510701
 20
9156.12313903472
 30
0.0
  0
POINT
  5
18C2E
330
18C24
100
AcDbEntity
  8
DEFPOINTS
 62
     0
 48
50.0
100
AcDbPoint
 10
7544.160902108544
 20
8942.51669939905
 30
0.0
  0
ENDBLK
  5
18C2F
330
18C24
100
AcDbEntity
  8
0
 48
50.0
100
AcDbBlockEnd
  0
BLOCK
  5
18C31
330
18C30
100
AcDbEntity
  8
0
 48
50.0
100
AcDbBlockBegin
  2
*D11
 70
     1
 10
0.0
 20
0.0
 30
0.0
  3
*D11
  1

  0
LINE
  5
18C32
330
18C30
100
AcDbEntity
  8
寸法
 62
     0
 48
50.0
370
    -2
100
AcDbLine
 10
7621.396575106999
 20
9600.764155186094
 30
0.0
 11
8016.754300969024
 21
9494.828371819961
 31
0.0
  0
LINE
  5
18C33
330
18C30
100
AcDbEntity
  8
寸法
 62
     0
 48
50.0
370
    -2
100
AcDbLine
 10
7621.396575106999
 20
9150.764155186099
 30
0.0
 11
8016.754300969024
 21
9044.828371819964
 31
0.0
  0
LINE
  5
18C34
330
18C30
100
AcDbEntity
  8
寸法
 62
     0
 48
50.0
370
    -2
100
AcDbLine
 10
7956.754300969024
 20
9510.905323365827
 30
0.0
 11
7956.754300969024
 21
9060.90532336583
 31
0.0
  0
INSERT
  5
18C35
330
18C30
100
AcDbEntity
  8
寸法
 62
     0
 48
50.0
370
    -2
100
AcDbBlockReference
  2
_DOTSMALL
 10
7956.754300969024
 20
9510.905323365827
 30
0.0
 41
100.0
 42
100.0
 43
100.0
 50
90.0
  0
INSERT
  5
18C36
330
18C30
100
AcDbEntity
  8
寸法
 62
     0
 48
50.0
370
    -2
100
AcDbBlockReference
  2
_DOTSMALL
 10
7956.754300969024
 20
9060.90532336583
 30
0.0
 41
100.0
 42
100.0
 43
100.0
 50
270.0
  0
MTEXT
  5
18C37
330
18C30
100
AcDbEntity
  8
寸法
 62
     7
 48
50.0
100
AcDbMText
 10
7856.754300969022
 20
9285.905323365829
 30
0.0
 40
120.0
 41
0.0
 71
     5
 72
     1
  1
\A1;450
  7
STYLE1
 11
0.0000000000000001
 21
1.0
 31
0.0
 73
     1
 44
1.0
1001
ACAD
1000
MTEXTBEGIN
1070
    73
1070
     1
1070
    44
1040
1.0
1070
    74
1070
     0
1000
MTEXTEND
  0
POINT
  5
18C38
330
18C30
100
AcDbEntity
  8
DEFPOINTS
 62
     0
 48
50.0
100
AcDbPoint
 10
7601.396575106999
 20
9606.123139034718
 30
0.0
  0
POINT
  5
18C39
330
18C30
100
AcDbEntity
  8
DEFPOINTS
 62
     0
 48
50.0
100
AcDbPoint
 10
7601.396575106999
 20
9156.12313903472
 30
0.0
  0
POINT
  5
18C3A
330
18C30
100
AcDbEntity
  8
DEFPOINTS
 62
     0
 48
50.0
100
AcDbPoint
 10
7956.754300969024
 20
9060.90532336583
 30
0.0
  0
ENDBLK
  5
18C3B
330
18C30
100
AcDbEntity
  8
0
 48
50.0
100
AcDbBlockEnd
  0
BLOCK
  5
18C3D
330
18C3C
100
AcDbEntity
  8
0
 48
50.0
100
AcDbBlockBegin
  2
*D12
 70
     1
 10
0.0
 20
0.0
 30
0.0
  3
*D12
  1

  0
LINE
  5
18C3E
330
18C3C
100
AcDbEntity
  8
寸法
 62
     0
 48
50.0
370
    -2
100
AcDbLine
 10
7649.896575106999
 20
9581.123139034721
 30
0.0
 11
8337.32292084141
 21
9581.123139034721
 31
0.0
  0
LINE
  5
18C3F
330
18C3C
100
AcDbEntity
  8
寸法
 62
     0
 48
50.0
370
    -2
100
AcDbLine
 10
7649.896575106973
 20
7901.123139034706
 30
0.0
 11
8337.32292084141
 21
7901.123139034706
 31
0.0
  0
LINE
  5
18C40
330
18C3C
100
AcDbEntity
  8
寸法
 62
     0
 48
50.0
370
    -2
100
AcDbLine
 10
8277.322920841411
 20
9581.123139034721
 30
0.0
 11
8277.322920841411
 21
7901.123139034706
 31
0.0
  0
INSERT
  5
18C41
330
18C3C
100
AcDbEntity
  8
寸法
 62
     0
 48
50.0
370
    -2
100
AcDbBlockReference
  2
_DOTSMALL
 10
8277.322920841411
 20
9581.123139034721
 30
0.0
 41
100.0
 42
100.0
 43
100.0
 50
90.0
  0
INSERT
  5
18C42
330
18C3C
100
AcDbEntity
  8
寸法
 62
     0
 48
50.0
370
    -2
100
AcDbBlockReference
  2
_DOTSMALL
 10
8277.322920841411
 20
7901.123139034706
 30
0.0
 41
100.0
 42
100.0
 43
100.0
 50
270.0
  0
MTEXT
  5
18C43
330
18C3C
100
AcDbEntity
  8
寸法
 62
     7
 48
50.0
100
AcDbMText
 10
8177.311109817788
 20
8741.123139034712
 30
0.0
 40
120.0
 41
0.0
 71
     5
 72
     1
  1
\A1;4X420=1680
  7
STYLE1
 11
0.0000000000000001
 21
1.0
 31
0.0
 73
     1
 44
1.0
1001
ACAD
1000
MTEXTBEGIN
1070
    73
1070
     1
1070
    44
1040
1.0
1070
    74
1070
     0
1000
MTEXTEND
  0
POINT
  5
18C44
330
18C3C
100
AcDbEntity
  8
DEFPOINTS
 62
     0
 48
50.0
100
AcDbPoint
 10
7629.896575106998
 20
9581.123139034721
 30
0.0
  0
POINT
  5
18C45
330
18C3C
100
AcDbEntity
  8
DEFPOINTS
 62
     0
 48
50.0
100
AcDbPoint
 10
7629.896575106974
 20
7901.123139034706
 30
0.0
  0
POINT
  5
18C46
330
18C3C
100
AcDbEntity
  8
DEFPOINTS
 62
     0
 48
50.0
100
AcDbPoint
 10
8277.322920841411
 20
7901.123139034706
 30
0.0
  0
ENDBLK
  5
18C47
330
18C3C
100
AcDbEntity
  8
0
 48
50.0
100
AcDbBlockEnd
  0
BLOCK
  5
18C49
330
18C48
100
AcDbEntity
  8
0
 48
50.0
100
AcDbBlockBegin
  2
*D13
 70
     1
 10
0.0
 20
0.0
 30
0.0
  3
*D13
  1

  0
LINE
  5
18C4A
330
18C48
100
AcDbEntity
  8
寸法
 62
     0
 48
50.0
370
    -2
100
AcDbLine
 10
4183.037591258377
 20
9136.123139034619
 30
0.0
 11
4115.083950562663
 21
8882.516699398941
 31
0.0
  0
LINE
  5
18C4B
330
18C48
100
AcDbEntity
  8
寸法
 62
     0
 48
50.0
370
    -2
100
AcDbLine
 10
5246.037591258307
 20
9136.123139034671
 30
0.0
 11
5178.08395056258
 21
8882.516699398941
 31
0.0
  0
LINE
  5
18C4C
330
18C48
100
AcDbEntity
  8
寸法
 62
     0
 48
50.0
370
    -2
100
AcDbLine
 10
4131.160902108532
 20
8942.516699398941
 30
0.0
 11
5194.160902108448
 21
8942.516699398941
 31
0.0
  0
INSERT
  5
18C4D
330
18C48
100
AcDbEntity
  8
寸法
 62
     0
 48
50.0
370
    -2
100
AcDbBlockReference
  2
_DOTSMALL
 10
4131.160902108532
 20
8942.516699398941
 30
0.0
 41
100.0
 42
100.0
 43
100.0
 50
180.0
  0
INSERT
  5
18C4E
330
18C48
100
AcDbEntity
  8
寸法
 62
     0
 48
50.0
370
    -2
100
AcDbBlockReference
  2
_DOTSMALL
 10
5194.160902108448
 20
8942.516699398941
 30
0.0
 41
100.0
 42
100.0
 43
100.0
  0
MTEXT
  5
18C4F
330
18C48
100
AcDbEntity
  8
寸法
 62
     7
 48
50.0
100
AcDbMText
 10
4658.986452655306
 20
9042.516699398941
 30
0.0
 40
120.0
 41
0.0
 71
     5
 72
     1
  1
\A1;1063
  7
STYLE1
 73
     1
 44
1.0
1001
ACAD
1000
MTEXTBEGIN
1070
    73
1070
     1
1070
    44
1040
1.0
1070
    74
1070
     0
1000
MTEXTEND
  0
POINT
  5
18C50
330
18C48
100
AcDbEntity
  8
DEFPOINTS
 62
     0
 48
50.0
100
AcDbPoint
 10
4188.396575106999
 20
9156.123139034617
 30
0.0
  0
POINT
  5
18C51
330
18C48
100
AcDbEntity
  8
DEFPOINTS
 62
     0
 48
50.0
100
AcDbPoint
 10
5251.396575106929
 20
9156.123139034672
 30
0.0
  0
POINT
  5
18C52
330
18C48
100
AcDbEntity
  8
DEFPOINTS
 62
     0
 48
50.0
100
AcDbPoint
 10
5194.160902108448
 20
8942.516699398941
 30
0.0
  0
ENDBLK
  5
18C53
330
18C48
100
AcDbEntity
  8
0
 48
50.0
100
AcDbBlockEnd
  0
BLOCK
  5
18C55
330
18C54
100
AcDbEntity
  8
0
 48
50.0
100
AcDbBlockBegin
  2
*D14
 70
     1
 10
0.0
 20
0.0
 30
0.0
  3
*D14
  1

  0
LINE
  5
18C56
330
18C54
100
AcDbEntity
  8
寸法
 62
     0
 48
50.0
370
    -2
100
AcDbLine
 10
5274.037591258307
 20
9136.123139034669
 30
0.0
 11
5206.08395056258
 21
8882.516699398941
 31
0.0
  0
LINE
  5
18C57
330
18C54
100
AcDbEntity
  8
寸法
 62
     0
 48
50.0
370
    -2
100
AcDbLine
 10
6505.037591258377
 20
9136.123139034662
 30
0.0
 11
6437.083950562653
 21
8882.516699398941
 31
0.0
  0
LINE
  5
18C58
330
18C54
100
AcDbEntity
  8
寸法
 62
     0
 48
50.0
370
    -2
100
AcDbLine
 10
5222.160902108448
 20
8942.516699398941
 30
0.0
 11
6453.16090210852
 21
8942.516699398941
 31
0.0
  0
INSERT
  5
18C59
330
18C54
100
AcDbEntity
  8
寸法
 62
     0
 48
50.0
370
    -2
100
AcDbBlockReference
  2
_DOTSMALL
 10
5222.160902108448
 20
8942.516699398941
 30
0.0
 41
100.0
 42
100.0
 43
100.0
 50
180.0
  0
INSERT
  5
18C5A
330
18C54
100
AcDbEntity
  8
寸法
 62
     0
 48
50.0
370
    -2
100
AcDbBlockReference
  2
_DOTSMALL
 10
6453.16090210852
 20
8942.516699398941
 30
0.0
 41
100.0
 42
100.0
 43
100.0
  0
MTEXT
  5
18C5B
330
18C54
100
AcDbEntity
  8
寸法
 62
     7
 48
50.0
100
AcDbMText
 10
6081.244808320626
 20
9042.528510422561
 30
0.0
 40
120.0
 41
0.0
 71
     5
 72
     1
  1
\A1;1231
  7
STYLE1
 73
     1
 44
1.0
1001
ACAD
1000
MTEXTBEGIN
1070
    73
1070
     1
1070
    44
1040
1.0
1070
    74
1070
     0
1000
MTEXTEND
  0
POINT
  5
18C5C
330
18C54
100
AcDbEntity
  8
DEFPOINTS
 62
     0
 48
50.0
100
AcDbPoint
 10
5279.396575106929
 20
9156.123139034669
 30
0.0
  0
POINT
  5
18C5D
330
18C54
100
AcDbEntity
  8
DEFPOINTS
 62
     0
 48
50.0
100
AcDbPoint
 10
6510.396575106999
 20
9156.123139034662
 30
0.0
  0
POINT
  5
18C5E
330
18C54
100
AcDbEntity
  8
DEFPOINTS
 62
     0
 48
50.0
100
AcDbPoint
 10
6453.16090210852
 20
8942.516699398941
 30
0.0
  0
ENDBLK
  5
18C5F
330
18C54
100
AcDbEntity
  8
0
 48
50.0
100
AcDbBlockEnd
  0
BLOCK
  5
18C61
330
18C60
100
AcDbEntity
  8
0
 48
50.0
100
AcDbBlockBegin
  2
*D15
 70
     1
 10
0.0
 20
0.0
 30
0.0
  3
*D15
  1

  0
LINE
  5
18C62
330
18C60
100
AcDbEntity
  8
寸法
 62
     0
 48
50.0
370
    -2
100
AcDbLine
 10
5065.896575106966
 20
7749.123139034579
 30
0.0
 11
5065.896575106966
 21
7099.952920982538
 31
0.0
  0
LINE
  5
18C63
330
18C60
100
AcDbEntity
  8
寸法
 62
     0
 48
50.0
370
    -2
100
AcDbLine
 10
6331.896575106966
 20
7749.123139034579
 30
0.0
 11
6331.896575106966
 21
7099.952920982538
 31
0.0
  0
LINE
  5
18C64
330
18C60
100
AcDbEntity
  8
寸法
 62
     0
 48
50.0
370
    -2
100
AcDbLine
 10
5065.896575106966
 20
7159.952920982537
 30
0.0
 11
6331.896575106966
 21
7159.952920982537
 31
0.0
  0
INSERT
  5
18C65
330
18C60
100
AcDbEntity
  8
寸法
 62
     0
 48
50.0
370
    -2
100
AcDbBlockReference
  2
_DOTSMALL
 10
5065.896575106966
 20
7159.952920982537
 30
0.0
 41
100.0
 42
100.0
 43
100.0
 50
180.0
  0
INSERT
  5
18C66
330
18C60
100
AcDbEntity
  8
寸法
 62
     0
 48
50.0
370
    -2
100
AcDbBlockReference
  2
_DOTSMALL
 10
6331.896575106966
 20
7159.952920982537
 30
0.0
 41
100.0
 42
100.0
 43
100.0
  0
MTEXT
  5
18C67
330
18C60
100
AcDbEntity
  8
寸法
 62
     7
 48
50.0
100
AcDbMText
 10
5711.986008735934
 20
7359.964732006159
 30
0.0
 40
120.0
 41
0.0
 71
     5
 72
     1
  1
\A1;有効開口部間口\P1266
  7
STYLE1
 73
     1
 44
1.0
1001
ACAD
1000
MTEXTBEGIN
1070
    73
1070
     1
1070
    44
1040
1.0
1070
    74
1070
     0
1000
MTEXTEND
  0
POINT
  5
18C68
330
18C60
100
AcDbEntity
  8
DEFPOINTS
 62
     0
 48
50.0
100
AcDbPoint
 10
5065.896575106966
 20
7769.123139034579
 30
0.0
  0
POINT
  5
18C69
330
18C60
100
AcDbEntity
  8
DEFPOINTS
 62
     0
 48
50.0
100
AcDbPoint
 10
6331.896575106966
 20
7769.123139034579
 30
0.0
  0
POINT
  5
18C6A
330
18C60
100
AcDbEntity
  8
DEFPOINTS
 62
     0
 48
50.0
100
AcDbPoint
 10
6331.896575106966
 20
7159.952920982537
 30
0.0
  0
ENDBLK
  5
18C6B
330
18C60
100
AcDbEntity
  8
0
 48
50.0
100
AcDbBlockEnd
  0
BLOCK
  5
18C6D
330
18C6C
100
AcDbEntity
  8
0
 48
50.0
100
AcDbBlockBegin
  2
*D16
 70
     1
 10
0.0
 20
0.0
 30
0.0
  3
*D16
  1

  0
LINE
  5
18C6E
330
18C6C
100
AcDbEntity
  8
寸法
 62
     0
 48
50.0
370
    -2
100
AcDbLine
 10
7200.896575106966
 20
7846.123139034578
 30
0.0
 11
7457.192158500191
 21
7846.123139034578
 31
0.0
  0
LINE
  5
18C6F
330
18C6C
100
AcDbEntity
  8
寸法
 62
     0
 48
50.0
370
    -2
100
AcDbLine
 10
7199.896575106966
 20
7769.123139034579
 30
0.0
 11
7457.192158500191
 21
7769.123139034579
 31
0.0
  0
LINE
  5
18C70
330
18C6C
100
AcDbEntity
  8
寸法
 62
     0
 48
50.0
370
    -2
100
AcDbLine
 10
7417.192158500192
 20
7866.123139034579
 30
0.0
 11
7417.192158500192
 21
7886.123139034578
 31
0.0
  0
LINE
  5
18C71
330
18C6C
100
AcDbEntity
  8
寸法
 62
     0
 48
50.0
370
    -2
100
AcDbLine
 10
7417.192158500192
 20
7749.123139034579
 30
0.0
 11
7417.192158500192
 21
7533.123139034573
 31
0.0
  0
LINE
  5
18C72
330
18C6C
100
AcDbEntity
  8
寸法
 62
     0
 48
50.0
370
    -2
100
AcDbLine
 10
7417.192158500192
 20
7846.123139034578
 30
0.0
 11
7417.192158500192
 21
7769.123139034579
 31
0.0
  0
INSERT
  5
18C73
330
18C6C
100
AcDbEntity
  8
寸法
 62
     0
 48
50.0
370
    -2
100
AcDbBlockReference
  2
_DOT
 10
7417.192158500192
 20
7846.123139034578
 30
0.0
 41
20.0
 42
20.0
 43
20.0
 50
270.0
  0
INSERT
  5
18C74
330
18C6C
100
AcDbEntity
  8
寸法
 62
     0
 48
50.0
370
    -2
100
AcDbBlockReference
  2
_DOT
 10
7417.192158500192
 20
7769.123139034579
 30
0.0
 41
20.0
 42
20.0
 43
20.0
 50
90.0
  0
MTEXT
  5
18C75
330
18C6C
100
AcDbEntity
  8
寸法
 62
     7
 48
50.0
100
AcDbMText
 10
7325.192158500191
 20
7631.123139034575
 30
0.0
 40
120.0
 41
0.0
 71
     5
 72
     1
  1
\A1;77
  7
STYLE1
 11
0.0000000000000001
 21
1.0
 31
0.0
 73
     1
 44
1.0
1001
ACAD
1000
MTEXTBEGIN
1070
    73
1070
     1
1070
    44
1040
1.0
1070
    74
1070
     0
1000
MTEXTEND
  0
POINT
  5
18C76
330
18C6C
100
AcDbEntity
  8
DEFPOINTS
 62
     0
 48
50.0
100
AcDbPoint
 10
7180.896575106967
 20
7846.123139034578
 30
0.0
  0
POINT
  5
18C77
330
18C6C
100
AcDbEntity
  8
DEFPOINTS
 62
     0
 48
50.0
100
AcDbPoint
 10
7179.896575106965
 20
7769.123139034579
 30
0.0
  0
POINT
  5
18C78
330
18C6C
100
AcDbEntity
  8
DEFPOINTS
 62
     0
 48
50.0
100
AcDbPoint
 10
7417.192158500192
 20
7769.123139034579
 30
0.0
  0
ENDBLK
  5
18C79
330
18C6C
100
AcDbEntity
  8
0
 48
50.0
100
AcDbBlockEnd
  0
BLOCK
  5
18DA0
330
18C7A
100
AcDbEntity
  8
0
 48
50.0
100
AcDbBlockBegin
  2
A$C3B1A506B
 70
     0
 10
0.0
 20
0.0
 30
0.0
  3
A$C3B1A506B
  1

  0
MTEXT
  5
18C7B
330
18C7A
100
AcDbEntity
  8
寸法
 62
     7
 48
50.0
100
AcDbMText
 10
3342.250386887194
 20
2778.329429134012
 30
0.0
 40
96.0
 41
0.0
 71
     5
 72
     1
  1
棚 2段
  7
STYLE1
 73
     1
 44
1.0
1001
ACAD
1000
MTEXTBEGIN
1070
    73
1070
     1
1070
    44
1040
1.0
1070
    74
1070
     0
1000
MTEXTEND
  0
MTEXT
  5
18C7C
330
18C7A
100
AcDbEntity
  8
寸法
 62
     7
 48
50.0
100
AcDbMText
 10
2167.25038688716
 20
2778.329429133986
 30
0.0
 40
96.0
 41
0.0
 71
     5
 72
     1
  1
棚 2段
  7
STYLE1
 73
     1
 44
1.0
1001
ACAD
1000
MTEXTBEGIN
1070
    73
1070
     1
1070
    44
1040
1.0
1070
    74
1070
     0
1000
MTEXTEND
  0
MTEXT
  5
18C7D
330
18C7A
100
AcDbEntity
  8
寸法
 62
     7
 48
50.0
100
AcDbMText
 10
992.2503868871608
 20
2778.329429133935
 30
0.0
 40
96.0
 41
0.0
 71
     5
 72
     1
  1
棚 2段
  7
STYLE1
 73
     1
 44
1.0
1001
ACAD
1000
MTEXTBEGIN
1070
    73
1070
     1
1070
    44
1040
1.0
1070
    74
1070
     0
1000
MTEXTEND
  0
LINE
  5
18C7E
330
18C7A
100
AcDbEntity
  8
細線
 48
50.0
100
AcDbLine
 10
2771.970589276527
 20
1368.994384123192
 30
0.0
 11
3398.970589276523
 21
1368.994384123192
 31
0.0
  0
LINE
  5
18C7F
330
18C7A
100
AcDbEntity
  8
細線
 48
50.0
100
AcDbLine
 10
2117.970593930113
 20
1335.285615569113
 30
0.0
 11
3398.970589276523
 21
1335.285615569113
 31
0.0
  0
LINE
  5
18C80
330
18C7A
100
AcDbEntity
  8
細線
 48
50.0
100
AcDbLine
 10
2076.970593930115
 20
1364.690523565368
 30
0.0
 11
1322.970589276523
 21
1364.690523565367
 31
0.0
  0
LINE
  5
18C81
330
18C7A
100
AcDbEntity
  8
細線
100
AcDbLine
 10
3170.720579860066
 20
1388.494284088199
 30
0.0
 11
3173.052119381877
 21
1393.494286728162
 31
0.0
  0
LINE
  5
18C82
330
18C7A
100
AcDbEntity
  8
細線
100
AcDbLine
 10
3240.720589276525
 20
1388.494269174465
 30
0.0
 11
3238.389042800336
 21
1393.494286728144
 31
0.0
  0
LINE
  5
18C83
330
18C7A
100
AcDbEntity
  8
細線
100
AcDbLine
 10
3238.389042800336
 20
1393.494286728144
 30
0.0
 11
3173.052119381862
 21
1393.494286728133
 31
0.0
  0
LINE
  5
18C84
330
18C7A
100
AcDbEntity
  8
細線
100
AcDbLine
 10
3098.389042800336
 20
1393.494286728144
 30
0.0
 11
3033.052119381862
 21
1393.494286728133
 31
0.0
  0
LINE
  5
18C85
330
18C7A
100
AcDbEntity
  8
細線
100
AcDbLine
 10
3100.720589276523
 20
1388.494269174465
 30
0.0
 11
3098.389042800336
 21
1393.494286728144
 31
0.0
  0
LINE
  5
18C86
330
18C7A
100
AcDbEntity
  8
細線
100
AcDbLine
 10
3030.720579860066
 20
1388.494284088199
 30
0.0
 11
3033.052119381875
 21
1393.494286728162
 31
0.0
  0
LINE
  5
18C87
330
18C7A
100
AcDbEntity
  8
細線
100
AcDbLine
 10
2890.720589276525
 20
1388.494269174465
 30
0.0
 11
2893.052128798336
 21
1393.494271814428
 31
0.0
  0
LINE
  5
18C88
330
18C7A
100
AcDbEntity
  8
細線
100
AcDbLine
 10
2960.720598692984
 20
1388.494254260731
 30
0.0
 11
2958.389052216793
 21
1393.49427181441
 31
0.0
  0
LINE
  5
18C89
330
18C7A
100
AcDbEntity
  8
細線
100
AcDbLine
 10
2958.389052216795
 20
1393.49427181441
 30
0.0
 11
2893.052128798321
 21
1393.494271814399
 31
0.0
  0
LINE
  5
18C8A
330
18C7A
100
AcDbEntity
  8
細線
100
AcDbLine
 10
2667.139038146739
 20
1359.494298590735
 30
0.0
 11
2601.802114728263
 21
1359.494298590724
 31
0.0
  0
LINE
  5
18C8B
330
18C7A
100
AcDbEntity
  8
細線
100
AcDbLine
 10
2669.470584622926
 20
1354.494281037055
 30
0.0
 11
2667.139038146737
 21
1359.494298590735
 31
0.0
  0
LINE
  5
18C8C
330
18C7A
100
AcDbEntity
  8
細線
100
AcDbLine
 10
2599.470575206469
 20
1354.49429595079
 30
0.0
 11
2601.802114728278
 21
1359.494298590752
 31
0.0
  0
LINE
  5
18C8D
330
18C7A
100
AcDbEntity
  8
細線
 48
50.0
100
AcDbLine
 10
2440.853968524536
 20
1372.765132327548
 30
0.0
 11
2446.609486107205
 21
1354.494281037057
 31
0.0
  0
LINE
  5
18C8E
330
18C7A
100
AcDbEntity
  8
細線
 48
50.0
100
AcDbLine
 10
2429.925520044106
 20
1372.765132327546
 30
0.0
 11
2440.853968524536
 21
1372.765132327548
 31
0.0
  0
ARC
  5
18C8F
330
18C7A
100
AcDbEntity
  8
細線
 48
50.0
100
AcDbCircle
 10
2424.471163986787
 20
1374.265132327546
 30
0.0
 40
5.0
100
AcDbArc
 50
204.6243183520723
 51
335.3756816479278
  0
ARC
  5
18C90
330
18C7A
100
AcDbEntity
  8
細線
 48
50.0
100
AcDbCircle
 10
2429.925520044106
 20
1371.765132327546
 30
0.0
 40
1.0
100
AcDbArc
 50
90.0
 51
155.3756816479277
  0
ARC
  5
18C91
330
18C7A
100
AcDbEntity
  8
細線
 48
50.0
100
AcDbCircle
 10
2419.016807929469
 20
1371.765132327546
 30
0.0
 40
1.0
100
AcDbArc
 50
24.62431835207225
 51
90.0
  0
LINE
  5
18C92
330
18C7A
100
AcDbEntity
  8
細線
 48
50.0
100
AcDbLine
 10
2408.088359449037
 20
1372.765132327548
 30
0.0
 11
2419.016807929469
 21
1372.765132327546
 31
0.0
  0
LINE
  5
18C93
330
18C7A
100
AcDbEntity
  8
細線
 48
50.0
100
AcDbLine
 10
2402.33284186637
 20
1354.494281037054
 30
0.0
 11
2408.088359449037
 21
1372.765132327548
 31
0.0
  0
LINE
  5
18C94
330
18C7A
100
AcDbEntity
  8
細線
100
AcDbLine
 10
2458.070304175992
 20
1354.494278397076
 30
0.0
 11
2460.401843697802
 21
1359.494281037039
 31
0.0
  0
LINE
  5
18C95
330
18C7A
100
AcDbEntity
  8
細線
100
AcDbLine
 10
2528.070313592451
 20
1354.494263483342
 30
0.0
 11
2525.738767116262
 21
1359.494281037021
 31
0.0
  0
LINE
  5
18C96
330
18C7A
100
AcDbEntity
  8
細線
100
AcDbLine
 10
2525.738767116262
 20
1359.494281037021
 30
0.0
 11
2460.40184369779
 21
1359.49428103701
 31
0.0
  0
LINE
  5
18C97
330
18C7A
100
AcDbEntity
  8
細線
100
AcDbLine
 10
2387.139046332155
 20
1359.494281037021
 30
0.0
 11
2321.80212291368
 21
1359.49428103701
 31
0.0
  0
LINE
  5
18C98
330
18C7A
100
AcDbEntity
  8
細線
100
AcDbLine
 10
2389.470592808342
 20
1354.494263483342
 30
0.0
 11
2387.139046332153
 21
1359.494281037021
 31
0.0
  0
LINE
  5
18C99
330
18C7A
100
AcDbEntity
  8
細線
100
AcDbLine
 10
2319.470584622926
 20
1354.494281037054
 30
0.0
 11
2321.802122913694
 21
1359.494281037039
 31
0.0
  0
LINE
  5
18C9A
330
18C7A
100
AcDbEntity
  8
細線
100
AcDbLine
 10
2179.47061994182
 20
1354.494289224422
 30
0.0
 11
2181.802158232587
 21
1359.494289224407
 31
0.0
  0
LINE
  5
18C9B
330
18C7A
100
AcDbEntity
  8
細線
100
AcDbLine
 10
2249.470628127236
 20
1354.49427167071
 30
0.0
 11
2247.139081651047
 21
1359.494289224389
 31
0.0
  0
LINE
  5
18C9C
330
18C7A
100
AcDbEntity
  8
細線
100
AcDbLine
 10
2247.139081651047
 20
1359.494289224389
 30
0.0
 11
2181.802158232573
 21
1359.494289224378
 31
0.0
  0
LINE
  5
18C9D
330
18C7A
100
AcDbEntity
  8
細線
100
AcDbLine
 10
1807.970585744697
 20
1320.494460905133
 30
0.0
 11
1810.302124035464
 21
1325.494460905118
 31
0.0
  0
LINE
  5
18C9E
330
18C7A
100
AcDbEntity
  8
細線
100
AcDbLine
 10
1877.970593930113
 20
1320.494443351421
 30
0.0
 11
1875.639047453926
 21
1325.4944609051
 31
0.0
  0
LINE
  5
18C9F
330
18C7A
100
AcDbEntity
  8
細線
100
AcDbLine
 10
1875.639047453926
 20
1325.4944609051
 30
0.0
 11
1810.302124035452
 21
1325.494460905089
 31
0.0
  0
LINE
  5
18CA0
330
18C7A
100
AcDbEntity
  8
細線
100
AcDbLine
 10
2015.639047453926
 20
1325.4944609051
 30
0.0
 11
1950.302124035452
 21
1325.494460905089
 31
0.0
  0
LINE
  5
18CA1
330
18C7A
100
AcDbEntity
  8
細線
100
AcDbLine
 10
2017.970593930113
 20
1320.494443351421
 30
0.0
 11
2015.639047453924
 21
1325.4944609051
 31
0.0
  0
LINE
  5
18CA2
330
18C7A
100
AcDbEntity
  8
細線
100
AcDbLine
 10
1947.970585744697
 20
1320.494460905133
 30
0.0
 11
1950.302124035465
 21
1325.494460905118
 31
0.0
  0
LINE
  5
18CA3
330
18C7A
100
AcDbEntity
  8
細線
100
AcDbLine
 10
1735.639047453926
 20
1325.494460905098
 30
0.0
 11
1670.302124035454
 21
1325.494460905087
 31
0.0
  0
LINE
  5
18CA4
330
18C7A
100
AcDbEntity
  8
細線
100
AcDbLine
 10
1737.970593930113
 20
1320.494443351419
 30
0.0
 11
1735.639047453926
 21
1325.494460905098
 31
0.0
  0
LINE
  5
18CA5
330
18C7A
100
AcDbEntity
  8
細線
100
AcDbLine
 10
1667.970585744697
 20
1320.494460905131
 30
0.0
 11
1670.302124035465
 21
1325.494460905116
 31
0.0
  0
LINE
  5
18CA6
330
18C7A
100
AcDbEntity
  8
細線
100
AcDbLine
 10
1527.970593930113
 20
1320.494460905133
 30
0.0
 11
1530.302132220881
 21
1325.494460905118
 31
0.0
  0
LINE
  5
18CA7
330
18C7A
100
AcDbEntity
  8
細線
100
AcDbLine
 10
1597.970602115529
 20
1320.494443351421
 30
0.0
 11
1595.639055639342
 21
1325.4944609051
 31
0.0
  0
LINE
  5
18CA8
330
18C7A
100
AcDbEntity
  8
細線
100
AcDbLine
 10
1595.639055639342
 20
1325.4944609051
 30
0.0
 11
1530.302132220869
 21
1325.494460905089
 31
0.0
  0
ARC
  5
18CA9
330
18C7A
100
AcDbEntity
  8
部品1
 48
0.01
100
AcDbCircle
 10
1483.470482677778
 20
1319.493338720063
 30
0.0
 40
0.5
100
AcDbArc
 50
270.0
 51
0.0
  0
LINE
  5
18CAA
330
18C7A
100
AcDbEntity
  8
部品1
 48
0.01
100
AcDbLine
 10
1483.970482677778
 20
1320.493338720063
 30
0.0
 11
1483.970482677778
 21
1319.493338720063
 31
0.0
  0
LINE
  5
18CAB
330
18C7A
100
AcDbEntity
  8
部品1
 48
0.01
100
AcDbLine
 10
1483.970482677778
 20
1320.493338720063
 30
0.0
 11
1483.970482677778
 21
1319.493338720063
 31
0.0
  0
LINE
  5
18CAC
330
18C7A
100
AcDbEntity
  8
部品1
 48
0.01
100
AcDbLine
 10
1483.470482677778
 20
1318.993338720063
 30
0.0
 11
1476.857977247713
 21
1318.993338720062
 31
0.0
  0
ARC
  5
18CAD
330
18C7A
100
AcDbEntity
  8
部品1
100
AcDbCircle
 10
1476.926326800494
 20
1319.993338720062
 30
0.0
 40
1.0
100
AcDbArc
 50
160.5287793655865
 51
270.0
  0
ARC
  5
18CAE
330
18C7A
100
AcDbEntity
  8
部品1
100
AcDbCircle
 10
1451.470482677778
 20
1328.993338720062
 30
0.0
 40
26.0
100
AcDbArc
 50
340.5287793655865
 51
0.0
  0
LINE
  5
18CAF
330
18C7A
100
AcDbEntity
  8
部品1
100
AcDbLine
 10
1477.470482677778
 20
1328.993338720062
 30
0.0
 11
1477.470482677778
 21
1333.993338720061
 31
0.0
  0
ARC
  5
18CB0
330
18C7A
100
AcDbEntity
  8
部品1
 48
0.01
100
AcDbCircle
 10
1475.470482677778
 20
1333.993338720061
 30
0.0
 40
2.0
100
AcDbArc
 50
0.0
 51
90.0
  0
ARC
  5
18CB1
330
18C7A
100
AcDbEntity
  8
部品1
100
AcDbCircle
 10
1473.862091052968
 20
1332.993338720062
 30
0.0
 40
3.0
100
AcDbArc
 50
90.0
 51
141.6069559808035
  0
LINE
  5
18CB2
330
18C7A
100
AcDbEntity
  8
部品1
 48
0.01
100
AcDbLine
 10
1475.470482677778
 20
1335.993338720062
 30
0.0
 11
1473.862091052968
 21
1335.993338720062
 31
0.0
  0
ARC
  5
18CB3
330
18C7A
100
AcDbEntity
  8
部品1
100
AcDbCircle
 10
1455.399768463507
 20
1332.293338720065
 30
0.0
 40
3.0
100
AcDbArc
 50
254.0576313943215
 51
270.0
  0
ARC
  5
18CB4
330
18C7A
100
AcDbEntity
  8
部品1
100
AcDbCircle
 10
1462.541196892049
 20
1332.293338720065
 30
0.0
 40
3.0
100
AcDbArc
 50
270.0
 51
285.9423686056786
  0
LINE
  5
18CB5
330
18C7A
100
AcDbEntity
  8
部品1
100
AcDbLine
 10
1462.541196892049
 20
1329.293338720064
 30
0.0
 11
1455.399768463507
 21
1329.293338720064
 31
0.0
  0
ARC
  5
18CB6
330
18C7A
100
AcDbEntity
  8
部品1
100
AcDbCircle
 10
1458.970482677778
 20
1344.793338720065
 30
0.0
 40
16.0
100
AcDbArc
 50
285.9423686056786
 51
321.6069559808035
  0
LINE
  5
18CB7
330
18C7A
100
AcDbEntity
  8
部品1
 48
0.01
100
AcDbLine
 10
1442.470482677778
 20
1335.993338720062
 30
0.0
 11
1444.078874302588
 21
1335.993338720062
 31
0.0
  0
ARC
  5
18CB8
330
18C7A
100
AcDbEntity
  8
部品1
100
AcDbCircle
 10
1444.078874302588
 20
1332.993338720062
 30
0.0
 40
3.0
100
AcDbArc
 50
38.39304401919648
 51
90.0
  0
ARC
  5
18CB9
330
18C7A
100
AcDbEntity
  8
部品1
100
AcDbCircle
 10
1458.970482677778
 20
1344.793338720065
 30
0.0
 40
16.0
100
AcDbArc
 50
218.3930440191965
 51
254.0576313943215
  0
LINE
  5
18CBA
330
18C7A
100
AcDbEntity
  8
部品1
100
AcDbLine
 10
1440.470482677778
 20
1328.993338720062
 30
0.0
 11
1440.470482677778
 21
1333.993338720061
 31
0.0
  0
ARC
  5
18CBB
330
18C7A
100
AcDbEntity
  8
部品1
 48
0.01
100
AcDbCircle
 10
1442.470482677778
 20
1333.993338720061
 30
0.0
 40
2.0
100
AcDbArc
 50
90.0
 51
180.0
  0
ARC
  5
18CBC
330
18C7A
100
AcDbEntity
  8
部品1
100
AcDbCircle
 10
1466.470482677778
 20
1328.993338720062
 30
0.0
 40
26.0
100
AcDbArc
 50
180.0
 51
199.4712206344134
  0
ARC
  5
18CBD
330
18C7A
100
AcDbEntity
  8
部品1
 48
0.01
100
AcDbCircle
 10
1434.470482677778
 20
1319.493338720063
 30
0.0
 40
0.5
100
AcDbArc
 50
180.0
 51
270.0
  0
LINE
  5
18CBE
330
18C7A
100
AcDbEntity
  8
部品1
 48
0.01
100
AcDbLine
 10
1434.470482677778
 20
1318.993338720063
 30
0.0
 11
1441.014638555061
 21
1318.993338720062
 31
0.0
  0
LINE
  5
18CBF
330
18C7A
100
AcDbEntity
  8
部品1
 48
0.01
100
AcDbLine
 10
1433.970482677778
 20
1320.493338720063
 30
0.0
 11
1433.970482677778
 21
1319.493338720063
 31
0.0
  0
ARC
  5
18CC0
330
18C7A
100
AcDbEntity
  8
部品1
100
AcDbCircle
 10
1441.014638555061
 20
1319.993338720062
 30
0.0
 40
1.0
100
AcDbArc
 50
270.0
 51
19.47122063441346
  0
LINE
  5
18CC1
330
18C7A
100
AcDbEntity
  8
細線
100
AcDbLine
 10
1479.470482677785
 20
1338.493338720065
 30
0.0
 11
1438.470482677785
 21
1338.493338720058
 31
0.0
  0
LINE
  5
18CC2
330
18C7A
100
AcDbEntity
  8
細線
100
AcDbLine
 10
1438.470482677785
 20
1338.493338720058
 30
0.0
 11
1438.470482677785
 21
1320.49333872004
 31
0.0
  0
LINE
  5
18CC3
330
18C7A
100
AcDbEntity
  8
細線
100
AcDbLine
 10
1479.470482677785
 20
1338.493338720065
 30
0.0
 11
1479.470482677785
 21
1320.49333872004
 31
0.0
  0
LINE
  5
18CC4
330
18C7A
100
AcDbEntity
  8
細線
100
AcDbLine
 10
1322.970589276523
 20
1324.494269174465
 30
0.0
 11
1322.970589276523
 21
1320.494269174513
 31
0.0
  0
LINE
  5
18CC5
330
18C7A
100
AcDbEntity
  8
寸法
 48
50.0
100
AcDbLine
 10
1746.17359555837
 20
1170.531020743327
 30
0.0
 11
1694.767587648266
 21
1170.531020743327
 31
0.0
  0
LINE
  5
18CC6
330
18C7A
100
AcDbEntity
  8
寸法
 48
50.0
100
AcDbLine
 10
1694.767587648266
 20
1170.531020743327
 30
0.0
 11
1694.767587648266
 21
1201.841179395494
 31
0.0
  0
LINE
  5
18CC7
330
18C7A
100
AcDbEntity
  8
寸法
 48
50.0
100
AcDbLine
 10
1694.767587648266
 20
1201.841179395494
 30
0.0
 11
1665.006255656843
 21
1201.841179395494
 31
0.0
  0
LINE
  5
18CC8
330
18C7A
100
AcDbEntity
  8
寸法
 48
50.0
100
AcDbLine
 10
1665.006255656843
 20
1201.841179395494
 30
0.0
 11
1720.470591603318
 21
1239.420630324105
 31
0.0
  0
LINE
  5
18CC9
330
18C7A
100
AcDbEntity
  8
寸法
 48
50.0
100
AcDbLine
 10
1775.934927549793
 20
1201.841179395494
 30
0.0
 11
1720.470591603318
 21
1239.420630324105
 31
0.0
  0
LINE
  5
18CCA
330
18C7A
100
AcDbEntity
  8
寸法
 48
50.0
100
AcDbLine
 10
1746.17359555837
 20
1201.841179395494
 30
0.0
 11
1775.934927549793
 21
1201.841179395494
 31
0.0
  0
LINE
  5
18CCB
330
18C7A
100
AcDbEntity
  8
寸法
 48
50.0
100
AcDbLine
 10
1746.17359555837
 20
1170.531020743327
 30
0.0
 11
1746.17359555837
 21
1201.841179395494
 31
0.0
  0
LINE
  5
18CCC
330
18C7A
100
AcDbEntity
  8
寸法
 48
50.0
100
AcDbLine
 10
1694.767587648266
 20
1170.531020743327
 30
0.0
 11
1746.17359555837
 21
1170.531020743327
 31
0.0
  0
LINE
  5
18CCD
330
18C7A
100
AcDbEntity
  8
寸法
 48
50.0
100
AcDbLine
 10
2025.339129835225
 20
1227.676611498152
 30
0.0
 11
2025.339129835225
 21
1174.01297691636
 31
0.0
  0
LINE
  5
18CCE
330
18C7A
100
AcDbEntity
  8
寸法
 48
50.0
100
AcDbLine
 10
2114.623348430647
 20
1203.752977228664
 30
0.0
 11
2025.339129835225
 21
1227.676611498152
 31
0.0
  0
LINE
  5
18CCF
330
18C7A
100
AcDbEntity
  8
寸法
 48
50.0
100
AcDbLine
 10
1895.471408254923
 20
1203.752977228664
 30
0.0
 11
2114.623348430647
 21
1203.752977228664
 31
0.0
  0
DIMENSION
  5
18CD0
330
18C7A
100
AcDbEntity
  8
寸法
 48
50.0
100
AcDbDimension
  2
*D15
 10
2588.970589276523
 20
706.3240511224249
 30
0.0
 11
1969.060022905491
 21
706.3240511224249
 31
0.0
 12
-3742.925985830444
 22
-6453.628869860112
 32
0.0
 70
   128
  1
有効開口部間口\P<>
 71
     5
 42
1266.0
  3
INABA_S40G
100
AcDbAlignedDimension
 13
1322.970589276523
 23
1315.494269174465
 33
0.0
 14
2588.970589276523
 24
1315.494269174465
 34
0.0
100
AcDbRotatedDimension
1001
ACAD
1000
DSTYLE
1002
{
1070
   341
1005
0
1002
}
  0
LINE
  5
18CD1
330
18C7A
100
AcDbEntity
  8
部品1
100
AcDbLine
 10
3409.970589276524
 20
1392.494269174465
 30
0.0
 11
3437.970589276523
 21
1392.494269174465
 31
0.0
  0
DIMENSION
  5
18CD2
330
18C7A
100
AcDbEntity
  8
寸法
100
AcDbDimension
  2
*D16
 10
3674.266172669749
 20
1315.494269174465
 30
0.0
 11
3674.266172669748
 21
1177.494269174462
 31
0.0
 12
-3742.925985830444
 22
-6453.628869860112
 32
0.0
 70
   128
 71
     5
 42
77.0
  3
INABA_S40
100
AcDbAlignedDimension
 13
3437.970589276523
 23
1392.494269174465
 33
0.0
 14
3436.970589276523
 24
1315.494269174465
 34
0.0
 50
90.0
100
AcDbRotatedDimension
1001
ACAD
1000
DSTYLE
1002
{
1070
    41
1040
0.5
1070
    44
1040
1.0
1070
   147
1040
0.8
1070
   271
1070
     2
1070
   272
1070
     2
1070
   289
1070
     3
1070
   340
1005
F706
1070
   343
1005
164B4
1070
   344
1005
164B4
1002
}
  0
LINE
  5
18CD3
330
18C7A
100
AcDbEntity
  8
部品1
100
AcDbLine
 10
3437.970589276523
 20
1315.494269174465
 30
0.0
 11
3437.970589276523
 21
1392.494269174465
 31
0.0
  0
LINE
  5
18CD4
330
18C7A
100
AcDbEntity
  8
部品1
100
AcDbLine
 10
3398.970589276523
 20
1388.494269174465
 30
0.0
 11
3409.970589276524
 21
1388.494269174465
 31
0.0
  0
LINE
  5
18CD5
330
18C7A
100
AcDbEntity
  8
部品1
100
AcDbLine
 10
3407.970589276523
 20
1324.494269174465
 30
0.0
 11
3407.970589276523
 21
1315.494269174465
 31
0.0
  0
LINE
  5
18CD6
330
18C7A
100
AcDbEntity
  8
部品1
100
AcDbLine
 10
3398.970589276523
 20
1324.494269174465
 30
0.0
 11
3407.970589276523
 21
1324.494269174465
 31
0.0
  0
LINE
  5
18CD7
330
18C7A
100
AcDbEntity
  8
部品1
100
AcDbLine
 10
3398.970589276523
 20
1388.494269174465
 30
0.0
 11
3398.970589276523
 21
1324.494269174465
 31
0.0
  0
LINE
  5
18CD8
330
18C7A
100
AcDbEntity
  8
部品1
100
AcDbLine
 10
3409.970589276524
 20
1419.494269174465
 30
0.0
 11
3409.970589276524
 21
1388.494269174465
 31
0.0
  0
LINE
  5
18CD9
330
18C7A
100
AcDbEntity
  8
部品1
100
AcDbLine
 10
1322.970589276523
 20
1388.494269174465
 30
0.0
 11
1311.970589276523
 21
1388.494269174465
 31
0.0
  0
LINE
  5
18CDA
330
18C7A
100
AcDbEntity
  8
部品1
100
AcDbLine
 10
1283.970589276523
 20
1392.494269174465
 30
0.0
 11
1311.970589276523
 21
1392.494269174465
 31
0.0
  0
LINE
  5
18CDB
330
18C7A
100
AcDbEntity
  8
部品1
100
AcDbLine
 10
1313.970589276523
 20
1324.494269174465
 30
0.0
 11
1313.970589276523
 21
1315.494269174465
 31
0.0
  0
LINE
  5
18CDC
330
18C7A
100
AcDbEntity
  8
部品1
100
AcDbLine
 10
1322.970589276523
 20
1324.494269174465
 30
0.0
 11
1313.970589276523
 21
1324.494269174465
 31
0.0
  0
LINE
  5
18CDD
330
18C7A
100
AcDbEntity
  8
部品1
100
AcDbLine
 10
1313.970589276523
 20
1315.494269174465
 30
0.0
 11
1283.970589276523
 21
1315.494269174465
 31
0.0
  0
LINE
  5
18CDE
330
18C7A
100
AcDbEntity
  8
部品1
100
AcDbLine
 10
1283.970589276523
 20
1315.494269174465
 30
0.0
 11
1283.970589276523
 21
1392.494269174465
 31
0.0
  0
LINE
  5
18CDF
330
18C7A
100
AcDbEntity
  8
部品1
100
AcDbLine
 10
1322.970589276523
 20
1388.494269174465
 30
0.0
 11
1322.970589276523
 21
1324.494269174465
 31
0.0
  0
LINE
  5
18CE0
330
18C7A
100
AcDbEntity
  8
部品1
100
AcDbLine
 10
1311.970589276523
 20
1419.494269174462
 30
0.0
 11
1311.970589276523
 21
1388.494269174465
 31
0.0
  0
LINE
  5
18CE1
330
18C7A
100
AcDbEntity
  8
部品1
100
AcDbLine
 10
1311.970589276523
 20
1419.494269174462
 30
0.0
 11
3409.970589276524
 21
1419.494269174465
 31
0.0
  0
LINE
  5
18CE2
330
18C7A
100
AcDbEntity
  8
部品1
100
AcDbLine
 10
3407.970589276523
 20
1315.494269174465
 30
0.0
 11
3437.970589276523
 21
1315.494269174465
 31
0.0
  0
LINE
  5
18CE3
330
18C7A
100
AcDbEntity
  8
部品1
100
AcDbLine
 10
1313.970589276523
 20
1315.494269174465
 30
0.0
 11
3410.970589276523
 21
1315.494269174465
 31
0.0
  0
LINE
  5
18CE4
330
18C7A
100
AcDbEntity
  8
細線
  6
Continuous
 62
     5
100
AcDbLine
 10
2689.970589276527
 20
1354.494269174462
 30
0.0
 11
2689.970589276527
 21
1354.494269174462
 31
0.0
  0
LINE
  5
18CE5
330
18C7A
100
AcDbEntity
  8
細線
  6
Continuous
 62
     5
100
AcDbLine
 10
2682.470589276527
 20
1354.494269174462
 30
0.0
 11
2682.470589276527
 21
1354.494269174462
 31
0.0
  0
LINE
  5
18CE6
330
18C7A
100
AcDbEntity
  8
細線
  6
Continuous
 62
     5
100
AcDbLine
 10
2676.470589276527
 20
1354.494269174462
 30
0.0
 11
2676.470589276527
 21
1354.494269174462
 31
0.0
  0
LINE
  5
18CE7
330
18C7A
100
AcDbEntity
  8
細線
  6
Continuous
 62
     5
100
AcDbLine
 10
2743.970589276527
 20
1373.494269174462
 30
0.0
 11
2743.970589276527
 21
1373.494269174462
 31
0.0
  0
LINE
  5
18CE8
330
18C7A
100
AcDbEntity
  8
細線
 48
50.0
100
AcDbLine
 10
1336.970593930116
 20
1341.094443351418
 30
0.0
 11
1336.970593930113
 21
1349.490593759059
 31
0.0
  0
LINE
  5
18CE9
330
18C7A
100
AcDbEntity
  8
細線
 48
50.0
100
AcDbLine
 10
1336.970593930113
 20
1349.490593759059
 30
0.0
 11
1322.970589276523
 21
1349.490593759057
 31
0.0
  0
LINE
  5
18CEA
330
18C7A
100
AcDbEntity
  8
細線
 48
50.0
100
AcDbLine
 10
2087.970593930113
 20
1337.644443351419
 30
0.0
 11
2087.970593930113
 21
1342.494443351421
 31
0.0
  0
LINE
  5
18CEB
330
18C7A
100
AcDbEntity
  8
細線
 48
50.0
100
AcDbLine
 10
2087.970593930113
 20
1342.494443351421
 30
0.0
 11
2102.970593930113
 21
1342.494443351421
 31
0.0
  0
LINE
  5
18CEC
330
18C7A
100
AcDbEntity
  8
細線
 48
50.0
100
AcDbLine
 10
2102.970593930113
 20
1342.494443351421
 30
0.0
 11
2102.970593930115
 21
1349.494443351419
 31
0.0
  0
LINE
  5
18CED
330
18C7A
100
AcDbEntity
  8
細線
 48
50.0
100
AcDbLine
 10
2102.970593930115
 20
1349.494443351419
 30
0.0
 11
2117.970593930113
 21
1349.494443351419
 31
0.0
  0
LINE
  5
18CEE
330
18C7A
100
AcDbEntity
  8
細線
 48
50.0
100
AcDbLine
 10
2117.970593930113
 20
1349.494443351419
 30
0.0
 11
2117.970593930113
 21
1320.494443351421
 31
0.0
  0
LINE
  5
18CEF
330
18C7A
100
AcDbEntity
  8
細線
 48
50.0
100
AcDbLine
 10
1313.970589276523
 20
1320.491777694889
 30
0.0
 11
1527.970593930113
 21
1320.494460905133
 31
0.0
  0
LINE
  5
18CF0
330
18C7A
100
AcDbEntity
  8
細線
 48
50.0
100
AcDbLine
 10
2017.970593930113
 20
1320.494443351421
 30
0.0
 11
2117.970593930113
 21
1320.494443351421
 31
0.0
  0
LINE
  5
18CF1
330
18C7A
100
AcDbEntity
  8
細線
 48
50.0
100
AcDbLine
 10
1737.970593930113
 20
1320.494443351419
 30
0.0
 11
1807.970593930113
 21
1320.494443351423
 31
0.0
  0
LINE
  5
18CF2
330
18C7A
100
AcDbEntity
  8
細線
 48
50.0
100
AcDbLine
 10
1750.832558942642
 20
1320.494443351419
 30
0.0
 11
1756.588076525309
 21
1338.765294641913
 31
0.0
  0
LINE
  5
18CF3
330
18C7A
100
AcDbEntity
  8
細線
 48
50.0
100
AcDbLine
 10
1756.588076525309
 20
1338.765294641913
 30
0.0
 11
1767.516525005743
 21
1338.765294641911
 31
0.0
  0
ARC
  5
18CF4
330
18C7A
100
AcDbEntity
  8
細線
 48
50.0
100
AcDbCircle
 10
1767.516525005743
 20
1337.765294641911
 30
0.0
 40
1.0
100
AcDbArc
 50
24.62431835207225
 51
90.0
  0
ARC
  5
18CF5
330
18C7A
100
AcDbEntity
  8
細線
 48
50.0
100
AcDbCircle
 10
1778.425237120377
 20
1337.765294641911
 30
0.0
 40
1.0
100
AcDbArc
 50
90.0
 51
155.3756816479277
  0
ARC
  5
18CF6
330
18C7A
100
AcDbEntity
  8
細線
 48
50.0
100
AcDbCircle
 10
1772.970881063058
 20
1340.265294641911
 30
0.0
 40
5.0
100
AcDbArc
 50
204.6243183520723
 51
335.3756816479278
  0
LINE
  5
18CF7
330
18C7A
100
AcDbEntity
  8
細線
 48
50.0
100
AcDbLine
 10
1778.425237120377
 20
1338.765294641911
 30
0.0
 11
1789.35368560081
 21
1338.765294641913
 31
0.0
  0
LINE
  5
18CF8
330
18C7A
100
AcDbEntity
  8
細線
 48
50.0
100
AcDbLine
 10
1789.35368560081
 20
1338.765294641913
 30
0.0
 11
1795.109203183478
 21
1320.494443351423
 31
0.0
  0
LINE
  5
18CF9
330
18C7A
100
AcDbEntity
  8
細線
 48
50.0
100
AcDbLine
 10
2087.970593930113
 20
1341.094443351419
 30
0.0
 11
1336.970593930116
 21
1341.094443351418
 31
0.0
  0
LINE
  5
18CFA
330
18C7A
100
AcDbEntity
  8
細線
 48
50.0
100
AcDbLine
 10
1947.970593930113
 20
1320.494443351421
 30
0.0
 11
1877.970593930113
 21
1320.494443351421
 31
0.0
  0
LINE
  5
18CFB
330
18C7A
100
AcDbEntity
  8
細線
100
AcDbLine
 10
1667.970593930113
 20
1320.494443351421
 30
0.0
 11
1597.970602115529
 21
1320.494443351421
 31
0.0
  0
LINE
  5
18CFC
330
18C7A
100
AcDbEntity
  8
細線
 48
50.0
100
AcDbLine
 10
2741.970584622936
 20
1375.094487209288
 30
0.0
 11
2106.970593930113
 21
1375.094487209284
 31
0.0
  0
LINE
  5
18CFD
330
18C7A
100
AcDbEntity
  8
細線
 48
50.0
100
AcDbLine
 10
2106.970593930113
 20
1371.990637616925
 30
0.0
 11
2106.970593930113
 21
1376.490637616925
 31
0.0
  0
LINE
  5
18CFE
330
18C7A
100
AcDbEntity
  8
細線
 48
50.0
100
AcDbLine
 10
2106.970593930113
 20
1376.490637616925
 30
0.0
 11
2091.970593930113
 21
1376.490637616925
 31
0.0
  0
LINE
  5
18CFF
330
18C7A
100
AcDbEntity
  8
細線
 48
50.0
100
AcDbLine
 10
2091.970593930113
 20
1376.490637616925
 30
0.0
 11
2091.970593930113
 21
1383.490637616927
 31
0.0
  0
LINE
  5
18D00
330
18C7A
100
AcDbEntity
  8
細線
 48
50.0
100
AcDbLine
 10
2091.970593930113
 20
1383.490637616927
 30
0.0
 11
2076.970593930115
 21
1383.490637616924
 31
0.0
  0
LINE
  5
18D01
330
18C7A
100
AcDbEntity
  8
細線
 48
50.0
100
AcDbLine
 10
2076.970593930115
 20
1383.490637616924
 30
0.0
 11
2076.970593930115
 21
1345.890409513813
 31
0.0
  0
LINE
  5
18D02
330
18C7A
100
AcDbEntity
  8
細線
 48
50.0
100
AcDbLine
 10
2076.970593930115
 20
1345.890409513813
 30
0.0
 11
2096.970601231289
 21
1345.890451063353
 31
0.0
  0
LINE
  5
18D03
330
18C7A
100
AcDbEntity
  8
細線
 48
50.0
100
AcDbLine
 10
2096.970556362348
 20
1354.493912699161
 30
0.0
 11
2096.970601231289
 21
1345.890451063353
 31
0.0
  0
LINE
  5
18D04
330
18C7A
100
AcDbEntity
  8
細線
 48
50.0
100
AcDbLine
 10
2741.970584622936
 20
1371.644487209287
 30
0.0
 11
2741.970584622936
 21
1376.494487209284
 31
0.0
  0
LINE
  5
18D05
330
18C7A
100
AcDbEntity
  8
細線
 48
50.0
100
AcDbLine
 10
2741.970584622936
 20
1376.494487209284
 30
0.0
 11
2756.970584622934
 21
1376.494487209285
 31
0.0
  0
LINE
  5
18D06
330
18C7A
100
AcDbEntity
  8
細線
 48
50.0
100
AcDbLine
 10
2756.970584622934
 20
1376.494487209285
 30
0.0
 11
2756.970596256909
 21
1383.494487209331
 31
0.0
  0
LINE
  5
18D07
330
18C7A
100
AcDbEntity
  8
細線
 48
50.0
100
AcDbLine
 10
2756.970596256909
 20
1383.494487209331
 30
0.0
 11
2771.970594427439
 21
1383.494487209329
 31
0.0
  0
LINE
  5
18D08
330
18C7A
100
AcDbEntity
  8
細線
 48
50.0
100
AcDbLine
 10
2771.970594427439
 20
1383.494487209329
 30
0.0
 11
2771.970584125617
 21
1354.494281037055
 31
0.0
  0
LINE
  5
18D09
330
18C7A
100
AcDbEntity
  8
細線
 48
50.0
100
AcDbLine
 10
2458.070304175992
 20
1354.494278397076
 30
0.0
 11
2389.470863838818
 21
1354.494283787084
 31
0.0
  0
LINE
  5
18D0A
330
18C7A
100
AcDbEntity
  8
細線
 48
50.0
100
AcDbLine
 10
2096.970556362348
 20
1354.493912699161
 30
0.0
 11
2108.203245717057
 21
1354.494095652309
 31
0.0
  0
ARC
  5
18D0B
330
18C7A
100
AcDbEntity
  8
細線
 48
50.0
100
AcDbCircle
 10
2114.785538024393
 20
1353.294259565922
 30
0.0
 40
1.8
100
AcDbArc
 50
270.0006665777295
 51
345.000555481349
  0
LINE
  5
18D0C
330
18C7A
100
AcDbEntity
  8
細線
 48
50.0
100
AcDbLine
 10
2116.771971470473
 20
1353.753100023201
 30
0.0
 11
2116.524209028273
 21
1352.828402141094
 31
0.0
  0
LINE
  5
18D0D
330
18C7A
100
AcDbEntity
  8
細線
 48
50.0
100
AcDbLine
 10
2114.785558965548
 20
1351.494259566043
 30
0.0
 11
2111.155631546781
 21
1351.494217335563
 31
0.0
  0
ARC
  5
18D0E
330
18C7A
100
AcDbEntity
  8
細線
 48
50.0
100
AcDbCircle
 10
2111.155610605627
 20
1353.29421733544
 30
0.0
 40
1.8
100
AcDbArc
 50
195.0010443049965
 51
270.0006665777295
  0
LINE
  5
18D0F
330
18C7A
100
AcDbEntity
  8
細線
 48
50.0
100
AcDbLine
 10
2109.169183113368
 20
1353.752932303007
 30
0.0
 11
2109.416952609882
 21
1352.828311364425
 31
0.0
  0
ARC
  5
18D10
330
18C7A
100
AcDbEntity
  8
細線
 48
50.0
100
AcDbCircle
 10
2108.203262004622
 20
1353.494095652444
 30
0.0
 40
1.0
100
AcDbArc
 50
15.00104430499651
 51
90.00093320877969
  0
LINE
  5
18D11
330
18C7A
100
AcDbEntity
  8
細線
 48
50.0
100
AcDbLine
 10
2117.737892825577
 20
1354.494290342714
 30
0.0
 11
2118.679652976481
 21
1354.494296916564
 31
0.0
  0
ARC
  5
18D12
330
18C7A
100
AcDbEntity
  8
細線
 48
50.0
100
AcDbCircle
 10
2117.737899805961
 20
1353.49429034274
 30
0.0
 40
1.0
100
AcDbArc
 50
90.0003999466794
 51
165.000555481349
  0
LINE
  5
18D13
330
18C7A
100
AcDbEntity
  8
細線
 48
50.0
100
AcDbLine
 10
2669.470584622926
 20
1354.494281037055
 30
0.0
 11
2771.970584125617
 21
1354.494281037055
 31
0.0
  0
LINE
  5
18D14
330
18C7A
100
AcDbEntity
  8
細線
 48
50.0
100
AcDbLine
 10
2179.47061994182
 20
1354.494289224422
 30
0.0
 11
2118.370558714898
 21
1354.494296916564
 31
0.0
  0
LINE
  5
18D15
330
18C7A
100
AcDbEntity
  8
細線
 48
50.0
100
AcDbLine
 10
2599.470584622926
 20
1354.494281037057
 30
0.0
 11
2529.470584622926
 21
1354.494281037055
 31
0.0
  0
LINE
  5
18D16
330
18C7A
100
AcDbEntity
  8
細線
 48
50.0
100
AcDbLine
 10
2319.470584622926
 20
1354.494281037054
 30
0.0
 11
2249.470567335051
 21
1354.494281037057
 31
0.0
  0
ARC
  5
18D17
330
18C7A
100
AcDbEntity
  8
細線
 48
50.0
100
AcDbCircle
 10
2756.170589276533
 20
1387.694269174466
 30
0.0
 40
0.8
100
AcDbArc
 50
359.9997333689499
 51
89.99986668437072
  0
ARC
  5
18D18
330
18C7A
100
AcDbEntity
  8
細線
 48
50.0
100
AcDbCircle
 10
2763.770596101631
 20
1387.694280343081
 30
0.0
 40
0.8
100
AcDbArc
 50
90.00014387753465
 51
179.9997333689498
  0
LINE
  5
18D19
330
18C7A
100
AcDbEntity
  8
細線
 48
50.0
100
AcDbLine
 10
2756.170591137969
 20
1388.494269174465
 30
0.0
 11
2750.970589276525
 21
1388.494269174465
 31
0.0
  0
ARC
  5
18D1A
330
18C7A
100
AcDbEntity
  8
細線
 48
50.0
100
AcDbCircle
 10
2757.670589276524
 20
1386.194269174464
 30
0.0
 40
0.7
100
AcDbArc
 50
180.0
 51
270.0
  0
ARC
  5
18D1B
330
18C7A
100
AcDbEntity
  8
細線
 48
50.0
100
AcDbCircle
 10
2762.270589276524
 20
1386.194269174464
 30
0.0
 40
0.7
100
AcDbArc
 50
270.0
 51
0.0
  0
LINE
  5
18D1C
330
18C7A
100
AcDbEntity
  8
細線
 48
50.0
100
AcDbLine
 10
2762.970589276525
 20
1386.194269174464
 30
0.0
 11
2762.970596101639
 21
1387.694284065954
 31
0.0
  0
LINE
  5
18D1D
330
18C7A
100
AcDbEntity
  8
細線
 48
50.0
100
AcDbLine
 10
2757.670589276524
 20
1385.494269174465
 30
0.0
 11
2762.270589276524
 21
1385.494269174465
 31
0.0
  0
LINE
  5
18D1E
330
18C7A
100
AcDbEntity
  8
細線
 48
50.0
100
AcDbLine
 10
2756.970589276525
 20
1387.694269174466
 30
0.0
 11
2756.970589276525
 21
1386.194269174464
 31
0.0
  0
LINE
  5
18D1F
330
18C7A
100
AcDbEntity
  8
細線
 48
50.0
100
AcDbLine
 10
3382.570589276527
 20
1418.494269174465
 30
0.0
 11
2745.970589276525
 21
1418.494269174463
 31
0.0
  0
LINE
  5
18D20
330
18C7A
100
AcDbEntity
  8
細線
 48
50.0
100
AcDbLine
 10
3408.470589276525
 20
1413.494269174467
 30
0.0
 11
3392.570589276527
 21
1413.494269174465
 31
0.0
  0
LINE
  5
18D21
330
18C7A
100
AcDbEntity
  8
細線
 48
50.0
100
AcDbLine
 10
3392.570589276526
 20
1413.494269174465
 30
0.0
 11
3382.570589276527
 21
1418.494269174465
 31
0.0
  0
LINE
  5
18D22
330
18C7A
100
AcDbEntity
  8
細線
100
AcDbLine
 10
2993.470589276525
 20
1388.494269174465
 30
0.0
 11
2993.470589276525
 21
1417.794269174464
 31
0.0
  0
LINE
  5
18D23
330
18C7A
100
AcDbEntity
  8
細線
100
AcDbLine
 10
2993.470589276525
 20
1417.794269174464
 30
0.0
 11
3013.470589276525
 21
1417.794269174464
 31
0.0
  0
LINE
  5
18D24
330
18C7A
100
AcDbEntity
  8
細線
100
AcDbLine
 10
3013.470589276525
 20
1388.494269174465
 30
0.0
 11
3013.470589276525
 21
1417.794269174464
 31
0.0
  0
LINE
  5
18D25
330
18C7A
100
AcDbEntity
  8
細線
100
AcDbLine
 10
3170.720589276524
 20
1388.494269174465
 30
0.0
 11
3100.720589276523
 21
1388.494269174465
 31
0.0
  0
LINE
  5
18D26
330
18C7A
100
AcDbEntity
  8
細線
 48
50.0
100
AcDbLine
 10
2890.720589276525
 20
1388.494269174465
 30
0.0
 11
2763.766368849365
 21
1388.494269174465
 31
0.0
  0
LINE
  5
18D27
330
18C7A
100
AcDbEntity
  8
細線
100
AcDbLine
 10
3030.720589276525
 20
1388.494269174465
 30
0.0
 11
2960.720589276525
 21
1388.494269174465
 31
0.0
  0
LINE
  5
18D28
330
18C7A
100
AcDbEntity
  8
細線
 48
50.0
100
AcDbLine
 10
2750.970589276525
 20
1380.494269174465
 30
0.0
 11
2750.970589276525
 21
1388.494269174465
 31
0.0
  0
LINE
  5
18D29
330
18C7A
100
AcDbEntity
  8
細線
 48
50.0
100
AcDbLine
 10
2730.970589276524
 20
1380.494269174467
 30
0.0
 11
2750.970589276525
 21
1380.494269174465
 31
0.0
  0
LINE
  5
18D2A
330
18C7A
100
AcDbEntity
  8
細線
 48
50.0
100
AcDbLine
 10
2745.970589276525
 20
1418.494269174465
 30
0.0
 11
2745.970589276525
 21
1413.494269174465
 31
0.0
  0
LINE
  5
18D2B
330
18C7A
100
AcDbEntity
  8
細線
 48
50.0
100
AcDbLine
 10
2730.970589276525
 20
1418.494269174463
 30
0.0
 11
2745.970589276525
 21
1418.494269174465
 31
0.0
  0
LINE
  5
18D2C
330
18C7A
100
AcDbEntity
  8
細線
 48
50.0
100
AcDbLine
 10
2730.970589276524
 20
1380.494269174467
 30
0.0
 11
2730.970589276525
 21
1418.494269174463
 31
0.0
  0
LINE
  5
18D2D
330
18C7A
100
AcDbEntity
  8
細線
100
AcDbLine
 10
3398.970589276523
 20
1388.494269174465
 30
0.0
 11
3240.720589276525
 21
1388.494269174465
 31
0.0
  0
LINE
  5
18D2E
330
18C7A
100
AcDbEntity
  8
細線
 48
50.0
100
AcDbLine
 10
3408.470589276525
 20
1413.494269174467
 30
0.0
 11
3408.470589276524
 21
1388.494269174465
 31
0.0
  0
TEXT
  5
18D2F
330
18C7A
100
AcDbEntity
  8
部品1
100
AcDbText
 10
1860.154865991392
 20
46.99880823813145
 30
0.0
 40
135.0
  1
平面図
  7
STYLE2
100
AcDbText
  0
LWPOLYLINE
  5
18D30
330
18C7A
100
AcDbEntity
  8
部品1
100
AcDbPolyline
 90
        4
 70
     1
 43
0.0
 10
1770.23525616235
 20
239.8923374566548
 10
1770.23525616235
 20
0.0000159111223184
 10
2533.705922390791
 20
0.0000159111223184
 10
2533.705922390791
 20
239.8923374566548
  0
LINE
  5
18D31
330
18C7A
100
AcDbEntity
  8
部品1
100
AcDbLine
 10
1534.470589276487
 20
3154.494269174626
 30
0.0
 11
2769.470589276552
 21
3154.494269174626
 31
0.0
  0
LINE
  5
18D32
330
18C7A
100
AcDbEntity
  8
部品1
 48
50.0
100
AcDbLine
 10
1311.970589276523
 20
1420.494269174462
 30
0.0
 11
3411.970589276523
 21
1420.494269174465
 31
0.0
  0
LINE
  5
18D33
330
18C7A
100
AcDbEntity
  8
部品1
 48
50.0
100
AcDbLine
 10
471.9705892765232
 20
1392.494269174465
 30
0.0
 11
1311.970589276523
 21
1392.494269174465
 31
0.0
  0
DIMENSION
  5
18D34
330
18C7A
100
AcDbEntity
  8
寸法
100
AcDbDimension
  2
*D14
 10
2710.234916278077
 20
2488.887829538828
 30
0.0
 11
2338.318822490183
 21
2488.887829538828
 31
0.0
 12
-3742.925985830444
 22
-6453.628869860112
 32
0.0
 70
   128
 71
     5
 42
1231.00000000007
  3
INABA_S40G
100
AcDbAlignedDimension
 13
1536.470589276486
 23
2702.494269174557
 33
0.0
 14
2767.470589276556
 24
2702.494269174549
 34
0.0
100
AcDbRotatedDimension
1001
ACAD
1000
DSTYLE
1002
{
1002
}
  0
LINE
  5
18D35
330
18C7A
100
AcDbEntity
  8
部品1
100
AcDbLine
 10
1536.470589276487
 20
2702.494269174557
 30
0.0
 11
2767.470589276554
 21
2702.494269174615
 31
0.0
  0
LINE
  5
18D36
330
18C7A
100
AcDbEntity
  8
部品1
100
AcDbLine
 10
1536.470589276487
 20
3152.494269174557
 30
0.0
 11
2767.470589276556
 21
3152.494269174615
 31
0.0
  0
LINE
  5
18D37
330
18C7A
100
AcDbEntity
  8
細線
 48
50.0
100
AcDbLine
 10
1508.470589276487
 20
3152.494269174558
 30
0.0
 11
445.4705892765559
 21
2702.494269174509
 31
0.0
  0
LINE
  5
18D38
330
18C7A
100
AcDbEntity
  8
細線
 48
50.0
100
AcDbLine
 10
1508.470589276487
 20
2702.494269174558
 30
0.0
 11
445.4705892765542
 21
3152.494269174509
 31
0.0
  0
LINE
  5
18D39
330
18C7A
100
AcDbEntity
  8
部品1
100
AcDbLine
 10
1556.970589276487
 20
3172.494269174611
 30
0.0
 11
1556.970589276487
 21
3154.494269174611
 31
0.0
  0
LINE
  5
18D3A
330
18C7A
100
AcDbEntity
  8
部品1
100
AcDbLine
 10
1556.970589276487
 20
3172.494269174611
 30
0.0
 11
1550.970589276487
 21
3172.494269174611
 31
0.0
  0
LINE
  5
18D3B
330
18C7A
100
AcDbEntity
  8
部品1
100
AcDbLine
 10
1534.470589276487
 20
3146.494269174608
 30
0.0
 11
1509.470589276487
 21
3146.494269174611
 31
0.0
  0
LINE
  5
18D3C
330
18C7A
100
AcDbEntity
  8
部品1
100
AcDbLine
 10
1486.970589276487
 20
3172.494269174611
 30
0.0
 11
1486.970589276487
 21
3154.494269174611
 31
0.0
  0
LINE
  5
18D3D
330
18C7A
100
AcDbEntity
  8
部品1
100
AcDbLine
 10
1492.970589276487
 20
3172.494269174611
 30
0.0
 11
1486.970589276487
 21
3172.494269174611
 31
0.0
  0
LINE
  5
18D3E
330
18C7A
100
AcDbEntity
  8
部品1
100
AcDbLine
 10
1534.470589276487
 20
2702.494269174615
 30
0.0
 11
1509.470589276487
 21
2702.494269174615
 31
0.0
  0
LINE
  5
18D3F
330
18C7A
100
AcDbEntity
  8
部品1
 48
50.0
100
AcDbLine
 10
1536.470589276487
 20
3152.494269174611
 30
0.0
 11
1536.470589276487
 21
2702.494269174615
 31
0.0
  0
LINE
  5
18D40
330
18C7A
100
AcDbEntity
  8
部品1
 48
50.0
100
AcDbLine
 10
1508.470589276487
 20
3152.494269174607
 30
0.0
 11
1508.470589276487
 21
2702.494269174615
 31
0.0
  0
LINE
  5
18D41
330
18C7A
100
AcDbEntity
  8
部品1
 48
50.0
100
AcDbLine
 10
1534.470589276487
 20
3154.494269174618
 30
0.0
 11
1534.470589276487
 21
2702.494269174615
 31
0.0
  0
LINE
  5
18D42
330
18C7A
100
AcDbEntity
  8
部品1
 48
50.0
100
AcDbLine
 10
1509.470589276487
 20
3154.494269174615
 30
0.0
 11
1509.470589276487
 21
2702.494269174615
 31
0.0
  0
LINE
  5
18D43
330
18C7A
100
AcDbEntity
  8
部品1
100
AcDbLine
 10
3411.970589276556
 20
1392.494269174582
 30
0.0
 11
3411.970589276556
 21
1420.494269174596
 31
0.0
  0
LINE
  5
18D44
330
18C7A
100
AcDbEntity
  8
部品1
100
AcDbLine
 10
1311.970589276523
 20
1392.494269174596
 30
0.0
 11
1311.970589276523
 21
1420.494269174596
 31
0.0
  0
LINE
  5
18D45
330
18C7A
100
AcDbEntity
  8
部品1
100
AcDbLine
 10
891.9705892765232
 20
1392.494269174596
 30
0.0
 11
891.9705892765232
 21
1420.494269174596
 31
0.0
  0
LINE
  5
18D46
330
18C7A
100
AcDbEntity
  8
部品1
100
AcDbLine
 10
3411.97058927652
 20
3182.494269174477
 30
0.0
 11
3411.970589276523
 21
3154.494269174477
 31
0.0
  0
LINE
  5
18D47
330
18C7A
100
AcDbEntity
  8
部品1
100
AcDbLine
 10
2571.97058927652
 20
3182.494269174477
 30
0.0
 11
2571.970589276523
 21
3154.494269174477
 31
0.0
  0
LINE
  5
18D48
330
18C7A
100
AcDbEntity
  8
部品1
100
AcDbLine
 10
2991.97058927652
 20
3182.494269174477
 30
0.0
 11
2991.970589276523
 21
3154.494269174477
 31
0.0
  0
LINE
  5
18D49
330
18C7A
100
AcDbEntity
  8
部品1
100
AcDbLine
 10
2151.970589276519
 20
3182.494269174477
 30
0.0
 11
2151.970589276523
 21
3154.494269174477
 31
0.0
  0
LINE
  5
18D4A
330
18C7A
100
AcDbEntity
  8
部品1
100
AcDbLine
 10
1731.970589276519
 20
3182.494269174477
 30
0.0
 11
1731.970589276523
 21
3154.494269174477
 31
0.0
  0
LINE
  5
18D4B
330
18C7A
100
AcDbEntity
  8
部品1
100
AcDbLine
 10
1311.970589276519
 20
3182.494269174477
 30
0.0
 11
1311.970589276523
 21
3154.494269174477
 31
0.0
  0
LINE
  5
18D4C
330
18C7A
100
AcDbEntity
  8
部品1
100
AcDbLine
 10
891.9705892765195
 20
3182.494269174477
 30
0.0
 11
891.9705892765232
 21
3154.494269174477
 31
0.0
  0
LINE
  5
18D4D
330
18C7A
100
AcDbEntity
  8
部品1
100
AcDbLine
 10
471.9705892765232
 20
1392.494269174596
 30
0.0
 11
471.9705892765232
 21
1420.494269174596
 31
0.0
  0
LINE
  5
18D4E
330
18C7A
100
AcDbEntity
  8
部品1
100
AcDbLine
 10
444.9705892765305
 20
1420.494269174558
 30
0.0
 11
3858.970589276556
 21
1420.494269174596
 31
0.0
  0
LINE
  5
18D4F
330
18C7A
100
AcDbEntity
  8
部品1
100
AcDbLine
 10
3831.970589276556
 20
1392.494269174596
 30
0.0
 11
3831.970589276556
 21
1420.494269174596
 31
0.0
  0
LINE
  5
18D50
330
18C7A
100
AcDbEntity
  8
部品1
100
AcDbLine
 10
3858.970589276556
 20
1447.494269174593
 30
0.0
 11
3886.970589276556
 21
1447.494269174593
 31
0.0
  0
LINE
  5
18D51
330
18C7A
100
AcDbEntity
  8
部品1
100
AcDbLine
 10
3858.970589276556
 20
1867.494269174607
 30
0.0
 11
3886.970589276556
 21
1867.494269174607
 31
0.0
  0
LINE
  5
18D52
330
18C7A
100
AcDbEntity
  8
部品1
100
AcDbLine
 10
444.9705892765305
 20
1867.49426917448
 30
0.0
 11
416.9705892765305
 21
1867.49426917448
 31
0.0
  0
LINE
  5
18D53
330
18C7A
100
AcDbEntity
  8
部品1
100
AcDbLine
 10
3830.470589276541
 20
1867.49426917458
 30
0.0
 11
473.4705892765396
 21
1867.49426917448
 31
0.0
  0
LINE
  5
18D54
330
18C7A
100
AcDbEntity
  8
部品1
100
AcDbLine
 10
3830.470589276541
 20
2287.49426917458
 30
0.0
 11
473.4705892765396
 21
2287.49426917448
 31
0.0
  0
LINE
  5
18D55
330
18C7A
100
AcDbEntity
  8
部品1
100
AcDbLine
 10
444.9705892765305
 20
2287.49426917448
 30
0.0
 11
416.9705892765305
 21
2287.49426917448
 31
0.0
  0
LINE
  5
18D56
330
18C7A
100
AcDbEntity
  8
部品1
100
AcDbLine
 10
3858.970589276556
 20
2287.494269174608
 30
0.0
 11
3886.970589276556
 21
2287.494269174608
 31
0.0
  0
LINE
  5
18D57
330
18C7A
100
AcDbEntity
  8
部品1
 48
50.0
100
AcDbLine
 10
2151.970589276551
 20
2702.494269174586
 30
0.0
 11
2151.970589276581
 21
1448.994269174494
 31
0.0
  0
LINE
  5
18D58
330
18C7A
100
AcDbEntity
  8
破線
 48
10.0
100
AcDbLine
 10
2959.470589276535
 20
1472.494269174522
 30
0.0
 11
2176.970589276532
 21
1472.494269174505
 31
0.0
  0
LINE
  5
18D59
330
18C7A
100
AcDbEntity
  8
破線
 48
10.0
100
AcDbLine
 10
3009.47058927653
 20
1448.994269174509
 30
0.0
 11
3009.47058927653
 21
2702.494269174615
 31
0.0
  0
LINE
  5
18D5A
330
18C7A
100
AcDbEntity
  8
破線
 48
10.0
100
AcDbLine
 10
2959.470589276535
 20
1448.994269174505
 30
0.0
 11
2959.470589276531
 21
2702.494269174615
 31
0.0
  0
LINE
  5
18D5B
330
18C7A
100
AcDbEntity
  8
破線
 48
10.0
100
AcDbLine
 10
1344.47058927653
 20
1448.994269174509
 30
0.0
 11
1344.47058927653
 21
2702.494269174615
 31
0.0
  0
LINE
  5
18D5C
330
18C7A
100
AcDbEntity
  8
破線
 48
10.0
100
AcDbLine
 10
1294.470589276534
 20
1448.994269174505
 30
0.0
 11
1294.47058927653
 21
2702.494269174615
 31
0.0
  0
DIMENSION
  5
18D5D
330
18C7A
100
AcDbEntity
  8
寸法
100
AcDbDimension
  2
*D13
 10
1451.234916278005
 20
2488.887829538828
 30
0.0
 11
916.0604668248634
 21
2488.887829538828
 31
0.0
 12
-3742.925985830444
 22
-6453.628869860112
 32
0.0
 70
   128
 71
     5
 42
1062.99999999993
  3
INABA_S40G
100
AcDbAlignedDimension
 13
445.4705892765559
 23
2702.494269174505
 33
0.0
 14
1508.470589276486
 24
2702.494269174558
 34
0.0
100
AcDbRotatedDimension
1001
ACAD
1000
DSTYLE
1002
{
1002
}
  0
LINE
  5
18D5E
330
18C7A
100
AcDbEntity
  8
破線
 48
10.0
100
AcDbLine
 10
1294.470589276534
 20
1472.494269174469
 30
0.0
 11
496.9705892765414
 21
1472.494269174476
 31
0.0
  0
LINE
  5
18D5F
330
18C7A
100
AcDbEntity
  8
部品1
100
AcDbLine
 10
3831.970589276556
 20
3182.494269174604
 30
0.0
 11
3831.970589276556
 21
3154.494269174604
 31
0.0
  0
LINE
  5
18D60
330
18C7A
100
AcDbEntity
  8
部品1
100
AcDbLine
 10
3831.970589276556
 20
3182.494269174626
 30
0.0
 11
3831.970589276556
 21
3154.494269174626
 31
0.0
  0
LINE
  5
18D61
330
18C7A
100
AcDbEntity
  8
部品1
100
AcDbLine
 10
3858.970589276556
 20
3127.494269174607
 30
0.0
 11
3886.970589276556
 21
3127.494269174607
 31
0.0
  0
LINE
  5
18D62
330
18C7A
100
AcDbEntity
  8
部品1
100
AcDbLine
 10
3858.970589276556
 20
2707.494269174608
 30
0.0
 11
3886.970589276556
 21
2707.494269174608
 31
0.0
  0
LINE
  5
18D63
330
18C7A
100
AcDbEntity
  8
部品1
100
AcDbLine
 10
3858.470589276556
 20
3152.494269174604
 30
0.0
 11
3858.470589276556
 21
2702.494269174608
 31
0.0
  0
LINE
  5
18D64
330
18C7A
100
AcDbEntity
  8
部品1
100
AcDbLine
 10
3886.970589276533
 20
1447.494269174593
 30
0.0
 11
3886.970589276531
 21
1392.494269174596
 31
0.0
  0
LINE
  5
18D65
330
18C7A
100
AcDbEntity
  8
部品1
 48
50.0
100
AcDbLine
 10
3830.470589276556
 20
1448.994269174596
 30
0.0
 11
3858.970589276554
 21
1420.494269174596
 31
0.0
  0
LINE
  5
18D66
330
18C7A
100
AcDbEntity
  8
部品1
100
AcDbLine
 10
3886.970589276531
 20
1392.494269174596
 30
0.0
 11
3835.970589276531
 21
1392.494269174596
 31
0.0
  0
LINE
  5
18D67
330
18C7A
100
AcDbEntity
  8
部品1
100
AcDbLine
 10
3858.970589276533
 20
1447.494269174593
 30
0.0
 11
3886.970589276531
 21
1447.494269174593
 31
0.0
  0
LINE
  5
18D68
330
18C7A
100
AcDbEntity
  8
部品1
100
AcDbLine
 10
3886.970589276556
 20
3182.494269174604
 30
0.0
 11
3886.970589276531
 21
1392.494269174596
 31
0.0
  0
DIMENSION
  5
18D69
330
18C7A
100
AcDbEntity
  8
寸法
100
AcDbDimension
  2
*D12
 10
4534.396935010967
 20
1447.494269174593
 30
0.0
 11
4534.396935010965
 21
2287.4942691746
 31
0.0
 12
-3742.925985830444
 22
-6453.628869860112
 32
0.0
 70
   128
  1
4X420=<>
 71
     5
 42
1680.000000000014
  3
INABA_S40G
100
AcDbAlignedDimension
 13
3886.970589276556
 23
3127.494269174607
 33
0.0
 14
3886.970589276531
 24
1447.494269174593
 34
0.0
 50
90.0
100
AcDbRotatedDimension
1001
ACAD
1000
DSTYLE
1002
{
1002
}
  0
LINE
  5
18D6A
330
18C7A
100
AcDbEntity
  8
部品1
100
AcDbLine
 10
3858.970589276556
 20
3154.494269174604
 30
0.0
 11
3858.970589276534
 21
1420.494269174596
 31
0.0
  0
DIMENSION
  5
18D6B
330
18C7A
100
AcDbEntity
  8
寸法
100
AcDbDimension
  2
*D11
 10
4213.82831513858
 20
2607.276453505718
 30
0.0
 11
4113.828315138579
 21
2832.276453505718
 31
0.0
 12
-3742.925985830444
 22
-6453.628869860112
 32
0.0
 71
     5
 42
449.9999999999963
  3
INABA_S40G
100
AcDbAlignedDimension
 13
3858.470589276556
 23
3152.494269174604
 33
0.0
 14
3858.470589276556
 24
2702.494269174608
 34
0.0
 50
90.0
100
AcDbRotatedDimension
1001
ACAD
1000
DSTYLE
1002
{
1002
}
  0
LINE
  5
18D6C
330
18C7A
100
AcDbEntity
  8
部品1
100
AcDbLine
 10
3830.470589276547
 20
2702.494269174608
 30
0.0
 11
3830.470589276556
 21
1448.994269174596
 31
0.0
  0
LINE
  5
18D6D
330
18C7A
100
AcDbEntity
  8
破線
 48
10.0
100
AcDbLine
 10
3806.970589276549
 20
2702.494269174608
 30
0.0
 11
3806.970589276558
 21
1472.494269174593
 31
0.0
  0
LINE
  5
18D6E
330
18C7A
100
AcDbEntity
  8
部品1
100
AcDbLine
 10
2769.470589276556
 20
3146.494269174608
 30
0.0
 11
2794.470589276556
 21
3146.494269174611
 31
0.0
  0
LINE
  5
18D6F
330
18C7A
100
AcDbEntity
  8
部品1
100
AcDbLine
 10
2810.970589276556
 20
3172.494269174611
 30
0.0
 11
2816.970589276556
 21
3172.494269174611
 31
0.0
  0
LINE
  5
18D70
330
18C7A
100
AcDbEntity
  8
部品1
100
AcDbLine
 10
2816.970589276556
 20
3172.494269174611
 30
0.0
 11
2816.970589276556
 21
3154.494269174611
 31
0.0
  0
LINE
  5
18D71
330
18C7A
100
AcDbEntity
  8
部品1
100
AcDbLine
 10
2746.970589276556
 20
3172.494269174611
 30
0.0
 11
2752.970589276556
 21
3172.494269174611
 31
0.0
  0
LINE
  5
18D72
330
18C7A
100
AcDbEntity
  8
部品1
100
AcDbLine
 10
2746.970589276556
 20
3172.494269174611
 30
0.0
 11
2746.970589276556
 21
3154.494269174611
 31
0.0
  0
LINE
  5
18D73
330
18C7A
100
AcDbEntity
  8
部品1
100
AcDbLine
 10
2769.470589276556
 20
2702.494269174615
 30
0.0
 11
2794.470589276556
 21
2702.494269174615
 31
0.0
  0
LINE
  5
18D74
330
18C7A
100
AcDbEntity
  8
部品1
 48
50.0
100
AcDbLine
 10
2794.470589276556
 20
3154.494269174615
 30
0.0
 11
2794.470589276556
 21
2702.494269174615
 31
0.0
  0
LINE
  5
18D75
330
18C7A
100
AcDbEntity
  8
部品1
 48
50.0
100
AcDbLine
 10
2769.470589276554
 20
3154.494269174618
 30
0.0
 11
2769.470589276556
 21
2702.494269174615
 31
0.0
  0
LINE
  5
18D76
330
18C7A
100
AcDbEntity
  8
部品1
 48
50.0
100
AcDbLine
 10
2795.470589276556
 20
3152.494269174607
 30
0.0
 11
2795.470589276556
 21
2702.494269174615
 31
0.0
  0
LINE
  5
18D77
330
18C7A
100
AcDbEntity
  8
部品1
 48
50.0
100
AcDbLine
 10
2767.470589276556
 20
3152.494269174611
 30
0.0
 11
2767.470589276556
 21
2702.494269174615
 31
0.0
  0
LINE
  5
18D78
330
18C7A
100
AcDbEntity
  8
破線
 48
10.0
100
AcDbLine
 10
2176.97058927653
 20
1448.994269174509
 30
0.0
 11
2176.97058927653
 21
2702.494269174588
 31
0.0
  0
LINE
  5
18D79
330
18C7A
100
AcDbEntity
  8
破線
 48
10.0
100
AcDbLine
 10
2126.970589276534
 20
1448.994269174505
 30
0.0
 11
2126.970589276531
 21
2702.494269174586
 31
0.0
  0
LINE
  5
18D7A
330
18C7A
100
AcDbEntity
  8
部品1
100
AcDbLine
 10
2794.470589276556
 20
3154.494269174622
 30
0.0
 11
3858.970589276556
 21
3154.494269174604
 31
0.0
  0
LINE
  5
18D7B
330
18C7A
100
AcDbEntity
  8
細線
 48
50.0
100
AcDbLine
 10
3858.470589276556
 20
2702.494269174608
 30
0.0
 11
2795.470589276556
 21
3152.494269174607
 31
0.0
  0
LINE
  5
18D7C
330
18C7A
100
AcDbEntity
  8
部品1
100
AcDbLine
 10
2795.470589276555
 20
2702.494269174615
 30
0.0
 11
3858.470589276556
 21
2702.494269174608
 31
0.0
  0
LINE
  5
18D7D
330
18C7A
100
AcDbEntity
  8
部品1
100
AcDbLine
 10
2795.470589276556
 20
3152.494269174611
 30
0.0
 11
3858.470589276556
 21
3152.494269174604
 31
0.0
  0
LINE
  5
18D7E
330
18C7A
100
AcDbEntity
  8
細線
 48
50.0
100
AcDbLine
 10
3858.470589276556
 20
3152.494269174604
 30
0.0
 11
2795.470589276555
 21
2702.494269174615
 31
0.0
  0
DIMENSION
  5
18D7F
330
18C7A
100
AcDbEntity
  8
寸法
100
AcDbDimension
  2
*D10
 10
3801.234916278101
 20
2488.887829538937
 30
0.0
 11
3318.360544398907
 21
2488.887829538937
 31
0.0
 12
-3742.925985830444
 22
-6453.628869860112
 32
0.0
 70
   128
 71
     5
 42
1063.000000000012
  3
INABA_S40G
100
AcDbAlignedDimension
 13
2795.470589276555
 23
2702.494269174615
 33
0.0
 14
3858.470589276567
 24
2702.494269174608
 34
0.0
100
AcDbRotatedDimension
1001
ACAD
1000
DSTYLE
1002
{
1002
}
  0
LINE
  5
18D80
330
18C7A
100
AcDbEntity
  8
破線
 48
10.0
100
AcDbLine
 10
3806.970589276556
 20
1472.494269174594
 30
0.0
 11
3009.47058927653
 21
1472.494269174523
 31
0.0
  0
DIMENSION
  5
18D81
330
18C7A
100
AcDbEntity
  8
寸法
100
AcDbDimension
  2
*D9
 10
4534.396935010941
 20
1392.494269174596
 30
0.0
 11
4534.39693501094
 21
1084.008987800356
 31
0.0
 12
-3742.925985830444
 22
-6453.628869860112
 32
0.0
 70
   128
 71
     5
 42
54.99999999999636
  3
INABA_S40G
100
AcDbAlignedDimension
 13
3886.970589276531
 23
1447.494269174593
 33
0.0
 14
3886.970589276531
 24
1392.494269174596
 34
0.0
 50
90.0
100
AcDbRotatedDimension
1001
ACAD
1000
DSTYLE
1002
{
1002
}
  0
LINE
  5
18D82
330
18C7A
100
AcDbEntity
  8
部品1
100
AcDbLine
 10
471.9705892765196
 20
3182.494269174477
 30
0.0
 11
471.9705892765232
 21
3154.494269174477
 31
0.0
  0
LINE
  5
18D83
330
18C7A
100
AcDbEntity
  8
部品1
100
AcDbLine
 10
471.9705892765559
 20
3182.494269174509
 30
0.0
 11
471.9705892765559
 21
3154.494269174509
 31
0.0
  0
LINE
  5
18D84
330
18C7A
100
AcDbEntity
  8
部品1
100
AcDbLine
 10
444.9705892765232
 20
3127.49426917448
 30
0.0
 11
416.9705892765232
 21
3127.49426917448
 31
0.0
  0
LINE
  5
18D85
330
18C7A
100
AcDbEntity
  8
部品1
100
AcDbLine
 10
444.9705892765305
 20
2707.49426917448
 30
0.0
 11
416.9705892765305
 21
2707.49426917448
 31
0.0
  0
LINE
  5
18D86
330
18C7A
100
AcDbEntity
  8
部品1
 48
50.0
100
AcDbLine
 10
445.4705892765542
 20
3152.494269174506
 30
0.0
 11
445.4705892765559
 21
2702.494269174505
 31
0.0
  0
LINE
  5
18D87
330
18C7A
100
AcDbEntity
  8
部品1
 48
50.0
100
AcDbLine
 10
473.470589276545
 20
1448.994269174573
 30
0.0
 11
444.970589276545
 21
1420.494269174574
 31
0.0
  0
LINE
  5
18D88
330
18C7A
100
AcDbEntity
  8
部品1
100
AcDbLine
 10
471.9705892765232
 20
1392.494269174465
 30
0.0
 11
416.9705892765486
 21
1392.494269174465
 31
0.0
  0
LINE
  5
18D89
330
18C7A
100
AcDbEntity
  8
部品1
100
AcDbLine
 10
444.9705892765305
 20
1447.494269174429
 30
0.0
 11
416.9705892765469
 21
1447.494269174429
 31
0.0
  0
LINE
  5
18D8A
330
18C7A
100
AcDbEntity
  8
部品1
100
AcDbLine
 10
444.9705892765305
 20
1447.494269174465
 30
0.0
 11
416.9705892765469
 21
1447.494269174465
 31
0.0
  0
LINE
  5
18D8B
330
18C7A
100
AcDbEntity
  8
部品1
100
AcDbLine
 10
444.9705892765469
 20
1447.49426917448
 30
0.0
 11
416.9705892765469
 21
1447.49426917448
 31
0.0
  0
LINE
  5
18D8C
330
18C7A
100
AcDbEntity
  8
部品1
100
AcDbLine
 10
416.9705892765469
 20
1447.494269174429
 30
0.0
 11
416.9705892765486
 21
1392.494269174433
 31
0.0
  0
LINE
  5
18D8D
330
18C7A
100
AcDbEntity
  8
部品1
100
AcDbLine
 10
416.9705892765196
 20
3182.494269174477
 30
0.0
 11
416.9705892765486
 21
1392.494269174465
 31
0.0
  0
LINE
  5
18D8E
330
18C7A
100
AcDbEntity
  8
部品1
100
AcDbLine
 10
444.9705892765305
 20
1420.494269174556
 30
0.0
 11
444.9705892765559
 21
3154.494269174509
 31
0.0
  0
LINE
  5
18D8F
330
18C7A
100
AcDbEntity
  8
部品1
100
AcDbLine
 10
473.4705892765323
 20
2702.494269174608
 30
0.0
 11
473.470589276545
 21
1448.994269174571
 31
0.0
  0
LINE
  5
18D90
330
18C7A
100
AcDbEntity
  8
破線
 48
10.0
100
AcDbLine
 10
496.9705892765305
 20
2702.494269174608
 30
0.0
 11
496.9705892765451
 21
1472.494269174476
 31
0.0
  0
DIMENSION
  5
18D91
330
18C7A
100
AcDbEntity
  8
寸法
100
AcDbDimension
  2
*D8
 10
3886.970589276531
 20
410.7433333855515
 30
0.0
 11
2168.197775309287
 21
410.7433333855515
 31
0.0
 12
-3742.925985830444
 22
-6453.628869860112
 32
0.0
 70
   128
 71
     5
 42
3469.999999999982
  3
INABA_S40G
100
AcDbAlignedDimension
 13
416.9705892765486
 23
1392.494269174433
 33
0.0
 14
3886.970589276531
 24
1392.49426917456
 34
0.0
100
AcDbRotatedDimension
1001
ACAD
1000
DSTYLE
1002
{
1070
   341
1005
0
1002
}
  0
LINE
  5
18D92
330
18C7A
100
AcDbEntity
  8
部品1
100
AcDbLine
 10
444.9705892765559
 20
3154.494269174624
 30
0.0
 11
1509.470589276487
 21
3154.494269174626
 31
0.0
  0
LINE
  5
18D93
330
18C7A
100
AcDbEntity
  8
部品1
100
AcDbLine
 10
3886.970589276531
 20
1392.494269174596
 30
0.0
 11
3411.970589276556
 21
1392.494269174582
 31
0.0
  0
LINE
  5
18D94
330
18C7A
100
AcDbEntity
  8
部品1
100
AcDbLine
 10
416.9705892765559
 20
3182.494269174509
 30
0.0
 11
3886.970589276556
 21
3182.494269174604
 31
0.0
  0
LINE
  5
18D95
330
18C7A
100
AcDbEntity
  8
部品1
100
AcDbLine
 10
445.4705892765559
 20
2702.494269174509
 30
0.0
 11
1508.470589276487
 21
2702.494269174558
 31
0.0
  0
LINE
  5
18D96
330
18C7A
100
AcDbEntity
  8
細線
 48
50.0
100
AcDbLine
 10
2767.470589276556
 20
3152.494269174611
 30
0.0
 11
1536.470589276487
 21
2702.494269174558
 31
0.0
  0
LINE
  5
18D97
330
18C7A
100
AcDbEntity
  8
部品1
100
AcDbLine
 10
445.4705892765542
 20
3152.494269174509
 30
0.0
 11
1508.470589276485
 21
3152.494269174558
 31
0.0
  0
LINE
  5
18D98
330
18C7A
100
AcDbEntity
  8
細線
 48
50.0
100
AcDbLine
 10
2767.470589276554
 20
2702.494269174615
 30
0.0
 11
1536.470589276485
 21
3152.494269174558
 31
0.0
  0
LINE
  5
18D99
330
18C7A
100
AcDbEntity
  8
破線
 48
10.0
100
AcDbLine
 10
2126.970589276534
 20
1472.494269174502
 30
0.0
 11
1344.47058927653
 21
1472.494269174473
 31
0.0
  0
LINE
  5
18D9A
330
18C7A
100
AcDbEntity
  8
部品1
100
AcDbLine
 10
3830.470589276556
 20
1448.994269174596
 30
0.0
 11
473.4705892764487
 21
1448.994269174476
 31
0.0
  0
DIMENSION
  5
18D9B
330
18C7A
100
AcDbEntity
  8
寸法
100
AcDbDimension
  2
*D7
 10
471.970589276555
 20
3698.302488799491
 30
0.0
 11
108.4853079022819
 21
3698.302488799491
 31
0.0
 12
-3742.925985830444
 22
-6453.628869860112
 32
0.0
 70
   128
 71
     5
 42
55.00000000003456
  3
INABA_S40G
100
AcDbAlignedDimension
 13
416.9705892765205
 23
3182.494269174509
 33
0.0
 14
471.970589276555
 24
3182.494269174509
 34
0.0
100
AcDbRotatedDimension
1001
ACAD
1000
DSTYLE
1002
{
1002
}
  0
DIMENSION
  5
18D9C
330
18C7A
100
AcDbEntity
  8
寸法
100
AcDbDimension
  2
*D6
 10
4534.396935010967
 20
3127.494269174607
 30
0.0
 11
4534.396935010965
 21
3490.979550548844
 31
0.0
 12
-3742.925985830444
 22
-6453.628869860112
 32
0.0
 70
   128
 71
     5
 42
54.99999999999636
  3
INABA_S40G
100
AcDbAlignedDimension
 13
3886.970589276556
 23
3182.494269174604
 33
0.0
 14
3886.970589276556
 24
3127.494269174607
 34
0.0
 50
90.0
100
AcDbRotatedDimension
1001
ACAD
1000
DSTYLE
1002
{
1002
}
  0
DIMENSION
  5
18D9D
330
18C7A
100
AcDbEntity
  8
寸法
100
AcDbDimension
  2
*D5
 10
3886.970589276556
 20
3698.302488799589
 30
0.0
 11
4195.455870650794
 21
3698.302488799589
 31
0.0
 12
-3742.925985830444
 22
-6453.628869860112
 32
0.0
 70
   128
 71
     5
 42
55.0
  3
INABA_S40G
100
AcDbAlignedDimension
 13
3831.970589276556
 23
3182.494269174604
 33
0.0
 14
3886.970589276556
 24
3182.494269174604
 34
0.0
100
AcDbRotatedDimension
1001
ACAD
1000
DSTYLE
1002
{
1002
}
  0
DIMENSION
  5
18D9E
330
18C7A
100
AcDbEntity
  8
寸法
100
AcDbDimension
  2
*D4
 10
3831.970589276556
 20
3698.302488799607
 30
0.0
 11
2151.970589276555
 21
3698.302488799607
 31
0.0
 12
-3742.925985830444
 22
-6453.628869860112
 32
0.0
 70
   128
  1
8X420=<>
 71
     5
 42
3360.000000000001
  3
INABA_S40G
100
AcDbAlignedDimension
 13
471.970589276555
 23
3182.494269174509
 33
0.0
 14
3831.970589276556
 24
3182.494269174604
 34
0.0
100
AcDbRotatedDimension
1001
ACAD
1000
DSTYLE
1002
{
1002
}
  0
DIMENSION
  5
18D9F
330
18C7A
100
AcDbEntity
  8
寸法
100
AcDbDimension
  2
*D3
 10
4899.503876750603
 20
1392.494269174596
 30
0.0
 11
4899.503876750601
 21
2287.4942691746
 31
0.0
 12
-3742.925985830444
 22
-6453.628869860112
 32
0.0
 70
   128
 71
     5
 42
1790.000000000007
  3
INABA_S40G
100
AcDbAlignedDimension
 13
3886.970589276556
 23
3182.494269174604
 33
0.0
 14
3886.970589276531
 24
1392.494269174596
 34
0.0
 50
90.0
100
AcDbRotatedDimension
1001
ACAD
1000
DSTYLE
1002
{
1002
}
  0
ENDBLK
  5
18DA1
330
18C7A
100
AcDbEntity
  8
0
 48
50.0
100
AcDbBlockEnd
  0
BLOCK
  5
1C4CB
330
1C4CA
100
AcDbEntity
  8
0
 48
50.0
100
AcDbBlockBegin
  2
_NONE
 70
     0
 10
0.0
 20
0.0
 30
0.0
  3
_NONE
  1

  0
CIRCLE
  5
1C4CC
330
1C4CA
100
AcDbEntity
  8
0
  6
ByBlock
 62
     0
 48
50.0
100
AcDbCircle
 10
0.0
 20
0.0
 30
0.0
 40
0.25
  0
ENDBLK
  5
1C4CD
330
1C4CA
100
AcDbEntity
  8
0
 48
50.0
100
AcDbBlockEnd
  0
BLOCK
  5
20DEE
330
20DE2
100
AcDbEntity
  8
0
 48
50.0
100
AcDbBlockBegin
  2
*D19
 70
     1
 10
0.0
 20
0.0
 30
0.0
  3
*D19
  1

  0
LINE
  5
25525
330
20DE2
100
AcDbEntity
  8
寸法
 62
     0
 48
50.0
370
    -2
100
AcDbLine
 10
10128.6
 20
7686.233143676709
 30
0.0
 11
10128.6
 21
8684.45346573563
 31
0.0
  0
LINE
  5
25526
330
20DE2
100
AcDbEntity
  8
寸法
 62
     0
 48
50.0
370
    -2
100
AcDbLine
 10
10173.6
 20
8412.499601770619
 30
0.0
 11
10173.6
 21
8684.45346573563
 31
0.0
  0
LINE
  5
25527
330
20DE2
100
AcDbEntity
  8
寸法
 62
     0
 48
50.0
370
    -2
100
AcDbLine
 10
10128.6
 20
8624.453465735632
 30
0.0
 11
10028.6
 21
8624.453465735632
 31
0.0
  0
LINE
  5
25528
330
20DE2
100
AcDbEntity
  8
寸法
 62
     0
 48
50.0
370
    -2
100
AcDbLine
 10
10173.6
 20
8624.453465735632
 30
0.0
 11
10510.94924240491
 21
8624.453465735632
 31
0.0
  0
LINE
  5
25529
330
20DE2
100
AcDbEntity
  8
寸法
 62
     0
 48
50.0
370
    -2
100
AcDbLine
 10
10128.6
 20
8624.453465735632
 30
0.0
 11
10173.6
 21
8624.453465735632
 31
0.0
  0
INSERT
  5
2552A
330
20DE2
100
AcDbEntity
  8
寸法
 62
     0
 48
50.0
370
    -2
100
AcDbBlockReference
  2
_DOTSMALL
 10
10128.6
 20
8624.453465735632
 30
0.0
 41
100.0
 42
100.0
 43
100.0
  0
INSERT
  5
2552B
330
20DE2
100
AcDbEntity
  8
寸法
 62
     0
 48
50.0
370
    -2
100
AcDbBlockReference
  2
_DOTSMALL
 10
10173.6
 20
8624.453465735632
 30
0.0
 41
100.0
 42
100.0
 43
100.0
 50
180.0
  0
MTEXT
  5
2552C
330
20DE2
100
AcDbEntity
  8
寸法
 62
     7
 48
50.0
100
AcDbMText
 10
10444.77462120245
 20
8724.453465735631
 30
0.0
 40
120.0
 41
0.0
 71
     5
 72
     1
  1
\A1;a
  7
STYLE1
 73
     1
 44
1.0
1001
ACAD
1000
MTEXTBEGIN
1070
    73
1070
     1
1070
    44
1040
1.0
1070
    74
1070
     0
1000
MTEXTEND
  0
POINT
  5
2552D
330
20DE2
100
AcDbEntity
  8
DEFPOINTS
 62
     0
 48
50.0
100
AcDbPoint
 10
10128.6
 20
7666.233143676709
 30
0.0
  0
POINT
  5
2552E
330
20DE2
100
AcDbEntity
  8
DEFPOINTS
 62
     0
 48
50.0
100
AcDbPoint
 10
10173.6
 20
8392.499601770621
 30
0.0
  0
POINT
  5
2552F
330
20DE2
100
AcDbEntity
  8
DEFPOINTS
 62
     0
 48
50.0
100
AcDbPoint
 10
10173.6
 20
8624.453465735632
 30
0.0
  0
ENDBLK
  5
20DEF
330
20DE2
100
AcDbEntity
  8
0
 48
50.0
100
AcDbBlockEnd
  0
BLOCK
  5
20E08
330
20DFC
100
AcDbEntity
  8
0
 48
50.0
100
AcDbBlockBegin
  2
*D20
 70
     1
 10
0.0
 20
0.0
 30
0.0
  3
*D20
  1

  0
LINE
  5
25544
330
20DFC
100
AcDbEntity
  8
寸法
 62
     0
 48
50.0
370
    -2
100
AcDbLine
 10
6273.600000000005
 20
8412.499601770623
 30
0.0
 11
6273.600000000005
 21
8684.45346573563
 31
0.0
  0
LINE
  5
25545
330
20DFC
100
AcDbEntity
  8
寸法
 62
     0
 48
50.0
370
    -2
100
AcDbLine
 10
6318.600000000001
 20
7686.233143676709
 30
0.0
 11
6318.600000000001
 21
8684.45346573563
 31
0.0
  0
LINE
  5
25546
330
20DFC
100
AcDbEntity
  8
寸法
 62
     0
 48
50.0
370
    -2
100
AcDbLine
 10
6318.600000000001
 20
8624.453465735632
 30
0.0
 11
6418.600000000001
 21
8624.453465735632
 31
0.0
  0
LINE
  5
25547
330
20DFC
100
AcDbEntity
  8
寸法
 62
     0
 48
50.0
370
    -2
100
AcDbLine
 10
6273.600000000005
 20
8624.453465735632
 30
0.0
 11
5936.250757595084
 21
8624.453465735632
 31
0.0
  0
LINE
  5
25548
330
20DFC
100
AcDbEntity
  8
寸法
 62
     0
 48
50.0
370
    -2
100
AcDbLine
 10
6318.600000000001
 20
8624.453465735632
 30
0.0
 11
6273.600000000005
 21
8624.453465735632
 31
0.0
  0
INSERT
  5
25549
330
20DFC
100
AcDbEntity
  8
寸法
 62
     0
 48
50.0
370
    -2
100
AcDbBlockReference
  2
_DOTSMALL
 10
6318.600000000001
 20
8624.453465735632
 30
0.0
 41
100.0
 42
100.0
 43
100.0
 50
180.0
  0
INSERT
  5
2554A
330
20DFC
100
AcDbEntity
  8
寸法
 62
     0
 48
50.0
370
    -2
100
AcDbBlockReference
  2
_DOTSMALL
 10
6273.600000000005
 20
8624.453465735632
 30
0.0
 41
100.0
 42
100.0
 43
100.0
  0
MTEXT
  5
2554B
330
20DFC
100
AcDbEntity
  8
寸法
 62
     7
 48
50.0
100
AcDbMText
 10
6002.425378797543
 20
8724.453465735631
 30
0.0
 40
120.0
 41
0.0
 71
     5
 72
     1
  1
\A1;a
  7
STYLE1
 73
     1
 44
1.0
1001
ACAD
1000
MTEXTBEGIN
1070
    73
1070
     1
1070
    44
1040
1.0
1070
    74
1070
     0
1000
MTEXTEND
  0
POINT
  5
2554C
330
20DFC
100
AcDbEntity
  8
DEFPOINTS
 62
     0
 48
50.0
100
AcDbPoint
 10
6273.600000000005
 20
8392.499601770621
 30
0.0
  0
POINT
  5
2554D
330
20DFC
100
AcDbEntity
  8
DEFPOINTS
 62
     0
 48
50.0
100
AcDbPoint
 10
6318.600000000001
 20
7666.233143676709
 30
0.0
  0
POINT
  5
2554E
330
20DFC
100
AcDbEntity
  8
DEFPOINTS
 62
     0
 48
50.0
100
AcDbPoint
 10
6318.600000000001
 20
8624.453465735632
 30
0.0
  0
ENDBLK
  5
20E09
330
20DFC
100
AcDbEntity
  8
0
 48
50.0
100
AcDbBlockEnd
  0
BLOCK
  5
2274E
330
22742
100
AcDbEntity
  8
0
 48
50.0
100
AcDbBlockBegin
  2
*D25
 70
     1
 10
0.0
 20
0.0
 30
0.0
  3
*D25
  1

  0
LINE
  5
2554F
330
22742
100
AcDbEntity
  8
寸法
 62
     0
 48
50.0
370
    -2
100
AcDbLine
 10
5675.665006330071
 20
7741.233143676716
 30
0.0
 11
5383.721909610676
 21
7741.233143676716
 31
0.0
  0
LINE
  5
25550
330
22742
100
AcDbEntity
  8
寸法
 62
     0
 48
50.0
370
    -2
100
AcDbLine
 10
6298.600000000001
 20
7666.233143676709
 30
0.0
 11
5383.721909610676
 21
7666.23314367671
 31
0.0
  0
LINE
  5
25551
330
22742
100
AcDbEntity
  8
寸法
 62
     0
 48
50.0
370
    -2
100
AcDbLine
 10
5443.721909610676
 20
7741.233143676716
 30
0.0
 11
5443.721909610676
 21
7841.233143676716
 31
0.0
  0
LINE
  5
25552
330
22742
100
AcDbEntity
  8
寸法
 62
     0
 48
50.0
370
    -2
100
AcDbLine
 10
5443.721909610676
 20
7666.23314367671
 30
0.0
 11
5443.721909610676
 21
7566.23314367671
 31
0.0
  0
LINE
  5
25553
330
22742
100
AcDbEntity
  8
寸法
 62
     0
 48
50.0
370
    -2
100
AcDbLine
 10
5443.721909610676
 20
7741.233143676716
 30
0.0
 11
5443.721909610676
 21
7666.23314367671
 31
0.0
  0
INSERT
  5
25554
330
22742
100
AcDbEntity
  8
寸法
 62
     0
 48
50.0
370
    -2
100
AcDbBlockReference
  2
_DOTSMALL
 10
5443.721909610676
 20
7741.233143676716
 30
0.0
 41
100.0
 42
100.0
 43
100.0
 50
270.0
  0
INSERT
  5
25555
330
22742
100
AcDbEntity
  8
寸法
 62
     0
 48
50.0
370
    -2
100
AcDbBlockReference
  2
_DOTSMALL
 10
5443.721909610676
 20
7666.23314367671
 30
0.0
 41
100.0
 42
100.0
 43
100.0
 50
90.0
  0
MTEXT
  5
25556
330
22742
100
AcDbEntity
  8
寸法
 62
     7
 48
50.0
100
AcDbMText
 10
5343.721909610675
 20
7703.733143676713
 30
0.0
 40
120.0
 41
0.0
 71
     5
 72
     1
  1
\A1;c
  7
STYLE1
 11
0.0000000000000001
 21
1.0
 31
0.0
 73
     1
 44
1.0
1001
ACAD
1000
MTEXTBEGIN
1070
    73
1070
     1
1070
    44
1040
1.0
1070
    74
1070
     0
1000
MTEXTEND
  0
POINT
  5
25557
330
22742
100
AcDbEntity
  8
DEFPOINTS
 62
     0
 48
50.0
100
AcDbPoint
 10
5695.66500633007
 20
7741.233143676716
 30
0.0
  0
POINT
  5
25558
330
22742
100
AcDbEntity
  8
DEFPOINTS
 62
     0
 48
50.0
100
AcDbPoint
 10
6318.600000000001
 20
7666.233143676709
 30
0.0
  0
POINT
  5
25559
330
22742
100
AcDbEntity
  8
DEFPOINTS
 62
     0
 48
50.0
100
AcDbPoint
 10
5443.721909610676
 20
7666.23314367671
 30
0.0
  0
ENDBLK
  5
2274F
330
22742
100
AcDbEntity
  8
0
 48
50.0
100
AcDbBlockEnd
  0
BLOCK
  5
22768
330
2275C
100
AcDbEntity
  8
0
 48
50.0
100
AcDbBlockBegin
  2
*D26
 70
     1
 10
0.0
 20
0.0
 30
0.0
  3
*D26
  1

  0
LINE
  5
2555A
330
2275C
100
AcDbEntity
  8
寸法
 62
     0
 48
50.0
370
    -2
100
AcDbLine
 10
6298.6
 20
6286.23314367671
 30
0.0
 11
5383.721909610674
 21
6286.23314367671
 31
0.0
  0
LINE
  5
2555B
330
2275C
100
AcDbEntity
  8
寸法
 62
     0
 48
50.0
370
    -2
100
AcDbLine
 10
5675.665006330072
 20
6231.233143676735
 30
0.0
 11
5383.721909610674
 21
6231.233143676735
 31
0.0
  0
LINE
  5
2555C
330
2275C
100
AcDbEntity
  8
寸法
 62
     0
 48
50.0
370
    -2
100
AcDbLine
 10
5443.721909610673
 20
6286.23314367671
 30
0.0
 11
5443.721909610673
 21
6386.233143676711
 31
0.0
  0
LINE
  5
2555D
330
2275C
100
AcDbEntity
  8
寸法
 62
     0
 48
50.0
370
    -2
100
AcDbLine
 10
5443.721909610673
 20
6231.233143676735
 30
0.0
 11
5443.721909610673
 21
6131.233143676735
 31
0.0
  0
LINE
  5
2555E
330
2275C
100
AcDbEntity
  8
寸法
 62
     0
 48
50.0
370
    -2
100
AcDbLine
 10
5443.721909610673
 20
6286.23314367671
 30
0.0
 11
5443.721909610673
 21
6231.233143676735
 31
0.0
  0
INSERT
  5
2555F
330
2275C
100
AcDbEntity
  8
寸法
 62
     0
 48
50.0
370
    -2
100
AcDbBlockReference
  2
_DOTSMALL
 10
5443.721909610673
 20
6286.23314367671
 30
0.0
 41
100.0
 42
100.0
 43
100.0
 50
270.0
  0
INSERT
  5
25560
330
2275C
100
AcDbEntity
  8
寸法
 62
     0
 48
50.0
370
    -2
100
AcDbBlockReference
  2
_DOTSMALL
 10
5443.721909610673
 20
6231.233143676735
 30
0.0
 41
100.0
 42
100.0
 43
100.0
 50
90.0
  0
MTEXT
  5
25561
330
2275C
100
AcDbEntity
  8
寸法
 62
     7
 48
50.0
100
AcDbMText
 10
5343.721909610672
 20
6258.733143676724
 30
0.0
 40
120.0
 41
0.0
 71
     5
 72
     1
  1
\A1;b
  7
STYLE1
 11
0.0000000000000001
 21
1.0
 31
0.0
 73
     1
 44
1.0
1001
ACAD
1000
MTEXTBEGIN
1070
    73
1070
     1
1070
    44
1040
1.0
1070
    74
1070
     0
1000
MTEXTEND
  0
POINT
  5
25562
330
2275C
100
AcDbEntity
  8
DEFPOINTS
 62
     0
 48
50.0
100
AcDbPoint
 10
6318.599999999999
 20
6286.23314367671
 30
0.0
  0
POINT
  5
25563
330
2275C
100
AcDbEntity
  8
DEFPOINTS
 62
     0
 48
50.0
100
AcDbPoint
 10
5695.665006330072
 20
6231.233143676735
 30
0.0
  0
POINT
  5
25564
330
2275C
100
AcDbEntity
  8
DEFPOINTS
 62
     0
 48
50.0
100
AcDbPoint
 10
5443.721909610673
 20
6231.233143676735
 30
0.0
  0
ENDBLK
  5
22769
330
2275C
100
AcDbEntity
  8
0
 48
50.0
100
AcDbBlockEnd
  0
BLOCK
  5
240CF
330
240C4
100
AcDbEntity
  8
0
 48
50.0
100
AcDbBlockBegin
  2
*D27
 70
     1
 10
0.0
 20
0.0
 30
0.0
  3
*D27
  1

  0
LINE
  5
25646
330
240C4
100
AcDbEntity
  8
寸法
 62
     0
 48
50.0
370
    -2
100
AcDbLine
 10
10128.6
 20
7121.233143676747
 30
0.0
 11
10128.6
 21
7275.83175677482
 31
0.0
  0
LINE
  5
25647
330
240C4
100
AcDbEntity
  8
寸法
 62
     0
 48
50.0
370
    -2
100
AcDbLine
 10
10008.6
 20
7121.233143676761
 30
0.0
 11
10008.6
 21
7275.83175677482
 31
0.0
  0
LINE
  5
25648
330
240C4
100
AcDbEntity
  8
寸法
 62
     0
 48
50.0
370
    -2
100
AcDbLine
 10
10008.6
 20
7215.83175677482
 30
0.0
 11
10128.6
 21
7215.83175677482
 31
0.0
  0
LINE
  5
25649
330
240C4
100
AcDbEntity
  8
寸法
 62
     0
 48
50.0
370
    -2
100
AcDbLine
 10
10128.6
 20
7215.83175677482
 30
0.0
 11
10534.7062992126
 21
7215.83175677482
 31
0.0
  0
INSERT
  5
2564A
330
240C4
100
AcDbEntity
  8
寸法
 62
     0
 48
50.0
370
    -2
100
AcDbBlockReference
  2
_DOTSMALL
 10
10008.6
 20
7215.83175677482
 30
0.0
 41
100.0
 42
100.0
 43
100.0
 50
180.0
  0
INSERT
  5
2564B
330
240C4
100
AcDbEntity
  8
寸法
 62
     0
 48
50.0
370
    -2
100
AcDbBlockReference
  2
_DOTSMALL
 10
10128.6
 20
7215.83175677482
 30
0.0
 41
100.0
 42
100.0
 43
100.0
  0
MTEXT
  5
2564C
330
240C4
100
AcDbEntity
  8
寸法
 62
     7
 48
50.0
100
AcDbMText
 10
10398.65905511811
 20
7315.843567798442
 30
0.0
 40
120.0
 41
0.0
 71
     5
 72
     1
  1
\A1;120
  7
STYLE1
 73
     1
 44
1.0
1001
ACAD
1000
MTEXTBEGIN
1070
    73
1070
     1
1070
    44
1040
1.0
1070
    74
1070
     0
1000
MTEXTEND
  0
POINT
  5
2564D
330
240C4
100
AcDbEntity
  8
DEFPOINTS
 62
     0
 48
50.0
100
AcDbPoint
 10
10128.6
 20
7101.233143676747
 30
0.0
  0
POINT
  5
2564E
330
240C4
100
AcDbEntity
  8
DEFPOINTS
 62
     0
 48
50.0
100
AcDbPoint
 10
10008.6
 20
7101.233143676762
 30
0.0
  0
POINT
  5
2564F
330
240C4
100
AcDbEntity
  8
DEFPOINTS
 62
     0
 48
50.0
100
AcDbPoint
 10
10008.6
 20
7215.83175677482
 30
0.0
  0
ENDBLK
  5
240D0
330
240C4
100
AcDbEntity
  8
0
 48
50.0
100
AcDbBlockEnd
  0
BLOCK
  5
240DC
330
240D1
100
AcDbEntity
  8
0
 48
50.0
100
AcDbBlockBegin
  2
*D28
 70
     1
 10
0.0
 20
0.0
 30
0.0
  3
*D28
  1

  0
LINE
  5
255E7
330
240D1
100
AcDbEntity
  8
寸法
 62
     0
 48
50.0
370
    -2
100
AcDbLine
 10
9528.599999999991
 20
6566.233143676708
 30
0.0
 11
9387.812020225657
 21
6566.233143676708
 31
0.0
  0
LINE
  5
255E8
330
240D1
100
AcDbEntity
  8
寸法
 62
     0
 48
50.0
370
    -2
100
AcDbLine
 10
9528.599999999999
 20
6286.233143676727
 30
0.0
 11
9387.812020225657
 21
6286.233143676727
 31
0.0
  0
LINE
  5
255E9
330
240D1
100
AcDbEntity
  8
寸法
 62
     0
 48
50.0
370
    -2
100
AcDbLine
 10
9447.812020225656
 20
6566.233143676708
 30
0.0
 11
9447.812020225656
 21
6286.233143676727
 31
0.0
  0
LINE
  5
255EA
330
240D1
100
AcDbEntity
  8
寸法
 62
     0
 48
50.0
370
    -2
100
AcDbLine
 10
9447.812020225656
 20
6286.233143676727
 30
0.0
 11
9447.812020225656
 21
5849.698694857822
 31
0.0
  0
INSERT
  5
255EB
330
240D1
100
AcDbEntity
  8
寸法
 62
     0
 48
50.0
370
    -2
100
AcDbBlockReference
  2
_DOTSMALL
 10
9447.812020225656
 20
6566.233143676708
 30
0.0
 41
100.0
 42
100.0
 43
100.0
 50
90.0
  0
INSERT
  5
255EC
330
240D1
100
AcDbEntity
  8
寸法
 62
     0
 48
50.0
370
    -2
100
AcDbBlockReference
  2
_DOTSMALL
 10
9447.812020225656
 20
6286.233143676727
 30
0.0
 41
100.0
 42
100.0
 43
100.0
 50
270.0
  0
MTEXT
  5
255ED
330
240D1
100
AcDbEntity
  8
寸法
 62
     7
 48
50.0
100
AcDbMText
 10
9347.800209202032
 20
5999.269560999556
 30
0.0
 40
120.0
 41
0.0
 71
     5
 72
     1
  1
\A1;280
  7
STYLE1
 11
0.0000000000000001
 21
1.0
 31
0.0
 73
     1
 44
1.0
1001
ACAD
1000
MTEXTBEGIN
1070
    73
1070
     1
1070
    44
1040
1.0
1070
    74
1070
     0
1000
MTEXTEND
  0
POINT
  5
255EE
330
240D1
100
AcDbEntity
  8
DEFPOINTS
 62
     0
 48
50.0
100
AcDbPoint
 10
9548.599999999991
 20
6566.233143676708
 30
0.0
  0
POINT
  5
255EF
330
240D1
100
AcDbEntity
  8
DEFPOINTS
 62
     0
 48
50.0
100
AcDbPoint
 10
9548.599999999998
 20
6286.233143676727
 30
0.0
  0
POINT
  5
255F0
330
240D1
100
AcDbEntity
  8
DEFPOINTS
 62
     0
 48
50.0
100
AcDbPoint
 10
9447.812020225656
 20
6286.233143676727
 30
0.0
  0
ENDBLK
  5
240DD
330
240D1
100
AcDbEntity
  8
0
 48
50.0
100
AcDbBlockEnd
  0
BLOCK
  5
240E9
330
240DE
100
AcDbEntity
  8
0
 48
50.0
100
AcDbBlockBegin
  2
*D29
 70
     1
 10
0.0
 20
0.0
 30
0.0
  3
*D29
  1

  0
LINE
  5
2553A
330
240DE
100
AcDbEntity
  8
寸法
 62
     0
 48
50.0
370
    -2
100
AcDbLine
 10
9528.599999999999
 20
7666.233143676696
 30
0.0
 11
9387.812020225657
 21
7666.233143676696
 31
0.0
  0
LINE
  5
2553B
330
240DE
100
AcDbEntity
  8
寸法
 62
     0
 48
50.0
370
    -2
100
AcDbLine
 10
9528.600000000006
 20
7466.23314367671
 30
0.0
 11
9387.812020225657
 21
7466.23314367671
 31
0.0
  0
LINE
  5
2553C
330
240DE
100
AcDbEntity
  8
寸法
 62
     0
 48
50.0
370
    -2
100
AcDbLine
 10
9447.812020225656
 20
7466.23314367671
 30
0.0
 11
9447.812020225656
 21
7666.233143676696
 31
0.0
  0
LINE
  5
2553D
330
240DE
100
AcDbEntity
  8
寸法
 62
     0
 48
50.0
370
    -2
100
AcDbLine
 10
9447.812020225656
 20
7666.233143676696
 30
0.0
 11
9447.812020225656
 21
8102.767592495599
 31
0.0
  0
INSERT
  5
2553E
330
240DE
100
AcDbEntity
  8
寸法
 62
     0
 48
50.0
370
    -2
100
AcDbBlockReference
  2
_DOTSMALL
 10
9447.812020225656
 20
7466.23314367671
 30
0.0
 41
100.0
 42
100.0
 43
100.0
 50
270.0
  0
INSERT
  5
2553F
330
240DE
100
AcDbEntity
  8
寸法
 62
     0
 48
50.0
370
    -2
100
AcDbBlockReference
  2
_DOTSMALL
 10
9447.812020225656
 20
7666.233143676696
 30
0.0
 41
100.0
 42
100.0
 43
100.0
 50
90.0
  0
MTEXT
  5
25540
330
240DE
100
AcDbEntity
  8
寸法
 62
     7
 48
50.0
100
AcDbMText
 10
9347.800209202032
 20
7953.196726353866
 30
0.0
 40
120.0
 41
0.0
 71
     5
 72
     1
  1
\A1;200
  7
STYLE1
 11
0.0000000000000001
 21
1.0
 31
0.0
 73
     1
 44
1.0
1001
ACAD
1000
MTEXTBEGIN
1070
    73
1070
     1
1070
    44
1040
1.0
1070
    74
1070
     0
1000
MTEXTEND
  0
POINT
  5
25541
330
240DE
100
AcDbEntity
  8
DEFPOINTS
 62
     0
 48
50.0
100
AcDbPoint
 10
9548.599999999998
 20
7666.233143676696
 30
0.0
  0
POINT
  5
25542
330
240DE
100
AcDbEntity
  8
DEFPOINTS
 62
     0
 48
50.0
100
AcDbPoint
 10
9548.600000000005
 20
7466.23314367671
 30
0.0
  0
POINT
  5
25543
330
240DE
100
AcDbEntity
  8
DEFPOINTS
 62
     0
 48
50.0
100
AcDbPoint
 10
9447.812020225656
 20
7466.23314367671
 30
0.0
  0
ENDBLK
  5
240EA
330
240DE
100
AcDbEntity
  8
0
 48
50.0
100
AcDbBlockEnd
  0
BLOCK
  5
24E8F
330
24E85
100
AcDbEntity
  8
0
 48
50.0
100
AcDbBlockBegin
  2
*D30
 70
     1
 10
0.0
 20
0.0
 30
0.0
  3
*D30
  1

  0
LINE
  5
254D1
330
24E85
100
AcDbEntity
  8
寸法
 62
     0
 48
50.0
370
    -2
100
AcDbLine
 10
6318.600000000001
 20
7686.233143676709
 30
0.0
 11
6318.600000000001
 21
8684.453465735627
 31
0.0
  0
LINE
  5
254D2
330
24E85
100
AcDbEntity
  8
寸法
 62
     0
 48
50.0
370
    -2
100
AcDbLine
 10
10128.6
 20
7686.233143676709
 30
0.0
 11
10128.6
 21
8684.453465735627
 31
0.0
  0
LINE
  5
254D3
330
24E85
100
AcDbEntity
  8
寸法
 62
     0
 48
50.0
370
    -2
100
AcDbLine
 10
6318.600000000001
 20
8624.453465735626
 30
0.0
 11
10128.6
 21
8624.453465735626
 31
0.0
  0
INSERT
  5
254D4
330
24E85
100
AcDbEntity
  8
寸法
 62
     0
 48
50.0
370
    -2
100
AcDbBlockReference
  2
_DOTSMALL
 10
6318.600000000001
 20
8624.453465735626
 30
0.0
 41
100.0
 42
100.0
 43
100.0
 50
180.0
  0
INSERT
  5
254D5
330
24E85
100
AcDbEntity
  8
寸法
 62
     0
 48
50.0
370
    -2
100
AcDbBlockReference
  2
_DOTSMALL
 10
10128.6
 20
8624.453465735626
 30
0.0
 41
100.0
 42
100.0
 43
100.0
  0
MTEXT
  5
254D6
330
24E85
100
AcDbEntity
  8
寸法
 62
     7
 48
50.0
100
AcDbMText
 10
8223.600000000001
 20
8724.453465735626
 30
0.0
 40
120.0
 41
0.0
 71
     5
 72
     1
  1
\A1;3810
  7
STYLE1
 73
     1
 44
1.0
1001
ACAD
1000
MTEXTBEGIN
1070
    73
1070
     1
1070
    44
1040
1.0
1070
    74
1070
     0
1000
MTEXTEND
  0
POINT
  5
254D7
330
24E85
100
AcDbEntity
  8
DEFPOINTS
 62
     0
 48
50.0
100
AcDbPoint
 10
6318.600000000001
 20
7666.233143676709
 30
0.0
  0
POINT
  5
254D8
330
24E85
100
AcDbEntity
  8
DEFPOINTS
 62
     0
 48
50.0
100
AcDbPoint
 10
10128.6
 20
7666.233143676709
 30
0.0
  0
POINT
  5
254D9
330
24E85
100
AcDbEntity
  8
DEFPOINTS
 62
     0
 48
50.0
100
AcDbPoint
 10
10128.6
 20
8624.453465735626
 30
0.0
  0
ENDBLK
  5
24E90
330
24E85
100
AcDbEntity
  8
0
 48
50.0
100
AcDbBlockEnd
  0
BLOCK
  5
24E9B
330
24E91
100
AcDbEntity
  8
0
 48
50.0
100
AcDbBlockBegin
  2
*D31
 70
     1
 10
0.0
 20
0.0
 30
0.0
  3
*D31
  1

  0
LINE
  5
254C8
330
24E91
100
AcDbEntity
  8
寸法
 62
     0
 48
50.0
370
    -2
100
AcDbLine
 10
10005.6
 20
7613.233143676708
 30
0.0
 11
10005.6
 21
8452.49960177062
 31
0.0
  0
LINE
  5
254C9
330
24E91
100
AcDbEntity
  8
寸法
 62
     0
 48
50.0
370
    -2
100
AcDbLine
 10
8105.6
 20
7613.233143676708
 30
0.0
 11
8105.6
 21
8452.49960177062
 31
0.0
  0
LINE
  5
254CA
330
24E91
100
AcDbEntity
  8
寸法
 62
     0
 48
50.0
370
    -2
100
AcDbLine
 10
10005.6
 20
8392.499601770621
 30
0.0
 11
8105.6
 21
8392.499601770621
 31
0.0
  0
INSERT
  5
254CB
330
24E91
100
AcDbEntity
  8
寸法
 62
     0
 48
50.0
370
    -2
100
AcDbBlockReference
  2
_DOTSMALL
 10
10005.6
 20
8392.499601770621
 30
0.0
 41
100.0
 42
100.0
 43
100.0
  0
INSERT
  5
254CC
330
24E91
100
AcDbEntity
  8
寸法
 62
     0
 48
50.0
370
    -2
100
AcDbBlockReference
  2
_DOTSMALL
 10
8105.6
 20
8392.499601770621
 30
0.0
 41
100.0
 42
100.0
 43
100.0
 50
180.0
  0
MTEXT
  5
254CD
330
24E91
100
AcDbEntity
  8
寸法
 62
     7
 48
50.0
100
AcDbMText
 10
9055.599999999998
 20
8492.499601770621
 30
0.0
 40
120.0
 41
0.0
 71
     5
 72
     1
  1
\A1;1900
  7
STYLE1
 73
     1
 44
1.0
1001
ACAD
1000
MTEXTBEGIN
1070
    73
1070
     1
1070
    44
1040
1.0
1070
    74
1070
     0
1000
MTEXTEND
  0
POINT
  5
254CE
330
24E91
100
AcDbEntity
  8
DEFPOINTS
 62
     0
 48
50.0
100
AcDbPoint
 10
10005.6
 20
7593.233143676709
 30
0.0
  0
POINT
  5
254CF
330
24E91
100
AcDbEntity
  8
DEFPOINTS
 62
     0
 48
50.0
100
AcDbPoint
 10
8105.6
 20
7593.233143676709
 30
0.0
  0
POINT
  5
254D0
330
24E91
100
AcDbEntity
  8
DEFPOINTS
 62
     0
 48
50.0
100
AcDbPoint
 10
8105.6
 20
8392.499601770621
 30
0.0
  0
ENDBLK
  5
24E9C
330
24E91
100
AcDbEntity
  8
0
 48
50.0
100
AcDbBlockEnd
  0
BLOCK
  5
24EA7
330
24E9D
100
AcDbEntity
  8
0
 48
50.0
100
AcDbBlockBegin
  2
*D32
 70
     1
 10
0.0
 20
0.0
 30
0.0
  3
*D32
  1

  0
LINE
  5
25631
330
24E9D
100
AcDbEntity
  8
寸法
 62
     0
 48
50.0
370
    -2
100
AcDbLine
 10
9173.600000000005
 20
7083.233143676709
 30
0.0
 11
9173.600000000005
 21
8208.841960346957
 31
0.0
  0
LINE
  5
25632
330
24E9D
100
AcDbEntity
  8
寸法
 62
     0
 48
50.0
370
    -2
100
AcDbLine
 10
8223.600000000006
 20
7083.233143676709
 30
0.0
 11
8223.600000000006
 21
8208.841960346957
 31
0.0
  0
LINE
  5
25633
330
24E9D
100
AcDbEntity
  8
寸法
 62
     0
 48
50.0
370
    -2
100
AcDbLine
 10
9173.600000000005
 20
8148.841960346958
 30
0.0
 11
8223.600000000006
 21
8148.841960346958
 31
0.0
  0
INSERT
  5
25634
330
24E9D
100
AcDbEntity
  8
寸法
 62
     0
 48
50.0
370
    -2
100
AcDbBlockReference
  2
_DOTSMALL
 10
9173.600000000005
 20
8148.841960346958
 30
0.0
 41
100.0
 42
100.0
 43
100.0
  0
INSERT
  5
25635
330
24E9D
100
AcDbEntity
  8
寸法
 62
     0
 48
50.0
370
    -2
100
AcDbBlockReference
  2
_DOTSMALL
 10
8223.600000000006
 20
8148.841960346958
 30
0.0
 41
100.0
 42
100.0
 43
100.0
 50
180.0
  0
MTEXT
  5
25636
330
24E9D
100
AcDbEntity
  8
寸法
 62
     7
 48
50.0
100
AcDbMText
 10
8698.600000000006
 20
8248.841960346958
 30
0.0
 40
120.0
 41
0.0
 71
     5
 72
     1
  1
\A1;950
  7
STYLE1
 73
     1
 44
1.0
1001
ACAD
1000
MTEXTBEGIN
1070
    73
1070
     1
1070
    44
1040
1.0
1070
    74
1070
     0
1000
MTEXTEND
  0
POINT
  5
25637
330
24E9D
100
AcDbEntity
  8
DEFPOINTS
 62
     0
 48
50.0
100
AcDbPoint
 10
9173.600000000005
 20
7063.233143676709
 30
0.0
  0
POINT
  5
25638
330
24E9D
100
AcDbEntity
  8
DEFPOINTS
 62
     0
 48
50.0
100
AcDbPoint
 10
8223.600000000006
 20
7063.233143676709
 30
0.0
  0
POINT
  5
25639
330
24E9D
100
AcDbEntity
  8
DEFPOINTS
 62
     0
 48
50.0
100
AcDbPoint
 10
8223.600000000006
 20
8148.841960346958
 30
0.0
  0
ENDBLK
  5
24EA8
330
24E9D
100
AcDbEntity
  8
0
 48
50.0
100
AcDbBlockEnd
  0
BLOCK
  5
24EB3
330
24EA9
100
AcDbEntity
  8
0
 48
50.0
100
AcDbBlockBegin
  2
*D33
 70
     1
 10
0.0
 20
0.0
 30
0.0
  3
*D33
  1

  0
LINE
  5
25628
330
24EA9
100
AcDbEntity
  8
寸法
 62
     0
 48
50.0
370
    -2
100
AcDbLine
 10
7203.600000000008
 20
7013.233143676709
 30
0.0
 11
6741.285990614303
 21
7013.233143676709
 31
0.0
  0
LINE
  5
25629
330
24EA9
100
AcDbEntity
  8
寸法
 62
     0
 48
50.0
370
    -2
100
AcDbLine
 10
6872.765475140901
 20
7666.233143676709
 30
0.0
 11
6741.285990614303
 21
7666.233143676709
 31
0.0
  0
LINE
  5
2562A
330
24EA9
100
AcDbEntity
  8
寸法
 62
     0
 48
50.0
370
    -2
100
AcDbLine
 10
6801.285990614303
 20
7013.233143676709
 30
0.0
 11
6801.285990614303
 21
7666.233143676709
 31
0.0
  0
INSERT
  5
2562B
330
24EA9
100
AcDbEntity
  8
寸法
 62
     0
 48
50.0
370
    -2
100
AcDbBlockReference
  2
_DOTSMALL
 10
6801.285990614303
 20
7013.233143676709
 30
0.0
 41
100.0
 42
100.0
 43
100.0
 50
270.0
  0
INSERT
  5
2562C
330
24EA9
100
AcDbEntity
  8
寸法
 62
     0
 48
50.0
370
    -2
100
AcDbBlockReference
  2
_DOTSMALL
 10
6801.285990614303
 20
7666.233143676709
 30
0.0
 41
100.0
 42
100.0
 43
100.0
 50
90.0
  0
MTEXT
  5
2562D
330
24EA9
100
AcDbEntity
  8
寸法
 62
     7
 48
50.0
100
AcDbMText
 10
6701.285990614301
 20
7342.827934370885
 30
0.0
 40
120.0
 41
0.0
 71
     5
 72
     1
  1
\A1;653
  7
STYLE1
 11
0.0000000000000001
 21
1.0
 31
0.0
 73
     1
 44
1.0
1001
ACAD
1000
MTEXTBEGIN
1070
    73
1070
     1
1070
    44
1040
1.0
1070
    74
1070
     0
1000
MTEXTEND
  0
POINT
  5
2562E
330
24EA9
100
AcDbEntity
  8
DEFPOINTS
 62
     0
 48
50.0
100
AcDbPoint
 10
7223.600000000009
 20
7013.233143676709
 30
0.0
  0
POINT
  5
2562F
330
24EA9
100
AcDbEntity
  8
DEFPOINTS
 62
     0
 48
50.0
100
AcDbPoint
 10
6892.765475140902
 20
7666.233143676709
 30
0.0
  0
POINT
  5
25630
330
24EA9
100
AcDbEntity
  8
DEFPOINTS
 62
     0
 48
50.0
100
AcDbPoint
 10
6801.285990614303
 20
7666.233143676709
 30
0.0
  0
ENDBLK
  5
24EB4
330
24EA9
100
AcDbEntity
  8
0
 48
50.0
100
AcDbBlockEnd
  0
BLOCK
  5
24EBE
330
24EB5
100
AcDbEntity
  8
0
 48
50.0
100
AcDbBlockBegin
  2
*D34
 70
     1
 10
0.0
 20
0.0
 30
0.0
  3
*D34
  1

  0
LINE
  5
2561F
330
24EB5
100
AcDbEntity
  8
寸法
 62
     0
 48
50.0
370
    -2
100
AcDbLine
 10
8223.600000000006
 20
7083.233143676709
 30
0.0
 11
8223.600000000006
 21
8208.841960346957
 31
0.0
  0
LINE
  5
25620
330
24EB5
100
AcDbEntity
  8
寸法
 62
     0
 48
50.0
370
    -2
100
AcDbLine
 10
7273.600000000008
 20
7083.233143676709
 30
0.0
 11
7273.600000000008
 21
8208.841960346957
 31
0.0
  0
LINE
  5
25621
330
24EB5
100
AcDbEntity
  8
寸法
 62
     0
 48
50.0
370
    -2
100
AcDbLine
 10
8223.600000000006
 20
8148.841960346958
 30
0.0
 11
7273.600000000008
 21
8148.841960346958
 31
0.0
  0
INSERT
  5
25622
330
24EB5
100
AcDbEntity
  8
寸法
 62
     0
 48
50.0
370
    -2
100
AcDbBlockReference
  2
_DOTSMALL
 10
8223.600000000006
 20
8148.841960346958
 30
0.0
 41
100.0
 42
100.0
 43
100.0
  0
INSERT
  5
25623
330
24EB5
100
AcDbEntity
  8
寸法
 62
     0
 48
50.0
370
    -2
100
AcDbBlockReference
  2
_DOTSMALL
 10
7273.600000000008
 20
8148.841960346958
 30
0.0
 41
100.0
 42
100.0
 43
100.0
 50
180.0
  0
MTEXT
  5
25624
330
24EB5
100
AcDbEntity
  8
寸法
 62
     7
 48
50.0
100
AcDbMText
 10
7748.600000000007
 20
8248.841960346958
 30
0.0
 40
120.0
 41
0.0
 71
     5
 72
     1
  1
\A1;950
  7
STYLE1
 73
     1
 44
1.0
1001
ACAD
1000
MTEXTBEGIN
1070
    73
1070
     1
1070
    44
1040
1.0
1070
    74
1070
     0
1000
MTEXTEND
  0
POINT
  5
25625
330
24EB5
100
AcDbEntity
  8
DEFPOINTS
 62
     0
 48
50.0
100
AcDbPoint
 10
8223.600000000006
 20
7063.233143676709
 30
0.0
  0
POINT
  5
25626
330
24EB5
100
AcDbEntity
  8
DEFPOINTS
 62
     0
 48
50.0
100
AcDbPoint
 10
7273.600000000008
 20
7063.233143676709
 30
0.0
  0
POINT
  5
25627
330
24EB5
100
AcDbEntity
  8
DEFPOINTS
 62
     0
 48
50.0
100
AcDbPoint
 10
7273.600000000008
 20
8148.841960346958
 30
0.0
  0
ENDBLK
  5
24EBF
330
24EB5
100
AcDbEntity
  8
0
 48
50.0
100
AcDbBlockEnd
  0
BLOCK
  5
24ECA
330
24EC0
100
AcDbEntity
  8
0
 48
50.0
100
AcDbBlockBegin
  2
*D35
 70
     1
 10
0.0
 20
0.0
 30
0.0
  3
*D35
  1

  0
LINE
  5
25616
330
24EC0
100
AcDbEntity
  8
寸法
 62
     0
 48
50.0
370
    -2
100
AcDbLine
 10
7273.600000000008
 20
7083.233143676709
 30
0.0
 11
7273.600000000008
 21
8208.841960346957
 31
0.0
  0
LINE
  5
25617
330
24EC0
100
AcDbEntity
  8
寸法
 62
     0
 48
50.0
370
    -2
100
AcDbLine
 10
6318.600000000001
 20
7686.233143676709
 30
0.0
 11
6318.600000000001
 21
8208.841960346957
 31
0.0
  0
LINE
  5
25618
330
24EC0
100
AcDbEntity
  8
寸法
 62
     0
 48
50.0
370
    -2
100
AcDbLine
 10
7273.600000000008
 20
8148.841960346958
 30
0.0
 11
6318.600000000001
 21
8148.841960346958
 31
0.0
  0
INSERT
  5
25619
330
24EC0
100
AcDbEntity
  8
寸法
 62
     0
 48
50.0
370
    -2
100
AcDbBlockReference
  2
_DOTSMALL
 10
7273.600000000008
 20
8148.841960346958
 30
0.0
 41
100.0
 42
100.0
 43
100.0
  0
INSERT
  5
2561A
330
24EC0
100
AcDbEntity
  8
寸法
 62
     0
 48
50.0
370
    -2
100
AcDbBlockReference
  2
_DOTSMALL
 10
6318.600000000001
 20
8148.841960346958
 30
0.0
 41
100.0
 42
100.0
 43
100.0
 50
180.0
  0
MTEXT
  5
2561B
330
24EC0
100
AcDbEntity
  8
寸法
 62
     7
 48
50.0
100
AcDbMText
 10
6796.100000000006
 20
8248.841960346958
 30
0.0
 40
120.0
 41
0.0
 71
     5
 72
     1
  1
\A1;955
  7
STYLE1
 73
     1
 44
1.0
1001
ACAD
1000
MTEXTBEGIN
1070
    73
1070
     1
1070
    44
1040
1.0
1070
    74
1070
     0
1000
MTEXTEND
  0
POINT
  5
2561C
330
24EC0
100
AcDbEntity
  8
DEFPOINTS
 62
     0
 48
50.0
100
AcDbPoint
 10
7273.600000000008
 20
7063.233143676709
 30
0.0
  0
POINT
  5
2561D
330
24EC0
100
AcDbEntity
  8
DEFPOINTS
 62
     0
 48
50.0
100
AcDbPoint
 10
6318.600000000001
 20
7666.233143676709
 30
0.0
  0
POINT
  5
2561E
330
24EC0
100
AcDbEntity
  8
DEFPOINTS
 62
     0
 48
50.0
100
AcDbPoint
 10
6318.600000000001
 20
8148.841960346958
 30
0.0
  0
ENDBLK
  5
24ECB
330
24EC0
100
AcDbEntity
  8
0
 48
50.0
100
AcDbBlockEnd
  0
BLOCK
  5
24ED6
330
24ECC
100
AcDbEntity
  8
0
 48
50.0
100
AcDbBlockBegin
  2
*D36
 70
     1
 10
0.0
 20
0.0
 30
0.0
  3
*D36
  1

  0
LINE
  5
254F7
330
24ECC
100
AcDbEntity
  8
寸法
 62
     0
 48
50.0
370
    -2
100
AcDbLine
 10
6298.600000000001
 20
7666.233143676709
 30
0.0
 11
5383.721909610676
 21
7666.23314367671
 31
0.0
  0
LINE
  5
254F8
330
24ECC
100
AcDbEntity
  8
寸法
 62
     0
 48
50.0
370
    -2
100
AcDbLine
 10
6298.600000000001
 20
6286.233143676709
 30
0.0
 11
5383.721909610676
 21
6286.23314367671
 31
0.0
  0
LINE
  5
254F9
330
24ECC
100
AcDbEntity
  8
寸法
 62
     0
 48
50.0
370
    -2
100
AcDbLine
 10
5443.721909610676
 20
7666.23314367671
 30
0.0
 11
5443.721909610676
 21
6286.23314367671
 31
0.0
  0
INSERT
  5
254FA
330
24ECC
100
AcDbEntity
  8
寸法
 62
     0
 48
50.0
370
    -2
100
AcDbBlockReference
  2
_DOTSMALL
 10
5443.721909610676
 20
7666.23314367671
 30
0.0
 41
100.0
 42
100.0
 43
100.0
 50
90.0
  0
INSERT
  5
254FB
330
24ECC
100
AcDbEntity
  8
寸法
 62
     0
 48
50.0
370
    -2
100
AcDbBlockReference
  2
_DOTSMALL
 10
5443.721909610676
 20
6286.23314367671
 30
0.0
 41
100.0
 42
100.0
 43
100.0
 50
270.0
  0
MTEXT
  5
254FC
330
24ECC
100
AcDbEntity
  8
寸法
 62
     7
 48
50.0
100
AcDbMText
 10
5343.721909610674
 20
7013.733143676709
 30
0.0
 40
120.0
 41
0.0
 71
     5
 72
     1
  1
\A1;1380
  7
STYLE1
 11
0.0000000000000001
 21
1.0
 31
0.0
 73
     1
 44
1.0
1001
ACAD
1000
MTEXTBEGIN
1070
    73
1070
     1
1070
    44
1040
1.0
1070
    74
1070
     0
1000
MTEXTEND
  0
POINT
  5
254FD
330
24ECC
100
AcDbEntity
  8
DEFPOINTS
 62
     0
 48
50.0
100
AcDbPoint
 10
6318.600000000001
 20
7666.233143676709
 30
0.0
  0
POINT
  5
254FE
330
24ECC
100
AcDbEntity
  8
DEFPOINTS
 62
     0
 48
50.0
100
AcDbPoint
 10
6318.600000000001
 20
6286.233143676709
 30
0.0
  0
POINT
  5
254FF
330
24ECC
100
AcDbEntity
  8
DEFPOINTS
 62
     0
 48
50.0
100
AcDbPoint
 10
5443.721909610676
 20
6286.23314367671
 30
0.0
  0
ENDBLK
  5
24ED7
330
24ECC
100
AcDbEntity
  8
0
 48
50.0
100
AcDbBlockEnd
  0
BLOCK
  5
24EE2
330
24ED8
100
AcDbEntity
  8
0
 48
50.0
100
AcDbBlockBegin
  2
*D37
 70
     1
 10
0.0
 20
0.0
 30
0.0
  3
*D37
  1

  0
LINE
  5
25589
330
24ED8
100
AcDbEntity
  8
寸法
 62
     0
 48
50.0
370
    -2
100
AcDbLine
 10
6371.600000000001
 20
7543.233143676708
 30
0.0
 11
5635.665006330074
 21
7543.23314367671
 31
0.0
  0
LINE
  5
2558A
330
24ED8
100
AcDbEntity
  8
寸法
 62
     0
 48
50.0
370
    -2
100
AcDbLine
 10
6371.600000000008
 20
6484.233143676712
 30
0.0
 11
5635.665006330074
 21
6484.233143676714
 31
0.0
  0
LINE
  5
2558B
330
24ED8
100
AcDbEntity
  8
寸法
 62
     0
 48
50.0
370
    -2
100
AcDbLine
 10
5695.665006330074
 20
7543.23314367671
 30
0.0
 11
5695.665006330074
 21
6484.233143676714
 31
0.0
  0
INSERT
  5
2558C
330
24ED8
100
AcDbEntity
  8
寸法
 62
     0
 48
50.0
370
    -2
100
AcDbBlockReference
  2
_DOTSMALL
 10
5695.665006330074
 20
7543.23314367671
 30
0.0
 41
100.0
 42
100.0
 43
100.0
 50
90.0
  0
INSERT
  5
2558D
330
24ED8
100
AcDbEntity
  8
寸法
 62
     0
 48
50.0
370
    -2
100
AcDbBlockReference
  2
_DOTSMALL
 10
5695.665006330074
 20
6484.233143676714
 30
0.0
 41
100.0
 42
100.0
 43
100.0
 50
270.0
  0
MTEXT
  5
2558E
330
24ED8
100
AcDbEntity
  8
寸法
 62
     7
 48
50.0
100
AcDbMText
 10
5595.665006330072
 20
7013.733143676709
 30
0.0
 40
120.0
 41
0.0
 71
     5
 72
     1
  1
\A1;1059
  7
STYLE1
 11
0.0000000000000001
 21
1.0
 31
0.0
 73
     1
 44
1.0
1001
ACAD
1000
MTEXTBEGIN
1070
    73
1070
     1
1070
    44
1040
1.0
1070
    74
1070
     0
1000
MTEXTEND
  0
POINT
  5
2558F
330
24ED8
100
AcDbEntity
  8
DEFPOINTS
 62
     0
 48
50.0
100
AcDbPoint
 10
6391.600000000001
 20
7543.233143676708
 30
0.0
  0
POINT
  5
25590
330
24ED8
100
AcDbEntity
  8
DEFPOINTS
 62
     0
 48
50.0
100
AcDbPoint
 10
6391.600000000009
 20
6484.233143676712
 30
0.0
  0
POINT
  5
25591
330
24ED8
100
AcDbEntity
  8
DEFPOINTS
 62
     0
 48
50.0
100
AcDbPoint
 10
5695.665006330074
 20
6484.233143676714
 30
0.0
  0
ENDBLK
  5
24EE3
330
24ED8
100
AcDbEntity
  8
0
 48
50.0
100
AcDbBlockEnd
  0
BLOCK
  5
24EEE
330
24EE4
100
AcDbEntity
  8
0
 48
50.0
100
AcDbBlockBegin
  2
*D38
 70
     1
 10
0.0
 20
0.0
 30
0.0
  3
*D38
  1

  0
LINE
  5
2560D
330
24EE4
100
AcDbEntity
  8
寸法
 62
     0
 48
50.0
370
    -2
100
AcDbLine
 10
6872.765475140901
 20
6286.23314367672
 30
0.0
 11
6741.285990614303
 21
6286.23314367672
 31
0.0
  0
LINE
  5
2560E
330
24EE4
100
AcDbEntity
  8
寸法
 62
     0
 48
50.0
370
    -2
100
AcDbLine
 10
7203.600000000008
 20
7013.233143676709
 30
0.0
 11
6741.285990614303
 21
7013.233143676709
 31
0.0
  0
LINE
  5
2560F
330
24EE4
100
AcDbEntity
  8
寸法
 62
     0
 48
50.0
370
    -2
100
AcDbLine
 10
6801.285990614303
 20
6286.23314367672
 30
0.0
 11
6801.285990614303
 21
7013.233143676709
 31
0.0
  0
INSERT
  5
25610
330
24EE4
100
AcDbEntity
  8
寸法
 62
     0
 48
50.0
370
    -2
100
AcDbBlockReference
  2
_DOTSMALL
 10
6801.285990614303
 20
6286.23314367672
 30
0.0
 41
100.0
 42
100.0
 43
100.0
 50
270.0
  0
INSERT
  5
25611
330
24EE4
100
AcDbEntity
  8
寸法
 62
     0
 48
50.0
370
    -2
100
AcDbBlockReference
  2
_DOTSMALL
 10
6801.285990614303
 20
7013.233143676709
 30
0.0
 41
100.0
 42
100.0
 43
100.0
 50
90.0
  0
MTEXT
  5
25612
330
24EE4
100
AcDbEntity
  8
寸法
 62
     7
 48
50.0
100
AcDbMText
 10
6701.274179590679
 20
6728.233143676709
 30
0.0
 40
120.0
 41
0.0
 71
     5
 72
     1
  1
\A1;727
  7
STYLE1
 11
0.0000000000000001
 21
1.0
 31
0.0
 73
     1
 44
1.0
1001
ACAD
1000
MTEXTBEGIN
1070
    73
1070
     1
1070
    44
1040
1.0
1070
    74
1070
     0
1000
MTEXTEND
  0
POINT
  5
25613
330
24EE4
100
AcDbEntity
  8
DEFPOINTS
 62
     0
 48
50.0
100
AcDbPoint
 10
6892.765475140902
 20
6286.23314367672
 30
0.0
  0
POINT
  5
25614
330
24EE4
100
AcDbEntity
  8
DEFPOINTS
 62
     0
 48
50.0
100
AcDbPoint
 10
7223.600000000009
 20
7013.233143676709
 30
0.0
  0
POINT
  5
25615
330
24EE4
100
AcDbEntity
  8
DEFPOINTS
 62
     0
 48
50.0
100
AcDbPoint
 10
6801.285990614303
 20
7013.233143676709
 30
0.0
  0
ENDBLK
  5
24EEF
330
24EE4
100
AcDbEntity
  8
0
 48
50.0
100
AcDbBlockEnd
  0
BLOCK
  5
24EFA
330
24EF0
100
AcDbEntity
  8
0
 48
50.0
100
AcDbBlockBegin
  2
*D39
 70
     1
 10
0.0
 20
0.0
 30
0.0
  3
*D39
  1

  0
LINE
  5
25500
330
24EF0
100
AcDbEntity
  8
寸法
 62
     0
 48
50.0
370
    -2
100
AcDbLine
 10
6298.600000000001
 20
6286.233143676706
 30
0.0
 11
6145.512673767878
 21
6286.233143676706
 31
0.0
  0
LINE
  5
25501
330
24EF0
100
AcDbEntity
  8
寸法
 62
     0
 48
50.0
370
    -2
100
AcDbLine
 10
6654.325326928805
 20
5566.233143676705
 30
0.0
 11
6145.512673767877
 21
5566.233143676705
 31
0.0
  0
LINE
  5
25502
330
24EF0
100
AcDbEntity
  8
寸法
 62
     0
 48
50.0
370
    -2
100
AcDbLine
 10
6205.512673767877
 20
6286.233143676706
 30
0.0
 11
6205.512673767877
 21
5566.233143676705
 31
0.0
  0
INSERT
  5
25503
330
24EF0
100
AcDbEntity
  8
寸法
 62
     0
 48
50.0
370
    -2
100
AcDbBlockReference
  2
_DOTSMALL
 10
6205.512673767877
 20
6286.233143676706
 30
0.0
 41
100.0
 42
100.0
 43
100.0
 50
90.0
  0
INSERT
  5
25504
330
24EF0
100
AcDbEntity
  8
寸法
 62
     0
 48
50.0
370
    -2
100
AcDbBlockReference
  2
_DOTSMALL
 10
6205.512673767877
 20
5566.233143676705
 30
0.0
 41
100.0
 42
100.0
 43
100.0
 50
270.0
  0
MTEXT
  5
25505
330
24EF0
100
AcDbEntity
  8
寸法
 62
     7
 48
50.0
100
AcDbMText
 10
6105.500862744253
 20
5926.233143676707
 30
0.0
 40
120.0
 41
0.0
 71
     5
 72
     1
  1
\A1;扉の出720
  7
STYLE1
 11
0.0000000000000001
 21
1.0
 31
0.0
 73
     1
 44
1.0
1001
ACAD
1000
MTEXTBEGIN
1070
    73
1070
     1
1070
    44
1040
1.0
1070
    74
1070
     0
1000
MTEXTEND
  0
POINT
  5
25506
330
24EF0
100
AcDbEntity
  8
DEFPOINTS
 62
     0
 48
50.0
100
AcDbPoint
 10
6318.600000000001
 20
6286.233143676706
 30
0.0
  0
POINT
  5
25507
330
24EF0
100
AcDbEntity
  8
DEFPOINTS
 62
     0
 48
50.0
100
AcDbPoint
 10
6674.325326928806
 20
5566.233143676705
 30
0.0
  0
POINT
  5
25508
330
24EF0
100
AcDbEntity
  8
DEFPOINTS
 62
     0
 48
50.0
100
AcDbPoint
 10
6205.512673767877
 20
5566.233143676705
 30
0.0
  0
ENDBLK
  5
24EFB
330
24EF0
100
AcDbEntity
  8
0
 48
50.0
100
AcDbBlockEnd
  0
BLOCK
  5
24F07
330
24EFC
100
AcDbEntity
  8
0
 48
50.0
100
AcDbBlockBegin
  2
*D40
 70
     1
 10
0.0
 20
0.0
 30
0.0
  3
*D40
  1

  0
LINE
  5
2557F
330
24EFC
100
AcDbEntity
  8
寸法
 62
     0
 48
50.0
370
    -2
100
AcDbLine
 10
6371.600000000008
 20
6484.233143676712
 30
0.0
 11
5635.665006330074
 21
6484.233143676714
 31
0.0
  0
LINE
  5
25580
330
24EFC
100
AcDbEntity
  8
寸法
 62
     0
 48
50.0
370
    -2
100
AcDbLine
 10
6298.600000000001
 20
6286.233143676709
 30
0.0
 11
5635.665006330074
 21
6286.23314367671
 31
0.0
  0
LINE
  5
25581
330
24EFC
100
AcDbEntity
  8
寸法
 62
     0
 48
50.0
370
    -2
100
AcDbLine
 10
5695.665006330074
 20
6484.233143676714
 30
0.0
 11
5695.665006330074
 21
6286.23314367671
 31
0.0
  0
LINE
  5
25582
330
24EFC
100
AcDbEntity
  8
寸法
 62
     0
 48
50.0
370
    -2
100
AcDbLine
 10
5695.665006330074
 20
6286.23314367671
 30
0.0
 11
5695.665006330074
 21
5814.492535004459
 31
0.0
  0
INSERT
  5
25583
330
24EFC
100
AcDbEntity
  8
寸法
 62
     0
 48
50.0
370
    -2
100
AcDbBlockReference
  2
_DOTSMALL
 10
5695.665006330074
 20
6484.233143676714
 30
0.0
 41
100.0
 42
100.0
 43
100.0
 50
90.0
  0
INSERT
  5
25584
330
24EFC
100
AcDbEntity
  8
寸法
 62
     0
 48
50.0
370
    -2
100
AcDbBlockReference
  2
_DOTSMALL
 10
5695.665006330074
 20
6286.23314367671
 30
0.0
 41
100.0
 42
100.0
 43
100.0
 50
270.0
  0
MTEXT
  5
25585
330
24EFC
100
AcDbEntity
  8
寸法
 62
     7
 48
50.0
100
AcDbMText
 10
5595.665006330072
 20
5950.702194834117
 30
0.0
 40
120.0
 41
0.0
 71
     5
 72
     1
  1
\A1;198
  7
STYLE1
 11
0.0000000000000001
 21
1.0
 31
0.0
 73
     1
 44
1.0
1001
ACAD
1000
MTEXTBEGIN
1070
    73
1070
     1
1070
    44
1040
1.0
1070
    74
1070
     0
1000
MTEXTEND
  0
POINT
  5
25586
330
24EFC
100
AcDbEntity
  8
DEFPOINTS
 62
     0
 48
50.0
100
AcDbPoint
 10
6391.600000000009
 20
6484.233143676712
 30
0.0
  0
POINT
  5
25587
330
24EFC
100
AcDbEntity
  8
DEFPOINTS
 62
     0
 48
50.0
100
AcDbPoint
 10
6318.600000000001
 20
6286.233143676709
 30
0.0
  0
POINT
  5
25588
330
24EFC
100
AcDbEntity
  8
DEFPOINTS
 62
     0
 48
50.0
100
AcDbPoint
 10
5695.665006330074
 20
6286.23314367671
 30
0.0
  0
ENDBLK
  5
24F08
330
24EFC
100
AcDbEntity
  8
0
 48
50.0
100
AcDbBlockEnd
  0
BLOCK
  5
24F2B
330
24F22
100
AcDbEntity
  8
0
 48
50.0
100
AcDbBlockBegin
  2
*D41
 70
     1
 10
0.0
 20
0.0
 30
0.0
  3
*D41
  1

  0
LINE
  5
254A4
330
24F22
100
AcDbEntity
  8
寸法
 62
     0
 48
50.0
370
    -2
100
AcDbLine
 10
8105.6
 20
7613.233143676708
 30
0.0
 11
8105.6
 21
8452.49960177062
 31
0.0
  0
LINE
  5
254A5
330
24F22
100
AcDbEntity
  8
寸法
 62
     0
 48
50.0
370
    -2
100
AcDbLine
 10
6441.600000000001
 20
7613.233143676708
 30
0.0
 11
6441.600000000001
 21
8452.49960177062
 31
0.0
  0
LINE
  5
254A6
330
24F22
100
AcDbEntity
  8
寸法
 62
     0
 48
50.0
370
    -2
100
AcDbLine
 10
8105.6
 20
8392.499601770621
 30
0.0
 11
6441.600000000001
 21
8392.499601770621
 31
0.0
  0
INSERT
  5
254A7
330
24F22
100
AcDbEntity
  8
寸法
 62
     0
 48
50.0
370
    -2
100
AcDbBlockReference
  2
_DOTSMALL
 10
8105.6
 20
8392.499601770621
 30
0.0
 41
100.0
 42
100.0
 43
100.0
  0
INSERT
  5
254A8
330
24F22
100
AcDbEntity
  8
寸法
 62
     0
 48
50.0
370
    -2
100
AcDbBlockReference
  2
_DOTSMALL
 10
6441.600000000001
 20
8392.499601770621
 30
0.0
 41
100.0
 42
100.0
 43
100.0
 50
180.0
  0
MTEXT
  5
254A9
330
24F22
100
AcDbEntity
  8
寸法
 62
     7
 48
50.0
100
AcDbMText
 10
7273.6
 20
8492.499601770621
 30
0.0
 40
120.0
 41
0.0
 71
     5
 72
     1
  1
\A1;1664
  7
STYLE1
 73
     1
 44
1.0
1001
ACAD
1000
MTEXTBEGIN
1070
    73
1070
     1
1070
    44
1040
1.0
1070
    74
1070
     0
1000
MTEXTEND
  0
POINT
  5
254AA
330
24F22
100
AcDbEntity
  8
DEFPOINTS
 62
     0
 48
50.0
100
AcDbPoint
 10
8105.6
 20
7593.233143676709
 30
0.0
  0
POINT
  5
254AB
330
24F22
100
AcDbEntity
  8
DEFPOINTS
 62
     0
 48
50.0
100
AcDbPoint
 10
6441.600000000001
 20
7593.233143676709
 30
0.0
  0
POINT
  5
254AC
330
24F22
100
AcDbEntity
  8
DEFPOINTS
 62
     0
 48
50.0
100
AcDbPoint
 10
6441.600000000001
 20
8392.499601770621
 30
0.0
  0
ENDBLK
  5
24F2C
330
24F22
100
AcDbEntity
  8
0
 48
50.0
100
AcDbBlockEnd
  0
BLOCK
  5
24F38
330
24F2D
100
AcDbEntity
  8
0
 48
50.0
100
AcDbBlockBegin
  2
*D42
 70
     1
 10
0.0
 20
0.0
 30
0.0
  3
*D42
  1

  0
LINE
  5
2549A
330
24F2D
100
AcDbEntity
  8
寸法
 62
     0
 48
50.0
370
    -2
100
AcDbLine
 10
6441.600000000001
 20
7613.233143676708
 30
0.0
 11
6441.600000000001
 21
8452.49960177062
 31
0.0
  0
LINE
  5
2549B
330
24F2D
100
AcDbEntity
  8
寸法
 62
     0
 48
50.0
370
    -2
100
AcDbLine
 10
6318.600000000001
 20
7686.233143676709
 30
0.0
 11
6318.600000000001
 21
8452.49960177062
 31
0.0
  0
LINE
  5
2549C
330
24F2D
100
AcDbEntity
  8
寸法
 62
     0
 48
50.0
370
    -2
100
AcDbLine
 10
6441.600000000001
 20
8392.499601770621
 30
0.0
 11
6318.600000000001
 21
8392.499601770621
 31
0.0
  0
LINE
  5
2549D
330
24F2D
100
AcDbEntity
  8
寸法
 62
     0
 48
50.0
370
    -2
100
AcDbLine
 10
6318.600000000001
 20
8392.499601770621
 30
0.0
 11
5907.00811690796
 21
8392.499601770621
 31
0.0
  0
INSERT
  5
2549E
330
24F2D
100
AcDbEntity
  8
寸法
 62
     0
 48
50.0
370
    -2
100
AcDbBlockReference
  2
_DOTSMALL
 10
6441.600000000001
 20
8392.499601770621
 30
0.0
 41
100.0
 42
100.0
 43
100.0
  0
INSERT
  5
2549F
330
24F2D
100
AcDbEntity
  8
寸法
 62
     0
 48
50.0
370
    -2
100
AcDbBlockReference
  2
_DOTSMALL
 10
6318.600000000001
 20
8392.499601770621
 30
0.0
 41
100.0
 42
100.0
 43
100.0
 50
180.0
  0
MTEXT
  5
254A0
330
24F2D
100
AcDbEntity
  8
寸法
 62
     7
 48
50.0
100
AcDbMText
 10
6045.4933982822
 20
8492.511412794241
 30
0.0
 40
120.0
 41
0.0
 71
     5
 72
     1
  1
\A1;123
  7
STYLE1
 73
     1
 44
1.0
1001
ACAD
1000
MTEXTBEGIN
1070
    73
1070
     1
1070
    44
1040
1.0
1070
    74
1070
     0
1000
MTEXTEND
  0
POINT
  5
254A1
330
24F2D
100
AcDbEntity
  8
DEFPOINTS
 62
     0
 48
50.0
100
AcDbPoint
 10
6441.600000000001
 20
7593.233143676709
 30
0.0
  0
POINT
  5
254A2
330
24F2D
100
AcDbEntity
  8
DEFPOINTS
 62
     0
 48
50.0
100
AcDbPoint
 10
6318.600000000001
 20
7666.233143676709
 30
0.0
  0
POINT
  5
254A3
330
24F2D
100
AcDbEntity
  8
DEFPOINTS
 62
     0
 48
50.0
100
AcDbPoint
 10
6318.600000000001
 20
8392.499601770621
 30
0.0
  0
ENDBLK
  5
24F39
330
24F2D
100
AcDbEntity
  8
0
 48
50.0
100
AcDbBlockEnd
  0
BLOCK
  5
24F52
330
24F47
100
AcDbEntity
  8
0
 48
50.0
100
AcDbBlockBegin
  2
*D43
 70
     1
 10
0.0
 20
0.0
 30
0.0
  3
*D43
  1

  0
LINE
  5
254DA
330
24F47
100
AcDbEntity
  8
寸法
 62
     0
 48
50.0
370
    -2
100
AcDbLine
 10
6298.600000000001
 20
7666.233143676709
 30
0.0
 11
5635.665006330073
 21
7666.23314367671
 31
0.0
  0
LINE
  5
254DB
330
24F47
100
AcDbEntity
  8
寸法
 62
     0
 48
50.0
370
    -2
100
AcDbLine
 10
6371.600000000001
 20
7543.233143676708
 30
0.0
 11
5635.665006330073
 21
7543.23314367671
 31
0.0
  0
LINE
  5
254DC
330
24F47
100
AcDbEntity
  8
寸法
 62
     0
 48
50.0
370
    -2
100
AcDbLine
 10
5695.665006330074
 20
7543.23314367671
 30
0.0
 11
5695.665006330074
 21
7666.23314367671
 31
0.0
  0
LINE
  5
254DD
330
24F47
100
AcDbEntity
  8
寸法
 62
     0
 48
50.0
370
    -2
100
AcDbLine
 10
5695.665006330074
 20
7666.23314367671
 30
0.0
 11
5695.665006330074
 21
8077.825026768747
 31
0.0
  0
INSERT
  5
254DE
330
24F47
100
AcDbEntity
  8
寸法
 62
     0
 48
50.0
370
    -2
100
AcDbBlockReference
  2
_DOTSMALL
 10
5695.665006330074
 20
7543.23314367671
 30
0.0
 41
100.0
 42
100.0
 43
100.0
 50
270.0
  0
INSERT
  5
254DF
330
24F47
100
AcDbEntity
  8
寸法
 62
     0
 48
50.0
370
    -2
100
AcDbBlockReference
  2
_DOTSMALL
 10
5695.665006330074
 20
7666.23314367671
 30
0.0
 41
100.0
 42
100.0
 43
100.0
 50
90.0
  0
MTEXT
  5
254E0
330
24F47
100
AcDbEntity
  8
寸法
 62
     7
 48
50.0
100
AcDbMText
 10
5595.65319530645
 20
7939.33974539451
 30
0.0
 40
120.0
 41
0.0
 71
     5
 72
     1
  1
\A1;123
  7
STYLE1
 11
0.0000000000000001
 21
1.0
 31
0.0
 73
     1
 44
1.0
1001
ACAD
1000
MTEXTBEGIN
1070
    73
1070
     1
1070
    44
1040
1.0
1070
    74
1070
     0
1000
MTEXTEND
  0
POINT
  5
254E1
330
24F47
100
AcDbEntity
  8
DEFPOINTS
 62
     0
 48
50.0
100
AcDbPoint
 10
6318.600000000001
 20
7666.233143676709
 30
0.0
  0
POINT
  5
254E2
330
24F47
100
AcDbEntity
  8
DEFPOINTS
 62
     0
 48
50.0
100
AcDbPoint
 10
6391.600000000001
 20
7543.233143676708
 30
0.0
  0
POINT
  5
254E3
330
24F47
100
AcDbEntity
  8
DEFPOINTS
 62
     0
 48
50.0
100
AcDbPoint
 10
5695.665006330074
 20
7543.23314367671
 30
0.0
  0
ENDBLK
  5
24F53
330
24F47
100
AcDbEntity
  8
0
 48
50.0
100
AcDbBlockEnd
  0
BLOCK
  5
24F75
330
24F6B
100
AcDbEntity
  8
0
 48
50.0
100
AcDbBlockBegin
  2
*D44
 70
     1
 10
0.0
 20
0.0
 30
0.0
  3
*D44
  1

  0
LINE
  5
25604
330
24F6B
100
AcDbEntity
  8
寸法
 62
     0
 48
50.0
370
    -2
100
AcDbLine
 10
10128.6
 20
7686.233143676709
 30
0.0
 11
10128.6
 21
8208.841960346957
 31
0.0
  0
LINE
  5
25605
330
24F6B
100
AcDbEntity
  8
寸法
 62
     0
 48
50.0
370
    -2
100
AcDbLine
 10
9173.600000000005
 20
7083.233143676709
 30
0.0
 11
9173.600000000005
 21
8208.841960346957
 31
0.0
  0
LINE
  5
25606
330
24F6B
100
AcDbEntity
  8
寸法
 62
     0
 48
50.0
370
    -2
100
AcDbLine
 10
10128.6
 20
8148.841960346958
 30
0.0
 11
9173.600000000005
 21
8148.841960346958
 31
0.0
  0
INSERT
  5
25607
330
24F6B
100
AcDbEntity
  8
寸法
 62
     0
 48
50.0
370
    -2
100
AcDbBlockReference
  2
_DOTSMALL
 10
10128.6
 20
8148.841960346958
 30
0.0
 41
100.0
 42
100.0
 43
100.0
  0
INSERT
  5
25608
330
24F6B
100
AcDbEntity
  8
寸法
 62
     0
 48
50.0
370
    -2
100
AcDbBlockReference
  2
_DOTSMALL
 10
9173.600000000005
 20
8148.841960346958
 30
0.0
 41
100.0
 42
100.0
 43
100.0
 50
180.0
  0
MTEXT
  5
25609
330
24F6B
100
AcDbEntity
  8
寸法
 62
     7
 48
50.0
100
AcDbMText
 10
9651.100000000003
 20
8248.841960346958
 30
0.0
 40
120.0
 41
0.0
 71
     5
 72
     1
  1
\A1;955
  7
STYLE1
 73
     1
 44
1.0
1001
ACAD
1000
MTEXTBEGIN
1070
    73
1070
     1
1070
    44
1040
1.0
1070
    74
1070
     0
1000
MTEXTEND
  0
POINT
  5
2560A
330
24F6B
100
AcDbEntity
  8
DEFPOINTS
 62
     0
 48
50.0
100
AcDbPoint
 10
10128.6
 20
7666.233143676709
 30
0.0
  0
POINT
  5
2560B
330
24F6B
100
AcDbEntity
  8
DEFPOINTS
 62
     0
 48
50.0
100
AcDbPoint
 10
9173.600000000005
 20
7063.233143676709
 30
0.0
  0
POINT
  5
2560C
330
24F6B
100
AcDbEntity
  8
DEFPOINTS
 62
     0
 48
50.0
100
AcDbPoint
 10
9173.600000000005
 20
8148.841960346958
 30
0.0
  0
ENDBLK
  5
24F76
330
24F6B
100
AcDbEntity
  8
0
 48
50.0
100
AcDbBlockEnd
  0
BLOCK
  5
24F8F
330
24F84
100
AcDbEntity
  8
0
 48
50.0
100
AcDbBlockBegin
  2
*D45
 70
     1
 10
0.0
 20
0.0
 30
0.0
  3
*D45
  1

  0
LINE
  5
25487
330
24F84
100
AcDbEntity
  8
寸法
 62
     0
 48
50.0
370
    -2
100
AcDbLine
 10
10128.6
 20
7686.233143676709
 30
0.0
 11
10128.6
 21
8452.49960177062
 31
0.0
  0
LINE
  5
25488
330
24F84
100
AcDbEntity
  8
寸法
 62
     0
 48
50.0
370
    -2
100
AcDbLine
 10
10005.6
 20
7613.233143676708
 30
0.0
 11
10005.6
 21
8452.49960177062
 31
0.0
  0
LINE
  5
25489
330
24F84
100
AcDbEntity
  8
寸法
 62
     0
 48
50.0
370
    -2
100
AcDbLine
 10
10005.6
 20
8392.499601770621
 30
0.0
 11
10128.6
 21
8392.499601770621
 31
0.0
  0
LINE
  5
2548A
330
24F84
100
AcDbEntity
  8
寸法
 62
     0
 48
50.0
370
    -2
100
AcDbLine
 10
10128.6
 20
8392.499601770621
 30
0.0
 11
10540.19188309203
 21
8392.499601770621
 31
0.0
  0
INSERT
  5
2548B
330
24F84
100
AcDbEntity
  8
寸法
 62
     0
 48
50.0
370
    -2
100
AcDbBlockReference
  2
_DOTSMALL
 10
10005.6
 20
8392.499601770621
 30
0.0
 41
100.0
 42
100.0
 43
100.0
 50
180.0
  0
INSERT
  5
2548C
330
24F84
100
AcDbEntity
  8
寸法
 62
     0
 48
50.0
370
    -2
100
AcDbBlockReference
  2
_DOTSMALL
 10
10128.6
 20
8392.499601770621
 30
0.0
 41
100.0
 42
100.0
 43
100.0
  0
MTEXT
  5
2548D
330
24F84
100
AcDbEntity
  8
寸法
 62
     7
 48
50.0
100
AcDbMText
 10
10401.70660171779
 20
8492.511412794241
 30
0.0
 40
120.0
 41
0.0
 71
     5
 72
     1
  1
\A1;123
  7
STYLE1
 73
     1
 44
1.0
1001
ACAD
1000
MTEXTBEGIN
1070
    73
1070
     1
1070
    44
1040
1.0
1070
    74
1070
     0
1000
MTEXTEND
  0
POINT
  5
2548E
330
24F84
100
AcDbEntity
  8
DEFPOINTS
 62
     0
 48
50.0
100
AcDbPoint
 10
10128.6
 20
7666.233143676709
 30
0.0
  0
POINT
  5
2548F
330
24F84
100
AcDbEntity
  8
DEFPOINTS
 62
     0
 48
50.0
100
AcDbPoint
 10
10005.6
 20
7593.233143676709
 30
0.0
  0
POINT
  5
25490
330
24F84
100
AcDbEntity
  8
DEFPOINTS
 62
     0
 48
50.0
100
AcDbPoint
 10
10005.6
 20
8392.499601770621
 30
0.0
  0
ENDBLK
  5
24F90
330
24F84
100
AcDbEntity
  8
0
 48
50.0
100
AcDbBlockEnd
  0
BLOCK
  5
25912
330
25908
100
AcDbEntity
  8
0
 48
50.0
100
AcDbBlockBegin
  2
*D52
 70
     1
 10
0.0
 20
0.0
 30
0.0
  3
*D52
  1

  0
LINE
  5
25952
330
25908
100
AcDbEntity
  8
寸法
 62
     0
 48
50.0
370
    -2
100
AcDbLine
 10
6569.263990019618
 20
1849.032010498378
 30
0.0
 11
6569.263990019618
 21
2308.699818414759
 31
0.0
  0
LINE
  5
25953
330
25908
100
AcDbEntity
  8
寸法
 62
     0
 48
50.0
370
    -2
100
AcDbLine
 10
6377.263990019618
 20
1849.032010498378
 30
0.0
 11
6377.263990019618
 21
2308.699818414759
 31
0.0
  0
LINE
  5
25954
330
25908
100
AcDbEntity
  8
寸法
 62
     0
 48
50.0
370
    -2
100
AcDbLine
 10
6569.263990019618
 20
2248.699818414759
 30
0.0
 11
6377.263990019618
 21
2248.699818414759
 31
0.0
  0
INSERT
  5
25955
330
25908
100
AcDbEntity
  8
寸法
 62
     0
 48
50.0
370
    -2
100
AcDbBlockReference
  2
_DOTSMALL
 10
6569.263990019618
 20
2248.699818414759
 30
0.0
 41
100.0
 42
100.0
 43
100.0
  0
INSERT
  5
25956
330
25908
100
AcDbEntity
  8
寸法
 62
     0
 48
50.0
370
    -2
100
AcDbBlockReference
  2
_DOTSMALL
 10
6377.263990019618
 20
2248.699818414759
 30
0.0
 41
100.0
 42
100.0
 43
100.0
 50
180.0
  0
MTEXT
  5
25957
330
25908
100
AcDbEntity
  8
寸法
 62
     7
 48
50.0
100
AcDbMText
 10
6473.263990019617
 20
2548.735251485625
 30
0.0
 40
120.0
 41
0.0
 71
     5
 72
     1
  1
\A1;120\P200\P280
  7
STYLE1
 73
     1
 44
1.0
1001
ACAD
1000
MTEXTBEGIN
1070
    73
1070
     1
1070
    44
1040
1.0
1070
    74
1070
     0
1000
MTEXTEND
  0
POINT
  5
25958
330
25908
100
AcDbEntity
  8
DEFPOINTS
 62
     0
 48
50.0
100
AcDbPoint
 10
6569.263990019618
 20
1829.032010498378
 30
0.0
  0
POINT
  5
25959
330
25908
100
AcDbEntity
  8
DEFPOINTS
 62
     0
 48
50.0
100
AcDbPoint
 10
6377.263990019618
 20
1829.032010498378
 30
0.0
  0
POINT
  5
2595A
330
25908
100
AcDbEntity
  8
DEFPOINTS
 62
     0
 48
50.0
100
AcDbPoint
 10
6377.263990019618
 20
2248.699818414759
 30
0.0
  0
ENDBLK
  5
25913
330
25908
100
AcDbEntity
  8
0
 48
50.0
100
AcDbBlockEnd
  0
BLOCK
  5
2591E
330
25914
100
AcDbEntity
  8
0
 48
50.0
100
AcDbBlockBegin
  2
*D53
 70
     1
 10
0.0
 20
0.0
 30
0.0
  3
*D53
  1

  0
LINE
  5
2595B
330
25914
100
AcDbEntity
  8
寸法
 62
     0
 48
50.0
370
    -2
100
AcDbLine
 10
6249.263990019618
 20
897.0320104983784
 30
0.0
 11
6249.263990019618
 21
446.6023724932183
 31
0.0
  0
LINE
  5
2595C
330
25914
100
AcDbEntity
  8
寸法
 62
     0
 48
50.0
370
    -2
100
AcDbLine
 10
6697.263990019618
 20
897.0320104983784
 30
0.0
 11
6697.263990019618
 21
446.6023724932183
 31
0.0
  0
LINE
  5
2595D
330
25914
100
AcDbEntity
  8
寸法
 62
     0
 48
50.0
370
    -2
100
AcDbLine
 10
6249.263990019618
 20
506.6023724932184
 30
0.0
 11
6697.263990019618
 21
506.6023724932184
 31
0.0
  0
INSERT
  5
2595E
330
25914
100
AcDbEntity
  8
寸法
 62
     0
 48
50.0
370
    -2
100
AcDbBlockReference
  2
_DOTSMALL
 10
6249.263990019618
 20
506.6023724932184
 30
0.0
 41
100.0
 42
100.0
 43
100.0
 50
180.0
  0
INSERT
  5
2595F
330
25914
100
AcDbEntity
  8
寸法
 62
     0
 48
50.0
370
    -2
100
AcDbBlockReference
  2
_DOTSMALL
 10
6697.263990019618
 20
506.6023724932184
 30
0.0
 41
100.0
 42
100.0
 43
100.0
  0
MTEXT
  5
25960
330
25914
100
AcDbEntity
  8
寸法
 62
     7
 48
50.0
100
AcDbMText
 10
6453.167231341395
 20
606.6023724932184
 30
0.0
 40
120.0
 41
0.0
 71
     5
 72
     1
  1
\A1;300
  7
STYLE1
 73
     1
 44
1.0
1001
ACAD
1000
MTEXTBEGIN
1070
    73
1070
     1
1070
    44
1040
1.0
1070
    74
1070
     0
1000
MTEXTEND
  0
POINT
  5
25961
330
25914
100
AcDbEntity
  8
DEFPOINTS
 62
     0
 48
50.0
100
AcDbPoint
 10
6249.263990019618
 20
917.0320104983785
 30
0.0
  0
POINT
  5
25962
330
25914
100
AcDbEntity
  8
DEFPOINTS
 62
     0
 48
50.0
100
AcDbPoint
 10
6697.263990019618
 20
917.0320104983785
 30
0.0
  0
POINT
  5
25963
330
25914
100
AcDbEntity
  8
DEFPOINTS
 62
     0
 48
50.0
100
AcDbPoint
 10
6697.263990019618
 20
506.6023724932184
 30
0.0
  0
ENDBLK
  5
2591F
330
25914
100
AcDbEntity
  8
0
 48
50.0
100
AcDbBlockEnd
  0
BLOCK
  5
2592A
330
25920
100
AcDbEntity
  8
0
 48
50.0
100
AcDbBlockBegin
  2
*D54
 70
     1
 10
0.0
 20
0.0
 30
0.0
  3
*D54
  1

  0
LINE
  5
25964
330
25920
100
AcDbEntity
  8
寸法
 62
     0
 48
50.0
370
    -2
100
AcDbLine
 10
6357.263990019618
 20
1829.032010498378
 30
0.0
 11
5582.226751457878
 21
1829.032010498379
 31
0.0
  0
LINE
  5
25965
330
25920
100
AcDbEntity
  8
寸法
 62
     0
 48
50.0
370
    -2
100
AcDbLine
 10
6149.263990019622
 20
1045.032010498378
 30
0.0
 11
5582.226751457878
 21
1045.032010498379
 31
0.0
  0
LINE
  5
25966
330
25920
100
AcDbEntity
  8
寸法
 62
     0
 48
50.0
370
    -2
100
AcDbLine
 10
5642.226751457878
 20
1829.032010498378
 30
0.0
 11
5642.226751457878
 21
1045.032010498378
 31
0.0
  0
INSERT
  5
25967
330
25920
100
AcDbEntity
  8
寸法
 62
     0
 48
50.0
370
    -2
100
AcDbBlockReference
  2
_DOTSMALL
 10
5642.226751457878
 20
1829.032010498378
 30
0.0
 41
100.0
 42
100.0
 43
100.0
 50
90.0
  0
INSERT
  5
25968
330
25920
100
AcDbEntity
  8
寸法
 62
     0
 48
50.0
370
    -2
100
AcDbBlockReference
  2
_DOTSMALL
 10
5642.226751457878
 20
1045.032010498378
 30
0.0
 41
100.0
 42
100.0
 43
100.0
 50
270.0
  0
MTEXT
  5
25969
330
25920
100
AcDbEntity
  8
寸法
 62
     7
 48
50.0
100
AcDbMText
 10
5542.226751457878
 20
1416.572160154379
 30
0.0
 40
120.0
 41
0.0
 71
     5
 72
     1
  1
\A1;540
  7
STYLE1
 11
0.0000000000000001
 21
1.0
 31
0.0
 73
     1
 44
1.0
1001
ACAD
1000
MTEXTBEGIN
1070
    73
1070
     1
1070
    44
1040
1.0
1070
    74
1070
     0
1000
MTEXTEND
  0
POINT
  5
2596A
330
25920
100
AcDbEntity
  8
DEFPOINTS
 62
     0
 48
50.0
100
AcDbPoint
 10
6377.263990019618
 20
1829.032010498378
 30
0.0
  0
POINT
  5
2596B
330
25920
100
AcDbEntity
  8
DEFPOINTS
 62
     0
 48
50.0
100
AcDbPoint
 10
6169.263990019622
 20
1045.032010498378
 30
0.0
  0
POINT
  5
2596C
330
25920
100
AcDbEntity
  8
DEFPOINTS
 62
     0
 48
50.0
100
AcDbPoint
 10
5642.226751457878
 20
1045.032010498378
 30
0.0
  0
ENDBLK
  5
2592B
330
25920
100
AcDbEntity
  8
0
 48
50.0
100
AcDbBlockEnd
  0
BLOCK
  5
25936
330
2592C
100
AcDbEntity
  8
0
 48
50.0
100
AcDbBlockBegin
  2
*D55
 70
     1
 10
0.0
 20
0.0
 30
0.0
  3
*D55
  1

  0
LINE
  5
2596D
330
2592C
100
AcDbEntity
  8
寸法
 62
     0
 48
50.0
370
    -2
100
AcDbLine
 10
6229.263990019618
 20
1285.032010498378
 30
0.0
 11
6046.843676287159
 21
1285.032010498378
 31
0.0
  0
LINE
  5
2596E
330
2592C
100
AcDbEntity
  8
寸法
 62
     0
 48
50.0
370
    -2
100
AcDbLine
 10
6149.263990019622
 20
1045.032010498378
 30
0.0
 11
6046.843676287159
 21
1045.032010498378
 31
0.0
  0
LINE
  5
2596F
330
2592C
100
AcDbEntity
  8
寸法
 62
     0
 48
50.0
370
    -2
100
AcDbLine
 10
6106.843676287159
 20
1285.032010498378
 30
0.0
 11
6106.843676287159
 21
1045.032010498378
 31
0.0
  0
INSERT
  5
25970
330
2592C
100
AcDbEntity
  8
寸法
 62
     0
 48
50.0
370
    -2
100
AcDbBlockReference
  2
_DOTSMALL
 10
6106.843676287159
 20
1285.032010498378
 30
0.0
 41
100.0
 42
100.0
 43
100.0
 50
90.0
  0
INSERT
  5
25971
330
2592C
100
AcDbEntity
  8
寸法
 62
     0
 48
50.0
370
    -2
100
AcDbBlockReference
  2
_DOTSMALL
 10
6106.843676287159
 20
1045.032010498378
 30
0.0
 41
100.0
 42
100.0
 43
100.0
 50
270.0
  0
MTEXT
  5
25972
330
2592C
100
AcDbEntity
  8
寸法
 62
     7
 48
50.0
100
AcDbMText
 10
6006.843676287159
 20
1165.032010498379
 30
0.0
 40
120.0
 41
0.0
 71
     5
 72
     1
  1
\A1;150
  7
STYLE1
 11
0.0000000000000001
 21
1.0
 31
0.0
 73
     1
 44
1.0
1001
ACAD
1000
MTEXTBEGIN
1070
    73
1070
     1
1070
    44
1040
1.0
1070
    74
1070
     0
1000
MTEXTEND
  0
POINT
  5
25973
330
2592C
100
AcDbEntity
  8
DEFPOINTS
 62
     0
 48
50.0
100
AcDbPoint
 10
6249.263990019618
 20
1285.032010498378
 30
0.0
  0
POINT
  5
25974
330
2592C
100
AcDbEntity
  8
DEFPOINTS
 62
     0
 48
50.0
100
AcDbPoint
 10
6169.263990019622
 20
1045.032010498378
 30
0.0
  0
POINT
  5
25975
330
2592C
100
AcDbEntity
  8
DEFPOINTS
 62
     0
 48
50.0
100
AcDbPoint
 10
6106.843676287159
 20
1045.032010498378
 30
0.0
  0
ENDBLK
  5
25937
330
2592C
100
AcDbEntity
  8
0
 48
50.0
100
AcDbBlockEnd
  0
BLOCK
  5
25944
330
25938
100
AcDbEntity
  8
0
 48
50.0
100
AcDbBlockBegin
  2
*D56
 70
     1
 10
0.0
 20
0.0
 30
0.0
  3
*D56
  1

  0
LINE
  5
25976
330
25938
100
AcDbEntity
  8
寸法
 62
     0
 48
50.0
370
    -2
100
AcDbLine
 10
8324.103303196812
 20
1881.792010498379
 30
0.0
 11
9329.226569084683
 21
1881.792010498379
 31
0.0
  0
LINE
  5
25977
330
25938
100
AcDbEntity
  8
寸法
 62
     0
 48
50.0
370
    -2
100
AcDbLine
 10
8511.303303196811
 20
1829.032010498378
 30
0.0
 11
9329.226569084683
 21
1829.032010498378
 31
0.0
  0
LINE
  5
25978
330
25938
100
AcDbEntity
  8
寸法
 62
     0
 48
50.0
370
    -2
100
AcDbLine
 10
9269.226569084684
 20
1881.792010498379
 30
0.0
 11
9269.226569084684
 21
1981.792010498379
 31
0.0
  0
LINE
  5
25979
330
25938
100
AcDbEntity
  8
寸法
 62
     0
 48
50.0
370
    -2
100
AcDbLine
 10
9269.226569084684
 20
1829.032010498378
 30
0.0
 11
9269.226569084684
 21
1097.014203655412
 31
0.0
  0
LINE
  5
2597A
330
25938
100
AcDbEntity
  8
寸法
 62
     0
 48
50.0
370
    -2
100
AcDbLine
 10
9269.226569084684
 20
1881.792010498379
 30
0.0
 11
9269.226569084684
 21
1829.032010498378
 31
0.0
  0
INSERT
  5
2597B
330
25938
100
AcDbEntity
  8
寸法
 62
     0
 48
50.0
370
    -2
100
AcDbBlockReference
  2
_DOTSMALL
 10
9269.226569084684
 20
1881.792010498379
 30
0.0
 41
100.0
 42
100.0
 43
100.0
 50
270.0
  0
INSERT
  5
2597C
330
25938
100
AcDbEntity
  8
寸法
 62
     0
 48
50.0
370
    -2
100
AcDbBlockReference
  2
_DOTSMALL
 10
9269.226569084684
 20
1829.032010498378
 30
0.0
 41
100.0
 42
100.0
 43
100.0
 50
90.0
  0
MTEXT
  5
2597D
330
25938
100
AcDbEntity
  8
寸法
 62
     7
 48
50.0
100
AcDbMText
 10
9169.214758061063
 20
1363.023107076896
 30
0.0
 40
120.0
 41
0.0
 71
     5
 72
     1
  1
\A1;20～25
  7
STYLE1
 11
0.0000000000000001
 21
1.0
 31
0.0
 73
     1
 44
1.0
1001
ACAD
1000
MTEXTBEGIN
1070
    73
1070
     1
1070
    44
1040
1.0
1070
    74
1070
     0
1000
MTEXTEND
  0
POINT
  5
2597E
330
25938
100
AcDbEntity
  8
DEFPOINTS
 62
     0
 48
50.0
100
AcDbPoint
 10
8304.103303196813
 20
1881.792010498379
 30
0.0
  0
POINT
  5
2597F
330
25938
100
AcDbEntity
  8
DEFPOINTS
 62
     0
 48
50.0
100
AcDbPoint
 10
8491.303303196811
 20
1829.032010498378
 30
0.0
  0
POINT
  5
25980
330
25938
100
AcDbEntity
  8
DEFPOINTS
 62
     0
 48
50.0
100
AcDbPoint
 10
9269.226569084684
 20
1829.032010498378
 30
0.0
  0
ENDBLK
  5
25945
330
25938
100
AcDbEntity
  8
0
 48
50.0
100
AcDbBlockEnd
  0
BLOCK
  5
25950
330
25946
100
AcDbEntity
  8
0
 48
50.0
100
AcDbBlockBegin
  2
*D57
 70
     1
 10
0.0
 20
0.0
 30
0.0
  3
*D57
  1

  0
LINE
  5
25981
330
25946
100
AcDbEntity
  8
寸法
 62
     0
 48
50.0
370
    -2
100
AcDbLine
 10
8511.303303196811
 20
1829.032010498378
 30
0.0
 11
9053.171902965656
 21
1829.032010498378
 31
0.0
  0
LINE
  5
25982
330
25946
100
AcDbEntity
  8
寸法
 62
     0
 48
50.0
370
    -2
100
AcDbLine
 10
8511.303303196811
 20
1505.032010498377
 30
0.0
 11
9053.171902965656
 21
1505.032010498377
 31
0.0
  0
LINE
  5
25983
330
25946
100
AcDbEntity
  8
寸法
 62
     0
 48
50.0
370
    -2
100
AcDbLine
 10
8993.171902965656
 20
1829.032010498378
 30
0.0
 11
8993.171902965656
 21
1505.032010498377
 31
0.0
  0
INSERT
  5
25984
330
25946
100
AcDbEntity
  8
寸法
 62
     0
 48
50.0
370
    -2
100
AcDbBlockReference
  2
_DOTSMALL
 10
8993.171902965656
 20
1829.032010498378
 30
0.0
 41
100.0
 42
100.0
 43
100.0
 50
90.0
  0
INSERT
  5
25985
330
25946
100
AcDbEntity
  8
寸法
 62
     0
 48
50.0
370
    -2
100
AcDbBlockReference
  2
_DOTSMALL
 10
8993.171902965656
 20
1505.032010498377
 30
0.0
 41
100.0
 42
100.0
 43
100.0
 50
270.0
  0
MTEXT
  5
25986
330
25946
100
AcDbEntity
  8
寸法
 62
     7
 48
50.0
100
AcDbMText
 10
8893.171902965656
 20
1667.032010498379
 30
0.0
 40
120.0
 41
0.0
 71
     5
 72
     1
  1
\A1;180
  7
STYLE1
 11
0.0000000000000001
 21
1.0
 31
0.0
 73
     1
 44
1.0
1001
ACAD
1000
MTEXTBEGIN
1070
    73
1070
     1
1070
    44
1040
1.0
1070
    74
1070
     0
1000
MTEXTEND
  0
POINT
  5
25987
330
25946
100
AcDbEntity
  8
DEFPOINTS
 62
     0
 48
50.0
100
AcDbPoint
 10
8491.303303196811
 20
1829.032010498378
 30
0.0
  0
POINT
  5
25988
330
25946
100
AcDbEntity
  8
DEFPOINTS
 62
     0
 48
50.0
100
AcDbPoint
 10
8491.303303196811
 20
1505.032010498377
 30
0.0
  0
POINT
  5
25989
330
25946
100
AcDbEntity
  8
DEFPOINTS
 62
     0
 48
50.0
100
AcDbPoint
 10
8993.171902965656
 20
1505.032010498377
 30
0.0
  0
ENDBLK
  5
25951
330
25946
100
AcDbEntity
  8
0
 48
50.0
100
AcDbBlockEnd
  0
ENDSEC
  0
SECTION
  2
ENTITIES
  0
MTEXT
  5
763F
330
747D
100
AcDbEntity
  8
0
100
AcDbMText
 10
302.846345836809
 20
280.1983726409901
 30
0.0
 40
3.5
 41
5.323721266742722
 71
     1
 72
     5
  1

  7
MSMINCHO
 73
     1
 44
1.0
1001
ACAD
1000
MTEXTBEGIN
1070
    73
1070
     1
1070
    44
1040
1.0
1070
    74
1070
     0
1000
MTEXTEND
  0
LINE
  5
10B57
330
747D
100
AcDbEntity
  8
補助
  6
PHANTOM
 62
   230
 48
50.0
100
AcDbLine
 10
139.9999999999995
 20
11409.6
 30
0.0
 11
16307.2
 21
11409.6
 31
0.0
  0
LINE
  5
10B59
330
747D
100
AcDbEntity
  8
仕様書枠
  6
Continuous
 48
50.0
100
AcDbLine
 10
13107.2
 20
1200.0
 30
0.0
 11
13107.2
 21
-0.0000000000000729
 31
0.0
  0
LINE
  5
10B5D
330
747D
100
AcDbEntity
  8
仕様書枠
 48
50.0
100
AcDbLine
 10
140.0
 20
0.0
 30
0.0
 11
16307.2
 21
-0.0000000000000909
 31
0.0
  0
LINE
  5
10B5E
330
747D
100
AcDbEntity
  8
補助
  6
PHANTOM
 62
   230
 48
50.0
100
AcDbLine
 10
16307.2
 20
11409.6
 30
0.0
 11
16307.2
 21
1200.0
 31
0.0
  0
LINE
  5
10B6C
330
747D
100
AcDbEntity
  8
仕様書枠
 48
50.0
100
AcDbLine
 10
13107.2
 20
1200.0
 30
0.0
 11
16307.2
 21
1200.0
 31
0.0
  0
TEXT
  5
10B73
330
747D
100
AcDbEntity
  8
文字
 62
     7
 48
50.0
100
AcDbText
 10
13162.9790565769
 20
895.0906074299405
 30
0.0
 40
200.0
  1
基 礎 図
  7
STYLE2
100
AcDbText
  0
LINE
  5
10B7B
330
747D
100
AcDbEntity
  8
仕様書枠
 48
50.0
100
AcDbLine
 10
13107.2
 20
800.0
 30
0.0
 11
14251.2
 21
800.0
 31
0.0
  0
LINE
  5
10B88
330
747D
100
AcDbEntity
  8
仕様書枠
  6
Continuous
 48
50.0
100
AcDbLine
 10
14251.2
 20
1200.0
 30
0.0
 11
14251.2
 21
800.0
 31
0.0
  0
LINE
  5
16462
330
747D
100
AcDbEntity
  8
仕様書枠
 48
50.0
100
AcDbLine
 10
16307.2
 20
1200.0
 30
0.0
 11
16307.2
 21
-0.0000000000000909
 31
0.0
  0
LINE
  5
1903B
330
747D
100
AcDbEntity
  8
補助
  6
PHANTOM
 62
   230
 48
50.0
100
AcDbLine
 10
140.0
 20
0.0
 30
0.0
 11
139.9999999999995
 21
11409.6
 31
0.0
  0
LEADER
  5
1AC27
330
747D
100
AcDbEntity
  8
寸法
 48
50.0
100
AcDbLeader
  3
INABA_S50G
 73
     0
 74
     0
 75
     1
 40
120.0
 41
720.0000000000001
 76
     3
 10
10130.05985718447
 20
6972.220080130954
 30
0.0
 10
10286.83343157075
 20
6711.206166563122
 30
0.0
 10
10411.83343157075
 20
6711.206166563122
 30
0.0
340
1AC28
1001
ACAD
1000
DSTYLE
1002
{
1070
   341
1005
0
1070
    40
1040
1.0
1070
   343
1005
0
1070
   344
1005
0
1002
}
  0
MTEXT
  5
1AC28
102
{ACAD_REACTORS
330
1AC27
102
}
330
747D
100
AcDbEntity
  8
部品1
 62
     7
 48
50.0
100
AcDbMText
 10
11156.83343157075
 20
6796.206166563123
 30
0.0
 40
120.0
 41
0.0
 71
     6
 72
     1
  1
\A1;床下換気口
  7
STYLE1
 73
     1
 44
1.0
1001
ACAD
1000
MTEXTBEGIN
1070
    73
1070
     1
1070
    44
1040
1.0
1070
    74
1070
     0
1000
MTEXTEND
  0
TEXT
  5
1AC29
330
747D
100
AcDbEntity
  8
部品1
 48
50.0
100
AcDbText
 10
10477.43013846117
 20
5978.931718605139
 30
0.0
 40
80.0
  1
(a=45,b=55,c=75)
  7
STYLE1
100
AcDbText
  0
TEXT
  5
1AC2A
330
747D
100
AcDbEntity
  8
部品1
 48
50.0
100
AcDbText
 10
10318.85112970687
 20
6085.776939473894
 30
0.0
 40
80.0
  1
※a,b,cは屋根の出幅です。
  7
STYLE1
100
AcDbText
  0
MTEXT
  5
1AC2B
102
{ACAD_REACTORS
330
1AC2C
102
}
330
747D
100
AcDbEntity
  8
部品1
 62
     7
 48
50.0
100
AcDbMText
 10
11116.63832569548
 20
6265.087626406969
 30
0.0
 40
120.0
 41
0.0
 71
     6
 72
     1
  1
\A1;屋根の外寸
  7
STYLE1
 73
     1
 44
1.0
1001
ACAD
1000
MTEXTBEGIN
1070
    73
1070
     1
1070
    44
1040
1.0
1070
    74
1070
     0
1000
MTEXTEND
  0
LEADER
  5
1AC2C
330
747D
100
AcDbEntity
  8
寸法
 48
50.0
100
AcDbLeader
  3
INABA_S50G
 73
     0
 74
     0
 75
     1
 40
120.0
 41
672.0
 76
     3
 10
10178.69831350344
 20
6438.976969870544
 30
0.0
 10
10294.63832569548
 20
6180.087626406969
 30
0.0
 10
10419.63832569548
 20
6180.087626406969
 30
0.0
340
1AC2B
1001
ACAD
1000
DSTYLE
1002
{
1070
   341
1005
0
1070
    40
1040
1.0
1070
   343
1005
0
1070
   344
1005
0
1002
}
  0
TEXT
  5
1C7A1
330
747D
100
AcDbEntity
  8
文字
 62
     7
 48
50.0
100
AcDbText
 10
13188.16259899338
 20
79.80631269190417
 30
0.0
 40
80.0
  1
※布基礎には換気口を設けてください。
  7
STYLE2
100
AcDbText
  0
TEXT
  5
1C7E7
330
747D
100
AcDbEntity
  8
文字
 62
     7
 48
50.0
100
AcDbText
 10
13188.16259899338
 20
246.7109242801889
 30
0.0
 40
80.0
  1
※寒冷地等は地域の実情に合わせた基礎にして下さい。
  7
STYLE2
100
AcDbText
  0
TEXT
  5
1C7E8
330
747D
100
AcDbEntity
  8
文字
 62
     7
 48
50.0
100
AcDbText
 10
14325.79230300687
 20
499.5983841039506
 30
0.0
 40
160.0
  1
ＮＸＮ－１３ＤＬ－４
  7
STYLE2
100
AcDbText
  0
TEXT
  5
1C7EC
330
747D
100
AcDbEntity
  8
文字
 62
     7
 48
50.0
100
AcDbText
 10
14524.131837222
 20
1031.557706291229
 30
0.0
 40
100.0
  1
<縮尺> S=1/40
  7
STYLE2
100
AcDbText
  0
TEXT
  5
1C7ED
330
747D
100
AcDbEntity
  8
文字
 62
     7
 48
50.0
100
AcDbText
 10
13201.43669998441
 20
477.2740661031257
 30
0.0
 40
160.0
  1
機種名
  7
STYLE2
100
AcDbText
  0
LINE
  5
1C7EF
330
747D
100
AcDbEntity
  8
文字
 62
     7
 48
50.0
100
AcDbLine
 10
13187.2
 20
400.0
 30
0.0
 11
16227.2
 21
400.0
 31
0.0
  0
MTEXT
  5
1D2D5
102
{ACAD_REACTORS
330
1D2D6
102
}
330
747D
100
AcDbEntity
  8
部品1
 62
     7
 48
50.0
100
AcDbMText
 10
11323.99523070988
 20
7981.845887919218
 30
0.0
 40
120.0
 41
0.0
 71
     6
 72
     1
  1
アンカーボルト
  7
STYLE1
 73
     1
 44
1.0
1001
ACAD
1000
MTEXTBEGIN
1070
    73
1070
     1
1070
    44
1040
1.0
1070
    74
1070
     0
1000
MTEXTEND
  0
LEADER
  5
1D2D6
330
747D
100
AcDbEntity
  8
寸法
 48
50.0
100
AcDbLeader
  3
INABA_S50G
 73
     0
 74
     0
 75
     1
 40
120.0
 41
994.3492424049171
 76
     3
 10
10005.680085757
 20
7543.44098803542
 30
0.0
 10
10179.64598830496
 20
7896.845887919218
 30
0.0
 10
10304.64598830496
 20
7896.845887919218
 30
0.0
340
1D2D5
1001
ACAD
1000
DSTYLE
1002
{
1070
   341
1005
0
1070
    40
1040
1.0
1070
   343
1005
0
1070
   344
1005
0
1002
}
  0
MTEXT
  5
1D332
102
{ACAD_REACTORS
330
1D333
102
}
330
747D
100
AcDbEntity
  8
部品1
 62
     7
 48
50.0
100
AcDbMText
 10
9688.828697015692
 20
6836.823664610266
 30
0.0
 40
120.0
 41
0.0
 71
     6
 72
     1
  1
CB
  7
STYLE1
 73
     1
 44
1.0
1001
ACAD
1000
MTEXTBEGIN
1070
    73
1070
     1
1070
    44
1040
1.0
1070
    74
1070
     0
1000
MTEXTEND
  0
LEADER
  5
1D333
330
747D
100
AcDbEntity
  8
寸法
 48
50.0
100
AcDbLeader
  3
INABA_S50G
 73
     0
 74
     0
 75
     1
 40
120.0
 41
149.591883092037
 76
     3
 10
9261.954011061012
 20
6974.541978165092
 30
0.0
 10
9389.236813923655
 20
6751.823664610267
 30
0.0
 10
9514.236813923655
 20
6751.823664610267
 30
0.0
340
1D332
1001
ACAD
1000
DSTYLE
1002
{
1070
   341
1005
0
1070
    40
1040
1.0
1070
   343
1005
0
1070
   344
1005
0
1002
}
  0
DIMENSION
  5
20DE1
330
747D
100
AcDbEntity
  8
寸法
 48
50.0
100
AcDbDimension
  2
*D19
 10
10173.6
 20
8624.453465735632
 30
0.0
 11
10444.77462120245
 21
8624.453465735632
 31
0.0
 70
   160
  1
a
 71
     5
 42
45.0
  3
INABA_S40G
100
AcDbAlignedDimension
 13
10128.6
 23
7666.233143676709
 33
0.0
 14
10173.6
 24
8392.499601770621
 34
0.0
100
AcDbRotatedDimension
1001
ACAD
1000
DSTYLE
1002
{
1070
   341
1005
0
1002
}
  0
DIMENSION
  5
20DFB
330
747D
100
AcDbEntity
  8
寸法
 48
50.0
100
AcDbDimension
  2
*D20
 10
6318.600000000001
 20
8624.453465735632
 30
0.0
 11
6002.425378797543
 21
8624.453465735632
 31
0.0
 70
   160
  1
a
 71
     5
 42
44.99999999999636
  3
INABA_S40G
100
AcDbAlignedDimension
 13
6273.600000000005
 23
8392.499601770621
 33
0.0
 14
6318.600000000001
 24
7666.233143676709
 34
0.0
100
AcDbRotatedDimension
1001
ACAD
1000
DSTYLE
1002
{
1070
   341
1005
0
1002
}
  0
LINE
  5
22711
330
747D
100
AcDbEntity
  8
想像線
 48
10.0
100
AcDbLine
 10
10173.6
 20
7741.233143676712
 30
0.0
 11
6273.600000000002
 21
7741.23314367672
 31
0.0
  0
LINE
  5
22712
330
747D
100
AcDbEntity
  8
想像線
 48
10.0
100
AcDbLine
 10
6273.599999999998
 20
6231.233143676718
 30
0.0
 11
6273.600000000001
 21
7741.233143676717
 31
0.0
  0
LINE
  5
22713
330
747D
100
AcDbEntity
  8
想像線
 48
10.0
100
AcDbLine
 10
10173.6
 20
6231.233143676725
 30
0.0
 11
10173.6
 21
7741.233143676712
 31
0.0
  0
LINE
  5
22714
330
747D
100
AcDbEntity
  8
想像線
 48
10.0
100
AcDbLine
 10
10173.6
 20
6231.233143676725
 30
0.0
 11
6273.599999999999
 21
6231.233143676717
 31
0.0
  0
DIMENSION
  5
22741
330
747D
100
AcDbEntity
  8
寸法
 48
50.0
100
AcDbDimension
  2
*D25
 10
5443.721909610676
 20
7666.23314367671
 30
0.0
 11
5343.721909610675
 21
7703.733143676713
 31
0.0
 70
    32
  1
c
 71
     5
 42
75.00000000000546
  3
INABA_S40G
100
AcDbAlignedDimension
 13
5695.66500633007
 23
7741.233143676716
 33
0.0
 14
6318.600000000001
 24
7666.233143676709
 34
0.0
 50
90.0
100
AcDbRotatedDimension
1001
ACAD
1000
DSTYLE
1002
{
1070
   341
1005
0
1002
}
  0
DIMENSION
  5
2275B
330
747D
100
AcDbEntity
  8
寸法
 48
50.0
100
AcDbDimension
  2
*D26
 10
5443.721909610673
 20
6231.233143676735
 30
0.0
 11
5343.721909610672
 21
6258.733143676724
 31
0.0
 70
    32
  1
b
 71
     5
 42
54.99999999997545
  3
INABA_S40G
100
AcDbAlignedDimension
 13
6318.599999999999
 23
6286.23314367671
 33
0.0
 14
5695.665006330072
 24
6231.233143676735
 34
0.0
 50
90.0
100
AcDbRotatedDimension
1001
ACAD
1000
DSTYLE
1002
{
1070
   341
1005
0
1002
}
  0
DIMENSION
  5
23FD9
330
747D
100
AcDbEntity
  8
寸法
 48
50.0
100
AcDbDimension
  2
*D28
 10
9447.812020225656
 20
6286.233143676727
 30
0.0
 11
9447.812020225654
 21
5999.269560999556
 31
0.0
 70
   160
 71
     5
 42
279.99999999998
  3
INABA_S40G
100
AcDbAlignedDimension
 13
9548.599999999991
 23
6566.233143676708
 33
0.0
 14
9548.599999999998
 24
6286.233143676727
 34
0.0
 50
90.0
100
AcDbRotatedDimension
1001
ACAD
1000
DSTYLE
1002
{
1070
   341
1005
0
1002
}
  0
DIMENSION
  5
23FDA
330
747D
100
AcDbEntity
  8
寸法
 48
50.0
100
AcDbDimension
  2
*D29
 10
9447.812020225656
 20
7466.23314367671
 30
0.0
 11
9447.812020225654
 21
7953.196726353866
 31
0.0
 70
   160
 71
     5
 42
199.9999999999854
  3
INABA_S40G
100
AcDbAlignedDimension
 13
9548.599999999998
 23
7666.233143676696
 33
0.0
 14
9548.600000000005
 24
7466.23314367671
 34
0.0
 50
90.0
100
AcDbRotatedDimension
1001
ACAD
1000
DSTYLE
1002
{
1070
   341
1005
0
1002
}
  0
DIMENSION
  5
24043
330
747D
100
AcDbEntity
  8
寸法
 48
50.0
100
AcDbDimension
  2
*D27
 10
10008.6
 20
7215.83175677482
 30
0.0
 11
10398.65905511811
 21
7215.83175677482
 31
0.0
 70
   160
 71
     5
 42
119.9999999999963
  3
INABA_S40G
100
AcDbAlignedDimension
 13
10128.6
 23
7101.233143676747
 33
0.0
 14
10008.6
 24
7101.233143676762
 34
0.0
100
AcDbRotatedDimension
1001
ACAD
1000
DSTYLE
1002
{
1070
   341
1005
0
1002
}
  0
LINE
  5
24DC6
330
747D
100
AcDbEntity
  8
部品1
 48
50.0
100
AcDbLine
 10
10008.6
 20
7466.233143676713
 30
0.0
 11
6438.599999999995
 21
7466.233143676712
 31
0.0
  0
LINE
  5
24DC7
330
747D
100
AcDbEntity
  8
部品1
 48
50.0
100
AcDbLine
 10
10128.6
 20
6286.233143676727
 30
0.0
 11
6318.599999999994
 21
6286.233143676706
 31
0.0
  0
DIMENSION
  5
24DC9
330
747D
100
AcDbEntity
  8
寸法
 48
50.0
100
AcDbDimension
  2
*D30
 10
10128.6
 20
8624.453465735626
 30
0.0
 11
8223.600000000001
 21
8724.453465735626
 31
0.0
 70
    32
 71
     5
 42
3809.999999999997
  3
INABA_S40G
100
AcDbAlignedDimension
 13
6318.600000000001
 23
7666.233143676709
 33
0.0
 14
10128.6
 24
7666.233143676709
 34
0.0
100
AcDbRotatedDimension
1001
ACAD
1000
DSTYLE
1002
{
1070
   341
1005
0
1002
}
  0
LINE
  5
24DCA
330
747D
100
AcDbEntity
  8
部品1
 48
50.0
100
AcDbLine
 10
10128.6
 20
7666.233143676709
 30
0.0
 11
6318.600000000001
 21
7666.233143676709
 31
0.0
  0
DIMENSION
  5
24DCC
330
747D
100
AcDbEntity
  8
寸法
 48
50.0
100
AcDbDimension
  2
*D31
 10
8105.6
 20
8392.499601770621
 30
0.0
 11
9055.599999999998
 21
8492.499601770621
 31
0.0
 70
    32
 71
     5
 42
1899.999999999999
  3
INABA_S40G
100
AcDbAlignedDimension
 13
10005.6
 23
7593.233143676709
 33
0.0
 14
8105.6
 24
7593.233143676709
 34
0.0
100
AcDbRotatedDimension
1001
ACAD
1000
DSTYLE
1002
{
1070
   341
1005
0
1002
}
  0
DIMENSION
  5
24DCD
330
747D
100
AcDbEntity
  8
寸法
 48
50.0
100
AcDbDimension
  2
*D32
 10
8223.600000000006
 20
8148.841960346958
 30
0.0
 11
8698.600000000006
 21
8248.841960346958
 31
0.0
 70
    32
 71
     5
 42
950.0
  3
INABA_S40G
100
AcDbAlignedDimension
 13
9173.600000000005
 23
7063.233143676709
 33
0.0
 14
8223.600000000006
 24
7063.233143676709
 34
0.0
100
AcDbRotatedDimension
1001
ACAD
1000
DSTYLE
1002
{
1070
   341
1005
0
1002
}
  0
TEXT
  5
24DCE
330
747D
100
AcDbEntity
  8
寸法
 48
50.0
100
AcDbText
 10
8256.696499061646
 20
6304.914434469447
 30
0.0
 40
120.0
  1
扉面
  7
STYLE1
100
AcDbText
  0
LINE
  5
24DCF
330
747D
100
AcDbEntity
  8
細線
 48
50.0
100
AcDbLine
 10
6318.599999999989
 20
6988.355671439819
 30
0.0
 11
6431.477472236858
 21
7101.23314367669
 31
0.0
  0
LINE
  5
24DD0
330
747D
100
AcDbEntity
  8
細線
 48
50.0
100
AcDbLine
 10
6318.599999999989
 20
7033.256952045165
 30
0.0
 11
6386.576191631511
 21
7101.233143676688
 31
0.0
  0
DIMENSION
  5
24DD1
330
747D
100
AcDbEntity
  8
寸法
 48
50.0
100
AcDbDimension
  2
*D33
 10
6801.285990614303
 20
7666.233143676709
 30
0.0
 11
6801.2859906143
 21
7342.827934370885
 31
0.0
 70
   160
 71
     5
 42
653.0
  3
INABA_S40G
100
AcDbAlignedDimension
 13
7223.600000000009
 23
7013.233143676709
 33
0.0
 14
6892.765475140902
 24
7666.233143676709
 34
0.0
 50
90.0
100
AcDbRotatedDimension
1001
ACAD
1000
DSTYLE
1002
{
1070
   341
1005
0
1002
}
  0
LINE
  5
24DD2
330
747D
100
AcDbEntity
  8
部品1
 48
50.0
100
AcDbLine
 10
8323.600000000006
 20
6913.233143676709
 30
0.0
 11
8323.600000000006
 21
7113.233143676708
 31
0.0
  0
LINE
  5
24DD3
330
747D
100
AcDbEntity
  8
部品1
 48
50.0
100
AcDbLine
 10
8123.600000000008
 20
6913.233143676709
 30
0.0
 11
8123.600000000008
 21
7113.233143676708
 31
0.0
  0
LINE
  5
24DD4
330
747D
100
AcDbEntity
  8
部品1
 48
50.0
100
AcDbLine
 10
7373.600000000009
 20
6913.233143676709
 30
0.0
 11
7373.600000000009
 21
7113.233143676708
 31
0.0
  0
LINE
  5
24DD5
330
747D
100
AcDbEntity
  8
部品1
 48
50.0
100
AcDbLine
 10
7173.600000000009
 20
6913.233143676709
 30
0.0
 11
7173.600000000009
 21
7113.233143676708
 31
0.0
  0
DIMENSION
  5
24DD6
330
747D
100
AcDbEntity
  8
寸法
 48
50.0
100
AcDbDimension
  2
*D34
 10
7273.600000000008
 20
8148.841960346958
 30
0.0
 11
7748.600000000007
 21
8248.841960346958
 31
0.0
 70
    32
 71
     5
 42
949.9999999999973
  3
INABA_S40G
100
AcDbAlignedDimension
 13
8223.600000000006
 23
7063.233143676709
 33
0.0
 14
7273.600000000008
 24
7063.233143676709
 34
0.0
100
AcDbRotatedDimension
1001
ACAD
1000
DSTYLE
1002
{
1070
   341
1005
0
1002
}
  0
DIMENSION
  5
24DD7
330
747D
100
AcDbEntity
  8
寸法
 48
50.0
100
AcDbDimension
  2
*D35
 10
6318.600000000001
 20
8148.841960346958
 30
0.0
 11
6796.100000000006
 21
8248.841960346958
 31
0.0
 70
    32
 71
     5
 42
955.0000000000073
  3
INABA_S40G
100
AcDbAlignedDimension
 13
7273.600000000008
 23
7063.233143676709
 33
0.0
 14
6318.600000000001
 24
7666.233143676709
 34
0.0
100
AcDbRotatedDimension
1001
ACAD
1000
DSTYLE
1002
{
1070
   341
1005
0
1002
}
  0
LINE
  5
24DD9
330
747D
100
AcDbEntity
  8
部品1
 48
50.0
100
AcDbLine
 10
6318.600000000001
 20
6286.233143676709
 30
0.0
 11
6318.600000000001
 21
7666.233143676709
 31
0.0
  0
DIMENSION
  5
24DDB
330
747D
100
AcDbEntity
  8
寸法
 48
50.0
100
AcDbDimension
  2
*D36
 10
5443.721909610676
 20
6286.23314367671
 30
0.0
 11
5443.721909610673
 21
7013.733143676709
 31
0.0
 70
   160
 71
     5
 42
1380.0
  3
INABA_S40G
100
AcDbAlignedDimension
 13
6318.600000000001
 23
7666.233143676709
 33
0.0
 14
6318.600000000001
 24
6286.233143676709
 34
0.0
 50
90.0
100
AcDbRotatedDimension
1001
ACAD
1000
DSTYLE
1002
{
1070
   341
1005
0
1002
}
  0
DIMENSION
  5
24DDC
330
747D
100
AcDbEntity
  8
寸法
 48
50.0
100
AcDbDimension
  2
*D37
 10
5695.665006330074
 20
6484.233143676714
 30
0.0
 11
5695.665006330072
 21
7013.733143676709
 31
0.0
 70
   160
 71
     5
 42
1058.999999999996
  3
INABA_S40G
100
AcDbAlignedDimension
 13
6391.600000000001
 23
7543.233143676708
 33
0.0
 14
6391.600000000009
 24
6484.233143676712
 34
0.0
 50
90.0
100
AcDbRotatedDimension
1001
ACAD
1000
DSTYLE
1002
{
1070
   341
1005
0
1002
}
  0
LINE
  5
24DDD
330
747D
100
AcDbEntity
  8
細線
 48
50.0
100
AcDbLine
 10
6789.503084343763
 20
6286.233143676729
 30
0.0
 11
6898.600000000001
 21
6395.330059332966
 31
0.0
  0
LINE
  5
24DDE
330
747D
100
AcDbEntity
  8
細線
 48
50.0
100
AcDbLine
 10
6744.601803738419
 20
6286.233143676729
 30
0.0
 11
6898.599999999996
 21
6440.231339938306
 31
0.0
  0
LINE
  5
24DDF
330
747D
100
AcDbEntity
  8
細線
 48
50.0
100
AcDbLine
 10
6699.700523133071
 20
6286.233143676727
 30
0.0
 11
6898.599999999996
 21
6485.132620543648
 31
0.0
  0
LINE
  5
24DE0
330
747D
100
AcDbEntity
  8
細線
 48
50.0
100
AcDbLine
 10
6698.599999999998
 20
6330.033901149
 30
0.0
 11
6898.599999999994
 21
6530.033901148994
 31
0.0
  0
LINE
  5
24DE1
330
747D
100
AcDbEntity
  8
細線
 48
50.0
100
AcDbLine
 10
6698.599999999998
 20
6374.935181754345
 30
0.0
 11
6889.897961922362
 21
6566.233143676709
 31
0.0
  0
LINE
  5
24DE2
330
747D
100
AcDbEntity
  8
細線
 48
50.0
100
AcDbLine
 10
6698.599999999998
 20
6419.836462359689
 30
0.0
 11
6844.996681317017
 21
6566.233143676708
 31
0.0
  0
ARC
  5
24DE3
330
747D
100
AcDbEntity
  8
想像線
 48
5.0
100
AcDbCircle
 10
7088.600000000001
 20
6286.233143676713
 30
0.0
 40
720.0
100
AcDbArc
 50
180.0
 51
270.0
  0
DIMENSION
  5
24DE4
330
747D
100
AcDbEntity
  8
寸法
 48
50.0
100
AcDbDimension
  2
*D38
 10
6801.285990614303
 20
7013.233143676709
 30
0.0
 11
6801.2859906143
 21
6728.233143676709
 31
0.0
 70
   160
 71
     5
 42
726.9999999999891
  3
INABA_S40G
100
AcDbAlignedDimension
 13
6892.765475140902
 23
6286.23314367672
 33
0.0
 14
7223.600000000009
 24
7013.233143676709
 34
0.0
 50
90.0
100
AcDbRotatedDimension
1001
ACAD
1000
DSTYLE
1002
{
1070
   341
1005
0
1002
}
  0
DIMENSION
  5
24DE5
330
747D
100
AcDbEntity
  8
寸法
 48
50.0
100
AcDbDimension
  2
*D39
 10
6205.512673767877
 20
5566.233143676705
 30
0.0
 11
6205.512673767875
 21
5926.233143676707
 31
0.0
 70
   160
  1
扉の出<>
 71
     5
 42
720.0
  3
INABA_S40G
100
AcDbAlignedDimension
 13
6318.600000000001
 23
6286.233143676706
 33
0.0
 14
6674.325326928806
 24
5566.233143676705
 34
0.0
 50
90.0
100
AcDbRotatedDimension
1001
ACAD
1000
DSTYLE
1002
{
1070
   341
1005
0
1002
}
  0
DIMENSION
  5
24DE6
330
747D
100
AcDbEntity
  8
寸法
 48
50.0
100
AcDbDimension
  2
*D40
 10
5695.665006330074
 20
6286.23314367671
 30
0.0
 11
5695.665006330072
 21
5950.702194834117
 31
0.0
 70
   160
 71
     5
 42
198.0000000000036
  3
INABA_S40G
100
AcDbAlignedDimension
 13
6391.600000000009
 23
6484.233143676712
 33
0.0
 14
6318.600000000001
 24
6286.233143676709
 34
0.0
 50
90.0
100
AcDbRotatedDimension
1001
ACAD
1000
DSTYLE
1002
{
1070
   341
1005
0
1002
}
  0
LINE
  5
24DE8
330
747D
100
AcDbEntity
  8
細線
 48
50.0
100
AcDbLine
 10
6698.599999999996
 20
6464.737742965032
 30
0.0
 11
6800.09540071167
 21
6566.233143676708
 31
0.0
  0
LINE
  5
24DE9
330
747D
100
AcDbEntity
  8
部品1
 48
50.0
100
AcDbLine
 10
6698.599999999991
 20
6566.233143676708
 30
0.0
 11
6698.599999999998
 21
6286.233143676727
 31
0.0
  0
LINE
  5
24DEA
330
747D
100
AcDbEntity
  8
センター
 48
2.0
100
AcDbLine
 10
6441.600000000008
 20
6534.233143676712
 30
0.0
 11
6441.600000000008
 21
6434.233143676713
 31
0.0
  0
CIRCLE
  5
24DEB
330
747D
100
AcDbEntity
  8
部品1
 48
50.0
100
AcDbCircle
 10
6441.599999999993
 20
6484.233143676712
 30
0.0
 40
35.0
  0
LINE
  5
24DEC
330
747D
100
AcDbEntity
  8
センター
 48
2.0
100
AcDbLine
 10
6391.600000000009
 20
6484.233143676712
 30
0.0
 11
6491.600000000008
 21
6484.233143676712
 31
0.0
  0
LINE
  5
24DED
330
747D
100
AcDbEntity
  8
細線
 48
50.0
100
AcDbLine
 10
6366.181314052894
 20
6901.233143676688
 30
0.0
 11
6438.599999999997
 21
6973.651829623792
 31
0.0
  0
LINE
  5
24DEE
330
747D
100
AcDbEntity
  8
細線
 48
50.0
100
AcDbLine
 10
6321.280033447548
 20
6901.233143676688
 30
0.0
 11
6438.599999999995
 21
7018.553110229134
 31
0.0
  0
LINE
  5
24DEF
330
747D
100
AcDbEntity
  8
細線
 48
50.0
100
AcDbLine
 10
6318.599999999989
 20
6943.454390834474
 30
0.0
 11
6438.599999999995
 21
7063.454390834484
 31
0.0
  0
LINE
  5
24DF0
330
747D
100
AcDbEntity
  8
部品1
 48
50.0
100
AcDbLine
 10
6438.599999999998
 20
6901.233143676688
 30
0.0
 11
6318.599999999987
 21
6901.233143676688
 31
0.0
  0
LINE
  5
24DF1
330
747D
100
AcDbEntity
  8
細線
 48
50.0
100
AcDbLine
 10
6698.599999999995
 20
6509.639023570376
 30
0.0
 11
6755.194120106327
 21
6566.233143676708
 31
0.0
  0
LINE
  5
24DF2
330
747D
100
AcDbEntity
  8
細線
 48
50.0
100
AcDbLine
 10
6411.082594658238
 20
6901.233143676686
 30
0.0
 11
6438.599999999997
 21
6928.75054901845
 31
0.0
  0
LINE
  5
24DF3
330
747D
100
AcDbEntity
  8
想像線
 48
5.0
100
AcDbLine
 10
7088.600000000001
 20
6286.233143676724
 30
0.0
 11
7088.600000000001
 21
5566.233143676712
 31
0.0
  0
LINE
  5
24DF5
330
747D
100
AcDbEntity
  8
部品1
 48
50.0
100
AcDbLine
 10
6898.599999999992
 20
6566.233143676708
 30
0.0
 11
6898.599999999999
 21
6286.233143676732
 31
0.0
  0
LINE
  5
24DF6
330
747D
100
AcDbEntity
  8
細線
 48
50.0
100
AcDbLine
 10
6879.305645554459
 20
6286.233143676732
 30
0.0
 11
6898.600000000001
 21
6305.527498122276
 31
0.0
  0
LINE
  5
24DF7
330
747D
100
AcDbEntity
  8
細線
 48
50.0
100
AcDbLine
 10
6834.404364949112
 20
6286.233143676729
 30
0.0
 11
6898.600000000001
 21
6350.428778727621
 31
0.0
  0
LINE
  5
24DF8
330
747D
100
AcDbEntity
  8
部品1
 48
50.0
100
AcDbLine
 10
7373.600000000009
 20
6913.233143676709
 30
0.0
 11
7173.600000000009
 21
6913.233143676709
 31
0.0
  0
LINE
  5
24DF9
330
747D
100
AcDbEntity
  8
センター
 48
2.0
100
AcDbLine
 10
7273.600000000008
 20
7063.233143676709
 30
0.0
 11
7273.600000000008
 21
6963.233143676709
 31
0.0
  0
LINE
  5
24DFA
330
747D
100
AcDbEntity
  8
センター
 48
2.0
100
AcDbLine
 10
7223.600000000009
 20
7013.233143676709
 30
0.0
 11
7323.600000000009
 21
7013.233143676709
 31
0.0
  0
LINE
  5
24E02
330
747D
100
AcDbEntity
  8
センター
 48
2.0
100
AcDbLine
 10
8105.600000000007
 20
6534.233143676712
 30
0.0
 11
8105.600000000007
 21
6434.233143676713
 31
0.0
  0
CIRCLE
  5
24E03
330
747D
100
AcDbEntity
  8
部品1
 48
50.0
100
AcDbCircle
 10
8105.600000000007
 20
6484.233143676712
 30
0.0
 40
35.0
  0
LINE
  5
24E08
330
747D
100
AcDbEntity
  8
センター
 48
2.0
100
AcDbLine
 10
8055.600000000007
 20
6484.233143676712
 30
0.0
 11
8155.600000000006
 21
6484.233143676712
 31
0.0
  0
LINE
  5
24E0A
330
747D
100
AcDbEntity
  8
センター
 48
2.0
100
AcDbLine
 10
8173.600000000007
 20
7013.233143676709
 30
0.0
 11
8273.600000000007
 21
7013.233143676709
 31
0.0
  0
LINE
  5
24E0B
330
747D
100
AcDbEntity
  8
部品1
 48
50.0
100
AcDbLine
 10
8323.600000000006
 20
6913.233143676709
 30
0.0
 11
8123.600000000008
 21
6913.233143676709
 31
0.0
  0
LINE
  5
24E0C
330
747D
100
AcDbEntity
  8
センター
 48
2.0
100
AcDbLine
 10
8223.600000000006
 20
7063.233143676709
 30
0.0
 11
8223.600000000006
 21
6963.233143676709
 31
0.0
  0
LINE
  5
24E0D
330
747D
100
AcDbEntity
  8
細線
 48
50.0
100
AcDbLine
 10
6786.181314052896
 20
7466.23314367671
 30
0.0
 11
6898.600000000003
 21
7578.651829623834
 31
0.0
  0
LINE
  5
24E0E
330
747D
100
AcDbEntity
  8
細線
 48
50.0
100
AcDbLine
 10
6698.600000000002
 20
7558.256952045214
 30
0.0
 11
6806.576191631504
 21
7666.233143676716
 31
0.0
  0
LINE
  5
24E0F
330
747D
100
AcDbEntity
  8
細線
 48
50.0
100
AcDbLine
 10
6698.600000000002
 20
7513.355671439864
 30
0.0
 11
6851.47747223685
 21
7666.233143676719
 31
0.0
  0
LINE
  5
24E10
330
747D
100
AcDbEntity
  8
細線
 48
50.0
100
AcDbLine
 10
6698.600000000003
 20
7468.454390834526
 30
0.0
 11
6896.378752842196
 21
7666.233143676716
 31
0.0
  0
LINE
  5
24E11
330
747D
100
AcDbEntity
  8
細線
 48
50.0
100
AcDbLine
 10
6741.280033447535
 20
7466.23314367671
 30
0.0
 11
6898.599999999999
 21
7623.553110229176
 31
0.0
  0
DIMENSION
  5
24E12
330
747D
100
AcDbEntity
  8
寸法
 48
50.0
100
AcDbDimension
  2
*D41
 10
6441.600000000001
 20
8392.499601770621
 30
0.0
 11
7273.6
 21
8492.499601770621
 31
0.0
 70
    32
 71
     5
 42
1663.999999999998
  3
INABA_S40G
100
AcDbAlignedDimension
 13
8105.6
 23
7593.233143676709
 33
0.0
 14
6441.600000000001
 24
7593.233143676709
 34
0.0
100
AcDbRotatedDimension
1001
ACAD
1000
DSTYLE
1002
{
1070
   341
1005
0
1002
}
  0
DIMENSION
  5
24E13
330
747D
100
AcDbEntity
  8
寸法
 48
50.0
100
AcDbDimension
  2
*D42
 10
6318.600000000001
 20
8392.499601770621
 30
0.0
 11
6045.4933982822
 21
8392.499601770621
 31
0.0
 70
   160
 71
     5
 42
123.0
  3
INABA_S40G
100
AcDbAlignedDimension
 13
6441.600000000001
 23
7593.233143676709
 33
0.0
 14
6318.600000000001
 24
7666.233143676709
 34
0.0
100
AcDbRotatedDimension
1001
ACAD
1000
DSTYLE
1002
{
1070
   341
1005
0
1002
}
  0
DIMENSION
  5
24E15
330
747D
100
AcDbEntity
  8
寸法
 48
50.0
100
AcDbDimension
  2
*D43
 10
5695.665006330074
 20
7543.23314367671
 30
0.0
 11
5695.665006330072
 21
7939.33974539451
 31
0.0
 70
   160
 71
     5
 42
123.0
  3
INABA_S40G
100
AcDbAlignedDimension
 13
6318.600000000001
 23
7666.233143676709
 33
0.0
 14
6391.600000000001
 24
7543.233143676708
 34
0.0
 50
90.0
100
AcDbRotatedDimension
1001
ACAD
1000
DSTYLE
1002
{
1070
   341
1005
0
1002
}
  0
LINE
  5
24E17
330
747D
100
AcDbEntity
  8
細線
 48
50.0
100
AcDbLine
 10
6698.600000000002
 20
7603.158232650561
 30
0.0
 11
6761.674911026158
 21
7666.233143676719
 31
0.0
  0
LINE
  5
24E18
330
747D
100
AcDbEntity
  8
部品1
 48
50.0
100
AcDbLine
 10
6698.599999999998
 20
7666.233143676719
 30
0.0
 11
6698.600000000005
 21
7466.23314367671
 31
0.0
  0
LINE
  5
24E19
330
747D
100
AcDbEntity
  8
部品1
 48
50.0
100
AcDbLine
 10
6438.599999999995
 20
7101.23314367669
 30
0.0
 11
6318.599999999987
 21
7101.233143676688
 31
0.0
  0
LINE
  5
24E1A
330
747D
100
AcDbEntity
  8
センター
 48
2.0
100
AcDbLine
 10
6391.600000000001
 20
7543.233143676708
 30
0.0
 11
6491.600000000001
 21
7543.233143676708
 31
0.0
  0
LINE
  5
24E1B
330
747D
100
AcDbEntity
  8
細線
 48
50.0
100
AcDbLine
 10
6318.599999999989
 20
7078.15823265051
 30
0.0
 11
6341.674911026167
 21
7101.233143676688
 31
0.0
  0
LINE
  5
24E1C
330
747D
100
AcDbEntity
  8
センター
 48
2.0
100
AcDbLine
 10
6441.600000000001
 20
7593.233143676709
 30
0.0
 11
6441.600000000001
 21
7493.233143676708
 31
0.0
  0
CIRCLE
  5
24E1D
330
747D
100
AcDbEntity
  8
部品1
 48
50.0
100
AcDbCircle
 10
6441.600000000001
 20
7543.233143676708
 30
0.0
 40
35.0
  0
LINE
  5
24E1E
330
747D
100
AcDbEntity
  8
細線
 48
50.0
100
AcDbLine
 10
6698.599999999998
 20
7648.059513255905
 30
0.0
 11
6716.773630420814
 21
7666.233143676719
 31
0.0
  0
LINE
  5
24E20
330
747D
100
AcDbEntity
  8
部品1
 48
50.0
100
AcDbLine
 10
6898.599999999998
 20
7666.233143676719
 30
0.0
 11
6898.600000000005
 21
7466.23314367671
 31
0.0
  0
LINE
  5
24E21
330
747D
100
AcDbEntity
  8
部品1
 48
50.0
100
AcDbLine
 10
7373.600000000009
 20
7113.233143676708
 30
0.0
 11
7173.600000000009
 21
7113.233143676708
 31
0.0
  0
LINE
  5
24E22
330
747D
100
AcDbEntity
  8
細線
 48
50.0
100
AcDbLine
 10
6831.082594658237
 20
7466.23314367671
 30
0.0
 11
6898.600000000001
 21
7533.750549018478
 31
0.0
  0
LINE
  5
24E23
330
747D
100
AcDbEntity
  8
細線
 48
50.0
100
AcDbLine
 10
6875.98387526359
 20
7466.233143676713
 30
0.0
 11
6898.600000000003
 21
7488.849268413126
 31
0.0
  0
LINE
  5
24E24
330
747D
100
AcDbEntity
  8
部品1
 48
50.0
100
AcDbLine
 10
7848.599999999997
 20
7666.233143676719
 30
0.0
 11
7848.600000000004
 21
7466.23314367671
 31
0.0
  0
LINE
  5
24E25
330
747D
100
AcDbEntity
  8
細線
 48
50.0
100
AcDbLine
 10
7648.600000000001
 20
7603.158232650561
 30
0.0
 11
7711.674911026157
 21
7666.233143676719
 31
0.0
  0
LINE
  5
24E26
330
747D
100
AcDbEntity
  8
部品1
 48
50.0
100
AcDbLine
 10
7648.599999999998
 20
7666.233143676719
 30
0.0
 11
7648.600000000005
 21
7466.23314367671
 31
0.0
  0
LINE
  5
24E27
330
747D
100
AcDbEntity
  8
細線
 48
50.0
100
AcDbLine
 10
7648.600000000001
 20
7558.256952045214
 30
0.0
 11
7756.576191631504
 21
7666.233143676716
 31
0.0
  0
LINE
  5
24E28
330
747D
100
AcDbEntity
  8
細線
 48
50.0
100
AcDbLine
 10
7648.600000000003
 20
7468.454390834526
 30
0.0
 11
7846.378752842196
 21
7666.233143676716
 31
0.0
  0
LINE
  5
24E29
330
747D
100
AcDbEntity
  8
細線
 48
50.0
100
AcDbLine
 10
7648.600000000001
 20
7513.355671439864
 30
0.0
 11
7801.47747223685
 21
7666.233143676719
 31
0.0
  0
LINE
  5
24E2A
330
747D
100
AcDbEntity
  8
細線
 48
50.0
100
AcDbLine
 10
7825.98387526359
 20
7466.233143676713
 30
0.0
 11
7848.600000000003
 21
7488.849268413126
 31
0.0
  0
LINE
  5
24E2B
330
747D
100
AcDbEntity
  8
細線
 48
50.0
100
AcDbLine
 10
7691.280033447535
 20
7466.23314367671
 30
0.0
 11
7848.599999999999
 21
7623.553110229176
 31
0.0
  0
LINE
  5
24E2C
330
747D
100
AcDbEntity
  8
細線
 48
50.0
100
AcDbLine
 10
7736.181314052896
 20
7466.23314367671
 30
0.0
 11
7848.600000000003
 21
7578.651829623834
 31
0.0
  0
LINE
  5
24E2D
330
747D
100
AcDbEntity
  8
細線
 48
50.0
100
AcDbLine
 10
7781.082594658236
 20
7466.23314367671
 30
0.0
 11
7848.600000000002
 21
7533.750549018478
 31
0.0
  0
LINE
  5
24E2E
330
747D
100
AcDbEntity
  8
部品1
 48
50.0
100
AcDbLine
 10
8323.600000000006
 20
7113.233143676708
 30
0.0
 11
8123.600000000008
 21
7113.233143676708
 31
0.0
  0
LINE
  5
24E2F
330
747D
100
AcDbEntity
  8
センター
 48
2.0
100
AcDbLine
 10
8105.6
 20
7593.233143676709
 30
0.0
 11
8105.6
 21
7493.233143676708
 31
0.0
  0
LINE
  5
24E30
330
747D
100
AcDbEntity
  8
センター
 48
2.0
100
AcDbLine
 10
8055.6
 20
7543.233143676708
 30
0.0
 11
8155.599999999999
 21
7543.233143676708
 31
0.0
  0
CIRCLE
  5
24E31
330
747D
100
AcDbEntity
  8
部品1
 48
50.0
100
AcDbCircle
 10
8105.6
 20
7543.233143676708
 30
0.0
 40
35.0
  0
LINE
  5
24E32
330
747D
100
AcDbEntity
  8
細線
 48
50.0
100
AcDbLine
 10
7648.599999999998
 20
7648.059513255905
 30
0.0
 11
7666.773630420813
 21
7666.233143676719
 31
0.0
  0
LINE
  5
24E33
330
747D
100
AcDbEntity
  8
細線
 48
50.0
100
AcDbLine
 10
10008.6
 20
6968.355671439901
 30
0.0
 11
10128.59999999999
 21
7088.355671439893
 31
0.0
  0
LINE
  5
24E34
330
747D
100
AcDbEntity
  8
細線
 48
50.0
100
AcDbLine
 10
10008.6
 20
7013.256952045252
 30
0.0
 11
10096.57619163151
 21
7101.233143676759
 31
0.0
  0
LINE
  5
24E37
330
747D
100
AcDbEntity
  8
部品1
 48
50.0
100
AcDbLine
 10
9273.600000000007
 20
6913.233143676709
 30
0.0
 11
9273.600000000007
 21
7113.233143676708
 31
0.0
  0
LINE
  5
24E38
330
747D
100
AcDbEntity
  8
部品1
 48
50.0
100
AcDbLine
 10
9073.600000000006
 20
6913.233143676709
 30
0.0
 11
9073.600000000006
 21
7113.233143676708
 31
0.0
  0
DIMENSION
  5
24E39
330
747D
100
AcDbEntity
  8
寸法
 48
50.0
100
AcDbDimension
  2
*D44
 10
9173.600000000005
 20
8148.841960346958
 30
0.0
 11
9651.100000000003
 21
8248.841960346958
 31
0.0
 70
    32
 71
     5
 42
954.9999999999927
  3
INABA_S40G
100
AcDbAlignedDimension
 13
10128.6
 23
7666.233143676709
 33
0.0
 14
9173.600000000005
 24
7063.233143676709
 34
0.0
100
AcDbRotatedDimension
1001
ACAD
1000
DSTYLE
1002
{
1070
   341
1005
0
1002
}
  0
LINE
  5
24E3C
330
747D
100
AcDbEntity
  8
部品1
 48
50.0
100
AcDbLine
 10
10128.6
 20
6286.233143676727
 30
0.0
 11
10128.6
 21
7666.233143676709
 31
0.0
  0
LINE
  5
24E3D
330
747D
100
AcDbEntity
  8
細線
 48
50.0
100
AcDbLine
 10
10076.1813140529
 20
6901.233143676762
 30
0.0
 11
10128.59999999999
 21
6953.651829623855
 31
0.0
  0
LINE
  5
24E3E
330
747D
100
AcDbEntity
  8
細線
 48
50.0
100
AcDbLine
 10
10031.28003344754
 20
6901.233143676759
 30
0.0
 11
10128.59999999998
 21
6998.553110229202
 31
0.0
  0
LINE
  5
24E3F
330
747D
100
AcDbEntity
  8
細線
 48
50.0
100
AcDbLine
 10
10008.6
 20
6923.454390834554
 30
0.0
 11
10128.59999999999
 21
7043.454390834546
 31
0.0
  0
LINE
  5
24E40
330
747D
100
AcDbEntity
  8
部品1
 48
50.0
100
AcDbLine
 10
10128.59999999998
 20
6901.233143676762
 30
0.0
 11
10008.6
 21
6901.233143676762
 31
0.0
  0
LINE
  5
24E44
330
747D
100
AcDbEntity
  8
部品1
 48
50.0
100
AcDbLine
 10
9273.600000000007
 20
6913.233143676709
 30
0.0
 11
9073.600000000006
 21
6913.233143676709
 31
0.0
  0
LINE
  5
24E51
330
747D
100
AcDbEntity
  8
センター
 48
2.0
100
AcDbLine
 10
9173.600000000005
 20
7063.233143676709
 30
0.0
 11
9173.600000000005
 21
6963.233143676709
 31
0.0
  0
LINE
  5
24E52
330
747D
100
AcDbEntity
  8
センター
 48
2.0
100
AcDbLine
 10
9123.600000000006
 20
7013.233143676709
 30
0.0
 11
9223.600000000006
 21
7013.233143676709
 31
0.0
  0
CIRCLE
  5
24E5A
330
747D
100
AcDbEntity
  8
部品1
 48
50.0
100
AcDbCircle
 10
10005.6
 20
6484.233143676712
 30
0.0
 40
35.0
  0
LINE
  5
24E5B
330
747D
100
AcDbEntity
  8
センター
 48
2.0
100
AcDbLine
 10
10005.6
 20
6534.233143676712
 30
0.0
 11
10005.6
 21
6434.233143676713
 31
0.0
  0
LINE
  5
24E60
330
747D
100
AcDbEntity
  8
センター
 48
2.0
100
AcDbLine
 10
9955.600000000005
 20
6484.233143676712
 30
0.0
 11
10055.6
 21
6484.233143676712
 31
0.0
  0
LINE
  5
24E65
330
747D
100
AcDbEntity
  8
細線
 48
50.0
100
AcDbLine
 10
10121.08259465824
 20
6901.233143676758
 30
0.0
 11
10128.59999999998
 21
6908.750549018508
 31
0.0
  0
LINE
  5
24E66
330
747D
100
AcDbEntity
  8
部品1
 48
50.0
100
AcDbLine
 10
10128.59999999998
 20
7101.233143676762
 30
0.0
 11
10008.6
 21
7101.233143676762
 31
0.0
  0
DIMENSION
  5
24E68
330
747D
100
AcDbEntity
  8
寸法
 48
50.0
100
AcDbDimension
  2
*D45
 10
10005.6
 20
8392.499601770621
 30
0.0
 11
10401.70660171779
 21
8392.499601770621
 31
0.0
 70
   160
 71
     5
 42
123.0
  3
INABA_S40G
100
AcDbAlignedDimension
 13
10128.6
 23
7666.233143676709
 33
0.0
 14
10005.6
 24
7593.233143676709
 34
0.0
100
AcDbRotatedDimension
1001
ACAD
1000
DSTYLE
1002
{
1070
   341
1005
0
1002
}
  0
LINE
  5
24E69
330
747D
100
AcDbEntity
  8
部品1
 48
50.0
100
AcDbLine
 10
9273.600000000007
 20
7113.233143676708
 30
0.0
 11
9073.600000000006
 21
7113.233143676708
 31
0.0
  0
LINE
  5
24E6A
330
747D
100
AcDbEntity
  8
部品1
 48
50.0
100
AcDbLine
 10
8798.599999999998
 20
7666.233143676719
 30
0.0
 11
8798.600000000005
 21
7466.23314367671
 31
0.0
  0
LINE
  5
24E6B
330
747D
100
AcDbEntity
  8
部品1
 48
50.0
100
AcDbLine
 10
8598.599999999999
 20
7666.233143676719
 30
0.0
 11
8598.600000000006
 21
7466.23314367671
 31
0.0
  0
LINE
  5
24E6C
330
747D
100
AcDbEntity
  8
細線
 48
50.0
100
AcDbLine
 10
8598.599999999999
 20
7513.355671439864
 30
0.0
 11
8751.47747223685
 21
7666.233143676719
 31
0.0
  0
LINE
  5
24E6D
330
747D
100
AcDbEntity
  8
細線
 48
50.0
100
AcDbLine
 10
8598.600000000002
 20
7468.454390834526
 30
0.0
 11
8796.378752842196
 21
7666.233143676716
 31
0.0
  0
LINE
  5
24E6E
330
747D
100
AcDbEntity
  8
細線
 48
50.0
100
AcDbLine
 10
8598.599999999999
 20
7558.256952045214
 30
0.0
 11
8706.576191631503
 21
7666.233143676716
 31
0.0
  0
LINE
  5
24E6F
330
747D
100
AcDbEntity
  8
細線
 48
50.0
100
AcDbLine
 10
8598.599999999999
 20
7603.158232650561
 30
0.0
 11
8661.674911026159
 21
7666.233143676719
 31
0.0
  0
LINE
  5
24E70
330
747D
100
AcDbEntity
  8
細線
 48
50.0
100
AcDbLine
 10
8641.280033447532
 20
7466.23314367671
 30
0.0
 11
8798.599999999998
 21
7623.553110229176
 31
0.0
  0
LINE
  5
24E71
330
747D
100
AcDbEntity
  8
細線
 48
50.0
100
AcDbLine
 10
8731.082594658234
 20
7466.23314367671
 30
0.0
 11
8798.599999999998
 21
7533.750549018478
 31
0.0
  0
LINE
  5
24E72
330
747D
100
AcDbEntity
  8
細線
 48
50.0
100
AcDbLine
 10
8686.181314052898
 20
7466.23314367671
 30
0.0
 11
8798.600000000002
 21
7578.651829623834
 31
0.0
  0
LINE
  5
24E73
330
747D
100
AcDbEntity
  8
細線
 48
50.0
100
AcDbLine
 10
8775.983875263591
 20
7466.233143676713
 30
0.0
 11
8798.600000000002
 21
7488.849268413126
 31
0.0
  0
LINE
  5
24E74
330
747D
100
AcDbEntity
  8
細線
 48
50.0
100
AcDbLine
 10
8598.599999999999
 20
7648.059513255905
 30
0.0
 11
8616.773630420812
 21
7666.233143676719
 31
0.0
  0
LINE
  5
24E75
330
747D
100
AcDbEntity
  8
部品1
 48
50.0
100
AcDbLine
 10
9748.599999999999
 20
7666.233143676719
 30
0.0
 11
9748.600000000006
 21
7466.23314367671
 31
0.0
  0
LINE
  5
24E76
330
747D
100
AcDbEntity
  8
細線
 48
50.0
100
AcDbLine
 10
9548.599999999998
 20
7603.158232650561
 30
0.0
 11
9611.67491102616
 21
7666.233143676719
 31
0.0
  0
LINE
  5
24E77
330
747D
100
AcDbEntity
  8
部品1
 48
50.0
100
AcDbLine
 10
9548.599999999998
 20
7666.233143676719
 30
0.0
 11
9548.600000000005
 21
7466.23314367671
 31
0.0
  0
LINE
  5
24E78
330
747D
100
AcDbEntity
  8
細線
 48
50.0
100
AcDbLine
 10
9548.599999999998
 20
7558.256952045214
 30
0.0
 11
9656.576191631502
 21
7666.233143676716
 31
0.0
  0
LINE
  5
24E79
330
747D
100
AcDbEntity
  8
細線
 48
50.0
100
AcDbLine
 10
9548.600000000002
 20
7468.454390834526
 30
0.0
 11
9746.378752842197
 21
7666.233143676716
 31
0.0
  0
LINE
  5
24E7A
330
747D
100
AcDbEntity
  8
細線
 48
50.0
100
AcDbLine
 10
9548.599999999998
 20
7513.355671439864
 30
0.0
 11
9701.477472236851
 21
7666.233143676719
 31
0.0
  0
LINE
  5
24E7B
330
747D
100
AcDbEntity
  8
細線
 48
50.0
100
AcDbLine
 10
9591.280033447532
 20
7466.23314367671
 30
0.0
 11
9748.599999999999
 21
7623.553110229176
 31
0.0
  0
LINE
  5
24E7C
330
747D
100
AcDbEntity
  8
細線
 48
50.0
100
AcDbLine
 10
9636.181314052898
 20
7466.23314367671
 30
0.0
 11
9748.600000000003
 21
7578.651829623834
 31
0.0
  0
LINE
  5
24E7D
330
747D
100
AcDbEntity
  8
細線
 48
50.0
100
AcDbLine
 10
10008.6
 20
7058.15823265059
 30
0.0
 11
10051.67491102616
 21
7101.233143676762
 31
0.0
  0
LINE
  5
24E7E
330
747D
100
AcDbEntity
  8
細線
 48
50.0
100
AcDbLine
 10
9725.983875263592
 20
7466.233143676713
 30
0.0
 11
9748.600000000003
 21
7488.849268413126
 31
0.0
  0
LINE
  5
24E7F
330
747D
100
AcDbEntity
  8
細線
 48
50.0
100
AcDbLine
 10
9681.082594658235
 20
7466.23314367671
 30
0.0
 11
9748.599999999999
 21
7533.750549018478
 31
0.0
  0
CIRCLE
  5
24E80
330
747D
100
AcDbEntity
  8
部品1
 48
50.0
100
AcDbCircle
 10
10005.6
 20
7543.233143676708
 30
0.0
 40
35.0
  0
LINE
  5
24E81
330
747D
100
AcDbEntity
  8
センター
 48
2.0
100
AcDbLine
 10
9955.599999999998
 20
7543.233143676708
 30
0.0
 11
10055.6
 21
7543.233143676708
 31
0.0
  0
LINE
  5
24E82
330
747D
100
AcDbEntity
  8
センター
 48
2.0
100
AcDbLine
 10
10005.6
 20
7593.233143676709
 30
0.0
 11
10005.6
 21
7493.233143676708
 31
0.0
  0
LINE
  5
24E83
330
747D
100
AcDbEntity
  8
細線
 48
50.0
100
AcDbLine
 10
9548.599999999998
 20
7648.059513255905
 30
0.0
 11
9566.773630420811
 21
7666.233143676719
 31
0.0
  0
TEXT
  5
255A2
330
747D
100
AcDbEntity
  8
文字
 62
     7
 48
50.0
100
AcDbText
 10
14267.69561199343
 20
838.2527270729188
 30
0.0
 40
100.0
  1
～一般型・多雪地型・豪雪地型～
  7
STYLE2
100
AcDbText
  0
LINE
  5
255C2
330
747D
100
AcDbEntity
  8
部品1
 48
50.0
100
AcDbLine
 10
10008.6
 20
6566.233143676729
 30
0.0
 11
6438.599999999997
 21
6566.233143676706
 31
0.0
  0
LINE
  5
255C3
330
747D
100
AcDbEntity
  8
細線
 48
50.0
100
AcDbLine
 10
7784.404364949113
 20
6286.233143676729
 30
0.0
 11
7848.600000000002
 21
6350.428778727621
 31
0.0
  0
LINE
  5
255C4
330
747D
100
AcDbEntity
  8
細線
 48
50.0
100
AcDbLine
 10
7829.305645554459
 20
6286.233143676732
 30
0.0
 11
7848.600000000002
 21
6305.527498122276
 31
0.0
  0
LINE
  5
255C5
330
747D
100
AcDbEntity
  8
部品1
 48
50.0
100
AcDbLine
 10
7848.599999999992
 20
6566.233143676708
 30
0.0
 11
7848.599999999999
 21
6286.233143676732
 31
0.0
  0
LINE
  5
255C6
330
747D
100
AcDbEntity
  8
細線
 48
50.0
100
AcDbLine
 10
7648.599999999994
 20
6509.639023570376
 30
0.0
 11
7705.194120106327
 21
6566.233143676708
 31
0.0
  0
LINE
  5
255C7
330
747D
100
AcDbEntity
  8
部品1
 48
50.0
100
AcDbLine
 10
7648.599999999992
 20
6566.233143676708
 30
0.0
 11
7648.599999999999
 21
6286.233143676727
 31
0.0
  0
LINE
  5
255C8
330
747D
100
AcDbEntity
  8
細線
 48
50.0
100
AcDbLine
 10
7648.599999999996
 20
6464.737742965032
 30
0.0
 11
7750.09540071167
 21
6566.233143676708
 31
0.0
  0
LINE
  5
255C9
330
747D
100
AcDbEntity
  8
細線
 48
50.0
100
AcDbLine
 10
7648.599999999998
 20
6419.836462359689
 30
0.0
 11
7794.996681317016
 21
6566.233143676708
 31
0.0
  0
LINE
  5
255CA
330
747D
100
AcDbEntity
  8
細線
 48
50.0
100
AcDbLine
 10
7648.599999999998
 20
6374.935181754345
 30
0.0
 11
7839.897961922362
 21
6566.233143676709
 31
0.0
  0
LINE
  5
255CB
330
747D
100
AcDbEntity
  8
細線
 48
50.0
100
AcDbLine
 10
7648.599999999998
 20
6330.033901149
 30
0.0
 11
7848.599999999994
 21
6530.033901148994
 31
0.0
  0
LINE
  5
255CC
330
747D
100
AcDbEntity
  8
細線
 48
50.0
100
AcDbLine
 10
7649.700523133072
 20
6286.233143676727
 30
0.0
 11
7848.599999999996
 21
6485.132620543648
 31
0.0
  0
LINE
  5
255CD
330
747D
100
AcDbEntity
  8
細線
 48
50.0
100
AcDbLine
 10
7694.601803738419
 20
6286.233143676729
 30
0.0
 11
7848.599999999996
 21
6440.231339938306
 31
0.0
  0
LINE
  5
255CE
330
747D
100
AcDbEntity
  8
細線
 48
50.0
100
AcDbLine
 10
7739.503084343765
 20
6286.233143676729
 30
0.0
 11
7848.600000000002
 21
6395.330059332966
 31
0.0
  0
LINE
  5
255CF
330
747D
100
AcDbEntity
  8
細線
 48
50.0
100
AcDbLine
 10
8734.404364949114
 20
6286.233143676729
 30
0.0
 11
8798.600000000002
 21
6350.428778727621
 31
0.0
  0
LINE
  5
255D0
330
747D
100
AcDbEntity
  8
細線
 48
50.0
100
AcDbLine
 10
8779.305645554456
 20
6286.233143676732
 30
0.0
 11
8798.600000000002
 21
6305.527498122276
 31
0.0
  0
LINE
  5
255D1
330
747D
100
AcDbEntity
  8
部品1
 48
50.0
100
AcDbLine
 10
8798.599999999991
 20
6566.233143676708
 30
0.0
 11
8798.599999999998
 21
6286.233143676732
 31
0.0
  0
LINE
  5
255D2
330
747D
100
AcDbEntity
  8
細線
 48
50.0
100
AcDbLine
 10
8598.599999999995
 20
6509.639023570376
 30
0.0
 11
8655.194120106328
 21
6566.233143676708
 31
0.0
  0
LINE
  5
255D3
330
747D
100
AcDbEntity
  8
部品1
 48
50.0
100
AcDbLine
 10
8598.599999999992
 20
6566.233143676708
 30
0.0
 11
8598.599999999999
 21
6286.233143676727
 31
0.0
  0
LINE
  5
255D4
330
747D
100
AcDbEntity
  8
細線
 48
50.0
100
AcDbLine
 10
8598.599999999995
 20
6464.737742965032
 30
0.0
 11
8700.095400711671
 21
6566.233143676708
 31
0.0
  0
LINE
  5
255D5
330
747D
100
AcDbEntity
  8
細線
 48
50.0
100
AcDbLine
 10
8598.599999999999
 20
6419.836462359689
 30
0.0
 11
8744.996681317017
 21
6566.233143676708
 31
0.0
  0
LINE
  5
255D6
330
747D
100
AcDbEntity
  8
細線
 48
50.0
100
AcDbLine
 10
8598.599999999999
 20
6374.935181754345
 30
0.0
 11
8789.897961922362
 21
6566.233143676709
 31
0.0
  0
LINE
  5
255D7
330
747D
100
AcDbEntity
  8
細線
 48
50.0
100
AcDbLine
 10
8598.599999999999
 20
6330.033901149
 30
0.0
 11
8798.599999999995
 21
6530.033901148994
 31
0.0
  0
LINE
  5
255D8
330
747D
100
AcDbEntity
  8
細線
 48
50.0
100
AcDbLine
 10
8599.700523133073
 20
6286.233143676727
 30
0.0
 11
8798.599999999995
 21
6485.132620543648
 31
0.0
  0
LINE
  5
255D9
330
747D
100
AcDbEntity
  8
細線
 48
50.0
100
AcDbLine
 10
8644.601803738421
 20
6286.233143676729
 30
0.0
 11
8798.599999999995
 21
6440.231339938306
 31
0.0
  0
LINE
  5
255DA
330
747D
100
AcDbEntity
  8
細線
 48
50.0
100
AcDbLine
 10
8689.503084343764
 20
6286.233143676729
 30
0.0
 11
8798.600000000002
 21
6395.330059332966
 31
0.0
  0
LINE
  5
255DB
330
747D
100
AcDbEntity
  8
細線
 48
50.0
100
AcDbLine
 10
9684.404364949115
 20
6286.233143676729
 30
0.0
 11
9748.600000000003
 21
6350.428778727621
 31
0.0
  0
LINE
  5
255DC
330
747D
100
AcDbEntity
  8
細線
 48
50.0
100
AcDbLine
 10
9729.305645554457
 20
6286.233143676732
 30
0.0
 11
9748.600000000003
 21
6305.527498122276
 31
0.0
  0
LINE
  5
255DD
330
747D
100
AcDbEntity
  8
部品1
 48
50.0
100
AcDbLine
 10
9748.599999999992
 20
6566.233143676708
 30
0.0
 11
9748.599999999999
 21
6286.233143676732
 31
0.0
  0
LINE
  5
255DE
330
747D
100
AcDbEntity
  8
細線
 48
50.0
100
AcDbLine
 10
9548.599999999995
 20
6509.639023570376
 30
0.0
 11
9605.194120106327
 21
6566.233143676708
 31
0.0
  0
LINE
  5
255DF
330
747D
100
AcDbEntity
  8
部品1
 48
50.0
100
AcDbLine
 10
9548.599999999991
 20
6566.233143676708
 30
0.0
 11
9548.599999999998
 21
6286.233143676727
 31
0.0
  0
LINE
  5
255E0
330
747D
100
AcDbEntity
  8
細線
 48
50.0
100
AcDbLine
 10
9548.599999999995
 20
6464.737742965032
 30
0.0
 11
9650.09540071167
 21
6566.233143676708
 31
0.0
  0
LINE
  5
255E1
330
747D
100
AcDbEntity
  8
細線
 48
50.0
100
AcDbLine
 10
9548.599999999998
 20
6419.836462359689
 30
0.0
 11
9694.996681317018
 21
6566.233143676708
 31
0.0
  0
LINE
  5
255E2
330
747D
100
AcDbEntity
  8
細線
 48
50.0
100
AcDbLine
 10
9548.599999999998
 20
6374.935181754345
 30
0.0
 11
9739.897961922363
 21
6566.233143676709
 31
0.0
  0
LINE
  5
255E3
330
747D
100
AcDbEntity
  8
細線
 48
50.0
100
AcDbLine
 10
9548.599999999998
 20
6330.033901149
 30
0.0
 11
9748.599999999996
 21
6530.033901148994
 31
0.0
  0
LINE
  5
255E4
330
747D
100
AcDbEntity
  8
細線
 48
50.0
100
AcDbLine
 10
9549.700523133074
 20
6286.233143676727
 30
0.0
 11
9748.599999999996
 21
6485.132620543648
 31
0.0
  0
LINE
  5
255E5
330
747D
100
AcDbEntity
  8
細線
 48
50.0
100
AcDbLine
 10
9594.60180373842
 20
6286.233143676729
 30
0.0
 11
9748.599999999996
 21
6440.231339938306
 31
0.0
  0
LINE
  5
255E6
330
747D
100
AcDbEntity
  8
細線
 48
50.0
100
AcDbLine
 10
9639.503084343765
 20
6286.233143676729
 30
0.0
 11
9748.600000000003
 21
6395.330059332966
 31
0.0
  0
LINE
  5
25644
330
747D
100
AcDbEntity
  8
部品1
 48
50.0
100
AcDbLine
 10
10008.59999999999
 20
6566.233143676729
 30
0.0
 11
10008.6
 21
7466.233143676709
 31
0.0
  0
LINE
  5
25645
330
747D
100
AcDbEntity
  8
部品1
 48
50.0
100
AcDbLine
 10
6438.599999999998
 20
6566.233143676703
 30
0.0
 11
6438.599999999993
 21
7466.23314367671
 31
0.0
  0
MTEXT
  5
257D3
102
{ACAD_REACTORS
330
257D4
102
}
330
747D
100
AcDbEntity
  8
寸法
 62
     7
 48
50.0
100
AcDbMText
 10
10784.70185374913
 20
2086.178331179516
 30
0.0
 40
120.0
 41
0.8
 71
     4
 72
     1
  1
\A1;C.B
  7
STYLE1
 73
     1
 44
1.0
1001
ACAD
1000
MTEXTBEGIN
1070
    73
1070
     1
1070
    44
1040
1.0
1070
    74
1070
     0
1000
MTEXTEND
  0
LEADER
  5
257D4
330
747D
100
AcDbEntity
  8
寸法
 48
50.0
100
AcDbLeader
  3
INABA_S50G
 73
     0
 74
     0
 75
     1
 40
120.0
 41
185.591883092037
 76
     3
 10
10601.56364711549
 20
1829.032010498378
 30
0.0
 10
10634.70185374914
 20
2001.178331179517
 30
0.0
 10
10759.70185374913
 20
2001.178331179517
 30
0.0
340
257D3
1001
ACAD
1000
DSTYLE
1002
{
1070
    40
1040
1.0
1002
}
  0
LINE
  5
257D5
330
747D
100
AcDbEntity
  8
細線
 48
50.0
100
AcDbLine
 10
10747.2170606919
 20
1473.333094845027
 30
0.0
 11
10740.78628007355
 21
1497.333094845027
 31
0.0
  0
LINE
  5
257D6
330
747D
100
AcDbEntity
  8
細線
 48
50.0
100
AcDbLine
 10
10725.78112529741
 20
1393.333094845027
 30
0.0
 11
10732.21190591576
 21
1369.333094845027
 31
0.0
  0
LINE
  5
257D7
330
747D
100
AcDbEntity
  8
部品1
100
AcDbLine
 10
10790.83923549957
 20
1589.032010498378
 30
0.0
 11
10790.83923549957
 21
1369.333094845028
 31
0.0
  0
LINE
  5
257D8
330
747D
100
AcDbEntity
  8
細線
 48
50.0
100
AcDbLine
 10
10719.35034467906
 20
1369.333094845027
 30
0.0
 11
10753.64784131024
 21
1497.333094845026
 31
0.0
  0
LINE
  5
257D9
330
747D
100
AcDbEntity
  8
細線
 48
50.0
100
AcDbLine
 10
10668.32901574465
 20
1473.333094845027
 30
0.0
 11
10661.89823512631
 21
1497.333094845027
 31
0.0
  0
LINE
  5
257DA
330
747D
100
AcDbEntity
  8
細線
100
AcDbLine
 10
10543.8756299989
 20
1497.33309484503
 30
0.0
 11
10635.57454565225
 21
1589.032010498378
 31
0.0
  0
LINE
  5
257DB
330
747D
100
AcDbEntity
  8
細線
 48
50.0
100
AcDbLine
 10
10589.4409707974
 20
1473.333094845028
 30
0.0
 11
10583.01019017905
 21
1497.333094845028
 31
0.0
  0
LINE
  5
257DC
330
747D
100
AcDbEntity
  8
細線
100
AcDbLine
 10
10577.81675549586
 20
1497.33309484503
 30
0.0
 11
10669.5156711492
 21
1589.032010498378
 31
0.0
  0
LINE
  5
257DD
330
747D
100
AcDbEntity
  8
細線
 48
50.0
100
AcDbLine
 10
10352.77683595567
 20
1473.333094845028
 30
0.0
 11
10346.34605533732
 21
1497.333094845028
 31
0.0
  0
LINE
  5
257DE
330
747D
100
AcDbEntity
  8
細線
 48
50.0
100
AcDbLine
 10
10431.66488090291
 20
1473.333094845028
 30
0.0
 11
10425.23410028457
 21
1497.333094845028
 31
0.0
  0
LINE
  5
257DF
330
747D
100
AcDbEntity
  8
細線
 48
50.0
100
AcDbLine
 10
10510.55292585016
 20
1473.333094845028
 30
0.0
 11
10504.12214523181
 21
1497.333094845028
 31
0.0
  0
LINE
  5
257E0
330
747D
100
AcDbEntity
  8
細線
 48
50.0
100
AcDbLine
 10
10646.89308035017
 20
1393.333094845027
 30
0.0
 11
10653.32386096851
 21
1369.333094845027
 31
0.0
  0
LINE
  5
257E1
330
747D
100
AcDbEntity
  8
細線
 48
50.0
100
AcDbLine
 10
10568.00503540292
 20
1393.333094845028
 30
0.0
 11
10574.43581602127
 21
1369.333094845028
 31
0.0
  0
LINE
  5
257E2
330
747D
100
AcDbEntity
  8
細線
 48
50.0
100
AcDbLine
 10
10410.22894550842
 20
1393.333094845028
 30
0.0
 11
10416.65972612677
 21
1369.333094845028
 31
0.0
  0
LINE
  5
257E3
330
747D
100
AcDbEntity
  8
細線
 48
50.0
100
AcDbLine
 10
10489.11699045567
 20
1393.333094845028
 30
0.0
 11
10495.54777107402
 21
1369.333094845028
 31
0.0
  0
LINE
  5
257E4
330
747D
100
AcDbEntity
  8
細線
 48
50.0
100
AcDbLine
 10
10482.68620983732
 20
1369.333094845028
 30
0.0
 11
10516.9837064685
 21
1497.333094845027
 31
0.0
  0
LINE
  5
257E5
330
747D
100
AcDbEntity
  8
細線
 48
50.0
100
AcDbLine
 10
10403.79816489007
 20
1369.333094845027
 30
0.0
 11
10438.09566152126
 21
1497.333094845027
 31
0.0
  0
LINE
  5
257E6
330
747D
100
AcDbEntity
  8
細線
 48
50.0
100
AcDbLine
 10
10561.57425478457
 20
1369.333094845027
 30
0.0
 11
10595.87175141574
 21
1497.333094845028
 31
0.0
  0
LINE
  5
257E7
330
747D
100
AcDbEntity
  8
細線
100
AcDbLine
 10
10611.75788099281
 20
1497.33309484503
 30
0.0
 11
10703.45679664615
 21
1589.032010498378
 31
0.0
  0
LINE
  5
257E8
330
747D
100
AcDbEntity
  8
細線
 48
50.0
100
AcDbLine
 10
10640.46229973182
 20
1369.333094845025
 30
0.0
 11
10674.759796363
 21
1497.333094845026
 31
0.0
  0
LINE
  5
257E9
330
747D
100
AcDbEntity
  8
部品1
100
AcDbLine
 10
10670.83923549957
 20
1829.032010498378
 30
0.0
 11
10670.83923549957
 21
1589.032010498378
 31
0.0
  0
LINE
  5
257EA
330
747D
100
AcDbEntity
  8
細線
100
AcDbLine
 10
10657.00157315199
 20
1589.03201049838
 30
0.0
 11
10417.00157315199
 21
1829.032010498378
 31
0.0
  0
LINE
  5
257EB
330
747D
100
AcDbEntity
  8
細線
100
AcDbLine
 10
10606.08988490655
 20
1589.032010498378
 30
0.0
 11
10366.08988490656
 21
1829.032010498378
 31
0.0
  0
LINE
  5
257EC
330
747D
100
AcDbEntity
  8
細線
100
AcDbLine
 10
10217.81675549585
 20
1497.333094845028
 30
0.0
 11
10309.5156711492
 21
1589.032010498378
 31
0.0
  0
LINE
  5
257ED
330
747D
100
AcDbEntity
  8
細線
100
AcDbLine
 10
10183.8756299989
 20
1497.333094845028
 30
0.0
 11
10275.57454565225
 21
1589.032010498378
 31
0.0
  0
LINE
  5
257EE
330
747D
100
AcDbEntity
  8
細線
 48
50.0
100
AcDbLine
 10
10195.00074606117
 20
1473.333094845028
 30
0.0
 11
10188.56996544282
 21
1497.333094845028
 31
0.0
  0
LINE
  5
257EF
330
747D
100
AcDbEntity
  8
細線
 48
50.0
100
AcDbLine
 10
10273.88879100842
 20
1473.333094845028
 30
0.0
 11
10267.45801039008
 21
1497.333094845028
 31
0.0
  0
LINE
  5
257F0
330
747D
100
AcDbEntity
  8
細線
 48
50.0
100
AcDbLine
 10
10116.11270111392
 20
1473.333094845028
 30
0.0
 11
10109.68192049557
 21
1497.333094845028
 31
0.0
  0
LINE
  5
257F1
330
747D
100
AcDbEntity
  8
細線
 48
50.0
100
AcDbLine
 10
10331.34090056118
 20
1393.333094845028
 30
0.0
 11
10337.77168117953
 21
1369.333094845028
 31
0.0
  0
LINE
  5
257F2
330
747D
100
AcDbEntity
  8
細線
 48
50.0
100
AcDbLine
 10
10252.45285561393
 20
1393.333094845028
 30
0.0
 11
10258.88363623228
 21
1369.333094845028
 31
0.0
  0
LINE
  5
257F3
330
747D
100
AcDbEntity
  8
細線
 48
50.0
100
AcDbLine
 10
10094.67676571943
 20
1393.333094845028
 30
0.0
 11
10101.10754633778
 21
1369.333094845028
 31
0.0
  0
LINE
  5
257F4
330
747D
100
AcDbEntity
  8
細線
 48
50.0
100
AcDbLine
 10
10173.56481066668
 20
1393.333094845028
 30
0.0
 11
10179.99559128503
 21
1369.333094845028
 31
0.0
  0
LINE
  5
257F5
330
747D
100
AcDbEntity
  8
部品1
100
AcDbLine
 10
10070.83923549957
 20
1369.333094845025
 30
0.0
 11
10070.83923549957
 21
1589.032010498378
 31
0.0
  0
LINE
  5
257F6
330
747D
100
AcDbEntity
  8
細線
 48
50.0
100
AcDbLine
 10
10088.24598510108
 20
1369.333094845028
 30
0.0
 11
10122.54348173227
 21
1497.333094845028
 31
0.0
  0
LINE
  5
257F7
330
747D
100
AcDbEntity
  8
細線
 48
50.0
100
AcDbLine
 10
10246.02207499558
 20
1369.333094845028
 30
0.0
 11
10280.31957162676
 21
1497.333094845028
 31
0.0
  0
LINE
  5
257F8
330
747D
100
AcDbEntity
  8
細線
 48
50.0
100
AcDbLine
 10
10167.13403004833
 20
1369.333094845027
 30
0.0
 11
10201.43152667951
 21
1497.333094845027
 31
0.0
  0
LINE
  5
257F9
330
747D
100
AcDbEntity
  8
部品1
100
AcDbLine
 10
10190.83923549957
 20
1589.032010498378
 30
0.0
 11
10190.83923549957
 21
1829.032010498378
 31
0.0
  0
TEXT
  5
257FA
330
747D
100
AcDbEntity
  8
部品1
 48
50.0
100
AcDbText
 10
9426.721148741068
 20
1322.23226986107
 30
0.0
 40
80.0
  1
ボルトの出
 50
90.0
  7
STYLE2
100
AcDbText
  0
LINE
  5
257FB
330
747D
100
AcDbEntity
  8
細線
100
AcDbLine
 10
10334.56088093092
 20
1589.032010498378
 30
0.0
 11
10190.83923549957
 21
1732.753655929731
 31
0.0
  0
LWPOLYLINE
  5
257FC
330
747D
100
AcDbEntity
  8
部品1
 48
50.0
100
AcDbPolyline
 90
        2
 70
     0
 43
12.0
 10
9806.227973399181
 20
1589.032010498378
 10
11007.3202765308
 20
1589.032010498378
  0
LINE
  5
257FD
330
747D
100
AcDbEntity
  8
細線
100
AcDbLine
 10
10251.75788099281
 20
1497.333094845028
 30
0.0
 11
10343.45679664615
 21
1589.032010498378
 31
0.0
  0
LINE
  5
257FE
330
747D
100
AcDbEntity
  8
部品1
100
AcDbLine
 10
10070.83923549957
 20
1497.333094845028
 30
0.0
 11
10790.83923549957
 21
1497.333094845031
 31
0.0
  0
LINE
  5
257FF
330
747D
100
AcDbEntity
  8
部品1
100
AcDbLine
 10
10070.83923549957
 20
1369.333094845025
 30
0.0
 11
10790.83923549957
 21
1369.333094845028
 31
0.0
  0
LINE
  5
25800
330
747D
100
AcDbEntity
  8
細線
 48
50.0
100
AcDbLine
 10
10324.91011994282
 20
1369.333094845028
 30
0.0
 11
10359.20761657401
 21
1497.333094845027
 31
0.0
  0
LINE
  5
25801
330
747D
100
AcDbEntity
  8
部品1
100
AcDbLine
 10
10190.83923549957
 20
1829.032010498378
 30
0.0
 11
10670.83923549957
 21
1829.032010498378
 31
0.0
  0
LINE
  5
25802
330
747D
100
AcDbEntity
  8
細線
100
AcDbLine
 10
10385.47256917635
 20
1589.032010498378
 30
0.0
 11
10190.83923549957
 21
1783.665344175161
 31
0.0
  0
LINE
  5
25803
330
747D
100
AcDbEntity
  8
部品1
100
AcDbLine
 10
11377.5807365966
 20
264.0637081143168
 30
0.0
 11
11377.58073659661
 21
3228.370677698964
 31
0.0
  0
TEXT
  5
25804
330
747D
100
AcDbEntity
  8
部品1
100
AcDbText
 10
7999.475552388743
 20
3048.818745747536
 30
0.0
 40
120.0
  1
基礎詳細
  7
STYLE2
100
AcDbText
  0
LINE
  5
25805
330
747D
100
AcDbEntity
  8
部品1
 48
50.0
100
AcDbLine
 10
8314.703303196813
 20
2227.907291607521
 30
0.0
 11
8330.703303196813
 21
2219.907291607521
 31
0.0
  0
LINE
  5
25806
330
747D
100
AcDbEntity
  8
細線
 48
50.0
100
AcDbLine
 10
8282.703303196813
 20
2179.907291607521
 30
0.0
 11
8282.703303196813
 21
2211.907291607521
 31
0.0
  0
LINE
  5
25807
330
747D
100
AcDbEntity
  8
部品1
 48
50.0
100
AcDbLine
 10
8330.703303196813
 20
2187.907291607521
 30
0.0
 11
8330.703303196813
 21
2219.907291607521
 31
0.0
  0
LINE
  5
25808
330
747D
100
AcDbEntity
  8
細線
 48
50.0
100
AcDbLine
 10
8314.703303196813
 20
2179.907291607521
 30
0.0
 11
8314.703303196813
 21
2211.907291607521
 31
0.0
  0
LINE
  5
25809
330
747D
100
AcDbEntity
  8
部品1
 48
50.0
100
AcDbLine
 10
8314.703303196813
 20
2211.907291607521
 30
0.0
 11
8330.703303196813
 21
2219.907291607521
 31
0.0
  0
LINE
  5
2580A
330
747D
100
AcDbEntity
  8
部品1
 48
50.0
100
AcDbLine
 10
8282.703303196813
 20
2211.907291607521
 30
0.0
 11
8314.703303196813
 21
2211.907291607521
 31
0.0
  0
LINE
  5
2580B
330
747D
100
AcDbEntity
  8
部品1
 48
50.0
100
AcDbLine
 10
8314.703303196813
 20
2179.907291607521
 30
0.0
 11
8330.703303196813
 21
2187.907291607521
 31
0.0
  0
LINE
  5
2580C
330
747D
100
AcDbEntity
  8
部品1
 48
50.0
100
AcDbLine
 10
8282.703303196813
 20
2179.907291607521
 30
0.0
 11
8314.703303196813
 21
2179.907291607521
 31
0.0
  0
ELLIPSE
  5
2580D
330
747D
100
AcDbEntity
  8
細線
 48
50.0
100
AcDbEllipse
 10
8298.703303196814
 20
2219.907291607521
 30
0.0
 11
14.76670786606846
 21
0.0
 31
0.0
210
0.0
220
0.0
230
1.0
 40
0.2071254069489396
 41
0.0
 42
6.283185307179586
  0
LINE
  5
2580E
330
747D
100
AcDbEntity
  8
部品1
 48
50.0
100
AcDbLine
 10
8282.703303196813
 20
2227.907291607521
 30
0.0
 11
8314.703303196813
 21
2227.907291607521
 31
0.0
  0
LINE
  5
2580F
330
747D
100
AcDbEntity
  8
部品1
 48
50.0
100
AcDbLine
 10
8266.703303196813
 20
2187.907291607521
 30
0.0
 11
8266.703303196813
 21
2219.907291607521
 31
0.0
  0
LINE
  5
25810
330
747D
100
AcDbEntity
  8
部品1
 48
50.0
100
AcDbLine
 10
8266.703303196813
 20
2219.907291607521
 30
0.0
 11
8282.703303196813
 21
2227.907291607521
 31
0.0
  0
LINE
  5
25811
330
747D
100
AcDbEntity
  8
部品1
 48
50.0
100
AcDbLine
 10
8266.703303196813
 20
2187.907291607521
 30
0.0
 11
8282.703303196813
 21
2179.907291607521
 31
0.0
  0
LINE
  5
25812
330
747D
100
AcDbEntity
  8
部品1
 48
50.0
100
AcDbLine
 10
8266.703303196813
 20
2219.907291607521
 30
0.0
 11
8282.703303196813
 21
2211.907291607521
 31
0.0
  0
LINE
  5
25813
330
747D
100
AcDbEntity
  8
部品1
 48
50.0
100
AcDbLine
 10
8338.703303196814
 20
2088.555298942651
 30
0.0
 11
8338.703303196814
 21
2098.155298942651
 31
0.0
  0
ELLIPSE
  5
25814
330
747D
100
AcDbEntity
  8
部品1
 48
50.0
100
AcDbEllipse
 10
8298.703303196814
 20
2098.155298942651
 30
0.0
 11
18.4
 21
0.0
 31
0.0
210
0.0
220
0.0
230
1.0
 40
0.3478260869565217
 41
0.0
 42
6.283185307179586
  0
ARC
  5
25815
330
747D
100
AcDbEntity
  8
部品1
100
AcDbCircle
 10
8137.603303196813
 20
1927.132010498379
 30
0.0
 40
2.7
100
AcDbArc
 50
90.0
 51
180.0
  0
LINE
  5
25816
330
747D
100
AcDbEntity
  8
部品1
100
AcDbLine
 10
8140.303303196812
 20
1940.632010498379
 30
0.0
 11
8182.603303196811
 21
1940.632010498375
 31
0.0
  0
LINE
  5
25817
330
747D
100
AcDbEntity
  8
部品1
100
AcDbLine
 10
8137.603303196813
 20
1929.832010498379
 30
0.0
 11
8137.603303196813
 21
1937.932010498378
 31
0.0
  0
LINE
  5
25818
330
747D
100
AcDbEntity
  8
部品1
100
AcDbLine
 10
8137.603303196813
 20
1929.832010498379
 30
0.0
 11
8137.603303196813
 21
1929.832010498379
 31
0.0
  0
ARC
  5
25819
330
747D
100
AcDbEntity
  8
部品1
100
AcDbCircle
 10
8140.303303196812
 20
1937.932010498378
 30
0.0
 40
2.7
100
AcDbArc
 50
90.0
 51
180.0
  0
ARC
  5
2581A
330
747D
100
AcDbEntity
  8
部品1
100
AcDbCircle
 10
8182.603303196811
 20
1937.932010498375
 30
0.0
 40
2.7
100
AcDbArc
 50
0.0
 51
90.0
  0
LINE
  5
2581B
330
747D
100
AcDbEntity
  8
部品1
 48
50.0
100
AcDbLine
 10
8258.703303196814
 20
2098.155298942651
 30
0.0
 11
8258.703303196814
 21
2088.555298942651
 31
0.0
  0
ELLIPSE
  5
2581C
330
747D
100
AcDbEntity
  8
部品1
 48
50.0
100
AcDbEllipse
 10
8298.703303196814
 20
2088.555298942651
 30
0.0
 11
40.0
 21
0.0
 31
0.0
210
0.0
220
0.0
230
1.0
 40
0.4
 41
3.141592653589793
 42
6.283185307179586
  0
ELLIPSE
  5
2581D
330
747D
100
AcDbEntity
  8
部品1
 48
50.0
100
AcDbEllipse
 10
8298.703303196814
 20
2098.155298942651
 30
0.0
 11
40.0
 21
0.0
 31
0.0
210
0.0
220
0.0
230
1.0
 40
0.4
 41
0.0
 42
6.283185307179586
  0
LINE
  5
2581E
330
747D
100
AcDbEntity
  8
部品1
100
AcDbLine
 10
8293.303303196813
 20
1881.792010498379
 30
0.0
 11
8304.103303196813
 21
1881.792010498379
 31
0.0
  0
LINE
  5
2581F
330
747D
100
AcDbEntity
  8
部品1
100
AcDbLine
 10
8289.703303196814
 20
1878.192010498379
 30
0.0
 11
8307.703303196813
 21
1878.192010498379
 31
0.0
  0
LINE
  5
25820
330
747D
100
AcDbEntity
  8
細線
100
AcDbLine
 10
8293.303303196815
 20
1838.592010498379
 30
0.0
 11
8293.303303196813
 21
1881.792010498379
 31
0.0
  0
LINE
  5
25821
330
747D
100
AcDbEntity
  8
細線
100
AcDbLine
 10
8304.103303196813
 20
1838.592010498379
 30
0.0
 11
8304.103303196813
 21
1881.792010498379
 31
0.0
  0
LINE
  5
25822
330
747D
100
AcDbEntity
  8
部品1
100
AcDbLine
 10
8206.003303196814
 20
1895.892010498379
 30
0.0
 11
8206.003303196814
 21
1878.792010498379
 31
0.0
  0
LINE
  5
25823
330
747D
100
AcDbEntity
  8
部品1
100
AcDbLine
 10
8239.563303196813
 20
1895.892010498379
 30
0.0
 11
8239.56330319681
 21
1841.292010498379
 31
0.0
  0
ARC
  5
25824
330
747D
100
AcDbEntity
  8
部品1
100
AcDbCircle
 10
8224.903303196814
 20
1883.932010498378
 30
0.0
 40
2.7
100
AcDbArc
 50
0.0
 51
90.0
  0
LINE
  5
25825
330
747D
100
AcDbEntity
  8
部品1
100
AcDbLine
 10
8185.303303196812
 20
1886.632010498379
 30
0.0
 11
8224.903303196814
 21
1886.632010498379
 31
0.0
  0
ARC
  5
25826
330
747D
100
AcDbEntity
  8
部品1
100
AcDbCircle
 10
8224.903303196814
 20
1841.292010498379
 30
0.0
 40
2.7
100
AcDbArc
 50
270.0
 51
0.0
  0
ARC
  5
25827
330
747D
100
AcDbEntity
  8
部品1
100
AcDbCircle
 10
8242.263303196807
 20
1841.292010498379
 30
0.0
 40
2.7
100
AcDbArc
 50
180.0
 51
270.0
  0
LINE
  5
25828
330
747D
100
AcDbEntity
  8
部品1
100
AcDbLine
 10
8213.203303196813
 20
1838.592010498379
 30
0.0
 11
8224.903303196814
 21
1838.592010498379
 31
0.0
  0
LINE
  5
25829
330
747D
100
AcDbEntity
  8
部品1
100
AcDbLine
 10
8227.603303196813
 20
1883.932010498378
 30
0.0
 11
8227.603303196813
 21
1841.292010498379
 31
0.0
  0
ARC
  5
2582A
330
747D
100
AcDbEntity
  8
部品1
100
AcDbCircle
 10
8236.863303196813
 20
1895.892010498379
 30
0.0
 40
2.7
100
AcDbArc
 50
0.0
 51
90.0
  0
ARC
  5
2582B
330
747D
100
AcDbEntity
  8
部品1
100
AcDbCircle
 10
8208.703303196813
 20
1895.892010498379
 30
0.0
 40
2.7
100
AcDbArc
 50
90.0
 51
180.0
  0
LINE
  5
2582C
330
747D
100
AcDbEntity
  8
部品1
100
AcDbLine
 10
8208.703303196813
 20
1898.592010498379
 30
0.0
 11
8236.863303196813
 21
1898.592010498379
 31
0.0
  0
LINE
  5
2582D
330
747D
100
AcDbEntity
  8
部品1
100
AcDbLine
 10
8185.303303196812
 20
1937.932010498375
 30
0.0
 11
8185.303303196812
 21
1886.632010498379
 31
0.0
  0
LINE
  5
2582E
330
747D
100
AcDbEntity
  8
部品1
100
AcDbLine
 10
8134.903303196812
 20
1919.032010498378
 30
0.0
 11
8134.903303196812
 21
1927.132010498379
 31
0.0
  0
LINE
  5
2582F
330
747D
100
AcDbEntity
  8
部品1
100
AcDbLine
 10
8242.263303196807
 20
1838.592010498379
 30
0.0
 11
8443.603303196807
 21
1838.592010498379
 31
0.0
  0
LINE
  5
25830
330
747D
100
AcDbEntity
  8
部品1
100
AcDbLine
 10
8083.603303196813
 20
1841.292010498379
 30
0.0
 11
8083.603303196813
 21
1903.423914201086
 31
0.0
  0
LINE
  5
25831
330
747D
100
AcDbEntity
  8
部品1
100
AcDbLine
 10
8086.303303196812
 20
1838.592010498379
 30
0.0
 11
8098.003303196808
 21
1838.592010498379
 31
0.0
  0
LINE
  5
25832
330
747D
100
AcDbEntity
  8
細線
 48
50.0
100
AcDbLine
 10
8077.303303196812
 20
1816.812586798283
 30
0.0
 11
8089.522726896907
 21
1829.032010498378
 31
0.0
  0
ARC
  5
25833
330
747D
100
AcDbEntity
  8
部品1
100
AcDbCircle
 10
8086.303303196812
 20
1841.292010498379
 30
0.0
 40
2.7
100
AcDbArc
 50
180.0
 51
270.0
  0
LINE
  5
25834
330
747D
100
AcDbEntity
  8
部品1
100
AcDbLine
 10
8085.648457009215
 20
1906.043298951478
 30
0.0
 11
8094.403303196815
 21
1908.232010498378
 31
0.0
  0
ARC
  5
25835
330
747D
100
AcDbEntity
  8
部品1
100
AcDbCircle
 10
8086.303303196812
 20
1903.423914201086
 30
0.0
 40
2.7
100
AcDbArc
 50
104.0362434679067
 51
180.0
  0
ARC
  5
25836
330
747D
100
AcDbEntity
  8
部品1
100
AcDbCircle
 10
8097.103303196814
 20
1916.332010498378
 30
0.0
 40
2.7
100
AcDbArc
 50
90.0
 51
180.0
  0
LINE
  5
25837
330
747D
100
AcDbEntity
  8
部品1
100
AcDbLine
 10
8094.403303196815
 20
1908.232010498378
 30
0.0
 11
8094.403303196815
 21
1916.332010498378
 31
0.0
  0
LINE
  5
25838
330
747D
100
AcDbEntity
  8
部品1
 48
50.0
100
AcDbLine
 10
8077.303303196812
 20
1829.032010498378
 30
0.0
 11
8491.303303196815
 21
1829.032010498378
 31
0.0
  0
LINE
  5
25839
330
747D
100
AcDbEntity
  8
細線
 48
50.0
100
AcDbLine
 10
8077.303303196812
 20
1762.931050071868
 30
0.0
 11
8143.404263623322
 21
1829.032010498378
 31
0.0
  0
LINE
  5
2583A
330
747D
100
AcDbEntity
  8
細線
 48
50.0
100
AcDbLine
 10
8077.303303196812
 20
1789.871818435076
 30
0.0
 11
8116.463495260118
 21
1829.032010498378
 31
0.0
  0
LINE
  5
2583B
330
747D
100
AcDbEntity
  8
部品1
100
AcDbLine
 10
8097.103303196814
 20
1919.032010498378
 30
0.0
 11
8134.903303196812
 21
1919.032010498378
 31
0.0
  0
LINE
  5
2583C
330
747D
100
AcDbEntity
  8
部品1
 48
50.0
100
AcDbLine
 10
8491.303303196811
 20
1285.032010498378
 30
0.0
 11
8619.303303196812
 21
1285.032010498378
 31
0.0
  0
LINE
  5
2583D
330
747D
100
AcDbEntity
  8
部品1
100
AcDbLine
 10
8307.703303196813
 20
1604.032010498378
 30
0.0
 11
8343.703303196813
 21
1604.032010498378
 31
0.0
  0
LINE
  5
2583E
330
747D
100
AcDbEntity
  8
部品1
100
AcDbLine
 10
8307.703303196813
 20
1586.032010498378
 30
0.0
 11
8343.703303196813
 21
1586.032010498378
 31
0.0
  0
ARC
  5
2583F
330
747D
100
AcDbEntity
  8
部品1
100
AcDbCircle
 10
8307.703303196813
 20
1604.032010498378
 30
0.0
 40
18.0
100
AcDbArc
 50
180.0
 51
270.0
  0
LINE
  5
25840
330
747D
100
AcDbEntity
  8
部品1
100
AcDbLine
 10
8343.703303196813
 20
1586.032010498378
 30
0.0
 11
8343.703303196813
 21
1604.032010498378
 31
0.0
  0
LINE
  5
25841
330
747D
100
AcDbEntity
  8
部品1
100
AcDbLine
 10
8361.703303196813
 20
1505.032010498377
 30
0.0
 11
8235.703303196805
 21
1505.032010498377
 31
0.0
  0
LINE
  5
25842
330
747D
100
AcDbEntity
  8
細線
 48
50.0
100
AcDbLine
 10
8655.681128389147
 20
1021.032010498376
 30
0.0
 11
8649.2503477708
 21
1045.032010498377
 31
0.0
  0
LINE
  5
25843
330
747D
100
AcDbEntity
  8
細線
 48
50.0
100
AcDbLine
 10
8576.793083441902
 20
1021.032010498376
 30
0.0
 11
8570.362302823557
 21
1045.032010498377
 31
0.0
  0
LINE
  5
25844
330
747D
100
AcDbEntity
  8
細線
 48
50.0
100
AcDbLine
 10
8497.905038494646
 20
1021.032010498378
 30
0.0
 11
8491.474257876298
 21
1045.032010498378
 31
0.0
  0
LINE
  5
25845
330
747D
100
AcDbEntity
  8
細線
 48
50.0
100
AcDbLine
 10
8634.24519299466
 20
941.0320104983766
 30
0.0
 11
8640.675973613006
 21
917.0320104983765
 31
0.0
  0
LINE
  5
25846
330
747D
100
AcDbEntity
  8
細線
 48
50.0
100
AcDbLine
 10
8555.357148047413
 20
941.0320104983766
 30
0.0
 11
8561.78792866576
 21
917.0320104983765
 31
0.0
  0
LINE
  5
25847
330
747D
100
AcDbEntity
  8
細線
 48
50.0
100
AcDbLine
 10
8476.469103100164
 20
941.0320104983783
 30
0.0
 11
8482.899883718522
 21
917.0320104983785
 31
0.0
  0
LINE
  5
25848
330
747D
100
AcDbEntity
  8
細線
 48
50.0
100
AcDbLine
 10
8548.926367429064
 20
917.0320104983757
 30
0.0
 11
8583.223864060247
 21
1045.032010498376
 31
0.0
  0
LINE
  5
25849
330
747D
100
AcDbEntity
  8
細線
 48
50.0
100
AcDbLine
 10
8470.038322481814
 20
917.0320104983765
 30
0.0
 11
8504.335819112988
 21
1045.032010498378
 31
0.0
  0
LINE
  5
2584A
330
747D
100
AcDbEntity
  8
細線
 48
50.0
100
AcDbLine
 10
8627.814412376308
 20
917.0320104983765
 30
0.0
 11
8662.111909007494
 21
1045.032010498376
 31
0.0
  0
LINE
  5
2584B
330
747D
100
AcDbEntity
  8
部品1
 48
50.0
100
AcDbLine
 10
8699.303303196815
 20
1045.032010498378
 30
0.0
 11
8699.303303196815
 21
917.0320104983785
 31
0.0
  0
LINE
  5
2584C
330
747D
100
AcDbEntity
  8
細線
 48
50.0
100
AcDbLine
 10
8419.016993547407
 20
1021.032010498378
 30
0.0
 11
8412.586212929062
 21
1045.032010498378
 31
0.0
  0
LINE
  5
2584D
330
747D
100
AcDbEntity
  8
細線
 48
50.0
100
AcDbLine
 10
8340.128948600163
 20
1021.032010498378
 30
0.0
 11
8333.698167981815
 21
1045.032010498378
 31
0.0
  0
LINE
  5
2584E
330
747D
100
AcDbEntity
  8
細線
 48
50.0
100
AcDbLine
 10
8182.352858705668
 20
1021.032010498378
 30
0.0
 11
8175.922078087323
 21
1045.032010498378
 31
0.0
  0
LINE
  5
2584F
330
747D
100
AcDbEntity
  8
細線
 48
50.0
100
AcDbLine
 10
8261.240903652916
 20
1021.032010498378
 30
0.0
 11
8254.810123034568
 21
1045.032010498378
 31
0.0
  0
LINE
  5
25850
330
747D
100
AcDbEntity
  8
細線
 48
50.0
100
AcDbLine
 10
8318.693013205672
 20
941.0320104983783
 30
0.0
 11
8325.123793824019
 21
917.0320104983785
 31
0.0
  0
LINE
  5
25851
330
747D
100
AcDbEntity
  8
細線
 48
50.0
100
AcDbLine
 10
8397.581058152919
 20
941.0320104983783
 30
0.0
 11
8404.011838771266
 21
917.0320104983785
 31
0.0
  0
LINE
  5
25852
330
747D
100
AcDbEntity
  8
細線
 48
50.0
100
AcDbLine
 10
8160.916923311178
 20
941.0320104983783
 30
0.0
 11
8167.347703929527
 21
917.0320104983785
 31
0.0
  0
LINE
  5
25853
330
747D
100
AcDbEntity
  8
細線
 48
50.0
100
AcDbLine
 10
8239.804968258425
 20
941.0320104983783
 30
0.0
 11
8246.235748876774
 21
917.0320104983785
 31
0.0
  0
LINE
  5
25854
330
747D
100
AcDbEntity
  8
細線
 48
50.0
100
AcDbLine
 10
8391.150277534565
 20
917.0320104983785
 30
0.0
 11
8425.447774165752
 21
1045.032010498377
 31
0.0
  0
LINE
  5
25855
330
747D
100
AcDbEntity
  8
細線
 48
50.0
100
AcDbLine
 10
8233.374187640075
 20
917.0320104983785
 30
0.0
 11
8267.67168427126
 21
1045.032010498377
 31
0.0
  0
LINE
  5
25856
330
747D
100
AcDbEntity
  8
細線
 48
50.0
100
AcDbLine
 10
8154.486142692828
 20
917.0320104983785
 30
0.0
 11
8188.783639324011
 21
1045.032010498378
 31
0.0
  0
LINE
  5
25857
330
747D
100
AcDbEntity
  8
細線
 48
50.0
100
AcDbLine
 10
8312.262232587324
 20
917.0320104983765
 30
0.0
 11
8346.559729218505
 21
1045.032010498377
 31
0.0
  0
LINE
  5
25858
330
747D
100
AcDbEntity
  8
細線
 48
50.0
100
AcDbLine
 10
8437.034998151622
 20
1045.032010498378
 30
0.0
 11
8619.303303196812
 21
1227.300315543574
 31
0.0
  0
LINE
  5
25859
330
747D
100
AcDbEntity
  8
部品1
 48
50.0
100
AcDbLine
 10
8619.303303196812
 20
1285.032010498378
 30
0.0
 11
8619.303303196812
 21
1045.032010498378
 31
0.0
  0
LINE
  5
2585A
330
747D
100
AcDbEntity
  8
細線
 48
50.0
100
AcDbLine
 10
8410.094229788418
 20
1045.032010498378
 30
0.0
 11
8619.303303196812
 21
1254.241083906771
 31
0.0
  0
LINE
  5
2585B
330
747D
100
AcDbEntity
  8
細線
 48
50.0
100
AcDbLine
 10
8383.153461425205
 20
1045.032010498378
 30
0.0
 11
8619.303303196812
 21
1281.181852269987
 31
0.0
  0
LINE
  5
2585C
330
747D
100
AcDbEntity
  8
細線
 48
50.0
100
AcDbLine
 10
8167.627314519547
 20
1045.032010498378
 30
0.0
 11
8491.303303196811
 21
1368.707999175645
 31
0.0
  0
LINE
  5
2585D
330
747D
100
AcDbEntity
  8
細線
 48
50.0
100
AcDbLine
 10
8221.508851245962
 20
1045.032010498378
 30
0.0
 11
8491.303303196811
 21
1314.826462449236
 31
0.0
  0
LINE
  5
2585E
330
747D
100
AcDbEntity
  8
細線
 48
50.0
100
AcDbLine
 10
8194.568082882758
 20
1045.032010498378
 30
0.0
 11
8491.303303196811
 21
1341.767230812431
 31
0.0
  0
LINE
  5
2585F
330
747D
100
AcDbEntity
  8
細線
 48
50.0
100
AcDbLine
 10
7949.303303196808
 20
1257.760292986964
 30
0.0
 11
7976.575020708228
 21
1285.032010498378
 31
0.0
  0
LINE
  5
25860
330
747D
100
AcDbEntity
  8
部品1
 48
50.0
100
AcDbLine
 10
7949.303303196812
 20
1285.032010498378
 30
0.0
 11
8077.303303196812
 21
1285.032010498378
 31
0.0
  0
LINE
  5
25861
330
747D
100
AcDbEntity
  8
細線
 48
50.0
100
AcDbLine
 10
7949.303303196808
 20
1230.819524623754
 30
0.0
 11
8003.515789071435
 21
1285.032010498378
 31
0.0
  0
LWPOLYLINE
  5
25862
330
747D
100
AcDbEntity
  8
部品1
 48
50.0
100
AcDbPolyline
 90
        2
 70
     0
 43
8.0
 10
7663.163401363856
 20
1589.032010498379
 10
8077.303303196812
 20
1589.032010498379
  0
LINE
  5
25863
330
747D
100
AcDbEntity
  8
細線
 48
50.0
100
AcDbLine
 10
8024.576768811167
 20
1021.032010498378
 30
0.0
 11
8018.145988192818
 21
1045.032010498378
 31
0.0
  0
LINE
  5
25864
330
747D
100
AcDbEntity
  8
細線
 48
50.0
100
AcDbLine
 10
8103.464813758417
 20
1021.032010498378
 30
0.0
 11
8097.034033140069
 21
1045.032010498378
 31
0.0
  0
LINE
  5
25865
330
747D
100
AcDbEntity
  8
細線
 48
50.0
100
AcDbLine
 10
7945.688723863914
 20
1021.032010498378
 30
0.0
 11
7939.257943245568
 21
1045.032010498378
 31
0.0
  0
LINE
  5
25866
330
747D
100
AcDbEntity
  8
細線
 48
50.0
100
AcDbLine
 10
7869.303303196812
 20
1030.371931464158
 30
0.0
 11
7873.231459535007
 21
1045.032010498378
 31
0.0
  0
LINE
  5
25867
330
747D
100
AcDbEntity
  8
細線
 48
50.0
100
AcDbLine
 10
8003.140833416678
 20
941.0320104983783
 30
0.0
 11
8009.571614035023
 21
917.0320104983785
 31
0.0
  0
LINE
  5
25868
330
747D
100
AcDbEntity
  8
細線
 48
50.0
100
AcDbLine
 10
8082.028878363928
 20
941.0320104983783
 30
0.0
 11
8088.459658982277
 21
917.0320104983785
 31
0.0
  0
LINE
  5
25869
330
747D
100
AcDbEntity
  8
細線
 48
50.0
100
AcDbLine
 10
7924.252788469424
 20
941.0320104983783
 30
0.0
 11
7930.68356908777
 21
917.0320104983785
 31
0.0
  0
LINE
  5
2586A
330
747D
100
AcDbEntity
  8
細線
 48
50.0
100
AcDbLine
 10
8075.598097745576
 20
917.0320104983765
 30
0.0
 11
8109.895594376757
 21
1045.032010498377
 31
0.0
  0
LINE
  5
2586B
330
747D
100
AcDbEntity
  8
細線
 48
50.0
100
AcDbLine
 10
7917.822007851071
 20
917.0320104983765
 30
0.0
 11
7952.119504482254
 21
1045.032010498377
 31
0.0
  0
LINE
  5
2586C
330
747D
100
AcDbEntity
  8
部品1
 48
50.0
100
AcDbLine
 10
7869.303303196815
 20
917.0320104983785
 30
0.0
 11
7869.303303196815
 21
1045.032010498378
 31
0.0
  0
LINE
  5
2586D
330
747D
100
AcDbEntity
  8
細線
 48
50.0
100
AcDbLine
 10
7996.710052798329
 20
917.0320104983785
 30
0.0
 11
8031.007549429512
 21
1045.032010498378
 31
0.0
  0
LINE
  5
2586E
330
747D
100
AcDbEntity
  8
部品1
 48
50.0
100
AcDbLine
 10
7949.303303196812
 20
1045.032010498378
 30
0.0
 11
7949.303303196812
 21
1285.032010498378
 31
0.0
  0
LINE
  5
2586F
330
747D
100
AcDbEntity
  8
細線
 48
50.0
100
AcDbLine
 10
7949.303303196808
 20
1203.878756260549
 30
0.0
 11
8030.456557434641
 21
1285.032010498378
 31
0.0
  0
LINE
  5
25870
330
747D
100
AcDbEntity
  8
部品1
 48
50.0
100
AcDbLine
 10
8699.303303196815
 20
917.0320104983785
 30
0.0
 11
7869.303303196815
 21
917.0320104983785
 31
0.0
  0
LINE
  5
25871
330
747D
100
AcDbEntity
  8
部品1
 48
50.0
100
AcDbLine
 10
8699.303303196815
 20
1045.032010498378
 30
0.0
 11
7869.303303196815
 21
1045.032010498378
 31
0.0
  0
LINE
  5
25872
330
747D
100
AcDbEntity
  8
細線
 48
50.0
100
AcDbLine
 10
7952.101167613888
 20
1045.032010498378
 30
0.0
 11
8491.303303196811
 21
1584.234146081304
 31
0.0
  0
LINE
  5
25873
330
747D
100
AcDbEntity
  8
細線
 48
50.0
100
AcDbLine
 10
7979.041935977097
 20
1045.032010498378
 30
0.0
 11
8491.303303196815
 21
1557.293377718092
 31
0.0
  0
LINE
  5
25874
330
747D
100
AcDbEntity
  8
細線
 48
50.0
100
AcDbLine
 10
8005.982704340302
 20
1045.032010498378
 30
0.0
 11
8491.303303196811
 21
1530.352609354886
 31
0.0
  0
LINE
  5
25875
330
747D
100
AcDbEntity
  8
細線
 48
50.0
100
AcDbLine
 10
8077.303303196812
 20
1385.760292986964
 30
0.0
 11
8235.703303196805
 21
1544.160292986959
 31
0.0
  0
LINE
  5
25876
330
747D
100
AcDbEntity
  8
細線
 48
50.0
100
AcDbLine
 10
8077.303303196812
 20
1331.878756260549
 30
0.0
 11
8250.456557434649
 21
1505.032010498377
 31
0.0
  0
LINE
  5
25877
330
747D
100
AcDbEntity
  8
細線
 48
50.0
100
AcDbLine
 10
8077.303303196812
 20
1358.819524623756
 30
0.0
 11
8235.703303196805
 21
1517.219524623745
 31
0.0
  0
LINE
  5
25878
330
747D
100
AcDbEntity
  8
部品1
100
AcDbLine
 10
8235.703303196805
 20
1505.032010498378
 30
0.0
 11
8235.703303196812
 21
1829.032010498378
 31
0.0
  0
LINE
  5
25879
330
747D
100
AcDbEntity
  8
部品1
100
AcDbLine
 10
8361.703303196813
 20
1505.032010498378
 30
0.0
 11
8361.703303196813
 21
1829.032010498378
 31
0.0
  0
LINE
  5
2587A
330
747D
100
AcDbEntity
  8
細線
 48
50.0
100
AcDbLine
 10
8361.703303196813
 20
1643.21952462375
 30
0.0
 11
8491.303303196811
 21
1772.819524623746
 31
0.0
  0
LINE
  5
2587B
330
747D
100
AcDbEntity
  8
細線
 48
50.0
100
AcDbLine
 10
8361.703303196813
 20
1616.278756260537
 30
0.0
 11
8491.303303196811
 21
1745.878756260528
 31
0.0
  0
LINE
  5
2587C
330
747D
100
AcDbEntity
  8
部品1
100
AcDbLine
 10
8289.703303196814
 20
1604.032010498378
 30
0.0
 11
8289.703303196809
 21
1878.192010498379
 31
0.0
  0
LINE
  5
2587D
330
747D
100
AcDbEntity
  8
部品1
100
AcDbLine
 10
8307.703303196813
 20
1604.032010498378
 30
0.0
 11
8307.703303196809
 21
1878.192010498379
 31
0.0
  0
TEXT
  5
2587E
330
747D
100
AcDbEntity
  8
部品1
 48
50.0
100
AcDbText
 10
7663.163401363856
 20
1600.271002781633
 30
0.0
 40
80.0
  1
▽G.L
  7
STYLE2
100
AcDbText
  0
LINE
  5
2587F
330
747D
100
AcDbEntity
  8
細線
 48
50.0
100
AcDbLine
 10
8077.303303196812
 20
1547.404903166209
 30
0.0
 11
8235.70330319681
 21
1705.804903166201
 31
0.0
  0
LINE
  5
25880
330
747D
100
AcDbEntity
  8
細線
 48
50.0
100
AcDbLine
 10
8077.303303196812
 20
1574.345671529416
 30
0.0
 11
8235.703303196812
 21
1732.745671529414
 31
0.0
  0
LINE
  5
25881
330
747D
100
AcDbEntity
  8
細線
 48
50.0
100
AcDbLine
 10
8077.303303196812
 20
1601.286439892624
 30
0.0
 11
8235.703303196812
 21
1759.686439892621
 31
0.0
  0
LINE
  5
25882
330
747D
100
AcDbEntity
  8
部品1
 48
50.0
100
AcDbLine
 10
8077.303303196812
 20
1285.032010498378
 30
0.0
 11
8077.303303196812
 21
1829.032010498378
 31
0.0
  0
LINE
  5
25883
330
747D
100
AcDbEntity
  8
部品1
100
AcDbLine
 10
8491.303303196811
 20
1285.032010498378
 30
0.0
 11
8491.303303196811
 21
1829.032010498378
 31
0.0
  0
LINE
  5
25884
330
747D
100
AcDbEntity
  8
細線
 48
50.0
100
AcDbLine
 10
8361.703303196813
 20
1670.160292986967
 30
0.0
 11
8491.303303196811
 21
1799.760292986965
 31
0.0
  0
LINE
  5
25885
330
747D
100
AcDbEntity
  8
細線
 48
50.0
100
AcDbLine
 10
6485.756412522089
 20
1709.778862395095
 30
0.0
 11
6569.26399001962
 21
1793.286439892624
 31
0.0
  0
LINE
  5
25886
330
747D
100
AcDbEntity
  8
細線
 48
50.0
100
AcDbLine
 10
6496.816697285606
 20
1693.8983787954
 30
0.0
 11
6569.26399001962
 21
1766.345671529416
 31
0.0
  0
LINE
  5
25887
330
747D
100
AcDbEntity
  8
細線
 48
50.0
100
AcDbLine
 10
6377.263990019619
 20
1816.812586798283
 30
0.0
 11
6389.483413719714
 21
1829.032010498378
 31
0.0
  0
LINE
  5
25888
330
747D
100
AcDbEntity
  8
細線
 48
50.0
100
AcDbLine
 10
6377.263990019619
 20
1762.931050071868
 30
0.0
 11
6443.364950446128
 21
1829.032010498378
 31
0.0
  0
LINE
  5
25889
330
747D
100
AcDbEntity
  8
細線
 48
50.0
100
AcDbLine
 10
6377.263990019619
 20
1789.871818435076
 30
0.0
 11
6416.424182082923
 21
1829.032010498378
 31
0.0
  0
LINE
  5
2588A
330
747D
100
AcDbEntity
  8
部品1
 48
50.0
100
AcDbLine
 10
6377.263990019619
 20
1829.032010498378
 30
0.0
 11
6569.26399001962
 21
1829.032010498378
 31
0.0
  0
DIMENSION
  5
2588B
330
747D
100
AcDbEntity
  8
寸法
 48
50.0
100
AcDbDimension
  2
*D52
 10
6377.263990019618
 20
2248.699818414759
 30
0.0
 11
6473.263990019617
 21
2248.699818414759
 31
0.0
 70
   160
  1
120\P200\P280
 71
     5
 42
192.0
  3
INABA_S40G
100
AcDbAlignedDimension
 13
6569.263990019618
 23
1829.032010498378
 33
0.0
 14
6377.263990019618
 24
1829.032010498378
 34
0.0
100
AcDbRotatedDimension
1001
ACAD
1000
DSTYLE
1002
{
1070
   341
1005
0
1002
}
  0
MTEXT
  5
2588C
102
{ACAD_REACTORS
330
258E1
102
}
330
747D
100
AcDbEntity
  8
寸法
 62
     7
 48
50.0
100
AcDbMText
 10
6811.00244588087
 20
867.6829247662253
 30
0.0
 40
80.0
 41
0.8
 71
     4
 72
     1
  1
\A1;D10@300
  7
STYLE2
 73
     1
 44
1.0
1001
ACAD
1000
MTEXTBEGIN
1070
    73
1070
     1
1070
    44
1040
1.0
1070
    74
1070
     0
1000
MTEXTEND
  0
LINE
  5
2588D
330
747D
100
AcDbEntity
  8
細線
 48
50.0
100
AcDbLine
 10
6497.263990019624
 20
1478.819524623759
 30
0.0
 11
6569.263990019611
 21
1550.819524623754
 31
0.0
  0
LINE
  5
2588E
330
747D
100
AcDbEntity
  8
細線
 48
50.0
100
AcDbLine
 10
6497.263990019618
 20
1505.760292986964
 30
0.0
 11
6569.26399001962
 21
1577.760292986964
 31
0.0
  0
LINE
  5
2588F
330
747D
100
AcDbEntity
  8
細線
 48
50.0
100
AcDbLine
 10
6497.263990019624
 20
1236.35260935489
 30
0.0
 11
6569.263990019611
 21
1308.35260935489
 31
0.0
  0
LINE
  5
25890
330
747D
100
AcDbEntity
  8
細線
 48
50.0
100
AcDbLine
 10
6497.263990019624
 20
1290.234146081308
 30
0.0
 11
6569.263990019611
 21
1362.234146081304
 31
0.0
  0
LINE
  5
25891
330
747D
100
AcDbEntity
  8
細線
 48
50.0
100
AcDbLine
 10
6497.263990019624
 20
1263.293377718099
 30
0.0
 11
6569.263990019611
 21
1335.293377718094
 31
0.0
  0
LINE
  5
25892
330
747D
100
AcDbEntity
  8
部品1
 48
50.0
100
AcDbLine
 10
6569.26399001962
 20
1285.032010498378
 30
0.0
 11
6697.263990019618
 21
1285.032010498378
 31
0.0
  0
LINE
  5
25893
330
747D
100
AcDbEntity
  8
細線
 48
50.0
100
AcDbLine
 10
6497.263990019624
 20
1451.878756260549
 30
0.0
 11
6569.263990019611
 21
1523.878756260549
 31
0.0
  0
LINE
  5
25894
330
747D
100
AcDbEntity
  8
部品1
 48
50.0
100
AcDbLine
 10
6465.263990019619
 20
1631.159225195501
 30
0.0
 11
6465.263990019619
 21
1689.286439892624
 31
0.0
  0
LINE
  5
25895
330
747D
100
AcDbEntity
  8
細線
 48
50.0
100
AcDbLine
 10
6377.263990019619
 20
1601.286439892624
 30
0.0
 11
6449.26399001962
 21
1673.286439892624
 31
0.0
  0
LINE
  5
25896
330
747D
100
AcDbEntity
  8
部品1
 48
50.0
100
AcDbLine
 10
6449.26399001962
 20
1631.159225195504
 30
0.0
 11
6449.26399001962
 21
1689.286439892624
 31
0.0
  0
LINE
  5
25897
330
747D
100
AcDbEntity
  8
細線
 48
50.0
100
AcDbLine
 10
6377.263990019619
 20
1574.345671529416
 30
0.0
 11
6449.26399001962
 21
1646.345671529416
 31
0.0
  0
LINE
  5
25898
330
747D
100
AcDbEntity
  8
細線
 48
50.0
100
AcDbLine
 10
6377.263990019619
 20
1547.404903166209
 30
0.0
 11
6461.018312048913
 21
1631.159225195501
 31
0.0
  0
LINE
  5
25899
330
747D
100
AcDbEntity
  8
部品1
 48
50.0
100
AcDbLine
 10
6465.263990019619
 20
1631.159225195501
 30
0.0
 11
6449.26399001962
 21
1631.159225195504
 31
0.0
  0
LINE
  5
2589A
330
747D
100
AcDbEntity
  8
細線
 48
50.0
100
AcDbLine
 10
6249.263990019612
 20
1257.760292986964
 30
0.0
 11
6276.535707531033
 21
1285.032010498378
 31
0.0
  0
LINE
  5
2589B
330
747D
100
AcDbEntity
  8
細線
 48
50.0
100
AcDbLine
 10
6249.263990019612
 20
1230.819524623754
 30
0.0
 11
6303.476475894243
 21
1285.032010498378
 31
0.0
  0
LINE
  5
2589C
330
747D
100
AcDbEntity
  8
部品1
 48
50.0
100
AcDbLine
 10
6249.26399001962
 20
1285.032010498378
 30
0.0
 11
6377.263990019619
 21
1285.032010498378
 31
0.0
  0
LINE
  5
2589D
330
747D
100
AcDbEntity
  8
細線
 48
50.0
100
AcDbLine
 10
6465.263990019619
 20
1662.345671529416
 30
0.0
 11
6481.263990019619
 21
1678.345671529416
 31
0.0
  0
LINE
  5
2589E
330
747D
100
AcDbEntity
  8
細線
 48
50.0
100
AcDbLine
 10
6465.263990019619
 20
1635.404903166209
 30
0.0
 11
6481.263990019619
 21
1651.404903166209
 31
0.0
  0
LINE
  5
2589F
330
747D
100
AcDbEntity
  8
細線
 48
50.0
100
AcDbLine
 10
6377.263990019619
 20
1331.878756260549
 30
0.0
 11
6481.263990019624
 21
1435.878756260549
 31
0.0
  0
LINE
  5
258A0
330
747D
100
AcDbEntity
  8
細線
 48
50.0
100
AcDbLine
 10
6377.263990019619
 20
1385.760292986964
 30
0.0
 11
6481.263990019619
 21
1489.760292986964
 31
0.0
  0
LINE
  5
258A1
330
747D
100
AcDbEntity
  8
細線
 48
50.0
100
AcDbLine
 10
6377.263990019619
 20
1358.819524623756
 30
0.0
 11
6481.263990019624
 21
1462.819524623759
 31
0.0
  0
LINE
  5
258A2
330
747D
100
AcDbEntity
  8
細線
 48
50.0
100
AcDbLine
 10
6640.089635422966
 20
1021.032010498378
 30
0.0
 11
6633.658854804621
 21
1045.032010498378
 31
0.0
  0
LINE
  5
258A3
330
747D
100
AcDbEntity
  8
細線
 48
50.0
100
AcDbLine
 10
6683.114148248012
 20
1045.032010498378
 30
0.0
 11
6697.263990019618
 21
1059.181852269985
 31
0.0
  0
LINE
  5
258A4
330
747D
100
AcDbEntity
  8
細線
 48
50.0
100
AcDbLine
 10
6718.977680370213
 20
1021.032010498378
 30
0.0
 11
6712.546899751865
 21
1045.032010498378
 31
0.0
  0
LINE
  5
258A5
330
747D
100
AcDbEntity
  8
部品1
 48
50.0
100
AcDbLine
 10
6641.26399001962
 20
1157.032010498378
 30
0.0
 11
6641.26399001962
 21
1141.032010498378
 31
0.0
  0
LINE
  5
258A6
330
747D
100
AcDbEntity
  8
細線
 48
50.0
100
AcDbLine
 10
6521.469538068766
 20
1045.032010498378
 30
0.0
 11
6617.470425913904
 21
1141.032898343517
 31
0.0
  0
LINE
  5
258A7
330
747D
100
AcDbEntity
  8
細線
 48
50.0
100
AcDbLine
 10
6494.528769705564
 20
1045.032010498378
 30
0.0
 11
6590.528769705563
 21
1141.032010498378
 31
0.0
  0
LINE
  5
258A8
330
747D
100
AcDbEntity
  8
細線
 48
50.0
100
AcDbLine
 10
6561.201590475722
 20
1021.032010498378
 30
0.0
 11
6554.770809857375
 21
1045.032010498378
 31
0.0
  0
LINE
  5
258A9
330
747D
100
AcDbEntity
  8
細線
 48
50.0
100
AcDbLine
 10
6482.313545528476
 20
1021.032010498378
 30
0.0
 11
6475.882764910128
 21
1045.032010498378
 31
0.0
  0
ARC
  5
258AA
330
747D
100
AcDbEntity
  8
部品1
 48
50.0
100
AcDbCircle
 10
6473.263990019619
 20
1165.032010498378
 30
0.0
 40
24.0
100
AcDbArc
 50
340.5287793655256
 51
0.0
  0
CIRCLE
  5
258AB
330
747D
100
AcDbEntity
  8
部品1
 48
50.0
100
AcDbCircle
 10
6601.263990019619
 20
1165.032010498378
 30
0.0
 40
8.0
  0
LINE
  5
258AC
330
747D
100
AcDbEntity
  8
細線
 48
50.0
100
AcDbLine
 10
6633.469538068766
 20
1157.032010498378
 30
0.0
 11
6697.263990019618
 21
1220.826462449229
 31
0.0
  0
LINE
  5
258AD
330
747D
100
AcDbEntity
  8
細線
 48
50.0
100
AcDbLine
 10
6769.999009304623
 20
917.0320104983765
 30
0.0
 11
6777.263990019619
 21
944.1452876427666
 31
0.0
  0
LINE
  5
258AE
330
747D
100
AcDbEntity
  8
細線
 48
50.0
100
AcDbLine
 10
6776.429789922971
 20
941.0320104983783
 30
0.0
 11
6777.263990019619
 21
937.9187333540139
 31
0.0
  0
LINE
  5
258AF
330
747D
100
AcDbEntity
  8
細線
 48
50.0
100
AcDbLine
 10
6697.541744975724
 20
941.0320104983783
 30
0.0
 11
6703.972525594072
 21
917.0320104983785
 31
0.0
  0
LINE
  5
258B0
330
747D
100
AcDbEntity
  8
細線
 48
50.0
100
AcDbLine
 10
6539.765655081231
 20
941.0320104983783
 30
0.0
 11
6546.196435699577
 21
917.0320104983785
 31
0.0
  0
LINE
  5
258B1
330
747D
100
AcDbEntity
  8
細線
 48
50.0
100
AcDbLine
 10
6618.653700028477
 20
941.0320104983783
 30
0.0
 11
6625.084480646825
 21
917.0320104983785
 31
0.0
  0
LINE
  5
258B2
330
747D
100
AcDbEntity
  8
細線
 48
50.0
100
AcDbLine
 10
6612.222919410128
 20
917.0320104983765
 30
0.0
 11
6646.520416041312
 21
1045.032010498377
 31
0.0
  0
LINE
  5
258B3
330
747D
100
AcDbEntity
  8
細線
 48
50.0
100
AcDbLine
 10
6533.334874462878
 20
917.0320104983785
 30
0.0
 11
6567.632371094065
 21
1045.032010498377
 31
0.0
  0
LINE
  5
258B4
330
747D
100
AcDbEntity
  8
細線
 48
50.0
100
AcDbLine
 10
6691.110964357372
 20
917.0320104983785
 30
0.0
 11
6725.408460988558
 21
1045.032010498377
 31
0.0
  0
LINE
  5
258B5
330
747D
100
AcDbEntity
  8
部品1
 48
50.0
100
AcDbLine
 10
6777.263990019623
 20
1045.032010498378
 30
0.0
 11
6777.263990019623
 21
917.0320104983785
 31
0.0
  0
LINE
  5
258B6
330
747D
100
AcDbEntity
  8
部品1
 48
50.0
100
AcDbLine
 10
6465.263990019619
 20
1223.159225195501
 30
0.0
 11
6465.263990019619
 21
1165.032010498378
 31
0.0
  0
LINE
  5
258B7
330
747D
100
AcDbEntity
  8
細線
 48
50.0
100
AcDbLine
 10
6391.002622799902
 20
1157.032010498378
 30
0.0
 11
6449.26399001962
 21
1215.293377718097
 31
0.0
  0
LINE
  5
258B8
330
747D
100
AcDbEntity
  8
部品1
 48
50.0
100
AcDbLine
 10
6449.26399001962
 20
1223.159225195501
 30
0.0
 11
6449.26399001962
 21
1165.032010498378
 31
0.0
  0
LINE
  5
258B9
330
747D
100
AcDbEntity
  8
細線
 48
50.0
100
AcDbLine
 10
6305.943391163108
 20
1045.032010498378
 30
0.0
 11
6401.943391163108
 21
1141.032010498378
 31
0.0
  0
LINE
  5
258BA
330
747D
100
AcDbEntity
  8
細線
 48
50.0
100
AcDbLine
 10
6403.425500581223
 20
1021.032010498378
 30
0.0
 11
6396.994719962877
 21
1045.032010498378
 31
0.0
  0
LINE
  5
258BB
330
747D
100
AcDbEntity
  8
細線
 48
50.0
100
AcDbLine
 10
6324.53745563397
 20
1021.032010498378
 30
0.0
 11
6318.106675015624
 21
1045.032010498378
 31
0.0
  0
ARC
  5
258BC
330
747D
100
AcDbEntity
  8
部品1
 48
50.0
100
AcDbCircle
 10
6473.263990019619
 20
1165.032010498378
 30
0.0
 40
24.0
100
AcDbArc
 50
180.0
 51
199.4712206344743
  0
LINE
  5
258BD
330
747D
100
AcDbEntity
  8
細線
 48
50.0
100
AcDbLine
 10
6417.943391163108
 20
1157.032010498378
 30
0.0
 11
6449.26399001962
 21
1188.35260935489
 31
0.0
  0
CIRCLE
  5
258BE
330
747D
100
AcDbEntity
  8
部品1
 48
50.0
100
AcDbCircle
 10
6345.263990019619
 20
1165.032010498378
 30
0.0
 40
8.0
  0
LINE
  5
258BF
330
747D
100
AcDbEntity
  8
部品1
 48
50.0
100
AcDbLine
 10
6465.263990019619
 20
1223.159225195501
 30
0.0
 11
6449.26399001962
 21
1223.159225195501
 31
0.0
  0
LINE
  5
258C0
330
747D
100
AcDbEntity
  8
細線
 48
50.0
100
AcDbLine
 10
6169.263990019619
 20
1030.371931464158
 30
0.0
 11
6173.192146357814
 21
1045.032010498378
 31
0.0
  0
LINE
  5
258C1
330
747D
100
AcDbEntity
  8
細線
 48
50.0
100
AcDbLine
 10
6245.64941068672
 20
1021.032010498378
 30
0.0
 11
6239.218630068371
 21
1045.032010498378
 31
0.0
  0
LINE
  5
258C2
330
747D
100
AcDbEntity
  8
部品1
 48
50.0
100
AcDbLine
 10
6305.263990019619
 20
1157.032010498378
 30
0.0
 11
6305.263990019619
 21
1141.032010498378
 31
0.0
  0
LINE
  5
258C3
330
747D
100
AcDbEntity
  8
細線
 48
50.0
100
AcDbLine
 10
6252.061854436692
 20
1045.032010498378
 30
0.0
 11
6348.061854436692
 21
1141.032010498378
 31
0.0
  0
LINE
  5
258C4
330
747D
100
AcDbEntity
  8
細線
 48
50.0
100
AcDbLine
 10
6279.002622799903
 20
1045.032010498378
 30
0.0
 11
6375.002622799902
 21
1141.032010498378
 31
0.0
  0
LINE
  5
258C5
330
747D
100
AcDbEntity
  8
細線
 48
50.0
100
AcDbLine
 10
6381.989565186734
 20
941.0320104983783
 30
0.0
 11
6388.42034580508
 21
917.0320104983785
 31
0.0
  0
LINE
  5
258C6
330
747D
100
AcDbEntity
  8
細線
 48
50.0
100
AcDbLine
 10
6460.877610133987
 20
941.0320104983783
 30
0.0
 11
6467.308390752332
 21
917.0320104983785
 31
0.0
  0
LINE
  5
258C7
330
747D
100
AcDbEntity
  8
細線
 48
50.0
100
AcDbLine
 10
6224.213475292231
 20
941.0320104983783
 30
0.0
 11
6230.644255910576
 21
917.0320104983785
 31
0.0
  0
LINE
  5
258C8
330
747D
100
AcDbEntity
  8
細線
 48
50.0
100
AcDbLine
 10
6303.101520239481
 20
941.0320104983783
 30
0.0
 11
6309.532300857829
 21
917.0320104983785
 31
0.0
  0
LINE
  5
258C9
330
747D
100
AcDbEntity
  8
部品1
 48
50.0
100
AcDbLine
 10
6169.263990019621
 20
917.0320104983785
 30
0.0
 11
6169.263990019621
 21
1045.032010498378
 31
0.0
  0
LINE
  5
258CA
330
747D
100
AcDbEntity
  8
細線
 48
50.0
100
AcDbLine
 10
6217.782694673877
 20
917.0320104983765
 30
0.0
 11
6252.08019130506
 21
1045.032010498377
 31
0.0
  0
LINE
  5
258CB
330
747D
100
AcDbEntity
  8
細線
 48
50.0
100
AcDbLine
 10
6375.55878456838
 20
917.0320104983765
 30
0.0
 11
6409.856281199563
 21
1045.032010498377
 31
0.0
  0
LINE
  5
258CC
330
747D
100
AcDbEntity
  8
細線
 48
50.0
100
AcDbLine
 10
6296.670739621135
 20
917.0320104983785
 30
0.0
 11
6330.968236252318
 21
1045.032010498378
 31
0.0
  0
LINE
  5
258CD
330
747D
100
AcDbEntity
  8
細線
 48
50.0
100
AcDbLine
 10
6467.588001342353
 20
1045.032010498378
 30
0.0
 11
6563.588001342352
 21
1141.032010498378
 31
0.0
  0
CIRCLE
  5
258CE
330
747D
100
AcDbEntity
  8
部品1
 48
50.0
100
AcDbCircle
 10
6473.263990019619
 20
1165.032010498378
 30
0.0
 40
8.0
  0
LINE
  5
258CF
330
747D
100
AcDbEntity
  8
部品1
 48
50.0
100
AcDbLine
 10
6777.263990019623
 20
1045.032010498378
 30
0.0
 11
6169.263990019621
 21
1045.032010498378
 31
0.0
  0
LINE
  5
258D0
330
747D
100
AcDbEntity
  8
部品1
 48
50.0
100
AcDbLine
 10
6305.263990019619
 20
1157.032010498378
 30
0.0
 11
6641.26399001962
 21
1157.032010498378
 31
0.0
  0
LINE
  5
258D1
330
747D
100
AcDbEntity
  8
部品1
 48
50.0
100
AcDbLine
 10
6305.263990019619
 20
1141.032010498378
 30
0.0
 11
6641.26399001962
 21
1141.032010498378
 31
0.0
  0
LINE
  5
258D2
330
747D
100
AcDbEntity
  8
部品1
 48
50.0
100
AcDbLine
 10
6777.263990019623
 20
917.0320104983785
 30
0.0
 11
6169.263990019621
 21
917.0320104983785
 31
0.0
  0
LINE
  5
258D3
330
747D
100
AcDbEntity
  8
細線
 48
50.0
100
AcDbLine
 10
6454.446829515633
 20
917.0320104983785
 30
0.0
 11
6488.744326146816
 21
1045.032010498378
 31
0.0
  0
LINE
  5
258D4
330
747D
100
AcDbEntity
  8
細線
 48
50.0
100
AcDbLine
 10
6465.263990019619
 20
1204.35260935489
 30
0.0
 11
6481.263990019624
 21
1220.35260935489
 31
0.0
  0
LINE
  5
258D5
330
747D
100
AcDbEntity
  8
部品1
 48
50.0
100
AcDbLine
 10
6481.263990019624
 20
1165.032010498378
 30
0.0
 11
6481.263990019612
 21
1689.286439892624
 31
0.0
  0
LINE
  5
258D6
330
747D
100
AcDbEntity
  8
部品1
 48
50.0
100
AcDbLine
 10
6497.263990019624
 20
1165.032010498378
 30
0.0
 11
6497.263990019618
 21
1689.286439892624
 31
0.0
  0
LINE
  5
258D7
330
747D
100
AcDbEntity
  8
部品1
 48
50.0
100
AcDbLine
 10
6697.263990019618
 20
1285.032010498378
 30
0.0
 11
6697.263990019618
 21
1045.032010498378
 31
0.0
  0
LINE
  5
258D8
330
747D
100
AcDbEntity
  8
細線
 48
50.0
100
AcDbLine
 10
6579.588001342347
 20
1157.032010498378
 30
0.0
 11
6697.263990019618
 21
1274.707999175644
 31
0.0
  0
LINE
  5
258D9
330
747D
100
AcDbEntity
  8
細線
 48
50.0
100
AcDbLine
 10
6606.528769705562
 20
1157.032010498378
 30
0.0
 11
6697.263990019618
 21
1247.767230812437
 31
0.0
  0
LINE
  5
258DA
330
747D
100
AcDbEntity
  8
部品1
 48
50.0
100
AcDbLine
 10
6249.26399001962
 20
1045.032010498378
 30
0.0
 11
6249.26399001962
 21
1285.032010498378
 31
0.0
  0
LINE
  5
258DB
330
747D
100
AcDbEntity
  8
細線
 48
50.0
100
AcDbLine
 10
6364.061854436691
 20
1157.032010498378
 30
0.0
 11
6481.263990019619
 21
1274.234146081304
 31
0.0
  0
LINE
  5
258DC
330
747D
100
AcDbEntity
  8
細線
 48
50.0
100
AcDbLine
 10
6457.129837497022
 20
1223.159225195501
 30
0.0
 11
6481.263990019624
 21
1247.2933777181
 31
0.0
  0
LINE
  5
258DD
330
747D
100
AcDbEntity
  8
細線
 48
50.0
100
AcDbLine
 10
6249.263990019612
 20
1203.878756260549
 30
0.0
 11
6330.417244257447
 21
1285.032010498378
 31
0.0
  0
LEADER
  5
258DE
330
747D
100
AcDbEntity
  8
寸法
 48
50.0
100
AcDbLeader
  3
INABA_S50G
 71
     0
 73
     0
 74
     0
 75
     1
 40
100.0
 41
222.7272727272727
 76
     3
 10
6473.263990019617
 20
1689.286439892624
 30
0.0
 10
6527.149927047013
 20
1788.522012745798
 30
0.0
 10
6652.149927047013
 20
1788.522012745798
 30
0.0
1001
ACAD
1000
DSTYLE
1002
{
1070
    40
1040
1.0
1070
   272
1070
     1
1070
   279
1070
     1
1070
   341
1005
0
1002
}
  0
LWPOLYLINE
  5
258DF
330
747D
100
AcDbEntity
  8
部品1
 48
50.0
100
AcDbPolyline
 90
        2
 70
     0
 43
8.0
 10
6569.263990019618
 20
1589.032010498379
 10
6983.403891852576
 20
1589.032010498379
  0
MTEXT
  5
258E0
102
{ACAD_REACTORS
330
258E2
102
}
330
747D
100
AcDbEntity
  8
寸法
 62
     7
 48
50.0
100
AcDbMText
 10
6800.591649826303
 20
1129.634941555406
 30
0.0
 40
80.0
 41
0.8
 71
     4
 72
     1
  1
D10
  7
STYLE2
 73
     1
 44
1.0
1001
ACAD
1000
MTEXTBEGIN
1070
    73
1070
     1
1070
    44
1040
1.0
1070
    74
1070
     0
1000
MTEXTEND
  0
LEADER
  5
258E1
330
747D
100
AcDbEntity
  8
寸法
 48
50.0
100
AcDbLeader
  3
INABA_S50G
 71
     0
 73
     0
 74
     0
 75
     1
 40
100.0
 41
540.3409090909091
 76
     3
 10
6547.209159032793
 20
1148.291480084853
 30
0.0
 10
6666.002445880869
 20
806.6606620899555
 30
0.0
 10
6791.002445880869
 20
806.6606620899555
 30
0.0
213
0.0
223
-1.022262676269383
233
0.0
1001
ACAD
1000
DSTYLE
1002
{
1070
    40
1040
1.0
1070
   272
1070
     1
1070
   279
1070
     1
1070
   341
1005
0
1002
}
  0
LEADER
  5
258E2
330
747D
100
AcDbEntity
  8
寸法
 48
50.0
100
AcDbLeader
  3
INABA_S50G
 71
     0
 73
     0
 74
     0
 75
     1
 40
100.0
 41
225.0
 76
     3
 10
6601.166942371762
 20
1165.032010498378
 30
0.0
 10
6655.591649826303
 20
1069.634941555406
 30
0.0
 10
6780.591649826303
 20
1069.634941555406
 30
0.0
1001
ACAD
1000
DSTYLE
1002
{
1070
    40
1040
1.0
1070
   272
1070
     1
1070
   279
1070
     1
1070
   341
1005
0
1002
}
  0
MTEXT
  5
258E3
102
{ACAD_REACTORS
330
258DE
102
}
330
747D
100
AcDbEntity
  8
寸法
 62
     7
 48
50.0
100
AcDbMText
 10
6652.149927047013
 20
1851.587909791189
 30
0.0
 40
80.0
 41
0.8
 71
     4
 72
     1
  1
D13
  7
STYLE2
 73
     1
 44
1.0
1001
ACAD
1000
MTEXTBEGIN
1070
    73
1070
     1
1070
    44
1040
1.0
1070
    74
1070
     0
1000
MTEXTEND
  0
LINE
  5
258E4
330
747D
100
AcDbEntity
  8
部品1
 48
50.0
100
AcDbLine
 10
6569.26399001962
 20
1829.032010498378
 30
0.0
 11
6569.26399001962
 21
1285.032010498378
 31
0.0
  0
LINE
  5
258E5
330
747D
100
AcDbEntity
  8
部品1
 48
50.0
100
AcDbLine
 10
6377.263990019619
 20
1285.032010498378
 30
0.0
 11
6377.263990019619
 21
1829.032010498378
 31
0.0
  0
CIRCLE
  5
258E6
330
747D
100
AcDbEntity
  8
部品1
 48
50.0
100
AcDbCircle
 10
6473.263990019619
 20
1689.286439892624
 30
0.0
 40
8.0
  0
ARC
  5
258E7
330
747D
100
AcDbEntity
  8
部品1
 48
50.0
100
AcDbCircle
 10
6473.263990019619
 20
1689.286439892624
 30
0.0
 40
24.0
100
AcDbArc
 50
0.0
 51
180.0
  0
LINE
  5
258E8
330
747D
100
AcDbEntity
  8
細線
 48
50.0
100
AcDbLine
 10
6497.263990019618
 20
1667.404903166209
 30
0.0
 11
6569.26399001962
 21
1739.404903166209
 31
0.0
  0
LEADER
  5
258E9
330
747D
100
AcDbEntity
  8
寸法
 48
50.0
100
AcDbLeader
  3
INABA_S50G
 73
     0
 75
     1
 40
106.3636363636363
 41
893.1818181818181
 76
     3
 10
8208.703303196813
 20
1898.592010498379
 30
0.0
 10
8160.279230851873
 20
2272.651585214712
 30
0.0
 10
8035.279230851873
 20
2272.651585214712
 30
0.0
340
258EA
1001
ACAD
1000
DSTYLE
1002
{
1070
   341
1005
0
1070
    40
1040
1.0
1070
   343
1005
0
1070
   344
1005
0
1002
}
  0
MTEXT
  5
258EA
102
{ACAD_REACTORS
330
258E9
102
}
330
747D
100
AcDbEntity
  8
寸法
 62
     7
 48
50.0
100
AcDbMText
 10
8010.279230851873
 20
2350.83340339653
 30
0.0
 40
80.0
 41
0.8
 71
     6
 72
     1
  1
\A1;アンカープレート L
  7
STYLE2
 73
     1
 44
1.0
1001
ACAD
1000
MTEXTBEGIN
1070
    73
1070
     1
1070
    44
1040
1.0
1070
    74
1070
     0
1000
MTEXTEND
  0
DIMENSION
  5
258EB
330
747D
100
AcDbEntity
  8
寸法
 48
50.0
100
AcDbDimension
  2
*D53
 10
6697.263990019618
 20
506.6023724932184
 30
0.0
 11
6453.167231341395
 21
506.6023724932184
 31
0.0
 70
   160
  1
300
 71
     5
 42
448.0
  3
INABA_S40G
100
AcDbAlignedDimension
 13
6249.263990019618
 23
917.0320104983785
 33
0.0
 14
6697.263990019618
 24
917.0320104983785
 34
0.0
100
AcDbRotatedDimension
1001
ACAD
1000
DSTYLE
1002
{
1070
   341
1005
0
1002
}
  0
MTEXT
  5
258EC
102
{ACAD_REACTORS
330
258F4
102
}
330
747D
100
AcDbEntity
  8
寸法
 62
     7
 48
50.0
100
AcDbMText
 10
6078.328963824424
 20
961.5093168799422
 30
0.0
 40
80.0
 41
0.8
 71
     6
 72
     1
  1
D10
  7
STYLE2
 73
     1
 44
1.0
1001
ACAD
1000
MTEXTBEGIN
1070
    73
1070
     1
1070
    44
1040
1.0
1070
    74
1070
     0
1000
MTEXTEND
  0
MTEXT
  5
258ED
102
{ACAD_REACTORS
330
258F3
102
}
330
747D
100
AcDbEntity
  8
寸法
 62
     7
 48
50.0
100
AcDbMText
 10
6106.451691381859
 20
781.1931643404987
 30
0.0
 40
80.0
 41
0.8
 71
     6
 72
     1
  1
D13
  7
STYLE2
 73
     1
 44
1.0
1001
ACAD
1000
MTEXTBEGIN
1070
    73
1070
     1
1070
    44
1040
1.0
1070
    74
1070
     0
1000
MTEXTEND
  0
DIMENSION
  5
258EE
330
747D
100
AcDbEntity
  8
寸法
 48
50.0
100
AcDbDimension
  2
*D54
 10
5642.226751457878
 20
1045.032010498378
 30
0.0
 11
5642.226751457878
 21
1416.572160154379
 31
0.0
 70
   160
  1
540
 71
     5
 42
784.0
  3
INABA_S40G
100
AcDbAlignedDimension
 13
6377.263990019618
 23
1829.032010498378
 33
0.0
 14
6169.263990019622
 24
1045.032010498378
 34
0.0
 50
90.0
100
AcDbRotatedDimension
1001
ACAD
1000
DSTYLE
1002
{
1070
   341
1005
0
1002
}
  0
MTEXT
  5
258EF
102
{ACAD_REACTORS
330
258F0
102
}
330
747D
100
AcDbEntity
  8
寸法
 62
     7
 48
50.0
100
AcDbMText
 10
6157.165510536345
 20
2041.548230500421
 30
0.0
 40
80.0
 41
0.8
 71
     6
 72
     1
  1
\A1;金コテ押エ
  7
STYLE2
 73
     1
 44
1.0
1001
ACAD
1000
MTEXTBEGIN
1070
    73
1070
     1
1070
    44
1040
1.0
1070
    74
1070
     0
1000
MTEXTEND
  0
LEADER
  5
258F0
330
747D
100
AcDbEntity
  8
寸法
 48
50.0
100
AcDbLeader
  3
INABA_S50G
 71
     0
 73
     0
 75
     1
 40
130.1136363636363
 41
651.1363636363636
 76
     3
 10
6457.263990019618
 20
1829.032010498378
 30
0.0
 10
6344.839409855602
 20
1969.502775954967
 30
0.0
 10
6219.839409855602
 20
1969.502775954967
 30
0.0
1001
ACAD
1000
DSTYLE
1002
{
1070
    40
1040
1.0
1070
   272
1070
     1
1070
   279
1070
     1
1070
   341
1005
0
1002
}
  0
LEADER
  5
258F1
330
747D
100
AcDbEntity
  8
寸法
 48
50.0
100
AcDbLeader
  3
INABA_S50G
 71
     0
 73
     0
 75
     1
 40
100.0
 41
540.3409090909091
 76
     3
 10
6481.263990019619
 20
1587.159225195502
 30
0.0
 10
6423.28175349092
 20
1365.688896654696
 30
0.0
 10
6298.28175349092
 20
1365.688896654696
 30
0.0
213
-9.732182305893367
223
-4.643716661138569
233
0.0
1001
ACAD
1000
DSTYLE
1002
{
1070
    40
1040
1.0
1070
   272
1070
     1
1070
   279
1070
     1
1070
   341
1005
0
1002
}
  0
MTEXT
  5
258F2
102
{ACAD_REACTORS
330
258F1
102
}
330
747D
100
AcDbEntity
  8
寸法
 62
     7
 48
50.0
100
AcDbMText
 10
6288.013935796814
 20
1430.332613315835
 30
0.0
 40
80.0
 41
0.8
 71
     6
 72
     1
  1
\A1;D10@300
  7
STYLE2
 73
     1
 44
1.0
1001
ACAD
1000
MTEXTBEGIN
1070
    73
1070
     1
1070
    44
1040
1.0
1070
    74
1070
     0
1000
MTEXTEND
  0
LEADER
  5
258F3
330
747D
100
AcDbEntity
  8
寸法
 48
50.0
100
AcDbLeader
  3
INABA_S50G
 71
     0
 73
     0
 75
     1
 40
100.0
 41
222.7272727272727
 76
     3
 10
6473.263990019617
 20
1165.032010498378
 30
0.0
 10
6251.451691381859
 20
721.1931643404986
 30
0.0
 10
6126.451691381859
 20
721.1931643404986
 30
0.0
1001
ACAD
1000
DSTYLE
1002
{
1070
    40
1040
1.0
1070
   272
1070
     1
1070
   279
1070
     1
1070
   341
1005
0
1002
}
  0
LEADER
  5
258F4
330
747D
100
AcDbEntity
  8
寸法
 48
50.0
100
AcDbLeader
  3
INABA_S50G
 71
     0
 73
     0
 75
     1
 40
100.0
 41
225.0
 76
     3
 10
6345.166942371761
 20
1165.032010498378
 30
0.0
 10
6223.328963824425
 20
901.5093168799422
 30
0.0
 10
6098.328963824425
 20
901.5093168799422
 30
0.0
1001
ACAD
1000
DSTYLE
1002
{
1070
    40
1040
1.0
1070
   272
1070
     1
1070
   279
1070
     1
1070
   341
1005
0
1002
}
  0
DIMENSION
  5
258F5
330
747D
100
AcDbEntity
  8
寸法
 48
50.0
100
AcDbDimension
  2
*D55
 10
6106.843676287159
 20
1045.032010498378
 30
0.0
 11
6106.843676287159
 21
1165.032010498379
 31
0.0
 70
   160
  1
150
 71
     5
 42
240.0
  3
INABA_S40G
100
AcDbAlignedDimension
 13
6249.263990019618
 23
1285.032010498378
 33
0.0
 14
6169.263990019622
 24
1045.032010498378
 34
0.0
 50
90.0
100
AcDbRotatedDimension
1001
ACAD
1000
DSTYLE
1002
{
1070
   341
1005
0
1002
}
  0
TEXT
  5
258F6
330
747D
100
AcDbEntity
  8
部品1
 48
50.0
100
AcDbText
 10
5963.124088186662
 20
1600.271002781633
 30
0.0
 40
80.0
  1
▽G.L
  7
STYLE2
100
AcDbText
  0
LWPOLYLINE
  5
258F7
330
747D
100
AcDbEntity
  8
部品1
 48
50.0
100
AcDbPolyline
 90
        2
 70
     0
 43
8.0
 10
5963.124088186662
 20
1589.032010498379
 10
6377.263990019618
 20
1589.032010498379
  0
MTEXT
  5
258F8
102
{ACAD_REACTORS
330
258F9
102
}
330
747D
100
AcDbEntity
  8
寸法
 62
     7
 48
50.0
100
AcDbMText
 10
7983.636224643515
 20
2711.517675304044
 30
0.0
 40
80.0
 41
0.8
 71
     6
 72
     1
  1
\A1;φ70スリーブ
  7
STYLE2
 73
     1
 44
1.0
1001
ACAD
1000
MTEXTBEGIN
1070
    73
1070
     1
1070
    44
1040
1.0
1070
    74
1070
     0
1000
MTEXTEND
  0
LEADER
  5
258F9
330
747D
100
AcDbEntity
  8
寸法
 48
50.0
100
AcDbLeader
  3
INABA_S50G
 73
     0
 75
     1
 40
113.1818181818182
 41
608.6363636363635
 76
     3
 10
8267.440053334864
 20
1778.547683856657
 30
0.0
 10
8133.636224643515
 20
2629.926766213135
 30
0.0
 10
8008.636224643515
 20
2629.926766213135
 30
0.0
340
258F8
1001
ACAD
1000
DSTYLE
1002
{
1070
   341
1005
0
1070
    40
1040
1.0
1070
   343
1005
0
1070
   344
1005
0
1002
}
  0
LINE
  5
258FA
330
747D
100
AcDbEntity
  8
部品1
100
AcDbLine
 10
5306.595551210356
 20
3228.370677698964
 30
0.0
 11
5306.595551210357
 21
264.0637081143168
 31
0.0
  0
LEADER
  5
258FB
330
747D
100
AcDbEntity
  8
寸法
 48
50.0
100
AcDbLeader
  3
INABA_S50G
 73
     0
 74
     0
 75
     1
 40
80.0
 41
435.0
 76
     3
 10
8307.703303196813
 20
1878.192010498379
 30
0.0
 10
8350.247765616131
 20
2028.415336651608
 30
0.0
 10
8475.247765616131
 20
2028.415336651608
 30
0.0
340
258FC
1001
ACAD
1000
DSTYLE
1002
{
1070
   341
1005
0
1070
    40
1040
1.0
1070
   343
1005
0
1070
   344
1005
0
1002
}
  0
MTEXT
  5
258FC
102
{ACAD_REACTORS
330
258FB
102
}
330
747D
100
AcDbEntity
  8
部品1
 62
     7
 48
50.0
100
AcDbMText
 10
8500.247765616132
 20
2093.415336651609
 30
0.0
 40
80.0
 41
0.8
 71
     4
 72
     1
  1
M10X160
  7
STYLE2
 73
     1
 44
1.0
1001
ACAD
1000
MTEXTBEGIN
1070
    73
1070
     1
1070
    44
1040
1.0
1070
    74
1070
     0
1000
MTEXTEND
  0
DIMENSION
  5
258FD
330
747D
100
AcDbEntity
  8
寸法
 48
50.0
100
AcDbDimension
  2
*D56
 10
9269.226569084684
 20
1829.032010498378
 30
0.0
 11
9269.226569084684
 21
1363.023107076896
 31
0.0
 70
   160
  1
20～25
 71
     5
 42
52.76000000000113
  3
INABA_S40G
100
AcDbAlignedDimension
 13
8304.103303196813
 23
1881.792010498379
 33
0.0
 14
8491.303303196811
 24
1829.032010498378
 34
0.0
 50
90.0
100
AcDbRotatedDimension
1001
ACAD
1000
DSTYLE
1002
{
1070
   341
1005
0
1002
}
  0
DIMENSION
  5
258FE
330
747D
100
AcDbEntity
  8
寸法
 48
50.0
100
AcDbDimension
  2
*D57
 10
8993.171902965656
 20
1505.032010498377
 30
0.0
 11
8893.171902965656
 21
1667.032010498379
 31
0.0
 70
    32
  1
180
 71
     5
 42
324.0000000000009
  3
INABA_S40G
100
AcDbAlignedDimension
 13
8491.303303196811
 23
1829.032010498378
 33
0.0
 14
8491.303303196811
 24
1505.032010498377
 34
0.0
 50
90.0
100
AcDbRotatedDimension
1001
ACAD
1000
DSTYLE
1002
{
1070
   341
1005
0
1002
}
  0
TEXT
  5
258FF
330
747D
100
AcDbEntity
  8
部品1
 48
50.0
100
AcDbText
 10
8495.65688748124
 20
2184.910691260578
 30
0.0
 40
80.0
  1
基礎ボルト(市販品)
  7
STYLE2
100
AcDbText
  0
LWPOLYLINE
  5
25900
330
747D
100
AcDbEntity
  8
部品1
 48
50.0
100
AcDbPolyline
 90
        2
 70
     0
 43
8.0
 10
8491.303303196811
 20
1589.032010498379
 10
8785.005766596196
 20
1589.032010498379
  0
MTEXT
  5
25901
102
{ACAD_REACTORS
330
25902
102
}
330
747D
100
AcDbEntity
  8
部品1
 62
     7
 48
50.0
100
AcDbMText
 10
8530.574893565653
 20
2529.527383585639
 30
0.0
 40
80.0
 41
0.8
 71
     4
 72
     1
  1
\A1;ワッシャー(市販品)
  7
STYLE2
 73
     1
 44
1.0
1001
ACAD
1000
MTEXTBEGIN
1070
    73
1070
     1
1070
    44
1040
1.0
1070
    74
1070
     0
1000
MTEXTEND
  0
LEADER
  5
25902
330
747D
100
AcDbEntity
  8
寸法
 48
50.0
100
AcDbLeader
  3
INABA_S50G
 73
     0
 74
     0
 75
     1
 40
102.2727272727273
 41
906.8181818181818
 76
     3
 10
8338.703303196814
 20
2098.155298942658
 30
0.0
 10
8380.574893565652
 20
2453.391019949275
 30
0.0
 10
8505.574893565652
 20
2453.391019949275
 30
0.0
340
25901
1001
ACAD
1000
DSTYLE
1002
{
1070
   341
1005
0
1070
    40
1040
1.0
1070
   343
1005
0
1070
   344
1005
0
1002
}
  0
MTEXT
  5
25903
102
{ACAD_REACTORS
330
25904
102
}
330
747D
100
AcDbEntity
  8
部品1
 62
     7
 48
50.0
100
AcDbMText
 10
8499.057274310169
 20
2714.496466350426
 30
0.0
 40
80.0
 41
0.8
 71
     4
 72
     1
  1
\A1;ナット(市販品)
  7
STYLE2
 73
     1
 44
1.0
1001
ACAD
1000
MTEXTBEGIN
1070
    73
1070
     1
1070
    44
1040
1.0
1070
    74
1070
     0
1000
MTEXTEND
  0
LEADER
  5
25904
330
747D
100
AcDbEntity
  8
寸法
 48
50.0
100
AcDbLeader
  3
INABA_S50G
 73
     0
 74
     0
 75
     1
 40
102.2727272727273
 41
680.0000000000001
 76
     3
 10
8314.703303196813
 20
2227.907291607521
 30
0.0
 10
8349.057274310169
 20
2638.360102714062
 30
0.0
 10
8474.057274310169
 20
2638.360102714062
 30
0.0
340
25903
1001
ACAD
1000
DSTYLE
1002
{
1070
   341
1005
0
1070
    40
1040
1.0
1070
   343
1005
0
1070
   344
1005
0
1002
}
  0
LINE
  5
25905
330
747D
100
AcDbEntity
  8
部品1
100
AcDbLine
 10
5306.595551210359
 20
264.0637081143168
 30
0.0
 11
11377.5807365966
 21
264.0637081143168
 31
0.0
  0
LINE
  5
25906
330
747D
100
AcDbEntity
  8
部品1
100
AcDbLine
 10
11377.5807365966
 20
2988.370677698962
 30
0.0
 11
5306.595551210357
 21
2988.370677698962
 31
0.0
  0
LINE
  5
25907
330
747D
100
AcDbEntity
  8
部品1
100
AcDbLine
 10
11377.58073659661
 20
3228.370677698964
 30
0.0
 11
5306.595551210353
 21
3228.370677698964
 31
0.0
  0
ENDSEC
  0
SECTION
  2
OBJECTS
  0
DICTIONARY
  5
7471
330
0
100
AcDbDictionary
281
     1
  3
ACAD_COLOR
350
173D2
  3
ACAD_GROUP
350
7472
  3
ACAD_LAYOUT
350
173D3
  3
ACAD_MATERIAL
350
173D1
  3
ACAD_MLINESTYLE
350
7473
  3
ACAD_PLOTSETTINGS
350
173D4
  3
ACAD_PLOTSTYLENAME
350
173CF
  3
ACDBHEADERROUNDTRIPXREC
350
25995
  3
AcDbVariableDictionary
350
25573
  3
CONTENTDICTIONARY
350
E71C
  3
DRAWINGVARIABLESDICT
350
F3B9
  0
DICTIONARY
  5
1758F
330
7467
100
AcDbDictionary
280
     1
281
     1
  3
ACAD_LAYERSTATES
360
17590
  0
DICTIONARY
  5
173D2
102
{ACAD_REACTORS
330
7471
102
}
330
7471
100
AcDbDictionary
281
     1
  0
DICTIONARY
  5
7472
102
{ACAD_REACTORS
330
7471
102
}
330
7471
100
AcDbDictionary
281
     1
  3
*A1
350
1D2A9
  0
DICTIONARY
  5
173D3
102
{ACAD_REACTORS
330
7471
102
}
330
7471
100
AcDbDictionary
281
     1
  3
Model
350
173D5
  3
レイアウト1
350
173D6
  0
DICTIONARY
  5
173D1
102
{ACAD_REACTORS
330
7471
102
}
330
7471
100
AcDbDictionary
281
     1
  0
DICTIONARY
  5
7473
102
{ACAD_REACTORS
330
7471
102
}
330
7471
100
AcDbDictionary
281
     1
  3
STANDARD
350
7480
  0
DICTIONARY
  5
173D4
102
{ACAD_REACTORS
330
7471
102
}
330
7471
100
AcDbDictionary
281
     1
  0
ACDBDICTIONARYWDFLT
  5
173CF
102
{ACAD_REACTORS
330
7471
102
}
330
7471
100
AcDbDictionary
281
     1
  3
Normal
350
173D0
100
AcDbDictionaryWithDefault
340
173D0
  0
DICTIONARY
  5
25995
102
{ACAD_REACTORS
330
7471
102
}
330
7471
100
AcDbDictionary
281
     1
  3
COLORDICT
350
25997
  3
MATERIALDICT
350
25996
  0
DICTIONARY
  5
25573
102
{ACAD_REACTORS
330
7471
102
}
330
7471
100
AcDbDictionary
281
     1
  3
DIMASSOC
350
25574
  3
PROJECTNAME
350
25575
  0
DICTIONARY
  5
E71C
102
{ACAD_REACTORS
330
7471
102
}
330
7471
100
AcDbDictionary
281
     1
  0
DICTIONARY
  5
F3B9
102
{ACAD_REACTORS
330
7471
102
}
330
7471
100
AcDbDictionary
281
     1
1001
DRAWINGVARIABLESXDATA
1000
POLARMODE
1000
1
  0
DICTIONARY
  5
17590
102
{ACAD_REACTORS
330
1758F
102
}
330
1758F
100
AcDbDictionary
281
     1
  0
GROUP
  5
1D2A9
102
{ACAD_REACTORS
330
7472
102
}
330
7472
100
AcDbGroup
300

 70
     1
 71
     1
  0
LAYOUT
  5
173D5
102
{ACAD_XDICTIONARY
360
25998
102
}
102
{ACAD_REACTORS
330
173D3
102
}
330
173D3
100
AcDbPlotSettings
  1

  2
Microsoft Office Document Image Writer
  4

  6

 40
0.0
 41
0.0
 42
0.0
 43
0.0
 44
0.0
 45
0.0
 46
0.0
 47
0.0
 48
0.0
 49
0.0
140
0.0
141
0.0
142
1.0
143
1.0
 70
  1712
 72
     0
 73
     0
 74
     0
  7

 75
     0
147
1.0
148
0.0
149
0.0
100
AcDbLayout
  1
Model
 70
     1
 71
     0
 10
0.0
 20
0.0
 11
12.0
 21
9.0
 12
0.0
 22
0.0
 32
0.0
 14
0.0
 24
0.0
 34
0.0
 15
0.0
 25
0.0
 35
0.0
146
0.0
 13
0.0
 23
0.0
 33
0.0
 16
1.0
 26
0.0
 36
0.0
 17
0.0
 27
1.0
 37
0.0
 76
     0
330
747D
  0
LAYOUT
  5
173D6
102
{ACAD_XDICTIONARY
360
2599A
102
}
102
{ACAD_REACTORS
330
173D3
102
}
330
173D3
100
AcDbPlotSettings
  1

  2
Microsoft Office Document Image Writer
  4

  6

 40
0.0
 41
0.0
 42
0.0
 43
0.0
 44
0.0
 45
0.0
 46
0.0
 47
0.0
 48
0.0
 49
0.0
140
0.0
141
0.0
142
1.0
143
1.0
 70
   688
 72
     0
 73
     0
 74
     5
  7

 75
    16
147
1.0
148
0.0
149
0.0
100
AcDbLayout
  1
レイアウト1
 70
     0
 71
     1
 10
0.0
 20
0.0
 11
420.0
 21
297.0
 12
0.0
 22
0.0
 32
0.0
 14
1.000000000000000E+20
 24
1.000000000000000E+20
 34
1.000000000000000E+20
 15
-1.000000000000000E+20
 25
-1.000000000000000E+20
 35
-1.000000000000000E+20
146
0.0
 13
0.0
 23
0.0
 33
0.0
 16
1.0
 26
0.0
 36
0.0
 17
0.0
 27
1.0
 37
0.0
 76
     0
330
747A
  0
MLINESTYLE
  5
7480
102
{ACAD_REACTORS
330
7473
102
}
330
7473
100
AcDbMlineStyle
  2
STANDARD
 70
     0
  3

 62
     0
 51
90.0
 52
90.0
 71
     2
 49
0.5
 62
   256
  6
BYLAYER
 49
-0.5
 62
   256
  6
BYLAYER
  0
ACDBPLACEHOLDER
  5
173D0
102
{ACAD_REACTORS
330
173CF
102
}
330
173CF
  0
XRECORD
  5
25997
102
{ACAD_REACTORS
330
25995
102
}
330
25995
100
AcDbXrecord
280
     1
340
173D2
  0
XRECORD
  5
25996
102
{ACAD_REACTORS
330
25995
102
}
330
25995
100
AcDbXrecord
280
     1
340
173D1
  0
DICTIONARYVAR
  5
25574
102
{ACAD_REACTORS
330
25573
102
}
330
25573
100
DictionaryVariables
280
     0
  1
1
  0
DICTIONARYVAR
  5
25575
102
{ACAD_REACTORS
330
25573
102
}
330
25573
100
DictionaryVariables
280
     0
  1

  0
DICTIONARY
  5
25998
330
173D5
100
AcDbDictionary
280
     1
281
     1
  3
ACAD_XREC_ROUNDTRIP
360
25999
  0
DICTIONARY
  5
2599A
330
173D6
100
AcDbDictionary
280
     1
281
     1
  3
ACAD_XREC_ROUNDTRIP
360
2599B
  0
XRECORD
  5
25999
102
{ACAD_REACTORS
330
25998
102
}
330
25998
100
AcDbXrecord
280
     1
102
SHADEPLOT
 70
     0
102
SHADEPLOTRESLEVEL
 70
     2
102
SHADEPLOTCUSTOMDPI
 70
   300
  0
XRECORD
  5
2599B
102
{ACAD_REACTORS
330
2599A
102
}
330
2599A
100
AcDbXrecord
280
     1
102
SHADEPLOT
 70
     0
102
SHADEPLOTRESLEVEL
 70
     2
102
SHADEPLOTCUSTOMDPI
 70
   300
  0
ENDSEC
  0
EOF
