  0
SECTION
  2
HEADER
  9
$ACADVER
  1
AC1015
  9
$ACADMAINTVER
 70
    20
  9
$DWGCODEPAGE
  3
ANSI_932
  9
$INSBASE
 10
0.0
 20
0.0
 30
0.0
  9
$EXTMIN
 10
139.9999999999995
 20
-0.0000000000000909
 30
0.0
  9
$EXTMAX
 10
16307.2
 20
11409.6
 30
0.0
  9
$LIMMIN
 10
0.0
 20
0.0
  9
$LIMMAX
 10
16800.0
 20
11880.0
  9
$ORTHOMODE
 70
     0
  9
$REGENMODE
 70
     1
  9
$FILLMODE
 70
     1
  9
$QTEXTMODE
 70
     0
  9
$MIRRTEXT
 70
     1
  9
$LTSCALE
 40
20.0
  9
$ATTMODE
 70
     1
  9
$TEXTSIZE
 40
4.0
  9
$TRACEWID
 40
1.0
  9
$TEXTSTYLE
  7
STYLE1
  9
$CLAYER
  8
寸法
  9
$CELTYPE
  6
BYLAYER
  9
$CECOLOR
 62
   256
  9
$CELTSCALE
 40
50.0
  9
$DISPSILH
 70
     0
  9
$DIMSCALE
 40
40.0
  9
$DIMASZ
 40
2.5
  9
$DIMEXO
 40
0.5
  9
$DIMDLI
 40
7.0
  9
$DIMRND
 40
0.0
  9
$DIMDLE
 40
0.0
  9
$DIMEXE
 40
1.5
  9
$DIMTP
 40
0.0
  9
$DIMTM
 40
0.0
  9
$DIMTXT
 40
3.0
  9
$DIMCEN
 40
0.0
  9
$DIMTSZ
 40
0.0
  9
$DIMTOL
 70
     0
  9
$DIMLIM
 70
     0
  9
$DIMTIH
 70
     0
  9
$DIMTOH
 70
     0
  9
$DIMSE1
 70
     0
  9
$DIMSE2
 70
     0
  9
$DIMTAD
 70
     3
  9
$DIMZIN
 70
     8
  9
$DIMBLK
  1

  9
$DIMASO
 70
     1
  9
$DIMSHO
 70
     1
  9
$DIMPOST
  1

  9
$DIMAPOST
  1

  9
$DIMALT
 70
     0
  9
$DIMALTD
 70
     2
  9
$DIMALTF
 40
0.0394
  9
$DIMLFAC
 40
1.0
  9
$DIMTOFL
 70
     1
  9
$DIMTVP
 40
0.0
  9
$DIMTIX
 70
     1
  9
$DIMSOXD
 70
     0
  9
$DIMSAH
 70
     1
  9
$DIMBLK1
  1
DOTSMALL
  9
$DIMBLK2
  1
DOTSMALL
  9
$DIMSTYLE
  2
INABA_S40G
  9
$DIMCLRD
 70
     0
  9
$DIMCLRE
 70
     0
  9
$DIMCLRT
 70
     7
  9
$DIMTFAC
 40
1.0
  9
$DIMGAP
 40
1.0
  9
$DIMJUST
 70
     0
  9
$DIMSD1
 70
     0
  9
$DIMSD2
 70
     0
  9
$DIMTOLJ
 70
     1
  9
$DIMTZIN
 70
     0
  9
$DIMALTZ
 70
     0
  9
$DIMALTTZ
 70
     0
  9
$DIMUPT
 70
     0
  9
$DIMDEC
 70
     1
  9
$DIMTDEC
 70
     4
  9
$DIMALTU
 70
     2
  9
$DIMALTTD
 70
     2
  9
$DIMTXSTY
  7
STYLE1
  9
$DIMAUNIT
 70
     0
  9
$DIMADEC
 70
     0
  9
$DIMALTRND
 40
0.0
  9
$DIMAZIN
 70
     0
  9
$DIMDSEP
 70
    46
  9
$DIMATFIT
 70
     3
  9
$DIMFRAC
 70
     0
  9
$DIMLDRBLK
  1

  9
$DIMLUNIT
 70
     2
  9
$DIMLWD
 70
    -2
  9
$DIMLWE
 70
    -2
  9
$DIMTMOVE
 70
     0
  9
$LUNITS
 70
     2
  9
$LUPREC
 70
     1
  9
$SKETCHINC
 40
1.0
  9
$FILLETRAD
 40
3.0
  9
$AUNITS
 70
     0
  9
$AUPREC
 70
     0
  9
$MENU
  1
acad
  9
$ELEVATION
 40
0.0
  9
$PELEVATION
 40
0.0
  9
$THICKNESS
 40
0.0
  9
$LIMCHECK
 70
     0
  9
$CHAMFERA
 40
0.0
  9
$CHAMFERB
 40
0.0
  9
$CHAMFERC
 40
0.0
  9
$CHAMFERD
 40
0.0
  9
$SKPOLY
 70
     0
  9
$TDCREATE
 40
2451368.612993866
  9
$TDUCREATE
 40
2451368.237993866
  9
$TDUPDATE
 40
2455827.641026435
  9
$TDUUPDATE
 40
2455827.266026435
  9
$TDINDWG
 40
0.8301688194
  9
$TDUSRTIMER
 40
0.8301688194
  9
$USRTIMER
 70
     1
  9
$ANGBASE
 50
0.0
  9
$ANGDIR
 70
     0
  9
$PDMODE
 70
     3
  9
$PDSIZE
 40
2.0
  9
$PLINEWID
 40
0.0
  9
$SPLFRAME
 70
     0
  9
$SPLINETYPE
 70
     6
  9
$SPLINESEGS
 70
     8
  9
$HANDSEED
  5
2500F
  9
$SURFTAB1
 70
     6
  9
$SURFTAB2
 70
     6
  9
$SURFTYPE
 70
     6
  9
$SURFU
 70
     6
  9
$SURFV
 70
     6
  9
$UCSBASE
  2

  9
$UCSNAME
  2

  9
$UCSORG
 10
0.0
 20
0.0
 30
0.0
  9
$UCSXDIR
 10
1.0
 20
0.0
 30
0.0
  9
$UCSYDIR
 10
0.0
 20
1.0
 30
0.0
  9
$UCSORTHOREF
  2

  9
$UCSORTHOVIEW
 70
     0
  9
$UCSORGTOP
 10
0.0
 20
0.0
 30
0.0
  9
$UCSORGBOTTOM
 10
0.0
 20
0.0
 30
0.0
  9
$UCSORGLEFT
 10
0.0
 20
0.0
 30
0.0
  9
$UCSORGRIGHT
 10
0.0
 20
0.0
 30
0.0
  9
$UCSORGFRONT
 10
0.0
 20
0.0
 30
0.0
  9
$UCSORGBACK
 10
0.0
 20
0.0
 30
0.0
  9
$PUCSBASE
  2

  9
$PUCSNAME
  2

  9
$PUCSORG
 10
0.0
 20
0.0
 30
0.0
  9
$PUCSXDIR
 10
1.0
 20
0.0
 30
0.0
  9
$PUCSYDIR
 10
0.0
 20
1.0
 30
0.0
  9
$PUCSORTHOREF
  2

  9
$PUCSORTHOVIEW
 70
     0
  9
$PUCSORGTOP
 10
0.0
 20
0.0
 30
0.0
  9
$PUCSORGBOTTOM
 10
0.0
 20
0.0
 30
0.0
  9
$PUCSORGLEFT
 10
0.0
 20
0.0
 30
0.0
  9
$PUCSORGRIGHT
 10
0.0
 20
0.0
 30
0.0
  9
$PUCSORGFRONT
 10
0.0
 20
0.0
 30
0.0
  9
$PUCSORGBACK
 10
0.0
 20
0.0
 30
0.0
  9
$USERI1
 70
     0
  9
$USERI2
 70
     0
  9
$USERI3
 70
     0
  9
$USERI4
 70
     0
  9
$USERI5
 70
     0
  9
$USERR1
 40
0.0
  9
$USERR2
 40
0.0
  9
$USERR3
 40
0.0
  9
$USERR4
 40
0.0
  9
$USERR5
 40
0.0
  9
$WORLDVIEW
 70
     1
  9
$SHADEDGE
 70
     3
  9
$SHADEDIF
 70
    70
  9
$TILEMODE
 70
     1
  9
$MAXACTVP
 70
    16
  9
$PINSBASE
 10
0.0
 20
0.0
 30
0.0
  9
$PLIMCHECK
 70
     0
  9
$PEXTMIN
 10
1.000000000000000E+20
 20
1.000000000000000E+20
 30
1.000000000000000E+20
  9
$PEXTMAX
 10
-1.000000000000000E+20
 20
-1.000000000000000E+20
 30
-1.000000000000000E+20
  9
$PLIMMIN
 10
0.0
 20
0.0
  9
$PLIMMAX
 10
420.0
 20
297.0
  9
$UNITMODE
 70
     0
  9
$VISRETAIN
 70
     0
  9
$PLINEGEN
 70
     0
  9
$PSLTSCALE
 70
     0
  9
$TREEDEPTH
 70
  3020
  9
$CMLSTYLE
  2
STANDARD
  9
$CMLJUST
 70
     0
  9
$CMLSCALE
 40
1.0
  9
$PROXYGRAPHICS
 70
     1
  9
$MEASUREMENT
 70
     1
  9
$CELWEIGHT
370
    -1
  9
$ENDCAPS
280
     0
  9
$JOINSTYLE
280
     0
  9
$LWDISPLAY
290
     0
  9
$INSUNITS
 70
     0
  9
$HYPERLINKBASE
  1

  9
$STYLESHEET
  1

  9
$XEDIT
290
     1
  9
$CEPSNTYPE
380
     0
  9
$PSTYLEMODE
290
     1
  9
$FINGERPRINTGUID
  2
{5EAC461A-2277-4BF8-9AB0-99C43BB394F0}
  9
$VERSIONGUID
  2
{B16CA3B9-CB1F-4DDB-B997-3CD8802A7DD1}
  9
$EXTNAMES
290
     1
  9
$PSVPSCALE
 40
0.0
  9
$OLESTARTUP
290
     0
  0
ENDSEC
  0
SECTION
  2
CLASSES
  0
CLASS
  1
ACDBDICTIONARYWDFLT
  2
AcDbDictionaryWithDefault
  3
ObjectDBX Classes
 90
        0
280
     0
281
     0
  0
CLASS
  1
DICTIONARYVAR
  2
AcDbDictionaryVar
  3
ObjectDBX Classes
 90
        0
280
     0
281
     0
  0
CLASS
  1
ACDBPLACEHOLDER
  2
AcDbPlaceHolder
  3
ObjectDBX Classes
 90
        0
280
     0
281
     0
  0
CLASS
  1
LAYOUT
  2
AcDbLayout
  3
ObjectDBX Classes
 90
        0
280
     0
281
     0
  0
ENDSEC
  0
SECTION
  2
TABLES
  0
TABLE
  2
VPORT
  5
746D
330
0
100
AcDbSymbolTable
 70
     2
  0
VPORT
  5
25007
330
746D
100
AcDbSymbolTableRecord
100
AcDbViewportTableRecord
  2
*Active
 70
     0
 10
0.0
 20
0.0
 11
1.0
 21
1.0
 12
8400.0
 22
6532.386359045581
 13
0.0
 23
0.0
 14
10.0
 24
10.0
 15
10.0
 25
10.0
 16
0.0
 26
0.0
 36
1.0
 17
0.0
 27
0.0
 37
0.0
 40
13160.16200362426
 41
1.522222222222222
 42
50.0
 43
0.0
 44
0.0
 50
0.0
 51
0.0
 71
     0
 72
     0
 73
     1
 74
     0
 75
     0
 76
     0
 77
     0
 78
     0
281
     0
 65
     1
110
0.0
120
0.0
130
0.0
111
1.0
121
0.0
131
0.0
112
0.0
122
1.0
132
0.0
 79
     0
146
0.0
  0
ENDTAB
  0
TABLE
  2
LTYPE
  5
746A
330
0
100
AcDbSymbolTable
 70
     5
  0
LTYPE
  5
7477
330
746A
100
AcDbSymbolTableRecord
100
AcDbLinetypeTableRecord
  2
BYBLOCK
 70
     0
  3

 72
    65
 73
     0
 40
0.0
  0
LTYPE
  5
7478
330
746A
100
AcDbSymbolTableRecord
100
AcDbLinetypeTableRecord
  2
BYLAYER
 70
     0
  3

 72
    65
 73
     0
 40
0.0
  0
LTYPE
  5
7479
330
746A
100
AcDbSymbolTableRecord
100
AcDbLinetypeTableRecord
  2
CONTINUOUS
 70
     0
  3
Solid line
 72
    65
 73
     0
 40
0.0
  0
LTYPE
  5
7816
330
746A
100
AcDbSymbolTableRecord
100
AcDbLinetypeTableRecord
  2
CENTER
 70
     0
  3
____ _ ____ _ ____ _ ____ _ ____ _ ____ _ ____ 
 72
    65
 73
     4
 40
2.0
 49
1.25
 74
     0
 49
-0.25
 74
     0
 49
0.25
 74
     0
 49
-0.25
 74
     0
  0
LTYPE
  5
781A
330
746A
100
AcDbSymbolTableRecord
100
AcDbLinetypeTableRecord
  2
HIDDEN
 70
     0
  3
__ __ __ __ __ __ __ __ __ __ __ __ __ __ __ __
 72
    65
 73
     2
 40
0.375
 49
0.25
 74
     0
 49
-0.125
 74
     0
  0
LTYPE
  5
781B
330
746A
100
AcDbSymbolTableRecord
100
AcDbLinetypeTableRecord
  2
PHANTOM
 70
     0
  3
______  __  __  ______  __  __  ______  __  __ 
 72
    65
 73
     6
 40
2.5
 49
1.25
 74
     0
 49
-0.25
 74
     0
 49
0.25
 74
     0
 49
-0.25
 74
     0
 49
0.25
 74
     0
 49
-0.25
 74
     0
  0
LTYPE
  5
12CC3
330
746A
100
AcDbSymbolTableRecord
100
AcDbLinetypeTableRecord
  2
HIDDENX2
 70
     0
  3
Hidden (2x) ____ ____ ____ ____ ____ ____ ____
 72
    65
 73
     2
 40
19.05
 49
12.7
 74
     0
 49
-6.349999999999999
 74
     0
  0
ENDTAB
  0
TABLE
  2
LAYER
  5
7467
102
{ACAD_XDICTIONARY
360
1758F
102
}
330
0
100
AcDbSymbolTable
 70
    12
  0
LAYER
  5
7474
330
7467
100
AcDbSymbolTableRecord
100
AcDbLayerTableRecord
  2
0
 70
     0
 62
     7
  6
CONTINUOUS
370
    -3
390
173D0
  0
LAYER
  5
DEB2
330
7467
100
AcDbSymbolTableRecord
100
AcDbLayerTableRecord
  2
センター
 70
     0
 62
     3
  6
CENTER
370
    -3
390
173D0
  0
LAYER
  5
DEB3
330
7467
100
AcDbSymbolTableRecord
100
AcDbLayerTableRecord
  2
寸法
 70
     0
 62
     4
  6
CONTINUOUS
370
    -3
390
173D0
  0
LAYER
  5
DEB4
330
7467
100
AcDbSymbolTableRecord
100
AcDbLayerTableRecord
  2
部品1
 70
     0
 62
     7
  6
CONTINUOUS
370
    -3
390
173D0
  0
LAYER
  5
DEB5
330
7467
100
AcDbSymbolTableRecord
100
AcDbLayerTableRecord
  2
補助
 70
     0
 62
    -1
  6
CONTINUOUS
370
    -3
390
173D0
  0
LAYER
  5
DEB6
330
7467
100
AcDbSymbolTableRecord
100
AcDbLayerTableRecord
  2
文字
 70
     0
 62
     7
  6
CONTINUOUS
370
    -3
390
173D0
  0
LAYER
  5
F255
330
7467
100
AcDbSymbolTableRecord
100
AcDbLayerTableRecord
  2
DEFPOINTS
 70
     0
 62
     7
  6
CONTINUOUS
290
     0
370
    -3
390
173D0
  0
LAYER
  5
10B54
330
7467
100
AcDbSymbolTableRecord
100
AcDbLayerTableRecord
  2
仕様書枠
 70
     0
 62
   230
  6
CONTINUOUS
370
    -3
390
173D0
  0
LAYER
  5
11729
330
7467
100
AcDbSymbolTableRecord
100
AcDbLayerTableRecord
  2
Ｇ．Ｌ
 70
     0
 62
    30
  6
CONTINUOUS
370
    -3
390
173D0
  0
LAYER
  5
1173F
330
7467
100
AcDbSymbolTableRecord
100
AcDbLayerTableRecord
  2
細線
 70
     0
 62
     5
  6
CONTINUOUS
370
    -3
390
173D0
  0
LAYER
  5
12CC4
330
7467
100
AcDbSymbolTableRecord
100
AcDbLayerTableRecord
  2
想像線
 70
     0
 62
     6
  6
PHANTOM
370
    -3
390
173D0
  0
LAYER
  5
142E2
330
7467
100
AcDbSymbolTableRecord
100
AcDbLayerTableRecord
  2
破線
 70
     0
 62
     2
  6
HIDDEN
370
    -3
390
173D0
  0
ENDTAB
  0
TABLE
  2
STYLE
  5
7468
330
0
100
AcDbSymbolTable
 70
     7
  0
STYLE
  5
7475
330
7468
100
AcDbSymbolTableRecord
100
AcDbTextStyleTableRecord
  2
STANDARD
 70
     0
 40
0.0
 41
1.0
 50
0.0
 71
     0
 42
4.0
  3
txt
  4
C:\AutoCAD LT\bigfont.shx
  0
STYLE
  5
763C
330
7468
100
AcDbSymbolTableRecord
100
AcDbTextStyleTableRecord
  2
MSMINCHO
 70
     0
 40
0.0
 41
1.0
 50
0.0
 71
     0
 42
1.199999999999999
  3
C:\AutoCAD LT\msminch2.TTF
  4

  0
STYLE
  5
F706
330
7468
100
AcDbSymbolTableRecord
100
AcDbTextStyleTableRecord
  2
STYLE1
 70
     0
 40
0.0
 41
1.0
 50
0.0
 71
     0
 42
4.0
  3
isocp.shx
  4
bigfont.shx
  0
STYLE
  5
103BF
330
7468
100
AcDbSymbolTableRecord
100
AcDbTextStyleTableRecord
  2
STYLE2
 70
     0
 40
0.0
 41
1.0
 50
0.0
 71
     0
 42
100.0
  3
MS PGothic.ttf
  4

1001
ACAD
1000
MS PGothic
1071
    32818
  0
STYLE
  5
10BAA
330
7468
100
AcDbSymbolTableRecord
100
AcDbTextStyleTableRecord
  2
STYLE3
 70
     0
 40
0.0
 41
1.0
 50
0.0
 71
     0
 42
100.0
  3

  4

1001
ACAD
1000
DFPGothic-EB
1071
    32818
  0
STYLE
  5
11A15
330
7468
100
AcDbSymbolTableRecord
100
AcDbTextStyleTableRecord
  2
MSGOTHIC
 70
     0
 40
0.0
 41
1.0
 50
0.0
 71
     0
 42
3.5
  3
msgothi2.ttf
  4

  0
STYLE
  5
13E96
330
7468
100
AcDbSymbolTableRecord
100
AcDbTextStyleTableRecord
  2
MSPゴシック
 70
     0
 40
0.0
 41
1.0
 50
0.0
 71
     0
 42
4.0
  3
MS PGothic.ttf
  4

1001
ACAD
1000
MS PGothic
1071
    32818
  0
ENDTAB
  0
TABLE
  2
VIEW
  5
746B
330
0
100
AcDbSymbolTable
 70
     0
  0
ENDTAB
  0
TABLE
  2
UCS
  5
746C
330
0
100
AcDbSymbolTable
 70
     0
  0
ENDTAB
  0
TABLE
  2
APPID
  5
746E
330
0
100
AcDbSymbolTable
 70
     6
  0
APPID
  5
7476
330
746E
100
AcDbSymbolTableRecord
100
AcDbRegAppTableRecord
  2
ACAD
 70
     0
  0
APPID
  5
DEA9
330
746E
100
AcDbSymbolTableRecord
100
AcDbRegAppTableRecord
  2
CONTENTBLOCKICON
 70
     0
  0
APPID
  5
DEAA
330
746E
100
AcDbSymbolTableRecord
100
AcDbRegAppTableRecord
  2
CONTENTBLOCKDESCRIPTION
 70
     0
  0
APPID
  5
E71D
330
746E
100
AcDbSymbolTableRecord
100
AcDbRegAppTableRecord
  2
CONTENTTABDATA
 70
     0
  0
APPID
  5
E71E
330
746E
100
AcDbSymbolTableRecord
100
AcDbRegAppTableRecord
  2
CONTENTCURRENTTAB
 70
     0
  0
APPID
  5
F3BA
330
746E
100
AcDbSymbolTableRecord
100
AcDbRegAppTableRecord
  2
DRAWINGVARIABLESXDATA
 70
     0
  0
ENDTAB
  0
TABLE
  2
DIMSTYLE
  5
746F
330
0
100
AcDbSymbolTable
 70
     6
100
AcDbDimStyleTable
 71
     1
340
F71F
  0
DIMSTYLE
105
7484
330
746F
100
AcDbSymbolTableRecord
100
AcDbDimStyleTableRecord
  2
JIS
 70
     0
 41
2.5
 42
1.0
 43
7.0
 44
1.0
 73
     0
 74
     0
 77
     1
 78
     8
140
2.5
141
0.0
143
0.0394
147
0.0
172
     1
174
     1
175
     1
340
7475
  0
DIMSTYLE
105
F236
330
746F
100
AcDbSymbolTableRecord
100
AcDbDimStyleTableRecord
  2
INABA_S40
 70
     0
 40
40.0
 41
2.5
 42
0.5
 43
7.0
 44
1.5
 73
     0
 74
     0
 77
     3
 78
     8
140
3.0
141
0.0
143
0.0394
147
1.0
172
     1
173
     1
174
     1
175
     1
178
     7
289
     0
340
7475
341
DEAC
343
DEAC
344
DEAC
  0
DIMSTYLE
105
F71F
102
{ACAD_REACTORS
330
20DE1
330
20DFB
330
22741
330
2275B
330
23FDA
330
23FD9
330
24043
330
246DF
330
246BF
330
2469C
330
2466E
330
24661
330
24660
330
2465D
330
24673
330
2469A
330
24672
330
2466D
330
2466C
330
24668
330
24677
330
24EFE
330
24F5E
330
24F61
330
24F68
330
24F70
330
24F71
102
}
330
746F
100
AcDbSymbolTableRecord
100
AcDbDimStyleTableRecord
  2
INABA_S40G
 70
     0
 40
40.0
 41
2.5
 42
0.5
 43
7.0
 44
1.5
 73
     0
 74
     0
 77
     3
 78
     8
140
3.0
141
0.0
143
0.0394
147
1.0
172
     1
173
     1
174
     1
178
     7
271
     1
340
F706
341
F770
343
F770
344
F770
  0
DIMSTYLE
105
142E3
330
746F
100
AcDbSymbolTableRecord
100
AcDbDimStyleTableRecord
  2
INABA_S1
 70
     0
 40
0.0
 41
2.5
 42
0.5
 43
7.0
 44
1.5
 73
     0
 74
     0
 77
     3
 78
     8
140
3.0
141
0.0
143
0.0394
146
0.5
147
0.5
172
     1
173
     1
176
   256
177
   256
178
     7
271
     2
272
     2
284
     8
288
     1
340
7475
341
DEAC
343
DEAC
344
DEAC
  0
DIMSTYLE
105
14463
330
746F
100
AcDbSymbolTableRecord
100
AcDbDimStyleTableRecord
  2
INABA_S30G
 70
     0
 40
30.0
 41
2.5
 42
0.5
 43
7.0
 44
1.5
 73
     0
 74
     0
 77
     3
 78
     8
140
3.0
141
0.0
143
0.0394
147
1.0
172
     1
173
     1
174
     1
175
     1
178
     7
271
     1
340
F706
341
F770
343
F770
344
F770
  0
DIMSTYLE
105
1758E
330
746F
100
AcDbSymbolTableRecord
100
AcDbDimStyleTableRecord
  2
INABA_S50G
 70
     0
 41
125.0
 42
25.0
 43
7.0
 44
75.0
 73
     0
 74
     0
 77
     3
 78
     8
140
150.0
141
0.0
143
0.0394
147
25.0
172
     1
173
     1
174
     1
175
     1
178
     7
271
     1
340
F706
341
F770
343
F770
344
F770
  0
ENDTAB
  0
TABLE
  2
BLOCK_RECORD
  5
7466
330
0
100
AcDbSymbolTable
 70
    56
  0
BLOCK_RECORD
  5
747D
330
7466
100
AcDbSymbolTableRecord
100
AcDbBlockTableRecord
  2
*MODEL_SPACE
340
173D5
  0
BLOCK_RECORD
  5
747A
330
7466
100
AcDbSymbolTableRecord
100
AcDbBlockTableRecord
  2
*PAPER_SPACE
340
173D6
  0
BLOCK_RECORD
  5
DEAC
330
7466
100
AcDbSymbolTableRecord
100
AcDbBlockTableRecord
  2
_OPEN
340
0
  0
BLOCK_RECORD
  5
F770
330
7466
100
AcDbSymbolTableRecord
100
AcDbBlockTableRecord
  2
_DOTSMALL
340
0
102
{BLKREFS
331
18C65
331
18C66
331
18C59
331
18C5A
331
18C4D
331
18C4E
331
18C41
331
18C42
331
18C35
331
18C36
331
18C29
331
18C2A
331
18C1D
331
18C1E
331
18C0F
331
18C10
331
18C03
331
18C04
331
18BF5
331
18BF6
331
18BE7
331
18BE8
331
18BD9
331
18BDA
331
18BCD
331
18BCE
331
21316
331
21317
331
21321
331
21322
331
2132A
331
2132B
331
24B11
331
24B12
331
24B24
331
24B25
331
24B2E
331
24B2F
331
24B40
331
24B41
331
24B5C
331
24B5D
331
24B77
331
24B78
331
24B80
331
24B81
331
24B9D
331
24B9E
331
24BB2
331
24BB3
331
24BBD
331
24BBE
331
24BC8
331
24BC9
331
24BD3
331
24BD4
331
24BF7
331
24BF8
331
24C00
331
24C01
331
24C53
331
24C54
331
24C5D
331
24C5E
331
24C6F
331
24C70
331
24C78
331
24C79
331
24C81
331
24C82
331
24C93
331
24C94
331
24C9C
331
24C9D
331
24CBD
331
24CBE
331
24D06
331
24D07
331
24CFA
331
24CFB
331
24CEE
331
24CEF
331
24CE2
331
24CE3
331
24CD6
331
24CD7
331
24CC8
331
24CC9
331
24FC8
331
24FC9
331
24FD1
331
24FD2
331
24FDA
331
24FDB
331
24FE3
331
24FE4
331
24FEE
331
24FEF
331
24FF7
331
24FF8
102
}
  0
BLOCK_RECORD
  5
164B4
330
7466
100
AcDbSymbolTableRecord
100
AcDbBlockTableRecord
  2
_DOT
340
0
102
{BLKREFS
331
18C73
331
18C74
102
}
  0
BLOCK_RECORD
  5
18BC8
330
7466
100
AcDbSymbolTableRecord
100
AcDbBlockTableRecord
  2
*D3
340
0
  0
BLOCK_RECORD
  5
18BD4
330
7466
100
AcDbSymbolTableRecord
100
AcDbBlockTableRecord
  2
*D4
340
0
  0
BLOCK_RECORD
  5
18BE0
330
7466
100
AcDbSymbolTableRecord
100
AcDbBlockTableRecord
  2
*D5
340
0
  0
BLOCK_RECORD
  5
18BEE
330
7466
100
AcDbSymbolTableRecord
100
AcDbBlockTableRecord
  2
*D6
340
0
  0
BLOCK_RECORD
  5
18BFC
330
7466
100
AcDbSymbolTableRecord
100
AcDbBlockTableRecord
  2
*D7
340
0
  0
BLOCK_RECORD
  5
18C0A
330
7466
100
AcDbSymbolTableRecord
100
AcDbBlockTableRecord
  2
*D8
340
0
  0
BLOCK_RECORD
  5
18C16
330
7466
100
AcDbSymbolTableRecord
100
AcDbBlockTableRecord
  2
*D9
340
0
  0
BLOCK_RECORD
  5
18C24
330
7466
100
AcDbSymbolTableRecord
100
AcDbBlockTableRecord
  2
*D10
340
0
  0
BLOCK_RECORD
  5
18C30
330
7466
100
AcDbSymbolTableRecord
100
AcDbBlockTableRecord
  2
*D11
340
0
  0
BLOCK_RECORD
  5
18C3C
330
7466
100
AcDbSymbolTableRecord
100
AcDbBlockTableRecord
  2
*D12
340
0
  0
BLOCK_RECORD
  5
18C48
330
7466
100
AcDbSymbolTableRecord
100
AcDbBlockTableRecord
  2
*D13
340
0
  0
BLOCK_RECORD
  5
18C54
330
7466
100
AcDbSymbolTableRecord
100
AcDbBlockTableRecord
  2
*D14
340
0
  0
BLOCK_RECORD
  5
18C60
330
7466
100
AcDbSymbolTableRecord
100
AcDbBlockTableRecord
  2
*D15
340
0
  0
BLOCK_RECORD
  5
18C6C
330
7466
100
AcDbSymbolTableRecord
100
AcDbBlockTableRecord
  2
*D16
340
0
  0
BLOCK_RECORD
  5
18C7A
330
7466
100
AcDbSymbolTableRecord
100
AcDbBlockTableRecord
  2
A$C3B1A506B
340
0
  0
BLOCK_RECORD
  5
1C4CA
330
7466
100
AcDbSymbolTableRecord
100
AcDbBlockTableRecord
  2
_NONE
340
0
  0
BLOCK_RECORD
  5
20DE2
330
7466
100
AcDbSymbolTableRecord
100
AcDbBlockTableRecord
  2
*D19
340
0
  0
BLOCK_RECORD
  5
20DFC
330
7466
100
AcDbSymbolTableRecord
100
AcDbBlockTableRecord
  2
*D20
340
0
  0
BLOCK_RECORD
  5
22742
330
7466
100
AcDbSymbolTableRecord
100
AcDbBlockTableRecord
  2
*D25
340
0
  0
BLOCK_RECORD
  5
2275C
330
7466
100
AcDbSymbolTableRecord
100
AcDbBlockTableRecord
  2
*D26
340
0
  0
BLOCK_RECORD
  5
240C4
330
7466
100
AcDbSymbolTableRecord
100
AcDbBlockTableRecord
  2
*D27
340
0
  0
BLOCK_RECORD
  5
240D1
330
7466
100
AcDbSymbolTableRecord
100
AcDbBlockTableRecord
  2
*D28
340
0
  0
BLOCK_RECORD
  5
240DE
330
7466
100
AcDbSymbolTableRecord
100
AcDbBlockTableRecord
  2
*D29
340
0
  0
BLOCK_RECORD
  5
246F3
330
7466
100
AcDbSymbolTableRecord
100
AcDbBlockTableRecord
  2
*D30
340
0
  0
BLOCK_RECORD
  5
246FF
330
7466
100
AcDbSymbolTableRecord
100
AcDbBlockTableRecord
  2
*D31
340
0
  0
BLOCK_RECORD
  5
2470C
330
7466
100
AcDbSymbolTableRecord
100
AcDbBlockTableRecord
  2
*D32
340
0
  0
BLOCK_RECORD
  5
24724
330
7466
100
AcDbSymbolTableRecord
100
AcDbBlockTableRecord
  2
*D33
340
0
  0
BLOCK_RECORD
  5
24730
330
7466
100
AcDbSymbolTableRecord
100
AcDbBlockTableRecord
  2
*D34
340
0
  0
BLOCK_RECORD
  5
2474A
330
7466
100
AcDbSymbolTableRecord
100
AcDbBlockTableRecord
  2
*D35
340
0
  0
BLOCK_RECORD
  5
24761
330
7466
100
AcDbSymbolTableRecord
100
AcDbBlockTableRecord
  2
*D36
340
0
  0
BLOCK_RECORD
  5
24787
330
7466
100
AcDbSymbolTableRecord
100
AcDbBlockTableRecord
  2
*D37
340
0
  0
BLOCK_RECORD
  5
247AE
330
7466
100
AcDbSymbolTableRecord
100
AcDbBlockTableRecord
  2
*D38
340
0
  0
BLOCK_RECORD
  5
247BA
330
7466
100
AcDbSymbolTableRecord
100
AcDbBlockTableRecord
  2
*D39
340
0
  0
BLOCK_RECORD
  5
247C5
330
7466
100
AcDbSymbolTableRecord
100
AcDbBlockTableRecord
  2
*D40
340
0
  0
BLOCK_RECORD
  5
247D1
330
7466
100
AcDbSymbolTableRecord
100
AcDbBlockTableRecord
  2
*D41
340
0
  0
BLOCK_RECORD
  5
247DD
330
7466
100
AcDbSymbolTableRecord
100
AcDbBlockTableRecord
  2
*D42
340
0
  0
BLOCK_RECORD
  5
247E9
330
7466
100
AcDbSymbolTableRecord
100
AcDbBlockTableRecord
  2
*D43
340
0
  0
BLOCK_RECORD
  5
24F7B
330
7466
100
AcDbSymbolTableRecord
100
AcDbBlockTableRecord
  2
*D50
340
0
  0
BLOCK_RECORD
  5
24F87
330
7466
100
AcDbSymbolTableRecord
100
AcDbBlockTableRecord
  2
*D51
340
0
  0
BLOCK_RECORD
  5
24F93
330
7466
100
AcDbSymbolTableRecord
100
AcDbBlockTableRecord
  2
*D52
340
0
  0
BLOCK_RECORD
  5
24F9F
330
7466
100
AcDbSymbolTableRecord
100
AcDbBlockTableRecord
  2
*D53
340
0
  0
BLOCK_RECORD
  5
24FAB
330
7466
100
AcDbSymbolTableRecord
100
AcDbBlockTableRecord
  2
*D54
340
0
  0
BLOCK_RECORD
  5
24FB9
330
7466
100
AcDbSymbolTableRecord
100
AcDbBlockTableRecord
  2
*D55
340
0
  0
ENDTAB
  0
ENDSEC
  0
SECTION
  2
BLOCKS
  0
BLOCK
  5
7489
330
747D
100
AcDbEntity
  8
0
100
AcDbBlockBegin
  2
*MODEL_SPACE
 70
     0
 10
0.0
 20
0.0
 30
0.0
  3
*MODEL_SPACE
  1

  0
ENDBLK
  5
748A
330
747D
100
AcDbEntity
  8
0
100
AcDbBlockEnd
  0
BLOCK
  5
7487
330
747A
100
AcDbEntity
 67
     1
  8
0
100
AcDbBlockBegin
  2
*PAPER_SPACE
 70
     0
 10
0.0
 20
0.0
 30
0.0
  3
*PAPER_SPACE
  1

  0
ENDBLK
  5
7488
330
747A
100
AcDbEntity
 67
     1
  8
0
100
AcDbBlockEnd
  0
BLOCK
  5
DEAD
330
DEAC
100
AcDbEntity
  8
0
100
AcDbBlockBegin
  2
_OPEN
 70
     0
 10
0.0
 20
0.0
 30
0.0
  3
_OPEN
  1

  0
LINE
  5
DEAE
330
DEAC
100
AcDbEntity
  8
0
  6
ByBlock
 62
     0
100
AcDbLine
 10
-1.0
 20
0.1666666666666666
 30
0.0
 11
0.0
 21
0.0
 31
0.0
  0
LINE
  5
DEAF
330
DEAC
100
AcDbEntity
  8
0
  6
ByBlock
 62
     0
100
AcDbLine
 10
0.0
 20
0.0
 30
0.0
 11
-1.0
 21
-0.1666666666666666
 31
0.0
  0
LINE
  5
DEB0
330
DEAC
100
AcDbEntity
  8
0
  6
ByBlock
 62
     0
100
AcDbLine
 10
0.0
 20
0.0
 30
0.0
 11
-1.0
 21
0.0
 31
0.0
  0
ENDBLK
  5
DEB1
330
DEAC
100
AcDbEntity
  8
0
100
AcDbBlockEnd
  0
BLOCK
  5
F771
330
F770
100
AcDbEntity
  8
0
 48
50.0
100
AcDbBlockBegin
  2
_DOTSMALL
 70
     0
 10
0.0
 20
0.0
 30
0.0
  3
_DOTSMALL
  1

  0
LWPOLYLINE
  5
F772
330
F770
100
AcDbEntity
  8
0
  6
ByBlock
 62
     0
 48
50.0
100
AcDbPolyline
 90
        2
 70
     1
 43
0.5
 10
-0.0625
 20
0.0
 42
1.0
 10
0.0625
 20
0.0
 42
1.0
  0
ENDBLK
  5
F776
330
F770
100
AcDbEntity
  8
0
 48
50.0
100
AcDbBlockEnd
  0
BLOCK
  5
164BA
330
164B4
100
AcDbEntity
  8
0
 48
50.0
100
AcDbBlockBegin
  2
_DOT
 70
     0
 10
0.0
 20
0.0
 30
0.0
  3
_DOT
  1

  0
LWPOLYLINE
  5
164B5
330
164B4
100
AcDbEntity
  8
0
  6
ByBlock
 62
     0
 48
50.0
100
AcDbPolyline
 90
        2
 70
     1
 43
0.5
 10
-0.25
 20
0.0
 42
1.0
 10
0.25
 20
0.0
 42
1.0
  0
LINE
  5
164B9
330
164B4
100
AcDbEntity
  8
0
  6
ByBlock
 62
     0
 48
50.0
100
AcDbLine
 10
-0.5
 20
0.0
 30
0.0
 11
-1.0
 21
0.0
 31
0.0
  0
ENDBLK
  5
164BB
330
164B4
100
AcDbEntity
  8
0
 48
50.0
100
AcDbBlockEnd
  0
BLOCK
  5
18BC9
330
18BC8
100
AcDbEntity
  8
0
 48
50.0
100
AcDbBlockBegin
  2
*D3
 70
     1
 10
0.0
 20
0.0
 30
0.0
  3
*D3
  1

  0
LINE
  5
18BCA
330
18BC8
100
AcDbEntity
  8
寸法
 62
     0
 48
50.0
370
    -2
100
AcDbLine
 10
7649.896575106999
 20
9636.123139034717
 30
0.0
 11
8702.429862581047
 21
9636.123139034717
 31
0.0
  0
LINE
  5
18BCB
330
18BC8
100
AcDbEntity
  8
寸法
 62
     0
 48
50.0
370
    -2
100
AcDbLine
 10
7649.896575106973
 20
7846.123139034709
 30
0.0
 11
8702.429862581047
 21
7846.123139034709
 31
0.0
  0
LINE
  5
18BCC
330
18BC8
100
AcDbEntity
  8
寸法
 62
     0
 48
50.0
370
    -2
100
AcDbLine
 10
8642.429862581046
 20
9636.123139034717
 30
0.0
 11
8642.429862581046
 21
7846.123139034709
 31
0.0
  0
INSERT
  5
18BCD
330
18BC8
100
AcDbEntity
  8
寸法
 62
     0
 48
50.0
370
    -2
100
AcDbBlockReference
  2
_DOTSMALL
 10
8642.429862581046
 20
9636.123139034717
 30
0.0
 41
100.0
 42
100.0
 43
100.0
 50
90.0
  0
INSERT
  5
18BCE
330
18BC8
100
AcDbEntity
  8
寸法
 62
     0
 48
50.0
370
    -2
100
AcDbBlockReference
  2
_DOTSMALL
 10
8642.429862581046
 20
7846.123139034709
 30
0.0
 41
100.0
 42
100.0
 43
100.0
 50
270.0
  0
MTEXT
  5
18BCF
330
18BC8
100
AcDbEntity
  8
寸法
 62
     7
 48
50.0
100
AcDbMText
 10
8542.429862581045
 20
8741.123139034712
 30
0.0
 40
120.0
 41
0.0
 71
     5
 72
     1
  1
\A1;1790
  7
STYLE1
 11
0.0000000000000001
 21
1.0
 31
0.0
 73
     1
 44
1.0
1001
ACAD
1000
MTEXTBEGIN
1070
    73
1070
     1
1070
    44
1040
1.0
1070
    74
1070
     0
1000
MTEXTEND
  0
POINT
  5
18BD0
330
18BC8
100
AcDbEntity
  8
DEFPOINTS
 62
     0
 48
50.0
100
AcDbPoint
 10
7629.896575106998
 20
9636.123139034717
 30
0.0
  0
POINT
  5
18BD1
330
18BC8
100
AcDbEntity
  8
DEFPOINTS
 62
     0
 48
50.0
100
AcDbPoint
 10
7629.896575106974
 20
7846.123139034709
 30
0.0
  0
POINT
  5
18BD2
330
18BC8
100
AcDbEntity
  8
DEFPOINTS
 62
     0
 48
50.0
100
AcDbPoint
 10
8642.429862581046
 20
7846.123139034709
 30
0.0
  0
ENDBLK
  5
18BD3
330
18BC8
100
AcDbEntity
  8
0
 48
50.0
100
AcDbBlockEnd
  0
BLOCK
  5
18BD5
330
18BD4
100
AcDbEntity
  8
0
 48
50.0
100
AcDbBlockBegin
  2
*D4
 70
     1
 10
0.0
 20
0.0
 30
0.0
  3
*D4
  1

  0
LINE
  5
18BD6
330
18BD4
100
AcDbEntity
  8
寸法
 62
     0
 48
50.0
370
    -2
100
AcDbLine
 10
4214.896575106998
 20
9656.123139034622
 30
0.0
 11
4214.896575106998
 21
10211.93135865972
 31
0.0
  0
LINE
  5
18BD7
330
18BD4
100
AcDbEntity
  8
寸法
 62
     0
 48
50.0
370
    -2
100
AcDbLine
 10
7574.896575106999
 20
9656.123139034718
 30
0.0
 11
7574.896575106999
 21
10211.93135865972
 31
0.0
  0
LINE
  5
18BD8
330
18BD4
100
AcDbEntity
  8
寸法
 62
     0
 48
50.0
370
    -2
100
AcDbLine
 10
4214.896575106998
 20
10151.93135865972
 30
0.0
 11
7574.896575106999
 21
10151.93135865972
 31
0.0
  0
INSERT
  5
18BD9
330
18BD4
100
AcDbEntity
  8
寸法
 62
     0
 48
50.0
370
    -2
100
AcDbBlockReference
  2
_DOTSMALL
 10
4214.896575106998
 20
10151.93135865972
 30
0.0
 41
100.0
 42
100.0
 43
100.0
 50
180.0
  0
INSERT
  5
18BDA
330
18BD4
100
AcDbEntity
  8
寸法
 62
     0
 48
50.0
370
    -2
100
AcDbBlockReference
  2
_DOTSMALL
 10
7574.896575106999
 20
10151.93135865972
 30
0.0
 41
100.0
 42
100.0
 43
100.0
  0
MTEXT
  5
18BDB
330
18BD4
100
AcDbEntity
  8
寸法
 62
     7
 48
50.0
100
AcDbMText
 10
5894.896575106997
 20
10251.94316968334
 30
0.0
 40
120.0
 41
0.0
 71
     5
 72
     1
  1
\A1;8X420=3360
  7
STYLE1
 73
     1
 44
1.0
1001
ACAD
1000
MTEXTBEGIN
1070
    73
1070
     1
1070
    44
1040
1.0
1070
    74
1070
     0
1000
MTEXTEND
  0
POINT
  5
18BDC
330
18BD4
100
AcDbEntity
  8
DEFPOINTS
 62
     0
 48
50.0
100
AcDbPoint
 10
4214.896575106998
 20
9636.123139034623
 30
0.0
  0
POINT
  5
18BDD
330
18BD4
100
AcDbEntity
  8
DEFPOINTS
 62
     0
 48
50.0
100
AcDbPoint
 10
7574.896575106999
 20
9636.123139034717
 30
0.0
  0
POINT
  5
18BDE
330
18BD4
100
AcDbEntity
  8
DEFPOINTS
 62
     0
 48
50.0
100
AcDbPoint
 10
7574.896575106999
 20
10151.93135865972
 30
0.0
  0
ENDBLK
  5
18BDF
330
18BD4
100
AcDbEntity
  8
0
 48
50.0
100
AcDbBlockEnd
  0
BLOCK
  5
18BE1
330
18BE0
100
AcDbEntity
  8
0
 48
50.0
100
AcDbBlockBegin
  2
*D5
 70
     1
 10
0.0
 20
0.0
 30
0.0
  3
*D5
  1

  0
LINE
  5
18BE2
330
18BE0
100
AcDbEntity
  8
寸法
 62
     0
 48
50.0
370
    -2
100
AcDbLine
 10
7574.896575106999
 20
9656.123139034718
 30
0.0
 11
7574.896575106999
 21
10211.9313586597
 31
0.0
  0
LINE
  5
18BE3
330
18BE0
100
AcDbEntity
  8
寸法
 62
     0
 48
50.0
370
    -2
100
AcDbLine
 10
7629.896575106998
 20
9656.123139034718
 30
0.0
 11
7629.896575106998
 21
10211.9313586597
 31
0.0
  0
LINE
  5
18BE4
330
18BE0
100
AcDbEntity
  8
寸法
 62
     0
 48
50.0
370
    -2
100
AcDbLine
 10
7574.896575106999
 20
10151.9313586597
 30
0.0
 11
7474.896575106999
 21
10151.9313586597
 31
0.0
  0
LINE
  5
18BE5
330
18BE0
100
AcDbEntity
  8
寸法
 62
     0
 48
50.0
370
    -2
100
AcDbLine
 10
7629.896575106998
 20
10151.9313586597
 30
0.0
 11
8046.867137855477
 21
10151.9313586597
 31
0.0
  0
LINE
  5
18BE6
330
18BE0
100
AcDbEntity
  8
寸法
 62
     0
 48
50.0
370
    -2
100
AcDbLine
 10
7574.896575106999
 20
10151.9313586597
 30
0.0
 11
7629.896575106998
 21
10151.9313586597
 31
0.0
  0
INSERT
  5
18BE7
330
18BE0
100
AcDbEntity
  8
寸法
 62
     0
 48
50.0
370
    -2
100
AcDbBlockReference
  2
_DOTSMALL
 10
7574.896575106999
 20
10151.9313586597
 30
0.0
 41
100.0
 42
100.0
 43
100.0
  0
INSERT
  5
18BE8
330
18BE0
100
AcDbEntity
  8
寸法
 62
     0
 48
50.0
370
    -2
100
AcDbBlockReference
  2
_DOTSMALL
 10
7629.896575106998
 20
10151.9313586597
 30
0.0
 41
100.0
 42
100.0
 43
100.0
 50
180.0
  0
MTEXT
  5
18BE9
330
18BE0
100
AcDbEntity
  8
寸法
 62
     7
 48
50.0
100
AcDbMText
 10
7938.381856481237
 20
10251.9313586597
 30
0.0
 40
120.0
 41
0.0
 71
     5
 72
     1
  1
\A1;55
  7
STYLE1
 73
     1
 44
1.0
1001
ACAD
1000
MTEXTBEGIN
1070
    73
1070
     1
1070
    44
1040
1.0
1070
    74
1070
     0
1000
MTEXTEND
  0
POINT
  5
18BEA
330
18BE0
100
AcDbEntity
  8
DEFPOINTS
 62
     0
 48
50.0
100
AcDbPoint
 10
7574.896575106999
 20
9636.123139034717
 30
0.0
  0
POINT
  5
18BEB
330
18BE0
100
AcDbEntity
  8
DEFPOINTS
 62
     0
 48
50.0
100
AcDbPoint
 10
7629.896575106998
 20
9636.123139034717
 30
0.0
  0
POINT
  5
18BEC
330
18BE0
100
AcDbEntity
  8
DEFPOINTS
 62
     0
 48
50.0
100
AcDbPoint
 10
7629.896575106998
 20
10151.9313586597
 30
0.0
  0
ENDBLK
  5
18BED
330
18BE0
100
AcDbEntity
  8
0
 48
50.0
100
AcDbBlockEnd
  0
BLOCK
  5
18BEF
330
18BEE
100
AcDbEntity
  8
0
 48
50.0
100
AcDbBlockBegin
  2
*D6
 70
     1
 10
0.0
 20
0.0
 30
0.0
  3
*D6
  1

  0
LINE
  5
18BF0
330
18BEE
100
AcDbEntity
  8
寸法
 62
     0
 48
50.0
370
    -2
100
AcDbLine
 10
7649.896575106999
 20
9636.123139034717
 30
0.0
 11
8337.32292084141
 21
9636.123139034717
 31
0.0
  0
LINE
  5
18BF1
330
18BEE
100
AcDbEntity
  8
寸法
 62
     0
 48
50.0
370
    -2
100
AcDbLine
 10
7649.896575106999
 20
9581.123139034721
 30
0.0
 11
8337.32292084141
 21
9581.123139034721
 31
0.0
  0
LINE
  5
18BF2
330
18BEE
100
AcDbEntity
  8
寸法
 62
     0
 48
50.0
370
    -2
100
AcDbLine
 10
8277.322920841411
 20
9581.123139034721
 30
0.0
 11
8277.322920841411
 21
9481.123139034719
 31
0.0
  0
LINE
  5
18BF3
330
18BEE
100
AcDbEntity
  8
寸法
 62
     0
 48
50.0
370
    -2
100
AcDbLine
 10
8277.322920841411
 20
9636.123139034717
 30
0.0
 11
8277.322920841411
 21
10053.09370178319
 31
0.0
  0
LINE
  5
18BF4
330
18BEE
100
AcDbEntity
  8
寸法
 62
     0
 48
50.0
370
    -2
100
AcDbLine
 10
8277.322920841411
 20
9581.123139034721
 30
0.0
 11
8277.322920841411
 21
9636.123139034717
 31
0.0
  0
INSERT
  5
18BF5
330
18BEE
100
AcDbEntity
  8
寸法
 62
     0
 48
50.0
370
    -2
100
AcDbBlockReference
  2
_DOTSMALL
 10
8277.322920841411
 20
9581.123139034721
 30
0.0
 41
100.0
 42
100.0
 43
100.0
 50
90.0
  0
INSERT
  5
18BF6
330
18BEE
100
AcDbEntity
  8
寸法
 62
     0
 48
50.0
370
    -2
100
AcDbBlockReference
  2
_DOTSMALL
 10
8277.322920841411
 20
9636.123139034717
 30
0.0
 41
100.0
 42
100.0
 43
100.0
 50
270.0
  0
MTEXT
  5
18BF7
330
18BEE
100
AcDbEntity
  8
寸法
 62
     7
 48
50.0
100
AcDbMText
 10
8177.32292084141
 20
9944.608420408957
 30
0.0
 40
120.0
 41
0.0
 71
     5
 72
     1
  1
\A1;55
  7
STYLE1
 11
0.0000000000000001
 21
1.0
 31
0.0
 73
     1
 44
1.0
1001
ACAD
1000
MTEXTBEGIN
1070
    73
1070
     1
1070
    44
1040
1.0
1070
    74
1070
     0
1000
MTEXTEND
  0
POINT
  5
18BF8
330
18BEE
100
AcDbEntity
  8
DEFPOINTS
 62
     0
 48
50.0
100
AcDbPoint
 10
7629.896575106998
 20
9636.123139034717
 30
0.0
  0
POINT
  5
18BF9
330
18BEE
100
AcDbEntity
  8
DEFPOINTS
 62
     0
 48
50.0
100
AcDbPoint
 10
7629.896575106998
 20
9581.123139034721
 30
0.0
  0
POINT
  5
18BFA
330
18BEE
100
AcDbEntity
  8
DEFPOINTS
 62
     0
 48
50.0
100
AcDbPoint
 10
8277.322920841411
 20
9581.123139034721
 30
0.0
  0
ENDBLK
  5
18BFB
330
18BEE
100
AcDbEntity
  8
0
 48
50.0
100
AcDbBlockEnd
  0
BLOCK
  5
18BFD
330
18BFC
100
AcDbEntity
  8
0
 48
50.0
100
AcDbBlockBegin
  2
*D7
 70
     1
 10
0.0
 20
0.0
 30
0.0
  3
*D7
  1

  0
LINE
  5
18BFE
330
18BFC
100
AcDbEntity
  8
寸法
 62
     0
 48
50.0
370
    -2
100
AcDbLine
 10
4159.896575106963
 20
9656.123139034622
 30
0.0
 11
4159.896575106963
 21
10211.9313586596
 31
0.0
  0
LINE
  5
18BFF
330
18BFC
100
AcDbEntity
  8
寸法
 62
     0
 48
50.0
370
    -2
100
AcDbLine
 10
4214.896575106998
 20
9656.123139034622
 30
0.0
 11
4214.896575106998
 21
10211.9313586596
 31
0.0
  0
LINE
  5
18C00
330
18BFC
100
AcDbEntity
  8
寸法
 62
     0
 48
50.0
370
    -2
100
AcDbLine
 10
4214.896575106998
 20
10151.9313586596
 30
0.0
 11
4314.896575106998
 21
10151.9313586596
 31
0.0
  0
LINE
  5
18C01
330
18BFC
100
AcDbEntity
  8
寸法
 62
     0
 48
50.0
370
    -2
100
AcDbLine
 10
4159.896575106963
 20
10151.9313586596
 30
0.0
 11
3742.926012358486
 21
10151.9313586596
 31
0.0
  0
LINE
  5
18C02
330
18BFC
100
AcDbEntity
  8
寸法
 62
     0
 48
50.0
370
    -2
100
AcDbLine
 10
4214.896575106998
 20
10151.9313586596
 30
0.0
 11
4159.896575106963
 21
10151.9313586596
 31
0.0
  0
INSERT
  5
18C03
330
18BFC
100
AcDbEntity
  8
寸法
 62
     0
 48
50.0
370
    -2
100
AcDbBlockReference
  2
_DOTSMALL
 10
4214.896575106998
 20
10151.9313586596
 30
0.0
 41
100.0
 42
100.0
 43
100.0
 50
180.0
  0
INSERT
  5
18C04
330
18BFC
100
AcDbEntity
  8
寸法
 62
     0
 48
50.0
370
    -2
100
AcDbBlockReference
  2
_DOTSMALL
 10
4159.896575106963
 20
10151.9313586596
 30
0.0
 41
100.0
 42
100.0
 43
100.0
  0
MTEXT
  5
18C05
330
18BFC
100
AcDbEntity
  8
寸法
 62
     7
 48
50.0
100
AcDbMText
 10
3851.411293732725
 20
10251.9313586596
 30
0.0
 40
120.0
 41
0.0
 71
     5
 72
     1
  1
\A1;55
  7
STYLE1
 73
     1
 44
1.0
1001
ACAD
1000
MTEXTBEGIN
1070
    73
1070
     1
1070
    44
1040
1.0
1070
    74
1070
     0
1000
MTEXTEND
  0
POINT
  5
18C06
330
18BFC
100
AcDbEntity
  8
DEFPOINTS
 62
     0
 48
50.0
100
AcDbPoint
 10
4159.896575106963
 20
9636.123139034623
 30
0.0
  0
POINT
  5
18C07
330
18BFC
100
AcDbEntity
  8
DEFPOINTS
 62
     0
 48
50.0
100
AcDbPoint
 10
4214.896575106998
 20
9636.123139034623
 30
0.0
  0
POINT
  5
18C08
330
18BFC
100
AcDbEntity
  8
DEFPOINTS
 62
     0
 48
50.0
100
AcDbPoint
 10
4214.896575106998
 20
10151.9313586596
 30
0.0
  0
ENDBLK
  5
18C09
330
18BFC
100
AcDbEntity
  8
0
 48
50.0
100
AcDbBlockEnd
  0
BLOCK
  5
18C0B
330
18C0A
100
AcDbEntity
  8
0
 48
50.0
100
AcDbBlockBegin
  2
*D8
 70
     1
 10
0.0
 20
0.0
 30
0.0
  3
*D8
  1

  0
LINE
  5
18C0C
330
18C0A
100
AcDbEntity
  8
寸法
 62
     0
 48
50.0
370
    -2
100
AcDbLine
 10
4159.896575106992
 20
7826.123139034546
 30
0.0
 11
4159.896575106992
 21
6804.372203245664
 31
0.0
  0
LINE
  5
18C0D
330
18C0A
100
AcDbEntity
  8
寸法
 62
     0
 48
50.0
370
    -2
100
AcDbLine
 10
7629.896575106974
 20
7826.123139034674
 30
0.0
 11
7629.896575106974
 21
6804.372203245664
 31
0.0
  0
LINE
  5
18C0E
330
18C0A
100
AcDbEntity
  8
寸法
 62
     0
 48
50.0
370
    -2
100
AcDbLine
 10
4159.896575106992
 20
6864.372203245665
 30
0.0
 11
7629.896575106974
 21
6864.372203245665
 31
0.0
  0
INSERT
  5
18C0F
330
18C0A
100
AcDbEntity
  8
寸法
 62
     0
 48
50.0
370
    -2
100
AcDbBlockReference
  2
_DOTSMALL
 10
4159.896575106992
 20
6864.372203245665
 30
0.0
 41
100.0
 42
100.0
 43
100.0
 50
180.0
  0
INSERT
  5
18C10
330
18C0A
100
AcDbEntity
  8
寸法
 62
     0
 48
50.0
370
    -2
100
AcDbBlockReference
  2
_DOTSMALL
 10
7629.896575106974
 20
6864.372203245665
 30
0.0
 41
100.0
 42
100.0
 43
100.0
  0
MTEXT
  5
18C11
330
18C0A
100
AcDbEntity
  8
寸法
 62
     7
 48
50.0
100
AcDbMText
 10
5911.12376113973
 20
6964.372203245665
 30
0.0
 40
120.0
 41
0.0
 71
     5
 72
     1
  1
\A1;3470
  7
STYLE1
 73
     1
 44
1.0
1001
ACAD
1000
MTEXTBEGIN
1070
    73
1070
     1
1070
    44
1040
1.0
1070
    74
1070
     0
1000
MTEXTEND
  0
POINT
  5
18C12
330
18C0A
100
AcDbEntity
  8
DEFPOINTS
 62
     0
 48
50.0
100
AcDbPoint
 10
4159.896575106992
 20
7846.123139034546
 30
0.0
  0
POINT
  5
18C13
330
18C0A
100
AcDbEntity
  8
DEFPOINTS
 62
     0
 48
50.0
100
AcDbPoint
 10
7629.896575106974
 20
7846.123139034673
 30
0.0
  0
POINT
  5
18C14
330
18C0A
100
AcDbEntity
  8
DEFPOINTS
 62
     0
 48
50.0
100
AcDbPoint
 10
7629.896575106974
 20
6864.372203245665
 30
0.0
  0
ENDBLK
  5
18C15
330
18C0A
100
AcDbEntity
  8
0
 48
50.0
100
AcDbBlockEnd
  0
BLOCK
  5
18C17
330
18C16
100
AcDbEntity
  8
0
 48
50.0
100
AcDbBlockBegin
  2
*D9
 70
     1
 10
0.0
 20
0.0
 30
0.0
  3
*D9
  1

  0
LINE
  5
18C18
330
18C16
100
AcDbEntity
  8
寸法
 62
     0
 48
50.0
370
    -2
100
AcDbLine
 10
7649.896575106973
 20
7901.123139034706
 30
0.0
 11
8337.322920841385
 21
7901.123139034706
 31
0.0
  0
LINE
  5
18C19
330
18C16
100
AcDbEntity
  8
寸法
 62
     0
 48
50.0
370
    -2
100
AcDbLine
 10
7649.896575106973
 20
7846.123139034709
 30
0.0
 11
8337.322920841385
 21
7846.123139034709
 31
0.0
  0
LINE
  5
18C1A
330
18C16
100
AcDbEntity
  8
寸法
 62
     0
 48
50.0
370
    -2
100
AcDbLine
 10
8277.322920841385
 20
7901.123139034706
 30
0.0
 11
8277.322920841385
 21
8001.123139034707
 31
0.0
  0
LINE
  5
18C1B
330
18C16
100
AcDbEntity
  8
寸法
 62
     0
 48
50.0
370
    -2
100
AcDbLine
 10
8277.322920841385
 20
7846.123139034709
 30
0.0
 11
8277.322920841385
 21
7429.152576286229
 31
0.0
  0
LINE
  5
18C1C
330
18C16
100
AcDbEntity
  8
寸法
 62
     0
 48
50.0
370
    -2
100
AcDbLine
 10
8277.322920841385
 20
7901.123139034706
 30
0.0
 11
8277.322920841385
 21
7846.123139034709
 31
0.0
  0
INSERT
  5
18C1D
330
18C16
100
AcDbEntity
  8
寸法
 62
     0
 48
50.0
370
    -2
100
AcDbBlockReference
  2
_DOTSMALL
 10
8277.322920841385
 20
7901.123139034706
 30
0.0
 41
100.0
 42
100.0
 43
100.0
 50
270.0
  0
INSERT
  5
18C1E
330
18C16
100
AcDbEntity
  8
寸法
 62
     0
 48
50.0
370
    -2
100
AcDbBlockReference
  2
_DOTSMALL
 10
8277.322920841385
 20
7846.123139034709
 30
0.0
 41
100.0
 42
100.0
 43
100.0
 50
90.0
  0
MTEXT
  5
18C1F
330
18C16
100
AcDbEntity
  8
寸法
 62
     7
 48
50.0
100
AcDbMText
 10
8177.322920841383
 20
7537.637857660469
 30
0.0
 40
120.0
 41
0.0
 71
     5
 72
     1
  1
\A1;55
  7
STYLE1
 11
0.0000000000000001
 21
1.0
 31
0.0
 73
     1
 44
1.0
1001
ACAD
1000
MTEXTBEGIN
1070
    73
1070
     1
1070
    44
1040
1.0
1070
    74
1070
     0
1000
MTEXTEND
  0
POINT
  5
18C20
330
18C16
100
AcDbEntity
  8
DEFPOINTS
 62
     0
 48
50.0
100
AcDbPoint
 10
7629.896575106974
 20
7901.123139034706
 30
0.0
  0
POINT
  5
18C21
330
18C16
100
AcDbEntity
  8
DEFPOINTS
 62
     0
 48
50.0
100
AcDbPoint
 10
7629.896575106974
 20
7846.123139034709
 30
0.0
  0
POINT
  5
18C22
330
18C16
100
AcDbEntity
  8
DEFPOINTS
 62
     0
 48
50.0
100
AcDbPoint
 10
8277.322920841385
 20
7846.123139034709
 30
0.0
  0
ENDBLK
  5
18C23
330
18C16
100
AcDbEntity
  8
0
 48
50.0
100
AcDbBlockEnd
  0
BLOCK
  5
18C25
330
18C24
100
AcDbEntity
  8
0
 48
50.0
100
AcDbBlockBegin
  2
*D10
 70
     1
 10
0.0
 20
0.0
 30
0.0
  3
*D10
  1

  0
LINE
  5
18C26
330
18C24
100
AcDbEntity
  8
寸法
 62
     0
 48
50.0
370
    -2
100
AcDbLine
 10
6533.037591258376
 20
9136.123139034728
 30
0.0
 11
6465.083950562664
 21
8882.516699399049
 31
0.0
  0
LINE
  5
18C27
330
18C24
100
AcDbEntity
  8
寸法
 62
     0
 48
50.0
370
    -2
100
AcDbLine
 10
7596.037591258388
 20
9136.123139034721
 30
0.0
 11
7528.083950562677
 21
8882.516699399049
 31
0.0
  0
LINE
  5
18C28
330
18C24
100
AcDbEntity
  8
寸法
 62
     0
 48
50.0
370
    -2
100
AcDbLine
 10
6481.160902108531
 20
8942.51669939905
 30
0.0
 11
7544.160902108544
 21
8942.51669939905
 31
0.0
  0
INSERT
  5
18C29
330
18C24
100
AcDbEntity
  8
寸法
 62
     0
 48
50.0
370
    -2
100
AcDbBlockReference
  2
_DOTSMALL
 10
6481.160902108531
 20
8942.51669939905
 30
0.0
 41
100.0
 42
100.0
 43
100.0
 50
180.0
  0
INSERT
  5
18C2A
330
18C24
100
AcDbEntity
  8
寸法
 62
     0
 48
50.0
370
    -2
100
AcDbBlockReference
  2
_DOTSMALL
 10
7544.160902108544
 20
8942.51669939905
 30
0.0
 41
100.0
 42
100.0
 43
100.0
  0
MTEXT
  5
18C2B
330
18C24
100
AcDbEntity
  8
寸法
 62
     7
 48
50.0
100
AcDbMText
 10
7061.28653022935
 20
9042.516699399049
 30
0.0
 40
120.0
 41
0.0
 71
     5
 72
     1
  1
\A1;1063
  7
STYLE1
 73
     1
 44
1.0
1001
ACAD
1000
MTEXTBEGIN
1070
    73
1070
     1
1070
    44
1040
1.0
1070
    74
1070
     0
1000
MTEXTEND
  0
POINT
  5
18C2C
330
18C24
100
AcDbEntity
  8
DEFPOINTS
 62
     0
 48
50.0
100
AcDbPoint
 10
6538.396575106998
 20
9156.123139034727
 30
0.0
  0
POINT
  5
18C2D
330
18C24
100
AcDbEntity
  8
DEFPOINTS
 62
     0
 48
50.0
100
AcDbPoint
 10
7601.39657510701
 20
9156.12313903472
 30
0.0
  0
POINT
  5
18C2E
330
18C24
100
AcDbEntity
  8
DEFPOINTS
 62
     0
 48
50.0
100
AcDbPoint
 10
7544.160902108544
 20
8942.51669939905
 30
0.0
  0
ENDBLK
  5
18C2F
330
18C24
100
AcDbEntity
  8
0
 48
50.0
100
AcDbBlockEnd
  0
BLOCK
  5
18C31
330
18C30
100
AcDbEntity
  8
0
 48
50.0
100
AcDbBlockBegin
  2
*D11
 70
     1
 10
0.0
 20
0.0
 30
0.0
  3
*D11
  1

  0
LINE
  5
18C32
330
18C30
100
AcDbEntity
  8
寸法
 62
     0
 48
50.0
370
    -2
100
AcDbLine
 10
7621.396575106999
 20
9600.764155186094
 30
0.0
 11
8016.754300969024
 21
9494.828371819961
 31
0.0
  0
LINE
  5
18C33
330
18C30
100
AcDbEntity
  8
寸法
 62
     0
 48
50.0
370
    -2
100
AcDbLine
 10
7621.396575106999
 20
9150.764155186099
 30
0.0
 11
8016.754300969024
 21
9044.828371819964
 31
0.0
  0
LINE
  5
18C34
330
18C30
100
AcDbEntity
  8
寸法
 62
     0
 48
50.0
370
    -2
100
AcDbLine
 10
7956.754300969024
 20
9510.905323365827
 30
0.0
 11
7956.754300969024
 21
9060.90532336583
 31
0.0
  0
INSERT
  5
18C35
330
18C30
100
AcDbEntity
  8
寸法
 62
     0
 48
50.0
370
    -2
100
AcDbBlockReference
  2
_DOTSMALL
 10
7956.754300969024
 20
9510.905323365827
 30
0.0
 41
100.0
 42
100.0
 43
100.0
 50
90.0
  0
INSERT
  5
18C36
330
18C30
100
AcDbEntity
  8
寸法
 62
     0
 48
50.0
370
    -2
100
AcDbBlockReference
  2
_DOTSMALL
 10
7956.754300969024
 20
9060.90532336583
 30
0.0
 41
100.0
 42
100.0
 43
100.0
 50
270.0
  0
MTEXT
  5
18C37
330
18C30
100
AcDbEntity
  8
寸法
 62
     7
 48
50.0
100
AcDbMText
 10
7856.754300969022
 20
9285.905323365829
 30
0.0
 40
120.0
 41
0.0
 71
     5
 72
     1
  1
\A1;450
  7
STYLE1
 11
0.0000000000000001
 21
1.0
 31
0.0
 73
     1
 44
1.0
1001
ACAD
1000
MTEXTBEGIN
1070
    73
1070
     1
1070
    44
1040
1.0
1070
    74
1070
     0
1000
MTEXTEND
  0
POINT
  5
18C38
330
18C30
100
AcDbEntity
  8
DEFPOINTS
 62
     0
 48
50.0
100
AcDbPoint
 10
7601.396575106999
 20
9606.123139034718
 30
0.0
  0
POINT
  5
18C39
330
18C30
100
AcDbEntity
  8
DEFPOINTS
 62
     0
 48
50.0
100
AcDbPoint
 10
7601.396575106999
 20
9156.12313903472
 30
0.0
  0
POINT
  5
18C3A
330
18C30
100
AcDbEntity
  8
DEFPOINTS
 62
     0
 48
50.0
100
AcDbPoint
 10
7956.754300969024
 20
9060.90532336583
 30
0.0
  0
ENDBLK
  5
18C3B
330
18C30
100
AcDbEntity
  8
0
 48
50.0
100
AcDbBlockEnd
  0
BLOCK
  5
18C3D
330
18C3C
100
AcDbEntity
  8
0
 48
50.0
100
AcDbBlockBegin
  2
*D12
 70
     1
 10
0.0
 20
0.0
 30
0.0
  3
*D12
  1

  0
LINE
  5
18C3E
330
18C3C
100
AcDbEntity
  8
寸法
 62
     0
 48
50.0
370
    -2
100
AcDbLine
 10
7649.896575106999
 20
9581.123139034721
 30
0.0
 11
8337.32292084141
 21
9581.123139034721
 31
0.0
  0
LINE
  5
18C3F
330
18C3C
100
AcDbEntity
  8
寸法
 62
     0
 48
50.0
370
    -2
100
AcDbLine
 10
7649.896575106973
 20
7901.123139034706
 30
0.0
 11
8337.32292084141
 21
7901.123139034706
 31
0.0
  0
LINE
  5
18C40
330
18C3C
100
AcDbEntity
  8
寸法
 62
     0
 48
50.0
370
    -2
100
AcDbLine
 10
8277.322920841411
 20
9581.123139034721
 30
0.0
 11
8277.322920841411
 21
7901.123139034706
 31
0.0
  0
INSERT
  5
18C41
330
18C3C
100
AcDbEntity
  8
寸法
 62
     0
 48
50.0
370
    -2
100
AcDbBlockReference
  2
_DOTSMALL
 10
8277.322920841411
 20
9581.123139034721
 30
0.0
 41
100.0
 42
100.0
 43
100.0
 50
90.0
  0
INSERT
  5
18C42
330
18C3C
100
AcDbEntity
  8
寸法
 62
     0
 48
50.0
370
    -2
100
AcDbBlockReference
  2
_DOTSMALL
 10
8277.322920841411
 20
7901.123139034706
 30
0.0
 41
100.0
 42
100.0
 43
100.0
 50
270.0
  0
MTEXT
  5
18C43
330
18C3C
100
AcDbEntity
  8
寸法
 62
     7
 48
50.0
100
AcDbMText
 10
8177.311109817788
 20
8741.123139034712
 30
0.0
 40
120.0
 41
0.0
 71
     5
 72
     1
  1
\A1;4X420=1680
  7
STYLE1
 11
0.0000000000000001
 21
1.0
 31
0.0
 73
     1
 44
1.0
1001
ACAD
1000
MTEXTBEGIN
1070
    73
1070
     1
1070
    44
1040
1.0
1070
    74
1070
     0
1000
MTEXTEND
  0
POINT
  5
18C44
330
18C3C
100
AcDbEntity
  8
DEFPOINTS
 62
     0
 48
50.0
100
AcDbPoint
 10
7629.896575106998
 20
9581.123139034721
 30
0.0
  0
POINT
  5
18C45
330
18C3C
100
AcDbEntity
  8
DEFPOINTS
 62
     0
 48
50.0
100
AcDbPoint
 10
7629.896575106974
 20
7901.123139034706
 30
0.0
  0
POINT
  5
18C46
330
18C3C
100
AcDbEntity
  8
DEFPOINTS
 62
     0
 48
50.0
100
AcDbPoint
 10
8277.322920841411
 20
7901.123139034706
 30
0.0
  0
ENDBLK
  5
18C47
330
18C3C
100
AcDbEntity
  8
0
 48
50.0
100
AcDbBlockEnd
  0
BLOCK
  5
18C49
330
18C48
100
AcDbEntity
  8
0
 48
50.0
100
AcDbBlockBegin
  2
*D13
 70
     1
 10
0.0
 20
0.0
 30
0.0
  3
*D13
  1

  0
LINE
  5
18C4A
330
18C48
100
AcDbEntity
  8
寸法
 62
     0
 48
50.0
370
    -2
100
AcDbLine
 10
4183.037591258377
 20
9136.123139034619
 30
0.0
 11
4115.083950562663
 21
8882.516699398941
 31
0.0
  0
LINE
  5
18C4B
330
18C48
100
AcDbEntity
  8
寸法
 62
     0
 48
50.0
370
    -2
100
AcDbLine
 10
5246.037591258307
 20
9136.123139034671
 30
0.0
 11
5178.08395056258
 21
8882.516699398941
 31
0.0
  0
LINE
  5
18C4C
330
18C48
100
AcDbEntity
  8
寸法
 62
     0
 48
50.0
370
    -2
100
AcDbLine
 10
4131.160902108532
 20
8942.516699398941
 30
0.0
 11
5194.160902108448
 21
8942.516699398941
 31
0.0
  0
INSERT
  5
18C4D
330
18C48
100
AcDbEntity
  8
寸法
 62
     0
 48
50.0
370
    -2
100
AcDbBlockReference
  2
_DOTSMALL
 10
4131.160902108532
 20
8942.516699398941
 30
0.0
 41
100.0
 42
100.0
 43
100.0
 50
180.0
  0
INSERT
  5
18C4E
330
18C48
100
AcDbEntity
  8
寸法
 62
     0
 48
50.0
370
    -2
100
AcDbBlockReference
  2
_DOTSMALL
 10
5194.160902108448
 20
8942.516699398941
 30
0.0
 41
100.0
 42
100.0
 43
100.0
  0
MTEXT
  5
18C4F
330
18C48
100
AcDbEntity
  8
寸法
 62
     7
 48
50.0
100
AcDbMText
 10
4658.986452655306
 20
9042.516699398941
 30
0.0
 40
120.0
 41
0.0
 71
     5
 72
     1
  1
\A1;1063
  7
STYLE1
 73
     1
 44
1.0
1001
ACAD
1000
MTEXTBEGIN
1070
    73
1070
     1
1070
    44
1040
1.0
1070
    74
1070
     0
1000
MTEXTEND
  0
POINT
  5
18C50
330
18C48
100
AcDbEntity
  8
DEFPOINTS
 62
     0
 48
50.0
100
AcDbPoint
 10
4188.396575106999
 20
9156.123139034617
 30
0.0
  0
POINT
  5
18C51
330
18C48
100
AcDbEntity
  8
DEFPOINTS
 62
     0
 48
50.0
100
AcDbPoint
 10
5251.396575106929
 20
9156.123139034672
 30
0.0
  0
POINT
  5
18C52
330
18C48
100
AcDbEntity
  8
DEFPOINTS
 62
     0
 48
50.0
100
AcDbPoint
 10
5194.160902108448
 20
8942.516699398941
 30
0.0
  0
ENDBLK
  5
18C53
330
18C48
100
AcDbEntity
  8
0
 48
50.0
100
AcDbBlockEnd
  0
BLOCK
  5
18C55
330
18C54
100
AcDbEntity
  8
0
 48
50.0
100
AcDbBlockBegin
  2
*D14
 70
     1
 10
0.0
 20
0.0
 30
0.0
  3
*D14
  1

  0
LINE
  5
18C56
330
18C54
100
AcDbEntity
  8
寸法
 62
     0
 48
50.0
370
    -2
100
AcDbLine
 10
5274.037591258307
 20
9136.123139034669
 30
0.0
 11
5206.08395056258
 21
8882.516699398941
 31
0.0
  0
LINE
  5
18C57
330
18C54
100
AcDbEntity
  8
寸法
 62
     0
 48
50.0
370
    -2
100
AcDbLine
 10
6505.037591258377
 20
9136.123139034662
 30
0.0
 11
6437.083950562653
 21
8882.516699398941
 31
0.0
  0
LINE
  5
18C58
330
18C54
100
AcDbEntity
  8
寸法
 62
     0
 48
50.0
370
    -2
100
AcDbLine
 10
5222.160902108448
 20
8942.516699398941
 30
0.0
 11
6453.16090210852
 21
8942.516699398941
 31
0.0
  0
INSERT
  5
18C59
330
18C54
100
AcDbEntity
  8
寸法
 62
     0
 48
50.0
370
    -2
100
AcDbBlockReference
  2
_DOTSMALL
 10
5222.160902108448
 20
8942.516699398941
 30
0.0
 41
100.0
 42
100.0
 43
100.0
 50
180.0
  0
INSERT
  5
18C5A
330
18C54
100
AcDbEntity
  8
寸法
 62
     0
 48
50.0
370
    -2
100
AcDbBlockReference
  2
_DOTSMALL
 10
6453.16090210852
 20
8942.516699398941
 30
0.0
 41
100.0
 42
100.0
 43
100.0
  0
MTEXT
  5
18C5B
330
18C54
100
AcDbEntity
  8
寸法
 62
     7
 48
50.0
100
AcDbMText
 10
6081.244808320626
 20
9042.528510422561
 30
0.0
 40
120.0
 41
0.0
 71
     5
 72
     1
  1
\A1;1231
  7
STYLE1
 73
     1
 44
1.0
1001
ACAD
1000
MTEXTBEGIN
1070
    73
1070
     1
1070
    44
1040
1.0
1070
    74
1070
     0
1000
MTEXTEND
  0
POINT
  5
18C5C
330
18C54
100
AcDbEntity
  8
DEFPOINTS
 62
     0
 48
50.0
100
AcDbPoint
 10
5279.396575106929
 20
9156.123139034669
 30
0.0
  0
POINT
  5
18C5D
330
18C54
100
AcDbEntity
  8
DEFPOINTS
 62
     0
 48
50.0
100
AcDbPoint
 10
6510.396575106999
 20
9156.123139034662
 30
0.0
  0
POINT
  5
18C5E
330
18C54
100
AcDbEntity
  8
DEFPOINTS
 62
     0
 48
50.0
100
AcDbPoint
 10
6453.16090210852
 20
8942.516699398941
 30
0.0
  0
ENDBLK
  5
18C5F
330
18C54
100
AcDbEntity
  8
0
 48
50.0
100
AcDbBlockEnd
  0
BLOCK
  5
18C61
330
18C60
100
AcDbEntity
  8
0
 48
50.0
100
AcDbBlockBegin
  2
*D15
 70
     1
 10
0.0
 20
0.0
 30
0.0
  3
*D15
  1

  0
LINE
  5
18C62
330
18C60
100
AcDbEntity
  8
寸法
 62
     0
 48
50.0
370
    -2
100
AcDbLine
 10
5065.896575106966
 20
7749.123139034579
 30
0.0
 11
5065.896575106966
 21
7099.952920982538
 31
0.0
  0
LINE
  5
18C63
330
18C60
100
AcDbEntity
  8
寸法
 62
     0
 48
50.0
370
    -2
100
AcDbLine
 10
6331.896575106966
 20
7749.123139034579
 30
0.0
 11
6331.896575106966
 21
7099.952920982538
 31
0.0
  0
LINE
  5
18C64
330
18C60
100
AcDbEntity
  8
寸法
 62
     0
 48
50.0
370
    -2
100
AcDbLine
 10
5065.896575106966
 20
7159.952920982537
 30
0.0
 11
6331.896575106966
 21
7159.952920982537
 31
0.0
  0
INSERT
  5
18C65
330
18C60
100
AcDbEntity
  8
寸法
 62
     0
 48
50.0
370
    -2
100
AcDbBlockReference
  2
_DOTSMALL
 10
5065.896575106966
 20
7159.952920982537
 30
0.0
 41
100.0
 42
100.0
 43
100.0
 50
180.0
  0
INSERT
  5
18C66
330
18C60
100
AcDbEntity
  8
寸法
 62
     0
 48
50.0
370
    -2
100
AcDbBlockReference
  2
_DOTSMALL
 10
6331.896575106966
 20
7159.952920982537
 30
0.0
 41
100.0
 42
100.0
 43
100.0
  0
MTEXT
  5
18C67
330
18C60
100
AcDbEntity
  8
寸法
 62
     7
 48
50.0
100
AcDbMText
 10
5711.986008735934
 20
7359.964732006159
 30
0.0
 40
120.0
 41
0.0
 71
     5
 72
     1
  1
\A1;有効開口部間口\P1266
  7
STYLE1
 73
     1
 44
1.0
1001
ACAD
1000
MTEXTBEGIN
1070
    73
1070
     1
1070
    44
1040
1.0
1070
    74
1070
     0
1000
MTEXTEND
  0
POINT
  5
18C68
330
18C60
100
AcDbEntity
  8
DEFPOINTS
 62
     0
 48
50.0
100
AcDbPoint
 10
5065.896575106966
 20
7769.123139034579
 30
0.0
  0
POINT
  5
18C69
330
18C60
100
AcDbEntity
  8
DEFPOINTS
 62
     0
 48
50.0
100
AcDbPoint
 10
6331.896575106966
 20
7769.123139034579
 30
0.0
  0
POINT
  5
18C6A
330
18C60
100
AcDbEntity
  8
DEFPOINTS
 62
     0
 48
50.0
100
AcDbPoint
 10
6331.896575106966
 20
7159.952920982537
 30
0.0
  0
ENDBLK
  5
18C6B
330
18C60
100
AcDbEntity
  8
0
 48
50.0
100
AcDbBlockEnd
  0
BLOCK
  5
18C6D
330
18C6C
100
AcDbEntity
  8
0
 48
50.0
100
AcDbBlockBegin
  2
*D16
 70
     1
 10
0.0
 20
0.0
 30
0.0
  3
*D16
  1

  0
LINE
  5
18C6E
330
18C6C
100
AcDbEntity
  8
寸法
 62
     0
 48
50.0
370
    -2
100
AcDbLine
 10
7200.896575106966
 20
7846.123139034578
 30
0.0
 11
7457.192158500191
 21
7846.123139034578
 31
0.0
  0
LINE
  5
18C6F
330
18C6C
100
AcDbEntity
  8
寸法
 62
     0
 48
50.0
370
    -2
100
AcDbLine
 10
7199.896575106966
 20
7769.123139034579
 30
0.0
 11
7457.192158500191
 21
7769.123139034579
 31
0.0
  0
LINE
  5
18C70
330
18C6C
100
AcDbEntity
  8
寸法
 62
     0
 48
50.0
370
    -2
100
AcDbLine
 10
7417.192158500192
 20
7866.123139034579
 30
0.0
 11
7417.192158500192
 21
7886.123139034578
 31
0.0
  0
LINE
  5
18C71
330
18C6C
100
AcDbEntity
  8
寸法
 62
     0
 48
50.0
370
    -2
100
AcDbLine
 10
7417.192158500192
 20
7749.123139034579
 30
0.0
 11
7417.192158500192
 21
7533.123139034573
 31
0.0
  0
LINE
  5
18C72
330
18C6C
100
AcDbEntity
  8
寸法
 62
     0
 48
50.0
370
    -2
100
AcDbLine
 10
7417.192158500192
 20
7846.123139034578
 30
0.0
 11
7417.192158500192
 21
7769.123139034579
 31
0.0
  0
INSERT
  5
18C73
330
18C6C
100
AcDbEntity
  8
寸法
 62
     0
 48
50.0
370
    -2
100
AcDbBlockReference
  2
_DOT
 10
7417.192158500192
 20
7846.123139034578
 30
0.0
 41
20.0
 42
20.0
 43
20.0
 50
270.0
  0
INSERT
  5
18C74
330
18C6C
100
AcDbEntity
  8
寸法
 62
     0
 48
50.0
370
    -2
100
AcDbBlockReference
  2
_DOT
 10
7417.192158500192
 20
7769.123139034579
 30
0.0
 41
20.0
 42
20.0
 43
20.0
 50
90.0
  0
MTEXT
  5
18C75
330
18C6C
100
AcDbEntity
  8
寸法
 62
     7
 48
50.0
100
AcDbMText
 10
7325.192158500191
 20
7631.123139034575
 30
0.0
 40
120.0
 41
0.0
 71
     5
 72
     1
  1
\A1;77
  7
STYLE1
 11
0.0000000000000001
 21
1.0
 31
0.0
 73
     1
 44
1.0
1001
ACAD
1000
MTEXTBEGIN
1070
    73
1070
     1
1070
    44
1040
1.0
1070
    74
1070
     0
1000
MTEXTEND
  0
POINT
  5
18C76
330
18C6C
100
AcDbEntity
  8
DEFPOINTS
 62
     0
 48
50.0
100
AcDbPoint
 10
7180.896575106967
 20
7846.123139034578
 30
0.0
  0
POINT
  5
18C77
330
18C6C
100
AcDbEntity
  8
DEFPOINTS
 62
     0
 48
50.0
100
AcDbPoint
 10
7179.896575106965
 20
7769.123139034579
 30
0.0
  0
POINT
  5
18C78
330
18C6C
100
AcDbEntity
  8
DEFPOINTS
 62
     0
 48
50.0
100
AcDbPoint
 10
7417.192158500192
 20
7769.123139034579
 30
0.0
  0
ENDBLK
  5
18C79
330
18C6C
100
AcDbEntity
  8
0
 48
50.0
100
AcDbBlockEnd
  0
BLOCK
  5
18DA0
330
18C7A
100
AcDbEntity
  8
0
 48
50.0
100
AcDbBlockBegin
  2
A$C3B1A506B
 70
     0
 10
0.0
 20
0.0
 30
0.0
  3
A$C3B1A506B
  1

  0
MTEXT
  5
18C7B
330
18C7A
100
AcDbEntity
  8
寸法
 62
     7
 48
50.0
100
AcDbMText
 10
3342.250386887194
 20
2778.329429134012
 30
0.0
 40
96.0
 41
0.0
 71
     5
 72
     1
  1
棚 2段
  7
STYLE1
 73
     1
 44
1.0
1001
ACAD
1000
MTEXTBEGIN
1070
    73
1070
     1
1070
    44
1040
1.0
1070
    74
1070
     0
1000
MTEXTEND
  0
MTEXT
  5
18C7C
330
18C7A
100
AcDbEntity
  8
寸法
 62
     7
 48
50.0
100
AcDbMText
 10
2167.25038688716
 20
2778.329429133986
 30
0.0
 40
96.0
 41
0.0
 71
     5
 72
     1
  1
棚 2段
  7
STYLE1
 73
     1
 44
1.0
1001
ACAD
1000
MTEXTBEGIN
1070
    73
1070
     1
1070
    44
1040
1.0
1070
    74
1070
     0
1000
MTEXTEND
  0
MTEXT
  5
18C7D
330
18C7A
100
AcDbEntity
  8
寸法
 62
     7
 48
50.0
100
AcDbMText
 10
992.2503868871608
 20
2778.329429133935
 30
0.0
 40
96.0
 41
0.0
 71
     5
 72
     1
  1
棚 2段
  7
STYLE1
 73
     1
 44
1.0
1001
ACAD
1000
MTEXTBEGIN
1070
    73
1070
     1
1070
    44
1040
1.0
1070
    74
1070
     0
1000
MTEXTEND
  0
LINE
  5
18C7E
330
18C7A
100
AcDbEntity
  8
細線
 48
50.0
100
AcDbLine
 10
2771.970589276527
 20
1368.994384123192
 30
0.0
 11
3398.970589276523
 21
1368.994384123192
 31
0.0
  0
LINE
  5
18C7F
330
18C7A
100
AcDbEntity
  8
細線
 48
50.0
100
AcDbLine
 10
2117.970593930113
 20
1335.285615569113
 30
0.0
 11
3398.970589276523
 21
1335.285615569113
 31
0.0
  0
LINE
  5
18C80
330
18C7A
100
AcDbEntity
  8
細線
 48
50.0
100
AcDbLine
 10
2076.970593930115
 20
1364.690523565368
 30
0.0
 11
1322.970589276523
 21
1364.690523565367
 31
0.0
  0
LINE
  5
18C81
330
18C7A
100
AcDbEntity
  8
細線
100
AcDbLine
 10
3170.720579860066
 20
1388.494284088199
 30
0.0
 11
3173.052119381877
 21
1393.494286728162
 31
0.0
  0
LINE
  5
18C82
330
18C7A
100
AcDbEntity
  8
細線
100
AcDbLine
 10
3240.720589276525
 20
1388.494269174465
 30
0.0
 11
3238.389042800336
 21
1393.494286728144
 31
0.0
  0
LINE
  5
18C83
330
18C7A
100
AcDbEntity
  8
細線
100
AcDbLine
 10
3238.389042800336
 20
1393.494286728144
 30
0.0
 11
3173.052119381862
 21
1393.494286728133
 31
0.0
  0
LINE
  5
18C84
330
18C7A
100
AcDbEntity
  8
細線
100
AcDbLine
 10
3098.389042800336
 20
1393.494286728144
 30
0.0
 11
3033.052119381862
 21
1393.494286728133
 31
0.0
  0
LINE
  5
18C85
330
18C7A
100
AcDbEntity
  8
細線
100
AcDbLine
 10
3100.720589276523
 20
1388.494269174465
 30
0.0
 11
3098.389042800336
 21
1393.494286728144
 31
0.0
  0
LINE
  5
18C86
330
18C7A
100
AcDbEntity
  8
細線
100
AcDbLine
 10
3030.720579860066
 20
1388.494284088199
 30
0.0
 11
3033.052119381875
 21
1393.494286728162
 31
0.0
  0
LINE
  5
18C87
330
18C7A
100
AcDbEntity
  8
細線
100
AcDbLine
 10
2890.720589276525
 20
1388.494269174465
 30
0.0
 11
2893.052128798336
 21
1393.494271814428
 31
0.0
  0
LINE
  5
18C88
330
18C7A
100
AcDbEntity
  8
細線
100
AcDbLine
 10
2960.720598692984
 20
1388.494254260731
 30
0.0
 11
2958.389052216793
 21
1393.49427181441
 31
0.0
  0
LINE
  5
18C89
330
18C7A
100
AcDbEntity
  8
細線
100
AcDbLine
 10
2958.389052216795
 20
1393.49427181441
 30
0.0
 11
2893.052128798321
 21
1393.494271814399
 31
0.0
  0
LINE
  5
18C8A
330
18C7A
100
AcDbEntity
  8
細線
100
AcDbLine
 10
2667.139038146739
 20
1359.494298590735
 30
0.0
 11
2601.802114728263
 21
1359.494298590724
 31
0.0
  0
LINE
  5
18C8B
330
18C7A
100
AcDbEntity
  8
細線
100
AcDbLine
 10
2669.470584622926
 20
1354.494281037055
 30
0.0
 11
2667.139038146737
 21
1359.494298590735
 31
0.0
  0
LINE
  5
18C8C
330
18C7A
100
AcDbEntity
  8
細線
100
AcDbLine
 10
2599.470575206469
 20
1354.49429595079
 30
0.0
 11
2601.802114728278
 21
1359.494298590752
 31
0.0
  0
LINE
  5
18C8D
330
18C7A
100
AcDbEntity
  8
細線
 48
50.0
100
AcDbLine
 10
2440.853968524536
 20
1372.765132327548
 30
0.0
 11
2446.609486107205
 21
1354.494281037057
 31
0.0
  0
LINE
  5
18C8E
330
18C7A
100
AcDbEntity
  8
細線
 48
50.0
100
AcDbLine
 10
2429.925520044106
 20
1372.765132327546
 30
0.0
 11
2440.853968524536
 21
1372.765132327548
 31
0.0
  0
ARC
  5
18C8F
330
18C7A
100
AcDbEntity
  8
細線
 48
50.0
100
AcDbCircle
 10
2424.471163986787
 20
1374.265132327546
 30
0.0
 40
5.0
100
AcDbArc
 50
204.6243183520723
 51
335.3756816479278
  0
ARC
  5
18C90
330
18C7A
100
AcDbEntity
  8
細線
 48
50.0
100
AcDbCircle
 10
2429.925520044106
 20
1371.765132327546
 30
0.0
 40
1.0
100
AcDbArc
 50
90.0
 51
155.3756816479277
  0
ARC
  5
18C91
330
18C7A
100
AcDbEntity
  8
細線
 48
50.0
100
AcDbCircle
 10
2419.016807929469
 20
1371.765132327546
 30
0.0
 40
1.0
100
AcDbArc
 50
24.62431835207225
 51
90.0
  0
LINE
  5
18C92
330
18C7A
100
AcDbEntity
  8
細線
 48
50.0
100
AcDbLine
 10
2408.088359449037
 20
1372.765132327548
 30
0.0
 11
2419.016807929469
 21
1372.765132327546
 31
0.0
  0
LINE
  5
18C93
330
18C7A
100
AcDbEntity
  8
細線
 48
50.0
100
AcDbLine
 10
2402.33284186637
 20
1354.494281037054
 30
0.0
 11
2408.088359449037
 21
1372.765132327548
 31
0.0
  0
LINE
  5
18C94
330
18C7A
100
AcDbEntity
  8
細線
100
AcDbLine
 10
2458.070304175992
 20
1354.494278397076
 30
0.0
 11
2460.401843697802
 21
1359.494281037039
 31
0.0
  0
LINE
  5
18C95
330
18C7A
100
AcDbEntity
  8
細線
100
AcDbLine
 10
2528.070313592451
 20
1354.494263483342
 30
0.0
 11
2525.738767116262
 21
1359.494281037021
 31
0.0
  0
LINE
  5
18C96
330
18C7A
100
AcDbEntity
  8
細線
100
AcDbLine
 10
2525.738767116262
 20
1359.494281037021
 30
0.0
 11
2460.40184369779
 21
1359.49428103701
 31
0.0
  0
LINE
  5
18C97
330
18C7A
100
AcDbEntity
  8
細線
100
AcDbLine
 10
2387.139046332155
 20
1359.494281037021
 30
0.0
 11
2321.80212291368
 21
1359.49428103701
 31
0.0
  0
LINE
  5
18C98
330
18C7A
100
AcDbEntity
  8
細線
100
AcDbLine
 10
2389.470592808342
 20
1354.494263483342
 30
0.0
 11
2387.139046332153
 21
1359.494281037021
 31
0.0
  0
LINE
  5
18C99
330
18C7A
100
AcDbEntity
  8
細線
100
AcDbLine
 10
2319.470584622926
 20
1354.494281037054
 30
0.0
 11
2321.802122913694
 21
1359.494281037039
 31
0.0
  0
LINE
  5
18C9A
330
18C7A
100
AcDbEntity
  8
細線
100
AcDbLine
 10
2179.47061994182
 20
1354.494289224422
 30
0.0
 11
2181.802158232587
 21
1359.494289224407
 31
0.0
  0
LINE
  5
18C9B
330
18C7A
100
AcDbEntity
  8
細線
100
AcDbLine
 10
2249.470628127236
 20
1354.49427167071
 30
0.0
 11
2247.139081651047
 21
1359.494289224389
 31
0.0
  0
LINE
  5
18C9C
330
18C7A
100
AcDbEntity
  8
細線
100
AcDbLine
 10
2247.139081651047
 20
1359.494289224389
 30
0.0
 11
2181.802158232573
 21
1359.494289224378
 31
0.0
  0
LINE
  5
18C9D
330
18C7A
100
AcDbEntity
  8
細線
100
AcDbLine
 10
1807.970585744697
 20
1320.494460905133
 30
0.0
 11
1810.302124035464
 21
1325.494460905118
 31
0.0
  0
LINE
  5
18C9E
330
18C7A
100
AcDbEntity
  8
細線
100
AcDbLine
 10
1877.970593930113
 20
1320.494443351421
 30
0.0
 11
1875.639047453926
 21
1325.4944609051
 31
0.0
  0
LINE
  5
18C9F
330
18C7A
100
AcDbEntity
  8
細線
100
AcDbLine
 10
1875.639047453926
 20
1325.4944609051
 30
0.0
 11
1810.302124035452
 21
1325.494460905089
 31
0.0
  0
LINE
  5
18CA0
330
18C7A
100
AcDbEntity
  8
細線
100
AcDbLine
 10
2015.639047453926
 20
1325.4944609051
 30
0.0
 11
1950.302124035452
 21
1325.494460905089
 31
0.0
  0
LINE
  5
18CA1
330
18C7A
100
AcDbEntity
  8
細線
100
AcDbLine
 10
2017.970593930113
 20
1320.494443351421
 30
0.0
 11
2015.639047453924
 21
1325.4944609051
 31
0.0
  0
LINE
  5
18CA2
330
18C7A
100
AcDbEntity
  8
細線
100
AcDbLine
 10
1947.970585744697
 20
1320.494460905133
 30
0.0
 11
1950.302124035465
 21
1325.494460905118
 31
0.0
  0
LINE
  5
18CA3
330
18C7A
100
AcDbEntity
  8
細線
100
AcDbLine
 10
1735.639047453926
 20
1325.494460905098
 30
0.0
 11
1670.302124035454
 21
1325.494460905087
 31
0.0
  0
LINE
  5
18CA4
330
18C7A
100
AcDbEntity
  8
細線
100
AcDbLine
 10
1737.970593930113
 20
1320.494443351419
 30
0.0
 11
1735.639047453926
 21
1325.494460905098
 31
0.0
  0
LINE
  5
18CA5
330
18C7A
100
AcDbEntity
  8
細線
100
AcDbLine
 10
1667.970585744697
 20
1320.494460905131
 30
0.0
 11
1670.302124035465
 21
1325.494460905116
 31
0.0
  0
LINE
  5
18CA6
330
18C7A
100
AcDbEntity
  8
細線
100
AcDbLine
 10
1527.970593930113
 20
1320.494460905133
 30
0.0
 11
1530.302132220881
 21
1325.494460905118
 31
0.0
  0
LINE
  5
18CA7
330
18C7A
100
AcDbEntity
  8
細線
100
AcDbLine
 10
1597.970602115529
 20
1320.494443351421
 30
0.0
 11
1595.639055639342
 21
1325.4944609051
 31
0.0
  0
LINE
  5
18CA8
330
18C7A
100
AcDbEntity
  8
細線
100
AcDbLine
 10
1595.639055639342
 20
1325.4944609051
 30
0.0
 11
1530.302132220869
 21
1325.494460905089
 31
0.0
  0
ARC
  5
18CA9
330
18C7A
100
AcDbEntity
  8
部品1
 48
0.01
100
AcDbCircle
 10
1483.470482677778
 20
1319.493338720063
 30
0.0
 40
0.5
100
AcDbArc
 50
270.0
 51
0.0
  0
LINE
  5
18CAA
330
18C7A
100
AcDbEntity
  8
部品1
 48
0.01
100
AcDbLine
 10
1483.970482677778
 20
1320.493338720063
 30
0.0
 11
1483.970482677778
 21
1319.493338720063
 31
0.0
  0
LINE
  5
18CAB
330
18C7A
100
AcDbEntity
  8
部品1
 48
0.01
100
AcDbLine
 10
1483.970482677778
 20
1320.493338720063
 30
0.0
 11
1483.970482677778
 21
1319.493338720063
 31
0.0
  0
LINE
  5
18CAC
330
18C7A
100
AcDbEntity
  8
部品1
 48
0.01
100
AcDbLine
 10
1483.470482677778
 20
1318.993338720063
 30
0.0
 11
1476.857977247713
 21
1318.993338720062
 31
0.0
  0
ARC
  5
18CAD
330
18C7A
100
AcDbEntity
  8
部品1
100
AcDbCircle
 10
1476.926326800494
 20
1319.993338720062
 30
0.0
 40
1.0
100
AcDbArc
 50
160.5287793655865
 51
270.0
  0
ARC
  5
18CAE
330
18C7A
100
AcDbEntity
  8
部品1
100
AcDbCircle
 10
1451.470482677778
 20
1328.993338720062
 30
0.0
 40
26.0
100
AcDbArc
 50
340.5287793655865
 51
0.0
  0
LINE
  5
18CAF
330
18C7A
100
AcDbEntity
  8
部品1
100
AcDbLine
 10
1477.470482677778
 20
1328.993338720062
 30
0.0
 11
1477.470482677778
 21
1333.993338720061
 31
0.0
  0
ARC
  5
18CB0
330
18C7A
100
AcDbEntity
  8
部品1
 48
0.01
100
AcDbCircle
 10
1475.470482677778
 20
1333.993338720061
 30
0.0
 40
2.0
100
AcDbArc
 50
0.0
 51
90.0
  0
ARC
  5
18CB1
330
18C7A
100
AcDbEntity
  8
部品1
100
AcDbCircle
 10
1473.862091052968
 20
1332.993338720062
 30
0.0
 40
3.0
100
AcDbArc
 50
90.0
 51
141.6069559808035
  0
LINE
  5
18CB2
330
18C7A
100
AcDbEntity
  8
部品1
 48
0.01
100
AcDbLine
 10
1475.470482677778
 20
1335.993338720062
 30
0.0
 11
1473.862091052968
 21
1335.993338720062
 31
0.0
  0
ARC
  5
18CB3
330
18C7A
100
AcDbEntity
  8
部品1
100
AcDbCircle
 10
1455.399768463507
 20
1332.293338720065
 30
0.0
 40
3.0
100
AcDbArc
 50
254.0576313943215
 51
270.0
  0
ARC
  5
18CB4
330
18C7A
100
AcDbEntity
  8
部品1
100
AcDbCircle
 10
1462.541196892049
 20
1332.293338720065
 30
0.0
 40
3.0
100
AcDbArc
 50
270.0
 51
285.9423686056786
  0
LINE
  5
18CB5
330
18C7A
100
AcDbEntity
  8
部品1
100
AcDbLine
 10
1462.541196892049
 20
1329.293338720064
 30
0.0
 11
1455.399768463507
 21
1329.293338720064
 31
0.0
  0
ARC
  5
18CB6
330
18C7A
100
AcDbEntity
  8
部品1
100
AcDbCircle
 10
1458.970482677778
 20
1344.793338720065
 30
0.0
 40
16.0
100
AcDbArc
 50
285.9423686056786
 51
321.6069559808035
  0
LINE
  5
18CB7
330
18C7A
100
AcDbEntity
  8
部品1
 48
0.01
100
AcDbLine
 10
1442.470482677778
 20
1335.993338720062
 30
0.0
 11
1444.078874302588
 21
1335.993338720062
 31
0.0
  0
ARC
  5
18CB8
330
18C7A
100
AcDbEntity
  8
部品1
100
AcDbCircle
 10
1444.078874302588
 20
1332.993338720062
 30
0.0
 40
3.0
100
AcDbArc
 50
38.39304401919648
 51
90.0
  0
ARC
  5
18CB9
330
18C7A
100
AcDbEntity
  8
部品1
100
AcDbCircle
 10
1458.970482677778
 20
1344.793338720065
 30
0.0
 40
16.0
100
AcDbArc
 50
218.3930440191965
 51
254.0576313943215
  0
LINE
  5
18CBA
330
18C7A
100
AcDbEntity
  8
部品1
100
AcDbLine
 10
1440.470482677778
 20
1328.993338720062
 30
0.0
 11
1440.470482677778
 21
1333.993338720061
 31
0.0
  0
ARC
  5
18CBB
330
18C7A
100
AcDbEntity
  8
部品1
 48
0.01
100
AcDbCircle
 10
1442.470482677778
 20
1333.993338720061
 30
0.0
 40
2.0
100
AcDbArc
 50
90.0
 51
180.0
  0
ARC
  5
18CBC
330
18C7A
100
AcDbEntity
  8
部品1
100
AcDbCircle
 10
1466.470482677778
 20
1328.993338720062
 30
0.0
 40
26.0
100
AcDbArc
 50
180.0
 51
199.4712206344134
  0
ARC
  5
18CBD
330
18C7A
100
AcDbEntity
  8
部品1
 48
0.01
100
AcDbCircle
 10
1434.470482677778
 20
1319.493338720063
 30
0.0
 40
0.5
100
AcDbArc
 50
180.0
 51
270.0
  0
LINE
  5
18CBE
330
18C7A
100
AcDbEntity
  8
部品1
 48
0.01
100
AcDbLine
 10
1434.470482677778
 20
1318.993338720063
 30
0.0
 11
1441.014638555061
 21
1318.993338720062
 31
0.0
  0
LINE
  5
18CBF
330
18C7A
100
AcDbEntity
  8
部品1
 48
0.01
100
AcDbLine
 10
1433.970482677778
 20
1320.493338720063
 30
0.0
 11
1433.970482677778
 21
1319.493338720063
 31
0.0
  0
ARC
  5
18CC0
330
18C7A
100
AcDbEntity
  8
部品1
100
AcDbCircle
 10
1441.014638555061
 20
1319.993338720062
 30
0.0
 40
1.0
100
AcDbArc
 50
270.0
 51
19.47122063441346
  0
LINE
  5
18CC1
330
18C7A
100
AcDbEntity
  8
細線
100
AcDbLine
 10
1479.470482677785
 20
1338.493338720065
 30
0.0
 11
1438.470482677785
 21
1338.493338720058
 31
0.0
  0
LINE
  5
18CC2
330
18C7A
100
AcDbEntity
  8
細線
100
AcDbLine
 10
1438.470482677785
 20
1338.493338720058
 30
0.0
 11
1438.470482677785
 21
1320.49333872004
 31
0.0
  0
LINE
  5
18CC3
330
18C7A
100
AcDbEntity
  8
細線
100
AcDbLine
 10
1479.470482677785
 20
1338.493338720065
 30
0.0
 11
1479.470482677785
 21
1320.49333872004
 31
0.0
  0
LINE
  5
18CC4
330
18C7A
100
AcDbEntity
  8
細線
100
AcDbLine
 10
1322.970589276523
 20
1324.494269174465
 30
0.0
 11
1322.970589276523
 21
1320.494269174513
 31
0.0
  0
LINE
  5
18CC5
330
18C7A
100
AcDbEntity
  8
寸法
 48
50.0
100
AcDbLine
 10
1746.17359555837
 20
1170.531020743327
 30
0.0
 11
1694.767587648266
 21
1170.531020743327
 31
0.0
  0
LINE
  5
18CC6
330
18C7A
100
AcDbEntity
  8
寸法
 48
50.0
100
AcDbLine
 10
1694.767587648266
 20
1170.531020743327
 30
0.0
 11
1694.767587648266
 21
1201.841179395494
 31
0.0
  0
LINE
  5
18CC7
330
18C7A
100
AcDbEntity
  8
寸法
 48
50.0
100
AcDbLine
 10
1694.767587648266
 20
1201.841179395494
 30
0.0
 11
1665.006255656843
 21
1201.841179395494
 31
0.0
  0
LINE
  5
18CC8
330
18C7A
100
AcDbEntity
  8
寸法
 48
50.0
100
AcDbLine
 10
1665.006255656843
 20
1201.841179395494
 30
0.0
 11
1720.470591603318
 21
1239.420630324105
 31
0.0
  0
LINE
  5
18CC9
330
18C7A
100
AcDbEntity
  8
寸法
 48
50.0
100
AcDbLine
 10
1775.934927549793
 20
1201.841179395494
 30
0.0
 11
1720.470591603318
 21
1239.420630324105
 31
0.0
  0
LINE
  5
18CCA
330
18C7A
100
AcDbEntity
  8
寸法
 48
50.0
100
AcDbLine
 10
1746.17359555837
 20
1201.841179395494
 30
0.0
 11
1775.934927549793
 21
1201.841179395494
 31
0.0
  0
LINE
  5
18CCB
330
18C7A
100
AcDbEntity
  8
寸法
 48
50.0
100
AcDbLine
 10
1746.17359555837
 20
1170.531020743327
 30
0.0
 11
1746.17359555837
 21
1201.841179395494
 31
0.0
  0
LINE
  5
18CCC
330
18C7A
100
AcDbEntity
  8
寸法
 48
50.0
100
AcDbLine
 10
1694.767587648266
 20
1170.531020743327
 30
0.0
 11
1746.17359555837
 21
1170.531020743327
 31
0.0
  0
LINE
  5
18CCD
330
18C7A
100
AcDbEntity
  8
寸法
 48
50.0
100
AcDbLine
 10
2025.339129835225
 20
1227.676611498152
 30
0.0
 11
2025.339129835225
 21
1174.01297691636
 31
0.0
  0
LINE
  5
18CCE
330
18C7A
100
AcDbEntity
  8
寸法
 48
50.0
100
AcDbLine
 10
2114.623348430647
 20
1203.752977228664
 30
0.0
 11
2025.339129835225
 21
1227.676611498152
 31
0.0
  0
LINE
  5
18CCF
330
18C7A
100
AcDbEntity
  8
寸法
 48
50.0
100
AcDbLine
 10
1895.471408254923
 20
1203.752977228664
 30
0.0
 11
2114.623348430647
 21
1203.752977228664
 31
0.0
  0
DIMENSION
  5
18CD0
330
18C7A
100
AcDbEntity
  8
寸法
 48
50.0
100
AcDbDimension
  2
*D15
 10
2588.970589276523
 20
706.3240511224249
 30
0.0
 11
1969.060022905491
 21
706.3240511224249
 31
0.0
 12
-3742.925985830444
 22
-6453.628869860112
 32
0.0
 70
   128
  1
有効開口部間口\P<>
 71
     5
 42
1266.0
  3
INABA_S40G
100
AcDbAlignedDimension
 13
1322.970589276523
 23
1315.494269174465
 33
0.0
 14
2588.970589276523
 24
1315.494269174465
 34
0.0
100
AcDbRotatedDimension
1001
ACAD
1000
DSTYLE
1002
{
1070
   341
1005
0
1002
}
  0
LINE
  5
18CD1
330
18C7A
100
AcDbEntity
  8
部品1
100
AcDbLine
 10
3409.970589276524
 20
1392.494269174465
 30
0.0
 11
3437.970589276523
 21
1392.494269174465
 31
0.0
  0
DIMENSION
  5
18CD2
330
18C7A
100
AcDbEntity
  8
寸法
100
AcDbDimension
  2
*D16
 10
3674.266172669749
 20
1315.494269174465
 30
0.0
 11
3674.266172669748
 21
1177.494269174462
 31
0.0
 12
-3742.925985830444
 22
-6453.628869860112
 32
0.0
 70
   128
 71
     5
 42
77.0
  3
INABA_S40
100
AcDbAlignedDimension
 13
3437.970589276523
 23
1392.494269174465
 33
0.0
 14
3436.970589276523
 24
1315.494269174465
 34
0.0
 50
90.0
100
AcDbRotatedDimension
1001
ACAD
1000
DSTYLE
1002
{
1070
    41
1040
0.5
1070
    44
1040
1.0
1070
   147
1040
0.8
1070
   271
1070
     2
1070
   272
1070
     2
1070
   289
1070
     3
1070
   340
1005
F706
1070
   343
1005
164B4
1070
   344
1005
164B4
1002
}
  0
LINE
  5
18CD3
330
18C7A
100
AcDbEntity
  8
部品1
100
AcDbLine
 10
3437.970589276523
 20
1315.494269174465
 30
0.0
 11
3437.970589276523
 21
1392.494269174465
 31
0.0
  0
LINE
  5
18CD4
330
18C7A
100
AcDbEntity
  8
部品1
100
AcDbLine
 10
3398.970589276523
 20
1388.494269174465
 30
0.0
 11
3409.970589276524
 21
1388.494269174465
 31
0.0
  0
LINE
  5
18CD5
330
18C7A
100
AcDbEntity
  8
部品1
100
AcDbLine
 10
3407.970589276523
 20
1324.494269174465
 30
0.0
 11
3407.970589276523
 21
1315.494269174465
 31
0.0
  0
LINE
  5
18CD6
330
18C7A
100
AcDbEntity
  8
部品1
100
AcDbLine
 10
3398.970589276523
 20
1324.494269174465
 30
0.0
 11
3407.970589276523
 21
1324.494269174465
 31
0.0
  0
LINE
  5
18CD7
330
18C7A
100
AcDbEntity
  8
部品1
100
AcDbLine
 10
3398.970589276523
 20
1388.494269174465
 30
0.0
 11
3398.970589276523
 21
1324.494269174465
 31
0.0
  0
LINE
  5
18CD8
330
18C7A
100
AcDbEntity
  8
部品1
100
AcDbLine
 10
3409.970589276524
 20
1419.494269174465
 30
0.0
 11
3409.970589276524
 21
1388.494269174465
 31
0.0
  0
LINE
  5
18CD9
330
18C7A
100
AcDbEntity
  8
部品1
100
AcDbLine
 10
1322.970589276523
 20
1388.494269174465
 30
0.0
 11
1311.970589276523
 21
1388.494269174465
 31
0.0
  0
LINE
  5
18CDA
330
18C7A
100
AcDbEntity
  8
部品1
100
AcDbLine
 10
1283.970589276523
 20
1392.494269174465
 30
0.0
 11
1311.970589276523
 21
1392.494269174465
 31
0.0
  0
LINE
  5
18CDB
330
18C7A
100
AcDbEntity
  8
部品1
100
AcDbLine
 10
1313.970589276523
 20
1324.494269174465
 30
0.0
 11
1313.970589276523
 21
1315.494269174465
 31
0.0
  0
LINE
  5
18CDC
330
18C7A
100
AcDbEntity
  8
部品1
100
AcDbLine
 10
1322.970589276523
 20
1324.494269174465
 30
0.0
 11
1313.970589276523
 21
1324.494269174465
 31
0.0
  0
LINE
  5
18CDD
330
18C7A
100
AcDbEntity
  8
部品1
100
AcDbLine
 10
1313.970589276523
 20
1315.494269174465
 30
0.0
 11
1283.970589276523
 21
1315.494269174465
 31
0.0
  0
LINE
  5
18CDE
330
18C7A
100
AcDbEntity
  8
部品1
100
AcDbLine
 10
1283.970589276523
 20
1315.494269174465
 30
0.0
 11
1283.970589276523
 21
1392.494269174465
 31
0.0
  0
LINE
  5
18CDF
330
18C7A
100
AcDbEntity
  8
部品1
100
AcDbLine
 10
1322.970589276523
 20
1388.494269174465
 30
0.0
 11
1322.970589276523
 21
1324.494269174465
 31
0.0
  0
LINE
  5
18CE0
330
18C7A
100
AcDbEntity
  8
部品1
100
AcDbLine
 10
1311.970589276523
 20
1419.494269174462
 30
0.0
 11
1311.970589276523
 21
1388.494269174465
 31
0.0
  0
LINE
  5
18CE1
330
18C7A
100
AcDbEntity
  8
部品1
100
AcDbLine
 10
1311.970589276523
 20
1419.494269174462
 30
0.0
 11
3409.970589276524
 21
1419.494269174465
 31
0.0
  0
LINE
  5
18CE2
330
18C7A
100
AcDbEntity
  8
部品1
100
AcDbLine
 10
3407.970589276523
 20
1315.494269174465
 30
0.0
 11
3437.970589276523
 21
1315.494269174465
 31
0.0
  0
LINE
  5
18CE3
330
18C7A
100
AcDbEntity
  8
部品1
100
AcDbLine
 10
1313.970589276523
 20
1315.494269174465
 30
0.0
 11
3410.970589276523
 21
1315.494269174465
 31
0.0
  0
LINE
  5
18CE4
330
18C7A
100
AcDbEntity
  8
細線
  6
Continuous
 62
     5
100
AcDbLine
 10
2689.970589276527
 20
1354.494269174462
 30
0.0
 11
2689.970589276527
 21
1354.494269174462
 31
0.0
  0
LINE
  5
18CE5
330
18C7A
100
AcDbEntity
  8
細線
  6
Continuous
 62
     5
100
AcDbLine
 10
2682.470589276527
 20
1354.494269174462
 30
0.0
 11
2682.470589276527
 21
1354.494269174462
 31
0.0
  0
LINE
  5
18CE6
330
18C7A
100
AcDbEntity
  8
細線
  6
Continuous
 62
     5
100
AcDbLine
 10
2676.470589276527
 20
1354.494269174462
 30
0.0
 11
2676.470589276527
 21
1354.494269174462
 31
0.0
  0
LINE
  5
18CE7
330
18C7A
100
AcDbEntity
  8
細線
  6
Continuous
 62
     5
100
AcDbLine
 10
2743.970589276527
 20
1373.494269174462
 30
0.0
 11
2743.970589276527
 21
1373.494269174462
 31
0.0
  0
LINE
  5
18CE8
330
18C7A
100
AcDbEntity
  8
細線
 48
50.0
100
AcDbLine
 10
1336.970593930116
 20
1341.094443351418
 30
0.0
 11
1336.970593930113
 21
1349.490593759059
 31
0.0
  0
LINE
  5
18CE9
330
18C7A
100
AcDbEntity
  8
細線
 48
50.0
100
AcDbLine
 10
1336.970593930113
 20
1349.490593759059
 30
0.0
 11
1322.970589276523
 21
1349.490593759057
 31
0.0
  0
LINE
  5
18CEA
330
18C7A
100
AcDbEntity
  8
細線
 48
50.0
100
AcDbLine
 10
2087.970593930113
 20
1337.644443351419
 30
0.0
 11
2087.970593930113
 21
1342.494443351421
 31
0.0
  0
LINE
  5
18CEB
330
18C7A
100
AcDbEntity
  8
細線
 48
50.0
100
AcDbLine
 10
2087.970593930113
 20
1342.494443351421
 30
0.0
 11
2102.970593930113
 21
1342.494443351421
 31
0.0
  0
LINE
  5
18CEC
330
18C7A
100
AcDbEntity
  8
細線
 48
50.0
100
AcDbLine
 10
2102.970593930113
 20
1342.494443351421
 30
0.0
 11
2102.970593930115
 21
1349.494443351419
 31
0.0
  0
LINE
  5
18CED
330
18C7A
100
AcDbEntity
  8
細線
 48
50.0
100
AcDbLine
 10
2102.970593930115
 20
1349.494443351419
 30
0.0
 11
2117.970593930113
 21
1349.494443351419
 31
0.0
  0
LINE
  5
18CEE
330
18C7A
100
AcDbEntity
  8
細線
 48
50.0
100
AcDbLine
 10
2117.970593930113
 20
1349.494443351419
 30
0.0
 11
2117.970593930113
 21
1320.494443351421
 31
0.0
  0
LINE
  5
18CEF
330
18C7A
100
AcDbEntity
  8
細線
 48
50.0
100
AcDbLine
 10
1313.970589276523
 20
1320.491777694889
 30
0.0
 11
1527.970593930113
 21
1320.494460905133
 31
0.0
  0
LINE
  5
18CF0
330
18C7A
100
AcDbEntity
  8
細線
 48
50.0
100
AcDbLine
 10
2017.970593930113
 20
1320.494443351421
 30
0.0
 11
2117.970593930113
 21
1320.494443351421
 31
0.0
  0
LINE
  5
18CF1
330
18C7A
100
AcDbEntity
  8
細線
 48
50.0
100
AcDbLine
 10
1737.970593930113
 20
1320.494443351419
 30
0.0
 11
1807.970593930113
 21
1320.494443351423
 31
0.0
  0
LINE
  5
18CF2
330
18C7A
100
AcDbEntity
  8
細線
 48
50.0
100
AcDbLine
 10
1750.832558942642
 20
1320.494443351419
 30
0.0
 11
1756.588076525309
 21
1338.765294641913
 31
0.0
  0
LINE
  5
18CF3
330
18C7A
100
AcDbEntity
  8
細線
 48
50.0
100
AcDbLine
 10
1756.588076525309
 20
1338.765294641913
 30
0.0
 11
1767.516525005743
 21
1338.765294641911
 31
0.0
  0
ARC
  5
18CF4
330
18C7A
100
AcDbEntity
  8
細線
 48
50.0
100
AcDbCircle
 10
1767.516525005743
 20
1337.765294641911
 30
0.0
 40
1.0
100
AcDbArc
 50
24.62431835207225
 51
90.0
  0
ARC
  5
18CF5
330
18C7A
100
AcDbEntity
  8
細線
 48
50.0
100
AcDbCircle
 10
1778.425237120377
 20
1337.765294641911
 30
0.0
 40
1.0
100
AcDbArc
 50
90.0
 51
155.3756816479277
  0
ARC
  5
18CF6
330
18C7A
100
AcDbEntity
  8
細線
 48
50.0
100
AcDbCircle
 10
1772.970881063058
 20
1340.265294641911
 30
0.0
 40
5.0
100
AcDbArc
 50
204.6243183520723
 51
335.3756816479278
  0
LINE
  5
18CF7
330
18C7A
100
AcDbEntity
  8
細線
 48
50.0
100
AcDbLine
 10
1778.425237120377
 20
1338.765294641911
 30
0.0
 11
1789.35368560081
 21
1338.765294641913
 31
0.0
  0
LINE
  5
18CF8
330
18C7A
100
AcDbEntity
  8
細線
 48
50.0
100
AcDbLine
 10
1789.35368560081
 20
1338.765294641913
 30
0.0
 11
1795.109203183478
 21
1320.494443351423
 31
0.0
  0
LINE
  5
18CF9
330
18C7A
100
AcDbEntity
  8
細線
 48
50.0
100
AcDbLine
 10
2087.970593930113
 20
1341.094443351419
 30
0.0
 11
1336.970593930116
 21
1341.094443351418
 31
0.0
  0
LINE
  5
18CFA
330
18C7A
100
AcDbEntity
  8
細線
 48
50.0
100
AcDbLine
 10
1947.970593930113
 20
1320.494443351421
 30
0.0
 11
1877.970593930113
 21
1320.494443351421
 31
0.0
  0
LINE
  5
18CFB
330
18C7A
100
AcDbEntity
  8
細線
100
AcDbLine
 10
1667.970593930113
 20
1320.494443351421
 30
0.0
 11
1597.970602115529
 21
1320.494443351421
 31
0.0
  0
LINE
  5
18CFC
330
18C7A
100
AcDbEntity
  8
細線
 48
50.0
100
AcDbLine
 10
2741.970584622936
 20
1375.094487209288
 30
0.0
 11
2106.970593930113
 21
1375.094487209284
 31
0.0
  0
LINE
  5
18CFD
330
18C7A
100
AcDbEntity
  8
細線
 48
50.0
100
AcDbLine
 10
2106.970593930113
 20
1371.990637616925
 30
0.0
 11
2106.970593930113
 21
1376.490637616925
 31
0.0
  0
LINE
  5
18CFE
330
18C7A
100
AcDbEntity
  8
細線
 48
50.0
100
AcDbLine
 10
2106.970593930113
 20
1376.490637616925
 30
0.0
 11
2091.970593930113
 21
1376.490637616925
 31
0.0
  0
LINE
  5
18CFF
330
18C7A
100
AcDbEntity
  8
細線
 48
50.0
100
AcDbLine
 10
2091.970593930113
 20
1376.490637616925
 30
0.0
 11
2091.970593930113
 21
1383.490637616927
 31
0.0
  0
LINE
  5
18D00
330
18C7A
100
AcDbEntity
  8
細線
 48
50.0
100
AcDbLine
 10
2091.970593930113
 20
1383.490637616927
 30
0.0
 11
2076.970593930115
 21
1383.490637616924
 31
0.0
  0
LINE
  5
18D01
330
18C7A
100
AcDbEntity
  8
細線
 48
50.0
100
AcDbLine
 10
2076.970593930115
 20
1383.490637616924
 30
0.0
 11
2076.970593930115
 21
1345.890409513813
 31
0.0
  0
LINE
  5
18D02
330
18C7A
100
AcDbEntity
  8
細線
 48
50.0
100
AcDbLine
 10
2076.970593930115
 20
1345.890409513813
 30
0.0
 11
2096.970601231289
 21
1345.890451063353
 31
0.0
  0
LINE
  5
18D03
330
18C7A
100
AcDbEntity
  8
細線
 48
50.0
100
AcDbLine
 10
2096.970556362348
 20
1354.493912699161
 30
0.0
 11
2096.970601231289
 21
1345.890451063353
 31
0.0
  0
LINE
  5
18D04
330
18C7A
100
AcDbEntity
  8
細線
 48
50.0
100
AcDbLine
 10
2741.970584622936
 20
1371.644487209287
 30
0.0
 11
2741.970584622936
 21
1376.494487209284
 31
0.0
  0
LINE
  5
18D05
330
18C7A
100
AcDbEntity
  8
細線
 48
50.0
100
AcDbLine
 10
2741.970584622936
 20
1376.494487209284
 30
0.0
 11
2756.970584622934
 21
1376.494487209285
 31
0.0
  0
LINE
  5
18D06
330
18C7A
100
AcDbEntity
  8
細線
 48
50.0
100
AcDbLine
 10
2756.970584622934
 20
1376.494487209285
 30
0.0
 11
2756.970596256909
 21
1383.494487209331
 31
0.0
  0
LINE
  5
18D07
330
18C7A
100
AcDbEntity
  8
細線
 48
50.0
100
AcDbLine
 10
2756.970596256909
 20
1383.494487209331
 30
0.0
 11
2771.970594427439
 21
1383.494487209329
 31
0.0
  0
LINE
  5
18D08
330
18C7A
100
AcDbEntity
  8
細線
 48
50.0
100
AcDbLine
 10
2771.970594427439
 20
1383.494487209329
 30
0.0
 11
2771.970584125617
 21
1354.494281037055
 31
0.0
  0
LINE
  5
18D09
330
18C7A
100
AcDbEntity
  8
細線
 48
50.0
100
AcDbLine
 10
2458.070304175992
 20
1354.494278397076
 30
0.0
 11
2389.470863838818
 21
1354.494283787084
 31
0.0
  0
LINE
  5
18D0A
330
18C7A
100
AcDbEntity
  8
細線
 48
50.0
100
AcDbLine
 10
2096.970556362348
 20
1354.493912699161
 30
0.0
 11
2108.203245717057
 21
1354.494095652309
 31
0.0
  0
ARC
  5
18D0B
330
18C7A
100
AcDbEntity
  8
細線
 48
50.0
100
AcDbCircle
 10
2114.785538024393
 20
1353.294259565922
 30
0.0
 40
1.8
100
AcDbArc
 50
270.0006665777295
 51
345.000555481349
  0
LINE
  5
18D0C
330
18C7A
100
AcDbEntity
  8
細線
 48
50.0
100
AcDbLine
 10
2116.771971470473
 20
1353.753100023201
 30
0.0
 11
2116.524209028273
 21
1352.828402141094
 31
0.0
  0
LINE
  5
18D0D
330
18C7A
100
AcDbEntity
  8
細線
 48
50.0
100
AcDbLine
 10
2114.785558965548
 20
1351.494259566043
 30
0.0
 11
2111.155631546781
 21
1351.494217335563
 31
0.0
  0
ARC
  5
18D0E
330
18C7A
100
AcDbEntity
  8
細線
 48
50.0
100
AcDbCircle
 10
2111.155610605627
 20
1353.29421733544
 30
0.0
 40
1.8
100
AcDbArc
 50
195.0010443049965
 51
270.0006665777295
  0
LINE
  5
18D0F
330
18C7A
100
AcDbEntity
  8
細線
 48
50.0
100
AcDbLine
 10
2109.169183113368
 20
1353.752932303007
 30
0.0
 11
2109.416952609882
 21
1352.828311364425
 31
0.0
  0
ARC
  5
18D10
330
18C7A
100
AcDbEntity
  8
細線
 48
50.0
100
AcDbCircle
 10
2108.203262004622
 20
1353.494095652444
 30
0.0
 40
1.0
100
AcDbArc
 50
15.00104430499651
 51
90.00093320877969
  0
LINE
  5
18D11
330
18C7A
100
AcDbEntity
  8
細線
 48
50.0
100
AcDbLine
 10
2117.737892825577
 20
1354.494290342714
 30
0.0
 11
2118.679652976481
 21
1354.494296916564
 31
0.0
  0
ARC
  5
18D12
330
18C7A
100
AcDbEntity
  8
細線
 48
50.0
100
AcDbCircle
 10
2117.737899805961
 20
1353.49429034274
 30
0.0
 40
1.0
100
AcDbArc
 50
90.0003999466794
 51
165.000555481349
  0
LINE
  5
18D13
330
18C7A
100
AcDbEntity
  8
細線
 48
50.0
100
AcDbLine
 10
2669.470584622926
 20
1354.494281037055
 30
0.0
 11
2771.970584125617
 21
1354.494281037055
 31
0.0
  0
LINE
  5
18D14
330
18C7A
100
AcDbEntity
  8
細線
 48
50.0
100
AcDbLine
 10
2179.47061994182
 20
1354.494289224422
 30
0.0
 11
2118.370558714898
 21
1354.494296916564
 31
0.0
  0
LINE
  5
18D15
330
18C7A
100
AcDbEntity
  8
細線
 48
50.0
100
AcDbLine
 10
2599.470584622926
 20
1354.494281037057
 30
0.0
 11
2529.470584622926
 21
1354.494281037055
 31
0.0
  0
LINE
  5
18D16
330
18C7A
100
AcDbEntity
  8
細線
 48
50.0
100
AcDbLine
 10
2319.470584622926
 20
1354.494281037054
 30
0.0
 11
2249.470567335051
 21
1354.494281037057
 31
0.0
  0
ARC
  5
18D17
330
18C7A
100
AcDbEntity
  8
細線
 48
50.0
100
AcDbCircle
 10
2756.170589276533
 20
1387.694269174466
 30
0.0
 40
0.8
100
AcDbArc
 50
359.9997333689499
 51
89.99986668437072
  0
ARC
  5
18D18
330
18C7A
100
AcDbEntity
  8
細線
 48
50.0
100
AcDbCircle
 10
2763.770596101631
 20
1387.694280343081
 30
0.0
 40
0.8
100
AcDbArc
 50
90.00014387753465
 51
179.9997333689498
  0
LINE
  5
18D19
330
18C7A
100
AcDbEntity
  8
細線
 48
50.0
100
AcDbLine
 10
2756.170591137969
 20
1388.494269174465
 30
0.0
 11
2750.970589276525
 21
1388.494269174465
 31
0.0
  0
ARC
  5
18D1A
330
18C7A
100
AcDbEntity
  8
細線
 48
50.0
100
AcDbCircle
 10
2757.670589276524
 20
1386.194269174464
 30
0.0
 40
0.7
100
AcDbArc
 50
180.0
 51
270.0
  0
ARC
  5
18D1B
330
18C7A
100
AcDbEntity
  8
細線
 48
50.0
100
AcDbCircle
 10
2762.270589276524
 20
1386.194269174464
 30
0.0
 40
0.7
100
AcDbArc
 50
270.0
 51
0.0
  0
LINE
  5
18D1C
330
18C7A
100
AcDbEntity
  8
細線
 48
50.0
100
AcDbLine
 10
2762.970589276525
 20
1386.194269174464
 30
0.0
 11
2762.970596101639
 21
1387.694284065954
 31
0.0
  0
LINE
  5
18D1D
330
18C7A
100
AcDbEntity
  8
細線
 48
50.0
100
AcDbLine
 10
2757.670589276524
 20
1385.494269174465
 30
0.0
 11
2762.270589276524
 21
1385.494269174465
 31
0.0
  0
LINE
  5
18D1E
330
18C7A
100
AcDbEntity
  8
細線
 48
50.0
100
AcDbLine
 10
2756.970589276525
 20
1387.694269174466
 30
0.0
 11
2756.970589276525
 21
1386.194269174464
 31
0.0
  0
LINE
  5
18D1F
330
18C7A
100
AcDbEntity
  8
細線
 48
50.0
100
AcDbLine
 10
3382.570589276527
 20
1418.494269174465
 30
0.0
 11
2745.970589276525
 21
1418.494269174463
 31
0.0
  0
LINE
  5
18D20
330
18C7A
100
AcDbEntity
  8
細線
 48
50.0
100
AcDbLine
 10
3408.470589276525
 20
1413.494269174467
 30
0.0
 11
3392.570589276527
 21
1413.494269174465
 31
0.0
  0
LINE
  5
18D21
330
18C7A
100
AcDbEntity
  8
細線
 48
50.0
100
AcDbLine
 10
3392.570589276526
 20
1413.494269174465
 30
0.0
 11
3382.570589276527
 21
1418.494269174465
 31
0.0
  0
LINE
  5
18D22
330
18C7A
100
AcDbEntity
  8
細線
100
AcDbLine
 10
2993.470589276525
 20
1388.494269174465
 30
0.0
 11
2993.470589276525
 21
1417.794269174464
 31
0.0
  0
LINE
  5
18D23
330
18C7A
100
AcDbEntity
  8
細線
100
AcDbLine
 10
2993.470589276525
 20
1417.794269174464
 30
0.0
 11
3013.470589276525
 21
1417.794269174464
 31
0.0
  0
LINE
  5
18D24
330
18C7A
100
AcDbEntity
  8
細線
100
AcDbLine
 10
3013.470589276525
 20
1388.494269174465
 30
0.0
 11
3013.470589276525
 21
1417.794269174464
 31
0.0
  0
LINE
  5
18D25
330
18C7A
100
AcDbEntity
  8
細線
100
AcDbLine
 10
3170.720589276524
 20
1388.494269174465
 30
0.0
 11
3100.720589276523
 21
1388.494269174465
 31
0.0
  0
LINE
  5
18D26
330
18C7A
100
AcDbEntity
  8
細線
 48
50.0
100
AcDbLine
 10
2890.720589276525
 20
1388.494269174465
 30
0.0
 11
2763.766368849365
 21
1388.494269174465
 31
0.0
  0
LINE
  5
18D27
330
18C7A
100
AcDbEntity
  8
細線
100
AcDbLine
 10
3030.720589276525
 20
1388.494269174465
 30
0.0
 11
2960.720589276525
 21
1388.494269174465
 31
0.0
  0
LINE
  5
18D28
330
18C7A
100
AcDbEntity
  8
細線
 48
50.0
100
AcDbLine
 10
2750.970589276525
 20
1380.494269174465
 30
0.0
 11
2750.970589276525
 21
1388.494269174465
 31
0.0
  0
LINE
  5
18D29
330
18C7A
100
AcDbEntity
  8
細線
 48
50.0
100
AcDbLine
 10
2730.970589276524
 20
1380.494269174467
 30
0.0
 11
2750.970589276525
 21
1380.494269174465
 31
0.0
  0
LINE
  5
18D2A
330
18C7A
100
AcDbEntity
  8
細線
 48
50.0
100
AcDbLine
 10
2745.970589276525
 20
1418.494269174465
 30
0.0
 11
2745.970589276525
 21
1413.494269174465
 31
0.0
  0
LINE
  5
18D2B
330
18C7A
100
AcDbEntity
  8
細線
 48
50.0
100
AcDbLine
 10
2730.970589276525
 20
1418.494269174463
 30
0.0
 11
2745.970589276525
 21
1418.494269174465
 31
0.0
  0
LINE
  5
18D2C
330
18C7A
100
AcDbEntity
  8
細線
 48
50.0
100
AcDbLine
 10
2730.970589276524
 20
1380.494269174467
 30
0.0
 11
2730.970589276525
 21
1418.494269174463
 31
0.0
  0
LINE
  5
18D2D
330
18C7A
100
AcDbEntity
  8
細線
100
AcDbLine
 10
3398.970589276523
 20
1388.494269174465
 30
0.0
 11
3240.720589276525
 21
1388.494269174465
 31
0.0
  0
LINE
  5
18D2E
330
18C7A
100
AcDbEntity
  8
細線
 48
50.0
100
AcDbLine
 10
3408.470589276525
 20
1413.494269174467
 30
0.0
 11
3408.470589276524
 21
1388.494269174465
 31
0.0
  0
TEXT
  5
18D2F
330
18C7A
100
AcDbEntity
  8
部品1
100
AcDbText
 10
1860.154865991392
 20
46.99880823813145
 30
0.0
 40
135.0
  1
平面図
  7
STYLE2
100
AcDbText
  0
LWPOLYLINE
  5
18D30
330
18C7A
100
AcDbEntity
  8
部品1
100
AcDbPolyline
 90
        4
 70
     1
 43
0.0
 10
1770.23525616235
 20
239.8923374566548
 10
1770.23525616235
 20
0.0000159111223184
 10
2533.705922390791
 20
0.0000159111223184
 10
2533.705922390791
 20
239.8923374566548
  0
LINE
  5
18D31
330
18C7A
100
AcDbEntity
  8
部品1
100
AcDbLine
 10
1534.470589276487
 20
3154.494269174626
 30
0.0
 11
2769.470589276552
 21
3154.494269174626
 31
0.0
  0
LINE
  5
18D32
330
18C7A
100
AcDbEntity
  8
部品1
 48
50.0
100
AcDbLine
 10
1311.970589276523
 20
1420.494269174462
 30
0.0
 11
3411.970589276523
 21
1420.494269174465
 31
0.0
  0
LINE
  5
18D33
330
18C7A
100
AcDbEntity
  8
部品1
 48
50.0
100
AcDbLine
 10
471.9705892765232
 20
1392.494269174465
 30
0.0
 11
1311.970589276523
 21
1392.494269174465
 31
0.0
  0
DIMENSION
  5
18D34
330
18C7A
100
AcDbEntity
  8
寸法
100
AcDbDimension
  2
*D14
 10
2710.234916278077
 20
2488.887829538828
 30
0.0
 11
2338.318822490183
 21
2488.887829538828
 31
0.0
 12
-3742.925985830444
 22
-6453.628869860112
 32
0.0
 70
   128
 71
     5
 42
1231.00000000007
  3
INABA_S40G
100
AcDbAlignedDimension
 13
1536.470589276486
 23
2702.494269174557
 33
0.0
 14
2767.470589276556
 24
2702.494269174549
 34
0.0
100
AcDbRotatedDimension
1001
ACAD
1000
DSTYLE
1002
{
1002
}
  0
LINE
  5
18D35
330
18C7A
100
AcDbEntity
  8
部品1
100
AcDbLine
 10
1536.470589276487
 20
2702.494269174557
 30
0.0
 11
2767.470589276554
 21
2702.494269174615
 31
0.0
  0
LINE
  5
18D36
330
18C7A
100
AcDbEntity
  8
部品1
100
AcDbLine
 10
1536.470589276487
 20
3152.494269174557
 30
0.0
 11
2767.470589276556
 21
3152.494269174615
 31
0.0
  0
LINE
  5
18D37
330
18C7A
100
AcDbEntity
  8
細線
 48
50.0
100
AcDbLine
 10
1508.470589276487
 20
3152.494269174558
 30
0.0
 11
445.4705892765559
 21
2702.494269174509
 31
0.0
  0
LINE
  5
18D38
330
18C7A
100
AcDbEntity
  8
細線
 48
50.0
100
AcDbLine
 10
1508.470589276487
 20
2702.494269174558
 30
0.0
 11
445.4705892765542
 21
3152.494269174509
 31
0.0
  0
LINE
  5
18D39
330
18C7A
100
AcDbEntity
  8
部品1
100
AcDbLine
 10
1556.970589276487
 20
3172.494269174611
 30
0.0
 11
1556.970589276487
 21
3154.494269174611
 31
0.0
  0
LINE
  5
18D3A
330
18C7A
100
AcDbEntity
  8
部品1
100
AcDbLine
 10
1556.970589276487
 20
3172.494269174611
 30
0.0
 11
1550.970589276487
 21
3172.494269174611
 31
0.0
  0
LINE
  5
18D3B
330
18C7A
100
AcDbEntity
  8
部品1
100
AcDbLine
 10
1534.470589276487
 20
3146.494269174608
 30
0.0
 11
1509.470589276487
 21
3146.494269174611
 31
0.0
  0
LINE
  5
18D3C
330
18C7A
100
AcDbEntity
  8
部品1
100
AcDbLine
 10
1486.970589276487
 20
3172.494269174611
 30
0.0
 11
1486.970589276487
 21
3154.494269174611
 31
0.0
  0
LINE
  5
18D3D
330
18C7A
100
AcDbEntity
  8
部品1
100
AcDbLine
 10
1492.970589276487
 20
3172.494269174611
 30
0.0
 11
1486.970589276487
 21
3172.494269174611
 31
0.0
  0
LINE
  5
18D3E
330
18C7A
100
AcDbEntity
  8
部品1
100
AcDbLine
 10
1534.470589276487
 20
2702.494269174615
 30
0.0
 11
1509.470589276487
 21
2702.494269174615
 31
0.0
  0
LINE
  5
18D3F
330
18C7A
100
AcDbEntity
  8
部品1
 48
50.0
100
AcDbLine
 10
1536.470589276487
 20
3152.494269174611
 30
0.0
 11
1536.470589276487
 21
2702.494269174615
 31
0.0
  0
LINE
  5
18D40
330
18C7A
100
AcDbEntity
  8
部品1
 48
50.0
100
AcDbLine
 10
1508.470589276487
 20
3152.494269174607
 30
0.0
 11
1508.470589276487
 21
2702.494269174615
 31
0.0
  0
LINE
  5
18D41
330
18C7A
100
AcDbEntity
  8
部品1
 48
50.0
100
AcDbLine
 10
1534.470589276487
 20
3154.494269174618
 30
0.0
 11
1534.470589276487
 21
2702.494269174615
 31
0.0
  0
LINE
  5
18D42
330
18C7A
100
AcDbEntity
  8
部品1
 48
50.0
100
AcDbLine
 10
1509.470589276487
 20
3154.494269174615
 30
0.0
 11
1509.470589276487
 21
2702.494269174615
 31
0.0
  0
LINE
  5
18D43
330
18C7A
100
AcDbEntity
  8
部品1
100
AcDbLine
 10
3411.970589276556
 20
1392.494269174582
 30
0.0
 11
3411.970589276556
 21
1420.494269174596
 31
0.0
  0
LINE
  5
18D44
330
18C7A
100
AcDbEntity
  8
部品1
100
AcDbLine
 10
1311.970589276523
 20
1392.494269174596
 30
0.0
 11
1311.970589276523
 21
1420.494269174596
 31
0.0
  0
LINE
  5
18D45
330
18C7A
100
AcDbEntity
  8
部品1
100
AcDbLine
 10
891.9705892765232
 20
1392.494269174596
 30
0.0
 11
891.9705892765232
 21
1420.494269174596
 31
0.0
  0
LINE
  5
18D46
330
18C7A
100
AcDbEntity
  8
部品1
100
AcDbLine
 10
3411.97058927652
 20
3182.494269174477
 30
0.0
 11
3411.970589276523
 21
3154.494269174477
 31
0.0
  0
LINE
  5
18D47
330
18C7A
100
AcDbEntity
  8
部品1
100
AcDbLine
 10
2571.97058927652
 20
3182.494269174477
 30
0.0
 11
2571.970589276523
 21
3154.494269174477
 31
0.0
  0
LINE
  5
18D48
330
18C7A
100
AcDbEntity
  8
部品1
100
AcDbLine
 10
2991.97058927652
 20
3182.494269174477
 30
0.0
 11
2991.970589276523
 21
3154.494269174477
 31
0.0
  0
LINE
  5
18D49
330
18C7A
100
AcDbEntity
  8
部品1
100
AcDbLine
 10
2151.970589276519
 20
3182.494269174477
 30
0.0
 11
2151.970589276523
 21
3154.494269174477
 31
0.0
  0
LINE
  5
18D4A
330
18C7A
100
AcDbEntity
  8
部品1
100
AcDbLine
 10
1731.970589276519
 20
3182.494269174477
 30
0.0
 11
1731.970589276523
 21
3154.494269174477
 31
0.0
  0
LINE
  5
18D4B
330
18C7A
100
AcDbEntity
  8
部品1
100
AcDbLine
 10
1311.970589276519
 20
3182.494269174477
 30
0.0
 11
1311.970589276523
 21
3154.494269174477
 31
0.0
  0
LINE
  5
18D4C
330
18C7A
100
AcDbEntity
  8
部品1
100
AcDbLine
 10
891.9705892765195
 20
3182.494269174477
 30
0.0
 11
891.9705892765232
 21
3154.494269174477
 31
0.0
  0
LINE
  5
18D4D
330
18C7A
100
AcDbEntity
  8
部品1
100
AcDbLine
 10
471.9705892765232
 20
1392.494269174596
 30
0.0
 11
471.9705892765232
 21
1420.494269174596
 31
0.0
  0
LINE
  5
18D4E
330
18C7A
100
AcDbEntity
  8
部品1
100
AcDbLine
 10
444.9705892765305
 20
1420.494269174558
 30
0.0
 11
3858.970589276556
 21
1420.494269174596
 31
0.0
  0
LINE
  5
18D4F
330
18C7A
100
AcDbEntity
  8
部品1
100
AcDbLine
 10
3831.970589276556
 20
1392.494269174596
 30
0.0
 11
3831.970589276556
 21
1420.494269174596
 31
0.0
  0
LINE
  5
18D50
330
18C7A
100
AcDbEntity
  8
部品1
100
AcDbLine
 10
3858.970589276556
 20
1447.494269174593
 30
0.0
 11
3886.970589276556
 21
1447.494269174593
 31
0.0
  0
LINE
  5
18D51
330
18C7A
100
AcDbEntity
  8
部品1
100
AcDbLine
 10
3858.970589276556
 20
1867.494269174607
 30
0.0
 11
3886.970589276556
 21
1867.494269174607
 31
0.0
  0
LINE
  5
18D52
330
18C7A
100
AcDbEntity
  8
部品1
100
AcDbLine
 10
444.9705892765305
 20
1867.49426917448
 30
0.0
 11
416.9705892765305
 21
1867.49426917448
 31
0.0
  0
LINE
  5
18D53
330
18C7A
100
AcDbEntity
  8
部品1
100
AcDbLine
 10
3830.470589276541
 20
1867.49426917458
 30
0.0
 11
473.4705892765396
 21
1867.49426917448
 31
0.0
  0
LINE
  5
18D54
330
18C7A
100
AcDbEntity
  8
部品1
100
AcDbLine
 10
3830.470589276541
 20
2287.49426917458
 30
0.0
 11
473.4705892765396
 21
2287.49426917448
 31
0.0
  0
LINE
  5
18D55
330
18C7A
100
AcDbEntity
  8
部品1
100
AcDbLine
 10
444.9705892765305
 20
2287.49426917448
 30
0.0
 11
416.9705892765305
 21
2287.49426917448
 31
0.0
  0
LINE
  5
18D56
330
18C7A
100
AcDbEntity
  8
部品1
100
AcDbLine
 10
3858.970589276556
 20
2287.494269174608
 30
0.0
 11
3886.970589276556
 21
2287.494269174608
 31
0.0
  0
LINE
  5
18D57
330
18C7A
100
AcDbEntity
  8
部品1
 48
50.0
100
AcDbLine
 10
2151.970589276551
 20
2702.494269174586
 30
0.0
 11
2151.970589276581
 21
1448.994269174494
 31
0.0
  0
LINE
  5
18D58
330
18C7A
100
AcDbEntity
  8
破線
 48
10.0
100
AcDbLine
 10
2959.470589276535
 20
1472.494269174522
 30
0.0
 11
2176.970589276532
 21
1472.494269174505
 31
0.0
  0
LINE
  5
18D59
330
18C7A
100
AcDbEntity
  8
破線
 48
10.0
100
AcDbLine
 10
3009.47058927653
 20
1448.994269174509
 30
0.0
 11
3009.47058927653
 21
2702.494269174615
 31
0.0
  0
LINE
  5
18D5A
330
18C7A
100
AcDbEntity
  8
破線
 48
10.0
100
AcDbLine
 10
2959.470589276535
 20
1448.994269174505
 30
0.0
 11
2959.470589276531
 21
2702.494269174615
 31
0.0
  0
LINE
  5
18D5B
330
18C7A
100
AcDbEntity
  8
破線
 48
10.0
100
AcDbLine
 10
1344.47058927653
 20
1448.994269174509
 30
0.0
 11
1344.47058927653
 21
2702.494269174615
 31
0.0
  0
LINE
  5
18D5C
330
18C7A
100
AcDbEntity
  8
破線
 48
10.0
100
AcDbLine
 10
1294.470589276534
 20
1448.994269174505
 30
0.0
 11
1294.47058927653
 21
2702.494269174615
 31
0.0
  0
DIMENSION
  5
18D5D
330
18C7A
100
AcDbEntity
  8
寸法
100
AcDbDimension
  2
*D13
 10
1451.234916278005
 20
2488.887829538828
 30
0.0
 11
916.0604668248634
 21
2488.887829538828
 31
0.0
 12
-3742.925985830444
 22
-6453.628869860112
 32
0.0
 70
   128
 71
     5
 42
1062.99999999993
  3
INABA_S40G
100
AcDbAlignedDimension
 13
445.4705892765559
 23
2702.494269174505
 33
0.0
 14
1508.470589276486
 24
2702.494269174558
 34
0.0
100
AcDbRotatedDimension
1001
ACAD
1000
DSTYLE
1002
{
1002
}
  0
LINE
  5
18D5E
330
18C7A
100
AcDbEntity
  8
破線
 48
10.0
100
AcDbLine
 10
1294.470589276534
 20
1472.494269174469
 30
0.0
 11
496.9705892765414
 21
1472.494269174476
 31
0.0
  0
LINE
  5
18D5F
330
18C7A
100
AcDbEntity
  8
部品1
100
AcDbLine
 10
3831.970589276556
 20
3182.494269174604
 30
0.0
 11
3831.970589276556
 21
3154.494269174604
 31
0.0
  0
LINE
  5
18D60
330
18C7A
100
AcDbEntity
  8
部品1
100
AcDbLine
 10
3831.970589276556
 20
3182.494269174626
 30
0.0
 11
3831.970589276556
 21
3154.494269174626
 31
0.0
  0
LINE
  5
18D61
330
18C7A
100
AcDbEntity
  8
部品1
100
AcDbLine
 10
3858.970589276556
 20
3127.494269174607
 30
0.0
 11
3886.970589276556
 21
3127.494269174607
 31
0.0
  0
LINE
  5
18D62
330
18C7A
100
AcDbEntity
  8
部品1
100
AcDbLine
 10
3858.970589276556
 20
2707.494269174608
 30
0.0
 11
3886.970589276556
 21
2707.494269174608
 31
0.0
  0
LINE
  5
18D63
330
18C7A
100
AcDbEntity
  8
部品1
100
AcDbLine
 10
3858.470589276556
 20
3152.494269174604
 30
0.0
 11
3858.470589276556
 21
2702.494269174608
 31
0.0
  0
LINE
  5
18D64
330
18C7A
100
AcDbEntity
  8
部品1
100
AcDbLine
 10
3886.970589276533
 20
1447.494269174593
 30
0.0
 11
3886.970589276531
 21
1392.494269174596
 31
0.0
  0
LINE
  5
18D65
330
18C7A
100
AcDbEntity
  8
部品1
 48
50.0
100
AcDbLine
 10
3830.470589276556
 20
1448.994269174596
 30
0.0
 11
3858.970589276554
 21
1420.494269174596
 31
0.0
  0
LINE
  5
18D66
330
18C7A
100
AcDbEntity
  8
部品1
100
AcDbLine
 10
3886.970589276531
 20
1392.494269174596
 30
0.0
 11
3835.970589276531
 21
1392.494269174596
 31
0.0
  0
LINE
  5
18D67
330
18C7A
100
AcDbEntity
  8
部品1
100
AcDbLine
 10
3858.970589276533
 20
1447.494269174593
 30
0.0
 11
3886.970589276531
 21
1447.494269174593
 31
0.0
  0
LINE
  5
18D68
330
18C7A
100
AcDbEntity
  8
部品1
100
AcDbLine
 10
3886.970589276556
 20
3182.494269174604
 30
0.0
 11
3886.970589276531
 21
1392.494269174596
 31
0.0
  0
DIMENSION
  5
18D69
330
18C7A
100
AcDbEntity
  8
寸法
100
AcDbDimension
  2
*D12
 10
4534.396935010967
 20
1447.494269174593
 30
0.0
 11
4534.396935010965
 21
2287.4942691746
 31
0.0
 12
-3742.925985830444
 22
-6453.628869860112
 32
0.0
 70
   128
  1
4X420=<>
 71
     5
 42
1680.000000000014
  3
INABA_S40G
100
AcDbAlignedDimension
 13
3886.970589276556
 23
3127.494269174607
 33
0.0
 14
3886.970589276531
 24
1447.494269174593
 34
0.0
 50
90.0
100
AcDbRotatedDimension
1001
ACAD
1000
DSTYLE
1002
{
1002
}
  0
LINE
  5
18D6A
330
18C7A
100
AcDbEntity
  8
部品1
100
AcDbLine
 10
3858.970589276556
 20
3154.494269174604
 30
0.0
 11
3858.970589276534
 21
1420.494269174596
 31
0.0
  0
DIMENSION
  5
18D6B
330
18C7A
100
AcDbEntity
  8
寸法
100
AcDbDimension
  2
*D11
 10
4213.82831513858
 20
2607.276453505718
 30
0.0
 11
4113.828315138579
 21
2832.276453505718
 31
0.0
 12
-3742.925985830444
 22
-6453.628869860112
 32
0.0
 71
     5
 42
449.9999999999963
  3
INABA_S40G
100
AcDbAlignedDimension
 13
3858.470589276556
 23
3152.494269174604
 33
0.0
 14
3858.470589276556
 24
2702.494269174608
 34
0.0
 50
90.0
100
AcDbRotatedDimension
1001
ACAD
1000
DSTYLE
1002
{
1002
}
  0
LINE
  5
18D6C
330
18C7A
100
AcDbEntity
  8
部品1
100
AcDbLine
 10
3830.470589276547
 20
2702.494269174608
 30
0.0
 11
3830.470589276556
 21
1448.994269174596
 31
0.0
  0
LINE
  5
18D6D
330
18C7A
100
AcDbEntity
  8
破線
 48
10.0
100
AcDbLine
 10
3806.970589276549
 20
2702.494269174608
 30
0.0
 11
3806.970589276558
 21
1472.494269174593
 31
0.0
  0
LINE
  5
18D6E
330
18C7A
100
AcDbEntity
  8
部品1
100
AcDbLine
 10
2769.470589276556
 20
3146.494269174608
 30
0.0
 11
2794.470589276556
 21
3146.494269174611
 31
0.0
  0
LINE
  5
18D6F
330
18C7A
100
AcDbEntity
  8
部品1
100
AcDbLine
 10
2810.970589276556
 20
3172.494269174611
 30
0.0
 11
2816.970589276556
 21
3172.494269174611
 31
0.0
  0
LINE
  5
18D70
330
18C7A
100
AcDbEntity
  8
部品1
100
AcDbLine
 10
2816.970589276556
 20
3172.494269174611
 30
0.0
 11
2816.970589276556
 21
3154.494269174611
 31
0.0
  0
LINE
  5
18D71
330
18C7A
100
AcDbEntity
  8
部品1
100
AcDbLine
 10
2746.970589276556
 20
3172.494269174611
 30
0.0
 11
2752.970589276556
 21
3172.494269174611
 31
0.0
  0
LINE
  5
18D72
330
18C7A
100
AcDbEntity
  8
部品1
100
AcDbLine
 10
2746.970589276556
 20
3172.494269174611
 30
0.0
 11
2746.970589276556
 21
3154.494269174611
 31
0.0
  0
LINE
  5
18D73
330
18C7A
100
AcDbEntity
  8
部品1
100
AcDbLine
 10
2769.470589276556
 20
2702.494269174615
 30
0.0
 11
2794.470589276556
 21
2702.494269174615
 31
0.0
  0
LINE
  5
18D74
330
18C7A
100
AcDbEntity
  8
部品1
 48
50.0
100
AcDbLine
 10
2794.470589276556
 20
3154.494269174615
 30
0.0
 11
2794.470589276556
 21
2702.494269174615
 31
0.0
  0
LINE
  5
18D75
330
18C7A
100
AcDbEntity
  8
部品1
 48
50.0
100
AcDbLine
 10
2769.470589276554
 20
3154.494269174618
 30
0.0
 11
2769.470589276556
 21
2702.494269174615
 31
0.0
  0
LINE
  5
18D76
330
18C7A
100
AcDbEntity
  8
部品1
 48
50.0
100
AcDbLine
 10
2795.470589276556
 20
3152.494269174607
 30
0.0
 11
2795.470589276556
 21
2702.494269174615
 31
0.0
  0
LINE
  5
18D77
330
18C7A
100
AcDbEntity
  8
部品1
 48
50.0
100
AcDbLine
 10
2767.470589276556
 20
3152.494269174611
 30
0.0
 11
2767.470589276556
 21
2702.494269174615
 31
0.0
  0
LINE
  5
18D78
330
18C7A
100
AcDbEntity
  8
破線
 48
10.0
100
AcDbLine
 10
2176.97058927653
 20
1448.994269174509
 30
0.0
 11
2176.97058927653
 21
2702.494269174588
 31
0.0
  0
LINE
  5
18D79
330
18C7A
100
AcDbEntity
  8
破線
 48
10.0
100
AcDbLine
 10
2126.970589276534
 20
1448.994269174505
 30
0.0
 11
2126.970589276531
 21
2702.494269174586
 31
0.0
  0
LINE
  5
18D7A
330
18C7A
100
AcDbEntity
  8
部品1
100
AcDbLine
 10
2794.470589276556
 20
3154.494269174622
 30
0.0
 11
3858.970589276556
 21
3154.494269174604
 31
0.0
  0
LINE
  5
18D7B
330
18C7A
100
AcDbEntity
  8
細線
 48
50.0
100
AcDbLine
 10
3858.470589276556
 20
2702.494269174608
 30
0.0
 11
2795.470589276556
 21
3152.494269174607
 31
0.0
  0
LINE
  5
18D7C
330
18C7A
100
AcDbEntity
  8
部品1
100
AcDbLine
 10
2795.470589276555
 20
2702.494269174615
 30
0.0
 11
3858.470589276556
 21
2702.494269174608
 31
0.0
  0
LINE
  5
18D7D
330
18C7A
100
AcDbEntity
  8
部品1
100
AcDbLine
 10
2795.470589276556
 20
3152.494269174611
 30
0.0
 11
3858.470589276556
 21
3152.494269174604
 31
0.0
  0
LINE
  5
18D7E
330
18C7A
100
AcDbEntity
  8
細線
 48
50.0
100
AcDbLine
 10
3858.470589276556
 20
3152.494269174604
 30
0.0
 11
2795.470589276555
 21
2702.494269174615
 31
0.0
  0
DIMENSION
  5
18D7F
330
18C7A
100
AcDbEntity
  8
寸法
100
AcDbDimension
  2
*D10
 10
3801.234916278101
 20
2488.887829538937
 30
0.0
 11
3318.360544398907
 21
2488.887829538937
 31
0.0
 12
-3742.925985830444
 22
-6453.628869860112
 32
0.0
 70
   128
 71
     5
 42
1063.000000000012
  3
INABA_S40G
100
AcDbAlignedDimension
 13
2795.470589276555
 23
2702.494269174615
 33
0.0
 14
3858.470589276567
 24
2702.494269174608
 34
0.0
100
AcDbRotatedDimension
1001
ACAD
1000
DSTYLE
1002
{
1002
}
  0
LINE
  5
18D80
330
18C7A
100
AcDbEntity
  8
破線
 48
10.0
100
AcDbLine
 10
3806.970589276556
 20
1472.494269174594
 30
0.0
 11
3009.47058927653
 21
1472.494269174523
 31
0.0
  0
DIMENSION
  5
18D81
330
18C7A
100
AcDbEntity
  8
寸法
100
AcDbDimension
  2
*D9
 10
4534.396935010941
 20
1392.494269174596
 30
0.0
 11
4534.39693501094
 21
1084.008987800356
 31
0.0
 12
-3742.925985830444
 22
-6453.628869860112
 32
0.0
 70
   128
 71
     5
 42
54.99999999999636
  3
INABA_S40G
100
AcDbAlignedDimension
 13
3886.970589276531
 23
1447.494269174593
 33
0.0
 14
3886.970589276531
 24
1392.494269174596
 34
0.0
 50
90.0
100
AcDbRotatedDimension
1001
ACAD
1000
DSTYLE
1002
{
1002
}
  0
LINE
  5
18D82
330
18C7A
100
AcDbEntity
  8
部品1
100
AcDbLine
 10
471.9705892765196
 20
3182.494269174477
 30
0.0
 11
471.9705892765232
 21
3154.494269174477
 31
0.0
  0
LINE
  5
18D83
330
18C7A
100
AcDbEntity
  8
部品1
100
AcDbLine
 10
471.9705892765559
 20
3182.494269174509
 30
0.0
 11
471.9705892765559
 21
3154.494269174509
 31
0.0
  0
LINE
  5
18D84
330
18C7A
100
AcDbEntity
  8
部品1
100
AcDbLine
 10
444.9705892765232
 20
3127.49426917448
 30
0.0
 11
416.9705892765232
 21
3127.49426917448
 31
0.0
  0
LINE
  5
18D85
330
18C7A
100
AcDbEntity
  8
部品1
100
AcDbLine
 10
444.9705892765305
 20
2707.49426917448
 30
0.0
 11
416.9705892765305
 21
2707.49426917448
 31
0.0
  0
LINE
  5
18D86
330
18C7A
100
AcDbEntity
  8
部品1
 48
50.0
100
AcDbLine
 10
445.4705892765542
 20
3152.494269174506
 30
0.0
 11
445.4705892765559
 21
2702.494269174505
 31
0.0
  0
LINE
  5
18D87
330
18C7A
100
AcDbEntity
  8
部品1
 48
50.0
100
AcDbLine
 10
473.470589276545
 20
1448.994269174573
 30
0.0
 11
444.970589276545
 21
1420.494269174574
 31
0.0
  0
LINE
  5
18D88
330
18C7A
100
AcDbEntity
  8
部品1
100
AcDbLine
 10
471.9705892765232
 20
1392.494269174465
 30
0.0
 11
416.9705892765486
 21
1392.494269174465
 31
0.0
  0
LINE
  5
18D89
330
18C7A
100
AcDbEntity
  8
部品1
100
AcDbLine
 10
444.9705892765305
 20
1447.494269174429
 30
0.0
 11
416.9705892765469
 21
1447.494269174429
 31
0.0
  0
LINE
  5
18D8A
330
18C7A
100
AcDbEntity
  8
部品1
100
AcDbLine
 10
444.9705892765305
 20
1447.494269174465
 30
0.0
 11
416.9705892765469
 21
1447.494269174465
 31
0.0
  0
LINE
  5
18D8B
330
18C7A
100
AcDbEntity
  8
部品1
100
AcDbLine
 10
444.9705892765469
 20
1447.49426917448
 30
0.0
 11
416.9705892765469
 21
1447.49426917448
 31
0.0
  0
LINE
  5
18D8C
330
18C7A
100
AcDbEntity
  8
部品1
100
AcDbLine
 10
416.9705892765469
 20
1447.494269174429
 30
0.0
 11
416.9705892765486
 21
1392.494269174433
 31
0.0
  0
LINE
  5
18D8D
330
18C7A
100
AcDbEntity
  8
部品1
100
AcDbLine
 10
416.9705892765196
 20
3182.494269174477
 30
0.0
 11
416.9705892765486
 21
1392.494269174465
 31
0.0
  0
LINE
  5
18D8E
330
18C7A
100
AcDbEntity
  8
部品1
100
AcDbLine
 10
444.9705892765305
 20
1420.494269174556
 30
0.0
 11
444.9705892765559
 21
3154.494269174509
 31
0.0
  0
LINE
  5
18D8F
330
18C7A
100
AcDbEntity
  8
部品1
100
AcDbLine
 10
473.4705892765323
 20
2702.494269174608
 30
0.0
 11
473.470589276545
 21
1448.994269174571
 31
0.0
  0
LINE
  5
18D90
330
18C7A
100
AcDbEntity
  8
破線
 48
10.0
100
AcDbLine
 10
496.9705892765305
 20
2702.494269174608
 30
0.0
 11
496.9705892765451
 21
1472.494269174476
 31
0.0
  0
DIMENSION
  5
18D91
330
18C7A
100
AcDbEntity
  8
寸法
100
AcDbDimension
  2
*D8
 10
3886.970589276531
 20
410.7433333855515
 30
0.0
 11
2168.197775309287
 21
410.7433333855515
 31
0.0
 12
-3742.925985830444
 22
-6453.628869860112
 32
0.0
 70
   128
 71
     5
 42
3469.999999999982
  3
INABA_S40G
100
AcDbAlignedDimension
 13
416.9705892765486
 23
1392.494269174433
 33
0.0
 14
3886.970589276531
 24
1392.49426917456
 34
0.0
100
AcDbRotatedDimension
1001
ACAD
1000
DSTYLE
1002
{
1070
   341
1005
0
1002
}
  0
LINE
  5
18D92
330
18C7A
100
AcDbEntity
  8
部品1
100
AcDbLine
 10
444.9705892765559
 20
3154.494269174624
 30
0.0
 11
1509.470589276487
 21
3154.494269174626
 31
0.0
  0
LINE
  5
18D93
330
18C7A
100
AcDbEntity
  8
部品1
100
AcDbLine
 10
3886.970589276531
 20
1392.494269174596
 30
0.0
 11
3411.970589276556
 21
1392.494269174582
 31
0.0
  0
LINE
  5
18D94
330
18C7A
100
AcDbEntity
  8
部品1
100
AcDbLine
 10
416.9705892765559
 20
3182.494269174509
 30
0.0
 11
3886.970589276556
 21
3182.494269174604
 31
0.0
  0
LINE
  5
18D95
330
18C7A
100
AcDbEntity
  8
部品1
100
AcDbLine
 10
445.4705892765559
 20
2702.494269174509
 30
0.0
 11
1508.470589276487
 21
2702.494269174558
 31
0.0
  0
LINE
  5
18D96
330
18C7A
100
AcDbEntity
  8
細線
 48
50.0
100
AcDbLine
 10
2767.470589276556
 20
3152.494269174611
 30
0.0
 11
1536.470589276487
 21
2702.494269174558
 31
0.0
  0
LINE
  5
18D97
330
18C7A
100
AcDbEntity
  8
部品1
100
AcDbLine
 10
445.4705892765542
 20
3152.494269174509
 30
0.0
 11
1508.470589276485
 21
3152.494269174558
 31
0.0
  0
LINE
  5
18D98
330
18C7A
100
AcDbEntity
  8
細線
 48
50.0
100
AcDbLine
 10
2767.470589276554
 20
2702.494269174615
 30
0.0
 11
1536.470589276485
 21
3152.494269174558
 31
0.0
  0
LINE
  5
18D99
330
18C7A
100
AcDbEntity
  8
破線
 48
10.0
100
AcDbLine
 10
2126.970589276534
 20
1472.494269174502
 30
0.0
 11
1344.47058927653
 21
1472.494269174473
 31
0.0
  0
LINE
  5
18D9A
330
18C7A
100
AcDbEntity
  8
部品1
100
AcDbLine
 10
3830.470589276556
 20
1448.994269174596
 30
0.0
 11
473.4705892764487
 21
1448.994269174476
 31
0.0
  0
DIMENSION
  5
18D9B
330
18C7A
100
AcDbEntity
  8
寸法
100
AcDbDimension
  2
*D7
 10
471.970589276555
 20
3698.302488799491
 30
0.0
 11
108.4853079022819
 21
3698.302488799491
 31
0.0
 12
-3742.925985830444
 22
-6453.628869860112
 32
0.0
 70
   128
 71
     5
 42
55.00000000003456
  3
INABA_S40G
100
AcDbAlignedDimension
 13
416.9705892765205
 23
3182.494269174509
 33
0.0
 14
471.970589276555
 24
3182.494269174509
 34
0.0
100
AcDbRotatedDimension
1001
ACAD
1000
DSTYLE
1002
{
1002
}
  0
DIMENSION
  5
18D9C
330
18C7A
100
AcDbEntity
  8
寸法
100
AcDbDimension
  2
*D6
 10
4534.396935010967
 20
3127.494269174607
 30
0.0
 11
4534.396935010965
 21
3490.979550548844
 31
0.0
 12
-3742.925985830444
 22
-6453.628869860112
 32
0.0
 70
   128
 71
     5
 42
54.99999999999636
  3
INABA_S40G
100
AcDbAlignedDimension
 13
3886.970589276556
 23
3182.494269174604
 33
0.0
 14
3886.970589276556
 24
3127.494269174607
 34
0.0
 50
90.0
100
AcDbRotatedDimension
1001
ACAD
1000
DSTYLE
1002
{
1002
}
  0
DIMENSION
  5
18D9D
330
18C7A
100
AcDbEntity
  8
寸法
100
AcDbDimension
  2
*D5
 10
3886.970589276556
 20
3698.302488799589
 30
0.0
 11
4195.455870650794
 21
3698.302488799589
 31
0.0
 12
-3742.925985830444
 22
-6453.628869860112
 32
0.0
 70
   128
 71
     5
 42
55.0
  3
INABA_S40G
100
AcDbAlignedDimension
 13
3831.970589276556
 23
3182.494269174604
 33
0.0
 14
3886.970589276556
 24
3182.494269174604
 34
0.0
100
AcDbRotatedDimension
1001
ACAD
1000
DSTYLE
1002
{
1002
}
  0
DIMENSION
  5
18D9E
330
18C7A
100
AcDbEntity
  8
寸法
100
AcDbDimension
  2
*D4
 10
3831.970589276556
 20
3698.302488799607
 30
0.0
 11
2151.970589276555
 21
3698.302488799607
 31
0.0
 12
-3742.925985830444
 22
-6453.628869860112
 32
0.0
 70
   128
  1
8X420=<>
 71
     5
 42
3360.000000000001
  3
INABA_S40G
100
AcDbAlignedDimension
 13
471.970589276555
 23
3182.494269174509
 33
0.0
 14
3831.970589276556
 24
3182.494269174604
 34
0.0
100
AcDbRotatedDimension
1001
ACAD
1000
DSTYLE
1002
{
1002
}
  0
DIMENSION
  5
18D9F
330
18C7A
100
AcDbEntity
  8
寸法
100
AcDbDimension
  2
*D3
 10
4899.503876750603
 20
1392.494269174596
 30
0.0
 11
4899.503876750601
 21
2287.4942691746
 31
0.0
 12
-3742.925985830444
 22
-6453.628869860112
 32
0.0
 70
   128
 71
     5
 42
1790.000000000007
  3
INABA_S40G
100
AcDbAlignedDimension
 13
3886.970589276556
 23
3182.494269174604
 33
0.0
 14
3886.970589276531
 24
1392.494269174596
 34
0.0
 50
90.0
100
AcDbRotatedDimension
1001
ACAD
1000
DSTYLE
1002
{
1002
}
  0
ENDBLK
  5
18DA1
330
18C7A
100
AcDbEntity
  8
0
 48
50.0
100
AcDbBlockEnd
  0
BLOCK
  5
1C4CB
330
1C4CA
100
AcDbEntity
  8
0
 48
50.0
100
AcDbBlockBegin
  2
_NONE
 70
     0
 10
0.0
 20
0.0
 30
0.0
  3
_NONE
  1

  0
CIRCLE
  5
1C4CC
330
1C4CA
100
AcDbEntity
  8
0
  6
ByBlock
 62
     0
 48
50.0
100
AcDbCircle
 10
0.0
 20
0.0
 30
0.0
 40
0.25
  0
ENDBLK
  5
1C4CD
330
1C4CA
100
AcDbEntity
  8
0
 48
50.0
100
AcDbBlockEnd
  0
BLOCK
  5
20DEE
330
20DE2
100
AcDbEntity
  8
0
 48
50.0
100
AcDbBlockBegin
  2
*D19
 70
     1
 10
0.0
 20
0.0
 30
0.0
  3
*D19
  1

  0
LINE
  5
24BCE
330
20DE2
100
AcDbEntity
  8
寸法
 62
     0
 48
50.0
370
    -2
100
AcDbLine
 10
9653.6
 20
7697.679057913937
 30
0.0
 11
9653.6
 21
8695.89937997286
 31
0.0
  0
LINE
  5
24BCF
330
20DE2
100
AcDbEntity
  8
寸法
 62
     0
 48
50.0
370
    -2
100
AcDbLine
 10
9698.6
 20
8423.945516007849
 30
0.0
 11
9698.6
 21
8695.89937997286
 31
0.0
  0
LINE
  5
24BD0
330
20DE2
100
AcDbEntity
  8
寸法
 62
     0
 48
50.0
370
    -2
100
AcDbLine
 10
9653.6
 20
8635.89937997286
 30
0.0
 11
9553.600000000001
 21
8635.89937997286
 31
0.0
  0
LINE
  5
24BD1
330
20DE2
100
AcDbEntity
  8
寸法
 62
     0
 48
50.0
370
    -2
100
AcDbLine
 10
9698.6
 20
8635.89937997286
 30
0.0
 11
10035.94924240492
 21
8635.89937997286
 31
0.0
  0
LINE
  5
24BD2
330
20DE2
100
AcDbEntity
  8
寸法
 62
     0
 48
50.0
370
    -2
100
AcDbLine
 10
9653.6
 20
8635.89937997286
 30
0.0
 11
9698.6
 21
8635.89937997286
 31
0.0
  0
INSERT
  5
24BD3
330
20DE2
100
AcDbEntity
  8
寸法
 62
     0
 48
50.0
370
    -2
100
AcDbBlockReference
  2
_DOTSMALL
 10
9653.6
 20
8635.89937997286
 30
0.0
 41
100.0
 42
100.0
 43
100.0
  0
INSERT
  5
24BD4
330
20DE2
100
AcDbEntity
  8
寸法
 62
     0
 48
50.0
370
    -2
100
AcDbBlockReference
  2
_DOTSMALL
 10
9698.6
 20
8635.89937997286
 30
0.0
 41
100.0
 42
100.0
 43
100.0
 50
180.0
  0
MTEXT
  5
24BD5
330
20DE2
100
AcDbEntity
  8
寸法
 62
     7
 48
50.0
100
AcDbMText
 10
9969.774621202461
 20
8735.89937997286
 30
0.0
 40
120.0
 41
0.0
 71
     5
 72
     1
  1
\A1;a
  7
STYLE1
 73
     1
 44
1.0
1001
ACAD
1000
MTEXTBEGIN
1070
    73
1070
     1
1070
    44
1040
1.0
1070
    74
1070
     0
1000
MTEXTEND
  0
POINT
  5
24BD6
330
20DE2
100
AcDbEntity
  8
DEFPOINTS
 62
     0
 48
50.0
100
AcDbPoint
 10
9653.6
 20
7677.679057913938
 30
0.0
  0
POINT
  5
24BD7
330
20DE2
100
AcDbEntity
  8
DEFPOINTS
 62
     0
 48
50.0
100
AcDbPoint
 10
9698.6
 20
8403.94551600785
 30
0.0
  0
POINT
  5
24BD8
330
20DE2
100
AcDbEntity
  8
DEFPOINTS
 62
     0
 48
50.0
100
AcDbPoint
 10
9698.6
 20
8635.89937997286
 30
0.0
  0
ENDBLK
  5
20DEF
330
20DE2
100
AcDbEntity
  8
0
 48
50.0
100
AcDbBlockEnd
  0
BLOCK
  5
20E08
330
20DFC
100
AcDbEntity
  8
0
 48
50.0
100
AcDbBlockBegin
  2
*D20
 70
     1
 10
0.0
 20
0.0
 30
0.0
  3
*D20
  1

  0
LINE
  5
24BC3
330
20DFC
100
AcDbEntity
  8
寸法
 62
     0
 48
50.0
370
    -2
100
AcDbLine
 10
6748.600000000005
 20
8423.945516007851
 30
0.0
 11
6748.600000000005
 21
8695.89937997286
 31
0.0
  0
LINE
  5
24BC4
330
20DFC
100
AcDbEntity
  8
寸法
 62
     0
 48
50.0
370
    -2
100
AcDbLine
 10
6793.600000000001
 20
7697.679057913937
 30
0.0
 11
6793.600000000001
 21
8695.89937997286
 31
0.0
  0
LINE
  5
24BC5
330
20DFC
100
AcDbEntity
  8
寸法
 62
     0
 48
50.0
370
    -2
100
AcDbLine
 10
6793.600000000001
 20
8635.89937997286
 30
0.0
 11
6893.600000000001
 21
8635.89937997286
 31
0.0
  0
LINE
  5
24BC6
330
20DFC
100
AcDbEntity
  8
寸法
 62
     0
 48
50.0
370
    -2
100
AcDbLine
 10
6748.600000000005
 20
8635.89937997286
 30
0.0
 11
6411.250757595083
 21
8635.89937997286
 31
0.0
  0
LINE
  5
24BC7
330
20DFC
100
AcDbEntity
  8
寸法
 62
     0
 48
50.0
370
    -2
100
AcDbLine
 10
6793.600000000001
 20
8635.89937997286
 30
0.0
 11
6748.600000000005
 21
8635.89937997286
 31
0.0
  0
INSERT
  5
24BC8
330
20DFC
100
AcDbEntity
  8
寸法
 62
     0
 48
50.0
370
    -2
100
AcDbBlockReference
  2
_DOTSMALL
 10
6793.600000000001
 20
8635.89937997286
 30
0.0
 41
100.0
 42
100.0
 43
100.0
 50
180.0
  0
INSERT
  5
24BC9
330
20DFC
100
AcDbEntity
  8
寸法
 62
     0
 48
50.0
370
    -2
100
AcDbBlockReference
  2
_DOTSMALL
 10
6748.600000000005
 20
8635.89937997286
 30
0.0
 41
100.0
 42
100.0
 43
100.0
  0
MTEXT
  5
24BCA
330
20DFC
100
AcDbEntity
  8
寸法
 62
     7
 48
50.0
100
AcDbMText
 10
6477.425378797541
 20
8735.89937997286
 30
0.0
 40
120.0
 41
0.0
 71
     5
 72
     1
  1
\A1;a
  7
STYLE1
 73
     1
 44
1.0
1001
ACAD
1000
MTEXTBEGIN
1070
    73
1070
     1
1070
    44
1040
1.0
1070
    74
1070
     0
1000
MTEXTEND
  0
POINT
  5
24BCB
330
20DFC
100
AcDbEntity
  8
DEFPOINTS
 62
     0
 48
50.0
100
AcDbPoint
 10
6748.600000000005
 20
8403.94551600785
 30
0.0
  0
POINT
  5
24BCC
330
20DFC
100
AcDbEntity
  8
DEFPOINTS
 62
     0
 48
50.0
100
AcDbPoint
 10
6793.600000000001
 20
7677.679057913938
 30
0.0
  0
POINT
  5
24BCD
330
20DFC
100
AcDbEntity
  8
DEFPOINTS
 62
     0
 48
50.0
100
AcDbPoint
 10
6793.600000000001
 20
8635.89937997286
 30
0.0
  0
ENDBLK
  5
20E09
330
20DFC
100
AcDbEntity
  8
0
 48
50.0
100
AcDbBlockEnd
  0
BLOCK
  5
2274E
330
22742
100
AcDbEntity
  8
0
 48
50.0
100
AcDbBlockBegin
  2
*D25
 70
     1
 10
0.0
 20
0.0
 30
0.0
  3
*D25
  1

  0
LINE
  5
24BB8
330
22742
100
AcDbEntity
  8
寸法
 62
     0
 48
50.0
370
    -2
100
AcDbLine
 10
6150.665006330069
 20
7752.679057913944
 30
0.0
 11
5858.721909610675
 21
7752.679057913946
 31
0.0
  0
LINE
  5
24BB9
330
22742
100
AcDbEntity
  8
寸法
 62
     0
 48
50.0
370
    -2
100
AcDbLine
 10
6773.6
 20
7677.679057913938
 30
0.0
 11
5858.721909610675
 21
7677.679057913938
 31
0.0
  0
LINE
  5
24BBA
330
22742
100
AcDbEntity
  8
寸法
 62
     0
 48
50.0
370
    -2
100
AcDbLine
 10
5918.721909610674
 20
7752.679057913946
 30
0.0
 11
5918.721909610674
 21
7852.679057913945
 31
0.0
  0
LINE
  5
24BBB
330
22742
100
AcDbEntity
  8
寸法
 62
     0
 48
50.0
370
    -2
100
AcDbLine
 10
5918.721909610674
 20
7677.679057913938
 30
0.0
 11
5918.721909610674
 21
7577.679057913939
 31
0.0
  0
LINE
  5
24BBC
330
22742
100
AcDbEntity
  8
寸法
 62
     0
 48
50.0
370
    -2
100
AcDbLine
 10
5918.721909610674
 20
7752.679057913946
 30
0.0
 11
5918.721909610674
 21
7677.679057913938
 31
0.0
  0
INSERT
  5
24BBD
330
22742
100
AcDbEntity
  8
寸法
 62
     0
 48
50.0
370
    -2
100
AcDbBlockReference
  2
_DOTSMALL
 10
5918.721909610674
 20
7752.679057913946
 30
0.0
 41
100.0
 42
100.0
 43
100.0
 50
270.0
  0
INSERT
  5
24BBE
330
22742
100
AcDbEntity
  8
寸法
 62
     0
 48
50.0
370
    -2
100
AcDbBlockReference
  2
_DOTSMALL
 10
5918.721909610674
 20
7677.679057913938
 30
0.0
 41
100.0
 42
100.0
 43
100.0
 50
90.0
  0
MTEXT
  5
24BBF
330
22742
100
AcDbEntity
  8
寸法
 62
     7
 48
50.0
100
AcDbMText
 10
5818.721909610673
 20
7715.179057913942
 30
0.0
 40
120.0
 41
0.0
 71
     5
 72
     1
  1
\A1;c
  7
STYLE1
 11
0.0000000000000001
 21
1.0
 31
0.0
 73
     1
 44
1.0
1001
ACAD
1000
MTEXTBEGIN
1070
    73
1070
     1
1070
    44
1040
1.0
1070
    74
1070
     0
1000
MTEXTEND
  0
POINT
  5
24BC0
330
22742
100
AcDbEntity
  8
DEFPOINTS
 62
     0
 48
50.0
100
AcDbPoint
 10
6170.665006330069
 20
7752.679057913944
 30
0.0
  0
POINT
  5
24BC1
330
22742
100
AcDbEntity
  8
DEFPOINTS
 62
     0
 48
50.0
100
AcDbPoint
 10
6793.600000000001
 20
7677.679057913938
 30
0.0
  0
POINT
  5
24BC2
330
22742
100
AcDbEntity
  8
DEFPOINTS
 62
     0
 48
50.0
100
AcDbPoint
 10
5918.721909610674
 20
7677.679057913938
 30
0.0
  0
ENDBLK
  5
2274F
330
22742
100
AcDbEntity
  8
0
 48
50.0
100
AcDbBlockEnd
  0
BLOCK
  5
22768
330
2275C
100
AcDbEntity
  8
0
 48
50.0
100
AcDbBlockBegin
  2
*D26
 70
     1
 10
0.0
 20
0.0
 30
0.0
  3
*D26
  1

  0
LINE
  5
24BAD
330
2275C
100
AcDbEntity
  8
寸法
 62
     0
 48
50.0
370
    -2
100
AcDbLine
 10
6773.599999999999
 20
6297.679057913939
 30
0.0
 11
5858.721909610673
 21
6297.679057913939
 31
0.0
  0
LINE
  5
24BAE
330
2275C
100
AcDbEntity
  8
寸法
 62
     0
 48
50.0
370
    -2
100
AcDbLine
 10
6150.665006330071
 20
6242.679057913964
 30
0.0
 11
5858.721909610673
 21
6242.679057913965
 31
0.0
  0
LINE
  5
24BAF
330
2275C
100
AcDbEntity
  8
寸法
 62
     0
 48
50.0
370
    -2
100
AcDbLine
 10
5918.721909610673
 20
6297.679057913939
 30
0.0
 11
5918.721909610673
 21
6397.67905791394
 31
0.0
  0
LINE
  5
24BB0
330
2275C
100
AcDbEntity
  8
寸法
 62
     0
 48
50.0
370
    -2
100
AcDbLine
 10
5918.721909610673
 20
6242.679057913965
 30
0.0
 11
5918.721909610672
 21
6142.679057913966
 31
0.0
  0
LINE
  5
24BB1
330
2275C
100
AcDbEntity
  8
寸法
 62
     0
 48
50.0
370
    -2
100
AcDbLine
 10
5918.721909610673
 20
6297.679057913939
 30
0.0
 11
5918.721909610673
 21
6242.679057913965
 31
0.0
  0
INSERT
  5
24BB2
330
2275C
100
AcDbEntity
  8
寸法
 62
     0
 48
50.0
370
    -2
100
AcDbBlockReference
  2
_DOTSMALL
 10
5918.721909610673
 20
6297.679057913939
 30
0.0
 41
100.0
 42
100.0
 43
100.0
 50
270.0
  0
INSERT
  5
24BB3
330
2275C
100
AcDbEntity
  8
寸法
 62
     0
 48
50.0
370
    -2
100
AcDbBlockReference
  2
_DOTSMALL
 10
5918.721909610673
 20
6242.679057913965
 30
0.0
 41
100.0
 42
100.0
 43
100.0
 50
90.0
  0
MTEXT
  5
24BB4
330
2275C
100
AcDbEntity
  8
寸法
 62
     7
 48
50.0
100
AcDbMText
 10
5818.721909610671
 20
6270.179057913953
 30
0.0
 40
120.0
 41
0.0
 71
     5
 72
     1
  1
\A1;b
  7
STYLE1
 11
0.0000000000000001
 21
1.0
 31
0.0
 73
     1
 44
1.0
1001
ACAD
1000
MTEXTBEGIN
1070
    73
1070
     1
1070
    44
1040
1.0
1070
    74
1070
     0
1000
MTEXTEND
  0
POINT
  5
24BB5
330
2275C
100
AcDbEntity
  8
DEFPOINTS
 62
     0
 48
50.0
100
AcDbPoint
 10
6793.599999999999
 20
6297.679057913939
 30
0.0
  0
POINT
  5
24BB6
330
2275C
100
AcDbEntity
  8
DEFPOINTS
 62
     0
 48
50.0
100
AcDbPoint
 10
6170.665006330072
 20
6242.679057913964
 30
0.0
  0
POINT
  5
24BB7
330
2275C
100
AcDbEntity
  8
DEFPOINTS
 62
     0
 48
50.0
100
AcDbPoint
 10
5918.721909610673
 20
6242.679057913965
 30
0.0
  0
ENDBLK
  5
22769
330
2275C
100
AcDbEntity
  8
0
 48
50.0
100
AcDbBlockEnd
  0
BLOCK
  5
240CF
330
240C4
100
AcDbEntity
  8
0
 48
50.0
100
AcDbBlockBegin
  2
*D27
 70
     1
 10
0.0
 20
0.0
 30
0.0
  3
*D27
  1

  0
LINE
  5
24CB9
330
240C4
100
AcDbEntity
  8
寸法
 62
     0
 48
50.0
370
    -2
100
AcDbLine
 10
9653.6
 20
7132.679057913975
 30
0.0
 11
9653.6
 21
7287.277671012049
 31
0.0
  0
LINE
  5
24CBA
330
240C4
100
AcDbEntity
  8
寸法
 62
     0
 48
50.0
370
    -2
100
AcDbLine
 10
9533.600000000003
 20
7132.679057913975
 30
0.0
 11
9533.600000000003
 21
7287.277671012049
 31
0.0
  0
LINE
  5
24CBB
330
240C4
100
AcDbEntity
  8
寸法
 62
     0
 48
50.0
370
    -2
100
AcDbLine
 10
9533.600000000003
 20
7227.27767101205
 30
0.0
 11
9653.6
 21
7227.27767101205
 31
0.0
  0
LINE
  5
24CBC
330
240C4
100
AcDbEntity
  8
寸法
 62
     0
 48
50.0
370
    -2
100
AcDbLine
 10
9653.6
 20
7227.27767101205
 30
0.0
 11
10059.7062992126
 21
7227.27767101205
 31
0.0
  0
INSERT
  5
24CBD
330
240C4
100
AcDbEntity
  8
寸法
 62
     0
 48
50.0
370
    -2
100
AcDbBlockReference
  2
_DOTSMALL
 10
9533.600000000003
 20
7227.27767101205
 30
0.0
 41
100.0
 42
100.0
 43
100.0
 50
180.0
  0
INSERT
  5
24CBE
330
240C4
100
AcDbEntity
  8
寸法
 62
     0
 48
50.0
370
    -2
100
AcDbBlockReference
  2
_DOTSMALL
 10
9653.6
 20
7227.27767101205
 30
0.0
 41
100.0
 42
100.0
 43
100.0
  0
MTEXT
  5
24CBF
330
240C4
100
AcDbEntity
  8
寸法
 62
     7
 48
50.0
100
AcDbMText
 10
9923.659055118111
 20
7327.289482035671
 30
0.0
 40
120.0
 41
0.0
 71
     5
 72
     1
  1
\A1;120
  7
STYLE1
 73
     1
 44
1.0
1001
ACAD
1000
MTEXTBEGIN
1070
    73
1070
     1
1070
    44
1040
1.0
1070
    74
1070
     0
1000
MTEXTEND
  0
POINT
  5
24CC0
330
240C4
100
AcDbEntity
  8
DEFPOINTS
 62
     0
 48
50.0
100
AcDbPoint
 10
9653.6
 20
7112.679057913975
 30
0.0
  0
POINT
  5
24CC1
330
240C4
100
AcDbEntity
  8
DEFPOINTS
 62
     0
 48
50.0
100
AcDbPoint
 10
9533.600000000003
 20
7112.679057913975
 30
0.0
  0
POINT
  5
24CC2
330
240C4
100
AcDbEntity
  8
DEFPOINTS
 62
     0
 48
50.0
100
AcDbPoint
 10
9533.600000000003
 20
7227.27767101205
 30
0.0
  0
ENDBLK
  5
240D0
330
240C4
100
AcDbEntity
  8
0
 48
50.0
100
AcDbBlockEnd
  0
BLOCK
  5
240DC
330
240D1
100
AcDbEntity
  8
0
 48
50.0
100
AcDbBlockBegin
  2
*D28
 70
     1
 10
0.0
 20
0.0
 30
0.0
  3
*D28
  1

  0
LINE
  5
24C4F
330
240D1
100
AcDbEntity
  8
寸法
 62
     0
 48
50.0
370
    -2
100
AcDbLine
 10
9053.599999999992
 20
6577.679057913936
 30
0.0
 11
8912.812020225658
 21
6577.679057913936
 31
0.0
  0
LINE
  5
24C50
330
240D1
100
AcDbEntity
  8
寸法
 62
     0
 48
50.0
370
    -2
100
AcDbLine
 10
9053.599999999999
 20
6297.679057913956
 30
0.0
 11
8912.812020225658
 21
6297.679057913956
 31
0.0
  0
LINE
  5
24C51
330
240D1
100
AcDbEntity
  8
寸法
 62
     0
 48
50.0
370
    -2
100
AcDbLine
 10
8972.812020225658
 20
6577.679057913936
 30
0.0
 11
8972.812020225658
 21
6297.679057913956
 31
0.0
  0
LINE
  5
24C52
330
240D1
100
AcDbEntity
  8
寸法
 62
     0
 48
50.0
370
    -2
100
AcDbLine
 10
8972.812020225658
 20
6297.679057913956
 30
0.0
 11
8972.812020225658
 21
5861.14460909505
 31
0.0
  0
INSERT
  5
24C53
330
240D1
100
AcDbEntity
  8
寸法
 62
     0
 48
50.0
370
    -2
100
AcDbBlockReference
  2
_DOTSMALL
 10
8972.812020225658
 20
6577.679057913936
 30
0.0
 41
100.0
 42
100.0
 43
100.0
 50
90.0
  0
INSERT
  5
24C54
330
240D1
100
AcDbEntity
  8
寸法
 62
     0
 48
50.0
370
    -2
100
AcDbBlockReference
  2
_DOTSMALL
 10
8972.812020225658
 20
6297.679057913956
 30
0.0
 41
100.0
 42
100.0
 43
100.0
 50
270.0
  0
MTEXT
  5
24C55
330
240D1
100
AcDbEntity
  8
寸法
 62
     7
 48
50.0
100
AcDbMText
 10
8872.800209202035
 20
6010.715475236784
 30
0.0
 40
120.0
 41
0.0
 71
     5
 72
     1
  1
\A1;280
  7
STYLE1
 11
0.0000000000000001
 21
1.0
 31
0.0
 73
     1
 44
1.0
1001
ACAD
1000
MTEXTBEGIN
1070
    73
1070
     1
1070
    44
1040
1.0
1070
    74
1070
     0
1000
MTEXTEND
  0
POINT
  5
24C56
330
240D1
100
AcDbEntity
  8
DEFPOINTS
 62
     0
 48
50.0
100
AcDbPoint
 10
9073.599999999991
 20
6577.679057913936
 30
0.0
  0
POINT
  5
24C57
330
240D1
100
AcDbEntity
  8
DEFPOINTS
 62
     0
 48
50.0
100
AcDbPoint
 10
9073.599999999998
 20
6297.679057913956
 30
0.0
  0
POINT
  5
24C58
330
240D1
100
AcDbEntity
  8
DEFPOINTS
 62
     0
 48
50.0
100
AcDbPoint
 10
8972.812020225658
 20
6297.679057913956
 30
0.0
  0
ENDBLK
  5
240DD
330
240D1
100
AcDbEntity
  8
0
 48
50.0
100
AcDbBlockEnd
  0
BLOCK
  5
240E9
330
240DE
100
AcDbEntity
  8
0
 48
50.0
100
AcDbBlockBegin
  2
*D29
 70
     1
 10
0.0
 20
0.0
 30
0.0
  3
*D29
  1

  0
LINE
  5
24B99
330
240DE
100
AcDbEntity
  8
寸法
 62
     0
 48
50.0
370
    -2
100
AcDbLine
 10
9053.599999999997
 20
7677.679057913926
 30
0.0
 11
8912.812020225658
 21
7677.679057913926
 31
0.0
  0
LINE
  5
24B9A
330
240DE
100
AcDbEntity
  8
寸法
 62
     0
 48
50.0
370
    -2
100
AcDbLine
 10
9053.600000000004
 20
7477.67905791394
 30
0.0
 11
8912.812020225658
 21
7477.67905791394
 31
0.0
  0
LINE
  5
24B9B
330
240DE
100
AcDbEntity
  8
寸法
 62
     0
 48
50.0
370
    -2
100
AcDbLine
 10
8972.812020225658
 20
7477.67905791394
 30
0.0
 11
8972.812020225658
 21
7677.679057913926
 31
0.0
  0
LINE
  5
24B9C
330
240DE
100
AcDbEntity
  8
寸法
 62
     0
 48
50.0
370
    -2
100
AcDbLine
 10
8972.812020225658
 20
7677.679057913926
 30
0.0
 11
8972.812020225658
 21
8114.213506732827
 31
0.0
  0
INSERT
  5
24B9D
330
240DE
100
AcDbEntity
  8
寸法
 62
     0
 48
50.0
370
    -2
100
AcDbBlockReference
  2
_DOTSMALL
 10
8972.812020225658
 20
7477.67905791394
 30
0.0
 41
100.0
 42
100.0
 43
100.0
 50
270.0
  0
INSERT
  5
24B9E
330
240DE
100
AcDbEntity
  8
寸法
 62
     0
 48
50.0
370
    -2
100
AcDbBlockReference
  2
_DOTSMALL
 10
8972.812020225658
 20
7677.679057913926
 30
0.0
 41
100.0
 42
100.0
 43
100.0
 50
90.0
  0
MTEXT
  5
24B9F
330
240DE
100
AcDbEntity
  8
寸法
 62
     7
 48
50.0
100
AcDbMText
 10
8872.800209202035
 20
7964.642640591096
 30
0.0
 40
120.0
 41
0.0
 71
     5
 72
     1
  1
\A1;200
  7
STYLE1
 11
0.0000000000000001
 21
1.0
 31
0.0
 73
     1
 44
1.0
1001
ACAD
1000
MTEXTBEGIN
1070
    73
1070
     1
1070
    44
1040
1.0
1070
    74
1070
     0
1000
MTEXTEND
  0
POINT
  5
24BA0
330
240DE
100
AcDbEntity
  8
DEFPOINTS
 62
     0
 48
50.0
100
AcDbPoint
 10
9073.599999999997
 20
7677.679057913926
 30
0.0
  0
POINT
  5
24BA1
330
240DE
100
AcDbEntity
  8
DEFPOINTS
 62
     0
 48
50.0
100
AcDbPoint
 10
9073.600000000004
 20
7477.67905791394
 30
0.0
  0
POINT
  5
24BA2
330
240DE
100
AcDbEntity
  8
DEFPOINTS
 62
     0
 48
50.0
100
AcDbPoint
 10
8972.812020225658
 20
7477.67905791394
 30
0.0
  0
ENDBLK
  5
240EA
330
240DE
100
AcDbEntity
  8
0
 48
50.0
100
AcDbBlockEnd
  0
BLOCK
  5
246FD
330
246F3
100
AcDbEntity
  8
0
 48
50.0
100
AcDbBlockBegin
  2
*D30
 70
     1
 10
0.0
 20
0.0
 30
0.0
  3
*D30
  1

  0
LINE
  5
24C7E
330
246F3
100
AcDbEntity
  8
寸法
 62
     0
 48
50.0
370
    -2
100
AcDbLine
 10
7748.600000000007
 20
7094.679057913937
 30
0.0
 11
7748.600000000007
 21
8220.287874584185
 31
0.0
  0
LINE
  5
24C7F
330
246F3
100
AcDbEntity
  8
寸法
 62
     0
 48
50.0
370
    -2
100
AcDbLine
 10
6793.600000000001
 20
7697.679057913937
 30
0.0
 11
6793.600000000001
 21
8220.287874584185
 31
0.0
  0
LINE
  5
24C80
330
246F3
100
AcDbEntity
  8
寸法
 62
     0
 48
50.0
370
    -2
100
AcDbLine
 10
7748.600000000007
 20
8160.287874584186
 30
0.0
 11
6793.600000000001
 21
8160.287874584186
 31
0.0
  0
INSERT
  5
24C81
330
246F3
100
AcDbEntity
  8
寸法
 62
     0
 48
50.0
370
    -2
100
AcDbBlockReference
  2
_DOTSMALL
 10
7748.600000000007
 20
8160.287874584186
 30
0.0
 41
100.0
 42
100.0
 43
100.0
  0
INSERT
  5
24C82
330
246F3
100
AcDbEntity
  8
寸法
 62
     0
 48
50.0
370
    -2
100
AcDbBlockReference
  2
_DOTSMALL
 10
6793.600000000001
 20
8160.287874584186
 30
0.0
 41
100.0
 42
100.0
 43
100.0
 50
180.0
  0
MTEXT
  5
24C83
330
246F3
100
AcDbEntity
  8
寸法
 62
     7
 48
50.0
100
AcDbMText
 10
7271.100000000004
 20
8260.287874584186
 30
0.0
 40
120.0
 41
0.0
 71
     5
 72
     1
  1
\A1;955
  7
STYLE1
 73
     1
 44
1.0
1001
ACAD
1000
MTEXTBEGIN
1070
    73
1070
     1
1070
    44
1040
1.0
1070
    74
1070
     0
1000
MTEXTEND
  0
POINT
  5
24C84
330
246F3
100
AcDbEntity
  8
DEFPOINTS
 62
     0
 48
50.0
100
AcDbPoint
 10
7748.600000000007
 20
7074.679057913939
 30
0.0
  0
POINT
  5
24C85
330
246F3
100
AcDbEntity
  8
DEFPOINTS
 62
     0
 48
50.0
100
AcDbPoint
 10
6793.600000000001
 20
7677.679057913938
 30
0.0
  0
POINT
  5
24C86
330
246F3
100
AcDbEntity
  8
DEFPOINTS
 62
     0
 48
50.0
100
AcDbPoint
 10
6793.600000000001
 20
8160.287874584186
 30
0.0
  0
ENDBLK
  5
246FE
330
246F3
100
AcDbEntity
  8
0
 48
50.0
100
AcDbBlockEnd
  0
BLOCK
  5
2470A
330
246FF
100
AcDbEntity
  8
0
 48
50.0
100
AcDbBlockBegin
  2
*D31
 70
     1
 10
0.0
 20
0.0
 30
0.0
  3
*D31
  1

  0
LINE
  5
24BF3
330
246FF
100
AcDbEntity
  8
寸法
 62
     0
 48
50.0
370
    -2
100
AcDbLine
 10
6846.600000000008
 20
6495.679057913942
 30
0.0
 11
6110.665006330073
 21
6495.679057913942
 31
0.0
  0
LINE
  5
24BF4
330
246FF
100
AcDbEntity
  8
寸法
 62
     0
 48
50.0
370
    -2
100
AcDbLine
 10
6773.6
 20
6297.679057913939
 30
0.0
 11
6110.665006330073
 21
6297.679057913939
 31
0.0
  0
LINE
  5
24BF5
330
246FF
100
AcDbEntity
  8
寸法
 62
     0
 48
50.0
370
    -2
100
AcDbLine
 10
6170.665006330073
 20
6495.679057913942
 30
0.0
 11
6170.665006330073
 21
6297.679057913939
 31
0.0
  0
LINE
  5
24BF6
330
246FF
100
AcDbEntity
  8
寸法
 62
     0
 48
50.0
370
    -2
100
AcDbLine
 10
6170.665006330073
 20
6297.679057913939
 30
0.0
 11
6170.665006330072
 21
5825.938449241688
 31
0.0
  0
INSERT
  5
24BF7
330
246FF
100
AcDbEntity
  8
寸法
 62
     0
 48
50.0
370
    -2
100
AcDbBlockReference
  2
_DOTSMALL
 10
6170.665006330073
 20
6495.679057913942
 30
0.0
 41
100.0
 42
100.0
 43
100.0
 50
90.0
  0
INSERT
  5
24BF8
330
246FF
100
AcDbEntity
  8
寸法
 62
     0
 48
50.0
370
    -2
100
AcDbBlockReference
  2
_DOTSMALL
 10
6170.665006330073
 20
6297.679057913939
 30
0.0
 41
100.0
 42
100.0
 43
100.0
 50
270.0
  0
MTEXT
  5
24BF9
330
246FF
100
AcDbEntity
  8
寸法
 62
     7
 48
50.0
100
AcDbMText
 10
6070.665006330071
 20
5962.148109071346
 30
0.0
 40
120.0
 41
0.0
 71
     5
 72
     1
  1
\A1;198
  7
STYLE1
 11
0.0000000000000001
 21
1.0
 31
0.0
 73
     1
 44
1.0
1001
ACAD
1000
MTEXTBEGIN
1070
    73
1070
     1
1070
    44
1040
1.0
1070
    74
1070
     0
1000
MTEXTEND
  0
POINT
  5
24BFA
330
246FF
100
AcDbEntity
  8
DEFPOINTS
 62
     0
 48
50.0
100
AcDbPoint
 10
6866.600000000008
 20
6495.679057913942
 30
0.0
  0
POINT
  5
24BFB
330
246FF
100
AcDbEntity
  8
DEFPOINTS
 62
     0
 48
50.0
100
AcDbPoint
 10
6793.600000000001
 20
6297.679057913939
 30
0.0
  0
POINT
  5
24BFC
330
246FF
100
AcDbEntity
  8
DEFPOINTS
 62
     0
 48
50.0
100
AcDbPoint
 10
6170.665006330073
 20
6297.679057913939
 30
0.0
  0
ENDBLK
  5
2470B
330
246FF
100
AcDbEntity
  8
0
 48
50.0
100
AcDbBlockEnd
  0
BLOCK
  5
24716
330
2470C
100
AcDbEntity
  8
0
 48
50.0
100
AcDbBlockBegin
  2
*D32
 70
     1
 10
0.0
 20
0.0
 30
0.0
  3
*D32
  1

  0
LINE
  5
24B3D
330
2470C
100
AcDbEntity
  8
寸法
 62
     0
 48
50.0
370
    -2
100
AcDbLine
 10
6773.6
 20
6297.679057913891
 30
0.0
 11
6620.512673767876
 21
6297.679057913891
 31
0.0
  0
LINE
  5
24B3E
330
2470C
100
AcDbEntity
  8
寸法
 62
     0
 48
50.0
370
    -2
100
AcDbLine
 10
7129.325326928806
 20
5577.67905791389
 30
0.0
 11
6620.512673767875
 21
5577.67905791389
 31
0.0
  0
LINE
  5
24B3F
330
2470C
100
AcDbEntity
  8
寸法
 62
     0
 48
50.0
370
    -2
100
AcDbLine
 10
6680.512673767876
 20
6297.679057913891
 30
0.0
 11
6680.512673767876
 21
5577.67905791389
 31
0.0
  0
INSERT
  5
24B40
330
2470C
100
AcDbEntity
  8
寸法
 62
     0
 48
50.0
370
    -2
100
AcDbBlockReference
  2
_DOTSMALL
 10
6680.512673767876
 20
6297.679057913891
 30
0.0
 41
100.0
 42
100.0
 43
100.0
 50
90.0
  0
INSERT
  5
24B41
330
2470C
100
AcDbEntity
  8
寸法
 62
     0
 48
50.0
370
    -2
100
AcDbBlockReference
  2
_DOTSMALL
 10
6680.512673767876
 20
5577.67905791389
 30
0.0
 41
100.0
 42
100.0
 43
100.0
 50
270.0
  0
MTEXT
  5
24B42
330
2470C
100
AcDbEntity
  8
寸法
 62
     7
 48
50.0
100
AcDbMText
 10
6580.500862744253
 20
5937.679057913893
 30
0.0
 40
120.0
 41
0.0
 71
     5
 72
     1
  1
\A1;扉の出720
  7
STYLE1
 11
0.0000000000000001
 21
1.0
 31
0.0
 73
     1
 44
1.0
1001
ACAD
1000
MTEXTBEGIN
1070
    73
1070
     1
1070
    44
1040
1.0
1070
    74
1070
     0
1000
MTEXTEND
  0
POINT
  5
24B43
330
2470C
100
AcDbEntity
  8
DEFPOINTS
 62
     0
 48
50.0
100
AcDbPoint
 10
6793.600000000001
 20
6297.679057913891
 30
0.0
  0
POINT
  5
24B44
330
2470C
100
AcDbEntity
  8
DEFPOINTS
 62
     0
 48
50.0
100
AcDbPoint
 10
7149.325326928805
 20
5577.67905791389
 30
0.0
  0
POINT
  5
24B45
330
2470C
100
AcDbEntity
  8
DEFPOINTS
 62
     0
 48
50.0
100
AcDbPoint
 10
6680.512673767876
 20
5577.67905791389
 30
0.0
  0
ENDBLK
  5
24717
330
2470C
100
AcDbEntity
  8
0
 48
50.0
100
AcDbBlockEnd
  0
BLOCK
  5
2472E
330
24724
100
AcDbEntity
  8
0
 48
50.0
100
AcDbBlockBegin
  2
*D33
 70
     1
 10
0.0
 20
0.0
 30
0.0
  3
*D33
  1

  0
LINE
  5
24C75
330
24724
100
AcDbEntity
  8
寸法
 62
     0
 48
50.0
370
    -2
100
AcDbLine
 10
7347.7654751409
 20
6297.679057913949
 30
0.0
 11
7216.285990614302
 21
6297.679057913949
 31
0.0
  0
LINE
  5
24C76
330
24724
100
AcDbEntity
  8
寸法
 62
     0
 48
50.0
370
    -2
100
AcDbLine
 10
7678.600000000007
 20
7024.679057913939
 30
0.0
 11
7216.285990614302
 21
7024.679057913939
 31
0.0
  0
LINE
  5
24C77
330
24724
100
AcDbEntity
  8
寸法
 62
     0
 48
50.0
370
    -2
100
AcDbLine
 10
7276.285990614302
 20
6297.679057913949
 30
0.0
 11
7276.285990614302
 21
7024.679057913939
 31
0.0
  0
INSERT
  5
24C78
330
24724
100
AcDbEntity
  8
寸法
 62
     0
 48
50.0
370
    -2
100
AcDbBlockReference
  2
_DOTSMALL
 10
7276.285990614302
 20
6297.679057913949
 30
0.0
 41
100.0
 42
100.0
 43
100.0
 50
270.0
  0
INSERT
  5
24C79
330
24724
100
AcDbEntity
  8
寸法
 62
     0
 48
50.0
370
    -2
100
AcDbBlockReference
  2
_DOTSMALL
 10
7276.285990614302
 20
7024.679057913939
 30
0.0
 41
100.0
 42
100.0
 43
100.0
 50
90.0
  0
MTEXT
  5
24C7A
330
24724
100
AcDbEntity
  8
寸法
 62
     7
 48
50.0
100
AcDbMText
 10
7176.274179590679
 20
6739.679057913938
 30
0.0
 40
120.0
 41
0.0
 71
     5
 72
     1
  1
\A1;727
  7
STYLE1
 11
0.0000000000000001
 21
1.0
 31
0.0
 73
     1
 44
1.0
1001
ACAD
1000
MTEXTBEGIN
1070
    73
1070
     1
1070
    44
1040
1.0
1070
    74
1070
     0
1000
MTEXTEND
  0
POINT
  5
24C7B
330
24724
100
AcDbEntity
  8
DEFPOINTS
 62
     0
 48
50.0
100
AcDbPoint
 10
7367.765475140901
 20
6297.679057913949
 30
0.0
  0
POINT
  5
24C7C
330
24724
100
AcDbEntity
  8
DEFPOINTS
 62
     0
 48
50.0
100
AcDbPoint
 10
7698.600000000007
 20
7024.679057913939
 30
0.0
  0
POINT
  5
24C7D
330
24724
100
AcDbEntity
  8
DEFPOINTS
 62
     0
 48
50.0
100
AcDbPoint
 10
7276.285990614302
 20
7024.679057913939
 30
0.0
  0
ENDBLK
  5
2472F
330
24724
100
AcDbEntity
  8
0
 48
50.0
100
AcDbBlockEnd
  0
BLOCK
  5
2473B
330
24730
100
AcDbEntity
  8
0
 48
50.0
100
AcDbBlockBegin
  2
*D34
 70
     1
 10
0.0
 20
0.0
 30
0.0
  3
*D34
  1

  0
LINE
  5
24B2A
330
24730
100
AcDbEntity
  8
寸法
 62
     0
 48
50.0
370
    -2
100
AcDbLine
 10
6773.6
 20
7677.679057913938
 30
0.0
 11
6110.665006330072
 21
7677.679057913938
 31
0.0
  0
LINE
  5
24B2B
330
24730
100
AcDbEntity
  8
寸法
 62
     0
 48
50.0
370
    -2
100
AcDbLine
 10
6846.600000000001
 20
7554.679057913938
 30
0.0
 11
6110.665006330072
 21
7554.679057913938
 31
0.0
  0
LINE
  5
24B2C
330
24730
100
AcDbEntity
  8
寸法
 62
     0
 48
50.0
370
    -2
100
AcDbLine
 10
6170.665006330072
 20
7554.679057913938
 30
0.0
 11
6170.665006330072
 21
7677.679057913938
 31
0.0
  0
LINE
  5
24B2D
330
24730
100
AcDbEntity
  8
寸法
 62
     0
 48
50.0
370
    -2
100
AcDbLine
 10
6170.665006330072
 20
7677.679057913938
 30
0.0
 11
6170.665006330072
 21
8089.270941005976
 31
0.0
  0
INSERT
  5
24B2E
330
24730
100
AcDbEntity
  8
寸法
 62
     0
 48
50.0
370
    -2
100
AcDbBlockReference
  2
_DOTSMALL
 10
6170.665006330072
 20
7554.679057913938
 30
0.0
 41
100.0
 42
100.0
 43
100.0
 50
270.0
  0
INSERT
  5
24B2F
330
24730
100
AcDbEntity
  8
寸法
 62
     0
 48
50.0
370
    -2
100
AcDbBlockReference
  2
_DOTSMALL
 10
6170.665006330072
 20
7677.679057913938
 30
0.0
 41
100.0
 42
100.0
 43
100.0
 50
90.0
  0
MTEXT
  5
24B30
330
24730
100
AcDbEntity
  8
寸法
 62
     7
 48
50.0
100
AcDbMText
 10
6070.65319530645
 20
7950.785659631738
 30
0.0
 40
120.0
 41
0.0
 71
     5
 72
     1
  1
\A1;123
  7
STYLE1
 11
0.0000000000000001
 21
1.0
 31
0.0
 73
     1
 44
1.0
1001
ACAD
1000
MTEXTBEGIN
1070
    73
1070
     1
1070
    44
1040
1.0
1070
    74
1070
     0
1000
MTEXTEND
  0
POINT
  5
24B31
330
24730
100
AcDbEntity
  8
DEFPOINTS
 62
     0
 48
50.0
100
AcDbPoint
 10
6793.600000000001
 20
7677.679057913938
 30
0.0
  0
POINT
  5
24B32
330
24730
100
AcDbEntity
  8
DEFPOINTS
 62
     0
 48
50.0
100
AcDbPoint
 10
6866.600000000001
 20
7554.679057913938
 30
0.0
  0
POINT
  5
24B33
330
24730
100
AcDbEntity
  8
DEFPOINTS
 62
     0
 48
50.0
100
AcDbPoint
 10
6170.665006330072
 20
7554.679057913938
 30
0.0
  0
ENDBLK
  5
2473C
330
24730
100
AcDbEntity
  8
0
 48
50.0
100
AcDbBlockEnd
  0
BLOCK
  5
24755
330
2474A
100
AcDbEntity
  8
0
 48
50.0
100
AcDbBlockBegin
  2
*D35
 70
     1
 10
0.0
 20
0.0
 30
0.0
  3
*D35
  1

  0
LINE
  5
24B20
330
2474A
100
AcDbEntity
  8
寸法
 62
     0
 48
50.0
370
    -2
100
AcDbLine
 10
6916.600000000001
 20
7624.679057913938
 30
0.0
 11
6916.600000000001
 21
8463.945516007848
 31
0.0
  0
LINE
  5
24B21
330
2474A
100
AcDbEntity
  8
寸法
 62
     0
 48
50.0
370
    -2
100
AcDbLine
 10
6793.600000000001
 20
7697.679057913937
 30
0.0
 11
6793.600000000001
 21
8463.945516007848
 31
0.0
  0
LINE
  5
24B22
330
2474A
100
AcDbEntity
  8
寸法
 62
     0
 48
50.0
370
    -2
100
AcDbLine
 10
6916.600000000001
 20
8403.94551600785
 30
0.0
 11
6793.600000000001
 21
8403.94551600785
 31
0.0
  0
LINE
  5
24B23
330
2474A
100
AcDbEntity
  8
寸法
 62
     0
 48
50.0
370
    -2
100
AcDbLine
 10
6793.600000000001
 20
8403.94551600785
 30
0.0
 11
6382.008116907964
 21
8403.94551600785
 31
0.0
  0
INSERT
  5
24B24
330
2474A
100
AcDbEntity
  8
寸法
 62
     0
 48
50.0
370
    -2
100
AcDbBlockReference
  2
_DOTSMALL
 10
6916.600000000001
 20
8403.94551600785
 30
0.0
 41
100.0
 42
100.0
 43
100.0
  0
INSERT
  5
24B25
330
2474A
100
AcDbEntity
  8
寸法
 62
     0
 48
50.0
370
    -2
100
AcDbBlockReference
  2
_DOTSMALL
 10
6793.600000000001
 20
8403.94551600785
 30
0.0
 41
100.0
 42
100.0
 43
100.0
 50
180.0
  0
MTEXT
  5
24B26
330
2474A
100
AcDbEntity
  8
寸法
 62
     7
 48
50.0
100
AcDbMText
 10
6520.493398282202
 20
8503.95732703147
 30
0.0
 40
120.0
 41
0.0
 71
     5
 72
     1
  1
\A1;123
  7
STYLE1
 73
     1
 44
1.0
1001
ACAD
1000
MTEXTBEGIN
1070
    73
1070
     1
1070
    44
1040
1.0
1070
    74
1070
     0
1000
MTEXTEND
  0
POINT
  5
24B27
330
2474A
100
AcDbEntity
  8
DEFPOINTS
 62
     0
 48
50.0
100
AcDbPoint
 10
6916.600000000001
 20
7604.679057913938
 30
0.0
  0
POINT
  5
24B28
330
2474A
100
AcDbEntity
  8
DEFPOINTS
 62
     0
 48
50.0
100
AcDbPoint
 10
6793.600000000001
 20
7677.679057913938
 30
0.0
  0
POINT
  5
24B29
330
2474A
100
AcDbEntity
  8
DEFPOINTS
 62
     0
 48
50.0
100
AcDbPoint
 10
6793.600000000001
 20
8403.94551600785
 30
0.0
  0
ENDBLK
  5
24756
330
2474A
100
AcDbEntity
  8
0
 48
50.0
100
AcDbBlockEnd
  0
BLOCK
  5
2476B
330
24761
100
AcDbEntity
  8
0
 48
50.0
100
AcDbBlockBegin
  2
*D36
 70
     1
 10
0.0
 20
0.0
 30
0.0
  3
*D36
  1

  0
LINE
  5
24C6C
330
24761
100
AcDbEntity
  8
寸法
 62
     0
 48
50.0
370
    -2
100
AcDbLine
 10
9653.6
 20
7697.679057913937
 30
0.0
 11
9653.6
 21
8220.287874584185
 31
0.0
  0
LINE
  5
24C6D
330
24761
100
AcDbEntity
  8
寸法
 62
     0
 48
50.0
370
    -2
100
AcDbLine
 10
8698.600000000007
 20
7094.679057913937
 30
0.0
 11
8698.600000000007
 21
8220.287874584185
 31
0.0
  0
LINE
  5
24C6E
330
24761
100
AcDbEntity
  8
寸法
 62
     0
 48
50.0
370
    -2
100
AcDbLine
 10
9653.6
 20
8160.287874584186
 30
0.0
 11
8698.600000000007
 21
8160.287874584186
 31
0.0
  0
INSERT
  5
24C6F
330
24761
100
AcDbEntity
  8
寸法
 62
     0
 48
50.0
370
    -2
100
AcDbBlockReference
  2
_DOTSMALL
 10
9653.6
 20
8160.287874584186
 30
0.0
 41
100.0
 42
100.0
 43
100.0
  0
INSERT
  5
24C70
330
24761
100
AcDbEntity
  8
寸法
 62
     0
 48
50.0
370
    -2
100
AcDbBlockReference
  2
_DOTSMALL
 10
8698.600000000007
 20
8160.287874584186
 30
0.0
 41
100.0
 42
100.0
 43
100.0
 50
180.0
  0
MTEXT
  5
24C71
330
24761
100
AcDbEntity
  8
寸法
 62
     7
 48
50.0
100
AcDbMText
 10
9176.100000000003
 20
8260.287874584186
 30
0.0
 40
120.0
 41
0.0
 71
     5
 72
     1
  1
\A1;955
  7
STYLE1
 73
     1
 44
1.0
1001
ACAD
1000
MTEXTBEGIN
1070
    73
1070
     1
1070
    44
1040
1.0
1070
    74
1070
     0
1000
MTEXTEND
  0
POINT
  5
24C72
330
24761
100
AcDbEntity
  8
DEFPOINTS
 62
     0
 48
50.0
100
AcDbPoint
 10
9653.6
 20
7677.679057913938
 30
0.0
  0
POINT
  5
24C73
330
24761
100
AcDbEntity
  8
DEFPOINTS
 62
     0
 48
50.0
100
AcDbPoint
 10
8698.600000000007
 20
7074.679057913939
 30
0.0
  0
POINT
  5
24C74
330
24761
100
AcDbEntity
  8
DEFPOINTS
 62
     0
 48
50.0
100
AcDbPoint
 10
8698.600000000007
 20
8160.287874584186
 30
0.0
  0
ENDBLK
  5
2476C
330
24761
100
AcDbEntity
  8
0
 48
50.0
100
AcDbBlockEnd
  0
BLOCK
  5
24792
330
24787
100
AcDbEntity
  8
0
 48
50.0
100
AcDbBlockBegin
  2
*D37
 70
     1
 10
0.0
 20
0.0
 30
0.0
  3
*D37
  1

  0
LINE
  5
24B0D
330
24787
100
AcDbEntity
  8
寸法
 62
     0
 48
50.0
370
    -2
100
AcDbLine
 10
9653.6
 20
7697.679057913937
 30
0.0
 11
9653.6
 21
8463.945516007848
 31
0.0
  0
LINE
  5
24B0E
330
24787
100
AcDbEntity
  8
寸法
 62
     0
 48
50.0
370
    -2
100
AcDbLine
 10
9530.600000000001
 20
7624.679057913938
 30
0.0
 11
9530.600000000001
 21
8463.945516007848
 31
0.0
  0
LINE
  5
24B0F
330
24787
100
AcDbEntity
  8
寸法
 62
     0
 48
50.0
370
    -2
100
AcDbLine
 10
9530.600000000001
 20
8403.94551600785
 30
0.0
 11
9653.6
 21
8403.94551600785
 31
0.0
  0
LINE
  5
24B10
330
24787
100
AcDbEntity
  8
寸法
 62
     0
 48
50.0
370
    -2
100
AcDbLine
 10
9653.6
 20
8403.94551600785
 30
0.0
 11
10065.19188309203
 21
8403.94551600785
 31
0.0
  0
INSERT
  5
24B11
330
24787
100
AcDbEntity
  8
寸法
 62
     0
 48
50.0
370
    -2
100
AcDbBlockReference
  2
_DOTSMALL
 10
9530.600000000001
 20
8403.94551600785
 30
0.0
 41
100.0
 42
100.0
 43
100.0
 50
180.0
  0
INSERT
  5
24B12
330
24787
100
AcDbEntity
  8
寸法
 62
     0
 48
50.0
370
    -2
100
AcDbBlockReference
  2
_DOTSMALL
 10
9653.6
 20
8403.94551600785
 30
0.0
 41
100.0
 42
100.0
 43
100.0
  0
MTEXT
  5
24B13
330
24787
100
AcDbEntity
  8
寸法
 62
     7
 48
50.0
100
AcDbMText
 10
9926.706601717798
 20
8503.95732703147
 30
0.0
 40
120.0
 41
0.0
 71
     5
 72
     1
  1
\A1;123
  7
STYLE1
 73
     1
 44
1.0
1001
ACAD
1000
MTEXTBEGIN
1070
    73
1070
     1
1070
    44
1040
1.0
1070
    74
1070
     0
1000
MTEXTEND
  0
POINT
  5
24B14
330
24787
100
AcDbEntity
  8
DEFPOINTS
 62
     0
 48
50.0
100
AcDbPoint
 10
9653.6
 20
7677.679057913938
 30
0.0
  0
POINT
  5
24B15
330
24787
100
AcDbEntity
  8
DEFPOINTS
 62
     0
 48
50.0
100
AcDbPoint
 10
9530.600000000001
 20
7604.679057913938
 30
0.0
  0
POINT
  5
24B16
330
24787
100
AcDbEntity
  8
DEFPOINTS
 62
     0
 48
50.0
100
AcDbPoint
 10
9530.600000000001
 20
8403.94551600785
 30
0.0
  0
ENDBLK
  5
24793
330
24787
100
AcDbEntity
  8
0
 48
50.0
100
AcDbBlockEnd
  0
BLOCK
  5
247B8
330
247AE
100
AcDbEntity
  8
0
 48
50.0
100
AcDbBlockBegin
  2
*D38
 70
     1
 10
0.0
 20
0.0
 30
0.0
  3
*D38
  1

  0
LINE
  5
24C90
330
247AE
100
AcDbEntity
  8
寸法
 62
     0
 48
50.0
370
    -2
100
AcDbLine
 10
7748.600000000007
 20
7094.679057913937
 30
0.0
 11
7748.600000000007
 21
8220.287874584185
 31
0.0
  0
LINE
  5
24C91
330
247AE
100
AcDbEntity
  8
寸法
 62
     0
 48
50.0
370
    -2
100
AcDbLine
 10
8698.600000000007
 20
7094.679057913937
 30
0.0
 11
8698.600000000007
 21
8220.287874584185
 31
0.0
  0
LINE
  5
24C92
330
247AE
100
AcDbEntity
  8
寸法
 62
     0
 48
50.0
370
    -2
100
AcDbLine
 10
7748.600000000007
 20
8160.287874584186
 30
0.0
 11
8698.600000000007
 21
8160.287874584186
 31
0.0
  0
INSERT
  5
24C93
330
247AE
100
AcDbEntity
  8
寸法
 62
     0
 48
50.0
370
    -2
100
AcDbBlockReference
  2
_DOTSMALL
 10
7748.600000000007
 20
8160.287874584186
 30
0.0
 41
100.0
 42
100.0
 43
100.0
 50
180.0
  0
INSERT
  5
24C94
330
247AE
100
AcDbEntity
  8
寸法
 62
     0
 48
50.0
370
    -2
100
AcDbBlockReference
  2
_DOTSMALL
 10
8698.600000000007
 20
8160.287874584186
 30
0.0
 41
100.0
 42
100.0
 43
100.0
  0
MTEXT
  5
24C95
330
247AE
100
AcDbEntity
  8
寸法
 62
     7
 48
50.0
100
AcDbMText
 10
8223.600000000008
 20
8260.287874584186
 30
0.0
 40
120.0
 41
0.0
 71
     5
 72
     1
  1
\A1;950
  7
STYLE1
 73
     1
 44
1.0
1001
ACAD
1000
MTEXTBEGIN
1070
    73
1070
     1
1070
    44
1040
1.0
1070
    74
1070
     0
1000
MTEXTEND
  0
POINT
  5
24C96
330
247AE
100
AcDbEntity
  8
DEFPOINTS
 62
     0
 48
50.0
100
AcDbPoint
 10
7748.600000000007
 20
7074.679057913939
 30
0.0
  0
POINT
  5
24C97
330
247AE
100
AcDbEntity
  8
DEFPOINTS
 62
     0
 48
50.0
100
AcDbPoint
 10
8698.600000000007
 20
7074.679057913939
 30
0.0
  0
POINT
  5
24C98
330
247AE
100
AcDbEntity
  8
DEFPOINTS
 62
     0
 48
50.0
100
AcDbPoint
 10
8698.600000000007
 20
8160.287874584186
 30
0.0
  0
ENDBLK
  5
247B9
330
247AE
100
AcDbEntity
  8
0
 48
50.0
100
AcDbBlockEnd
  0
BLOCK
  5
247C3
330
247BA
100
AcDbEntity
  8
0
 48
50.0
100
AcDbBlockBegin
  2
*D39
 70
     1
 10
0.0
 20
0.0
 30
0.0
  3
*D39
  1

  0
LINE
  5
24B7D
330
247BA
100
AcDbEntity
  8
寸法
 62
     0
 48
50.0
370
    -2
100
AcDbLine
 10
9530.600000000001
 20
7624.679057913938
 30
0.0
 11
9530.600000000001
 21
8463.945516007848
 31
0.0
  0
LINE
  5
24B7E
330
247BA
100
AcDbEntity
  8
寸法
 62
     0
 48
50.0
370
    -2
100
AcDbLine
 10
6916.600000000001
 20
7624.679057913938
 30
0.0
 11
6916.600000000001
 21
8463.945516007848
 31
0.0
  0
LINE
  5
24B7F
330
247BA
100
AcDbEntity
  8
寸法
 62
     0
 48
50.0
370
    -2
100
AcDbLine
 10
9530.600000000001
 20
8403.94551600785
 30
0.0
 11
6916.600000000001
 21
8403.94551600785
 31
0.0
  0
INSERT
  5
24B80
330
247BA
100
AcDbEntity
  8
寸法
 62
     0
 48
50.0
370
    -2
100
AcDbBlockReference
  2
_DOTSMALL
 10
9530.600000000001
 20
8403.94551600785
 30
0.0
 41
100.0
 42
100.0
 43
100.0
  0
INSERT
  5
24B81
330
247BA
100
AcDbEntity
  8
寸法
 62
     0
 48
50.0
370
    -2
100
AcDbBlockReference
  2
_DOTSMALL
 10
6916.600000000001
 20
8403.94551600785
 30
0.0
 41
100.0
 42
100.0
 43
100.0
 50
180.0
  0
MTEXT
  5
24B82
330
247BA
100
AcDbEntity
  8
寸法
 62
     7
 48
50.0
100
AcDbMText
 10
8223.600000000001
 20
8503.95732703147
 30
0.0
 40
120.0
 41
0.0
 71
     5
 72
     1
  1
\A1;2614
  7
STYLE1
 73
     1
 44
1.0
1001
ACAD
1000
MTEXTBEGIN
1070
    73
1070
     1
1070
    44
1040
1.0
1070
    74
1070
     0
1000
MTEXTEND
  0
POINT
  5
24B83
330
247BA
100
AcDbEntity
  8
DEFPOINTS
 62
     0
 48
50.0
100
AcDbPoint
 10
9530.600000000001
 20
7604.679057913938
 30
0.0
  0
POINT
  5
24B84
330
247BA
100
AcDbEntity
  8
DEFPOINTS
 62
     0
 48
50.0
100
AcDbPoint
 10
6916.600000000001
 20
7604.679057913938
 30
0.0
  0
POINT
  5
24B85
330
247BA
100
AcDbEntity
  8
DEFPOINTS
 62
     0
 48
50.0
100
AcDbPoint
 10
6916.600000000001
 20
8403.94551600785
 30
0.0
  0
ENDBLK
  5
247C4
330
247BA
100
AcDbEntity
  8
0
 48
50.0
100
AcDbBlockEnd
  0
BLOCK
  5
247CF
330
247C5
100
AcDbEntity
  8
0
 48
50.0
100
AcDbBlockBegin
  2
*D40
 70
     1
 10
0.0
 20
0.0
 30
0.0
  3
*D40
  1

  0
LINE
  5
24B74
330
247C5
100
AcDbEntity
  8
寸法
 62
     0
 48
50.0
370
    -2
100
AcDbLine
 10
6793.600000000001
 20
7697.679057913937
 30
0.0
 11
6793.600000000001
 21
8695.899379972855
 31
0.0
  0
LINE
  5
24B75
330
247C5
100
AcDbEntity
  8
寸法
 62
     0
 48
50.0
370
    -2
100
AcDbLine
 10
9653.6
 20
7697.679057913937
 30
0.0
 11
9653.6
 21
8695.899379972855
 31
0.0
  0
LINE
  5
24B76
330
247C5
100
AcDbEntity
  8
寸法
 62
     0
 48
50.0
370
    -2
100
AcDbLine
 10
6793.600000000001
 20
8635.899379972856
 30
0.0
 11
9653.6
 21
8635.899379972856
 31
0.0
  0
INSERT
  5
24B77
330
247C5
100
AcDbEntity
  8
寸法
 62
     0
 48
50.0
370
    -2
100
AcDbBlockReference
  2
_DOTSMALL
 10
6793.600000000001
 20
8635.899379972856
 30
0.0
 41
100.0
 42
100.0
 43
100.0
 50
180.0
  0
INSERT
  5
24B78
330
247C5
100
AcDbEntity
  8
寸法
 62
     0
 48
50.0
370
    -2
100
AcDbBlockReference
  2
_DOTSMALL
 10
9653.6
 20
8635.899379972856
 30
0.0
 41
100.0
 42
100.0
 43
100.0
  0
MTEXT
  5
24B79
330
247C5
100
AcDbEntity
  8
寸法
 62
     7
 48
50.0
100
AcDbMText
 10
8223.600000000001
 20
8735.911190996478
 30
0.0
 40
120.0
 41
0.0
 71
     5
 72
     1
  1
\A1;2860
  7
STYLE1
 73
     1
 44
1.0
1001
ACAD
1000
MTEXTBEGIN
1070
    73
1070
     1
1070
    44
1040
1.0
1070
    74
1070
     0
1000
MTEXTEND
  0
POINT
  5
24B7A
330
247C5
100
AcDbEntity
  8
DEFPOINTS
 62
     0
 48
50.0
100
AcDbPoint
 10
6793.600000000001
 20
7677.679057913938
 30
0.0
  0
POINT
  5
24B7B
330
247C5
100
AcDbEntity
  8
DEFPOINTS
 62
     0
 48
50.0
100
AcDbPoint
 10
9653.6
 20
7677.679057913938
 30
0.0
  0
POINT
  5
24B7C
330
247C5
100
AcDbEntity
  8
DEFPOINTS
 62
     0
 48
50.0
100
AcDbPoint
 10
9653.6
 20
8635.899379972856
 30
0.0
  0
ENDBLK
  5
247D0
330
247C5
100
AcDbEntity
  8
0
 48
50.0
100
AcDbBlockEnd
  0
BLOCK
  5
247DB
330
247D1
100
AcDbEntity
  8
0
 48
50.0
100
AcDbBlockBegin
  2
*D41
 70
     1
 10
0.0
 20
0.0
 30
0.0
  3
*D41
  1

  0
LINE
  5
24C99
330
247D1
100
AcDbEntity
  8
寸法
 62
     0
 48
50.0
370
    -2
100
AcDbLine
 10
7678.600000000007
 20
7024.679057913939
 30
0.0
 11
7216.285990614304
 21
7024.679057913939
 31
0.0
  0
LINE
  5
24C9A
330
247D1
100
AcDbEntity
  8
寸法
 62
     0
 48
50.0
370
    -2
100
AcDbLine
 10
7347.7654751409
 20
7677.679057913938
 30
0.0
 11
7216.285990614304
 21
7677.679057913938
 31
0.0
  0
LINE
  5
24C9B
330
247D1
100
AcDbEntity
  8
寸法
 62
     0
 48
50.0
370
    -2
100
AcDbLine
 10
7276.285990614304
 20
7024.679057913939
 30
0.0
 11
7276.285990614304
 21
7677.679057913938
 31
0.0
  0
INSERT
  5
24C9C
330
247D1
100
AcDbEntity
  8
寸法
 62
     0
 48
50.0
370
    -2
100
AcDbBlockReference
  2
_DOTSMALL
 10
7276.285990614304
 20
7024.679057913939
 30
0.0
 41
100.0
 42
100.0
 43
100.0
 50
270.0
  0
INSERT
  5
24C9D
330
247D1
100
AcDbEntity
  8
寸法
 62
     0
 48
50.0
370
    -2
100
AcDbBlockReference
  2
_DOTSMALL
 10
7276.285990614304
 20
7677.679057913938
 30
0.0
 41
100.0
 42
100.0
 43
100.0
 50
90.0
  0
MTEXT
  5
24C9E
330
247D1
100
AcDbEntity
  8
寸法
 62
     7
 48
50.0
100
AcDbMText
 10
7176.285990614302
 20
7298.32174435187
 30
0.0
 40
120.0
 41
0.0
 71
     5
 72
     1
  1
\A1;653
  7
STYLE1
 11
0.0000000000000001
 21
1.0
 31
0.0
 73
     1
 44
1.0
1001
ACAD
1000
MTEXTBEGIN
1070
    73
1070
     1
1070
    44
1040
1.0
1070
    74
1070
     0
1000
MTEXTEND
  0
POINT
  5
24C9F
330
247D1
100
AcDbEntity
  8
DEFPOINTS
 62
     0
 48
50.0
100
AcDbPoint
 10
7698.600000000007
 20
7024.679057913939
 30
0.0
  0
POINT
  5
24CA0
330
247D1
100
AcDbEntity
  8
DEFPOINTS
 62
     0
 48
50.0
100
AcDbPoint
 10
7367.765475140901
 20
7677.679057913938
 30
0.0
  0
POINT
  5
24CA1
330
247D1
100
AcDbEntity
  8
DEFPOINTS
 62
     0
 48
50.0
100
AcDbPoint
 10
7276.285990614304
 20
7677.679057913938
 30
0.0
  0
ENDBLK
  5
247DC
330
247D1
100
AcDbEntity
  8
0
 48
50.0
100
AcDbBlockEnd
  0
BLOCK
  5
247E7
330
247DD
100
AcDbEntity
  8
0
 48
50.0
100
AcDbBlockBegin
  2
*D42
 70
     1
 10
0.0
 20
0.0
 30
0.0
  3
*D42
  1

  0
LINE
  5
24BFD
330
247DD
100
AcDbEntity
  8
寸法
 62
     0
 48
50.0
370
    -2
100
AcDbLine
 10
6846.600000000001
 20
7554.679057913938
 30
0.0
 11
6110.665006330073
 21
7554.679057913938
 31
0.0
  0
LINE
  5
24BFE
330
247DD
100
AcDbEntity
  8
寸法
 62
     0
 48
50.0
370
    -2
100
AcDbLine
 10
6846.600000000008
 20
6495.679057913942
 30
0.0
 11
6110.665006330073
 21
6495.679057913942
 31
0.0
  0
LINE
  5
24BFF
330
247DD
100
AcDbEntity
  8
寸法
 62
     0
 48
50.0
370
    -2
100
AcDbLine
 10
6170.665006330073
 20
7554.679057913938
 30
0.0
 11
6170.665006330073
 21
6495.679057913942
 31
0.0
  0
INSERT
  5
24C00
330
247DD
100
AcDbEntity
  8
寸法
 62
     0
 48
50.0
370
    -2
100
AcDbBlockReference
  2
_DOTSMALL
 10
6170.665006330073
 20
7554.679057913938
 30
0.0
 41
100.0
 42
100.0
 43
100.0
 50
90.0
  0
INSERT
  5
24C01
330
247DD
100
AcDbEntity
  8
寸法
 62
     0
 48
50.0
370
    -2
100
AcDbBlockReference
  2
_DOTSMALL
 10
6170.665006330073
 20
6495.679057913942
 30
0.0
 41
100.0
 42
100.0
 43
100.0
 50
270.0
  0
MTEXT
  5
24C02
330
247DD
100
AcDbEntity
  8
寸法
 62
     7
 48
50.0
100
AcDbMText
 10
6070.665006330071
 20
7025.179057913938
 30
0.0
 40
120.0
 41
0.0
 71
     5
 72
     1
  1
\A1;1059
  7
STYLE1
 11
0.0000000000000001
 21
1.0
 31
0.0
 73
     1
 44
1.0
1001
ACAD
1000
MTEXTBEGIN
1070
    73
1070
     1
1070
    44
1040
1.0
1070
    74
1070
     0
1000
MTEXTEND
  0
POINT
  5
24C03
330
247DD
100
AcDbEntity
  8
DEFPOINTS
 62
     0
 48
50.0
100
AcDbPoint
 10
6866.600000000001
 20
7554.679057913938
 30
0.0
  0
POINT
  5
24C04
330
247DD
100
AcDbEntity
  8
DEFPOINTS
 62
     0
 48
50.0
100
AcDbPoint
 10
6866.600000000008
 20
6495.679057913942
 30
0.0
  0
POINT
  5
24C05
330
247DD
100
AcDbEntity
  8
DEFPOINTS
 62
     0
 48
50.0
100
AcDbPoint
 10
6170.665006330073
 20
6495.679057913942
 30
0.0
  0
ENDBLK
  5
247E8
330
247DD
100
AcDbEntity
  8
0
 48
50.0
100
AcDbBlockEnd
  0
BLOCK
  5
247F3
330
247E9
100
AcDbEntity
  8
0
 48
50.0
100
AcDbBlockBegin
  2
*D43
 70
     1
 10
0.0
 20
0.0
 30
0.0
  3
*D43
  1

  0
LINE
  5
24B59
330
247E9
100
AcDbEntity
  8
寸法
 62
     0
 48
50.0
370
    -2
100
AcDbLine
 10
6773.6
 20
7677.679057913938
 30
0.0
 11
5858.721909610675
 21
7677.679057913938
 31
0.0
  0
LINE
  5
24B5A
330
247E9
100
AcDbEntity
  8
寸法
 62
     0
 48
50.0
370
    -2
100
AcDbLine
 10
6773.6
 20
6297.679057913939
 30
0.0
 11
5858.721909610675
 21
6297.679057913939
 31
0.0
  0
LINE
  5
24B5B
330
247E9
100
AcDbEntity
  8
寸法
 62
     0
 48
50.0
370
    -2
100
AcDbLine
 10
5918.721909610674
 20
7677.679057913938
 30
0.0
 11
5918.721909610674
 21
6297.679057913939
 31
0.0
  0
INSERT
  5
24B5C
330
247E9
100
AcDbEntity
  8
寸法
 62
     0
 48
50.0
370
    -2
100
AcDbBlockReference
  2
_DOTSMALL
 10
5918.721909610674
 20
7677.679057913938
 30
0.0
 41
100.0
 42
100.0
 43
100.0
 50
90.0
  0
INSERT
  5
24B5D
330
247E9
100
AcDbEntity
  8
寸法
 62
     0
 48
50.0
370
    -2
100
AcDbBlockReference
  2
_DOTSMALL
 10
5918.721909610674
 20
6297.679057913939
 30
0.0
 41
100.0
 42
100.0
 43
100.0
 50
270.0
  0
MTEXT
  5
24B5E
330
247E9
100
AcDbEntity
  8
寸法
 62
     7
 48
50.0
100
AcDbMText
 10
5818.721909610673
 20
7025.179057913938
 30
0.0
 40
120.0
 41
0.0
 71
     5
 72
     1
  1
\A1;1380
  7
STYLE1
 11
0.0000000000000001
 21
1.0
 31
0.0
 73
     1
 44
1.0
1001
ACAD
1000
MTEXTBEGIN
1070
    73
1070
     1
1070
    44
1040
1.0
1070
    74
1070
     0
1000
MTEXTEND
  0
POINT
  5
24B5F
330
247E9
100
AcDbEntity
  8
DEFPOINTS
 62
     0
 48
50.0
100
AcDbPoint
 10
6793.600000000001
 20
7677.679057913938
 30
0.0
  0
POINT
  5
24B60
330
247E9
100
AcDbEntity
  8
DEFPOINTS
 62
     0
 48
50.0
100
AcDbPoint
 10
6793.600000000001
 20
6297.679057913939
 30
0.0
  0
POINT
  5
24B61
330
247E9
100
AcDbEntity
  8
DEFPOINTS
 62
     0
 48
50.0
100
AcDbPoint
 10
5918.721909610674
 20
6297.679057913939
 30
0.0
  0
ENDBLK
  5
247F4
330
247E9
100
AcDbEntity
  8
0
 48
50.0
100
AcDbBlockEnd
  0
BLOCK
  5
24F85
330
24F7B
100
AcDbEntity
  8
0
 48
50.0
100
AcDbBlockBegin
  2
*D50
 70
     1
 10
0.0
 20
0.0
 30
0.0
  3
*D50
  1

  0
LINE
  5
24FC5
330
24F7B
100
AcDbEntity
  8
寸法
 62
     0
 48
50.0
370
    -2
100
AcDbLine
 10
6473.25957830273
 20
1924.280528767735
 30
0.0
 11
6473.25957830273
 21
2383.948336684115
 31
0.0
  0
LINE
  5
24FC6
330
24F7B
100
AcDbEntity
  8
寸法
 62
     0
 48
50.0
370
    -2
100
AcDbLine
 10
6281.259578302731
 20
1924.280528767735
 30
0.0
 11
6281.259578302731
 21
2383.948336684115
 31
0.0
  0
LINE
  5
24FC7
330
24F7B
100
AcDbEntity
  8
寸法
 62
     0
 48
50.0
370
    -2
100
AcDbLine
 10
6473.25957830273
 20
2323.948336684115
 30
0.0
 11
6281.259578302731
 21
2323.948336684115
 31
0.0
  0
INSERT
  5
24FC8
330
24F7B
100
AcDbEntity
  8
寸法
 62
     0
 48
50.0
370
    -2
100
AcDbBlockReference
  2
_DOTSMALL
 10
6473.25957830273
 20
2323.948336684115
 30
0.0
 41
100.0
 42
100.0
 43
100.0
  0
INSERT
  5
24FC9
330
24F7B
100
AcDbEntity
  8
寸法
 62
     0
 48
50.0
370
    -2
100
AcDbBlockReference
  2
_DOTSMALL
 10
6281.259578302731
 20
2323.948336684115
 30
0.0
 41
100.0
 42
100.0
 43
100.0
 50
180.0
  0
MTEXT
  5
24FCA
330
24F7B
100
AcDbEntity
  8
寸法
 62
     7
 48
50.0
100
AcDbMText
 10
6377.259578302731
 20
2623.983769754981
 30
0.0
 40
120.0
 41
0.0
 71
     5
 72
     1
  1
\A1;120\P200\P280
  7
STYLE1
 73
     1
 44
1.0
1001
ACAD
1000
MTEXTBEGIN
1070
    73
1070
     1
1070
    44
1040
1.0
1070
    74
1070
     0
1000
MTEXTEND
  0
POINT
  5
24FCB
330
24F7B
100
AcDbEntity
  8
DEFPOINTS
 62
     0
 48
50.0
100
AcDbPoint
 10
6473.25957830273
 20
1904.280528767734
 30
0.0
  0
POINT
  5
24FCC
330
24F7B
100
AcDbEntity
  8
DEFPOINTS
 62
     0
 48
50.0
100
AcDbPoint
 10
6281.259578302731
 20
1904.280528767734
 30
0.0
  0
POINT
  5
24FCD
330
24F7B
100
AcDbEntity
  8
DEFPOINTS
 62
     0
 48
50.0
100
AcDbPoint
 10
6281.259578302731
 20
2323.948336684115
 30
0.0
  0
ENDBLK
  5
24F86
330
24F7B
100
AcDbEntity
  8
0
 48
50.0
100
AcDbBlockEnd
  0
BLOCK
  5
24F91
330
24F87
100
AcDbEntity
  8
0
 48
50.0
100
AcDbBlockBegin
  2
*D51
 70
     1
 10
0.0
 20
0.0
 30
0.0
  3
*D51
  1

  0
LINE
  5
24FCE
330
24F87
100
AcDbEntity
  8
寸法
 62
     0
 48
50.0
370
    -2
100
AcDbLine
 10
6153.259578302731
 20
972.2805287677347
 30
0.0
 11
6153.259578302731
 21
521.8508907625746
 31
0.0
  0
LINE
  5
24FCF
330
24F87
100
AcDbEntity
  8
寸法
 62
     0
 48
50.0
370
    -2
100
AcDbLine
 10
6601.25957830273
 20
972.2805287677347
 30
0.0
 11
6601.25957830273
 21
521.8508907625746
 31
0.0
  0
LINE
  5
24FD0
330
24F87
100
AcDbEntity
  8
寸法
 62
     0
 48
50.0
370
    -2
100
AcDbLine
 10
6153.259578302731
 20
581.8508907625746
 30
0.0
 11
6601.25957830273
 21
581.8508907625746
 31
0.0
  0
INSERT
  5
24FD1
330
24F87
100
AcDbEntity
  8
寸法
 62
     0
 48
50.0
370
    -2
100
AcDbBlockReference
  2
_DOTSMALL
 10
6153.259578302731
 20
581.8508907625746
 30
0.0
 41
100.0
 42
100.0
 43
100.0
 50
180.0
  0
INSERT
  5
24FD2
330
24F87
100
AcDbEntity
  8
寸法
 62
     0
 48
50.0
370
    -2
100
AcDbBlockReference
  2
_DOTSMALL
 10
6601.25957830273
 20
581.8508907625746
 30
0.0
 41
100.0
 42
100.0
 43
100.0
  0
MTEXT
  5
24FD3
330
24F87
100
AcDbEntity
  8
寸法
 62
     7
 48
50.0
100
AcDbMText
 10
6357.162819624507
 20
681.8508907625746
 30
0.0
 40
120.0
 41
0.0
 71
     5
 72
     1
  1
\A1;300
  7
STYLE1
 73
     1
 44
1.0
1001
ACAD
1000
MTEXTBEGIN
1070
    73
1070
     1
1070
    44
1040
1.0
1070
    74
1070
     0
1000
MTEXTEND
  0
POINT
  5
24FD4
330
24F87
100
AcDbEntity
  8
DEFPOINTS
 62
     0
 48
50.0
100
AcDbPoint
 10
6153.259578302731
 20
992.2805287677347
 30
0.0
  0
POINT
  5
24FD5
330
24F87
100
AcDbEntity
  8
DEFPOINTS
 62
     0
 48
50.0
100
AcDbPoint
 10
6601.25957830273
 20
992.2805287677347
 30
0.0
  0
POINT
  5
24FD6
330
24F87
100
AcDbEntity
  8
DEFPOINTS
 62
     0
 48
50.0
100
AcDbPoint
 10
6601.25957830273
 20
581.8508907625746
 30
0.0
  0
ENDBLK
  5
24F92
330
24F87
100
AcDbEntity
  8
0
 48
50.0
100
AcDbBlockEnd
  0
BLOCK
  5
24F9D
330
24F93
100
AcDbEntity
  8
0
 48
50.0
100
AcDbBlockBegin
  2
*D52
 70
     1
 10
0.0
 20
0.0
 30
0.0
  3
*D52
  1

  0
LINE
  5
24FD7
330
24F93
100
AcDbEntity
  8
寸法
 62
     0
 48
50.0
370
    -2
100
AcDbLine
 10
6261.25957830273
 20
1904.280528767734
 30
0.0
 11
5486.22233974099
 21
1904.280528767735
 31
0.0
  0
LINE
  5
24FD8
330
24F93
100
AcDbEntity
  8
寸法
 62
     0
 48
50.0
370
    -2
100
AcDbLine
 10
6053.259578302735
 20
1120.280528767735
 30
0.0
 11
5486.22233974099
 21
1120.280528767735
 31
0.0
  0
LINE
  5
24FD9
330
24F93
100
AcDbEntity
  8
寸法
 62
     0
 48
50.0
370
    -2
100
AcDbLine
 10
5546.222339740991
 20
1904.280528767735
 30
0.0
 11
5546.222339740991
 21
1120.280528767735
 31
0.0
  0
INSERT
  5
24FDA
330
24F93
100
AcDbEntity
  8
寸法
 62
     0
 48
50.0
370
    -2
100
AcDbBlockReference
  2
_DOTSMALL
 10
5546.222339740991
 20
1904.280528767735
 30
0.0
 41
100.0
 42
100.0
 43
100.0
 50
90.0
  0
INSERT
  5
24FDB
330
24F93
100
AcDbEntity
  8
寸法
 62
     0
 48
50.0
370
    -2
100
AcDbBlockReference
  2
_DOTSMALL
 10
5546.222339740991
 20
1120.280528767735
 30
0.0
 41
100.0
 42
100.0
 43
100.0
 50
270.0
  0
MTEXT
  5
24FDC
330
24F93
100
AcDbEntity
  8
寸法
 62
     7
 48
50.0
100
AcDbMText
 10
5446.222339740991
 20
1491.820678423735
 30
0.0
 40
120.0
 41
0.0
 71
     5
 72
     1
  1
\A1;540
  7
STYLE1
 11
0.0000000000000001
 21
1.0
 31
0.0
 73
     1
 44
1.0
1001
ACAD
1000
MTEXTBEGIN
1070
    73
1070
     1
1070
    44
1040
1.0
1070
    74
1070
     0
1000
MTEXTEND
  0
POINT
  5
24FDD
330
24F93
100
AcDbEntity
  8
DEFPOINTS
 62
     0
 48
50.0
100
AcDbPoint
 10
6281.259578302731
 20
1904.280528767734
 30
0.0
  0
POINT
  5
24FDE
330
24F93
100
AcDbEntity
  8
DEFPOINTS
 62
     0
 48
50.0
100
AcDbPoint
 10
6073.259578302735
 20
1120.280528767735
 30
0.0
  0
POINT
  5
24FDF
330
24F93
100
AcDbEntity
  8
DEFPOINTS
 62
     0
 48
50.0
100
AcDbPoint
 10
5546.222339740991
 20
1120.280528767735
 30
0.0
  0
ENDBLK
  5
24F9E
330
24F93
100
AcDbEntity
  8
0
 48
50.0
100
AcDbBlockEnd
  0
BLOCK
  5
24FA9
330
24F9F
100
AcDbEntity
  8
0
 48
50.0
100
AcDbBlockBegin
  2
*D53
 70
     1
 10
0.0
 20
0.0
 30
0.0
  3
*D53
  1

  0
LINE
  5
24FE0
330
24F9F
100
AcDbEntity
  8
寸法
 62
     0
 48
50.0
370
    -2
100
AcDbLine
 10
6133.25957830273
 20
1360.280528767735
 30
0.0
 11
5950.839264570271
 21
1360.280528767735
 31
0.0
  0
LINE
  5
24FE1
330
24F9F
100
AcDbEntity
  8
寸法
 62
     0
 48
50.0
370
    -2
100
AcDbLine
 10
6053.259578302735
 20
1120.280528767735
 30
0.0
 11
5950.839264570271
 21
1120.280528767735
 31
0.0
  0
LINE
  5
24FE2
330
24F9F
100
AcDbEntity
  8
寸法
 62
     0
 48
50.0
370
    -2
100
AcDbLine
 10
6010.839264570272
 20
1360.280528767735
 30
0.0
 11
6010.839264570272
 21
1120.280528767735
 31
0.0
  0
INSERT
  5
24FE3
330
24F9F
100
AcDbEntity
  8
寸法
 62
     0
 48
50.0
370
    -2
100
AcDbBlockReference
  2
_DOTSMALL
 10
6010.839264570272
 20
1360.280528767735
 30
0.0
 41
100.0
 42
100.0
 43
100.0
 50
90.0
  0
INSERT
  5
24FE4
330
24F9F
100
AcDbEntity
  8
寸法
 62
     0
 48
50.0
370
    -2
100
AcDbBlockReference
  2
_DOTSMALL
 10
6010.839264570272
 20
1120.280528767735
 30
0.0
 41
100.0
 42
100.0
 43
100.0
 50
270.0
  0
MTEXT
  5
24FE5
330
24F9F
100
AcDbEntity
  8
寸法
 62
     7
 48
50.0
100
AcDbMText
 10
5910.839264570271
 20
1240.280528767735
 30
0.0
 40
120.0
 41
0.0
 71
     5
 72
     1
  1
\A1;150
  7
STYLE1
 11
0.0000000000000001
 21
1.0
 31
0.0
 73
     1
 44
1.0
1001
ACAD
1000
MTEXTBEGIN
1070
    73
1070
     1
1070
    44
1040
1.0
1070
    74
1070
     0
1000
MTEXTEND
  0
POINT
  5
24FE6
330
24F9F
100
AcDbEntity
  8
DEFPOINTS
 62
     0
 48
50.0
100
AcDbPoint
 10
6153.259578302731
 20
1360.280528767735
 30
0.0
  0
POINT
  5
24FE7
330
24F9F
100
AcDbEntity
  8
DEFPOINTS
 62
     0
 48
50.0
100
AcDbPoint
 10
6073.259578302735
 20
1120.280528767735
 30
0.0
  0
POINT
  5
24FE8
330
24F9F
100
AcDbEntity
  8
DEFPOINTS
 62
     0
 48
50.0
100
AcDbPoint
 10
6010.839264570272
 20
1120.280528767735
 30
0.0
  0
ENDBLK
  5
24FAA
330
24F9F
100
AcDbEntity
  8
0
 48
50.0
100
AcDbBlockEnd
  0
BLOCK
  5
24FB7
330
24FAB
100
AcDbEntity
  8
0
 48
50.0
100
AcDbBlockBegin
  2
*D54
 70
     1
 10
0.0
 20
0.0
 30
0.0
  3
*D54
  1

  0
LINE
  5
24FE9
330
24FAB
100
AcDbEntity
  8
寸法
 62
     0
 48
50.0
370
    -2
100
AcDbLine
 10
8228.098891479925
 20
1957.040528767736
 30
0.0
 11
9233.222157367796
 21
1957.040528767736
 31
0.0
  0
LINE
  5
24FEA
330
24FAB
100
AcDbEntity
  8
寸法
 62
     0
 48
50.0
370
    -2
100
AcDbLine
 10
8415.298891479926
 20
1904.280528767734
 30
0.0
 11
9233.222157367796
 21
1904.280528767734
 31
0.0
  0
LINE
  5
24FEB
330
24FAB
100
AcDbEntity
  8
寸法
 62
     0
 48
50.0
370
    -2
100
AcDbLine
 10
9173.222157367796
 20
1957.040528767736
 30
0.0
 11
9173.222157367796
 21
2057.040528767736
 31
0.0
  0
LINE
  5
24FEC
330
24FAB
100
AcDbEntity
  8
寸法
 62
     0
 48
50.0
370
    -2
100
AcDbLine
 10
9173.222157367796
 20
1904.280528767734
 30
0.0
 11
9173.222157367796
 21
1172.262721924768
 31
0.0
  0
LINE
  5
24FED
330
24FAB
100
AcDbEntity
  8
寸法
 62
     0
 48
50.0
370
    -2
100
AcDbLine
 10
9173.222157367796
 20
1957.040528767736
 30
0.0
 11
9173.222157367796
 21
1904.280528767734
 31
0.0
  0
INSERT
  5
24FEE
330
24FAB
100
AcDbEntity
  8
寸法
 62
     0
 48
50.0
370
    -2
100
AcDbBlockReference
  2
_DOTSMALL
 10
9173.222157367796
 20
1957.040528767736
 30
0.0
 41
100.0
 42
100.0
 43
100.0
 50
270.0
  0
INSERT
  5
24FEF
330
24FAB
100
AcDbEntity
  8
寸法
 62
     0
 48
50.0
370
    -2
100
AcDbBlockReference
  2
_DOTSMALL
 10
9173.222157367796
 20
1904.280528767734
 30
0.0
 41
100.0
 42
100.0
 43
100.0
 50
90.0
  0
MTEXT
  5
24FF0
330
24FAB
100
AcDbEntity
  8
寸法
 62
     7
 48
50.0
100
AcDbMText
 10
9073.210346344174
 20
1438.271625346252
 30
0.0
 40
120.0
 41
0.0
 71
     5
 72
     1
  1
\A1;20～25
  7
STYLE1
 11
0.0000000000000001
 21
1.0
 31
0.0
 73
     1
 44
1.0
1001
ACAD
1000
MTEXTBEGIN
1070
    73
1070
     1
1070
    44
1040
1.0
1070
    74
1070
     0
1000
MTEXTEND
  0
POINT
  5
24FF1
330
24FAB
100
AcDbEntity
  8
DEFPOINTS
 62
     0
 48
50.0
100
AcDbPoint
 10
8208.098891479925
 20
1957.040528767736
 30
0.0
  0
POINT
  5
24FF2
330
24FAB
100
AcDbEntity
  8
DEFPOINTS
 62
     0
 48
50.0
100
AcDbPoint
 10
8395.298891479924
 20
1904.280528767734
 30
0.0
  0
POINT
  5
24FF3
330
24FAB
100
AcDbEntity
  8
DEFPOINTS
 62
     0
 48
50.0
100
AcDbPoint
 10
9173.222157367796
 20
1904.280528767734
 30
0.0
  0
ENDBLK
  5
24FB8
330
24FAB
100
AcDbEntity
  8
0
 48
50.0
100
AcDbBlockEnd
  0
BLOCK
  5
24FC3
330
24FB9
100
AcDbEntity
  8
0
 48
50.0
100
AcDbBlockBegin
  2
*D55
 70
     1
 10
0.0
 20
0.0
 30
0.0
  3
*D55
  1

  0
LINE
  5
24FF4
330
24FB9
100
AcDbEntity
  8
寸法
 62
     0
 48
50.0
370
    -2
100
AcDbLine
 10
8415.298891479926
 20
1904.280528767734
 30
0.0
 11
8957.167491248769
 21
1904.280528767734
 31
0.0
  0
LINE
  5
24FF5
330
24FB9
100
AcDbEntity
  8
寸法
 62
     0
 48
50.0
370
    -2
100
AcDbLine
 10
8415.298891479926
 20
1580.280528767734
 30
0.0
 11
8957.167491248769
 21
1580.280528767733
 31
0.0
  0
LINE
  5
24FF6
330
24FB9
100
AcDbEntity
  8
寸法
 62
     0
 48
50.0
370
    -2
100
AcDbLine
 10
8897.167491248769
 20
1904.280528767734
 30
0.0
 11
8897.167491248769
 21
1580.280528767733
 31
0.0
  0
INSERT
  5
24FF7
330
24FB9
100
AcDbEntity
  8
寸法
 62
     0
 48
50.0
370
    -2
100
AcDbBlockReference
  2
_DOTSMALL
 10
8897.167491248769
 20
1904.280528767734
 30
0.0
 41
100.0
 42
100.0
 43
100.0
 50
90.0
  0
INSERT
  5
24FF8
330
24FB9
100
AcDbEntity
  8
寸法
 62
     0
 48
50.0
370
    -2
100
AcDbBlockReference
  2
_DOTSMALL
 10
8897.167491248769
 20
1580.280528767733
 30
0.0
 41
100.0
 42
100.0
 43
100.0
 50
270.0
  0
MTEXT
  5
24FF9
330
24FB9
100
AcDbEntity
  8
寸法
 62
     7
 48
50.0
100
AcDbMText
 10
8797.167491248769
 20
1742.280528767735
 30
0.0
 40
120.0
 41
0.0
 71
     5
 72
     1
  1
\A1;180
  7
STYLE1
 11
0.0000000000000001
 21
1.0
 31
0.0
 73
     1
 44
1.0
1001
ACAD
1000
MTEXTBEGIN
1070
    73
1070
     1
1070
    44
1040
1.0
1070
    74
1070
     0
1000
MTEXTEND
  0
POINT
  5
24FFA
330
24FB9
100
AcDbEntity
  8
DEFPOINTS
 62
     0
 48
50.0
100
AcDbPoint
 10
8395.298891479924
 20
1904.280528767734
 30
0.0
  0
POINT
  5
24FFB
330
24FB9
100
AcDbEntity
  8
DEFPOINTS
 62
     0
 48
50.0
100
AcDbPoint
 10
8395.298891479924
 20
1580.280528767734
 30
0.0
  0
POINT
  5
24FFC
330
24FB9
100
AcDbEntity
  8
DEFPOINTS
 62
     0
 48
50.0
100
AcDbPoint
 10
8897.167491248769
 20
1580.280528767733
 30
0.0
  0
ENDBLK
  5
24FC4
330
24FB9
100
AcDbEntity
  8
0
 48
50.0
100
AcDbBlockEnd
  0
ENDSEC
  0
SECTION
  2
ENTITIES
  0
MTEXT
  5
763F
330
747D
100
AcDbEntity
  8
0
100
AcDbMText
 10
302.846345836809
 20
280.1983726409901
 30
0.0
 40
3.5
 41
5.323721266742722
 71
     1
 72
     5
  1

  7
MSMINCHO
 73
     1
 44
1.0
1001
ACAD
1000
MTEXTBEGIN
1070
    73
1070
     1
1070
    44
1040
1.0
1070
    74
1070
     0
1000
MTEXTEND
  0
LINE
  5
10B57
330
747D
100
AcDbEntity
  8
補助
  6
PHANTOM
 62
   230
 48
50.0
100
AcDbLine
 10
139.9999999999995
 20
11409.6
 30
0.0
 11
16307.2
 21
11409.6
 31
0.0
  0
LINE
  5
10B59
330
747D
100
AcDbEntity
  8
仕様書枠
  6
Continuous
 48
50.0
100
AcDbLine
 10
13107.2
 20
1200.0
 30
0.0
 11
13107.2
 21
-0.0000000000000729
 31
0.0
  0
LINE
  5
10B5D
330
747D
100
AcDbEntity
  8
仕様書枠
 48
50.0
100
AcDbLine
 10
140.0
 20
0.0
 30
0.0
 11
16307.2
 21
-0.0000000000000909
 31
0.0
  0
LINE
  5
10B5E
330
747D
100
AcDbEntity
  8
補助
  6
PHANTOM
 62
   230
 48
50.0
100
AcDbLine
 10
16307.2
 20
11409.6
 30
0.0
 11
16307.2
 21
1200.0
 31
0.0
  0
LINE
  5
10B6C
330
747D
100
AcDbEntity
  8
仕様書枠
 48
50.0
100
AcDbLine
 10
13107.2
 20
1200.0
 30
0.0
 11
16307.2
 21
1200.0
 31
0.0
  0
TEXT
  5
10B73
330
747D
100
AcDbEntity
  8
文字
 62
     7
 48
50.0
100
AcDbText
 10
13162.9790565769
 20
895.0906074299405
 30
0.0
 40
200.0
  1
基 礎 図
  7
STYLE2
100
AcDbText
  0
LINE
  5
10B7B
330
747D
100
AcDbEntity
  8
仕様書枠
 48
50.0
100
AcDbLine
 10
13107.2
 20
800.0
 30
0.0
 11
14251.2
 21
800.0
 31
0.0
  0
LINE
  5
10B88
330
747D
100
AcDbEntity
  8
仕様書枠
  6
Continuous
 48
50.0
100
AcDbLine
 10
14251.2
 20
1200.0
 30
0.0
 11
14251.2
 21
800.0
 31
0.0
  0
LINE
  5
16462
330
747D
100
AcDbEntity
  8
仕様書枠
 48
50.0
100
AcDbLine
 10
16307.2
 20
1200.0
 30
0.0
 11
16307.2
 21
-0.0000000000000909
 31
0.0
  0
LINE
  5
1903B
330
747D
100
AcDbEntity
  8
補助
  6
PHANTOM
 62
   230
 48
50.0
100
AcDbLine
 10
140.0
 20
0.0
 30
0.0
 11
139.9999999999995
 21
11409.6
 31
0.0
  0
LEADER
  5
1AC27
330
747D
100
AcDbEntity
  8
寸法
 48
50.0
100
AcDbLeader
  3
INABA_S50G
 73
     0
 74
     0
 75
     1
 40
120.0
 41
720.0000000000001
 76
     3
 10
9655.05985718447
 20
6983.665994368184
 30
0.0
 10
9811.833431570756
 20
6722.652080800351
 30
0.0
 10
9936.833431570756
 20
6722.652080800351
 30
0.0
340
1AC28
1001
ACAD
1000
DSTYLE
1002
{
1070
   341
1005
0
1070
    40
1040
1.0
1070
   343
1005
0
1070
   344
1005
0
1002
}
  0
MTEXT
  5
1AC28
102
{ACAD_REACTORS
330
1AC27
102
}
330
747D
100
AcDbEntity
  8
部品1
 62
     7
 48
50.0
100
AcDbMText
 10
10681.83343157075
 20
6807.652080800351
 30
0.0
 40
120.0
 41
0.0
 71
     6
 72
     1
  1
\A1;床下換気口
  7
STYLE1
 73
     1
 44
1.0
1001
ACAD
1000
MTEXTBEGIN
1070
    73
1070
     1
1070
    44
1040
1.0
1070
    74
1070
     0
1000
MTEXTEND
  0
TEXT
  5
1AC29
330
747D
100
AcDbEntity
  8
部品1
 48
50.0
100
AcDbText
 10
10002.43013846118
 20
5990.377632842368
 30
0.0
 40
80.0
  1
(a=45,b=55,c=75)
  7
STYLE1
100
AcDbText
  0
TEXT
  5
1AC2A
330
747D
100
AcDbEntity
  8
部品1
 48
50.0
100
AcDbText
 10
9843.851129706878
 20
6097.222853711122
 30
0.0
 40
80.0
  1
※a,b,cは屋根の出幅です。
  7
STYLE1
100
AcDbText
  0
MTEXT
  5
1AC2B
102
{ACAD_REACTORS
330
1AC2C
102
}
330
747D
100
AcDbEntity
  8
部品1
 62
     7
 48
50.0
100
AcDbMText
 10
10641.63832569548
 20
6276.533540644198
 30
0.0
 40
120.0
 41
0.0
 71
     6
 72
     1
  1
\A1;屋根の外寸
  7
STYLE1
 73
     1
 44
1.0
1001
ACAD
1000
MTEXTBEGIN
1070
    73
1070
     1
1070
    44
1040
1.0
1070
    74
1070
     0
1000
MTEXTEND
  0
LEADER
  5
1AC2C
330
747D
100
AcDbEntity
  8
寸法
 48
50.0
100
AcDbLeader
  3
INABA_S50G
 73
     0
 74
     0
 75
     1
 40
120.0
 41
672.0
 76
     3
 10
9703.698313503441
 20
6450.422884107773
 30
0.0
 10
9819.638325695482
 20
6191.533540644197
 30
0.0
 10
9944.638325695482
 20
6191.533540644197
 30
0.0
340
1AC2B
1001
ACAD
1000
DSTYLE
1002
{
1070
   341
1005
0
1070
    40
1040
1.0
1070
   343
1005
0
1070
   344
1005
0
1002
}
  0
TEXT
  5
1C7A1
330
747D
100
AcDbEntity
  8
文字
 62
     7
 48
50.0
100
AcDbText
 10
13188.16259899338
 20
79.80631269190417
 30
0.0
 40
80.0
  1
※布基礎には換気口を設けてください。
  7
STYLE2
100
AcDbText
  0
TEXT
  5
1C7E7
330
747D
100
AcDbEntity
  8
文字
 62
     7
 48
50.0
100
AcDbText
 10
13188.16259899338
 20
246.7109242801889
 30
0.0
 40
80.0
  1
※寒冷地等は地域の実情に合わせた基礎にして下さい。
  7
STYLE2
100
AcDbText
  0
TEXT
  5
1C7E8
330
747D
100
AcDbEntity
  8
文字
 62
     7
 48
50.0
100
AcDbText
 10
14325.79230300687
 20
499.5983841039506
 30
0.0
 40
160.0
  1
ＮＸＮ－１３ＤＬ－３
  7
STYLE2
100
AcDbText
  0
TEXT
  5
1C7EC
330
747D
100
AcDbEntity
  8
文字
 62
     7
 48
50.0
100
AcDbText
 10
14524.131837222
 20
1031.557706291229
 30
0.0
 40
100.0
  1
<縮尺> S=1/40
  7
STYLE2
100
AcDbText
  0
TEXT
  5
1C7ED
330
747D
100
AcDbEntity
  8
文字
 62
     7
 48
50.0
100
AcDbText
 10
13201.43669998441
 20
477.2740661031257
 30
0.0
 40
160.0
  1
機種名
  7
STYLE2
100
AcDbText
  0
LINE
  5
1C7EF
330
747D
100
AcDbEntity
  8
文字
 62
     7
 48
50.0
100
AcDbLine
 10
13187.2
 20
400.0
 30
0.0
 11
16227.2
 21
400.0
 31
0.0
  0
MTEXT
  5
1D2D5
102
{ACAD_REACTORS
330
1D2D6
102
}
330
747D
100
AcDbEntity
  8
部品1
 62
     7
 48
50.0
100
AcDbMText
 10
10848.99523070988
 20
7993.291802156446
 30
0.0
 40
120.0
 41
0.0
 71
     6
 72
     1
  1
アンカーボルト
  7
STYLE1
 73
     1
 44
1.0
1001
ACAD
1000
MTEXTBEGIN
1070
    73
1070
     1
1070
    44
1040
1.0
1070
    74
1070
     0
1000
MTEXTEND
  0
LEADER
  5
1D2D6
330
747D
100
AcDbEntity
  8
寸法
 48
50.0
100
AcDbLeader
  3
INABA_S50G
 73
     0
 74
     0
 75
     1
 40
120.0
 41
994.3492424049171
 76
     3
 10
9530.680085756999
 20
7554.886902272649
 30
0.0
 10
9704.645988304966
 20
7908.291802156447
 30
0.0
 10
9829.645988304966
 20
7908.291802156447
 30
0.0
340
1D2D5
1001
ACAD
1000
DSTYLE
1002
{
1070
   341
1005
0
1070
    40
1040
1.0
1070
   343
1005
0
1070
   344
1005
0
1002
}
  0
MTEXT
  5
1D332
102
{ACAD_REACTORS
330
1D333
102
}
330
747D
100
AcDbEntity
  8
部品1
 62
     7
 48
50.0
100
AcDbMText
 10
9213.828697015694
 20
6848.269578847496
 30
0.0
 40
120.0
 41
0.0
 71
     6
 72
     1
  1
CB
  7
STYLE1
 73
     1
 44
1.0
1001
ACAD
1000
MTEXTBEGIN
1070
    73
1070
     1
1070
    44
1040
1.0
1070
    74
1070
     0
1000
MTEXTEND
  0
LEADER
  5
1D333
330
747D
100
AcDbEntity
  8
寸法
 48
50.0
100
AcDbLeader
  3
INABA_S50G
 73
     0
 74
     0
 75
     1
 40
120.0
 41
149.591883092037
 76
     3
 10
8786.954011061013
 20
6985.98789240232
 30
0.0
 10
8914.236813923656
 20
6763.269578847495
 30
0.0
 10
9039.236813923656
 20
6763.269578847495
 30
0.0
340
1D332
1001
ACAD
1000
DSTYLE
1002
{
1070
   341
1005
0
1070
    40
1040
1.0
1070
   343
1005
0
1070
   344
1005
0
1002
}
  0
DIMENSION
  5
20DE1
330
747D
100
AcDbEntity
  8
寸法
 48
50.0
100
AcDbDimension
  2
*D19
 10
9698.6
 20
8635.89937997286
 30
0.0
 11
9969.774621202461
 21
8635.89937997286
 31
0.0
 70
   160
  1
a
 71
     5
 42
45.0
  3
INABA_S40G
100
AcDbAlignedDimension
 13
9653.6
 23
7677.679057913938
 33
0.0
 14
9698.6
 24
8403.94551600785
 34
0.0
100
AcDbRotatedDimension
1001
ACAD
1000
DSTYLE
1002
{
1070
   341
1005
0
1002
}
  0
DIMENSION
  5
20DFB
330
747D
100
AcDbEntity
  8
寸法
 48
50.0
100
AcDbDimension
  2
*D20
 10
6793.600000000001
 20
8635.89937997286
 30
0.0
 11
6477.425378797541
 21
8635.89937997286
 31
0.0
 70
   160
  1
a
 71
     5
 42
44.99999999999636
  3
INABA_S40G
100
AcDbAlignedDimension
 13
6748.600000000005
 23
8403.94551600785
 33
0.0
 14
6793.600000000001
 24
7677.679057913938
 34
0.0
100
AcDbRotatedDimension
1001
ACAD
1000
DSTYLE
1002
{
1070
   341
1005
0
1002
}
  0
LINE
  5
22711
330
747D
100
AcDbEntity
  8
想像線
 48
10.0
100
AcDbLine
 10
9698.6
 20
7752.67905791394
 30
0.0
 11
6748.6
 21
7752.679057913946
 31
0.0
  0
LINE
  5
22712
330
747D
100
AcDbEntity
  8
想像線
 48
10.0
100
AcDbLine
 10
6748.599999999996
 20
6242.679057913947
 30
0.0
 11
6748.6
 21
7752.679057913946
 31
0.0
  0
LINE
  5
22713
330
747D
100
AcDbEntity
  8
想像線
 48
10.0
100
AcDbLine
 10
9698.6
 20
6242.679057913954
 30
0.0
 11
9698.6
 21
7752.67905791394
 31
0.0
  0
LINE
  5
22714
330
747D
100
AcDbEntity
  8
想像線
 48
10.0
100
AcDbLine
 10
9698.6
 20
6242.679057913954
 30
0.0
 11
6748.599999999996
 21
6242.679057913947
 31
0.0
  0
DIMENSION
  5
22741
330
747D
100
AcDbEntity
  8
寸法
 48
50.0
100
AcDbDimension
  2
*D25
 10
5918.721909610674
 20
7677.679057913938
 30
0.0
 11
5818.721909610673
 21
7715.179057913942
 31
0.0
 70
    32
  1
c
 71
     5
 42
75.00000000000636
  3
INABA_S40G
100
AcDbAlignedDimension
 13
6170.665006330069
 23
7752.679057913944
 33
0.0
 14
6793.600000000001
 24
7677.679057913938
 34
0.0
 50
90.0
100
AcDbRotatedDimension
1001
ACAD
1000
DSTYLE
1002
{
1070
   341
1005
0
1002
}
  0
DIMENSION
  5
2275B
330
747D
100
AcDbEntity
  8
寸法
 48
50.0
100
AcDbDimension
  2
*D26
 10
5918.721909610673
 20
6242.679057913965
 30
0.0
 11
5818.721909610671
 21
6270.179057913953
 31
0.0
 70
    32
  1
b
 71
     5
 42
54.99999999997453
  3
INABA_S40G
100
AcDbAlignedDimension
 13
6793.599999999999
 23
6297.679057913939
 33
0.0
 14
6170.665006330072
 24
6242.679057913964
 34
0.0
 50
90.0
100
AcDbRotatedDimension
1001
ACAD
1000
DSTYLE
1002
{
1070
   341
1005
0
1002
}
  0
DIMENSION
  5
23FD9
330
747D
100
AcDbEntity
  8
寸法
 48
50.0
100
AcDbDimension
  2
*D28
 10
8972.812020225658
 20
6297.679057913956
 30
0.0
 11
8972.812020225656
 21
6010.715475236784
 31
0.0
 70
   160
 71
     5
 42
279.99999999998
  3
INABA_S40G
100
AcDbAlignedDimension
 13
9073.599999999991
 23
6577.679057913936
 33
0.0
 14
9073.599999999998
 24
6297.679057913956
 34
0.0
 50
90.0
100
AcDbRotatedDimension
1001
ACAD
1000
DSTYLE
1002
{
1070
   341
1005
0
1002
}
  0
DIMENSION
  5
23FDA
330
747D
100
AcDbEntity
  8
寸法
 48
50.0
100
AcDbDimension
  2
*D29
 10
8972.812020225658
 20
7477.67905791394
 30
0.0
 11
8972.812020225656
 21
7964.642640591096
 31
0.0
 70
   160
 71
     5
 42
199.9999999999854
  3
INABA_S40G
100
AcDbAlignedDimension
 13
9073.599999999997
 23
7677.679057913926
 33
0.0
 14
9073.600000000004
 24
7477.67905791394
 34
0.0
 50
90.0
100
AcDbRotatedDimension
1001
ACAD
1000
DSTYLE
1002
{
1070
   341
1005
0
1002
}
  0
DIMENSION
  5
24043
330
747D
100
AcDbEntity
  8
寸法
 48
50.0
100
AcDbDimension
  2
*D27
 10
9533.600000000003
 20
7227.27767101205
 30
0.0
 11
9923.659055118111
 21
7227.27767101205
 31
0.0
 70
   160
 71
     5
 42
119.9999999999981
  3
INABA_S40G
100
AcDbAlignedDimension
 13
9653.6
 23
7112.679057913975
 33
0.0
 14
9533.600000000003
 24
7112.679057913975
 34
0.0
100
AcDbRotatedDimension
1001
ACAD
1000
DSTYLE
1002
{
1070
   341
1005
0
1002
}
  0
LINE
  5
24659
330
747D
100
AcDbEntity
  8
部品1
 48
50.0
100
AcDbLine
 10
9553.600000000004
 20
7477.67905791394
 30
0.0
 11
6913.599999999998
 21
7477.67905791394
 31
0.0
  0
TEXT
  5
2465C
330
747D
100
AcDbEntity
  8
寸法
 48
50.0
100
AcDbText
 10
8438.833893089659
 20
6316.360348706676
 30
0.0
 40
120.0
  1
扉面
  7
STYLE1
100
AcDbText
  0
DIMENSION
  5
2465D
330
747D
100
AcDbEntity
  8
寸法
 48
50.0
100
AcDbDimension
  2
*D38
 10
8698.600000000007
 20
8160.287874584186
 30
0.0
 11
8223.600000000008
 21
8260.287874584186
 31
0.0
 70
    32
 71
     5
 42
950.0
  3
INABA_S40G
100
AcDbAlignedDimension
 13
7748.600000000007
 23
7074.679057913939
 33
0.0
 14
8698.600000000007
 24
7074.679057913939
 34
0.0
100
AcDbRotatedDimension
1001
ACAD
1000
DSTYLE
1002
{
1070
   341
1005
0
1002
}
  0
LINE
  5
2465E
330
747D
100
AcDbEntity
  8
部品1
 48
50.0
100
AcDbLine
 10
9653.6
 20
6297.679057913956
 30
0.0
 11
6793.599999999996
 21
6297.679057913934
 31
0.0
  0
LINE
  5
2465F
330
747D
100
AcDbEntity
  8
部品1
 48
50.0
100
AcDbLine
 10
9653.6
 20
7677.679057913938
 30
0.0
 11
6793.600000000001
 21
7677.679057913938
 31
0.0
  0
DIMENSION
  5
24660
330
747D
100
AcDbEntity
  8
寸法
 48
50.0
100
AcDbDimension
  2
*D39
 10
6916.600000000001
 20
8403.94551600785
 30
0.0
 11
8223.600000000001
 21
8503.95732703147
 31
0.0
 70
    32
 71
     5
 42
2614.0
  3
INABA_S40G
100
AcDbAlignedDimension
 13
9530.600000000001
 23
7604.679057913938
 33
0.0
 14
6916.600000000001
 24
7604.679057913938
 34
0.0
100
AcDbRotatedDimension
1001
ACAD
1000
DSTYLE
1002
{
1070
   341
1005
0
1002
}
  0
DIMENSION
  5
24661
330
747D
100
AcDbEntity
  8
寸法
 48
50.0
100
AcDbDimension
  2
*D40
 10
9653.6
 20
8635.899379972856
 30
0.0
 11
8223.600000000001
 21
8735.911190996478
 31
0.0
 70
    32
 71
     5
 42
2860.0
  3
INABA_S40G
100
AcDbAlignedDimension
 13
6793.600000000001
 23
7677.679057913938
 33
0.0
 14
9653.6
 24
7677.679057913938
 34
0.0
100
AcDbRotatedDimension
1001
ACAD
1000
DSTYLE
1002
{
1070
   341
1005
0
1002
}
  0
LINE
  5
24664
330
747D
100
AcDbEntity
  8
細線
 48
50.0
100
AcDbLine
 10
6793.599999999988
 20
6999.801585677076
 30
0.0
 11
6906.477472236858
 21
7112.679057913947
 31
0.0
  0
LINE
  5
24665
330
747D
100
AcDbEntity
  8
細線
 48
50.0
100
AcDbLine
 10
6793.599999999989
 20
7044.702866282424
 30
0.0
 11
6861.576191631512
 21
7112.679057913945
 31
0.0
  0
LINE
  5
24666
330
747D
100
AcDbEntity
  8
部品1
 48
50.0
100
AcDbLine
 10
7848.600000000008
 20
6924.679057913938
 30
0.0
 11
7848.600000000008
 21
7124.679057913938
 31
0.0
  0
LINE
  5
24667
330
747D
100
AcDbEntity
  8
部品1
 48
50.0
100
AcDbLine
 10
7648.600000000008
 20
6924.679057913938
 30
0.0
 11
7648.600000000008
 21
7124.679057913938
 31
0.0
  0
DIMENSION
  5
24668
330
747D
100
AcDbEntity
  8
寸法
 48
50.0
100
AcDbDimension
  2
*D41
 10
7276.285990614304
 20
7677.679057913938
 30
0.0
 11
7276.285990614302
 21
7298.32174435187
 31
0.0
 70
   160
 71
     5
 42
653.0
  3
INABA_S40G
100
AcDbAlignedDimension
 13
7698.600000000007
 23
7024.679057913939
 33
0.0
 14
7367.765475140901
 24
7677.679057913938
 34
0.0
 50
90.0
100
AcDbRotatedDimension
1001
ACAD
1000
DSTYLE
1002
{
1070
   341
1005
0
1002
}
  0
LINE
  5
2466A
330
747D
100
AcDbEntity
  8
部品1
 48
50.0
100
AcDbLine
 10
6793.600000000001
 20
6297.679057913939
 30
0.0
 11
6793.600000000001
 21
7677.679057913938
 31
0.0
  0
DIMENSION
  5
2466C
330
747D
100
AcDbEntity
  8
寸法
 48
50.0
100
AcDbDimension
  2
*D42
 10
6170.665006330073
 20
6495.679057913942
 30
0.0
 11
6170.665006330072
 21
7025.179057913938
 31
0.0
 70
   160
 71
     5
 42
1058.999999999996
  3
INABA_S40G
100
AcDbAlignedDimension
 13
6866.600000000001
 23
7554.679057913938
 33
0.0
 14
6866.600000000008
 24
6495.679057913942
 34
0.0
 50
90.0
100
AcDbRotatedDimension
1001
ACAD
1000
DSTYLE
1002
{
1070
   341
1005
0
1002
}
  0
DIMENSION
  5
2466D
330
747D
100
AcDbEntity
  8
寸法
 48
50.0
100
AcDbDimension
  2
*D43
 10
5918.721909610674
 20
6297.679057913939
 30
0.0
 11
5918.721909610673
 21
7025.179057913938
 31
0.0
 70
   160
 71
     5
 42
1380.0
  3
INABA_S40G
100
AcDbAlignedDimension
 13
6793.600000000001
 23
7677.679057913938
 33
0.0
 14
6793.600000000001
 24
6297.679057913939
 34
0.0
 50
90.0
100
AcDbRotatedDimension
1001
ACAD
1000
DSTYLE
1002
{
1070
   341
1005
0
1002
}
  0
DIMENSION
  5
2466E
330
747D
100
AcDbEntity
  8
寸法
 48
50.0
100
AcDbDimension
  2
*D30
 10
6793.600000000001
 20
8160.287874584186
 30
0.0
 11
7271.100000000004
 21
8260.287874584186
 31
0.0
 70
    32
 71
     5
 42
955.0000000000073
  3
INABA_S40G
100
AcDbAlignedDimension
 13
7748.600000000007
 23
7074.679057913939
 33
0.0
 14
6793.600000000001
 24
7677.679057913938
 34
0.0
100
AcDbRotatedDimension
1001
ACAD
1000
DSTYLE
1002
{
1070
   341
1005
0
1002
}
  0
LINE
  5
2466F
330
747D
100
AcDbEntity
  8
細線
 48
50.0
100
AcDbLine
 10
6796.280033447549
 20
6912.679057913947
 30
0.0
 11
6913.600000000001
 21
7029.999024466396
 31
0.0
  0
LINE
  5
24670
330
747D
100
AcDbEntity
  8
細線
 48
50.0
100
AcDbLine
 10
6793.599999999988
 20
6954.900305071731
 30
0.0
 11
6913.599999999998
 21
7074.900305071743
 31
0.0
  0
LINE
  5
24671
330
747D
100
AcDbEntity
  8
部品1
 48
50.0
100
AcDbLine
 10
6913.599999999998
 20
6912.679057913945
 30
0.0
 11
6793.599999999988
 21
6912.679057913947
 31
0.0
  0
DIMENSION
  5
24672
330
747D
100
AcDbEntity
  8
寸法
 48
50.0
100
AcDbDimension
  2
*D31
 10
6170.665006330073
 20
6297.679057913939
 30
0.0
 11
6170.665006330072
 21
5962.148109071346
 31
0.0
 70
   160
 71
     5
 42
198.0000000000036
  3
INABA_S40G
100
AcDbAlignedDimension
 13
6866.600000000008
 23
6495.679057913942
 33
0.0
 14
6793.600000000001
 24
6297.679057913939
 34
0.0
 50
90.0
100
AcDbRotatedDimension
1001
ACAD
1000
DSTYLE
1002
{
1070
   341
1005
0
1002
}
  0
DIMENSION
  5
24673
330
747D
100
AcDbEntity
  8
寸法
 48
50.0
100
AcDbDimension
  2
*D32
 10
6680.512673767876
 20
5577.67905791389
 30
0.0
 11
6680.512673767875
 21
5937.679057913893
 31
0.0
 70
   160
  1
扉の出<>
 71
     5
 42
720.0
  3
INABA_S40G
100
AcDbAlignedDimension
 13
6793.600000000001
 23
6297.679057913891
 33
0.0
 14
7149.325326928805
 24
5577.67905791389
 34
0.0
 50
90.0
100
AcDbRotatedDimension
1001
ACAD
1000
DSTYLE
1002
{
1070
   341
1005
0
1002
}
  0
ARC
  5
24674
330
747D
100
AcDbEntity
  8
想像線
 48
5.0
100
AcDbCircle
 10
7563.6
 20
6297.679057913878
 30
0.0
 40
720.0
100
AcDbArc
 50
180.0
 51
270.0
  0
LINE
  5
24676
330
747D
100
AcDbEntity
  8
想像線
 48
5.0
100
AcDbLine
 10
7563.6
 20
6297.679057913889
 30
0.0
 11
7563.6
 21
5577.679057913877
 31
0.0
  0
DIMENSION
  5
24677
330
747D
100
AcDbEntity
  8
寸法
 48
50.0
100
AcDbDimension
  2
*D33
 10
7276.285990614302
 20
7024.679057913939
 30
0.0
 11
7276.285990614301
 21
6739.679057913938
 31
0.0
 70
   160
 71
     5
 42
726.9999999999891
  3
INABA_S40G
100
AcDbAlignedDimension
 13
7367.765475140901
 23
6297.679057913949
 33
0.0
 14
7698.600000000007
 24
7024.679057913939
 34
0.0
 50
90.0
100
AcDbRotatedDimension
1001
ACAD
1000
DSTYLE
1002
{
1070
   341
1005
0
1002
}
  0
LINE
  5
24678
330
747D
100
AcDbEntity
  8
部品1
 48
50.0
100
AcDbLine
 10
7373.599999999992
 20
6577.679057913937
 30
0.0
 11
7373.599999999999
 21
6297.67905791396
 31
0.0
  0
LINE
  5
24679
330
747D
100
AcDbEntity
  8
部品1
 48
50.0
100
AcDbLine
 10
7173.599999999992
 20
6577.679057913936
 30
0.0
 11
7173.599999999999
 21
6297.679057913956
 31
0.0
  0
LINE
  5
2467A
330
747D
100
AcDbEntity
  8
細線
 48
50.0
100
AcDbLine
 10
7173.599999999997
 20
6431.282376596917
 30
0.0
 11
7319.996681317016
 21
6577.679057913937
 31
0.0
  0
LINE
  5
2467B
330
747D
100
AcDbEntity
  8
細線
 48
50.0
100
AcDbLine
 10
7173.599999999997
 20
6386.381095991573
 30
0.0
 11
7364.897961922365
 21
6577.679057913937
 31
0.0
  0
LINE
  5
2467C
330
747D
100
AcDbEntity
  8
細線
 48
50.0
100
AcDbLine
 10
7173.599999999997
 20
6341.479815386229
 30
0.0
 11
7373.599999999993
 21
6541.479815386224
 31
0.0
  0
LINE
  5
2467D
330
747D
100
AcDbEntity
  8
細線
 48
50.0
100
AcDbLine
 10
7174.700523133072
 20
6297.679057913956
 30
0.0
 11
7373.599999999995
 21
6496.578534780876
 31
0.0
  0
LINE
  5
2467E
330
747D
100
AcDbEntity
  8
細線
 48
50.0
100
AcDbLine
 10
7173.599999999995
 20
6476.18365720226
 30
0.0
 11
7275.09540071167
 21
6577.679057913937
 31
0.0
  0
LINE
  5
2467F
330
747D
100
AcDbEntity
  8
センター
 48
2.0
100
AcDbLine
 10
6916.600000000008
 20
6545.679057913942
 30
0.0
 11
6916.600000000008
 21
6445.679057913942
 31
0.0
  0
CIRCLE
  5
24680
330
747D
100
AcDbEntity
  8
部品1
 48
50.0
100
AcDbCircle
 10
6916.599999999992
 20
6495.679057913942
 30
0.0
 40
35.0
  0
LINE
  5
24681
330
747D
100
AcDbEntity
  8
センター
 48
2.0
100
AcDbLine
 10
6866.600000000008
 20
6495.679057913942
 30
0.0
 11
6966.600000000008
 21
6495.679057913942
 31
0.0
  0
LINE
  5
24682
330
747D
100
AcDbEntity
  8
細線
 48
50.0
100
AcDbLine
 10
7264.503084343764
 20
6297.679057913958
 30
0.0
 11
7373.6
 21
6406.775973570195
 31
0.0
  0
LINE
  5
24683
330
747D
100
AcDbEntity
  8
細線
 48
50.0
100
AcDbLine
 10
7309.404364949113
 20
6297.679057913958
 30
0.0
 11
7373.6
 21
6361.87469296485
 31
0.0
  0
LINE
  5
24684
330
747D
100
AcDbEntity
  8
細線
 48
50.0
100
AcDbLine
 10
7354.305645554457
 20
6297.679057913962
 30
0.0
 11
7373.6
 21
6316.973412359505
 31
0.0
  0
LINE
  5
24685
330
747D
100
AcDbEntity
  8
細線
 48
50.0
100
AcDbLine
 10
7219.601803738417
 20
6297.679057913958
 30
0.0
 11
7373.599999999995
 21
6451.677254175534
 31
0.0
  0
LINE
  5
24686
330
747D
100
AcDbEntity
  8
細線
 48
50.0
100
AcDbLine
 10
7173.599999999993
 20
6521.084937807606
 30
0.0
 11
7230.194120106329
 21
6577.679057913937
 31
0.0
  0
LINE
  5
24687
330
747D
100
AcDbEntity
  8
細線
 48
50.0
100
AcDbLine
 10
6886.08259465824
 20
6912.679057913944
 30
0.0
 11
6913.600000000001
 21
6940.196463255711
 31
0.0
  0
LINE
  5
24688
330
747D
100
AcDbEntity
  8
細線
 48
50.0
100
AcDbLine
 10
6841.181314052896
 20
6912.679057913947
 30
0.0
 11
6913.599999999999
 21
6985.09774386105
 31
0.0
  0
LINE
  5
24694
330
747D
100
AcDbEntity
  8
部品1
 48
50.0
100
AcDbLine
 10
7848.600000000008
 20
6924.679057913938
 30
0.0
 11
7648.600000000008
 21
6924.679057913938
 31
0.0
  0
LINE
  5
24695
330
747D
100
AcDbEntity
  8
センター
 48
2.0
100
AcDbLine
 10
7748.600000000007
 20
7074.679057913939
 30
0.0
 11
7748.600000000007
 21
6974.679057913938
 31
0.0
  0
LINE
  5
24696
330
747D
100
AcDbEntity
  8
センター
 48
2.0
100
AcDbLine
 10
7698.600000000007
 20
7024.679057913939
 30
0.0
 11
7798.600000000007
 21
7024.679057913939
 31
0.0
  0
LINE
  5
24698
330
747D
100
AcDbEntity
  8
細線
 48
50.0
100
AcDbLine
 10
6793.599999999988
 20
7089.604146887769
 30
0.0
 11
6816.674911026168
 21
7112.679057913947
 31
0.0
  0
LINE
  5
24699
330
747D
100
AcDbEntity
  8
部品1
 48
50.0
100
AcDbLine
 10
6913.599999999997
 20
7112.679057913945
 30
0.0
 11
6793.599999999988
 21
7112.679057913947
 31
0.0
  0
DIMENSION
  5
2469A
330
747D
100
AcDbEntity
  8
寸法
 48
50.0
100
AcDbDimension
  2
*D34
 10
6170.665006330072
 20
7554.679057913938
 30
0.0
 11
6170.665006330072
 21
7950.785659631738
 31
0.0
 70
   160
 71
     5
 42
123.0
  3
INABA_S40G
100
AcDbAlignedDimension
 13
6793.600000000001
 23
7677.679057913938
 33
0.0
 14
6866.600000000001
 24
7554.679057913938
 34
0.0
 50
90.0
100
AcDbRotatedDimension
1001
ACAD
1000
DSTYLE
1002
{
1070
   341
1005
0
1002
}
  0
DIMENSION
  5
2469C
330
747D
100
AcDbEntity
  8
寸法
 48
50.0
100
AcDbDimension
  2
*D35
 10
6793.600000000001
 20
8403.94551600785
 30
0.0
 11
6520.493398282202
 21
8403.94551600785
 31
0.0
 70
   160
 71
     5
 42
123.0
  3
INABA_S40G
100
AcDbAlignedDimension
 13
6916.600000000001
 23
7604.679057913938
 33
0.0
 14
6793.600000000001
 24
7677.679057913938
 34
0.0
100
AcDbRotatedDimension
1001
ACAD
1000
DSTYLE
1002
{
1070
   341
1005
0
1002
}
  0
LINE
  5
2469E
330
747D
100
AcDbEntity
  8
部品1
 48
50.0
100
AcDbLine
 10
7373.599999999997
 20
7677.679057913947
 30
0.0
 11
7373.600000000005
 21
7477.67905791394
 31
0.0
  0
LINE
  5
2469F
330
747D
100
AcDbEntity
  8
部品1
 48
50.0
100
AcDbLine
 10
7173.599999999997
 20
7677.679057913947
 30
0.0
 11
7173.600000000004
 21
7477.67905791394
 31
0.0
  0
LINE
  5
246A0
330
747D
100
AcDbEntity
  8
細線
 48
50.0
100
AcDbLine
 10
7173.6
 20
7614.604146887789
 30
0.0
 11
7236.674911026158
 21
7677.679057913947
 31
0.0
  0
LINE
  5
246A1
330
747D
100
AcDbEntity
  8
細線
 48
50.0
100
AcDbLine
 10
7173.600000000002
 20
7479.900305071755
 30
0.0
 11
7371.378752842194
 21
7677.679057913946
 31
0.0
  0
LINE
  5
246A2
330
747D
100
AcDbEntity
  8
細線
 48
50.0
100
AcDbLine
 10
7173.6
 20
7524.801585677093
 30
0.0
 11
7326.47747223685
 21
7677.679057913947
 31
0.0
  0
LINE
  5
246A3
330
747D
100
AcDbEntity
  8
細線
 48
50.0
100
AcDbLine
 10
7173.6
 20
7569.702866282444
 30
0.0
 11
7281.576191631502
 21
7677.679057913946
 31
0.0
  0
LINE
  5
246A4
330
747D
100
AcDbEntity
  8
センター
 48
2.0
100
AcDbLine
 10
6916.600000000001
 20
7604.679057913938
 30
0.0
 11
6916.600000000001
 21
7504.679057913938
 31
0.0
  0
CIRCLE
  5
246A5
330
747D
100
AcDbEntity
  8
部品1
 48
50.0
100
AcDbCircle
 10
6916.600000000001
 20
7554.679057913938
 30
0.0
 40
35.0
  0
LINE
  5
246A6
330
747D
100
AcDbEntity
  8
センター
 48
2.0
100
AcDbLine
 10
6866.600000000001
 20
7554.679057913938
 30
0.0
 11
6966.600000000001
 21
7554.679057913938
 31
0.0
  0
LINE
  5
246A7
330
747D
100
AcDbEntity
  8
細線
 48
50.0
100
AcDbLine
 10
7261.181314052895
 20
7477.67905791394
 30
0.0
 11
7373.600000000002
 21
7590.097743861062
 31
0.0
  0
LINE
  5
246A8
330
747D
100
AcDbEntity
  8
細線
 48
50.0
100
AcDbLine
 10
7350.98387526359
 20
7477.679057913942
 30
0.0
 11
7373.600000000002
 21
7500.295182650356
 31
0.0
  0
LINE
  5
246A9
330
747D
100
AcDbEntity
  8
細線
 48
50.0
100
AcDbLine
 10
7306.082594658235
 20
7477.67905791394
 30
0.0
 11
7373.6
 21
7545.196463255706
 31
0.0
  0
LINE
  5
246AA
330
747D
100
AcDbEntity
  8
細線
 48
50.0
100
AcDbLine
 10
7216.280033447535
 20
7477.67905791394
 30
0.0
 11
7373.599999999999
 21
7634.999024466404
 31
0.0
  0
LINE
  5
246AB
330
747D
100
AcDbEntity
  8
細線
 48
50.0
100
AcDbLine
 10
7173.599999999997
 20
7659.505427493134
 30
0.0
 11
7191.773630420811
 21
7677.679057913947
 31
0.0
  0
LINE
  5
246AC
330
747D
100
AcDbEntity
  8
細線
 48
50.0
100
AcDbLine
 10
8123.600000000001
 20
7614.604146887789
 30
0.0
 11
8186.674911026157
 21
7677.679057913947
 31
0.0
  0
LINE
  5
246AD
330
747D
100
AcDbEntity
  8
細線
 48
50.0
100
AcDbLine
 10
8123.600000000001
 20
7569.702866282444
 30
0.0
 11
8231.576191631502
 21
7677.679057913946
 31
0.0
  0
LINE
  5
246AE
330
747D
100
AcDbEntity
  8
細線
 48
50.0
100
AcDbLine
 10
8123.600000000001
 20
7524.801585677093
 30
0.0
 11
8276.47747223685
 21
7677.679057913947
 31
0.0
  0
LINE
  5
246AF
330
747D
100
AcDbEntity
  8
細線
 48
50.0
100
AcDbLine
 10
8123.600000000001
 20
7479.900305071755
 30
0.0
 11
8321.378752842194
 21
7677.679057913946
 31
0.0
  0
LINE
  5
246B0
330
747D
100
AcDbEntity
  8
部品1
 48
50.0
100
AcDbLine
 10
8123.599999999997
 20
7677.679057913947
 30
0.0
 11
8123.600000000005
 21
7477.67905791394
 31
0.0
  0
LINE
  5
246B1
330
747D
100
AcDbEntity
  8
部品1
 48
50.0
100
AcDbLine
 10
8323.599999999997
 20
7677.679057913947
 30
0.0
 11
8323.600000000004
 21
7477.67905791394
 31
0.0
  0
LINE
  5
246B2
330
747D
100
AcDbEntity
  8
部品1
 48
50.0
100
AcDbLine
 10
7848.600000000008
 20
7124.679057913938
 30
0.0
 11
7648.600000000008
 21
7124.679057913938
 31
0.0
  0
LINE
  5
246B3
330
747D
100
AcDbEntity
  8
細線
 48
50.0
100
AcDbLine
 10
8211.181314052895
 20
7477.67905791394
 30
0.0
 11
8323.600000000002
 21
7590.097743861062
 31
0.0
  0
LINE
  5
246B4
330
747D
100
AcDbEntity
  8
細線
 48
50.0
100
AcDbLine
 10
8166.280033447534
 20
7477.67905791394
 30
0.0
 11
8323.599999999998
 21
7634.999024466404
 31
0.0
  0
LINE
  5
246B5
330
747D
100
AcDbEntity
  8
細線
 48
50.0
100
AcDbLine
 10
8256.082594658236
 20
7477.67905791394
 30
0.0
 11
8323.6
 21
7545.196463255706
 31
0.0
  0
LINE
  5
246B6
330
747D
100
AcDbEntity
  8
細線
 48
50.0
100
AcDbLine
 10
8300.98387526359
 20
7477.679057913942
 30
0.0
 11
8323.600000000002
 21
7500.295182650356
 31
0.0
  0
LINE
  5
246B7
330
747D
100
AcDbEntity
  8
細線
 48
50.0
100
AcDbLine
 10
8123.599999999997
 20
7659.505427493134
 30
0.0
 11
8141.773630420813
 21
7677.679057913947
 31
0.0
  0
LINE
  5
246B8
330
747D
100
AcDbEntity
  8
細線
 48
50.0
100
AcDbLine
 10
9533.599999999999
 20
6979.801585677112
 30
0.0
 11
9653.599999999995
 21
7099.801585677103
 31
0.0
  0
LINE
  5
246B9
330
747D
100
AcDbEntity
  8
細線
 48
50.0
100
AcDbLine
 10
9533.599999999998
 20
7024.702866282459
 30
0.0
 11
9621.576191631518
 21
7112.679057913972
 31
0.0
  0
LINE
  5
246BB
330
747D
100
AcDbEntity
  8
部品1
 48
50.0
100
AcDbLine
 10
9653.6
 20
6297.679057913956
 30
0.0
 11
9653.6
 21
7677.679057913938
 31
0.0
  0
LINE
  5
246BD
330
747D
100
AcDbEntity
  8
部品1
 48
50.0
100
AcDbLine
 10
8598.600000000008
 20
6924.679057913938
 30
0.0
 11
8598.600000000008
 21
7124.679057913938
 31
0.0
  0
LINE
  5
246BE
330
747D
100
AcDbEntity
  8
部品1
 48
50.0
100
AcDbLine
 10
8798.600000000007
 20
6924.679057913938
 30
0.0
 11
8798.600000000007
 21
7124.679057913938
 31
0.0
  0
DIMENSION
  5
246BF
330
747D
100
AcDbEntity
  8
寸法
 48
50.0
100
AcDbDimension
  2
*D36
 10
8698.600000000007
 20
8160.287874584186
 30
0.0
 11
9176.100000000003
 21
8260.287874584186
 31
0.0
 70
    32
 71
     5
 42
954.9999999999927
  3
INABA_S40G
100
AcDbAlignedDimension
 13
9653.6
 23
7677.679057913938
 33
0.0
 14
8698.600000000007
 24
7074.679057913939
 34
0.0
100
AcDbRotatedDimension
1001
ACAD
1000
DSTYLE
1002
{
1070
   341
1005
0
1002
}
  0
LINE
  5
246D1
330
747D
100
AcDbEntity
  8
センター
 48
2.0
100
AcDbLine
 10
8648.600000000007
 20
7024.679057913939
 30
0.0
 11
8748.600000000008
 21
7024.679057913939
 31
0.0
  0
LINE
  5
246D2
330
747D
100
AcDbEntity
  8
部品1
 48
50.0
100
AcDbLine
 10
8798.600000000007
 20
6924.679057913938
 30
0.0
 11
8598.600000000008
 21
6924.679057913938
 31
0.0
  0
LINE
  5
246D3
330
747D
100
AcDbEntity
  8
センター
 48
2.0
100
AcDbLine
 10
8698.600000000007
 20
7074.679057913939
 30
0.0
 11
8698.600000000007
 21
6974.679057913938
 31
0.0
  0
CIRCLE
  5
246D6
330
747D
100
AcDbEntity
  8
部品1
 48
50.0
100
AcDbCircle
 10
9530.600000000008
 20
6495.679057913942
 30
0.0
 40
35.0
  0
LINE
  5
246D7
330
747D
100
AcDbEntity
  8
センター
 48
2.0
100
AcDbLine
 10
9530.600000000008
 20
6545.679057913942
 30
0.0
 11
9530.600000000008
 21
6445.679057913942
 31
0.0
  0
LINE
  5
246D8
330
747D
100
AcDbEntity
  8
センター
 48
2.0
100
AcDbLine
 10
9480.600000000007
 20
6495.679057913942
 30
0.0
 11
9580.600000000009
 21
6495.679057913942
 31
0.0
  0
LINE
  5
246D9
330
747D
100
AcDbEntity
  8
細線
 48
50.0
100
AcDbLine
 10
9646.082594658244
 20
6912.679057913972
 30
0.0
 11
9653.599999999993
 21
6920.196463255724
 31
0.0
  0
LINE
  5
246DA
330
747D
100
AcDbEntity
  8
細線
 48
50.0
100
AcDbLine
 10
9601.181314052901
 20
6912.679057913972
 30
0.0
 11
9653.599999999995
 21
6965.097743861067
 31
0.0
  0
LINE
  5
246DB
330
747D
100
AcDbEntity
  8
細線
 48
50.0
100
AcDbLine
 10
9556.280033447553
 20
6912.679057913972
 30
0.0
 11
9653.599999999993
 21
7009.999024466413
 31
0.0
  0
LINE
  5
246DC
330
747D
100
AcDbEntity
  8
細線
 48
50.0
100
AcDbLine
 10
9533.600000000003
 20
6934.90030507177
 30
0.0
 11
9653.599999999993
 21
7054.90030507176
 31
0.0
  0
LINE
  5
246DD
330
747D
100
AcDbEntity
  8
部品1
 48
50.0
100
AcDbLine
 10
9653.599999999993
 20
6912.679057913975
 30
0.0
 11
9533.600000000003
 21
6912.679057913975
 31
0.0
  0
DIMENSION
  5
246DF
330
747D
100
AcDbEntity
  8
寸法
 48
50.0
100
AcDbDimension
  2
*D37
 10
9530.600000000001
 20
8403.94551600785
 30
0.0
 11
9926.706601717798
 21
8403.94551600785
 31
0.0
 70
   160
 71
     5
 42
123.0
  3
INABA_S40G
100
AcDbAlignedDimension
 13
9653.6
 23
7677.679057913938
 33
0.0
 14
9530.600000000001
 24
7604.679057913938
 34
0.0
100
AcDbRotatedDimension
1001
ACAD
1000
DSTYLE
1002
{
1070
   341
1005
0
1002
}
  0
LINE
  5
246E0
330
747D
100
AcDbEntity
  8
細線
 48
50.0
100
AcDbLine
 10
9250.983875263591
 20
7477.679057913942
 30
0.0
 11
9273.600000000001
 21
7500.295182650356
 31
0.0
  0
LINE
  5
246E1
330
747D
100
AcDbEntity
  8
細線
 48
50.0
100
AcDbLine
 10
9116.280033447536
 20
7477.67905791394
 30
0.0
 11
9273.6
 21
7634.999024466404
 31
0.0
  0
LINE
  5
246E2
330
747D
100
AcDbEntity
  8
細線
 48
50.0
100
AcDbLine
 10
9073.600000000002
 20
7479.900305071755
 30
0.0
 11
9271.378752842194
 21
7677.679057913946
 31
0.0
  0
LINE
  5
246E3
330
747D
100
AcDbEntity
  8
細線
 48
50.0
100
AcDbLine
 10
9161.181314052894
 20
7477.67905791394
 30
0.0
 11
9273.600000000001
 21
7590.097743861062
 31
0.0
  0
LINE
  5
246E4
330
747D
100
AcDbEntity
  8
細線
 48
50.0
100
AcDbLine
 10
9206.082594658235
 20
7477.67905791394
 30
0.0
 11
9273.6
 21
7545.196463255706
 31
0.0
  0
LINE
  5
246E5
330
747D
100
AcDbEntity
  8
細線
 48
50.0
100
AcDbLine
 10
9073.6
 20
7614.604146887789
 30
0.0
 11
9136.674911026158
 21
7677.679057913947
 31
0.0
  0
LINE
  5
246E6
330
747D
100
AcDbEntity
  8
部品1
 48
50.0
100
AcDbLine
 10
9073.599999999997
 20
7677.679057913947
 30
0.0
 11
9073.600000000004
 21
7477.67905791394
 31
0.0
  0
LINE
  5
246E7
330
747D
100
AcDbEntity
  8
細線
 48
50.0
100
AcDbLine
 10
9073.6
 20
7569.702866282444
 30
0.0
 11
9181.576191631503
 21
7677.679057913946
 31
0.0
  0
LINE
  5
246E8
330
747D
100
AcDbEntity
  8
細線
 48
50.0
100
AcDbLine
 10
9073.6
 20
7524.801585677093
 30
0.0
 11
9226.477472236849
 21
7677.679057913947
 31
0.0
  0
LINE
  5
246EA
330
747D
100
AcDbEntity
  8
部品1
 48
50.0
100
AcDbLine
 10
8798.600000000007
 20
7124.679057913938
 30
0.0
 11
8598.600000000008
 21
7124.679057913938
 31
0.0
  0
LINE
  5
246EB
330
747D
100
AcDbEntity
  8
細線
 48
50.0
100
AcDbLine
 10
9073.599999999997
 20
7659.505427493134
 30
0.0
 11
9091.773630420812
 21
7677.679057913947
 31
0.0
  0
LINE
  5
246EC
330
747D
100
AcDbEntity
  8
部品1
 48
50.0
100
AcDbLine
 10
9273.599999999998
 20
7677.679057913947
 30
0.0
 11
9273.600000000005
 21
7477.67905791394
 31
0.0
  0
LINE
  5
246EE
330
747D
100
AcDbEntity
  8
細線
 48
50.0
100
AcDbLine
 10
9533.600000000003
 20
7069.604146887808
 30
0.0
 11
9576.674911026172
 21
7112.679057913975
 31
0.0
  0
LINE
  5
246EF
330
747D
100
AcDbEntity
  8
部品1
 48
50.0
100
AcDbLine
 10
9653.599999999993
 20
7112.679057913975
 30
0.0
 11
9533.600000000003
 21
7112.679057913975
 31
0.0
  0
LINE
  5
246F0
330
747D
100
AcDbEntity
  8
センター
 48
2.0
100
AcDbLine
 10
9480.6
 20
7554.679057913938
 30
0.0
 11
9580.600000000002
 21
7554.679057913938
 31
0.0
  0
CIRCLE
  5
246F1
330
747D
100
AcDbEntity
  8
部品1
 48
50.0
100
AcDbCircle
 10
9530.600000000001
 20
7554.679057913938
 30
0.0
 40
35.0
  0
LINE
  5
246F2
330
747D
100
AcDbEntity
  8
センター
 48
2.0
100
AcDbLine
 10
9530.600000000001
 20
7604.679057913938
 30
0.0
 11
9530.600000000001
 21
7504.679057913938
 31
0.0
  0
TEXT
  5
24C16
330
747D
100
AcDbEntity
  8
文字
 62
     7
 48
50.0
100
AcDbText
 10
14267.69561199343
 20
838.2527270729188
 30
0.0
 40
100.0
  1
～一般型・多雪地型・豪雪地型～
  7
STYLE2
100
AcDbText
  0
LINE
  5
24C36
330
747D
100
AcDbEntity
  8
部品1
 48
50.0
100
AcDbLine
 10
9553.600000000002
 20
6577.679057913958
 30
0.0
 11
6913.600000000002
 21
6577.679057913934
 31
0.0
  0
LINE
  5
24C37
330
747D
100
AcDbEntity
  8
細線
 48
50.0
100
AcDbLine
 10
8123.599999999994
 20
6521.084937807606
 30
0.0
 11
8180.194120106328
 21
6577.679057913937
 31
0.0
  0
LINE
  5
24C38
330
747D
100
AcDbEntity
  8
細線
 48
50.0
100
AcDbLine
 10
8169.601803738418
 20
6297.679057913958
 30
0.0
 11
8323.599999999995
 21
6451.677254175534
 31
0.0
  0
LINE
  5
24C39
330
747D
100
AcDbEntity
  8
細線
 48
50.0
100
AcDbLine
 10
8304.305645554457
 20
6297.679057913962
 30
0.0
 11
8323.6
 21
6316.973412359505
 31
0.0
  0
LINE
  5
24C3A
330
747D
100
AcDbEntity
  8
細線
 48
50.0
100
AcDbLine
 10
8259.404364949112
 20
6297.679057913958
 30
0.0
 11
8323.6
 21
6361.87469296485
 31
0.0
  0
LINE
  5
24C3B
330
747D
100
AcDbEntity
  8
細線
 48
50.0
100
AcDbLine
 10
8214.503084343764
 20
6297.679057913958
 30
0.0
 11
8323.6
 21
6406.775973570195
 31
0.0
  0
LINE
  5
24C3C
330
747D
100
AcDbEntity
  8
細線
 48
50.0
100
AcDbLine
 10
8123.599999999994
 20
6476.18365720226
 30
0.0
 11
8225.095400711671
 21
6577.679057913937
 31
0.0
  0
LINE
  5
24C3D
330
747D
100
AcDbEntity
  8
細線
 48
50.0
100
AcDbLine
 10
8124.700523133071
 20
6297.679057913956
 30
0.0
 11
8323.599999999995
 21
6496.578534780876
 31
0.0
  0
LINE
  5
24C3E
330
747D
100
AcDbEntity
  8
細線
 48
50.0
100
AcDbLine
 10
8123.599999999997
 20
6341.479815386229
 30
0.0
 11
8323.599999999993
 21
6541.479815386224
 31
0.0
  0
LINE
  5
24C3F
330
747D
100
AcDbEntity
  8
細線
 48
50.0
100
AcDbLine
 10
8123.599999999997
 20
6386.381095991573
 30
0.0
 11
8314.897961922365
 21
6577.679057913937
 31
0.0
  0
LINE
  5
24C40
330
747D
100
AcDbEntity
  8
細線
 48
50.0
100
AcDbLine
 10
8123.599999999997
 20
6431.282376596917
 30
0.0
 11
8269.996681317017
 21
6577.679057913937
 31
0.0
  0
LINE
  5
24C41
330
747D
100
AcDbEntity
  8
部品1
 48
50.0
100
AcDbLine
 10
8123.599999999992
 20
6577.679057913936
 30
0.0
 11
8123.599999999999
 21
6297.679057913956
 31
0.0
  0
LINE
  5
24C42
330
747D
100
AcDbEntity
  8
部品1
 48
50.0
100
AcDbLine
 10
8323.599999999991
 20
6577.679057913937
 30
0.0
 11
8323.599999999998
 21
6297.67905791396
 31
0.0
  0
LINE
  5
24C43
330
747D
100
AcDbEntity
  8
細線
 48
50.0
100
AcDbLine
 10
9073.599999999993
 20
6521.084937807606
 30
0.0
 11
9130.194120106327
 21
6577.679057913937
 31
0.0
  0
LINE
  5
24C44
330
747D
100
AcDbEntity
  8
細線
 48
50.0
100
AcDbLine
 10
9119.601803738417
 20
6297.679057913958
 30
0.0
 11
9273.599999999994
 21
6451.677254175534
 31
0.0
  0
LINE
  5
24C45
330
747D
100
AcDbEntity
  8
細線
 48
50.0
100
AcDbLine
 10
9254.305645554458
 20
6297.679057913962
 30
0.0
 11
9273.6
 21
6316.973412359505
 31
0.0
  0
LINE
  5
24C46
330
747D
100
AcDbEntity
  8
細線
 48
50.0
100
AcDbLine
 10
9209.404364949113
 20
6297.679057913958
 30
0.0
 11
9273.6
 21
6361.87469296485
 31
0.0
  0
LINE
  5
24C47
330
747D
100
AcDbEntity
  8
細線
 48
50.0
100
AcDbLine
 10
9164.503084343763
 20
6297.679057913958
 30
0.0
 11
9273.6
 21
6406.775973570195
 31
0.0
  0
LINE
  5
24C48
330
747D
100
AcDbEntity
  8
細線
 48
50.0
100
AcDbLine
 10
9073.599999999995
 20
6476.18365720226
 30
0.0
 11
9175.09540071167
 21
6577.679057913937
 31
0.0
  0
LINE
  5
24C49
330
747D
100
AcDbEntity
  8
細線
 48
50.0
100
AcDbLine
 10
9074.700523133072
 20
6297.679057913956
 30
0.0
 11
9273.599999999994
 21
6496.578534780876
 31
0.0
  0
LINE
  5
24C4A
330
747D
100
AcDbEntity
  8
細線
 48
50.0
100
AcDbLine
 10
9073.599999999997
 20
6341.479815386229
 30
0.0
 11
9273.599999999992
 21
6541.479815386224
 31
0.0
  0
LINE
  5
24C4B
330
747D
100
AcDbEntity
  8
細線
 48
50.0
100
AcDbLine
 10
9073.599999999997
 20
6386.381095991573
 30
0.0
 11
9264.897961922365
 21
6577.679057913937
 31
0.0
  0
LINE
  5
24C4C
330
747D
100
AcDbEntity
  8
細線
 48
50.0
100
AcDbLine
 10
9073.599999999997
 20
6431.282376596917
 30
0.0
 11
9219.996681317018
 21
6577.679057913937
 31
0.0
  0
LINE
  5
24C4D
330
747D
100
AcDbEntity
  8
部品1
 48
50.0
100
AcDbLine
 10
9073.599999999991
 20
6577.679057913936
 30
0.0
 11
9073.599999999998
 21
6297.679057913956
 31
0.0
  0
LINE
  5
24C4E
330
747D
100
AcDbEntity
  8
部品1
 48
50.0
100
AcDbLine
 10
9273.599999999992
 20
6577.679057913937
 30
0.0
 11
9273.6
 21
6297.67905791396
 31
0.0
  0
LINE
  5
24CAC
330
747D
100
AcDbEntity
  8
部品1
 48
50.0
100
AcDbLine
 10
9533.599999999998
 20
6577.679057913957
 30
0.0
 11
9533.599999999999
 21
7477.679057913938
 31
0.0
  0
LINE
  5
24CAD
330
747D
100
AcDbEntity
  8
部品1
 48
50.0
100
AcDbLine
 10
6913.600000000001
 20
6577.679057913933
 30
0.0
 11
6913.599999999997
 21
7477.679057913938
 31
0.0
  0
MTEXT
  5
24E46
102
{ACAD_REACTORS
330
24E47
102
}
330
747D
100
AcDbEntity
  8
寸法
 62
     7
 48
50.0
100
AcDbMText
 10
10688.69744203225
 20
2161.426849448872
 30
0.0
 40
120.0
 41
0.8
 71
     4
 72
     1
  1
\A1;C.B
  7
STYLE1
 73
     1
 44
1.0
1001
ACAD
1000
MTEXTBEGIN
1070
    73
1070
     1
1070
    44
1040
1.0
1070
    74
1070
     0
1000
MTEXTEND
  0
LEADER
  5
24E47
330
747D
100
AcDbEntity
  8
寸法
 48
50.0
100
AcDbLeader
  3
INABA_S50G
 73
     0
 74
     0
 75
     1
 40
120.0
 41
185.591883092037
 76
     3
 10
10505.5592353986
 20
1904.280528767734
 30
0.0
 10
10538.69744203225
 20
2076.426849448873
 30
0.0
 10
10663.69744203225
 20
2076.426849448873
 30
0.0
340
24E46
1001
ACAD
1000
DSTYLE
1002
{
1070
    40
1040
1.0
1002
}
  0
LINE
  5
24E48
330
747D
100
AcDbEntity
  8
細線
 48
50.0
100
AcDbLine
 10
10651.21264897501
 20
1548.581613114384
 30
0.0
 11
10644.78186835667
 21
1572.581613114384
 31
0.0
  0
LINE
  5
24E49
330
747D
100
AcDbEntity
  8
細線
 48
50.0
100
AcDbLine
 10
10629.77671358052
 20
1468.581613114384
 30
0.0
 11
10636.20749419887
 21
1444.581613114384
 31
0.0
  0
LINE
  5
24E4A
330
747D
100
AcDbEntity
  8
部品1
100
AcDbLine
 10
10694.83482378268
 20
1664.280528767735
 30
0.0
 11
10694.83482378268
 21
1444.581613114384
 31
0.0
  0
LINE
  5
24E4B
330
747D
100
AcDbEntity
  8
細線
 48
50.0
100
AcDbLine
 10
10623.34593296217
 20
1444.581613114384
 30
0.0
 11
10657.64342959336
 21
1572.581613114382
 31
0.0
  0
LINE
  5
24E4C
330
747D
100
AcDbEntity
  8
細線
 48
50.0
100
AcDbLine
 10
10572.32460402777
 20
1548.581613114384
 30
0.0
 11
10565.89382340942
 21
1572.581613114384
 31
0.0
  0
LINE
  5
24E4D
330
747D
100
AcDbEntity
  8
細線
100
AcDbLine
 10
10447.87121828201
 20
1572.581613114386
 30
0.0
 11
10539.57013393536
 21
1664.280528767735
 31
0.0
  0
LINE
  5
24E4E
330
747D
100
AcDbEntity
  8
細線
 48
50.0
100
AcDbLine
 10
10493.43655908051
 20
1548.581613114385
 30
0.0
 11
10487.00577846216
 21
1572.581613114385
 31
0.0
  0
LINE
  5
24E4F
330
747D
100
AcDbEntity
  8
細線
100
AcDbLine
 10
10481.81234377897
 20
1572.581613114386
 30
0.0
 11
10573.51125943231
 21
1664.280528767735
 31
0.0
  0
LINE
  5
24E50
330
747D
100
AcDbEntity
  8
細線
 48
50.0
100
AcDbLine
 10
10256.77242423878
 20
1548.581613114385
 30
0.0
 11
10250.34164362043
 21
1572.581613114385
 31
0.0
  0
LINE
  5
24E51
330
747D
100
AcDbEntity
  8
細線
 48
50.0
100
AcDbLine
 10
10335.66046918603
 20
1548.581613114385
 30
0.0
 11
10329.22968856768
 21
1572.581613114385
 31
0.0
  0
LINE
  5
24E52
330
747D
100
AcDbEntity
  8
細線
 48
50.0
100
AcDbLine
 10
10414.54851413327
 20
1548.581613114385
 30
0.0
 11
10408.11773351492
 21
1572.581613114385
 31
0.0
  0
LINE
  5
24E53
330
747D
100
AcDbEntity
  8
細線
 48
50.0
100
AcDbLine
 10
10550.88866863328
 20
1468.581613114384
 30
0.0
 11
10557.31944925162
 21
1444.581613114384
 31
0.0
  0
LINE
  5
24E54
330
747D
100
AcDbEntity
  8
細線
 48
50.0
100
AcDbLine
 10
10472.00062368603
 20
1468.581613114384
 30
0.0
 11
10478.43140430439
 21
1444.581613114384
 31
0.0
  0
LINE
  5
24E55
330
747D
100
AcDbEntity
  8
細線
 48
50.0
100
AcDbLine
 10
10314.22453379154
 20
1468.581613114384
 30
0.0
 11
10320.65531440988
 21
1444.581613114384
 31
0.0
  0
LINE
  5
24E56
330
747D
100
AcDbEntity
  8
細線
 48
50.0
100
AcDbLine
 10
10393.11257873878
 20
1468.581613114384
 30
0.0
 11
10399.54335935713
 21
1444.581613114384
 31
0.0
  0
LINE
  5
24E57
330
747D
100
AcDbEntity
  8
細線
 48
50.0
100
AcDbLine
 10
10386.68179812043
 20
1444.581613114384
 30
0.0
 11
10420.97929475161
 21
1572.581613114384
 31
0.0
  0
LINE
  5
24E58
330
747D
100
AcDbEntity
  8
細線
 48
50.0
100
AcDbLine
 10
10307.79375317319
 20
1444.581613114384
 30
0.0
 11
10342.09124980437
 21
1572.581613114384
 31
0.0
  0
LINE
  5
24E59
330
747D
100
AcDbEntity
  8
細線
 48
50.0
100
AcDbLine
 10
10465.56984306768
 20
1444.581613114384
 30
0.0
 11
10499.86733969885
 21
1572.581613114385
 31
0.0
  0
LINE
  5
24E5A
330
747D
100
AcDbEntity
  8
細線
100
AcDbLine
 10
10515.75346927592
 20
1572.581613114386
 30
0.0
 11
10607.45238492927
 21
1664.280528767735
 31
0.0
  0
LINE
  5
24E5B
330
747D
100
AcDbEntity
  8
細線
 48
50.0
100
AcDbLine
 10
10544.45788801493
 20
1444.581613114382
 30
0.0
 11
10578.75538464611
 21
1572.581613114382
 31
0.0
  0
LINE
  5
24E5C
330
747D
100
AcDbEntity
  8
部品1
100
AcDbLine
 10
10574.83482378268
 20
1904.280528767734
 30
0.0
 11
10574.83482378268
 21
1664.280528767735
 31
0.0
  0
LINE
  5
24E5D
330
747D
100
AcDbEntity
  8
細線
100
AcDbLine
 10
10560.9971614351
 20
1664.280528767736
 30
0.0
 11
10320.9971614351
 21
1904.280528767734
 31
0.0
  0
LINE
  5
24E5E
330
747D
100
AcDbEntity
  8
細線
100
AcDbLine
 10
10510.08547318967
 20
1664.280528767735
 30
0.0
 11
10270.08547318967
 21
1904.280528767734
 31
0.0
  0
LINE
  5
24E5F
330
747D
100
AcDbEntity
  8
細線
100
AcDbLine
 10
10121.81234377897
 20
1572.581613114385
 30
0.0
 11
10213.51125943231
 21
1664.280528767735
 31
0.0
  0
LINE
  5
24E60
330
747D
100
AcDbEntity
  8
細線
100
AcDbLine
 10
10087.87121828201
 20
1572.581613114385
 30
0.0
 11
10179.57013393536
 21
1664.280528767735
 31
0.0
  0
LINE
  5
24E61
330
747D
100
AcDbEntity
  8
細線
 48
50.0
100
AcDbLine
 10
10098.99633434428
 20
1548.581613114385
 30
0.0
 11
10092.56555372594
 21
1572.581613114385
 31
0.0
  0
LINE
  5
24E62
330
747D
100
AcDbEntity
  8
細線
 48
50.0
100
AcDbLine
 10
10177.88437929153
 20
1548.581613114385
 30
0.0
 11
10171.45359867319
 21
1572.581613114385
 31
0.0
  0
LINE
  5
24E63
330
747D
100
AcDbEntity
  8
細線
 48
50.0
100
AcDbLine
 10
10020.10828939703
 20
1548.581613114385
 30
0.0
 11
10013.67750877868
 21
1572.581613114385
 31
0.0
  0
LINE
  5
24E64
330
747D
100
AcDbEntity
  8
細線
 48
50.0
100
AcDbLine
 10
10235.33648884429
 20
1468.581613114384
 30
0.0
 11
10241.76726946264
 21
1444.581613114384
 31
0.0
  0
LINE
  5
24E65
330
747D
100
AcDbEntity
  8
細線
 48
50.0
100
AcDbLine
 10
10156.44844389705
 20
1468.581613114384
 30
0.0
 11
10162.87922451539
 21
1444.581613114384
 31
0.0
  0
LINE
  5
24E66
330
747D
100
AcDbEntity
  8
細線
 48
50.0
100
AcDbLine
 10
9998.672354002543
 20
1468.581613114384
 30
0.0
 11
10005.10313462089
 21
1444.581613114384
 31
0.0
  0
LINE
  5
24E67
330
747D
100
AcDbEntity
  8
細線
 48
50.0
100
AcDbLine
 10
10077.56039894979
 20
1468.581613114384
 30
0.0
 11
10083.99117956814
 21
1444.581613114384
 31
0.0
  0
LINE
  5
24E68
330
747D
100
AcDbEntity
  8
部品1
100
AcDbLine
 10
9974.834823782684
 20
1444.581613114381
 30
0.0
 11
9974.834823782684
 21
1664.280528767735
 31
0.0
  0
LINE
  5
24E69
330
747D
100
AcDbEntity
  8
細線
 48
50.0
100
AcDbLine
 10
9992.241573384196
 20
1444.581613114384
 30
0.0
 11
10026.53907001538
 21
1572.581613114385
 31
0.0
  0
LINE
  5
24E6A
330
747D
100
AcDbEntity
  8
細線
 48
50.0
100
AcDbLine
 10
10150.01766327869
 20
1444.581613114384
 30
0.0
 11
10184.31515990988
 21
1572.581613114385
 31
0.0
  0
LINE
  5
24E6B
330
747D
100
AcDbEntity
  8
細線
 48
50.0
100
AcDbLine
 10
10071.12961833144
 20
1444.581613114384
 30
0.0
 11
10105.42711496262
 21
1572.581613114384
 31
0.0
  0
LINE
  5
24E6C
330
747D
100
AcDbEntity
  8
部品1
100
AcDbLine
 10
10094.83482378268
 20
1664.280528767735
 30
0.0
 11
10094.83482378268
 21
1904.280528767734
 31
0.0
  0
TEXT
  5
24E6D
330
747D
100
AcDbEntity
  8
部品1
 48
50.0
100
AcDbText
 10
9330.716737024181
 20
1397.480788130426
 30
0.0
 40
80.0
  1
ボルトの出
 50
90.0
  7
STYLE2
100
AcDbText
  0
LINE
  5
24E6E
330
747D
100
AcDbEntity
  8
細線
100
AcDbLine
 10
10238.55646921403
 20
1664.280528767735
 30
0.0
 11
10094.83482378268
 21
1808.002174199087
 31
0.0
  0
LWPOLYLINE
  5
24E6F
330
747D
100
AcDbEntity
  8
部品1
 48
50.0
100
AcDbPolyline
 90
        2
 70
     0
 43
12.0
 10
9710.223561682296
 20
1664.280528767735
 10
10911.31586481392
 20
1664.280528767735
  0
LINE
  5
24E70
330
747D
100
AcDbEntity
  8
細線
100
AcDbLine
 10
10155.75346927592
 20
1572.581613114385
 30
0.0
 11
10247.45238492927
 21
1664.280528767735
 31
0.0
  0
LINE
  5
24E71
330
747D
100
AcDbEntity
  8
部品1
100
AcDbLine
 10
9974.834823782684
 20
1572.581613114385
 30
0.0
 11
10694.83482378268
 21
1572.581613114387
 31
0.0
  0
LINE
  5
24E72
330
747D
100
AcDbEntity
  8
部品1
100
AcDbLine
 10
9974.834823782684
 20
1444.581613114381
 30
0.0
 11
10694.83482378268
 21
1444.581613114384
 31
0.0
  0
LINE
  5
24E73
330
747D
100
AcDbEntity
  8
細線
 48
50.0
100
AcDbLine
 10
10228.90570822594
 20
1444.581613114384
 30
0.0
 11
10263.20320485712
 21
1572.581613114384
 31
0.0
  0
LINE
  5
24E74
330
747D
100
AcDbEntity
  8
部品1
100
AcDbLine
 10
10094.83482378268
 20
1904.280528767734
 30
0.0
 11
10574.83482378268
 21
1904.280528767734
 31
0.0
  0
LINE
  5
24E75
330
747D
100
AcDbEntity
  8
細線
100
AcDbLine
 10
10289.46815745946
 20
1664.280528767735
 30
0.0
 11
10094.83482378268
 21
1858.913862444518
 31
0.0
  0
LINE
  5
24E76
330
747D
100
AcDbEntity
  8
部品1
100
AcDbLine
 10
11281.57632487971
 20
339.3122263836731
 30
0.0
 11
11281.57632487972
 21
3303.61919596832
 31
0.0
  0
TEXT
  5
24E77
330
747D
100
AcDbEntity
  8
部品1
100
AcDbText
 10
7903.471140671856
 20
3124.067264016892
 30
0.0
 40
120.0
  1
基礎詳細
  7
STYLE2
100
AcDbText
  0
LINE
  5
24E78
330
747D
100
AcDbEntity
  8
部品1
 48
50.0
100
AcDbLine
 10
8218.698891479926
 20
2303.155809876877
 30
0.0
 11
8234.698891479926
 21
2295.155809876877
 31
0.0
  0
LINE
  5
24E79
330
747D
100
AcDbEntity
  8
細線
 48
50.0
100
AcDbLine
 10
8186.698891479926
 20
2255.155809876877
 30
0.0
 11
8186.698891479926
 21
2287.155809876877
 31
0.0
  0
LINE
  5
24E7A
330
747D
100
AcDbEntity
  8
部品1
 48
50.0
100
AcDbLine
 10
8234.698891479926
 20
2263.155809876877
 30
0.0
 11
8234.698891479926
 21
2295.155809876877
 31
0.0
  0
LINE
  5
24E7B
330
747D
100
AcDbEntity
  8
細線
 48
50.0
100
AcDbLine
 10
8218.698891479926
 20
2255.155809876877
 30
0.0
 11
8218.698891479926
 21
2287.155809876877
 31
0.0
  0
LINE
  5
24E7C
330
747D
100
AcDbEntity
  8
部品1
 48
50.0
100
AcDbLine
 10
8218.698891479926
 20
2287.155809876877
 30
0.0
 11
8234.698891479926
 21
2295.155809876877
 31
0.0
  0
LINE
  5
24E7D
330
747D
100
AcDbEntity
  8
部品1
 48
50.0
100
AcDbLine
 10
8186.698891479926
 20
2287.155809876877
 30
0.0
 11
8218.698891479926
 21
2287.155809876877
 31
0.0
  0
LINE
  5
24E7E
330
747D
100
AcDbEntity
  8
部品1
 48
50.0
100
AcDbLine
 10
8218.698891479926
 20
2255.155809876877
 30
0.0
 11
8234.698891479926
 21
2263.155809876877
 31
0.0
  0
LINE
  5
24E7F
330
747D
100
AcDbEntity
  8
部品1
 48
50.0
100
AcDbLine
 10
8186.698891479926
 20
2255.155809876877
 30
0.0
 11
8218.698891479926
 21
2255.155809876877
 31
0.0
  0
ELLIPSE
  5
24E80
330
747D
100
AcDbEntity
  8
細線
 48
50.0
100
AcDbEllipse
 10
8202.698891479926
 20
2295.155809876877
 30
0.0
 11
14.76670786606846
 21
0.0
 31
0.0
210
0.0
220
0.0
230
1.0
 40
0.2071254069489396
 41
0.0
 42
6.283185307179586
  0
LINE
  5
24E81
330
747D
100
AcDbEntity
  8
部品1
 48
50.0
100
AcDbLine
 10
8186.698891479926
 20
2303.155809876877
 30
0.0
 11
8218.698891479926
 21
2303.155809876877
 31
0.0
  0
LINE
  5
24E82
330
747D
100
AcDbEntity
  8
部品1
 48
50.0
100
AcDbLine
 10
8170.698891479926
 20
2263.155809876877
 30
0.0
 11
8170.698891479926
 21
2295.155809876877
 31
0.0
  0
LINE
  5
24E83
330
747D
100
AcDbEntity
  8
部品1
 48
50.0
100
AcDbLine
 10
8170.698891479926
 20
2295.155809876877
 30
0.0
 11
8186.698891479926
 21
2303.155809876877
 31
0.0
  0
LINE
  5
24E84
330
747D
100
AcDbEntity
  8
部品1
 48
50.0
100
AcDbLine
 10
8170.698891479926
 20
2263.155809876877
 30
0.0
 11
8186.698891479926
 21
2255.155809876877
 31
0.0
  0
LINE
  5
24E85
330
747D
100
AcDbEntity
  8
部品1
 48
50.0
100
AcDbLine
 10
8170.698891479926
 20
2295.155809876877
 30
0.0
 11
8186.698891479926
 21
2287.155809876877
 31
0.0
  0
LINE
  5
24E86
330
747D
100
AcDbEntity
  8
部品1
 48
50.0
100
AcDbLine
 10
8242.698891479925
 20
2163.803817212007
 30
0.0
 11
8242.698891479925
 21
2173.403817212007
 31
0.0
  0
ELLIPSE
  5
24E87
330
747D
100
AcDbEntity
  8
部品1
 48
50.0
100
AcDbEllipse
 10
8202.698891479926
 20
2173.403817212007
 30
0.0
 11
18.4
 21
0.0
 31
0.0
210
0.0
220
0.0
230
1.0
 40
0.3478260869565217
 41
0.0
 42
6.283185307179586
  0
ARC
  5
24E88
330
747D
100
AcDbEntity
  8
部品1
100
AcDbCircle
 10
8041.598891479926
 20
2002.380528767735
 30
0.0
 40
2.7
100
AcDbArc
 50
90.0
 51
180.0
  0
LINE
  5
24E89
330
747D
100
AcDbEntity
  8
部品1
100
AcDbLine
 10
8044.298891479924
 20
2015.880528767735
 30
0.0
 11
8086.598891479926
 21
2015.880528767731
 31
0.0
  0
LINE
  5
24E8A
330
747D
100
AcDbEntity
  8
部品1
100
AcDbLine
 10
8041.598891479926
 20
2005.080528767735
 30
0.0
 11
8041.598891479926
 21
2013.180528767735
 31
0.0
  0
LINE
  5
24E8B
330
747D
100
AcDbEntity
  8
部品1
100
AcDbLine
 10
8041.598891479926
 20
2005.080528767735
 30
0.0
 11
8041.598891479926
 21
2005.080528767735
 31
0.0
  0
ARC
  5
24E8C
330
747D
100
AcDbEntity
  8
部品1
100
AcDbCircle
 10
8044.298891479924
 20
2013.180528767735
 30
0.0
 40
2.7
100
AcDbArc
 50
90.0
 51
180.0
  0
ARC
  5
24E8D
330
747D
100
AcDbEntity
  8
部品1
100
AcDbCircle
 10
8086.598891479926
 20
2013.180528767732
 30
0.0
 40
2.7
100
AcDbArc
 50
0.0
 51
90.0
  0
LINE
  5
24E8E
330
747D
100
AcDbEntity
  8
部品1
 48
50.0
100
AcDbLine
 10
8162.698891479925
 20
2173.403817212007
 30
0.0
 11
8162.698891479925
 21
2163.803817212007
 31
0.0
  0
ELLIPSE
  5
24E8F
330
747D
100
AcDbEntity
  8
部品1
 48
50.0
100
AcDbEllipse
 10
8202.698891479926
 20
2163.803817212007
 30
0.0
 11
40.0
 21
0.0
 31
0.0
210
0.0
220
0.0
230
1.0
 40
0.4
 41
3.141592653589793
 42
6.283185307179586
  0
ELLIPSE
  5
24E90
330
747D
100
AcDbEntity
  8
部品1
 48
50.0
100
AcDbEllipse
 10
8202.698891479926
 20
2173.403817212007
 30
0.0
 11
40.0
 21
0.0
 31
0.0
210
0.0
220
0.0
230
1.0
 40
0.4
 41
0.0
 42
6.283185307179586
  0
LINE
  5
24E91
330
747D
100
AcDbEntity
  8
部品1
100
AcDbLine
 10
8197.298891479924
 20
1957.040528767735
 30
0.0
 11
8208.098891479925
 21
1957.040528767735
 31
0.0
  0
LINE
  5
24E92
330
747D
100
AcDbEntity
  8
部品1
100
AcDbLine
 10
8193.698891479925
 20
1953.440528767735
 30
0.0
 11
8211.698891479926
 21
1953.440528767735
 31
0.0
  0
LINE
  5
24E93
330
747D
100
AcDbEntity
  8
細線
100
AcDbLine
 10
8197.298891479929
 20
1913.840528767735
 30
0.0
 11
8197.298891479924
 21
1957.040528767735
 31
0.0
  0
LINE
  5
24E94
330
747D
100
AcDbEntity
  8
細線
100
AcDbLine
 10
8208.098891479925
 20
1913.840528767735
 30
0.0
 11
8208.098891479925
 21
1957.040528767735
 31
0.0
  0
LINE
  5
24E95
330
747D
100
AcDbEntity
  8
部品1
100
AcDbLine
 10
8109.998891479925
 20
1971.140528767735
 30
0.0
 11
8109.998891479925
 21
1954.040528767735
 31
0.0
  0
LINE
  5
24E96
330
747D
100
AcDbEntity
  8
部品1
100
AcDbLine
 10
8143.558891479926
 20
1971.140528767735
 30
0.0
 11
8143.558891479923
 21
1916.540528767735
 31
0.0
  0
ARC
  5
24E97
330
747D
100
AcDbEntity
  8
部品1
100
AcDbCircle
 10
8128.898891479925
 20
1959.180528767734
 30
0.0
 40
2.7
100
AcDbArc
 50
0.0
 51
90.0
  0
LINE
  5
24E98
330
747D
100
AcDbEntity
  8
部品1
100
AcDbLine
 10
8089.298891479925
 20
1961.880528767735
 30
0.0
 11
8128.898891479925
 21
1961.880528767735
 31
0.0
  0
ARC
  5
24E99
330
747D
100
AcDbEntity
  8
部品1
100
AcDbCircle
 10
8128.898891479925
 20
1916.540528767735
 30
0.0
 40
2.7
100
AcDbArc
 50
270.0
 51
0.0
  0
ARC
  5
24E9A
330
747D
100
AcDbEntity
  8
部品1
100
AcDbCircle
 10
8146.25889147992
 20
1916.540528767735
 30
0.0
 40
2.7
100
AcDbArc
 50
180.0
 51
270.0
  0
LINE
  5
24E9B
330
747D
100
AcDbEntity
  8
部品1
100
AcDbLine
 10
8117.198891479926
 20
1913.840528767735
 30
0.0
 11
8128.898891479925
 21
1913.840528767735
 31
0.0
  0
LINE
  5
24E9C
330
747D
100
AcDbEntity
  8
部品1
100
AcDbLine
 10
8131.598891479926
 20
1959.180528767734
 30
0.0
 11
8131.598891479926
 21
1916.540528767735
 31
0.0
  0
ARC
  5
24E9D
330
747D
100
AcDbEntity
  8
部品1
100
AcDbCircle
 10
8140.858891479926
 20
1971.140528767735
 30
0.0
 40
2.7
100
AcDbArc
 50
0.0
 51
90.0
  0
ARC
  5
24E9E
330
747D
100
AcDbEntity
  8
部品1
100
AcDbCircle
 10
8112.698891479926
 20
1971.140528767735
 30
0.0
 40
2.7
100
AcDbArc
 50
90.0
 51
180.0
  0
LINE
  5
24E9F
330
747D
100
AcDbEntity
  8
部品1
100
AcDbLine
 10
8112.698891479926
 20
1973.840528767735
 30
0.0
 11
8140.858891479926
 21
1973.840528767735
 31
0.0
  0
LINE
  5
24EA0
330
747D
100
AcDbEntity
  8
部品1
100
AcDbLine
 10
8089.298891479925
 20
2013.180528767732
 30
0.0
 11
8089.298891479925
 21
1961.880528767735
 31
0.0
  0
LINE
  5
24EA1
330
747D
100
AcDbEntity
  8
部品1
100
AcDbLine
 10
8038.898891479927
 20
1994.280528767735
 30
0.0
 11
8038.898891479927
 21
2002.380528767735
 31
0.0
  0
LINE
  5
24EA2
330
747D
100
AcDbEntity
  8
部品1
100
AcDbLine
 10
8146.25889147992
 20
1913.840528767735
 30
0.0
 11
8347.59889147992
 21
1913.840528767735
 31
0.0
  0
LINE
  5
24EA3
330
747D
100
AcDbEntity
  8
部品1
100
AcDbLine
 10
7987.598891479925
 20
1916.540528767735
 30
0.0
 11
7987.598891479925
 21
1978.672432470443
 31
0.0
  0
LINE
  5
24EA4
330
747D
100
AcDbEntity
  8
部品1
100
AcDbLine
 10
7990.298891479925
 20
1913.840528767735
 30
0.0
 11
8001.998891479919
 21
1913.840528767735
 31
0.0
  0
LINE
  5
24EA5
330
747D
100
AcDbEntity
  8
細線
 48
50.0
100
AcDbLine
 10
7981.298891479925
 20
1892.06110506764
 30
0.0
 11
7993.518315180018
 21
1904.280528767734
 31
0.0
  0
ARC
  5
24EA6
330
747D
100
AcDbEntity
  8
部品1
100
AcDbCircle
 10
7990.298891479925
 20
1916.540528767735
 30
0.0
 40
2.7
100
AcDbArc
 50
180.0
 51
270.0
  0
LINE
  5
24EA7
330
747D
100
AcDbEntity
  8
部品1
100
AcDbLine
 10
7989.644045292327
 20
1981.291817220835
 30
0.0
 11
7998.398891479927
 21
1983.480528767734
 31
0.0
  0
ARC
  5
24EA8
330
747D
100
AcDbEntity
  8
部品1
100
AcDbCircle
 10
7990.298891479925
 20
1978.672432470443
 30
0.0
 40
2.7
100
AcDbArc
 50
104.0362434679067
 51
180.0
  0
ARC
  5
24EA9
330
747D
100
AcDbEntity
  8
部品1
100
AcDbCircle
 10
8001.098891479925
 20
1991.580528767735
 30
0.0
 40
2.7
100
AcDbArc
 50
90.0
 51
180.0
  0
LINE
  5
24EAA
330
747D
100
AcDbEntity
  8
部品1
100
AcDbLine
 10
7998.398891479927
 20
1983.480528767734
 30
0.0
 11
7998.398891479927
 21
1991.580528767735
 31
0.0
  0
LINE
  5
24EAB
330
747D
100
AcDbEntity
  8
部品1
 48
50.0
100
AcDbLine
 10
7981.298891479925
 20
1904.280528767734
 30
0.0
 11
8395.298891479928
 21
1904.280528767734
 31
0.0
  0
LINE
  5
24EAC
330
747D
100
AcDbEntity
  8
細線
 48
50.0
100
AcDbLine
 10
7981.298891479925
 20
1838.179568341224
 30
0.0
 11
8047.399851906435
 21
1904.280528767734
 31
0.0
  0
LINE
  5
24EAD
330
747D
100
AcDbEntity
  8
細線
 48
50.0
100
AcDbLine
 10
7981.298891479925
 20
1865.120336704433
 30
0.0
 11
8020.459083543231
 21
1904.280528767734
 31
0.0
  0
LINE
  5
24EAE
330
747D
100
AcDbEntity
  8
部品1
100
AcDbLine
 10
8001.098891479925
 20
1994.280528767735
 30
0.0
 11
8038.898891479927
 21
1994.280528767735
 31
0.0
  0
LINE
  5
24EAF
330
747D
100
AcDbEntity
  8
部品1
 48
50.0
100
AcDbLine
 10
8395.298891479924
 20
1360.280528767735
 30
0.0
 11
8523.298891479925
 21
1360.280528767735
 31
0.0
  0
LINE
  5
24EB0
330
747D
100
AcDbEntity
  8
部品1
100
AcDbLine
 10
8211.698891479926
 20
1679.280528767734
 30
0.0
 11
8247.698891479926
 21
1679.280528767734
 31
0.0
  0
LINE
  5
24EB1
330
747D
100
AcDbEntity
  8
部品1
100
AcDbLine
 10
8211.698891479926
 20
1661.280528767735
 30
0.0
 11
8247.698891479926
 21
1661.280528767735
 31
0.0
  0
ARC
  5
24EB2
330
747D
100
AcDbEntity
  8
部品1
100
AcDbCircle
 10
8211.698891479926
 20
1679.280528767734
 30
0.0
 40
18.0
100
AcDbArc
 50
180.0
 51
270.0
  0
LINE
  5
24EB3
330
747D
100
AcDbEntity
  8
部品1
100
AcDbLine
 10
8247.698891479926
 20
1661.280528767735
 30
0.0
 11
8247.698891479926
 21
1679.280528767734
 31
0.0
  0
LINE
  5
24EB4
330
747D
100
AcDbEntity
  8
部品1
100
AcDbLine
 10
8265.698891479926
 20
1580.280528767733
 30
0.0
 11
8139.698891479918
 21
1580.280528767733
 31
0.0
  0
LINE
  5
24EB5
330
747D
100
AcDbEntity
  8
細線
 48
50.0
100
AcDbLine
 10
8559.67671667226
 20
1096.280528767733
 30
0.0
 11
8553.245936053915
 21
1120.280528767733
 31
0.0
  0
LINE
  5
24EB6
330
747D
100
AcDbEntity
  8
細線
 48
50.0
100
AcDbLine
 10
8480.788671725015
 20
1096.280528767733
 30
0.0
 11
8474.357891106668
 21
1120.280528767733
 31
0.0
  0
LINE
  5
24EB7
330
747D
100
AcDbEntity
  8
細線
 48
50.0
100
AcDbLine
 10
8401.900626777758
 20
1096.280528767735
 30
0.0
 11
8395.469846159411
 21
1120.280528767735
 31
0.0
  0
LINE
  5
24EB8
330
747D
100
AcDbEntity
  8
細線
 48
50.0
100
AcDbLine
 10
8538.240781277771
 20
1016.280528767733
 30
0.0
 11
8544.671561896119
 21
992.2805287677329
 31
0.0
  0
LINE
  5
24EB9
330
747D
100
AcDbEntity
  8
細線
 48
50.0
100
AcDbLine
 10
8459.352736330526
 20
1016.280528767733
 30
0.0
 11
8465.783516948873
 21
992.2805287677329
 31
0.0
  0
LINE
  5
24EBA
330
747D
100
AcDbEntity
  8
細線
 48
50.0
100
AcDbLine
 10
8380.464691383277
 20
1016.280528767735
 30
0.0
 11
8386.895472001633
 21
992.2805287677347
 31
0.0
  0
LINE
  5
24EBB
330
747D
100
AcDbEntity
  8
細線
 48
50.0
100
AcDbLine
 10
8452.921955712175
 20
992.280528767732
 30
0.0
 11
8487.219452343358
 21
1120.280528767732
 31
0.0
  0
LINE
  5
24EBC
330
747D
100
AcDbEntity
  8
細線
 48
50.0
100
AcDbLine
 10
8374.033910764927
 20
992.2805287677329
 30
0.0
 11
8408.331407396101
 21
1120.280528767735
 31
0.0
  0
LINE
  5
24EBD
330
747D
100
AcDbEntity
  8
細線
 48
50.0
100
AcDbLine
 10
8531.810000659419
 20
992.2805287677329
 30
0.0
 11
8566.107497290607
 21
1120.280528767732
 31
0.0
  0
LINE
  5
24EBE
330
747D
100
AcDbEntity
  8
部品1
 48
50.0
100
AcDbLine
 10
8603.298891479928
 20
1120.280528767735
 30
0.0
 11
8603.298891479928
 21
992.2805287677347
 31
0.0
  0
LINE
  5
24EBF
330
747D
100
AcDbEntity
  8
細線
 48
50.0
100
AcDbLine
 10
8323.012581830521
 20
1096.280528767735
 30
0.0
 11
8316.581801212175
 21
1120.280528767735
 31
0.0
  0
LINE
  5
24EC0
330
747D
100
AcDbEntity
  8
細線
 48
50.0
100
AcDbLine
 10
8244.124536883274
 20
1096.280528767735
 30
0.0
 11
8237.693756264928
 21
1120.280528767735
 31
0.0
  0
LINE
  5
24EC1
330
747D
100
AcDbEntity
  8
細線
 48
50.0
100
AcDbLine
 10
8086.348446988781
 20
1096.280528767735
 30
0.0
 11
8079.917666370434
 21
1120.280528767735
 31
0.0
  0
LINE
  5
24EC2
330
747D
100
AcDbEntity
  8
細線
 48
50.0
100
AcDbLine
 10
8165.236491936028
 20
1096.280528767735
 30
0.0
 11
8158.805711317681
 21
1120.280528767735
 31
0.0
  0
LINE
  5
24EC3
330
747D
100
AcDbEntity
  8
細線
 48
50.0
100
AcDbLine
 10
8222.688601488787
 20
1016.280528767735
 30
0.0
 11
8229.119382107132
 21
992.2805287677347
 31
0.0
  0
LINE
  5
24EC4
330
747D
100
AcDbEntity
  8
細線
 48
50.0
100
AcDbLine
 10
8301.57664643603
 20
1016.280528767735
 30
0.0
 11
8308.007427054377
 21
992.2805287677347
 31
0.0
  0
LINE
  5
24EC5
330
747D
100
AcDbEntity
  8
細線
 48
50.0
100
AcDbLine
 10
8064.912511594291
 20
1016.280528767735
 30
0.0
 11
8071.34329221264
 21
992.2805287677347
 31
0.0
  0
LINE
  5
24EC6
330
747D
100
AcDbEntity
  8
細線
 48
50.0
100
AcDbLine
 10
8143.80055654154
 20
1016.280528767735
 30
0.0
 11
8150.231337159887
 21
992.2805287677347
 31
0.0
  0
LINE
  5
24EC7
330
747D
100
AcDbEntity
  8
細線
 48
50.0
100
AcDbLine
 10
8295.145865817678
 20
992.2805287677347
 30
0.0
 11
8329.443362448863
 21
1120.280528767733
 31
0.0
  0
LINE
  5
24EC8
330
747D
100
AcDbEntity
  8
細線
 48
50.0
100
AcDbLine
 10
8137.369775923188
 20
992.2805287677347
 30
0.0
 11
8171.667272554371
 21
1120.280528767733
 31
0.0
  0
LINE
  5
24EC9
330
747D
100
AcDbEntity
  8
細線
 48
50.0
100
AcDbLine
 10
8058.481730975939
 20
992.2805287677347
 30
0.0
 11
8092.779227607122
 21
1120.280528767735
 31
0.0
  0
LINE
  5
24ECA
330
747D
100
AcDbEntity
  8
細線
 48
50.0
100
AcDbLine
 10
8216.257820870437
 20
992.2805287677329
 30
0.0
 11
8250.555317501618
 21
1120.280528767733
 31
0.0
  0
LINE
  5
24ECB
330
747D
100
AcDbEntity
  8
細線
 48
50.0
100
AcDbLine
 10
8341.030586434733
 20
1120.280528767735
 30
0.0
 11
8523.298891479925
 21
1302.54883381293
 31
0.0
  0
LINE
  5
24ECC
330
747D
100
AcDbEntity
  8
部品1
 48
50.0
100
AcDbLine
 10
8523.298891479925
 20
1360.280528767735
 30
0.0
 11
8523.298891479925
 21
1120.280528767735
 31
0.0
  0
LINE
  5
24ECD
330
747D
100
AcDbEntity
  8
細線
 48
50.0
100
AcDbLine
 10
8314.089818071531
 20
1120.280528767735
 30
0.0
 11
8523.298891479925
 21
1329.489602176128
 31
0.0
  0
LINE
  5
24ECE
330
747D
100
AcDbEntity
  8
細線
 48
50.0
100
AcDbLine
 10
8287.149049708316
 20
1120.280528767735
 30
0.0
 11
8523.298891479925
 21
1356.430370539343
 31
0.0
  0
LINE
  5
24ECF
330
747D
100
AcDbEntity
  8
細線
 48
50.0
100
AcDbLine
 10
8071.622902802658
 20
1120.280528767735
 30
0.0
 11
8395.298891479924
 21
1443.956517445001
 31
0.0
  0
LINE
  5
24ED0
330
747D
100
AcDbEntity
  8
細線
 48
50.0
100
AcDbLine
 10
8125.504439529075
 20
1120.280528767735
 30
0.0
 11
8395.298891479924
 21
1390.074980718592
 31
0.0
  0
LINE
  5
24ED1
330
747D
100
AcDbEntity
  8
細線
 48
50.0
100
AcDbLine
 10
8098.563671165869
 20
1120.280528767735
 30
0.0
 11
8395.298891479924
 21
1417.015749081787
 31
0.0
  0
LINE
  5
24ED2
330
747D
100
AcDbEntity
  8
細線
 48
50.0
100
AcDbLine
 10
7853.29889147992
 20
1333.008811256321
 30
0.0
 11
7880.57060899134
 21
1360.280528767735
 31
0.0
  0
LINE
  5
24ED3
330
747D
100
AcDbEntity
  8
部品1
 48
50.0
100
AcDbLine
 10
7853.298891479925
 20
1360.280528767735
 30
0.0
 11
7981.298891479925
 21
1360.280528767735
 31
0.0
  0
LINE
  5
24ED4
330
747D
100
AcDbEntity
  8
細線
 48
50.0
100
AcDbLine
 10
7853.29889147992
 20
1306.06804289311
 30
0.0
 11
7907.511377354549
 21
1360.280528767735
 31
0.0
  0
LWPOLYLINE
  5
24ED5
330
747D
100
AcDbEntity
  8
部品1
 48
50.0
100
AcDbPolyline
 90
        2
 70
     0
 43
8.0
 10
7567.158989646968
 20
1664.280528767735
 10
7981.298891479925
 20
1664.280528767735
  0
LINE
  5
24ED6
330
747D
100
AcDbEntity
  8
細線
 48
50.0
100
AcDbLine
 10
7928.572357094279
 20
1096.280528767735
 30
0.0
 11
7922.141576475931
 21
1120.280528767735
 31
0.0
  0
LINE
  5
24ED7
330
747D
100
AcDbEntity
  8
細線
 48
50.0
100
AcDbLine
 10
8007.46040204153
 20
1096.280528767735
 30
0.0
 11
8001.029621423183
 21
1120.280528767735
 31
0.0
  0
LINE
  5
24ED8
330
747D
100
AcDbEntity
  8
細線
 48
50.0
100
AcDbLine
 10
7849.684312147026
 20
1096.280528767735
 30
0.0
 11
7843.253531528681
 21
1120.280528767735
 31
0.0
  0
LINE
  5
24ED9
330
747D
100
AcDbEntity
  8
細線
 48
50.0
100
AcDbLine
 10
7773.298891479925
 20
1105.620449733515
 30
0.0
 11
7777.22704781812
 21
1120.280528767735
 31
0.0
  0
LINE
  5
24EDA
330
747D
100
AcDbEntity
  8
細線
 48
50.0
100
AcDbLine
 10
7907.136421699791
 20
1016.280528767735
 30
0.0
 11
7913.567202318136
 21
992.2805287677347
 31
0.0
  0
LINE
  5
24EDB
330
747D
100
AcDbEntity
  8
細線
 48
50.0
100
AcDbLine
 10
7986.024466647041
 20
1016.280528767735
 30
0.0
 11
7992.455247265389
 21
992.2805287677347
 31
0.0
  0
LINE
  5
24EDC
330
747D
100
AcDbEntity
  8
細線
 48
50.0
100
AcDbLine
 10
7828.248376752537
 20
1016.280528767735
 30
0.0
 11
7834.679157370884
 21
992.2805287677347
 31
0.0
  0
LINE
  5
24EDD
330
747D
100
AcDbEntity
  8
細線
 48
50.0
100
AcDbLine
 10
7979.59368602869
 20
992.2805287677329
 30
0.0
 11
8013.89118265987
 21
1120.280528767733
 31
0.0
  0
LINE
  5
24EDE
330
747D
100
AcDbEntity
  8
細線
 48
50.0
100
AcDbLine
 10
7821.817596134184
 20
992.2805287677329
 30
0.0
 11
7856.115092765367
 21
1120.280528767733
 31
0.0
  0
LINE
  5
24EDF
330
747D
100
AcDbEntity
  8
部品1
 48
50.0
100
AcDbLine
 10
7773.298891479928
 20
992.2805287677347
 30
0.0
 11
7773.298891479928
 21
1120.280528767735
 31
0.0
  0
LINE
  5
24EE0
330
747D
100
AcDbEntity
  8
細線
 48
50.0
100
AcDbLine
 10
7900.705641081443
 20
992.2805287677347
 30
0.0
 11
7935.003137712626
 21
1120.280528767735
 31
0.0
  0
LINE
  5
24EE1
330
747D
100
AcDbEntity
  8
部品1
 48
50.0
100
AcDbLine
 10
7853.298891479925
 20
1120.280528767735
 30
0.0
 11
7853.298891479925
 21
1360.280528767735
 31
0.0
  0
LINE
  5
24EE2
330
747D
100
AcDbEntity
  8
細線
 48
50.0
100
AcDbLine
 10
7853.29889147992
 20
1279.127274529906
 30
0.0
 11
7934.452145717755
 21
1360.280528767735
 31
0.0
  0
LINE
  5
24EE3
330
747D
100
AcDbEntity
  8
部品1
 48
50.0
100
AcDbLine
 10
8603.298891479928
 20
992.2805287677347
 30
0.0
 11
7773.298891479928
 21
992.2805287677347
 31
0.0
  0
LINE
  5
24EE4
330
747D
100
AcDbEntity
  8
部品1
 48
50.0
100
AcDbLine
 10
8603.298891479928
 20
1120.280528767735
 30
0.0
 11
7773.298891479928
 21
1120.280528767735
 31
0.0
  0
LINE
  5
24EE5
330
747D
100
AcDbEntity
  8
細線
 48
50.0
100
AcDbLine
 10
7856.096755897
 20
1120.280528767735
 30
0.0
 11
8395.298891479924
 21
1659.48266435066
 31
0.0
  0
LINE
  5
24EE6
330
747D
100
AcDbEntity
  8
細線
 48
50.0
100
AcDbLine
 10
7883.03752426021
 20
1120.280528767735
 30
0.0
 11
8395.298891479928
 21
1632.541895987448
 31
0.0
  0
LINE
  5
24EE7
330
747D
100
AcDbEntity
  8
細線
 48
50.0
100
AcDbLine
 10
7909.978292623415
 20
1120.280528767735
 30
0.0
 11
8395.298891479924
 21
1605.601127624242
 31
0.0
  0
LINE
  5
24EE8
330
747D
100
AcDbEntity
  8
細線
 48
50.0
100
AcDbLine
 10
7981.298891479925
 20
1461.008811256321
 30
0.0
 11
8139.698891479918
 21
1619.408811256316
 31
0.0
  0
LINE
  5
24EE9
330
747D
100
AcDbEntity
  8
細線
 48
50.0
100
AcDbLine
 10
7981.298891479925
 20
1407.127274529905
 30
0.0
 11
8154.452145717762
 21
1580.280528767733
 31
0.0
  0
LINE
  5
24EEA
330
747D
100
AcDbEntity
  8
細線
 48
50.0
100
AcDbLine
 10
7981.298891479925
 20
1434.068042893113
 30
0.0
 11
8139.698891479918
 21
1592.468042893101
 31
0.0
  0
LINE
  5
24EEB
330
747D
100
AcDbEntity
  8
部品1
100
AcDbLine
 10
8139.698891479918
 20
1580.280528767735
 30
0.0
 11
8139.698891479927
 21
1904.280528767734
 31
0.0
  0
LINE
  5
24EEC
330
747D
100
AcDbEntity
  8
部品1
100
AcDbLine
 10
8265.698891479926
 20
1580.280528767735
 30
0.0
 11
8265.698891479926
 21
1904.280528767734
 31
0.0
  0
LINE
  5
24EED
330
747D
100
AcDbEntity
  8
細線
 48
50.0
100
AcDbLine
 10
8265.698891479926
 20
1718.468042893106
 30
0.0
 11
8395.298891479924
 21
1848.068042893103
 31
0.0
  0
LINE
  5
24EEE
330
747D
100
AcDbEntity
  8
細線
 48
50.0
100
AcDbLine
 10
8265.698891479926
 20
1691.527274529893
 30
0.0
 11
8395.298891479924
 21
1821.127274529885
 31
0.0
  0
LINE
  5
24EEF
330
747D
100
AcDbEntity
  8
部品1
100
AcDbLine
 10
8193.698891479925
 20
1679.280528767734
 30
0.0
 11
8193.698891479924
 21
1953.440528767735
 31
0.0
  0
LINE
  5
24EF0
330
747D
100
AcDbEntity
  8
部品1
100
AcDbLine
 10
8211.698891479926
 20
1679.280528767734
 30
0.0
 11
8211.698891479922
 21
1953.440528767735
 31
0.0
  0
TEXT
  5
24EF1
330
747D
100
AcDbEntity
  8
部品1
 48
50.0
100
AcDbText
 10
7567.158989646968
 20
1675.51952105099
 30
0.0
 40
80.0
  1
▽G.L
  7
STYLE2
100
AcDbText
  0
LINE
  5
24EF2
330
747D
100
AcDbEntity
  8
細線
 48
50.0
100
AcDbLine
 10
7981.298891479925
 20
1622.653421435565
 30
0.0
 11
8139.698891479921
 21
1781.053421435558
 31
0.0
  0
LINE
  5
24EF3
330
747D
100
AcDbEntity
  8
細線
 48
50.0
100
AcDbLine
 10
7981.298891479925
 20
1649.594189798772
 30
0.0
 11
8139.698891479923
 21
1807.99418979877
 31
0.0
  0
LINE
  5
24EF4
330
747D
100
AcDbEntity
  8
細線
 48
50.0
100
AcDbLine
 10
7981.298891479925
 20
1676.53495816198
 30
0.0
 11
8139.698891479923
 21
1834.934958161977
 31
0.0
  0
LINE
  5
24EF5
330
747D
100
AcDbEntity
  8
部品1
 48
50.0
100
AcDbLine
 10
7981.298891479925
 20
1360.280528767735
 30
0.0
 11
7981.298891479925
 21
1904.280528767734
 31
0.0
  0
LINE
  5
24EF6
330
747D
100
AcDbEntity
  8
部品1
100
AcDbLine
 10
8395.298891479924
 20
1360.280528767735
 30
0.0
 11
8395.298891479924
 21
1904.280528767734
 31
0.0
  0
LINE
  5
24EF7
330
747D
100
AcDbEntity
  8
細線
 48
50.0
100
AcDbLine
 10
8265.698891479926
 20
1745.408811256323
 30
0.0
 11
8395.298891479924
 21
1875.008811256321
 31
0.0
  0
LINE
  5
24EF8
330
747D
100
AcDbEntity
  8
細線
 48
50.0
100
AcDbLine
 10
6389.752000805202
 20
1785.027380664451
 30
0.0
 11
6473.259578302732
 21
1868.53495816198
 31
0.0
  0
LINE
  5
24EF9
330
747D
100
AcDbEntity
  8
細線
 48
50.0
100
AcDbLine
 10
6400.812285568718
 20
1769.146897064756
 30
0.0
 11
6473.259578302732
 21
1841.594189798772
 31
0.0
  0
LINE
  5
24EFA
330
747D
100
AcDbEntity
  8
細線
 48
50.0
100
AcDbLine
 10
6281.259578302732
 20
1892.06110506764
 30
0.0
 11
6293.479002002826
 21
1904.280528767734
 31
0.0
  0
LINE
  5
24EFB
330
747D
100
AcDbEntity
  8
細線
 48
50.0
100
AcDbLine
 10
6281.259578302732
 20
1838.179568341224
 30
0.0
 11
6347.36053872924
 21
1904.280528767734
 31
0.0
  0
LINE
  5
24EFC
330
747D
100
AcDbEntity
  8
細線
 48
50.0
100
AcDbLine
 10
6281.259578302732
 20
1865.120336704433
 30
0.0
 11
6320.419770366036
 21
1904.280528767734
 31
0.0
  0
LINE
  5
24EFD
330
747D
100
AcDbEntity
  8
部品1
 48
50.0
100
AcDbLine
 10
6281.259578302732
 20
1904.280528767734
 30
0.0
 11
6473.259578302732
 21
1904.280528767734
 31
0.0
  0
DIMENSION
  5
24EFE
330
747D
100
AcDbEntity
  8
寸法
 48
50.0
100
AcDbDimension
  2
*D50
 10
6281.259578302731
 20
2323.948336684115
 30
0.0
 11
6377.259578302731
 21
2323.948336684115
 31
0.0
 70
   160
  1
120\P200\P280
 71
     5
 42
192.0
  3
INABA_S40G
100
AcDbAlignedDimension
 13
6473.25957830273
 23
1904.280528767734
 33
0.0
 14
6281.259578302731
 24
1904.280528767734
 34
0.0
100
AcDbRotatedDimension
1001
ACAD
1000
DSTYLE
1002
{
1070
   341
1005
0
1002
}
  0
MTEXT
  5
24EFF
102
{ACAD_REACTORS
330
24F54
102
}
330
747D
100
AcDbEntity
  8
寸法
 62
     7
 48
50.0
100
AcDbMText
 10
6714.998034163982
 20
942.9314430355816
 30
0.0
 40
80.0
 41
0.8
 71
     4
 72
     1
  1
\A1;D10@300
  7
STYLE2
 73
     1
 44
1.0
1001
ACAD
1000
MTEXTBEGIN
1070
    73
1070
     1
1070
    44
1040
1.0
1070
    74
1070
     0
1000
MTEXTEND
  0
LINE
  5
24F00
330
747D
100
AcDbEntity
  8
細線
 48
50.0
100
AcDbLine
 10
6401.259578302738
 20
1554.068042893115
 30
0.0
 11
6473.259578302725
 21
1626.06804289311
 31
0.0
  0
LINE
  5
24F01
330
747D
100
AcDbEntity
  8
細線
 48
50.0
100
AcDbLine
 10
6401.259578302732
 20
1581.008811256321
 30
0.0
 11
6473.259578302732
 21
1653.008811256321
 31
0.0
  0
LINE
  5
24F02
330
747D
100
AcDbEntity
  8
細線
 48
50.0
100
AcDbLine
 10
6401.259578302738
 20
1311.601127624246
 30
0.0
 11
6473.259578302725
 21
1383.601127624246
 31
0.0
  0
LINE
  5
24F03
330
747D
100
AcDbEntity
  8
細線
 48
50.0
100
AcDbLine
 10
6401.259578302738
 20
1365.482664350664
 30
0.0
 11
6473.259578302725
 21
1437.48266435066
 31
0.0
  0
LINE
  5
24F04
330
747D
100
AcDbEntity
  8
細線
 48
50.0
100
AcDbLine
 10
6401.259578302738
 20
1338.541895987456
 30
0.0
 11
6473.259578302725
 21
1410.54189598745
 31
0.0
  0
LINE
  5
24F05
330
747D
100
AcDbEntity
  8
部品1
 48
50.0
100
AcDbLine
 10
6473.259578302732
 20
1360.280528767735
 30
0.0
 11
6601.259578302732
 21
1360.280528767735
 31
0.0
  0
LINE
  5
24F06
330
747D
100
AcDbEntity
  8
細線
 48
50.0
100
AcDbLine
 10
6401.259578302738
 20
1527.127274529906
 30
0.0
 11
6473.259578302725
 21
1599.127274529905
 31
0.0
  0
LINE
  5
24F07
330
747D
100
AcDbEntity
  8
部品1
 48
50.0
100
AcDbLine
 10
6369.259578302732
 20
1706.407743464857
 30
0.0
 11
6369.259578302732
 21
1764.53495816198
 31
0.0
  0
LINE
  5
24F08
330
747D
100
AcDbEntity
  8
細線
 48
50.0
100
AcDbLine
 10
6281.259578302732
 20
1676.53495816198
 30
0.0
 11
6353.259578302732
 21
1748.53495816198
 31
0.0
  0
LINE
  5
24F09
330
747D
100
AcDbEntity
  8
部品1
 48
50.0
100
AcDbLine
 10
6353.259578302732
 20
1706.40774346486
 30
0.0
 11
6353.259578302732
 21
1764.53495816198
 31
0.0
  0
LINE
  5
24F0A
330
747D
100
AcDbEntity
  8
細線
 48
50.0
100
AcDbLine
 10
6281.259578302732
 20
1649.594189798772
 30
0.0
 11
6353.259578302732
 21
1721.594189798772
 31
0.0
  0
LINE
  5
24F0B
330
747D
100
AcDbEntity
  8
細線
 48
50.0
100
AcDbLine
 10
6281.259578302732
 20
1622.653421435565
 30
0.0
 11
6365.013900332026
 21
1706.407743464857
 31
0.0
  0
LINE
  5
24F0C
330
747D
100
AcDbEntity
  8
部品1
 48
50.0
100
AcDbLine
 10
6369.259578302732
 20
1706.407743464857
 30
0.0
 11
6353.259578302732
 21
1706.40774346486
 31
0.0
  0
LINE
  5
24F0D
330
747D
100
AcDbEntity
  8
細線
 48
50.0
100
AcDbLine
 10
6153.259578302725
 20
1333.008811256321
 30
0.0
 11
6180.531295814145
 21
1360.280528767735
 31
0.0
  0
LINE
  5
24F0E
330
747D
100
AcDbEntity
  8
細線
 48
50.0
100
AcDbLine
 10
6153.259578302725
 20
1306.06804289311
 30
0.0
 11
6207.472064177356
 21
1360.280528767735
 31
0.0
  0
LINE
  5
24F0F
330
747D
100
AcDbEntity
  8
部品1
 48
50.0
100
AcDbLine
 10
6153.259578302732
 20
1360.280528767735
 30
0.0
 11
6281.259578302732
 21
1360.280528767735
 31
0.0
  0
LINE
  5
24F10
330
747D
100
AcDbEntity
  8
細線
 48
50.0
100
AcDbLine
 10
6369.259578302732
 20
1737.594189798772
 30
0.0
 11
6385.259578302732
 21
1753.594189798772
 31
0.0
  0
LINE
  5
24F11
330
747D
100
AcDbEntity
  8
細線
 48
50.0
100
AcDbLine
 10
6369.259578302732
 20
1710.653421435565
 30
0.0
 11
6385.259578302732
 21
1726.653421435565
 31
0.0
  0
LINE
  5
24F12
330
747D
100
AcDbEntity
  8
細線
 48
50.0
100
AcDbLine
 10
6281.259578302732
 20
1407.127274529905
 30
0.0
 11
6385.259578302737
 21
1511.127274529906
 31
0.0
  0
LINE
  5
24F13
330
747D
100
AcDbEntity
  8
細線
 48
50.0
100
AcDbLine
 10
6281.259578302732
 20
1461.008811256321
 30
0.0
 11
6385.259578302732
 21
1565.008811256321
 31
0.0
  0
LINE
  5
24F14
330
747D
100
AcDbEntity
  8
細線
 48
50.0
100
AcDbLine
 10
6281.259578302732
 20
1434.068042893113
 30
0.0
 11
6385.259578302737
 21
1538.068042893115
 31
0.0
  0
LINE
  5
24F15
330
747D
100
AcDbEntity
  8
細線
 48
50.0
100
AcDbLine
 10
6544.08522370608
 20
1096.280528767735
 30
0.0
 11
6537.654443087733
 21
1120.280528767735
 31
0.0
  0
LINE
  5
24F16
330
747D
100
AcDbEntity
  8
細線
 48
50.0
100
AcDbLine
 10
6587.109736531125
 20
1120.280528767735
 30
0.0
 11
6601.259578302732
 21
1134.430370539341
 31
0.0
  0
LINE
  5
24F17
330
747D
100
AcDbEntity
  8
細線
 48
50.0
100
AcDbLine
 10
6622.973268653327
 20
1096.280528767735
 30
0.0
 11
6616.542488034979
 21
1120.280528767735
 31
0.0
  0
LINE
  5
24F18
330
747D
100
AcDbEntity
  8
部品1
 48
50.0
100
AcDbLine
 10
6545.259578302732
 20
1232.280528767734
 30
0.0
 11
6545.259578302732
 21
1216.280528767734
 31
0.0
  0
LINE
  5
24F19
330
747D
100
AcDbEntity
  8
細線
 48
50.0
100
AcDbLine
 10
6425.46512635188
 20
1120.280528767735
 30
0.0
 11
6521.466014197016
 21
1216.281416612874
 31
0.0
  0
LINE
  5
24F1A
330
747D
100
AcDbEntity
  8
細線
 48
50.0
100
AcDbLine
 10
6398.524357988676
 20
1120.280528767735
 30
0.0
 11
6494.524357988675
 21
1216.280528767734
 31
0.0
  0
LINE
  5
24F1B
330
747D
100
AcDbEntity
  8
細線
 48
50.0
100
AcDbLine
 10
6465.197178758834
 20
1096.280528767735
 30
0.0
 11
6458.766398140487
 21
1120.280528767735
 31
0.0
  0
LINE
  5
24F1C
330
747D
100
AcDbEntity
  8
細線
 48
50.0
100
AcDbLine
 10
6386.309133811589
 20
1096.280528767735
 30
0.0
 11
6379.878353193241
 21
1120.280528767735
 31
0.0
  0
ARC
  5
24F1D
330
747D
100
AcDbEntity
  8
部品1
 48
50.0
100
AcDbCircle
 10
6377.259578302732
 20
1240.280528767734
 30
0.0
 40
24.0
100
AcDbArc
 50
340.5287793655256
 51
0.0
  0
CIRCLE
  5
24F1E
330
747D
100
AcDbEntity
  8
部品1
 48
50.0
100
AcDbCircle
 10
6505.259578302731
 20
1240.280528767734
 30
0.0
 40
8.0
  0
LINE
  5
24F1F
330
747D
100
AcDbEntity
  8
細線
 48
50.0
100
AcDbLine
 10
6537.465126351879
 20
1232.280528767734
 30
0.0
 11
6601.259578302732
 21
1296.074980718586
 31
0.0
  0
LINE
  5
24F20
330
747D
100
AcDbEntity
  8
細線
 48
50.0
100
AcDbLine
 10
6673.994597587735
 20
992.2805287677329
 30
0.0
 11
6681.259578302732
 21
1019.393805912123
 31
0.0
  0
LINE
  5
24F21
330
747D
100
AcDbEntity
  8
細線
 48
50.0
100
AcDbLine
 10
6680.425378206084
 20
1016.280528767735
 30
0.0
 11
6681.259578302732
 21
1013.16725162337
 31
0.0
  0
LINE
  5
24F22
330
747D
100
AcDbEntity
  8
細線
 48
50.0
100
AcDbLine
 10
6601.537333258836
 20
1016.280528767735
 30
0.0
 11
6607.968113877184
 21
992.2805287677347
 31
0.0
  0
LINE
  5
24F23
330
747D
100
AcDbEntity
  8
細線
 48
50.0
100
AcDbLine
 10
6443.761243364345
 20
1016.280528767735
 30
0.0
 11
6450.19202398269
 21
992.2805287677347
 31
0.0
  0
LINE
  5
24F24
330
747D
100
AcDbEntity
  8
細線
 48
50.0
100
AcDbLine
 10
6522.64928831159
 20
1016.280528767735
 30
0.0
 11
6529.080068929937
 21
992.2805287677347
 31
0.0
  0
LINE
  5
24F25
330
747D
100
AcDbEntity
  8
細線
 48
50.0
100
AcDbLine
 10
6516.21850769324
 20
992.2805287677329
 30
0.0
 11
6550.516004324425
 21
1120.280528767733
 31
0.0
  0
LINE
  5
24F26
330
747D
100
AcDbEntity
  8
細線
 48
50.0
100
AcDbLine
 10
6437.330462745991
 20
992.2805287677347
 30
0.0
 11
6471.627959377177
 21
1120.280528767733
 31
0.0
  0
LINE
  5
24F27
330
747D
100
AcDbEntity
  8
細線
 48
50.0
100
AcDbLine
 10
6595.106552640486
 20
992.2805287677347
 30
0.0
 11
6629.40404927167
 21
1120.280528767733
 31
0.0
  0
LINE
  5
24F28
330
747D
100
AcDbEntity
  8
部品1
 48
50.0
100
AcDbLine
 10
6681.259578302736
 20
1120.280528767735
 30
0.0
 11
6681.259578302736
 21
992.2805287677347
 31
0.0
  0
LINE
  5
24F29
330
747D
100
AcDbEntity
  8
部品1
 48
50.0
100
AcDbLine
 10
6369.259578302732
 20
1298.407743464857
 30
0.0
 11
6369.259578302732
 21
1240.280528767734
 31
0.0
  0
LINE
  5
24F2A
330
747D
100
AcDbEntity
  8
細線
 48
50.0
100
AcDbLine
 10
6294.998211083015
 20
1232.280528767734
 30
0.0
 11
6353.259578302732
 21
1290.541895987453
 31
0.0
  0
LINE
  5
24F2B
330
747D
100
AcDbEntity
  8
部品1
 48
50.0
100
AcDbLine
 10
6353.259578302732
 20
1298.407743464857
 30
0.0
 11
6353.259578302732
 21
1240.280528767734
 31
0.0
  0
LINE
  5
24F2C
330
747D
100
AcDbEntity
  8
細線
 48
50.0
100
AcDbLine
 10
6209.938979446221
 20
1120.280528767735
 30
0.0
 11
6305.938979446221
 21
1216.280528767734
 31
0.0
  0
LINE
  5
24F2D
330
747D
100
AcDbEntity
  8
細線
 48
50.0
100
AcDbLine
 10
6307.421088864336
 20
1096.280528767735
 30
0.0
 11
6300.99030824599
 21
1120.280528767735
 31
0.0
  0
LINE
  5
24F2E
330
747D
100
AcDbEntity
  8
細線
 48
50.0
100
AcDbLine
 10
6228.533043917082
 20
1096.280528767735
 30
0.0
 11
6222.102263298737
 21
1120.280528767735
 31
0.0
  0
ARC
  5
24F2F
330
747D
100
AcDbEntity
  8
部品1
 48
50.0
100
AcDbCircle
 10
6377.259578302732
 20
1240.280528767734
 30
0.0
 40
24.0
100
AcDbArc
 50
180.0
 51
199.4712206344743
  0
LINE
  5
24F30
330
747D
100
AcDbEntity
  8
細線
 48
50.0
100
AcDbLine
 10
6321.93897944622
 20
1232.280528767734
 30
0.0
 11
6353.259578302732
 21
1263.601127624246
 31
0.0
  0
CIRCLE
  5
24F31
330
747D
100
AcDbEntity
  8
部品1
 48
50.0
100
AcDbCircle
 10
6249.259578302732
 20
1240.280528767734
 30
0.0
 40
8.0
  0
LINE
  5
24F32
330
747D
100
AcDbEntity
  8
部品1
 48
50.0
100
AcDbLine
 10
6369.259578302732
 20
1298.407743464857
 30
0.0
 11
6353.259578302732
 21
1298.407743464857
 31
0.0
  0
LINE
  5
24F33
330
747D
100
AcDbEntity
  8
細線
 48
50.0
100
AcDbLine
 10
6073.259578302732
 20
1105.620449733515
 30
0.0
 11
6077.187734640927
 21
1120.280528767735
 31
0.0
  0
LINE
  5
24F34
330
747D
100
AcDbEntity
  8
細線
 48
50.0
100
AcDbLine
 10
6149.644998969832
 20
1096.280528767735
 30
0.0
 11
6143.214218351484
 21
1120.280528767735
 31
0.0
  0
LINE
  5
24F35
330
747D
100
AcDbEntity
  8
部品1
 48
50.0
100
AcDbLine
 10
6209.259578302732
 20
1232.280528767734
 30
0.0
 11
6209.259578302732
 21
1216.280528767734
 31
0.0
  0
LINE
  5
24F36
330
747D
100
AcDbEntity
  8
細線
 48
50.0
100
AcDbLine
 10
6156.057442719805
 20
1120.280528767735
 30
0.0
 11
6252.057442719804
 21
1216.280528767734
 31
0.0
  0
LINE
  5
24F37
330
747D
100
AcDbEntity
  8
細線
 48
50.0
100
AcDbLine
 10
6182.998211083015
 20
1120.280528767735
 30
0.0
 11
6278.998211083015
 21
1216.280528767734
 31
0.0
  0
LINE
  5
24F38
330
747D
100
AcDbEntity
  8
細線
 48
50.0
100
AcDbLine
 10
6285.985153469846
 20
1016.280528767735
 30
0.0
 11
6292.415934088193
 21
992.2805287677347
 31
0.0
  0
LINE
  5
24F39
330
747D
100
AcDbEntity
  8
細線
 48
50.0
100
AcDbLine
 10
6364.873198417099
 20
1016.280528767735
 30
0.0
 11
6371.303979035445
 21
992.2805287677347
 31
0.0
  0
LINE
  5
24F3A
330
747D
100
AcDbEntity
  8
細線
 48
50.0
100
AcDbLine
 10
6128.209063575344
 20
1016.280528767735
 30
0.0
 11
6134.639844193689
 21
992.2805287677347
 31
0.0
  0
LINE
  5
24F3B
330
747D
100
AcDbEntity
  8
細線
 48
50.0
100
AcDbLine
 10
6207.097108522594
 20
1016.280528767735
 30
0.0
 11
6213.527889140942
 21
992.2805287677347
 31
0.0
  0
LINE
  5
24F3C
330
747D
100
AcDbEntity
  8
部品1
 48
50.0
100
AcDbLine
 10
6073.259578302733
 20
992.2805287677347
 30
0.0
 11
6073.259578302733
 21
1120.280528767735
 31
0.0
  0
LINE
  5
24F3D
330
747D
100
AcDbEntity
  8
細線
 48
50.0
100
AcDbLine
 10
6121.77828295699
 20
992.2805287677329
 30
0.0
 11
6156.075779588173
 21
1120.280528767733
 31
0.0
  0
LINE
  5
24F3E
330
747D
100
AcDbEntity
  8
細線
 48
50.0
100
AcDbLine
 10
6279.554372851493
 20
992.2805287677329
 30
0.0
 11
6313.851869482676
 21
1120.280528767733
 31
0.0
  0
LINE
  5
24F3F
330
747D
100
AcDbEntity
  8
細線
 48
50.0
100
AcDbLine
 10
6200.666327904247
 20
992.2805287677347
 30
0.0
 11
6234.96382453543
 21
1120.280528767735
 31
0.0
  0
LINE
  5
24F40
330
747D
100
AcDbEntity
  8
細線
 48
50.0
100
AcDbLine
 10
6371.583589625466
 20
1120.280528767735
 30
0.0
 11
6467.583589625466
 21
1216.280528767734
 31
0.0
  0
CIRCLE
  5
24F41
330
747D
100
AcDbEntity
  8
部品1
 48
50.0
100
AcDbCircle
 10
6377.259578302732
 20
1240.280528767734
 30
0.0
 40
8.0
  0
LINE
  5
24F42
330
747D
100
AcDbEntity
  8
部品1
 48
50.0
100
AcDbLine
 10
6681.259578302736
 20
1120.280528767735
 30
0.0
 11
6073.259578302733
 21
1120.280528767735
 31
0.0
  0
LINE
  5
24F43
330
747D
100
AcDbEntity
  8
部品1
 48
50.0
100
AcDbLine
 10
6209.259578302732
 20
1232.280528767734
 30
0.0
 11
6545.259578302732
 21
1232.280528767734
 31
0.0
  0
LINE
  5
24F44
330
747D
100
AcDbEntity
  8
部品1
 48
50.0
100
AcDbLine
 10
6209.259578302732
 20
1216.280528767734
 30
0.0
 11
6545.259578302732
 21
1216.280528767734
 31
0.0
  0
LINE
  5
24F45
330
747D
100
AcDbEntity
  8
部品1
 48
50.0
100
AcDbLine
 10
6681.259578302736
 20
992.2805287677347
 30
0.0
 11
6073.259578302733
 21
992.2805287677347
 31
0.0
  0
LINE
  5
24F46
330
747D
100
AcDbEntity
  8
細線
 48
50.0
100
AcDbLine
 10
6358.442417798745
 20
992.2805287677347
 30
0.0
 11
6392.739914429928
 21
1120.280528767735
 31
0.0
  0
LINE
  5
24F47
330
747D
100
AcDbEntity
  8
細線
 48
50.0
100
AcDbLine
 10
6369.259578302732
 20
1279.601127624246
 30
0.0
 11
6385.259578302737
 21
1295.601127624246
 31
0.0
  0
LINE
  5
24F48
330
747D
100
AcDbEntity
  8
部品1
 48
50.0
100
AcDbLine
 10
6385.259578302737
 20
1240.280528767734
 30
0.0
 11
6385.259578302725
 21
1764.53495816198
 31
0.0
  0
LINE
  5
24F49
330
747D
100
AcDbEntity
  8
部品1
 48
50.0
100
AcDbLine
 10
6401.259578302738
 20
1240.280528767734
 30
0.0
 11
6401.259578302732
 21
1764.53495816198
 31
0.0
  0
LINE
  5
24F4A
330
747D
100
AcDbEntity
  8
部品1
 48
50.0
100
AcDbLine
 10
6601.259578302732
 20
1360.280528767735
 30
0.0
 11
6601.259578302732
 21
1120.280528767735
 31
0.0
  0
LINE
  5
24F4B
330
747D
100
AcDbEntity
  8
細線
 48
50.0
100
AcDbLine
 10
6483.583589625459
 20
1232.280528767734
 30
0.0
 11
6601.259578302732
 21
1349.956517445001
 31
0.0
  0
LINE
  5
24F4C
330
747D
100
AcDbEntity
  8
細線
 48
50.0
100
AcDbLine
 10
6510.524357988676
 20
1232.280528767734
 30
0.0
 11
6601.259578302732
 21
1323.015749081793
 31
0.0
  0
LINE
  5
24F4D
330
747D
100
AcDbEntity
  8
部品1
 48
50.0
100
AcDbLine
 10
6153.259578302732
 20
1120.280528767735
 30
0.0
 11
6153.259578302732
 21
1360.280528767735
 31
0.0
  0
LINE
  5
24F4E
330
747D
100
AcDbEntity
  8
細線
 48
50.0
100
AcDbLine
 10
6268.057442719804
 20
1232.280528767734
 30
0.0
 11
6385.259578302732
 21
1349.48266435066
 31
0.0
  0
LINE
  5
24F4F
330
747D
100
AcDbEntity
  8
細線
 48
50.0
100
AcDbLine
 10
6361.125425780135
 20
1298.407743464857
 30
0.0
 11
6385.259578302737
 21
1322.541895987456
 31
0.0
  0
LINE
  5
24F50
330
747D
100
AcDbEntity
  8
細線
 48
50.0
100
AcDbLine
 10
6153.259578302725
 20
1279.127274529906
 30
0.0
 11
6234.412832540559
 21
1360.280528767735
 31
0.0
  0
LEADER
  5
24F51
330
747D
100
AcDbEntity
  8
寸法
 48
50.0
100
AcDbLeader
  3
INABA_S50G
 71
     0
 73
     0
 74
     0
 75
     1
 40
100.0
 41
222.7272727272727
 76
     3
 10
6377.259578302731
 20
1764.53495816198
 30
0.0
 10
6431.145515330126
 20
1863.770531015154
 30
0.0
 10
6556.145515330126
 20
1863.770531015154
 30
0.0
1001
ACAD
1000
DSTYLE
1002
{
1070
    40
1040
1.0
1070
   272
1070
     1
1070
   279
1070
     1
1070
   341
1005
0
1002
}
  0
LWPOLYLINE
  5
24F52
330
747D
100
AcDbEntity
  8
部品1
 48
50.0
100
AcDbPolyline
 90
        2
 70
     0
 43
8.0
 10
6473.25957830273
 20
1664.280528767735
 10
6887.399480135688
 20
1664.280528767735
  0
MTEXT
  5
24F53
102
{ACAD_REACTORS
330
24F55
102
}
330
747D
100
AcDbEntity
  8
寸法
 62
     7
 48
50.0
100
AcDbMText
 10
6704.587238109415
 20
1204.883459824762
 30
0.0
 40
80.0
 41
0.8
 71
     4
 72
     1
  1
D10
  7
STYLE2
 73
     1
 44
1.0
1001
ACAD
1000
MTEXTBEGIN
1070
    73
1070
     1
1070
    44
1040
1.0
1070
    74
1070
     0
1000
MTEXTEND
  0
LEADER
  5
24F54
330
747D
100
AcDbEntity
  8
寸法
 48
50.0
100
AcDbLeader
  3
INABA_S50G
 71
     0
 73
     0
 74
     0
 75
     1
 40
100.0
 41
540.3409090909091
 76
     3
 10
6451.204747315905
 20
1223.539998354209
 30
0.0
 10
6569.998034163981
 20
881.9091803593119
 30
0.0
 10
6694.998034163981
 20
881.9091803593119
 30
0.0
213
0.0
223
-1.022262676269383
233
0.0
1001
ACAD
1000
DSTYLE
1002
{
1070
    40
1040
1.0
1070
   272
1070
     1
1070
   279
1070
     1
1070
   341
1005
0
1002
}
  0
LEADER
  5
24F55
330
747D
100
AcDbEntity
  8
寸法
 48
50.0
100
AcDbLeader
  3
INABA_S50G
 71
     0
 73
     0
 74
     0
 75
     1
 40
100.0
 41
225.0
 76
     3
 10
6505.162530654875
 20
1240.280528767734
 30
0.0
 10
6559.587238109415
 20
1144.883459824762
 30
0.0
 10
6684.587238109415
 20
1144.883459824762
 30
0.0
1001
ACAD
1000
DSTYLE
1002
{
1070
    40
1040
1.0
1070
   272
1070
     1
1070
   279
1070
     1
1070
   341
1005
0
1002
}
  0
MTEXT
  5
24F56
102
{ACAD_REACTORS
330
24F51
102
}
330
747D
100
AcDbEntity
  8
寸法
 62
     7
 48
50.0
100
AcDbMText
 10
6556.145515330126
 20
1926.836428060546
 30
0.0
 40
80.0
 41
0.8
 71
     4
 72
     1
  1
D13
  7
STYLE2
 73
     1
 44
1.0
1001
ACAD
1000
MTEXTBEGIN
1070
    73
1070
     1
1070
    44
1040
1.0
1070
    74
1070
     0
1000
MTEXTEND
  0
LINE
  5
24F57
330
747D
100
AcDbEntity
  8
部品1
 48
50.0
100
AcDbLine
 10
6473.259578302732
 20
1904.280528767734
 30
0.0
 11
6473.259578302732
 21
1360.280528767735
 31
0.0
  0
LINE
  5
24F58
330
747D
100
AcDbEntity
  8
部品1
 48
50.0
100
AcDbLine
 10
6281.259578302732
 20
1360.280528767735
 30
0.0
 11
6281.259578302732
 21
1904.280528767734
 31
0.0
  0
CIRCLE
  5
24F59
330
747D
100
AcDbEntity
  8
部品1
 48
50.0
100
AcDbCircle
 10
6377.259578302732
 20
1764.53495816198
 30
0.0
 40
8.0
  0
ARC
  5
24F5A
330
747D
100
AcDbEntity
  8
部品1
 48
50.0
100
AcDbCircle
 10
6377.259578302732
 20
1764.53495816198
 30
0.0
 40
24.0
100
AcDbArc
 50
0.0
 51
180.0
  0
LINE
  5
24F5B
330
747D
100
AcDbEntity
  8
細線
 48
50.0
100
AcDbLine
 10
6401.259578302732
 20
1742.653421435565
 30
0.0
 11
6473.259578302732
 21
1814.653421435565
 31
0.0
  0
LEADER
  5
24F5C
330
747D
100
AcDbEntity
  8
寸法
 48
50.0
100
AcDbLeader
  3
INABA_S50G
 73
     0
 75
     1
 40
106.3636363636363
 41
893.1818181818181
 76
     3
 10
8112.698891479926
 20
1973.840528767736
 30
0.0
 10
8064.274819134984
 20
2347.900103484068
 30
0.0
 10
7939.274819134985
 20
2347.900103484068
 30
0.0
340
24F5D
1001
ACAD
1000
DSTYLE
1002
{
1070
   341
1005
0
1070
    40
1040
1.0
1070
   343
1005
0
1070
   344
1005
0
1002
}
  0
MTEXT
  5
24F5D
102
{ACAD_REACTORS
330
24F5C
102
}
330
747D
100
AcDbEntity
  8
寸法
 62
     7
 48
50.0
100
AcDbMText
 10
7914.274819134985
 20
2426.081921665887
 30
0.0
 40
80.0
 41
0.8
 71
     6
 72
     1
  1
\A1;アンカープレート L
  7
STYLE2
 73
     1
 44
1.0
1001
ACAD
1000
MTEXTBEGIN
1070
    73
1070
     1
1070
    44
1040
1.0
1070
    74
1070
     0
1000
MTEXTEND
  0
DIMENSION
  5
24F5E
330
747D
100
AcDbEntity
  8
寸法
 48
50.0
100
AcDbDimension
  2
*D51
 10
6601.25957830273
 20
581.8508907625746
 30
0.0
 11
6357.162819624507
 21
581.8508907625746
 31
0.0
 70
   160
  1
300
 71
     5
 42
448.0
  3
INABA_S40G
100
AcDbAlignedDimension
 13
6153.259578302731
 23
992.2805287677347
 33
0.0
 14
6601.25957830273
 24
992.2805287677347
 34
0.0
100
AcDbRotatedDimension
1001
ACAD
1000
DSTYLE
1002
{
1070
   341
1005
0
1002
}
  0
MTEXT
  5
24F5F
102
{ACAD_REACTORS
330
24F67
102
}
330
747D
100
AcDbEntity
  8
寸法
 62
     7
 48
50.0
100
AcDbMText
 10
5982.324552107537
 20
1036.757835149298
 30
0.0
 40
80.0
 41
0.8
 71
     6
 72
     1
  1
D10
  7
STYLE2
 73
     1
 44
1.0
1001
ACAD
1000
MTEXTBEGIN
1070
    73
1070
     1
1070
    44
1040
1.0
1070
    74
1070
     0
1000
MTEXTEND
  0
MTEXT
  5
24F60
102
{ACAD_REACTORS
330
24F66
102
}
330
747D
100
AcDbEntity
  8
寸法
 62
     7
 48
50.0
100
AcDbMText
 10
6010.447279664972
 20
856.4416826098549
 30
0.0
 40
80.0
 41
0.8
 71
     6
 72
     1
  1
D13
  7
STYLE2
 73
     1
 44
1.0
1001
ACAD
1000
MTEXTBEGIN
1070
    73
1070
     1
1070
    44
1040
1.0
1070
    74
1070
     0
1000
MTEXTEND
  0
DIMENSION
  5
24F61
330
747D
100
AcDbEntity
  8
寸法
 48
50.0
100
AcDbDimension
  2
*D52
 10
5546.222339740991
 20
1120.280528767735
 30
0.0
 11
5546.222339740991
 21
1491.820678423735
 31
0.0
 70
   160
  1
540
 71
     5
 42
784.0
  3
INABA_S40G
100
AcDbAlignedDimension
 13
6281.259578302731
 23
1904.280528767734
 33
0.0
 14
6073.259578302735
 24
1120.280528767735
 34
0.0
 50
90.0
100
AcDbRotatedDimension
1001
ACAD
1000
DSTYLE
1002
{
1070
   341
1005
0
1002
}
  0
MTEXT
  5
24F62
102
{ACAD_REACTORS
330
24F63
102
}
330
747D
100
AcDbEntity
  8
寸法
 62
     7
 48
50.0
100
AcDbMText
 10
6061.161098819457
 20
2116.796748769777
 30
0.0
 40
80.0
 41
0.8
 71
     6
 72
     1
  1
\A1;金コテ押エ
  7
STYLE2
 73
     1
 44
1.0
1001
ACAD
1000
MTEXTBEGIN
1070
    73
1070
     1
1070
    44
1040
1.0
1070
    74
1070
     0
1000
MTEXTEND
  0
LEADER
  5
24F63
330
747D
100
AcDbEntity
  8
寸法
 48
50.0
100
AcDbLeader
  3
INABA_S50G
 71
     0
 73
     0
 75
     1
 40
130.1136363636363
 41
651.1363636363636
 76
     3
 10
6361.259578302731
 20
1904.280528767734
 30
0.0
 10
6248.834998138715
 20
2044.751294224323
 30
0.0
 10
6123.834998138715
 20
2044.751294224323
 30
0.0
1001
ACAD
1000
DSTYLE
1002
{
1070
    40
1040
1.0
1070
   272
1070
     1
1070
   279
1070
     1
1070
   341
1005
0
1002
}
  0
LEADER
  5
24F64
330
747D
100
AcDbEntity
  8
寸法
 48
50.0
100
AcDbLeader
  3
INABA_S50G
 71
     0
 73
     0
 75
     1
 40
100.0
 41
540.3409090909091
 76
     3
 10
6385.259578302731
 20
1662.407743464858
 30
0.0
 10
6327.277341774033
 20
1440.937414924053
 30
0.0
 10
6202.277341774033
 20
1440.937414924053
 30
0.0
213
-9.732182305893367
223
-4.643716661138569
233
0.0
1001
ACAD
1000
DSTYLE
1002
{
1070
    40
1040
1.0
1070
   272
1070
     1
1070
   279
1070
     1
1070
   341
1005
0
1002
}
  0
MTEXT
  5
24F65
102
{ACAD_REACTORS
330
24F64
102
}
330
747D
100
AcDbEntity
  8
寸法
 62
     7
 48
50.0
100
AcDbMText
 10
6192.009524079926
 20
1505.581131585191
 30
0.0
 40
80.0
 41
0.8
 71
     6
 72
     1
  1
\A1;D10@300
  7
STYLE2
 73
     1
 44
1.0
1001
ACAD
1000
MTEXTBEGIN
1070
    73
1070
     1
1070
    44
1040
1.0
1070
    74
1070
     0
1000
MTEXTEND
  0
LEADER
  5
24F66
330
747D
100
AcDbEntity
  8
寸法
 48
50.0
100
AcDbLeader
  3
INABA_S50G
 71
     0
 73
     0
 75
     1
 40
100.0
 41
222.7272727272727
 76
     3
 10
6377.259578302731
 20
1240.280528767734
 30
0.0
 10
6155.447279664972
 20
796.441682609855
 30
0.0
 10
6030.447279664972
 20
796.441682609855
 30
0.0
1001
ACAD
1000
DSTYLE
1002
{
1070
    40
1040
1.0
1070
   272
1070
     1
1070
   279
1070
     1
1070
   341
1005
0
1002
}
  0
LEADER
  5
24F67
330
747D
100
AcDbEntity
  8
寸法
 48
50.0
100
AcDbLeader
  3
INABA_S50G
 71
     0
 73
     0
 75
     1
 40
100.0
 41
225.0
 76
     3
 10
6249.162530654874
 20
1240.280528767734
 30
0.0
 10
6127.324552107537
 20
976.7578351492984
 30
0.0
 10
6002.324552107537
 20
976.7578351492984
 30
0.0
1001
ACAD
1000
DSTYLE
1002
{
1070
    40
1040
1.0
1070
   272
1070
     1
1070
   279
1070
     1
1070
   341
1005
0
1002
}
  0
DIMENSION
  5
24F68
330
747D
100
AcDbEntity
  8
寸法
 48
50.0
100
AcDbDimension
  2
*D53
 10
6010.839264570272
 20
1120.280528767735
 30
0.0
 11
6010.839264570272
 21
1240.280528767735
 31
0.0
 70
   160
  1
150
 71
     5
 42
240.0
  3
INABA_S40G
100
AcDbAlignedDimension
 13
6153.259578302731
 23
1360.280528767735
 33
0.0
 14
6073.259578302735
 24
1120.280528767735
 34
0.0
 50
90.0
100
AcDbRotatedDimension
1001
ACAD
1000
DSTYLE
1002
{
1070
   341
1005
0
1002
}
  0
TEXT
  5
24F69
330
747D
100
AcDbEntity
  8
部品1
 48
50.0
100
AcDbText
 10
5867.119676469775
 20
1675.51952105099
 30
0.0
 40
80.0
  1
▽G.L
  7
STYLE2
100
AcDbText
  0
LWPOLYLINE
  5
24F6A
330
747D
100
AcDbEntity
  8
部品1
 48
50.0
100
AcDbPolyline
 90
        2
 70
     0
 43
8.0
 10
5867.119676469775
 20
1664.280528767735
 10
6281.259578302731
 20
1664.280528767735
  0
MTEXT
  5
24F6B
102
{ACAD_REACTORS
330
24F6C
102
}
330
747D
100
AcDbEntity
  8
寸法
 62
     7
 48
50.0
100
AcDbMText
 10
7887.631812926628
 20
2786.766193573401
 30
0.0
 40
80.0
 41
0.8
 71
     6
 72
     1
  1
\A1;φ70スリーブ
  7
STYLE2
 73
     1
 44
1.0
1001
ACAD
1000
MTEXTBEGIN
1070
    73
1070
     1
1070
    44
1040
1.0
1070
    74
1070
     0
1000
MTEXTEND
  0
LEADER
  5
24F6C
330
747D
100
AcDbEntity
  8
寸法
 48
50.0
100
AcDbLeader
  3
INABA_S50G
 73
     0
 75
     1
 40
113.1818181818182
 41
608.6363636363635
 76
     3
 10
8171.435641617977
 20
1853.796202126014
 30
0.0
 10
8037.631812926628
 20
2705.175284482491
 30
0.0
 10
7912.631812926628
 20
2705.175284482491
 30
0.0
340
24F6B
1001
ACAD
1000
DSTYLE
1002
{
1070
   341
1005
0
1070
    40
1040
1.0
1070
   343
1005
0
1070
   344
1005
0
1002
}
  0
LINE
  5
24F6D
330
747D
100
AcDbEntity
  8
部品1
100
AcDbLine
 10
5210.591139493469
 20
3303.61919596832
 30
0.0
 11
5210.59113949347
 21
339.3122263836731
 31
0.0
  0
LEADER
  5
24F6E
330
747D
100
AcDbEntity
  8
寸法
 48
50.0
100
AcDbLeader
  3
INABA_S50G
 73
     0
 74
     0
 75
     1
 40
80.0
 41
435.0
 76
     3
 10
8211.698891479926
 20
1953.440528767735
 30
0.0
 10
8254.243353899244
 20
2103.663854920965
 30
0.0
 10
8379.243353899244
 20
2103.663854920965
 30
0.0
340
24F6F
1001
ACAD
1000
DSTYLE
1002
{
1070
   341
1005
0
1070
    40
1040
1.0
1070
   343
1005
0
1070
   344
1005
0
1002
}
  0
MTEXT
  5
24F6F
102
{ACAD_REACTORS
330
24F6E
102
}
330
747D
100
AcDbEntity
  8
部品1
 62
     7
 48
50.0
100
AcDbMText
 10
8404.243353899245
 20
2168.663854920965
 30
0.0
 40
80.0
 41
0.8
 71
     4
 72
     1
  1
M10X160
  7
STYLE2
 73
     1
 44
1.0
1001
ACAD
1000
MTEXTBEGIN
1070
    73
1070
     1
1070
    44
1040
1.0
1070
    74
1070
     0
1000
MTEXTEND
  0
DIMENSION
  5
24F70
330
747D
100
AcDbEntity
  8
寸法
 48
50.0
100
AcDbDimension
  2
*D54
 10
9173.222157367796
 20
1904.280528767734
 30
0.0
 11
9173.222157367796
 21
1438.271625346252
 31
0.0
 70
   160
  1
20～25
 71
     5
 42
52.76000000000113
  3
INABA_S40G
100
AcDbAlignedDimension
 13
8208.098891479925
 23
1957.040528767736
 33
0.0
 14
8395.298891479924
 24
1904.280528767734
 34
0.0
 50
90.0
100
AcDbRotatedDimension
1001
ACAD
1000
DSTYLE
1002
{
1070
   341
1005
0
1002
}
  0
DIMENSION
  5
24F71
330
747D
100
AcDbEntity
  8
寸法
 48
50.0
100
AcDbDimension
  2
*D55
 10
8897.167491248769
 20
1580.280528767733
 30
0.0
 11
8797.167491248769
 21
1742.280528767735
 31
0.0
 70
    32
  1
180
 71
     5
 42
324.0000000000009
  3
INABA_S40G
100
AcDbAlignedDimension
 13
8395.298891479924
 23
1904.280528767734
 33
0.0
 14
8395.298891479924
 24
1580.280528767734
 34
0.0
 50
90.0
100
AcDbRotatedDimension
1001
ACAD
1000
DSTYLE
1002
{
1070
   341
1005
0
1002
}
  0
TEXT
  5
24F72
330
747D
100
AcDbEntity
  8
部品1
 48
50.0
100
AcDbText
 10
8399.652475764353
 20
2260.159209529935
 30
0.0
 40
80.0
  1
基礎ボルト(市販品)
  7
STYLE2
100
AcDbText
  0
LWPOLYLINE
  5
24F73
330
747D
100
AcDbEntity
  8
部品1
 48
50.0
100
AcDbPolyline
 90
        2
 70
     0
 43
8.0
 10
8395.298891479924
 20
1664.280528767735
 10
8689.001354879309
 20
1664.280528767735
  0
MTEXT
  5
24F74
102
{ACAD_REACTORS
330
24F75
102
}
330
747D
100
AcDbEntity
  8
部品1
 62
     7
 48
50.0
100
AcDbMText
 10
8434.570481848764
 20
2604.775901854995
 30
0.0
 40
80.0
 41
0.8
 71
     4
 72
     1
  1
\A1;ワッシャー(市販品)
  7
STYLE2
 73
     1
 44
1.0
1001
ACAD
1000
MTEXTBEGIN
1070
    73
1070
     1
1070
    44
1040
1.0
1070
    74
1070
     0
1000
MTEXTEND
  0
LEADER
  5
24F75
330
747D
100
AcDbEntity
  8
寸法
 48
50.0
100
AcDbLeader
  3
INABA_S50G
 73
     0
 74
     0
 75
     1
 40
102.2727272727273
 41
906.8181818181818
 76
     3
 10
8242.698891479925
 20
2173.403817212014
 30
0.0
 10
8284.570481848765
 20
2528.639538218631
 30
0.0
 10
8409.570481848765
 20
2528.639538218631
 30
0.0
340
24F74
1001
ACAD
1000
DSTYLE
1002
{
1070
   341
1005
0
1070
    40
1040
1.0
1070
   343
1005
0
1070
   344
1005
0
1002
}
  0
MTEXT
  5
24F76
102
{ACAD_REACTORS
330
24F77
102
}
330
747D
100
AcDbEntity
  8
部品1
 62
     7
 48
50.0
100
AcDbMText
 10
8403.052862593282
 20
2789.744984619782
 30
0.0
 40
80.0
 41
0.8
 71
     4
 72
     1
  1
\A1;ナット(市販品)
  7
STYLE2
 73
     1
 44
1.0
1001
ACAD
1000
MTEXTBEGIN
1070
    73
1070
     1
1070
    44
1040
1.0
1070
    74
1070
     0
1000
MTEXTEND
  0
LEADER
  5
24F77
330
747D
100
AcDbEntity
  8
寸法
 48
50.0
100
AcDbLeader
  3
INABA_S50G
 73
     0
 74
     0
 75
     1
 40
102.2727272727273
 41
680.0000000000001
 76
     3
 10
8218.698891479926
 20
2303.155809876877
 30
0.0
 10
8253.052862593282
 20
2713.608620983419
 30
0.0
 10
8378.052862593282
 20
2713.608620983419
 30
0.0
340
24F76
1001
ACAD
1000
DSTYLE
1002
{
1070
   341
1005
0
1070
    40
1040
1.0
1070
   343
1005
0
1070
   344
1005
0
1002
}
  0
LINE
  5
24F78
330
747D
100
AcDbEntity
  8
部品1
100
AcDbLine
 10
5210.591139493472
 20
339.3122263836731
 30
0.0
 11
11281.57632487972
 21
339.3122263836731
 31
0.0
  0
LINE
  5
24F79
330
747D
100
AcDbEntity
  8
部品1
100
AcDbLine
 10
11281.57632487972
 20
3063.619195968318
 30
0.0
 11
5210.59113949347
 21
3063.619195968318
 31
0.0
  0
LINE
  5
24F7A
330
747D
100
AcDbEntity
  8
部品1
100
AcDbLine
 10
11281.57632487972
 20
3303.61919596832
 30
0.0
 11
5210.591139493466
 21
3303.61919596832
 31
0.0
  0
ENDSEC
  0
SECTION
  2
OBJECTS
  0
DICTIONARY
  5
7471
330
0
100
AcDbDictionary
281
     1
  3
ACAD_COLOR
350
173D2
  3
ACAD_GROUP
350
7472
  3
ACAD_LAYOUT
350
173D3
  3
ACAD_MATERIAL
350
173D1
  3
ACAD_MLINESTYLE
350
7473
  3
ACAD_PLOTSETTINGS
350
173D4
  3
ACAD_PLOTSTYLENAME
350
173CF
  3
ACDBHEADERROUNDTRIPXREC
350
25008
  3
AcDbVariableDictionary
350
24BE7
  3
CONTENTDICTIONARY
350
E71C
  3
DRAWINGVARIABLESDICT
350
F3B9
  0
DICTIONARY
  5
1758F
330
7467
100
AcDbDictionary
280
     1
281
     1
  3
ACAD_LAYERSTATES
360
17590
  0
DICTIONARY
  5
173D2
102
{ACAD_REACTORS
330
7471
102
}
330
7471
100
AcDbDictionary
281
     1
  0
DICTIONARY
  5
7472
102
{ACAD_REACTORS
330
7471
102
}
330
7471
100
AcDbDictionary
281
     1
  3
*A1
350
1D2A9
  0
DICTIONARY
  5
173D3
102
{ACAD_REACTORS
330
7471
102
}
330
7471
100
AcDbDictionary
281
     1
  3
Model
350
173D5
  3
レイアウト1
350
173D6
  0
DICTIONARY
  5
173D1
102
{ACAD_REACTORS
330
7471
102
}
330
7471
100
AcDbDictionary
281
     1
  0
DICTIONARY
  5
7473
102
{ACAD_REACTORS
330
7471
102
}
330
7471
100
AcDbDictionary
281
     1
  3
STANDARD
350
7480
  0
DICTIONARY
  5
173D4
102
{ACAD_REACTORS
330
7471
102
}
330
7471
100
AcDbDictionary
281
     1
  0
ACDBDICTIONARYWDFLT
  5
173CF
102
{ACAD_REACTORS
330
7471
102
}
330
7471
100
AcDbDictionary
281
     1
  3
Normal
350
173D0
100
AcDbDictionaryWithDefault
340
173D0
  0
DICTIONARY
  5
25008
102
{ACAD_REACTORS
330
7471
102
}
330
7471
100
AcDbDictionary
281
     1
  3
COLORDICT
350
2500A
  3
MATERIALDICT
350
25009
  0
DICTIONARY
  5
24BE7
102
{ACAD_REACTORS
330
7471
102
}
330
7471
100
AcDbDictionary
281
     1
  3
DIMASSOC
350
24BE8
  3
PROJECTNAME
350
24BE9
  0
DICTIONARY
  5
E71C
102
{ACAD_REACTORS
330
7471
102
}
330
7471
100
AcDbDictionary
281
     1
  0
DICTIONARY
  5
F3B9
102
{ACAD_REACTORS
330
7471
102
}
330
7471
100
AcDbDictionary
281
     1
1001
DRAWINGVARIABLESXDATA
1000
POLARMODE
1000
1
  0
DICTIONARY
  5
17590
102
{ACAD_REACTORS
330
1758F
102
}
330
1758F
100
AcDbDictionary
281
     1
  0
GROUP
  5
1D2A9
102
{ACAD_REACTORS
330
7472
102
}
330
7472
100
AcDbGroup
300

 70
     1
 71
     1
  0
LAYOUT
  5
173D5
102
{ACAD_XDICTIONARY
360
2500B
102
}
102
{ACAD_REACTORS
330
173D3
102
}
330
173D3
100
AcDbPlotSettings
  1

  2
Microsoft Office Document Image Writer
  4

  6

 40
0.0
 41
0.0
 42
0.0
 43
0.0
 44
0.0
 45
0.0
 46
0.0
 47
0.0
 48
0.0
 49
0.0
140
0.0
141
0.0
142
1.0
143
1.0
 70
  1712
 72
     0
 73
     0
 74
     0
  7

 75
     0
147
1.0
148
0.0
149
0.0
100
AcDbLayout
  1
Model
 70
     1
 71
     0
 10
0.0
 20
0.0
 11
12.0
 21
9.0
 12
0.0
 22
0.0
 32
0.0
 14
0.0
 24
0.0
 34
0.0
 15
0.0
 25
0.0
 35
0.0
146
0.0
 13
0.0
 23
0.0
 33
0.0
 16
1.0
 26
0.0
 36
0.0
 17
0.0
 27
1.0
 37
0.0
 76
     0
330
747D
  0
LAYOUT
  5
173D6
102
{ACAD_XDICTIONARY
360
2500D
102
}
102
{ACAD_REACTORS
330
173D3
102
}
330
173D3
100
AcDbPlotSettings
  1

  2
Microsoft Office Document Image Writer
  4

  6

 40
0.0
 41
0.0
 42
0.0
 43
0.0
 44
0.0
 45
0.0
 46
0.0
 47
0.0
 48
0.0
 49
0.0
140
0.0
141
0.0
142
1.0
143
1.0
 70
   688
 72
     0
 73
     0
 74
     5
  7

 75
    16
147
1.0
148
0.0
149
0.0
100
AcDbLayout
  1
レイアウト1
 70
     0
 71
     1
 10
0.0
 20
0.0
 11
420.0
 21
297.0
 12
0.0
 22
0.0
 32
0.0
 14
1.000000000000000E+20
 24
1.000000000000000E+20
 34
1.000000000000000E+20
 15
-1.000000000000000E+20
 25
-1.000000000000000E+20
 35
-1.000000000000000E+20
146
0.0
 13
0.0
 23
0.0
 33
0.0
 16
1.0
 26
0.0
 36
0.0
 17
0.0
 27
1.0
 37
0.0
 76
     0
330
747A
  0
MLINESTYLE
  5
7480
102
{ACAD_REACTORS
330
7473
102
}
330
7473
100
AcDbMlineStyle
  2
STANDARD
 70
     0
  3

 62
     0
 51
90.0
 52
90.0
 71
     2
 49
0.5
 62
   256
  6
BYLAYER
 49
-0.5
 62
   256
  6
BYLAYER
  0
ACDBPLACEHOLDER
  5
173D0
102
{ACAD_REACTORS
330
173CF
102
}
330
173CF
  0
XRECORD
  5
2500A
102
{ACAD_REACTORS
330
25008
102
}
330
25008
100
AcDbXrecord
280
     1
340
173D2
  0
XRECORD
  5
25009
102
{ACAD_REACTORS
330
25008
102
}
330
25008
100
AcDbXrecord
280
     1
340
173D1
  0
DICTIONARYVAR
  5
24BE8
102
{ACAD_REACTORS
330
24BE7
102
}
330
24BE7
100
DictionaryVariables
280
     0
  1
1
  0
DICTIONARYVAR
  5
24BE9
102
{ACAD_REACTORS
330
24BE7
102
}
330
24BE7
100
DictionaryVariables
280
     0
  1

  0
DICTIONARY
  5
2500B
330
173D5
100
AcDbDictionary
280
     1
281
     1
  3
ACAD_XREC_ROUNDTRIP
360
2500C
  0
DICTIONARY
  5
2500D
330
173D6
100
AcDbDictionary
280
     1
281
     1
  3
ACAD_XREC_ROUNDTRIP
360
2500E
  0
XRECORD
  5
2500C
102
{ACAD_REACTORS
330
2500B
102
}
330
2500B
100
AcDbXrecord
280
     1
102
SHADEPLOT
 70
     0
102
SHADEPLOTRESLEVEL
 70
     2
102
SHADEPLOTCUSTOMDPI
 70
   300
  0
XRECORD
  5
2500E
102
{ACAD_REACTORS
330
2500D
102
}
330
2500D
100
AcDbXrecord
280
     1
102
SHADEPLOT
 70
     0
102
SHADEPLOTRESLEVEL
 70
     2
102
SHADEPLOTCUSTOMDPI
 70
   300
  0
ENDSEC
  0
EOF
