  0
SECTION
  2
HEADER
  9
$ACADVER
  1
AC1015
  9
$ACADMAINTVER
 70
    20
  9
$DWGCODEPAGE
  3
ANSI_932
  9
$INSBASE
 10
0.0
 20
0.0
 30
0.0
  9
$EXTMIN
 10
139.9999999999995
 20
-0.0000000000000909
 30
0.0
  9
$EXTMAX
 10
16307.2
 20
11409.6
 30
0.0
  9
$LIMMIN
 10
0.0
 20
0.0
  9
$LIMMAX
 10
16800.0
 20
11880.0
  9
$ORTHOMODE
 70
     0
  9
$REGENMODE
 70
     1
  9
$FILLMODE
 70
     1
  9
$QTEXTMODE
 70
     0
  9
$MIRRTEXT
 70
     1
  9
$LTSCALE
 40
20.0
  9
$ATTMODE
 70
     1
  9
$TEXTSIZE
 40
4.0
  9
$TRACEWID
 40
1.0
  9
$TEXTSTYLE
  7
STYLE1
  9
$CLAYER
  8
寸法
  9
$CELTYPE
  6
BYLAYER
  9
$CECOLOR
 62
   256
  9
$CELTSCALE
 40
50.0
  9
$DISPSILH
 70
     0
  9
$DIMSCALE
 40
40.0
  9
$DIMASZ
 40
2.5
  9
$DIMEXO
 40
0.5
  9
$DIMDLI
 40
7.0
  9
$DIMRND
 40
0.0
  9
$DIMDLE
 40
0.0
  9
$DIMEXE
 40
1.5
  9
$DIMTP
 40
0.0
  9
$DIMTM
 40
0.0
  9
$DIMTXT
 40
3.0
  9
$DIMCEN
 40
0.0
  9
$DIMTSZ
 40
0.0
  9
$DIMTOL
 70
     0
  9
$DIMLIM
 70
     0
  9
$DIMTIH
 70
     0
  9
$DIMTOH
 70
     0
  9
$DIMSE1
 70
     0
  9
$DIMSE2
 70
     0
  9
$DIMTAD
 70
     3
  9
$DIMZIN
 70
     8
  9
$DIMBLK
  1

  9
$DIMASO
 70
     1
  9
$DIMSHO
 70
     1
  9
$DIMPOST
  1

  9
$DIMAPOST
  1

  9
$DIMALT
 70
     0
  9
$DIMALTD
 70
     2
  9
$DIMALTF
 40
0.0394
  9
$DIMLFAC
 40
1.0
  9
$DIMTOFL
 70
     1
  9
$DIMTVP
 40
0.0
  9
$DIMTIX
 70
     1
  9
$DIMSOXD
 70
     0
  9
$DIMSAH
 70
     1
  9
$DIMBLK1
  1
DOTSMALL
  9
$DIMBLK2
  1
DOTSMALL
  9
$DIMSTYLE
  2
INABA_S40G
  9
$DIMCLRD
 70
     0
  9
$DIMCLRE
 70
     0
  9
$DIMCLRT
 70
     7
  9
$DIMTFAC
 40
1.0
  9
$DIMGAP
 40
1.0
  9
$DIMJUST
 70
     0
  9
$DIMSD1
 70
     0
  9
$DIMSD2
 70
     0
  9
$DIMTOLJ
 70
     1
  9
$DIMTZIN
 70
     0
  9
$DIMALTZ
 70
     0
  9
$DIMALTTZ
 70
     0
  9
$DIMUPT
 70
     0
  9
$DIMDEC
 70
     1
  9
$DIMTDEC
 70
     4
  9
$DIMALTU
 70
     2
  9
$DIMALTTD
 70
     2
  9
$DIMTXSTY
  7
STYLE1
  9
$DIMAUNIT
 70
     0
  9
$DIMADEC
 70
     0
  9
$DIMALTRND
 40
0.0
  9
$DIMAZIN
 70
     0
  9
$DIMDSEP
 70
    46
  9
$DIMATFIT
 70
     3
  9
$DIMFRAC
 70
     0
  9
$DIMLDRBLK
  1

  9
$DIMLUNIT
 70
     2
  9
$DIMLWD
 70
    -2
  9
$DIMLWE
 70
    -2
  9
$DIMTMOVE
 70
     0
  9
$LUNITS
 70
     2
  9
$LUPREC
 70
     1
  9
$SKETCHINC
 40
1.0
  9
$FILLETRAD
 40
3.0
  9
$AUNITS
 70
     0
  9
$AUPREC
 70
     0
  9
$MENU
  1
acad
  9
$ELEVATION
 40
0.0
  9
$PELEVATION
 40
0.0
  9
$THICKNESS
 40
0.0
  9
$LIMCHECK
 70
     0
  9
$CHAMFERA
 40
0.0
  9
$CHAMFERB
 40
0.0
  9
$CHAMFERC
 40
0.0
  9
$CHAMFERD
 40
0.0
  9
$SKPOLY
 70
     0
  9
$TDCREATE
 40
2451368.612993866
  9
$TDUCREATE
 40
2451368.237993866
  9
$TDUPDATE
 40
2455827.640926968
  9
$TDUUPDATE
 40
2455827.265926968
  9
$TDINDWG
 40
0.8788946296
  9
$TDUSRTIMER
 40
0.8788946296
  9
$USRTIMER
 70
     1
  9
$ANGBASE
 50
0.0
  9
$ANGDIR
 70
     0
  9
$PDMODE
 70
     3
  9
$PDSIZE
 40
2.0
  9
$PLINEWID
 40
0.0
  9
$SPLFRAME
 70
     0
  9
$SPLINETYPE
 70
     6
  9
$SPLINESEGS
 70
     8
  9
$HANDSEED
  5
2E194
  9
$SURFTAB1
 70
     6
  9
$SURFTAB2
 70
     6
  9
$SURFTYPE
 70
     6
  9
$SURFU
 70
     6
  9
$SURFV
 70
     6
  9
$UCSBASE
  2

  9
$UCSNAME
  2

  9
$UCSORG
 10
0.0
 20
0.0
 30
0.0
  9
$UCSXDIR
 10
1.0
 20
0.0
 30
0.0
  9
$UCSYDIR
 10
0.0
 20
1.0
 30
0.0
  9
$UCSORTHOREF
  2

  9
$UCSORTHOVIEW
 70
     0
  9
$UCSORGTOP
 10
0.0
 20
0.0
 30
0.0
  9
$UCSORGBOTTOM
 10
0.0
 20
0.0
 30
0.0
  9
$UCSORGLEFT
 10
0.0
 20
0.0
 30
0.0
  9
$UCSORGRIGHT
 10
0.0
 20
0.0
 30
0.0
  9
$UCSORGFRONT
 10
0.0
 20
0.0
 30
0.0
  9
$UCSORGBACK
 10
0.0
 20
0.0
 30
0.0
  9
$PUCSBASE
  2

  9
$PUCSNAME
  2

  9
$PUCSORG
 10
0.0
 20
0.0
 30
0.0
  9
$PUCSXDIR
 10
1.0
 20
0.0
 30
0.0
  9
$PUCSYDIR
 10
0.0
 20
1.0
 30
0.0
  9
$PUCSORTHOREF
  2

  9
$PUCSORTHOVIEW
 70
     0
  9
$PUCSORGTOP
 10
0.0
 20
0.0
 30
0.0
  9
$PUCSORGBOTTOM
 10
0.0
 20
0.0
 30
0.0
  9
$PUCSORGLEFT
 10
0.0
 20
0.0
 30
0.0
  9
$PUCSORGRIGHT
 10
0.0
 20
0.0
 30
0.0
  9
$PUCSORGFRONT
 10
0.0
 20
0.0
 30
0.0
  9
$PUCSORGBACK
 10
0.0
 20
0.0
 30
0.0
  9
$USERI1
 70
     0
  9
$USERI2
 70
     0
  9
$USERI3
 70
     0
  9
$USERI4
 70
     0
  9
$USERI5
 70
     0
  9
$USERR1
 40
0.0
  9
$USERR2
 40
0.0
  9
$USERR3
 40
0.0
  9
$USERR4
 40
0.0
  9
$USERR5
 40
0.0
  9
$WORLDVIEW
 70
     1
  9
$SHADEDGE
 70
     3
  9
$SHADEDIF
 70
    70
  9
$TILEMODE
 70
     1
  9
$MAXACTVP
 70
    16
  9
$PINSBASE
 10
0.0
 20
0.0
 30
0.0
  9
$PLIMCHECK
 70
     0
  9
$PEXTMIN
 10
1.000000000000000E+20
 20
1.000000000000000E+20
 30
1.000000000000000E+20
  9
$PEXTMAX
 10
-1.000000000000000E+20
 20
-1.000000000000000E+20
 30
-1.000000000000000E+20
  9
$PLIMMIN
 10
0.0
 20
0.0
  9
$PLIMMAX
 10
420.0
 20
297.0
  9
$UNITMODE
 70
     0
  9
$VISRETAIN
 70
     0
  9
$PLINEGEN
 70
     0
  9
$PSLTSCALE
 70
     0
  9
$TREEDEPTH
 70
  3020
  9
$CMLSTYLE
  2
STANDARD
  9
$CMLJUST
 70
     0
  9
$CMLSCALE
 40
1.0
  9
$PROXYGRAPHICS
 70
     1
  9
$MEASUREMENT
 70
     1
  9
$CELWEIGHT
370
    -1
  9
$ENDCAPS
280
     0
  9
$JOINSTYLE
280
     0
  9
$LWDISPLAY
290
     0
  9
$INSUNITS
 70
     0
  9
$HYPERLINKBASE
  1

  9
$STYLESHEET
  1

  9
$XEDIT
290
     1
  9
$CEPSNTYPE
380
     0
  9
$PSTYLEMODE
290
     1
  9
$FINGERPRINTGUID
  2
{5EAC461A-2277-4BF8-9AB0-99C43BB394F0}
  9
$VERSIONGUID
  2
{E2503FDE-6625-4A47-ABA6-E195EDDB5666}
  9
$EXTNAMES
290
     1
  9
$PSVPSCALE
 40
0.0
  9
$OLESTARTUP
290
     0
  0
ENDSEC
  0
SECTION
  2
CLASSES
  0
CLASS
  1
ACDBDICTIONARYWDFLT
  2
AcDbDictionaryWithDefault
  3
ObjectDBX Classes
 90
        0
280
     0
281
     0
  0
CLASS
  1
DICTIONARYVAR
  2
AcDbDictionaryVar
  3
ObjectDBX Classes
 90
        0
280
     0
281
     0
  0
CLASS
  1
ACDBPLACEHOLDER
  2
AcDbPlaceHolder
  3
ObjectDBX Classes
 90
        0
280
     0
281
     0
  0
CLASS
  1
LAYOUT
  2
AcDbLayout
  3
ObjectDBX Classes
 90
        0
280
     0
281
     0
  0
ENDSEC
  0
SECTION
  2
TABLES
  0
TABLE
  2
VPORT
  5
746D
330
0
100
AcDbSymbolTable
 70
     2
  0
VPORT
  5
2E18C
330
746D
100
AcDbSymbolTableRecord
100
AcDbViewportTableRecord
  2
*Active
 70
     0
 10
0.0
 20
0.0
 11
1.0
 21
1.0
 12
8400.0
 22
6532.304808250916
 13
0.0
 23
0.0
 14
10.0
 24
10.0
 15
10.0
 25
10.0
 16
0.0
 26
0.0
 36
1.0
 17
0.0
 27
0.0
 37
0.0
 40
13160.36269532366
 41
1.522222222222222
 42
50.0
 43
0.0
 44
0.0
 50
0.0
 51
0.0
 71
     0
 72
     0
 73
     1
 74
     0
 75
     0
 76
     0
 77
     0
 78
     0
281
     0
 65
     1
110
0.0
120
0.0
130
0.0
111
1.0
121
0.0
131
0.0
112
0.0
122
1.0
132
0.0
 79
     0
146
0.0
  0
ENDTAB
  0
TABLE
  2
LTYPE
  5
746A
330
0
100
AcDbSymbolTable
 70
     5
  0
LTYPE
  5
7477
330
746A
100
AcDbSymbolTableRecord
100
AcDbLinetypeTableRecord
  2
BYBLOCK
 70
     0
  3

 72
    65
 73
     0
 40
0.0
  0
LTYPE
  5
7478
330
746A
100
AcDbSymbolTableRecord
100
AcDbLinetypeTableRecord
  2
BYLAYER
 70
     0
  3

 72
    65
 73
     0
 40
0.0
  0
LTYPE
  5
7479
330
746A
100
AcDbSymbolTableRecord
100
AcDbLinetypeTableRecord
  2
CONTINUOUS
 70
     0
  3
Solid line
 72
    65
 73
     0
 40
0.0
  0
LTYPE
  5
7816
330
746A
100
AcDbSymbolTableRecord
100
AcDbLinetypeTableRecord
  2
CENTER
 70
     0
  3
____ _ ____ _ ____ _ ____ _ ____ _ ____ _ ____ 
 72
    65
 73
     4
 40
2.0
 49
1.25
 74
     0
 49
-0.25
 74
     0
 49
0.25
 74
     0
 49
-0.25
 74
     0
  0
LTYPE
  5
781A
330
746A
100
AcDbSymbolTableRecord
100
AcDbLinetypeTableRecord
  2
HIDDEN
 70
     0
  3
__ __ __ __ __ __ __ __ __ __ __ __ __ __ __ __
 72
    65
 73
     2
 40
0.375
 49
0.25
 74
     0
 49
-0.125
 74
     0
  0
LTYPE
  5
781B
330
746A
100
AcDbSymbolTableRecord
100
AcDbLinetypeTableRecord
  2
PHANTOM
 70
     0
  3
______  __  __  ______  __  __  ______  __  __ 
 72
    65
 73
     6
 40
2.5
 49
1.25
 74
     0
 49
-0.25
 74
     0
 49
0.25
 74
     0
 49
-0.25
 74
     0
 49
0.25
 74
     0
 49
-0.25
 74
     0
  0
LTYPE
  5
12CC3
330
746A
100
AcDbSymbolTableRecord
100
AcDbLinetypeTableRecord
  2
HIDDENX2
 70
     0
  3
Hidden (2x) ____ ____ ____ ____ ____ ____ ____
 72
    65
 73
     2
 40
19.05
 49
12.7
 74
     0
 49
-6.349999999999999
 74
     0
  0
ENDTAB
  0
TABLE
  2
LAYER
  5
7467
102
{ACAD_XDICTIONARY
360
1758F
102
}
330
0
100
AcDbSymbolTable
 70
    12
  0
LAYER
  5
7474
330
7467
100
AcDbSymbolTableRecord
100
AcDbLayerTableRecord
  2
0
 70
     0
 62
     7
  6
CONTINUOUS
370
    -3
390
173D0
  0
LAYER
  5
DEB2
330
7467
100
AcDbSymbolTableRecord
100
AcDbLayerTableRecord
  2
センター
 70
     0
 62
     3
  6
CENTER
370
    -3
390
173D0
  0
LAYER
  5
DEB3
330
7467
100
AcDbSymbolTableRecord
100
AcDbLayerTableRecord
  2
寸法
 70
     0
 62
     4
  6
CONTINUOUS
370
    -3
390
173D0
  0
LAYER
  5
DEB4
330
7467
100
AcDbSymbolTableRecord
100
AcDbLayerTableRecord
  2
部品1
 70
     0
 62
     7
  6
CONTINUOUS
370
    -3
390
173D0
  0
LAYER
  5
DEB5
330
7467
100
AcDbSymbolTableRecord
100
AcDbLayerTableRecord
  2
補助
 70
     0
 62
    -1
  6
CONTINUOUS
370
    -3
390
173D0
  0
LAYER
  5
DEB6
330
7467
100
AcDbSymbolTableRecord
100
AcDbLayerTableRecord
  2
文字
 70
     0
 62
     7
  6
CONTINUOUS
370
    -3
390
173D0
  0
LAYER
  5
F255
330
7467
100
AcDbSymbolTableRecord
100
AcDbLayerTableRecord
  2
DEFPOINTS
 70
     0
 62
     7
  6
CONTINUOUS
290
     0
370
    -3
390
173D0
  0
LAYER
  5
10B54
330
7467
100
AcDbSymbolTableRecord
100
AcDbLayerTableRecord
  2
仕様書枠
 70
     0
 62
   230
  6
CONTINUOUS
370
    -3
390
173D0
  0
LAYER
  5
11729
330
7467
100
AcDbSymbolTableRecord
100
AcDbLayerTableRecord
  2
Ｇ．Ｌ
 70
     0
 62
    30
  6
CONTINUOUS
370
    -3
390
173D0
  0
LAYER
  5
1173F
330
7467
100
AcDbSymbolTableRecord
100
AcDbLayerTableRecord
  2
細線
 70
     0
 62
     5
  6
CONTINUOUS
370
    -3
390
173D0
  0
LAYER
  5
12CC4
330
7467
100
AcDbSymbolTableRecord
100
AcDbLayerTableRecord
  2
想像線
 70
     0
 62
     6
  6
PHANTOM
370
    -3
390
173D0
  0
LAYER
  5
142E2
330
7467
100
AcDbSymbolTableRecord
100
AcDbLayerTableRecord
  2
破線
 70
     0
 62
     2
  6
HIDDEN
370
    -3
390
173D0
  0
ENDTAB
  0
TABLE
  2
STYLE
  5
7468
330
0
100
AcDbSymbolTable
 70
     7
  0
STYLE
  5
7475
330
7468
100
AcDbSymbolTableRecord
100
AcDbTextStyleTableRecord
  2
STANDARD
 70
     0
 40
0.0
 41
1.0
 50
0.0
 71
     0
 42
4.0
  3
txt
  4
C:\AutoCAD LT\bigfont.shx
  0
STYLE
  5
763C
330
7468
100
AcDbSymbolTableRecord
100
AcDbTextStyleTableRecord
  2
MSMINCHO
 70
     0
 40
0.0
 41
1.0
 50
0.0
 71
     0
 42
1.199999999999999
  3
C:\AutoCAD LT\msminch2.TTF
  4

  0
STYLE
  5
F706
330
7468
100
AcDbSymbolTableRecord
100
AcDbTextStyleTableRecord
  2
STYLE1
 70
     0
 40
0.0
 41
1.0
 50
0.0
 71
     0
 42
4.0
  3
isocp.shx
  4
bigfont.shx
  0
STYLE
  5
103BF
330
7468
100
AcDbSymbolTableRecord
100
AcDbTextStyleTableRecord
  2
STYLE2
 70
     0
 40
0.0
 41
1.0
 50
0.0
 71
     0
 42
100.0
  3
MS PGothic.ttf
  4

1001
ACAD
1000
MS PGothic
1071
    32818
  0
STYLE
  5
10BAA
330
7468
100
AcDbSymbolTableRecord
100
AcDbTextStyleTableRecord
  2
STYLE3
 70
     0
 40
0.0
 41
1.0
 50
0.0
 71
     0
 42
100.0
  3

  4

1001
ACAD
1000
DFPGothic-EB
1071
    32818
  0
STYLE
  5
11A15
330
7468
100
AcDbSymbolTableRecord
100
AcDbTextStyleTableRecord
  2
MSGOTHIC
 70
     0
 40
0.0
 41
1.0
 50
0.0
 71
     0
 42
3.5
  3
msgothi2.ttf
  4

  0
STYLE
  5
13E96
330
7468
100
AcDbSymbolTableRecord
100
AcDbTextStyleTableRecord
  2
MSPゴシック
 70
     0
 40
0.0
 41
1.0
 50
0.0
 71
     0
 42
4.0
  3
MS PGothic.ttf
  4

1001
ACAD
1000
MS PGothic
1071
    32818
  0
ENDTAB
  0
TABLE
  2
VIEW
  5
746B
330
0
100
AcDbSymbolTable
 70
     0
  0
ENDTAB
  0
TABLE
  2
UCS
  5
746C
330
0
100
AcDbSymbolTable
 70
     0
  0
ENDTAB
  0
TABLE
  2
APPID
  5
746E
330
0
100
AcDbSymbolTable
 70
     6
  0
APPID
  5
7476
330
746E
100
AcDbSymbolTableRecord
100
AcDbRegAppTableRecord
  2
ACAD
 70
     0
  0
APPID
  5
DEA9
330
746E
100
AcDbSymbolTableRecord
100
AcDbRegAppTableRecord
  2
CONTENTBLOCKICON
 70
     0
  0
APPID
  5
DEAA
330
746E
100
AcDbSymbolTableRecord
100
AcDbRegAppTableRecord
  2
CONTENTBLOCKDESCRIPTION
 70
     0
  0
APPID
  5
E71D
330
746E
100
AcDbSymbolTableRecord
100
AcDbRegAppTableRecord
  2
CONTENTTABDATA
 70
     0
  0
APPID
  5
E71E
330
746E
100
AcDbSymbolTableRecord
100
AcDbRegAppTableRecord
  2
CONTENTCURRENTTAB
 70
     0
  0
APPID
  5
F3BA
330
746E
100
AcDbSymbolTableRecord
100
AcDbRegAppTableRecord
  2
DRAWINGVARIABLESXDATA
 70
     0
  0
ENDTAB
  0
TABLE
  2
DIMSTYLE
  5
746F
330
0
100
AcDbSymbolTable
 70
     6
100
AcDbDimStyleTable
 71
     1
340
F71F
  0
DIMSTYLE
105
7484
330
746F
100
AcDbSymbolTableRecord
100
AcDbDimStyleTableRecord
  2
JIS
 70
     0
 41
2.5
 42
1.0
 43
7.0
 44
1.0
 73
     0
 74
     0
 77
     1
 78
     8
140
2.5
141
0.0
143
0.0394
147
0.0
172
     1
174
     1
175
     1
340
7475
  0
DIMSTYLE
105
F236
330
746F
100
AcDbSymbolTableRecord
100
AcDbDimStyleTableRecord
  2
INABA_S40
 70
     0
 40
40.0
 41
2.5
 42
0.5
 43
7.0
 44
1.5
 73
     0
 74
     0
 77
     3
 78
     8
140
3.0
141
0.0
143
0.0394
147
1.0
172
     1
173
     1
174
     1
175
     1
178
     7
289
     0
340
7475
341
DEAC
343
DEAC
344
DEAC
  0
DIMSTYLE
105
F71F
102
{ACAD_REACTORS
330
2CBC4
330
2CB8E
330
2CB22
330
2CB20
330
2CB1F
330
2CB14
330
2CAD6
330
2CAB9
330
2CAB3
330
2CA46
330
2CA40
330
2CA3F
330
2CA39
330
2CA38
330
2CA2C
330
2CA2A
330
2CA50
330
2CABB
330
2CA51
330
2CA45
330
2CA44
330
2CA4F
330
2CA3E
330
2D574
330
2D575
330
2D57A
330
2D57B
330
2D57C
330
2D57D
330
2D57E
330
2E070
330
2E0D0
330
2E0D3
330
2E0DA
330
2E0E2
330
2E0E3
102
}
330
746F
100
AcDbSymbolTableRecord
100
AcDbDimStyleTableRecord
  2
INABA_S40G
 70
     0
 40
40.0
 41
2.5
 42
0.5
 43
7.0
 44
1.5
 73
     0
 74
     0
 77
     3
 78
     8
140
3.0
141
0.0
143
0.0394
147
1.0
172
     1
173
     1
174
     1
178
     7
271
     1
340
F706
341
F770
343
F770
344
F770
  0
DIMSTYLE
105
142E3
330
746F
100
AcDbSymbolTableRecord
100
AcDbDimStyleTableRecord
  2
INABA_S1
 70
     0
 40
0.0
 41
2.5
 42
0.5
 43
7.0
 44
1.5
 73
     0
 74
     0
 77
     3
 78
     8
140
3.0
141
0.0
143
0.0394
146
0.5
147
0.5
172
     1
173
     1
176
   256
177
   256
178
     7
271
     2
272
     2
284
     8
288
     1
340
7475
341
DEAC
343
DEAC
344
DEAC
  0
DIMSTYLE
105
14463
330
746F
100
AcDbSymbolTableRecord
100
AcDbDimStyleTableRecord
  2
INABA_S30G
 70
     0
 40
30.0
 41
2.5
 42
0.5
 43
7.0
 44
1.5
 73
     0
 74
     0
 77
     3
 78
     8
140
3.0
141
0.0
143
0.0394
147
1.0
172
     1
173
     1
174
     1
175
     1
178
     7
271
     1
340
F706
341
F770
343
F770
344
F770
  0
DIMSTYLE
105
1758E
330
746F
100
AcDbSymbolTableRecord
100
AcDbDimStyleTableRecord
  2
INABA_S50G
 70
     0
 41
125.0
 42
25.0
 43
7.0
 44
75.0
 73
     0
 74
     0
 77
     3
 78
     8
140
150.0
141
0.0
143
0.0394
147
25.0
172
     1
173
     1
174
     1
175
     1
178
     7
271
     1
340
F706
341
F770
343
F770
344
F770
  0
ENDTAB
  0
TABLE
  2
BLOCK_RECORD
  5
7466
330
0
100
AcDbSymbolTable
 70
    55
  0
BLOCK_RECORD
  5
747D
330
7466
100
AcDbSymbolTableRecord
100
AcDbBlockTableRecord
  2
*MODEL_SPACE
340
173D5
  0
BLOCK_RECORD
  5
747A
330
7466
100
AcDbSymbolTableRecord
100
AcDbBlockTableRecord
  2
*PAPER_SPACE
340
173D6
  0
BLOCK_RECORD
  5
DEAC
330
7466
100
AcDbSymbolTableRecord
100
AcDbBlockTableRecord
  2
_OPEN
340
0
  0
BLOCK_RECORD
  5
F770
330
7466
100
AcDbSymbolTableRecord
100
AcDbBlockTableRecord
  2
_DOTSMALL
340
0
102
{BLKREFS
331
18C65
331
18C66
331
18C59
331
18C5A
331
18C4D
331
18C4E
331
18C41
331
18C42
331
18C35
331
18C36
331
18C29
331
18C2A
331
18C1D
331
18C1E
331
18C0F
331
18C10
331
18C03
331
18C04
331
18BF5
331
18BF6
331
18BE7
331
18BE8
331
18BD9
331
18BDA
331
18BCD
331
18BCE
331
2D1A0
331
2D1A1
331
2D1A9
331
2D1AA
331
2D1D6
331
2D1D7
331
2D1E0
331
2D1E1
331
2D1E9
331
2D1EA
331
2D21F
331
2D220
331
2D231
331
2D232
331
2D23B
331
2D23C
331
2D24E
331
2D24F
331
2D945
331
2D946
331
2D94F
331
2D950
331
2D964
331
2D965
331
2D96F
331
2D970
331
2D97A
331
2D97B
331
2D9A0
331
2D9A1
331
2D9A9
331
2D9AA
331
2DA57
331
2DA58
331
2DA73
331
2DA74
331
2DA7C
331
2DA7D
331
2DA85
331
2DA86
331
2DA8E
331
2DA8F
331
2DA97
331
2DA98
331
2DAA0
331
2DAA1
331
2DAA9
331
2DAAA
331
2DAB2
331
2DAB3
331
2DAC4
331
2DAC5
331
2DACD
331
2DACE
331
2DAD6
331
2DAD7
331
2DADF
331
2DAE0
331
2DAF5
331
2DAF6
331
2E13A
331
2E13B
331
2E143
331
2E144
331
2E14C
331
2E14D
331
2E155
331
2E156
331
2E160
331
2E161
331
2E169
331
2E16A
102
}
  0
BLOCK_RECORD
  5
164B4
330
7466
100
AcDbSymbolTableRecord
100
AcDbBlockTableRecord
  2
_DOT
340
0
102
{BLKREFS
331
18C73
331
18C74
102
}
  0
BLOCK_RECORD
  5
18BC8
330
7466
100
AcDbSymbolTableRecord
100
AcDbBlockTableRecord
  2
*D3
340
0
  0
BLOCK_RECORD
  5
18BD4
330
7466
100
AcDbSymbolTableRecord
100
AcDbBlockTableRecord
  2
*D4
340
0
  0
BLOCK_RECORD
  5
18BE0
330
7466
100
AcDbSymbolTableRecord
100
AcDbBlockTableRecord
  2
*D5
340
0
  0
BLOCK_RECORD
  5
18BEE
330
7466
100
AcDbSymbolTableRecord
100
AcDbBlockTableRecord
  2
*D6
340
0
  0
BLOCK_RECORD
  5
18BFC
330
7466
100
AcDbSymbolTableRecord
100
AcDbBlockTableRecord
  2
*D7
340
0
  0
BLOCK_RECORD
  5
18C0A
330
7466
100
AcDbSymbolTableRecord
100
AcDbBlockTableRecord
  2
*D8
340
0
  0
BLOCK_RECORD
  5
18C16
330
7466
100
AcDbSymbolTableRecord
100
AcDbBlockTableRecord
  2
*D9
340
0
  0
BLOCK_RECORD
  5
18C24
330
7466
100
AcDbSymbolTableRecord
100
AcDbBlockTableRecord
  2
*D10
340
0
  0
BLOCK_RECORD
  5
18C30
330
7466
100
AcDbSymbolTableRecord
100
AcDbBlockTableRecord
  2
*D11
340
0
  0
BLOCK_RECORD
  5
18C3C
330
7466
100
AcDbSymbolTableRecord
100
AcDbBlockTableRecord
  2
*D12
340
0
  0
BLOCK_RECORD
  5
18C48
330
7466
100
AcDbSymbolTableRecord
100
AcDbBlockTableRecord
  2
*D13
340
0
  0
BLOCK_RECORD
  5
18C54
330
7466
100
AcDbSymbolTableRecord
100
AcDbBlockTableRecord
  2
*D14
340
0
  0
BLOCK_RECORD
  5
18C60
330
7466
100
AcDbSymbolTableRecord
100
AcDbBlockTableRecord
  2
*D15
340
0
  0
BLOCK_RECORD
  5
18C6C
330
7466
100
AcDbSymbolTableRecord
100
AcDbBlockTableRecord
  2
*D16
340
0
  0
BLOCK_RECORD
  5
18C7A
330
7466
100
AcDbSymbolTableRecord
100
AcDbBlockTableRecord
  2
A$C3B1A506B
340
0
  0
BLOCK_RECORD
  5
1C4CA
330
7466
100
AcDbSymbolTableRecord
100
AcDbBlockTableRecord
  2
_NONE
340
0
  0
BLOCK_RECORD
  5
2CBDF
330
7466
100
AcDbSymbolTableRecord
100
AcDbBlockTableRecord
  2
*D19
340
0
  0
BLOCK_RECORD
  5
2CBEA
330
7466
100
AcDbSymbolTableRecord
100
AcDbBlockTableRecord
  2
*D20
340
0
  0
BLOCK_RECORD
  5
2CC04
330
7466
100
AcDbSymbolTableRecord
100
AcDbBlockTableRecord
  2
*D21
340
0
  0
BLOCK_RECORD
  5
2CC1B
330
7466
100
AcDbSymbolTableRecord
100
AcDbBlockTableRecord
  2
*D22
340
0
  0
BLOCK_RECORD
  5
2CC34
330
7466
100
AcDbSymbolTableRecord
100
AcDbBlockTableRecord
  2
*D23
340
0
  0
BLOCK_RECORD
  5
2CC40
330
7466
100
AcDbSymbolTableRecord
100
AcDbBlockTableRecord
  2
*D24
340
0
  0
BLOCK_RECORD
  5
2CC4C
330
7466
100
AcDbSymbolTableRecord
100
AcDbBlockTableRecord
  2
*D25
340
0
  0
BLOCK_RECORD
  5
2CC58
330
7466
100
AcDbSymbolTableRecord
100
AcDbBlockTableRecord
  2
*D26
340
0
  0
BLOCK_RECORD
  5
2CC64
330
7466
100
AcDbSymbolTableRecord
100
AcDbBlockTableRecord
  2
*D27
340
0
  0
BLOCK_RECORD
  5
2CC7D
330
7466
100
AcDbSymbolTableRecord
100
AcDbBlockTableRecord
  2
*D28
340
0
  0
BLOCK_RECORD
  5
2CC97
330
7466
100
AcDbSymbolTableRecord
100
AcDbBlockTableRecord
  2
*D29
340
0
  0
BLOCK_RECORD
  5
2CCA3
330
7466
100
AcDbSymbolTableRecord
100
AcDbBlockTableRecord
  2
*D30
340
0
  0
BLOCK_RECORD
  5
2CCAF
330
7466
100
AcDbSymbolTableRecord
100
AcDbBlockTableRecord
  2
*D31
340
0
  0
BLOCK_RECORD
  5
2CCBA
330
7466
100
AcDbSymbolTableRecord
100
AcDbBlockTableRecord
  2
*D32
340
0
  0
BLOCK_RECORD
  5
2CCC6
330
7466
100
AcDbSymbolTableRecord
100
AcDbBlockTableRecord
  2
*D33
340
0
  0
BLOCK_RECORD
  5
2CCD2
330
7466
100
AcDbSymbolTableRecord
100
AcDbBlockTableRecord
  2
*D34
340
0
  0
BLOCK_RECORD
  5
2CCDE
330
7466
100
AcDbSymbolTableRecord
100
AcDbBlockTableRecord
  2
*D35
340
0
  0
BLOCK_RECORD
  5
2CCE9
330
7466
100
AcDbSymbolTableRecord
100
AcDbBlockTableRecord
  2
*D36
340
0
  0
BLOCK_RECORD
  5
2CCF5
330
7466
100
AcDbSymbolTableRecord
100
AcDbBlockTableRecord
  2
*D37
340
0
  0
BLOCK_RECORD
  5
2CD01
330
7466
100
AcDbSymbolTableRecord
100
AcDbBlockTableRecord
  2
*D38
340
0
  0
BLOCK_RECORD
  5
2CD19
330
7466
100
AcDbSymbolTableRecord
100
AcDbBlockTableRecord
  2
*D39
340
0
  0
BLOCK_RECORD
  5
2CD25
330
7466
100
AcDbSymbolTableRecord
100
AcDbBlockTableRecord
  2
*D40
340
0
  0
BLOCK_RECORD
  5
2CD31
330
7466
100
AcDbSymbolTableRecord
100
AcDbBlockTableRecord
  2
*D41
340
0
  0
BLOCK_RECORD
  5
2D6E1
330
7466
100
AcDbSymbolTableRecord
100
AcDbBlockTableRecord
  2
*D42
340
0
  0
BLOCK_RECORD
  5
2D6EF
330
7466
100
AcDbSymbolTableRecord
100
AcDbBlockTableRecord
  2
*D43
340
0
  0
BLOCK_RECORD
  5
2D6FD
330
7466
100
AcDbSymbolTableRecord
100
AcDbBlockTableRecord
  2
*D44
340
0
  0
BLOCK_RECORD
  5
2D70B
330
7466
100
AcDbSymbolTableRecord
100
AcDbBlockTableRecord
  2
*D45
340
0
  0
BLOCK_RECORD
  5
2D719
330
7466
100
AcDbSymbolTableRecord
100
AcDbBlockTableRecord
  2
*D46
340
0
  0
BLOCK_RECORD
  5
2D726
330
7466
100
AcDbSymbolTableRecord
100
AcDbBlockTableRecord
  2
*D47
340
0
  0
BLOCK_RECORD
  5
2D733
330
7466
100
AcDbSymbolTableRecord
100
AcDbBlockTableRecord
  2
*D48
340
0
  0
BLOCK_RECORD
  5
2E0ED
330
7466
100
AcDbSymbolTableRecord
100
AcDbBlockTableRecord
  2
*D49
340
0
  0
BLOCK_RECORD
  5
2E0F9
330
7466
100
AcDbSymbolTableRecord
100
AcDbBlockTableRecord
  2
*D50
340
0
  0
BLOCK_RECORD
  5
2E105
330
7466
100
AcDbSymbolTableRecord
100
AcDbBlockTableRecord
  2
*D51
340
0
  0
BLOCK_RECORD
  5
2E111
330
7466
100
AcDbSymbolTableRecord
100
AcDbBlockTableRecord
  2
*D52
340
0
  0
BLOCK_RECORD
  5
2E11D
330
7466
100
AcDbSymbolTableRecord
100
AcDbBlockTableRecord
  2
*D53
340
0
  0
BLOCK_RECORD
  5
2E12B
330
7466
100
AcDbSymbolTableRecord
100
AcDbBlockTableRecord
  2
*D54
340
0
  0
ENDTAB
  0
ENDSEC
  0
SECTION
  2
BLOCKS
  0
BLOCK
  5
7489
330
747D
100
AcDbEntity
  8
0
100
AcDbBlockBegin
  2
*MODEL_SPACE
 70
     0
 10
0.0
 20
0.0
 30
0.0
  3
*MODEL_SPACE
  1

  0
ENDBLK
  5
748A
330
747D
100
AcDbEntity
  8
0
100
AcDbBlockEnd
  0
BLOCK
  5
7487
330
747A
100
AcDbEntity
 67
     1
  8
0
100
AcDbBlockBegin
  2
*PAPER_SPACE
 70
     0
 10
0.0
 20
0.0
 30
0.0
  3
*PAPER_SPACE
  1

  0
ENDBLK
  5
7488
330
747A
100
AcDbEntity
 67
     1
  8
0
100
AcDbBlockEnd
  0
BLOCK
  5
DEAD
330
DEAC
100
AcDbEntity
  8
0
100
AcDbBlockBegin
  2
_OPEN
 70
     0
 10
0.0
 20
0.0
 30
0.0
  3
_OPEN
  1

  0
LINE
  5
DEAE
330
DEAC
100
AcDbEntity
  8
0
  6
ByBlock
 62
     0
100
AcDbLine
 10
-1.0
 20
0.1666666666666666
 30
0.0
 11
0.0
 21
0.0
 31
0.0
  0
LINE
  5
DEAF
330
DEAC
100
AcDbEntity
  8
0
  6
ByBlock
 62
     0
100
AcDbLine
 10
0.0
 20
0.0
 30
0.0
 11
-1.0
 21
-0.1666666666666666
 31
0.0
  0
LINE
  5
DEB0
330
DEAC
100
AcDbEntity
  8
0
  6
ByBlock
 62
     0
100
AcDbLine
 10
0.0
 20
0.0
 30
0.0
 11
-1.0
 21
0.0
 31
0.0
  0
ENDBLK
  5
DEB1
330
DEAC
100
AcDbEntity
  8
0
100
AcDbBlockEnd
  0
BLOCK
  5
F771
330
F770
100
AcDbEntity
  8
0
 48
50.0
100
AcDbBlockBegin
  2
_DOTSMALL
 70
     0
 10
0.0
 20
0.0
 30
0.0
  3
_DOTSMALL
  1

  0
LWPOLYLINE
  5
F772
330
F770
100
AcDbEntity
  8
0
  6
ByBlock
 62
     0
 48
50.0
100
AcDbPolyline
 90
        2
 70
     1
 43
0.5
 10
-0.0625
 20
0.0
 42
1.0
 10
0.0625
 20
0.0
 42
1.0
  0
ENDBLK
  5
F776
330
F770
100
AcDbEntity
  8
0
 48
50.0
100
AcDbBlockEnd
  0
BLOCK
  5
164BA
330
164B4
100
AcDbEntity
  8
0
 48
50.0
100
AcDbBlockBegin
  2
_DOT
 70
     0
 10
0.0
 20
0.0
 30
0.0
  3
_DOT
  1

  0
LWPOLYLINE
  5
164B5
330
164B4
100
AcDbEntity
  8
0
  6
ByBlock
 62
     0
 48
50.0
100
AcDbPolyline
 90
        2
 70
     1
 43
0.5
 10
-0.25
 20
0.0
 42
1.0
 10
0.25
 20
0.0
 42
1.0
  0
LINE
  5
164B9
330
164B4
100
AcDbEntity
  8
0
  6
ByBlock
 62
     0
 48
50.0
100
AcDbLine
 10
-0.5
 20
0.0
 30
0.0
 11
-1.0
 21
0.0
 31
0.0
  0
ENDBLK
  5
164BB
330
164B4
100
AcDbEntity
  8
0
 48
50.0
100
AcDbBlockEnd
  0
BLOCK
  5
18BC9
330
18BC8
100
AcDbEntity
  8
0
 48
50.0
100
AcDbBlockBegin
  2
*D3
 70
     1
 10
0.0
 20
0.0
 30
0.0
  3
*D3
  1

  0
LINE
  5
18BCA
330
18BC8
100
AcDbEntity
  8
寸法
 62
     0
 48
50.0
370
    -2
100
AcDbLine
 10
7649.896575106999
 20
9636.123139034717
 30
0.0
 11
8702.429862581047
 21
9636.123139034717
 31
0.0
  0
LINE
  5
18BCB
330
18BC8
100
AcDbEntity
  8
寸法
 62
     0
 48
50.0
370
    -2
100
AcDbLine
 10
7649.896575106973
 20
7846.123139034709
 30
0.0
 11
8702.429862581047
 21
7846.123139034709
 31
0.0
  0
LINE
  5
18BCC
330
18BC8
100
AcDbEntity
  8
寸法
 62
     0
 48
50.0
370
    -2
100
AcDbLine
 10
8642.429862581046
 20
9636.123139034717
 30
0.0
 11
8642.429862581046
 21
7846.123139034709
 31
0.0
  0
INSERT
  5
18BCD
330
18BC8
100
AcDbEntity
  8
寸法
 62
     0
 48
50.0
370
    -2
100
AcDbBlockReference
  2
_DOTSMALL
 10
8642.429862581046
 20
9636.123139034717
 30
0.0
 41
100.0
 42
100.0
 43
100.0
 50
90.0
  0
INSERT
  5
18BCE
330
18BC8
100
AcDbEntity
  8
寸法
 62
     0
 48
50.0
370
    -2
100
AcDbBlockReference
  2
_DOTSMALL
 10
8642.429862581046
 20
7846.123139034709
 30
0.0
 41
100.0
 42
100.0
 43
100.0
 50
270.0
  0
MTEXT
  5
18BCF
330
18BC8
100
AcDbEntity
  8
寸法
 62
     7
 48
50.0
100
AcDbMText
 10
8542.429862581045
 20
8741.123139034712
 30
0.0
 40
120.0
 41
0.0
 71
     5
 72
     1
  1
\A1;1790
  7
STYLE1
 11
0.0000000000000001
 21
1.0
 31
0.0
 73
     1
 44
1.0
1001
ACAD
1000
MTEXTBEGIN
1070
    73
1070
     1
1070
    44
1040
1.0
1070
    74
1070
     0
1000
MTEXTEND
  0
POINT
  5
18BD0
330
18BC8
100
AcDbEntity
  8
DEFPOINTS
 62
     0
 48
50.0
100
AcDbPoint
 10
7629.896575106998
 20
9636.123139034717
 30
0.0
  0
POINT
  5
18BD1
330
18BC8
100
AcDbEntity
  8
DEFPOINTS
 62
     0
 48
50.0
100
AcDbPoint
 10
7629.896575106974
 20
7846.123139034709
 30
0.0
  0
POINT
  5
18BD2
330
18BC8
100
AcDbEntity
  8
DEFPOINTS
 62
     0
 48
50.0
100
AcDbPoint
 10
8642.429862581046
 20
7846.123139034709
 30
0.0
  0
ENDBLK
  5
18BD3
330
18BC8
100
AcDbEntity
  8
0
 48
50.0
100
AcDbBlockEnd
  0
BLOCK
  5
18BD5
330
18BD4
100
AcDbEntity
  8
0
 48
50.0
100
AcDbBlockBegin
  2
*D4
 70
     1
 10
0.0
 20
0.0
 30
0.0
  3
*D4
  1

  0
LINE
  5
18BD6
330
18BD4
100
AcDbEntity
  8
寸法
 62
     0
 48
50.0
370
    -2
100
AcDbLine
 10
4214.896575106998
 20
9656.123139034622
 30
0.0
 11
4214.896575106998
 21
10211.93135865972
 31
0.0
  0
LINE
  5
18BD7
330
18BD4
100
AcDbEntity
  8
寸法
 62
     0
 48
50.0
370
    -2
100
AcDbLine
 10
7574.896575106999
 20
9656.123139034718
 30
0.0
 11
7574.896575106999
 21
10211.93135865972
 31
0.0
  0
LINE
  5
18BD8
330
18BD4
100
AcDbEntity
  8
寸法
 62
     0
 48
50.0
370
    -2
100
AcDbLine
 10
4214.896575106998
 20
10151.93135865972
 30
0.0
 11
7574.896575106999
 21
10151.93135865972
 31
0.0
  0
INSERT
  5
18BD9
330
18BD4
100
AcDbEntity
  8
寸法
 62
     0
 48
50.0
370
    -2
100
AcDbBlockReference
  2
_DOTSMALL
 10
4214.896575106998
 20
10151.93135865972
 30
0.0
 41
100.0
 42
100.0
 43
100.0
 50
180.0
  0
INSERT
  5
18BDA
330
18BD4
100
AcDbEntity
  8
寸法
 62
     0
 48
50.0
370
    -2
100
AcDbBlockReference
  2
_DOTSMALL
 10
7574.896575106999
 20
10151.93135865972
 30
0.0
 41
100.0
 42
100.0
 43
100.0
  0
MTEXT
  5
18BDB
330
18BD4
100
AcDbEntity
  8
寸法
 62
     7
 48
50.0
100
AcDbMText
 10
5894.896575106997
 20
10251.94316968334
 30
0.0
 40
120.0
 41
0.0
 71
     5
 72
     1
  1
\A1;8X420=3360
  7
STYLE1
 73
     1
 44
1.0
1001
ACAD
1000
MTEXTBEGIN
1070
    73
1070
     1
1070
    44
1040
1.0
1070
    74
1070
     0
1000
MTEXTEND
  0
POINT
  5
18BDC
330
18BD4
100
AcDbEntity
  8
DEFPOINTS
 62
     0
 48
50.0
100
AcDbPoint
 10
4214.896575106998
 20
9636.123139034623
 30
0.0
  0
POINT
  5
18BDD
330
18BD4
100
AcDbEntity
  8
DEFPOINTS
 62
     0
 48
50.0
100
AcDbPoint
 10
7574.896575106999
 20
9636.123139034717
 30
0.0
  0
POINT
  5
18BDE
330
18BD4
100
AcDbEntity
  8
DEFPOINTS
 62
     0
 48
50.0
100
AcDbPoint
 10
7574.896575106999
 20
10151.93135865972
 30
0.0
  0
ENDBLK
  5
18BDF
330
18BD4
100
AcDbEntity
  8
0
 48
50.0
100
AcDbBlockEnd
  0
BLOCK
  5
18BE1
330
18BE0
100
AcDbEntity
  8
0
 48
50.0
100
AcDbBlockBegin
  2
*D5
 70
     1
 10
0.0
 20
0.0
 30
0.0
  3
*D5
  1

  0
LINE
  5
18BE2
330
18BE0
100
AcDbEntity
  8
寸法
 62
     0
 48
50.0
370
    -2
100
AcDbLine
 10
7574.896575106999
 20
9656.123139034718
 30
0.0
 11
7574.896575106999
 21
10211.9313586597
 31
0.0
  0
LINE
  5
18BE3
330
18BE0
100
AcDbEntity
  8
寸法
 62
     0
 48
50.0
370
    -2
100
AcDbLine
 10
7629.896575106998
 20
9656.123139034718
 30
0.0
 11
7629.896575106998
 21
10211.9313586597
 31
0.0
  0
LINE
  5
18BE4
330
18BE0
100
AcDbEntity
  8
寸法
 62
     0
 48
50.0
370
    -2
100
AcDbLine
 10
7574.896575106999
 20
10151.9313586597
 30
0.0
 11
7474.896575106999
 21
10151.9313586597
 31
0.0
  0
LINE
  5
18BE5
330
18BE0
100
AcDbEntity
  8
寸法
 62
     0
 48
50.0
370
    -2
100
AcDbLine
 10
7629.896575106998
 20
10151.9313586597
 30
0.0
 11
8046.867137855477
 21
10151.9313586597
 31
0.0
  0
LINE
  5
18BE6
330
18BE0
100
AcDbEntity
  8
寸法
 62
     0
 48
50.0
370
    -2
100
AcDbLine
 10
7574.896575106999
 20
10151.9313586597
 30
0.0
 11
7629.896575106998
 21
10151.9313586597
 31
0.0
  0
INSERT
  5
18BE7
330
18BE0
100
AcDbEntity
  8
寸法
 62
     0
 48
50.0
370
    -2
100
AcDbBlockReference
  2
_DOTSMALL
 10
7574.896575106999
 20
10151.9313586597
 30
0.0
 41
100.0
 42
100.0
 43
100.0
  0
INSERT
  5
18BE8
330
18BE0
100
AcDbEntity
  8
寸法
 62
     0
 48
50.0
370
    -2
100
AcDbBlockReference
  2
_DOTSMALL
 10
7629.896575106998
 20
10151.9313586597
 30
0.0
 41
100.0
 42
100.0
 43
100.0
 50
180.0
  0
MTEXT
  5
18BE9
330
18BE0
100
AcDbEntity
  8
寸法
 62
     7
 48
50.0
100
AcDbMText
 10
7938.381856481237
 20
10251.9313586597
 30
0.0
 40
120.0
 41
0.0
 71
     5
 72
     1
  1
\A1;55
  7
STYLE1
 73
     1
 44
1.0
1001
ACAD
1000
MTEXTBEGIN
1070
    73
1070
     1
1070
    44
1040
1.0
1070
    74
1070
     0
1000
MTEXTEND
  0
POINT
  5
18BEA
330
18BE0
100
AcDbEntity
  8
DEFPOINTS
 62
     0
 48
50.0
100
AcDbPoint
 10
7574.896575106999
 20
9636.123139034717
 30
0.0
  0
POINT
  5
18BEB
330
18BE0
100
AcDbEntity
  8
DEFPOINTS
 62
     0
 48
50.0
100
AcDbPoint
 10
7629.896575106998
 20
9636.123139034717
 30
0.0
  0
POINT
  5
18BEC
330
18BE0
100
AcDbEntity
  8
DEFPOINTS
 62
     0
 48
50.0
100
AcDbPoint
 10
7629.896575106998
 20
10151.9313586597
 30
0.0
  0
ENDBLK
  5
18BED
330
18BE0
100
AcDbEntity
  8
0
 48
50.0
100
AcDbBlockEnd
  0
BLOCK
  5
18BEF
330
18BEE
100
AcDbEntity
  8
0
 48
50.0
100
AcDbBlockBegin
  2
*D6
 70
     1
 10
0.0
 20
0.0
 30
0.0
  3
*D6
  1

  0
LINE
  5
18BF0
330
18BEE
100
AcDbEntity
  8
寸法
 62
     0
 48
50.0
370
    -2
100
AcDbLine
 10
7649.896575106999
 20
9636.123139034717
 30
0.0
 11
8337.32292084141
 21
9636.123139034717
 31
0.0
  0
LINE
  5
18BF1
330
18BEE
100
AcDbEntity
  8
寸法
 62
     0
 48
50.0
370
    -2
100
AcDbLine
 10
7649.896575106999
 20
9581.123139034721
 30
0.0
 11
8337.32292084141
 21
9581.123139034721
 31
0.0
  0
LINE
  5
18BF2
330
18BEE
100
AcDbEntity
  8
寸法
 62
     0
 48
50.0
370
    -2
100
AcDbLine
 10
8277.322920841411
 20
9581.123139034721
 30
0.0
 11
8277.322920841411
 21
9481.123139034719
 31
0.0
  0
LINE
  5
18BF3
330
18BEE
100
AcDbEntity
  8
寸法
 62
     0
 48
50.0
370
    -2
100
AcDbLine
 10
8277.322920841411
 20
9636.123139034717
 30
0.0
 11
8277.322920841411
 21
10053.09370178319
 31
0.0
  0
LINE
  5
18BF4
330
18BEE
100
AcDbEntity
  8
寸法
 62
     0
 48
50.0
370
    -2
100
AcDbLine
 10
8277.322920841411
 20
9581.123139034721
 30
0.0
 11
8277.322920841411
 21
9636.123139034717
 31
0.0
  0
INSERT
  5
18BF5
330
18BEE
100
AcDbEntity
  8
寸法
 62
     0
 48
50.0
370
    -2
100
AcDbBlockReference
  2
_DOTSMALL
 10
8277.322920841411
 20
9581.123139034721
 30
0.0
 41
100.0
 42
100.0
 43
100.0
 50
90.0
  0
INSERT
  5
18BF6
330
18BEE
100
AcDbEntity
  8
寸法
 62
     0
 48
50.0
370
    -2
100
AcDbBlockReference
  2
_DOTSMALL
 10
8277.322920841411
 20
9636.123139034717
 30
0.0
 41
100.0
 42
100.0
 43
100.0
 50
270.0
  0
MTEXT
  5
18BF7
330
18BEE
100
AcDbEntity
  8
寸法
 62
     7
 48
50.0
100
AcDbMText
 10
8177.32292084141
 20
9944.608420408957
 30
0.0
 40
120.0
 41
0.0
 71
     5
 72
     1
  1
\A1;55
  7
STYLE1
 11
0.0000000000000001
 21
1.0
 31
0.0
 73
     1
 44
1.0
1001
ACAD
1000
MTEXTBEGIN
1070
    73
1070
     1
1070
    44
1040
1.0
1070
    74
1070
     0
1000
MTEXTEND
  0
POINT
  5
18BF8
330
18BEE
100
AcDbEntity
  8
DEFPOINTS
 62
     0
 48
50.0
100
AcDbPoint
 10
7629.896575106998
 20
9636.123139034717
 30
0.0
  0
POINT
  5
18BF9
330
18BEE
100
AcDbEntity
  8
DEFPOINTS
 62
     0
 48
50.0
100
AcDbPoint
 10
7629.896575106998
 20
9581.123139034721
 30
0.0
  0
POINT
  5
18BFA
330
18BEE
100
AcDbEntity
  8
DEFPOINTS
 62
     0
 48
50.0
100
AcDbPoint
 10
8277.322920841411
 20
9581.123139034721
 30
0.0
  0
ENDBLK
  5
18BFB
330
18BEE
100
AcDbEntity
  8
0
 48
50.0
100
AcDbBlockEnd
  0
BLOCK
  5
18BFD
330
18BFC
100
AcDbEntity
  8
0
 48
50.0
100
AcDbBlockBegin
  2
*D7
 70
     1
 10
0.0
 20
0.0
 30
0.0
  3
*D7
  1

  0
LINE
  5
18BFE
330
18BFC
100
AcDbEntity
  8
寸法
 62
     0
 48
50.0
370
    -2
100
AcDbLine
 10
4159.896575106963
 20
9656.123139034622
 30
0.0
 11
4159.896575106963
 21
10211.9313586596
 31
0.0
  0
LINE
  5
18BFF
330
18BFC
100
AcDbEntity
  8
寸法
 62
     0
 48
50.0
370
    -2
100
AcDbLine
 10
4214.896575106998
 20
9656.123139034622
 30
0.0
 11
4214.896575106998
 21
10211.9313586596
 31
0.0
  0
LINE
  5
18C00
330
18BFC
100
AcDbEntity
  8
寸法
 62
     0
 48
50.0
370
    -2
100
AcDbLine
 10
4214.896575106998
 20
10151.9313586596
 30
0.0
 11
4314.896575106998
 21
10151.9313586596
 31
0.0
  0
LINE
  5
18C01
330
18BFC
100
AcDbEntity
  8
寸法
 62
     0
 48
50.0
370
    -2
100
AcDbLine
 10
4159.896575106963
 20
10151.9313586596
 30
0.0
 11
3742.926012358486
 21
10151.9313586596
 31
0.0
  0
LINE
  5
18C02
330
18BFC
100
AcDbEntity
  8
寸法
 62
     0
 48
50.0
370
    -2
100
AcDbLine
 10
4214.896575106998
 20
10151.9313586596
 30
0.0
 11
4159.896575106963
 21
10151.9313586596
 31
0.0
  0
INSERT
  5
18C03
330
18BFC
100
AcDbEntity
  8
寸法
 62
     0
 48
50.0
370
    -2
100
AcDbBlockReference
  2
_DOTSMALL
 10
4214.896575106998
 20
10151.9313586596
 30
0.0
 41
100.0
 42
100.0
 43
100.0
 50
180.0
  0
INSERT
  5
18C04
330
18BFC
100
AcDbEntity
  8
寸法
 62
     0
 48
50.0
370
    -2
100
AcDbBlockReference
  2
_DOTSMALL
 10
4159.896575106963
 20
10151.9313586596
 30
0.0
 41
100.0
 42
100.0
 43
100.0
  0
MTEXT
  5
18C05
330
18BFC
100
AcDbEntity
  8
寸法
 62
     7
 48
50.0
100
AcDbMText
 10
3851.411293732725
 20
10251.9313586596
 30
0.0
 40
120.0
 41
0.0
 71
     5
 72
     1
  1
\A1;55
  7
STYLE1
 73
     1
 44
1.0
1001
ACAD
1000
MTEXTBEGIN
1070
    73
1070
     1
1070
    44
1040
1.0
1070
    74
1070
     0
1000
MTEXTEND
  0
POINT
  5
18C06
330
18BFC
100
AcDbEntity
  8
DEFPOINTS
 62
     0
 48
50.0
100
AcDbPoint
 10
4159.896575106963
 20
9636.123139034623
 30
0.0
  0
POINT
  5
18C07
330
18BFC
100
AcDbEntity
  8
DEFPOINTS
 62
     0
 48
50.0
100
AcDbPoint
 10
4214.896575106998
 20
9636.123139034623
 30
0.0
  0
POINT
  5
18C08
330
18BFC
100
AcDbEntity
  8
DEFPOINTS
 62
     0
 48
50.0
100
AcDbPoint
 10
4214.896575106998
 20
10151.9313586596
 30
0.0
  0
ENDBLK
  5
18C09
330
18BFC
100
AcDbEntity
  8
0
 48
50.0
100
AcDbBlockEnd
  0
BLOCK
  5
18C0B
330
18C0A
100
AcDbEntity
  8
0
 48
50.0
100
AcDbBlockBegin
  2
*D8
 70
     1
 10
0.0
 20
0.0
 30
0.0
  3
*D8
  1

  0
LINE
  5
18C0C
330
18C0A
100
AcDbEntity
  8
寸法
 62
     0
 48
50.0
370
    -2
100
AcDbLine
 10
4159.896575106992
 20
7826.123139034546
 30
0.0
 11
4159.896575106992
 21
6804.372203245664
 31
0.0
  0
LINE
  5
18C0D
330
18C0A
100
AcDbEntity
  8
寸法
 62
     0
 48
50.0
370
    -2
100
AcDbLine
 10
7629.896575106974
 20
7826.123139034674
 30
0.0
 11
7629.896575106974
 21
6804.372203245664
 31
0.0
  0
LINE
  5
18C0E
330
18C0A
100
AcDbEntity
  8
寸法
 62
     0
 48
50.0
370
    -2
100
AcDbLine
 10
4159.896575106992
 20
6864.372203245665
 30
0.0
 11
7629.896575106974
 21
6864.372203245665
 31
0.0
  0
INSERT
  5
18C0F
330
18C0A
100
AcDbEntity
  8
寸法
 62
     0
 48
50.0
370
    -2
100
AcDbBlockReference
  2
_DOTSMALL
 10
4159.896575106992
 20
6864.372203245665
 30
0.0
 41
100.0
 42
100.0
 43
100.0
 50
180.0
  0
INSERT
  5
18C10
330
18C0A
100
AcDbEntity
  8
寸法
 62
     0
 48
50.0
370
    -2
100
AcDbBlockReference
  2
_DOTSMALL
 10
7629.896575106974
 20
6864.372203245665
 30
0.0
 41
100.0
 42
100.0
 43
100.0
  0
MTEXT
  5
18C11
330
18C0A
100
AcDbEntity
  8
寸法
 62
     7
 48
50.0
100
AcDbMText
 10
5911.12376113973
 20
6964.372203245665
 30
0.0
 40
120.0
 41
0.0
 71
     5
 72
     1
  1
\A1;3470
  7
STYLE1
 73
     1
 44
1.0
1001
ACAD
1000
MTEXTBEGIN
1070
    73
1070
     1
1070
    44
1040
1.0
1070
    74
1070
     0
1000
MTEXTEND
  0
POINT
  5
18C12
330
18C0A
100
AcDbEntity
  8
DEFPOINTS
 62
     0
 48
50.0
100
AcDbPoint
 10
4159.896575106992
 20
7846.123139034546
 30
0.0
  0
POINT
  5
18C13
330
18C0A
100
AcDbEntity
  8
DEFPOINTS
 62
     0
 48
50.0
100
AcDbPoint
 10
7629.896575106974
 20
7846.123139034673
 30
0.0
  0
POINT
  5
18C14
330
18C0A
100
AcDbEntity
  8
DEFPOINTS
 62
     0
 48
50.0
100
AcDbPoint
 10
7629.896575106974
 20
6864.372203245665
 30
0.0
  0
ENDBLK
  5
18C15
330
18C0A
100
AcDbEntity
  8
0
 48
50.0
100
AcDbBlockEnd
  0
BLOCK
  5
18C17
330
18C16
100
AcDbEntity
  8
0
 48
50.0
100
AcDbBlockBegin
  2
*D9
 70
     1
 10
0.0
 20
0.0
 30
0.0
  3
*D9
  1

  0
LINE
  5
18C18
330
18C16
100
AcDbEntity
  8
寸法
 62
     0
 48
50.0
370
    -2
100
AcDbLine
 10
7649.896575106973
 20
7901.123139034706
 30
0.0
 11
8337.322920841385
 21
7901.123139034706
 31
0.0
  0
LINE
  5
18C19
330
18C16
100
AcDbEntity
  8
寸法
 62
     0
 48
50.0
370
    -2
100
AcDbLine
 10
7649.896575106973
 20
7846.123139034709
 30
0.0
 11
8337.322920841385
 21
7846.123139034709
 31
0.0
  0
LINE
  5
18C1A
330
18C16
100
AcDbEntity
  8
寸法
 62
     0
 48
50.0
370
    -2
100
AcDbLine
 10
8277.322920841385
 20
7901.123139034706
 30
0.0
 11
8277.322920841385
 21
8001.123139034707
 31
0.0
  0
LINE
  5
18C1B
330
18C16
100
AcDbEntity
  8
寸法
 62
     0
 48
50.0
370
    -2
100
AcDbLine
 10
8277.322920841385
 20
7846.123139034709
 30
0.0
 11
8277.322920841385
 21
7429.152576286229
 31
0.0
  0
LINE
  5
18C1C
330
18C16
100
AcDbEntity
  8
寸法
 62
     0
 48
50.0
370
    -2
100
AcDbLine
 10
8277.322920841385
 20
7901.123139034706
 30
0.0
 11
8277.322920841385
 21
7846.123139034709
 31
0.0
  0
INSERT
  5
18C1D
330
18C16
100
AcDbEntity
  8
寸法
 62
     0
 48
50.0
370
    -2
100
AcDbBlockReference
  2
_DOTSMALL
 10
8277.322920841385
 20
7901.123139034706
 30
0.0
 41
100.0
 42
100.0
 43
100.0
 50
270.0
  0
INSERT
  5
18C1E
330
18C16
100
AcDbEntity
  8
寸法
 62
     0
 48
50.0
370
    -2
100
AcDbBlockReference
  2
_DOTSMALL
 10
8277.322920841385
 20
7846.123139034709
 30
0.0
 41
100.0
 42
100.0
 43
100.0
 50
90.0
  0
MTEXT
  5
18C1F
330
18C16
100
AcDbEntity
  8
寸法
 62
     7
 48
50.0
100
AcDbMText
 10
8177.322920841383
 20
7537.637857660469
 30
0.0
 40
120.0
 41
0.0
 71
     5
 72
     1
  1
\A1;55
  7
STYLE1
 11
0.0000000000000001
 21
1.0
 31
0.0
 73
     1
 44
1.0
1001
ACAD
1000
MTEXTBEGIN
1070
    73
1070
     1
1070
    44
1040
1.0
1070
    74
1070
     0
1000
MTEXTEND
  0
POINT
  5
18C20
330
18C16
100
AcDbEntity
  8
DEFPOINTS
 62
     0
 48
50.0
100
AcDbPoint
 10
7629.896575106974
 20
7901.123139034706
 30
0.0
  0
POINT
  5
18C21
330
18C16
100
AcDbEntity
  8
DEFPOINTS
 62
     0
 48
50.0
100
AcDbPoint
 10
7629.896575106974
 20
7846.123139034709
 30
0.0
  0
POINT
  5
18C22
330
18C16
100
AcDbEntity
  8
DEFPOINTS
 62
     0
 48
50.0
100
AcDbPoint
 10
8277.322920841385
 20
7846.123139034709
 30
0.0
  0
ENDBLK
  5
18C23
330
18C16
100
AcDbEntity
  8
0
 48
50.0
100
AcDbBlockEnd
  0
BLOCK
  5
18C25
330
18C24
100
AcDbEntity
  8
0
 48
50.0
100
AcDbBlockBegin
  2
*D10
 70
     1
 10
0.0
 20
0.0
 30
0.0
  3
*D10
  1

  0
LINE
  5
18C26
330
18C24
100
AcDbEntity
  8
寸法
 62
     0
 48
50.0
370
    -2
100
AcDbLine
 10
6533.037591258376
 20
9136.123139034728
 30
0.0
 11
6465.083950562664
 21
8882.516699399049
 31
0.0
  0
LINE
  5
18C27
330
18C24
100
AcDbEntity
  8
寸法
 62
     0
 48
50.0
370
    -2
100
AcDbLine
 10
7596.037591258388
 20
9136.123139034721
 30
0.0
 11
7528.083950562677
 21
8882.516699399049
 31
0.0
  0
LINE
  5
18C28
330
18C24
100
AcDbEntity
  8
寸法
 62
     0
 48
50.0
370
    -2
100
AcDbLine
 10
6481.160902108531
 20
8942.51669939905
 30
0.0
 11
7544.160902108544
 21
8942.51669939905
 31
0.0
  0
INSERT
  5
18C29
330
18C24
100
AcDbEntity
  8
寸法
 62
     0
 48
50.0
370
    -2
100
AcDbBlockReference
  2
_DOTSMALL
 10
6481.160902108531
 20
8942.51669939905
 30
0.0
 41
100.0
 42
100.0
 43
100.0
 50
180.0
  0
INSERT
  5
18C2A
330
18C24
100
AcDbEntity
  8
寸法
 62
     0
 48
50.0
370
    -2
100
AcDbBlockReference
  2
_DOTSMALL
 10
7544.160902108544
 20
8942.51669939905
 30
0.0
 41
100.0
 42
100.0
 43
100.0
  0
MTEXT
  5
18C2B
330
18C24
100
AcDbEntity
  8
寸法
 62
     7
 48
50.0
100
AcDbMText
 10
7061.28653022935
 20
9042.516699399049
 30
0.0
 40
120.0
 41
0.0
 71
     5
 72
     1
  1
\A1;1063
  7
STYLE1
 73
     1
 44
1.0
1001
ACAD
1000
MTEXTBEGIN
1070
    73
1070
     1
1070
    44
1040
1.0
1070
    74
1070
     0
1000
MTEXTEND
  0
POINT
  5
18C2C
330
18C24
100
AcDbEntity
  8
DEFPOINTS
 62
     0
 48
50.0
100
AcDbPoint
 10
6538.396575106998
 20
9156.123139034727
 30
0.0
  0
POINT
  5
18C2D
330
18C24
100
AcDbEntity
  8
DEFPOINTS
 62
     0
 48
50.0
100
AcDbPoint
 10
7601.39657510701
 20
9156.12313903472
 30
0.0
  0
POINT
  5
18C2E
330
18C24
100
AcDbEntity
  8
DEFPOINTS
 62
     0
 48
50.0
100
AcDbPoint
 10
7544.160902108544
 20
8942.51669939905
 30
0.0
  0
ENDBLK
  5
18C2F
330
18C24
100
AcDbEntity
  8
0
 48
50.0
100
AcDbBlockEnd
  0
BLOCK
  5
18C31
330
18C30
100
AcDbEntity
  8
0
 48
50.0
100
AcDbBlockBegin
  2
*D11
 70
     1
 10
0.0
 20
0.0
 30
0.0
  3
*D11
  1

  0
LINE
  5
18C32
330
18C30
100
AcDbEntity
  8
寸法
 62
     0
 48
50.0
370
    -2
100
AcDbLine
 10
7621.396575106999
 20
9600.764155186094
 30
0.0
 11
8016.754300969024
 21
9494.828371819961
 31
0.0
  0
LINE
  5
18C33
330
18C30
100
AcDbEntity
  8
寸法
 62
     0
 48
50.0
370
    -2
100
AcDbLine
 10
7621.396575106999
 20
9150.764155186099
 30
0.0
 11
8016.754300969024
 21
9044.828371819964
 31
0.0
  0
LINE
  5
18C34
330
18C30
100
AcDbEntity
  8
寸法
 62
     0
 48
50.0
370
    -2
100
AcDbLine
 10
7956.754300969024
 20
9510.905323365827
 30
0.0
 11
7956.754300969024
 21
9060.90532336583
 31
0.0
  0
INSERT
  5
18C35
330
18C30
100
AcDbEntity
  8
寸法
 62
     0
 48
50.0
370
    -2
100
AcDbBlockReference
  2
_DOTSMALL
 10
7956.754300969024
 20
9510.905323365827
 30
0.0
 41
100.0
 42
100.0
 43
100.0
 50
90.0
  0
INSERT
  5
18C36
330
18C30
100
AcDbEntity
  8
寸法
 62
     0
 48
50.0
370
    -2
100
AcDbBlockReference
  2
_DOTSMALL
 10
7956.754300969024
 20
9060.90532336583
 30
0.0
 41
100.0
 42
100.0
 43
100.0
 50
270.0
  0
MTEXT
  5
18C37
330
18C30
100
AcDbEntity
  8
寸法
 62
     7
 48
50.0
100
AcDbMText
 10
7856.754300969022
 20
9285.905323365829
 30
0.0
 40
120.0
 41
0.0
 71
     5
 72
     1
  1
\A1;450
  7
STYLE1
 11
0.0000000000000001
 21
1.0
 31
0.0
 73
     1
 44
1.0
1001
ACAD
1000
MTEXTBEGIN
1070
    73
1070
     1
1070
    44
1040
1.0
1070
    74
1070
     0
1000
MTEXTEND
  0
POINT
  5
18C38
330
18C30
100
AcDbEntity
  8
DEFPOINTS
 62
     0
 48
50.0
100
AcDbPoint
 10
7601.396575106999
 20
9606.123139034718
 30
0.0
  0
POINT
  5
18C39
330
18C30
100
AcDbEntity
  8
DEFPOINTS
 62
     0
 48
50.0
100
AcDbPoint
 10
7601.396575106999
 20
9156.12313903472
 30
0.0
  0
POINT
  5
18C3A
330
18C30
100
AcDbEntity
  8
DEFPOINTS
 62
     0
 48
50.0
100
AcDbPoint
 10
7956.754300969024
 20
9060.90532336583
 30
0.0
  0
ENDBLK
  5
18C3B
330
18C30
100
AcDbEntity
  8
0
 48
50.0
100
AcDbBlockEnd
  0
BLOCK
  5
18C3D
330
18C3C
100
AcDbEntity
  8
0
 48
50.0
100
AcDbBlockBegin
  2
*D12
 70
     1
 10
0.0
 20
0.0
 30
0.0
  3
*D12
  1

  0
LINE
  5
18C3E
330
18C3C
100
AcDbEntity
  8
寸法
 62
     0
 48
50.0
370
    -2
100
AcDbLine
 10
7649.896575106999
 20
9581.123139034721
 30
0.0
 11
8337.32292084141
 21
9581.123139034721
 31
0.0
  0
LINE
  5
18C3F
330
18C3C
100
AcDbEntity
  8
寸法
 62
     0
 48
50.0
370
    -2
100
AcDbLine
 10
7649.896575106973
 20
7901.123139034706
 30
0.0
 11
8337.32292084141
 21
7901.123139034706
 31
0.0
  0
LINE
  5
18C40
330
18C3C
100
AcDbEntity
  8
寸法
 62
     0
 48
50.0
370
    -2
100
AcDbLine
 10
8277.322920841411
 20
9581.123139034721
 30
0.0
 11
8277.322920841411
 21
7901.123139034706
 31
0.0
  0
INSERT
  5
18C41
330
18C3C
100
AcDbEntity
  8
寸法
 62
     0
 48
50.0
370
    -2
100
AcDbBlockReference
  2
_DOTSMALL
 10
8277.322920841411
 20
9581.123139034721
 30
0.0
 41
100.0
 42
100.0
 43
100.0
 50
90.0
  0
INSERT
  5
18C42
330
18C3C
100
AcDbEntity
  8
寸法
 62
     0
 48
50.0
370
    -2
100
AcDbBlockReference
  2
_DOTSMALL
 10
8277.322920841411
 20
7901.123139034706
 30
0.0
 41
100.0
 42
100.0
 43
100.0
 50
270.0
  0
MTEXT
  5
18C43
330
18C3C
100
AcDbEntity
  8
寸法
 62
     7
 48
50.0
100
AcDbMText
 10
8177.311109817788
 20
8741.123139034712
 30
0.0
 40
120.0
 41
0.0
 71
     5
 72
     1
  1
\A1;4X420=1680
  7
STYLE1
 11
0.0000000000000001
 21
1.0
 31
0.0
 73
     1
 44
1.0
1001
ACAD
1000
MTEXTBEGIN
1070
    73
1070
     1
1070
    44
1040
1.0
1070
    74
1070
     0
1000
MTEXTEND
  0
POINT
  5
18C44
330
18C3C
100
AcDbEntity
  8
DEFPOINTS
 62
     0
 48
50.0
100
AcDbPoint
 10
7629.896575106998
 20
9581.123139034721
 30
0.0
  0
POINT
  5
18C45
330
18C3C
100
AcDbEntity
  8
DEFPOINTS
 62
     0
 48
50.0
100
AcDbPoint
 10
7629.896575106974
 20
7901.123139034706
 30
0.0
  0
POINT
  5
18C46
330
18C3C
100
AcDbEntity
  8
DEFPOINTS
 62
     0
 48
50.0
100
AcDbPoint
 10
8277.322920841411
 20
7901.123139034706
 30
0.0
  0
ENDBLK
  5
18C47
330
18C3C
100
AcDbEntity
  8
0
 48
50.0
100
AcDbBlockEnd
  0
BLOCK
  5
18C49
330
18C48
100
AcDbEntity
  8
0
 48
50.0
100
AcDbBlockBegin
  2
*D13
 70
     1
 10
0.0
 20
0.0
 30
0.0
  3
*D13
  1

  0
LINE
  5
18C4A
330
18C48
100
AcDbEntity
  8
寸法
 62
     0
 48
50.0
370
    -2
100
AcDbLine
 10
4183.037591258377
 20
9136.123139034619
 30
0.0
 11
4115.083950562663
 21
8882.516699398941
 31
0.0
  0
LINE
  5
18C4B
330
18C48
100
AcDbEntity
  8
寸法
 62
     0
 48
50.0
370
    -2
100
AcDbLine
 10
5246.037591258307
 20
9136.123139034671
 30
0.0
 11
5178.08395056258
 21
8882.516699398941
 31
0.0
  0
LINE
  5
18C4C
330
18C48
100
AcDbEntity
  8
寸法
 62
     0
 48
50.0
370
    -2
100
AcDbLine
 10
4131.160902108532
 20
8942.516699398941
 30
0.0
 11
5194.160902108448
 21
8942.516699398941
 31
0.0
  0
INSERT
  5
18C4D
330
18C48
100
AcDbEntity
  8
寸法
 62
     0
 48
50.0
370
    -2
100
AcDbBlockReference
  2
_DOTSMALL
 10
4131.160902108532
 20
8942.516699398941
 30
0.0
 41
100.0
 42
100.0
 43
100.0
 50
180.0
  0
INSERT
  5
18C4E
330
18C48
100
AcDbEntity
  8
寸法
 62
     0
 48
50.0
370
    -2
100
AcDbBlockReference
  2
_DOTSMALL
 10
5194.160902108448
 20
8942.516699398941
 30
0.0
 41
100.0
 42
100.0
 43
100.0
  0
MTEXT
  5
18C4F
330
18C48
100
AcDbEntity
  8
寸法
 62
     7
 48
50.0
100
AcDbMText
 10
4658.986452655306
 20
9042.516699398941
 30
0.0
 40
120.0
 41
0.0
 71
     5
 72
     1
  1
\A1;1063
  7
STYLE1
 73
     1
 44
1.0
1001
ACAD
1000
MTEXTBEGIN
1070
    73
1070
     1
1070
    44
1040
1.0
1070
    74
1070
     0
1000
MTEXTEND
  0
POINT
  5
18C50
330
18C48
100
AcDbEntity
  8
DEFPOINTS
 62
     0
 48
50.0
100
AcDbPoint
 10
4188.396575106999
 20
9156.123139034617
 30
0.0
  0
POINT
  5
18C51
330
18C48
100
AcDbEntity
  8
DEFPOINTS
 62
     0
 48
50.0
100
AcDbPoint
 10
5251.396575106929
 20
9156.123139034672
 30
0.0
  0
POINT
  5
18C52
330
18C48
100
AcDbEntity
  8
DEFPOINTS
 62
     0
 48
50.0
100
AcDbPoint
 10
5194.160902108448
 20
8942.516699398941
 30
0.0
  0
ENDBLK
  5
18C53
330
18C48
100
AcDbEntity
  8
0
 48
50.0
100
AcDbBlockEnd
  0
BLOCK
  5
18C55
330
18C54
100
AcDbEntity
  8
0
 48
50.0
100
AcDbBlockBegin
  2
*D14
 70
     1
 10
0.0
 20
0.0
 30
0.0
  3
*D14
  1

  0
LINE
  5
18C56
330
18C54
100
AcDbEntity
  8
寸法
 62
     0
 48
50.0
370
    -2
100
AcDbLine
 10
5274.037591258307
 20
9136.123139034669
 30
0.0
 11
5206.08395056258
 21
8882.516699398941
 31
0.0
  0
LINE
  5
18C57
330
18C54
100
AcDbEntity
  8
寸法
 62
     0
 48
50.0
370
    -2
100
AcDbLine
 10
6505.037591258377
 20
9136.123139034662
 30
0.0
 11
6437.083950562653
 21
8882.516699398941
 31
0.0
  0
LINE
  5
18C58
330
18C54
100
AcDbEntity
  8
寸法
 62
     0
 48
50.0
370
    -2
100
AcDbLine
 10
5222.160902108448
 20
8942.516699398941
 30
0.0
 11
6453.16090210852
 21
8942.516699398941
 31
0.0
  0
INSERT
  5
18C59
330
18C54
100
AcDbEntity
  8
寸法
 62
     0
 48
50.0
370
    -2
100
AcDbBlockReference
  2
_DOTSMALL
 10
5222.160902108448
 20
8942.516699398941
 30
0.0
 41
100.0
 42
100.0
 43
100.0
 50
180.0
  0
INSERT
  5
18C5A
330
18C54
100
AcDbEntity
  8
寸法
 62
     0
 48
50.0
370
    -2
100
AcDbBlockReference
  2
_DOTSMALL
 10
6453.16090210852
 20
8942.516699398941
 30
0.0
 41
100.0
 42
100.0
 43
100.0
  0
MTEXT
  5
18C5B
330
18C54
100
AcDbEntity
  8
寸法
 62
     7
 48
50.0
100
AcDbMText
 10
6081.244808320626
 20
9042.528510422561
 30
0.0
 40
120.0
 41
0.0
 71
     5
 72
     1
  1
\A1;1231
  7
STYLE1
 73
     1
 44
1.0
1001
ACAD
1000
MTEXTBEGIN
1070
    73
1070
     1
1070
    44
1040
1.0
1070
    74
1070
     0
1000
MTEXTEND
  0
POINT
  5
18C5C
330
18C54
100
AcDbEntity
  8
DEFPOINTS
 62
     0
 48
50.0
100
AcDbPoint
 10
5279.396575106929
 20
9156.123139034669
 30
0.0
  0
POINT
  5
18C5D
330
18C54
100
AcDbEntity
  8
DEFPOINTS
 62
     0
 48
50.0
100
AcDbPoint
 10
6510.396575106999
 20
9156.123139034662
 30
0.0
  0
POINT
  5
18C5E
330
18C54
100
AcDbEntity
  8
DEFPOINTS
 62
     0
 48
50.0
100
AcDbPoint
 10
6453.16090210852
 20
8942.516699398941
 30
0.0
  0
ENDBLK
  5
18C5F
330
18C54
100
AcDbEntity
  8
0
 48
50.0
100
AcDbBlockEnd
  0
BLOCK
  5
18C61
330
18C60
100
AcDbEntity
  8
0
 48
50.0
100
AcDbBlockBegin
  2
*D15
 70
     1
 10
0.0
 20
0.0
 30
0.0
  3
*D15
  1

  0
LINE
  5
18C62
330
18C60
100
AcDbEntity
  8
寸法
 62
     0
 48
50.0
370
    -2
100
AcDbLine
 10
5065.896575106966
 20
7749.123139034579
 30
0.0
 11
5065.896575106966
 21
7099.952920982538
 31
0.0
  0
LINE
  5
18C63
330
18C60
100
AcDbEntity
  8
寸法
 62
     0
 48
50.0
370
    -2
100
AcDbLine
 10
6331.896575106966
 20
7749.123139034579
 30
0.0
 11
6331.896575106966
 21
7099.952920982538
 31
0.0
  0
LINE
  5
18C64
330
18C60
100
AcDbEntity
  8
寸法
 62
     0
 48
50.0
370
    -2
100
AcDbLine
 10
5065.896575106966
 20
7159.952920982537
 30
0.0
 11
6331.896575106966
 21
7159.952920982537
 31
0.0
  0
INSERT
  5
18C65
330
18C60
100
AcDbEntity
  8
寸法
 62
     0
 48
50.0
370
    -2
100
AcDbBlockReference
  2
_DOTSMALL
 10
5065.896575106966
 20
7159.952920982537
 30
0.0
 41
100.0
 42
100.0
 43
100.0
 50
180.0
  0
INSERT
  5
18C66
330
18C60
100
AcDbEntity
  8
寸法
 62
     0
 48
50.0
370
    -2
100
AcDbBlockReference
  2
_DOTSMALL
 10
6331.896575106966
 20
7159.952920982537
 30
0.0
 41
100.0
 42
100.0
 43
100.0
  0
MTEXT
  5
18C67
330
18C60
100
AcDbEntity
  8
寸法
 62
     7
 48
50.0
100
AcDbMText
 10
5711.986008735934
 20
7359.964732006159
 30
0.0
 40
120.0
 41
0.0
 71
     5
 72
     1
  1
\A1;有効開口部間口\P1266
  7
STYLE1
 73
     1
 44
1.0
1001
ACAD
1000
MTEXTBEGIN
1070
    73
1070
     1
1070
    44
1040
1.0
1070
    74
1070
     0
1000
MTEXTEND
  0
POINT
  5
18C68
330
18C60
100
AcDbEntity
  8
DEFPOINTS
 62
     0
 48
50.0
100
AcDbPoint
 10
5065.896575106966
 20
7769.123139034579
 30
0.0
  0
POINT
  5
18C69
330
18C60
100
AcDbEntity
  8
DEFPOINTS
 62
     0
 48
50.0
100
AcDbPoint
 10
6331.896575106966
 20
7769.123139034579
 30
0.0
  0
POINT
  5
18C6A
330
18C60
100
AcDbEntity
  8
DEFPOINTS
 62
     0
 48
50.0
100
AcDbPoint
 10
6331.896575106966
 20
7159.952920982537
 30
0.0
  0
ENDBLK
  5
18C6B
330
18C60
100
AcDbEntity
  8
0
 48
50.0
100
AcDbBlockEnd
  0
BLOCK
  5
18C6D
330
18C6C
100
AcDbEntity
  8
0
 48
50.0
100
AcDbBlockBegin
  2
*D16
 70
     1
 10
0.0
 20
0.0
 30
0.0
  3
*D16
  1

  0
LINE
  5
18C6E
330
18C6C
100
AcDbEntity
  8
寸法
 62
     0
 48
50.0
370
    -2
100
AcDbLine
 10
7200.896575106966
 20
7846.123139034578
 30
0.0
 11
7457.192158500191
 21
7846.123139034578
 31
0.0
  0
LINE
  5
18C6F
330
18C6C
100
AcDbEntity
  8
寸法
 62
     0
 48
50.0
370
    -2
100
AcDbLine
 10
7199.896575106966
 20
7769.123139034579
 30
0.0
 11
7457.192158500191
 21
7769.123139034579
 31
0.0
  0
LINE
  5
18C70
330
18C6C
100
AcDbEntity
  8
寸法
 62
     0
 48
50.0
370
    -2
100
AcDbLine
 10
7417.192158500192
 20
7866.123139034579
 30
0.0
 11
7417.192158500192
 21
7886.123139034578
 31
0.0
  0
LINE
  5
18C71
330
18C6C
100
AcDbEntity
  8
寸法
 62
     0
 48
50.0
370
    -2
100
AcDbLine
 10
7417.192158500192
 20
7749.123139034579
 30
0.0
 11
7417.192158500192
 21
7533.123139034573
 31
0.0
  0
LINE
  5
18C72
330
18C6C
100
AcDbEntity
  8
寸法
 62
     0
 48
50.0
370
    -2
100
AcDbLine
 10
7417.192158500192
 20
7846.123139034578
 30
0.0
 11
7417.192158500192
 21
7769.123139034579
 31
0.0
  0
INSERT
  5
18C73
330
18C6C
100
AcDbEntity
  8
寸法
 62
     0
 48
50.0
370
    -2
100
AcDbBlockReference
  2
_DOT
 10
7417.192158500192
 20
7846.123139034578
 30
0.0
 41
20.0
 42
20.0
 43
20.0
 50
270.0
  0
INSERT
  5
18C74
330
18C6C
100
AcDbEntity
  8
寸法
 62
     0
 48
50.0
370
    -2
100
AcDbBlockReference
  2
_DOT
 10
7417.192158500192
 20
7769.123139034579
 30
0.0
 41
20.0
 42
20.0
 43
20.0
 50
90.0
  0
MTEXT
  5
18C75
330
18C6C
100
AcDbEntity
  8
寸法
 62
     7
 48
50.0
100
AcDbMText
 10
7325.192158500191
 20
7631.123139034575
 30
0.0
 40
120.0
 41
0.0
 71
     5
 72
     1
  1
\A1;77
  7
STYLE1
 11
0.0000000000000001
 21
1.0
 31
0.0
 73
     1
 44
1.0
1001
ACAD
1000
MTEXTBEGIN
1070
    73
1070
     1
1070
    44
1040
1.0
1070
    74
1070
     0
1000
MTEXTEND
  0
POINT
  5
18C76
330
18C6C
100
AcDbEntity
  8
DEFPOINTS
 62
     0
 48
50.0
100
AcDbPoint
 10
7180.896575106967
 20
7846.123139034578
 30
0.0
  0
POINT
  5
18C77
330
18C6C
100
AcDbEntity
  8
DEFPOINTS
 62
     0
 48
50.0
100
AcDbPoint
 10
7179.896575106965
 20
7769.123139034579
 30
0.0
  0
POINT
  5
18C78
330
18C6C
100
AcDbEntity
  8
DEFPOINTS
 62
     0
 48
50.0
100
AcDbPoint
 10
7417.192158500192
 20
7769.123139034579
 30
0.0
  0
ENDBLK
  5
18C79
330
18C6C
100
AcDbEntity
  8
0
 48
50.0
100
AcDbBlockEnd
  0
BLOCK
  5
18DA0
330
18C7A
100
AcDbEntity
  8
0
 48
50.0
100
AcDbBlockBegin
  2
A$C3B1A506B
 70
     0
 10
0.0
 20
0.0
 30
0.0
  3
A$C3B1A506B
  1

  0
MTEXT
  5
18C7B
330
18C7A
100
AcDbEntity
  8
寸法
 62
     7
 48
50.0
100
AcDbMText
 10
3342.250386887194
 20
2778.329429134012
 30
0.0
 40
96.0
 41
0.0
 71
     5
 72
     1
  1
棚 2段
  7
STYLE1
 73
     1
 44
1.0
1001
ACAD
1000
MTEXTBEGIN
1070
    73
1070
     1
1070
    44
1040
1.0
1070
    74
1070
     0
1000
MTEXTEND
  0
MTEXT
  5
18C7C
330
18C7A
100
AcDbEntity
  8
寸法
 62
     7
 48
50.0
100
AcDbMText
 10
2167.25038688716
 20
2778.329429133986
 30
0.0
 40
96.0
 41
0.0
 71
     5
 72
     1
  1
棚 2段
  7
STYLE1
 73
     1
 44
1.0
1001
ACAD
1000
MTEXTBEGIN
1070
    73
1070
     1
1070
    44
1040
1.0
1070
    74
1070
     0
1000
MTEXTEND
  0
MTEXT
  5
18C7D
330
18C7A
100
AcDbEntity
  8
寸法
 62
     7
 48
50.0
100
AcDbMText
 10
992.2503868871608
 20
2778.329429133935
 30
0.0
 40
96.0
 41
0.0
 71
     5
 72
     1
  1
棚 2段
  7
STYLE1
 73
     1
 44
1.0
1001
ACAD
1000
MTEXTBEGIN
1070
    73
1070
     1
1070
    44
1040
1.0
1070
    74
1070
     0
1000
MTEXTEND
  0
LINE
  5
18C7E
330
18C7A
100
AcDbEntity
  8
細線
 48
50.0
100
AcDbLine
 10
2771.970589276527
 20
1368.994384123192
 30
0.0
 11
3398.970589276523
 21
1368.994384123192
 31
0.0
  0
LINE
  5
18C7F
330
18C7A
100
AcDbEntity
  8
細線
 48
50.0
100
AcDbLine
 10
2117.970593930113
 20
1335.285615569113
 30
0.0
 11
3398.970589276523
 21
1335.285615569113
 31
0.0
  0
LINE
  5
18C80
330
18C7A
100
AcDbEntity
  8
細線
 48
50.0
100
AcDbLine
 10
2076.970593930115
 20
1364.690523565368
 30
0.0
 11
1322.970589276523
 21
1364.690523565367
 31
0.0
  0
LINE
  5
18C81
330
18C7A
100
AcDbEntity
  8
細線
100
AcDbLine
 10
3170.720579860066
 20
1388.494284088199
 30
0.0
 11
3173.052119381877
 21
1393.494286728162
 31
0.0
  0
LINE
  5
18C82
330
18C7A
100
AcDbEntity
  8
細線
100
AcDbLine
 10
3240.720589276525
 20
1388.494269174465
 30
0.0
 11
3238.389042800336
 21
1393.494286728144
 31
0.0
  0
LINE
  5
18C83
330
18C7A
100
AcDbEntity
  8
細線
100
AcDbLine
 10
3238.389042800336
 20
1393.494286728144
 30
0.0
 11
3173.052119381862
 21
1393.494286728133
 31
0.0
  0
LINE
  5
18C84
330
18C7A
100
AcDbEntity
  8
細線
100
AcDbLine
 10
3098.389042800336
 20
1393.494286728144
 30
0.0
 11
3033.052119381862
 21
1393.494286728133
 31
0.0
  0
LINE
  5
18C85
330
18C7A
100
AcDbEntity
  8
細線
100
AcDbLine
 10
3100.720589276523
 20
1388.494269174465
 30
0.0
 11
3098.389042800336
 21
1393.494286728144
 31
0.0
  0
LINE
  5
18C86
330
18C7A
100
AcDbEntity
  8
細線
100
AcDbLine
 10
3030.720579860066
 20
1388.494284088199
 30
0.0
 11
3033.052119381875
 21
1393.494286728162
 31
0.0
  0
LINE
  5
18C87
330
18C7A
100
AcDbEntity
  8
細線
100
AcDbLine
 10
2890.720589276525
 20
1388.494269174465
 30
0.0
 11
2893.052128798336
 21
1393.494271814428
 31
0.0
  0
LINE
  5
18C88
330
18C7A
100
AcDbEntity
  8
細線
100
AcDbLine
 10
2960.720598692984
 20
1388.494254260731
 30
0.0
 11
2958.389052216793
 21
1393.49427181441
 31
0.0
  0
LINE
  5
18C89
330
18C7A
100
AcDbEntity
  8
細線
100
AcDbLine
 10
2958.389052216795
 20
1393.49427181441
 30
0.0
 11
2893.052128798321
 21
1393.494271814399
 31
0.0
  0
LINE
  5
18C8A
330
18C7A
100
AcDbEntity
  8
細線
100
AcDbLine
 10
2667.139038146739
 20
1359.494298590735
 30
0.0
 11
2601.802114728263
 21
1359.494298590724
 31
0.0
  0
LINE
  5
18C8B
330
18C7A
100
AcDbEntity
  8
細線
100
AcDbLine
 10
2669.470584622926
 20
1354.494281037055
 30
0.0
 11
2667.139038146737
 21
1359.494298590735
 31
0.0
  0
LINE
  5
18C8C
330
18C7A
100
AcDbEntity
  8
細線
100
AcDbLine
 10
2599.470575206469
 20
1354.49429595079
 30
0.0
 11
2601.802114728278
 21
1359.494298590752
 31
0.0
  0
LINE
  5
18C8D
330
18C7A
100
AcDbEntity
  8
細線
 48
50.0
100
AcDbLine
 10
2440.853968524536
 20
1372.765132327548
 30
0.0
 11
2446.609486107205
 21
1354.494281037057
 31
0.0
  0
LINE
  5
18C8E
330
18C7A
100
AcDbEntity
  8
細線
 48
50.0
100
AcDbLine
 10
2429.925520044106
 20
1372.765132327546
 30
0.0
 11
2440.853968524536
 21
1372.765132327548
 31
0.0
  0
ARC
  5
18C8F
330
18C7A
100
AcDbEntity
  8
細線
 48
50.0
100
AcDbCircle
 10
2424.471163986787
 20
1374.265132327546
 30
0.0
 40
5.0
100
AcDbArc
 50
204.6243183520723
 51
335.3756816479278
  0
ARC
  5
18C90
330
18C7A
100
AcDbEntity
  8
細線
 48
50.0
100
AcDbCircle
 10
2429.925520044106
 20
1371.765132327546
 30
0.0
 40
1.0
100
AcDbArc
 50
90.0
 51
155.3756816479277
  0
ARC
  5
18C91
330
18C7A
100
AcDbEntity
  8
細線
 48
50.0
100
AcDbCircle
 10
2419.016807929469
 20
1371.765132327546
 30
0.0
 40
1.0
100
AcDbArc
 50
24.62431835207225
 51
90.0
  0
LINE
  5
18C92
330
18C7A
100
AcDbEntity
  8
細線
 48
50.0
100
AcDbLine
 10
2408.088359449037
 20
1372.765132327548
 30
0.0
 11
2419.016807929469
 21
1372.765132327546
 31
0.0
  0
LINE
  5
18C93
330
18C7A
100
AcDbEntity
  8
細線
 48
50.0
100
AcDbLine
 10
2402.33284186637
 20
1354.494281037054
 30
0.0
 11
2408.088359449037
 21
1372.765132327548
 31
0.0
  0
LINE
  5
18C94
330
18C7A
100
AcDbEntity
  8
細線
100
AcDbLine
 10
2458.070304175992
 20
1354.494278397076
 30
0.0
 11
2460.401843697802
 21
1359.494281037039
 31
0.0
  0
LINE
  5
18C95
330
18C7A
100
AcDbEntity
  8
細線
100
AcDbLine
 10
2528.070313592451
 20
1354.494263483342
 30
0.0
 11
2525.738767116262
 21
1359.494281037021
 31
0.0
  0
LINE
  5
18C96
330
18C7A
100
AcDbEntity
  8
細線
100
AcDbLine
 10
2525.738767116262
 20
1359.494281037021
 30
0.0
 11
2460.40184369779
 21
1359.49428103701
 31
0.0
  0
LINE
  5
18C97
330
18C7A
100
AcDbEntity
  8
細線
100
AcDbLine
 10
2387.139046332155
 20
1359.494281037021
 30
0.0
 11
2321.80212291368
 21
1359.49428103701
 31
0.0
  0
LINE
  5
18C98
330
18C7A
100
AcDbEntity
  8
細線
100
AcDbLine
 10
2389.470592808342
 20
1354.494263483342
 30
0.0
 11
2387.139046332153
 21
1359.494281037021
 31
0.0
  0
LINE
  5
18C99
330
18C7A
100
AcDbEntity
  8
細線
100
AcDbLine
 10
2319.470584622926
 20
1354.494281037054
 30
0.0
 11
2321.802122913694
 21
1359.494281037039
 31
0.0
  0
LINE
  5
18C9A
330
18C7A
100
AcDbEntity
  8
細線
100
AcDbLine
 10
2179.47061994182
 20
1354.494289224422
 30
0.0
 11
2181.802158232587
 21
1359.494289224407
 31
0.0
  0
LINE
  5
18C9B
330
18C7A
100
AcDbEntity
  8
細線
100
AcDbLine
 10
2249.470628127236
 20
1354.49427167071
 30
0.0
 11
2247.139081651047
 21
1359.494289224389
 31
0.0
  0
LINE
  5
18C9C
330
18C7A
100
AcDbEntity
  8
細線
100
AcDbLine
 10
2247.139081651047
 20
1359.494289224389
 30
0.0
 11
2181.802158232573
 21
1359.494289224378
 31
0.0
  0
LINE
  5
18C9D
330
18C7A
100
AcDbEntity
  8
細線
100
AcDbLine
 10
1807.970585744697
 20
1320.494460905133
 30
0.0
 11
1810.302124035464
 21
1325.494460905118
 31
0.0
  0
LINE
  5
18C9E
330
18C7A
100
AcDbEntity
  8
細線
100
AcDbLine
 10
1877.970593930113
 20
1320.494443351421
 30
0.0
 11
1875.639047453926
 21
1325.4944609051
 31
0.0
  0
LINE
  5
18C9F
330
18C7A
100
AcDbEntity
  8
細線
100
AcDbLine
 10
1875.639047453926
 20
1325.4944609051
 30
0.0
 11
1810.302124035452
 21
1325.494460905089
 31
0.0
  0
LINE
  5
18CA0
330
18C7A
100
AcDbEntity
  8
細線
100
AcDbLine
 10
2015.639047453926
 20
1325.4944609051
 30
0.0
 11
1950.302124035452
 21
1325.494460905089
 31
0.0
  0
LINE
  5
18CA1
330
18C7A
100
AcDbEntity
  8
細線
100
AcDbLine
 10
2017.970593930113
 20
1320.494443351421
 30
0.0
 11
2015.639047453924
 21
1325.4944609051
 31
0.0
  0
LINE
  5
18CA2
330
18C7A
100
AcDbEntity
  8
細線
100
AcDbLine
 10
1947.970585744697
 20
1320.494460905133
 30
0.0
 11
1950.302124035465
 21
1325.494460905118
 31
0.0
  0
LINE
  5
18CA3
330
18C7A
100
AcDbEntity
  8
細線
100
AcDbLine
 10
1735.639047453926
 20
1325.494460905098
 30
0.0
 11
1670.302124035454
 21
1325.494460905087
 31
0.0
  0
LINE
  5
18CA4
330
18C7A
100
AcDbEntity
  8
細線
100
AcDbLine
 10
1737.970593930113
 20
1320.494443351419
 30
0.0
 11
1735.639047453926
 21
1325.494460905098
 31
0.0
  0
LINE
  5
18CA5
330
18C7A
100
AcDbEntity
  8
細線
100
AcDbLine
 10
1667.970585744697
 20
1320.494460905131
 30
0.0
 11
1670.302124035465
 21
1325.494460905116
 31
0.0
  0
LINE
  5
18CA6
330
18C7A
100
AcDbEntity
  8
細線
100
AcDbLine
 10
1527.970593930113
 20
1320.494460905133
 30
0.0
 11
1530.302132220881
 21
1325.494460905118
 31
0.0
  0
LINE
  5
18CA7
330
18C7A
100
AcDbEntity
  8
細線
100
AcDbLine
 10
1597.970602115529
 20
1320.494443351421
 30
0.0
 11
1595.639055639342
 21
1325.4944609051
 31
0.0
  0
LINE
  5
18CA8
330
18C7A
100
AcDbEntity
  8
細線
100
AcDbLine
 10
1595.639055639342
 20
1325.4944609051
 30
0.0
 11
1530.302132220869
 21
1325.494460905089
 31
0.0
  0
ARC
  5
18CA9
330
18C7A
100
AcDbEntity
  8
部品1
 48
0.01
100
AcDbCircle
 10
1483.470482677778
 20
1319.493338720063
 30
0.0
 40
0.5
100
AcDbArc
 50
270.0
 51
0.0
  0
LINE
  5
18CAA
330
18C7A
100
AcDbEntity
  8
部品1
 48
0.01
100
AcDbLine
 10
1483.970482677778
 20
1320.493338720063
 30
0.0
 11
1483.970482677778
 21
1319.493338720063
 31
0.0
  0
LINE
  5
18CAB
330
18C7A
100
AcDbEntity
  8
部品1
 48
0.01
100
AcDbLine
 10
1483.970482677778
 20
1320.493338720063
 30
0.0
 11
1483.970482677778
 21
1319.493338720063
 31
0.0
  0
LINE
  5
18CAC
330
18C7A
100
AcDbEntity
  8
部品1
 48
0.01
100
AcDbLine
 10
1483.470482677778
 20
1318.993338720063
 30
0.0
 11
1476.857977247713
 21
1318.993338720062
 31
0.0
  0
ARC
  5
18CAD
330
18C7A
100
AcDbEntity
  8
部品1
100
AcDbCircle
 10
1476.926326800494
 20
1319.993338720062
 30
0.0
 40
1.0
100
AcDbArc
 50
160.5287793655865
 51
270.0
  0
ARC
  5
18CAE
330
18C7A
100
AcDbEntity
  8
部品1
100
AcDbCircle
 10
1451.470482677778
 20
1328.993338720062
 30
0.0
 40
26.0
100
AcDbArc
 50
340.5287793655865
 51
0.0
  0
LINE
  5
18CAF
330
18C7A
100
AcDbEntity
  8
部品1
100
AcDbLine
 10
1477.470482677778
 20
1328.993338720062
 30
0.0
 11
1477.470482677778
 21
1333.993338720061
 31
0.0
  0
ARC
  5
18CB0
330
18C7A
100
AcDbEntity
  8
部品1
 48
0.01
100
AcDbCircle
 10
1475.470482677778
 20
1333.993338720061
 30
0.0
 40
2.0
100
AcDbArc
 50
0.0
 51
90.0
  0
ARC
  5
18CB1
330
18C7A
100
AcDbEntity
  8
部品1
100
AcDbCircle
 10
1473.862091052968
 20
1332.993338720062
 30
0.0
 40
3.0
100
AcDbArc
 50
90.0
 51
141.6069559808035
  0
LINE
  5
18CB2
330
18C7A
100
AcDbEntity
  8
部品1
 48
0.01
100
AcDbLine
 10
1475.470482677778
 20
1335.993338720062
 30
0.0
 11
1473.862091052968
 21
1335.993338720062
 31
0.0
  0
ARC
  5
18CB3
330
18C7A
100
AcDbEntity
  8
部品1
100
AcDbCircle
 10
1455.399768463507
 20
1332.293338720065
 30
0.0
 40
3.0
100
AcDbArc
 50
254.0576313943215
 51
270.0
  0
ARC
  5
18CB4
330
18C7A
100
AcDbEntity
  8
部品1
100
AcDbCircle
 10
1462.541196892049
 20
1332.293338720065
 30
0.0
 40
3.0
100
AcDbArc
 50
270.0
 51
285.9423686056786
  0
LINE
  5
18CB5
330
18C7A
100
AcDbEntity
  8
部品1
100
AcDbLine
 10
1462.541196892049
 20
1329.293338720064
 30
0.0
 11
1455.399768463507
 21
1329.293338720064
 31
0.0
  0
ARC
  5
18CB6
330
18C7A
100
AcDbEntity
  8
部品1
100
AcDbCircle
 10
1458.970482677778
 20
1344.793338720065
 30
0.0
 40
16.0
100
AcDbArc
 50
285.9423686056786
 51
321.6069559808035
  0
LINE
  5
18CB7
330
18C7A
100
AcDbEntity
  8
部品1
 48
0.01
100
AcDbLine
 10
1442.470482677778
 20
1335.993338720062
 30
0.0
 11
1444.078874302588
 21
1335.993338720062
 31
0.0
  0
ARC
  5
18CB8
330
18C7A
100
AcDbEntity
  8
部品1
100
AcDbCircle
 10
1444.078874302588
 20
1332.993338720062
 30
0.0
 40
3.0
100
AcDbArc
 50
38.39304401919648
 51
90.0
  0
ARC
  5
18CB9
330
18C7A
100
AcDbEntity
  8
部品1
100
AcDbCircle
 10
1458.970482677778
 20
1344.793338720065
 30
0.0
 40
16.0
100
AcDbArc
 50
218.3930440191965
 51
254.0576313943215
  0
LINE
  5
18CBA
330
18C7A
100
AcDbEntity
  8
部品1
100
AcDbLine
 10
1440.470482677778
 20
1328.993338720062
 30
0.0
 11
1440.470482677778
 21
1333.993338720061
 31
0.0
  0
ARC
  5
18CBB
330
18C7A
100
AcDbEntity
  8
部品1
 48
0.01
100
AcDbCircle
 10
1442.470482677778
 20
1333.993338720061
 30
0.0
 40
2.0
100
AcDbArc
 50
90.0
 51
180.0
  0
ARC
  5
18CBC
330
18C7A
100
AcDbEntity
  8
部品1
100
AcDbCircle
 10
1466.470482677778
 20
1328.993338720062
 30
0.0
 40
26.0
100
AcDbArc
 50
180.0
 51
199.4712206344134
  0
ARC
  5
18CBD
330
18C7A
100
AcDbEntity
  8
部品1
 48
0.01
100
AcDbCircle
 10
1434.470482677778
 20
1319.493338720063
 30
0.0
 40
0.5
100
AcDbArc
 50
180.0
 51
270.0
  0
LINE
  5
18CBE
330
18C7A
100
AcDbEntity
  8
部品1
 48
0.01
100
AcDbLine
 10
1434.470482677778
 20
1318.993338720063
 30
0.0
 11
1441.014638555061
 21
1318.993338720062
 31
0.0
  0
LINE
  5
18CBF
330
18C7A
100
AcDbEntity
  8
部品1
 48
0.01
100
AcDbLine
 10
1433.970482677778
 20
1320.493338720063
 30
0.0
 11
1433.970482677778
 21
1319.493338720063
 31
0.0
  0
ARC
  5
18CC0
330
18C7A
100
AcDbEntity
  8
部品1
100
AcDbCircle
 10
1441.014638555061
 20
1319.993338720062
 30
0.0
 40
1.0
100
AcDbArc
 50
270.0
 51
19.47122063441346
  0
LINE
  5
18CC1
330
18C7A
100
AcDbEntity
  8
細線
100
AcDbLine
 10
1479.470482677785
 20
1338.493338720065
 30
0.0
 11
1438.470482677785
 21
1338.493338720058
 31
0.0
  0
LINE
  5
18CC2
330
18C7A
100
AcDbEntity
  8
細線
100
AcDbLine
 10
1438.470482677785
 20
1338.493338720058
 30
0.0
 11
1438.470482677785
 21
1320.49333872004
 31
0.0
  0
LINE
  5
18CC3
330
18C7A
100
AcDbEntity
  8
細線
100
AcDbLine
 10
1479.470482677785
 20
1338.493338720065
 30
0.0
 11
1479.470482677785
 21
1320.49333872004
 31
0.0
  0
LINE
  5
18CC4
330
18C7A
100
AcDbEntity
  8
細線
100
AcDbLine
 10
1322.970589276523
 20
1324.494269174465
 30
0.0
 11
1322.970589276523
 21
1320.494269174513
 31
0.0
  0
LINE
  5
18CC5
330
18C7A
100
AcDbEntity
  8
寸法
 48
50.0
100
AcDbLine
 10
1746.17359555837
 20
1170.531020743327
 30
0.0
 11
1694.767587648266
 21
1170.531020743327
 31
0.0
  0
LINE
  5
18CC6
330
18C7A
100
AcDbEntity
  8
寸法
 48
50.0
100
AcDbLine
 10
1694.767587648266
 20
1170.531020743327
 30
0.0
 11
1694.767587648266
 21
1201.841179395494
 31
0.0
  0
LINE
  5
18CC7
330
18C7A
100
AcDbEntity
  8
寸法
 48
50.0
100
AcDbLine
 10
1694.767587648266
 20
1201.841179395494
 30
0.0
 11
1665.006255656843
 21
1201.841179395494
 31
0.0
  0
LINE
  5
18CC8
330
18C7A
100
AcDbEntity
  8
寸法
 48
50.0
100
AcDbLine
 10
1665.006255656843
 20
1201.841179395494
 30
0.0
 11
1720.470591603318
 21
1239.420630324105
 31
0.0
  0
LINE
  5
18CC9
330
18C7A
100
AcDbEntity
  8
寸法
 48
50.0
100
AcDbLine
 10
1775.934927549793
 20
1201.841179395494
 30
0.0
 11
1720.470591603318
 21
1239.420630324105
 31
0.0
  0
LINE
  5
18CCA
330
18C7A
100
AcDbEntity
  8
寸法
 48
50.0
100
AcDbLine
 10
1746.17359555837
 20
1201.841179395494
 30
0.0
 11
1775.934927549793
 21
1201.841179395494
 31
0.0
  0
LINE
  5
18CCB
330
18C7A
100
AcDbEntity
  8
寸法
 48
50.0
100
AcDbLine
 10
1746.17359555837
 20
1170.531020743327
 30
0.0
 11
1746.17359555837
 21
1201.841179395494
 31
0.0
  0
LINE
  5
18CCC
330
18C7A
100
AcDbEntity
  8
寸法
 48
50.0
100
AcDbLine
 10
1694.767587648266
 20
1170.531020743327
 30
0.0
 11
1746.17359555837
 21
1170.531020743327
 31
0.0
  0
LINE
  5
18CCD
330
18C7A
100
AcDbEntity
  8
寸法
 48
50.0
100
AcDbLine
 10
2025.339129835225
 20
1227.676611498152
 30
0.0
 11
2025.339129835225
 21
1174.01297691636
 31
0.0
  0
LINE
  5
18CCE
330
18C7A
100
AcDbEntity
  8
寸法
 48
50.0
100
AcDbLine
 10
2114.623348430647
 20
1203.752977228664
 30
0.0
 11
2025.339129835225
 21
1227.676611498152
 31
0.0
  0
LINE
  5
18CCF
330
18C7A
100
AcDbEntity
  8
寸法
 48
50.0
100
AcDbLine
 10
1895.471408254923
 20
1203.752977228664
 30
0.0
 11
2114.623348430647
 21
1203.752977228664
 31
0.0
  0
DIMENSION
  5
18CD0
330
18C7A
100
AcDbEntity
  8
寸法
 48
50.0
100
AcDbDimension
  2
*D15
 10
2588.970589276523
 20
706.3240511224249
 30
0.0
 11
1969.060022905491
 21
706.3240511224249
 31
0.0
 12
-3742.925985830444
 22
-6453.628869860112
 32
0.0
 70
   128
  1
有効開口部間口\P<>
 71
     5
 42
1266.0
  3
INABA_S40G
100
AcDbAlignedDimension
 13
1322.970589276523
 23
1315.494269174465
 33
0.0
 14
2588.970589276523
 24
1315.494269174465
 34
0.0
100
AcDbRotatedDimension
1001
ACAD
1000
DSTYLE
1002
{
1070
   341
1005
0
1002
}
  0
LINE
  5
18CD1
330
18C7A
100
AcDbEntity
  8
部品1
100
AcDbLine
 10
3409.970589276524
 20
1392.494269174465
 30
0.0
 11
3437.970589276523
 21
1392.494269174465
 31
0.0
  0
DIMENSION
  5
18CD2
330
18C7A
100
AcDbEntity
  8
寸法
100
AcDbDimension
  2
*D16
 10
3674.266172669749
 20
1315.494269174465
 30
0.0
 11
3674.266172669748
 21
1177.494269174462
 31
0.0
 12
-3742.925985830444
 22
-6453.628869860112
 32
0.0
 70
   128
 71
     5
 42
77.0
  3
INABA_S40
100
AcDbAlignedDimension
 13
3437.970589276523
 23
1392.494269174465
 33
0.0
 14
3436.970589276523
 24
1315.494269174465
 34
0.0
 50
90.0
100
AcDbRotatedDimension
1001
ACAD
1000
DSTYLE
1002
{
1070
    41
1040
0.5
1070
    44
1040
1.0
1070
   147
1040
0.8
1070
   271
1070
     2
1070
   272
1070
     2
1070
   289
1070
     3
1070
   340
1005
F706
1070
   343
1005
164B4
1070
   344
1005
164B4
1002
}
  0
LINE
  5
18CD3
330
18C7A
100
AcDbEntity
  8
部品1
100
AcDbLine
 10
3437.970589276523
 20
1315.494269174465
 30
0.0
 11
3437.970589276523
 21
1392.494269174465
 31
0.0
  0
LINE
  5
18CD4
330
18C7A
100
AcDbEntity
  8
部品1
100
AcDbLine
 10
3398.970589276523
 20
1388.494269174465
 30
0.0
 11
3409.970589276524
 21
1388.494269174465
 31
0.0
  0
LINE
  5
18CD5
330
18C7A
100
AcDbEntity
  8
部品1
100
AcDbLine
 10
3407.970589276523
 20
1324.494269174465
 30
0.0
 11
3407.970589276523
 21
1315.494269174465
 31
0.0
  0
LINE
  5
18CD6
330
18C7A
100
AcDbEntity
  8
部品1
100
AcDbLine
 10
3398.970589276523
 20
1324.494269174465
 30
0.0
 11
3407.970589276523
 21
1324.494269174465
 31
0.0
  0
LINE
  5
18CD7
330
18C7A
100
AcDbEntity
  8
部品1
100
AcDbLine
 10
3398.970589276523
 20
1388.494269174465
 30
0.0
 11
3398.970589276523
 21
1324.494269174465
 31
0.0
  0
LINE
  5
18CD8
330
18C7A
100
AcDbEntity
  8
部品1
100
AcDbLine
 10
3409.970589276524
 20
1419.494269174465
 30
0.0
 11
3409.970589276524
 21
1388.494269174465
 31
0.0
  0
LINE
  5
18CD9
330
18C7A
100
AcDbEntity
  8
部品1
100
AcDbLine
 10
1322.970589276523
 20
1388.494269174465
 30
0.0
 11
1311.970589276523
 21
1388.494269174465
 31
0.0
  0
LINE
  5
18CDA
330
18C7A
100
AcDbEntity
  8
部品1
100
AcDbLine
 10
1283.970589276523
 20
1392.494269174465
 30
0.0
 11
1311.970589276523
 21
1392.494269174465
 31
0.0
  0
LINE
  5
18CDB
330
18C7A
100
AcDbEntity
  8
部品1
100
AcDbLine
 10
1313.970589276523
 20
1324.494269174465
 30
0.0
 11
1313.970589276523
 21
1315.494269174465
 31
0.0
  0
LINE
  5
18CDC
330
18C7A
100
AcDbEntity
  8
部品1
100
AcDbLine
 10
1322.970589276523
 20
1324.494269174465
 30
0.0
 11
1313.970589276523
 21
1324.494269174465
 31
0.0
  0
LINE
  5
18CDD
330
18C7A
100
AcDbEntity
  8
部品1
100
AcDbLine
 10
1313.970589276523
 20
1315.494269174465
 30
0.0
 11
1283.970589276523
 21
1315.494269174465
 31
0.0
  0
LINE
  5
18CDE
330
18C7A
100
AcDbEntity
  8
部品1
100
AcDbLine
 10
1283.970589276523
 20
1315.494269174465
 30
0.0
 11
1283.970589276523
 21
1392.494269174465
 31
0.0
  0
LINE
  5
18CDF
330
18C7A
100
AcDbEntity
  8
部品1
100
AcDbLine
 10
1322.970589276523
 20
1388.494269174465
 30
0.0
 11
1322.970589276523
 21
1324.494269174465
 31
0.0
  0
LINE
  5
18CE0
330
18C7A
100
AcDbEntity
  8
部品1
100
AcDbLine
 10
1311.970589276523
 20
1419.494269174462
 30
0.0
 11
1311.970589276523
 21
1388.494269174465
 31
0.0
  0
LINE
  5
18CE1
330
18C7A
100
AcDbEntity
  8
部品1
100
AcDbLine
 10
1311.970589276523
 20
1419.494269174462
 30
0.0
 11
3409.970589276524
 21
1419.494269174465
 31
0.0
  0
LINE
  5
18CE2
330
18C7A
100
AcDbEntity
  8
部品1
100
AcDbLine
 10
3407.970589276523
 20
1315.494269174465
 30
0.0
 11
3437.970589276523
 21
1315.494269174465
 31
0.0
  0
LINE
  5
18CE3
330
18C7A
100
AcDbEntity
  8
部品1
100
AcDbLine
 10
1313.970589276523
 20
1315.494269174465
 30
0.0
 11
3410.970589276523
 21
1315.494269174465
 31
0.0
  0
LINE
  5
18CE4
330
18C7A
100
AcDbEntity
  8
細線
  6
Continuous
 62
     5
100
AcDbLine
 10
2689.970589276527
 20
1354.494269174462
 30
0.0
 11
2689.970589276527
 21
1354.494269174462
 31
0.0
  0
LINE
  5
18CE5
330
18C7A
100
AcDbEntity
  8
細線
  6
Continuous
 62
     5
100
AcDbLine
 10
2682.470589276527
 20
1354.494269174462
 30
0.0
 11
2682.470589276527
 21
1354.494269174462
 31
0.0
  0
LINE
  5
18CE6
330
18C7A
100
AcDbEntity
  8
細線
  6
Continuous
 62
     5
100
AcDbLine
 10
2676.470589276527
 20
1354.494269174462
 30
0.0
 11
2676.470589276527
 21
1354.494269174462
 31
0.0
  0
LINE
  5
18CE7
330
18C7A
100
AcDbEntity
  8
細線
  6
Continuous
 62
     5
100
AcDbLine
 10
2743.970589276527
 20
1373.494269174462
 30
0.0
 11
2743.970589276527
 21
1373.494269174462
 31
0.0
  0
LINE
  5
18CE8
330
18C7A
100
AcDbEntity
  8
細線
 48
50.0
100
AcDbLine
 10
1336.970593930116
 20
1341.094443351418
 30
0.0
 11
1336.970593930113
 21
1349.490593759059
 31
0.0
  0
LINE
  5
18CE9
330
18C7A
100
AcDbEntity
  8
細線
 48
50.0
100
AcDbLine
 10
1336.970593930113
 20
1349.490593759059
 30
0.0
 11
1322.970589276523
 21
1349.490593759057
 31
0.0
  0
LINE
  5
18CEA
330
18C7A
100
AcDbEntity
  8
細線
 48
50.0
100
AcDbLine
 10
2087.970593930113
 20
1337.644443351419
 30
0.0
 11
2087.970593930113
 21
1342.494443351421
 31
0.0
  0
LINE
  5
18CEB
330
18C7A
100
AcDbEntity
  8
細線
 48
50.0
100
AcDbLine
 10
2087.970593930113
 20
1342.494443351421
 30
0.0
 11
2102.970593930113
 21
1342.494443351421
 31
0.0
  0
LINE
  5
18CEC
330
18C7A
100
AcDbEntity
  8
細線
 48
50.0
100
AcDbLine
 10
2102.970593930113
 20
1342.494443351421
 30
0.0
 11
2102.970593930115
 21
1349.494443351419
 31
0.0
  0
LINE
  5
18CED
330
18C7A
100
AcDbEntity
  8
細線
 48
50.0
100
AcDbLine
 10
2102.970593930115
 20
1349.494443351419
 30
0.0
 11
2117.970593930113
 21
1349.494443351419
 31
0.0
  0
LINE
  5
18CEE
330
18C7A
100
AcDbEntity
  8
細線
 48
50.0
100
AcDbLine
 10
2117.970593930113
 20
1349.494443351419
 30
0.0
 11
2117.970593930113
 21
1320.494443351421
 31
0.0
  0
LINE
  5
18CEF
330
18C7A
100
AcDbEntity
  8
細線
 48
50.0
100
AcDbLine
 10
1313.970589276523
 20
1320.491777694889
 30
0.0
 11
1527.970593930113
 21
1320.494460905133
 31
0.0
  0
LINE
  5
18CF0
330
18C7A
100
AcDbEntity
  8
細線
 48
50.0
100
AcDbLine
 10
2017.970593930113
 20
1320.494443351421
 30
0.0
 11
2117.970593930113
 21
1320.494443351421
 31
0.0
  0
LINE
  5
18CF1
330
18C7A
100
AcDbEntity
  8
細線
 48
50.0
100
AcDbLine
 10
1737.970593930113
 20
1320.494443351419
 30
0.0
 11
1807.970593930113
 21
1320.494443351423
 31
0.0
  0
LINE
  5
18CF2
330
18C7A
100
AcDbEntity
  8
細線
 48
50.0
100
AcDbLine
 10
1750.832558942642
 20
1320.494443351419
 30
0.0
 11
1756.588076525309
 21
1338.765294641913
 31
0.0
  0
LINE
  5
18CF3
330
18C7A
100
AcDbEntity
  8
細線
 48
50.0
100
AcDbLine
 10
1756.588076525309
 20
1338.765294641913
 30
0.0
 11
1767.516525005743
 21
1338.765294641911
 31
0.0
  0
ARC
  5
18CF4
330
18C7A
100
AcDbEntity
  8
細線
 48
50.0
100
AcDbCircle
 10
1767.516525005743
 20
1337.765294641911
 30
0.0
 40
1.0
100
AcDbArc
 50
24.62431835207225
 51
90.0
  0
ARC
  5
18CF5
330
18C7A
100
AcDbEntity
  8
細線
 48
50.0
100
AcDbCircle
 10
1778.425237120377
 20
1337.765294641911
 30
0.0
 40
1.0
100
AcDbArc
 50
90.0
 51
155.3756816479277
  0
ARC
  5
18CF6
330
18C7A
100
AcDbEntity
  8
細線
 48
50.0
100
AcDbCircle
 10
1772.970881063058
 20
1340.265294641911
 30
0.0
 40
5.0
100
AcDbArc
 50
204.6243183520723
 51
335.3756816479278
  0
LINE
  5
18CF7
330
18C7A
100
AcDbEntity
  8
細線
 48
50.0
100
AcDbLine
 10
1778.425237120377
 20
1338.765294641911
 30
0.0
 11
1789.35368560081
 21
1338.765294641913
 31
0.0
  0
LINE
  5
18CF8
330
18C7A
100
AcDbEntity
  8
細線
 48
50.0
100
AcDbLine
 10
1789.35368560081
 20
1338.765294641913
 30
0.0
 11
1795.109203183478
 21
1320.494443351423
 31
0.0
  0
LINE
  5
18CF9
330
18C7A
100
AcDbEntity
  8
細線
 48
50.0
100
AcDbLine
 10
2087.970593930113
 20
1341.094443351419
 30
0.0
 11
1336.970593930116
 21
1341.094443351418
 31
0.0
  0
LINE
  5
18CFA
330
18C7A
100
AcDbEntity
  8
細線
 48
50.0
100
AcDbLine
 10
1947.970593930113
 20
1320.494443351421
 30
0.0
 11
1877.970593930113
 21
1320.494443351421
 31
0.0
  0
LINE
  5
18CFB
330
18C7A
100
AcDbEntity
  8
細線
100
AcDbLine
 10
1667.970593930113
 20
1320.494443351421
 30
0.0
 11
1597.970602115529
 21
1320.494443351421
 31
0.0
  0
LINE
  5
18CFC
330
18C7A
100
AcDbEntity
  8
細線
 48
50.0
100
AcDbLine
 10
2741.970584622936
 20
1375.094487209288
 30
0.0
 11
2106.970593930113
 21
1375.094487209284
 31
0.0
  0
LINE
  5
18CFD
330
18C7A
100
AcDbEntity
  8
細線
 48
50.0
100
AcDbLine
 10
2106.970593930113
 20
1371.990637616925
 30
0.0
 11
2106.970593930113
 21
1376.490637616925
 31
0.0
  0
LINE
  5
18CFE
330
18C7A
100
AcDbEntity
  8
細線
 48
50.0
100
AcDbLine
 10
2106.970593930113
 20
1376.490637616925
 30
0.0
 11
2091.970593930113
 21
1376.490637616925
 31
0.0
  0
LINE
  5
18CFF
330
18C7A
100
AcDbEntity
  8
細線
 48
50.0
100
AcDbLine
 10
2091.970593930113
 20
1376.490637616925
 30
0.0
 11
2091.970593930113
 21
1383.490637616927
 31
0.0
  0
LINE
  5
18D00
330
18C7A
100
AcDbEntity
  8
細線
 48
50.0
100
AcDbLine
 10
2091.970593930113
 20
1383.490637616927
 30
0.0
 11
2076.970593930115
 21
1383.490637616924
 31
0.0
  0
LINE
  5
18D01
330
18C7A
100
AcDbEntity
  8
細線
 48
50.0
100
AcDbLine
 10
2076.970593930115
 20
1383.490637616924
 30
0.0
 11
2076.970593930115
 21
1345.890409513813
 31
0.0
  0
LINE
  5
18D02
330
18C7A
100
AcDbEntity
  8
細線
 48
50.0
100
AcDbLine
 10
2076.970593930115
 20
1345.890409513813
 30
0.0
 11
2096.970601231289
 21
1345.890451063353
 31
0.0
  0
LINE
  5
18D03
330
18C7A
100
AcDbEntity
  8
細線
 48
50.0
100
AcDbLine
 10
2096.970556362348
 20
1354.493912699161
 30
0.0
 11
2096.970601231289
 21
1345.890451063353
 31
0.0
  0
LINE
  5
18D04
330
18C7A
100
AcDbEntity
  8
細線
 48
50.0
100
AcDbLine
 10
2741.970584622936
 20
1371.644487209287
 30
0.0
 11
2741.970584622936
 21
1376.494487209284
 31
0.0
  0
LINE
  5
18D05
330
18C7A
100
AcDbEntity
  8
細線
 48
50.0
100
AcDbLine
 10
2741.970584622936
 20
1376.494487209284
 30
0.0
 11
2756.970584622934
 21
1376.494487209285
 31
0.0
  0
LINE
  5
18D06
330
18C7A
100
AcDbEntity
  8
細線
 48
50.0
100
AcDbLine
 10
2756.970584622934
 20
1376.494487209285
 30
0.0
 11
2756.970596256909
 21
1383.494487209331
 31
0.0
  0
LINE
  5
18D07
330
18C7A
100
AcDbEntity
  8
細線
 48
50.0
100
AcDbLine
 10
2756.970596256909
 20
1383.494487209331
 30
0.0
 11
2771.970594427439
 21
1383.494487209329
 31
0.0
  0
LINE
  5
18D08
330
18C7A
100
AcDbEntity
  8
細線
 48
50.0
100
AcDbLine
 10
2771.970594427439
 20
1383.494487209329
 30
0.0
 11
2771.970584125617
 21
1354.494281037055
 31
0.0
  0
LINE
  5
18D09
330
18C7A
100
AcDbEntity
  8
細線
 48
50.0
100
AcDbLine
 10
2458.070304175992
 20
1354.494278397076
 30
0.0
 11
2389.470863838818
 21
1354.494283787084
 31
0.0
  0
LINE
  5
18D0A
330
18C7A
100
AcDbEntity
  8
細線
 48
50.0
100
AcDbLine
 10
2096.970556362348
 20
1354.493912699161
 30
0.0
 11
2108.203245717057
 21
1354.494095652309
 31
0.0
  0
ARC
  5
18D0B
330
18C7A
100
AcDbEntity
  8
細線
 48
50.0
100
AcDbCircle
 10
2114.785538024393
 20
1353.294259565922
 30
0.0
 40
1.8
100
AcDbArc
 50
270.0006665777295
 51
345.000555481349
  0
LINE
  5
18D0C
330
18C7A
100
AcDbEntity
  8
細線
 48
50.0
100
AcDbLine
 10
2116.771971470473
 20
1353.753100023201
 30
0.0
 11
2116.524209028273
 21
1352.828402141094
 31
0.0
  0
LINE
  5
18D0D
330
18C7A
100
AcDbEntity
  8
細線
 48
50.0
100
AcDbLine
 10
2114.785558965548
 20
1351.494259566043
 30
0.0
 11
2111.155631546781
 21
1351.494217335563
 31
0.0
  0
ARC
  5
18D0E
330
18C7A
100
AcDbEntity
  8
細線
 48
50.0
100
AcDbCircle
 10
2111.155610605627
 20
1353.29421733544
 30
0.0
 40
1.8
100
AcDbArc
 50
195.0010443049965
 51
270.0006665777295
  0
LINE
  5
18D0F
330
18C7A
100
AcDbEntity
  8
細線
 48
50.0
100
AcDbLine
 10
2109.169183113368
 20
1353.752932303007
 30
0.0
 11
2109.416952609882
 21
1352.828311364425
 31
0.0
  0
ARC
  5
18D10
330
18C7A
100
AcDbEntity
  8
細線
 48
50.0
100
AcDbCircle
 10
2108.203262004622
 20
1353.494095652444
 30
0.0
 40
1.0
100
AcDbArc
 50
15.00104430499651
 51
90.00093320877969
  0
LINE
  5
18D11
330
18C7A
100
AcDbEntity
  8
細線
 48
50.0
100
AcDbLine
 10
2117.737892825577
 20
1354.494290342714
 30
0.0
 11
2118.679652976481
 21
1354.494296916564
 31
0.0
  0
ARC
  5
18D12
330
18C7A
100
AcDbEntity
  8
細線
 48
50.0
100
AcDbCircle
 10
2117.737899805961
 20
1353.49429034274
 30
0.0
 40
1.0
100
AcDbArc
 50
90.0003999466794
 51
165.000555481349
  0
LINE
  5
18D13
330
18C7A
100
AcDbEntity
  8
細線
 48
50.0
100
AcDbLine
 10
2669.470584622926
 20
1354.494281037055
 30
0.0
 11
2771.970584125617
 21
1354.494281037055
 31
0.0
  0
LINE
  5
18D14
330
18C7A
100
AcDbEntity
  8
細線
 48
50.0
100
AcDbLine
 10
2179.47061994182
 20
1354.494289224422
 30
0.0
 11
2118.370558714898
 21
1354.494296916564
 31
0.0
  0
LINE
  5
18D15
330
18C7A
100
AcDbEntity
  8
細線
 48
50.0
100
AcDbLine
 10
2599.470584622926
 20
1354.494281037057
 30
0.0
 11
2529.470584622926
 21
1354.494281037055
 31
0.0
  0
LINE
  5
18D16
330
18C7A
100
AcDbEntity
  8
細線
 48
50.0
100
AcDbLine
 10
2319.470584622926
 20
1354.494281037054
 30
0.0
 11
2249.470567335051
 21
1354.494281037057
 31
0.0
  0
ARC
  5
18D17
330
18C7A
100
AcDbEntity
  8
細線
 48
50.0
100
AcDbCircle
 10
2756.170589276533
 20
1387.694269174466
 30
0.0
 40
0.8
100
AcDbArc
 50
359.9997333689499
 51
89.99986668437072
  0
ARC
  5
18D18
330
18C7A
100
AcDbEntity
  8
細線
 48
50.0
100
AcDbCircle
 10
2763.770596101631
 20
1387.694280343081
 30
0.0
 40
0.8
100
AcDbArc
 50
90.00014387753465
 51
179.9997333689498
  0
LINE
  5
18D19
330
18C7A
100
AcDbEntity
  8
細線
 48
50.0
100
AcDbLine
 10
2756.170591137969
 20
1388.494269174465
 30
0.0
 11
2750.970589276525
 21
1388.494269174465
 31
0.0
  0
ARC
  5
18D1A
330
18C7A
100
AcDbEntity
  8
細線
 48
50.0
100
AcDbCircle
 10
2757.670589276524
 20
1386.194269174464
 30
0.0
 40
0.7
100
AcDbArc
 50
180.0
 51
270.0
  0
ARC
  5
18D1B
330
18C7A
100
AcDbEntity
  8
細線
 48
50.0
100
AcDbCircle
 10
2762.270589276524
 20
1386.194269174464
 30
0.0
 40
0.7
100
AcDbArc
 50
270.0
 51
0.0
  0
LINE
  5
18D1C
330
18C7A
100
AcDbEntity
  8
細線
 48
50.0
100
AcDbLine
 10
2762.970589276525
 20
1386.194269174464
 30
0.0
 11
2762.970596101639
 21
1387.694284065954
 31
0.0
  0
LINE
  5
18D1D
330
18C7A
100
AcDbEntity
  8
細線
 48
50.0
100
AcDbLine
 10
2757.670589276524
 20
1385.494269174465
 30
0.0
 11
2762.270589276524
 21
1385.494269174465
 31
0.0
  0
LINE
  5
18D1E
330
18C7A
100
AcDbEntity
  8
細線
 48
50.0
100
AcDbLine
 10
2756.970589276525
 20
1387.694269174466
 30
0.0
 11
2756.970589276525
 21
1386.194269174464
 31
0.0
  0
LINE
  5
18D1F
330
18C7A
100
AcDbEntity
  8
細線
 48
50.0
100
AcDbLine
 10
3382.570589276527
 20
1418.494269174465
 30
0.0
 11
2745.970589276525
 21
1418.494269174463
 31
0.0
  0
LINE
  5
18D20
330
18C7A
100
AcDbEntity
  8
細線
 48
50.0
100
AcDbLine
 10
3408.470589276525
 20
1413.494269174467
 30
0.0
 11
3392.570589276527
 21
1413.494269174465
 31
0.0
  0
LINE
  5
18D21
330
18C7A
100
AcDbEntity
  8
細線
 48
50.0
100
AcDbLine
 10
3392.570589276526
 20
1413.494269174465
 30
0.0
 11
3382.570589276527
 21
1418.494269174465
 31
0.0
  0
LINE
  5
18D22
330
18C7A
100
AcDbEntity
  8
細線
100
AcDbLine
 10
2993.470589276525
 20
1388.494269174465
 30
0.0
 11
2993.470589276525
 21
1417.794269174464
 31
0.0
  0
LINE
  5
18D23
330
18C7A
100
AcDbEntity
  8
細線
100
AcDbLine
 10
2993.470589276525
 20
1417.794269174464
 30
0.0
 11
3013.470589276525
 21
1417.794269174464
 31
0.0
  0
LINE
  5
18D24
330
18C7A
100
AcDbEntity
  8
細線
100
AcDbLine
 10
3013.470589276525
 20
1388.494269174465
 30
0.0
 11
3013.470589276525
 21
1417.794269174464
 31
0.0
  0
LINE
  5
18D25
330
18C7A
100
AcDbEntity
  8
細線
100
AcDbLine
 10
3170.720589276524
 20
1388.494269174465
 30
0.0
 11
3100.720589276523
 21
1388.494269174465
 31
0.0
  0
LINE
  5
18D26
330
18C7A
100
AcDbEntity
  8
細線
 48
50.0
100
AcDbLine
 10
2890.720589276525
 20
1388.494269174465
 30
0.0
 11
2763.766368849365
 21
1388.494269174465
 31
0.0
  0
LINE
  5
18D27
330
18C7A
100
AcDbEntity
  8
細線
100
AcDbLine
 10
3030.720589276525
 20
1388.494269174465
 30
0.0
 11
2960.720589276525
 21
1388.494269174465
 31
0.0
  0
LINE
  5
18D28
330
18C7A
100
AcDbEntity
  8
細線
 48
50.0
100
AcDbLine
 10
2750.970589276525
 20
1380.494269174465
 30
0.0
 11
2750.970589276525
 21
1388.494269174465
 31
0.0
  0
LINE
  5
18D29
330
18C7A
100
AcDbEntity
  8
細線
 48
50.0
100
AcDbLine
 10
2730.970589276524
 20
1380.494269174467
 30
0.0
 11
2750.970589276525
 21
1380.494269174465
 31
0.0
  0
LINE
  5
18D2A
330
18C7A
100
AcDbEntity
  8
細線
 48
50.0
100
AcDbLine
 10
2745.970589276525
 20
1418.494269174465
 30
0.0
 11
2745.970589276525
 21
1413.494269174465
 31
0.0
  0
LINE
  5
18D2B
330
18C7A
100
AcDbEntity
  8
細線
 48
50.0
100
AcDbLine
 10
2730.970589276525
 20
1418.494269174463
 30
0.0
 11
2745.970589276525
 21
1418.494269174465
 31
0.0
  0
LINE
  5
18D2C
330
18C7A
100
AcDbEntity
  8
細線
 48
50.0
100
AcDbLine
 10
2730.970589276524
 20
1380.494269174467
 30
0.0
 11
2730.970589276525
 21
1418.494269174463
 31
0.0
  0
LINE
  5
18D2D
330
18C7A
100
AcDbEntity
  8
細線
100
AcDbLine
 10
3398.970589276523
 20
1388.494269174465
 30
0.0
 11
3240.720589276525
 21
1388.494269174465
 31
0.0
  0
LINE
  5
18D2E
330
18C7A
100
AcDbEntity
  8
細線
 48
50.0
100
AcDbLine
 10
3408.470589276525
 20
1413.494269174467
 30
0.0
 11
3408.470589276524
 21
1388.494269174465
 31
0.0
  0
TEXT
  5
18D2F
330
18C7A
100
AcDbEntity
  8
部品1
100
AcDbText
 10
1860.154865991392
 20
46.99880823813145
 30
0.0
 40
135.0
  1
平面図
  7
STYLE2
100
AcDbText
  0
LWPOLYLINE
  5
18D30
330
18C7A
100
AcDbEntity
  8
部品1
100
AcDbPolyline
 90
        4
 70
     1
 43
0.0
 10
1770.23525616235
 20
239.8923374566548
 10
1770.23525616235
 20
0.0000159111223184
 10
2533.705922390791
 20
0.0000159111223184
 10
2533.705922390791
 20
239.8923374566548
  0
LINE
  5
18D31
330
18C7A
100
AcDbEntity
  8
部品1
100
AcDbLine
 10
1534.470589276487
 20
3154.494269174626
 30
0.0
 11
2769.470589276552
 21
3154.494269174626
 31
0.0
  0
LINE
  5
18D32
330
18C7A
100
AcDbEntity
  8
部品1
 48
50.0
100
AcDbLine
 10
1311.970589276523
 20
1420.494269174462
 30
0.0
 11
3411.970589276523
 21
1420.494269174465
 31
0.0
  0
LINE
  5
18D33
330
18C7A
100
AcDbEntity
  8
部品1
 48
50.0
100
AcDbLine
 10
471.9705892765232
 20
1392.494269174465
 30
0.0
 11
1311.970589276523
 21
1392.494269174465
 31
0.0
  0
DIMENSION
  5
18D34
330
18C7A
100
AcDbEntity
  8
寸法
100
AcDbDimension
  2
*D14
 10
2710.234916278077
 20
2488.887829538828
 30
0.0
 11
2338.318822490183
 21
2488.887829538828
 31
0.0
 12
-3742.925985830444
 22
-6453.628869860112
 32
0.0
 70
   128
 71
     5
 42
1231.00000000007
  3
INABA_S40G
100
AcDbAlignedDimension
 13
1536.470589276486
 23
2702.494269174557
 33
0.0
 14
2767.470589276556
 24
2702.494269174549
 34
0.0
100
AcDbRotatedDimension
1001
ACAD
1000
DSTYLE
1002
{
1002
}
  0
LINE
  5
18D35
330
18C7A
100
AcDbEntity
  8
部品1
100
AcDbLine
 10
1536.470589276487
 20
2702.494269174557
 30
0.0
 11
2767.470589276554
 21
2702.494269174615
 31
0.0
  0
LINE
  5
18D36
330
18C7A
100
AcDbEntity
  8
部品1
100
AcDbLine
 10
1536.470589276487
 20
3152.494269174557
 30
0.0
 11
2767.470589276556
 21
3152.494269174615
 31
0.0
  0
LINE
  5
18D37
330
18C7A
100
AcDbEntity
  8
細線
 48
50.0
100
AcDbLine
 10
1508.470589276487
 20
3152.494269174558
 30
0.0
 11
445.4705892765559
 21
2702.494269174509
 31
0.0
  0
LINE
  5
18D38
330
18C7A
100
AcDbEntity
  8
細線
 48
50.0
100
AcDbLine
 10
1508.470589276487
 20
2702.494269174558
 30
0.0
 11
445.4705892765542
 21
3152.494269174509
 31
0.0
  0
LINE
  5
18D39
330
18C7A
100
AcDbEntity
  8
部品1
100
AcDbLine
 10
1556.970589276487
 20
3172.494269174611
 30
0.0
 11
1556.970589276487
 21
3154.494269174611
 31
0.0
  0
LINE
  5
18D3A
330
18C7A
100
AcDbEntity
  8
部品1
100
AcDbLine
 10
1556.970589276487
 20
3172.494269174611
 30
0.0
 11
1550.970589276487
 21
3172.494269174611
 31
0.0
  0
LINE
  5
18D3B
330
18C7A
100
AcDbEntity
  8
部品1
100
AcDbLine
 10
1534.470589276487
 20
3146.494269174608
 30
0.0
 11
1509.470589276487
 21
3146.494269174611
 31
0.0
  0
LINE
  5
18D3C
330
18C7A
100
AcDbEntity
  8
部品1
100
AcDbLine
 10
1486.970589276487
 20
3172.494269174611
 30
0.0
 11
1486.970589276487
 21
3154.494269174611
 31
0.0
  0
LINE
  5
18D3D
330
18C7A
100
AcDbEntity
  8
部品1
100
AcDbLine
 10
1492.970589276487
 20
3172.494269174611
 30
0.0
 11
1486.970589276487
 21
3172.494269174611
 31
0.0
  0
LINE
  5
18D3E
330
18C7A
100
AcDbEntity
  8
部品1
100
AcDbLine
 10
1534.470589276487
 20
2702.494269174615
 30
0.0
 11
1509.470589276487
 21
2702.494269174615
 31
0.0
  0
LINE
  5
18D3F
330
18C7A
100
AcDbEntity
  8
部品1
 48
50.0
100
AcDbLine
 10
1536.470589276487
 20
3152.494269174611
 30
0.0
 11
1536.470589276487
 21
2702.494269174615
 31
0.0
  0
LINE
  5
18D40
330
18C7A
100
AcDbEntity
  8
部品1
 48
50.0
100
AcDbLine
 10
1508.470589276487
 20
3152.494269174607
 30
0.0
 11
1508.470589276487
 21
2702.494269174615
 31
0.0
  0
LINE
  5
18D41
330
18C7A
100
AcDbEntity
  8
部品1
 48
50.0
100
AcDbLine
 10
1534.470589276487
 20
3154.494269174618
 30
0.0
 11
1534.470589276487
 21
2702.494269174615
 31
0.0
  0
LINE
  5
18D42
330
18C7A
100
AcDbEntity
  8
部品1
 48
50.0
100
AcDbLine
 10
1509.470589276487
 20
3154.494269174615
 30
0.0
 11
1509.470589276487
 21
2702.494269174615
 31
0.0
  0
LINE
  5
18D43
330
18C7A
100
AcDbEntity
  8
部品1
100
AcDbLine
 10
3411.970589276556
 20
1392.494269174582
 30
0.0
 11
3411.970589276556
 21
1420.494269174596
 31
0.0
  0
LINE
  5
18D44
330
18C7A
100
AcDbEntity
  8
部品1
100
AcDbLine
 10
1311.970589276523
 20
1392.494269174596
 30
0.0
 11
1311.970589276523
 21
1420.494269174596
 31
0.0
  0
LINE
  5
18D45
330
18C7A
100
AcDbEntity
  8
部品1
100
AcDbLine
 10
891.9705892765232
 20
1392.494269174596
 30
0.0
 11
891.9705892765232
 21
1420.494269174596
 31
0.0
  0
LINE
  5
18D46
330
18C7A
100
AcDbEntity
  8
部品1
100
AcDbLine
 10
3411.97058927652
 20
3182.494269174477
 30
0.0
 11
3411.970589276523
 21
3154.494269174477
 31
0.0
  0
LINE
  5
18D47
330
18C7A
100
AcDbEntity
  8
部品1
100
AcDbLine
 10
2571.97058927652
 20
3182.494269174477
 30
0.0
 11
2571.970589276523
 21
3154.494269174477
 31
0.0
  0
LINE
  5
18D48
330
18C7A
100
AcDbEntity
  8
部品1
100
AcDbLine
 10
2991.97058927652
 20
3182.494269174477
 30
0.0
 11
2991.970589276523
 21
3154.494269174477
 31
0.0
  0
LINE
  5
18D49
330
18C7A
100
AcDbEntity
  8
部品1
100
AcDbLine
 10
2151.970589276519
 20
3182.494269174477
 30
0.0
 11
2151.970589276523
 21
3154.494269174477
 31
0.0
  0
LINE
  5
18D4A
330
18C7A
100
AcDbEntity
  8
部品1
100
AcDbLine
 10
1731.970589276519
 20
3182.494269174477
 30
0.0
 11
1731.970589276523
 21
3154.494269174477
 31
0.0
  0
LINE
  5
18D4B
330
18C7A
100
AcDbEntity
  8
部品1
100
AcDbLine
 10
1311.970589276519
 20
3182.494269174477
 30
0.0
 11
1311.970589276523
 21
3154.494269174477
 31
0.0
  0
LINE
  5
18D4C
330
18C7A
100
AcDbEntity
  8
部品1
100
AcDbLine
 10
891.9705892765195
 20
3182.494269174477
 30
0.0
 11
891.9705892765232
 21
3154.494269174477
 31
0.0
  0
LINE
  5
18D4D
330
18C7A
100
AcDbEntity
  8
部品1
100
AcDbLine
 10
471.9705892765232
 20
1392.494269174596
 30
0.0
 11
471.9705892765232
 21
1420.494269174596
 31
0.0
  0
LINE
  5
18D4E
330
18C7A
100
AcDbEntity
  8
部品1
100
AcDbLine
 10
444.9705892765305
 20
1420.494269174558
 30
0.0
 11
3858.970589276556
 21
1420.494269174596
 31
0.0
  0
LINE
  5
18D4F
330
18C7A
100
AcDbEntity
  8
部品1
100
AcDbLine
 10
3831.970589276556
 20
1392.494269174596
 30
0.0
 11
3831.970589276556
 21
1420.494269174596
 31
0.0
  0
LINE
  5
18D50
330
18C7A
100
AcDbEntity
  8
部品1
100
AcDbLine
 10
3858.970589276556
 20
1447.494269174593
 30
0.0
 11
3886.970589276556
 21
1447.494269174593
 31
0.0
  0
LINE
  5
18D51
330
18C7A
100
AcDbEntity
  8
部品1
100
AcDbLine
 10
3858.970589276556
 20
1867.494269174607
 30
0.0
 11
3886.970589276556
 21
1867.494269174607
 31
0.0
  0
LINE
  5
18D52
330
18C7A
100
AcDbEntity
  8
部品1
100
AcDbLine
 10
444.9705892765305
 20
1867.49426917448
 30
0.0
 11
416.9705892765305
 21
1867.49426917448
 31
0.0
  0
LINE
  5
18D53
330
18C7A
100
AcDbEntity
  8
部品1
100
AcDbLine
 10
3830.470589276541
 20
1867.49426917458
 30
0.0
 11
473.4705892765396
 21
1867.49426917448
 31
0.0
  0
LINE
  5
18D54
330
18C7A
100
AcDbEntity
  8
部品1
100
AcDbLine
 10
3830.470589276541
 20
2287.49426917458
 30
0.0
 11
473.4705892765396
 21
2287.49426917448
 31
0.0
  0
LINE
  5
18D55
330
18C7A
100
AcDbEntity
  8
部品1
100
AcDbLine
 10
444.9705892765305
 20
2287.49426917448
 30
0.0
 11
416.9705892765305
 21
2287.49426917448
 31
0.0
  0
LINE
  5
18D56
330
18C7A
100
AcDbEntity
  8
部品1
100
AcDbLine
 10
3858.970589276556
 20
2287.494269174608
 30
0.0
 11
3886.970589276556
 21
2287.494269174608
 31
0.0
  0
LINE
  5
18D57
330
18C7A
100
AcDbEntity
  8
部品1
 48
50.0
100
AcDbLine
 10
2151.970589276551
 20
2702.494269174586
 30
0.0
 11
2151.970589276581
 21
1448.994269174494
 31
0.0
  0
LINE
  5
18D58
330
18C7A
100
AcDbEntity
  8
破線
 48
10.0
100
AcDbLine
 10
2959.470589276535
 20
1472.494269174522
 30
0.0
 11
2176.970589276532
 21
1472.494269174505
 31
0.0
  0
LINE
  5
18D59
330
18C7A
100
AcDbEntity
  8
破線
 48
10.0
100
AcDbLine
 10
3009.47058927653
 20
1448.994269174509
 30
0.0
 11
3009.47058927653
 21
2702.494269174615
 31
0.0
  0
LINE
  5
18D5A
330
18C7A
100
AcDbEntity
  8
破線
 48
10.0
100
AcDbLine
 10
2959.470589276535
 20
1448.994269174505
 30
0.0
 11
2959.470589276531
 21
2702.494269174615
 31
0.0
  0
LINE
  5
18D5B
330
18C7A
100
AcDbEntity
  8
破線
 48
10.0
100
AcDbLine
 10
1344.47058927653
 20
1448.994269174509
 30
0.0
 11
1344.47058927653
 21
2702.494269174615
 31
0.0
  0
LINE
  5
18D5C
330
18C7A
100
AcDbEntity
  8
破線
 48
10.0
100
AcDbLine
 10
1294.470589276534
 20
1448.994269174505
 30
0.0
 11
1294.47058927653
 21
2702.494269174615
 31
0.0
  0
DIMENSION
  5
18D5D
330
18C7A
100
AcDbEntity
  8
寸法
100
AcDbDimension
  2
*D13
 10
1451.234916278005
 20
2488.887829538828
 30
0.0
 11
916.0604668248634
 21
2488.887829538828
 31
0.0
 12
-3742.925985830444
 22
-6453.628869860112
 32
0.0
 70
   128
 71
     5
 42
1062.99999999993
  3
INABA_S40G
100
AcDbAlignedDimension
 13
445.4705892765559
 23
2702.494269174505
 33
0.0
 14
1508.470589276486
 24
2702.494269174558
 34
0.0
100
AcDbRotatedDimension
1001
ACAD
1000
DSTYLE
1002
{
1002
}
  0
LINE
  5
18D5E
330
18C7A
100
AcDbEntity
  8
破線
 48
10.0
100
AcDbLine
 10
1294.470589276534
 20
1472.494269174469
 30
0.0
 11
496.9705892765414
 21
1472.494269174476
 31
0.0
  0
LINE
  5
18D5F
330
18C7A
100
AcDbEntity
  8
部品1
100
AcDbLine
 10
3831.970589276556
 20
3182.494269174604
 30
0.0
 11
3831.970589276556
 21
3154.494269174604
 31
0.0
  0
LINE
  5
18D60
330
18C7A
100
AcDbEntity
  8
部品1
100
AcDbLine
 10
3831.970589276556
 20
3182.494269174626
 30
0.0
 11
3831.970589276556
 21
3154.494269174626
 31
0.0
  0
LINE
  5
18D61
330
18C7A
100
AcDbEntity
  8
部品1
100
AcDbLine
 10
3858.970589276556
 20
3127.494269174607
 30
0.0
 11
3886.970589276556
 21
3127.494269174607
 31
0.0
  0
LINE
  5
18D62
330
18C7A
100
AcDbEntity
  8
部品1
100
AcDbLine
 10
3858.970589276556
 20
2707.494269174608
 30
0.0
 11
3886.970589276556
 21
2707.494269174608
 31
0.0
  0
LINE
  5
18D63
330
18C7A
100
AcDbEntity
  8
部品1
100
AcDbLine
 10
3858.470589276556
 20
3152.494269174604
 30
0.0
 11
3858.470589276556
 21
2702.494269174608
 31
0.0
  0
LINE
  5
18D64
330
18C7A
100
AcDbEntity
  8
部品1
100
AcDbLine
 10
3886.970589276533
 20
1447.494269174593
 30
0.0
 11
3886.970589276531
 21
1392.494269174596
 31
0.0
  0
LINE
  5
18D65
330
18C7A
100
AcDbEntity
  8
部品1
 48
50.0
100
AcDbLine
 10
3830.470589276556
 20
1448.994269174596
 30
0.0
 11
3858.970589276554
 21
1420.494269174596
 31
0.0
  0
LINE
  5
18D66
330
18C7A
100
AcDbEntity
  8
部品1
100
AcDbLine
 10
3886.970589276531
 20
1392.494269174596
 30
0.0
 11
3835.970589276531
 21
1392.494269174596
 31
0.0
  0
LINE
  5
18D67
330
18C7A
100
AcDbEntity
  8
部品1
100
AcDbLine
 10
3858.970589276533
 20
1447.494269174593
 30
0.0
 11
3886.970589276531
 21
1447.494269174593
 31
0.0
  0
LINE
  5
18D68
330
18C7A
100
AcDbEntity
  8
部品1
100
AcDbLine
 10
3886.970589276556
 20
3182.494269174604
 30
0.0
 11
3886.970589276531
 21
1392.494269174596
 31
0.0
  0
DIMENSION
  5
18D69
330
18C7A
100
AcDbEntity
  8
寸法
100
AcDbDimension
  2
*D12
 10
4534.396935010967
 20
1447.494269174593
 30
0.0
 11
4534.396935010965
 21
2287.4942691746
 31
0.0
 12
-3742.925985830444
 22
-6453.628869860112
 32
0.0
 70
   128
  1
4X420=<>
 71
     5
 42
1680.000000000014
  3
INABA_S40G
100
AcDbAlignedDimension
 13
3886.970589276556
 23
3127.494269174607
 33
0.0
 14
3886.970589276531
 24
1447.494269174593
 34
0.0
 50
90.0
100
AcDbRotatedDimension
1001
ACAD
1000
DSTYLE
1002
{
1002
}
  0
LINE
  5
18D6A
330
18C7A
100
AcDbEntity
  8
部品1
100
AcDbLine
 10
3858.970589276556
 20
3154.494269174604
 30
0.0
 11
3858.970589276534
 21
1420.494269174596
 31
0.0
  0
DIMENSION
  5
18D6B
330
18C7A
100
AcDbEntity
  8
寸法
100
AcDbDimension
  2
*D11
 10
4213.82831513858
 20
2607.276453505718
 30
0.0
 11
4113.828315138579
 21
2832.276453505718
 31
0.0
 12
-3742.925985830444
 22
-6453.628869860112
 32
0.0
 71
     5
 42
449.9999999999963
  3
INABA_S40G
100
AcDbAlignedDimension
 13
3858.470589276556
 23
3152.494269174604
 33
0.0
 14
3858.470589276556
 24
2702.494269174608
 34
0.0
 50
90.0
100
AcDbRotatedDimension
1001
ACAD
1000
DSTYLE
1002
{
1002
}
  0
LINE
  5
18D6C
330
18C7A
100
AcDbEntity
  8
部品1
100
AcDbLine
 10
3830.470589276547
 20
2702.494269174608
 30
0.0
 11
3830.470589276556
 21
1448.994269174596
 31
0.0
  0
LINE
  5
18D6D
330
18C7A
100
AcDbEntity
  8
破線
 48
10.0
100
AcDbLine
 10
3806.970589276549
 20
2702.494269174608
 30
0.0
 11
3806.970589276558
 21
1472.494269174593
 31
0.0
  0
LINE
  5
18D6E
330
18C7A
100
AcDbEntity
  8
部品1
100
AcDbLine
 10
2769.470589276556
 20
3146.494269174608
 30
0.0
 11
2794.470589276556
 21
3146.494269174611
 31
0.0
  0
LINE
  5
18D6F
330
18C7A
100
AcDbEntity
  8
部品1
100
AcDbLine
 10
2810.970589276556
 20
3172.494269174611
 30
0.0
 11
2816.970589276556
 21
3172.494269174611
 31
0.0
  0
LINE
  5
18D70
330
18C7A
100
AcDbEntity
  8
部品1
100
AcDbLine
 10
2816.970589276556
 20
3172.494269174611
 30
0.0
 11
2816.970589276556
 21
3154.494269174611
 31
0.0
  0
LINE
  5
18D71
330
18C7A
100
AcDbEntity
  8
部品1
100
AcDbLine
 10
2746.970589276556
 20
3172.494269174611
 30
0.0
 11
2752.970589276556
 21
3172.494269174611
 31
0.0
  0
LINE
  5
18D72
330
18C7A
100
AcDbEntity
  8
部品1
100
AcDbLine
 10
2746.970589276556
 20
3172.494269174611
 30
0.0
 11
2746.970589276556
 21
3154.494269174611
 31
0.0
  0
LINE
  5
18D73
330
18C7A
100
AcDbEntity
  8
部品1
100
AcDbLine
 10
2769.470589276556
 20
2702.494269174615
 30
0.0
 11
2794.470589276556
 21
2702.494269174615
 31
0.0
  0
LINE
  5
18D74
330
18C7A
100
AcDbEntity
  8
部品1
 48
50.0
100
AcDbLine
 10
2794.470589276556
 20
3154.494269174615
 30
0.0
 11
2794.470589276556
 21
2702.494269174615
 31
0.0
  0
LINE
  5
18D75
330
18C7A
100
AcDbEntity
  8
部品1
 48
50.0
100
AcDbLine
 10
2769.470589276554
 20
3154.494269174618
 30
0.0
 11
2769.470589276556
 21
2702.494269174615
 31
0.0
  0
LINE
  5
18D76
330
18C7A
100
AcDbEntity
  8
部品1
 48
50.0
100
AcDbLine
 10
2795.470589276556
 20
3152.494269174607
 30
0.0
 11
2795.470589276556
 21
2702.494269174615
 31
0.0
  0
LINE
  5
18D77
330
18C7A
100
AcDbEntity
  8
部品1
 48
50.0
100
AcDbLine
 10
2767.470589276556
 20
3152.494269174611
 30
0.0
 11
2767.470589276556
 21
2702.494269174615
 31
0.0
  0
LINE
  5
18D78
330
18C7A
100
AcDbEntity
  8
破線
 48
10.0
100
AcDbLine
 10
2176.97058927653
 20
1448.994269174509
 30
0.0
 11
2176.97058927653
 21
2702.494269174588
 31
0.0
  0
LINE
  5
18D79
330
18C7A
100
AcDbEntity
  8
破線
 48
10.0
100
AcDbLine
 10
2126.970589276534
 20
1448.994269174505
 30
0.0
 11
2126.970589276531
 21
2702.494269174586
 31
0.0
  0
LINE
  5
18D7A
330
18C7A
100
AcDbEntity
  8
部品1
100
AcDbLine
 10
2794.470589276556
 20
3154.494269174622
 30
0.0
 11
3858.970589276556
 21
3154.494269174604
 31
0.0
  0
LINE
  5
18D7B
330
18C7A
100
AcDbEntity
  8
細線
 48
50.0
100
AcDbLine
 10
3858.470589276556
 20
2702.494269174608
 30
0.0
 11
2795.470589276556
 21
3152.494269174607
 31
0.0
  0
LINE
  5
18D7C
330
18C7A
100
AcDbEntity
  8
部品1
100
AcDbLine
 10
2795.470589276555
 20
2702.494269174615
 30
0.0
 11
3858.470589276556
 21
2702.494269174608
 31
0.0
  0
LINE
  5
18D7D
330
18C7A
100
AcDbEntity
  8
部品1
100
AcDbLine
 10
2795.470589276556
 20
3152.494269174611
 30
0.0
 11
3858.470589276556
 21
3152.494269174604
 31
0.0
  0
LINE
  5
18D7E
330
18C7A
100
AcDbEntity
  8
細線
 48
50.0
100
AcDbLine
 10
3858.470589276556
 20
3152.494269174604
 30
0.0
 11
2795.470589276555
 21
2702.494269174615
 31
0.0
  0
DIMENSION
  5
18D7F
330
18C7A
100
AcDbEntity
  8
寸法
100
AcDbDimension
  2
*D10
 10
3801.234916278101
 20
2488.887829538937
 30
0.0
 11
3318.360544398907
 21
2488.887829538937
 31
0.0
 12
-3742.925985830444
 22
-6453.628869860112
 32
0.0
 70
   128
 71
     5
 42
1063.000000000012
  3
INABA_S40G
100
AcDbAlignedDimension
 13
2795.470589276555
 23
2702.494269174615
 33
0.0
 14
3858.470589276567
 24
2702.494269174608
 34
0.0
100
AcDbRotatedDimension
1001
ACAD
1000
DSTYLE
1002
{
1002
}
  0
LINE
  5
18D80
330
18C7A
100
AcDbEntity
  8
破線
 48
10.0
100
AcDbLine
 10
3806.970589276556
 20
1472.494269174594
 30
0.0
 11
3009.47058927653
 21
1472.494269174523
 31
0.0
  0
DIMENSION
  5
18D81
330
18C7A
100
AcDbEntity
  8
寸法
100
AcDbDimension
  2
*D9
 10
4534.396935010941
 20
1392.494269174596
 30
0.0
 11
4534.39693501094
 21
1084.008987800356
 31
0.0
 12
-3742.925985830444
 22
-6453.628869860112
 32
0.0
 70
   128
 71
     5
 42
54.99999999999636
  3
INABA_S40G
100
AcDbAlignedDimension
 13
3886.970589276531
 23
1447.494269174593
 33
0.0
 14
3886.970589276531
 24
1392.494269174596
 34
0.0
 50
90.0
100
AcDbRotatedDimension
1001
ACAD
1000
DSTYLE
1002
{
1002
}
  0
LINE
  5
18D82
330
18C7A
100
AcDbEntity
  8
部品1
100
AcDbLine
 10
471.9705892765196
 20
3182.494269174477
 30
0.0
 11
471.9705892765232
 21
3154.494269174477
 31
0.0
  0
LINE
  5
18D83
330
18C7A
100
AcDbEntity
  8
部品1
100
AcDbLine
 10
471.9705892765559
 20
3182.494269174509
 30
0.0
 11
471.9705892765559
 21
3154.494269174509
 31
0.0
  0
LINE
  5
18D84
330
18C7A
100
AcDbEntity
  8
部品1
100
AcDbLine
 10
444.9705892765232
 20
3127.49426917448
 30
0.0
 11
416.9705892765232
 21
3127.49426917448
 31
0.0
  0
LINE
  5
18D85
330
18C7A
100
AcDbEntity
  8
部品1
100
AcDbLine
 10
444.9705892765305
 20
2707.49426917448
 30
0.0
 11
416.9705892765305
 21
2707.49426917448
 31
0.0
  0
LINE
  5
18D86
330
18C7A
100
AcDbEntity
  8
部品1
 48
50.0
100
AcDbLine
 10
445.4705892765542
 20
3152.494269174506
 30
0.0
 11
445.4705892765559
 21
2702.494269174505
 31
0.0
  0
LINE
  5
18D87
330
18C7A
100
AcDbEntity
  8
部品1
 48
50.0
100
AcDbLine
 10
473.470589276545
 20
1448.994269174573
 30
0.0
 11
444.970589276545
 21
1420.494269174574
 31
0.0
  0
LINE
  5
18D88
330
18C7A
100
AcDbEntity
  8
部品1
100
AcDbLine
 10
471.9705892765232
 20
1392.494269174465
 30
0.0
 11
416.9705892765486
 21
1392.494269174465
 31
0.0
  0
LINE
  5
18D89
330
18C7A
100
AcDbEntity
  8
部品1
100
AcDbLine
 10
444.9705892765305
 20
1447.494269174429
 30
0.0
 11
416.9705892765469
 21
1447.494269174429
 31
0.0
  0
LINE
  5
18D8A
330
18C7A
100
AcDbEntity
  8
部品1
100
AcDbLine
 10
444.9705892765305
 20
1447.494269174465
 30
0.0
 11
416.9705892765469
 21
1447.494269174465
 31
0.0
  0
LINE
  5
18D8B
330
18C7A
100
AcDbEntity
  8
部品1
100
AcDbLine
 10
444.9705892765469
 20
1447.49426917448
 30
0.0
 11
416.9705892765469
 21
1447.49426917448
 31
0.0
  0
LINE
  5
18D8C
330
18C7A
100
AcDbEntity
  8
部品1
100
AcDbLine
 10
416.9705892765469
 20
1447.494269174429
 30
0.0
 11
416.9705892765486
 21
1392.494269174433
 31
0.0
  0
LINE
  5
18D8D
330
18C7A
100
AcDbEntity
  8
部品1
100
AcDbLine
 10
416.9705892765196
 20
3182.494269174477
 30
0.0
 11
416.9705892765486
 21
1392.494269174465
 31
0.0
  0
LINE
  5
18D8E
330
18C7A
100
AcDbEntity
  8
部品1
100
AcDbLine
 10
444.9705892765305
 20
1420.494269174556
 30
0.0
 11
444.9705892765559
 21
3154.494269174509
 31
0.0
  0
LINE
  5
18D8F
330
18C7A
100
AcDbEntity
  8
部品1
100
AcDbLine
 10
473.4705892765323
 20
2702.494269174608
 30
0.0
 11
473.470589276545
 21
1448.994269174571
 31
0.0
  0
LINE
  5
18D90
330
18C7A
100
AcDbEntity
  8
破線
 48
10.0
100
AcDbLine
 10
496.9705892765305
 20
2702.494269174608
 30
0.0
 11
496.9705892765451
 21
1472.494269174476
 31
0.0
  0
DIMENSION
  5
18D91
330
18C7A
100
AcDbEntity
  8
寸法
100
AcDbDimension
  2
*D8
 10
3886.970589276531
 20
410.7433333855515
 30
0.0
 11
2168.197775309287
 21
410.7433333855515
 31
0.0
 12
-3742.925985830444
 22
-6453.628869860112
 32
0.0
 70
   128
 71
     5
 42
3469.999999999982
  3
INABA_S40G
100
AcDbAlignedDimension
 13
416.9705892765486
 23
1392.494269174433
 33
0.0
 14
3886.970589276531
 24
1392.49426917456
 34
0.0
100
AcDbRotatedDimension
1001
ACAD
1000
DSTYLE
1002
{
1070
   341
1005
0
1002
}
  0
LINE
  5
18D92
330
18C7A
100
AcDbEntity
  8
部品1
100
AcDbLine
 10
444.9705892765559
 20
3154.494269174624
 30
0.0
 11
1509.470589276487
 21
3154.494269174626
 31
0.0
  0
LINE
  5
18D93
330
18C7A
100
AcDbEntity
  8
部品1
100
AcDbLine
 10
3886.970589276531
 20
1392.494269174596
 30
0.0
 11
3411.970589276556
 21
1392.494269174582
 31
0.0
  0
LINE
  5
18D94
330
18C7A
100
AcDbEntity
  8
部品1
100
AcDbLine
 10
416.9705892765559
 20
3182.494269174509
 30
0.0
 11
3886.970589276556
 21
3182.494269174604
 31
0.0
  0
LINE
  5
18D95
330
18C7A
100
AcDbEntity
  8
部品1
100
AcDbLine
 10
445.4705892765559
 20
2702.494269174509
 30
0.0
 11
1508.470589276487
 21
2702.494269174558
 31
0.0
  0
LINE
  5
18D96
330
18C7A
100
AcDbEntity
  8
細線
 48
50.0
100
AcDbLine
 10
2767.470589276556
 20
3152.494269174611
 30
0.0
 11
1536.470589276487
 21
2702.494269174558
 31
0.0
  0
LINE
  5
18D97
330
18C7A
100
AcDbEntity
  8
部品1
100
AcDbLine
 10
445.4705892765542
 20
3152.494269174509
 30
0.0
 11
1508.470589276485
 21
3152.494269174558
 31
0.0
  0
LINE
  5
18D98
330
18C7A
100
AcDbEntity
  8
細線
 48
50.0
100
AcDbLine
 10
2767.470589276554
 20
2702.494269174615
 30
0.0
 11
1536.470589276485
 21
3152.494269174558
 31
0.0
  0
LINE
  5
18D99
330
18C7A
100
AcDbEntity
  8
破線
 48
10.0
100
AcDbLine
 10
2126.970589276534
 20
1472.494269174502
 30
0.0
 11
1344.47058927653
 21
1472.494269174473
 31
0.0
  0
LINE
  5
18D9A
330
18C7A
100
AcDbEntity
  8
部品1
100
AcDbLine
 10
3830.470589276556
 20
1448.994269174596
 30
0.0
 11
473.4705892764487
 21
1448.994269174476
 31
0.0
  0
DIMENSION
  5
18D9B
330
18C7A
100
AcDbEntity
  8
寸法
100
AcDbDimension
  2
*D7
 10
471.970589276555
 20
3698.302488799491
 30
0.0
 11
108.4853079022819
 21
3698.302488799491
 31
0.0
 12
-3742.925985830444
 22
-6453.628869860112
 32
0.0
 70
   128
 71
     5
 42
55.00000000003456
  3
INABA_S40G
100
AcDbAlignedDimension
 13
416.9705892765205
 23
3182.494269174509
 33
0.0
 14
471.970589276555
 24
3182.494269174509
 34
0.0
100
AcDbRotatedDimension
1001
ACAD
1000
DSTYLE
1002
{
1002
}
  0
DIMENSION
  5
18D9C
330
18C7A
100
AcDbEntity
  8
寸法
100
AcDbDimension
  2
*D6
 10
4534.396935010967
 20
3127.494269174607
 30
0.0
 11
4534.396935010965
 21
3490.979550548844
 31
0.0
 12
-3742.925985830444
 22
-6453.628869860112
 32
0.0
 70
   128
 71
     5
 42
54.99999999999636
  3
INABA_S40G
100
AcDbAlignedDimension
 13
3886.970589276556
 23
3182.494269174604
 33
0.0
 14
3886.970589276556
 24
3127.494269174607
 34
0.0
 50
90.0
100
AcDbRotatedDimension
1001
ACAD
1000
DSTYLE
1002
{
1002
}
  0
DIMENSION
  5
18D9D
330
18C7A
100
AcDbEntity
  8
寸法
100
AcDbDimension
  2
*D5
 10
3886.970589276556
 20
3698.302488799589
 30
0.0
 11
4195.455870650794
 21
3698.302488799589
 31
0.0
 12
-3742.925985830444
 22
-6453.628869860112
 32
0.0
 70
   128
 71
     5
 42
55.0
  3
INABA_S40G
100
AcDbAlignedDimension
 13
3831.970589276556
 23
3182.494269174604
 33
0.0
 14
3886.970589276556
 24
3182.494269174604
 34
0.0
100
AcDbRotatedDimension
1001
ACAD
1000
DSTYLE
1002
{
1002
}
  0
DIMENSION
  5
18D9E
330
18C7A
100
AcDbEntity
  8
寸法
100
AcDbDimension
  2
*D4
 10
3831.970589276556
 20
3698.302488799607
 30
0.0
 11
2151.970589276555
 21
3698.302488799607
 31
0.0
 12
-3742.925985830444
 22
-6453.628869860112
 32
0.0
 70
   128
  1
8X420=<>
 71
     5
 42
3360.000000000001
  3
INABA_S40G
100
AcDbAlignedDimension
 13
471.970589276555
 23
3182.494269174509
 33
0.0
 14
3831.970589276556
 24
3182.494269174604
 34
0.0
100
AcDbRotatedDimension
1001
ACAD
1000
DSTYLE
1002
{
1002
}
  0
DIMENSION
  5
18D9F
330
18C7A
100
AcDbEntity
  8
寸法
100
AcDbDimension
  2
*D3
 10
4899.503876750603
 20
1392.494269174596
 30
0.0
 11
4899.503876750601
 21
2287.4942691746
 31
0.0
 12
-3742.925985830444
 22
-6453.628869860112
 32
0.0
 70
   128
 71
     5
 42
1790.000000000007
  3
INABA_S40G
100
AcDbAlignedDimension
 13
3886.970589276556
 23
3182.494269174604
 33
0.0
 14
3886.970589276531
 24
1392.494269174596
 34
0.0
 50
90.0
100
AcDbRotatedDimension
1001
ACAD
1000
DSTYLE
1002
{
1002
}
  0
ENDBLK
  5
18DA1
330
18C7A
100
AcDbEntity
  8
0
 48
50.0
100
AcDbBlockEnd
  0
BLOCK
  5
1C4CB
330
1C4CA
100
AcDbEntity
  8
0
 48
50.0
100
AcDbBlockBegin
  2
_NONE
 70
     0
 10
0.0
 20
0.0
 30
0.0
  3
_NONE
  1

  0
CIRCLE
  5
1C4CC
330
1C4CA
100
AcDbEntity
  8
0
  6
ByBlock
 62
     0
 48
50.0
100
AcDbCircle
 10
0.0
 20
0.0
 30
0.0
 40
0.25
  0
ENDBLK
  5
1C4CD
330
1C4CA
100
AcDbEntity
  8
0
 48
50.0
100
AcDbBlockEnd
  0
BLOCK
  5
2CBE8
330
2CBDF
100
AcDbEntity
  8
0
 48
50.0
100
AcDbBlockBegin
  2
*D19
 70
     1
 10
0.0
 20
0.0
 30
0.0
  3
*D19
  1

  0
LINE
  5
2D1E6
330
2CBDF
100
AcDbEntity
  8
寸法
 62
     0
 48
50.0
370
    -2
100
AcDbLine
 10
5730.6
 20
7513.343127939783
 30
0.0
 11
5730.6
 21
8352.609586033693
 31
0.0
  0
LINE
  5
2D1E7
330
2CBDF
100
AcDbEntity
  8
寸法
 62
     0
 48
50.0
370
    -2
100
AcDbLine
 10
3116.6
 20
7513.343127939783
 30
0.0
 11
3116.6
 21
8352.609586033693
 31
0.0
  0
LINE
  5
2D1E8
330
2CBDF
100
AcDbEntity
  8
寸法
 62
     0
 48
50.0
370
    -2
100
AcDbLine
 10
5730.6
 20
8292.609586033695
 30
0.0
 11
3116.6
 21
8292.609586033695
 31
0.0
  0
INSERT
  5
2D1E9
330
2CBDF
100
AcDbEntity
  8
寸法
 62
     0
 48
50.0
370
    -2
100
AcDbBlockReference
  2
_DOTSMALL
 10
5730.6
 20
8292.609586033695
 30
0.0
 41
100.0
 42
100.0
 43
100.0
  0
INSERT
  5
2D1EA
330
2CBDF
100
AcDbEntity
  8
寸法
 62
     0
 48
50.0
370
    -2
100
AcDbBlockReference
  2
_DOTSMALL
 10
3116.6
 20
8292.609586033695
 30
0.0
 41
100.0
 42
100.0
 43
100.0
 50
180.0
  0
MTEXT
  5
2D1EB
330
2CBDF
100
AcDbEntity
  8
寸法
 62
     7
 48
50.0
100
AcDbMText
 10
4423.6
 20
8392.621397057316
 30
0.0
 40
120.0
 41
0.0
 71
     5
 72
     1
  1
\A1;2614
  7
STYLE1
 73
     1
 44
1.0
1001
ACAD
1000
MTEXTBEGIN
1070
    73
1070
     1
1070
    44
1040
1.0
1070
    74
1070
     0
1000
MTEXTEND
  0
POINT
  5
2D1EC
330
2CBDF
100
AcDbEntity
  8
DEFPOINTS
 62
     0
 48
50.0
100
AcDbPoint
 10
5730.6
 20
7493.343127939782
 30
0.0
  0
POINT
  5
2D1ED
330
2CBDF
100
AcDbEntity
  8
DEFPOINTS
 62
     0
 48
50.0
100
AcDbPoint
 10
3116.6
 20
7493.343127939782
 30
0.0
  0
POINT
  5
2D1EE
330
2CBDF
100
AcDbEntity
  8
DEFPOINTS
 62
     0
 48
50.0
100
AcDbPoint
 10
3116.6
 20
8292.609586033695
 30
0.0
  0
ENDBLK
  5
2CBE9
330
2CBDF
100
AcDbEntity
  8
0
 48
50.0
100
AcDbBlockEnd
  0
BLOCK
  5
2CBF5
330
2CBEA
100
AcDbEntity
  8
0
 48
50.0
100
AcDbBlockBegin
  2
*D20
 70
     1
 10
0.0
 20
0.0
 30
0.0
  3
*D20
  1

  0
LINE
  5
2D1DC
330
2CBEA
100
AcDbEntity
  8
寸法
 62
     0
 48
50.0
370
    -2
100
AcDbLine
 10
3116.6
 20
7513.343127939783
 30
0.0
 11
3116.6
 21
8352.609586033693
 31
0.0
  0
LINE
  5
2D1DD
330
2CBEA
100
AcDbEntity
  8
寸法
 62
     0
 48
50.0
370
    -2
100
AcDbLine
 10
2993.600000000001
 20
7586.343127939783
 30
0.0
 11
2993.600000000001
 21
8352.609586033693
 31
0.0
  0
LINE
  5
2D1DE
330
2CBEA
100
AcDbEntity
  8
寸法
 62
     0
 48
50.0
370
    -2
100
AcDbLine
 10
3116.6
 20
8292.609586033695
 30
0.0
 11
2993.600000000001
 21
8292.609586033695
 31
0.0
  0
LINE
  5
2D1DF
330
2CBEA
100
AcDbEntity
  8
寸法
 62
     0
 48
50.0
370
    -2
100
AcDbLine
 10
2993.600000000001
 20
8292.609586033695
 30
0.0
 11
2582.008116907964
 21
8292.609586033695
 31
0.0
  0
INSERT
  5
2D1E0
330
2CBEA
100
AcDbEntity
  8
寸法
 62
     0
 48
50.0
370
    -2
100
AcDbBlockReference
  2
_DOTSMALL
 10
3116.6
 20
8292.609586033695
 30
0.0
 41
100.0
 42
100.0
 43
100.0
  0
INSERT
  5
2D1E1
330
2CBEA
100
AcDbEntity
  8
寸法
 62
     0
 48
50.0
370
    -2
100
AcDbBlockReference
  2
_DOTSMALL
 10
2993.600000000001
 20
8292.609586033695
 30
0.0
 41
100.0
 42
100.0
 43
100.0
 50
180.0
  0
MTEXT
  5
2D1E2
330
2CBEA
100
AcDbEntity
  8
寸法
 62
     7
 48
50.0
100
AcDbMText
 10
2720.493398282203
 20
8392.621397057316
 30
0.0
 40
120.0
 41
0.0
 71
     5
 72
     1
  1
\A1;123
  7
STYLE1
 73
     1
 44
1.0
1001
ACAD
1000
MTEXTBEGIN
1070
    73
1070
     1
1070
    44
1040
1.0
1070
    74
1070
     0
1000
MTEXTEND
  0
POINT
  5
2D1E3
330
2CBEA
100
AcDbEntity
  8
DEFPOINTS
 62
     0
 48
50.0
100
AcDbPoint
 10
3116.6
 20
7493.343127939782
 30
0.0
  0
POINT
  5
2D1E4
330
2CBEA
100
AcDbEntity
  8
DEFPOINTS
 62
     0
 48
50.0
100
AcDbPoint
 10
2993.600000000001
 20
7566.343127939783
 30
0.0
  0
POINT
  5
2D1E5
330
2CBEA
100
AcDbEntity
  8
DEFPOINTS
 62
     0
 48
50.0
100
AcDbPoint
 10
2993.600000000001
 20
8292.609586033695
 30
0.0
  0
ENDBLK
  5
2CBF6
330
2CBEA
100
AcDbEntity
  8
0
 48
50.0
100
AcDbBlockEnd
  0
BLOCK
  5
2CC0F
330
2CC04
100
AcDbEntity
  8
0
 48
50.0
100
AcDbBlockBegin
  2
*D21
 70
     1
 10
0.0
 20
0.0
 30
0.0
  3
*D21
  1

  0
LINE
  5
2D237
330
2CC04
100
AcDbEntity
  8
寸法
 62
     0
 48
50.0
370
    -2
100
AcDbLine
 10
2973.600000000001
 20
7566.343127939783
 30
0.0
 11
2310.665006330073
 21
7566.343127939783
 31
0.0
  0
LINE
  5
2D238
330
2CC04
100
AcDbEntity
  8
寸法
 62
     0
 48
50.0
370
    -2
100
AcDbLine
 10
3046.600000000001
 20
7443.343127939782
 30
0.0
 11
2310.665006330073
 21
7443.343127939782
 31
0.0
  0
LINE
  5
2D239
330
2CC04
100
AcDbEntity
  8
寸法
 62
     0
 48
50.0
370
    -2
100
AcDbLine
 10
2370.665006330073
 20
7443.343127939782
 30
0.0
 11
2370.665006330073
 21
7566.343127939783
 31
0.0
  0
LINE
  5
2D23A
330
2CC04
100
AcDbEntity
  8
寸法
 62
     0
 48
50.0
370
    -2
100
AcDbLine
 10
2370.665006330073
 20
7566.343127939783
 30
0.0
 11
2370.665006330073
 21
7977.935011031821
 31
0.0
  0
INSERT
  5
2D23B
330
2CC04
100
AcDbEntity
  8
寸法
 62
     0
 48
50.0
370
    -2
100
AcDbBlockReference
  2
_DOTSMALL
 10
2370.665006330073
 20
7443.343127939782
 30
0.0
 41
100.0
 42
100.0
 43
100.0
 50
270.0
  0
INSERT
  5
2D23C
330
2CC04
100
AcDbEntity
  8
寸法
 62
     0
 48
50.0
370
    -2
100
AcDbBlockReference
  2
_DOTSMALL
 10
2370.665006330073
 20
7566.343127939783
 30
0.0
 41
100.0
 42
100.0
 43
100.0
 50
90.0
  0
MTEXT
  5
2D23D
330
2CC04
100
AcDbEntity
  8
寸法
 62
     7
 48
50.0
100
AcDbMText
 10
2270.653195306449
 20
7839.449729657582
 30
0.0
 40
120.0
 41
0.0
 71
     5
 72
     1
  1
\A1;123
  7
STYLE1
 11
0.0000000000000001
 21
1.0
 31
0.0
 73
     1
 44
1.0
1001
ACAD
1000
MTEXTBEGIN
1070
    73
1070
     1
1070
    44
1040
1.0
1070
    74
1070
     0
1000
MTEXTEND
  0
POINT
  5
2D23E
330
2CC04
100
AcDbEntity
  8
DEFPOINTS
 62
     0
 48
50.0
100
AcDbPoint
 10
2993.600000000001
 20
7566.343127939783
 30
0.0
  0
POINT
  5
2D23F
330
2CC04
100
AcDbEntity
  8
DEFPOINTS
 62
     0
 48
50.0
100
AcDbPoint
 10
3066.600000000001
 20
7443.343127939782
 30
0.0
  0
POINT
  5
2D240
330
2CC04
100
AcDbEntity
  8
DEFPOINTS
 62
     0
 48
50.0
100
AcDbPoint
 10
2370.665006330073
 20
7443.343127939782
 30
0.0
  0
ENDBLK
  5
2CC10
330
2CC04
100
AcDbEntity
  8
0
 48
50.0
100
AcDbBlockEnd
  0
BLOCK
  5
2CC25
330
2CC1B
100
AcDbEntity
  8
0
 48
50.0
100
AcDbBlockBegin
  2
*D22
 70
     1
 10
0.0
 20
0.0
 30
0.0
  3
*D22
  1

  0
LINE
  5
2D1D3
330
2CC1B
100
AcDbEntity
  8
寸法
 62
     0
 48
50.0
370
    -2
100
AcDbLine
 10
7630.600000000001
 20
7513.343127939783
 30
0.0
 11
7630.600000000001
 21
8352.609586033693
 31
0.0
  0
LINE
  5
2D1D4
330
2CC1B
100
AcDbEntity
  8
寸法
 62
     0
 48
50.0
370
    -2
100
AcDbLine
 10
5730.6
 20
7513.343127939783
 30
0.0
 11
5730.6
 21
8352.609586033693
 31
0.0
  0
LINE
  5
2D1D5
330
2CC1B
100
AcDbEntity
  8
寸法
 62
     0
 48
50.0
370
    -2
100
AcDbLine
 10
7630.600000000001
 20
8292.609586033695
 30
0.0
 11
5730.6
 21
8292.609586033695
 31
0.0
  0
INSERT
  5
2D1D6
330
2CC1B
100
AcDbEntity
  8
寸法
 62
     0
 48
50.0
370
    -2
100
AcDbBlockReference
  2
_DOTSMALL
 10
7630.600000000001
 20
8292.609586033695
 30
0.0
 41
100.0
 42
100.0
 43
100.0
  0
INSERT
  5
2D1D7
330
2CC1B
100
AcDbEntity
  8
寸法
 62
     0
 48
50.0
370
    -2
100
AcDbBlockReference
  2
_DOTSMALL
 10
5730.6
 20
8292.609586033695
 30
0.0
 41
100.0
 42
100.0
 43
100.0
 50
180.0
  0
MTEXT
  5
2D1D8
330
2CC1B
100
AcDbEntity
  8
寸法
 62
     7
 48
50.0
100
AcDbMText
 10
6680.600000000001
 20
8392.609586033694
 30
0.0
 40
120.0
 41
0.0
 71
     5
 72
     1
  1
\A1;1900
  7
STYLE1
 73
     1
 44
1.0
1001
ACAD
1000
MTEXTBEGIN
1070
    73
1070
     1
1070
    44
1040
1.0
1070
    74
1070
     0
1000
MTEXTEND
  0
POINT
  5
2D1D9
330
2CC1B
100
AcDbEntity
  8
DEFPOINTS
 62
     0
 48
50.0
100
AcDbPoint
 10
7630.600000000001
 20
7493.343127939782
 30
0.0
  0
POINT
  5
2D1DA
330
2CC1B
100
AcDbEntity
  8
DEFPOINTS
 62
     0
 48
50.0
100
AcDbPoint
 10
5730.6
 20
7493.343127939782
 30
0.0
  0
POINT
  5
2D1DB
330
2CC1B
100
AcDbEntity
  8
DEFPOINTS
 62
     0
 48
50.0
100
AcDbPoint
 10
5730.6
 20
8292.609586033695
 30
0.0
  0
ENDBLK
  5
2CC26
330
2CC1B
100
AcDbEntity
  8
0
 48
50.0
100
AcDbBlockEnd
  0
BLOCK
  5
2CC3E
330
2CC34
100
AcDbEntity
  8
0
 48
50.0
100
AcDbBlockBegin
  2
*D23
 70
     1
 10
0.0
 20
0.0
 30
0.0
  3
*D23
  1

  0
LINE
  5
2DA8B
330
2CC34
100
AcDbEntity
  8
寸法
 62
     0
 48
50.0
370
    -2
100
AcDbLine
 10
13453.59999999999
 20
7586.343127939783
 30
0.0
 11
13453.59999999999
 21
8108.951944610032
 31
0.0
  0
LINE
  5
2DA8C
330
2CC34
100
AcDbEntity
  8
寸法
 62
     0
 48
50.0
370
    -2
100
AcDbLine
 10
12498.60000000001
 20
6983.343127939782
 30
0.0
 11
12498.60000000001
 21
8108.951944610032
 31
0.0
  0
LINE
  5
2DA8D
330
2CC34
100
AcDbEntity
  8
寸法
 62
     0
 48
50.0
370
    -2
100
AcDbLine
 10
13453.59999999999
 20
8048.951944610031
 30
0.0
 11
12498.60000000001
 21
8048.951944610031
 31
0.0
  0
INSERT
  5
2DA8E
330
2CC34
100
AcDbEntity
  8
寸法
 62
     0
 48
50.0
370
    -2
100
AcDbBlockReference
  2
_DOTSMALL
 10
13453.59999999999
 20
8048.951944610031
 30
0.0
 41
100.0
 42
100.0
 43
100.0
  0
INSERT
  5
2DA8F
330
2CC34
100
AcDbEntity
  8
寸法
 62
     0
 48
50.0
370
    -2
100
AcDbBlockReference
  2
_DOTSMALL
 10
12498.60000000001
 20
8048.951944610031
 30
0.0
 41
100.0
 42
100.0
 43
100.0
 50
180.0
  0
MTEXT
  5
2DA90
330
2CC34
100
AcDbEntity
  8
寸法
 62
     7
 48
50.0
100
AcDbMText
 10
12976.1
 20
8148.951944610031
 30
0.0
 40
120.0
 41
0.0
 71
     5
 72
     1
  1
\A1;955
  7
STYLE1
 73
     1
 44
1.0
1001
ACAD
1000
MTEXTBEGIN
1070
    73
1070
     1
1070
    44
1040
1.0
1070
    74
1070
     0
1000
MTEXTEND
  0
POINT
  5
2DA91
330
2CC34
100
AcDbEntity
  8
DEFPOINTS
 62
     0
 48
50.0
100
AcDbPoint
 10
13453.59999999999
 20
7566.343127939783
 30
0.0
  0
POINT
  5
2DA92
330
2CC34
100
AcDbEntity
  8
DEFPOINTS
 62
     0
 48
50.0
100
AcDbPoint
 10
12498.60000000001
 20
6963.343127939783
 30
0.0
  0
POINT
  5
2DA93
330
2CC34
100
AcDbEntity
  8
DEFPOINTS
 62
     0
 48
50.0
100
AcDbPoint
 10
12498.60000000001
 20
8048.951944610031
 30
0.0
  0
ENDBLK
  5
2CC3F
330
2CC34
100
AcDbEntity
  8
0
 48
50.0
100
AcDbBlockEnd
  0
BLOCK
  5
2CC4A
330
2CC40
100
AcDbEntity
  8
0
 48
50.0
100
AcDbBlockBegin
  2
*D24
 70
     1
 10
0.0
 20
0.0
 30
0.0
  3
*D24
  1

  0
LINE
  5
2DA82
330
2CC40
100
AcDbEntity
  8
寸法
 62
     0
 48
50.0
370
    -2
100
AcDbLine
 10
11548.60000000001
 20
6983.343127939782
 30
0.0
 11
11548.60000000001
 21
8108.951944610032
 31
0.0
  0
LINE
  5
2DA83
330
2CC40
100
AcDbEntity
  8
寸法
 62
     0
 48
50.0
370
    -2
100
AcDbLine
 10
10598.60000000001
 20
6983.343127939782
 30
0.0
 11
10598.60000000001
 21
8108.951944610032
 31
0.0
  0
LINE
  5
2DA84
330
2CC40
100
AcDbEntity
  8
寸法
 62
     0
 48
50.0
370
    -2
100
AcDbLine
 10
11548.60000000001
 20
8048.951944610031
 30
0.0
 11
10598.60000000001
 21
8048.951944610031
 31
0.0
  0
INSERT
  5
2DA85
330
2CC40
100
AcDbEntity
  8
寸法
 62
     0
 48
50.0
370
    -2
100
AcDbBlockReference
  2
_DOTSMALL
 10
11548.60000000001
 20
8048.951944610031
 30
0.0
 41
100.0
 42
100.0
 43
100.0
  0
INSERT
  5
2DA86
330
2CC40
100
AcDbEntity
  8
寸法
 62
     0
 48
50.0
370
    -2
100
AcDbBlockReference
  2
_DOTSMALL
 10
10598.60000000001
 20
8048.951944610031
 30
0.0
 41
100.0
 42
100.0
 43
100.0
 50
180.0
  0
MTEXT
  5
2DA87
330
2CC40
100
AcDbEntity
  8
寸法
 62
     7
 48
50.0
100
AcDbMText
 10
11073.60000000001
 20
8148.951944610031
 30
0.0
 40
120.0
 41
0.0
 71
     5
 72
     1
  1
\A1;950
  7
STYLE1
 73
     1
 44
1.0
1001
ACAD
1000
MTEXTBEGIN
1070
    73
1070
     1
1070
    44
1040
1.0
1070
    74
1070
     0
1000
MTEXTEND
  0
POINT
  5
2DA88
330
2CC40
100
AcDbEntity
  8
DEFPOINTS
 62
     0
 48
50.0
100
AcDbPoint
 10
11548.60000000001
 20
6963.343127939783
 30
0.0
  0
POINT
  5
2DA89
330
2CC40
100
AcDbEntity
  8
DEFPOINTS
 62
     0
 48
50.0
100
AcDbPoint
 10
10598.60000000001
 20
6963.343127939783
 30
0.0
  0
POINT
  5
2DA8A
330
2CC40
100
AcDbEntity
  8
DEFPOINTS
 62
     0
 48
50.0
100
AcDbPoint
 10
10598.60000000001
 20
8048.951944610031
 30
0.0
  0
ENDBLK
  5
2CC4B
330
2CC40
100
AcDbEntity
  8
0
 48
50.0
100
AcDbBlockEnd
  0
BLOCK
  5
2CC56
330
2CC4C
100
AcDbEntity
  8
0
 48
50.0
100
AcDbBlockBegin
  2
*D25
 70
     1
 10
0.0
 20
0.0
 30
0.0
  3
*D25
  1

  0
LINE
  5
2DA79
330
2CC4C
100
AcDbEntity
  8
寸法
 62
     0
 48
50.0
370
    -2
100
AcDbLine
 10
10598.60000000001
 20
6983.343127939782
 30
0.0
 11
10598.60000000001
 21
8108.951944610032
 31
0.0
  0
LINE
  5
2DA7A
330
2CC4C
100
AcDbEntity
  8
寸法
 62
     0
 48
50.0
370
    -2
100
AcDbLine
 10
9648.600000000008
 20
6983.343127939782
 30
0.0
 11
9648.600000000008
 21
8108.951944610032
 31
0.0
  0
LINE
  5
2DA7B
330
2CC4C
100
AcDbEntity
  8
寸法
 62
     0
 48
50.0
370
    -2
100
AcDbLine
 10
10598.60000000001
 20
8048.951944610031
 30
0.0
 11
9648.600000000008
 21
8048.951944610031
 31
0.0
  0
INSERT
  5
2DA7C
330
2CC4C
100
AcDbEntity
  8
寸法
 62
     0
 48
50.0
370
    -2
100
AcDbBlockReference
  2
_DOTSMALL
 10
10598.60000000001
 20
8048.951944610031
 30
0.0
 41
100.0
 42
100.0
 43
100.0
  0
INSERT
  5
2DA7D
330
2CC4C
100
AcDbEntity
  8
寸法
 62
     0
 48
50.0
370
    -2
100
AcDbBlockReference
  2
_DOTSMALL
 10
9648.600000000008
 20
8048.951944610031
 30
0.0
 41
100.0
 42
100.0
 43
100.0
 50
180.0
  0
MTEXT
  5
2DA7E
330
2CC4C
100
AcDbEntity
  8
寸法
 62
     7
 48
50.0
100
AcDbMText
 10
10123.60000000001
 20
8148.951944610031
 30
0.0
 40
120.0
 41
0.0
 71
     5
 72
     1
  1
\A1;950
  7
STYLE1
 73
     1
 44
1.0
1001
ACAD
1000
MTEXTBEGIN
1070
    73
1070
     1
1070
    44
1040
1.0
1070
    74
1070
     0
1000
MTEXTEND
  0
POINT
  5
2DA7F
330
2CC4C
100
AcDbEntity
  8
DEFPOINTS
 62
     0
 48
50.0
100
AcDbPoint
 10
10598.60000000001
 20
6963.343127939783
 30
0.0
  0
POINT
  5
2DA80
330
2CC4C
100
AcDbEntity
  8
DEFPOINTS
 62
     0
 48
50.0
100
AcDbPoint
 10
9648.600000000008
 20
6963.343127939783
 30
0.0
  0
POINT
  5
2DA81
330
2CC4C
100
AcDbEntity
  8
DEFPOINTS
 62
     0
 48
50.0
100
AcDbPoint
 10
9648.600000000008
 20
8048.951944610031
 30
0.0
  0
ENDBLK
  5
2CC57
330
2CC4C
100
AcDbEntity
  8
0
 48
50.0
100
AcDbBlockEnd
  0
BLOCK
  5
2CC62
330
2CC58
100
AcDbEntity
  8
0
 48
50.0
100
AcDbBlockBegin
  2
*D26
 70
     1
 10
0.0
 20
0.0
 30
0.0
  3
*D26
  1

  0
LINE
  5
2DA70
330
2CC58
100
AcDbEntity
  8
寸法
 62
     0
 48
50.0
370
    -2
100
AcDbLine
 10
12498.60000000001
 20
6983.343127939782
 30
0.0
 11
12498.60000000001
 21
8108.951944610032
 31
0.0
  0
LINE
  5
2DA71
330
2CC58
100
AcDbEntity
  8
寸法
 62
     0
 48
50.0
370
    -2
100
AcDbLine
 10
11548.60000000001
 20
6983.343127939782
 30
0.0
 11
11548.60000000001
 21
8108.951944610032
 31
0.0
  0
LINE
  5
2DA72
330
2CC58
100
AcDbEntity
  8
寸法
 62
     0
 48
50.0
370
    -2
100
AcDbLine
 10
12498.60000000001
 20
8048.951944610031
 30
0.0
 11
11548.60000000001
 21
8048.951944610031
 31
0.0
  0
INSERT
  5
2DA73
330
2CC58
100
AcDbEntity
  8
寸法
 62
     0
 48
50.0
370
    -2
100
AcDbBlockReference
  2
_DOTSMALL
 10
12498.60000000001
 20
8048.951944610031
 30
0.0
 41
100.0
 42
100.0
 43
100.0
  0
INSERT
  5
2DA74
330
2CC58
100
AcDbEntity
  8
寸法
 62
     0
 48
50.0
370
    -2
100
AcDbBlockReference
  2
_DOTSMALL
 10
11548.60000000001
 20
8048.951944610031
 30
0.0
 41
100.0
 42
100.0
 43
100.0
 50
180.0
  0
MTEXT
  5
2DA75
330
2CC58
100
AcDbEntity
  8
寸法
 62
     7
 48
50.0
100
AcDbMText
 10
12023.6
 20
8148.951944610031
 30
0.0
 40
120.0
 41
0.0
 71
     5
 72
     1
  1
\A1;950
  7
STYLE1
 73
     1
 44
1.0
1001
ACAD
1000
MTEXTBEGIN
1070
    73
1070
     1
1070
    44
1040
1.0
1070
    74
1070
     0
1000
MTEXTEND
  0
POINT
  5
2DA76
330
2CC58
100
AcDbEntity
  8
DEFPOINTS
 62
     0
 48
50.0
100
AcDbPoint
 10
12498.60000000001
 20
6963.343127939783
 30
0.0
  0
POINT
  5
2DA77
330
2CC58
100
AcDbEntity
  8
DEFPOINTS
 62
     0
 48
50.0
100
AcDbPoint
 10
11548.60000000001
 20
6963.343127939783
 30
0.0
  0
POINT
  5
2DA78
330
2CC58
100
AcDbEntity
  8
DEFPOINTS
 62
     0
 48
50.0
100
AcDbPoint
 10
11548.60000000001
 20
8048.951944610031
 30
0.0
  0
ENDBLK
  5
2CC63
330
2CC58
100
AcDbEntity
  8
0
 48
50.0
100
AcDbBlockEnd
  0
BLOCK
  5
2CC6E
330
2CC64
100
AcDbEntity
  8
0
 48
50.0
100
AcDbBlockBegin
  2
*D27
 70
     1
 10
0.0
 20
0.0
 30
0.0
  3
*D27
  1

  0
LINE
  5
2D1A6
330
2CC64
100
AcDbEntity
  8
寸法
 62
     0
 48
50.0
370
    -2
100
AcDbLine
 10
13330.59999999999
 20
7513.343127939783
 30
0.0
 11
13330.59999999999
 21
8352.609586033693
 31
0.0
  0
LINE
  5
2D1A7
330
2CC64
100
AcDbEntity
  8
寸法
 62
     0
 48
50.0
370
    -2
100
AcDbLine
 10
10480.6
 20
7513.343127939783
 30
0.0
 11
10480.6
 21
8352.609586033693
 31
0.0
  0
LINE
  5
2D1A8
330
2CC64
100
AcDbEntity
  8
寸法
 62
     0
 48
50.0
370
    -2
100
AcDbLine
 10
13330.59999999999
 20
8292.609586033695
 30
0.0
 11
10480.6
 21
8292.609586033695
 31
0.0
  0
INSERT
  5
2D1A9
330
2CC64
100
AcDbEntity
  8
寸法
 62
     0
 48
50.0
370
    -2
100
AcDbBlockReference
  2
_DOTSMALL
 10
13330.59999999999
 20
8292.609586033695
 30
0.0
 41
100.0
 42
100.0
 43
100.0
  0
INSERT
  5
2D1AA
330
2CC64
100
AcDbEntity
  8
寸法
 62
     0
 48
50.0
370
    -2
100
AcDbBlockReference
  2
_DOTSMALL
 10
10480.6
 20
8292.609586033695
 30
0.0
 41
100.0
 42
100.0
 43
100.0
 50
180.0
  0
MTEXT
  5
2D1AB
330
2CC64
100
AcDbEntity
  8
寸法
 62
     7
 48
50.0
100
AcDbMText
 10
11905.6
 20
8392.621397057316
 30
0.0
 40
120.0
 41
0.0
 71
     5
 72
     1
  1
\A1;2850
  7
STYLE1
 73
     1
 44
1.0
1001
ACAD
1000
MTEXTBEGIN
1070
    73
1070
     1
1070
    44
1040
1.0
1070
    74
1070
     0
1000
MTEXTEND
  0
POINT
  5
2D1AC
330
2CC64
100
AcDbEntity
  8
DEFPOINTS
 62
     0
 48
50.0
100
AcDbPoint
 10
13330.59999999999
 20
7493.343127939782
 30
0.0
  0
POINT
  5
2D1AD
330
2CC64
100
AcDbEntity
  8
DEFPOINTS
 62
     0
 48
50.0
100
AcDbPoint
 10
10480.6
 20
7493.343127939782
 30
0.0
  0
POINT
  5
2D1AE
330
2CC64
100
AcDbEntity
  8
DEFPOINTS
 62
     0
 48
50.0
100
AcDbPoint
 10
10480.6
 20
8292.609586033695
 30
0.0
  0
ENDBLK
  5
2CC6F
330
2CC64
100
AcDbEntity
  8
0
 48
50.0
100
AcDbBlockEnd
  0
BLOCK
  5
2CC88
330
2CC7D
100
AcDbEntity
  8
0
 48
50.0
100
AcDbBlockBegin
  2
*D28
 70
     1
 10
0.0
 20
0.0
 30
0.0
  3
*D28
  1

  0
LINE
  5
2D19C
330
2CC7D
100
AcDbEntity
  8
寸法
 62
     0
 48
50.0
370
    -2
100
AcDbLine
 10
13453.59999999999
 20
7586.343127939783
 30
0.0
 11
13453.59999999999
 21
8352.609586033693
 31
0.0
  0
LINE
  5
2D19D
330
2CC7D
100
AcDbEntity
  8
寸法
 62
     0
 48
50.0
370
    -2
100
AcDbLine
 10
13330.59999999999
 20
7513.343127939783
 30
0.0
 11
13330.59999999999
 21
8352.609586033693
 31
0.0
  0
LINE
  5
2D19E
330
2CC7D
100
AcDbEntity
  8
寸法
 62
     0
 48
50.0
370
    -2
100
AcDbLine
 10
13330.59999999999
 20
8292.609586033695
 30
0.0
 11
13453.59999999999
 21
8292.609586033695
 31
0.0
  0
LINE
  5
2D19F
330
2CC7D
100
AcDbEntity
  8
寸法
 62
     0
 48
50.0
370
    -2
100
AcDbLine
 10
13453.59999999999
 20
8292.609586033695
 30
0.0
 11
13865.19188309204
 21
8292.609586033695
 31
0.0
  0
INSERT
  5
2D1A0
330
2CC7D
100
AcDbEntity
  8
寸法
 62
     0
 48
50.0
370
    -2
100
AcDbBlockReference
  2
_DOTSMALL
 10
13330.59999999999
 20
8292.609586033695
 30
0.0
 41
100.0
 42
100.0
 43
100.0
 50
180.0
  0
INSERT
  5
2D1A1
330
2CC7D
100
AcDbEntity
  8
寸法
 62
     0
 48
50.0
370
    -2
100
AcDbBlockReference
  2
_DOTSMALL
 10
13453.59999999999
 20
8292.609586033695
 30
0.0
 41
100.0
 42
100.0
 43
100.0
  0
MTEXT
  5
2D1A2
330
2CC7D
100
AcDbEntity
  8
寸法
 62
     7
 48
50.0
100
AcDbMText
 10
13726.7066017178
 20
8392.621397057316
 30
0.0
 40
120.0
 41
0.0
 71
     5
 72
     1
  1
\A1;123
  7
STYLE1
 73
     1
 44
1.0
1001
ACAD
1000
MTEXTBEGIN
1070
    73
1070
     1
1070
    44
1040
1.0
1070
    74
1070
     0
1000
MTEXTEND
  0
POINT
  5
2D1A3
330
2CC7D
100
AcDbEntity
  8
DEFPOINTS
 62
     0
 48
50.0
100
AcDbPoint
 10
13453.59999999999
 20
7566.343127939783
 30
0.0
  0
POINT
  5
2D1A4
330
2CC7D
100
AcDbEntity
  8
DEFPOINTS
 62
     0
 48
50.0
100
AcDbPoint
 10
13330.59999999999
 20
7493.343127939782
 30
0.0
  0
POINT
  5
2D1A5
330
2CC7D
100
AcDbEntity
  8
DEFPOINTS
 62
     0
 48
50.0
100
AcDbPoint
 10
13330.59999999999
 20
8292.609586033695
 30
0.0
  0
ENDBLK
  5
2CC89
330
2CC7D
100
AcDbEntity
  8
0
 48
50.0
100
AcDbBlockEnd
  0
BLOCK
  5
2CCA1
330
2CC97
100
AcDbEntity
  8
0
 48
50.0
100
AcDbBlockBegin
  2
*D29
 70
     1
 10
0.0
 20
0.0
 30
0.0
  3
*D29
  1

  0
LINE
  5
2DAD3
330
2CC97
100
AcDbEntity
  8
寸法
 62
     0
 48
50.0
370
    -2
100
AcDbLine
 10
8698.600000000007
 20
6983.343127939782
 30
0.0
 11
8698.600000000007
 21
8108.951944610032
 31
0.0
  0
LINE
  5
2DAD4
330
2CC97
100
AcDbEntity
  8
寸法
 62
     0
 48
50.0
370
    -2
100
AcDbLine
 10
7748.600000000007
 20
6983.343127939782
 30
0.0
 11
7748.600000000007
 21
8108.951944610032
 31
0.0
  0
LINE
  5
2DAD5
330
2CC97
100
AcDbEntity
  8
寸法
 62
     0
 48
50.0
370
    -2
100
AcDbLine
 10
8698.600000000007
 20
8048.951944610031
 30
0.0
 11
7748.600000000007
 21
8048.951944610031
 31
0.0
  0
INSERT
  5
2DAD6
330
2CC97
100
AcDbEntity
  8
寸法
 62
     0
 48
50.0
370
    -2
100
AcDbBlockReference
  2
_DOTSMALL
 10
8698.600000000007
 20
8048.951944610031
 30
0.0
 41
100.0
 42
100.0
 43
100.0
  0
INSERT
  5
2DAD7
330
2CC97
100
AcDbEntity
  8
寸法
 62
     0
 48
50.0
370
    -2
100
AcDbBlockReference
  2
_DOTSMALL
 10
7748.600000000007
 20
8048.951944610031
 30
0.0
 41
100.0
 42
100.0
 43
100.0
 50
180.0
  0
MTEXT
  5
2DAD8
330
2CC97
100
AcDbEntity
  8
寸法
 62
     7
 48
50.0
100
AcDbMText
 10
8223.600000000008
 20
8148.951944610031
 30
0.0
 40
120.0
 41
0.0
 71
     5
 72
     1
  1
\A1;950
  7
STYLE1
 73
     1
 44
1.0
1001
ACAD
1000
MTEXTBEGIN
1070
    73
1070
     1
1070
    44
1040
1.0
1070
    74
1070
     0
1000
MTEXTEND
  0
POINT
  5
2DAD9
330
2CC97
100
AcDbEntity
  8
DEFPOINTS
 62
     0
 48
50.0
100
AcDbPoint
 10
8698.600000000007
 20
6963.343127939783
 30
0.0
  0
POINT
  5
2DADA
330
2CC97
100
AcDbEntity
  8
DEFPOINTS
 62
     0
 48
50.0
100
AcDbPoint
 10
7748.600000000007
 20
6963.343127939783
 30
0.0
  0
POINT
  5
2DADB
330
2CC97
100
AcDbEntity
  8
DEFPOINTS
 62
     0
 48
50.0
100
AcDbPoint
 10
7748.600000000007
 20
8048.951944610031
 30
0.0
  0
ENDBLK
  5
2CCA2
330
2CC97
100
AcDbEntity
  8
0
 48
50.0
100
AcDbBlockEnd
  0
BLOCK
  5
2CCAD
330
2CCA3
100
AcDbEntity
  8
0
 48
50.0
100
AcDbBlockBegin
  2
*D30
 70
     1
 10
0.0
 20
0.0
 30
0.0
  3
*D30
  1

  0
LINE
  5
2D21C
330
2CCA3
100
AcDbEntity
  8
寸法
 62
     0
 48
50.0
370
    -2
100
AcDbLine
 10
2993.600000000001
 20
7586.343127939783
 30
0.0
 11
2993.600000000001
 21
8584.563449998702
 31
0.0
  0
LINE
  5
2D21D
330
2CCA3
100
AcDbEntity
  8
寸法
 62
     0
 48
50.0
370
    -2
100
AcDbLine
 10
13453.59999999999
 20
7586.343127939783
 30
0.0
 11
13453.59999999999
 21
8584.563449998702
 31
0.0
  0
LINE
  5
2D21E
330
2CCA3
100
AcDbEntity
  8
寸法
 62
     0
 48
50.0
370
    -2
100
AcDbLine
 10
2993.600000000001
 20
8524.5634499987
 30
0.0
 11
13453.59999999999
 21
8524.5634499987
 31
0.0
  0
INSERT
  5
2D21F
330
2CCA3
100
AcDbEntity
  8
寸法
 62
     0
 48
50.0
370
    -2
100
AcDbBlockReference
  2
_DOTSMALL
 10
2993.600000000001
 20
8524.5634499987
 30
0.0
 41
100.0
 42
100.0
 43
100.0
 50
180.0
  0
INSERT
  5
2D220
330
2CCA3
100
AcDbEntity
  8
寸法
 62
     0
 48
50.0
370
    -2
100
AcDbBlockReference
  2
_DOTSMALL
 10
13453.59999999999
 20
8524.5634499987
 30
0.0
 41
100.0
 42
100.0
 43
100.0
  0
MTEXT
  5
2D221
330
2CCA3
100
AcDbEntity
  8
寸法
 62
     7
 48
50.0
100
AcDbMText
 10
8223.599999999999
 20
8624.563449998701
 30
0.0
 40
120.0
 41
0.0
 71
     5
 72
     1
  1
\A1;N X 950+10
  7
STYLE1
 73
     1
 44
1.0
1001
ACAD
1000
MTEXTBEGIN
1070
    73
1070
     1
1070
    44
1040
1.0
1070
    74
1070
     0
1000
MTEXTEND
  0
POINT
  5
2D222
330
2CCA3
100
AcDbEntity
  8
DEFPOINTS
 62
     0
 48
50.0
100
AcDbPoint
 10
2993.600000000001
 20
7566.343127939783
 30
0.0
  0
POINT
  5
2D223
330
2CCA3
100
AcDbEntity
  8
DEFPOINTS
 62
     0
 48
50.0
100
AcDbPoint
 10
13453.59999999999
 20
7566.343127939783
 30
0.0
  0
POINT
  5
2D224
330
2CCA3
100
AcDbEntity
  8
DEFPOINTS
 62
     0
 48
50.0
100
AcDbPoint
 10
13453.59999999999
 20
8524.5634499987
 30
0.0
  0
ENDBLK
  5
2CCAE
330
2CCA3
100
AcDbEntity
  8
0
 48
50.0
100
AcDbBlockEnd
  0
BLOCK
  5
2CCB8
330
2CCAF
100
AcDbEntity
  8
0
 48
50.0
100
AcDbBlockBegin
  2
*D31
 70
     1
 10
0.0
 20
0.0
 30
0.0
  3
*D31
  1

  0
LINE
  5
2DACA
330
2CCAF
100
AcDbEntity
  8
寸法
 62
     0
 48
50.0
370
    -2
100
AcDbLine
 10
6798.600000000007
 20
6983.343127939782
 30
0.0
 11
6798.600000000007
 21
8108.951944610032
 31
0.0
  0
LINE
  5
2DACB
330
2CCAF
100
AcDbEntity
  8
寸法
 62
     0
 48
50.0
370
    -2
100
AcDbLine
 10
5848.600000000008
 20
6983.343127939782
 30
0.0
 11
5848.600000000008
 21
8108.951944610032
 31
0.0
  0
LINE
  5
2DACC
330
2CCAF
100
AcDbEntity
  8
寸法
 62
     0
 48
50.0
370
    -2
100
AcDbLine
 10
6798.600000000007
 20
8048.951944610031
 30
0.0
 11
5848.600000000008
 21
8048.951944610031
 31
0.0
  0
INSERT
  5
2DACD
330
2CCAF
100
AcDbEntity
  8
寸法
 62
     0
 48
50.0
370
    -2
100
AcDbBlockReference
  2
_DOTSMALL
 10
6798.600000000007
 20
8048.951944610031
 30
0.0
 41
100.0
 42
100.0
 43
100.0
  0
INSERT
  5
2DACE
330
2CCAF
100
AcDbEntity
  8
寸法
 62
     0
 48
50.0
370
    -2
100
AcDbBlockReference
  2
_DOTSMALL
 10
5848.600000000008
 20
8048.951944610031
 30
0.0
 41
100.0
 42
100.0
 43
100.0
 50
180.0
  0
MTEXT
  5
2DACF
330
2CCAF
100
AcDbEntity
  8
寸法
 62
     7
 48
50.0
100
AcDbMText
 10
6323.600000000007
 20
8148.951944610031
 30
0.0
 40
120.0
 41
0.0
 71
     5
 72
     1
  1
\A1;950
  7
STYLE1
 73
     1
 44
1.0
1001
ACAD
1000
MTEXTBEGIN
1070
    73
1070
     1
1070
    44
1040
1.0
1070
    74
1070
     0
1000
MTEXTEND
  0
POINT
  5
2DAD0
330
2CCAF
100
AcDbEntity
  8
DEFPOINTS
 62
     0
 48
50.0
100
AcDbPoint
 10
6798.600000000007
 20
6963.343127939783
 30
0.0
  0
POINT
  5
2DAD1
330
2CCAF
100
AcDbEntity
  8
DEFPOINTS
 62
     0
 48
50.0
100
AcDbPoint
 10
5848.600000000008
 20
6963.343127939783
 30
0.0
  0
POINT
  5
2DAD2
330
2CCAF
100
AcDbEntity
  8
DEFPOINTS
 62
     0
 48
50.0
100
AcDbPoint
 10
5848.600000000008
 20
8048.951944610031
 30
0.0
  0
ENDBLK
  5
2CCB9
330
2CCAF
100
AcDbEntity
  8
0
 48
50.0
100
AcDbBlockEnd
  0
BLOCK
  5
2CCC4
330
2CCBA
100
AcDbEntity
  8
0
 48
50.0
100
AcDbBlockBegin
  2
*D32
 70
     1
 10
0.0
 20
0.0
 30
0.0
  3
*D32
  1

  0
LINE
  5
2DAC1
330
2CCBA
100
AcDbEntity
  8
寸法
 62
     0
 48
50.0
370
    -2
100
AcDbLine
 10
7748.600000000007
 20
6983.343127939782
 30
0.0
 11
7748.600000000007
 21
8108.951944610032
 31
0.0
  0
LINE
  5
2DAC2
330
2CCBA
100
AcDbEntity
  8
寸法
 62
     0
 48
50.0
370
    -2
100
AcDbLine
 10
6798.600000000007
 20
6983.343127939782
 30
0.0
 11
6798.600000000007
 21
8108.951944610032
 31
0.0
  0
LINE
  5
2DAC3
330
2CCBA
100
AcDbEntity
  8
寸法
 62
     0
 48
50.0
370
    -2
100
AcDbLine
 10
7748.600000000007
 20
8048.951944610031
 30
0.0
 11
6798.600000000007
 21
8048.951944610031
 31
0.0
  0
INSERT
  5
2DAC4
330
2CCBA
100
AcDbEntity
  8
寸法
 62
     0
 48
50.0
370
    -2
100
AcDbBlockReference
  2
_DOTSMALL
 10
7748.600000000007
 20
8048.951944610031
 30
0.0
 41
100.0
 42
100.0
 43
100.0
  0
INSERT
  5
2DAC5
330
2CCBA
100
AcDbEntity
  8
寸法
 62
     0
 48
50.0
370
    -2
100
AcDbBlockReference
  2
_DOTSMALL
 10
6798.600000000007
 20
8048.951944610031
 30
0.0
 41
100.0
 42
100.0
 43
100.0
 50
180.0
  0
MTEXT
  5
2DAC6
330
2CCBA
100
AcDbEntity
  8
寸法
 62
     7
 48
50.0
100
AcDbMText
 10
7273.600000000008
 20
8148.951944610031
 30
0.0
 40
120.0
 41
0.0
 71
     5
 72
     1
  1
\A1;950
  7
STYLE1
 73
     1
 44
1.0
1001
ACAD
1000
MTEXTBEGIN
1070
    73
1070
     1
1070
    44
1040
1.0
1070
    74
1070
     0
1000
MTEXTEND
  0
POINT
  5
2DAC7
330
2CCBA
100
AcDbEntity
  8
DEFPOINTS
 62
     0
 48
50.0
100
AcDbPoint
 10
7748.600000000007
 20
6963.343127939783
 30
0.0
  0
POINT
  5
2DAC8
330
2CCBA
100
AcDbEntity
  8
DEFPOINTS
 62
     0
 48
50.0
100
AcDbPoint
 10
6798.600000000007
 20
6963.343127939783
 30
0.0
  0
POINT
  5
2DAC9
330
2CCBA
100
AcDbEntity
  8
DEFPOINTS
 62
     0
 48
50.0
100
AcDbPoint
 10
6798.600000000007
 20
8048.951944610031
 30
0.0
  0
ENDBLK
  5
2CCC5
330
2CCBA
100
AcDbEntity
  8
0
 48
50.0
100
AcDbBlockEnd
  0
BLOCK
  5
2CCD0
330
2CCC6
100
AcDbEntity
  8
0
 48
50.0
100
AcDbBlockBegin
  2
*D33
 70
     1
 10
0.0
 20
0.0
 30
0.0
  3
*D33
  1

  0
LINE
  5
2DADC
330
2CCC6
100
AcDbEntity
  8
寸法
 62
     0
 48
50.0
370
    -2
100
AcDbLine
 10
3878.600000000008
 20
6913.343127939782
 30
0.0
 11
3416.285990614302
 21
6913.343127939782
 31
0.0
  0
LINE
  5
2DADD
330
2CCC6
100
AcDbEntity
  8
寸法
 62
     0
 48
50.0
370
    -2
100
AcDbLine
 10
3547.765475140901
 20
7566.343127939783
 30
0.0
 11
3416.285990614303
 21
7566.343127939783
 31
0.0
  0
LINE
  5
2DADE
330
2CCC6
100
AcDbEntity
  8
寸法
 62
     0
 48
50.0
370
    -2
100
AcDbLine
 10
3476.285990614302
 20
6913.343127939782
 30
0.0
 11
3476.285990614303
 21
7566.343127939783
 31
0.0
  0
INSERT
  5
2DADF
330
2CCC6
100
AcDbEntity
  8
寸法
 62
     0
 48
50.0
370
    -2
100
AcDbBlockReference
  2
_DOTSMALL
 10
3476.285990614302
 20
6913.343127939782
 30
0.0
 41
100.0
 42
100.0
 43
100.0
 50
270.0
  0
INSERT
  5
2DAE0
330
2CCC6
100
AcDbEntity
  8
寸法
 62
     0
 48
50.0
370
    -2
100
AcDbBlockReference
  2
_DOTSMALL
 10
3476.285990614303
 20
7566.343127939783
 30
0.0
 41
100.0
 42
100.0
 43
100.0
 50
90.0
  0
MTEXT
  5
2DAE1
330
2CCC6
100
AcDbEntity
  8
寸法
 62
     7
 48
50.0
100
AcDbMText
 10
3376.285990614301
 20
7168.820319382077
 30
0.0
 40
120.0
 41
0.0
 71
     5
 72
     1
  1
\A1;653
  7
STYLE1
 11
0.0000000000000001
 21
1.0
 31
0.0
 73
     1
 44
1.0
1001
ACAD
1000
MTEXTBEGIN
1070
    73
1070
     1
1070
    44
1040
1.0
1070
    74
1070
     0
1000
MTEXTEND
  0
POINT
  5
2DAE2
330
2CCC6
100
AcDbEntity
  8
DEFPOINTS
 62
     0
 48
50.0
100
AcDbPoint
 10
3898.600000000008
 20
6913.343127939782
 30
0.0
  0
POINT
  5
2DAE3
330
2CCC6
100
AcDbEntity
  8
DEFPOINTS
 62
     0
 48
50.0
100
AcDbPoint
 10
3567.765475140901
 20
7566.343127939783
 30
0.0
  0
POINT
  5
2DAE4
330
2CCC6
100
AcDbEntity
  8
DEFPOINTS
 62
     0
 48
50.0
100
AcDbPoint
 10
3476.285990614303
 20
7566.343127939783
 30
0.0
  0
ENDBLK
  5
2CCD1
330
2CCC6
100
AcDbEntity
  8
0
 48
50.0
100
AcDbBlockEnd
  0
BLOCK
  5
2CCDC
330
2CCD2
100
AcDbEntity
  8
0
 48
50.0
100
AcDbBlockBegin
  2
*D34
 70
     1
 10
0.0
 20
0.0
 30
0.0
  3
*D34
  1

  0
LINE
  5
2DAAF
330
2CCD2
100
AcDbEntity
  8
寸法
 62
     0
 48
50.0
370
    -2
100
AcDbLine
 10
3948.600000000008
 20
6983.343127939782
 30
0.0
 11
3948.600000000008
 21
8108.951944610032
 31
0.0
  0
LINE
  5
2DAB0
330
2CCD2
100
AcDbEntity
  8
寸法
 62
     0
 48
50.0
370
    -2
100
AcDbLine
 10
2993.600000000001
 20
7586.343127939783
 30
0.0
 11
2993.600000000001
 21
8108.951944610032
 31
0.0
  0
LINE
  5
2DAB1
330
2CCD2
100
AcDbEntity
  8
寸法
 62
     0
 48
50.0
370
    -2
100
AcDbLine
 10
3948.600000000008
 20
8048.951944610031
 30
0.0
 11
2993.600000000001
 21
8048.951944610031
 31
0.0
  0
INSERT
  5
2DAB2
330
2CCD2
100
AcDbEntity
  8
寸法
 62
     0
 48
50.0
370
    -2
100
AcDbBlockReference
  2
_DOTSMALL
 10
3948.600000000008
 20
8048.951944610031
 30
0.0
 41
100.0
 42
100.0
 43
100.0
  0
INSERT
  5
2DAB3
330
2CCD2
100
AcDbEntity
  8
寸法
 62
     0
 48
50.0
370
    -2
100
AcDbBlockReference
  2
_DOTSMALL
 10
2993.600000000001
 20
8048.951944610031
 30
0.0
 41
100.0
 42
100.0
 43
100.0
 50
180.0
  0
MTEXT
  5
2DAB4
330
2CCD2
100
AcDbEntity
  8
寸法
 62
     7
 48
50.0
100
AcDbMText
 10
3471.100000000004
 20
8148.951944610031
 30
0.0
 40
120.0
 41
0.0
 71
     5
 72
     1
  1
\A1;955
  7
STYLE1
 73
     1
 44
1.0
1001
ACAD
1000
MTEXTBEGIN
1070
    73
1070
     1
1070
    44
1040
1.0
1070
    74
1070
     0
1000
MTEXTEND
  0
POINT
  5
2DAB5
330
2CCD2
100
AcDbEntity
  8
DEFPOINTS
 62
     0
 48
50.0
100
AcDbPoint
 10
3948.600000000008
 20
6963.343127939783
 30
0.0
  0
POINT
  5
2DAB6
330
2CCD2
100
AcDbEntity
  8
DEFPOINTS
 62
     0
 48
50.0
100
AcDbPoint
 10
2993.600000000001
 20
7566.343127939783
 30
0.0
  0
POINT
  5
2DAB7
330
2CCD2
100
AcDbEntity
  8
DEFPOINTS
 62
     0
 48
50.0
100
AcDbPoint
 10
2993.600000000001
 20
8048.951944610031
 30
0.0
  0
ENDBLK
  5
2CCDD
330
2CCD2
100
AcDbEntity
  8
0
 48
50.0
100
AcDbBlockEnd
  0
BLOCK
  5
2CCE7
330
2CCDE
100
AcDbEntity
  8
0
 48
50.0
100
AcDbBlockBegin
  2
*D35
 70
     1
 10
0.0
 20
0.0
 30
0.0
  3
*D35
  1

  0
LINE
  5
2DAA6
330
2CCDE
100
AcDbEntity
  8
寸法
 62
     0
 48
50.0
370
    -2
100
AcDbLine
 10
4898.600000000008
 20
6983.343127939782
 30
0.0
 11
4898.600000000008
 21
8108.951944610032
 31
0.0
  0
LINE
  5
2DAA7
330
2CCDE
100
AcDbEntity
  8
寸法
 62
     0
 48
50.0
370
    -2
100
AcDbLine
 10
3948.600000000008
 20
6983.343127939782
 30
0.0
 11
3948.600000000008
 21
8108.951944610032
 31
0.0
  0
LINE
  5
2DAA8
330
2CCDE
100
AcDbEntity
  8
寸法
 62
     0
 48
50.0
370
    -2
100
AcDbLine
 10
4898.600000000008
 20
8048.951944610031
 30
0.0
 11
3948.600000000008
 21
8048.951944610031
 31
0.0
  0
INSERT
  5
2DAA9
330
2CCDE
100
AcDbEntity
  8
寸法
 62
     0
 48
50.0
370
    -2
100
AcDbBlockReference
  2
_DOTSMALL
 10
4898.600000000008
 20
8048.951944610031
 30
0.0
 41
100.0
 42
100.0
 43
100.0
  0
INSERT
  5
2DAAA
330
2CCDE
100
AcDbEntity
  8
寸法
 62
     0
 48
50.0
370
    -2
100
AcDbBlockReference
  2
_DOTSMALL
 10
3948.600000000008
 20
8048.951944610031
 30
0.0
 41
100.0
 42
100.0
 43
100.0
 50
180.0
  0
MTEXT
  5
2DAAB
330
2CCDE
100
AcDbEntity
  8
寸法
 62
     7
 48
50.0
100
AcDbMText
 10
4423.600000000007
 20
8148.951944610031
 30
0.0
 40
120.0
 41
0.0
 71
     5
 72
     1
  1
\A1;950
  7
STYLE1
 73
     1
 44
1.0
1001
ACAD
1000
MTEXTBEGIN
1070
    73
1070
     1
1070
    44
1040
1.0
1070
    74
1070
     0
1000
MTEXTEND
  0
POINT
  5
2DAAC
330
2CCDE
100
AcDbEntity
  8
DEFPOINTS
 62
     0
 48
50.0
100
AcDbPoint
 10
4898.600000000008
 20
6963.343127939783
 30
0.0
  0
POINT
  5
2DAAD
330
2CCDE
100
AcDbEntity
  8
DEFPOINTS
 62
     0
 48
50.0
100
AcDbPoint
 10
3948.600000000008
 20
6963.343127939783
 30
0.0
  0
POINT
  5
2DAAE
330
2CCDE
100
AcDbEntity
  8
DEFPOINTS
 62
     0
 48
50.0
100
AcDbPoint
 10
3948.600000000008
 20
8048.951944610031
 30
0.0
  0
ENDBLK
  5
2CCE8
330
2CCDE
100
AcDbEntity
  8
0
 48
50.0
100
AcDbBlockEnd
  0
BLOCK
  5
2CCF3
330
2CCE9
100
AcDbEntity
  8
0
 48
50.0
100
AcDbBlockBegin
  2
*D36
 70
     1
 10
0.0
 20
0.0
 30
0.0
  3
*D36
  1

  0
LINE
  5
2D9A6
330
2CCE9
100
AcDbEntity
  8
寸法
 62
     0
 48
50.0
370
    -2
100
AcDbLine
 10
3046.600000000001
 20
7443.343127939782
 30
0.0
 11
2310.665006330073
 21
7443.343127939782
 31
0.0
  0
LINE
  5
2D9A7
330
2CCE9
100
AcDbEntity
  8
寸法
 62
     0
 48
50.0
370
    -2
100
AcDbLine
 10
3046.600000000008
 20
6384.343127939787
 30
0.0
 11
2310.665006330072
 21
6384.343127939787
 31
0.0
  0
LINE
  5
2D9A8
330
2CCE9
100
AcDbEntity
  8
寸法
 62
     0
 48
50.0
370
    -2
100
AcDbLine
 10
2370.665006330073
 20
7443.343127939782
 30
0.0
 11
2370.665006330072
 21
6384.343127939787
 31
0.0
  0
INSERT
  5
2D9A9
330
2CCE9
100
AcDbEntity
  8
寸法
 62
     0
 48
50.0
370
    -2
100
AcDbBlockReference
  2
_DOTSMALL
 10
2370.665006330073
 20
7443.343127939782
 30
0.0
 41
100.0
 42
100.0
 43
100.0
 50
90.0
  0
INSERT
  5
2D9AA
330
2CCE9
100
AcDbEntity
  8
寸法
 62
     0
 48
50.0
370
    -2
100
AcDbBlockReference
  2
_DOTSMALL
 10
2370.665006330072
 20
6384.343127939787
 30
0.0
 41
100.0
 42
100.0
 43
100.0
 50
270.0
  0
MTEXT
  5
2D9AB
330
2CCE9
100
AcDbEntity
  8
寸法
 62
     7
 48
50.0
100
AcDbMText
 10
2270.665006330071
 20
6913.843127939784
 30
0.0
 40
120.0
 41
0.0
 71
     5
 72
     1
  1
\A1;1059
  7
STYLE1
 11
0.0000000000000001
 21
1.0
 31
0.0
 73
     1
 44
1.0
1001
ACAD
1000
MTEXTBEGIN
1070
    73
1070
     1
1070
    44
1040
1.0
1070
    74
1070
     0
1000
MTEXTEND
  0
POINT
  5
2D9AC
330
2CCE9
100
AcDbEntity
  8
DEFPOINTS
 62
     0
 48
50.0
100
AcDbPoint
 10
3066.600000000001
 20
7443.343127939782
 30
0.0
  0
POINT
  5
2D9AD
330
2CCE9
100
AcDbEntity
  8
DEFPOINTS
 62
     0
 48
50.0
100
AcDbPoint
 10
3066.600000000008
 20
6384.343127939787
 30
0.0
  0
POINT
  5
2D9AE
330
2CCE9
100
AcDbEntity
  8
DEFPOINTS
 62
     0
 48
50.0
100
AcDbPoint
 10
2370.665006330072
 20
6384.343127939787
 30
0.0
  0
ENDBLK
  5
2CCF4
330
2CCE9
100
AcDbEntity
  8
0
 48
50.0
100
AcDbBlockEnd
  0
BLOCK
  5
2CCFF
330
2CCF5
100
AcDbEntity
  8
0
 48
50.0
100
AcDbBlockBegin
  2
*D37
 70
     1
 10
0.0
 20
0.0
 30
0.0
  3
*D37
  1

  0
LINE
  5
2D24B
330
2CCF5
100
AcDbEntity
  8
寸法
 62
     0
 48
50.0
370
    -2
100
AcDbLine
 10
2973.600000000001
 20
7566.343127939783
 30
0.0
 11
2058.721909610675
 21
7566.343127939783
 31
0.0
  0
LINE
  5
2D24C
330
2CCF5
100
AcDbEntity
  8
寸法
 62
     0
 48
50.0
370
    -2
100
AcDbLine
 10
2973.600000000001
 20
6186.343127939783
 30
0.0
 11
2058.721909610674
 21
6186.343127939783
 31
0.0
  0
LINE
  5
2D24D
330
2CCF5
100
AcDbEntity
  8
寸法
 62
     0
 48
50.0
370
    -2
100
AcDbLine
 10
2118.721909610674
 20
7566.343127939783
 30
0.0
 11
2118.721909610674
 21
6186.343127939783
 31
0.0
  0
INSERT
  5
2D24E
330
2CCF5
100
AcDbEntity
  8
寸法
 62
     0
 48
50.0
370
    -2
100
AcDbBlockReference
  2
_DOTSMALL
 10
2118.721909610674
 20
7566.343127939783
 30
0.0
 41
100.0
 42
100.0
 43
100.0
 50
90.0
  0
INSERT
  5
2D24F
330
2CCF5
100
AcDbEntity
  8
寸法
 62
     0
 48
50.0
370
    -2
100
AcDbBlockReference
  2
_DOTSMALL
 10
2118.721909610674
 20
6186.343127939783
 30
0.0
 41
100.0
 42
100.0
 43
100.0
 50
270.0
  0
MTEXT
  5
2D250
330
2CCF5
100
AcDbEntity
  8
寸法
 62
     7
 48
50.0
100
AcDbMText
 10
2018.721909610673
 20
6913.843127939784
 30
0.0
 40
120.0
 41
0.0
 71
     5
 72
     1
  1
\A1;1380
  7
STYLE1
 11
0.0000000000000001
 21
1.0
 31
0.0
 73
     1
 44
1.0
1001
ACAD
1000
MTEXTBEGIN
1070
    73
1070
     1
1070
    44
1040
1.0
1070
    74
1070
     0
1000
MTEXTEND
  0
POINT
  5
2D251
330
2CCF5
100
AcDbEntity
  8
DEFPOINTS
 62
     0
 48
50.0
100
AcDbPoint
 10
2993.600000000001
 20
7566.343127939783
 30
0.0
  0
POINT
  5
2D252
330
2CCF5
100
AcDbEntity
  8
DEFPOINTS
 62
     0
 48
50.0
100
AcDbPoint
 10
2993.600000000001
 20
6186.343127939783
 30
0.0
  0
POINT
  5
2D253
330
2CCF5
100
AcDbEntity
  8
DEFPOINTS
 62
     0
 48
50.0
100
AcDbPoint
 10
2118.721909610674
 20
6186.343127939783
 30
0.0
  0
ENDBLK
  5
2CD00
330
2CCF5
100
AcDbEntity
  8
0
 48
50.0
100
AcDbBlockEnd
  0
BLOCK
  5
2CD0A
330
2CD01
100
AcDbEntity
  8
0
 48
50.0
100
AcDbBlockBegin
  2
*D38
 70
     1
 10
0.0
 20
0.0
 30
0.0
  3
*D38
  1

  0
LINE
  5
2DA9D
330
2CD01
100
AcDbEntity
  8
寸法
 62
     0
 48
50.0
370
    -2
100
AcDbLine
 10
5848.600000000008
 20
6983.343127939782
 30
0.0
 11
5848.600000000008
 21
8108.951944610032
 31
0.0
  0
LINE
  5
2DA9E
330
2CD01
100
AcDbEntity
  8
寸法
 62
     0
 48
50.0
370
    -2
100
AcDbLine
 10
4898.600000000008
 20
6983.343127939782
 30
0.0
 11
4898.600000000008
 21
8108.951944610032
 31
0.0
  0
LINE
  5
2DA9F
330
2CD01
100
AcDbEntity
  8
寸法
 62
     0
 48
50.0
370
    -2
100
AcDbLine
 10
5848.600000000008
 20
8048.951944610031
 30
0.0
 11
4898.600000000008
 21
8048.951944610031
 31
0.0
  0
INSERT
  5
2DAA0
330
2CD01
100
AcDbEntity
  8
寸法
 62
     0
 48
50.0
370
    -2
100
AcDbBlockReference
  2
_DOTSMALL
 10
5848.600000000008
 20
8048.951944610031
 30
0.0
 41
100.0
 42
100.0
 43
100.0
  0
INSERT
  5
2DAA1
330
2CD01
100
AcDbEntity
  8
寸法
 62
     0
 48
50.0
370
    -2
100
AcDbBlockReference
  2
_DOTSMALL
 10
4898.600000000008
 20
8048.951944610031
 30
0.0
 41
100.0
 42
100.0
 43
100.0
 50
180.0
  0
MTEXT
  5
2DAA2
330
2CD01
100
AcDbEntity
  8
寸法
 62
     7
 48
50.0
100
AcDbMText
 10
5373.600000000007
 20
8148.951944610031
 30
0.0
 40
120.0
 41
0.0
 71
     5
 72
     1
  1
\A1;950
  7
STYLE1
 73
     1
 44
1.0
1001
ACAD
1000
MTEXTBEGIN
1070
    73
1070
     1
1070
    44
1040
1.0
1070
    74
1070
     0
1000
MTEXTEND
  0
POINT
  5
2DAA3
330
2CD01
100
AcDbEntity
  8
DEFPOINTS
 62
     0
 48
50.0
100
AcDbPoint
 10
5848.600000000008
 20
6963.343127939783
 30
0.0
  0
POINT
  5
2DAA4
330
2CD01
100
AcDbEntity
  8
DEFPOINTS
 62
     0
 48
50.0
100
AcDbPoint
 10
4898.600000000008
 20
6963.343127939783
 30
0.0
  0
POINT
  5
2DAA5
330
2CD01
100
AcDbEntity
  8
DEFPOINTS
 62
     0
 48
50.0
100
AcDbPoint
 10
4898.600000000008
 20
8048.951944610031
 30
0.0
  0
ENDBLK
  5
2CD0B
330
2CD01
100
AcDbEntity
  8
0
 48
50.0
100
AcDbBlockEnd
  0
BLOCK
  5
2CD23
330
2CD19
100
AcDbEntity
  8
0
 48
50.0
100
AcDbBlockBegin
  2
*D39
 70
     1
 10
0.0
 20
0.0
 30
0.0
  3
*D39
  1

  0
LINE
  5
2DA94
330
2CD19
100
AcDbEntity
  8
寸法
 62
     0
 48
50.0
370
    -2
100
AcDbLine
 10
3547.765475140901
 20
6186.343127939793
 30
0.0
 11
3416.285990614301
 21
6186.343127939793
 31
0.0
  0
LINE
  5
2DA95
330
2CD19
100
AcDbEntity
  8
寸法
 62
     0
 48
50.0
370
    -2
100
AcDbLine
 10
3878.600000000008
 20
6913.343127939782
 30
0.0
 11
3416.285990614301
 21
6913.343127939782
 31
0.0
  0
LINE
  5
2DA96
330
2CD19
100
AcDbEntity
  8
寸法
 62
     0
 48
50.0
370
    -2
100
AcDbLine
 10
3476.285990614301
 20
6186.343127939793
 30
0.0
 11
3476.285990614301
 21
6913.343127939782
 31
0.0
  0
INSERT
  5
2DA97
330
2CD19
100
AcDbEntity
  8
寸法
 62
     0
 48
50.0
370
    -2
100
AcDbBlockReference
  2
_DOTSMALL
 10
3476.285990614301
 20
6186.343127939793
 30
0.0
 41
100.0
 42
100.0
 43
100.0
 50
270.0
  0
INSERT
  5
2DA98
330
2CD19
100
AcDbEntity
  8
寸法
 62
     0
 48
50.0
370
    -2
100
AcDbBlockReference
  2
_DOTSMALL
 10
3476.285990614301
 20
6913.343127939782
 30
0.0
 41
100.0
 42
100.0
 43
100.0
 50
90.0
  0
MTEXT
  5
2DA99
330
2CD19
100
AcDbEntity
  8
寸法
 62
     7
 48
50.0
100
AcDbMText
 10
3376.274179590679
 20
6628.343127939783
 30
0.0
 40
120.0
 41
0.0
 71
     5
 72
     1
  1
\A1;727
  7
STYLE1
 11
0.0000000000000001
 21
1.0
 31
0.0
 73
     1
 44
1.0
1001
ACAD
1000
MTEXTBEGIN
1070
    73
1070
     1
1070
    44
1040
1.0
1070
    74
1070
     0
1000
MTEXTEND
  0
POINT
  5
2DA9A
330
2CD19
100
AcDbEntity
  8
DEFPOINTS
 62
     0
 48
50.0
100
AcDbPoint
 10
3567.765475140901
 20
6186.343127939793
 30
0.0
  0
POINT
  5
2DA9B
330
2CD19
100
AcDbEntity
  8
DEFPOINTS
 62
     0
 48
50.0
100
AcDbPoint
 10
3898.600000000008
 20
6913.343127939782
 30
0.0
  0
POINT
  5
2DA9C
330
2CD19
100
AcDbEntity
  8
DEFPOINTS
 62
     0
 48
50.0
100
AcDbPoint
 10
3476.285990614301
 20
6913.343127939782
 30
0.0
  0
ENDBLK
  5
2CD24
330
2CD19
100
AcDbEntity
  8
0
 48
50.0
100
AcDbBlockEnd
  0
BLOCK
  5
2CD2F
330
2CD25
100
AcDbEntity
  8
0
 48
50.0
100
AcDbBlockBegin
  2
*D40
 70
     1
 10
0.0
 20
0.0
 30
0.0
  3
*D40
  1

  0
LINE
  5
2D22E
330
2CD25
100
AcDbEntity
  8
寸法
 62
     0
 48
50.0
370
    -2
100
AcDbLine
 10
2973.600000000004
 20
6186.343127939779
 30
0.0
 11
2820.512673767883
 21
6186.343127939779
 31
0.0
  0
LINE
  5
2D22F
330
2CD25
100
AcDbEntity
  8
寸法
 62
     0
 48
50.0
370
    -2
100
AcDbLine
 10
3329.325326928809
 20
5466.343127939779
 30
0.0
 11
2820.512673767883
 21
5466.343127939779
 31
0.0
  0
LINE
  5
2D230
330
2CD25
100
AcDbEntity
  8
寸法
 62
     0
 48
50.0
370
    -2
100
AcDbLine
 10
2880.512673767883
 20
6186.343127939779
 30
0.0
 11
2880.512673767883
 21
5466.343127939779
 31
0.0
  0
INSERT
  5
2D231
330
2CD25
100
AcDbEntity
  8
寸法
 62
     0
 48
50.0
370
    -2
100
AcDbBlockReference
  2
_DOTSMALL
 10
2880.512673767883
 20
6186.343127939779
 30
0.0
 41
100.0
 42
100.0
 43
100.0
 50
90.0
  0
INSERT
  5
2D232
330
2CD25
100
AcDbEntity
  8
寸法
 62
     0
 48
50.0
370
    -2
100
AcDbBlockReference
  2
_DOTSMALL
 10
2880.512673767883
 20
5466.343127939779
 30
0.0
 41
100.0
 42
100.0
 43
100.0
 50
270.0
  0
MTEXT
  5
2D233
330
2CD25
100
AcDbEntity
  8
寸法
 62
     7
 48
50.0
100
AcDbMText
 10
2780.50086274426
 20
5826.34312793978
 30
0.0
 40
120.0
 41
0.0
 71
     5
 72
     1
  1
\A1;扉の出720
  7
STYLE1
 11
0.0000000000000001
 21
1.0
 31
0.0
 73
     1
 44
1.0
1001
ACAD
1000
MTEXTBEGIN
1070
    73
1070
     1
1070
    44
1040
1.0
1070
    74
1070
     0
1000
MTEXTEND
  0
POINT
  5
2D234
330
2CD25
100
AcDbEntity
  8
DEFPOINTS
 62
     0
 48
50.0
100
AcDbPoint
 10
2993.600000000004
 20
6186.343127939779
 30
0.0
  0
POINT
  5
2D235
330
2CD25
100
AcDbEntity
  8
DEFPOINTS
 62
     0
 48
50.0
100
AcDbPoint
 10
3349.325326928809
 20
5466.343127939779
 30
0.0
  0
POINT
  5
2D236
330
2CD25
100
AcDbEntity
  8
DEFPOINTS
 62
     0
 48
50.0
100
AcDbPoint
 10
2880.512673767883
 20
5466.343127939779
 30
0.0
  0
ENDBLK
  5
2CD30
330
2CD25
100
AcDbEntity
  8
0
 48
50.0
100
AcDbBlockEnd
  0
BLOCK
  5
2CD3C
330
2CD31
100
AcDbEntity
  8
0
 48
50.0
100
AcDbBlockBegin
  2
*D41
 70
     1
 10
0.0
 20
0.0
 30
0.0
  3
*D41
  1

  0
LINE
  5
2D99C
330
2CD31
100
AcDbEntity
  8
寸法
 62
     0
 48
50.0
370
    -2
100
AcDbLine
 10
3046.600000000008
 20
6384.343127939787
 30
0.0
 11
2310.665006330072
 21
6384.343127939787
 31
0.0
  0
LINE
  5
2D99D
330
2CD31
100
AcDbEntity
  8
寸法
 62
     0
 48
50.0
370
    -2
100
AcDbLine
 10
2973.600000000001
 20
6186.343127939783
 30
0.0
 11
2310.665006330072
 21
6186.343127939783
 31
0.0
  0
LINE
  5
2D99E
330
2CD31
100
AcDbEntity
  8
寸法
 62
     0
 48
50.0
370
    -2
100
AcDbLine
 10
2370.665006330072
 20
6384.343127939787
 30
0.0
 11
2370.665006330072
 21
6186.343127939783
 31
0.0
  0
LINE
  5
2D99F
330
2CD31
100
AcDbEntity
  8
寸法
 62
     0
 48
50.0
370
    -2
100
AcDbLine
 10
2370.665006330072
 20
6186.343127939783
 30
0.0
 11
2370.665006330072
 21
5714.602519267533
 31
0.0
  0
INSERT
  5
2D9A0
330
2CD31
100
AcDbEntity
  8
寸法
 62
     0
 48
50.0
370
    -2
100
AcDbBlockReference
  2
_DOTSMALL
 10
2370.665006330072
 20
6384.343127939787
 30
0.0
 41
100.0
 42
100.0
 43
100.0
 50
90.0
  0
INSERT
  5
2D9A1
330
2CD31
100
AcDbEntity
  8
寸法
 62
     0
 48
50.0
370
    -2
100
AcDbBlockReference
  2
_DOTSMALL
 10
2370.665006330072
 20
6186.343127939783
 30
0.0
 41
100.0
 42
100.0
 43
100.0
 50
270.0
  0
MTEXT
  5
2D9A2
330
2CD31
100
AcDbEntity
  8
寸法
 62
     7
 48
50.0
100
AcDbMText
 10
2270.665006330071
 20
5850.812179097191
 30
0.0
 40
120.0
 41
0.0
 71
     5
 72
     1
  1
\A1;198
  7
STYLE1
 11
0.0000000000000001
 21
1.0
 31
0.0
 73
     1
 44
1.0
1001
ACAD
1000
MTEXTBEGIN
1070
    73
1070
     1
1070
    44
1040
1.0
1070
    74
1070
     0
1000
MTEXTEND
  0
POINT
  5
2D9A3
330
2CD31
100
AcDbEntity
  8
DEFPOINTS
 62
     0
 48
50.0
100
AcDbPoint
 10
3066.600000000008
 20
6384.343127939787
 30
0.0
  0
POINT
  5
2D9A4
330
2CD31
100
AcDbEntity
  8
DEFPOINTS
 62
     0
 48
50.0
100
AcDbPoint
 10
2993.600000000001
 20
6186.343127939783
 30
0.0
  0
POINT
  5
2D9A5
330
2CD31
100
AcDbEntity
  8
DEFPOINTS
 62
     0
 48
50.0
100
AcDbPoint
 10
2370.665006330072
 20
6186.343127939783
 30
0.0
  0
ENDBLK
  5
2CD3D
330
2CD31
100
AcDbEntity
  8
0
 48
50.0
100
AcDbBlockEnd
  0
BLOCK
  5
2D6ED
330
2D6E1
100
AcDbEntity
  8
0
 48
50.0
100
AcDbBlockBegin
  2
*D42
 70
     1
 10
0.0
 20
0.0
 30
0.0
  3
*D42
  1

  0
LINE
  5
2D940
330
2D6E1
100
AcDbEntity
  8
寸法
 62
     0
 48
50.0
370
    -2
100
AcDbLine
 10
13453.59999999999
 20
7586.343127939781
 30
0.0
 11
13453.59999999999
 21
8584.563449998702
 31
0.0
  0
LINE
  5
2D941
330
2D6E1
100
AcDbEntity
  8
寸法
 62
     0
 48
50.0
370
    -2
100
AcDbLine
 10
13498.6
 20
8312.609586033692
 30
0.0
 11
13498.6
 21
8584.563449998702
 31
0.0
  0
LINE
  5
2D942
330
2D6E1
100
AcDbEntity
  8
寸法
 62
     0
 48
50.0
370
    -2
100
AcDbLine
 10
13453.59999999999
 20
8524.563449998703
 30
0.0
 11
13353.59999999999
 21
8524.563449998703
 31
0.0
  0
LINE
  5
2D943
330
2D6E1
100
AcDbEntity
  8
寸法
 62
     0
 48
50.0
370
    -2
100
AcDbLine
 10
13498.6
 20
8524.563449998703
 30
0.0
 11
13835.94924240491
 21
8524.563449998703
 31
0.0
  0
LINE
  5
2D944
330
2D6E1
100
AcDbEntity
  8
寸法
 62
     0
 48
50.0
370
    -2
100
AcDbLine
 10
13453.59999999999
 20
8524.563449998703
 30
0.0
 11
13498.6
 21
8524.563449998703
 31
0.0
  0
INSERT
  5
2D945
330
2D6E1
100
AcDbEntity
  8
寸法
 62
     0
 48
50.0
370
    -2
100
AcDbBlockReference
  2
_DOTSMALL
 10
13453.59999999999
 20
8524.563449998703
 30
0.0
 41
100.0
 42
100.0
 43
100.0
  0
INSERT
  5
2D946
330
2D6E1
100
AcDbEntity
  8
寸法
 62
     0
 48
50.0
370
    -2
100
AcDbBlockReference
  2
_DOTSMALL
 10
13498.6
 20
8524.563449998703
 30
0.0
 41
100.0
 42
100.0
 43
100.0
 50
180.0
  0
MTEXT
  5
2D947
330
2D6E1
100
AcDbEntity
  8
寸法
 62
     7
 48
50.0
100
AcDbMText
 10
13769.77462120245
 20
8624.563449998703
 30
0.0
 40
120.0
 41
0.0
 71
     5
 72
     1
  1
\A1;a
  7
STYLE1
 73
     1
 44
1.0
1001
ACAD
1000
MTEXTBEGIN
1070
    73
1070
     1
1070
    44
1040
1.0
1070
    74
1070
     0
1000
MTEXTEND
  0
POINT
  5
2D948
330
2D6E1
100
AcDbEntity
  8
DEFPOINTS
 62
     0
 48
50.0
100
AcDbPoint
 10
13453.59999999999
 20
7566.343127939781
 30
0.0
  0
POINT
  5
2D949
330
2D6E1
100
AcDbEntity
  8
DEFPOINTS
 62
     0
 48
50.0
100
AcDbPoint
 10
13498.6
 20
8292.609586033691
 30
0.0
  0
POINT
  5
2D94A
330
2D6E1
100
AcDbEntity
  8
DEFPOINTS
 62
     0
 48
50.0
100
AcDbPoint
 10
13498.6
 20
8524.563449998703
 30
0.0
  0
ENDBLK
  5
2D6EE
330
2D6E1
100
AcDbEntity
  8
0
 48
50.0
100
AcDbBlockEnd
  0
BLOCK
  5
2D6FB
330
2D6EF
100
AcDbEntity
  8
0
 48
50.0
100
AcDbBlockBegin
  2
*D43
 70
     1
 10
0.0
 20
0.0
 30
0.0
  3
*D43
  1

  0
LINE
  5
2D95F
330
2D6EF
100
AcDbEntity
  8
寸法
 62
     0
 48
50.0
370
    -2
100
AcDbLine
 10
2948.600000000008
 20
8312.609586033696
 30
0.0
 11
2948.600000000008
 21
8584.563449998704
 31
0.0
  0
LINE
  5
2D960
330
2D6EF
100
AcDbEntity
  8
寸法
 62
     0
 48
50.0
370
    -2
100
AcDbLine
 10
2993.600000000001
 20
7586.343127939783
 30
0.0
 11
2993.600000000001
 21
8584.563449998704
 31
0.0
  0
LINE
  5
2D961
330
2D6EF
100
AcDbEntity
  8
寸法
 62
     0
 48
50.0
370
    -2
100
AcDbLine
 10
2993.600000000001
 20
8524.563449998705
 30
0.0
 11
3093.6
 21
8524.563449998705
 31
0.0
  0
LINE
  5
2D962
330
2D6EF
100
AcDbEntity
  8
寸法
 62
     0
 48
50.0
370
    -2
100
AcDbLine
 10
2948.600000000008
 20
8524.563449998705
 30
0.0
 11
2611.250757595082
 21
8524.563449998705
 31
0.0
  0
LINE
  5
2D963
330
2D6EF
100
AcDbEntity
  8
寸法
 62
     0
 48
50.0
370
    -2
100
AcDbLine
 10
2993.600000000001
 20
8524.563449998705
 30
0.0
 11
2948.600000000008
 21
8524.563449998705
 31
0.0
  0
INSERT
  5
2D964
330
2D6EF
100
AcDbEntity
  8
寸法
 62
     0
 48
50.0
370
    -2
100
AcDbBlockReference
  2
_DOTSMALL
 10
2993.600000000001
 20
8524.563449998705
 30
0.0
 41
100.0
 42
100.0
 43
100.0
 50
180.0
  0
INSERT
  5
2D965
330
2D6EF
100
AcDbEntity
  8
寸法
 62
     0
 48
50.0
370
    -2
100
AcDbBlockReference
  2
_DOTSMALL
 10
2948.600000000008
 20
8524.563449998705
 30
0.0
 41
100.0
 42
100.0
 43
100.0
  0
MTEXT
  5
2D966
330
2D6EF
100
AcDbEntity
  8
寸法
 62
     7
 48
50.0
100
AcDbMText
 10
2677.425378797542
 20
8624.563449998705
 30
0.0
 40
120.0
 41
0.0
 71
     5
 72
     1
  1
\A1;a
  7
STYLE1
 73
     1
 44
1.0
1001
ACAD
1000
MTEXTBEGIN
1070
    73
1070
     1
1070
    44
1040
1.0
1070
    74
1070
     0
1000
MTEXTEND
  0
POINT
  5
2D967
330
2D6EF
100
AcDbEntity
  8
DEFPOINTS
 62
     0
 48
50.0
100
AcDbPoint
 10
2948.600000000008
 20
8292.609586033696
 30
0.0
  0
POINT
  5
2D968
330
2D6EF
100
AcDbEntity
  8
DEFPOINTS
 62
     0
 48
50.0
100
AcDbPoint
 10
2993.600000000001
 20
7566.343127939783
 30
0.0
  0
POINT
  5
2D969
330
2D6EF
100
AcDbEntity
  8
DEFPOINTS
 62
     0
 48
50.0
100
AcDbPoint
 10
2993.600000000001
 20
8524.563449998705
 30
0.0
  0
ENDBLK
  5
2D6FC
330
2D6EF
100
AcDbEntity
  8
0
 48
50.0
100
AcDbBlockEnd
  0
BLOCK
  5
2D709
330
2D6FD
100
AcDbEntity
  8
0
 48
50.0
100
AcDbBlockBegin
  2
*D44
 70
     1
 10
0.0
 20
0.0
 30
0.0
  3
*D44
  1

  0
LINE
  5
2D96A
330
2D6FD
100
AcDbEntity
  8
寸法
 62
     0
 48
50.0
370
    -2
100
AcDbLine
 10
2350.665006330071
 20
7641.34312793979
 30
0.0
 11
2058.72190961068
 21
7641.34312793979
 31
0.0
  0
LINE
  5
2D96B
330
2D6FD
100
AcDbEntity
  8
寸法
 62
     0
 48
50.0
370
    -2
100
AcDbLine
 10
2973.600000000001
 20
7566.343127939783
 30
0.0
 11
2058.72190961068
 21
7566.343127939783
 31
0.0
  0
LINE
  5
2D96C
330
2D6FD
100
AcDbEntity
  8
寸法
 62
     0
 48
50.0
370
    -2
100
AcDbLine
 10
2118.72190961068
 20
7641.34312793979
 30
0.0
 11
2118.72190961068
 21
7741.343127939789
 31
0.0
  0
LINE
  5
2D96D
330
2D6FD
100
AcDbEntity
  8
寸法
 62
     0
 48
50.0
370
    -2
100
AcDbLine
 10
2118.72190961068
 20
7566.343127939783
 30
0.0
 11
2118.72190961068
 21
7466.343127939783
 31
0.0
  0
LINE
  5
2D96E
330
2D6FD
100
AcDbEntity
  8
寸法
 62
     0
 48
50.0
370
    -2
100
AcDbLine
 10
2118.72190961068
 20
7641.34312793979
 30
0.0
 11
2118.72190961068
 21
7566.343127939783
 31
0.0
  0
INSERT
  5
2D96F
330
2D6FD
100
AcDbEntity
  8
寸法
 62
     0
 48
50.0
370
    -2
100
AcDbBlockReference
  2
_DOTSMALL
 10
2118.72190961068
 20
7641.34312793979
 30
0.0
 41
100.0
 42
100.0
 43
100.0
 50
270.0
  0
INSERT
  5
2D970
330
2D6FD
100
AcDbEntity
  8
寸法
 62
     0
 48
50.0
370
    -2
100
AcDbBlockReference
  2
_DOTSMALL
 10
2118.72190961068
 20
7566.343127939783
 30
0.0
 41
100.0
 42
100.0
 43
100.0
 50
90.0
  0
MTEXT
  5
2D971
330
2D6FD
100
AcDbEntity
  8
寸法
 62
     7
 48
50.0
100
AcDbMText
 10
2018.721909610679
 20
7603.843127939787
 30
0.0
 40
120.0
 41
0.0
 71
     5
 72
     1
  1
\A1;c
  7
STYLE1
 11
0.0000000000000001
 21
1.0
 31
0.0
 73
     1
 44
1.0
1001
ACAD
1000
MTEXTBEGIN
1070
    73
1070
     1
1070
    44
1040
1.0
1070
    74
1070
     0
1000
MTEXTEND
  0
POINT
  5
2D972
330
2D6FD
100
AcDbEntity
  8
DEFPOINTS
 62
     0
 48
50.0
100
AcDbPoint
 10
2370.665006330071
 20
7641.34312793979
 30
0.0
  0
POINT
  5
2D973
330
2D6FD
100
AcDbEntity
  8
DEFPOINTS
 62
     0
 48
50.0
100
AcDbPoint
 10
2993.600000000001
 20
7566.343127939783
 30
0.0
  0
POINT
  5
2D974
330
2D6FD
100
AcDbEntity
  8
DEFPOINTS
 62
     0
 48
50.0
100
AcDbPoint
 10
2118.72190961068
 20
7566.343127939783
 30
0.0
  0
ENDBLK
  5
2D70A
330
2D6FD
100
AcDbEntity
  8
0
 48
50.0
100
AcDbBlockEnd
  0
BLOCK
  5
2D717
330
2D70B
100
AcDbEntity
  8
0
 48
50.0
100
AcDbBlockBegin
  2
*D45
 70
     1
 10
0.0
 20
0.0
 30
0.0
  3
*D45
  1

  0
LINE
  5
2D975
330
2D70B
100
AcDbEntity
  8
寸法
 62
     0
 48
50.0
370
    -2
100
AcDbLine
 10
2973.600000000001
 20
6186.343127939783
 30
0.0
 11
2058.72190961068
 21
6186.343127939783
 31
0.0
  0
LINE
  5
2D976
330
2D70B
100
AcDbEntity
  8
寸法
 62
     0
 48
50.0
370
    -2
100
AcDbLine
 10
2350.665006330078
 20
6131.343127939808
 30
0.0
 11
2058.72190961068
 21
6131.343127939808
 31
0.0
  0
LINE
  5
2D977
330
2D70B
100
AcDbEntity
  8
寸法
 62
     0
 48
50.0
370
    -2
100
AcDbLine
 10
2118.72190961068
 20
6186.343127939783
 30
0.0
 11
2118.72190961068
 21
6286.343127939783
 31
0.0
  0
LINE
  5
2D978
330
2D70B
100
AcDbEntity
  8
寸法
 62
     0
 48
50.0
370
    -2
100
AcDbLine
 10
2118.72190961068
 20
6131.343127939808
 30
0.0
 11
2118.72190961068
 21
6031.343127939808
 31
0.0
  0
LINE
  5
2D979
330
2D70B
100
AcDbEntity
  8
寸法
 62
     0
 48
50.0
370
    -2
100
AcDbLine
 10
2118.72190961068
 20
6186.343127939783
 30
0.0
 11
2118.72190961068
 21
6131.343127939808
 31
0.0
  0
INSERT
  5
2D97A
330
2D70B
100
AcDbEntity
  8
寸法
 62
     0
 48
50.0
370
    -2
100
AcDbBlockReference
  2
_DOTSMALL
 10
2118.72190961068
 20
6186.343127939783
 30
0.0
 41
100.0
 42
100.0
 43
100.0
 50
270.0
  0
INSERT
  5
2D97B
330
2D70B
100
AcDbEntity
  8
寸法
 62
     0
 48
50.0
370
    -2
100
AcDbBlockReference
  2
_DOTSMALL
 10
2118.72190961068
 20
6131.343127939808
 30
0.0
 41
100.0
 42
100.0
 43
100.0
 50
90.0
  0
MTEXT
  5
2D97C
330
2D70B
100
AcDbEntity
  8
寸法
 62
     7
 48
50.0
100
AcDbMText
 10
2018.721909610679
 20
6158.843127939796
 30
0.0
 40
120.0
 41
0.0
 71
     5
 72
     1
  1
\A1;b
  7
STYLE1
 11
0.0000000000000001
 21
1.0
 31
0.0
 73
     1
 44
1.0
1001
ACAD
1000
MTEXTBEGIN
1070
    73
1070
     1
1070
    44
1040
1.0
1070
    74
1070
     0
1000
MTEXTEND
  0
POINT
  5
2D97D
330
2D70B
100
AcDbEntity
  8
DEFPOINTS
 62
     0
 48
50.0
100
AcDbPoint
 10
2993.600000000001
 20
6186.343127939783
 30
0.0
  0
POINT
  5
2D97E
330
2D70B
100
AcDbEntity
  8
DEFPOINTS
 62
     0
 48
50.0
100
AcDbPoint
 10
2370.665006330078
 20
6131.343127939808
 30
0.0
  0
POINT
  5
2D97F
330
2D70B
100
AcDbEntity
  8
DEFPOINTS
 62
     0
 48
50.0
100
AcDbPoint
 10
2118.72190961068
 20
6131.343127939808
 30
0.0
  0
ENDBLK
  5
2D718
330
2D70B
100
AcDbEntity
  8
0
 48
50.0
100
AcDbBlockEnd
  0
BLOCK
  5
2D724
330
2D719
100
AcDbEntity
  8
0
 48
50.0
100
AcDbBlockBegin
  2
*D46
 70
     1
 10
0.0
 20
0.0
 30
0.0
  3
*D46
  1

  0
LINE
  5
2DA53
330
2D719
100
AcDbEntity
  8
寸法
 62
     0
 48
50.0
370
    -2
100
AcDbLine
 10
12853.59999999999
 20
6466.343127939804
 30
0.0
 11
12712.81202022565
 21
6466.343127939804
 31
0.0
  0
LINE
  5
2DA54
330
2D719
100
AcDbEntity
  8
寸法
 62
     0
 48
50.0
370
    -2
100
AcDbLine
 10
12853.6
 20
6186.3431279398
 30
0.0
 11
12712.81202022565
 21
6186.3431279398
 31
0.0
  0
LINE
  5
2DA55
330
2D719
100
AcDbEntity
  8
寸法
 62
     0
 48
50.0
370
    -2
100
AcDbLine
 10
12772.81202022565
 20
6466.343127939804
 30
0.0
 11
12772.81202022565
 21
6186.3431279398
 31
0.0
  0
LINE
  5
2DA56
330
2D719
100
AcDbEntity
  8
寸法
 62
     0
 48
50.0
370
    -2
100
AcDbLine
 10
12772.81202022565
 20
6186.3431279398
 30
0.0
 11
12772.81202022565
 21
5749.808679120892
 31
0.0
  0
INSERT
  5
2DA57
330
2D719
100
AcDbEntity
  8
寸法
 62
     0
 48
50.0
370
    -2
100
AcDbBlockReference
  2
_DOTSMALL
 10
12772.81202022565
 20
6466.343127939804
 30
0.0
 41
100.0
 42
100.0
 43
100.0
 50
90.0
  0
INSERT
  5
2DA58
330
2D719
100
AcDbEntity
  8
寸法
 62
     0
 48
50.0
370
    -2
100
AcDbBlockReference
  2
_DOTSMALL
 10
12772.81202022565
 20
6186.3431279398
 30
0.0
 41
100.0
 42
100.0
 43
100.0
 50
270.0
  0
MTEXT
  5
2DA59
330
2D719
100
AcDbEntity
  8
寸法
 62
     7
 48
50.0
100
AcDbMText
 10
12672.80020920203
 20
5899.379545262627
 30
0.0
 40
120.0
 41
0.0
 71
     5
 72
     1
  1
\A1;280
  7
STYLE1
 11
0.0000000000000001
 21
1.0
 31
0.0
 73
     1
 44
1.0
1001
ACAD
1000
MTEXTBEGIN
1070
    73
1070
     1
1070
    44
1040
1.0
1070
    74
1070
     0
1000
MTEXTEND
  0
POINT
  5
2DA5A
330
2D719
100
AcDbEntity
  8
DEFPOINTS
 62
     0
 48
50.0
100
AcDbPoint
 10
12873.59999999999
 20
6466.343127939804
 30
0.0
  0
POINT
  5
2DA5B
330
2D719
100
AcDbEntity
  8
DEFPOINTS
 62
     0
 48
50.0
100
AcDbPoint
 10
12873.6
 20
6186.3431279398
 30
0.0
  0
POINT
  5
2DA5C
330
2D719
100
AcDbEntity
  8
DEFPOINTS
 62
     0
 48
50.0
100
AcDbPoint
 10
12772.81202022565
 20
6186.3431279398
 30
0.0
  0
ENDBLK
  5
2D725
330
2D719
100
AcDbEntity
  8
0
 48
50.0
100
AcDbBlockEnd
  0
BLOCK
  5
2D731
330
2D726
100
AcDbEntity
  8
0
 48
50.0
100
AcDbBlockBegin
  2
*D47
 70
     1
 10
0.0
 20
0.0
 30
0.0
  3
*D47
  1

  0
LINE
  5
2D94B
330
2D726
100
AcDbEntity
  8
寸法
 62
     0
 48
50.0
370
    -2
100
AcDbLine
 10
12853.6
 20
7566.343127939768
 30
0.0
 11
12712.81202022565
 21
7566.343127939768
 31
0.0
  0
LINE
  5
2D94C
330
2D726
100
AcDbEntity
  8
寸法
 62
     0
 48
50.0
370
    -2
100
AcDbLine
 10
12853.6
 20
7366.343127939782
 30
0.0
 11
12712.81202022565
 21
7366.343127939782
 31
0.0
  0
LINE
  5
2D94D
330
2D726
100
AcDbEntity
  8
寸法
 62
     0
 48
50.0
370
    -2
100
AcDbLine
 10
12772.81202022565
 20
7366.343127939782
 30
0.0
 11
12772.81202022565
 21
7566.343127939768
 31
0.0
  0
LINE
  5
2D94E
330
2D726
100
AcDbEntity
  8
寸法
 62
     0
 48
50.0
370
    -2
100
AcDbLine
 10
12772.81202022565
 20
7566.343127939768
 30
0.0
 11
12772.81202022565
 21
8002.877576758669
 31
0.0
  0
INSERT
  5
2D94F
330
2D726
100
AcDbEntity
  8
寸法
 62
     0
 48
50.0
370
    -2
100
AcDbBlockReference
  2
_DOTSMALL
 10
12772.81202022565
 20
7366.343127939782
 30
0.0
 41
100.0
 42
100.0
 43
100.0
 50
270.0
  0
INSERT
  5
2D950
330
2D726
100
AcDbEntity
  8
寸法
 62
     0
 48
50.0
370
    -2
100
AcDbBlockReference
  2
_DOTSMALL
 10
12772.81202022565
 20
7566.343127939768
 30
0.0
 41
100.0
 42
100.0
 43
100.0
 50
90.0
  0
MTEXT
  5
2D951
330
2D726
100
AcDbEntity
  8
寸法
 62
     7
 48
50.0
100
AcDbMText
 10
12672.80020920203
 20
7853.306710616938
 30
0.0
 40
120.0
 41
0.0
 71
     5
 72
     1
  1
\A1;200
  7
STYLE1
 11
0.0000000000000001
 21
1.0
 31
0.0
 73
     1
 44
1.0
1001
ACAD
1000
MTEXTBEGIN
1070
    73
1070
     1
1070
    44
1040
1.0
1070
    74
1070
     0
1000
MTEXTEND
  0
POINT
  5
2D952
330
2D726
100
AcDbEntity
  8
DEFPOINTS
 62
     0
 48
50.0
100
AcDbPoint
 10
12873.6
 20
7566.343127939768
 30
0.0
  0
POINT
  5
2D953
330
2D726
100
AcDbEntity
  8
DEFPOINTS
 62
     0
 48
50.0
100
AcDbPoint
 10
12873.6
 20
7366.343127939782
 30
0.0
  0
POINT
  5
2D954
330
2D726
100
AcDbEntity
  8
DEFPOINTS
 62
     0
 48
50.0
100
AcDbPoint
 10
12772.81202022565
 20
7366.343127939782
 30
0.0
  0
ENDBLK
  5
2D732
330
2D726
100
AcDbEntity
  8
0
 48
50.0
100
AcDbBlockEnd
  0
BLOCK
  5
2D73E
330
2D733
100
AcDbEntity
  8
0
 48
50.0
100
AcDbBlockBegin
  2
*D48
 70
     1
 10
0.0
 20
0.0
 30
0.0
  3
*D48
  1

  0
LINE
  5
2DAF1
330
2D733
100
AcDbEntity
  8
寸法
 62
     0
 48
50.0
370
    -2
100
AcDbLine
 10
13453.59999999999
 20
7021.343127939818
 30
0.0
 11
13453.59999999999
 21
7175.941741037892
 31
0.0
  0
LINE
  5
2DAF2
330
2D733
100
AcDbEntity
  8
寸法
 62
     0
 48
50.0
370
    -2
100
AcDbLine
 10
13333.6
 20
7021.343127939828
 30
0.0
 11
13333.6
 21
7175.941741037892
 31
0.0
  0
LINE
  5
2DAF3
330
2D733
100
AcDbEntity
  8
寸法
 62
     0
 48
50.0
370
    -2
100
AcDbLine
 10
13333.6
 20
7115.941741037892
 30
0.0
 11
13453.59999999999
 21
7115.941741037892
 31
0.0
  0
LINE
  5
2DAF4
330
2D733
100
AcDbEntity
  8
寸法
 62
     0
 48
50.0
370
    -2
100
AcDbLine
 10
13453.59999999999
 20
7115.941741037892
 30
0.0
 11
13859.7062992126
 21
7115.941741037892
 31
0.0
  0
INSERT
  5
2DAF5
330
2D733
100
AcDbEntity
  8
寸法
 62
     0
 48
50.0
370
    -2
100
AcDbBlockReference
  2
_DOTSMALL
 10
13333.6
 20
7115.941741037892
 30
0.0
 41
100.0
 42
100.0
 43
100.0
 50
180.0
  0
INSERT
  5
2DAF6
330
2D733
100
AcDbEntity
  8
寸法
 62
     0
 48
50.0
370
    -2
100
AcDbBlockReference
  2
_DOTSMALL
 10
13453.59999999999
 20
7115.941741037892
 30
0.0
 41
100.0
 42
100.0
 43
100.0
  0
MTEXT
  5
2DAF7
330
2D733
100
AcDbEntity
  8
寸法
 62
     7
 48
50.0
100
AcDbMText
 10
13723.65905511811
 20
7215.953552061513
 30
0.0
 40
120.0
 41
0.0
 71
     5
 72
     1
  1
\A1;120
  7
STYLE1
 73
     1
 44
1.0
1001
ACAD
1000
MTEXTBEGIN
1070
    73
1070
     1
1070
    44
1040
1.0
1070
    74
1070
     0
1000
MTEXTEND
  0
POINT
  5
2DAF8
330
2D733
100
AcDbEntity
  8
DEFPOINTS
 62
     0
 48
50.0
100
AcDbPoint
 10
13453.59999999999
 20
7001.343127939818
 30
0.0
  0
POINT
  5
2DAF9
330
2D733
100
AcDbEntity
  8
DEFPOINTS
 62
     0
 48
50.0
100
AcDbPoint
 10
13333.6
 20
7001.343127939829
 30
0.0
  0
POINT
  5
2DAFA
330
2D733
100
AcDbEntity
  8
DEFPOINTS
 62
     0
 48
50.0
100
AcDbPoint
 10
13333.6
 20
7115.941741037892
 30
0.0
  0
ENDBLK
  5
2D73F
330
2D733
100
AcDbEntity
  8
0
 48
50.0
100
AcDbBlockEnd
  0
BLOCK
  5
2E0F7
330
2E0ED
100
AcDbEntity
  8
0
 48
50.0
100
AcDbBlockBegin
  2
*D49
 70
     1
 10
0.0
 20
0.0
 30
0.0
  3
*D49
  1

  0
LINE
  5
2E137
330
2E0ED
100
AcDbEntity
  8
寸法
 62
     0
 48
50.0
370
    -2
100
AcDbLine
 10
6353.866527897701
 20
1994.936425948917
 30
0.0
 11
6353.866527897701
 21
2454.604233865298
 31
0.0
  0
LINE
  5
2E138
330
2E0ED
100
AcDbEntity
  8
寸法
 62
     0
 48
50.0
370
    -2
100
AcDbLine
 10
6161.866527897701
 20
1994.936425948917
 30
0.0
 11
6161.866527897701
 21
2454.604233865298
 31
0.0
  0
LINE
  5
2E139
330
2E0ED
100
AcDbEntity
  8
寸法
 62
     0
 48
50.0
370
    -2
100
AcDbLine
 10
6353.866527897701
 20
2394.604233865298
 30
0.0
 11
6161.866527897701
 21
2394.604233865298
 31
0.0
  0
INSERT
  5
2E13A
330
2E0ED
100
AcDbEntity
  8
寸法
 62
     0
 48
50.0
370
    -2
100
AcDbBlockReference
  2
_DOTSMALL
 10
6353.866527897701
 20
2394.604233865298
 30
0.0
 41
100.0
 42
100.0
 43
100.0
  0
INSERT
  5
2E13B
330
2E0ED
100
AcDbEntity
  8
寸法
 62
     0
 48
50.0
370
    -2
100
AcDbBlockReference
  2
_DOTSMALL
 10
6161.866527897701
 20
2394.604233865298
 30
0.0
 41
100.0
 42
100.0
 43
100.0
 50
180.0
  0
MTEXT
  5
2E13C
330
2E0ED
100
AcDbEntity
  8
寸法
 62
     7
 48
50.0
100
AcDbMText
 10
6257.866527897701
 20
2694.639666936164
 30
0.0
 40
120.0
 41
0.0
 71
     5
 72
     1
  1
\A1;120\P200\P280
  7
STYLE1
 73
     1
 44
1.0
1001
ACAD
1000
MTEXTBEGIN
1070
    73
1070
     1
1070
    44
1040
1.0
1070
    74
1070
     0
1000
MTEXTEND
  0
POINT
  5
2E13D
330
2E0ED
100
AcDbEntity
  8
DEFPOINTS
 62
     0
 48
50.0
100
AcDbPoint
 10
6353.866527897701
 20
1974.936425948918
 30
0.0
  0
POINT
  5
2E13E
330
2E0ED
100
AcDbEntity
  8
DEFPOINTS
 62
     0
 48
50.0
100
AcDbPoint
 10
6161.866527897701
 20
1974.936425948918
 30
0.0
  0
POINT
  5
2E13F
330
2E0ED
100
AcDbEntity
  8
DEFPOINTS
 62
     0
 48
50.0
100
AcDbPoint
 10
6161.866527897701
 20
2394.604233865298
 30
0.0
  0
ENDBLK
  5
2E0F8
330
2E0ED
100
AcDbEntity
  8
0
 48
50.0
100
AcDbBlockEnd
  0
BLOCK
  5
2E103
330
2E0F9
100
AcDbEntity
  8
0
 48
50.0
100
AcDbBlockBegin
  2
*D50
 70
     1
 10
0.0
 20
0.0
 30
0.0
  3
*D50
  1

  0
LINE
  5
2E140
330
2E0F9
100
AcDbEntity
  8
寸法
 62
     0
 48
50.0
370
    -2
100
AcDbLine
 10
6033.866527897702
 20
1042.936425948917
 30
0.0
 11
6033.866527897702
 21
592.5067879437574
 31
0.0
  0
LINE
  5
2E141
330
2E0F9
100
AcDbEntity
  8
寸法
 62
     0
 48
50.0
370
    -2
100
AcDbLine
 10
6481.866527897702
 20
1042.936425948917
 30
0.0
 11
6481.866527897702
 21
592.5067879437574
 31
0.0
  0
LINE
  5
2E142
330
2E0F9
100
AcDbEntity
  8
寸法
 62
     0
 48
50.0
370
    -2
100
AcDbLine
 10
6033.866527897702
 20
652.5067879437574
 30
0.0
 11
6481.866527897702
 21
652.5067879437574
 31
0.0
  0
INSERT
  5
2E143
330
2E0F9
100
AcDbEntity
  8
寸法
 62
     0
 48
50.0
370
    -2
100
AcDbBlockReference
  2
_DOTSMALL
 10
6033.866527897702
 20
652.5067879437574
 30
0.0
 41
100.0
 42
100.0
 43
100.0
 50
180.0
  0
INSERT
  5
2E144
330
2E0F9
100
AcDbEntity
  8
寸法
 62
     0
 48
50.0
370
    -2
100
AcDbBlockReference
  2
_DOTSMALL
 10
6481.866527897702
 20
652.5067879437574
 30
0.0
 41
100.0
 42
100.0
 43
100.0
  0
MTEXT
  5
2E145
330
2E0F9
100
AcDbEntity
  8
寸法
 62
     7
 48
50.0
100
AcDbMText
 10
6237.769769219478
 20
752.5067879437574
 30
0.0
 40
120.0
 41
0.0
 71
     5
 72
     1
  1
\A1;300
  7
STYLE1
 73
     1
 44
1.0
1001
ACAD
1000
MTEXTBEGIN
1070
    73
1070
     1
1070
    44
1040
1.0
1070
    74
1070
     0
1000
MTEXTEND
  0
POINT
  5
2E146
330
2E0F9
100
AcDbEntity
  8
DEFPOINTS
 62
     0
 48
50.0
100
AcDbPoint
 10
6033.866527897702
 20
1062.936425948917
 30
0.0
  0
POINT
  5
2E147
330
2E0F9
100
AcDbEntity
  8
DEFPOINTS
 62
     0
 48
50.0
100
AcDbPoint
 10
6481.866527897702
 20
1062.936425948917
 30
0.0
  0
POINT
  5
2E148
330
2E0F9
100
AcDbEntity
  8
DEFPOINTS
 62
     0
 48
50.0
100
AcDbPoint
 10
6481.866527897702
 20
652.5067879437574
 30
0.0
  0
ENDBLK
  5
2E104
330
2E0F9
100
AcDbEntity
  8
0
 48
50.0
100
AcDbBlockEnd
  0
BLOCK
  5
2E10F
330
2E105
100
AcDbEntity
  8
0
 48
50.0
100
AcDbBlockBegin
  2
*D51
 70
     1
 10
0.0
 20
0.0
 30
0.0
  3
*D51
  1

  0
LINE
  5
2E149
330
2E105
100
AcDbEntity
  8
寸法
 62
     0
 48
50.0
370
    -2
100
AcDbLine
 10
6141.866527897701
 20
1974.936425948918
 30
0.0
 11
5366.829289335961
 21
1974.936425948918
 31
0.0
  0
LINE
  5
2E14A
330
2E105
100
AcDbEntity
  8
寸法
 62
     0
 48
50.0
370
    -2
100
AcDbLine
 10
5933.866527897706
 20
1190.936425948917
 30
0.0
 11
5366.829289335961
 21
1190.936425948918
 31
0.0
  0
LINE
  5
2E14B
330
2E105
100
AcDbEntity
  8
寸法
 62
     0
 48
50.0
370
    -2
100
AcDbLine
 10
5426.829289335961
 20
1974.936425948918
 30
0.0
 11
5426.829289335961
 21
1190.936425948918
 31
0.0
  0
INSERT
  5
2E14C
330
2E105
100
AcDbEntity
  8
寸法
 62
     0
 48
50.0
370
    -2
100
AcDbBlockReference
  2
_DOTSMALL
 10
5426.829289335961
 20
1974.936425948918
 30
0.0
 41
100.0
 42
100.0
 43
100.0
 50
90.0
  0
INSERT
  5
2E14D
330
2E105
100
AcDbEntity
  8
寸法
 62
     0
 48
50.0
370
    -2
100
AcDbBlockReference
  2
_DOTSMALL
 10
5426.829289335961
 20
1190.936425948918
 30
0.0
 41
100.0
 42
100.0
 43
100.0
 50
270.0
  0
MTEXT
  5
2E14E
330
2E105
100
AcDbEntity
  8
寸法
 62
     7
 48
50.0
100
AcDbMText
 10
5326.829289335961
 20
1562.476575604918
 30
0.0
 40
120.0
 41
0.0
 71
     5
 72
     1
  1
\A1;540
  7
STYLE1
 11
0.0000000000000001
 21
1.0
 31
0.0
 73
     1
 44
1.0
1001
ACAD
1000
MTEXTBEGIN
1070
    73
1070
     1
1070
    44
1040
1.0
1070
    74
1070
     0
1000
MTEXTEND
  0
POINT
  5
2E14F
330
2E105
100
AcDbEntity
  8
DEFPOINTS
 62
     0
 48
50.0
100
AcDbPoint
 10
6161.866527897701
 20
1974.936425948918
 30
0.0
  0
POINT
  5
2E150
330
2E105
100
AcDbEntity
  8
DEFPOINTS
 62
     0
 48
50.0
100
AcDbPoint
 10
5953.866527897705
 20
1190.936425948917
 30
0.0
  0
POINT
  5
2E151
330
2E105
100
AcDbEntity
  8
DEFPOINTS
 62
     0
 48
50.0
100
AcDbPoint
 10
5426.829289335961
 20
1190.936425948918
 30
0.0
  0
ENDBLK
  5
2E110
330
2E105
100
AcDbEntity
  8
0
 48
50.0
100
AcDbBlockEnd
  0
BLOCK
  5
2E11B
330
2E111
100
AcDbEntity
  8
0
 48
50.0
100
AcDbBlockBegin
  2
*D52
 70
     1
 10
0.0
 20
0.0
 30
0.0
  3
*D52
  1

  0
LINE
  5
2E152
330
2E111
100
AcDbEntity
  8
寸法
 62
     0
 48
50.0
370
    -2
100
AcDbLine
 10
6013.866527897701
 20
1430.936425948917
 30
0.0
 11
5831.446214165242
 21
1430.936425948917
 31
0.0
  0
LINE
  5
2E153
330
2E111
100
AcDbEntity
  8
寸法
 62
     0
 48
50.0
370
    -2
100
AcDbLine
 10
5933.866527897706
 20
1190.936425948917
 30
0.0
 11
5831.446214165242
 21
1190.936425948917
 31
0.0
  0
LINE
  5
2E154
330
2E111
100
AcDbEntity
  8
寸法
 62
     0
 48
50.0
370
    -2
100
AcDbLine
 10
5891.446214165242
 20
1430.936425948917
 30
0.0
 11
5891.446214165242
 21
1190.936425948917
 31
0.0
  0
INSERT
  5
2E155
330
2E111
100
AcDbEntity
  8
寸法
 62
     0
 48
50.0
370
    -2
100
AcDbBlockReference
  2
_DOTSMALL
 10
5891.446214165242
 20
1430.936425948917
 30
0.0
 41
100.0
 42
100.0
 43
100.0
 50
90.0
  0
INSERT
  5
2E156
330
2E111
100
AcDbEntity
  8
寸法
 62
     0
 48
50.0
370
    -2
100
AcDbBlockReference
  2
_DOTSMALL
 10
5891.446214165242
 20
1190.936425948917
 30
0.0
 41
100.0
 42
100.0
 43
100.0
 50
270.0
  0
MTEXT
  5
2E157
330
2E111
100
AcDbEntity
  8
寸法
 62
     7
 48
50.0
100
AcDbMText
 10
5791.446214165242
 20
1310.936425948918
 30
0.0
 40
120.0
 41
0.0
 71
     5
 72
     1
  1
\A1;150
  7
STYLE1
 11
0.0000000000000001
 21
1.0
 31
0.0
 73
     1
 44
1.0
1001
ACAD
1000
MTEXTBEGIN
1070
    73
1070
     1
1070
    44
1040
1.0
1070
    74
1070
     0
1000
MTEXTEND
  0
POINT
  5
2E158
330
2E111
100
AcDbEntity
  8
DEFPOINTS
 62
     0
 48
50.0
100
AcDbPoint
 10
6033.866527897702
 20
1430.936425948917
 30
0.0
  0
POINT
  5
2E159
330
2E111
100
AcDbEntity
  8
DEFPOINTS
 62
     0
 48
50.0
100
AcDbPoint
 10
5953.866527897705
 20
1190.936425948917
 30
0.0
  0
POINT
  5
2E15A
330
2E111
100
AcDbEntity
  8
DEFPOINTS
 62
     0
 48
50.0
100
AcDbPoint
 10
5891.446214165242
 20
1190.936425948917
 30
0.0
  0
ENDBLK
  5
2E11C
330
2E111
100
AcDbEntity
  8
0
 48
50.0
100
AcDbBlockEnd
  0
BLOCK
  5
2E129
330
2E11D
100
AcDbEntity
  8
0
 48
50.0
100
AcDbBlockBegin
  2
*D53
 70
     1
 10
0.0
 20
0.0
 30
0.0
  3
*D53
  1

  0
LINE
  5
2E15B
330
2E11D
100
AcDbEntity
  8
寸法
 62
     0
 48
50.0
370
    -2
100
AcDbLine
 10
8108.705841074897
 20
2027.696425948919
 30
0.0
 11
9113.829106962766
 21
2027.696425948918
 31
0.0
  0
LINE
  5
2E15C
330
2E11D
100
AcDbEntity
  8
寸法
 62
     0
 48
50.0
370
    -2
100
AcDbLine
 10
8295.905841074896
 20
1974.936425948918
 30
0.0
 11
9113.829106962766
 21
1974.936425948917
 31
0.0
  0
LINE
  5
2E15D
330
2E11D
100
AcDbEntity
  8
寸法
 62
     0
 48
50.0
370
    -2
100
AcDbLine
 10
9053.829106962767
 20
2027.696425948918
 30
0.0
 11
9053.829106962767
 21
2127.696425948919
 31
0.0
  0
LINE
  5
2E15E
330
2E11D
100
AcDbEntity
  8
寸法
 62
     0
 48
50.0
370
    -2
100
AcDbLine
 10
9053.829106962767
 20
1974.936425948917
 30
0.0
 11
9053.829106962767
 21
1242.918619105951
 31
0.0
  0
LINE
  5
2E15F
330
2E11D
100
AcDbEntity
  8
寸法
 62
     0
 48
50.0
370
    -2
100
AcDbLine
 10
9053.829106962767
 20
2027.696425948918
 30
0.0
 11
9053.829106962767
 21
1974.936425948917
 31
0.0
  0
INSERT
  5
2E160
330
2E11D
100
AcDbEntity
  8
寸法
 62
     0
 48
50.0
370
    -2
100
AcDbBlockReference
  2
_DOTSMALL
 10
9053.829106962767
 20
2027.696425948918
 30
0.0
 41
100.0
 42
100.0
 43
100.0
 50
270.0
  0
INSERT
  5
2E161
330
2E11D
100
AcDbEntity
  8
寸法
 62
     0
 48
50.0
370
    -2
100
AcDbBlockReference
  2
_DOTSMALL
 10
9053.829106962767
 20
1974.936425948917
 30
0.0
 41
100.0
 42
100.0
 43
100.0
 50
90.0
  0
MTEXT
  5
2E162
330
2E11D
100
AcDbEntity
  8
寸法
 62
     7
 48
50.0
100
AcDbMText
 10
8953.817295939144
 20
1508.927522527435
 30
0.0
 40
120.0
 41
0.0
 71
     5
 72
     1
  1
\A1;20～25
  7
STYLE1
 11
0.0000000000000001
 21
1.0
 31
0.0
 73
     1
 44
1.0
1001
ACAD
1000
MTEXTBEGIN
1070
    73
1070
     1
1070
    44
1040
1.0
1070
    74
1070
     0
1000
MTEXTEND
  0
POINT
  5
2E163
330
2E11D
100
AcDbEntity
  8
DEFPOINTS
 62
     0
 48
50.0
100
AcDbPoint
 10
8088.705841074895
 20
2027.696425948919
 30
0.0
  0
POINT
  5
2E164
330
2E11D
100
AcDbEntity
  8
DEFPOINTS
 62
     0
 48
50.0
100
AcDbPoint
 10
8275.905841074894
 20
1974.936425948918
 30
0.0
  0
POINT
  5
2E165
330
2E11D
100
AcDbEntity
  8
DEFPOINTS
 62
     0
 48
50.0
100
AcDbPoint
 10
9053.829106962767
 20
1974.936425948917
 30
0.0
  0
ENDBLK
  5
2E12A
330
2E11D
100
AcDbEntity
  8
0
 48
50.0
100
AcDbBlockEnd
  0
BLOCK
  5
2E135
330
2E12B
100
AcDbEntity
  8
0
 48
50.0
100
AcDbBlockBegin
  2
*D54
 70
     1
 10
0.0
 20
0.0
 30
0.0
  3
*D54
  1

  0
LINE
  5
2E166
330
2E12B
100
AcDbEntity
  8
寸法
 62
     0
 48
50.0
370
    -2
100
AcDbLine
 10
8295.905841074896
 20
1974.936425948918
 30
0.0
 11
8837.774440843739
 21
1974.936425948917
 31
0.0
  0
LINE
  5
2E167
330
2E12B
100
AcDbEntity
  8
寸法
 62
     0
 48
50.0
370
    -2
100
AcDbLine
 10
8295.905841074896
 20
1650.936425948916
 30
0.0
 11
8837.774440843739
 21
1650.936425948916
 31
0.0
  0
LINE
  5
2E168
330
2E12B
100
AcDbEntity
  8
寸法
 62
     0
 48
50.0
370
    -2
100
AcDbLine
 10
8777.774440843741
 20
1974.936425948917
 30
0.0
 11
8777.774440843741
 21
1650.936425948916
 31
0.0
  0
INSERT
  5
2E169
330
2E12B
100
AcDbEntity
  8
寸法
 62
     0
 48
50.0
370
    -2
100
AcDbBlockReference
  2
_DOTSMALL
 10
8777.774440843741
 20
1974.936425948917
 30
0.0
 41
100.0
 42
100.0
 43
100.0
 50
90.0
  0
INSERT
  5
2E16A
330
2E12B
100
AcDbEntity
  8
寸法
 62
     0
 48
50.0
370
    -2
100
AcDbBlockReference
  2
_DOTSMALL
 10
8777.774440843741
 20
1650.936425948916
 30
0.0
 41
100.0
 42
100.0
 43
100.0
 50
270.0
  0
MTEXT
  5
2E16B
330
2E12B
100
AcDbEntity
  8
寸法
 62
     7
 48
50.0
100
AcDbMText
 10
8677.774440843739
 20
1812.936425948918
 30
0.0
 40
120.0
 41
0.0
 71
     5
 72
     1
  1
\A1;180
  7
STYLE1
 11
0.0000000000000001
 21
1.0
 31
0.0
 73
     1
 44
1.0
1001
ACAD
1000
MTEXTBEGIN
1070
    73
1070
     1
1070
    44
1040
1.0
1070
    74
1070
     0
1000
MTEXTEND
  0
POINT
  5
2E16C
330
2E12B
100
AcDbEntity
  8
DEFPOINTS
 62
     0
 48
50.0
100
AcDbPoint
 10
8275.905841074894
 20
1974.936425948918
 30
0.0
  0
POINT
  5
2E16D
330
2E12B
100
AcDbEntity
  8
DEFPOINTS
 62
     0
 48
50.0
100
AcDbPoint
 10
8275.905841074894
 20
1650.936425948916
 30
0.0
  0
POINT
  5
2E16E
330
2E12B
100
AcDbEntity
  8
DEFPOINTS
 62
     0
 48
50.0
100
AcDbPoint
 10
8777.774440843741
 20
1650.936425948916
 30
0.0
  0
ENDBLK
  5
2E136
330
2E12B
100
AcDbEntity
  8
0
 48
50.0
100
AcDbBlockEnd
  0
ENDSEC
  0
SECTION
  2
ENTITIES
  0
MTEXT
  5
763F
330
747D
100
AcDbEntity
  8
0
100
AcDbMText
 10
302.846345836809
 20
280.1983726409901
 30
0.0
 40
3.5
 41
5.323721266742722
 71
     1
 72
     5
  1

  7
MSMINCHO
 73
     1
 44
1.0
1001
ACAD
1000
MTEXTBEGIN
1070
    73
1070
     1
1070
    44
1040
1.0
1070
    74
1070
     0
1000
MTEXTEND
  0
LINE
  5
10B57
330
747D
100
AcDbEntity
  8
補助
  6
PHANTOM
 62
   230
 48
50.0
100
AcDbLine
 10
139.9999999999995
 20
11409.6
 30
0.0
 11
16307.2
 21
11409.6
 31
0.0
  0
LINE
  5
10B59
330
747D
100
AcDbEntity
  8
仕様書枠
  6
Continuous
 48
50.0
100
AcDbLine
 10
13107.2
 20
1200.0
 30
0.0
 11
13107.2
 21
-0.0000000000000729
 31
0.0
  0
LINE
  5
10B5D
330
747D
100
AcDbEntity
  8
仕様書枠
 48
50.0
100
AcDbLine
 10
140.0
 20
0.0
 30
0.0
 11
16307.2
 21
-0.0000000000000909
 31
0.0
  0
LINE
  5
10B5E
330
747D
100
AcDbEntity
  8
補助
  6
PHANTOM
 62
   230
 48
50.0
100
AcDbLine
 10
16307.2
 20
11409.6
 30
0.0
 11
16307.2
 21
1200.0
 31
0.0
  0
LINE
  5
10B6C
330
747D
100
AcDbEntity
  8
仕様書枠
 48
50.0
100
AcDbLine
 10
13107.2
 20
1200.0
 30
0.0
 11
16307.2
 21
1200.0
 31
0.0
  0
TEXT
  5
10B73
330
747D
100
AcDbEntity
  8
文字
 62
     7
 48
50.0
100
AcDbText
 10
13162.9790565769
 20
895.0906074299405
 30
0.0
 40
200.0
  1
基 礎 図
  7
STYLE2
100
AcDbText
  0
LINE
  5
10B7B
330
747D
100
AcDbEntity
  8
仕様書枠
 48
50.0
100
AcDbLine
 10
13107.2
 20
800.0
 30
0.0
 11
14251.2
 21
800.0
 31
0.0
  0
LINE
  5
10B88
330
747D
100
AcDbEntity
  8
仕様書枠
  6
Continuous
 48
50.0
100
AcDbLine
 10
14251.2
 20
1200.0
 30
0.0
 11
14251.2
 21
800.0
 31
0.0
  0
LINE
  5
16462
330
747D
100
AcDbEntity
  8
仕様書枠
 48
50.0
100
AcDbLine
 10
16307.2
 20
1200.0
 30
0.0
 11
16307.2
 21
-0.0000000000000909
 31
0.0
  0
LINE
  5
1903B
330
747D
100
AcDbEntity
  8
補助
  6
PHANTOM
 62
   230
 48
50.0
100
AcDbLine
 10
140.0
 20
0.0
 30
0.0
 11
139.9999999999995
 21
11409.6
 31
0.0
  0
TEXT
  5
1C7A1
330
747D
100
AcDbEntity
  8
文字
 62
     7
 48
50.0
100
AcDbText
 10
13188.16259899338
 20
79.80631269190417
 30
0.0
 40
80.0
  1
※布基礎には換気口を設けてください。
  7
STYLE2
100
AcDbText
  0
TEXT
  5
1C7E7
330
747D
100
AcDbEntity
  8
文字
 62
     7
 48
50.0
100
AcDbText
 10
13188.16259899338
 20
246.7109242801889
 30
0.0
 40
80.0
  1
※寒冷地等は地域の実情に合わせた基礎にして下さい。
  7
STYLE2
100
AcDbText
  0
TEXT
  5
1C7EC
330
747D
100
AcDbEntity
  8
文字
 62
     7
 48
50.0
100
AcDbText
 10
14524.131837222
 20
1031.557706291229
 30
0.0
 40
100.0
  1
<縮尺> S=1/40
  7
STYLE2
100
AcDbText
  0
TEXT
  5
1C7ED
330
747D
100
AcDbEntity
  8
文字
 62
     7
 48
50.0
100
AcDbText
 10
13201.43669998441
 20
477.2740661031257
 30
0.0
 40
160.0
  1
機種名
  7
STYLE2
100
AcDbText
  0
LINE
  5
1C7EF
330
747D
100
AcDbEntity
  8
文字
 62
     7
 48
50.0
100
AcDbLine
 10
13187.2
 20
400.0
 30
0.0
 11
16227.2
 21
400.0
 31
0.0
  0
TEXT
  5
271E7
330
747D
100
AcDbEntity
  8
部品1
100
AcDbText
 10
6896.551502705768
 20
5273.072859500072
 30
0.0
 40
135.0
  1
11連棟・14連棟・17連棟・20連棟
  7
STYLE2
100
AcDbText
  0
TEXT
  5
27754
330
747D
100
AcDbEntity
  8
文字
 62
     7
 48
50.0
100
AcDbText
 10
14271.39351435261
 20
483.8967129911416
 30
0.0
 40
160.0
  1
ＮＸＮ－１３ＤＬ-Ｎ
  7
STYLE2
100
AcDbText
  0
LINE
  5
2CA26
330
747D
100
AcDbEntity
  8
部品1
 48
50.0
100
AcDbLine
 10
13333.59999999999
 20
7366.343127939782
 30
0.0
 11
3113.599999999999
 21
7366.343127939782
 31
0.0
  0
LINE
  5
2CA27
330
747D
100
AcDbEntity
  8
部品1
 48
50.0
100
AcDbLine
 10
13453.59999999999
 20
7566.343127939784
 30
0.0
 11
2993.600000000001
 21
7566.343127939783
 31
0.0
  0
LINE
  5
2CA29
330
747D
100
AcDbEntity
  8
部品1
 48
50.0
100
AcDbLine
 10
13453.59999999999
 20
6186.343127939816
 30
0.0
 11
2993.599999999997
 21
6186.343127939779
 31
0.0
  0
DIMENSION
  5
2CA2A
330
747D
100
AcDbEntity
  8
寸法
 48
50.0
100
AcDbDimension
  2
*D29
 10
7748.600000000007
 20
8048.951944610031
 30
0.0
 11
8223.600000000008
 21
8148.951944610031
 31
0.0
 70
    32
 71
     5
 42
950.0
  3
INABA_S40G
100
AcDbAlignedDimension
 13
8698.600000000007
 23
6963.343127939783
 33
0.0
 14
7748.600000000007
 24
6963.343127939783
 34
0.0
100
AcDbRotatedDimension
1001
ACAD
1000
DSTYLE
1002
{
1070
   341
1005
0
1002
}
  0
TEXT
  5
2CA2B
330
747D
100
AcDbEntity
  8
寸法
 48
50.0
100
AcDbText
 10
8542.683902927196
 20
6205.02441873252
 30
0.0
 40
120.0
  1
扉面
  7
STYLE1
100
AcDbText
  0
DIMENSION
  5
2CA2C
330
747D
100
AcDbEntity
  8
寸法
 48
50.0
100
AcDbDimension
  2
*D30
 10
13453.59999999999
 20
8524.5634499987
 30
0.0
 11
8223.599999999999
 21
8624.563449998701
 31
0.0
 70
    32
  1
N X 950+10
 71
     5
 42
10459.99999999999
  3
INABA_S40G
100
AcDbAlignedDimension
 13
2993.600000000001
 23
7566.343127939783
 33
0.0
 14
13453.59999999999
 24
7566.343127939783
 34
0.0
100
AcDbRotatedDimension
1001
ACAD
1000
DSTYLE
1002
{
1070
   341
1005
0
1002
}
  0
LINE
  5
2CA2E
330
747D
100
AcDbEntity
  8
細線
 48
50.0
100
AcDbLine
 10
2993.599999999986
 20
6888.465655702894
 30
0.0
 11
3106.477472236856
 21
7001.343127939762
 31
0.0
  0
LINE
  5
2CA2F
330
747D
100
AcDbEntity
  8
細線
 48
50.0
100
AcDbLine
 10
2993.599999999988
 20
6933.366936308239
 30
0.0
 11
3061.57619163151
 21
7001.343127939761
 31
0.0
  0
LINE
  5
2CA30
330
747D
100
AcDbEntity
  8
部品1
 48
50.0
100
AcDbLine
 10
7848.600000000008
 20
6813.343127939782
 30
0.0
 11
7848.600000000008
 21
7013.343127939783
 31
0.0
  0
LINE
  5
2CA31
330
747D
100
AcDbEntity
  8
部品1
 48
50.0
100
AcDbLine
 10
7648.600000000008
 20
6813.343127939782
 30
0.0
 11
7648.600000000008
 21
7013.343127939783
 31
0.0
  0
LINE
  5
2CA34
330
747D
100
AcDbEntity
  8
部品1
 48
50.0
100
AcDbLine
 10
6698.600000000007
 20
6813.343127939782
 30
0.0
 11
6698.600000000007
 21
7013.343127939783
 31
0.0
  0
LINE
  5
2CA35
330
747D
100
AcDbEntity
  8
部品1
 48
50.0
100
AcDbLine
 10
6898.600000000008
 20
6813.343127939782
 30
0.0
 11
6898.600000000008
 21
7013.343127939783
 31
0.0
  0
LINE
  5
2CA36
330
747D
100
AcDbEntity
  8
部品1
 48
50.0
100
AcDbLine
 10
5948.600000000007
 20
6813.343127939782
 30
0.0
 11
5948.600000000007
 21
7013.343127939783
 31
0.0
  0
LINE
  5
2CA37
330
747D
100
AcDbEntity
  8
部品1
 48
50.0
100
AcDbLine
 10
5748.600000000007
 20
6813.343127939782
 30
0.0
 11
5748.600000000007
 21
7013.343127939783
 31
0.0
  0
DIMENSION
  5
2CA38
330
747D
100
AcDbEntity
  8
寸法
 48
50.0
100
AcDbDimension
  2
*D31
 10
5848.600000000008
 20
8048.951944610031
 30
0.0
 11
6323.600000000007
 21
8148.951944610031
 31
0.0
 70
    32
 71
     5
 42
950.0
  3
INABA_S40G
100
AcDbAlignedDimension
 13
6798.600000000007
 23
6963.343127939783
 33
0.0
 14
5848.600000000008
 24
6963.343127939783
 34
0.0
100
AcDbRotatedDimension
1001
ACAD
1000
DSTYLE
1002
{
1070
   341
1005
0
1002
}
  0
DIMENSION
  5
2CA39
330
747D
100
AcDbEntity
  8
寸法
 48
50.0
100
AcDbDimension
  2
*D32
 10
6798.600000000007
 20
8048.951944610031
 30
0.0
 11
7273.600000000008
 21
8148.951944610031
 31
0.0
 70
    32
 71
     5
 42
950.0
  3
INABA_S40G
100
AcDbAlignedDimension
 13
7748.600000000007
 23
6963.343127939783
 33
0.0
 14
6798.600000000007
 24
6963.343127939783
 34
0.0
100
AcDbRotatedDimension
1001
ACAD
1000
DSTYLE
1002
{
1070
   341
1005
0
1002
}
  0
LINE
  5
2CA3A
330
747D
100
AcDbEntity
  8
部品1
 48
50.0
100
AcDbLine
 10
4798.600000000007
 20
6813.343127939782
 30
0.0
 11
4798.600000000007
 21
7013.343127939783
 31
0.0
  0
LINE
  5
2CA3B
330
747D
100
AcDbEntity
  8
部品1
 48
50.0
100
AcDbLine
 10
4998.600000000007
 20
6813.343127939782
 30
0.0
 11
4998.600000000007
 21
7013.343127939783
 31
0.0
  0
LINE
  5
2CA3C
330
747D
100
AcDbEntity
  8
部品1
 48
50.0
100
AcDbLine
 10
4048.600000000007
 20
6813.343127939782
 30
0.0
 11
4048.600000000007
 21
7013.343127939783
 31
0.0
  0
LINE
  5
2CA3D
330
747D
100
AcDbEntity
  8
部品1
 48
50.0
100
AcDbLine
 10
3848.600000000008
 20
6813.343127939782
 30
0.0
 11
3848.600000000008
 21
7013.343127939783
 31
0.0
  0
DIMENSION
  5
2CA3E
330
747D
100
AcDbEntity
  8
寸法
 48
50.0
100
AcDbDimension
  2
*D33
 10
3476.285990614303
 20
7566.343127939783
 30
0.0
 11
3476.285990614301
 21
7168.820319382077
 31
0.0
 70
   160
 71
     5
 42
653.0
  3
INABA_S40G
100
AcDbAlignedDimension
 13
3898.600000000008
 23
6913.343127939782
 33
0.0
 14
3567.765475140901
 24
7566.343127939783
 34
0.0
 50
90.0
100
AcDbRotatedDimension
1001
ACAD
1000
DSTYLE
1002
{
1070
   341
1005
0
1002
}
  0
DIMENSION
  5
2CA3F
330
747D
100
AcDbEntity
  8
寸法
 48
50.0
100
AcDbDimension
  2
*D34
 10
2993.600000000001
 20
8048.951944610031
 30
0.0
 11
3471.100000000004
 21
8148.951944610031
 31
0.0
 70
    32
 71
     5
 42
955.0000000000073
  3
INABA_S40G
100
AcDbAlignedDimension
 13
3948.600000000008
 23
6963.343127939783
 33
0.0
 14
2993.600000000001
 24
7566.343127939783
 34
0.0
100
AcDbRotatedDimension
1001
ACAD
1000
DSTYLE
1002
{
1070
   341
1005
0
1002
}
  0
DIMENSION
  5
2CA40
330
747D
100
AcDbEntity
  8
寸法
 48
50.0
100
AcDbDimension
  2
*D35
 10
3948.600000000008
 20
8048.951944610031
 30
0.0
 11
4423.600000000007
 21
8148.951944610031
 31
0.0
 70
    32
 71
     5
 42
950.0
  3
INABA_S40G
100
AcDbAlignedDimension
 13
4898.600000000008
 23
6963.343127939783
 33
0.0
 14
3948.600000000008
 24
6963.343127939783
 34
0.0
100
AcDbRotatedDimension
1001
ACAD
1000
DSTYLE
1002
{
1070
   341
1005
0
1002
}
  0
LINE
  5
2CA42
330
747D
100
AcDbEntity
  8
部品1
 48
50.0
100
AcDbLine
 10
2993.600000000001
 20
6186.343127939783
 30
0.0
 11
2993.600000000001
 21
7566.343127939783
 31
0.0
  0
DIMENSION
  5
2CA44
330
747D
100
AcDbEntity
  8
寸法
 48
50.0
100
AcDbDimension
  2
*D36
 10
2370.665006330072
 20
6384.343127939787
 30
0.0
 11
2370.665006330071
 21
6913.843127939784
 31
0.0
 70
   160
 71
     5
 42
1058.999999999996
  3
INABA_S40G
100
AcDbAlignedDimension
 13
3066.600000000001
 23
7443.343127939782
 33
0.0
 14
3066.600000000008
 24
6384.343127939787
 34
0.0
 50
90.0
100
AcDbRotatedDimension
1001
ACAD
1000
DSTYLE
1002
{
1070
   341
1005
0
1002
}
  0
DIMENSION
  5
2CA45
330
747D
100
AcDbEntity
  8
寸法
 48
50.0
100
AcDbDimension
  2
*D37
 10
2118.721909610674
 20
6186.343127939783
 30
0.0
 11
2118.721909610673
 21
6913.843127939784
 31
0.0
 70
   160
 71
     5
 42
1380.0
  3
INABA_S40G
100
AcDbAlignedDimension
 13
2993.600000000001
 23
7566.343127939783
 33
0.0
 14
2993.600000000001
 24
6186.343127939783
 34
0.0
 50
90.0
100
AcDbRotatedDimension
1001
ACAD
1000
DSTYLE
1002
{
1070
   341
1005
0
1002
}
  0
DIMENSION
  5
2CA46
330
747D
100
AcDbEntity
  8
寸法
 48
50.0
100
AcDbDimension
  2
*D38
 10
4898.600000000008
 20
8048.951944610031
 30
0.0
 11
5373.600000000007
 21
8148.951944610031
 31
0.0
 70
    32
 71
     5
 42
950.0
  3
INABA_S40G
100
AcDbAlignedDimension
 13
5848.600000000008
 23
6963.343127939783
 33
0.0
 14
4898.600000000008
 24
6963.343127939783
 34
0.0
100
AcDbRotatedDimension
1001
ACAD
1000
DSTYLE
1002
{
1070
   341
1005
0
1002
}
  0
LINE
  5
2CA48
330
747D
100
AcDbEntity
  8
細線
 48
50.0
100
AcDbLine
 10
3373.599999999995
 20
6230.143885412024
 30
0.0
 11
3573.59999999999
 21
6430.143885412016
 31
0.0
  0
LINE
  5
2CA49
330
747D
100
AcDbEntity
  8
細線
 48
50.0
100
AcDbLine
 10
3373.599999999995
 20
6275.04516601737
 30
0.0
 11
3564.897961922407
 21
6466.343127939779
 31
0.0
  0
LINE
  5
2CA4A
330
747D
100
AcDbEntity
  8
細線
 48
50.0
100
AcDbLine
 10
3464.503084343764
 20
6186.343127939753
 30
0.0
 11
3573.599999999998
 21
6295.44004359599
 31
0.0
  0
LINE
  5
2CA4B
330
747D
100
AcDbEntity
  8
細線
 48
50.0
100
AcDbLine
 10
3509.404364949109
 20
6186.343127939753
 30
0.0
 11
3573.599999999998
 21
6250.538762990646
 31
0.0
  0
LINE
  5
2CA4C
330
747D
100
AcDbEntity
  8
細線
 48
50.0
100
AcDbLine
 10
3419.601803738416
 20
6186.343127939753
 30
0.0
 11
3573.599999999994
 21
6340.341324201331
 31
0.0
  0
LINE
  5
2CA4D
330
747D
100
AcDbEntity
  8
細線
 48
50.0
100
AcDbLine
 10
3374.700523133071
 20
6186.343127939753
 30
0.0
 11
3573.599999999991
 21
6385.242604806673
 31
0.0
  0
ARC
  5
2CA4E
330
747D
100
AcDbEntity
  8
想像線
 48
5.0
100
AcDbCircle
 10
3763.600000000004
 20
6186.343127939786
 30
0.0
 40
720.0
100
AcDbArc
 50
180.0
 51
270.0
  0
DIMENSION
  5
2CA4F
330
747D
100
AcDbEntity
  8
寸法
 48
50.0
100
AcDbDimension
  2
*D39
 10
3476.285990614301
 20
6913.343127939782
 30
0.0
 11
3476.285990614301
 21
6628.343127939783
 31
0.0
 70
   160
 71
     5
 42
726.9999999999891
  3
INABA_S40G
100
AcDbAlignedDimension
 13
3567.765475140901
 23
6186.343127939793
 33
0.0
 14
3898.600000000008
 24
6913.343127939782
 34
0.0
 50
90.0
100
AcDbRotatedDimension
1001
ACAD
1000
DSTYLE
1002
{
1070
   341
1005
0
1002
}
  0
DIMENSION
  5
2CA50
330
747D
100
AcDbEntity
  8
寸法
 48
50.0
100
AcDbDimension
  2
*D40
 10
2880.512673767883
 20
5466.343127939779
 30
0.0
 11
2880.512673767882
 21
5826.34312793978
 31
0.0
 70
   160
  1
扉の出<>
 71
     5
 42
720.0
  3
INABA_S40G
100
AcDbAlignedDimension
 13
2993.600000000004
 23
6186.343127939779
 33
0.0
 14
3349.325326928809
 24
5466.343127939779
 34
0.0
 50
90.0
100
AcDbRotatedDimension
1001
ACAD
1000
DSTYLE
1002
{
1070
   341
1005
0
1002
}
  0
DIMENSION
  5
2CA51
330
747D
100
AcDbEntity
  8
寸法
 48
50.0
100
AcDbDimension
  2
*D41
 10
2370.665006330072
 20
6186.343127939783
 30
0.0
 11
2370.665006330071
 21
5850.812179097191
 31
0.0
 70
   160
 71
     5
 42
198.0000000000036
  3
INABA_S40G
100
AcDbAlignedDimension
 13
3066.600000000008
 23
6384.343127939787
 33
0.0
 14
2993.600000000001
 24
6186.343127939783
 34
0.0
 50
90.0
100
AcDbRotatedDimension
1001
ACAD
1000
DSTYLE
1002
{
1070
   341
1005
0
1002
}
  0
LINE
  5
2CA53
330
747D
100
AcDbEntity
  8
細線
 48
50.0
100
AcDbLine
 10
3373.599999999993
 20
6319.946446622712
 30
0.0
 11
3519.99668131706
 21
6466.343127939778
 31
0.0
  0
LINE
  5
2CA54
330
747D
100
AcDbEntity
  8
細線
 48
50.0
100
AcDbLine
 10
3373.599999999991
 20
6364.84772722806
 30
0.0
 11
3475.095400711718
 21
6466.343127939779
 31
0.0
  0
LINE
  5
2CA55
330
747D
100
AcDbEntity
  8
部品1
 48
50.0
100
AcDbLine
 10
3373.599999999991
 20
6466.343127939779
 30
0.0
 11
3373.599999999997
 21
6186.343127939752
 31
0.0
  0
LINE
  5
2CA56
330
747D
100
AcDbEntity
  8
センター
 48
2.0
100
AcDbLine
 10
3116.600000000008
 20
6434.343127939786
 30
0.0
 11
3116.600000000008
 21
6334.343127939787
 31
0.0
  0
CIRCLE
  5
2CA57
330
747D
100
AcDbEntity
  8
部品1
 48
50.0
100
AcDbCircle
 10
3116.599999999993
 20
6384.343127939787
 30
0.0
 40
35.0
  0
LINE
  5
2CA58
330
747D
100
AcDbEntity
  8
センター
 48
2.0
100
AcDbLine
 10
3066.600000000008
 20
6384.343127939787
 30
0.0
 11
3166.600000000008
 21
6384.343127939787
 31
0.0
  0
LINE
  5
2CA59
330
747D
100
AcDbEntity
  8
細線
 48
50.0
100
AcDbLine
 10
3086.082594658237
 20
6801.343127939759
 30
0.0
 11
3113.600000000002
 21
6828.860533281529
 31
0.0
  0
LINE
  5
2CA5A
330
747D
100
AcDbEntity
  8
細線
 48
50.0
100
AcDbLine
 10
3041.181314052892
 20
6801.343127939761
 30
0.0
 11
3113.600000000002
 21
6873.761813886869
 31
0.0
  0
LINE
  5
2CA5B
330
747D
100
AcDbEntity
  8
細線
 48
50.0
100
AcDbLine
 10
2996.280033447547
 20
6801.343127939762
 30
0.0
 11
3113.600000000001
 21
6918.663094492216
 31
0.0
  0
LINE
  5
2CA5C
330
747D
100
AcDbEntity
  8
細線
 48
50.0
100
AcDbLine
 10
2993.599999999988
 20
6843.564375097547
 30
0.0
 11
3113.600000000001
 21
6963.564375097559
 31
0.0
  0
LINE
  5
2CA5D
330
747D
100
AcDbEntity
  8
部品1
 48
50.0
100
AcDbLine
 10
3113.6
 20
6801.343127939762
 30
0.0
 11
2993.599999999986
 21
6801.343127939762
 31
0.0
  0
LINE
  5
2CA5E
330
747D
100
AcDbEntity
  8
細線
 48
50.0
100
AcDbLine
 10
3373.599999999991
 20
6409.749007833403
 30
0.0
 11
3430.194120106368
 21
6466.343127939779
 31
0.0
  0
LINE
  5
2CA5F
330
747D
100
AcDbEntity
  8
想像線
 48
5.0
100
AcDbLine
 10
3763.600000000004
 20
6186.343127939797
 30
0.0
 11
3763.600000000004
 21
5466.343127939786
 31
0.0
  0
LINE
  5
2CA67
330
747D
100
AcDbEntity
  8
部品1
 48
50.0
100
AcDbLine
 10
3573.599999999991
 20
6466.343127939781
 30
0.0
 11
3573.599999999997
 21
6186.343127939756
 31
0.0
  0
LINE
  5
2CA68
330
747D
100
AcDbEntity
  8
細線
 48
50.0
100
AcDbLine
 10
3554.305645554456
 20
6186.343127939757
 30
0.0
 11
3573.600000000001
 21
6205.6374823853
 31
0.0
  0
LINE
  5
2CA69
330
747D
100
AcDbEntity
  8
部品1
 48
50.0
100
AcDbLine
 10
4048.600000000007
 20
6813.343127939782
 30
0.0
 11
3848.600000000008
 21
6813.343127939782
 31
0.0
  0
LINE
  5
2CA6A
330
747D
100
AcDbEntity
  8
センター
 48
2.0
100
AcDbLine
 10
3898.600000000008
 20
6913.343127939782
 30
0.0
 11
3998.600000000008
 21
6913.343127939782
 31
0.0
  0
LINE
  5
2CA6B
330
747D
100
AcDbEntity
  8
センター
 48
2.0
100
AcDbLine
 10
3948.600000000008
 20
6963.343127939783
 30
0.0
 11
3948.600000000008
 21
6863.343127939782
 31
0.0
  0
LINE
  5
2CA71
330
747D
100
AcDbEntity
  8
部品1
 48
50.0
100
AcDbLine
 10
4998.600000000007
 20
6813.343127939782
 30
0.0
 11
4798.600000000007
 21
6813.343127939782
 31
0.0
  0
LINE
  5
2CA72
330
747D
100
AcDbEntity
  8
センター
 48
2.0
100
AcDbLine
 10
4848.600000000008
 20
6913.343127939782
 30
0.0
 11
4948.600000000007
 21
6913.343127939782
 31
0.0
  0
LINE
  5
2CA73
330
747D
100
AcDbEntity
  8
センター
 48
2.0
100
AcDbLine
 10
4898.600000000008
 20
6963.343127939783
 30
0.0
 11
4898.600000000008
 21
6863.343127939782
 31
0.0
  0
LINE
  5
2CA74
330
747D
100
AcDbEntity
  8
部品1
 48
50.0
100
AcDbLine
 10
6898.600000000008
 20
6813.343127939782
 30
0.0
 11
6698.600000000007
 21
6813.343127939782
 31
0.0
  0
LINE
  5
2CA75
330
747D
100
AcDbEntity
  8
センター
 48
2.0
100
AcDbLine
 10
6748.600000000007
 20
6913.343127939782
 30
0.0
 11
6848.600000000008
 21
6913.343127939782
 31
0.0
  0
CIRCLE
  5
2CA7D
330
747D
100
AcDbEntity
  8
部品1
 48
50.0
100
AcDbCircle
 10
5730.600000000007
 20
6384.343127939787
 30
0.0
 40
35.0
  0
LINE
  5
2CA7E
330
747D
100
AcDbEntity
  8
センター
 48
2.0
100
AcDbLine
 10
5730.600000000007
 20
6434.343127939786
 30
0.0
 11
5730.600000000007
 21
6334.343127939787
 31
0.0
  0
LINE
  5
2CA83
330
747D
100
AcDbEntity
  8
センター
 48
2.0
100
AcDbLine
 10
5680.600000000008
 20
6384.343127939787
 30
0.0
 11
5780.600000000007
 21
6384.343127939787
 31
0.0
  0
LINE
  5
2CA85
330
747D
100
AcDbEntity
  8
部品1
 48
50.0
100
AcDbLine
 10
5948.600000000007
 20
6813.343127939782
 30
0.0
 11
5748.600000000007
 21
6813.343127939782
 31
0.0
  0
LINE
  5
2CA86
330
747D
100
AcDbEntity
  8
センター
 48
2.0
100
AcDbLine
 10
5848.600000000008
 20
6963.343127939783
 30
0.0
 11
5848.600000000008
 21
6863.343127939782
 31
0.0
  0
LINE
  5
2CA87
330
747D
100
AcDbEntity
  8
センター
 48
2.0
100
AcDbLine
 10
5798.600000000007
 20
6913.343127939782
 30
0.0
 11
5898.600000000008
 21
6913.343127939782
 31
0.0
  0
LINE
  5
2CA94
330
747D
100
AcDbEntity
  8
センター
 48
2.0
100
AcDbLine
 10
6798.600000000007
 20
6963.343127939783
 30
0.0
 11
6798.600000000007
 21
6863.343127939782
 31
0.0
  0
LINE
  5
2CA95
330
747D
100
AcDbEntity
  8
センター
 48
2.0
100
AcDbLine
 10
7580.600000000008
 20
6384.343127939787
 30
0.0
 11
7680.600000000008
 21
6384.343127939787
 31
0.0
  0
CIRCLE
  5
2CA96
330
747D
100
AcDbEntity
  8
部品1
 48
50.0
100
AcDbCircle
 10
7630.600000000008
 20
6384.343127939787
 30
0.0
 40
35.0
  0
LINE
  5
2CAAA
330
747D
100
AcDbEntity
  8
センター
 48
2.0
100
AcDbLine
 10
7630.600000000008
 20
6434.343127939786
 30
0.0
 11
7630.600000000008
 21
6334.343127939787
 31
0.0
  0
LINE
  5
2CAAF
330
747D
100
AcDbEntity
  8
部品1
 48
50.0
100
AcDbLine
 10
7848.600000000008
 20
6813.343127939782
 30
0.0
 11
7648.600000000008
 21
6813.343127939782
 31
0.0
  0
LINE
  5
2CAB0
330
747D
100
AcDbEntity
  8
センター
 48
2.0
100
AcDbLine
 10
7748.600000000007
 20
6963.343127939783
 30
0.0
 11
7748.600000000007
 21
6863.343127939782
 31
0.0
  0
LINE
  5
2CAB1
330
747D
100
AcDbEntity
  8
センター
 48
2.0
100
AcDbLine
 10
7698.600000000007
 20
6913.343127939782
 30
0.0
 11
7798.600000000007
 21
6913.343127939782
 31
0.0
  0
DIMENSION
  5
2CAB3
330
747D
100
AcDbEntity
  8
寸法
 48
50.0
100
AcDbDimension
  2
*D19
 10
3116.6
 20
8292.609586033695
 30
0.0
 11
4423.6
 21
8392.621397057316
 31
0.0
 70
    32
 71
     5
 42
2614.0
  3
INABA_S40G
100
AcDbAlignedDimension
 13
5730.6
 23
7493.343127939782
 33
0.0
 14
3116.6
 24
7493.343127939782
 34
0.0
100
AcDbRotatedDimension
1001
ACAD
1000
DSTYLE
1002
{
1070
   341
1005
0
1002
}
  0
LINE
  5
2CAB4
330
747D
100
AcDbEntity
  8
細線
 48
50.0
100
AcDbLine
 10
3373.600000000003
 20
7413.465655702899
 30
0.0
 11
3526.477472236848
 21
7566.343127939743
 31
0.0
  0
LINE
  5
2CAB5
330
747D
100
AcDbEntity
  8
細線
 48
50.0
100
AcDbLine
 10
3373.600000000003
 20
7368.564375097553
 30
0.0
 11
3571.378752842193
 21
7566.343127939743
 31
0.0
  0
LINE
  5
2CAB6
330
747D
100
AcDbEntity
  8
細線
 48
50.0
100
AcDbLine
 10
3416.280033447574
 20
7366.343127939781
 30
0.0
 11
3573.599999999995
 21
7523.663094492199
 31
0.0
  0
LINE
  5
2CAB7
330
747D
100
AcDbEntity
  8
細線
 48
50.0
100
AcDbLine
 10
3461.18131405289
 20
7366.343127939781
 30
0.0
 11
3573.599999999998
 21
7478.761813886855
 31
0.0
  0
LINE
  5
2CAB8
330
747D
100
AcDbEntity
  8
細線
 48
50.0
100
AcDbLine
 10
3506.082594658249
 20
7366.34312793978
 30
0.0
 11
3573.600000000001
 21
7433.860533281531
 31
0.0
  0
DIMENSION
  5
2CAB9
330
747D
100
AcDbEntity
  8
寸法
 48
50.0
100
AcDbDimension
  2
*D20
 10
2993.600000000001
 20
8292.609586033695
 30
0.0
 11
2720.493398282203
 21
8292.609586033695
 31
0.0
 70
   160
 71
     5
 42
123.0
  3
INABA_S40G
100
AcDbAlignedDimension
 13
3116.6
 23
7493.343127939782
 33
0.0
 14
2993.600000000001
 24
7566.343127939783
 34
0.0
100
AcDbRotatedDimension
1001
ACAD
1000
DSTYLE
1002
{
1070
   341
1005
0
1002
}
  0
DIMENSION
  5
2CABB
330
747D
100
AcDbEntity
  8
寸法
 48
50.0
100
AcDbDimension
  2
*D21
 10
2370.665006330073
 20
7443.343127939782
 30
0.0
 11
2370.665006330071
 21
7839.449729657582
 31
0.0
 70
   160
 71
     5
 42
123.0
  3
INABA_S40G
100
AcDbAlignedDimension
 13
2993.600000000001
 23
7566.343127939783
 33
0.0
 14
3066.600000000001
 24
7443.343127939782
 34
0.0
 50
90.0
100
AcDbRotatedDimension
1001
ACAD
1000
DSTYLE
1002
{
1070
   341
1005
0
1002
}
  0
LINE
  5
2CABD
330
747D
100
AcDbEntity
  8
細線
 48
50.0
100
AcDbLine
 10
3373.599999999998
 20
7503.268216913586
 30
0.0
 11
3436.674911026155
 21
7566.343127939743
 31
0.0
  0
LINE
  5
2CABE
330
747D
100
AcDbEntity
  8
細線
 48
50.0
100
AcDbLine
 10
3373.599999999998
 20
7458.366936308241
 30
0.0
 11
3481.576191631503
 21
7566.343127939743
 31
0.0
  0
LINE
  5
2CABF
330
747D
100
AcDbEntity
  8
部品1
 48
50.0
100
AcDbLine
 10
3373.599999999995
 20
7566.343127939743
 30
0.0
 11
3373.600000000003
 21
7366.343127939781
 31
0.0
  0
LINE
  5
2CAC0
330
747D
100
AcDbEntity
  8
センター
 48
2.0
100
AcDbLine
 10
3066.600000000001
 20
7443.343127939782
 30
0.0
 11
3166.600000000001
 21
7443.343127939782
 31
0.0
  0
CIRCLE
  5
2CAC1
330
747D
100
AcDbEntity
  8
部品1
 48
50.0
100
AcDbCircle
 10
3116.6
 20
7443.343127939782
 30
0.0
 40
35.0
  0
LINE
  5
2CAC2
330
747D
100
AcDbEntity
  8
細線
 48
50.0
100
AcDbLine
 10
2993.599999999988
 20
6978.268216913583
 30
0.0
 11
3016.674911026167
 21
7001.343127939763
 31
0.0
  0
LINE
  5
2CAC3
330
747D
100
AcDbEntity
  8
部品1
 48
50.0
100
AcDbLine
 10
3113.6
 20
7001.343127939762
 30
0.0
 11
2993.599999999986
 21
7001.343127939763
 31
0.0
  0
LINE
  5
2CAC4
330
747D
100
AcDbEntity
  8
センター
 48
2.0
100
AcDbLine
 10
3116.6
 20
7493.343127939782
 30
0.0
 11
3116.6
 21
7393.343127939782
 31
0.0
  0
LINE
  5
2CAC5
330
747D
100
AcDbEntity
  8
細線
 48
50.0
100
AcDbLine
 10
3373.599999999997
 20
7548.16949751893
 30
0.0
 11
3391.773630420812
 21
7566.343127939743
 31
0.0
  0
LINE
  5
2CAC6
330
747D
100
AcDbEntity
  8
細線
 48
50.0
100
AcDbLine
 10
4323.599999999998
 20
7503.268216913586
 30
0.0
 11
4386.674911026155
 21
7566.343127939743
 31
0.0
  0
LINE
  5
2CAC7
330
747D
100
AcDbEntity
  8
細線
 48
50.0
100
AcDbLine
 10
4323.600000000002
 20
7368.564375097553
 30
0.0
 11
4521.378752842192
 21
7566.343127939743
 31
0.0
  0
LINE
  5
2CAC8
330
747D
100
AcDbEntity
  8
細線
 48
50.0
100
AcDbLine
 10
4323.600000000002
 20
7413.465655702899
 30
0.0
 11
4476.477472236847
 21
7566.343127939743
 31
0.0
  0
LINE
  5
2CAC9
330
747D
100
AcDbEntity
  8
細線
 48
50.0
100
AcDbLine
 10
4323.599999999998
 20
7458.366936308241
 30
0.0
 11
4431.576191631502
 21
7566.343127939743
 31
0.0
  0
LINE
  5
2CACA
330
747D
100
AcDbEntity
  8
部品1
 48
50.0
100
AcDbLine
 10
4323.599999999994
 20
7566.343127939743
 30
0.0
 11
4323.600000000002
 21
7366.343127939781
 31
0.0
  0
LINE
  5
2CACB
330
747D
100
AcDbEntity
  8
部品1
 48
50.0
100
AcDbLine
 10
3573.599999999995
 20
7566.343127939743
 30
0.0
 11
3573.600000000002
 21
7366.343127939781
 31
0.0
  0
LINE
  5
2CACC
330
747D
100
AcDbEntity
  8
部品1
 48
50.0
100
AcDbLine
 10
4048.600000000007
 20
7013.343127939783
 30
0.0
 11
3848.600000000008
 21
7013.343127939783
 31
0.0
  0
LINE
  5
2CACD
330
747D
100
AcDbEntity
  8
細線
 48
50.0
100
AcDbLine
 10
3550.983875263578
 20
7366.343127939781
 30
0.0
 11
3573.600000000002
 21
7388.959252676198
 31
0.0
  0
LINE
  5
2CACE
330
747D
100
AcDbEntity
  8
細線
 48
50.0
100
AcDbLine
 10
4323.599999999997
 20
7548.16949751893
 30
0.0
 11
4341.773630420812
 21
7566.343127939743
 31
0.0
  0
LINE
  5
2CACF
330
747D
100
AcDbEntity
  8
部品1
 48
50.0
100
AcDbLine
 10
4523.599999999994
 20
7566.343127939743
 30
0.0
 11
4523.600000000002
 21
7366.343127939781
 31
0.0
  0
LINE
  5
2CAD0
330
747D
100
AcDbEntity
  8
細線
 48
50.0
100
AcDbLine
 10
4456.082594658248
 20
7366.34312793978
 30
0.0
 11
4523.6
 21
7433.860533281531
 31
0.0
  0
LINE
  5
2CAD1
330
747D
100
AcDbEntity
  8
細線
 48
50.0
100
AcDbLine
 10
4500.983875263577
 20
7366.343127939781
 30
0.0
 11
4523.600000000002
 21
7388.959252676198
 31
0.0
  0
LINE
  5
2CAD2
330
747D
100
AcDbEntity
  8
細線
 48
50.0
100
AcDbLine
 10
4411.18131405289
 20
7366.343127939781
 30
0.0
 11
4523.599999999998
 21
7478.761813886855
 31
0.0
  0
LINE
  5
2CAD3
330
747D
100
AcDbEntity
  8
細線
 48
50.0
100
AcDbLine
 10
4366.280033447574
 20
7366.343127939781
 30
0.0
 11
4523.599999999994
 21
7523.663094492199
 31
0.0
  0
LINE
  5
2CAD4
330
747D
100
AcDbEntity
  8
部品1
 48
50.0
100
AcDbLine
 10
4998.600000000007
 20
7013.343127939783
 30
0.0
 11
4798.600000000007
 21
7013.343127939783
 31
0.0
  0
LINE
  5
2CAD5
330
747D
100
AcDbEntity
  8
部品1
 48
50.0
100
AcDbLine
 10
6898.600000000008
 20
7013.343127939783
 30
0.0
 11
6698.600000000007
 21
7013.343127939783
 31
0.0
  0
DIMENSION
  5
2CAD6
330
747D
100
AcDbEntity
  8
寸法
 48
50.0
100
AcDbDimension
  2
*D22
 10
5730.6
 20
8292.609586033695
 30
0.0
 11
6680.600000000001
 21
8392.609586033694
 31
0.0
 70
    32
 71
     5
 42
1900.0
  3
INABA_S40G
100
AcDbAlignedDimension
 13
7630.600000000001
 23
7493.343127939782
 33
0.0
 14
5730.6
 24
7493.343127939782
 34
0.0
100
AcDbRotatedDimension
1001
ACAD
1000
DSTYLE
1002
{
1070
   341
1005
0
1002
}
  0
LINE
  5
2CAD7
330
747D
100
AcDbEntity
  8
細線
 48
50.0
100
AcDbLine
 10
5273.6
 20
7458.366936308241
 30
0.0
 11
5381.576191631502
 21
7566.343127939743
 31
0.0
  0
LINE
  5
2CAD8
330
747D
100
AcDbEntity
  8
細線
 48
50.0
100
AcDbLine
 10
5273.6
 20
7413.465655702899
 30
0.0
 11
5426.477472236848
 21
7566.343127939743
 31
0.0
  0
LINE
  5
2CAD9
330
747D
100
AcDbEntity
  8
細線
 48
50.0
100
AcDbLine
 10
5273.599999999997
 20
7503.268216913586
 30
0.0
 11
5336.674911026157
 21
7566.343127939743
 31
0.0
  0
LINE
  5
2CADA
330
747D
100
AcDbEntity
  8
細線
 48
50.0
100
AcDbLine
 10
5273.600000000004
 20
7368.564375097553
 30
0.0
 11
5471.378752842195
 21
7566.343127939743
 31
0.0
  0
LINE
  5
2CADB
330
747D
100
AcDbEntity
  8
部品1
 48
50.0
100
AcDbLine
 10
5273.599999999994
 20
7566.343127939743
 30
0.0
 11
5273.600000000002
 21
7366.343127939781
 31
0.0
  0
LINE
  5
2CADC
330
747D
100
AcDbEntity
  8
部品1
 48
50.0
100
AcDbLine
 10
5473.599999999994
 20
7566.343127939743
 30
0.0
 11
5473.600000000002
 21
7366.343127939781
 31
0.0
  0
LINE
  5
2CADE
330
747D
100
AcDbEntity
  8
細線
 48
50.0
100
AcDbLine
 10
5316.280033447574
 20
7366.343127939781
 30
0.0
 11
5473.599999999994
 21
7523.663094492199
 31
0.0
  0
LINE
  5
2CADF
330
747D
100
AcDbEntity
  8
細線
 48
50.0
100
AcDbLine
 10
5361.181314052888
 20
7366.343127939781
 30
0.0
 11
5473.599999999999
 21
7478.761813886855
 31
0.0
  0
LINE
  5
2CAE0
330
747D
100
AcDbEntity
  8
細線
 48
50.0
100
AcDbLine
 10
5450.983875263577
 20
7366.343127939781
 30
0.0
 11
5473.600000000001
 21
7388.959252676198
 31
0.0
  0
LINE
  5
2CAE1
330
747D
100
AcDbEntity
  8
細線
 48
50.0
100
AcDbLine
 10
5406.08259465825
 20
7366.34312793978
 30
0.0
 11
5473.600000000001
 21
7433.860533281531
 31
0.0
  0
LINE
  5
2CAE2
330
747D
100
AcDbEntity
  8
部品1
 48
50.0
100
AcDbLine
 10
5948.600000000007
 20
7013.343127939783
 30
0.0
 11
5748.600000000007
 21
7013.343127939783
 31
0.0
  0
LINE
  5
2CAE3
330
747D
100
AcDbEntity
  8
センター
 48
2.0
100
AcDbLine
 10
5680.6
 20
7443.343127939782
 30
0.0
 11
5780.6
 21
7443.343127939782
 31
0.0
  0
LINE
  5
2CAE4
330
747D
100
AcDbEntity
  8
センター
 48
2.0
100
AcDbLine
 10
5730.6
 20
7493.343127939782
 30
0.0
 11
5730.6
 21
7393.343127939782
 31
0.0
  0
CIRCLE
  5
2CAE5
330
747D
100
AcDbEntity
  8
部品1
 48
50.0
100
AcDbCircle
 10
5730.6
 20
7443.343127939782
 30
0.0
 40
35.0
  0
LINE
  5
2CAE6
330
747D
100
AcDbEntity
  8
細線
 48
50.0
100
AcDbLine
 10
5273.599999999997
 20
7548.16949751893
 30
0.0
 11
5291.773630420812
 21
7566.343127939743
 31
0.0
  0
LINE
  5
2CAE7
330
747D
100
AcDbEntity
  8
細線
 48
50.0
100
AcDbLine
 10
6223.600000000001
 20
7458.366936308241
 30
0.0
 11
6331.576191631502
 21
7566.343127939743
 31
0.0
  0
LINE
  5
2CAE8
330
747D
100
AcDbEntity
  8
細線
 48
50.0
100
AcDbLine
 10
6223.600000000001
 20
7413.465655702899
 30
0.0
 11
6376.477472236848
 21
7566.343127939743
 31
0.0
  0
LINE
  5
2CAE9
330
747D
100
AcDbEntity
  8
細線
 48
50.0
100
AcDbLine
 10
6223.599999999997
 20
7503.268216913586
 30
0.0
 11
6286.674911026157
 21
7566.343127939743
 31
0.0
  0
LINE
  5
2CAEA
330
747D
100
AcDbEntity
  8
細線
 48
50.0
100
AcDbLine
 10
6223.600000000004
 20
7368.564375097553
 30
0.0
 11
6421.378752842194
 21
7566.343127939743
 31
0.0
  0
LINE
  5
2CAEB
330
747D
100
AcDbEntity
  8
部品1
 48
50.0
100
AcDbLine
 10
6223.599999999994
 20
7566.343127939743
 30
0.0
 11
6223.600000000002
 21
7366.343127939781
 31
0.0
  0
LINE
  5
2CAEC
330
747D
100
AcDbEntity
  8
部品1
 48
50.0
100
AcDbLine
 10
6423.599999999995
 20
7566.343127939743
 30
0.0
 11
6423.600000000002
 21
7366.343127939781
 31
0.0
  0
LINE
  5
2CAED
330
747D
100
AcDbEntity
  8
細線
 48
50.0
100
AcDbLine
 10
6266.280033447574
 20
7366.343127939781
 30
0.0
 11
6423.599999999995
 21
7523.663094492199
 31
0.0
  0
LINE
  5
2CAEE
330
747D
100
AcDbEntity
  8
細線
 48
50.0
100
AcDbLine
 10
6311.181314052888
 20
7366.343127939781
 30
0.0
 11
6423.599999999999
 21
7478.761813886855
 31
0.0
  0
LINE
  5
2CAEF
330
747D
100
AcDbEntity
  8
細線
 48
50.0
100
AcDbLine
 10
6356.08259465825
 20
7366.34312793978
 30
0.0
 11
6423.6
 21
7433.860533281531
 31
0.0
  0
LINE
  5
2CAF0
330
747D
100
AcDbEntity
  8
細線
 48
50.0
100
AcDbLine
 10
6400.983875263577
 20
7366.343127939781
 30
0.0
 11
6423.6
 21
7388.959252676198
 31
0.0
  0
LINE
  5
2CAF1
330
747D
100
AcDbEntity
  8
細線
 48
50.0
100
AcDbLine
 10
6223.599999999997
 20
7548.16949751893
 30
0.0
 11
6241.773630420812
 21
7566.343127939743
 31
0.0
  0
LINE
  5
2CAF2
330
747D
100
AcDbEntity
  8
センター
 48
2.0
100
AcDbLine
 10
7580.600000000001
 20
7443.343127939782
 30
0.0
 11
7680.600000000001
 21
7443.343127939782
 31
0.0
  0
CIRCLE
  5
2CAF3
330
747D
100
AcDbEntity
  8
部品1
 48
50.0
100
AcDbCircle
 10
7630.600000000001
 20
7443.343127939782
 30
0.0
 40
35.0
  0
LINE
  5
2CAF4
330
747D
100
AcDbEntity
  8
部品1
 48
50.0
100
AcDbLine
 10
7373.599999999995
 20
7566.343127939743
 30
0.0
 11
7373.600000000002
 21
7366.343127939781
 31
0.0
  0
LINE
  5
2CAF5
330
747D
100
AcDbEntity
  8
細線
 48
50.0
100
AcDbLine
 10
7173.599999999997
 20
7503.268216913586
 30
0.0
 11
7236.674911026158
 21
7566.343127939743
 31
0.0
  0
LINE
  5
2CAF6
330
747D
100
AcDbEntity
  8
細線
 48
50.0
100
AcDbLine
 10
7173.6
 20
7458.366936308241
 30
0.0
 11
7281.576191631502
 21
7566.343127939743
 31
0.0
  0
LINE
  5
2CAF7
330
747D
100
AcDbEntity
  8
部品1
 48
50.0
100
AcDbLine
 10
7173.599999999995
 20
7566.343127939743
 30
0.0
 11
7173.600000000002
 21
7366.343127939781
 31
0.0
  0
LINE
  5
2CAF8
330
747D
100
AcDbEntity
  8
細線
 48
50.0
100
AcDbLine
 10
7173.600000000004
 20
7368.564375097553
 30
0.0
 11
7371.378752842194
 21
7566.343127939743
 31
0.0
  0
LINE
  5
2CAF9
330
747D
100
AcDbEntity
  8
細線
 48
50.0
100
AcDbLine
 10
7173.6
 20
7413.465655702899
 30
0.0
 11
7326.477472236847
 21
7566.343127939743
 31
0.0
  0
LINE
  5
2CAFA
330
747D
100
AcDbEntity
  8
細線
 48
50.0
100
AcDbLine
 10
7306.082594658249
 20
7366.34312793978
 30
0.0
 11
7373.6
 21
7433.860533281531
 31
0.0
  0
LINE
  5
2CAFB
330
747D
100
AcDbEntity
  8
細線
 48
50.0
100
AcDbLine
 10
7350.983875263577
 20
7366.343127939781
 30
0.0
 11
7373.6
 21
7388.959252676198
 31
0.0
  0
LINE
  5
2CAFC
330
747D
100
AcDbEntity
  8
細線
 48
50.0
100
AcDbLine
 10
7261.181314052888
 20
7366.343127939781
 30
0.0
 11
7373.599999999999
 21
7478.761813886855
 31
0.0
  0
LINE
  5
2CAFD
330
747D
100
AcDbEntity
  8
細線
 48
50.0
100
AcDbLine
 10
7216.280033447574
 20
7366.343127939781
 30
0.0
 11
7373.599999999995
 21
7523.663094492199
 31
0.0
  0
LINE
  5
2CAFE
330
747D
100
AcDbEntity
  8
細線
 48
50.0
100
AcDbLine
 10
7173.599999999997
 20
7548.16949751893
 30
0.0
 11
7191.773630420811
 21
7566.343127939743
 31
0.0
  0
LINE
  5
2CAFF
330
747D
100
AcDbEntity
  8
細線
 48
50.0
100
AcDbLine
 10
8123.600000000001
 20
7458.366936308241
 30
0.0
 11
8231.576191631502
 21
7566.343127939743
 31
0.0
  0
LINE
  5
2CB00
330
747D
100
AcDbEntity
  8
細線
 48
50.0
100
AcDbLine
 10
8123.600000000001
 20
7413.465655702899
 30
0.0
 11
8276.477472236846
 21
7566.343127939743
 31
0.0
  0
LINE
  5
2CB01
330
747D
100
AcDbEntity
  8
細線
 48
50.0
100
AcDbLine
 10
8123.599999999997
 20
7503.268216913586
 30
0.0
 11
8186.674911026157
 21
7566.343127939743
 31
0.0
  0
LINE
  5
2CB02
330
747D
100
AcDbEntity
  8
細線
 48
50.0
100
AcDbLine
 10
8123.600000000005
 20
7368.564375097553
 30
0.0
 11
8321.378752842194
 21
7566.343127939743
 31
0.0
  0
LINE
  5
2CB03
330
747D
100
AcDbEntity
  8
部品1
 48
50.0
100
AcDbLine
 10
8123.599999999994
 20
7566.343127939743
 30
0.0
 11
8123.600000000001
 21
7366.343127939781
 31
0.0
  0
LINE
  5
2CB04
330
747D
100
AcDbEntity
  8
部品1
 48
50.0
100
AcDbLine
 10
8323.599999999995
 20
7566.343127939743
 30
0.0
 11
8323.600000000002
 21
7366.343127939781
 31
0.0
  0
LINE
  5
2CB05
330
747D
100
AcDbEntity
  8
部品1
 48
50.0
100
AcDbLine
 10
7848.600000000008
 20
7013.343127939783
 30
0.0
 11
7648.600000000008
 21
7013.343127939783
 31
0.0
  0
LINE
  5
2CB06
330
747D
100
AcDbEntity
  8
センター
 48
2.0
100
AcDbLine
 10
7630.600000000001
 20
7493.343127939782
 30
0.0
 11
7630.600000000001
 21
7393.343127939782
 31
0.0
  0
LINE
  5
2CB07
330
747D
100
AcDbEntity
  8
細線
 48
50.0
100
AcDbLine
 10
8166.280033447575
 20
7366.343127939781
 30
0.0
 11
8323.599999999995
 21
7523.663094492199
 31
0.0
  0
LINE
  5
2CB08
330
747D
100
AcDbEntity
  8
細線
 48
50.0
100
AcDbLine
 10
8211.181314052888
 20
7366.343127939781
 30
0.0
 11
8323.599999999998
 21
7478.761813886855
 31
0.0
  0
LINE
  5
2CB09
330
747D
100
AcDbEntity
  8
細線
 48
50.0
100
AcDbLine
 10
8300.983875263577
 20
7366.343127939781
 30
0.0
 11
8323.6
 21
7388.959252676198
 31
0.0
  0
LINE
  5
2CB0A
330
747D
100
AcDbEntity
  8
細線
 48
50.0
100
AcDbLine
 10
8256.08259465825
 20
7366.34312793978
 30
0.0
 11
8323.6
 21
7433.860533281531
 31
0.0
  0
LINE
  5
2CB0B
330
747D
100
AcDbEntity
  8
細線
 48
50.0
100
AcDbLine
 10
8123.599999999997
 20
7548.16949751893
 30
0.0
 11
8141.773630420813
 21
7566.343127939743
 31
0.0
  0
LINE
  5
2CB0D
330
747D
100
AcDbEntity
  8
寸法
 48
50.0
100
AcDbLine
 10
7630.600000000001
 20
8292.609586033579
 30
0.0
 11
8330.64455482207
 21
8292.609586033579
 31
0.0
  0
LINE
  5
2CB0E
330
747D
100
AcDbEntity
  8
細線
 48
50.0
100
AcDbLine
 10
13333.59999999999
 20
6868.465655702967
 30
0.0
 11
13453.59999999999
 21
6988.46565570296
 31
0.0
  0
LINE
  5
2CB0F
330
747D
100
AcDbEntity
  8
細線
 48
50.0
100
AcDbLine
 10
13333.59999999999
 20
6913.366936308316
 30
0.0
 11
13421.57619163151
 21
7001.343127939826
 31
0.0
  0
LINE
  5
2CB12
330
747D
100
AcDbEntity
  8
部品1
 48
50.0
100
AcDbLine
 10
12598.60000000001
 20
6813.343127939782
 30
0.0
 11
12598.60000000001
 21
7013.343127939783
 31
0.0
  0
LINE
  5
2CB13
330
747D
100
AcDbEntity
  8
部品1
 48
50.0
100
AcDbLine
 10
12398.60000000001
 20
6813.343127939782
 30
0.0
 11
12398.60000000001
 21
7013.343127939783
 31
0.0
  0
DIMENSION
  5
2CB14
330
747D
100
AcDbEntity
  8
寸法
 48
50.0
100
AcDbDimension
  2
*D23
 10
12498.60000000001
 20
8048.951944610031
 30
0.0
 11
12976.1
 21
8148.951944610031
 31
0.0
 70
    32
 71
     5
 42
954.999999999989
  3
INABA_S40G
100
AcDbAlignedDimension
 13
13453.59999999999
 23
7566.343127939783
 33
0.0
 14
12498.60000000001
 24
6963.343127939783
 34
0.0
100
AcDbRotatedDimension
1001
ACAD
1000
DSTYLE
1002
{
1070
   341
1005
0
1002
}
  0
LINE
  5
2CB15
330
747D
100
AcDbEntity
  8
部品1
 48
50.0
100
AcDbLine
 10
13453.59999999999
 20
6186.343127939801
 30
0.0
 11
13453.59999999999
 21
7566.343127939783
 31
0.0
  0
LINE
  5
2CB18
330
747D
100
AcDbEntity
  8
部品1
 48
50.0
100
AcDbLine
 10
11648.60000000001
 20
6813.343127939782
 30
0.0
 11
11648.60000000001
 21
7013.343127939783
 31
0.0
  0
LINE
  5
2CB19
330
747D
100
AcDbEntity
  8
部品1
 48
50.0
100
AcDbLine
 10
11448.60000000001
 20
6813.343127939782
 30
0.0
 11
11448.60000000001
 21
7013.343127939783
 31
0.0
  0
LINE
  5
2CB1A
330
747D
100
AcDbEntity
  8
部品1
 48
50.0
100
AcDbLine
 10
10498.60000000001
 20
6813.343127939782
 30
0.0
 11
10498.60000000001
 21
7013.343127939783
 31
0.0
  0
LINE
  5
2CB1B
330
747D
100
AcDbEntity
  8
部品1
 48
50.0
100
AcDbLine
 10
10698.60000000001
 20
6813.343127939782
 30
0.0
 11
10698.60000000001
 21
7013.343127939783
 31
0.0
  0
LINE
  5
2CB1C
330
747D
100
AcDbEntity
  8
部品1
 48
50.0
100
AcDbLine
 10
9748.600000000008
 20
6813.343127939782
 30
0.0
 11
9748.600000000008
 21
7013.343127939783
 31
0.0
  0
LINE
  5
2CB1D
330
747D
100
AcDbEntity
  8
部品1
 48
50.0
100
AcDbLine
 10
9548.600000000007
 20
6813.343127939782
 30
0.0
 11
9548.600000000007
 21
7013.343127939783
 31
0.0
  0
LINE
  5
2CB1E
330
747D
100
AcDbEntity
  8
部品1
 48
50.0
100
AcDbLine
 10
8798.600000000007
 20
6813.343127939782
 30
0.0
 11
8798.600000000007
 21
7013.343127939783
 31
0.0
  0
DIMENSION
  5
2CB1F
330
747D
100
AcDbEntity
  8
寸法
 48
50.0
100
AcDbDimension
  2
*D24
 10
10598.60000000001
 20
8048.951944610031
 30
0.0
 11
11073.60000000001
 21
8148.951944610031
 31
0.0
 70
    32
 71
     5
 42
950.0
  3
INABA_S40G
100
AcDbAlignedDimension
 13
11548.60000000001
 23
6963.343127939783
 33
0.0
 14
10598.60000000001
 24
6963.343127939783
 34
0.0
100
AcDbRotatedDimension
1001
ACAD
1000
DSTYLE
1002
{
1070
   341
1005
0
1002
}
  0
DIMENSION
  5
2CB20
330
747D
100
AcDbEntity
  8
寸法
 48
50.0
100
AcDbDimension
  2
*D25
 10
9648.600000000008
 20
8048.951944610031
 30
0.0
 11
10123.60000000001
 21
8148.951944610031
 31
0.0
 70
    32
 71
     5
 42
950.0
  3
INABA_S40G
100
AcDbAlignedDimension
 13
10598.60000000001
 23
6963.343127939783
 33
0.0
 14
9648.600000000008
 24
6963.343127939783
 34
0.0
100
AcDbRotatedDimension
1001
ACAD
1000
DSTYLE
1002
{
1070
   341
1005
0
1002
}
  0
LINE
  5
2CB21
330
747D
100
AcDbEntity
  8
部品1
 48
50.0
100
AcDbLine
 10
8598.600000000008
 20
6813.343127939782
 30
0.0
 11
8598.600000000008
 21
7013.343127939783
 31
0.0
  0
DIMENSION
  5
2CB22
330
747D
100
AcDbEntity
  8
寸法
 48
50.0
100
AcDbDimension
  2
*D26
 10
11548.60000000001
 20
8048.951944610031
 30
0.0
 11
12023.6
 21
8148.951944610031
 31
0.0
 70
    32
 71
     5
 42
950.0
  3
INABA_S40G
100
AcDbAlignedDimension
 13
12498.60000000001
 23
6963.343127939783
 33
0.0
 14
11548.60000000001
 24
6963.343127939783
 34
0.0
100
AcDbRotatedDimension
1001
ACAD
1000
DSTYLE
1002
{
1070
   341
1005
0
1002
}
  0
LINE
  5
2CB26
330
747D
100
AcDbEntity
  8
細線
 48
50.0
100
AcDbLine
 10
10023.59999999999
 20
6364.84772722806
 30
0.0
 11
10125.09540071174
 21
6466.343127939805
 31
0.0
  0
LINE
  5
2CB27
330
747D
100
AcDbEntity
  8
細線
 48
50.0
100
AcDbLine
 10
10023.59999999999
 20
6319.946446622712
 30
0.0
 11
10169.99668131708
 21
6466.343127939804
 31
0.0
  0
LINE
  5
2CB28
330
747D
100
AcDbEntity
  8
細線
 48
50.0
100
AcDbLine
 10
10024.70052313307
 20
6186.343127939753
 30
0.0
 11
10223.59999999999
 21
6385.242604806673
 31
0.0
  0
LINE
  5
2CB29
330
747D
100
AcDbEntity
  8
細線
 48
50.0
100
AcDbLine
 10
10069.60180373841
 20
6186.343127939753
 30
0.0
 11
10223.59999999999
 21
6340.341324201331
 31
0.0
  0
LINE
  5
2CB2A
330
747D
100
AcDbEntity
  8
細線
 48
50.0
100
AcDbLine
 10
10023.59999999999
 20
6275.04516601737
 30
0.0
 11
10214.89796192243
 21
6466.343127939805
 31
0.0
  0
LINE
  5
2CB2B
330
747D
100
AcDbEntity
  8
細線
 48
50.0
100
AcDbLine
 10
10023.59999999999
 20
6230.143885412024
 30
0.0
 11
10223.59999999999
 21
6430.143885412016
 31
0.0
  0
LINE
  5
2CB2C
330
747D
100
AcDbEntity
  8
細線
 48
50.0
100
AcDbLine
 10
9074.700523133119
 20
6186.343127939801
 30
0.0
 11
9273.599999999992
 21
6385.242604806673
 31
0.0
  0
LINE
  5
2CB2D
330
747D
100
AcDbEntity
  8
細線
 48
50.0
100
AcDbLine
 10
9073.599999999997
 20
6230.143885412026
 30
0.0
 11
9273.599999999989
 21
6430.143885412016
 31
0.0
  0
LINE
  5
2CB2E
330
747D
100
AcDbEntity
  8
細線
 48
50.0
100
AcDbLine
 10
9254.305645554456
 20
6186.343127939757
 30
0.0
 11
9273.6
 21
6205.6374823853
 31
0.0
  0
LINE
  5
2CB2F
330
747D
100
AcDbEntity
  8
細線
 48
50.0
100
AcDbLine
 10
9209.404364949108
 20
6186.343127939753
 30
0.0
 11
9273.6
 21
6250.538762990646
 31
0.0
  0
LINE
  5
2CB30
330
747D
100
AcDbEntity
  8
細線
 48
50.0
100
AcDbLine
 10
9119.601803738417
 20
6186.343127939753
 30
0.0
 11
9273.599999999992
 21
6340.341324201331
 31
0.0
  0
LINE
  5
2CB31
330
747D
100
AcDbEntity
  8
細線
 48
50.0
100
AcDbLine
 10
9164.503084343763
 20
6186.343127939753
 30
0.0
 11
9273.6
 21
6295.44004359599
 31
0.0
  0
LINE
  5
2CB34
330
747D
100
AcDbEntity
  8
細線
 48
50.0
100
AcDbLine
 10
9073.599999999995
 20
6275.045166017365
 30
0.0
 11
9264.897961922425
 21
6466.3431279398
 31
0.0
  0
LINE
  5
2CB35
330
747D
100
AcDbEntity
  8
細線
 48
50.0
100
AcDbLine
 10
9073.599999999993
 20
6364.84772722806
 30
0.0
 11
9175.095400711732
 21
6466.3431279398
 31
0.0
  0
LINE
  5
2CB36
330
747D
100
AcDbEntity
  8
部品1
 48
50.0
100
AcDbLine
 10
9073.59999999999
 20
6466.3431279398
 30
0.0
 11
9073.599999999997
 21
6186.343127939752
 31
0.0
  0
LINE
  5
2CB39
330
747D
100
AcDbEntity
  8
細線
 48
50.0
100
AcDbLine
 10
9073.599999999997
 20
6230.143885412024
 30
0.0
 11
9084.771730169714
 21
6241.315615581742
 31
0.0
  0
LINE
  5
2CB3B
330
747D
100
AcDbEntity
  8
細線
 48
50.0
100
AcDbLine
 10
9073.599999999995
 20
6275.04516601737
 30
0.0
 11
9091.542157382027
 21
6292.987323399402
 31
0.0
  0
LINE
  5
2CB3C
330
747D
100
AcDbEntity
  8
細線
 48
50.0
100
AcDbLine
 10
9074.700523133072
 20
6186.343127939753
 30
0.0
 11
9078.001302957394
 21
6189.643907764077
 31
0.0
  0
LINE
  5
2CB3D
330
747D
100
AcDbEntity
  8
センター
 48
2.0
100
AcDbLine
 10
8648.600000000007
 20
6913.343127939782
 30
0.0
 11
8748.600000000008
 21
6913.343127939782
 31
0.0
  0
LINE
  5
2CB3E
330
747D
100
AcDbEntity
  8
部品1
 48
50.0
100
AcDbLine
 10
8798.600000000007
 20
6813.343127939782
 30
0.0
 11
8598.600000000008
 21
6813.343127939782
 31
0.0
  0
LINE
  5
2CB3F
330
747D
100
AcDbEntity
  8
センター
 48
2.0
100
AcDbLine
 10
8698.600000000007
 20
6963.343127939783
 30
0.0
 11
8698.600000000007
 21
6863.343127939782
 31
0.0
  0
LINE
  5
2CB40
330
747D
100
AcDbEntity
  8
細線
 48
50.0
100
AcDbLine
 10
9073.599999999993
 20
6319.946446622718
 30
0.0
 11
9219.996681317082
 21
6466.343127939801
 31
0.0
  0
LINE
  5
2CB41
330
747D
100
AcDbEntity
  8
細線
 48
50.0
100
AcDbLine
 10
9073.599999999993
 20
6409.749007833403
 30
0.0
 11
9130.194120106384
 21
6466.3431279398
 31
0.0
  0
LINE
  5
2CB44
330
747D
100
AcDbEntity
  8
部品1
 48
50.0
100
AcDbLine
 10
10023.59999999999
 20
6466.343127939804
 30
0.0
 11
10023.59999999999
 21
6186.343127939752
 31
0.0
  0
LINE
  5
2CB45
330
747D
100
AcDbEntity
  8
部品1
 48
50.0
100
AcDbLine
 10
9273.599999999992
 20
6466.343127939802
 30
0.0
 11
9273.599999999998
 21
6186.343127939756
 31
0.0
  0
LINE
  5
2CB46
330
747D
100
AcDbEntity
  8
センター
 48
2.0
100
AcDbLine
 10
9598.600000000008
 20
6913.343127939782
 30
0.0
 11
9698.600000000007
 21
6913.343127939782
 31
0.0
  0
LINE
  5
2CB47
330
747D
100
AcDbEntity
  8
部品1
 48
50.0
100
AcDbLine
 10
9748.600000000008
 20
6813.343127939782
 30
0.0
 11
9548.600000000007
 21
6813.343127939782
 31
0.0
  0
LINE
  5
2CB48
330
747D
100
AcDbEntity
  8
センター
 48
2.0
100
AcDbLine
 10
9648.600000000008
 20
6963.343127939783
 30
0.0
 11
9648.600000000008
 21
6863.343127939782
 31
0.0
  0
LINE
  5
2CB49
330
747D
100
AcDbEntity
  8
細線
 48
50.0
100
AcDbLine
 10
10023.59999999999
 20
6409.749007833403
 30
0.0
 11
10080.19412010639
 21
6466.343127939805
 31
0.0
  0
LINE
  5
2CB4A
330
747D
100
AcDbEntity
  8
部品1
 48
50.0
100
AcDbLine
 10
10223.59999999999
 20
6466.343127939805
 30
0.0
 11
10223.59999999999
 21
6186.343127939756
 31
0.0
  0
LINE
  5
2CB4B
330
747D
100
AcDbEntity
  8
センター
 48
2.0
100
AcDbLine
 10
10480.60000000001
 20
6434.343127939786
 30
0.0
 11
10480.60000000001
 21
6334.343127939787
 31
0.0
  0
CIRCLE
  5
2CB4C
330
747D
100
AcDbEntity
  8
部品1
 48
50.0
100
AcDbCircle
 10
10480.60000000001
 20
6384.343127939787
 30
0.0
 40
35.0
  0
LINE
  5
2CB4D
330
747D
100
AcDbEntity
  8
センター
 48
2.0
100
AcDbLine
 10
10430.6
 20
6384.343127939787
 30
0.0
 11
10530.6
 21
6384.343127939787
 31
0.0
  0
LINE
  5
2CB4E
330
747D
100
AcDbEntity
  8
細線
 48
50.0
100
AcDbLine
 10
10204.30564555445
 20
6186.343127939757
 30
0.0
 11
10223.6
 21
6205.6374823853
 31
0.0
  0
LINE
  5
2CB4F
330
747D
100
AcDbEntity
  8
細線
 48
50.0
100
AcDbLine
 10
10159.40436494911
 20
6186.343127939753
 30
0.0
 11
10223.6
 21
6250.538762990646
 31
0.0
  0
LINE
  5
2CB50
330
747D
100
AcDbEntity
  8
細線
 48
50.0
100
AcDbLine
 10
10114.50308434376
 20
6186.343127939753
 30
0.0
 11
10223.6
 21
6295.44004359599
 31
0.0
  0
LINE
  5
2CB51
330
747D
100
AcDbEntity
  8
センター
 48
2.0
100
AcDbLine
 10
10598.60000000001
 20
6963.343127939783
 30
0.0
 11
10598.60000000001
 21
6863.343127939782
 31
0.0
  0
LINE
  5
2CB52
330
747D
100
AcDbEntity
  8
部品1
 48
50.0
100
AcDbLine
 10
10698.60000000001
 20
6813.343127939782
 30
0.0
 11
10498.60000000001
 21
6813.343127939782
 31
0.0
  0
LINE
  5
2CB53
330
747D
100
AcDbEntity
  8
センター
 48
2.0
100
AcDbLine
 10
10548.60000000001
 20
6913.343127939782
 30
0.0
 11
10648.60000000001
 21
6913.343127939782
 31
0.0
  0
LINE
  5
2CB60
330
747D
100
AcDbEntity
  8
センター
 48
2.0
100
AcDbLine
 10
11498.6
 20
6913.343127939782
 30
0.0
 11
11598.60000000001
 21
6913.343127939782
 31
0.0
  0
LINE
  5
2CB61
330
747D
100
AcDbEntity
  8
部品1
 48
50.0
100
AcDbLine
 10
11648.60000000001
 20
6813.343127939782
 30
0.0
 11
11448.60000000001
 21
6813.343127939782
 31
0.0
  0
LINE
  5
2CB62
330
747D
100
AcDbEntity
  8
センター
 48
2.0
100
AcDbLine
 10
11548.60000000001
 20
6963.343127939783
 30
0.0
 11
11548.60000000001
 21
6863.343127939782
 31
0.0
  0
LINE
  5
2CB63
330
747D
100
AcDbEntity
  8
細線
 48
50.0
100
AcDbLine
 10
13356.28003344755
 20
6801.343127939829
 30
0.0
 11
13453.59999999998
 21
6898.663094492268
 31
0.0
  0
LINE
  5
2CB64
330
747D
100
AcDbEntity
  8
細線
 48
50.0
100
AcDbLine
 10
13333.59999999999
 20
6823.564375097622
 30
0.0
 11
13453.59999999998
 21
6943.564375097612
 31
0.0
  0
LINE
  5
2CB65
330
747D
100
AcDbEntity
  8
部品1
 48
50.0
100
AcDbLine
 10
13453.59999999998
 20
6801.343127939829
 30
0.0
 11
13333.6
 21
6801.343127939829
 31
0.0
  0
LINE
  5
2CB68
330
747D
100
AcDbEntity
  8
センター
 48
2.0
100
AcDbLine
 10
13280.60000000001
 20
6384.343127939787
 30
0.0
 11
13380.60000000001
 21
6384.343127939787
 31
0.0
  0
LINE
  5
2CB69
330
747D
100
AcDbEntity
  8
センター
 48
2.0
100
AcDbLine
 10
12448.6
 20
6913.343127939782
 30
0.0
 11
12548.6
 21
6913.343127939782
 31
0.0
  0
LINE
  5
2CB6A
330
747D
100
AcDbEntity
  8
部品1
 48
50.0
100
AcDbLine
 10
12598.60000000001
 20
6813.343127939782
 30
0.0
 11
12398.60000000001
 21
6813.343127939782
 31
0.0
  0
LINE
  5
2CB77
330
747D
100
AcDbEntity
  8
センター
 48
2.0
100
AcDbLine
 10
12498.60000000001
 20
6963.343127939783
 30
0.0
 11
12498.60000000001
 21
6863.343127939782
 31
0.0
  0
LINE
  5
2CB7F
330
747D
100
AcDbEntity
  8
センター
 48
2.0
100
AcDbLine
 10
13330.60000000001
 20
6434.343127939786
 30
0.0
 11
13330.60000000001
 21
6334.343127939787
 31
0.0
  0
CIRCLE
  5
2CB80
330
747D
100
AcDbEntity
  8
部品1
 48
50.0
100
AcDbCircle
 10
13330.60000000001
 20
6384.343127939787
 30
0.0
 40
35.0
  0
LINE
  5
2CB8A
330
747D
100
AcDbEntity
  8
細線
 48
50.0
100
AcDbLine
 10
13446.08259465823
 20
6801.343127939825
 30
0.0
 11
13453.59999999998
 21
6808.860533281574
 31
0.0
  0
LINE
  5
2CB8B
330
747D
100
AcDbEntity
  8
細線
 48
50.0
100
AcDbLine
 10
13401.18131405289
 20
6801.343127939829
 30
0.0
 11
13453.59999999999
 21
6853.761813886922
 31
0.0
  0
DIMENSION
  5
2CB8E
330
747D
100
AcDbEntity
  8
寸法
 48
50.0
100
AcDbDimension
  2
*D27
 10
10480.6
 20
8292.609586033695
 30
0.0
 11
11905.6
 21
8392.621397057316
 31
0.0
 70
    32
 71
     5
 42
2849.999999999996
  3
INABA_S40G
100
AcDbAlignedDimension
 13
13330.59999999999
 23
7493.343127939782
 33
0.0
 14
10480.6
 24
7493.343127939782
 34
0.0
100
AcDbRotatedDimension
1001
ACAD
1000
DSTYLE
1002
{
1070
   341
1005
0
1002
}
  0
LINE
  5
2CB90
330
747D
100
AcDbEntity
  8
細線
 48
50.0
100
AcDbLine
 10
10023.59999999999
 20
7503.268216913586
 30
0.0
 11
10086.67491102615
 21
7566.343127939743
 31
0.0
  0
LINE
  5
2CB91
330
747D
100
AcDbEntity
  8
細線
 48
50.0
100
AcDbLine
 10
10023.6
 20
7458.366936308241
 30
0.0
 11
10131.5761916315
 21
7566.343127939743
 31
0.0
  0
LINE
  5
2CB92
330
747D
100
AcDbEntity
  8
細線
 48
50.0
100
AcDbLine
 10
10066.28003344757
 20
7366.343127939781
 30
0.0
 11
10223.59999999999
 21
7523.663094492199
 31
0.0
  0
LINE
  5
2CB93
330
747D
100
AcDbEntity
  8
細線
 48
50.0
100
AcDbLine
 10
10023.6
 20
7368.564375097553
 30
0.0
 11
10221.37875284219
 21
7566.343127939743
 31
0.0
  0
LINE
  5
2CB94
330
747D
100
AcDbEntity
  8
細線
 48
50.0
100
AcDbLine
 10
10023.6
 20
7413.465655702899
 30
0.0
 11
10176.47747223685
 21
7566.343127939743
 31
0.0
  0
LINE
  5
2CB96
330
747D
100
AcDbEntity
  8
寸法
 48
50.0
100
AcDbLine
 10
9780.555445177931
 20
8292.609586033695
 30
0.0
 11
10480.6
 21
8292.609586033695
 31
0.0
  0
LINE
  5
2CB9A
330
747D
100
AcDbEntity
  8
細線
 48
50.0
100
AcDbLine
 10
9073.599999999997
 20
7503.268216913586
 30
0.0
 11
9136.674911026158
 21
7566.343127939743
 31
0.0
  0
LINE
  5
2CB9B
330
747D
100
AcDbEntity
  8
細線
 48
50.0
100
AcDbLine
 10
9073.6
 20
7413.465655702899
 30
0.0
 11
9226.477472236847
 21
7566.343127939743
 31
0.0
  0
LINE
  5
2CB9C
330
747D
100
AcDbEntity
  8
細線
 48
50.0
100
AcDbLine
 10
9073.6
 20
7458.366936308241
 30
0.0
 11
9181.576191631503
 21
7566.343127939743
 31
0.0
  0
LINE
  5
2CB9D
330
747D
100
AcDbEntity
  8
部品1
 48
50.0
100
AcDbLine
 10
9073.599999999995
 20
7566.343127939743
 30
0.0
 11
9073.600000000002
 21
7366.343127939781
 31
0.0
  0
LINE
  5
2CB9E
330
747D
100
AcDbEntity
  8
細線
 48
50.0
100
AcDbLine
 10
9073.600000000004
 20
7368.564375097553
 30
0.0
 11
9256.428149730901
 21
7551.39252482845
 31
0.0
  0
LINE
  5
2CB9F
330
747D
100
AcDbEntity
  8
部品1
 48
50.0
100
AcDbLine
 10
8798.600000000007
 20
7013.343127939783
 30
0.0
 11
8598.600000000008
 21
7013.343127939783
 31
0.0
  0
LINE
  5
2CBA2
330
747D
100
AcDbEntity
  8
細線
 48
50.0
100
AcDbLine
 10
9206.08259465825
 20
7366.34312793978
 30
0.0
 11
9273.600000000005
 21
7433.860533281531
 31
0.0
  0
LINE
  5
2CBA3
330
747D
100
AcDbEntity
  8
細線
 48
50.0
100
AcDbLine
 10
9161.181314052887
 20
7366.343127939781
 30
0.0
 11
9273.600000000001
 21
7478.761813886859
 31
0.0
  0
LINE
  5
2CBA4
330
747D
100
AcDbEntity
  8
細線
 48
50.0
100
AcDbLine
 10
9116.280033447575
 20
7366.343127939781
 30
0.0
 11
9273.600000000007
 21
7523.66309449221
 31
0.0
  0
LINE
  5
2CBA5
330
747D
100
AcDbEntity
  8
寸法
 48
50.0
100
AcDbLine
 10
8698.600000000007
 20
8048.951944609916
 30
0.0
 11
8978.600000000007
 21
8048.951944609916
 31
0.0
  0
LINE
  5
2CBA6
330
747D
100
AcDbEntity
  8
細線
 48
50.0
100
AcDbLine
 10
9073.599999999997
 20
7548.16949751893
 30
0.0
 11
9091.773630420812
 21
7566.343127939743
 31
0.0
  0
LINE
  5
2CBA7
330
747D
100
AcDbEntity
  8
部品1
 48
50.0
100
AcDbLine
 10
10023.59999999999
 20
7566.343127939743
 30
0.0
 11
10023.6
 21
7366.343127939781
 31
0.0
  0
LINE
  5
2CBA8
330
747D
100
AcDbEntity
  8
部品1
 48
50.0
100
AcDbLine
 10
9748.600000000008
 20
7013.343127939783
 30
0.0
 11
9548.600000000007
 21
7013.343127939783
 31
0.0
  0
LINE
  5
2CBA9
330
747D
100
AcDbEntity
  8
部品1
 48
50.0
100
AcDbLine
 10
9273.600000000005
 20
7566.343127939784
 30
0.0
 11
9273.600000000001
 21
7366.343127939781
 31
0.0
  0
LINE
  5
2CBAA
330
747D
100
AcDbEntity
  8
寸法
 48
50.0
100
AcDbLine
 10
9368.600000000007
 20
8048.951944610029
 30
0.0
 11
9648.600000000008
 21
8048.951944610029
 31
0.0
  0
LINE
  5
2CBAB
330
747D
100
AcDbEntity
  8
細線
 48
50.0
100
AcDbLine
 10
10023.59999999999
 20
7548.16949751893
 30
0.0
 11
10041.77363042081
 21
7566.343127939743
 31
0.0
  0
LINE
  5
2CBAC
330
747D
100
AcDbEntity
  8
部品1
 48
50.0
100
AcDbLine
 10
10223.59999999999
 20
7566.343127939743
 30
0.0
 11
10223.6
 21
7366.343127939781
 31
0.0
  0
CIRCLE
  5
2CBAD
330
747D
100
AcDbEntity
  8
部品1
 48
50.0
100
AcDbCircle
 10
10480.6
 20
7443.343127939782
 30
0.0
 40
35.0
  0
LINE
  5
2CBAE
330
747D
100
AcDbEntity
  8
センター
 48
2.0
100
AcDbLine
 10
10430.6
 20
7443.343127939782
 30
0.0
 11
10530.6
 21
7443.343127939782
 31
0.0
  0
LINE
  5
2CBAF
330
747D
100
AcDbEntity
  8
細線
 48
50.0
100
AcDbLine
 10
10200.98387526358
 20
7366.343127939781
 30
0.0
 11
10223.6
 21
7388.959252676198
 31
0.0
  0
LINE
  5
2CBB0
330
747D
100
AcDbEntity
  8
細線
 48
50.0
100
AcDbLine
 10
10156.08259465825
 20
7366.34312793978
 30
0.0
 11
10223.6
 21
7433.860533281531
 31
0.0
  0
LINE
  5
2CBB1
330
747D
100
AcDbEntity
  8
細線
 48
50.0
100
AcDbLine
 10
10111.18131405289
 20
7366.343127939781
 30
0.0
 11
10223.6
 21
7478.761813886855
 31
0.0
  0
LINE
  5
2CBB2
330
747D
100
AcDbEntity
  8
センター
 48
2.0
100
AcDbLine
 10
10480.6
 20
7493.343127939782
 30
0.0
 11
10480.6
 21
7393.343127939782
 31
0.0
  0
LINE
  5
2CBB3
330
747D
100
AcDbEntity
  8
部品1
 48
50.0
100
AcDbLine
 10
10698.60000000001
 20
7013.343127939783
 30
0.0
 11
10498.60000000001
 21
7013.343127939783
 31
0.0
  0
LINE
  5
2CBB4
330
747D
100
AcDbEntity
  8
部品1
 48
50.0
100
AcDbLine
 10
11173.59999999999
 20
7566.343127939743
 30
0.0
 11
11173.6
 21
7366.343127939781
 31
0.0
  0
LINE
  5
2CBB5
330
747D
100
AcDbEntity
  8
部品1
 48
50.0
100
AcDbLine
 10
10973.59999999999
 20
7566.343127939743
 30
0.0
 11
10973.6
 21
7366.343127939781
 31
0.0
  0
LINE
  5
2CBB6
330
747D
100
AcDbEntity
  8
細線
 48
50.0
100
AcDbLine
 10
10973.6
 20
7413.465655702899
 30
0.0
 11
11126.47747223685
 21
7566.343127939743
 31
0.0
  0
LINE
  5
2CBB7
330
747D
100
AcDbEntity
  8
細線
 48
50.0
100
AcDbLine
 10
10973.6
 20
7368.564375097553
 30
0.0
 11
11171.37875284219
 21
7566.343127939743
 31
0.0
  0
LINE
  5
2CBB8
330
747D
100
AcDbEntity
  8
細線
 48
50.0
100
AcDbLine
 10
10973.6
 20
7458.366936308241
 30
0.0
 11
11081.5761916315
 21
7566.343127939743
 31
0.0
  0
LINE
  5
2CBB9
330
747D
100
AcDbEntity
  8
細線
 48
50.0
100
AcDbLine
 10
10973.59999999999
 20
7503.268216913586
 30
0.0
 11
11036.67491102616
 21
7566.343127939743
 31
0.0
  0
LINE
  5
2CBBA
330
747D
100
AcDbEntity
  8
細線
 48
50.0
100
AcDbLine
 10
11016.28003344757
 20
7366.343127939781
 30
0.0
 11
11173.59999999999
 21
7523.663094492199
 31
0.0
  0
LINE
  5
2CBBB
330
747D
100
AcDbEntity
  8
細線
 48
50.0
100
AcDbLine
 10
11061.18131405289
 20
7366.343127939781
 30
0.0
 11
11173.6
 21
7478.761813886855
 31
0.0
  0
LINE
  5
2CBBC
330
747D
100
AcDbEntity
  8
細線
 48
50.0
100
AcDbLine
 10
11106.08259465825
 20
7366.34312793978
 30
0.0
 11
11173.6
 21
7433.860533281531
 31
0.0
  0
LINE
  5
2CBBD
330
747D
100
AcDbEntity
  8
細線
 48
50.0
100
AcDbLine
 10
11150.98387526358
 20
7366.343127939781
 30
0.0
 11
11173.6
 21
7388.959252676198
 31
0.0
  0
LINE
  5
2CBBE
330
747D
100
AcDbEntity
  8
部品1
 48
50.0
100
AcDbLine
 10
11648.60000000001
 20
7013.343127939783
 30
0.0
 11
11448.60000000001
 21
7013.343127939783
 31
0.0
  0
LINE
  5
2CBBF
330
747D
100
AcDbEntity
  8
細線
 48
50.0
100
AcDbLine
 10
10973.59999999999
 20
7548.16949751893
 30
0.0
 11
10991.77363042081
 21
7566.343127939743
 31
0.0
  0
LINE
  5
2CBC0
330
747D
100
AcDbEntity
  8
細線
 48
50.0
100
AcDbLine
 10
13333.59999999999
 20
6958.26821691366
 30
0.0
 11
13376.67491102616
 21
7001.343127939829
 31
0.0
  0
LINE
  5
2CBC1
330
747D
100
AcDbEntity
  8
部品1
 48
50.0
100
AcDbLine
 10
13453.59999999998
 20
7001.343127939829
 30
0.0
 11
13333.6
 21
7001.343127939829
 31
0.0
  0
LINE
  5
2CBC3
330
747D
100
AcDbEntity
  8
センター
 48
2.0
100
AcDbLine
 10
13280.6
 20
7443.343127939782
 30
0.0
 11
13380.6
 21
7443.343127939782
 31
0.0
  0
DIMENSION
  5
2CBC4
330
747D
100
AcDbEntity
  8
寸法
 48
50.0
100
AcDbDimension
  2
*D28
 10
13330.59999999999
 20
8292.609586033695
 30
0.0
 11
13726.7066017178
 21
8292.609586033695
 31
0.0
 70
   160
 71
     5
 42
123.0
  3
INABA_S40G
100
AcDbAlignedDimension
 13
13453.59999999999
 23
7566.343127939783
 33
0.0
 14
13330.59999999999
 24
7493.343127939782
 34
0.0
100
AcDbRotatedDimension
1001
ACAD
1000
DSTYLE
1002
{
1070
   341
1005
0
1002
}
  0
LINE
  5
2CBC5
330
747D
100
AcDbEntity
  8
部品1
 48
50.0
100
AcDbLine
 10
12598.60000000001
 20
7013.343127939783
 30
0.0
 11
12398.60000000001
 21
7013.343127939783
 31
0.0
  0
LINE
  5
2CBC6
330
747D
100
AcDbEntity
  8
細線
 48
50.0
100
AcDbLine
 10
11923.59999999999
 20
7503.268216913586
 30
0.0
 11
11986.67491102616
 21
7566.343127939743
 31
0.0
  0
LINE
  5
2CBC7
330
747D
100
AcDbEntity
  8
細線
 48
50.0
100
AcDbLine
 10
11923.6
 20
7413.465655702899
 30
0.0
 11
12076.47747223685
 21
7566.343127939743
 31
0.0
  0
LINE
  5
2CBC8
330
747D
100
AcDbEntity
  8
細線
 48
50.0
100
AcDbLine
 10
11923.6
 20
7458.366936308241
 30
0.0
 11
12031.5761916315
 21
7566.343127939743
 31
0.0
  0
LINE
  5
2CBC9
330
747D
100
AcDbEntity
  8
細線
 48
50.0
100
AcDbLine
 10
11923.6
 20
7368.564375097553
 30
0.0
 11
12121.37875284219
 21
7566.343127939743
 31
0.0
  0
LINE
  5
2CBCA
330
747D
100
AcDbEntity
  8
部品1
 48
50.0
100
AcDbLine
 10
11923.59999999999
 20
7566.343127939743
 30
0.0
 11
11923.6
 21
7366.343127939781
 31
0.0
  0
LINE
  5
2CBCB
330
747D
100
AcDbEntity
  8
部品1
 48
50.0
100
AcDbLine
 10
12123.59999999999
 20
7566.343127939743
 30
0.0
 11
12123.6
 21
7366.343127939781
 31
0.0
  0
LINE
  5
2CBCC
330
747D
100
AcDbEntity
  8
細線
 48
50.0
100
AcDbLine
 10
12100.98387526358
 20
7366.343127939781
 30
0.0
 11
12123.6
 21
7388.959252676198
 31
0.0
  0
LINE
  5
2CBCD
330
747D
100
AcDbEntity
  8
細線
 48
50.0
100
AcDbLine
 10
11966.28003344757
 20
7366.343127939781
 30
0.0
 11
12123.59999999999
 21
7523.663094492199
 31
0.0
  0
LINE
  5
2CBCE
330
747D
100
AcDbEntity
  8
細線
 48
50.0
100
AcDbLine
 10
12011.18131405289
 20
7366.343127939781
 30
0.0
 11
12123.6
 21
7478.761813886855
 31
0.0
  0
LINE
  5
2CBCF
330
747D
100
AcDbEntity
  8
細線
 48
50.0
100
AcDbLine
 10
12056.08259465825
 20
7366.34312793978
 30
0.0
 11
12123.6
 21
7433.860533281531
 31
0.0
  0
LINE
  5
2CBD0
330
747D
100
AcDbEntity
  8
細線
 48
50.0
100
AcDbLine
 10
11923.59999999999
 20
7548.16949751893
 30
0.0
 11
11941.77363042081
 21
7566.343127939743
 31
0.0
  0
LINE
  5
2CBD1
330
747D
100
AcDbEntity
  8
部品1
 48
50.0
100
AcDbLine
 10
13073.59999999999
 20
7566.343127939743
 30
0.0
 11
13073.6
 21
7366.343127939781
 31
0.0
  0
LINE
  5
2CBD2
330
747D
100
AcDbEntity
  8
細線
 48
50.0
100
AcDbLine
 10
12873.6
 20
7503.268216913586
 30
0.0
 11
12936.67491102616
 21
7566.343127939743
 31
0.0
  0
LINE
  5
2CBD3
330
747D
100
AcDbEntity
  8
細線
 48
50.0
100
AcDbLine
 10
12873.6
 20
7458.366936308241
 30
0.0
 11
12981.5761916315
 21
7566.343127939743
 31
0.0
  0
LINE
  5
2CBD4
330
747D
100
AcDbEntity
  8
部品1
 48
50.0
100
AcDbLine
 10
12873.59999999999
 20
7566.343127939743
 30
0.0
 11
12873.6
 21
7366.343127939781
 31
0.0
  0
LINE
  5
2CBD5
330
747D
100
AcDbEntity
  8
細線
 48
50.0
100
AcDbLine
 10
12873.6
 20
7368.564375097553
 30
0.0
 11
13071.37875284219
 21
7566.343127939743
 31
0.0
  0
LINE
  5
2CBD6
330
747D
100
AcDbEntity
  8
細線
 48
50.0
100
AcDbLine
 10
12873.6
 20
7413.465655702899
 30
0.0
 11
13026.47747223685
 21
7566.343127939743
 31
0.0
  0
LINE
  5
2CBD7
330
747D
100
AcDbEntity
  8
細線
 48
50.0
100
AcDbLine
 10
12916.28003344757
 20
7366.343127939781
 30
0.0
 11
13073.59999999999
 21
7523.663094492199
 31
0.0
  0
LINE
  5
2CBD8
330
747D
100
AcDbEntity
  8
細線
 48
50.0
100
AcDbLine
 10
13050.98387526357
 20
7366.343127939781
 30
0.0
 11
13073.6
 21
7388.959252676198
 31
0.0
  0
LINE
  5
2CBD9
330
747D
100
AcDbEntity
  8
細線
 48
50.0
100
AcDbLine
 10
13006.08259465825
 20
7366.34312793978
 30
0.0
 11
13073.6
 21
7433.860533281531
 31
0.0
  0
LINE
  5
2CBDA
330
747D
100
AcDbEntity
  8
細線
 48
50.0
100
AcDbLine
 10
12961.18131405289
 20
7366.343127939781
 30
0.0
 11
13073.6
 21
7478.761813886855
 31
0.0
  0
LINE
  5
2CBDB
330
747D
100
AcDbEntity
  8
センター
 48
2.0
100
AcDbLine
 10
13330.59999999999
 20
7493.343127939782
 30
0.0
 11
13330.59999999999
 21
7393.343127939782
 31
0.0
  0
CIRCLE
  5
2CBDC
330
747D
100
AcDbEntity
  8
部品1
 48
50.0
100
AcDbCircle
 10
13330.59999999999
 20
7443.343127939782
 30
0.0
 40
35.0
  0
LINE
  5
2CBDD
330
747D
100
AcDbEntity
  8
細線
 48
50.0
100
AcDbLine
 10
12873.6
 20
7548.16949751893
 30
0.0
 11
12891.77363042081
 21
7566.343127939743
 31
0.0
  0
LEADER
  5
2D56A
330
747D
100
AcDbEntity
  8
寸法
 48
50.0
100
AcDbLeader
  3
INABA_S50G
 73
     0
 74
     0
 75
     1
 40
120.0
 41
720.0000000000001
 76
     3
 10
13455.05985718446
 20
6872.330064394027
 30
0.0
 10
13611.83343157075
 20
6611.316150826195
 30
0.0
 10
13736.83343157075
 20
6611.316150826195
 30
0.0
340
2D56B
1001
ACAD
1000
DSTYLE
1002
{
1070
   341
1005
0
1070
    40
1040
1.0
1070
   343
1005
0
1070
   344
1005
0
1002
}
  0
MTEXT
  5
2D56B
102
{ACAD_REACTORS
330
2D56A
102
}
330
747D
100
AcDbEntity
  8
部品1
 62
     7
 48
50.0
100
AcDbMText
 10
14481.83343157075
 20
6696.316150826195
 30
0.0
 40
120.0
 41
0.0
 71
     6
 72
     1
  1
\A1;床下換気口
  7
STYLE1
 73
     1
 44
1.0
1001
ACAD
1000
MTEXTBEGIN
1070
    73
1070
     1
1070
    44
1040
1.0
1070
    74
1070
     0
1000
MTEXTEND
  0
TEXT
  5
2D56C
330
747D
100
AcDbEntity
  8
部品1
 48
50.0
100
AcDbText
 10
13802.43013846117
 20
5879.041702868211
 30
0.0
 40
80.0
  1
(a=45,b=55,c=75)
  7
STYLE1
100
AcDbText
  0
TEXT
  5
2D56D
330
747D
100
AcDbEntity
  8
部品1
 48
50.0
100
AcDbText
 10
13643.85112970687
 20
5985.886923736965
 30
0.0
 40
80.0
  1
※a,b,cは屋根の出幅です。
  7
STYLE1
100
AcDbText
  0
MTEXT
  5
2D56E
102
{ACAD_REACTORS
330
2D56F
102
}
330
747D
100
AcDbEntity
  8
部品1
 62
     7
 48
50.0
100
AcDbMText
 10
14441.63832569548
 20
6165.19761067004
 30
0.0
 40
120.0
 41
0.0
 71
     6
 72
     1
  1
\A1;屋根の外寸
  7
STYLE1
 73
     1
 44
1.0
1001
ACAD
1000
MTEXTBEGIN
1070
    73
1070
     1
1070
    44
1040
1.0
1070
    74
1070
     0
1000
MTEXTEND
  0
LEADER
  5
2D56F
330
747D
100
AcDbEntity
  8
寸法
 48
50.0
100
AcDbLeader
  3
INABA_S50G
 73
     0
 74
     0
 75
     1
 40
120.0
 41
672.0
 76
     3
 10
13503.69831350344
 20
6339.086954133616
 30
0.0
 10
13619.63832569548
 20
6080.19761067004
 30
0.0
 10
13744.63832569547
 20
6080.19761067004
 30
0.0
340
2D56E
1001
ACAD
1000
DSTYLE
1002
{
1070
   341
1005
0
1070
    40
1040
1.0
1070
   343
1005
0
1070
   344
1005
0
1002
}
  0
MTEXT
  5
2D570
102
{ACAD_REACTORS
330
2D571
102
}
330
747D
100
AcDbEntity
  8
部品1
 62
     7
 48
50.0
100
AcDbMText
 10
14648.99523070988
 20
7881.95587218229
 30
0.0
 40
120.0
 41
0.0
 71
     6
 72
     1
  1
アンカーボルト
  7
STYLE1
 73
     1
 44
1.0
1001
ACAD
1000
MTEXTBEGIN
1070
    73
1070
     1
1070
    44
1040
1.0
1070
    74
1070
     0
1000
MTEXTEND
  0
LEADER
  5
2D571
330
747D
100
AcDbEntity
  8
寸法
 48
50.0
100
AcDbLeader
  3
INABA_S50G
 73
     0
 74
     0
 75
     1
 40
120.0
 41
994.3492424049171
 76
     3
 10
13330.68008575699
 20
7443.550972298493
 30
0.0
 10
13504.64598830496
 20
7796.955872182291
 30
0.0
 10
13629.64598830496
 20
7796.955872182291
 30
0.0
340
2D570
1001
ACAD
1000
DSTYLE
1002
{
1070
   341
1005
0
1070
    40
1040
1.0
1070
   343
1005
0
1070
   344
1005
0
1002
}
  0
MTEXT
  5
2D572
102
{ACAD_REACTORS
330
2D573
102
}
330
747D
100
AcDbEntity
  8
部品1
 62
     7
 48
50.0
100
AcDbMText
 10
13013.82869701569
 20
6736.933648873339
 30
0.0
 40
120.0
 41
0.0
 71
     6
 72
     1
  1
CB
  7
STYLE1
 73
     1
 44
1.0
1001
ACAD
1000
MTEXTBEGIN
1070
    73
1070
     1
1070
    44
1040
1.0
1070
    74
1070
     0
1000
MTEXTEND
  0
LEADER
  5
2D573
330
747D
100
AcDbEntity
  8
寸法
 48
50.0
100
AcDbLeader
  3
INABA_S50G
 73
     0
 74
     0
 75
     1
 40
120.0
 41
149.591883092037
 76
     3
 10
12586.95401106101
 20
6874.651962428164
 30
0.0
 10
12714.23681392365
 20
6651.933648873338
 30
0.0
 10
12839.23681392365
 20
6651.933648873338
 30
0.0
340
2D572
1001
ACAD
1000
DSTYLE
1002
{
1070
   341
1005
0
1070
    40
1040
1.0
1070
   343
1005
0
1070
   344
1005
0
1002
}
  0
DIMENSION
  5
2D574
330
747D
100
AcDbEntity
  8
寸法
 48
50.0
100
AcDbDimension
  2
*D42
 10
13498.6
 20
8524.563449998703
 30
0.0
 11
13769.77462120245
 21
8524.563449998703
 31
0.0
 70
   160
  1
a
 71
     5
 42
45.0
  3
INABA_S40G
100
AcDbAlignedDimension
 13
13453.59999999999
 23
7566.343127939781
 33
0.0
 14
13498.6
 24
8292.609586033691
 34
0.0
100
AcDbRotatedDimension
1001
ACAD
1000
DSTYLE
1002
{
1070
   341
1005
0
1002
}
  0
DIMENSION
  5
2D575
330
747D
100
AcDbEntity
  8
寸法
 48
50.0
100
AcDbDimension
  2
*D43
 10
2993.600000000001
 20
8524.563449998705
 30
0.0
 11
2677.425378797542
 21
8524.563449998705
 31
0.0
 70
   160
  1
a
 71
     5
 42
44.99999999999272
  3
INABA_S40G
100
AcDbAlignedDimension
 13
2948.600000000008
 23
8292.609586033696
 33
0.0
 14
2993.600000000001
 24
7566.343127939783
 34
0.0
100
AcDbRotatedDimension
1001
ACAD
1000
DSTYLE
1002
{
1070
   341
1005
0
1002
}
  0
LINE
  5
2D577
330
747D
100
AcDbEntity
  8
想像線
 48
10.0
100
AcDbLine
 10
2948.600000000001
 20
6131.343127939792
 30
0.0
 11
2948.600000000001
 21
7641.34312793979
 31
0.0
  0
LINE
  5
2D578
330
747D
100
AcDbEntity
  8
想像線
 48
10.0
100
AcDbLine
 10
13498.6
 20
6131.343127939797
 30
0.0
 11
13498.6
 21
7784.673684349389
 31
0.0
  0
DIMENSION
  5
2D57A
330
747D
100
AcDbEntity
  8
寸法
 48
50.0
100
AcDbDimension
  2
*D44
 10
2118.72190961068
 20
7566.343127939783
 30
0.0
 11
2018.721909610679
 21
7603.843127939787
 31
0.0
 70
    32
  1
c
 71
     5
 42
75.00000000000728
  3
INABA_S40G
100
AcDbAlignedDimension
 13
2370.665006330071
 23
7641.34312793979
 33
0.0
 14
2993.600000000001
 24
7566.343127939783
 34
0.0
 50
90.0
100
AcDbRotatedDimension
1001
ACAD
1000
DSTYLE
1002
{
1070
   341
1005
0
1002
}
  0
DIMENSION
  5
2D57B
330
747D
100
AcDbEntity
  8
寸法
 48
50.0
100
AcDbDimension
  2
*D45
 10
2118.72190961068
 20
6131.343127939808
 30
0.0
 11
2018.721909610679
 21
6158.843127939796
 31
0.0
 70
    32
  1
b
 71
     5
 42
54.99999999997453
  3
INABA_S40G
100
AcDbAlignedDimension
 13
2993.600000000001
 23
6186.343127939783
 33
0.0
 14
2370.665006330078
 24
6131.343127939808
 34
0.0
 50
90.0
100
AcDbRotatedDimension
1001
ACAD
1000
DSTYLE
1002
{
1070
   341
1005
0
1002
}
  0
DIMENSION
  5
2D57C
330
747D
100
AcDbEntity
  8
寸法
 48
50.0
100
AcDbDimension
  2
*D46
 10
12772.81202022565
 20
6186.3431279398
 30
0.0
 11
12772.81202022565
 21
5899.379545262627
 31
0.0
 70
   160
 71
     5
 42
280.0000000000046
  3
INABA_S40G
100
AcDbAlignedDimension
 13
12873.59999999999
 23
6466.343127939804
 33
0.0
 14
12873.6
 24
6186.3431279398
 34
0.0
 50
90.0
100
AcDbRotatedDimension
1001
ACAD
1000
DSTYLE
1002
{
1070
   341
1005
0
1002
}
  0
DIMENSION
  5
2D57D
330
747D
100
AcDbEntity
  8
寸法
 48
50.0
100
AcDbDimension
  2
*D47
 10
12772.81202022565
 20
7366.343127939782
 30
0.0
 11
12772.81202022565
 21
7853.306710616938
 31
0.0
 70
   160
 71
     5
 42
199.9999999999854
  3
INABA_S40G
100
AcDbAlignedDimension
 13
12873.6
 23
7566.343127939768
 33
0.0
 14
12873.6
 24
7366.343127939782
 34
0.0
 50
90.0
100
AcDbRotatedDimension
1001
ACAD
1000
DSTYLE
1002
{
1070
   341
1005
0
1002
}
  0
DIMENSION
  5
2D57E
330
747D
100
AcDbEntity
  8
寸法
 48
50.0
100
AcDbDimension
  2
*D48
 10
13333.6
 20
7115.941741037892
 30
0.0
 11
13723.65905511811
 21
7115.941741037892
 31
0.0
 70
   160
 71
     5
 42
119.9999999999981
  3
INABA_S40G
100
AcDbAlignedDimension
 13
13453.59999999999
 23
7001.343127939818
 33
0.0
 14
13333.6
 24
7001.343127939829
 34
0.0
100
AcDbRotatedDimension
1001
ACAD
1000
DSTYLE
1002
{
1070
   341
1005
0
1002
}
  0
MTEXT
  5
2D57F
330
747D
100
AcDbEntity
  8
寸法
 62
     7
 48
50.0
100
AcDbMText
 10
10085.74279404132
 20
8395.357920792008
 30
0.0
 40
120.0
 41
0.0
 71
     5
 72
     1
  1
\A1;2850
  7
STYLE1
 73
     1
 44
1.0
1001
ACAD
1000
MTEXTBEGIN
1070
    73
1070
     1
1070
    44
1040
1.0
1070
    74
1070
     0
1000
MTEXTEND
  0
MTEXT
  5
2D580
330
747D
100
AcDbEntity
  8
寸法
 62
     7
 48
50.0
100
AcDbMText
 10
9482.407563914758
 20
8147.510702297626
 30
0.0
 40
120.0
 41
0.0
 71
     5
 72
     1
  1
\A1;950
  7
STYLE1
 73
     1
 44
1.0
1001
ACAD
1000
MTEXTBEGIN
1070
    73
1070
     1
1070
    44
1040
1.0
1070
    74
1070
     0
1000
MTEXTEND
  0
MTEXT
  5
2D581
330
747D
100
AcDbEntity
  8
寸法
 62
     7
 48
50.0
100
AcDbMText
 10
8860.726285480948
 20
8147.510702297626
 30
0.0
 40
120.0
 41
0.0
 71
     5
 72
     1
  1
\A1;950
  7
STYLE1
 73
     1
 44
1.0
1001
ACAD
1000
MTEXTBEGIN
1070
    73
1070
     1
1070
    44
1040
1.0
1070
    74
1070
     0
1000
MTEXTEND
  0
MTEXT
  5
2D582
330
747D
100
AcDbEntity
  8
寸法
 62
     7
 48
50.0
100
AcDbMText
 10
8010.988018207298
 20
8395.357920792008
 30
0.0
 40
120.0
 41
0.0
 71
     5
 72
     1
  1
\A1;2850
  7
STYLE1
 73
     1
 44
1.0
1001
ACAD
1000
MTEXTBEGIN
1070
    73
1070
     1
1070
    44
1040
1.0
1070
    74
1070
     0
1000
MTEXTEND
  0
LINE
  5
2D980
330
747D
100
AcDbEntity
  8
想像線
 48
10.0
100
AcDbLine
 10
13498.6
 20
7641.343127939784
 30
0.0
 11
2948.600000000001
 21
7641.343127939812
 31
0.0
  0
LINE
  5
2D981
330
747D
100
AcDbEntity
  8
想像線
 48
10.0
100
AcDbLine
 10
13498.6
 20
6131.343127939796
 30
0.0
 11
2948.600000000001
 21
6131.34312793977
 31
0.0
  0
TEXT
  5
2D9C0
330
747D
100
AcDbEntity
  8
文字
 62
     7
 48
50.0
100
AcDbText
 10
7613.871707329881
 20
4657.912894218269
 30
0.0
 40
200.0
  1
〈参 考 図〉
  7
STYLE2
100
AcDbText
  0
TEXT
  5
2D9D1
330
747D
100
AcDbEntity
  8
文字
 62
     7
 48
50.0
100
AcDbText
 10
14267.69561199343
 20
838.2527270729188
 30
0.0
 40
100.0
  1
～一般型・多雪地型・豪雪地型～
  7
STYLE2
100
AcDbText
  0
LINE
  5
2D9F1
330
747D
100
AcDbEntity
  8
部品1
 48
50.0
100
AcDbLine
 10
13333.59999999999
 20
6466.343127939815
 30
0.0
 11
3113.600000000003
 21
6466.343127939778
 31
0.0
  0
LINE
  5
2D9F3
330
747D
100
AcDbEntity
  8
細線
 48
50.0
100
AcDbLine
 10
4504.305645554455
 20
6186.343127939757
 30
0.0
 11
4523.6
 21
6205.6374823853
 31
0.0
  0
LINE
  5
2D9F4
330
747D
100
AcDbEntity
  8
部品1
 48
50.0
100
AcDbLine
 10
4523.599999999991
 20
6466.343127939781
 30
0.0
 11
4523.599999999997
 21
6186.343127939756
 31
0.0
  0
LINE
  5
2D9F5
330
747D
100
AcDbEntity
  8
細線
 48
50.0
100
AcDbLine
 10
4323.599999999991
 20
6409.749007833403
 30
0.0
 11
4380.194120106367
 21
6466.343127939779
 31
0.0
  0
LINE
  5
2D9F6
330
747D
100
AcDbEntity
  8
部品1
 48
50.0
100
AcDbLine
 10
4323.599999999991
 20
6466.343127939779
 30
0.0
 11
4323.599999999997
 21
6186.343127939752
 31
0.0
  0
LINE
  5
2D9F7
330
747D
100
AcDbEntity
  8
細線
 48
50.0
100
AcDbLine
 10
4323.599999999991
 20
6364.84772722806
 30
0.0
 11
4425.095400711717
 21
6466.343127939779
 31
0.0
  0
LINE
  5
2D9F8
330
747D
100
AcDbEntity
  8
細線
 48
50.0
100
AcDbLine
 10
4323.599999999993
 20
6319.946446622712
 30
0.0
 11
4469.996681317059
 21
6466.343127939778
 31
0.0
  0
LINE
  5
2D9F9
330
747D
100
AcDbEntity
  8
細線
 48
50.0
100
AcDbLine
 10
4324.700523133071
 20
6186.343127939753
 30
0.0
 11
4523.599999999991
 21
6385.242604806673
 31
0.0
  0
LINE
  5
2D9FA
330
747D
100
AcDbEntity
  8
細線
 48
50.0
100
AcDbLine
 10
4369.601803738416
 20
6186.343127939753
 30
0.0
 11
4523.599999999993
 21
6340.341324201331
 31
0.0
  0
LINE
  5
2D9FB
330
747D
100
AcDbEntity
  8
細線
 48
50.0
100
AcDbLine
 10
4459.404364949108
 20
6186.343127939753
 30
0.0
 11
4523.599999999998
 21
6250.538762990646
 31
0.0
  0
LINE
  5
2D9FC
330
747D
100
AcDbEntity
  8
細線
 48
50.0
100
AcDbLine
 10
4414.503084343763
 20
6186.343127939753
 30
0.0
 11
4523.599999999998
 21
6295.44004359599
 31
0.0
  0
LINE
  5
2D9FD
330
747D
100
AcDbEntity
  8
細線
 48
50.0
100
AcDbLine
 10
4323.599999999994
 20
6275.04516601737
 30
0.0
 11
4514.897961922406
 21
6466.343127939779
 31
0.0
  0
LINE
  5
2D9FE
330
747D
100
AcDbEntity
  8
細線
 48
50.0
100
AcDbLine
 10
4323.599999999994
 20
6230.143885412024
 30
0.0
 11
4523.59999999999
 21
6430.143885412016
 31
0.0
  0
LINE
  5
2D9FF
330
747D
100
AcDbEntity
  8
細線
 48
50.0
100
AcDbLine
 10
5454.305645554455
 20
6186.343127939757
 30
0.0
 11
5473.600000000001
 21
6205.6374823853
 31
0.0
  0
LINE
  5
2DA00
330
747D
100
AcDbEntity
  8
部品1
 48
50.0
100
AcDbLine
 10
5473.599999999991
 20
6466.343127939781
 30
0.0
 11
5473.599999999997
 21
6186.343127939756
 31
0.0
  0
LINE
  5
2DA01
330
747D
100
AcDbEntity
  8
細線
 48
50.0
100
AcDbLine
 10
5273.599999999991
 20
6409.749007833403
 30
0.0
 11
5330.194120106368
 21
6466.343127939779
 31
0.0
  0
LINE
  5
2DA02
330
747D
100
AcDbEntity
  8
部品1
 48
50.0
100
AcDbLine
 10
5273.599999999991
 20
6466.343127939779
 30
0.0
 11
5273.599999999997
 21
6186.343127939752
 31
0.0
  0
LINE
  5
2DA03
330
747D
100
AcDbEntity
  8
細線
 48
50.0
100
AcDbLine
 10
5273.599999999991
 20
6364.84772722806
 30
0.0
 11
5375.095400711717
 21
6466.343127939779
 31
0.0
  0
LINE
  5
2DA04
330
747D
100
AcDbEntity
  8
細線
 48
50.0
100
AcDbLine
 10
5273.599999999993
 20
6319.946446622712
 30
0.0
 11
5419.996681317059
 21
6466.343127939778
 31
0.0
  0
LINE
  5
2DA05
330
747D
100
AcDbEntity
  8
細線
 48
50.0
100
AcDbLine
 10
5274.700523133072
 20
6186.343127939753
 30
0.0
 11
5473.599999999991
 21
6385.242604806673
 31
0.0
  0
LINE
  5
2DA06
330
747D
100
AcDbEntity
  8
細線
 48
50.0
100
AcDbLine
 10
5319.601803738416
 20
6186.343127939753
 30
0.0
 11
5473.599999999994
 21
6340.341324201331
 31
0.0
  0
LINE
  5
2DA07
330
747D
100
AcDbEntity
  8
細線
 48
50.0
100
AcDbLine
 10
5409.404364949108
 20
6186.343127939753
 30
0.0
 11
5473.599999999999
 21
6250.538762990646
 31
0.0
  0
LINE
  5
2DA08
330
747D
100
AcDbEntity
  8
細線
 48
50.0
100
AcDbLine
 10
5364.503084343763
 20
6186.343127939753
 30
0.0
 11
5473.599999999999
 21
6295.44004359599
 31
0.0
  0
LINE
  5
2DA09
330
747D
100
AcDbEntity
  8
細線
 48
50.0
100
AcDbLine
 10
5273.599999999994
 20
6275.04516601737
 30
0.0
 11
5464.897961922407
 21
6466.343127939779
 31
0.0
  0
LINE
  5
2DA0A
330
747D
100
AcDbEntity
  8
細線
 48
50.0
100
AcDbLine
 10
5273.599999999994
 20
6230.143885412024
 30
0.0
 11
5473.59999999999
 21
6430.143885412016
 31
0.0
  0
LINE
  5
2DA0B
330
747D
100
AcDbEntity
  8
細線
 48
50.0
100
AcDbLine
 10
6404.305645554456
 20
6186.343127939757
 30
0.0
 11
6423.6
 21
6205.6374823853
 31
0.0
  0
LINE
  5
2DA0C
330
747D
100
AcDbEntity
  8
部品1
 48
50.0
100
AcDbLine
 10
6423.599999999992
 20
6466.343127939781
 30
0.0
 11
6423.599999999996
 21
6186.343127939756
 31
0.0
  0
LINE
  5
2DA0D
330
747D
100
AcDbEntity
  8
細線
 48
50.0
100
AcDbLine
 10
6223.599999999991
 20
6409.749007833403
 30
0.0
 11
6280.194120106368
 21
6466.343127939779
 31
0.0
  0
LINE
  5
2DA0E
330
747D
100
AcDbEntity
  8
部品1
 48
50.0
100
AcDbLine
 10
6223.59999999999
 20
6466.343127939779
 30
0.0
 11
6223.599999999997
 21
6186.343127939752
 31
0.0
  0
LINE
  5
2DA0F
330
747D
100
AcDbEntity
  8
細線
 48
50.0
100
AcDbLine
 10
6223.599999999991
 20
6364.84772722806
 30
0.0
 11
6325.095400711718
 21
6466.343127939779
 31
0.0
  0
LINE
  5
2DA10
330
747D
100
AcDbEntity
  8
細線
 48
50.0
100
AcDbLine
 10
6223.599999999994
 20
6319.946446622712
 30
0.0
 11
6369.99668131706
 21
6466.343127939778
 31
0.0
  0
LINE
  5
2DA11
330
747D
100
AcDbEntity
  8
細線
 48
50.0
100
AcDbLine
 10
6224.700523133072
 20
6186.343127939753
 30
0.0
 11
6423.599999999992
 21
6385.242604806673
 31
0.0
  0
LINE
  5
2DA12
330
747D
100
AcDbEntity
  8
細線
 48
50.0
100
AcDbLine
 10
6269.601803738416
 20
6186.343127939753
 30
0.0
 11
6423.599999999993
 21
6340.341324201331
 31
0.0
  0
LINE
  5
2DA13
330
747D
100
AcDbEntity
  8
細線
 48
50.0
100
AcDbLine
 10
6359.404364949109
 20
6186.343127939753
 30
0.0
 11
6423.599999999999
 21
6250.538762990646
 31
0.0
  0
LINE
  5
2DA14
330
747D
100
AcDbEntity
  8
細線
 48
50.0
100
AcDbLine
 10
6314.503084343764
 20
6186.343127939753
 30
0.0
 11
6423.599999999999
 21
6295.44004359599
 31
0.0
  0
LINE
  5
2DA15
330
747D
100
AcDbEntity
  8
細線
 48
50.0
100
AcDbLine
 10
6223.599999999994
 20
6275.04516601737
 30
0.0
 11
6414.897961922406
 21
6466.343127939779
 31
0.0
  0
LINE
  5
2DA16
330
747D
100
AcDbEntity
  8
細線
 48
50.0
100
AcDbLine
 10
6223.599999999994
 20
6230.143885412024
 30
0.0
 11
6423.599999999989
 21
6430.143885412016
 31
0.0
  0
LINE
  5
2DA17
330
747D
100
AcDbEntity
  8
細線
 48
50.0
100
AcDbLine
 10
7354.305645554456
 20
6186.343127939757
 30
0.0
 11
7373.6
 21
6205.6374823853
 31
0.0
  0
LINE
  5
2DA18
330
747D
100
AcDbEntity
  8
部品1
 48
50.0
100
AcDbLine
 10
7373.599999999992
 20
6466.343127939781
 30
0.0
 11
7373.599999999997
 21
6186.343127939756
 31
0.0
  0
LINE
  5
2DA19
330
747D
100
AcDbEntity
  8
細線
 48
50.0
100
AcDbLine
 10
7173.599999999992
 20
6409.749007833403
 30
0.0
 11
7230.194120106367
 21
6466.343127939779
 31
0.0
  0
LINE
  5
2DA1A
330
747D
100
AcDbEntity
  8
部品1
 48
50.0
100
AcDbLine
 10
7173.59999999999
 20
6466.343127939779
 30
0.0
 11
7173.599999999997
 21
6186.343127939752
 31
0.0
  0
LINE
  5
2DA1B
330
747D
100
AcDbEntity
  8
細線
 48
50.0
100
AcDbLine
 10
7173.599999999992
 20
6364.84772722806
 30
0.0
 11
7275.095400711719
 21
6466.343127939779
 31
0.0
  0
LINE
  5
2DA1C
330
747D
100
AcDbEntity
  8
細線
 48
50.0
100
AcDbLine
 10
7173.599999999993
 20
6319.946446622712
 30
0.0
 11
7319.996681317059
 21
6466.343127939778
 31
0.0
  0
LINE
  5
2DA1D
330
747D
100
AcDbEntity
  8
細線
 48
50.0
100
AcDbLine
 10
7174.700523133072
 20
6186.343127939753
 30
0.0
 11
7373.599999999992
 21
6385.242604806673
 31
0.0
  0
LINE
  5
2DA1E
330
747D
100
AcDbEntity
  8
細線
 48
50.0
100
AcDbLine
 10
7219.601803738417
 20
6186.343127939753
 30
0.0
 11
7373.599999999993
 21
6340.341324201331
 31
0.0
  0
LINE
  5
2DA1F
330
747D
100
AcDbEntity
  8
細線
 48
50.0
100
AcDbLine
 10
7309.404364949108
 20
6186.343127939753
 30
0.0
 11
7373.599999999999
 21
6250.538762990646
 31
0.0
  0
LINE
  5
2DA20
330
747D
100
AcDbEntity
  8
細線
 48
50.0
100
AcDbLine
 10
7264.503084343764
 20
6186.343127939753
 30
0.0
 11
7373.599999999999
 21
6295.44004359599
 31
0.0
  0
LINE
  5
2DA21
330
747D
100
AcDbEntity
  8
細線
 48
50.0
100
AcDbLine
 10
7173.599999999995
 20
6275.04516601737
 30
0.0
 11
7364.897961922406
 21
6466.343127939779
 31
0.0
  0
LINE
  5
2DA22
330
747D
100
AcDbEntity
  8
細線
 48
50.0
100
AcDbLine
 10
7173.599999999995
 20
6230.143885412024
 30
0.0
 11
7373.599999999989
 21
6430.143885412016
 31
0.0
  0
LINE
  5
2DA23
330
747D
100
AcDbEntity
  8
細線
 48
50.0
100
AcDbLine
 10
8304.305645554455
 20
6186.343127939757
 30
0.0
 11
8323.6
 21
6205.6374823853
 31
0.0
  0
LINE
  5
2DA24
330
747D
100
AcDbEntity
  8
部品1
 48
50.0
100
AcDbLine
 10
8323.599999999991
 20
6466.343127939781
 30
0.0
 11
8323.599999999997
 21
6186.343127939756
 31
0.0
  0
LINE
  5
2DA25
330
747D
100
AcDbEntity
  8
細線
 48
50.0
100
AcDbLine
 10
8123.599999999992
 20
6409.749007833403
 30
0.0
 11
8180.194120106367
 21
6466.343127939779
 31
0.0
  0
LINE
  5
2DA26
330
747D
100
AcDbEntity
  8
部品1
 48
50.0
100
AcDbLine
 10
8123.59999999999
 20
6466.343127939779
 30
0.0
 11
8123.599999999997
 21
6186.343127939752
 31
0.0
  0
LINE
  5
2DA27
330
747D
100
AcDbEntity
  8
細線
 48
50.0
100
AcDbLine
 10
8123.599999999992
 20
6364.84772722806
 30
0.0
 11
8225.095400711719
 21
6466.343127939779
 31
0.0
  0
LINE
  5
2DA28
330
747D
100
AcDbEntity
  8
細線
 48
50.0
100
AcDbLine
 10
8123.599999999994
 20
6319.946446622712
 30
0.0
 11
8269.996681317058
 21
6466.343127939778
 31
0.0
  0
LINE
  5
2DA29
330
747D
100
AcDbEntity
  8
細線
 48
50.0
100
AcDbLine
 10
8124.700523133071
 20
6186.343127939753
 30
0.0
 11
8323.599999999991
 21
6385.242604806673
 31
0.0
  0
LINE
  5
2DA2A
330
747D
100
AcDbEntity
  8
細線
 48
50.0
100
AcDbLine
 10
8169.601803738416
 20
6186.343127939753
 30
0.0
 11
8323.599999999993
 21
6340.341324201331
 31
0.0
  0
LINE
  5
2DA2B
330
747D
100
AcDbEntity
  8
細線
 48
50.0
100
AcDbLine
 10
8259.404364949109
 20
6186.343127939753
 30
0.0
 11
8323.599999999998
 21
6250.538762990646
 31
0.0
  0
LINE
  5
2DA2C
330
747D
100
AcDbEntity
  8
細線
 48
50.0
100
AcDbLine
 10
8214.503084343764
 20
6186.343127939753
 30
0.0
 11
8323.599999999998
 21
6295.44004359599
 31
0.0
  0
LINE
  5
2DA2D
330
747D
100
AcDbEntity
  8
細線
 48
50.0
100
AcDbLine
 10
8123.599999999994
 20
6275.04516601737
 30
0.0
 11
8314.897961922406
 21
6466.343127939779
 31
0.0
  0
LINE
  5
2DA2E
330
747D
100
AcDbEntity
  8
細線
 48
50.0
100
AcDbLine
 10
8123.599999999994
 20
6230.143885412024
 30
0.0
 11
8323.59999999999
 21
6430.143885412016
 31
0.0
  0
LINE
  5
2DA2F
330
747D
100
AcDbEntity
  8
細線
 48
50.0
100
AcDbLine
 10
11064.50308434376
 20
6186.343127939753
 30
0.0
 11
11173.6
 21
6295.44004359599
 31
0.0
  0
LINE
  5
2DA30
330
747D
100
AcDbEntity
  8
細線
 48
50.0
100
AcDbLine
 10
11109.40436494911
 20
6186.343127939753
 30
0.0
 11
11173.6
 21
6250.538762990646
 31
0.0
  0
LINE
  5
2DA31
330
747D
100
AcDbEntity
  8
細線
 48
50.0
100
AcDbLine
 10
11154.30564555445
 20
6186.343127939757
 30
0.0
 11
11173.6
 21
6205.6374823853
 31
0.0
  0
LINE
  5
2DA32
330
747D
100
AcDbEntity
  8
部品1
 48
50.0
100
AcDbLine
 10
11173.59999999999
 20
6466.343127939805
 30
0.0
 11
11173.59999999999
 21
6186.343127939756
 31
0.0
  0
LINE
  5
2DA33
330
747D
100
AcDbEntity
  8
細線
 48
50.0
100
AcDbLine
 10
10973.59999999999
 20
6409.749007833403
 30
0.0
 11
11030.19412010639
 21
6466.343127939805
 31
0.0
  0
LINE
  5
2DA34
330
747D
100
AcDbEntity
  8
部品1
 48
50.0
100
AcDbLine
 10
10973.59999999999
 20
6466.343127939804
 30
0.0
 11
10973.59999999999
 21
6186.343127939752
 31
0.0
  0
LINE
  5
2DA35
330
747D
100
AcDbEntity
  8
細線
 48
50.0
100
AcDbLine
 10
10973.59999999999
 20
6230.143885412024
 30
0.0
 11
11173.59999999999
 21
6430.143885412016
 31
0.0
  0
LINE
  5
2DA36
330
747D
100
AcDbEntity
  8
細線
 48
50.0
100
AcDbLine
 10
10973.59999999999
 20
6275.04516601737
 30
0.0
 11
11164.89796192243
 21
6466.343127939805
 31
0.0
  0
LINE
  5
2DA37
330
747D
100
AcDbEntity
  8
細線
 48
50.0
100
AcDbLine
 10
11019.60180373841
 20
6186.343127939753
 30
0.0
 11
11173.59999999999
 21
6340.341324201331
 31
0.0
  0
LINE
  5
2DA38
330
747D
100
AcDbEntity
  8
細線
 48
50.0
100
AcDbLine
 10
10974.70052313307
 20
6186.343127939753
 30
0.0
 11
11173.59999999999
 21
6385.242604806673
 31
0.0
  0
LINE
  5
2DA39
330
747D
100
AcDbEntity
  8
細線
 48
50.0
100
AcDbLine
 10
10973.59999999999
 20
6319.946446622712
 30
0.0
 11
11119.99668131708
 21
6466.343127939804
 31
0.0
  0
LINE
  5
2DA3A
330
747D
100
AcDbEntity
  8
細線
 48
50.0
100
AcDbLine
 10
10973.59999999999
 20
6364.84772722806
 30
0.0
 11
11075.09540071174
 21
6466.343127939805
 31
0.0
  0
LINE
  5
2DA3B
330
747D
100
AcDbEntity
  8
細線
 48
50.0
100
AcDbLine
 10
12014.50308434376
 20
6186.343127939753
 30
0.0
 11
12123.6
 21
6295.44004359599
 31
0.0
  0
LINE
  5
2DA3C
330
747D
100
AcDbEntity
  8
細線
 48
50.0
100
AcDbLine
 10
12059.40436494911
 20
6186.343127939753
 30
0.0
 11
12123.6
 21
6250.538762990646
 31
0.0
  0
LINE
  5
2DA3D
330
747D
100
AcDbEntity
  8
細線
 48
50.0
100
AcDbLine
 10
12104.30564555445
 20
6186.343127939757
 30
0.0
 11
12123.6
 21
6205.6374823853
 31
0.0
  0
LINE
  5
2DA3E
330
747D
100
AcDbEntity
  8
部品1
 48
50.0
100
AcDbLine
 10
12123.59999999999
 20
6466.343127939805
 30
0.0
 11
12123.59999999999
 21
6186.343127939756
 31
0.0
  0
LINE
  5
2DA3F
330
747D
100
AcDbEntity
  8
細線
 48
50.0
100
AcDbLine
 10
11923.59999999999
 20
6409.749007833403
 30
0.0
 11
11980.19412010639
 21
6466.343127939805
 31
0.0
  0
LINE
  5
2DA40
330
747D
100
AcDbEntity
  8
部品1
 48
50.0
100
AcDbLine
 10
11923.59999999999
 20
6466.343127939804
 30
0.0
 11
11923.59999999999
 21
6186.343127939752
 31
0.0
  0
LINE
  5
2DA41
330
747D
100
AcDbEntity
  8
細線
 48
50.0
100
AcDbLine
 10
11923.59999999999
 20
6230.143885412024
 30
0.0
 11
12123.59999999999
 21
6430.143885412016
 31
0.0
  0
LINE
  5
2DA42
330
747D
100
AcDbEntity
  8
細線
 48
50.0
100
AcDbLine
 10
11923.59999999999
 20
6275.04516601737
 30
0.0
 11
12114.89796192243
 21
6466.343127939805
 31
0.0
  0
LINE
  5
2DA43
330
747D
100
AcDbEntity
  8
細線
 48
50.0
100
AcDbLine
 10
11969.60180373841
 20
6186.343127939753
 30
0.0
 11
12123.59999999999
 21
6340.341324201331
 31
0.0
  0
LINE
  5
2DA44
330
747D
100
AcDbEntity
  8
細線
 48
50.0
100
AcDbLine
 10
11924.70052313307
 20
6186.343127939753
 30
0.0
 11
12123.59999999999
 21
6385.242604806673
 31
0.0
  0
LINE
  5
2DA45
330
747D
100
AcDbEntity
  8
細線
 48
50.0
100
AcDbLine
 10
11923.59999999999
 20
6319.946446622712
 30
0.0
 11
12069.99668131708
 21
6466.343127939804
 31
0.0
  0
LINE
  5
2DA46
330
747D
100
AcDbEntity
  8
細線
 48
50.0
100
AcDbLine
 10
11923.59999999999
 20
6364.84772722806
 30
0.0
 11
12025.09540071174
 21
6466.343127939805
 31
0.0
  0
LINE
  5
2DA47
330
747D
100
AcDbEntity
  8
細線
 48
50.0
100
AcDbLine
 10
12964.50308434376
 20
6186.343127939753
 30
0.0
 11
13073.6
 21
6295.44004359599
 31
0.0
  0
LINE
  5
2DA48
330
747D
100
AcDbEntity
  8
細線
 48
50.0
100
AcDbLine
 10
13009.40436494911
 20
6186.343127939753
 30
0.0
 11
13073.6
 21
6250.538762990646
 31
0.0
  0
LINE
  5
2DA49
330
747D
100
AcDbEntity
  8
細線
 48
50.0
100
AcDbLine
 10
13054.30564555445
 20
6186.343127939757
 30
0.0
 11
13073.6
 21
6205.6374823853
 31
0.0
  0
LINE
  5
2DA4A
330
747D
100
AcDbEntity
  8
部品1
 48
50.0
100
AcDbLine
 10
13073.59999999999
 20
6466.343127939805
 30
0.0
 11
13073.59999999999
 21
6186.343127939756
 31
0.0
  0
LINE
  5
2DA4B
330
747D
100
AcDbEntity
  8
細線
 48
50.0
100
AcDbLine
 10
12873.59999999999
 20
6409.749007833403
 30
0.0
 11
12930.19412010639
 21
6466.343127939805
 31
0.0
  0
LINE
  5
2DA4C
330
747D
100
AcDbEntity
  8
部品1
 48
50.0
100
AcDbLine
 10
12873.59999999999
 20
6466.343127939804
 30
0.0
 11
12873.6
 21
6186.343127939752
 31
0.0
  0
LINE
  5
2DA4D
330
747D
100
AcDbEntity
  8
細線
 48
50.0
100
AcDbLine
 10
12873.6
 20
6230.143885412024
 30
0.0
 11
13073.59999999999
 21
6430.143885412016
 31
0.0
  0
LINE
  5
2DA4E
330
747D
100
AcDbEntity
  8
細線
 48
50.0
100
AcDbLine
 10
12873.59999999999
 20
6275.04516601737
 30
0.0
 11
13064.89796192243
 21
6466.343127939805
 31
0.0
  0
LINE
  5
2DA4F
330
747D
100
AcDbEntity
  8
細線
 48
50.0
100
AcDbLine
 10
12919.60180373841
 20
6186.343127939753
 30
0.0
 11
13073.59999999999
 21
6340.341324201331
 31
0.0
  0
LINE
  5
2DA50
330
747D
100
AcDbEntity
  8
細線
 48
50.0
100
AcDbLine
 10
12874.70052313307
 20
6186.343127939753
 30
0.0
 11
13073.59999999999
 21
6385.242604806673
 31
0.0
  0
LINE
  5
2DA51
330
747D
100
AcDbEntity
  8
細線
 48
50.0
100
AcDbLine
 10
12873.59999999999
 20
6319.946446622712
 30
0.0
 11
13019.99668131708
 21
6466.343127939804
 31
0.0
  0
LINE
  5
2DA52
330
747D
100
AcDbEntity
  8
細線
 48
50.0
100
AcDbLine
 10
12873.59999999999
 20
6364.84772722806
 30
0.0
 11
12975.09540071174
 21
6466.343127939805
 31
0.0
  0
LINE
  5
2DAEF
330
747D
100
AcDbEntity
  8
部品1
 48
50.0
100
AcDbLine
 10
13333.59999999999
 20
6466.343127939817
 30
0.0
 11
13333.59999999999
 21
7366.343127939782
 31
0.0
  0
LINE
  5
2DAF0
330
747D
100
AcDbEntity
  8
部品1
 48
50.0
100
AcDbLine
 10
3113.600000000003
 20
6466.343127939777
 30
0.0
 11
3113.599999999999
 21
7366.343127939782
 31
0.0
  0
MTEXT
  5
2DFB8
102
{ACAD_REACTORS
330
2DFB9
102
}
330
747D
100
AcDbEntity
  8
寸法
 62
     7
 48
50.0
100
AcDbMText
 10
10569.30439162722
 20
2232.082746630055
 30
0.0
 40
120.0
 41
0.8
 71
     4
 72
     1
  1
\A1;C.B
  7
STYLE1
 73
     1
 44
1.0
1001
ACAD
1000
MTEXTBEGIN
1070
    73
1070
     1
1070
    44
1040
1.0
1070
    74
1070
     0
1000
MTEXTEND
  0
LEADER
  5
2DFB9
330
747D
100
AcDbEntity
  8
寸法
 48
50.0
100
AcDbLeader
  3
INABA_S50G
 73
     0
 74
     0
 75
     1
 40
120.0
 41
185.591883092037
 76
     3
 10
10386.16618499357
 20
1974.936425948918
 30
0.0
 10
10419.30439162722
 20
2147.082746630055
 30
0.0
 10
10544.30439162722
 20
2147.082746630055
 30
0.0
340
2DFB8
1001
ACAD
1000
DSTYLE
1002
{
1070
    40
1040
1.0
1002
}
  0
LINE
  5
2DFBA
330
747D
100
AcDbEntity
  8
細線
 48
50.0
100
AcDbLine
 10
10531.81959856998
 20
1619.237510295566
 30
0.0
 11
10525.38881795164
 21
1643.237510295566
 31
0.0
  0
LINE
  5
2DFBB
330
747D
100
AcDbEntity
  8
細線
 48
50.0
100
AcDbLine
 10
10510.38366317549
 20
1539.237510295566
 30
0.0
 11
10516.81444379384
 21
1515.237510295566
 31
0.0
  0
LINE
  5
2DFBC
330
747D
100
AcDbEntity
  8
部品1
100
AcDbLine
 10
10575.44177337765
 20
1734.936425948917
 30
0.0
 11
10575.44177337765
 21
1515.237510295567
 31
0.0
  0
LINE
  5
2DFBD
330
747D
100
AcDbEntity
  8
細線
 48
50.0
100
AcDbLine
 10
10503.95288255714
 20
1515.237510295566
 30
0.0
 11
10538.25037918833
 21
1643.237510295565
 31
0.0
  0
LINE
  5
2DFBE
330
747D
100
AcDbEntity
  8
細線
 48
50.0
100
AcDbLine
 10
10452.93155362274
 20
1619.237510295566
 30
0.0
 11
10446.50077300439
 21
1643.237510295566
 31
0.0
  0
LINE
  5
2DFBF
330
747D
100
AcDbEntity
  8
細線
100
AcDbLine
 10
10328.47816787698
 20
1643.237510295569
 30
0.0
 11
10420.17708353033
 21
1734.936425948917
 31
0.0
  0
LINE
  5
2DFC0
330
747D
100
AcDbEntity
  8
細線
 48
50.0
100
AcDbLine
 10
10374.04350867548
 20
1619.237510295567
 30
0.0
 11
10367.61272805713
 21
1643.237510295567
 31
0.0
  0
LINE
  5
2DFC1
330
747D
100
AcDbEntity
  8
細線
100
AcDbLine
 10
10362.41929337394
 20
1643.237510295569
 30
0.0
 11
10454.11820902728
 21
1734.936425948917
 31
0.0
  0
LINE
  5
2DFC2
330
747D
100
AcDbEntity
  8
細線
 48
50.0
100
AcDbLine
 10
10137.37937383375
 20
1619.237510295567
 30
0.0
 11
10130.9485932154
 21
1643.237510295567
 31
0.0
  0
LINE
  5
2DFC3
330
747D
100
AcDbEntity
  8
細線
 48
50.0
100
AcDbLine
 10
10216.267418781
 20
1619.237510295567
 30
0.0
 11
10209.83663816265
 21
1643.237510295567
 31
0.0
  0
LINE
  5
2DFC4
330
747D
100
AcDbEntity
  8
細線
 48
50.0
100
AcDbLine
 10
10295.15546372824
 20
1619.237510295567
 30
0.0
 11
10288.72468310989
 21
1643.237510295567
 31
0.0
  0
LINE
  5
2DFC5
330
747D
100
AcDbEntity
  8
細線
 48
50.0
100
AcDbLine
 10
10431.49561822825
 20
1539.237510295566
 30
0.0
 11
10437.92639884659
 21
1515.237510295566
 31
0.0
  0
LINE
  5
2DFC6
330
747D
100
AcDbEntity
  8
細線
 48
50.0
100
AcDbLine
 10
10352.607573281
 20
1539.237510295567
 30
0.0
 11
10359.03835389936
 21
1515.237510295567
 31
0.0
  0
LINE
  5
2DFC7
330
747D
100
AcDbEntity
  8
細線
 48
50.0
100
AcDbLine
 10
10194.83148338651
 20
1539.237510295567
 30
0.0
 11
10201.26226400485
 21
1515.237510295567
 31
0.0
  0
LINE
  5
2DFC8
330
747D
100
AcDbEntity
  8
細線
 48
50.0
100
AcDbLine
 10
10273.71952833375
 20
1539.237510295567
 30
0.0
 11
10280.1503089521
 21
1515.237510295567
 31
0.0
  0
LINE
  5
2DFC9
330
747D
100
AcDbEntity
  8
細線
 48
50.0
100
AcDbLine
 10
10267.2887477154
 20
1515.237510295567
 30
0.0
 11
10301.58624434659
 21
1643.237510295566
 31
0.0
  0
LINE
  5
2DFCA
330
747D
100
AcDbEntity
  8
細線
 48
50.0
100
AcDbLine
 10
10188.40070276816
 20
1515.237510295566
 30
0.0
 11
10222.69819939934
 21
1643.237510295566
 31
0.0
  0
LINE
  5
2DFCB
330
747D
100
AcDbEntity
  8
細線
 48
50.0
100
AcDbLine
 10
10346.17679266265
 20
1515.237510295566
 30
0.0
 11
10380.47428929382
 21
1643.237510295567
 31
0.0
  0
LINE
  5
2DFCC
330
747D
100
AcDbEntity
  8
細線
100
AcDbLine
 10
10396.36041887089
 20
1643.237510295569
 30
0.0
 11
10488.05933452424
 21
1734.936425948917
 31
0.0
  0
LINE
  5
2DFCD
330
747D
100
AcDbEntity
  8
細線
 48
50.0
100
AcDbLine
 10
10425.0648376099
 20
1515.237510295565
 30
0.0
 11
10459.36233424108
 21
1643.237510295565
 31
0.0
  0
LINE
  5
2DFCE
330
747D
100
AcDbEntity
  8
部品1
100
AcDbLine
 10
10455.44177337765
 20
1974.936425948918
 30
0.0
 11
10455.44177337765
 21
1734.936425948917
 31
0.0
  0
LINE
  5
2DFCF
330
747D
100
AcDbEntity
  8
細線
100
AcDbLine
 10
10441.60411103007
 20
1734.936425948919
 30
0.0
 11
10201.60411103007
 21
1974.936425948918
 31
0.0
  0
LINE
  5
2DFD0
330
747D
100
AcDbEntity
  8
細線
100
AcDbLine
 10
10390.69242278464
 20
1734.936425948917
 30
0.0
 11
10150.69242278464
 21
1974.936425948918
 31
0.0
  0
LINE
  5
2DFD1
330
747D
100
AcDbEntity
  8
細線
100
AcDbLine
 10
10002.41929337394
 20
1643.237510295567
 30
0.0
 11
10094.11820902728
 21
1734.936425948917
 31
0.0
  0
LINE
  5
2DFD2
330
747D
100
AcDbEntity
  8
細線
100
AcDbLine
 10
9968.47816787698
 20
1643.237510295567
 30
0.0
 11
10060.17708353033
 21
1734.936425948917
 31
0.0
  0
LINE
  5
2DFD3
330
747D
100
AcDbEntity
  8
細線
 48
50.0
100
AcDbLine
 10
9979.603283939255
 20
1619.237510295567
 30
0.0
 11
9973.172503320908
 21
1643.237510295567
 31
0.0
  0
LINE
  5
2DFD4
330
747D
100
AcDbEntity
  8
細線
 48
50.0
100
AcDbLine
 10
10058.4913288865
 20
1619.237510295567
 30
0.0
 11
10052.06054826816
 21
1643.237510295567
 31
0.0
  0
LINE
  5
2DFD5
330
747D
100
AcDbEntity
  8
細線
 48
50.0
100
AcDbLine
 10
9900.715238992004
 20
1619.237510295567
 30
0.0
 11
9894.284458373656
 21
1643.237510295567
 31
0.0
  0
LINE
  5
2DFD6
330
747D
100
AcDbEntity
  8
細線
 48
50.0
100
AcDbLine
 10
10115.94343843926
 20
1539.237510295567
 30
0.0
 11
10122.37421905761
 21
1515.237510295567
 31
0.0
  0
LINE
  5
2DFD7
330
747D
100
AcDbEntity
  8
細線
 48
50.0
100
AcDbLine
 10
10037.05539349202
 20
1539.237510295567
 30
0.0
 11
10043.48617411036
 21
1515.237510295567
 31
0.0
  0
LINE
  5
2DFD8
330
747D
100
AcDbEntity
  8
細線
 48
50.0
100
AcDbLine
 10
9879.279303597513
 20
1539.237510295567
 30
0.0
 11
9885.710084215862
 21
1515.237510295567
 31
0.0
  0
LINE
  5
2DFD9
330
747D
100
AcDbEntity
  8
細線
 48
50.0
100
AcDbLine
 10
9958.167348544765
 20
1539.237510295567
 30
0.0
 11
9964.598129163114
 21
1515.237510295567
 31
0.0
  0
LINE
  5
2DFDA
330
747D
100
AcDbEntity
  8
部品1
100
AcDbLine
 10
9855.441773377654
 20
1515.237510295564
 30
0.0
 11
9855.441773377654
 21
1734.936425948917
 31
0.0
  0
LINE
  5
2DFDB
330
747D
100
AcDbEntity
  8
細線
 48
50.0
100
AcDbLine
 10
9872.848522979166
 20
1515.237510295567
 30
0.0
 11
9907.146019610351
 21
1643.237510295567
 31
0.0
  0
LINE
  5
2DFDC
330
747D
100
AcDbEntity
  8
細線
 48
50.0
100
AcDbLine
 10
10030.62461287366
 20
1515.237510295567
 30
0.0
 11
10064.92210950485
 21
1643.237510295567
 31
0.0
  0
LINE
  5
2DFDD
330
747D
100
AcDbEntity
  8
細線
 48
50.0
100
AcDbLine
 10
9951.736567926413
 20
1515.237510295566
 30
0.0
 11
9986.034064557596
 21
1643.237510295566
 31
0.0
  0
LINE
  5
2DFDE
330
747D
100
AcDbEntity
  8
部品1
100
AcDbLine
 10
9975.441773377653
 20
1734.936425948917
 30
0.0
 11
9975.441773377653
 21
1974.936425948918
 31
0.0
  0
TEXT
  5
2DFDF
330
747D
100
AcDbEntity
  8
部品1
 48
50.0
100
AcDbText
 10
9211.323686619151
 20
1468.136685311609
 30
0.0
 40
80.0
  1
ボルトの出
 50
90.0
  7
STYLE2
100
AcDbText
  0
LINE
  5
2DFE0
330
747D
100
AcDbEntity
  8
細線
100
AcDbLine
 10
10119.163418809
 20
1734.936425948917
 30
0.0
 11
9975.441773377653
 21
1878.658071380271
 31
0.0
  0
LWPOLYLINE
  5
2DFE1
330
747D
100
AcDbEntity
  8
部品1
 48
50.0
100
AcDbPolyline
 90
        2
 70
     0
 43
12.0
 10
9590.830511277266
 20
1734.936425948917
 10
10791.92281440889
 20
1734.936425948917
  0
LINE
  5
2DFE2
330
747D
100
AcDbEntity
  8
細線
100
AcDbLine
 10
10036.36041887089
 20
1643.237510295567
 30
0.0
 11
10128.05933452424
 21
1734.936425948917
 31
0.0
  0
LINE
  5
2DFE3
330
747D
100
AcDbEntity
  8
部品1
100
AcDbLine
 10
9855.441773377654
 20
1643.237510295567
 30
0.0
 11
10575.44177337765
 21
1643.23751029557
 31
0.0
  0
LINE
  5
2DFE4
330
747D
100
AcDbEntity
  8
部品1
100
AcDbLine
 10
9855.441773377654
 20
1515.237510295564
 30
0.0
 11
10575.44177337765
 21
1515.237510295567
 31
0.0
  0
LINE
  5
2DFE5
330
747D
100
AcDbEntity
  8
細線
 48
50.0
100
AcDbLine
 10
10109.51265782091
 20
1515.237510295567
 30
0.0
 11
10143.81015445209
 21
1643.237510295566
 31
0.0
  0
LINE
  5
2DFE6
330
747D
100
AcDbEntity
  8
部品1
100
AcDbLine
 10
9975.441773377653
 20
1974.936425948918
 30
0.0
 11
10455.44177337765
 21
1974.936425948918
 31
0.0
  0
LINE
  5
2DFE7
330
747D
100
AcDbEntity
  8
細線
100
AcDbLine
 10
10170.07510705443
 20
1734.936425948917
 30
0.0
 11
9975.441773377653
 21
1929.569759625701
 31
0.0
  0
LINE
  5
2DFE8
330
747D
100
AcDbEntity
  8
部品1
100
AcDbLine
 10
11162.18327447468
 20
409.9681235648558
 30
0.0
 11
11162.18327447469
 21
3374.275093149503
 31
0.0
  0
TEXT
  5
2DFE9
330
747D
100
AcDbEntity
  8
部品1
100
AcDbText
 10
7784.078090266827
 20
3194.723161198075
 30
0.0
 40
120.0
  1
基礎詳細
  7
STYLE2
100
AcDbText
  0
LINE
  5
2DFEA
330
747D
100
AcDbEntity
  8
部品1
 48
50.0
100
AcDbLine
 10
8099.305841074896
 20
2373.81170705806
 30
0.0
 11
8115.305841074897
 21
2365.81170705806
 31
0.0
  0
LINE
  5
2DFEB
330
747D
100
AcDbEntity
  8
細線
 48
50.0
100
AcDbLine
 10
8067.305841074896
 20
2325.81170705806
 30
0.0
 11
8067.305841074896
 21
2357.81170705806
 31
0.0
  0
LINE
  5
2DFEC
330
747D
100
AcDbEntity
  8
部品1
 48
50.0
100
AcDbLine
 10
8115.305841074897
 20
2333.81170705806
 30
0.0
 11
8115.305841074897
 21
2365.81170705806
 31
0.0
  0
LINE
  5
2DFED
330
747D
100
AcDbEntity
  8
細線
 48
50.0
100
AcDbLine
 10
8099.305841074896
 20
2325.81170705806
 30
0.0
 11
8099.305841074896
 21
2357.81170705806
 31
0.0
  0
LINE
  5
2DFEE
330
747D
100
AcDbEntity
  8
部品1
 48
50.0
100
AcDbLine
 10
8099.305841074896
 20
2357.81170705806
 30
0.0
 11
8115.305841074897
 21
2365.81170705806
 31
0.0
  0
LINE
  5
2DFEF
330
747D
100
AcDbEntity
  8
部品1
 48
50.0
100
AcDbLine
 10
8067.305841074896
 20
2357.81170705806
 30
0.0
 11
8099.305841074896
 21
2357.81170705806
 31
0.0
  0
LINE
  5
2DFF0
330
747D
100
AcDbEntity
  8
部品1
 48
50.0
100
AcDbLine
 10
8099.305841074896
 20
2325.81170705806
 30
0.0
 11
8115.305841074897
 21
2333.81170705806
 31
0.0
  0
LINE
  5
2DFF1
330
747D
100
AcDbEntity
  8
部品1
 48
50.0
100
AcDbLine
 10
8067.305841074896
 20
2325.81170705806
 30
0.0
 11
8099.305841074896
 21
2325.81170705806
 31
0.0
  0
ELLIPSE
  5
2DFF2
330
747D
100
AcDbEntity
  8
細線
 48
50.0
100
AcDbEllipse
 10
8083.305841074896
 20
2365.81170705806
 30
0.0
 11
14.76670786606846
 21
0.0
 31
0.0
210
0.0
220
0.0
230
1.0
 40
0.2071254069489396
 41
0.0
 42
6.283185307179586
  0
LINE
  5
2DFF3
330
747D
100
AcDbEntity
  8
部品1
 48
50.0
100
AcDbLine
 10
8067.305841074896
 20
2373.81170705806
 30
0.0
 11
8099.305841074896
 21
2373.81170705806
 31
0.0
  0
LINE
  5
2DFF4
330
747D
100
AcDbEntity
  8
部品1
 48
50.0
100
AcDbLine
 10
8051.305841074897
 20
2333.81170705806
 30
0.0
 11
8051.305841074897
 21
2365.81170705806
 31
0.0
  0
LINE
  5
2DFF5
330
747D
100
AcDbEntity
  8
部品1
 48
50.0
100
AcDbLine
 10
8051.305841074897
 20
2365.81170705806
 30
0.0
 11
8067.305841074896
 21
2373.81170705806
 31
0.0
  0
LINE
  5
2DFF6
330
747D
100
AcDbEntity
  8
部品1
 48
50.0
100
AcDbLine
 10
8051.305841074897
 20
2333.81170705806
 30
0.0
 11
8067.305841074896
 21
2325.81170705806
 31
0.0
  0
LINE
  5
2DFF7
330
747D
100
AcDbEntity
  8
部品1
 48
50.0
100
AcDbLine
 10
8051.305841074897
 20
2365.81170705806
 30
0.0
 11
8067.305841074896
 21
2357.81170705806
 31
0.0
  0
LINE
  5
2DFF8
330
747D
100
AcDbEntity
  8
部品1
 48
50.0
100
AcDbLine
 10
8123.305841074897
 20
2234.45971439319
 30
0.0
 11
8123.305841074897
 21
2244.05971439319
 31
0.0
  0
ELLIPSE
  5
2DFF9
330
747D
100
AcDbEntity
  8
部品1
 48
50.0
100
AcDbEllipse
 10
8083.305841074896
 20
2244.05971439319
 30
0.0
 11
18.4
 21
0.0
 31
0.0
210
0.0
220
0.0
230
1.0
 40
0.3478260869565217
 41
0.0
 42
6.283185307179586
  0
ARC
  5
2DFFA
330
747D
100
AcDbEntity
  8
部品1
100
AcDbCircle
 10
7922.205841074895
 20
2073.036425948918
 30
0.0
 40
2.7
100
AcDbArc
 50
90.0
 51
180.0
  0
LINE
  5
2DFFB
330
747D
100
AcDbEntity
  8
部品1
100
AcDbLine
 10
7924.905841074894
 20
2086.536425948918
 30
0.0
 11
7967.205841074896
 21
2086.536425948914
 31
0.0
  0
LINE
  5
2DFFC
330
747D
100
AcDbEntity
  8
部品1
100
AcDbLine
 10
7922.205841074895
 20
2075.736425948917
 30
0.0
 11
7922.205841074895
 21
2083.836425948917
 31
0.0
  0
LINE
  5
2DFFD
330
747D
100
AcDbEntity
  8
部品1
100
AcDbLine
 10
7922.205841074895
 20
2075.736425948917
 30
0.0
 11
7922.205841074895
 21
2075.736425948917
 31
0.0
  0
ARC
  5
2DFFE
330
747D
100
AcDbEntity
  8
部品1
100
AcDbCircle
 10
7924.905841074894
 20
2083.836425948917
 30
0.0
 40
2.7
100
AcDbArc
 50
90.0
 51
180.0
  0
ARC
  5
2DFFF
330
747D
100
AcDbEntity
  8
部品1
100
AcDbCircle
 10
7967.205841074896
 20
2083.836425948915
 30
0.0
 40
2.7
100
AcDbArc
 50
0.0
 51
90.0
  0
LINE
  5
2E000
330
747D
100
AcDbEntity
  8
部品1
 48
50.0
100
AcDbLine
 10
8043.305841074896
 20
2244.05971439319
 30
0.0
 11
8043.305841074896
 21
2234.45971439319
 31
0.0
  0
ELLIPSE
  5
2E001
330
747D
100
AcDbEntity
  8
部品1
 48
50.0
100
AcDbEllipse
 10
8083.305841074896
 20
2234.459714393191
 30
0.0
 11
40.0
 21
0.0
 31
0.0
210
0.0
220
0.0
230
1.0
 40
0.4
 41
3.141592653589793
 42
6.283185307179586
  0
ELLIPSE
  5
2E002
330
747D
100
AcDbEntity
  8
部品1
 48
50.0
100
AcDbEllipse
 10
8083.305841074896
 20
2244.05971439319
 30
0.0
 11
40.0
 21
0.0
 31
0.0
210
0.0
220
0.0
230
1.0
 40
0.4
 41
0.0
 42
6.283185307179586
  0
LINE
  5
2E003
330
747D
100
AcDbEntity
  8
部品1
100
AcDbLine
 10
8077.905841074894
 20
2027.696425948918
 30
0.0
 11
8088.705841074895
 21
2027.696425948918
 31
0.0
  0
LINE
  5
2E004
330
747D
100
AcDbEntity
  8
部品1
100
AcDbLine
 10
8074.305841074895
 20
2024.096425948918
 30
0.0
 11
8092.305841074896
 21
2024.096425948918
 31
0.0
  0
LINE
  5
2E005
330
747D
100
AcDbEntity
  8
細線
100
AcDbLine
 10
8077.905841074899
 20
1984.496425948918
 30
0.0
 11
8077.905841074894
 21
2027.696425948918
 31
0.0
  0
LINE
  5
2E006
330
747D
100
AcDbEntity
  8
細線
100
AcDbLine
 10
8088.705841074895
 20
1984.496425948918
 30
0.0
 11
8088.705841074895
 21
2027.696425948918
 31
0.0
  0
LINE
  5
2E007
330
747D
100
AcDbEntity
  8
部品1
100
AcDbLine
 10
7990.605841074895
 20
2041.796425948918
 30
0.0
 11
7990.605841074895
 21
2024.696425948918
 31
0.0
  0
LINE
  5
2E008
330
747D
100
AcDbEntity
  8
部品1
100
AcDbLine
 10
8024.165841074896
 20
2041.796425948918
 30
0.0
 11
8024.165841074895
 21
1987.196425948918
 31
0.0
  0
ARC
  5
2E009
330
747D
100
AcDbEntity
  8
部品1
100
AcDbCircle
 10
8009.505841074897
 20
2029.836425948917
 30
0.0
 40
2.7
100
AcDbArc
 50
0.0
 51
90.0
  0
LINE
  5
2E00A
330
747D
100
AcDbEntity
  8
部品1
100
AcDbLine
 10
7969.905841074894
 20
2032.536425948918
 30
0.0
 11
8009.505841074897
 21
2032.536425948918
 31
0.0
  0
ARC
  5
2E00B
330
747D
100
AcDbEntity
  8
部品1
100
AcDbCircle
 10
8009.505841074897
 20
1987.196425948918
 30
0.0
 40
2.7
100
AcDbArc
 50
270.0
 51
0.0
  0
ARC
  5
2E00C
330
747D
100
AcDbEntity
  8
部品1
100
AcDbCircle
 10
8026.86584107489
 20
1987.196425948918
 30
0.0
 40
2.7
100
AcDbArc
 50
180.0
 51
270.0
  0
LINE
  5
2E00D
330
747D
100
AcDbEntity
  8
部品1
100
AcDbLine
 10
7997.805841074897
 20
1984.496425948918
 30
0.0
 11
8009.505841074897
 21
1984.496425948918
 31
0.0
  0
LINE
  5
2E00E
330
747D
100
AcDbEntity
  8
部品1
100
AcDbLine
 10
8012.205841074896
 20
2029.836425948917
 30
0.0
 11
8012.205841074896
 21
1987.196425948918
 31
0.0
  0
ARC
  5
2E00F
330
747D
100
AcDbEntity
  8
部品1
100
AcDbCircle
 10
8021.465841074897
 20
2041.796425948918
 30
0.0
 40
2.7
100
AcDbArc
 50
0.0
 51
90.0
  0
ARC
  5
2E010
330
747D
100
AcDbEntity
  8
部品1
100
AcDbCircle
 10
7993.305841074897
 20
2041.796425948918
 30
0.0
 40
2.7
100
AcDbArc
 50
90.0
 51
180.0
  0
LINE
  5
2E011
330
747D
100
AcDbEntity
  8
部品1
100
AcDbLine
 10
7993.305841074897
 20
2044.496425948918
 30
0.0
 11
8021.465841074897
 21
2044.496425948918
 31
0.0
  0
LINE
  5
2E012
330
747D
100
AcDbEntity
  8
部品1
100
AcDbLine
 10
7969.905841074894
 20
2083.836425948915
 30
0.0
 11
7969.905841074894
 21
2032.536425948918
 31
0.0
  0
LINE
  5
2E013
330
747D
100
AcDbEntity
  8
部品1
100
AcDbLine
 10
7919.505841074897
 20
2064.936425948918
 30
0.0
 11
7919.505841074897
 21
2073.036425948918
 31
0.0
  0
LINE
  5
2E014
330
747D
100
AcDbEntity
  8
部品1
100
AcDbLine
 10
8026.86584107489
 20
1984.496425948918
 30
0.0
 11
8228.20584107489
 21
1984.496425948918
 31
0.0
  0
LINE
  5
2E015
330
747D
100
AcDbEntity
  8
部品1
100
AcDbLine
 10
7868.205841074896
 20
1987.196425948918
 30
0.0
 11
7868.205841074896
 21
2049.328329651626
 31
0.0
  0
LINE
  5
2E016
330
747D
100
AcDbEntity
  8
部品1
100
AcDbLine
 10
7870.905841074895
 20
1984.496425948918
 30
0.0
 11
7882.60584107489
 21
1984.496425948918
 31
0.0
  0
LINE
  5
2E017
330
747D
100
AcDbEntity
  8
細線
 48
50.0
100
AcDbLine
 10
7861.905841074895
 20
1962.717002248822
 30
0.0
 11
7874.12526477499
 21
1974.936425948918
 31
0.0
  0
ARC
  5
2E018
330
747D
100
AcDbEntity
  8
部品1
100
AcDbCircle
 10
7870.905841074895
 20
1987.196425948918
 30
0.0
 40
2.7
100
AcDbArc
 50
180.0
 51
270.0
  0
LINE
  5
2E019
330
747D
100
AcDbEntity
  8
部品1
100
AcDbLine
 10
7870.250994887297
 20
2051.947714402018
 30
0.0
 11
7879.005841074897
 21
2054.136425948918
 31
0.0
  0
ARC
  5
2E01A
330
747D
100
AcDbEntity
  8
部品1
100
AcDbCircle
 10
7870.905841074895
 20
2049.328329651626
 30
0.0
 40
2.7
100
AcDbArc
 50
104.0362434679067
 51
180.0
  0
ARC
  5
2E01B
330
747D
100
AcDbEntity
  8
部品1
100
AcDbCircle
 10
7881.705841074896
 20
2062.236425948918
 30
0.0
 40
2.7
100
AcDbArc
 50
90.0
 51
180.0
  0
LINE
  5
2E01C
330
747D
100
AcDbEntity
  8
部品1
100
AcDbLine
 10
7879.005841074897
 20
2054.136425948918
 30
0.0
 11
7879.005841074897
 21
2062.236425948918
 31
0.0
  0
LINE
  5
2E01D
330
747D
100
AcDbEntity
  8
部品1
 48
50.0
100
AcDbLine
 10
7861.905841074895
 20
1974.936425948918
 30
0.0
 11
8275.9058410749
 21
1974.936425948918
 31
0.0
  0
LINE
  5
2E01E
330
747D
100
AcDbEntity
  8
細線
 48
50.0
100
AcDbLine
 10
7861.905841074895
 20
1908.835465522408
 30
0.0
 11
7928.006801501407
 21
1974.936425948918
 31
0.0
  0
LINE
  5
2E01F
330
747D
100
AcDbEntity
  8
細線
 48
50.0
100
AcDbLine
 10
7861.905841074895
 20
1935.776233885615
 30
0.0
 11
7901.066033138203
 21
1974.936425948918
 31
0.0
  0
LINE
  5
2E020
330
747D
100
AcDbEntity
  8
部品1
100
AcDbLine
 10
7881.705841074896
 20
2064.936425948918
 30
0.0
 11
7919.505841074897
 21
2064.936425948918
 31
0.0
  0
LINE
  5
2E021
330
747D
100
AcDbEntity
  8
部品1
 48
50.0
100
AcDbLine
 10
8275.905841074894
 20
1430.936425948917
 30
0.0
 11
8403.905841074895
 21
1430.936425948917
 31
0.0
  0
LINE
  5
2E022
330
747D
100
AcDbEntity
  8
部品1
100
AcDbLine
 10
8092.305841074896
 20
1749.936425948918
 30
0.0
 11
8128.305841074896
 21
1749.936425948918
 31
0.0
  0
LINE
  5
2E023
330
747D
100
AcDbEntity
  8
部品1
100
AcDbLine
 10
8092.305841074896
 20
1731.936425948918
 30
0.0
 11
8128.305841074896
 21
1731.936425948918
 31
0.0
  0
ARC
  5
2E024
330
747D
100
AcDbEntity
  8
部品1
100
AcDbCircle
 10
8092.305841074896
 20
1749.936425948918
 30
0.0
 40
18.0
100
AcDbArc
 50
180.0
 51
270.0
  0
LINE
  5
2E025
330
747D
100
AcDbEntity
  8
部品1
100
AcDbLine
 10
8128.305841074896
 20
1731.936425948918
 30
0.0
 11
8128.305841074896
 21
1749.936425948918
 31
0.0
  0
LINE
  5
2E026
330
747D
100
AcDbEntity
  8
部品1
100
AcDbLine
 10
8146.305841074896
 20
1650.936425948916
 30
0.0
 11
8020.30584107489
 21
1650.936425948916
 31
0.0
  0
LINE
  5
2E027
330
747D
100
AcDbEntity
  8
細線
 48
50.0
100
AcDbLine
 10
8440.283666267232
 20
1166.936425948915
 30
0.0
 11
8433.852885648885
 21
1190.936425948915
 31
0.0
  0
LINE
  5
2E028
330
747D
100
AcDbEntity
  8
細線
 48
50.0
100
AcDbLine
 10
8361.395621319985
 20
1166.936425948915
 30
0.0
 11
8354.964840701638
 21
1190.936425948915
 31
0.0
  0
LINE
  5
2E029
330
747D
100
AcDbEntity
  8
細線
 48
50.0
100
AcDbLine
 10
8282.507576372729
 20
1166.936425948917
 30
0.0
 11
8276.076795754383
 21
1190.936425948917
 31
0.0
  0
LINE
  5
2E02A
330
747D
100
AcDbEntity
  8
細線
 48
50.0
100
AcDbLine
 10
8418.847730872741
 20
1086.936425948916
 30
0.0
 11
8425.278511491089
 21
1062.936425948916
 31
0.0
  0
LINE
  5
2E02B
330
747D
100
AcDbEntity
  8
細線
 48
50.0
100
AcDbLine
 10
8339.959685925498
 20
1086.936425948916
 30
0.0
 11
8346.390466543843
 21
1062.936425948916
 31
0.0
  0
LINE
  5
2E02C
330
747D
100
AcDbEntity
  8
細線
 48
50.0
100
AcDbLine
 10
8261.071640978247
 20
1086.936425948917
 30
0.0
 11
8267.502421596605
 21
1062.936425948917
 31
0.0
  0
LINE
  5
2E02D
330
747D
100
AcDbEntity
  8
細線
 48
50.0
100
AcDbLine
 10
8333.528905307145
 20
1062.936425948915
 30
0.0
 11
8367.826401938328
 21
1190.936425948915
 31
0.0
  0
LINE
  5
2E02E
330
747D
100
AcDbEntity
  8
細線
 48
50.0
100
AcDbLine
 10
8254.640860359897
 20
1062.936425948916
 30
0.0
 11
8288.938356991073
 21
1190.936425948917
 31
0.0
  0
LINE
  5
2E02F
330
747D
100
AcDbEntity
  8
細線
 48
50.0
100
AcDbLine
 10
8412.416950254391
 20
1062.936425948916
 30
0.0
 11
8446.714446885577
 21
1190.936425948915
 31
0.0
  0
LINE
  5
2E030
330
747D
100
AcDbEntity
  8
部品1
 48
50.0
100
AcDbLine
 10
8483.905841074898
 20
1190.936425948917
 30
0.0
 11
8483.905841074898
 21
1062.936425948917
 31
0.0
  0
LINE
  5
2E031
330
747D
100
AcDbEntity
  8
細線
 48
50.0
100
AcDbLine
 10
8203.619531425491
 20
1166.936425948917
 30
0.0
 11
8197.188750807145
 21
1190.936425948917
 31
0.0
  0
LINE
  5
2E032
330
747D
100
AcDbEntity
  8
細線
 48
50.0
100
AcDbLine
 10
8124.731486478244
 20
1166.936425948917
 30
0.0
 11
8118.300705859898
 21
1190.936425948917
 31
0.0
  0
LINE
  5
2E033
330
747D
100
AcDbEntity
  8
細線
 48
50.0
100
AcDbLine
 10
7966.955396583751
 20
1166.936425948917
 30
0.0
 11
7960.524615965406
 21
1190.936425948917
 31
0.0
  0
LINE
  5
2E034
330
747D
100
AcDbEntity
  8
細線
 48
50.0
100
AcDbLine
 10
8045.843441530998
 20
1166.936425948917
 30
0.0
 11
8039.412660912651
 21
1190.936425948917
 31
0.0
  0
LINE
  5
2E035
330
747D
100
AcDbEntity
  8
細線
 48
50.0
100
AcDbLine
 10
8103.295551083757
 20
1086.936425948917
 30
0.0
 11
8109.726331702104
 21
1062.936425948917
 31
0.0
  0
LINE
  5
2E036
330
747D
100
AcDbEntity
  8
細線
 48
50.0
100
AcDbLine
 10
8182.183596031002
 20
1086.936425948917
 30
0.0
 11
8188.614376649347
 21
1062.936425948917
 31
0.0
  0
LINE
  5
2E037
330
747D
100
AcDbEntity
  8
細線
 48
50.0
100
AcDbLine
 10
7945.519461189262
 20
1086.936425948917
 30
0.0
 11
7951.95024180761
 21
1062.936425948917
 31
0.0
  0
LINE
  5
2E038
330
747D
100
AcDbEntity
  8
細線
 48
50.0
100
AcDbLine
 10
8024.40750613651
 20
1086.936425948917
 30
0.0
 11
8030.838286754857
 21
1062.936425948917
 31
0.0
  0
LINE
  5
2E039
330
747D
100
AcDbEntity
  8
細線
 48
50.0
100
AcDbLine
 10
8175.752815412648
 20
1062.936425948917
 30
0.0
 11
8210.050312043833
 21
1190.936425948915
 31
0.0
  0
LINE
  5
2E03A
330
747D
100
AcDbEntity
  8
細線
 48
50.0
100
AcDbLine
 10
8017.976725518158
 20
1062.936425948917
 30
0.0
 11
8052.274222149343
 21
1190.936425948915
 31
0.0
  0
LINE
  5
2E03B
330
747D
100
AcDbEntity
  8
細線
 48
50.0
100
AcDbLine
 10
7939.08868057091
 20
1062.936425948917
 30
0.0
 11
7973.386177202094
 21
1190.936425948917
 31
0.0
  0
LINE
  5
2E03C
330
747D
100
AcDbEntity
  8
細線
 48
50.0
100
AcDbLine
 10
8096.864770465407
 20
1062.936425948916
 30
0.0
 11
8131.162267096589
 21
1190.936425948915
 31
0.0
  0
LINE
  5
2E03D
330
747D
100
AcDbEntity
  8
細線
 48
50.0
100
AcDbLine
 10
8221.637536029705
 20
1190.936425948917
 30
0.0
 11
8403.905841074895
 21
1373.204730994113
 31
0.0
  0
LINE
  5
2E03E
330
747D
100
AcDbEntity
  8
部品1
 48
50.0
100
AcDbLine
 10
8403.905841074895
 20
1430.936425948917
 30
0.0
 11
8403.905841074895
 21
1190.936425948917
 31
0.0
  0
LINE
  5
2E03F
330
747D
100
AcDbEntity
  8
細線
 48
50.0
100
AcDbLine
 10
8194.696767666501
 20
1190.936425948917
 30
0.0
 11
8403.905841074895
 21
1400.145499357311
 31
0.0
  0
LINE
  5
2E040
330
747D
100
AcDbEntity
  8
細線
 48
50.0
100
AcDbLine
 10
8167.755999303288
 20
1190.936425948917
 30
0.0
 11
8403.905841074895
 21
1427.086267720526
 31
0.0
  0
LINE
  5
2E041
330
747D
100
AcDbEntity
  8
細線
 48
50.0
100
AcDbLine
 10
7952.22985239763
 20
1190.936425948917
 30
0.0
 11
8275.905841074894
 21
1514.612414626183
 31
0.0
  0
LINE
  5
2E042
330
747D
100
AcDbEntity
  8
細線
 48
50.0
100
AcDbLine
 10
8006.111389124045
 20
1190.936425948917
 30
0.0
 11
8275.905841074894
 21
1460.730877899775
 31
0.0
  0
LINE
  5
2E043
330
747D
100
AcDbEntity
  8
細線
 48
50.0
100
AcDbLine
 10
7979.170620760839
 20
1190.936425948917
 30
0.0
 11
8275.905841074894
 21
1487.67164626297
 31
0.0
  0
LINE
  5
2E044
330
747D
100
AcDbEntity
  8
細線
 48
50.0
100
AcDbLine
 10
7733.905841074892
 20
1403.664708437503
 30
0.0
 11
7761.177558586311
 21
1430.936425948917
 31
0.0
  0
LINE
  5
2E045
330
747D
100
AcDbEntity
  8
部品1
 48
50.0
100
AcDbLine
 10
7733.905841074895
 20
1430.936425948917
 30
0.0
 11
7861.905841074895
 21
1430.936425948917
 31
0.0
  0
LINE
  5
2E046
330
747D
100
AcDbEntity
  8
細線
 48
50.0
100
AcDbLine
 10
7733.905841074892
 20
1376.723940074293
 30
0.0
 11
7788.118326949519
 21
1430.936425948917
 31
0.0
  0
LWPOLYLINE
  5
2E047
330
747D
100
AcDbEntity
  8
部品1
 48
50.0
100
AcDbPolyline
 90
        2
 70
     0
 43
8.0
 10
7447.765939241939
 20
1734.936425948918
 10
7861.905841074895
 20
1734.936425948918
  0
LINE
  5
2E048
330
747D
100
AcDbEntity
  8
細線
 48
50.0
100
AcDbLine
 10
7809.179306689249
 20
1166.936425948917
 30
0.0
 11
7802.748526070901
 21
1190.936425948917
 31
0.0
  0
LINE
  5
2E049
330
747D
100
AcDbEntity
  8
細線
 48
50.0
100
AcDbLine
 10
7888.0673516365
 20
1166.936425948917
 30
0.0
 11
7881.636571018153
 21
1190.936425948917
 31
0.0
  0
LINE
  5
2E04A
330
747D
100
AcDbEntity
  8
細線
 48
50.0
100
AcDbLine
 10
7730.291261741998
 20
1166.936425948917
 30
0.0
 11
7723.860481123651
 21
1190.936425948917
 31
0.0
  0
LINE
  5
2E04B
330
747D
100
AcDbEntity
  8
細線
 48
50.0
100
AcDbLine
 10
7653.905841074895
 20
1176.276346914697
 30
0.0
 11
7657.833997413091
 21
1190.936425948917
 31
0.0
  0
LINE
  5
2E04C
330
747D
100
AcDbEntity
  8
細線
 48
50.0
100
AcDbLine
 10
7787.743371294761
 20
1086.936425948917
 30
0.0
 11
7794.174151913107
 21
1062.936425948917
 31
0.0
  0
LINE
  5
2E04D
330
747D
100
AcDbEntity
  8
細線
 48
50.0
100
AcDbLine
 10
7866.631416242011
 20
1086.936425948917
 30
0.0
 11
7873.062196860359
 21
1062.936425948917
 31
0.0
  0
LINE
  5
2E04E
330
747D
100
AcDbEntity
  8
細線
 48
50.0
100
AcDbLine
 10
7708.855326347507
 20
1086.936425948917
 30
0.0
 11
7715.286106965854
 21
1062.936425948917
 31
0.0
  0
LINE
  5
2E04F
330
747D
100
AcDbEntity
  8
細線
 48
50.0
100
AcDbLine
 10
7860.20063562366
 20
1062.936425948916
 30
0.0
 11
7894.498132254842
 21
1190.936425948915
 31
0.0
  0
LINE
  5
2E050
330
747D
100
AcDbEntity
  8
細線
 48
50.0
100
AcDbLine
 10
7702.424545729154
 20
1062.936425948916
 30
0.0
 11
7736.722042360337
 21
1190.936425948915
 31
0.0
  0
LINE
  5
2E051
330
747D
100
AcDbEntity
  8
部品1
 48
50.0
100
AcDbLine
 10
7653.905841074899
 20
1062.936425948917
 30
0.0
 11
7653.905841074899
 21
1190.936425948917
 31
0.0
  0
LINE
  5
2E052
330
747D
100
AcDbEntity
  8
細線
 48
50.0
100
AcDbLine
 10
7781.312590676413
 20
1062.936425948917
 30
0.0
 11
7815.610087307596
 21
1190.936425948917
 31
0.0
  0
LINE
  5
2E053
330
747D
100
AcDbEntity
  8
部品1
 48
50.0
100
AcDbLine
 10
7733.905841074895
 20
1190.936425948917
 30
0.0
 11
7733.905841074895
 21
1430.936425948917
 31
0.0
  0
LINE
  5
2E054
330
747D
100
AcDbEntity
  8
細線
 48
50.0
100
AcDbLine
 10
7733.905841074892
 20
1349.783171711088
 30
0.0
 11
7815.059095312725
 21
1430.936425948917
 31
0.0
  0
LINE
  5
2E055
330
747D
100
AcDbEntity
  8
部品1
 48
50.0
100
AcDbLine
 10
8483.905841074898
 20
1062.936425948917
 30
0.0
 11
7653.905841074899
 21
1062.936425948917
 31
0.0
  0
LINE
  5
2E056
330
747D
100
AcDbEntity
  8
部品1
 48
50.0
100
AcDbLine
 10
8483.905841074898
 20
1190.936425948917
 30
0.0
 11
7653.905841074899
 21
1190.936425948917
 31
0.0
  0
LINE
  5
2E057
330
747D
100
AcDbEntity
  8
細線
 48
50.0
100
AcDbLine
 10
7736.70370549197
 20
1190.936425948917
 30
0.0
 11
8275.905841074894
 21
1730.138561531843
 31
0.0
  0
LINE
  5
2E058
330
747D
100
AcDbEntity
  8
細線
 48
50.0
100
AcDbLine
 10
7763.64447385518
 20
1190.936425948917
 30
0.0
 11
8275.9058410749
 21
1703.197793168631
 31
0.0
  0
LINE
  5
2E059
330
747D
100
AcDbEntity
  8
細線
 48
50.0
100
AcDbLine
 10
7790.585242218385
 20
1190.936425948917
 30
0.0
 11
8275.905841074894
 21
1676.257024805425
 31
0.0
  0
LINE
  5
2E05A
330
747D
100
AcDbEntity
  8
細線
 48
50.0
100
AcDbLine
 10
7861.905841074895
 20
1531.664708437503
 30
0.0
 11
8020.30584107489
 21
1690.064708437499
 31
0.0
  0
LINE
  5
2E05B
330
747D
100
AcDbEntity
  8
細線
 48
50.0
100
AcDbLine
 10
7861.905841074895
 20
1477.783171711088
 30
0.0
 11
8035.059095312732
 21
1650.936425948916
 31
0.0
  0
LINE
  5
2E05C
330
747D
100
AcDbEntity
  8
細線
 48
50.0
100
AcDbLine
 10
7861.905841074895
 20
1504.723940074295
 30
0.0
 11
8020.30584107489
 21
1663.123940074284
 31
0.0
  0
LINE
  5
2E05D
330
747D
100
AcDbEntity
  8
部品1
100
AcDbLine
 10
8020.30584107489
 20
1650.936425948917
 30
0.0
 11
8020.305841074897
 21
1974.936425948918
 31
0.0
  0
LINE
  5
2E05E
330
747D
100
AcDbEntity
  8
部品1
100
AcDbLine
 10
8146.305841074896
 20
1650.936425948917
 30
0.0
 11
8146.305841074896
 21
1974.936425948918
 31
0.0
  0
LINE
  5
2E05F
330
747D
100
AcDbEntity
  8
細線
 48
50.0
100
AcDbLine
 10
8146.305841074896
 20
1789.123940074289
 30
0.0
 11
8275.905841074894
 21
1918.723940074286
 31
0.0
  0
LINE
  5
2E060
330
747D
100
AcDbEntity
  8
細線
 48
50.0
100
AcDbLine
 10
8146.305841074896
 20
1762.183171711076
 30
0.0
 11
8275.905841074894
 21
1891.783171711067
 31
0.0
  0
LINE
  5
2E061
330
747D
100
AcDbEntity
  8
部品1
100
AcDbLine
 10
8074.305841074895
 20
1749.936425948918
 30
0.0
 11
8074.305841074894
 21
2024.096425948918
 31
0.0
  0
LINE
  5
2E062
330
747D
100
AcDbEntity
  8
部品1
100
AcDbLine
 10
8092.305841074896
 20
1749.936425948918
 30
0.0
 11
8092.305841074892
 21
2024.096425948918
 31
0.0
  0
TEXT
  5
2E063
330
747D
100
AcDbEntity
  8
部品1
 48
50.0
100
AcDbText
 10
7447.765939241939
 20
1746.175418232173
 30
0.0
 40
80.0
  1
▽G.L
  7
STYLE2
100
AcDbText
  0
LINE
  5
2E064
330
747D
100
AcDbEntity
  8
細線
 48
50.0
100
AcDbLine
 10
7861.905841074895
 20
1693.309318616748
 30
0.0
 11
8020.305841074891
 21
1851.70931861674
 31
0.0
  0
LINE
  5
2E065
330
747D
100
AcDbEntity
  8
細線
 48
50.0
100
AcDbLine
 10
7861.905841074895
 20
1720.250086979955
 30
0.0
 11
8020.305841074895
 21
1878.650086979953
 31
0.0
  0
LINE
  5
2E066
330
747D
100
AcDbEntity
  8
細線
 48
50.0
100
AcDbLine
 10
7861.905841074895
 20
1747.190855343163
 30
0.0
 11
8020.305841074895
 21
1905.59085534316
 31
0.0
  0
LINE
  5
2E067
330
747D
100
AcDbEntity
  8
部品1
 48
50.0
100
AcDbLine
 10
7861.905841074895
 20
1430.936425948917
 30
0.0
 11
7861.905841074895
 21
1974.936425948918
 31
0.0
  0
LINE
  5
2E068
330
747D
100
AcDbEntity
  8
部品1
100
AcDbLine
 10
8275.905841074894
 20
1430.936425948917
 30
0.0
 11
8275.905841074894
 21
1974.936425948918
 31
0.0
  0
LINE
  5
2E069
330
747D
100
AcDbEntity
  8
細線
 48
50.0
100
AcDbLine
 10
8146.305841074896
 20
1816.064708437506
 30
0.0
 11
8275.905841074894
 21
1945.664708437504
 31
0.0
  0
LINE
  5
2E06A
330
747D
100
AcDbEntity
  8
細線
 48
50.0
100
AcDbLine
 10
6270.358950400172
 20
1855.683277845633
 30
0.0
 11
6353.866527897703
 21
1939.190855343163
 31
0.0
  0
LINE
  5
2E06B
330
747D
100
AcDbEntity
  8
細線
 48
50.0
100
AcDbLine
 10
6281.419235163689
 20
1839.802794245939
 30
0.0
 11
6353.866527897703
 21
1912.250086979955
 31
0.0
  0
LINE
  5
2E06C
330
747D
100
AcDbEntity
  8
細線
 48
50.0
100
AcDbLine
 10
6161.866527897703
 20
1962.717002248822
 30
0.0
 11
6174.085951597797
 21
1974.936425948918
 31
0.0
  0
LINE
  5
2E06D
330
747D
100
AcDbEntity
  8
細線
 48
50.0
100
AcDbLine
 10
6161.866527897703
 20
1908.835465522408
 30
0.0
 11
6227.967488324211
 21
1974.936425948918
 31
0.0
  0
LINE
  5
2E06E
330
747D
100
AcDbEntity
  8
細線
 48
50.0
100
AcDbLine
 10
6161.866527897703
 20
1935.776233885615
 30
0.0
 11
6201.026719961006
 21
1974.936425948918
 31
0.0
  0
LINE
  5
2E06F
330
747D
100
AcDbEntity
  8
部品1
 48
50.0
100
AcDbLine
 10
6161.866527897703
 20
1974.936425948918
 30
0.0
 11
6353.866527897703
 21
1974.936425948918
 31
0.0
  0
DIMENSION
  5
2E070
330
747D
100
AcDbEntity
  8
寸法
 48
50.0
100
AcDbDimension
  2
*D49
 10
6161.866527897701
 20
2394.604233865298
 30
0.0
 11
6257.866527897701
 21
2394.604233865298
 31
0.0
 70
   160
  1
120\P200\P280
 71
     5
 42
192.0
  3
INABA_S40G
100
AcDbAlignedDimension
 13
6353.866527897701
 23
1974.936425948918
 33
0.0
 14
6161.866527897701
 24
1974.936425948918
 34
0.0
100
AcDbRotatedDimension
1001
ACAD
1000
DSTYLE
1002
{
1070
   341
1005
0
1002
}
  0
MTEXT
  5
2E071
102
{ACAD_REACTORS
330
2E0C6
102
}
330
747D
100
AcDbEntity
  8
寸法
 62
     7
 48
50.0
100
AcDbMText
 10
6595.604983758953
 20
1013.587340216764
 30
0.0
 40
80.0
 41
0.8
 71
     4
 72
     1
  1
\A1;D10@300
  7
STYLE2
 73
     1
 44
1.0
1001
ACAD
1000
MTEXTBEGIN
1070
    73
1070
     1
1070
    44
1040
1.0
1070
    74
1070
     0
1000
MTEXTEND
  0
LINE
  5
2E072
330
747D
100
AcDbEntity
  8
細線
 48
50.0
100
AcDbLine
 10
6281.866527897708
 20
1624.723940074298
 30
0.0
 11
6353.866527897695
 21
1696.723940074293
 31
0.0
  0
LINE
  5
2E073
330
747D
100
AcDbEntity
  8
細線
 48
50.0
100
AcDbLine
 10
6281.866527897702
 20
1651.664708437504
 30
0.0
 11
6353.866527897703
 21
1723.664708437503
 31
0.0
  0
LINE
  5
2E074
330
747D
100
AcDbEntity
  8
細線
 48
50.0
100
AcDbLine
 10
6281.866527897708
 20
1382.257024805429
 30
0.0
 11
6353.866527897695
 21
1454.257024805429
 31
0.0
  0
LINE
  5
2E075
330
747D
100
AcDbEntity
  8
細線
 48
50.0
100
AcDbLine
 10
6281.866527897708
 20
1436.138561531847
 30
0.0
 11
6353.866527897695
 21
1508.138561531843
 31
0.0
  0
LINE
  5
2E076
330
747D
100
AcDbEntity
  8
細線
 48
50.0
100
AcDbLine
 10
6281.866527897708
 20
1409.197793168639
 30
0.0
 11
6353.866527897695
 21
1481.197793168633
 31
0.0
  0
LINE
  5
2E077
330
747D
100
AcDbEntity
  8
部品1
 48
50.0
100
AcDbLine
 10
6353.866527897703
 20
1430.936425948917
 30
0.0
 11
6481.866527897702
 21
1430.936425948917
 31
0.0
  0
LINE
  5
2E078
330
747D
100
AcDbEntity
  8
細線
 48
50.0
100
AcDbLine
 10
6281.866527897708
 20
1597.783171711088
 30
0.0
 11
6353.866527897695
 21
1669.783171711088
 31
0.0
  0
LINE
  5
2E079
330
747D
100
AcDbEntity
  8
部品1
 48
50.0
100
AcDbLine
 10
6249.866527897702
 20
1777.06364064604
 30
0.0
 11
6249.866527897702
 21
1835.190855343163
 31
0.0
  0
LINE
  5
2E07A
330
747D
100
AcDbEntity
  8
細線
 48
50.0
100
AcDbLine
 10
6161.866527897703
 20
1747.190855343163
 30
0.0
 11
6233.866527897703
 21
1819.190855343163
 31
0.0
  0
LINE
  5
2E07B
330
747D
100
AcDbEntity
  8
部品1
 48
50.0
100
AcDbLine
 10
6233.866527897703
 20
1777.063640646044
 30
0.0
 11
6233.866527897703
 21
1835.190855343163
 31
0.0
  0
LINE
  5
2E07C
330
747D
100
AcDbEntity
  8
細線
 48
50.0
100
AcDbLine
 10
6161.866527897703
 20
1720.250086979955
 30
0.0
 11
6233.866527897703
 21
1792.250086979955
 31
0.0
  0
LINE
  5
2E07D
330
747D
100
AcDbEntity
  8
細線
 48
50.0
100
AcDbLine
 10
6161.866527897703
 20
1693.309318616748
 30
0.0
 11
6245.620849926996
 21
1777.06364064604
 31
0.0
  0
LINE
  5
2E07E
330
747D
100
AcDbEntity
  8
部品1
 48
50.0
100
AcDbLine
 10
6249.866527897702
 20
1777.06364064604
 30
0.0
 11
6233.866527897703
 21
1777.063640646044
 31
0.0
  0
LINE
  5
2E07F
330
747D
100
AcDbEntity
  8
細線
 48
50.0
100
AcDbLine
 10
6033.866527897695
 20
1403.664708437503
 30
0.0
 11
6061.138245409116
 21
1430.936425948917
 31
0.0
  0
LINE
  5
2E080
330
747D
100
AcDbEntity
  8
細線
 48
50.0
100
AcDbLine
 10
6033.866527897695
 20
1376.723940074293
 30
0.0
 11
6088.079013772327
 21
1430.936425948917
 31
0.0
  0
LINE
  5
2E081
330
747D
100
AcDbEntity
  8
部品1
 48
50.0
100
AcDbLine
 10
6033.866527897703
 20
1430.936425948917
 30
0.0
 11
6161.866527897703
 21
1430.936425948917
 31
0.0
  0
LINE
  5
2E082
330
747D
100
AcDbEntity
  8
細線
 48
50.0
100
AcDbLine
 10
6249.866527897702
 20
1808.250086979955
 30
0.0
 11
6265.866527897703
 21
1824.250086979955
 31
0.0
  0
LINE
  5
2E083
330
747D
100
AcDbEntity
  8
細線
 48
50.0
100
AcDbLine
 10
6249.866527897702
 20
1781.309318616748
 30
0.0
 11
6265.866527897703
 21
1797.309318616748
 31
0.0
  0
LINE
  5
2E084
330
747D
100
AcDbEntity
  8
細線
 48
50.0
100
AcDbLine
 10
6161.866527897703
 20
1477.783171711088
 30
0.0
 11
6265.866527897708
 21
1581.783171711088
 31
0.0
  0
LINE
  5
2E085
330
747D
100
AcDbEntity
  8
細線
 48
50.0
100
AcDbLine
 10
6161.866527897703
 20
1531.664708437503
 30
0.0
 11
6265.866527897703
 21
1635.664708437504
 31
0.0
  0
LINE
  5
2E086
330
747D
100
AcDbEntity
  8
細線
 48
50.0
100
AcDbLine
 10
6161.866527897703
 20
1504.723940074295
 30
0.0
 11
6265.866527897708
 21
1608.723940074298
 31
0.0
  0
LINE
  5
2E087
330
747D
100
AcDbEntity
  8
細線
 48
50.0
100
AcDbLine
 10
6424.69217330105
 20
1166.936425948917
 30
0.0
 11
6418.261392682703
 21
1190.936425948917
 31
0.0
  0
LINE
  5
2E088
330
747D
100
AcDbEntity
  8
細線
 48
50.0
100
AcDbLine
 10
6467.716686126095
 20
1190.936425948917
 30
0.0
 11
6481.866527897702
 21
1205.086267720524
 31
0.0
  0
LINE
  5
2E089
330
747D
100
AcDbEntity
  8
細線
 48
50.0
100
AcDbLine
 10
6503.580218248297
 20
1166.936425948917
 30
0.0
 11
6497.149437629949
 21
1190.936425948917
 31
0.0
  0
LINE
  5
2E08A
330
747D
100
AcDbEntity
  8
部品1
 48
50.0
100
AcDbLine
 10
6425.866527897702
 20
1302.936425948918
 30
0.0
 11
6425.866527897702
 21
1286.936425948917
 31
0.0
  0
LINE
  5
2E08B
330
747D
100
AcDbEntity
  8
細線
 48
50.0
100
AcDbLine
 10
6306.07207594685
 20
1190.936425948917
 30
0.0
 11
6402.072963791987
 21
1286.937313794056
 31
0.0
  0
LINE
  5
2E08C
330
747D
100
AcDbEntity
  8
細線
 48
50.0
100
AcDbLine
 10
6279.131307583647
 20
1190.936425948917
 30
0.0
 11
6375.131307583647
 21
1286.936425948917
 31
0.0
  0
LINE
  5
2E08D
330
747D
100
AcDbEntity
  8
細線
 48
50.0
100
AcDbLine
 10
6345.804128353805
 20
1166.936425948917
 30
0.0
 11
6339.373347735458
 21
1190.936425948917
 31
0.0
  0
LINE
  5
2E08E
330
747D
100
AcDbEntity
  8
細線
 48
50.0
100
AcDbLine
 10
6266.916083406559
 20
1166.936425948917
 30
0.0
 11
6260.485302788211
 21
1190.936425948917
 31
0.0
  0
ARC
  5
2E08F
330
747D
100
AcDbEntity
  8
部品1
 48
50.0
100
AcDbCircle
 10
6257.866527897703
 20
1310.936425948918
 30
0.0
 40
24.0
100
AcDbArc
 50
340.5287793655256
 51
0.0
  0
CIRCLE
  5
2E090
330
747D
100
AcDbEntity
  8
部品1
 48
50.0
100
AcDbCircle
 10
6385.866527897702
 20
1310.936425948918
 30
0.0
 40
8.0
  0
LINE
  5
2E091
330
747D
100
AcDbEntity
  8
細線
 48
50.0
100
AcDbLine
 10
6418.07207594685
 20
1302.936425948918
 30
0.0
 11
6481.866527897702
 21
1366.730877899768
 31
0.0
  0
LINE
  5
2E092
330
747D
100
AcDbEntity
  8
細線
 48
50.0
100
AcDbLine
 10
6554.601547182705
 20
1062.936425948916
 30
0.0
 11
6561.866527897702
 21
1090.049703093305
 31
0.0
  0
LINE
  5
2E093
330
747D
100
AcDbEntity
  8
細線
 48
50.0
100
AcDbLine
 10
6561.032327801055
 20
1086.936425948917
 30
0.0
 11
6561.866527897702
 21
1083.823148804553
 31
0.0
  0
LINE
  5
2E094
330
747D
100
AcDbEntity
  8
細線
 48
50.0
100
AcDbLine
 10
6482.144282853808
 20
1086.936425948917
 30
0.0
 11
6488.575063472156
 21
1062.936425948917
 31
0.0
  0
LINE
  5
2E095
330
747D
100
AcDbEntity
  8
細線
 48
50.0
100
AcDbLine
 10
6324.368192959315
 20
1086.936425948917
 30
0.0
 11
6330.79897357766
 21
1062.936425948917
 31
0.0
  0
LINE
  5
2E096
330
747D
100
AcDbEntity
  8
細線
 48
50.0
100
AcDbLine
 10
6403.25623790656
 20
1086.936425948917
 30
0.0
 11
6409.687018524909
 21
1062.936425948917
 31
0.0
  0
LINE
  5
2E097
330
747D
100
AcDbEntity
  8
細線
 48
50.0
100
AcDbLine
 10
6396.825457288211
 20
1062.936425948916
 30
0.0
 11
6431.122953919396
 21
1190.936425948915
 31
0.0
  0
LINE
  5
2E098
330
747D
100
AcDbEntity
  8
細線
 48
50.0
100
AcDbLine
 10
6317.937412340961
 20
1062.936425948917
 30
0.0
 11
6352.234908972149
 21
1190.936425948915
 31
0.0
  0
LINE
  5
2E099
330
747D
100
AcDbEntity
  8
細線
 48
50.0
100
AcDbLine
 10
6475.713502235456
 20
1062.936425948917
 30
0.0
 11
6510.01099886664
 21
1190.936425948915
 31
0.0
  0
LINE
  5
2E09A
330
747D
100
AcDbEntity
  8
部品1
 48
50.0
100
AcDbLine
 10
6561.866527897706
 20
1190.936425948917
 30
0.0
 11
6561.866527897706
 21
1062.936425948917
 31
0.0
  0
LINE
  5
2E09B
330
747D
100
AcDbEntity
  8
部品1
 48
50.0
100
AcDbLine
 10
6249.866527897702
 20
1369.06364064604
 30
0.0
 11
6249.866527897702
 21
1310.936425948918
 31
0.0
  0
LINE
  5
2E09C
330
747D
100
AcDbEntity
  8
細線
 48
50.0
100
AcDbLine
 10
6175.605160677985
 20
1302.936425948918
 30
0.0
 11
6233.866527897703
 21
1361.197793168636
 31
0.0
  0
LINE
  5
2E09D
330
747D
100
AcDbEntity
  8
部品1
 48
50.0
100
AcDbLine
 10
6233.866527897703
 20
1369.06364064604
 30
0.0
 11
6233.866527897703
 21
1310.936425948918
 31
0.0
  0
LINE
  5
2E09E
330
747D
100
AcDbEntity
  8
細線
 48
50.0
100
AcDbLine
 10
6090.545929041191
 20
1190.936425948917
 30
0.0
 11
6186.545929041191
 21
1286.936425948917
 31
0.0
  0
LINE
  5
2E09F
330
747D
100
AcDbEntity
  8
細線
 48
50.0
100
AcDbLine
 10
6188.028038459306
 20
1166.936425948917
 30
0.0
 11
6181.59725784096
 21
1190.936425948917
 31
0.0
  0
LINE
  5
2E0A0
330
747D
100
AcDbEntity
  8
細線
 48
50.0
100
AcDbLine
 10
6109.139993512053
 20
1166.936425948917
 30
0.0
 11
6102.709212893707
 21
1190.936425948917
 31
0.0
  0
ARC
  5
2E0A1
330
747D
100
AcDbEntity
  8
部品1
 48
50.0
100
AcDbCircle
 10
6257.866527897703
 20
1310.936425948918
 30
0.0
 40
24.0
100
AcDbArc
 50
180.0
 51
199.4712206344743
  0
LINE
  5
2E0A2
330
747D
100
AcDbEntity
  8
細線
 48
50.0
100
AcDbLine
 10
6202.545929041191
 20
1302.936425948918
 30
0.0
 11
6233.866527897703
 21
1334.257024805429
 31
0.0
  0
CIRCLE
  5
2E0A3
330
747D
100
AcDbEntity
  8
部品1
 48
50.0
100
AcDbCircle
 10
6129.866527897703
 20
1310.936425948918
 30
0.0
 40
8.0
  0
LINE
  5
2E0A4
330
747D
100
AcDbEntity
  8
部品1
 48
50.0
100
AcDbLine
 10
6249.866527897702
 20
1369.06364064604
 30
0.0
 11
6233.866527897703
 21
1369.06364064604
 31
0.0
  0
LINE
  5
2E0A5
330
747D
100
AcDbEntity
  8
細線
 48
50.0
100
AcDbLine
 10
5953.866527897702
 20
1176.276346914697
 30
0.0
 11
5957.794684235898
 21
1190.936425948917
 31
0.0
  0
LINE
  5
2E0A6
330
747D
100
AcDbEntity
  8
細線
 48
50.0
100
AcDbLine
 10
6030.251948564803
 20
1166.936425948917
 30
0.0
 11
6023.821167946454
 21
1190.936425948917
 31
0.0
  0
LINE
  5
2E0A7
330
747D
100
AcDbEntity
  8
部品1
 48
50.0
100
AcDbLine
 10
6089.866527897703
 20
1302.936425948918
 30
0.0
 11
6089.866527897703
 21
1286.936425948917
 31
0.0
  0
LINE
  5
2E0A8
330
747D
100
AcDbEntity
  8
細線
 48
50.0
100
AcDbLine
 10
6036.664392314775
 20
1190.936425948917
 30
0.0
 11
6132.664392314775
 21
1286.936425948917
 31
0.0
  0
LINE
  5
2E0A9
330
747D
100
AcDbEntity
  8
細線
 48
50.0
100
AcDbLine
 10
6063.605160677986
 20
1190.936425948917
 30
0.0
 11
6159.605160677986
 21
1286.936425948917
 31
0.0
  0
LINE
  5
2E0AA
330
747D
100
AcDbEntity
  8
細線
 48
50.0
100
AcDbLine
 10
6166.592103064817
 20
1086.936425948917
 30
0.0
 11
6173.022883683163
 21
1062.936425948917
 31
0.0
  0
LINE
  5
2E0AB
330
747D
100
AcDbEntity
  8
細線
 48
50.0
100
AcDbLine
 10
6245.48014801207
 20
1086.936425948917
 30
0.0
 11
6251.910928630415
 21
1062.936425948917
 31
0.0
  0
LINE
  5
2E0AC
330
747D
100
AcDbEntity
  8
細線
 48
50.0
100
AcDbLine
 10
6008.816013170314
 20
1086.936425948917
 30
0.0
 11
6015.24679378866
 21
1062.936425948917
 31
0.0
  0
LINE
  5
2E0AD
330
747D
100
AcDbEntity
  8
細線
 48
50.0
100
AcDbLine
 10
6087.704058117564
 20
1086.936425948917
 30
0.0
 11
6094.134838735912
 21
1062.936425948917
 31
0.0
  0
LINE
  5
2E0AE
330
747D
100
AcDbEntity
  8
部品1
 48
50.0
100
AcDbLine
 10
5953.866527897704
 20
1062.936425948917
 30
0.0
 11
5953.866527897704
 21
1190.936425948917
 31
0.0
  0
LINE
  5
2E0AF
330
747D
100
AcDbEntity
  8
細線
 48
50.0
100
AcDbLine
 10
6002.385232551961
 20
1062.936425948916
 30
0.0
 11
6036.682729183143
 21
1190.936425948915
 31
0.0
  0
LINE
  5
2E0B0
330
747D
100
AcDbEntity
  8
細線
 48
50.0
100
AcDbLine
 10
6160.161322446463
 20
1062.936425948916
 30
0.0
 11
6194.458819077647
 21
1190.936425948915
 31
0.0
  0
LINE
  5
2E0B1
330
747D
100
AcDbEntity
  8
細線
 48
50.0
100
AcDbLine
 10
6081.273277499218
 20
1062.936425948917
 30
0.0
 11
6115.570774130401
 21
1190.936425948917
 31
0.0
  0
LINE
  5
2E0B2
330
747D
100
AcDbEntity
  8
細線
 48
50.0
100
AcDbLine
 10
6252.190539220435
 20
1190.936425948917
 30
0.0
 11
6348.190539220436
 21
1286.936425948917
 31
0.0
  0
CIRCLE
  5
2E0B3
330
747D
100
AcDbEntity
  8
部品1
 48
50.0
100
AcDbCircle
 10
6257.866527897703
 20
1310.936425948918
 30
0.0
 40
8.0
  0
LINE
  5
2E0B4
330
747D
100
AcDbEntity
  8
部品1
 48
50.0
100
AcDbLine
 10
6561.866527897706
 20
1190.936425948917
 30
0.0
 11
5953.866527897704
 21
1190.936425948917
 31
0.0
  0
LINE
  5
2E0B5
330
747D
100
AcDbEntity
  8
部品1
 48
50.0
100
AcDbLine
 10
6089.866527897703
 20
1302.936425948918
 30
0.0
 11
6425.866527897702
 21
1302.936425948918
 31
0.0
  0
LINE
  5
2E0B6
330
747D
100
AcDbEntity
  8
部品1
 48
50.0
100
AcDbLine
 10
6089.866527897703
 20
1286.936425948917
 30
0.0
 11
6425.866527897702
 21
1286.936425948917
 31
0.0
  0
LINE
  5
2E0B7
330
747D
100
AcDbEntity
  8
部品1
 48
50.0
100
AcDbLine
 10
6561.866527897706
 20
1062.936425948917
 30
0.0
 11
5953.866527897704
 21
1062.936425948917
 31
0.0
  0
LINE
  5
2E0B8
330
747D
100
AcDbEntity
  8
細線
 48
50.0
100
AcDbLine
 10
6239.049367393716
 20
1062.936425948917
 30
0.0
 11
6273.346864024899
 21
1190.936425948917
 31
0.0
  0
LINE
  5
2E0B9
330
747D
100
AcDbEntity
  8
細線
 48
50.0
100
AcDbLine
 10
6249.866527897702
 20
1350.257024805429
 30
0.0
 11
6265.866527897708
 21
1366.257024805429
 31
0.0
  0
LINE
  5
2E0BA
330
747D
100
AcDbEntity
  8
部品1
 48
50.0
100
AcDbLine
 10
6265.866527897708
 20
1310.936425948918
 30
0.0
 11
6265.866527897696
 21
1835.190855343163
 31
0.0
  0
LINE
  5
2E0BB
330
747D
100
AcDbEntity
  8
部品1
 48
50.0
100
AcDbLine
 10
6281.866527897708
 20
1310.936425948918
 30
0.0
 11
6281.866527897702
 21
1835.190855343163
 31
0.0
  0
LINE
  5
2E0BC
330
747D
100
AcDbEntity
  8
部品1
 48
50.0
100
AcDbLine
 10
6481.866527897702
 20
1430.936425948917
 30
0.0
 11
6481.866527897702
 21
1190.936425948917
 31
0.0
  0
LINE
  5
2E0BD
330
747D
100
AcDbEntity
  8
細線
 48
50.0
100
AcDbLine
 10
6364.19053922043
 20
1302.936425948918
 30
0.0
 11
6481.866527897702
 21
1420.612414626184
 31
0.0
  0
LINE
  5
2E0BE
330
747D
100
AcDbEntity
  8
細線
 48
50.0
100
AcDbLine
 10
6391.131307583646
 20
1302.936425948918
 30
0.0
 11
6481.866527897702
 21
1393.671646262977
 31
0.0
  0
LINE
  5
2E0BF
330
747D
100
AcDbEntity
  8
部品1
 48
50.0
100
AcDbLine
 10
6033.866527897703
 20
1190.936425948917
 30
0.0
 11
6033.866527897703
 21
1430.936425948917
 31
0.0
  0
LINE
  5
2E0C0
330
747D
100
AcDbEntity
  8
細線
 48
50.0
100
AcDbLine
 10
6148.664392314775
 20
1302.936425948918
 30
0.0
 11
6265.866527897703
 21
1420.138561531843
 31
0.0
  0
LINE
  5
2E0C1
330
747D
100
AcDbEntity
  8
細線
 48
50.0
100
AcDbLine
 10
6241.732375375106
 20
1369.06364064604
 30
0.0
 11
6265.866527897708
 21
1393.197793168639
 31
0.0
  0
LINE
  5
2E0C2
330
747D
100
AcDbEntity
  8
細線
 48
50.0
100
AcDbLine
 10
6033.866527897695
 20
1349.783171711088
 30
0.0
 11
6115.01978213553
 21
1430.936425948917
 31
0.0
  0
LEADER
  5
2E0C3
330
747D
100
AcDbEntity
  8
寸法
 48
50.0
100
AcDbLeader
  3
INABA_S50G
 71
     0
 73
     0
 74
     0
 75
     1
 40
100.0
 41
222.7272727272727
 76
     3
 10
6257.866527897701
 20
1835.190855343163
 30
0.0
 10
6311.752464925096
 20
1934.426428196337
 30
0.0
 10
6436.752464925096
 20
1934.426428196337
 30
0.0
1001
ACAD
1000
DSTYLE
1002
{
1070
    40
1040
1.0
1070
   272
1070
     1
1070
   279
1070
     1
1070
   341
1005
0
1002
}
  0
LWPOLYLINE
  5
2E0C4
330
747D
100
AcDbEntity
  8
部品1
 48
50.0
100
AcDbPolyline
 90
        2
 70
     0
 43
8.0
 10
6353.866527897701
 20
1734.936425948918
 10
6768.006429730658
 20
1734.936425948918
  0
MTEXT
  5
2E0C5
102
{ACAD_REACTORS
330
2E0C7
102
}
330
747D
100
AcDbEntity
  8
寸法
 62
     7
 48
50.0
100
AcDbMText
 10
6585.194187704387
 20
1275.539357005945
 30
0.0
 40
80.0
 41
0.8
 71
     4
 72
     1
  1
D10
  7
STYLE2
 73
     1
 44
1.0
1001
ACAD
1000
MTEXTBEGIN
1070
    73
1070
     1
1070
    44
1040
1.0
1070
    74
1070
     0
1000
MTEXTEND
  0
LEADER
  5
2E0C6
330
747D
100
AcDbEntity
  8
寸法
 48
50.0
100
AcDbLeader
  3
INABA_S50G
 71
     0
 73
     0
 74
     0
 75
     1
 40
100.0
 41
540.3409090909091
 76
     3
 10
6331.811696910876
 20
1294.195895535392
 30
0.0
 10
6450.604983758953
 20
952.5650775404947
 30
0.0
 10
6575.604983758953
 20
952.5650775404947
 30
0.0
213
0.0
223
-1.022262676269383
233
0.0
1001
ACAD
1000
DSTYLE
1002
{
1070
    40
1040
1.0
1070
   272
1070
     1
1070
   279
1070
     1
1070
   341
1005
0
1002
}
  0
LEADER
  5
2E0C7
330
747D
100
AcDbEntity
  8
寸法
 48
50.0
100
AcDbLeader
  3
INABA_S50G
 71
     0
 73
     0
 74
     0
 75
     1
 40
100.0
 41
225.0
 76
     3
 10
6385.769480249845
 20
1310.936425948918
 30
0.0
 10
6440.194187704387
 20
1215.539357005945
 30
0.0
 10
6565.194187704387
 20
1215.539357005945
 30
0.0
1001
ACAD
1000
DSTYLE
1002
{
1070
    40
1040
1.0
1070
   272
1070
     1
1070
   279
1070
     1
1070
   341
1005
0
1002
}
  0
MTEXT
  5
2E0C8
102
{ACAD_REACTORS
330
2E0C3
102
}
330
747D
100
AcDbEntity
  8
寸法
 62
     7
 48
50.0
100
AcDbMText
 10
6436.752464925096
 20
1997.492325241728
 30
0.0
 40
80.0
 41
0.8
 71
     4
 72
     1
  1
D13
  7
STYLE2
 73
     1
 44
1.0
1001
ACAD
1000
MTEXTBEGIN
1070
    73
1070
     1
1070
    44
1040
1.0
1070
    74
1070
     0
1000
MTEXTEND
  0
LINE
  5
2E0C9
330
747D
100
AcDbEntity
  8
部品1
 48
50.0
100
AcDbLine
 10
6353.866527897703
 20
1974.936425948918
 30
0.0
 11
6353.866527897703
 21
1430.936425948917
 31
0.0
  0
LINE
  5
2E0CA
330
747D
100
AcDbEntity
  8
部品1
 48
50.0
100
AcDbLine
 10
6161.866527897703
 20
1430.936425948917
 30
0.0
 11
6161.866527897703
 21
1974.936425948918
 31
0.0
  0
CIRCLE
  5
2E0CB
330
747D
100
AcDbEntity
  8
部品1
 48
50.0
100
AcDbCircle
 10
6257.866527897703
 20
1835.190855343163
 30
0.0
 40
8.0
  0
ARC
  5
2E0CC
330
747D
100
AcDbEntity
  8
部品1
 48
50.0
100
AcDbCircle
 10
6257.866527897703
 20
1835.190855343163
 30
0.0
 40
24.0
100
AcDbArc
 50
0.0
 51
180.0
  0
LINE
  5
2E0CD
330
747D
100
AcDbEntity
  8
細線
 48
50.0
100
AcDbLine
 10
6281.866527897702
 20
1813.309318616748
 30
0.0
 11
6353.866527897703
 21
1885.309318616748
 31
0.0
  0
LEADER
  5
2E0CE
330
747D
100
AcDbEntity
  8
寸法
 48
50.0
100
AcDbLeader
  3
INABA_S50G
 73
     0
 75
     1
 40
106.3636363636363
 41
893.1818181818181
 76
     3
 10
7993.305841074897
 20
2044.496425948919
 30
0.0
 10
7944.881768729956
 20
2418.556000665251
 30
0.0
 10
7819.881768729956
 20
2418.556000665251
 30
0.0
340
2E0CF
1001
ACAD
1000
DSTYLE
1002
{
1070
   341
1005
0
1070
    40
1040
1.0
1070
   343
1005
0
1070
   344
1005
0
1002
}
  0
MTEXT
  5
2E0CF
102
{ACAD_REACTORS
330
2E0CE
102
}
330
747D
100
AcDbEntity
  8
寸法
 62
     7
 48
50.0
100
AcDbMText
 10
7794.881768729957
 20
2496.73781884707
 30
0.0
 40
80.0
 41
0.8
 71
     6
 72
     1
  1
\A1;アンカープレート L
  7
STYLE2
 73
     1
 44
1.0
1001
ACAD
1000
MTEXTBEGIN
1070
    73
1070
     1
1070
    44
1040
1.0
1070
    74
1070
     0
1000
MTEXTEND
  0
DIMENSION
  5
2E0D0
330
747D
100
AcDbEntity
  8
寸法
 48
50.0
100
AcDbDimension
  2
*D50
 10
6481.866527897702
 20
652.5067879437574
 30
0.0
 11
6237.769769219478
 21
652.5067879437574
 31
0.0
 70
   160
  1
300
 71
     5
 42
448.0
  3
INABA_S40G
100
AcDbAlignedDimension
 13
6033.866527897702
 23
1062.936425948917
 33
0.0
 14
6481.866527897702
 24
1062.936425948917
 34
0.0
100
AcDbRotatedDimension
1001
ACAD
1000
DSTYLE
1002
{
1070
   341
1005
0
1002
}
  0
MTEXT
  5
2E0D1
102
{ACAD_REACTORS
330
2E0D9
102
}
330
747D
100
AcDbEntity
  8
寸法
 62
     7
 48
50.0
100
AcDbMText
 10
5862.931501702508
 20
1107.413732330481
 30
0.0
 40
80.0
 41
0.8
 71
     6
 72
     1
  1
D10
  7
STYLE2
 73
     1
 44
1.0
1001
ACAD
1000
MTEXTBEGIN
1070
    73
1070
     1
1070
    44
1040
1.0
1070
    74
1070
     0
1000
MTEXTEND
  0
MTEXT
  5
2E0D2
102
{ACAD_REACTORS
330
2E0D8
102
}
330
747D
100
AcDbEntity
  8
寸法
 62
     7
 48
50.0
100
AcDbMText
 10
5891.054229259943
 20
927.0975797910377
 30
0.0
 40
80.0
 41
0.8
 71
     6
 72
     1
  1
D13
  7
STYLE2
 73
     1
 44
1.0
1001
ACAD
1000
MTEXTBEGIN
1070
    73
1070
     1
1070
    44
1040
1.0
1070
    74
1070
     0
1000
MTEXTEND
  0
DIMENSION
  5
2E0D3
330
747D
100
AcDbEntity
  8
寸法
 48
50.0
100
AcDbDimension
  2
*D51
 10
5426.829289335961
 20
1190.936425948918
 30
0.0
 11
5426.829289335961
 21
1562.476575604918
 31
0.0
 70
   160
  1
540
 71
     5
 42
784.0
  3
INABA_S40G
100
AcDbAlignedDimension
 13
6161.866527897701
 23
1974.936425948918
 33
0.0
 14
5953.866527897705
 24
1190.936425948917
 34
0.0
 50
90.0
100
AcDbRotatedDimension
1001
ACAD
1000
DSTYLE
1002
{
1070
   341
1005
0
1002
}
  0
MTEXT
  5
2E0D4
102
{ACAD_REACTORS
330
2E0D5
102
}
330
747D
100
AcDbEntity
  8
寸法
 62
     7
 48
50.0
100
AcDbMText
 10
5941.768048414428
 20
2187.45264595096
 30
0.0
 40
80.0
 41
0.8
 71
     6
 72
     1
  1
\A1;金コテ押エ
  7
STYLE2
 73
     1
 44
1.0
1001
ACAD
1000
MTEXTBEGIN
1070
    73
1070
     1
1070
    44
1040
1.0
1070
    74
1070
     0
1000
MTEXTEND
  0
LEADER
  5
2E0D5
330
747D
100
AcDbEntity
  8
寸法
 48
50.0
100
AcDbLeader
  3
INABA_S50G
 71
     0
 73
     0
 75
     1
 40
130.1136363636363
 41
651.1363636363636
 76
     3
 10
6241.866527897702
 20
1974.936425948918
 30
0.0
 10
6129.441947733685
 20
2115.407191405506
 30
0.0
 10
6004.441947733685
 20
2115.407191405506
 30
0.0
1001
ACAD
1000
DSTYLE
1002
{
1070
    40
1040
1.0
1070
   272
1070
     1
1070
   279
1070
     1
1070
   341
1005
0
1002
}
  0
LEADER
  5
2E0D6
330
747D
100
AcDbEntity
  8
寸法
 48
50.0
100
AcDbLeader
  3
INABA_S50G
 71
     0
 73
     0
 75
     1
 40
100.0
 41
540.3409090909091
 76
     3
 10
6265.866527897702
 20
1733.06364064604
 30
0.0
 10
6207.884291369003
 20
1511.593312105236
 30
0.0
 10
6082.884291369003
 20
1511.593312105236
 30
0.0
213
-9.732182305893367
223
-4.643716661138569
233
0.0
1001
ACAD
1000
DSTYLE
1002
{
1070
    40
1040
1.0
1070
   272
1070
     1
1070
   279
1070
     1
1070
   341
1005
0
1002
}
  0
MTEXT
  5
2E0D7
102
{ACAD_REACTORS
330
2E0D6
102
}
330
747D
100
AcDbEntity
  8
寸法
 62
     7
 48
50.0
100
AcDbMText
 10
6072.616473674897
 20
1576.237028766374
 30
0.0
 40
80.0
 41
0.8
 71
     6
 72
     1
  1
\A1;D10@300
  7
STYLE2
 73
     1
 44
1.0
1001
ACAD
1000
MTEXTBEGIN
1070
    73
1070
     1
1070
    44
1040
1.0
1070
    74
1070
     0
1000
MTEXTEND
  0
LEADER
  5
2E0D8
330
747D
100
AcDbEntity
  8
寸法
 48
50.0
100
AcDbLeader
  3
INABA_S50G
 71
     0
 73
     0
 75
     1
 40
100.0
 41
222.7272727272727
 76
     3
 10
6257.866527897701
 20
1310.936425948918
 30
0.0
 10
6036.054229259942
 20
867.0975797910378
 30
0.0
 10
5911.054229259942
 20
867.0975797910378
 30
0.0
1001
ACAD
1000
DSTYLE
1002
{
1070
    40
1040
1.0
1070
   272
1070
     1
1070
   279
1070
     1
1070
   341
1005
0
1002
}
  0
LEADER
  5
2E0D9
330
747D
100
AcDbEntity
  8
寸法
 48
50.0
100
AcDbLeader
  3
INABA_S50G
 71
     0
 73
     0
 75
     1
 40
100.0
 41
225.0
 76
     3
 10
6129.769480249844
 20
1310.936425948918
 30
0.0
 10
6007.931501702508
 20
1047.413732330481
 30
0.0
 10
5882.931501702508
 20
1047.413732330481
 30
0.0
1001
ACAD
1000
DSTYLE
1002
{
1070
    40
1040
1.0
1070
   272
1070
     1
1070
   279
1070
     1
1070
   341
1005
0
1002
}
  0
DIMENSION
  5
2E0DA
330
747D
100
AcDbEntity
  8
寸法
 48
50.0
100
AcDbDimension
  2
*D52
 10
5891.446214165242
 20
1190.936425948917
 30
0.0
 11
5891.446214165242
 21
1310.936425948918
 31
0.0
 70
   160
  1
150
 71
     5
 42
240.0
  3
INABA_S40G
100
AcDbAlignedDimension
 13
6033.866527897702
 23
1430.936425948917
 33
0.0
 14
5953.866527897705
 24
1190.936425948917
 34
0.0
 50
90.0
100
AcDbRotatedDimension
1001
ACAD
1000
DSTYLE
1002
{
1070
   341
1005
0
1002
}
  0
TEXT
  5
2E0DB
330
747D
100
AcDbEntity
  8
部品1
 48
50.0
100
AcDbText
 10
5747.726626064745
 20
1746.175418232173
 30
0.0
 40
80.0
  1
▽G.L
  7
STYLE2
100
AcDbText
  0
LWPOLYLINE
  5
2E0DC
330
747D
100
AcDbEntity
  8
部品1
 48
50.0
100
AcDbPolyline
 90
        2
 70
     0
 43
8.0
 10
5747.726626064745
 20
1734.936425948918
 10
6161.866527897701
 20
1734.936425948918
  0
MTEXT
  5
2E0DD
102
{ACAD_REACTORS
330
2E0DE
102
}
330
747D
100
AcDbEntity
  8
寸法
 62
     7
 48
50.0
100
AcDbMText
 10
7768.238762521598
 20
2857.422090754583
 30
0.0
 40
80.0
 41
0.8
 71
     6
 72
     1
  1
\A1;φ70スリーブ
  7
STYLE2
 73
     1
 44
1.0
1001
ACAD
1000
MTEXTBEGIN
1070
    73
1070
     1
1070
    44
1040
1.0
1070
    74
1070
     0
1000
MTEXTEND
  0
LEADER
  5
2E0DE
330
747D
100
AcDbEntity
  8
寸法
 48
50.0
100
AcDbLeader
  3
INABA_S50G
 73
     0
 75
     1
 40
113.1818181818182
 41
608.6363636363635
 76
     3
 10
8052.042591212947
 20
1924.452099307196
 30
0.0
 10
7918.238762521598
 20
2775.831181663674
 30
0.0
 10
7793.238762521598
 20
2775.831181663674
 30
0.0
340
2E0DD
1001
ACAD
1000
DSTYLE
1002
{
1070
   341
1005
0
1070
    40
1040
1.0
1070
   343
1005
0
1070
   344
1005
0
1002
}
  0
LINE
  5
2E0DF
330
747D
100
AcDbEntity
  8
部品1
100
AcDbLine
 10
5091.198089088439
 20
3374.275093149503
 30
0.0
 11
5091.19808908844
 21
409.9681235648558
 31
0.0
  0
LEADER
  5
2E0E0
330
747D
100
AcDbEntity
  8
寸法
 48
50.0
100
AcDbLeader
  3
INABA_S50G
 73
     0
 74
     0
 75
     1
 40
80.0
 41
435.0
 76
     3
 10
8092.305841074896
 20
2024.096425948918
 30
0.0
 10
8134.850303494216
 20
2174.319752102148
 30
0.0
 10
8259.850303494216
 20
2174.319752102148
 30
0.0
340
2E0E1
1001
ACAD
1000
DSTYLE
1002
{
1070
   341
1005
0
1070
    40
1040
1.0
1070
   343
1005
0
1070
   344
1005
0
1002
}
  0
MTEXT
  5
2E0E1
102
{ACAD_REACTORS
330
2E0E0
102
}
330
747D
100
AcDbEntity
  8
部品1
 62
     7
 48
50.0
100
AcDbMText
 10
8284.850303494215
 20
2239.319752102147
 30
0.0
 40
80.0
 41
0.8
 71
     4
 72
     1
  1
M10X160
  7
STYLE2
 73
     1
 44
1.0
1001
ACAD
1000
MTEXTBEGIN
1070
    73
1070
     1
1070
    44
1040
1.0
1070
    74
1070
     0
1000
MTEXTEND
  0
DIMENSION
  5
2E0E2
330
747D
100
AcDbEntity
  8
寸法
 48
50.0
100
AcDbDimension
  2
*D53
 10
9053.829106962767
 20
1974.936425948917
 30
0.0
 11
9053.829106962767
 21
1508.927522527435
 31
0.0
 70
   160
  1
20～25
 71
     5
 42
52.76000000000113
  3
INABA_S40G
100
AcDbAlignedDimension
 13
8088.705841074895
 23
2027.696425948919
 33
0.0
 14
8275.905841074894
 24
1974.936425948918
 34
0.0
 50
90.0
100
AcDbRotatedDimension
1001
ACAD
1000
DSTYLE
1002
{
1070
   341
1005
0
1002
}
  0
DIMENSION
  5
2E0E3
330
747D
100
AcDbEntity
  8
寸法
 48
50.0
100
AcDbDimension
  2
*D54
 10
8777.774440843741
 20
1650.936425948916
 30
0.0
 11
8677.774440843739
 21
1812.936425948918
 31
0.0
 70
    32
  1
180
 71
     5
 42
324.0000000000009
  3
INABA_S40G
100
AcDbAlignedDimension
 13
8275.905841074894
 23
1974.936425948918
 33
0.0
 14
8275.905841074894
 24
1650.936425948916
 34
0.0
 50
90.0
100
AcDbRotatedDimension
1001
ACAD
1000
DSTYLE
1002
{
1070
   341
1005
0
1002
}
  0
TEXT
  5
2E0E4
330
747D
100
AcDbEntity
  8
部品1
 48
50.0
100
AcDbText
 10
8280.259425359323
 20
2330.815106711118
 30
0.0
 40
80.0
  1
基礎ボルト(市販品)
  7
STYLE2
100
AcDbText
  0
LWPOLYLINE
  5
2E0E5
330
747D
100
AcDbEntity
  8
部品1
 48
50.0
100
AcDbPolyline
 90
        2
 70
     0
 43
8.0
 10
8275.905841074894
 20
1734.936425948918
 10
8569.608304474279
 20
1734.936425948918
  0
MTEXT
  5
2E0E6
102
{ACAD_REACTORS
330
2E0E7
102
}
330
747D
100
AcDbEntity
  8
部品1
 62
     7
 48
50.0
100
AcDbMText
 10
8315.177431443736
 20
2675.431799036178
 30
0.0
 40
80.0
 41
0.8
 71
     4
 72
     1
  1
\A1;ワッシャー(市販品)
  7
STYLE2
 73
     1
 44
1.0
1001
ACAD
1000
MTEXTBEGIN
1070
    73
1070
     1
1070
    44
1040
1.0
1070
    74
1070
     0
1000
MTEXTEND
  0
LEADER
  5
2E0E7
330
747D
100
AcDbEntity
  8
寸法
 48
50.0
100
AcDbLeader
  3
INABA_S50G
 73
     0
 74
     0
 75
     1
 40
102.2727272727273
 41
906.8181818181818
 76
     3
 10
8123.305841074897
 20
2244.059714393197
 30
0.0
 10
8165.177431443735
 20
2599.295435399814
 30
0.0
 10
8290.177431443735
 20
2599.295435399814
 30
0.0
340
2E0E6
1001
ACAD
1000
DSTYLE
1002
{
1070
   341
1005
0
1070
    40
1040
1.0
1070
   343
1005
0
1070
   344
1005
0
1002
}
  0
MTEXT
  5
2E0E8
102
{ACAD_REACTORS
330
2E0E9
102
}
330
747D
100
AcDbEntity
  8
部品1
 62
     7
 48
50.0
100
AcDbMText
 10
8283.659812188252
 20
2860.400881800965
 30
0.0
 40
80.0
 41
0.8
 71
     4
 72
     1
  1
\A1;ナット(市販品)
  7
STYLE2
 73
     1
 44
1.0
1001
ACAD
1000
MTEXTBEGIN
1070
    73
1070
     1
1070
    44
1040
1.0
1070
    74
1070
     0
1000
MTEXTEND
  0
LEADER
  5
2E0E9
330
747D
100
AcDbEntity
  8
寸法
 48
50.0
100
AcDbLeader
  3
INABA_S50G
 73
     0
 74
     0
 75
     1
 40
102.2727272727273
 41
680.0000000000001
 76
     3
 10
8099.305841074896
 20
2373.81170705806
 30
0.0
 10
8133.659812188254
 20
2784.264518164601
 30
0.0
 10
8258.659812188254
 20
2784.264518164601
 30
0.0
340
2E0E8
1001
ACAD
1000
DSTYLE
1002
{
1070
   341
1005
0
1070
    40
1040
1.0
1070
   343
1005
0
1070
   344
1005
0
1002
}
  0
LINE
  5
2E0EA
330
747D
100
AcDbEntity
  8
部品1
100
AcDbLine
 10
5091.198089088442
 20
409.9681235648558
 30
0.0
 11
11162.18327447469
 21
409.9681235648558
 31
0.0
  0
LINE
  5
2E0EB
330
747D
100
AcDbEntity
  8
部品1
100
AcDbLine
 10
11162.18327447469
 20
3134.275093149501
 30
0.0
 11
5091.19808908844
 21
3134.275093149501
 31
0.0
  0
LINE
  5
2E0EC
330
747D
100
AcDbEntity
  8
部品1
100
AcDbLine
 10
11162.18327447469
 20
3374.275093149503
 30
0.0
 11
5091.198089088437
 21
3374.275093149503
 31
0.0
  0
LINE
  5
2E180
330
747D
100
AcDbEntity
  8
細線
 48
50.0
100
AcDbLine
 10
9169.467411433709
 20
8084.985568651738
 30
0.0
 11
8840.184492948626
 21
5763.198455788518
 31
0.0
  0
SPLINE
  5
2E181
330
747D
100
AcDbEntity
  8
細線
 48
50.0
100
AcDbSpline
210
0.0
220
0.0
230
1.0
 70
     8
 71
     3
 72
    10
 73
     6
 74
     4
 42
0.0000000001
 43
0.0000000001
 44
0.0000000001
 40
0.0
 40
0.0
 40
0.0
 40
0.0
 40
192.2397835813012
 40
392.3518421163208
 40
606.4563990014053
 40
606.4563990014053
 40
606.4563990014053
 40
606.4563990014053
 10
9099.732821434001
 20
7030.910007326209
 30
0.0
 10
8999.786634190714
 20
7019.334243571019
 30
0.0
 10
8795.801434317553
 20
6995.708685173889
 30
0.0
 10
9215.458867245194
 20
6862.431925142741
 30
0.0
 10
8994.663461675008
 20
6838.206309816879
 30
0.0
 10
8880.536454906046
 20
6825.684323876378
 30
0.0
 11
9099.732821434001
 21
7030.910007326209
 31
0.0
 11
8914.043449632599
 21
6981.154690108981
 31
0.0
 11
9087.345575927527
 21
6881.098660841472
 31
0.0
 11
8880.536454906046
 21
6825.684323876378
 31
0.0
  0
ENDSEC
  0
SECTION
  2
OBJECTS
  0
DICTIONARY
  5
7471
330
0
100
AcDbDictionary
281
     1
  3
ACAD_COLOR
350
173D2
  3
ACAD_GROUP
350
7472
  3
ACAD_LAYOUT
350
173D3
  3
ACAD_MATERIAL
350
173D1
  3
ACAD_MLINESTYLE
350
7473
  3
ACAD_PLOTSETTINGS
350
173D4
  3
ACAD_PLOTSTYLENAME
350
173CF
  3
ACDBHEADERROUNDTRIPXREC
350
2E18D
  3
AcDbVariableDictionary
350
2D990
  3
CONTENTDICTIONARY
350
E71C
  3
DRAWINGVARIABLESDICT
350
F3B9
  0
DICTIONARY
  5
1758F
330
7467
100
AcDbDictionary
280
     1
281
     1
  3
ACAD_LAYERSTATES
360
17590
  0
DICTIONARY
  5
173D2
102
{ACAD_REACTORS
330
7471
102
}
330
7471
100
AcDbDictionary
281
     1
  0
DICTIONARY
  5
7472
102
{ACAD_REACTORS
330
7471
102
}
330
7471
100
AcDbDictionary
281
     1
  3
*A1
350
1D2A9
  0
DICTIONARY
  5
173D3
102
{ACAD_REACTORS
330
7471
102
}
330
7471
100
AcDbDictionary
281
     1
  3
Model
350
173D5
  3
レイアウト1
350
173D6
  0
DICTIONARY
  5
173D1
102
{ACAD_REACTORS
330
7471
102
}
330
7471
100
AcDbDictionary
281
     1
  0
DICTIONARY
  5
7473
102
{ACAD_REACTORS
330
7471
102
}
330
7471
100
AcDbDictionary
281
     1
  3
STANDARD
350
7480
  0
DICTIONARY
  5
173D4
102
{ACAD_REACTORS
330
7471
102
}
330
7471
100
AcDbDictionary
281
     1
  0
ACDBDICTIONARYWDFLT
  5
173CF
102
{ACAD_REACTORS
330
7471
102
}
330
7471
100
AcDbDictionary
281
     1
  3
Normal
350
173D0
100
AcDbDictionaryWithDefault
340
173D0
  0
DICTIONARY
  5
2E18D
102
{ACAD_REACTORS
330
7471
102
}
330
7471
100
AcDbDictionary
281
     1
  3
COLORDICT
350
2E18F
  3
MATERIALDICT
350
2E18E
  0
DICTIONARY
  5
2D990
102
{ACAD_REACTORS
330
7471
102
}
330
7471
100
AcDbDictionary
281
     1
  3
DIMASSOC
350
2D991
  3
PROJECTNAME
350
2D992
  0
DICTIONARY
  5
E71C
102
{ACAD_REACTORS
330
7471
102
}
330
7471
100
AcDbDictionary
281
     1
  0
DICTIONARY
  5
F3B9
102
{ACAD_REACTORS
330
7471
102
}
330
7471
100
AcDbDictionary
281
     1
1001
DRAWINGVARIABLESXDATA
1000
POLARMODE
1000
1
  0
DICTIONARY
  5
17590
102
{ACAD_REACTORS
330
1758F
102
}
330
1758F
100
AcDbDictionary
281
     1
  0
GROUP
  5
1D2A9
102
{ACAD_REACTORS
330
7472
102
}
330
7472
100
AcDbGroup
300

 70
     1
 71
     1
  0
LAYOUT
  5
173D5
102
{ACAD_XDICTIONARY
360
2E190
102
}
102
{ACAD_REACTORS
330
173D3
102
}
330
173D3
100
AcDbPlotSettings
  1

  2
Microsoft Office Document Image Writer
  4

  6

 40
0.0
 41
0.0
 42
0.0
 43
0.0
 44
0.0
 45
0.0
 46
0.0
 47
0.0
 48
0.0
 49
0.0
140
0.0
141
0.0
142
1.0
143
1.0
 70
  1712
 72
     0
 73
     0
 74
     0
  7

 75
     0
147
1.0
148
0.0
149
0.0
100
AcDbLayout
  1
Model
 70
     1
 71
     0
 10
0.0
 20
0.0
 11
12.0
 21
9.0
 12
0.0
 22
0.0
 32
0.0
 14
0.0
 24
0.0
 34
0.0
 15
0.0
 25
0.0
 35
0.0
146
0.0
 13
0.0
 23
0.0
 33
0.0
 16
1.0
 26
0.0
 36
0.0
 17
0.0
 27
1.0
 37
0.0
 76
     0
330
747D
  0
LAYOUT
  5
173D6
102
{ACAD_XDICTIONARY
360
2E192
102
}
102
{ACAD_REACTORS
330
173D3
102
}
330
173D3
100
AcDbPlotSettings
  1

  2
Microsoft Office Document Image Writer
  4

  6

 40
0.0
 41
0.0
 42
0.0
 43
0.0
 44
0.0
 45
0.0
 46
0.0
 47
0.0
 48
0.0
 49
0.0
140
0.0
141
0.0
142
1.0
143
1.0
 70
   688
 72
     0
 73
     0
 74
     5
  7

 75
    16
147
1.0
148
0.0
149
0.0
100
AcDbLayout
  1
レイアウト1
 70
     0
 71
     1
 10
0.0
 20
0.0
 11
420.0
 21
297.0
 12
0.0
 22
0.0
 32
0.0
 14
1.000000000000000E+20
 24
1.000000000000000E+20
 34
1.000000000000000E+20
 15
-1.000000000000000E+20
 25
-1.000000000000000E+20
 35
-1.000000000000000E+20
146
0.0
 13
0.0
 23
0.0
 33
0.0
 16
1.0
 26
0.0
 36
0.0
 17
0.0
 27
1.0
 37
0.0
 76
     0
330
747A
  0
MLINESTYLE
  5
7480
102
{ACAD_REACTORS
330
7473
102
}
330
7473
100
AcDbMlineStyle
  2
STANDARD
 70
     0
  3

 62
     0
 51
90.0
 52
90.0
 71
     2
 49
0.5
 62
   256
  6
BYLAYER
 49
-0.5
 62
   256
  6
BYLAYER
  0
ACDBPLACEHOLDER
  5
173D0
102
{ACAD_REACTORS
330
173CF
102
}
330
173CF
  0
XRECORD
  5
2E18F
102
{ACAD_REACTORS
330
2E18D
102
}
330
2E18D
100
AcDbXrecord
280
     1
340
173D2
  0
XRECORD
  5
2E18E
102
{ACAD_REACTORS
330
2E18D
102
}
330
2E18D
100
AcDbXrecord
280
     1
340
173D1
  0
DICTIONARYVAR
  5
2D991
102
{ACAD_REACTORS
330
2D990
102
}
330
2D990
100
DictionaryVariables
280
     0
  1
1
  0
DICTIONARYVAR
  5
2D992
102
{ACAD_REACTORS
330
2D990
102
}
330
2D990
100
DictionaryVariables
280
     0
  1

  0
DICTIONARY
  5
2E190
330
173D5
100
AcDbDictionary
280
     1
281
     1
  3
ACAD_XREC_ROUNDTRIP
360
2E191
  0
DICTIONARY
  5
2E192
330
173D6
100
AcDbDictionary
280
     1
281
     1
  3
ACAD_XREC_ROUNDTRIP
360
2E193
  0
XRECORD
  5
2E191
102
{ACAD_REACTORS
330
2E190
102
}
330
2E190
100
AcDbXrecord
280
     1
102
SHADEPLOT
 70
     0
102
SHADEPLOTRESLEVEL
 70
     2
102
SHADEPLOTCUSTOMDPI
 70
   300
  0
XRECORD
  5
2E193
102
{ACAD_REACTORS
330
2E192
102
}
330
2E192
100
AcDbXrecord
280
     1
102
SHADEPLOT
 70
     0
102
SHADEPLOTRESLEVEL
 70
     2
102
SHADEPLOTCUSTOMDPI
 70
   300
  0
ENDSEC
  0
EOF
