  0
SECTION
  2
HEADER
  9
$ACADVER
  1
AC1015
  9
$ACADMAINTVER
 70
    20
  9
$DWGCODEPAGE
  3
ANSI_932
  9
$INSBASE
 10
0.0
 20
0.0
 30
0.0
  9
$EXTMIN
 10
139.9999999999995
 20
-0.0000000000000909
 30
0.0
  9
$EXTMAX
 10
16307.2
 20
11409.6
 30
0.0
  9
$LIMMIN
 10
0.0
 20
0.0
  9
$LIMMAX
 10
16800.0
 20
11880.0
  9
$ORTHOMODE
 70
     0
  9
$REGENMODE
 70
     1
  9
$FILLMODE
 70
     1
  9
$QTEXTMODE
 70
     0
  9
$MIRRTEXT
 70
     1
  9
$LTSCALE
 40
20.0
  9
$ATTMODE
 70
     1
  9
$TEXTSIZE
 40
4.0
  9
$TRACEWID
 40
1.0
  9
$TEXTSTYLE
  7
STYLE1
  9
$CLAYER
  8
寸法
  9
$CELTYPE
  6
BYLAYER
  9
$CECOLOR
 62
   256
  9
$CELTSCALE
 40
50.0
  9
$DISPSILH
 70
     0
  9
$DIMSCALE
 40
40.0
  9
$DIMASZ
 40
2.5
  9
$DIMEXO
 40
0.5
  9
$DIMDLI
 40
7.0
  9
$DIMRND
 40
0.0
  9
$DIMDLE
 40
0.0
  9
$DIMEXE
 40
1.5
  9
$DIMTP
 40
0.0
  9
$DIMTM
 40
0.0
  9
$DIMTXT
 40
3.0
  9
$DIMCEN
 40
0.0
  9
$DIMTSZ
 40
0.0
  9
$DIMTOL
 70
     0
  9
$DIMLIM
 70
     0
  9
$DIMTIH
 70
     0
  9
$DIMTOH
 70
     0
  9
$DIMSE1
 70
     0
  9
$DIMSE2
 70
     0
  9
$DIMTAD
 70
     3
  9
$DIMZIN
 70
     8
  9
$DIMBLK
  1

  9
$DIMASO
 70
     1
  9
$DIMSHO
 70
     1
  9
$DIMPOST
  1

  9
$DIMAPOST
  1

  9
$DIMALT
 70
     0
  9
$DIMALTD
 70
     2
  9
$DIMALTF
 40
0.0394
  9
$DIMLFAC
 40
1.0
  9
$DIMTOFL
 70
     1
  9
$DIMTVP
 40
0.0
  9
$DIMTIX
 70
     1
  9
$DIMSOXD
 70
     0
  9
$DIMSAH
 70
     1
  9
$DIMBLK1
  1
DOTSMALL
  9
$DIMBLK2
  1
DOTSMALL
  9
$DIMSTYLE
  2
INABA_S40G
  9
$DIMCLRD
 70
     0
  9
$DIMCLRE
 70
     0
  9
$DIMCLRT
 70
     7
  9
$DIMTFAC
 40
1.0
  9
$DIMGAP
 40
1.0
  9
$DIMJUST
 70
     0
  9
$DIMSD1
 70
     0
  9
$DIMSD2
 70
     0
  9
$DIMTOLJ
 70
     1
  9
$DIMTZIN
 70
     0
  9
$DIMALTZ
 70
     0
  9
$DIMALTTZ
 70
     0
  9
$DIMUPT
 70
     0
  9
$DIMDEC
 70
     1
  9
$DIMTDEC
 70
     4
  9
$DIMALTU
 70
     2
  9
$DIMALTTD
 70
     2
  9
$DIMTXSTY
  7
STYLE1
  9
$DIMAUNIT
 70
     0
  9
$DIMADEC
 70
     0
  9
$DIMALTRND
 40
0.0
  9
$DIMAZIN
 70
     0
  9
$DIMDSEP
 70
    46
  9
$DIMATFIT
 70
     3
  9
$DIMFRAC
 70
     0
  9
$DIMLDRBLK
  1

  9
$DIMLUNIT
 70
     2
  9
$DIMLWD
 70
    -2
  9
$DIMLWE
 70
    -2
  9
$DIMTMOVE
 70
     0
  9
$LUNITS
 70
     2
  9
$LUPREC
 70
     1
  9
$SKETCHINC
 40
1.0
  9
$FILLETRAD
 40
3.0
  9
$AUNITS
 70
     0
  9
$AUPREC
 70
     0
  9
$MENU
  1
acad
  9
$ELEVATION
 40
0.0
  9
$PELEVATION
 40
0.0
  9
$THICKNESS
 40
0.0
  9
$LIMCHECK
 70
     0
  9
$CHAMFERA
 40
0.0
  9
$CHAMFERB
 40
0.0
  9
$CHAMFERC
 40
0.0
  9
$CHAMFERD
 40
0.0
  9
$SKPOLY
 70
     0
  9
$TDCREATE
 40
2451368.612993866
  9
$TDUCREATE
 40
2451368.237993866
  9
$TDUPDATE
 40
2455827.640895683
  9
$TDUUPDATE
 40
2455827.265895683
  9
$TDINDWG
 40
0.8832503009
  9
$TDUSRTIMER
 40
0.8832503009
  9
$USRTIMER
 70
     1
  9
$ANGBASE
 50
0.0
  9
$ANGDIR
 70
     0
  9
$PDMODE
 70
     3
  9
$PDSIZE
 40
2.0
  9
$PLINEWID
 40
0.0
  9
$SPLFRAME
 70
     0
  9
$SPLINETYPE
 70
     6
  9
$SPLINESEGS
 70
     8
  9
$HANDSEED
  5
28F8E
  9
$SURFTAB1
 70
     6
  9
$SURFTAB2
 70
     6
  9
$SURFTYPE
 70
     6
  9
$SURFU
 70
     6
  9
$SURFV
 70
     6
  9
$UCSBASE
  2

  9
$UCSNAME
  2

  9
$UCSORG
 10
0.0
 20
0.0
 30
0.0
  9
$UCSXDIR
 10
1.0
 20
0.0
 30
0.0
  9
$UCSYDIR
 10
0.0
 20
1.0
 30
0.0
  9
$UCSORTHOREF
  2

  9
$UCSORTHOVIEW
 70
     0
  9
$UCSORGTOP
 10
0.0
 20
0.0
 30
0.0
  9
$UCSORGBOTTOM
 10
0.0
 20
0.0
 30
0.0
  9
$UCSORGLEFT
 10
0.0
 20
0.0
 30
0.0
  9
$UCSORGRIGHT
 10
0.0
 20
0.0
 30
0.0
  9
$UCSORGFRONT
 10
0.0
 20
0.0
 30
0.0
  9
$UCSORGBACK
 10
0.0
 20
0.0
 30
0.0
  9
$PUCSBASE
  2

  9
$PUCSNAME
  2

  9
$PUCSORG
 10
0.0
 20
0.0
 30
0.0
  9
$PUCSXDIR
 10
1.0
 20
0.0
 30
0.0
  9
$PUCSYDIR
 10
0.0
 20
1.0
 30
0.0
  9
$PUCSORTHOREF
  2

  9
$PUCSORTHOVIEW
 70
     0
  9
$PUCSORGTOP
 10
0.0
 20
0.0
 30
0.0
  9
$PUCSORGBOTTOM
 10
0.0
 20
0.0
 30
0.0
  9
$PUCSORGLEFT
 10
0.0
 20
0.0
 30
0.0
  9
$PUCSORGRIGHT
 10
0.0
 20
0.0
 30
0.0
  9
$PUCSORGFRONT
 10
0.0
 20
0.0
 30
0.0
  9
$PUCSORGBACK
 10
0.0
 20
0.0
 30
0.0
  9
$USERI1
 70
     0
  9
$USERI2
 70
     0
  9
$USERI3
 70
     0
  9
$USERI4
 70
     0
  9
$USERI5
 70
     0
  9
$USERR1
 40
0.0
  9
$USERR2
 40
0.0
  9
$USERR3
 40
0.0
  9
$USERR4
 40
0.0
  9
$USERR5
 40
0.0
  9
$WORLDVIEW
 70
     1
  9
$SHADEDGE
 70
     3
  9
$SHADEDIF
 70
    70
  9
$TILEMODE
 70
     1
  9
$MAXACTVP
 70
    16
  9
$PINSBASE
 10
0.0
 20
0.0
 30
0.0
  9
$PLIMCHECK
 70
     0
  9
$PEXTMIN
 10
1.000000000000000E+20
 20
1.000000000000000E+20
 30
1.000000000000000E+20
  9
$PEXTMAX
 10
-1.000000000000000E+20
 20
-1.000000000000000E+20
 30
-1.000000000000000E+20
  9
$PLIMMIN
 10
0.0
 20
0.0
  9
$PLIMMAX
 10
420.0
 20
297.0
  9
$UNITMODE
 70
     0
  9
$VISRETAIN
 70
     0
  9
$PLINEGEN
 70
     0
  9
$PSLTSCALE
 70
     0
  9
$TREEDEPTH
 70
  3020
  9
$CMLSTYLE
  2
STANDARD
  9
$CMLJUST
 70
     0
  9
$CMLSCALE
 40
1.0
  9
$PROXYGRAPHICS
 70
     1
  9
$MEASUREMENT
 70
     1
  9
$CELWEIGHT
370
    -1
  9
$ENDCAPS
280
     0
  9
$JOINSTYLE
280
     0
  9
$LWDISPLAY
290
     0
  9
$INSUNITS
 70
     0
  9
$HYPERLINKBASE
  1

  9
$STYLESHEET
  1

  9
$XEDIT
290
     1
  9
$CEPSNTYPE
380
     0
  9
$PSTYLEMODE
290
     1
  9
$FINGERPRINTGUID
  2
{5EAC461A-2277-4BF8-9AB0-99C43BB394F0}
  9
$VERSIONGUID
  2
{14D365C5-D48F-4A02-A726-B6A0A600D697}
  9
$EXTNAMES
290
     1
  9
$PSVPSCALE
 40
0.0
  9
$OLESTARTUP
290
     0
  0
ENDSEC
  0
SECTION
  2
CLASSES
  0
CLASS
  1
ACDBDICTIONARYWDFLT
  2
AcDbDictionaryWithDefault
  3
ObjectDBX Classes
 90
        0
280
     0
281
     0
  0
CLASS
  1
DICTIONARYVAR
  2
AcDbDictionaryVar
  3
ObjectDBX Classes
 90
        0
280
     0
281
     0
  0
CLASS
  1
ACDBPLACEHOLDER
  2
AcDbPlaceHolder
  3
ObjectDBX Classes
 90
        0
280
     0
281
     0
  0
CLASS
  1
LAYOUT
  2
AcDbLayout
  3
ObjectDBX Classes
 90
        0
280
     0
281
     0
  0
ENDSEC
  0
SECTION
  2
TABLES
  0
TABLE
  2
VPORT
  5
746D
330
0
100
AcDbSymbolTable
 70
     2
  0
VPORT
  5
28F86
330
746D
100
AcDbSymbolTableRecord
100
AcDbViewportTableRecord
  2
*Active
 70
     0
 10
0.0
 20
0.0
 11
1.0
 21
1.0
 12
8400.000000000002
 22
6532.467989526317
 13
0.0
 23
0.0
 14
10.0
 24
10.0
 15
10.0
 25
10.0
 16
0.0
 26
0.0
 36
1.0
 17
0.0
 27
0.0
 37
0.0
 40
13159.96111582214
 41
1.522222222222222
 42
50.0
 43
0.0
 44
0.0
 50
0.0
 51
0.0
 71
     0
 72
     0
 73
     1
 74
     0
 75
     0
 76
     0
 77
     0
 78
     0
281
     0
 65
     1
110
0.0
120
0.0
130
0.0
111
1.0
121
0.0
131
0.0
112
0.0
122
1.0
132
0.0
 79
     0
146
0.0
  0
ENDTAB
  0
TABLE
  2
LTYPE
  5
746A
330
0
100
AcDbSymbolTable
 70
     5
  0
LTYPE
  5
7477
330
746A
100
AcDbSymbolTableRecord
100
AcDbLinetypeTableRecord
  2
BYBLOCK
 70
     0
  3

 72
    65
 73
     0
 40
0.0
  0
LTYPE
  5
7478
330
746A
100
AcDbSymbolTableRecord
100
AcDbLinetypeTableRecord
  2
BYLAYER
 70
     0
  3

 72
    65
 73
     0
 40
0.0
  0
LTYPE
  5
7479
330
746A
100
AcDbSymbolTableRecord
100
AcDbLinetypeTableRecord
  2
CONTINUOUS
 70
     0
  3
Solid line
 72
    65
 73
     0
 40
0.0
  0
LTYPE
  5
7816
330
746A
100
AcDbSymbolTableRecord
100
AcDbLinetypeTableRecord
  2
CENTER
 70
     0
  3
____ _ ____ _ ____ _ ____ _ ____ _ ____ _ ____ 
 72
    65
 73
     4
 40
2.0
 49
1.25
 74
     0
 49
-0.25
 74
     0
 49
0.25
 74
     0
 49
-0.25
 74
     0
  0
LTYPE
  5
781A
330
746A
100
AcDbSymbolTableRecord
100
AcDbLinetypeTableRecord
  2
HIDDEN
 70
     0
  3
__ __ __ __ __ __ __ __ __ __ __ __ __ __ __ __
 72
    65
 73
     2
 40
0.375
 49
0.25
 74
     0
 49
-0.125
 74
     0
  0
LTYPE
  5
781B
330
746A
100
AcDbSymbolTableRecord
100
AcDbLinetypeTableRecord
  2
PHANTOM
 70
     0
  3
______  __  __  ______  __  __  ______  __  __ 
 72
    65
 73
     6
 40
2.5
 49
1.25
 74
     0
 49
-0.25
 74
     0
 49
0.25
 74
     0
 49
-0.25
 74
     0
 49
0.25
 74
     0
 49
-0.25
 74
     0
  0
LTYPE
  5
12CC3
330
746A
100
AcDbSymbolTableRecord
100
AcDbLinetypeTableRecord
  2
HIDDENX2
 70
     0
  3
Hidden (2x) ____ ____ ____ ____ ____ ____ ____
 72
    65
 73
     2
 40
19.05
 49
12.7
 74
     0
 49
-6.349999999999999
 74
     0
  0
ENDTAB
  0
TABLE
  2
LAYER
  5
7467
102
{ACAD_XDICTIONARY
360
1758F
102
}
330
0
100
AcDbSymbolTable
 70
    12
  0
LAYER
  5
7474
330
7467
100
AcDbSymbolTableRecord
100
AcDbLayerTableRecord
  2
0
 70
     0
 62
     7
  6
CONTINUOUS
370
    -3
390
173D0
  0
LAYER
  5
DEB2
330
7467
100
AcDbSymbolTableRecord
100
AcDbLayerTableRecord
  2
センター
 70
     0
 62
     3
  6
CENTER
370
    -3
390
173D0
  0
LAYER
  5
DEB3
330
7467
100
AcDbSymbolTableRecord
100
AcDbLayerTableRecord
  2
寸法
 70
     0
 62
     4
  6
CONTINUOUS
370
    -3
390
173D0
  0
LAYER
  5
DEB4
330
7467
100
AcDbSymbolTableRecord
100
AcDbLayerTableRecord
  2
部品1
 70
     0
 62
     7
  6
CONTINUOUS
370
    -3
390
173D0
  0
LAYER
  5
DEB5
330
7467
100
AcDbSymbolTableRecord
100
AcDbLayerTableRecord
  2
補助
 70
     0
 62
    -1
  6
CONTINUOUS
370
    -3
390
173D0
  0
LAYER
  5
DEB6
330
7467
100
AcDbSymbolTableRecord
100
AcDbLayerTableRecord
  2
文字
 70
     0
 62
     7
  6
CONTINUOUS
370
    -3
390
173D0
  0
LAYER
  5
F255
330
7467
100
AcDbSymbolTableRecord
100
AcDbLayerTableRecord
  2
DEFPOINTS
 70
     0
 62
     7
  6
CONTINUOUS
290
     0
370
    -3
390
173D0
  0
LAYER
  5
10B54
330
7467
100
AcDbSymbolTableRecord
100
AcDbLayerTableRecord
  2
仕様書枠
 70
     0
 62
   230
  6
CONTINUOUS
370
    -3
390
173D0
  0
LAYER
  5
11729
330
7467
100
AcDbSymbolTableRecord
100
AcDbLayerTableRecord
  2
Ｇ．Ｌ
 70
     0
 62
    30
  6
CONTINUOUS
370
    -3
390
173D0
  0
LAYER
  5
1173F
330
7467
100
AcDbSymbolTableRecord
100
AcDbLayerTableRecord
  2
細線
 70
     0
 62
     5
  6
CONTINUOUS
370
    -3
390
173D0
  0
LAYER
  5
12CC4
330
7467
100
AcDbSymbolTableRecord
100
AcDbLayerTableRecord
  2
想像線
 70
     0
 62
     6
  6
PHANTOM
370
    -3
390
173D0
  0
LAYER
  5
142E2
330
7467
100
AcDbSymbolTableRecord
100
AcDbLayerTableRecord
  2
破線
 70
     0
 62
     2
  6
HIDDEN
370
    -3
390
173D0
  0
ENDTAB
  0
TABLE
  2
STYLE
  5
7468
330
0
100
AcDbSymbolTable
 70
     7
  0
STYLE
  5
7475
330
7468
100
AcDbSymbolTableRecord
100
AcDbTextStyleTableRecord
  2
STANDARD
 70
     0
 40
0.0
 41
1.0
 50
0.0
 71
     0
 42
4.0
  3
txt
  4
C:\AutoCAD LT\bigfont.shx
  0
STYLE
  5
763C
330
7468
100
AcDbSymbolTableRecord
100
AcDbTextStyleTableRecord
  2
MSMINCHO
 70
     0
 40
0.0
 41
1.0
 50
0.0
 71
     0
 42
1.199999999999999
  3
C:\AutoCAD LT\msminch2.TTF
  4

  0
STYLE
  5
F706
330
7468
100
AcDbSymbolTableRecord
100
AcDbTextStyleTableRecord
  2
STYLE1
 70
     0
 40
0.0
 41
1.0
 50
0.0
 71
     0
 42
4.0
  3
isocp.shx
  4
bigfont.shx
  0
STYLE
  5
103BF
330
7468
100
AcDbSymbolTableRecord
100
AcDbTextStyleTableRecord
  2
STYLE2
 70
     0
 40
0.0
 41
1.0
 50
0.0
 71
     0
 42
100.0
  3
MS PGothic.ttf
  4

1001
ACAD
1000
MS PGothic
1071
    32818
  0
STYLE
  5
10BAA
330
7468
100
AcDbSymbolTableRecord
100
AcDbTextStyleTableRecord
  2
STYLE3
 70
     0
 40
0.0
 41
1.0
 50
0.0
 71
     0
 42
100.0
  3

  4

1001
ACAD
1000
DFPGothic-EB
1071
    32818
  0
STYLE
  5
11A15
330
7468
100
AcDbSymbolTableRecord
100
AcDbTextStyleTableRecord
  2
MSGOTHIC
 70
     0
 40
0.0
 41
1.0
 50
0.0
 71
     0
 42
3.5
  3
msgothi2.ttf
  4

  0
STYLE
  5
13E96
330
7468
100
AcDbSymbolTableRecord
100
AcDbTextStyleTableRecord
  2
MSPゴシック
 70
     0
 40
0.0
 41
1.0
 50
0.0
 71
     0
 42
4.0
  3
MS PGothic.ttf
  4

1001
ACAD
1000
MS PGothic
1071
    32818
  0
ENDTAB
  0
TABLE
  2
VIEW
  5
746B
330
0
100
AcDbSymbolTable
 70
     0
  0
ENDTAB
  0
TABLE
  2
UCS
  5
746C
330
0
100
AcDbSymbolTable
 70
     0
  0
ENDTAB
  0
TABLE
  2
APPID
  5
746E
330
0
100
AcDbSymbolTable
 70
     6
  0
APPID
  5
7476
330
746E
100
AcDbSymbolTableRecord
100
AcDbRegAppTableRecord
  2
ACAD
 70
     0
  0
APPID
  5
DEA9
330
746E
100
AcDbSymbolTableRecord
100
AcDbRegAppTableRecord
  2
CONTENTBLOCKICON
 70
     0
  0
APPID
  5
DEAA
330
746E
100
AcDbSymbolTableRecord
100
AcDbRegAppTableRecord
  2
CONTENTBLOCKDESCRIPTION
 70
     0
  0
APPID
  5
E71D
330
746E
100
AcDbSymbolTableRecord
100
AcDbRegAppTableRecord
  2
CONTENTTABDATA
 70
     0
  0
APPID
  5
E71E
330
746E
100
AcDbSymbolTableRecord
100
AcDbRegAppTableRecord
  2
CONTENTCURRENTTAB
 70
     0
  0
APPID
  5
F3BA
330
746E
100
AcDbSymbolTableRecord
100
AcDbRegAppTableRecord
  2
DRAWINGVARIABLESXDATA
 70
     0
  0
ENDTAB
  0
TABLE
  2
DIMSTYLE
  5
746F
330
0
100
AcDbSymbolTable
 70
     6
100
AcDbDimStyleTable
 71
     1
340
F71F
  0
DIMSTYLE
105
7484
330
746F
100
AcDbSymbolTableRecord
100
AcDbDimStyleTableRecord
  2
JIS
 70
     0
 41
2.5
 42
1.0
 43
7.0
 44
1.0
 73
     0
 74
     0
 77
     1
 78
     8
140
2.5
141
0.0
143
0.0394
147
0.0
172
     1
174
     1
175
     1
340
7475
  0
DIMSTYLE
105
F236
330
746F
100
AcDbSymbolTableRecord
100
AcDbDimStyleTableRecord
  2
INABA_S40
 70
     0
 40
40.0
 41
2.5
 42
0.5
 43
7.0
 44
1.5
 73
     0
 74
     0
 77
     3
 78
     8
140
3.0
141
0.0
143
0.0394
147
1.0
172
     1
173
     1
174
     1
175
     1
178
     7
289
     0
340
7475
341
DEAC
343
DEAC
344
DEAC
  0
DIMSTYLE
105
F71F
102
{ACAD_REACTORS
330
20DE1
330
20DFB
330
22741
330
2275B
330
23FD9
330
24043
330
27DE5
330
284CF
330
2849B
330
28441
330
28440
330
2843C
330
28435
330
28409
330
283E6
330
283E5
330
283E3
330
28381
330
28380
330
2837F
330
2836E
330
2836D
330
28366
330
28363
330
28362
330
28388
330
28387
330
2837A
330
28379
330
2838D
330
2837E
330
28E7D
330
28EDD
330
28EE0
330
28EE7
330
28EEF
330
28EF0
102
}
330
746F
100
AcDbSymbolTableRecord
100
AcDbDimStyleTableRecord
  2
INABA_S40G
 70
     0
 40
40.0
 41
2.5
 42
0.5
 43
7.0
 44
1.5
 73
     0
 74
     0
 77
     3
 78
     8
140
3.0
141
0.0
143
0.0394
147
1.0
172
     1
173
     1
174
     1
178
     7
271
     1
340
F706
341
F770
343
F770
344
F770
  0
DIMSTYLE
105
142E3
330
746F
100
AcDbSymbolTableRecord
100
AcDbDimStyleTableRecord
  2
INABA_S1
 70
     0
 40
0.0
 41
2.5
 42
0.5
 43
7.0
 44
1.5
 73
     0
 74
     0
 77
     3
 78
     8
140
3.0
141
0.0
143
0.0394
146
0.5
147
0.5
172
     1
173
     1
176
   256
177
   256
178
     7
271
     2
272
     2
284
     8
288
     1
340
7475
341
DEAC
343
DEAC
344
DEAC
  0
DIMSTYLE
105
14463
330
746F
100
AcDbSymbolTableRecord
100
AcDbDimStyleTableRecord
  2
INABA_S30G
 70
     0
 40
30.0
 41
2.5
 42
0.5
 43
7.0
 44
1.5
 73
     0
 74
     0
 77
     3
 78
     8
140
3.0
141
0.0
143
0.0394
147
1.0
172
     1
173
     1
174
     1
175
     1
178
     7
271
     1
340
F706
341
F770
343
F770
344
F770
  0
DIMSTYLE
105
1758E
330
746F
100
AcDbSymbolTableRecord
100
AcDbDimStyleTableRecord
  2
INABA_S50G
 70
     0
 41
125.0
 42
25.0
 43
7.0
 44
75.0
 73
     0
 74
     0
 77
     3
 78
     8
140
150.0
141
0.0
143
0.0394
147
25.0
172
     1
173
     1
174
     1
175
     1
178
     7
271
     1
340
F706
341
F770
343
F770
344
F770
  0
ENDTAB
  0
TABLE
  2
BLOCK_RECORD
  5
7466
330
0
100
AcDbSymbolTable
 70
    66
  0
BLOCK_RECORD
  5
747D
330
7466
100
AcDbSymbolTableRecord
100
AcDbBlockTableRecord
  2
*MODEL_SPACE
340
173D5
  0
BLOCK_RECORD
  5
747A
330
7466
100
AcDbSymbolTableRecord
100
AcDbBlockTableRecord
  2
*PAPER_SPACE
340
173D6
  0
BLOCK_RECORD
  5
DEAC
330
7466
100
AcDbSymbolTableRecord
100
AcDbBlockTableRecord
  2
_OPEN
340
0
  0
BLOCK_RECORD
  5
F770
330
7466
100
AcDbSymbolTableRecord
100
AcDbBlockTableRecord
  2
_DOTSMALL
340
0
102
{BLKREFS
331
18C65
331
18C66
331
18C59
331
18C5A
331
18C4D
331
18C4E
331
18C41
331
18C42
331
18C35
331
18C36
331
18C29
331
18C2A
331
18C1D
331
18C1E
331
18C0F
331
18C10
331
18C03
331
18C04
331
18BF5
331
18BF6
331
18BE7
331
18BE8
331
18BD9
331
18BDA
331
18BCD
331
18BCE
331
21316
331
21317
331
21321
331
21322
331
2132A
331
2132B
331
2899D
331
2899E
331
289A6
331
289A7
331
289D3
331
289D4
331
289DD
331
289DE
331
289E7
331
289E8
331
289F0
331
289F1
331
28A26
331
28A27
331
28A2F
331
28A30
331
28A41
331
28A42
331
28A54
331
28A55
331
28A84
331
28A85
331
28A8E
331
28A8F
331
28AA3
331
28AA4
331
28AAE
331
28AAF
331
28AB9
331
28ABA
331
28ADD
331
28ADE
331
28AE6
331
28AE7
331
28B9E
331
28B9F
331
28BA8
331
28BA9
331
28BBA
331
28BBB
331
28BC3
331
28BC4
331
28BCC
331
28BCD
331
28BD5
331
28BD6
331
28BDE
331
28BDF
331
28BE7
331
28BE8
331
28BF0
331
28BF1
331
28BF9
331
28BFA
331
28C0B
331
28C0C
331
28C14
331
28C15
331
28C1D
331
28C1E
331
28C26
331
28C27
331
28C3C
331
28C3D
331
28C85
331
28C86
331
28C79
331
28C7A
331
28C6D
331
28C6E
331
28C61
331
28C62
331
28C55
331
28C56
331
28C47
331
28C48
331
28F47
331
28F48
331
28F50
331
28F51
331
28F59
331
28F5A
331
28F62
331
28F63
331
28F6D
331
28F6E
331
28F76
331
28F77
102
}
  0
BLOCK_RECORD
  5
164B4
330
7466
100
AcDbSymbolTableRecord
100
AcDbBlockTableRecord
  2
_DOT
340
0
102
{BLKREFS
331
18C73
331
18C74
102
}
  0
BLOCK_RECORD
  5
18BC8
330
7466
100
AcDbSymbolTableRecord
100
AcDbBlockTableRecord
  2
*D3
340
0
  0
BLOCK_RECORD
  5
18BD4
330
7466
100
AcDbSymbolTableRecord
100
AcDbBlockTableRecord
  2
*D4
340
0
  0
BLOCK_RECORD
  5
18BE0
330
7466
100
AcDbSymbolTableRecord
100
AcDbBlockTableRecord
  2
*D5
340
0
  0
BLOCK_RECORD
  5
18BEE
330
7466
100
AcDbSymbolTableRecord
100
AcDbBlockTableRecord
  2
*D6
340
0
  0
BLOCK_RECORD
  5
18BFC
330
7466
100
AcDbSymbolTableRecord
100
AcDbBlockTableRecord
  2
*D7
340
0
  0
BLOCK_RECORD
  5
18C0A
330
7466
100
AcDbSymbolTableRecord
100
AcDbBlockTableRecord
  2
*D8
340
0
  0
BLOCK_RECORD
  5
18C16
330
7466
100
AcDbSymbolTableRecord
100
AcDbBlockTableRecord
  2
*D9
340
0
  0
BLOCK_RECORD
  5
18C24
330
7466
100
AcDbSymbolTableRecord
100
AcDbBlockTableRecord
  2
*D10
340
0
  0
BLOCK_RECORD
  5
18C30
330
7466
100
AcDbSymbolTableRecord
100
AcDbBlockTableRecord
  2
*D11
340
0
  0
BLOCK_RECORD
  5
18C3C
330
7466
100
AcDbSymbolTableRecord
100
AcDbBlockTableRecord
  2
*D12
340
0
  0
BLOCK_RECORD
  5
18C48
330
7466
100
AcDbSymbolTableRecord
100
AcDbBlockTableRecord
  2
*D13
340
0
  0
BLOCK_RECORD
  5
18C54
330
7466
100
AcDbSymbolTableRecord
100
AcDbBlockTableRecord
  2
*D14
340
0
  0
BLOCK_RECORD
  5
18C60
330
7466
100
AcDbSymbolTableRecord
100
AcDbBlockTableRecord
  2
*D15
340
0
  0
BLOCK_RECORD
  5
18C6C
330
7466
100
AcDbSymbolTableRecord
100
AcDbBlockTableRecord
  2
*D16
340
0
  0
BLOCK_RECORD
  5
18C7A
330
7466
100
AcDbSymbolTableRecord
100
AcDbBlockTableRecord
  2
A$C3B1A506B
340
0
  0
BLOCK_RECORD
  5
1C4CA
330
7466
100
AcDbSymbolTableRecord
100
AcDbBlockTableRecord
  2
_NONE
340
0
  0
BLOCK_RECORD
  5
20DE2
330
7466
100
AcDbSymbolTableRecord
100
AcDbBlockTableRecord
  2
*D19
340
0
  0
BLOCK_RECORD
  5
20DFC
330
7466
100
AcDbSymbolTableRecord
100
AcDbBlockTableRecord
  2
*D20
340
0
  0
BLOCK_RECORD
  5
22742
330
7466
100
AcDbSymbolTableRecord
100
AcDbBlockTableRecord
  2
*D25
340
0
  0
BLOCK_RECORD
  5
2275C
330
7466
100
AcDbSymbolTableRecord
100
AcDbBlockTableRecord
  2
*D26
340
0
  0
BLOCK_RECORD
  5
240C4
330
7466
100
AcDbSymbolTableRecord
100
AcDbBlockTableRecord
  2
*D27
340
0
  0
BLOCK_RECORD
  5
240D1
330
7466
100
AcDbSymbolTableRecord
100
AcDbBlockTableRecord
  2
*D28
340
0
  0
BLOCK_RECORD
  5
27EF8
330
7466
100
AcDbSymbolTableRecord
100
AcDbBlockTableRecord
  2
*D29
340
0
  0
BLOCK_RECORD
  5
284E2
330
7466
100
AcDbSymbolTableRecord
100
AcDbBlockTableRecord
  2
*D30
340
0
  0
BLOCK_RECORD
  5
284FB
330
7466
100
AcDbSymbolTableRecord
100
AcDbBlockTableRecord
  2
*D31
340
0
  0
BLOCK_RECORD
  5
28515
330
7466
100
AcDbSymbolTableRecord
100
AcDbBlockTableRecord
  2
*D32
340
0
  0
BLOCK_RECORD
  5
28521
330
7466
100
AcDbSymbolTableRecord
100
AcDbBlockTableRecord
  2
*D33
340
0
  0
BLOCK_RECORD
  5
2852D
330
7466
100
AcDbSymbolTableRecord
100
AcDbBlockTableRecord
  2
*D34
340
0
  0
BLOCK_RECORD
  5
28539
330
7466
100
AcDbSymbolTableRecord
100
AcDbBlockTableRecord
  2
*D35
340
0
  0
BLOCK_RECORD
  5
28544
330
7466
100
AcDbSymbolTableRecord
100
AcDbBlockTableRecord
  2
*D36
340
0
  0
BLOCK_RECORD
  5
2854F
330
7466
100
AcDbSymbolTableRecord
100
AcDbBlockTableRecord
  2
*D37
340
0
  0
BLOCK_RECORD
  5
2855B
330
7466
100
AcDbSymbolTableRecord
100
AcDbBlockTableRecord
  2
*D38
340
0
  0
BLOCK_RECORD
  5
28567
330
7466
100
AcDbSymbolTableRecord
100
AcDbBlockTableRecord
  2
*D39
340
0
  0
BLOCK_RECORD
  5
28573
330
7466
100
AcDbSymbolTableRecord
100
AcDbBlockTableRecord
  2
*D40
340
0
  0
BLOCK_RECORD
  5
2857F
330
7466
100
AcDbSymbolTableRecord
100
AcDbBlockTableRecord
  2
*D41
340
0
  0
BLOCK_RECORD
  5
2858A
330
7466
100
AcDbSymbolTableRecord
100
AcDbBlockTableRecord
  2
*D42
340
0
  0
BLOCK_RECORD
  5
285A3
330
7466
100
AcDbSymbolTableRecord
100
AcDbBlockTableRecord
  2
*D43
340
0
  0
BLOCK_RECORD
  5
285B0
330
7466
100
AcDbSymbolTableRecord
100
AcDbBlockTableRecord
  2
*D44
340
0
  0
BLOCK_RECORD
  5
285C8
330
7466
100
AcDbSymbolTableRecord
100
AcDbBlockTableRecord
  2
*D45
340
0
  0
BLOCK_RECORD
  5
285D4
330
7466
100
AcDbSymbolTableRecord
100
AcDbBlockTableRecord
  2
*D46
340
0
  0
BLOCK_RECORD
  5
285DF
330
7466
100
AcDbSymbolTableRecord
100
AcDbBlockTableRecord
  2
*D47
340
0
  0
BLOCK_RECORD
  5
285EC
330
7466
100
AcDbSymbolTableRecord
100
AcDbBlockTableRecord
  2
*D48
340
0
  0
BLOCK_RECORD
  5
28610
330
7466
100
AcDbSymbolTableRecord
100
AcDbBlockTableRecord
  2
*D49
340
0
  0
BLOCK_RECORD
  5
28629
330
7466
100
AcDbSymbolTableRecord
100
AcDbBlockTableRecord
  2
*D50
340
0
  0
BLOCK_RECORD
  5
28635
330
7466
100
AcDbSymbolTableRecord
100
AcDbBlockTableRecord
  2
*D51
340
0
  0
BLOCK_RECORD
  5
28641
330
7466
100
AcDbSymbolTableRecord
100
AcDbBlockTableRecord
  2
*D52
340
0
  0
BLOCK_RECORD
  5
2864D
330
7466
100
AcDbSymbolTableRecord
100
AcDbBlockTableRecord
  2
*D53
340
0
  0
BLOCK_RECORD
  5
28EFA
330
7466
100
AcDbSymbolTableRecord
100
AcDbBlockTableRecord
  2
*D60
340
0
  0
BLOCK_RECORD
  5
28F06
330
7466
100
AcDbSymbolTableRecord
100
AcDbBlockTableRecord
  2
*D61
340
0
  0
BLOCK_RECORD
  5
28F12
330
7466
100
AcDbSymbolTableRecord
100
AcDbBlockTableRecord
  2
*D62
340
0
  0
BLOCK_RECORD
  5
28F1E
330
7466
100
AcDbSymbolTableRecord
100
AcDbBlockTableRecord
  2
*D63
340
0
  0
BLOCK_RECORD
  5
28F2A
330
7466
100
AcDbSymbolTableRecord
100
AcDbBlockTableRecord
  2
*D64
340
0
  0
BLOCK_RECORD
  5
28F38
330
7466
100
AcDbSymbolTableRecord
100
AcDbBlockTableRecord
  2
*D65
340
0
  0
ENDTAB
  0
ENDSEC
  0
SECTION
  2
BLOCKS
  0
BLOCK
  5
7489
330
747D
100
AcDbEntity
  8
0
100
AcDbBlockBegin
  2
*MODEL_SPACE
 70
     0
 10
0.0
 20
0.0
 30
0.0
  3
*MODEL_SPACE
  1

  0
ENDBLK
  5
748A
330
747D
100
AcDbEntity
  8
0
100
AcDbBlockEnd
  0
BLOCK
  5
7487
330
747A
100
AcDbEntity
 67
     1
  8
0
100
AcDbBlockBegin
  2
*PAPER_SPACE
 70
     0
 10
0.0
 20
0.0
 30
0.0
  3
*PAPER_SPACE
  1

  0
ENDBLK
  5
7488
330
747A
100
AcDbEntity
 67
     1
  8
0
100
AcDbBlockEnd
  0
BLOCK
  5
DEAD
330
DEAC
100
AcDbEntity
  8
0
100
AcDbBlockBegin
  2
_OPEN
 70
     0
 10
0.0
 20
0.0
 30
0.0
  3
_OPEN
  1

  0
LINE
  5
DEAE
330
DEAC
100
AcDbEntity
  8
0
  6
ByBlock
 62
     0
100
AcDbLine
 10
-1.0
 20
0.1666666666666666
 30
0.0
 11
0.0
 21
0.0
 31
0.0
  0
LINE
  5
DEAF
330
DEAC
100
AcDbEntity
  8
0
  6
ByBlock
 62
     0
100
AcDbLine
 10
0.0
 20
0.0
 30
0.0
 11
-1.0
 21
-0.1666666666666666
 31
0.0
  0
LINE
  5
DEB0
330
DEAC
100
AcDbEntity
  8
0
  6
ByBlock
 62
     0
100
AcDbLine
 10
0.0
 20
0.0
 30
0.0
 11
-1.0
 21
0.0
 31
0.0
  0
ENDBLK
  5
DEB1
330
DEAC
100
AcDbEntity
  8
0
100
AcDbBlockEnd
  0
BLOCK
  5
F771
330
F770
100
AcDbEntity
  8
0
 48
50.0
100
AcDbBlockBegin
  2
_DOTSMALL
 70
     0
 10
0.0
 20
0.0
 30
0.0
  3
_DOTSMALL
  1

  0
LWPOLYLINE
  5
F772
330
F770
100
AcDbEntity
  8
0
  6
ByBlock
 62
     0
 48
50.0
100
AcDbPolyline
 90
        2
 70
     1
 43
0.5
 10
-0.0625
 20
0.0
 42
1.0
 10
0.0625
 20
0.0
 42
1.0
  0
ENDBLK
  5
F776
330
F770
100
AcDbEntity
  8
0
 48
50.0
100
AcDbBlockEnd
  0
BLOCK
  5
164BA
330
164B4
100
AcDbEntity
  8
0
 48
50.0
100
AcDbBlockBegin
  2
_DOT
 70
     0
 10
0.0
 20
0.0
 30
0.0
  3
_DOT
  1

  0
LWPOLYLINE
  5
164B5
330
164B4
100
AcDbEntity
  8
0
  6
ByBlock
 62
     0
 48
50.0
100
AcDbPolyline
 90
        2
 70
     1
 43
0.5
 10
-0.25
 20
0.0
 42
1.0
 10
0.25
 20
0.0
 42
1.0
  0
LINE
  5
164B9
330
164B4
100
AcDbEntity
  8
0
  6
ByBlock
 62
     0
 48
50.0
100
AcDbLine
 10
-0.5
 20
0.0
 30
0.0
 11
-1.0
 21
0.0
 31
0.0
  0
ENDBLK
  5
164BB
330
164B4
100
AcDbEntity
  8
0
 48
50.0
100
AcDbBlockEnd
  0
BLOCK
  5
18BC9
330
18BC8
100
AcDbEntity
  8
0
 48
50.0
100
AcDbBlockBegin
  2
*D3
 70
     1
 10
0.0
 20
0.0
 30
0.0
  3
*D3
  1

  0
LINE
  5
18BCA
330
18BC8
100
AcDbEntity
  8
寸法
 62
     0
 48
50.0
370
    -2
100
AcDbLine
 10
7649.896575106999
 20
9636.123139034717
 30
0.0
 11
8702.429862581047
 21
9636.123139034717
 31
0.0
  0
LINE
  5
18BCB
330
18BC8
100
AcDbEntity
  8
寸法
 62
     0
 48
50.0
370
    -2
100
AcDbLine
 10
7649.896575106973
 20
7846.123139034709
 30
0.0
 11
8702.429862581047
 21
7846.123139034709
 31
0.0
  0
LINE
  5
18BCC
330
18BC8
100
AcDbEntity
  8
寸法
 62
     0
 48
50.0
370
    -2
100
AcDbLine
 10
8642.429862581046
 20
9636.123139034717
 30
0.0
 11
8642.429862581046
 21
7846.123139034709
 31
0.0
  0
INSERT
  5
18BCD
330
18BC8
100
AcDbEntity
  8
寸法
 62
     0
 48
50.0
370
    -2
100
AcDbBlockReference
  2
_DOTSMALL
 10
8642.429862581046
 20
9636.123139034717
 30
0.0
 41
100.0
 42
100.0
 43
100.0
 50
90.0
  0
INSERT
  5
18BCE
330
18BC8
100
AcDbEntity
  8
寸法
 62
     0
 48
50.0
370
    -2
100
AcDbBlockReference
  2
_DOTSMALL
 10
8642.429862581046
 20
7846.123139034709
 30
0.0
 41
100.0
 42
100.0
 43
100.0
 50
270.0
  0
MTEXT
  5
18BCF
330
18BC8
100
AcDbEntity
  8
寸法
 62
     7
 48
50.0
100
AcDbMText
 10
8542.429862581045
 20
8741.123139034712
 30
0.0
 40
120.0
 41
0.0
 71
     5
 72
     1
  1
\A1;1790
  7
STYLE1
 11
0.0000000000000001
 21
1.0
 31
0.0
 73
     1
 44
1.0
1001
ACAD
1000
MTEXTBEGIN
1070
    73
1070
     1
1070
    44
1040
1.0
1070
    74
1070
     0
1000
MTEXTEND
  0
POINT
  5
18BD0
330
18BC8
100
AcDbEntity
  8
DEFPOINTS
 62
     0
 48
50.0
100
AcDbPoint
 10
7629.896575106998
 20
9636.123139034717
 30
0.0
  0
POINT
  5
18BD1
330
18BC8
100
AcDbEntity
  8
DEFPOINTS
 62
     0
 48
50.0
100
AcDbPoint
 10
7629.896575106974
 20
7846.123139034709
 30
0.0
  0
POINT
  5
18BD2
330
18BC8
100
AcDbEntity
  8
DEFPOINTS
 62
     0
 48
50.0
100
AcDbPoint
 10
8642.429862581046
 20
7846.123139034709
 30
0.0
  0
ENDBLK
  5
18BD3
330
18BC8
100
AcDbEntity
  8
0
 48
50.0
100
AcDbBlockEnd
  0
BLOCK
  5
18BD5
330
18BD4
100
AcDbEntity
  8
0
 48
50.0
100
AcDbBlockBegin
  2
*D4
 70
     1
 10
0.0
 20
0.0
 30
0.0
  3
*D4
  1

  0
LINE
  5
18BD6
330
18BD4
100
AcDbEntity
  8
寸法
 62
     0
 48
50.0
370
    -2
100
AcDbLine
 10
4214.896575106998
 20
9656.123139034622
 30
0.0
 11
4214.896575106998
 21
10211.93135865972
 31
0.0
  0
LINE
  5
18BD7
330
18BD4
100
AcDbEntity
  8
寸法
 62
     0
 48
50.0
370
    -2
100
AcDbLine
 10
7574.896575106999
 20
9656.123139034718
 30
0.0
 11
7574.896575106999
 21
10211.93135865972
 31
0.0
  0
LINE
  5
18BD8
330
18BD4
100
AcDbEntity
  8
寸法
 62
     0
 48
50.0
370
    -2
100
AcDbLine
 10
4214.896575106998
 20
10151.93135865972
 30
0.0
 11
7574.896575106999
 21
10151.93135865972
 31
0.0
  0
INSERT
  5
18BD9
330
18BD4
100
AcDbEntity
  8
寸法
 62
     0
 48
50.0
370
    -2
100
AcDbBlockReference
  2
_DOTSMALL
 10
4214.896575106998
 20
10151.93135865972
 30
0.0
 41
100.0
 42
100.0
 43
100.0
 50
180.0
  0
INSERT
  5
18BDA
330
18BD4
100
AcDbEntity
  8
寸法
 62
     0
 48
50.0
370
    -2
100
AcDbBlockReference
  2
_DOTSMALL
 10
7574.896575106999
 20
10151.93135865972
 30
0.0
 41
100.0
 42
100.0
 43
100.0
  0
MTEXT
  5
18BDB
330
18BD4
100
AcDbEntity
  8
寸法
 62
     7
 48
50.0
100
AcDbMText
 10
5894.896575106997
 20
10251.94316968334
 30
0.0
 40
120.0
 41
0.0
 71
     5
 72
     1
  1
\A1;8X420=3360
  7
STYLE1
 73
     1
 44
1.0
1001
ACAD
1000
MTEXTBEGIN
1070
    73
1070
     1
1070
    44
1040
1.0
1070
    74
1070
     0
1000
MTEXTEND
  0
POINT
  5
18BDC
330
18BD4
100
AcDbEntity
  8
DEFPOINTS
 62
     0
 48
50.0
100
AcDbPoint
 10
4214.896575106998
 20
9636.123139034623
 30
0.0
  0
POINT
  5
18BDD
330
18BD4
100
AcDbEntity
  8
DEFPOINTS
 62
     0
 48
50.0
100
AcDbPoint
 10
7574.896575106999
 20
9636.123139034717
 30
0.0
  0
POINT
  5
18BDE
330
18BD4
100
AcDbEntity
  8
DEFPOINTS
 62
     0
 48
50.0
100
AcDbPoint
 10
7574.896575106999
 20
10151.93135865972
 30
0.0
  0
ENDBLK
  5
18BDF
330
18BD4
100
AcDbEntity
  8
0
 48
50.0
100
AcDbBlockEnd
  0
BLOCK
  5
18BE1
330
18BE0
100
AcDbEntity
  8
0
 48
50.0
100
AcDbBlockBegin
  2
*D5
 70
     1
 10
0.0
 20
0.0
 30
0.0
  3
*D5
  1

  0
LINE
  5
18BE2
330
18BE0
100
AcDbEntity
  8
寸法
 62
     0
 48
50.0
370
    -2
100
AcDbLine
 10
7574.896575106999
 20
9656.123139034718
 30
0.0
 11
7574.896575106999
 21
10211.9313586597
 31
0.0
  0
LINE
  5
18BE3
330
18BE0
100
AcDbEntity
  8
寸法
 62
     0
 48
50.0
370
    -2
100
AcDbLine
 10
7629.896575106998
 20
9656.123139034718
 30
0.0
 11
7629.896575106998
 21
10211.9313586597
 31
0.0
  0
LINE
  5
18BE4
330
18BE0
100
AcDbEntity
  8
寸法
 62
     0
 48
50.0
370
    -2
100
AcDbLine
 10
7574.896575106999
 20
10151.9313586597
 30
0.0
 11
7474.896575106999
 21
10151.9313586597
 31
0.0
  0
LINE
  5
18BE5
330
18BE0
100
AcDbEntity
  8
寸法
 62
     0
 48
50.0
370
    -2
100
AcDbLine
 10
7629.896575106998
 20
10151.9313586597
 30
0.0
 11
8046.867137855477
 21
10151.9313586597
 31
0.0
  0
LINE
  5
18BE6
330
18BE0
100
AcDbEntity
  8
寸法
 62
     0
 48
50.0
370
    -2
100
AcDbLine
 10
7574.896575106999
 20
10151.9313586597
 30
0.0
 11
7629.896575106998
 21
10151.9313586597
 31
0.0
  0
INSERT
  5
18BE7
330
18BE0
100
AcDbEntity
  8
寸法
 62
     0
 48
50.0
370
    -2
100
AcDbBlockReference
  2
_DOTSMALL
 10
7574.896575106999
 20
10151.9313586597
 30
0.0
 41
100.0
 42
100.0
 43
100.0
  0
INSERT
  5
18BE8
330
18BE0
100
AcDbEntity
  8
寸法
 62
     0
 48
50.0
370
    -2
100
AcDbBlockReference
  2
_DOTSMALL
 10
7629.896575106998
 20
10151.9313586597
 30
0.0
 41
100.0
 42
100.0
 43
100.0
 50
180.0
  0
MTEXT
  5
18BE9
330
18BE0
100
AcDbEntity
  8
寸法
 62
     7
 48
50.0
100
AcDbMText
 10
7938.381856481237
 20
10251.9313586597
 30
0.0
 40
120.0
 41
0.0
 71
     5
 72
     1
  1
\A1;55
  7
STYLE1
 73
     1
 44
1.0
1001
ACAD
1000
MTEXTBEGIN
1070
    73
1070
     1
1070
    44
1040
1.0
1070
    74
1070
     0
1000
MTEXTEND
  0
POINT
  5
18BEA
330
18BE0
100
AcDbEntity
  8
DEFPOINTS
 62
     0
 48
50.0
100
AcDbPoint
 10
7574.896575106999
 20
9636.123139034717
 30
0.0
  0
POINT
  5
18BEB
330
18BE0
100
AcDbEntity
  8
DEFPOINTS
 62
     0
 48
50.0
100
AcDbPoint
 10
7629.896575106998
 20
9636.123139034717
 30
0.0
  0
POINT
  5
18BEC
330
18BE0
100
AcDbEntity
  8
DEFPOINTS
 62
     0
 48
50.0
100
AcDbPoint
 10
7629.896575106998
 20
10151.9313586597
 30
0.0
  0
ENDBLK
  5
18BED
330
18BE0
100
AcDbEntity
  8
0
 48
50.0
100
AcDbBlockEnd
  0
BLOCK
  5
18BEF
330
18BEE
100
AcDbEntity
  8
0
 48
50.0
100
AcDbBlockBegin
  2
*D6
 70
     1
 10
0.0
 20
0.0
 30
0.0
  3
*D6
  1

  0
LINE
  5
18BF0
330
18BEE
100
AcDbEntity
  8
寸法
 62
     0
 48
50.0
370
    -2
100
AcDbLine
 10
7649.896575106999
 20
9636.123139034717
 30
0.0
 11
8337.32292084141
 21
9636.123139034717
 31
0.0
  0
LINE
  5
18BF1
330
18BEE
100
AcDbEntity
  8
寸法
 62
     0
 48
50.0
370
    -2
100
AcDbLine
 10
7649.896575106999
 20
9581.123139034721
 30
0.0
 11
8337.32292084141
 21
9581.123139034721
 31
0.0
  0
LINE
  5
18BF2
330
18BEE
100
AcDbEntity
  8
寸法
 62
     0
 48
50.0
370
    -2
100
AcDbLine
 10
8277.322920841411
 20
9581.123139034721
 30
0.0
 11
8277.322920841411
 21
9481.123139034719
 31
0.0
  0
LINE
  5
18BF3
330
18BEE
100
AcDbEntity
  8
寸法
 62
     0
 48
50.0
370
    -2
100
AcDbLine
 10
8277.322920841411
 20
9636.123139034717
 30
0.0
 11
8277.322920841411
 21
10053.09370178319
 31
0.0
  0
LINE
  5
18BF4
330
18BEE
100
AcDbEntity
  8
寸法
 62
     0
 48
50.0
370
    -2
100
AcDbLine
 10
8277.322920841411
 20
9581.123139034721
 30
0.0
 11
8277.322920841411
 21
9636.123139034717
 31
0.0
  0
INSERT
  5
18BF5
330
18BEE
100
AcDbEntity
  8
寸法
 62
     0
 48
50.0
370
    -2
100
AcDbBlockReference
  2
_DOTSMALL
 10
8277.322920841411
 20
9581.123139034721
 30
0.0
 41
100.0
 42
100.0
 43
100.0
 50
90.0
  0
INSERT
  5
18BF6
330
18BEE
100
AcDbEntity
  8
寸法
 62
     0
 48
50.0
370
    -2
100
AcDbBlockReference
  2
_DOTSMALL
 10
8277.322920841411
 20
9636.123139034717
 30
0.0
 41
100.0
 42
100.0
 43
100.0
 50
270.0
  0
MTEXT
  5
18BF7
330
18BEE
100
AcDbEntity
  8
寸法
 62
     7
 48
50.0
100
AcDbMText
 10
8177.32292084141
 20
9944.608420408957
 30
0.0
 40
120.0
 41
0.0
 71
     5
 72
     1
  1
\A1;55
  7
STYLE1
 11
0.0000000000000001
 21
1.0
 31
0.0
 73
     1
 44
1.0
1001
ACAD
1000
MTEXTBEGIN
1070
    73
1070
     1
1070
    44
1040
1.0
1070
    74
1070
     0
1000
MTEXTEND
  0
POINT
  5
18BF8
330
18BEE
100
AcDbEntity
  8
DEFPOINTS
 62
     0
 48
50.0
100
AcDbPoint
 10
7629.896575106998
 20
9636.123139034717
 30
0.0
  0
POINT
  5
18BF9
330
18BEE
100
AcDbEntity
  8
DEFPOINTS
 62
     0
 48
50.0
100
AcDbPoint
 10
7629.896575106998
 20
9581.123139034721
 30
0.0
  0
POINT
  5
18BFA
330
18BEE
100
AcDbEntity
  8
DEFPOINTS
 62
     0
 48
50.0
100
AcDbPoint
 10
8277.322920841411
 20
9581.123139034721
 30
0.0
  0
ENDBLK
  5
18BFB
330
18BEE
100
AcDbEntity
  8
0
 48
50.0
100
AcDbBlockEnd
  0
BLOCK
  5
18BFD
330
18BFC
100
AcDbEntity
  8
0
 48
50.0
100
AcDbBlockBegin
  2
*D7
 70
     1
 10
0.0
 20
0.0
 30
0.0
  3
*D7
  1

  0
LINE
  5
18BFE
330
18BFC
100
AcDbEntity
  8
寸法
 62
     0
 48
50.0
370
    -2
100
AcDbLine
 10
4159.896575106963
 20
9656.123139034622
 30
0.0
 11
4159.896575106963
 21
10211.9313586596
 31
0.0
  0
LINE
  5
18BFF
330
18BFC
100
AcDbEntity
  8
寸法
 62
     0
 48
50.0
370
    -2
100
AcDbLine
 10
4214.896575106998
 20
9656.123139034622
 30
0.0
 11
4214.896575106998
 21
10211.9313586596
 31
0.0
  0
LINE
  5
18C00
330
18BFC
100
AcDbEntity
  8
寸法
 62
     0
 48
50.0
370
    -2
100
AcDbLine
 10
4214.896575106998
 20
10151.9313586596
 30
0.0
 11
4314.896575106998
 21
10151.9313586596
 31
0.0
  0
LINE
  5
18C01
330
18BFC
100
AcDbEntity
  8
寸法
 62
     0
 48
50.0
370
    -2
100
AcDbLine
 10
4159.896575106963
 20
10151.9313586596
 30
0.0
 11
3742.926012358486
 21
10151.9313586596
 31
0.0
  0
LINE
  5
18C02
330
18BFC
100
AcDbEntity
  8
寸法
 62
     0
 48
50.0
370
    -2
100
AcDbLine
 10
4214.896575106998
 20
10151.9313586596
 30
0.0
 11
4159.896575106963
 21
10151.9313586596
 31
0.0
  0
INSERT
  5
18C03
330
18BFC
100
AcDbEntity
  8
寸法
 62
     0
 48
50.0
370
    -2
100
AcDbBlockReference
  2
_DOTSMALL
 10
4214.896575106998
 20
10151.9313586596
 30
0.0
 41
100.0
 42
100.0
 43
100.0
 50
180.0
  0
INSERT
  5
18C04
330
18BFC
100
AcDbEntity
  8
寸法
 62
     0
 48
50.0
370
    -2
100
AcDbBlockReference
  2
_DOTSMALL
 10
4159.896575106963
 20
10151.9313586596
 30
0.0
 41
100.0
 42
100.0
 43
100.0
  0
MTEXT
  5
18C05
330
18BFC
100
AcDbEntity
  8
寸法
 62
     7
 48
50.0
100
AcDbMText
 10
3851.411293732725
 20
10251.9313586596
 30
0.0
 40
120.0
 41
0.0
 71
     5
 72
     1
  1
\A1;55
  7
STYLE1
 73
     1
 44
1.0
1001
ACAD
1000
MTEXTBEGIN
1070
    73
1070
     1
1070
    44
1040
1.0
1070
    74
1070
     0
1000
MTEXTEND
  0
POINT
  5
18C06
330
18BFC
100
AcDbEntity
  8
DEFPOINTS
 62
     0
 48
50.0
100
AcDbPoint
 10
4159.896575106963
 20
9636.123139034623
 30
0.0
  0
POINT
  5
18C07
330
18BFC
100
AcDbEntity
  8
DEFPOINTS
 62
     0
 48
50.0
100
AcDbPoint
 10
4214.896575106998
 20
9636.123139034623
 30
0.0
  0
POINT
  5
18C08
330
18BFC
100
AcDbEntity
  8
DEFPOINTS
 62
     0
 48
50.0
100
AcDbPoint
 10
4214.896575106998
 20
10151.9313586596
 30
0.0
  0
ENDBLK
  5
18C09
330
18BFC
100
AcDbEntity
  8
0
 48
50.0
100
AcDbBlockEnd
  0
BLOCK
  5
18C0B
330
18C0A
100
AcDbEntity
  8
0
 48
50.0
100
AcDbBlockBegin
  2
*D8
 70
     1
 10
0.0
 20
0.0
 30
0.0
  3
*D8
  1

  0
LINE
  5
18C0C
330
18C0A
100
AcDbEntity
  8
寸法
 62
     0
 48
50.0
370
    -2
100
AcDbLine
 10
4159.896575106992
 20
7826.123139034546
 30
0.0
 11
4159.896575106992
 21
6804.372203245664
 31
0.0
  0
LINE
  5
18C0D
330
18C0A
100
AcDbEntity
  8
寸法
 62
     0
 48
50.0
370
    -2
100
AcDbLine
 10
7629.896575106974
 20
7826.123139034674
 30
0.0
 11
7629.896575106974
 21
6804.372203245664
 31
0.0
  0
LINE
  5
18C0E
330
18C0A
100
AcDbEntity
  8
寸法
 62
     0
 48
50.0
370
    -2
100
AcDbLine
 10
4159.896575106992
 20
6864.372203245665
 30
0.0
 11
7629.896575106974
 21
6864.372203245665
 31
0.0
  0
INSERT
  5
18C0F
330
18C0A
100
AcDbEntity
  8
寸法
 62
     0
 48
50.0
370
    -2
100
AcDbBlockReference
  2
_DOTSMALL
 10
4159.896575106992
 20
6864.372203245665
 30
0.0
 41
100.0
 42
100.0
 43
100.0
 50
180.0
  0
INSERT
  5
18C10
330
18C0A
100
AcDbEntity
  8
寸法
 62
     0
 48
50.0
370
    -2
100
AcDbBlockReference
  2
_DOTSMALL
 10
7629.896575106974
 20
6864.372203245665
 30
0.0
 41
100.0
 42
100.0
 43
100.0
  0
MTEXT
  5
18C11
330
18C0A
100
AcDbEntity
  8
寸法
 62
     7
 48
50.0
100
AcDbMText
 10
5911.12376113973
 20
6964.372203245665
 30
0.0
 40
120.0
 41
0.0
 71
     5
 72
     1
  1
\A1;3470
  7
STYLE1
 73
     1
 44
1.0
1001
ACAD
1000
MTEXTBEGIN
1070
    73
1070
     1
1070
    44
1040
1.0
1070
    74
1070
     0
1000
MTEXTEND
  0
POINT
  5
18C12
330
18C0A
100
AcDbEntity
  8
DEFPOINTS
 62
     0
 48
50.0
100
AcDbPoint
 10
4159.896575106992
 20
7846.123139034546
 30
0.0
  0
POINT
  5
18C13
330
18C0A
100
AcDbEntity
  8
DEFPOINTS
 62
     0
 48
50.0
100
AcDbPoint
 10
7629.896575106974
 20
7846.123139034673
 30
0.0
  0
POINT
  5
18C14
330
18C0A
100
AcDbEntity
  8
DEFPOINTS
 62
     0
 48
50.0
100
AcDbPoint
 10
7629.896575106974
 20
6864.372203245665
 30
0.0
  0
ENDBLK
  5
18C15
330
18C0A
100
AcDbEntity
  8
0
 48
50.0
100
AcDbBlockEnd
  0
BLOCK
  5
18C17
330
18C16
100
AcDbEntity
  8
0
 48
50.0
100
AcDbBlockBegin
  2
*D9
 70
     1
 10
0.0
 20
0.0
 30
0.0
  3
*D9
  1

  0
LINE
  5
18C18
330
18C16
100
AcDbEntity
  8
寸法
 62
     0
 48
50.0
370
    -2
100
AcDbLine
 10
7649.896575106973
 20
7901.123139034706
 30
0.0
 11
8337.322920841385
 21
7901.123139034706
 31
0.0
  0
LINE
  5
18C19
330
18C16
100
AcDbEntity
  8
寸法
 62
     0
 48
50.0
370
    -2
100
AcDbLine
 10
7649.896575106973
 20
7846.123139034709
 30
0.0
 11
8337.322920841385
 21
7846.123139034709
 31
0.0
  0
LINE
  5
18C1A
330
18C16
100
AcDbEntity
  8
寸法
 62
     0
 48
50.0
370
    -2
100
AcDbLine
 10
8277.322920841385
 20
7901.123139034706
 30
0.0
 11
8277.322920841385
 21
8001.123139034707
 31
0.0
  0
LINE
  5
18C1B
330
18C16
100
AcDbEntity
  8
寸法
 62
     0
 48
50.0
370
    -2
100
AcDbLine
 10
8277.322920841385
 20
7846.123139034709
 30
0.0
 11
8277.322920841385
 21
7429.152576286229
 31
0.0
  0
LINE
  5
18C1C
330
18C16
100
AcDbEntity
  8
寸法
 62
     0
 48
50.0
370
    -2
100
AcDbLine
 10
8277.322920841385
 20
7901.123139034706
 30
0.0
 11
8277.322920841385
 21
7846.123139034709
 31
0.0
  0
INSERT
  5
18C1D
330
18C16
100
AcDbEntity
  8
寸法
 62
     0
 48
50.0
370
    -2
100
AcDbBlockReference
  2
_DOTSMALL
 10
8277.322920841385
 20
7901.123139034706
 30
0.0
 41
100.0
 42
100.0
 43
100.0
 50
270.0
  0
INSERT
  5
18C1E
330
18C16
100
AcDbEntity
  8
寸法
 62
     0
 48
50.0
370
    -2
100
AcDbBlockReference
  2
_DOTSMALL
 10
8277.322920841385
 20
7846.123139034709
 30
0.0
 41
100.0
 42
100.0
 43
100.0
 50
90.0
  0
MTEXT
  5
18C1F
330
18C16
100
AcDbEntity
  8
寸法
 62
     7
 48
50.0
100
AcDbMText
 10
8177.322920841383
 20
7537.637857660469
 30
0.0
 40
120.0
 41
0.0
 71
     5
 72
     1
  1
\A1;55
  7
STYLE1
 11
0.0000000000000001
 21
1.0
 31
0.0
 73
     1
 44
1.0
1001
ACAD
1000
MTEXTBEGIN
1070
    73
1070
     1
1070
    44
1040
1.0
1070
    74
1070
     0
1000
MTEXTEND
  0
POINT
  5
18C20
330
18C16
100
AcDbEntity
  8
DEFPOINTS
 62
     0
 48
50.0
100
AcDbPoint
 10
7629.896575106974
 20
7901.123139034706
 30
0.0
  0
POINT
  5
18C21
330
18C16
100
AcDbEntity
  8
DEFPOINTS
 62
     0
 48
50.0
100
AcDbPoint
 10
7629.896575106974
 20
7846.123139034709
 30
0.0
  0
POINT
  5
18C22
330
18C16
100
AcDbEntity
  8
DEFPOINTS
 62
     0
 48
50.0
100
AcDbPoint
 10
8277.322920841385
 20
7846.123139034709
 30
0.0
  0
ENDBLK
  5
18C23
330
18C16
100
AcDbEntity
  8
0
 48
50.0
100
AcDbBlockEnd
  0
BLOCK
  5
18C25
330
18C24
100
AcDbEntity
  8
0
 48
50.0
100
AcDbBlockBegin
  2
*D10
 70
     1
 10
0.0
 20
0.0
 30
0.0
  3
*D10
  1

  0
LINE
  5
18C26
330
18C24
100
AcDbEntity
  8
寸法
 62
     0
 48
50.0
370
    -2
100
AcDbLine
 10
6533.037591258376
 20
9136.123139034728
 30
0.0
 11
6465.083950562664
 21
8882.516699399049
 31
0.0
  0
LINE
  5
18C27
330
18C24
100
AcDbEntity
  8
寸法
 62
     0
 48
50.0
370
    -2
100
AcDbLine
 10
7596.037591258388
 20
9136.123139034721
 30
0.0
 11
7528.083950562677
 21
8882.516699399049
 31
0.0
  0
LINE
  5
18C28
330
18C24
100
AcDbEntity
  8
寸法
 62
     0
 48
50.0
370
    -2
100
AcDbLine
 10
6481.160902108531
 20
8942.51669939905
 30
0.0
 11
7544.160902108544
 21
8942.51669939905
 31
0.0
  0
INSERT
  5
18C29
330
18C24
100
AcDbEntity
  8
寸法
 62
     0
 48
50.0
370
    -2
100
AcDbBlockReference
  2
_DOTSMALL
 10
6481.160902108531
 20
8942.51669939905
 30
0.0
 41
100.0
 42
100.0
 43
100.0
 50
180.0
  0
INSERT
  5
18C2A
330
18C24
100
AcDbEntity
  8
寸法
 62
     0
 48
50.0
370
    -2
100
AcDbBlockReference
  2
_DOTSMALL
 10
7544.160902108544
 20
8942.51669939905
 30
0.0
 41
100.0
 42
100.0
 43
100.0
  0
MTEXT
  5
18C2B
330
18C24
100
AcDbEntity
  8
寸法
 62
     7
 48
50.0
100
AcDbMText
 10
7061.28653022935
 20
9042.516699399049
 30
0.0
 40
120.0
 41
0.0
 71
     5
 72
     1
  1
\A1;1063
  7
STYLE1
 73
     1
 44
1.0
1001
ACAD
1000
MTEXTBEGIN
1070
    73
1070
     1
1070
    44
1040
1.0
1070
    74
1070
     0
1000
MTEXTEND
  0
POINT
  5
18C2C
330
18C24
100
AcDbEntity
  8
DEFPOINTS
 62
     0
 48
50.0
100
AcDbPoint
 10
6538.396575106998
 20
9156.123139034727
 30
0.0
  0
POINT
  5
18C2D
330
18C24
100
AcDbEntity
  8
DEFPOINTS
 62
     0
 48
50.0
100
AcDbPoint
 10
7601.39657510701
 20
9156.12313903472
 30
0.0
  0
POINT
  5
18C2E
330
18C24
100
AcDbEntity
  8
DEFPOINTS
 62
     0
 48
50.0
100
AcDbPoint
 10
7544.160902108544
 20
8942.51669939905
 30
0.0
  0
ENDBLK
  5
18C2F
330
18C24
100
AcDbEntity
  8
0
 48
50.0
100
AcDbBlockEnd
  0
BLOCK
  5
18C31
330
18C30
100
AcDbEntity
  8
0
 48
50.0
100
AcDbBlockBegin
  2
*D11
 70
     1
 10
0.0
 20
0.0
 30
0.0
  3
*D11
  1

  0
LINE
  5
18C32
330
18C30
100
AcDbEntity
  8
寸法
 62
     0
 48
50.0
370
    -2
100
AcDbLine
 10
7621.396575106999
 20
9600.764155186094
 30
0.0
 11
8016.754300969024
 21
9494.828371819961
 31
0.0
  0
LINE
  5
18C33
330
18C30
100
AcDbEntity
  8
寸法
 62
     0
 48
50.0
370
    -2
100
AcDbLine
 10
7621.396575106999
 20
9150.764155186099
 30
0.0
 11
8016.754300969024
 21
9044.828371819964
 31
0.0
  0
LINE
  5
18C34
330
18C30
100
AcDbEntity
  8
寸法
 62
     0
 48
50.0
370
    -2
100
AcDbLine
 10
7956.754300969024
 20
9510.905323365827
 30
0.0
 11
7956.754300969024
 21
9060.90532336583
 31
0.0
  0
INSERT
  5
18C35
330
18C30
100
AcDbEntity
  8
寸法
 62
     0
 48
50.0
370
    -2
100
AcDbBlockReference
  2
_DOTSMALL
 10
7956.754300969024
 20
9510.905323365827
 30
0.0
 41
100.0
 42
100.0
 43
100.0
 50
90.0
  0
INSERT
  5
18C36
330
18C30
100
AcDbEntity
  8
寸法
 62
     0
 48
50.0
370
    -2
100
AcDbBlockReference
  2
_DOTSMALL
 10
7956.754300969024
 20
9060.90532336583
 30
0.0
 41
100.0
 42
100.0
 43
100.0
 50
270.0
  0
MTEXT
  5
18C37
330
18C30
100
AcDbEntity
  8
寸法
 62
     7
 48
50.0
100
AcDbMText
 10
7856.754300969022
 20
9285.905323365829
 30
0.0
 40
120.0
 41
0.0
 71
     5
 72
     1
  1
\A1;450
  7
STYLE1
 11
0.0000000000000001
 21
1.0
 31
0.0
 73
     1
 44
1.0
1001
ACAD
1000
MTEXTBEGIN
1070
    73
1070
     1
1070
    44
1040
1.0
1070
    74
1070
     0
1000
MTEXTEND
  0
POINT
  5
18C38
330
18C30
100
AcDbEntity
  8
DEFPOINTS
 62
     0
 48
50.0
100
AcDbPoint
 10
7601.396575106999
 20
9606.123139034718
 30
0.0
  0
POINT
  5
18C39
330
18C30
100
AcDbEntity
  8
DEFPOINTS
 62
     0
 48
50.0
100
AcDbPoint
 10
7601.396575106999
 20
9156.12313903472
 30
0.0
  0
POINT
  5
18C3A
330
18C30
100
AcDbEntity
  8
DEFPOINTS
 62
     0
 48
50.0
100
AcDbPoint
 10
7956.754300969024
 20
9060.90532336583
 30
0.0
  0
ENDBLK
  5
18C3B
330
18C30
100
AcDbEntity
  8
0
 48
50.0
100
AcDbBlockEnd
  0
BLOCK
  5
18C3D
330
18C3C
100
AcDbEntity
  8
0
 48
50.0
100
AcDbBlockBegin
  2
*D12
 70
     1
 10
0.0
 20
0.0
 30
0.0
  3
*D12
  1

  0
LINE
  5
18C3E
330
18C3C
100
AcDbEntity
  8
寸法
 62
     0
 48
50.0
370
    -2
100
AcDbLine
 10
7649.896575106999
 20
9581.123139034721
 30
0.0
 11
8337.32292084141
 21
9581.123139034721
 31
0.0
  0
LINE
  5
18C3F
330
18C3C
100
AcDbEntity
  8
寸法
 62
     0
 48
50.0
370
    -2
100
AcDbLine
 10
7649.896575106973
 20
7901.123139034706
 30
0.0
 11
8337.32292084141
 21
7901.123139034706
 31
0.0
  0
LINE
  5
18C40
330
18C3C
100
AcDbEntity
  8
寸法
 62
     0
 48
50.0
370
    -2
100
AcDbLine
 10
8277.322920841411
 20
9581.123139034721
 30
0.0
 11
8277.322920841411
 21
7901.123139034706
 31
0.0
  0
INSERT
  5
18C41
330
18C3C
100
AcDbEntity
  8
寸法
 62
     0
 48
50.0
370
    -2
100
AcDbBlockReference
  2
_DOTSMALL
 10
8277.322920841411
 20
9581.123139034721
 30
0.0
 41
100.0
 42
100.0
 43
100.0
 50
90.0
  0
INSERT
  5
18C42
330
18C3C
100
AcDbEntity
  8
寸法
 62
     0
 48
50.0
370
    -2
100
AcDbBlockReference
  2
_DOTSMALL
 10
8277.322920841411
 20
7901.123139034706
 30
0.0
 41
100.0
 42
100.0
 43
100.0
 50
270.0
  0
MTEXT
  5
18C43
330
18C3C
100
AcDbEntity
  8
寸法
 62
     7
 48
50.0
100
AcDbMText
 10
8177.311109817788
 20
8741.123139034712
 30
0.0
 40
120.0
 41
0.0
 71
     5
 72
     1
  1
\A1;4X420=1680
  7
STYLE1
 11
0.0000000000000001
 21
1.0
 31
0.0
 73
     1
 44
1.0
1001
ACAD
1000
MTEXTBEGIN
1070
    73
1070
     1
1070
    44
1040
1.0
1070
    74
1070
     0
1000
MTEXTEND
  0
POINT
  5
18C44
330
18C3C
100
AcDbEntity
  8
DEFPOINTS
 62
     0
 48
50.0
100
AcDbPoint
 10
7629.896575106998
 20
9581.123139034721
 30
0.0
  0
POINT
  5
18C45
330
18C3C
100
AcDbEntity
  8
DEFPOINTS
 62
     0
 48
50.0
100
AcDbPoint
 10
7629.896575106974
 20
7901.123139034706
 30
0.0
  0
POINT
  5
18C46
330
18C3C
100
AcDbEntity
  8
DEFPOINTS
 62
     0
 48
50.0
100
AcDbPoint
 10
8277.322920841411
 20
7901.123139034706
 30
0.0
  0
ENDBLK
  5
18C47
330
18C3C
100
AcDbEntity
  8
0
 48
50.0
100
AcDbBlockEnd
  0
BLOCK
  5
18C49
330
18C48
100
AcDbEntity
  8
0
 48
50.0
100
AcDbBlockBegin
  2
*D13
 70
     1
 10
0.0
 20
0.0
 30
0.0
  3
*D13
  1

  0
LINE
  5
18C4A
330
18C48
100
AcDbEntity
  8
寸法
 62
     0
 48
50.0
370
    -2
100
AcDbLine
 10
4183.037591258377
 20
9136.123139034619
 30
0.0
 11
4115.083950562663
 21
8882.516699398941
 31
0.0
  0
LINE
  5
18C4B
330
18C48
100
AcDbEntity
  8
寸法
 62
     0
 48
50.0
370
    -2
100
AcDbLine
 10
5246.037591258307
 20
9136.123139034671
 30
0.0
 11
5178.08395056258
 21
8882.516699398941
 31
0.0
  0
LINE
  5
18C4C
330
18C48
100
AcDbEntity
  8
寸法
 62
     0
 48
50.0
370
    -2
100
AcDbLine
 10
4131.160902108532
 20
8942.516699398941
 30
0.0
 11
5194.160902108448
 21
8942.516699398941
 31
0.0
  0
INSERT
  5
18C4D
330
18C48
100
AcDbEntity
  8
寸法
 62
     0
 48
50.0
370
    -2
100
AcDbBlockReference
  2
_DOTSMALL
 10
4131.160902108532
 20
8942.516699398941
 30
0.0
 41
100.0
 42
100.0
 43
100.0
 50
180.0
  0
INSERT
  5
18C4E
330
18C48
100
AcDbEntity
  8
寸法
 62
     0
 48
50.0
370
    -2
100
AcDbBlockReference
  2
_DOTSMALL
 10
5194.160902108448
 20
8942.516699398941
 30
0.0
 41
100.0
 42
100.0
 43
100.0
  0
MTEXT
  5
18C4F
330
18C48
100
AcDbEntity
  8
寸法
 62
     7
 48
50.0
100
AcDbMText
 10
4658.986452655306
 20
9042.516699398941
 30
0.0
 40
120.0
 41
0.0
 71
     5
 72
     1
  1
\A1;1063
  7
STYLE1
 73
     1
 44
1.0
1001
ACAD
1000
MTEXTBEGIN
1070
    73
1070
     1
1070
    44
1040
1.0
1070
    74
1070
     0
1000
MTEXTEND
  0
POINT
  5
18C50
330
18C48
100
AcDbEntity
  8
DEFPOINTS
 62
     0
 48
50.0
100
AcDbPoint
 10
4188.396575106999
 20
9156.123139034617
 30
0.0
  0
POINT
  5
18C51
330
18C48
100
AcDbEntity
  8
DEFPOINTS
 62
     0
 48
50.0
100
AcDbPoint
 10
5251.396575106929
 20
9156.123139034672
 30
0.0
  0
POINT
  5
18C52
330
18C48
100
AcDbEntity
  8
DEFPOINTS
 62
     0
 48
50.0
100
AcDbPoint
 10
5194.160902108448
 20
8942.516699398941
 30
0.0
  0
ENDBLK
  5
18C53
330
18C48
100
AcDbEntity
  8
0
 48
50.0
100
AcDbBlockEnd
  0
BLOCK
  5
18C55
330
18C54
100
AcDbEntity
  8
0
 48
50.0
100
AcDbBlockBegin
  2
*D14
 70
     1
 10
0.0
 20
0.0
 30
0.0
  3
*D14
  1

  0
LINE
  5
18C56
330
18C54
100
AcDbEntity
  8
寸法
 62
     0
 48
50.0
370
    -2
100
AcDbLine
 10
5274.037591258307
 20
9136.123139034669
 30
0.0
 11
5206.08395056258
 21
8882.516699398941
 31
0.0
  0
LINE
  5
18C57
330
18C54
100
AcDbEntity
  8
寸法
 62
     0
 48
50.0
370
    -2
100
AcDbLine
 10
6505.037591258377
 20
9136.123139034662
 30
0.0
 11
6437.083950562653
 21
8882.516699398941
 31
0.0
  0
LINE
  5
18C58
330
18C54
100
AcDbEntity
  8
寸法
 62
     0
 48
50.0
370
    -2
100
AcDbLine
 10
5222.160902108448
 20
8942.516699398941
 30
0.0
 11
6453.16090210852
 21
8942.516699398941
 31
0.0
  0
INSERT
  5
18C59
330
18C54
100
AcDbEntity
  8
寸法
 62
     0
 48
50.0
370
    -2
100
AcDbBlockReference
  2
_DOTSMALL
 10
5222.160902108448
 20
8942.516699398941
 30
0.0
 41
100.0
 42
100.0
 43
100.0
 50
180.0
  0
INSERT
  5
18C5A
330
18C54
100
AcDbEntity
  8
寸法
 62
     0
 48
50.0
370
    -2
100
AcDbBlockReference
  2
_DOTSMALL
 10
6453.16090210852
 20
8942.516699398941
 30
0.0
 41
100.0
 42
100.0
 43
100.0
  0
MTEXT
  5
18C5B
330
18C54
100
AcDbEntity
  8
寸法
 62
     7
 48
50.0
100
AcDbMText
 10
6081.244808320626
 20
9042.528510422561
 30
0.0
 40
120.0
 41
0.0
 71
     5
 72
     1
  1
\A1;1231
  7
STYLE1
 73
     1
 44
1.0
1001
ACAD
1000
MTEXTBEGIN
1070
    73
1070
     1
1070
    44
1040
1.0
1070
    74
1070
     0
1000
MTEXTEND
  0
POINT
  5
18C5C
330
18C54
100
AcDbEntity
  8
DEFPOINTS
 62
     0
 48
50.0
100
AcDbPoint
 10
5279.396575106929
 20
9156.123139034669
 30
0.0
  0
POINT
  5
18C5D
330
18C54
100
AcDbEntity
  8
DEFPOINTS
 62
     0
 48
50.0
100
AcDbPoint
 10
6510.396575106999
 20
9156.123139034662
 30
0.0
  0
POINT
  5
18C5E
330
18C54
100
AcDbEntity
  8
DEFPOINTS
 62
     0
 48
50.0
100
AcDbPoint
 10
6453.16090210852
 20
8942.516699398941
 30
0.0
  0
ENDBLK
  5
18C5F
330
18C54
100
AcDbEntity
  8
0
 48
50.0
100
AcDbBlockEnd
  0
BLOCK
  5
18C61
330
18C60
100
AcDbEntity
  8
0
 48
50.0
100
AcDbBlockBegin
  2
*D15
 70
     1
 10
0.0
 20
0.0
 30
0.0
  3
*D15
  1

  0
LINE
  5
18C62
330
18C60
100
AcDbEntity
  8
寸法
 62
     0
 48
50.0
370
    -2
100
AcDbLine
 10
5065.896575106966
 20
7749.123139034579
 30
0.0
 11
5065.896575106966
 21
7099.952920982538
 31
0.0
  0
LINE
  5
18C63
330
18C60
100
AcDbEntity
  8
寸法
 62
     0
 48
50.0
370
    -2
100
AcDbLine
 10
6331.896575106966
 20
7749.123139034579
 30
0.0
 11
6331.896575106966
 21
7099.952920982538
 31
0.0
  0
LINE
  5
18C64
330
18C60
100
AcDbEntity
  8
寸法
 62
     0
 48
50.0
370
    -2
100
AcDbLine
 10
5065.896575106966
 20
7159.952920982537
 30
0.0
 11
6331.896575106966
 21
7159.952920982537
 31
0.0
  0
INSERT
  5
18C65
330
18C60
100
AcDbEntity
  8
寸法
 62
     0
 48
50.0
370
    -2
100
AcDbBlockReference
  2
_DOTSMALL
 10
5065.896575106966
 20
7159.952920982537
 30
0.0
 41
100.0
 42
100.0
 43
100.0
 50
180.0
  0
INSERT
  5
18C66
330
18C60
100
AcDbEntity
  8
寸法
 62
     0
 48
50.0
370
    -2
100
AcDbBlockReference
  2
_DOTSMALL
 10
6331.896575106966
 20
7159.952920982537
 30
0.0
 41
100.0
 42
100.0
 43
100.0
  0
MTEXT
  5
18C67
330
18C60
100
AcDbEntity
  8
寸法
 62
     7
 48
50.0
100
AcDbMText
 10
5711.986008735934
 20
7359.964732006159
 30
0.0
 40
120.0
 41
0.0
 71
     5
 72
     1
  1
\A1;有効開口部間口\P1266
  7
STYLE1
 73
     1
 44
1.0
1001
ACAD
1000
MTEXTBEGIN
1070
    73
1070
     1
1070
    44
1040
1.0
1070
    74
1070
     0
1000
MTEXTEND
  0
POINT
  5
18C68
330
18C60
100
AcDbEntity
  8
DEFPOINTS
 62
     0
 48
50.0
100
AcDbPoint
 10
5065.896575106966
 20
7769.123139034579
 30
0.0
  0
POINT
  5
18C69
330
18C60
100
AcDbEntity
  8
DEFPOINTS
 62
     0
 48
50.0
100
AcDbPoint
 10
6331.896575106966
 20
7769.123139034579
 30
0.0
  0
POINT
  5
18C6A
330
18C60
100
AcDbEntity
  8
DEFPOINTS
 62
     0
 48
50.0
100
AcDbPoint
 10
6331.896575106966
 20
7159.952920982537
 30
0.0
  0
ENDBLK
  5
18C6B
330
18C60
100
AcDbEntity
  8
0
 48
50.0
100
AcDbBlockEnd
  0
BLOCK
  5
18C6D
330
18C6C
100
AcDbEntity
  8
0
 48
50.0
100
AcDbBlockBegin
  2
*D16
 70
     1
 10
0.0
 20
0.0
 30
0.0
  3
*D16
  1

  0
LINE
  5
18C6E
330
18C6C
100
AcDbEntity
  8
寸法
 62
     0
 48
50.0
370
    -2
100
AcDbLine
 10
7200.896575106966
 20
7846.123139034578
 30
0.0
 11
7457.192158500191
 21
7846.123139034578
 31
0.0
  0
LINE
  5
18C6F
330
18C6C
100
AcDbEntity
  8
寸法
 62
     0
 48
50.0
370
    -2
100
AcDbLine
 10
7199.896575106966
 20
7769.123139034579
 30
0.0
 11
7457.192158500191
 21
7769.123139034579
 31
0.0
  0
LINE
  5
18C70
330
18C6C
100
AcDbEntity
  8
寸法
 62
     0
 48
50.0
370
    -2
100
AcDbLine
 10
7417.192158500192
 20
7866.123139034579
 30
0.0
 11
7417.192158500192
 21
7886.123139034578
 31
0.0
  0
LINE
  5
18C71
330
18C6C
100
AcDbEntity
  8
寸法
 62
     0
 48
50.0
370
    -2
100
AcDbLine
 10
7417.192158500192
 20
7749.123139034579
 30
0.0
 11
7417.192158500192
 21
7533.123139034573
 31
0.0
  0
LINE
  5
18C72
330
18C6C
100
AcDbEntity
  8
寸法
 62
     0
 48
50.0
370
    -2
100
AcDbLine
 10
7417.192158500192
 20
7846.123139034578
 30
0.0
 11
7417.192158500192
 21
7769.123139034579
 31
0.0
  0
INSERT
  5
18C73
330
18C6C
100
AcDbEntity
  8
寸法
 62
     0
 48
50.0
370
    -2
100
AcDbBlockReference
  2
_DOT
 10
7417.192158500192
 20
7846.123139034578
 30
0.0
 41
20.0
 42
20.0
 43
20.0
 50
270.0
  0
INSERT
  5
18C74
330
18C6C
100
AcDbEntity
  8
寸法
 62
     0
 48
50.0
370
    -2
100
AcDbBlockReference
  2
_DOT
 10
7417.192158500192
 20
7769.123139034579
 30
0.0
 41
20.0
 42
20.0
 43
20.0
 50
90.0
  0
MTEXT
  5
18C75
330
18C6C
100
AcDbEntity
  8
寸法
 62
     7
 48
50.0
100
AcDbMText
 10
7325.192158500191
 20
7631.123139034575
 30
0.0
 40
120.0
 41
0.0
 71
     5
 72
     1
  1
\A1;77
  7
STYLE1
 11
0.0000000000000001
 21
1.0
 31
0.0
 73
     1
 44
1.0
1001
ACAD
1000
MTEXTBEGIN
1070
    73
1070
     1
1070
    44
1040
1.0
1070
    74
1070
     0
1000
MTEXTEND
  0
POINT
  5
18C76
330
18C6C
100
AcDbEntity
  8
DEFPOINTS
 62
     0
 48
50.0
100
AcDbPoint
 10
7180.896575106967
 20
7846.123139034578
 30
0.0
  0
POINT
  5
18C77
330
18C6C
100
AcDbEntity
  8
DEFPOINTS
 62
     0
 48
50.0
100
AcDbPoint
 10
7179.896575106965
 20
7769.123139034579
 30
0.0
  0
POINT
  5
18C78
330
18C6C
100
AcDbEntity
  8
DEFPOINTS
 62
     0
 48
50.0
100
AcDbPoint
 10
7417.192158500192
 20
7769.123139034579
 30
0.0
  0
ENDBLK
  5
18C79
330
18C6C
100
AcDbEntity
  8
0
 48
50.0
100
AcDbBlockEnd
  0
BLOCK
  5
18DA0
330
18C7A
100
AcDbEntity
  8
0
 48
50.0
100
AcDbBlockBegin
  2
A$C3B1A506B
 70
     0
 10
0.0
 20
0.0
 30
0.0
  3
A$C3B1A506B
  1

  0
MTEXT
  5
18C7B
330
18C7A
100
AcDbEntity
  8
寸法
 62
     7
 48
50.0
100
AcDbMText
 10
3342.250386887194
 20
2778.329429134012
 30
0.0
 40
96.0
 41
0.0
 71
     5
 72
     1
  1
棚 2段
  7
STYLE1
 73
     1
 44
1.0
1001
ACAD
1000
MTEXTBEGIN
1070
    73
1070
     1
1070
    44
1040
1.0
1070
    74
1070
     0
1000
MTEXTEND
  0
MTEXT
  5
18C7C
330
18C7A
100
AcDbEntity
  8
寸法
 62
     7
 48
50.0
100
AcDbMText
 10
2167.25038688716
 20
2778.329429133986
 30
0.0
 40
96.0
 41
0.0
 71
     5
 72
     1
  1
棚 2段
  7
STYLE1
 73
     1
 44
1.0
1001
ACAD
1000
MTEXTBEGIN
1070
    73
1070
     1
1070
    44
1040
1.0
1070
    74
1070
     0
1000
MTEXTEND
  0
MTEXT
  5
18C7D
330
18C7A
100
AcDbEntity
  8
寸法
 62
     7
 48
50.0
100
AcDbMText
 10
992.2503868871608
 20
2778.329429133935
 30
0.0
 40
96.0
 41
0.0
 71
     5
 72
     1
  1
棚 2段
  7
STYLE1
 73
     1
 44
1.0
1001
ACAD
1000
MTEXTBEGIN
1070
    73
1070
     1
1070
    44
1040
1.0
1070
    74
1070
     0
1000
MTEXTEND
  0
LINE
  5
18C7E
330
18C7A
100
AcDbEntity
  8
細線
 48
50.0
100
AcDbLine
 10
2771.970589276527
 20
1368.994384123192
 30
0.0
 11
3398.970589276523
 21
1368.994384123192
 31
0.0
  0
LINE
  5
18C7F
330
18C7A
100
AcDbEntity
  8
細線
 48
50.0
100
AcDbLine
 10
2117.970593930113
 20
1335.285615569113
 30
0.0
 11
3398.970589276523
 21
1335.285615569113
 31
0.0
  0
LINE
  5
18C80
330
18C7A
100
AcDbEntity
  8
細線
 48
50.0
100
AcDbLine
 10
2076.970593930115
 20
1364.690523565368
 30
0.0
 11
1322.970589276523
 21
1364.690523565367
 31
0.0
  0
LINE
  5
18C81
330
18C7A
100
AcDbEntity
  8
細線
100
AcDbLine
 10
3170.720579860066
 20
1388.494284088199
 30
0.0
 11
3173.052119381877
 21
1393.494286728162
 31
0.0
  0
LINE
  5
18C82
330
18C7A
100
AcDbEntity
  8
細線
100
AcDbLine
 10
3240.720589276525
 20
1388.494269174465
 30
0.0
 11
3238.389042800336
 21
1393.494286728144
 31
0.0
  0
LINE
  5
18C83
330
18C7A
100
AcDbEntity
  8
細線
100
AcDbLine
 10
3238.389042800336
 20
1393.494286728144
 30
0.0
 11
3173.052119381862
 21
1393.494286728133
 31
0.0
  0
LINE
  5
18C84
330
18C7A
100
AcDbEntity
  8
細線
100
AcDbLine
 10
3098.389042800336
 20
1393.494286728144
 30
0.0
 11
3033.052119381862
 21
1393.494286728133
 31
0.0
  0
LINE
  5
18C85
330
18C7A
100
AcDbEntity
  8
細線
100
AcDbLine
 10
3100.720589276523
 20
1388.494269174465
 30
0.0
 11
3098.389042800336
 21
1393.494286728144
 31
0.0
  0
LINE
  5
18C86
330
18C7A
100
AcDbEntity
  8
細線
100
AcDbLine
 10
3030.720579860066
 20
1388.494284088199
 30
0.0
 11
3033.052119381875
 21
1393.494286728162
 31
0.0
  0
LINE
  5
18C87
330
18C7A
100
AcDbEntity
  8
細線
100
AcDbLine
 10
2890.720589276525
 20
1388.494269174465
 30
0.0
 11
2893.052128798336
 21
1393.494271814428
 31
0.0
  0
LINE
  5
18C88
330
18C7A
100
AcDbEntity
  8
細線
100
AcDbLine
 10
2960.720598692984
 20
1388.494254260731
 30
0.0
 11
2958.389052216793
 21
1393.49427181441
 31
0.0
  0
LINE
  5
18C89
330
18C7A
100
AcDbEntity
  8
細線
100
AcDbLine
 10
2958.389052216795
 20
1393.49427181441
 30
0.0
 11
2893.052128798321
 21
1393.494271814399
 31
0.0
  0
LINE
  5
18C8A
330
18C7A
100
AcDbEntity
  8
細線
100
AcDbLine
 10
2667.139038146739
 20
1359.494298590735
 30
0.0
 11
2601.802114728263
 21
1359.494298590724
 31
0.0
  0
LINE
  5
18C8B
330
18C7A
100
AcDbEntity
  8
細線
100
AcDbLine
 10
2669.470584622926
 20
1354.494281037055
 30
0.0
 11
2667.139038146737
 21
1359.494298590735
 31
0.0
  0
LINE
  5
18C8C
330
18C7A
100
AcDbEntity
  8
細線
100
AcDbLine
 10
2599.470575206469
 20
1354.49429595079
 30
0.0
 11
2601.802114728278
 21
1359.494298590752
 31
0.0
  0
LINE
  5
18C8D
330
18C7A
100
AcDbEntity
  8
細線
 48
50.0
100
AcDbLine
 10
2440.853968524536
 20
1372.765132327548
 30
0.0
 11
2446.609486107205
 21
1354.494281037057
 31
0.0
  0
LINE
  5
18C8E
330
18C7A
100
AcDbEntity
  8
細線
 48
50.0
100
AcDbLine
 10
2429.925520044106
 20
1372.765132327546
 30
0.0
 11
2440.853968524536
 21
1372.765132327548
 31
0.0
  0
ARC
  5
18C8F
330
18C7A
100
AcDbEntity
  8
細線
 48
50.0
100
AcDbCircle
 10
2424.471163986787
 20
1374.265132327546
 30
0.0
 40
5.0
100
AcDbArc
 50
204.6243183520723
 51
335.3756816479278
  0
ARC
  5
18C90
330
18C7A
100
AcDbEntity
  8
細線
 48
50.0
100
AcDbCircle
 10
2429.925520044106
 20
1371.765132327546
 30
0.0
 40
1.0
100
AcDbArc
 50
90.0
 51
155.3756816479277
  0
ARC
  5
18C91
330
18C7A
100
AcDbEntity
  8
細線
 48
50.0
100
AcDbCircle
 10
2419.016807929469
 20
1371.765132327546
 30
0.0
 40
1.0
100
AcDbArc
 50
24.62431835207225
 51
90.0
  0
LINE
  5
18C92
330
18C7A
100
AcDbEntity
  8
細線
 48
50.0
100
AcDbLine
 10
2408.088359449037
 20
1372.765132327548
 30
0.0
 11
2419.016807929469
 21
1372.765132327546
 31
0.0
  0
LINE
  5
18C93
330
18C7A
100
AcDbEntity
  8
細線
 48
50.0
100
AcDbLine
 10
2402.33284186637
 20
1354.494281037054
 30
0.0
 11
2408.088359449037
 21
1372.765132327548
 31
0.0
  0
LINE
  5
18C94
330
18C7A
100
AcDbEntity
  8
細線
100
AcDbLine
 10
2458.070304175992
 20
1354.494278397076
 30
0.0
 11
2460.401843697802
 21
1359.494281037039
 31
0.0
  0
LINE
  5
18C95
330
18C7A
100
AcDbEntity
  8
細線
100
AcDbLine
 10
2528.070313592451
 20
1354.494263483342
 30
0.0
 11
2525.738767116262
 21
1359.494281037021
 31
0.0
  0
LINE
  5
18C96
330
18C7A
100
AcDbEntity
  8
細線
100
AcDbLine
 10
2525.738767116262
 20
1359.494281037021
 30
0.0
 11
2460.40184369779
 21
1359.49428103701
 31
0.0
  0
LINE
  5
18C97
330
18C7A
100
AcDbEntity
  8
細線
100
AcDbLine
 10
2387.139046332155
 20
1359.494281037021
 30
0.0
 11
2321.80212291368
 21
1359.49428103701
 31
0.0
  0
LINE
  5
18C98
330
18C7A
100
AcDbEntity
  8
細線
100
AcDbLine
 10
2389.470592808342
 20
1354.494263483342
 30
0.0
 11
2387.139046332153
 21
1359.494281037021
 31
0.0
  0
LINE
  5
18C99
330
18C7A
100
AcDbEntity
  8
細線
100
AcDbLine
 10
2319.470584622926
 20
1354.494281037054
 30
0.0
 11
2321.802122913694
 21
1359.494281037039
 31
0.0
  0
LINE
  5
18C9A
330
18C7A
100
AcDbEntity
  8
細線
100
AcDbLine
 10
2179.47061994182
 20
1354.494289224422
 30
0.0
 11
2181.802158232587
 21
1359.494289224407
 31
0.0
  0
LINE
  5
18C9B
330
18C7A
100
AcDbEntity
  8
細線
100
AcDbLine
 10
2249.470628127236
 20
1354.49427167071
 30
0.0
 11
2247.139081651047
 21
1359.494289224389
 31
0.0
  0
LINE
  5
18C9C
330
18C7A
100
AcDbEntity
  8
細線
100
AcDbLine
 10
2247.139081651047
 20
1359.494289224389
 30
0.0
 11
2181.802158232573
 21
1359.494289224378
 31
0.0
  0
LINE
  5
18C9D
330
18C7A
100
AcDbEntity
  8
細線
100
AcDbLine
 10
1807.970585744697
 20
1320.494460905133
 30
0.0
 11
1810.302124035464
 21
1325.494460905118
 31
0.0
  0
LINE
  5
18C9E
330
18C7A
100
AcDbEntity
  8
細線
100
AcDbLine
 10
1877.970593930113
 20
1320.494443351421
 30
0.0
 11
1875.639047453926
 21
1325.4944609051
 31
0.0
  0
LINE
  5
18C9F
330
18C7A
100
AcDbEntity
  8
細線
100
AcDbLine
 10
1875.639047453926
 20
1325.4944609051
 30
0.0
 11
1810.302124035452
 21
1325.494460905089
 31
0.0
  0
LINE
  5
18CA0
330
18C7A
100
AcDbEntity
  8
細線
100
AcDbLine
 10
2015.639047453926
 20
1325.4944609051
 30
0.0
 11
1950.302124035452
 21
1325.494460905089
 31
0.0
  0
LINE
  5
18CA1
330
18C7A
100
AcDbEntity
  8
細線
100
AcDbLine
 10
2017.970593930113
 20
1320.494443351421
 30
0.0
 11
2015.639047453924
 21
1325.4944609051
 31
0.0
  0
LINE
  5
18CA2
330
18C7A
100
AcDbEntity
  8
細線
100
AcDbLine
 10
1947.970585744697
 20
1320.494460905133
 30
0.0
 11
1950.302124035465
 21
1325.494460905118
 31
0.0
  0
LINE
  5
18CA3
330
18C7A
100
AcDbEntity
  8
細線
100
AcDbLine
 10
1735.639047453926
 20
1325.494460905098
 30
0.0
 11
1670.302124035454
 21
1325.494460905087
 31
0.0
  0
LINE
  5
18CA4
330
18C7A
100
AcDbEntity
  8
細線
100
AcDbLine
 10
1737.970593930113
 20
1320.494443351419
 30
0.0
 11
1735.639047453926
 21
1325.494460905098
 31
0.0
  0
LINE
  5
18CA5
330
18C7A
100
AcDbEntity
  8
細線
100
AcDbLine
 10
1667.970585744697
 20
1320.494460905131
 30
0.0
 11
1670.302124035465
 21
1325.494460905116
 31
0.0
  0
LINE
  5
18CA6
330
18C7A
100
AcDbEntity
  8
細線
100
AcDbLine
 10
1527.970593930113
 20
1320.494460905133
 30
0.0
 11
1530.302132220881
 21
1325.494460905118
 31
0.0
  0
LINE
  5
18CA7
330
18C7A
100
AcDbEntity
  8
細線
100
AcDbLine
 10
1597.970602115529
 20
1320.494443351421
 30
0.0
 11
1595.639055639342
 21
1325.4944609051
 31
0.0
  0
LINE
  5
18CA8
330
18C7A
100
AcDbEntity
  8
細線
100
AcDbLine
 10
1595.639055639342
 20
1325.4944609051
 30
0.0
 11
1530.302132220869
 21
1325.494460905089
 31
0.0
  0
ARC
  5
18CA9
330
18C7A
100
AcDbEntity
  8
部品1
 48
0.01
100
AcDbCircle
 10
1483.470482677778
 20
1319.493338720063
 30
0.0
 40
0.5
100
AcDbArc
 50
270.0
 51
0.0
  0
LINE
  5
18CAA
330
18C7A
100
AcDbEntity
  8
部品1
 48
0.01
100
AcDbLine
 10
1483.970482677778
 20
1320.493338720063
 30
0.0
 11
1483.970482677778
 21
1319.493338720063
 31
0.0
  0
LINE
  5
18CAB
330
18C7A
100
AcDbEntity
  8
部品1
 48
0.01
100
AcDbLine
 10
1483.970482677778
 20
1320.493338720063
 30
0.0
 11
1483.970482677778
 21
1319.493338720063
 31
0.0
  0
LINE
  5
18CAC
330
18C7A
100
AcDbEntity
  8
部品1
 48
0.01
100
AcDbLine
 10
1483.470482677778
 20
1318.993338720063
 30
0.0
 11
1476.857977247713
 21
1318.993338720062
 31
0.0
  0
ARC
  5
18CAD
330
18C7A
100
AcDbEntity
  8
部品1
100
AcDbCircle
 10
1476.926326800494
 20
1319.993338720062
 30
0.0
 40
1.0
100
AcDbArc
 50
160.5287793655865
 51
270.0
  0
ARC
  5
18CAE
330
18C7A
100
AcDbEntity
  8
部品1
100
AcDbCircle
 10
1451.470482677778
 20
1328.993338720062
 30
0.0
 40
26.0
100
AcDbArc
 50
340.5287793655865
 51
0.0
  0
LINE
  5
18CAF
330
18C7A
100
AcDbEntity
  8
部品1
100
AcDbLine
 10
1477.470482677778
 20
1328.993338720062
 30
0.0
 11
1477.470482677778
 21
1333.993338720061
 31
0.0
  0
ARC
  5
18CB0
330
18C7A
100
AcDbEntity
  8
部品1
 48
0.01
100
AcDbCircle
 10
1475.470482677778
 20
1333.993338720061
 30
0.0
 40
2.0
100
AcDbArc
 50
0.0
 51
90.0
  0
ARC
  5
18CB1
330
18C7A
100
AcDbEntity
  8
部品1
100
AcDbCircle
 10
1473.862091052968
 20
1332.993338720062
 30
0.0
 40
3.0
100
AcDbArc
 50
90.0
 51
141.6069559808035
  0
LINE
  5
18CB2
330
18C7A
100
AcDbEntity
  8
部品1
 48
0.01
100
AcDbLine
 10
1475.470482677778
 20
1335.993338720062
 30
0.0
 11
1473.862091052968
 21
1335.993338720062
 31
0.0
  0
ARC
  5
18CB3
330
18C7A
100
AcDbEntity
  8
部品1
100
AcDbCircle
 10
1455.399768463507
 20
1332.293338720065
 30
0.0
 40
3.0
100
AcDbArc
 50
254.0576313943215
 51
270.0
  0
ARC
  5
18CB4
330
18C7A
100
AcDbEntity
  8
部品1
100
AcDbCircle
 10
1462.541196892049
 20
1332.293338720065
 30
0.0
 40
3.0
100
AcDbArc
 50
270.0
 51
285.9423686056786
  0
LINE
  5
18CB5
330
18C7A
100
AcDbEntity
  8
部品1
100
AcDbLine
 10
1462.541196892049
 20
1329.293338720064
 30
0.0
 11
1455.399768463507
 21
1329.293338720064
 31
0.0
  0
ARC
  5
18CB6
330
18C7A
100
AcDbEntity
  8
部品1
100
AcDbCircle
 10
1458.970482677778
 20
1344.793338720065
 30
0.0
 40
16.0
100
AcDbArc
 50
285.9423686056786
 51
321.6069559808035
  0
LINE
  5
18CB7
330
18C7A
100
AcDbEntity
  8
部品1
 48
0.01
100
AcDbLine
 10
1442.470482677778
 20
1335.993338720062
 30
0.0
 11
1444.078874302588
 21
1335.993338720062
 31
0.0
  0
ARC
  5
18CB8
330
18C7A
100
AcDbEntity
  8
部品1
100
AcDbCircle
 10
1444.078874302588
 20
1332.993338720062
 30
0.0
 40
3.0
100
AcDbArc
 50
38.39304401919648
 51
90.0
  0
ARC
  5
18CB9
330
18C7A
100
AcDbEntity
  8
部品1
100
AcDbCircle
 10
1458.970482677778
 20
1344.793338720065
 30
0.0
 40
16.0
100
AcDbArc
 50
218.3930440191965
 51
254.0576313943215
  0
LINE
  5
18CBA
330
18C7A
100
AcDbEntity
  8
部品1
100
AcDbLine
 10
1440.470482677778
 20
1328.993338720062
 30
0.0
 11
1440.470482677778
 21
1333.993338720061
 31
0.0
  0
ARC
  5
18CBB
330
18C7A
100
AcDbEntity
  8
部品1
 48
0.01
100
AcDbCircle
 10
1442.470482677778
 20
1333.993338720061
 30
0.0
 40
2.0
100
AcDbArc
 50
90.0
 51
180.0
  0
ARC
  5
18CBC
330
18C7A
100
AcDbEntity
  8
部品1
100
AcDbCircle
 10
1466.470482677778
 20
1328.993338720062
 30
0.0
 40
26.0
100
AcDbArc
 50
180.0
 51
199.4712206344134
  0
ARC
  5
18CBD
330
18C7A
100
AcDbEntity
  8
部品1
 48
0.01
100
AcDbCircle
 10
1434.470482677778
 20
1319.493338720063
 30
0.0
 40
0.5
100
AcDbArc
 50
180.0
 51
270.0
  0
LINE
  5
18CBE
330
18C7A
100
AcDbEntity
  8
部品1
 48
0.01
100
AcDbLine
 10
1434.470482677778
 20
1318.993338720063
 30
0.0
 11
1441.014638555061
 21
1318.993338720062
 31
0.0
  0
LINE
  5
18CBF
330
18C7A
100
AcDbEntity
  8
部品1
 48
0.01
100
AcDbLine
 10
1433.970482677778
 20
1320.493338720063
 30
0.0
 11
1433.970482677778
 21
1319.493338720063
 31
0.0
  0
ARC
  5
18CC0
330
18C7A
100
AcDbEntity
  8
部品1
100
AcDbCircle
 10
1441.014638555061
 20
1319.993338720062
 30
0.0
 40
1.0
100
AcDbArc
 50
270.0
 51
19.47122063441346
  0
LINE
  5
18CC1
330
18C7A
100
AcDbEntity
  8
細線
100
AcDbLine
 10
1479.470482677785
 20
1338.493338720065
 30
0.0
 11
1438.470482677785
 21
1338.493338720058
 31
0.0
  0
LINE
  5
18CC2
330
18C7A
100
AcDbEntity
  8
細線
100
AcDbLine
 10
1438.470482677785
 20
1338.493338720058
 30
0.0
 11
1438.470482677785
 21
1320.49333872004
 31
0.0
  0
LINE
  5
18CC3
330
18C7A
100
AcDbEntity
  8
細線
100
AcDbLine
 10
1479.470482677785
 20
1338.493338720065
 30
0.0
 11
1479.470482677785
 21
1320.49333872004
 31
0.0
  0
LINE
  5
18CC4
330
18C7A
100
AcDbEntity
  8
細線
100
AcDbLine
 10
1322.970589276523
 20
1324.494269174465
 30
0.0
 11
1322.970589276523
 21
1320.494269174513
 31
0.0
  0
LINE
  5
18CC5
330
18C7A
100
AcDbEntity
  8
寸法
 48
50.0
100
AcDbLine
 10
1746.17359555837
 20
1170.531020743327
 30
0.0
 11
1694.767587648266
 21
1170.531020743327
 31
0.0
  0
LINE
  5
18CC6
330
18C7A
100
AcDbEntity
  8
寸法
 48
50.0
100
AcDbLine
 10
1694.767587648266
 20
1170.531020743327
 30
0.0
 11
1694.767587648266
 21
1201.841179395494
 31
0.0
  0
LINE
  5
18CC7
330
18C7A
100
AcDbEntity
  8
寸法
 48
50.0
100
AcDbLine
 10
1694.767587648266
 20
1201.841179395494
 30
0.0
 11
1665.006255656843
 21
1201.841179395494
 31
0.0
  0
LINE
  5
18CC8
330
18C7A
100
AcDbEntity
  8
寸法
 48
50.0
100
AcDbLine
 10
1665.006255656843
 20
1201.841179395494
 30
0.0
 11
1720.470591603318
 21
1239.420630324105
 31
0.0
  0
LINE
  5
18CC9
330
18C7A
100
AcDbEntity
  8
寸法
 48
50.0
100
AcDbLine
 10
1775.934927549793
 20
1201.841179395494
 30
0.0
 11
1720.470591603318
 21
1239.420630324105
 31
0.0
  0
LINE
  5
18CCA
330
18C7A
100
AcDbEntity
  8
寸法
 48
50.0
100
AcDbLine
 10
1746.17359555837
 20
1201.841179395494
 30
0.0
 11
1775.934927549793
 21
1201.841179395494
 31
0.0
  0
LINE
  5
18CCB
330
18C7A
100
AcDbEntity
  8
寸法
 48
50.0
100
AcDbLine
 10
1746.17359555837
 20
1170.531020743327
 30
0.0
 11
1746.17359555837
 21
1201.841179395494
 31
0.0
  0
LINE
  5
18CCC
330
18C7A
100
AcDbEntity
  8
寸法
 48
50.0
100
AcDbLine
 10
1694.767587648266
 20
1170.531020743327
 30
0.0
 11
1746.17359555837
 21
1170.531020743327
 31
0.0
  0
LINE
  5
18CCD
330
18C7A
100
AcDbEntity
  8
寸法
 48
50.0
100
AcDbLine
 10
2025.339129835225
 20
1227.676611498152
 30
0.0
 11
2025.339129835225
 21
1174.01297691636
 31
0.0
  0
LINE
  5
18CCE
330
18C7A
100
AcDbEntity
  8
寸法
 48
50.0
100
AcDbLine
 10
2114.623348430647
 20
1203.752977228664
 30
0.0
 11
2025.339129835225
 21
1227.676611498152
 31
0.0
  0
LINE
  5
18CCF
330
18C7A
100
AcDbEntity
  8
寸法
 48
50.0
100
AcDbLine
 10
1895.471408254923
 20
1203.752977228664
 30
0.0
 11
2114.623348430647
 21
1203.752977228664
 31
0.0
  0
DIMENSION
  5
18CD0
330
18C7A
100
AcDbEntity
  8
寸法
 48
50.0
100
AcDbDimension
  2
*D15
 10
2588.970589276523
 20
706.3240511224249
 30
0.0
 11
1969.060022905491
 21
706.3240511224249
 31
0.0
 12
-3742.925985830444
 22
-6453.628869860112
 32
0.0
 70
   128
  1
有効開口部間口\P<>
 71
     5
 42
1266.0
  3
INABA_S40G
100
AcDbAlignedDimension
 13
1322.970589276523
 23
1315.494269174465
 33
0.0
 14
2588.970589276523
 24
1315.494269174465
 34
0.0
100
AcDbRotatedDimension
1001
ACAD
1000
DSTYLE
1002
{
1070
   341
1005
0
1002
}
  0
LINE
  5
18CD1
330
18C7A
100
AcDbEntity
  8
部品1
100
AcDbLine
 10
3409.970589276524
 20
1392.494269174465
 30
0.0
 11
3437.970589276523
 21
1392.494269174465
 31
0.0
  0
DIMENSION
  5
18CD2
330
18C7A
100
AcDbEntity
  8
寸法
100
AcDbDimension
  2
*D16
 10
3674.266172669749
 20
1315.494269174465
 30
0.0
 11
3674.266172669748
 21
1177.494269174462
 31
0.0
 12
-3742.925985830444
 22
-6453.628869860112
 32
0.0
 70
   128
 71
     5
 42
77.0
  3
INABA_S40
100
AcDbAlignedDimension
 13
3437.970589276523
 23
1392.494269174465
 33
0.0
 14
3436.970589276523
 24
1315.494269174465
 34
0.0
 50
90.0
100
AcDbRotatedDimension
1001
ACAD
1000
DSTYLE
1002
{
1070
    41
1040
0.5
1070
    44
1040
1.0
1070
   147
1040
0.8
1070
   271
1070
     2
1070
   272
1070
     2
1070
   289
1070
     3
1070
   340
1005
F706
1070
   343
1005
164B4
1070
   344
1005
164B4
1002
}
  0
LINE
  5
18CD3
330
18C7A
100
AcDbEntity
  8
部品1
100
AcDbLine
 10
3437.970589276523
 20
1315.494269174465
 30
0.0
 11
3437.970589276523
 21
1392.494269174465
 31
0.0
  0
LINE
  5
18CD4
330
18C7A
100
AcDbEntity
  8
部品1
100
AcDbLine
 10
3398.970589276523
 20
1388.494269174465
 30
0.0
 11
3409.970589276524
 21
1388.494269174465
 31
0.0
  0
LINE
  5
18CD5
330
18C7A
100
AcDbEntity
  8
部品1
100
AcDbLine
 10
3407.970589276523
 20
1324.494269174465
 30
0.0
 11
3407.970589276523
 21
1315.494269174465
 31
0.0
  0
LINE
  5
18CD6
330
18C7A
100
AcDbEntity
  8
部品1
100
AcDbLine
 10
3398.970589276523
 20
1324.494269174465
 30
0.0
 11
3407.970589276523
 21
1324.494269174465
 31
0.0
  0
LINE
  5
18CD7
330
18C7A
100
AcDbEntity
  8
部品1
100
AcDbLine
 10
3398.970589276523
 20
1388.494269174465
 30
0.0
 11
3398.970589276523
 21
1324.494269174465
 31
0.0
  0
LINE
  5
18CD8
330
18C7A
100
AcDbEntity
  8
部品1
100
AcDbLine
 10
3409.970589276524
 20
1419.494269174465
 30
0.0
 11
3409.970589276524
 21
1388.494269174465
 31
0.0
  0
LINE
  5
18CD9
330
18C7A
100
AcDbEntity
  8
部品1
100
AcDbLine
 10
1322.970589276523
 20
1388.494269174465
 30
0.0
 11
1311.970589276523
 21
1388.494269174465
 31
0.0
  0
LINE
  5
18CDA
330
18C7A
100
AcDbEntity
  8
部品1
100
AcDbLine
 10
1283.970589276523
 20
1392.494269174465
 30
0.0
 11
1311.970589276523
 21
1392.494269174465
 31
0.0
  0
LINE
  5
18CDB
330
18C7A
100
AcDbEntity
  8
部品1
100
AcDbLine
 10
1313.970589276523
 20
1324.494269174465
 30
0.0
 11
1313.970589276523
 21
1315.494269174465
 31
0.0
  0
LINE
  5
18CDC
330
18C7A
100
AcDbEntity
  8
部品1
100
AcDbLine
 10
1322.970589276523
 20
1324.494269174465
 30
0.0
 11
1313.970589276523
 21
1324.494269174465
 31
0.0
  0
LINE
  5
18CDD
330
18C7A
100
AcDbEntity
  8
部品1
100
AcDbLine
 10
1313.970589276523
 20
1315.494269174465
 30
0.0
 11
1283.970589276523
 21
1315.494269174465
 31
0.0
  0
LINE
  5
18CDE
330
18C7A
100
AcDbEntity
  8
部品1
100
AcDbLine
 10
1283.970589276523
 20
1315.494269174465
 30
0.0
 11
1283.970589276523
 21
1392.494269174465
 31
0.0
  0
LINE
  5
18CDF
330
18C7A
100
AcDbEntity
  8
部品1
100
AcDbLine
 10
1322.970589276523
 20
1388.494269174465
 30
0.0
 11
1322.970589276523
 21
1324.494269174465
 31
0.0
  0
LINE
  5
18CE0
330
18C7A
100
AcDbEntity
  8
部品1
100
AcDbLine
 10
1311.970589276523
 20
1419.494269174462
 30
0.0
 11
1311.970589276523
 21
1388.494269174465
 31
0.0
  0
LINE
  5
18CE1
330
18C7A
100
AcDbEntity
  8
部品1
100
AcDbLine
 10
1311.970589276523
 20
1419.494269174462
 30
0.0
 11
3409.970589276524
 21
1419.494269174465
 31
0.0
  0
LINE
  5
18CE2
330
18C7A
100
AcDbEntity
  8
部品1
100
AcDbLine
 10
3407.970589276523
 20
1315.494269174465
 30
0.0
 11
3437.970589276523
 21
1315.494269174465
 31
0.0
  0
LINE
  5
18CE3
330
18C7A
100
AcDbEntity
  8
部品1
100
AcDbLine
 10
1313.970589276523
 20
1315.494269174465
 30
0.0
 11
3410.970589276523
 21
1315.494269174465
 31
0.0
  0
LINE
  5
18CE4
330
18C7A
100
AcDbEntity
  8
細線
  6
Continuous
 62
     5
100
AcDbLine
 10
2689.970589276527
 20
1354.494269174462
 30
0.0
 11
2689.970589276527
 21
1354.494269174462
 31
0.0
  0
LINE
  5
18CE5
330
18C7A
100
AcDbEntity
  8
細線
  6
Continuous
 62
     5
100
AcDbLine
 10
2682.470589276527
 20
1354.494269174462
 30
0.0
 11
2682.470589276527
 21
1354.494269174462
 31
0.0
  0
LINE
  5
18CE6
330
18C7A
100
AcDbEntity
  8
細線
  6
Continuous
 62
     5
100
AcDbLine
 10
2676.470589276527
 20
1354.494269174462
 30
0.0
 11
2676.470589276527
 21
1354.494269174462
 31
0.0
  0
LINE
  5
18CE7
330
18C7A
100
AcDbEntity
  8
細線
  6
Continuous
 62
     5
100
AcDbLine
 10
2743.970589276527
 20
1373.494269174462
 30
0.0
 11
2743.970589276527
 21
1373.494269174462
 31
0.0
  0
LINE
  5
18CE8
330
18C7A
100
AcDbEntity
  8
細線
 48
50.0
100
AcDbLine
 10
1336.970593930116
 20
1341.094443351418
 30
0.0
 11
1336.970593930113
 21
1349.490593759059
 31
0.0
  0
LINE
  5
18CE9
330
18C7A
100
AcDbEntity
  8
細線
 48
50.0
100
AcDbLine
 10
1336.970593930113
 20
1349.490593759059
 30
0.0
 11
1322.970589276523
 21
1349.490593759057
 31
0.0
  0
LINE
  5
18CEA
330
18C7A
100
AcDbEntity
  8
細線
 48
50.0
100
AcDbLine
 10
2087.970593930113
 20
1337.644443351419
 30
0.0
 11
2087.970593930113
 21
1342.494443351421
 31
0.0
  0
LINE
  5
18CEB
330
18C7A
100
AcDbEntity
  8
細線
 48
50.0
100
AcDbLine
 10
2087.970593930113
 20
1342.494443351421
 30
0.0
 11
2102.970593930113
 21
1342.494443351421
 31
0.0
  0
LINE
  5
18CEC
330
18C7A
100
AcDbEntity
  8
細線
 48
50.0
100
AcDbLine
 10
2102.970593930113
 20
1342.494443351421
 30
0.0
 11
2102.970593930115
 21
1349.494443351419
 31
0.0
  0
LINE
  5
18CED
330
18C7A
100
AcDbEntity
  8
細線
 48
50.0
100
AcDbLine
 10
2102.970593930115
 20
1349.494443351419
 30
0.0
 11
2117.970593930113
 21
1349.494443351419
 31
0.0
  0
LINE
  5
18CEE
330
18C7A
100
AcDbEntity
  8
細線
 48
50.0
100
AcDbLine
 10
2117.970593930113
 20
1349.494443351419
 30
0.0
 11
2117.970593930113
 21
1320.494443351421
 31
0.0
  0
LINE
  5
18CEF
330
18C7A
100
AcDbEntity
  8
細線
 48
50.0
100
AcDbLine
 10
1313.970589276523
 20
1320.491777694889
 30
0.0
 11
1527.970593930113
 21
1320.494460905133
 31
0.0
  0
LINE
  5
18CF0
330
18C7A
100
AcDbEntity
  8
細線
 48
50.0
100
AcDbLine
 10
2017.970593930113
 20
1320.494443351421
 30
0.0
 11
2117.970593930113
 21
1320.494443351421
 31
0.0
  0
LINE
  5
18CF1
330
18C7A
100
AcDbEntity
  8
細線
 48
50.0
100
AcDbLine
 10
1737.970593930113
 20
1320.494443351419
 30
0.0
 11
1807.970593930113
 21
1320.494443351423
 31
0.0
  0
LINE
  5
18CF2
330
18C7A
100
AcDbEntity
  8
細線
 48
50.0
100
AcDbLine
 10
1750.832558942642
 20
1320.494443351419
 30
0.0
 11
1756.588076525309
 21
1338.765294641913
 31
0.0
  0
LINE
  5
18CF3
330
18C7A
100
AcDbEntity
  8
細線
 48
50.0
100
AcDbLine
 10
1756.588076525309
 20
1338.765294641913
 30
0.0
 11
1767.516525005743
 21
1338.765294641911
 31
0.0
  0
ARC
  5
18CF4
330
18C7A
100
AcDbEntity
  8
細線
 48
50.0
100
AcDbCircle
 10
1767.516525005743
 20
1337.765294641911
 30
0.0
 40
1.0
100
AcDbArc
 50
24.62431835207225
 51
90.0
  0
ARC
  5
18CF5
330
18C7A
100
AcDbEntity
  8
細線
 48
50.0
100
AcDbCircle
 10
1778.425237120377
 20
1337.765294641911
 30
0.0
 40
1.0
100
AcDbArc
 50
90.0
 51
155.3756816479277
  0
ARC
  5
18CF6
330
18C7A
100
AcDbEntity
  8
細線
 48
50.0
100
AcDbCircle
 10
1772.970881063058
 20
1340.265294641911
 30
0.0
 40
5.0
100
AcDbArc
 50
204.6243183520723
 51
335.3756816479278
  0
LINE
  5
18CF7
330
18C7A
100
AcDbEntity
  8
細線
 48
50.0
100
AcDbLine
 10
1778.425237120377
 20
1338.765294641911
 30
0.0
 11
1789.35368560081
 21
1338.765294641913
 31
0.0
  0
LINE
  5
18CF8
330
18C7A
100
AcDbEntity
  8
細線
 48
50.0
100
AcDbLine
 10
1789.35368560081
 20
1338.765294641913
 30
0.0
 11
1795.109203183478
 21
1320.494443351423
 31
0.0
  0
LINE
  5
18CF9
330
18C7A
100
AcDbEntity
  8
細線
 48
50.0
100
AcDbLine
 10
2087.970593930113
 20
1341.094443351419
 30
0.0
 11
1336.970593930116
 21
1341.094443351418
 31
0.0
  0
LINE
  5
18CFA
330
18C7A
100
AcDbEntity
  8
細線
 48
50.0
100
AcDbLine
 10
1947.970593930113
 20
1320.494443351421
 30
0.0
 11
1877.970593930113
 21
1320.494443351421
 31
0.0
  0
LINE
  5
18CFB
330
18C7A
100
AcDbEntity
  8
細線
100
AcDbLine
 10
1667.970593930113
 20
1320.494443351421
 30
0.0
 11
1597.970602115529
 21
1320.494443351421
 31
0.0
  0
LINE
  5
18CFC
330
18C7A
100
AcDbEntity
  8
細線
 48
50.0
100
AcDbLine
 10
2741.970584622936
 20
1375.094487209288
 30
0.0
 11
2106.970593930113
 21
1375.094487209284
 31
0.0
  0
LINE
  5
18CFD
330
18C7A
100
AcDbEntity
  8
細線
 48
50.0
100
AcDbLine
 10
2106.970593930113
 20
1371.990637616925
 30
0.0
 11
2106.970593930113
 21
1376.490637616925
 31
0.0
  0
LINE
  5
18CFE
330
18C7A
100
AcDbEntity
  8
細線
 48
50.0
100
AcDbLine
 10
2106.970593930113
 20
1376.490637616925
 30
0.0
 11
2091.970593930113
 21
1376.490637616925
 31
0.0
  0
LINE
  5
18CFF
330
18C7A
100
AcDbEntity
  8
細線
 48
50.0
100
AcDbLine
 10
2091.970593930113
 20
1376.490637616925
 30
0.0
 11
2091.970593930113
 21
1383.490637616927
 31
0.0
  0
LINE
  5
18D00
330
18C7A
100
AcDbEntity
  8
細線
 48
50.0
100
AcDbLine
 10
2091.970593930113
 20
1383.490637616927
 30
0.0
 11
2076.970593930115
 21
1383.490637616924
 31
0.0
  0
LINE
  5
18D01
330
18C7A
100
AcDbEntity
  8
細線
 48
50.0
100
AcDbLine
 10
2076.970593930115
 20
1383.490637616924
 30
0.0
 11
2076.970593930115
 21
1345.890409513813
 31
0.0
  0
LINE
  5
18D02
330
18C7A
100
AcDbEntity
  8
細線
 48
50.0
100
AcDbLine
 10
2076.970593930115
 20
1345.890409513813
 30
0.0
 11
2096.970601231289
 21
1345.890451063353
 31
0.0
  0
LINE
  5
18D03
330
18C7A
100
AcDbEntity
  8
細線
 48
50.0
100
AcDbLine
 10
2096.970556362348
 20
1354.493912699161
 30
0.0
 11
2096.970601231289
 21
1345.890451063353
 31
0.0
  0
LINE
  5
18D04
330
18C7A
100
AcDbEntity
  8
細線
 48
50.0
100
AcDbLine
 10
2741.970584622936
 20
1371.644487209287
 30
0.0
 11
2741.970584622936
 21
1376.494487209284
 31
0.0
  0
LINE
  5
18D05
330
18C7A
100
AcDbEntity
  8
細線
 48
50.0
100
AcDbLine
 10
2741.970584622936
 20
1376.494487209284
 30
0.0
 11
2756.970584622934
 21
1376.494487209285
 31
0.0
  0
LINE
  5
18D06
330
18C7A
100
AcDbEntity
  8
細線
 48
50.0
100
AcDbLine
 10
2756.970584622934
 20
1376.494487209285
 30
0.0
 11
2756.970596256909
 21
1383.494487209331
 31
0.0
  0
LINE
  5
18D07
330
18C7A
100
AcDbEntity
  8
細線
 48
50.0
100
AcDbLine
 10
2756.970596256909
 20
1383.494487209331
 30
0.0
 11
2771.970594427439
 21
1383.494487209329
 31
0.0
  0
LINE
  5
18D08
330
18C7A
100
AcDbEntity
  8
細線
 48
50.0
100
AcDbLine
 10
2771.970594427439
 20
1383.494487209329
 30
0.0
 11
2771.970584125617
 21
1354.494281037055
 31
0.0
  0
LINE
  5
18D09
330
18C7A
100
AcDbEntity
  8
細線
 48
50.0
100
AcDbLine
 10
2458.070304175992
 20
1354.494278397076
 30
0.0
 11
2389.470863838818
 21
1354.494283787084
 31
0.0
  0
LINE
  5
18D0A
330
18C7A
100
AcDbEntity
  8
細線
 48
50.0
100
AcDbLine
 10
2096.970556362348
 20
1354.493912699161
 30
0.0
 11
2108.203245717057
 21
1354.494095652309
 31
0.0
  0
ARC
  5
18D0B
330
18C7A
100
AcDbEntity
  8
細線
 48
50.0
100
AcDbCircle
 10
2114.785538024393
 20
1353.294259565922
 30
0.0
 40
1.8
100
AcDbArc
 50
270.0006665777295
 51
345.000555481349
  0
LINE
  5
18D0C
330
18C7A
100
AcDbEntity
  8
細線
 48
50.0
100
AcDbLine
 10
2116.771971470473
 20
1353.753100023201
 30
0.0
 11
2116.524209028273
 21
1352.828402141094
 31
0.0
  0
LINE
  5
18D0D
330
18C7A
100
AcDbEntity
  8
細線
 48
50.0
100
AcDbLine
 10
2114.785558965548
 20
1351.494259566043
 30
0.0
 11
2111.155631546781
 21
1351.494217335563
 31
0.0
  0
ARC
  5
18D0E
330
18C7A
100
AcDbEntity
  8
細線
 48
50.0
100
AcDbCircle
 10
2111.155610605627
 20
1353.29421733544
 30
0.0
 40
1.8
100
AcDbArc
 50
195.0010443049965
 51
270.0006665777295
  0
LINE
  5
18D0F
330
18C7A
100
AcDbEntity
  8
細線
 48
50.0
100
AcDbLine
 10
2109.169183113368
 20
1353.752932303007
 30
0.0
 11
2109.416952609882
 21
1352.828311364425
 31
0.0
  0
ARC
  5
18D10
330
18C7A
100
AcDbEntity
  8
細線
 48
50.0
100
AcDbCircle
 10
2108.203262004622
 20
1353.494095652444
 30
0.0
 40
1.0
100
AcDbArc
 50
15.00104430499651
 51
90.00093320877969
  0
LINE
  5
18D11
330
18C7A
100
AcDbEntity
  8
細線
 48
50.0
100
AcDbLine
 10
2117.737892825577
 20
1354.494290342714
 30
0.0
 11
2118.679652976481
 21
1354.494296916564
 31
0.0
  0
ARC
  5
18D12
330
18C7A
100
AcDbEntity
  8
細線
 48
50.0
100
AcDbCircle
 10
2117.737899805961
 20
1353.49429034274
 30
0.0
 40
1.0
100
AcDbArc
 50
90.0003999466794
 51
165.000555481349
  0
LINE
  5
18D13
330
18C7A
100
AcDbEntity
  8
細線
 48
50.0
100
AcDbLine
 10
2669.470584622926
 20
1354.494281037055
 30
0.0
 11
2771.970584125617
 21
1354.494281037055
 31
0.0
  0
LINE
  5
18D14
330
18C7A
100
AcDbEntity
  8
細線
 48
50.0
100
AcDbLine
 10
2179.47061994182
 20
1354.494289224422
 30
0.0
 11
2118.370558714898
 21
1354.494296916564
 31
0.0
  0
LINE
  5
18D15
330
18C7A
100
AcDbEntity
  8
細線
 48
50.0
100
AcDbLine
 10
2599.470584622926
 20
1354.494281037057
 30
0.0
 11
2529.470584622926
 21
1354.494281037055
 31
0.0
  0
LINE
  5
18D16
330
18C7A
100
AcDbEntity
  8
細線
 48
50.0
100
AcDbLine
 10
2319.470584622926
 20
1354.494281037054
 30
0.0
 11
2249.470567335051
 21
1354.494281037057
 31
0.0
  0
ARC
  5
18D17
330
18C7A
100
AcDbEntity
  8
細線
 48
50.0
100
AcDbCircle
 10
2756.170589276533
 20
1387.694269174466
 30
0.0
 40
0.8
100
AcDbArc
 50
359.9997333689499
 51
89.99986668437072
  0
ARC
  5
18D18
330
18C7A
100
AcDbEntity
  8
細線
 48
50.0
100
AcDbCircle
 10
2763.770596101631
 20
1387.694280343081
 30
0.0
 40
0.8
100
AcDbArc
 50
90.00014387753465
 51
179.9997333689498
  0
LINE
  5
18D19
330
18C7A
100
AcDbEntity
  8
細線
 48
50.0
100
AcDbLine
 10
2756.170591137969
 20
1388.494269174465
 30
0.0
 11
2750.970589276525
 21
1388.494269174465
 31
0.0
  0
ARC
  5
18D1A
330
18C7A
100
AcDbEntity
  8
細線
 48
50.0
100
AcDbCircle
 10
2757.670589276524
 20
1386.194269174464
 30
0.0
 40
0.7
100
AcDbArc
 50
180.0
 51
270.0
  0
ARC
  5
18D1B
330
18C7A
100
AcDbEntity
  8
細線
 48
50.0
100
AcDbCircle
 10
2762.270589276524
 20
1386.194269174464
 30
0.0
 40
0.7
100
AcDbArc
 50
270.0
 51
0.0
  0
LINE
  5
18D1C
330
18C7A
100
AcDbEntity
  8
細線
 48
50.0
100
AcDbLine
 10
2762.970589276525
 20
1386.194269174464
 30
0.0
 11
2762.970596101639
 21
1387.694284065954
 31
0.0
  0
LINE
  5
18D1D
330
18C7A
100
AcDbEntity
  8
細線
 48
50.0
100
AcDbLine
 10
2757.670589276524
 20
1385.494269174465
 30
0.0
 11
2762.270589276524
 21
1385.494269174465
 31
0.0
  0
LINE
  5
18D1E
330
18C7A
100
AcDbEntity
  8
細線
 48
50.0
100
AcDbLine
 10
2756.970589276525
 20
1387.694269174466
 30
0.0
 11
2756.970589276525
 21
1386.194269174464
 31
0.0
  0
LINE
  5
18D1F
330
18C7A
100
AcDbEntity
  8
細線
 48
50.0
100
AcDbLine
 10
3382.570589276527
 20
1418.494269174465
 30
0.0
 11
2745.970589276525
 21
1418.494269174463
 31
0.0
  0
LINE
  5
18D20
330
18C7A
100
AcDbEntity
  8
細線
 48
50.0
100
AcDbLine
 10
3408.470589276525
 20
1413.494269174467
 30
0.0
 11
3392.570589276527
 21
1413.494269174465
 31
0.0
  0
LINE
  5
18D21
330
18C7A
100
AcDbEntity
  8
細線
 48
50.0
100
AcDbLine
 10
3392.570589276526
 20
1413.494269174465
 30
0.0
 11
3382.570589276527
 21
1418.494269174465
 31
0.0
  0
LINE
  5
18D22
330
18C7A
100
AcDbEntity
  8
細線
100
AcDbLine
 10
2993.470589276525
 20
1388.494269174465
 30
0.0
 11
2993.470589276525
 21
1417.794269174464
 31
0.0
  0
LINE
  5
18D23
330
18C7A
100
AcDbEntity
  8
細線
100
AcDbLine
 10
2993.470589276525
 20
1417.794269174464
 30
0.0
 11
3013.470589276525
 21
1417.794269174464
 31
0.0
  0
LINE
  5
18D24
330
18C7A
100
AcDbEntity
  8
細線
100
AcDbLine
 10
3013.470589276525
 20
1388.494269174465
 30
0.0
 11
3013.470589276525
 21
1417.794269174464
 31
0.0
  0
LINE
  5
18D25
330
18C7A
100
AcDbEntity
  8
細線
100
AcDbLine
 10
3170.720589276524
 20
1388.494269174465
 30
0.0
 11
3100.720589276523
 21
1388.494269174465
 31
0.0
  0
LINE
  5
18D26
330
18C7A
100
AcDbEntity
  8
細線
 48
50.0
100
AcDbLine
 10
2890.720589276525
 20
1388.494269174465
 30
0.0
 11
2763.766368849365
 21
1388.494269174465
 31
0.0
  0
LINE
  5
18D27
330
18C7A
100
AcDbEntity
  8
細線
100
AcDbLine
 10
3030.720589276525
 20
1388.494269174465
 30
0.0
 11
2960.720589276525
 21
1388.494269174465
 31
0.0
  0
LINE
  5
18D28
330
18C7A
100
AcDbEntity
  8
細線
 48
50.0
100
AcDbLine
 10
2750.970589276525
 20
1380.494269174465
 30
0.0
 11
2750.970589276525
 21
1388.494269174465
 31
0.0
  0
LINE
  5
18D29
330
18C7A
100
AcDbEntity
  8
細線
 48
50.0
100
AcDbLine
 10
2730.970589276524
 20
1380.494269174467
 30
0.0
 11
2750.970589276525
 21
1380.494269174465
 31
0.0
  0
LINE
  5
18D2A
330
18C7A
100
AcDbEntity
  8
細線
 48
50.0
100
AcDbLine
 10
2745.970589276525
 20
1418.494269174465
 30
0.0
 11
2745.970589276525
 21
1413.494269174465
 31
0.0
  0
LINE
  5
18D2B
330
18C7A
100
AcDbEntity
  8
細線
 48
50.0
100
AcDbLine
 10
2730.970589276525
 20
1418.494269174463
 30
0.0
 11
2745.970589276525
 21
1418.494269174465
 31
0.0
  0
LINE
  5
18D2C
330
18C7A
100
AcDbEntity
  8
細線
 48
50.0
100
AcDbLine
 10
2730.970589276524
 20
1380.494269174467
 30
0.0
 11
2730.970589276525
 21
1418.494269174463
 31
0.0
  0
LINE
  5
18D2D
330
18C7A
100
AcDbEntity
  8
細線
100
AcDbLine
 10
3398.970589276523
 20
1388.494269174465
 30
0.0
 11
3240.720589276525
 21
1388.494269174465
 31
0.0
  0
LINE
  5
18D2E
330
18C7A
100
AcDbEntity
  8
細線
 48
50.0
100
AcDbLine
 10
3408.470589276525
 20
1413.494269174467
 30
0.0
 11
3408.470589276524
 21
1388.494269174465
 31
0.0
  0
TEXT
  5
18D2F
330
18C7A
100
AcDbEntity
  8
部品1
100
AcDbText
 10
1860.154865991392
 20
46.99880823813145
 30
0.0
 40
135.0
  1
平面図
  7
STYLE2
100
AcDbText
  0
LWPOLYLINE
  5
18D30
330
18C7A
100
AcDbEntity
  8
部品1
100
AcDbPolyline
 90
        4
 70
     1
 43
0.0
 10
1770.23525616235
 20
239.8923374566548
 10
1770.23525616235
 20
0.0000159111223184
 10
2533.705922390791
 20
0.0000159111223184
 10
2533.705922390791
 20
239.8923374566548
  0
LINE
  5
18D31
330
18C7A
100
AcDbEntity
  8
部品1
100
AcDbLine
 10
1534.470589276487
 20
3154.494269174626
 30
0.0
 11
2769.470589276552
 21
3154.494269174626
 31
0.0
  0
LINE
  5
18D32
330
18C7A
100
AcDbEntity
  8
部品1
 48
50.0
100
AcDbLine
 10
1311.970589276523
 20
1420.494269174462
 30
0.0
 11
3411.970589276523
 21
1420.494269174465
 31
0.0
  0
LINE
  5
18D33
330
18C7A
100
AcDbEntity
  8
部品1
 48
50.0
100
AcDbLine
 10
471.9705892765232
 20
1392.494269174465
 30
0.0
 11
1311.970589276523
 21
1392.494269174465
 31
0.0
  0
DIMENSION
  5
18D34
330
18C7A
100
AcDbEntity
  8
寸法
100
AcDbDimension
  2
*D14
 10
2710.234916278077
 20
2488.887829538828
 30
0.0
 11
2338.318822490183
 21
2488.887829538828
 31
0.0
 12
-3742.925985830444
 22
-6453.628869860112
 32
0.0
 70
   128
 71
     5
 42
1231.00000000007
  3
INABA_S40G
100
AcDbAlignedDimension
 13
1536.470589276486
 23
2702.494269174557
 33
0.0
 14
2767.470589276556
 24
2702.494269174549
 34
0.0
100
AcDbRotatedDimension
1001
ACAD
1000
DSTYLE
1002
{
1002
}
  0
LINE
  5
18D35
330
18C7A
100
AcDbEntity
  8
部品1
100
AcDbLine
 10
1536.470589276487
 20
2702.494269174557
 30
0.0
 11
2767.470589276554
 21
2702.494269174615
 31
0.0
  0
LINE
  5
18D36
330
18C7A
100
AcDbEntity
  8
部品1
100
AcDbLine
 10
1536.470589276487
 20
3152.494269174557
 30
0.0
 11
2767.470589276556
 21
3152.494269174615
 31
0.0
  0
LINE
  5
18D37
330
18C7A
100
AcDbEntity
  8
細線
 48
50.0
100
AcDbLine
 10
1508.470589276487
 20
3152.494269174558
 30
0.0
 11
445.4705892765559
 21
2702.494269174509
 31
0.0
  0
LINE
  5
18D38
330
18C7A
100
AcDbEntity
  8
細線
 48
50.0
100
AcDbLine
 10
1508.470589276487
 20
2702.494269174558
 30
0.0
 11
445.4705892765542
 21
3152.494269174509
 31
0.0
  0
LINE
  5
18D39
330
18C7A
100
AcDbEntity
  8
部品1
100
AcDbLine
 10
1556.970589276487
 20
3172.494269174611
 30
0.0
 11
1556.970589276487
 21
3154.494269174611
 31
0.0
  0
LINE
  5
18D3A
330
18C7A
100
AcDbEntity
  8
部品1
100
AcDbLine
 10
1556.970589276487
 20
3172.494269174611
 30
0.0
 11
1550.970589276487
 21
3172.494269174611
 31
0.0
  0
LINE
  5
18D3B
330
18C7A
100
AcDbEntity
  8
部品1
100
AcDbLine
 10
1534.470589276487
 20
3146.494269174608
 30
0.0
 11
1509.470589276487
 21
3146.494269174611
 31
0.0
  0
LINE
  5
18D3C
330
18C7A
100
AcDbEntity
  8
部品1
100
AcDbLine
 10
1486.970589276487
 20
3172.494269174611
 30
0.0
 11
1486.970589276487
 21
3154.494269174611
 31
0.0
  0
LINE
  5
18D3D
330
18C7A
100
AcDbEntity
  8
部品1
100
AcDbLine
 10
1492.970589276487
 20
3172.494269174611
 30
0.0
 11
1486.970589276487
 21
3172.494269174611
 31
0.0
  0
LINE
  5
18D3E
330
18C7A
100
AcDbEntity
  8
部品1
100
AcDbLine
 10
1534.470589276487
 20
2702.494269174615
 30
0.0
 11
1509.470589276487
 21
2702.494269174615
 31
0.0
  0
LINE
  5
18D3F
330
18C7A
100
AcDbEntity
  8
部品1
 48
50.0
100
AcDbLine
 10
1536.470589276487
 20
3152.494269174611
 30
0.0
 11
1536.470589276487
 21
2702.494269174615
 31
0.0
  0
LINE
  5
18D40
330
18C7A
100
AcDbEntity
  8
部品1
 48
50.0
100
AcDbLine
 10
1508.470589276487
 20
3152.494269174607
 30
0.0
 11
1508.470589276487
 21
2702.494269174615
 31
0.0
  0
LINE
  5
18D41
330
18C7A
100
AcDbEntity
  8
部品1
 48
50.0
100
AcDbLine
 10
1534.470589276487
 20
3154.494269174618
 30
0.0
 11
1534.470589276487
 21
2702.494269174615
 31
0.0
  0
LINE
  5
18D42
330
18C7A
100
AcDbEntity
  8
部品1
 48
50.0
100
AcDbLine
 10
1509.470589276487
 20
3154.494269174615
 30
0.0
 11
1509.470589276487
 21
2702.494269174615
 31
0.0
  0
LINE
  5
18D43
330
18C7A
100
AcDbEntity
  8
部品1
100
AcDbLine
 10
3411.970589276556
 20
1392.494269174582
 30
0.0
 11
3411.970589276556
 21
1420.494269174596
 31
0.0
  0
LINE
  5
18D44
330
18C7A
100
AcDbEntity
  8
部品1
100
AcDbLine
 10
1311.970589276523
 20
1392.494269174596
 30
0.0
 11
1311.970589276523
 21
1420.494269174596
 31
0.0
  0
LINE
  5
18D45
330
18C7A
100
AcDbEntity
  8
部品1
100
AcDbLine
 10
891.9705892765232
 20
1392.494269174596
 30
0.0
 11
891.9705892765232
 21
1420.494269174596
 31
0.0
  0
LINE
  5
18D46
330
18C7A
100
AcDbEntity
  8
部品1
100
AcDbLine
 10
3411.97058927652
 20
3182.494269174477
 30
0.0
 11
3411.970589276523
 21
3154.494269174477
 31
0.0
  0
LINE
  5
18D47
330
18C7A
100
AcDbEntity
  8
部品1
100
AcDbLine
 10
2571.97058927652
 20
3182.494269174477
 30
0.0
 11
2571.970589276523
 21
3154.494269174477
 31
0.0
  0
LINE
  5
18D48
330
18C7A
100
AcDbEntity
  8
部品1
100
AcDbLine
 10
2991.97058927652
 20
3182.494269174477
 30
0.0
 11
2991.970589276523
 21
3154.494269174477
 31
0.0
  0
LINE
  5
18D49
330
18C7A
100
AcDbEntity
  8
部品1
100
AcDbLine
 10
2151.970589276519
 20
3182.494269174477
 30
0.0
 11
2151.970589276523
 21
3154.494269174477
 31
0.0
  0
LINE
  5
18D4A
330
18C7A
100
AcDbEntity
  8
部品1
100
AcDbLine
 10
1731.970589276519
 20
3182.494269174477
 30
0.0
 11
1731.970589276523
 21
3154.494269174477
 31
0.0
  0
LINE
  5
18D4B
330
18C7A
100
AcDbEntity
  8
部品1
100
AcDbLine
 10
1311.970589276519
 20
3182.494269174477
 30
0.0
 11
1311.970589276523
 21
3154.494269174477
 31
0.0
  0
LINE
  5
18D4C
330
18C7A
100
AcDbEntity
  8
部品1
100
AcDbLine
 10
891.9705892765195
 20
3182.494269174477
 30
0.0
 11
891.9705892765232
 21
3154.494269174477
 31
0.0
  0
LINE
  5
18D4D
330
18C7A
100
AcDbEntity
  8
部品1
100
AcDbLine
 10
471.9705892765232
 20
1392.494269174596
 30
0.0
 11
471.9705892765232
 21
1420.494269174596
 31
0.0
  0
LINE
  5
18D4E
330
18C7A
100
AcDbEntity
  8
部品1
100
AcDbLine
 10
444.9705892765305
 20
1420.494269174558
 30
0.0
 11
3858.970589276556
 21
1420.494269174596
 31
0.0
  0
LINE
  5
18D4F
330
18C7A
100
AcDbEntity
  8
部品1
100
AcDbLine
 10
3831.970589276556
 20
1392.494269174596
 30
0.0
 11
3831.970589276556
 21
1420.494269174596
 31
0.0
  0
LINE
  5
18D50
330
18C7A
100
AcDbEntity
  8
部品1
100
AcDbLine
 10
3858.970589276556
 20
1447.494269174593
 30
0.0
 11
3886.970589276556
 21
1447.494269174593
 31
0.0
  0
LINE
  5
18D51
330
18C7A
100
AcDbEntity
  8
部品1
100
AcDbLine
 10
3858.970589276556
 20
1867.494269174607
 30
0.0
 11
3886.970589276556
 21
1867.494269174607
 31
0.0
  0
LINE
  5
18D52
330
18C7A
100
AcDbEntity
  8
部品1
100
AcDbLine
 10
444.9705892765305
 20
1867.49426917448
 30
0.0
 11
416.9705892765305
 21
1867.49426917448
 31
0.0
  0
LINE
  5
18D53
330
18C7A
100
AcDbEntity
  8
部品1
100
AcDbLine
 10
3830.470589276541
 20
1867.49426917458
 30
0.0
 11
473.4705892765396
 21
1867.49426917448
 31
0.0
  0
LINE
  5
18D54
330
18C7A
100
AcDbEntity
  8
部品1
100
AcDbLine
 10
3830.470589276541
 20
2287.49426917458
 30
0.0
 11
473.4705892765396
 21
2287.49426917448
 31
0.0
  0
LINE
  5
18D55
330
18C7A
100
AcDbEntity
  8
部品1
100
AcDbLine
 10
444.9705892765305
 20
2287.49426917448
 30
0.0
 11
416.9705892765305
 21
2287.49426917448
 31
0.0
  0
LINE
  5
18D56
330
18C7A
100
AcDbEntity
  8
部品1
100
AcDbLine
 10
3858.970589276556
 20
2287.494269174608
 30
0.0
 11
3886.970589276556
 21
2287.494269174608
 31
0.0
  0
LINE
  5
18D57
330
18C7A
100
AcDbEntity
  8
部品1
 48
50.0
100
AcDbLine
 10
2151.970589276551
 20
2702.494269174586
 30
0.0
 11
2151.970589276581
 21
1448.994269174494
 31
0.0
  0
LINE
  5
18D58
330
18C7A
100
AcDbEntity
  8
破線
 48
10.0
100
AcDbLine
 10
2959.470589276535
 20
1472.494269174522
 30
0.0
 11
2176.970589276532
 21
1472.494269174505
 31
0.0
  0
LINE
  5
18D59
330
18C7A
100
AcDbEntity
  8
破線
 48
10.0
100
AcDbLine
 10
3009.47058927653
 20
1448.994269174509
 30
0.0
 11
3009.47058927653
 21
2702.494269174615
 31
0.0
  0
LINE
  5
18D5A
330
18C7A
100
AcDbEntity
  8
破線
 48
10.0
100
AcDbLine
 10
2959.470589276535
 20
1448.994269174505
 30
0.0
 11
2959.470589276531
 21
2702.494269174615
 31
0.0
  0
LINE
  5
18D5B
330
18C7A
100
AcDbEntity
  8
破線
 48
10.0
100
AcDbLine
 10
1344.47058927653
 20
1448.994269174509
 30
0.0
 11
1344.47058927653
 21
2702.494269174615
 31
0.0
  0
LINE
  5
18D5C
330
18C7A
100
AcDbEntity
  8
破線
 48
10.0
100
AcDbLine
 10
1294.470589276534
 20
1448.994269174505
 30
0.0
 11
1294.47058927653
 21
2702.494269174615
 31
0.0
  0
DIMENSION
  5
18D5D
330
18C7A
100
AcDbEntity
  8
寸法
100
AcDbDimension
  2
*D13
 10
1451.234916278005
 20
2488.887829538828
 30
0.0
 11
916.0604668248634
 21
2488.887829538828
 31
0.0
 12
-3742.925985830444
 22
-6453.628869860112
 32
0.0
 70
   128
 71
     5
 42
1062.99999999993
  3
INABA_S40G
100
AcDbAlignedDimension
 13
445.4705892765559
 23
2702.494269174505
 33
0.0
 14
1508.470589276486
 24
2702.494269174558
 34
0.0
100
AcDbRotatedDimension
1001
ACAD
1000
DSTYLE
1002
{
1002
}
  0
LINE
  5
18D5E
330
18C7A
100
AcDbEntity
  8
破線
 48
10.0
100
AcDbLine
 10
1294.470589276534
 20
1472.494269174469
 30
0.0
 11
496.9705892765414
 21
1472.494269174476
 31
0.0
  0
LINE
  5
18D5F
330
18C7A
100
AcDbEntity
  8
部品1
100
AcDbLine
 10
3831.970589276556
 20
3182.494269174604
 30
0.0
 11
3831.970589276556
 21
3154.494269174604
 31
0.0
  0
LINE
  5
18D60
330
18C7A
100
AcDbEntity
  8
部品1
100
AcDbLine
 10
3831.970589276556
 20
3182.494269174626
 30
0.0
 11
3831.970589276556
 21
3154.494269174626
 31
0.0
  0
LINE
  5
18D61
330
18C7A
100
AcDbEntity
  8
部品1
100
AcDbLine
 10
3858.970589276556
 20
3127.494269174607
 30
0.0
 11
3886.970589276556
 21
3127.494269174607
 31
0.0
  0
LINE
  5
18D62
330
18C7A
100
AcDbEntity
  8
部品1
100
AcDbLine
 10
3858.970589276556
 20
2707.494269174608
 30
0.0
 11
3886.970589276556
 21
2707.494269174608
 31
0.0
  0
LINE
  5
18D63
330
18C7A
100
AcDbEntity
  8
部品1
100
AcDbLine
 10
3858.470589276556
 20
3152.494269174604
 30
0.0
 11
3858.470589276556
 21
2702.494269174608
 31
0.0
  0
LINE
  5
18D64
330
18C7A
100
AcDbEntity
  8
部品1
100
AcDbLine
 10
3886.970589276533
 20
1447.494269174593
 30
0.0
 11
3886.970589276531
 21
1392.494269174596
 31
0.0
  0
LINE
  5
18D65
330
18C7A
100
AcDbEntity
  8
部品1
 48
50.0
100
AcDbLine
 10
3830.470589276556
 20
1448.994269174596
 30
0.0
 11
3858.970589276554
 21
1420.494269174596
 31
0.0
  0
LINE
  5
18D66
330
18C7A
100
AcDbEntity
  8
部品1
100
AcDbLine
 10
3886.970589276531
 20
1392.494269174596
 30
0.0
 11
3835.970589276531
 21
1392.494269174596
 31
0.0
  0
LINE
  5
18D67
330
18C7A
100
AcDbEntity
  8
部品1
100
AcDbLine
 10
3858.970589276533
 20
1447.494269174593
 30
0.0
 11
3886.970589276531
 21
1447.494269174593
 31
0.0
  0
LINE
  5
18D68
330
18C7A
100
AcDbEntity
  8
部品1
100
AcDbLine
 10
3886.970589276556
 20
3182.494269174604
 30
0.0
 11
3886.970589276531
 21
1392.494269174596
 31
0.0
  0
DIMENSION
  5
18D69
330
18C7A
100
AcDbEntity
  8
寸法
100
AcDbDimension
  2
*D12
 10
4534.396935010967
 20
1447.494269174593
 30
0.0
 11
4534.396935010965
 21
2287.4942691746
 31
0.0
 12
-3742.925985830444
 22
-6453.628869860112
 32
0.0
 70
   128
  1
4X420=<>
 71
     5
 42
1680.000000000014
  3
INABA_S40G
100
AcDbAlignedDimension
 13
3886.970589276556
 23
3127.494269174607
 33
0.0
 14
3886.970589276531
 24
1447.494269174593
 34
0.0
 50
90.0
100
AcDbRotatedDimension
1001
ACAD
1000
DSTYLE
1002
{
1002
}
  0
LINE
  5
18D6A
330
18C7A
100
AcDbEntity
  8
部品1
100
AcDbLine
 10
3858.970589276556
 20
3154.494269174604
 30
0.0
 11
3858.970589276534
 21
1420.494269174596
 31
0.0
  0
DIMENSION
  5
18D6B
330
18C7A
100
AcDbEntity
  8
寸法
100
AcDbDimension
  2
*D11
 10
4213.82831513858
 20
2607.276453505718
 30
0.0
 11
4113.828315138579
 21
2832.276453505718
 31
0.0
 12
-3742.925985830444
 22
-6453.628869860112
 32
0.0
 71
     5
 42
449.9999999999963
  3
INABA_S40G
100
AcDbAlignedDimension
 13
3858.470589276556
 23
3152.494269174604
 33
0.0
 14
3858.470589276556
 24
2702.494269174608
 34
0.0
 50
90.0
100
AcDbRotatedDimension
1001
ACAD
1000
DSTYLE
1002
{
1002
}
  0
LINE
  5
18D6C
330
18C7A
100
AcDbEntity
  8
部品1
100
AcDbLine
 10
3830.470589276547
 20
2702.494269174608
 30
0.0
 11
3830.470589276556
 21
1448.994269174596
 31
0.0
  0
LINE
  5
18D6D
330
18C7A
100
AcDbEntity
  8
破線
 48
10.0
100
AcDbLine
 10
3806.970589276549
 20
2702.494269174608
 30
0.0
 11
3806.970589276558
 21
1472.494269174593
 31
0.0
  0
LINE
  5
18D6E
330
18C7A
100
AcDbEntity
  8
部品1
100
AcDbLine
 10
2769.470589276556
 20
3146.494269174608
 30
0.0
 11
2794.470589276556
 21
3146.494269174611
 31
0.0
  0
LINE
  5
18D6F
330
18C7A
100
AcDbEntity
  8
部品1
100
AcDbLine
 10
2810.970589276556
 20
3172.494269174611
 30
0.0
 11
2816.970589276556
 21
3172.494269174611
 31
0.0
  0
LINE
  5
18D70
330
18C7A
100
AcDbEntity
  8
部品1
100
AcDbLine
 10
2816.970589276556
 20
3172.494269174611
 30
0.0
 11
2816.970589276556
 21
3154.494269174611
 31
0.0
  0
LINE
  5
18D71
330
18C7A
100
AcDbEntity
  8
部品1
100
AcDbLine
 10
2746.970589276556
 20
3172.494269174611
 30
0.0
 11
2752.970589276556
 21
3172.494269174611
 31
0.0
  0
LINE
  5
18D72
330
18C7A
100
AcDbEntity
  8
部品1
100
AcDbLine
 10
2746.970589276556
 20
3172.494269174611
 30
0.0
 11
2746.970589276556
 21
3154.494269174611
 31
0.0
  0
LINE
  5
18D73
330
18C7A
100
AcDbEntity
  8
部品1
100
AcDbLine
 10
2769.470589276556
 20
2702.494269174615
 30
0.0
 11
2794.470589276556
 21
2702.494269174615
 31
0.0
  0
LINE
  5
18D74
330
18C7A
100
AcDbEntity
  8
部品1
 48
50.0
100
AcDbLine
 10
2794.470589276556
 20
3154.494269174615
 30
0.0
 11
2794.470589276556
 21
2702.494269174615
 31
0.0
  0
LINE
  5
18D75
330
18C7A
100
AcDbEntity
  8
部品1
 48
50.0
100
AcDbLine
 10
2769.470589276554
 20
3154.494269174618
 30
0.0
 11
2769.470589276556
 21
2702.494269174615
 31
0.0
  0
LINE
  5
18D76
330
18C7A
100
AcDbEntity
  8
部品1
 48
50.0
100
AcDbLine
 10
2795.470589276556
 20
3152.494269174607
 30
0.0
 11
2795.470589276556
 21
2702.494269174615
 31
0.0
  0
LINE
  5
18D77
330
18C7A
100
AcDbEntity
  8
部品1
 48
50.0
100
AcDbLine
 10
2767.470589276556
 20
3152.494269174611
 30
0.0
 11
2767.470589276556
 21
2702.494269174615
 31
0.0
  0
LINE
  5
18D78
330
18C7A
100
AcDbEntity
  8
破線
 48
10.0
100
AcDbLine
 10
2176.97058927653
 20
1448.994269174509
 30
0.0
 11
2176.97058927653
 21
2702.494269174588
 31
0.0
  0
LINE
  5
18D79
330
18C7A
100
AcDbEntity
  8
破線
 48
10.0
100
AcDbLine
 10
2126.970589276534
 20
1448.994269174505
 30
0.0
 11
2126.970589276531
 21
2702.494269174586
 31
0.0
  0
LINE
  5
18D7A
330
18C7A
100
AcDbEntity
  8
部品1
100
AcDbLine
 10
2794.470589276556
 20
3154.494269174622
 30
0.0
 11
3858.970589276556
 21
3154.494269174604
 31
0.0
  0
LINE
  5
18D7B
330
18C7A
100
AcDbEntity
  8
細線
 48
50.0
100
AcDbLine
 10
3858.470589276556
 20
2702.494269174608
 30
0.0
 11
2795.470589276556
 21
3152.494269174607
 31
0.0
  0
LINE
  5
18D7C
330
18C7A
100
AcDbEntity
  8
部品1
100
AcDbLine
 10
2795.470589276555
 20
2702.494269174615
 30
0.0
 11
3858.470589276556
 21
2702.494269174608
 31
0.0
  0
LINE
  5
18D7D
330
18C7A
100
AcDbEntity
  8
部品1
100
AcDbLine
 10
2795.470589276556
 20
3152.494269174611
 30
0.0
 11
3858.470589276556
 21
3152.494269174604
 31
0.0
  0
LINE
  5
18D7E
330
18C7A
100
AcDbEntity
  8
細線
 48
50.0
100
AcDbLine
 10
3858.470589276556
 20
3152.494269174604
 30
0.0
 11
2795.470589276555
 21
2702.494269174615
 31
0.0
  0
DIMENSION
  5
18D7F
330
18C7A
100
AcDbEntity
  8
寸法
100
AcDbDimension
  2
*D10
 10
3801.234916278101
 20
2488.887829538937
 30
0.0
 11
3318.360544398907
 21
2488.887829538937
 31
0.0
 12
-3742.925985830444
 22
-6453.628869860112
 32
0.0
 70
   128
 71
     5
 42
1063.000000000012
  3
INABA_S40G
100
AcDbAlignedDimension
 13
2795.470589276555
 23
2702.494269174615
 33
0.0
 14
3858.470589276567
 24
2702.494269174608
 34
0.0
100
AcDbRotatedDimension
1001
ACAD
1000
DSTYLE
1002
{
1002
}
  0
LINE
  5
18D80
330
18C7A
100
AcDbEntity
  8
破線
 48
10.0
100
AcDbLine
 10
3806.970589276556
 20
1472.494269174594
 30
0.0
 11
3009.47058927653
 21
1472.494269174523
 31
0.0
  0
DIMENSION
  5
18D81
330
18C7A
100
AcDbEntity
  8
寸法
100
AcDbDimension
  2
*D9
 10
4534.396935010941
 20
1392.494269174596
 30
0.0
 11
4534.39693501094
 21
1084.008987800356
 31
0.0
 12
-3742.925985830444
 22
-6453.628869860112
 32
0.0
 70
   128
 71
     5
 42
54.99999999999636
  3
INABA_S40G
100
AcDbAlignedDimension
 13
3886.970589276531
 23
1447.494269174593
 33
0.0
 14
3886.970589276531
 24
1392.494269174596
 34
0.0
 50
90.0
100
AcDbRotatedDimension
1001
ACAD
1000
DSTYLE
1002
{
1002
}
  0
LINE
  5
18D82
330
18C7A
100
AcDbEntity
  8
部品1
100
AcDbLine
 10
471.9705892765196
 20
3182.494269174477
 30
0.0
 11
471.9705892765232
 21
3154.494269174477
 31
0.0
  0
LINE
  5
18D83
330
18C7A
100
AcDbEntity
  8
部品1
100
AcDbLine
 10
471.9705892765559
 20
3182.494269174509
 30
0.0
 11
471.9705892765559
 21
3154.494269174509
 31
0.0
  0
LINE
  5
18D84
330
18C7A
100
AcDbEntity
  8
部品1
100
AcDbLine
 10
444.9705892765232
 20
3127.49426917448
 30
0.0
 11
416.9705892765232
 21
3127.49426917448
 31
0.0
  0
LINE
  5
18D85
330
18C7A
100
AcDbEntity
  8
部品1
100
AcDbLine
 10
444.9705892765305
 20
2707.49426917448
 30
0.0
 11
416.9705892765305
 21
2707.49426917448
 31
0.0
  0
LINE
  5
18D86
330
18C7A
100
AcDbEntity
  8
部品1
 48
50.0
100
AcDbLine
 10
445.4705892765542
 20
3152.494269174506
 30
0.0
 11
445.4705892765559
 21
2702.494269174505
 31
0.0
  0
LINE
  5
18D87
330
18C7A
100
AcDbEntity
  8
部品1
 48
50.0
100
AcDbLine
 10
473.470589276545
 20
1448.994269174573
 30
0.0
 11
444.970589276545
 21
1420.494269174574
 31
0.0
  0
LINE
  5
18D88
330
18C7A
100
AcDbEntity
  8
部品1
100
AcDbLine
 10
471.9705892765232
 20
1392.494269174465
 30
0.0
 11
416.9705892765486
 21
1392.494269174465
 31
0.0
  0
LINE
  5
18D89
330
18C7A
100
AcDbEntity
  8
部品1
100
AcDbLine
 10
444.9705892765305
 20
1447.494269174429
 30
0.0
 11
416.9705892765469
 21
1447.494269174429
 31
0.0
  0
LINE
  5
18D8A
330
18C7A
100
AcDbEntity
  8
部品1
100
AcDbLine
 10
444.9705892765305
 20
1447.494269174465
 30
0.0
 11
416.9705892765469
 21
1447.494269174465
 31
0.0
  0
LINE
  5
18D8B
330
18C7A
100
AcDbEntity
  8
部品1
100
AcDbLine
 10
444.9705892765469
 20
1447.49426917448
 30
0.0
 11
416.9705892765469
 21
1447.49426917448
 31
0.0
  0
LINE
  5
18D8C
330
18C7A
100
AcDbEntity
  8
部品1
100
AcDbLine
 10
416.9705892765469
 20
1447.494269174429
 30
0.0
 11
416.9705892765486
 21
1392.494269174433
 31
0.0
  0
LINE
  5
18D8D
330
18C7A
100
AcDbEntity
  8
部品1
100
AcDbLine
 10
416.9705892765196
 20
3182.494269174477
 30
0.0
 11
416.9705892765486
 21
1392.494269174465
 31
0.0
  0
LINE
  5
18D8E
330
18C7A
100
AcDbEntity
  8
部品1
100
AcDbLine
 10
444.9705892765305
 20
1420.494269174556
 30
0.0
 11
444.9705892765559
 21
3154.494269174509
 31
0.0
  0
LINE
  5
18D8F
330
18C7A
100
AcDbEntity
  8
部品1
100
AcDbLine
 10
473.4705892765323
 20
2702.494269174608
 30
0.0
 11
473.470589276545
 21
1448.994269174571
 31
0.0
  0
LINE
  5
18D90
330
18C7A
100
AcDbEntity
  8
破線
 48
10.0
100
AcDbLine
 10
496.9705892765305
 20
2702.494269174608
 30
0.0
 11
496.9705892765451
 21
1472.494269174476
 31
0.0
  0
DIMENSION
  5
18D91
330
18C7A
100
AcDbEntity
  8
寸法
100
AcDbDimension
  2
*D8
 10
3886.970589276531
 20
410.7433333855515
 30
0.0
 11
2168.197775309287
 21
410.7433333855515
 31
0.0
 12
-3742.925985830444
 22
-6453.628869860112
 32
0.0
 70
   128
 71
     5
 42
3469.999999999982
  3
INABA_S40G
100
AcDbAlignedDimension
 13
416.9705892765486
 23
1392.494269174433
 33
0.0
 14
3886.970589276531
 24
1392.49426917456
 34
0.0
100
AcDbRotatedDimension
1001
ACAD
1000
DSTYLE
1002
{
1070
   341
1005
0
1002
}
  0
LINE
  5
18D92
330
18C7A
100
AcDbEntity
  8
部品1
100
AcDbLine
 10
444.9705892765559
 20
3154.494269174624
 30
0.0
 11
1509.470589276487
 21
3154.494269174626
 31
0.0
  0
LINE
  5
18D93
330
18C7A
100
AcDbEntity
  8
部品1
100
AcDbLine
 10
3886.970589276531
 20
1392.494269174596
 30
0.0
 11
3411.970589276556
 21
1392.494269174582
 31
0.0
  0
LINE
  5
18D94
330
18C7A
100
AcDbEntity
  8
部品1
100
AcDbLine
 10
416.9705892765559
 20
3182.494269174509
 30
0.0
 11
3886.970589276556
 21
3182.494269174604
 31
0.0
  0
LINE
  5
18D95
330
18C7A
100
AcDbEntity
  8
部品1
100
AcDbLine
 10
445.4705892765559
 20
2702.494269174509
 30
0.0
 11
1508.470589276487
 21
2702.494269174558
 31
0.0
  0
LINE
  5
18D96
330
18C7A
100
AcDbEntity
  8
細線
 48
50.0
100
AcDbLine
 10
2767.470589276556
 20
3152.494269174611
 30
0.0
 11
1536.470589276487
 21
2702.494269174558
 31
0.0
  0
LINE
  5
18D97
330
18C7A
100
AcDbEntity
  8
部品1
100
AcDbLine
 10
445.4705892765542
 20
3152.494269174509
 30
0.0
 11
1508.470589276485
 21
3152.494269174558
 31
0.0
  0
LINE
  5
18D98
330
18C7A
100
AcDbEntity
  8
細線
 48
50.0
100
AcDbLine
 10
2767.470589276554
 20
2702.494269174615
 30
0.0
 11
1536.470589276485
 21
3152.494269174558
 31
0.0
  0
LINE
  5
18D99
330
18C7A
100
AcDbEntity
  8
破線
 48
10.0
100
AcDbLine
 10
2126.970589276534
 20
1472.494269174502
 30
0.0
 11
1344.47058927653
 21
1472.494269174473
 31
0.0
  0
LINE
  5
18D9A
330
18C7A
100
AcDbEntity
  8
部品1
100
AcDbLine
 10
3830.470589276556
 20
1448.994269174596
 30
0.0
 11
473.4705892764487
 21
1448.994269174476
 31
0.0
  0
DIMENSION
  5
18D9B
330
18C7A
100
AcDbEntity
  8
寸法
100
AcDbDimension
  2
*D7
 10
471.970589276555
 20
3698.302488799491
 30
0.0
 11
108.4853079022819
 21
3698.302488799491
 31
0.0
 12
-3742.925985830444
 22
-6453.628869860112
 32
0.0
 70
   128
 71
     5
 42
55.00000000003456
  3
INABA_S40G
100
AcDbAlignedDimension
 13
416.9705892765205
 23
3182.494269174509
 33
0.0
 14
471.970589276555
 24
3182.494269174509
 34
0.0
100
AcDbRotatedDimension
1001
ACAD
1000
DSTYLE
1002
{
1002
}
  0
DIMENSION
  5
18D9C
330
18C7A
100
AcDbEntity
  8
寸法
100
AcDbDimension
  2
*D6
 10
4534.396935010967
 20
3127.494269174607
 30
0.0
 11
4534.396935010965
 21
3490.979550548844
 31
0.0
 12
-3742.925985830444
 22
-6453.628869860112
 32
0.0
 70
   128
 71
     5
 42
54.99999999999636
  3
INABA_S40G
100
AcDbAlignedDimension
 13
3886.970589276556
 23
3182.494269174604
 33
0.0
 14
3886.970589276556
 24
3127.494269174607
 34
0.0
 50
90.0
100
AcDbRotatedDimension
1001
ACAD
1000
DSTYLE
1002
{
1002
}
  0
DIMENSION
  5
18D9D
330
18C7A
100
AcDbEntity
  8
寸法
100
AcDbDimension
  2
*D5
 10
3886.970589276556
 20
3698.302488799589
 30
0.0
 11
4195.455870650794
 21
3698.302488799589
 31
0.0
 12
-3742.925985830444
 22
-6453.628869860112
 32
0.0
 70
   128
 71
     5
 42
55.0
  3
INABA_S40G
100
AcDbAlignedDimension
 13
3831.970589276556
 23
3182.494269174604
 33
0.0
 14
3886.970589276556
 24
3182.494269174604
 34
0.0
100
AcDbRotatedDimension
1001
ACAD
1000
DSTYLE
1002
{
1002
}
  0
DIMENSION
  5
18D9E
330
18C7A
100
AcDbEntity
  8
寸法
100
AcDbDimension
  2
*D4
 10
3831.970589276556
 20
3698.302488799607
 30
0.0
 11
2151.970589276555
 21
3698.302488799607
 31
0.0
 12
-3742.925985830444
 22
-6453.628869860112
 32
0.0
 70
   128
  1
8X420=<>
 71
     5
 42
3360.000000000001
  3
INABA_S40G
100
AcDbAlignedDimension
 13
471.970589276555
 23
3182.494269174509
 33
0.0
 14
3831.970589276556
 24
3182.494269174604
 34
0.0
100
AcDbRotatedDimension
1001
ACAD
1000
DSTYLE
1002
{
1002
}
  0
DIMENSION
  5
18D9F
330
18C7A
100
AcDbEntity
  8
寸法
100
AcDbDimension
  2
*D3
 10
4899.503876750603
 20
1392.494269174596
 30
0.0
 11
4899.503876750601
 21
2287.4942691746
 31
0.0
 12
-3742.925985830444
 22
-6453.628869860112
 32
0.0
 70
   128
 71
     5
 42
1790.000000000007
  3
INABA_S40G
100
AcDbAlignedDimension
 13
3886.970589276556
 23
3182.494269174604
 33
0.0
 14
3886.970589276531
 24
1392.494269174596
 34
0.0
 50
90.0
100
AcDbRotatedDimension
1001
ACAD
1000
DSTYLE
1002
{
1002
}
  0
ENDBLK
  5
18DA1
330
18C7A
100
AcDbEntity
  8
0
 48
50.0
100
AcDbBlockEnd
  0
BLOCK
  5
1C4CB
330
1C4CA
100
AcDbEntity
  8
0
 48
50.0
100
AcDbBlockBegin
  2
_NONE
 70
     0
 10
0.0
 20
0.0
 30
0.0
  3
_NONE
  1

  0
CIRCLE
  5
1C4CC
330
1C4CA
100
AcDbEntity
  8
0
  6
ByBlock
 62
     0
 48
50.0
100
AcDbCircle
 10
0.0
 20
0.0
 30
0.0
 40
0.25
  0
ENDBLK
  5
1C4CD
330
1C4CA
100
AcDbEntity
  8
0
 48
50.0
100
AcDbBlockEnd
  0
BLOCK
  5
20DEE
330
20DE2
100
AcDbEntity
  8
0
 48
50.0
100
AcDbBlockBegin
  2
*D19
 70
     1
 10
0.0
 20
0.0
 30
0.0
  3
*D19
  1

  0
LINE
  5
28A7F
330
20DE2
100
AcDbEntity
  8
寸法
 62
     0
 48
50.0
370
    -2
100
AcDbLine
 10
12978.6
 20
7723.436988717068
 30
0.0
 11
12978.6
 21
8721.657310775992
 31
0.0
  0
LINE
  5
28A80
330
20DE2
100
AcDbEntity
  8
寸法
 62
     0
 48
50.0
370
    -2
100
AcDbLine
 10
13023.6
 20
8449.70344681098
 30
0.0
 11
13023.6
 21
8721.657310775992
 31
0.0
  0
LINE
  5
28A81
330
20DE2
100
AcDbEntity
  8
寸法
 62
     0
 48
50.0
370
    -2
100
AcDbLine
 10
12978.6
 20
8661.657310775991
 30
0.0
 11
12878.6
 21
8661.657310775991
 31
0.0
  0
LINE
  5
28A82
330
20DE2
100
AcDbEntity
  8
寸法
 62
     0
 48
50.0
370
    -2
100
AcDbLine
 10
13023.6
 20
8661.657310775991
 30
0.0
 11
13360.94924240492
 21
8661.657310775991
 31
0.0
  0
LINE
  5
28A83
330
20DE2
100
AcDbEntity
  8
寸法
 62
     0
 48
50.0
370
    -2
100
AcDbLine
 10
12978.6
 20
8661.657310775991
 30
0.0
 11
13023.6
 21
8661.657310775991
 31
0.0
  0
INSERT
  5
28A84
330
20DE2
100
AcDbEntity
  8
寸法
 62
     0
 48
50.0
370
    -2
100
AcDbBlockReference
  2
_DOTSMALL
 10
12978.6
 20
8661.657310775991
 30
0.0
 41
100.0
 42
100.0
 43
100.0
  0
INSERT
  5
28A85
330
20DE2
100
AcDbEntity
  8
寸法
 62
     0
 48
50.0
370
    -2
100
AcDbBlockReference
  2
_DOTSMALL
 10
13023.6
 20
8661.657310775991
 30
0.0
 41
100.0
 42
100.0
 43
100.0
 50
180.0
  0
MTEXT
  5
28A86
330
20DE2
100
AcDbEntity
  8
寸法
 62
     7
 48
50.0
100
AcDbMText
 10
13294.77462120246
 20
8761.657310775991
 30
0.0
 40
120.0
 41
0.0
 71
     5
 72
     1
  1
\A1;a
  7
STYLE1
 73
     1
 44
1.0
1001
ACAD
1000
MTEXTBEGIN
1070
    73
1070
     1
1070
    44
1040
1.0
1070
    74
1070
     0
1000
MTEXTEND
  0
POINT
  5
28A87
330
20DE2
100
AcDbEntity
  8
DEFPOINTS
 62
     0
 48
50.0
100
AcDbPoint
 10
12978.6
 20
7703.436988717069
 30
0.0
  0
POINT
  5
28A88
330
20DE2
100
AcDbEntity
  8
DEFPOINTS
 62
     0
 48
50.0
100
AcDbPoint
 10
13023.6
 20
8429.703446810981
 30
0.0
  0
POINT
  5
28A89
330
20DE2
100
AcDbEntity
  8
DEFPOINTS
 62
     0
 48
50.0
100
AcDbPoint
 10
13023.6
 20
8661.657310775991
 30
0.0
  0
ENDBLK
  5
20DEF
330
20DE2
100
AcDbEntity
  8
0
 48
50.0
100
AcDbBlockEnd
  0
BLOCK
  5
20E08
330
20DFC
100
AcDbEntity
  8
0
 48
50.0
100
AcDbBlockBegin
  2
*D20
 70
     1
 10
0.0
 20
0.0
 30
0.0
  3
*D20
  1

  0
LINE
  5
28A9E
330
20DFC
100
AcDbEntity
  8
寸法
 62
     0
 48
50.0
370
    -2
100
AcDbLine
 10
3423.600000000007
 20
8449.703446810982
 30
0.0
 11
3423.600000000007
 21
8721.657310775992
 31
0.0
  0
LINE
  5
28A9F
330
20DFC
100
AcDbEntity
  8
寸法
 62
     0
 48
50.0
370
    -2
100
AcDbLine
 10
3468.600000000001
 20
7723.436988717068
 30
0.0
 11
3468.600000000001
 21
8721.657310775992
 31
0.0
  0
LINE
  5
28AA0
330
20DFC
100
AcDbEntity
  8
寸法
 62
     0
 48
50.0
370
    -2
100
AcDbLine
 10
3468.600000000001
 20
8661.657310775991
 30
0.0
 11
3568.600000000001
 21
8661.657310775991
 31
0.0
  0
LINE
  5
28AA1
330
20DFC
100
AcDbEntity
  8
寸法
 62
     0
 48
50.0
370
    -2
100
AcDbLine
 10
3423.600000000007
 20
8661.657310775991
 30
0.0
 11
3086.250757595082
 21
8661.657310775991
 31
0.0
  0
LINE
  5
28AA2
330
20DFC
100
AcDbEntity
  8
寸法
 62
     0
 48
50.0
370
    -2
100
AcDbLine
 10
3468.600000000001
 20
8661.657310775991
 30
0.0
 11
3423.600000000007
 21
8661.657310775991
 31
0.0
  0
INSERT
  5
28AA3
330
20DFC
100
AcDbEntity
  8
寸法
 62
     0
 48
50.0
370
    -2
100
AcDbBlockReference
  2
_DOTSMALL
 10
3468.600000000001
 20
8661.657310775991
 30
0.0
 41
100.0
 42
100.0
 43
100.0
 50
180.0
  0
INSERT
  5
28AA4
330
20DFC
100
AcDbEntity
  8
寸法
 62
     0
 48
50.0
370
    -2
100
AcDbBlockReference
  2
_DOTSMALL
 10
3423.600000000007
 20
8661.657310775991
 30
0.0
 41
100.0
 42
100.0
 43
100.0
  0
MTEXT
  5
28AA5
330
20DFC
100
AcDbEntity
  8
寸法
 62
     7
 48
50.0
100
AcDbMText
 10
3152.425378797542
 20
8761.657310775991
 30
0.0
 40
120.0
 41
0.0
 71
     5
 72
     1
  1
\A1;a
  7
STYLE1
 73
     1
 44
1.0
1001
ACAD
1000
MTEXTBEGIN
1070
    73
1070
     1
1070
    44
1040
1.0
1070
    74
1070
     0
1000
MTEXTEND
  0
POINT
  5
28AA6
330
20DFC
100
AcDbEntity
  8
DEFPOINTS
 62
     0
 48
50.0
100
AcDbPoint
 10
3423.600000000007
 20
8429.703446810981
 30
0.0
  0
POINT
  5
28AA7
330
20DFC
100
AcDbEntity
  8
DEFPOINTS
 62
     0
 48
50.0
100
AcDbPoint
 10
3468.600000000001
 20
7703.436988717069
 30
0.0
  0
POINT
  5
28AA8
330
20DFC
100
AcDbEntity
  8
DEFPOINTS
 62
     0
 48
50.0
100
AcDbPoint
 10
3468.600000000001
 20
8661.657310775991
 30
0.0
  0
ENDBLK
  5
20E09
330
20DFC
100
AcDbEntity
  8
0
 48
50.0
100
AcDbBlockEnd
  0
BLOCK
  5
2274E
330
22742
100
AcDbEntity
  8
0
 48
50.0
100
AcDbBlockBegin
  2
*D25
 70
     1
 10
0.0
 20
0.0
 30
0.0
  3
*D25
  1

  0
LINE
  5
28AA9
330
22742
100
AcDbEntity
  8
寸法
 62
     0
 48
50.0
370
    -2
100
AcDbLine
 10
2825.665006330071
 20
7778.436988717075
 30
0.0
 11
2533.72190961068
 21
7778.436988717075
 31
0.0
  0
LINE
  5
28AAA
330
22742
100
AcDbEntity
  8
寸法
 62
     0
 48
50.0
370
    -2
100
AcDbLine
 10
3448.600000000001
 20
7703.436988717069
 30
0.0
 11
2533.72190961068
 21
7703.436988717069
 31
0.0
  0
LINE
  5
28AAB
330
22742
100
AcDbEntity
  8
寸法
 62
     0
 48
50.0
370
    -2
100
AcDbLine
 10
2593.72190961068
 20
7778.436988717075
 30
0.0
 11
2593.72190961068
 21
7878.436988717075
 31
0.0
  0
LINE
  5
28AAC
330
22742
100
AcDbEntity
  8
寸法
 62
     0
 48
50.0
370
    -2
100
AcDbLine
 10
2593.72190961068
 20
7703.436988717069
 30
0.0
 11
2593.72190961068
 21
7603.436988717068
 31
0.0
  0
LINE
  5
28AAD
330
22742
100
AcDbEntity
  8
寸法
 62
     0
 48
50.0
370
    -2
100
AcDbLine
 10
2593.72190961068
 20
7778.436988717075
 30
0.0
 11
2593.72190961068
 21
7703.436988717069
 31
0.0
  0
INSERT
  5
28AAE
330
22742
100
AcDbEntity
  8
寸法
 62
     0
 48
50.0
370
    -2
100
AcDbBlockReference
  2
_DOTSMALL
 10
2593.72190961068
 20
7778.436988717075
 30
0.0
 41
100.0
 42
100.0
 43
100.0
 50
270.0
  0
INSERT
  5
28AAF
330
22742
100
AcDbEntity
  8
寸法
 62
     0
 48
50.0
370
    -2
100
AcDbBlockReference
  2
_DOTSMALL
 10
2593.72190961068
 20
7703.436988717069
 30
0.0
 41
100.0
 42
100.0
 43
100.0
 50
90.0
  0
MTEXT
  5
28AB0
330
22742
100
AcDbEntity
  8
寸法
 62
     7
 48
50.0
100
AcDbMText
 10
2493.721909610679
 20
7740.936988717073
 30
0.0
 40
120.0
 41
0.0
 71
     5
 72
     1
  1
\A1;c
  7
STYLE1
 11
0.0000000000000001
 21
1.0
 31
0.0
 73
     1
 44
1.0
1001
ACAD
1000
MTEXTBEGIN
1070
    73
1070
     1
1070
    44
1040
1.0
1070
    74
1070
     0
1000
MTEXTEND
  0
POINT
  5
28AB1
330
22742
100
AcDbEntity
  8
DEFPOINTS
 62
     0
 48
50.0
100
AcDbPoint
 10
2845.665006330071
 20
7778.436988717075
 30
0.0
  0
POINT
  5
28AB2
330
22742
100
AcDbEntity
  8
DEFPOINTS
 62
     0
 48
50.0
100
AcDbPoint
 10
3468.600000000001
 20
7703.436988717069
 30
0.0
  0
POINT
  5
28AB3
330
22742
100
AcDbEntity
  8
DEFPOINTS
 62
     0
 48
50.0
100
AcDbPoint
 10
2593.72190961068
 20
7703.436988717069
 30
0.0
  0
ENDBLK
  5
2274F
330
22742
100
AcDbEntity
  8
0
 48
50.0
100
AcDbBlockEnd
  0
BLOCK
  5
22768
330
2275C
100
AcDbEntity
  8
0
 48
50.0
100
AcDbBlockBegin
  2
*D26
 70
     1
 10
0.0
 20
0.0
 30
0.0
  3
*D26
  1

  0
LINE
  5
28AB4
330
2275C
100
AcDbEntity
  8
寸法
 62
     0
 48
50.0
370
    -2
100
AcDbLine
 10
3448.600000000001
 20
6323.43698871707
 30
0.0
 11
2533.72190961068
 21
6323.43698871707
 31
0.0
  0
LINE
  5
28AB5
330
2275C
100
AcDbEntity
  8
寸法
 62
     0
 48
50.0
370
    -2
100
AcDbLine
 10
2825.665006330078
 20
6268.436988717095
 30
0.0
 11
2533.72190961068
 21
6268.436988717095
 31
0.0
  0
LINE
  5
28AB6
330
2275C
100
AcDbEntity
  8
寸法
 62
     0
 48
50.0
370
    -2
100
AcDbLine
 10
2593.72190961068
 20
6323.43698871707
 30
0.0
 11
2593.72190961068
 21
6423.43698871707
 31
0.0
  0
LINE
  5
28AB7
330
2275C
100
AcDbEntity
  8
寸法
 62
     0
 48
50.0
370
    -2
100
AcDbLine
 10
2593.72190961068
 20
6268.436988717095
 30
0.0
 11
2593.72190961068
 21
6168.436988717095
 31
0.0
  0
LINE
  5
28AB8
330
2275C
100
AcDbEntity
  8
寸法
 62
     0
 48
50.0
370
    -2
100
AcDbLine
 10
2593.72190961068
 20
6323.43698871707
 30
0.0
 11
2593.72190961068
 21
6268.436988717095
 31
0.0
  0
INSERT
  5
28AB9
330
2275C
100
AcDbEntity
  8
寸法
 62
     0
 48
50.0
370
    -2
100
AcDbBlockReference
  2
_DOTSMALL
 10
2593.72190961068
 20
6323.43698871707
 30
0.0
 41
100.0
 42
100.0
 43
100.0
 50
270.0
  0
INSERT
  5
28ABA
330
2275C
100
AcDbEntity
  8
寸法
 62
     0
 48
50.0
370
    -2
100
AcDbBlockReference
  2
_DOTSMALL
 10
2593.72190961068
 20
6268.436988717095
 30
0.0
 41
100.0
 42
100.0
 43
100.0
 50
90.0
  0
MTEXT
  5
28ABB
330
2275C
100
AcDbEntity
  8
寸法
 62
     7
 48
50.0
100
AcDbMText
 10
2493.721909610679
 20
6295.936988717084
 30
0.0
 40
120.0
 41
0.0
 71
     5
 72
     1
  1
\A1;b
  7
STYLE1
 11
0.0000000000000001
 21
1.0
 31
0.0
 73
     1
 44
1.0
1001
ACAD
1000
MTEXTBEGIN
1070
    73
1070
     1
1070
    44
1040
1.0
1070
    74
1070
     0
1000
MTEXTEND
  0
POINT
  5
28ABC
330
2275C
100
AcDbEntity
  8
DEFPOINTS
 62
     0
 48
50.0
100
AcDbPoint
 10
3468.600000000001
 20
6323.43698871707
 30
0.0
  0
POINT
  5
28ABD
330
2275C
100
AcDbEntity
  8
DEFPOINTS
 62
     0
 48
50.0
100
AcDbPoint
 10
2845.665006330079
 20
6268.436988717095
 30
0.0
  0
POINT
  5
28ABE
330
2275C
100
AcDbEntity
  8
DEFPOINTS
 62
     0
 48
50.0
100
AcDbPoint
 10
2593.72190961068
 20
6268.436988717095
 30
0.0
  0
ENDBLK
  5
22769
330
2275C
100
AcDbEntity
  8
0
 48
50.0
100
AcDbBlockEnd
  0
BLOCK
  5
240CF
330
240C4
100
AcDbEntity
  8
0
 48
50.0
100
AcDbBlockBegin
  2
*D27
 70
     1
 10
0.0
 20
0.0
 30
0.0
  3
*D27
  1

  0
LINE
  5
28C38
330
240C4
100
AcDbEntity
  8
寸法
 62
     0
 48
50.0
370
    -2
100
AcDbLine
 10
12978.6
 20
7158.436988717106
 30
0.0
 11
12978.6
 21
7313.03560181518
 31
0.0
  0
LINE
  5
28C39
330
240C4
100
AcDbEntity
  8
寸法
 62
     0
 48
50.0
370
    -2
100
AcDbLine
 10
12858.6
 20
7158.436988717101
 30
0.0
 11
12858.6
 21
7313.03560181518
 31
0.0
  0
LINE
  5
28C3A
330
240C4
100
AcDbEntity
  8
寸法
 62
     0
 48
50.0
370
    -2
100
AcDbLine
 10
12858.6
 20
7253.035601815179
 30
0.0
 11
12978.6
 21
7253.035601815179
 31
0.0
  0
LINE
  5
28C3B
330
240C4
100
AcDbEntity
  8
寸法
 62
     0
 48
50.0
370
    -2
100
AcDbLine
 10
12978.6
 20
7253.035601815179
 30
0.0
 11
13384.7062992126
 21
7253.035601815179
 31
0.0
  0
INSERT
  5
28C3C
330
240C4
100
AcDbEntity
  8
寸法
 62
     0
 48
50.0
370
    -2
100
AcDbBlockReference
  2
_DOTSMALL
 10
12858.6
 20
7253.035601815179
 30
0.0
 41
100.0
 42
100.0
 43
100.0
 50
180.0
  0
INSERT
  5
28C3D
330
240C4
100
AcDbEntity
  8
寸法
 62
     0
 48
50.0
370
    -2
100
AcDbBlockReference
  2
_DOTSMALL
 10
12978.6
 20
7253.035601815179
 30
0.0
 41
100.0
 42
100.0
 43
100.0
  0
MTEXT
  5
28C3E
330
240C4
100
AcDbEntity
  8
寸法
 62
     7
 48
50.0
100
AcDbMText
 10
13248.65905511811
 20
7353.047412838802
 30
0.0
 40
120.0
 41
0.0
 71
     5
 72
     1
  1
\A1;120
  7
STYLE1
 73
     1
 44
1.0
1001
ACAD
1000
MTEXTBEGIN
1070
    73
1070
     1
1070
    44
1040
1.0
1070
    74
1070
     0
1000
MTEXTEND
  0
POINT
  5
28C3F
330
240C4
100
AcDbEntity
  8
DEFPOINTS
 62
     0
 48
50.0
100
AcDbPoint
 10
12978.6
 20
7138.436988717106
 30
0.0
  0
POINT
  5
28C40
330
240C4
100
AcDbEntity
  8
DEFPOINTS
 62
     0
 48
50.0
100
AcDbPoint
 10
12858.6
 20
7138.4369887171
 30
0.0
  0
POINT
  5
28C41
330
240C4
100
AcDbEntity
  8
DEFPOINTS
 62
     0
 48
50.0
100
AcDbPoint
 10
12858.6
 20
7253.035601815179
 30
0.0
  0
ENDBLK
  5
240D0
330
240C4
100
AcDbEntity
  8
0
 48
50.0
100
AcDbBlockEnd
  0
BLOCK
  5
240DC
330
240D1
100
AcDbEntity
  8
0
 48
50.0
100
AcDbBlockBegin
  2
*D28
 70
     1
 10
0.0
 20
0.0
 30
0.0
  3
*D28
  1

  0
LINE
  5
28B9A
330
240D1
100
AcDbEntity
  8
寸法
 62
     0
 48
50.0
370
    -2
100
AcDbLine
 10
12378.59999999998
 20
6603.436988717065
 30
0.0
 11
12237.81202022566
 21
6603.436988717065
 31
0.0
  0
LINE
  5
28B9B
330
240D1
100
AcDbEntity
  8
寸法
 62
     0
 48
50.0
370
    -2
100
AcDbLine
 10
12378.6
 20
6323.436988717087
 30
0.0
 11
12237.81202022566
 21
6323.436988717087
 31
0.0
  0
LINE
  5
28B9C
330
240D1
100
AcDbEntity
  8
寸法
 62
     0
 48
50.0
370
    -2
100
AcDbLine
 10
12297.81202022566
 20
6603.436988717065
 30
0.0
 11
12297.81202022566
 21
6323.436988717087
 31
0.0
  0
LINE
  5
28B9D
330
240D1
100
AcDbEntity
  8
寸法
 62
     0
 48
50.0
370
    -2
100
AcDbLine
 10
12297.81202022566
 20
6323.436988717087
 30
0.0
 11
12297.81202022566
 21
5886.90253989818
 31
0.0
  0
INSERT
  5
28B9E
330
240D1
100
AcDbEntity
  8
寸法
 62
     0
 48
50.0
370
    -2
100
AcDbBlockReference
  2
_DOTSMALL
 10
12297.81202022566
 20
6603.436988717065
 30
0.0
 41
100.0
 42
100.0
 43
100.0
 50
90.0
  0
INSERT
  5
28B9F
330
240D1
100
AcDbEntity
  8
寸法
 62
     0
 48
50.0
370
    -2
100
AcDbBlockReference
  2
_DOTSMALL
 10
12297.81202022566
 20
6323.436988717087
 30
0.0
 41
100.0
 42
100.0
 43
100.0
 50
270.0
  0
MTEXT
  5
28BA0
330
240D1
100
AcDbEntity
  8
寸法
 62
     7
 48
50.0
100
AcDbMText
 10
12197.80020920203
 20
6036.473406039915
 30
0.0
 40
120.0
 41
0.0
 71
     5
 72
     1
  1
\A1;280
  7
STYLE1
 11
0.0000000000000001
 21
1.0
 31
0.0
 73
     1
 44
1.0
1001
ACAD
1000
MTEXTBEGIN
1070
    73
1070
     1
1070
    44
1040
1.0
1070
    74
1070
     0
1000
MTEXTEND
  0
POINT
  5
28BA1
330
240D1
100
AcDbEntity
  8
DEFPOINTS
 62
     0
 48
50.0
100
AcDbPoint
 10
12398.59999999998
 20
6603.436988717065
 30
0.0
  0
POINT
  5
28BA2
330
240D1
100
AcDbEntity
  8
DEFPOINTS
 62
     0
 48
50.0
100
AcDbPoint
 10
12398.6
 20
6323.436988717087
 30
0.0
  0
POINT
  5
28BA3
330
240D1
100
AcDbEntity
  8
DEFPOINTS
 62
     0
 48
50.0
100
AcDbPoint
 10
12297.81202022566
 20
6323.436988717087
 30
0.0
  0
ENDBLK
  5
240DD
330
240D1
100
AcDbEntity
  8
0
 48
50.0
100
AcDbBlockEnd
  0
BLOCK
  5
27F03
330
27EF8
100
AcDbEntity
  8
0
 48
50.0
100
AcDbBlockBegin
  2
*D29
 70
     1
 10
0.0
 20
0.0
 30
0.0
  3
*D29
  1

  0
LINE
  5
28A8A
330
27EF8
100
AcDbEntity
  8
寸法
 62
     0
 48
50.0
370
    -2
100
AcDbLine
 10
12378.6
 20
7703.436988717055
 30
0.0
 11
12237.81202022566
 21
7703.436988717055
 31
0.0
  0
LINE
  5
28A8B
330
27EF8
100
AcDbEntity
  8
寸法
 62
     0
 48
50.0
370
    -2
100
AcDbLine
 10
12378.60000000001
 20
7503.436988717071
 30
0.0
 11
12237.81202022566
 21
7503.436988717071
 31
0.0
  0
LINE
  5
28A8C
330
27EF8
100
AcDbEntity
  8
寸法
 62
     0
 48
50.0
370
    -2
100
AcDbLine
 10
12297.81202022566
 20
7503.436988717071
 30
0.0
 11
12297.81202022566
 21
7703.436988717055
 31
0.0
  0
LINE
  5
28A8D
330
27EF8
100
AcDbEntity
  8
寸法
 62
     0
 48
50.0
370
    -2
100
AcDbLine
 10
12297.81202022566
 20
7703.436988717055
 30
0.0
 11
12297.81202022566
 21
8139.971437535958
 31
0.0
  0
INSERT
  5
28A8E
330
27EF8
100
AcDbEntity
  8
寸法
 62
     0
 48
50.0
370
    -2
100
AcDbBlockReference
  2
_DOTSMALL
 10
12297.81202022566
 20
7503.436988717071
 30
0.0
 41
100.0
 42
100.0
 43
100.0
 50
270.0
  0
INSERT
  5
28A8F
330
27EF8
100
AcDbEntity
  8
寸法
 62
     0
 48
50.0
370
    -2
100
AcDbBlockReference
  2
_DOTSMALL
 10
12297.81202022566
 20
7703.436988717055
 30
0.0
 41
100.0
 42
100.0
 43
100.0
 50
90.0
  0
MTEXT
  5
28A90
330
27EF8
100
AcDbEntity
  8
寸法
 62
     7
 48
50.0
100
AcDbMText
 10
12197.80020920204
 20
7990.400571394227
 30
0.0
 40
120.0
 41
0.0
 71
     5
 72
     1
  1
\A1;200
  7
STYLE1
 11
0.0000000000000001
 21
1.0
 31
0.0
 73
     1
 44
1.0
1001
ACAD
1000
MTEXTBEGIN
1070
    73
1070
     1
1070
    44
1040
1.0
1070
    74
1070
     0
1000
MTEXTEND
  0
POINT
  5
28A91
330
27EF8
100
AcDbEntity
  8
DEFPOINTS
 62
     0
 48
50.0
100
AcDbPoint
 10
12398.6
 20
7703.436988717055
 30
0.0
  0
POINT
  5
28A92
330
27EF8
100
AcDbEntity
  8
DEFPOINTS
 62
     0
 48
50.0
100
AcDbPoint
 10
12398.60000000001
 20
7503.436988717071
 30
0.0
  0
POINT
  5
28A93
330
27EF8
100
AcDbEntity
  8
DEFPOINTS
 62
     0
 48
50.0
100
AcDbPoint
 10
12297.81202022566
 20
7503.436988717071
 30
0.0
  0
ENDBLK
  5
27F04
330
27EF8
100
AcDbEntity
  8
0
 48
50.0
100
AcDbBlockEnd
  0
BLOCK
  5
284EC
330
284E2
100
AcDbEntity
  8
0
 48
50.0
100
AcDbBlockBegin
  2
*D30
 70
     1
 10
0.0
 20
0.0
 30
0.0
  3
*D30
  1

  0
LINE
  5
289A3
330
284E2
100
AcDbEntity
  8
寸法
 62
     0
 48
50.0
370
    -2
100
AcDbLine
 10
12855.6
 20
7650.436988717068
 30
0.0
 11
12855.6
 21
8489.703446810979
 31
0.0
  0
LINE
  5
289A4
330
284E2
100
AcDbEntity
  8
寸法
 62
     0
 48
50.0
370
    -2
100
AcDbLine
 10
10005.6
 20
7650.436988717068
 30
0.0
 11
10005.6
 21
8489.703446810979
 31
0.0
  0
LINE
  5
289A5
330
284E2
100
AcDbEntity
  8
寸法
 62
     0
 48
50.0
370
    -2
100
AcDbLine
 10
12855.6
 20
8429.703446810981
 30
0.0
 11
10005.6
 21
8429.703446810981
 31
0.0
  0
INSERT
  5
289A6
330
284E2
100
AcDbEntity
  8
寸法
 62
     0
 48
50.0
370
    -2
100
AcDbBlockReference
  2
_DOTSMALL
 10
12855.6
 20
8429.703446810981
 30
0.0
 41
100.0
 42
100.0
 43
100.0
  0
INSERT
  5
289A7
330
284E2
100
AcDbEntity
  8
寸法
 62
     0
 48
50.0
370
    -2
100
AcDbBlockReference
  2
_DOTSMALL
 10
10005.6
 20
8429.703446810981
 30
0.0
 41
100.0
 42
100.0
 43
100.0
 50
180.0
  0
MTEXT
  5
289A8
330
284E2
100
AcDbEntity
  8
寸法
 62
     7
 48
50.0
100
AcDbMText
 10
11430.6
 20
8529.715257834601
 30
0.0
 40
120.0
 41
0.0
 71
     5
 72
     1
  1
\A1;2850
  7
STYLE1
 73
     1
 44
1.0
1001
ACAD
1000
MTEXTBEGIN
1070
    73
1070
     1
1070
    44
1040
1.0
1070
    74
1070
     0
1000
MTEXTEND
  0
POINT
  5
289A9
330
284E2
100
AcDbEntity
  8
DEFPOINTS
 62
     0
 48
50.0
100
AcDbPoint
 10
12855.6
 20
7630.436988717069
 30
0.0
  0
POINT
  5
289AA
330
284E2
100
AcDbEntity
  8
DEFPOINTS
 62
     0
 48
50.0
100
AcDbPoint
 10
10005.6
 20
7630.436988717069
 30
0.0
  0
POINT
  5
289AB
330
284E2
100
AcDbEntity
  8
DEFPOINTS
 62
     0
 48
50.0
100
AcDbPoint
 10
10005.6
 20
8429.703446810981
 30
0.0
  0
ENDBLK
  5
284ED
330
284E2
100
AcDbEntity
  8
0
 48
50.0
100
AcDbBlockEnd
  0
BLOCK
  5
28506
330
284FB
100
AcDbEntity
  8
0
 48
50.0
100
AcDbBlockBegin
  2
*D31
 70
     1
 10
0.0
 20
0.0
 30
0.0
  3
*D31
  1

  0
LINE
  5
28999
330
284FB
100
AcDbEntity
  8
寸法
 62
     0
 48
50.0
370
    -2
100
AcDbLine
 10
12978.6
 20
7723.436988717068
 30
0.0
 11
12978.6
 21
8489.703446810979
 31
0.0
  0
LINE
  5
2899A
330
284FB
100
AcDbEntity
  8
寸法
 62
     0
 48
50.0
370
    -2
100
AcDbLine
 10
12855.6
 20
7650.436988717068
 30
0.0
 11
12855.6
 21
8489.703446810979
 31
0.0
  0
LINE
  5
2899B
330
284FB
100
AcDbEntity
  8
寸法
 62
     0
 48
50.0
370
    -2
100
AcDbLine
 10
12855.6
 20
8429.703446810981
 30
0.0
 11
12978.6
 21
8429.703446810981
 31
0.0
  0
LINE
  5
2899C
330
284FB
100
AcDbEntity
  8
寸法
 62
     0
 48
50.0
370
    -2
100
AcDbLine
 10
12978.6
 20
8429.703446810981
 30
0.0
 11
13390.19188309203
 21
8429.703446810981
 31
0.0
  0
INSERT
  5
2899D
330
284FB
100
AcDbEntity
  8
寸法
 62
     0
 48
50.0
370
    -2
100
AcDbBlockReference
  2
_DOTSMALL
 10
12855.6
 20
8429.703446810981
 30
0.0
 41
100.0
 42
100.0
 43
100.0
 50
180.0
  0
INSERT
  5
2899E
330
284FB
100
AcDbEntity
  8
寸法
 62
     0
 48
50.0
370
    -2
100
AcDbBlockReference
  2
_DOTSMALL
 10
12978.6
 20
8429.703446810981
 30
0.0
 41
100.0
 42
100.0
 43
100.0
  0
MTEXT
  5
2899F
330
284FB
100
AcDbEntity
  8
寸法
 62
     7
 48
50.0
100
AcDbMText
 10
13251.7066017178
 20
8529.715257834601
 30
0.0
 40
120.0
 41
0.0
 71
     5
 72
     1
  1
\A1;123
  7
STYLE1
 73
     1
 44
1.0
1001
ACAD
1000
MTEXTBEGIN
1070
    73
1070
     1
1070
    44
1040
1.0
1070
    74
1070
     0
1000
MTEXTEND
  0
POINT
  5
289A0
330
284FB
100
AcDbEntity
  8
DEFPOINTS
 62
     0
 48
50.0
100
AcDbPoint
 10
12978.6
 20
7703.436988717069
 30
0.0
  0
POINT
  5
289A1
330
284FB
100
AcDbEntity
  8
DEFPOINTS
 62
     0
 48
50.0
100
AcDbPoint
 10
12855.6
 20
7630.436988717069
 30
0.0
  0
POINT
  5
289A2
330
284FB
100
AcDbEntity
  8
DEFPOINTS
 62
     0
 48
50.0
100
AcDbPoint
 10
12855.6
 20
8429.703446810981
 30
0.0
  0
ENDBLK
  5
28507
330
284FB
100
AcDbEntity
  8
0
 48
50.0
100
AcDbBlockEnd
  0
BLOCK
  5
2851F
330
28515
100
AcDbEntity
  8
0
 48
50.0
100
AcDbBlockBegin
  2
*D32
 70
     1
 10
0.0
 20
0.0
 30
0.0
  3
*D32
  1

  0
LINE
  5
28C1A
330
28515
100
AcDbEntity
  8
寸法
 62
     0
 48
50.0
370
    -2
100
AcDbLine
 10
9173.600000000007
 20
7120.436988717068
 30
0.0
 11
9173.600000000007
 21
8246.045805387316
 31
0.0
  0
LINE
  5
28C1B
330
28515
100
AcDbEntity
  8
寸法
 62
     0
 48
50.0
370
    -2
100
AcDbLine
 10
8223.600000000008
 20
7120.436988717068
 30
0.0
 11
8223.600000000008
 21
8246.045805387316
 31
0.0
  0
LINE
  5
28C1C
330
28515
100
AcDbEntity
  8
寸法
 62
     0
 48
50.0
370
    -2
100
AcDbLine
 10
9173.600000000007
 20
8186.045805387317
 30
0.0
 11
8223.600000000008
 21
8186.045805387317
 31
0.0
  0
INSERT
  5
28C1D
330
28515
100
AcDbEntity
  8
寸法
 62
     0
 48
50.0
370
    -2
100
AcDbBlockReference
  2
_DOTSMALL
 10
9173.600000000007
 20
8186.045805387317
 30
0.0
 41
100.0
 42
100.0
 43
100.0
  0
INSERT
  5
28C1E
330
28515
100
AcDbEntity
  8
寸法
 62
     0
 48
50.0
370
    -2
100
AcDbBlockReference
  2
_DOTSMALL
 10
8223.600000000008
 20
8186.045805387317
 30
0.0
 41
100.0
 42
100.0
 43
100.0
 50
180.0
  0
MTEXT
  5
28C1F
330
28515
100
AcDbEntity
  8
寸法
 62
     7
 48
50.0
100
AcDbMText
 10
8698.600000000007
 20
8286.045805387317
 30
0.0
 40
120.0
 41
0.0
 71
     5
 72
     1
  1
\A1;950
  7
STYLE1
 73
     1
 44
1.0
1001
ACAD
1000
MTEXTBEGIN
1070
    73
1070
     1
1070
    44
1040
1.0
1070
    74
1070
     0
1000
MTEXTEND
  0
POINT
  5
28C20
330
28515
100
AcDbEntity
  8
DEFPOINTS
 62
     0
 48
50.0
100
AcDbPoint
 10
9173.600000000007
 20
7100.436988717068
 30
0.0
  0
POINT
  5
28C21
330
28515
100
AcDbEntity
  8
DEFPOINTS
 62
     0
 48
50.0
100
AcDbPoint
 10
8223.600000000008
 20
7100.436988717068
 30
0.0
  0
POINT
  5
28C22
330
28515
100
AcDbEntity
  8
DEFPOINTS
 62
     0
 48
50.0
100
AcDbPoint
 10
8223.600000000008
 20
8186.045805387317
 30
0.0
  0
ENDBLK
  5
28520
330
28515
100
AcDbEntity
  8
0
 48
50.0
100
AcDbBlockEnd
  0
BLOCK
  5
2852B
330
28521
100
AcDbEntity
  8
0
 48
50.0
100
AcDbBlockBegin
  2
*D33
 70
     1
 10
0.0
 20
0.0
 30
0.0
  3
*D33
  1

  0
LINE
  5
28A2C
330
28521
100
AcDbEntity
  8
寸法
 62
     0
 48
50.0
370
    -2
100
AcDbLine
 10
10005.6
 20
7650.436988717068
 30
0.0
 11
10005.6
 21
8489.703446810979
 31
0.0
  0
LINE
  5
28A2D
330
28521
100
AcDbEntity
  8
寸法
 62
     0
 48
50.0
370
    -2
100
AcDbLine
 10
8105.6
 20
7650.436988717068
 30
0.0
 11
8105.6
 21
8489.703446810979
 31
0.0
  0
LINE
  5
28A2E
330
28521
100
AcDbEntity
  8
寸法
 62
     0
 48
50.0
370
    -2
100
AcDbLine
 10
10005.6
 20
8429.703446810981
 30
0.0
 11
8105.6
 21
8429.703446810981
 31
0.0
  0
INSERT
  5
28A2F
330
28521
100
AcDbEntity
  8
寸法
 62
     0
 48
50.0
370
    -2
100
AcDbBlockReference
  2
_DOTSMALL
 10
10005.6
 20
8429.703446810981
 30
0.0
 41
100.0
 42
100.0
 43
100.0
  0
INSERT
  5
28A30
330
28521
100
AcDbEntity
  8
寸法
 62
     0
 48
50.0
370
    -2
100
AcDbBlockReference
  2
_DOTSMALL
 10
8105.6
 20
8429.703446810981
 30
0.0
 41
100.0
 42
100.0
 43
100.0
 50
180.0
  0
MTEXT
  5
28A31
330
28521
100
AcDbEntity
  8
寸法
 62
     7
 48
50.0
100
AcDbMText
 10
9055.600000000001
 20
8529.70344681098
 30
0.0
 40
120.0
 41
0.0
 71
     5
 72
     1
  1
\A1;1900
  7
STYLE1
 73
     1
 44
1.0
1001
ACAD
1000
MTEXTBEGIN
1070
    73
1070
     1
1070
    44
1040
1.0
1070
    74
1070
     0
1000
MTEXTEND
  0
POINT
  5
28A32
330
28521
100
AcDbEntity
  8
DEFPOINTS
 62
     0
 48
50.0
100
AcDbPoint
 10
10005.6
 20
7630.436988717069
 30
0.0
  0
POINT
  5
28A33
330
28521
100
AcDbEntity
  8
DEFPOINTS
 62
     0
 48
50.0
100
AcDbPoint
 10
8105.6
 20
7630.436988717069
 30
0.0
  0
POINT
  5
28A34
330
28521
100
AcDbEntity
  8
DEFPOINTS
 62
     0
 48
50.0
100
AcDbPoint
 10
8105.6
 20
8429.703446810981
 30
0.0
  0
ENDBLK
  5
2852C
330
28521
100
AcDbEntity
  8
0
 48
50.0
100
AcDbBlockEnd
  0
BLOCK
  5
28537
330
2852D
100
AcDbEntity
  8
0
 48
50.0
100
AcDbBlockBegin
  2
*D34
 70
     1
 10
0.0
 20
0.0
 30
0.0
  3
*D34
  1

  0
LINE
  5
28A23
330
2852D
100
AcDbEntity
  8
寸法
 62
     0
 48
50.0
370
    -2
100
AcDbLine
 10
3468.600000000001
 20
7723.436988717068
 30
0.0
 11
3468.600000000001
 21
8721.657310775986
 31
0.0
  0
LINE
  5
28A24
330
2852D
100
AcDbEntity
  8
寸法
 62
     0
 48
50.0
370
    -2
100
AcDbLine
 10
12978.6
 20
7723.436988717068
 30
0.0
 11
12978.6
 21
8721.657310775986
 31
0.0
  0
LINE
  5
28A25
330
2852D
100
AcDbEntity
  8
寸法
 62
     0
 48
50.0
370
    -2
100
AcDbLine
 10
3468.600000000001
 20
8661.657310775984
 30
0.0
 11
12978.6
 21
8661.657310775984
 31
0.0
  0
INSERT
  5
28A26
330
2852D
100
AcDbEntity
  8
寸法
 62
     0
 48
50.0
370
    -2
100
AcDbBlockReference
  2
_DOTSMALL
 10
3468.600000000001
 20
8661.657310775984
 30
0.0
 41
100.0
 42
100.0
 43
100.0
 50
180.0
  0
INSERT
  5
28A27
330
2852D
100
AcDbEntity
  8
寸法
 62
     0
 48
50.0
370
    -2
100
AcDbBlockReference
  2
_DOTSMALL
 10
12978.6
 20
8661.657310775984
 30
0.0
 41
100.0
 42
100.0
 43
100.0
  0
MTEXT
  5
28A28
330
2852D
100
AcDbEntity
  8
寸法
 62
     7
 48
50.0
100
AcDbMText
 10
8223.600000000001
 20
8761.657310775985
 30
0.0
 40
120.0
 41
0.0
 71
     5
 72
     1
  1
\A1;9510
  7
STYLE1
 73
     1
 44
1.0
1001
ACAD
1000
MTEXTBEGIN
1070
    73
1070
     1
1070
    44
1040
1.0
1070
    74
1070
     0
1000
MTEXTEND
  0
POINT
  5
28A29
330
2852D
100
AcDbEntity
  8
DEFPOINTS
 62
     0
 48
50.0
100
AcDbPoint
 10
3468.600000000001
 20
7703.436988717069
 30
0.0
  0
POINT
  5
28A2A
330
2852D
100
AcDbEntity
  8
DEFPOINTS
 62
     0
 48
50.0
100
AcDbPoint
 10
12978.6
 20
7703.436988717069
 30
0.0
  0
POINT
  5
28A2B
330
2852D
100
AcDbEntity
  8
DEFPOINTS
 62
     0
 48
50.0
100
AcDbPoint
 10
12978.6
 20
8661.657310775984
 30
0.0
  0
ENDBLK
  5
28538
330
2852D
100
AcDbEntity
  8
0
 48
50.0
100
AcDbBlockEnd
  0
BLOCK
  5
28542
330
28539
100
AcDbEntity
  8
0
 48
50.0
100
AcDbBlockBegin
  2
*D35
 70
     1
 10
0.0
 20
0.0
 30
0.0
  3
*D35
  1

  0
LINE
  5
28C11
330
28539
100
AcDbEntity
  8
寸法
 62
     0
 48
50.0
370
    -2
100
AcDbLine
 10
7273.600000000008
 20
7120.436988717068
 30
0.0
 11
7273.600000000008
 21
8246.045805387316
 31
0.0
  0
LINE
  5
28C12
330
28539
100
AcDbEntity
  8
寸法
 62
     0
 48
50.0
370
    -2
100
AcDbLine
 10
6323.600000000007
 20
7120.436988717068
 30
0.0
 11
6323.600000000007
 21
8246.045805387316
 31
0.0
  0
LINE
  5
28C13
330
28539
100
AcDbEntity
  8
寸法
 62
     0
 48
50.0
370
    -2
100
AcDbLine
 10
7273.600000000008
 20
8186.045805387317
 30
0.0
 11
6323.600000000007
 21
8186.045805387317
 31
0.0
  0
INSERT
  5
28C14
330
28539
100
AcDbEntity
  8
寸法
 62
     0
 48
50.0
370
    -2
100
AcDbBlockReference
  2
_DOTSMALL
 10
7273.600000000008
 20
8186.045805387317
 30
0.0
 41
100.0
 42
100.0
 43
100.0
  0
INSERT
  5
28C15
330
28539
100
AcDbEntity
  8
寸法
 62
     0
 48
50.0
370
    -2
100
AcDbBlockReference
  2
_DOTSMALL
 10
6323.600000000007
 20
8186.045805387317
 30
0.0
 41
100.0
 42
100.0
 43
100.0
 50
180.0
  0
MTEXT
  5
28C16
330
28539
100
AcDbEntity
  8
寸法
 62
     7
 48
50.0
100
AcDbMText
 10
6798.600000000007
 20
8286.045805387317
 30
0.0
 40
120.0
 41
0.0
 71
     5
 72
     1
  1
\A1;950
  7
STYLE1
 73
     1
 44
1.0
1001
ACAD
1000
MTEXTBEGIN
1070
    73
1070
     1
1070
    44
1040
1.0
1070
    74
1070
     0
1000
MTEXTEND
  0
POINT
  5
28C17
330
28539
100
AcDbEntity
  8
DEFPOINTS
 62
     0
 48
50.0
100
AcDbPoint
 10
7273.600000000008
 20
7100.436988717068
 30
0.0
  0
POINT
  5
28C18
330
28539
100
AcDbEntity
  8
DEFPOINTS
 62
     0
 48
50.0
100
AcDbPoint
 10
6323.600000000007
 20
7100.436988717068
 30
0.0
  0
POINT
  5
28C19
330
28539
100
AcDbEntity
  8
DEFPOINTS
 62
     0
 48
50.0
100
AcDbPoint
 10
6323.600000000007
 20
8186.045805387317
 30
0.0
  0
ENDBLK
  5
28543
330
28539
100
AcDbEntity
  8
0
 48
50.0
100
AcDbBlockEnd
  0
BLOCK
  5
2854D
330
28544
100
AcDbEntity
  8
0
 48
50.0
100
AcDbBlockBegin
  2
*D36
 70
     1
 10
0.0
 20
0.0
 30
0.0
  3
*D36
  1

  0
LINE
  5
28C08
330
28544
100
AcDbEntity
  8
寸法
 62
     0
 48
50.0
370
    -2
100
AcDbLine
 10
5373.600000000007
 20
7120.436988717068
 30
0.0
 11
5373.600000000007
 21
8246.045805387316
 31
0.0
  0
LINE
  5
28C09
330
28544
100
AcDbEntity
  8
寸法
 62
     0
 48
50.0
370
    -2
100
AcDbLine
 10
4423.600000000007
 20
7120.436988717068
 30
0.0
 11
4423.600000000007
 21
8246.045805387316
 31
0.0
  0
LINE
  5
28C0A
330
28544
100
AcDbEntity
  8
寸法
 62
     0
 48
50.0
370
    -2
100
AcDbLine
 10
5373.600000000007
 20
8186.045805387317
 30
0.0
 11
4423.600000000007
 21
8186.045805387317
 31
0.0
  0
INSERT
  5
28C0B
330
28544
100
AcDbEntity
  8
寸法
 62
     0
 48
50.0
370
    -2
100
AcDbBlockReference
  2
_DOTSMALL
 10
5373.600000000007
 20
8186.045805387317
 30
0.0
 41
100.0
 42
100.0
 43
100.0
  0
INSERT
  5
28C0C
330
28544
100
AcDbEntity
  8
寸法
 62
     0
 48
50.0
370
    -2
100
AcDbBlockReference
  2
_DOTSMALL
 10
4423.600000000007
 20
8186.045805387317
 30
0.0
 41
100.0
 42
100.0
 43
100.0
 50
180.0
  0
MTEXT
  5
28C0D
330
28544
100
AcDbEntity
  8
寸法
 62
     7
 48
50.0
100
AcDbMText
 10
4898.600000000008
 20
8286.045805387317
 30
0.0
 40
120.0
 41
0.0
 71
     5
 72
     1
  1
\A1;950
  7
STYLE1
 73
     1
 44
1.0
1001
ACAD
1000
MTEXTBEGIN
1070
    73
1070
     1
1070
    44
1040
1.0
1070
    74
1070
     0
1000
MTEXTEND
  0
POINT
  5
28C0E
330
28544
100
AcDbEntity
  8
DEFPOINTS
 62
     0
 48
50.0
100
AcDbPoint
 10
5373.600000000007
 20
7100.436988717068
 30
0.0
  0
POINT
  5
28C0F
330
28544
100
AcDbEntity
  8
DEFPOINTS
 62
     0
 48
50.0
100
AcDbPoint
 10
4423.600000000007
 20
7100.436988717068
 30
0.0
  0
POINT
  5
28C10
330
28544
100
AcDbEntity
  8
DEFPOINTS
 62
     0
 48
50.0
100
AcDbPoint
 10
4423.600000000007
 20
8186.045805387317
 30
0.0
  0
ENDBLK
  5
2854E
330
28544
100
AcDbEntity
  8
0
 48
50.0
100
AcDbBlockEnd
  0
BLOCK
  5
28559
330
2854F
100
AcDbEntity
  8
0
 48
50.0
100
AcDbBlockBegin
  2
*D37
 70
     1
 10
0.0
 20
0.0
 30
0.0
  3
*D37
  1

  0
LINE
  5
28AE3
330
2854F
100
AcDbEntity
  8
寸法
 62
     0
 48
50.0
370
    -2
100
AcDbLine
 10
3521.6
 20
7580.436988717069
 30
0.0
 11
2785.665006330073
 21
7580.436988717069
 31
0.0
  0
LINE
  5
28AE4
330
2854F
100
AcDbEntity
  8
寸法
 62
     0
 48
50.0
370
    -2
100
AcDbLine
 10
3521.600000000008
 20
6521.436988717072
 30
0.0
 11
2785.665006330072
 21
6521.436988717072
 31
0.0
  0
LINE
  5
28AE5
330
2854F
100
AcDbEntity
  8
寸法
 62
     0
 48
50.0
370
    -2
100
AcDbLine
 10
2845.665006330073
 20
7580.436988717069
 30
0.0
 11
2845.665006330072
 21
6521.436988717072
 31
0.0
  0
INSERT
  5
28AE6
330
2854F
100
AcDbEntity
  8
寸法
 62
     0
 48
50.0
370
    -2
100
AcDbBlockReference
  2
_DOTSMALL
 10
2845.665006330073
 20
7580.436988717069
 30
0.0
 41
100.0
 42
100.0
 43
100.0
 50
90.0
  0
INSERT
  5
28AE7
330
2854F
100
AcDbEntity
  8
寸法
 62
     0
 48
50.0
370
    -2
100
AcDbBlockReference
  2
_DOTSMALL
 10
2845.665006330072
 20
6521.436988717072
 30
0.0
 41
100.0
 42
100.0
 43
100.0
 50
270.0
  0
MTEXT
  5
28AE8
330
2854F
100
AcDbEntity
  8
寸法
 62
     7
 48
50.0
100
AcDbMText
 10
2745.665006330071
 20
7050.936988717069
 30
0.0
 40
120.0
 41
0.0
 71
     5
 72
     1
  1
\A1;1059
  7
STYLE1
 11
0.0000000000000001
 21
1.0
 31
0.0
 73
     1
 44
1.0
1001
ACAD
1000
MTEXTBEGIN
1070
    73
1070
     1
1070
    44
1040
1.0
1070
    74
1070
     0
1000
MTEXTEND
  0
POINT
  5
28AE9
330
2854F
100
AcDbEntity
  8
DEFPOINTS
 62
     0
 48
50.0
100
AcDbPoint
 10
3541.600000000001
 20
7580.436988717069
 30
0.0
  0
POINT
  5
28AEA
330
2854F
100
AcDbEntity
  8
DEFPOINTS
 62
     0
 48
50.0
100
AcDbPoint
 10
3541.600000000008
 20
6521.436988717072
 30
0.0
  0
POINT
  5
28AEB
330
2854F
100
AcDbEntity
  8
DEFPOINTS
 62
     0
 48
50.0
100
AcDbPoint
 10
2845.665006330072
 20
6521.436988717072
 30
0.0
  0
ENDBLK
  5
2855A
330
2854F
100
AcDbEntity
  8
0
 48
50.0
100
AcDbBlockEnd
  0
BLOCK
  5
28565
330
2855B
100
AcDbEntity
  8
0
 48
50.0
100
AcDbBlockBegin
  2
*D38
 70
     1
 10
0.0
 20
0.0
 30
0.0
  3
*D38
  1

  0
LINE
  5
28A51
330
2855B
100
AcDbEntity
  8
寸法
 62
     0
 48
50.0
370
    -2
100
AcDbLine
 10
3448.600000000001
 20
7703.436988717069
 30
0.0
 11
2533.721909610675
 21
7703.436988717069
 31
0.0
  0
LINE
  5
28A52
330
2855B
100
AcDbEntity
  8
寸法
 62
     0
 48
50.0
370
    -2
100
AcDbLine
 10
3448.600000000001
 20
6323.436988717069
 30
0.0
 11
2533.721909610674
 21
6323.436988717069
 31
0.0
  0
LINE
  5
28A53
330
2855B
100
AcDbEntity
  8
寸法
 62
     0
 48
50.0
370
    -2
100
AcDbLine
 10
2593.721909610674
 20
7703.436988717069
 30
0.0
 11
2593.721909610674
 21
6323.436988717069
 31
0.0
  0
INSERT
  5
28A54
330
2855B
100
AcDbEntity
  8
寸法
 62
     0
 48
50.0
370
    -2
100
AcDbBlockReference
  2
_DOTSMALL
 10
2593.721909610674
 20
7703.436988717069
 30
0.0
 41
100.0
 42
100.0
 43
100.0
 50
90.0
  0
INSERT
  5
28A55
330
2855B
100
AcDbEntity
  8
寸法
 62
     0
 48
50.0
370
    -2
100
AcDbBlockReference
  2
_DOTSMALL
 10
2593.721909610674
 20
6323.436988717069
 30
0.0
 41
100.0
 42
100.0
 43
100.0
 50
270.0
  0
MTEXT
  5
28A56
330
2855B
100
AcDbEntity
  8
寸法
 62
     7
 48
50.0
100
AcDbMText
 10
2493.721909610673
 20
7050.936988717069
 30
0.0
 40
120.0
 41
0.0
 71
     5
 72
     1
  1
\A1;1380
  7
STYLE1
 11
0.0000000000000001
 21
1.0
 31
0.0
 73
     1
 44
1.0
1001
ACAD
1000
MTEXTBEGIN
1070
    73
1070
     1
1070
    44
1040
1.0
1070
    74
1070
     0
1000
MTEXTEND
  0
POINT
  5
28A57
330
2855B
100
AcDbEntity
  8
DEFPOINTS
 62
     0
 48
50.0
100
AcDbPoint
 10
3468.600000000001
 20
7703.436988717069
 30
0.0
  0
POINT
  5
28A58
330
2855B
100
AcDbEntity
  8
DEFPOINTS
 62
     0
 48
50.0
100
AcDbPoint
 10
3468.600000000001
 20
6323.436988717069
 30
0.0
  0
POINT
  5
28A59
330
2855B
100
AcDbEntity
  8
DEFPOINTS
 62
     0
 48
50.0
100
AcDbPoint
 10
2593.721909610674
 20
6323.436988717069
 30
0.0
  0
ENDBLK
  5
28566
330
2855B
100
AcDbEntity
  8
0
 48
50.0
100
AcDbBlockEnd
  0
BLOCK
  5
28571
330
28567
100
AcDbEntity
  8
0
 48
50.0
100
AcDbBlockBegin
  2
*D39
 70
     1
 10
0.0
 20
0.0
 30
0.0
  3
*D39
  1

  0
LINE
  5
28C23
330
28567
100
AcDbEntity
  8
寸法
 62
     0
 48
50.0
370
    -2
100
AcDbLine
 10
4353.600000000008
 20
7050.436988717068
 30
0.0
 11
3891.285990614302
 21
7050.436988717068
 31
0.0
  0
LINE
  5
28C24
330
28567
100
AcDbEntity
  8
寸法
 62
     0
 48
50.0
370
    -2
100
AcDbLine
 10
4022.765475140901
 20
7703.436988717069
 30
0.0
 11
3891.285990614303
 21
7703.436988717069
 31
0.0
  0
LINE
  5
28C25
330
28567
100
AcDbEntity
  8
寸法
 62
     0
 48
50.0
370
    -2
100
AcDbLine
 10
3951.285990614302
 20
7050.436988717068
 30
0.0
 11
3951.285990614303
 21
7703.436988717069
 31
0.0
  0
INSERT
  5
28C26
330
28567
100
AcDbEntity
  8
寸法
 62
     0
 48
50.0
370
    -2
100
AcDbBlockReference
  2
_DOTSMALL
 10
3951.285990614302
 20
7050.436988717068
 30
0.0
 41
100.0
 42
100.0
 43
100.0
 50
270.0
  0
INSERT
  5
28C27
330
28567
100
AcDbEntity
  8
寸法
 62
     0
 48
50.0
370
    -2
100
AcDbBlockReference
  2
_DOTSMALL
 10
3951.285990614303
 20
7703.436988717069
 30
0.0
 41
100.0
 42
100.0
 43
100.0
 50
90.0
  0
MTEXT
  5
28C28
330
28567
100
AcDbEntity
  8
寸法
 62
     7
 48
50.0
100
AcDbMText
 10
3851.285990614302
 20
7283.010524699054
 30
0.0
 40
120.0
 41
0.0
 71
     5
 72
     1
  1
\A1;653
  7
STYLE1
 11
0.0000000000000001
 21
1.0
 31
0.0
 73
     1
 44
1.0
1001
ACAD
1000
MTEXTBEGIN
1070
    73
1070
     1
1070
    44
1040
1.0
1070
    74
1070
     0
1000
MTEXTEND
  0
POINT
  5
28C29
330
28567
100
AcDbEntity
  8
DEFPOINTS
 62
     0
 48
50.0
100
AcDbPoint
 10
4373.600000000007
 20
7050.436988717068
 30
0.0
  0
POINT
  5
28C2A
330
28567
100
AcDbEntity
  8
DEFPOINTS
 62
     0
 48
50.0
100
AcDbPoint
 10
4042.765475140901
 20
7703.436988717069
 30
0.0
  0
POINT
  5
28C2B
330
28567
100
AcDbEntity
  8
DEFPOINTS
 62
     0
 48
50.0
100
AcDbPoint
 10
3951.285990614303
 20
7703.436988717069
 30
0.0
  0
ENDBLK
  5
28572
330
28567
100
AcDbEntity
  8
0
 48
50.0
100
AcDbBlockEnd
  0
BLOCK
  5
2857D
330
28573
100
AcDbEntity
  8
0
 48
50.0
100
AcDbBlockBegin
  2
*D40
 70
     1
 10
0.0
 20
0.0
 30
0.0
  3
*D40
  1

  0
LINE
  5
28BF6
330
28573
100
AcDbEntity
  8
寸法
 62
     0
 48
50.0
370
    -2
100
AcDbLine
 10
4423.600000000007
 20
7120.436988717068
 30
0.0
 11
4423.600000000007
 21
8246.045805387316
 31
0.0
  0
LINE
  5
28BF7
330
28573
100
AcDbEntity
  8
寸法
 62
     0
 48
50.0
370
    -2
100
AcDbLine
 10
3468.600000000001
 20
7723.436988717068
 30
0.0
 11
3468.600000000001
 21
8246.045805387316
 31
0.0
  0
LINE
  5
28BF8
330
28573
100
AcDbEntity
  8
寸法
 62
     0
 48
50.0
370
    -2
100
AcDbLine
 10
4423.600000000007
 20
8186.045805387317
 30
0.0
 11
3468.600000000001
 21
8186.045805387317
 31
0.0
  0
INSERT
  5
28BF9
330
28573
100
AcDbEntity
  8
寸法
 62
     0
 48
50.0
370
    -2
100
AcDbBlockReference
  2
_DOTSMALL
 10
4423.600000000007
 20
8186.045805387317
 30
0.0
 41
100.0
 42
100.0
 43
100.0
  0
INSERT
  5
28BFA
330
28573
100
AcDbEntity
  8
寸法
 62
     0
 48
50.0
370
    -2
100
AcDbBlockReference
  2
_DOTSMALL
 10
3468.600000000001
 20
8186.045805387317
 30
0.0
 41
100.0
 42
100.0
 43
100.0
 50
180.0
  0
MTEXT
  5
28BFB
330
28573
100
AcDbEntity
  8
寸法
 62
     7
 48
50.0
100
AcDbMText
 10
3946.100000000004
 20
8286.045805387317
 30
0.0
 40
120.0
 41
0.0
 71
     5
 72
     1
  1
\A1;955
  7
STYLE1
 73
     1
 44
1.0
1001
ACAD
1000
MTEXTBEGIN
1070
    73
1070
     1
1070
    44
1040
1.0
1070
    74
1070
     0
1000
MTEXTEND
  0
POINT
  5
28BFC
330
28573
100
AcDbEntity
  8
DEFPOINTS
 62
     0
 48
50.0
100
AcDbPoint
 10
4423.600000000007
 20
7100.436988717068
 30
0.0
  0
POINT
  5
28BFD
330
28573
100
AcDbEntity
  8
DEFPOINTS
 62
     0
 48
50.0
100
AcDbPoint
 10
3468.600000000001
 20
7703.436988717069
 30
0.0
  0
POINT
  5
28BFE
330
28573
100
AcDbEntity
  8
DEFPOINTS
 62
     0
 48
50.0
100
AcDbPoint
 10
3468.600000000001
 20
8186.045805387317
 30
0.0
  0
ENDBLK
  5
2857E
330
28573
100
AcDbEntity
  8
0
 48
50.0
100
AcDbBlockEnd
  0
BLOCK
  5
28588
330
2857F
100
AcDbEntity
  8
0
 48
50.0
100
AcDbBlockBegin
  2
*D41
 70
     1
 10
0.0
 20
0.0
 30
0.0
  3
*D41
  1

  0
LINE
  5
28BED
330
2857F
100
AcDbEntity
  8
寸法
 62
     0
 48
50.0
370
    -2
100
AcDbLine
 10
6323.600000000007
 20
7120.436988717068
 30
0.0
 11
6323.600000000007
 21
8246.045805387316
 31
0.0
  0
LINE
  5
28BEE
330
2857F
100
AcDbEntity
  8
寸法
 62
     0
 48
50.0
370
    -2
100
AcDbLine
 10
5373.600000000007
 20
7120.436988717068
 30
0.0
 11
5373.600000000007
 21
8246.045805387316
 31
0.0
  0
LINE
  5
28BEF
330
2857F
100
AcDbEntity
  8
寸法
 62
     0
 48
50.0
370
    -2
100
AcDbLine
 10
6323.600000000007
 20
8186.045805387317
 30
0.0
 11
5373.600000000007
 21
8186.045805387317
 31
0.0
  0
INSERT
  5
28BF0
330
2857F
100
AcDbEntity
  8
寸法
 62
     0
 48
50.0
370
    -2
100
AcDbBlockReference
  2
_DOTSMALL
 10
6323.600000000007
 20
8186.045805387317
 30
0.0
 41
100.0
 42
100.0
 43
100.0
  0
INSERT
  5
28BF1
330
2857F
100
AcDbEntity
  8
寸法
 62
     0
 48
50.0
370
    -2
100
AcDbBlockReference
  2
_DOTSMALL
 10
5373.600000000007
 20
8186.045805387317
 30
0.0
 41
100.0
 42
100.0
 43
100.0
 50
180.0
  0
MTEXT
  5
28BF2
330
2857F
100
AcDbEntity
  8
寸法
 62
     7
 48
50.0
100
AcDbMText
 10
5848.600000000008
 20
8286.045805387317
 30
0.0
 40
120.0
 41
0.0
 71
     5
 72
     1
  1
\A1;950
  7
STYLE1
 73
     1
 44
1.0
1001
ACAD
1000
MTEXTBEGIN
1070
    73
1070
     1
1070
    44
1040
1.0
1070
    74
1070
     0
1000
MTEXTEND
  0
POINT
  5
28BF3
330
2857F
100
AcDbEntity
  8
DEFPOINTS
 62
     0
 48
50.0
100
AcDbPoint
 10
6323.600000000007
 20
7100.436988717068
 30
0.0
  0
POINT
  5
28BF4
330
2857F
100
AcDbEntity
  8
DEFPOINTS
 62
     0
 48
50.0
100
AcDbPoint
 10
5373.600000000007
 20
7100.436988717068
 30
0.0
  0
POINT
  5
28BF5
330
2857F
100
AcDbEntity
  8
DEFPOINTS
 62
     0
 48
50.0
100
AcDbPoint
 10
5373.600000000007
 20
8186.045805387317
 30
0.0
  0
ENDBLK
  5
28589
330
2857F
100
AcDbEntity
  8
0
 48
50.0
100
AcDbBlockEnd
  0
BLOCK
  5
28594
330
2858A
100
AcDbEntity
  8
0
 48
50.0
100
AcDbBlockBegin
  2
*D42
 70
     1
 10
0.0
 20
0.0
 30
0.0
  3
*D42
  1

  0
LINE
  5
28BE4
330
2858A
100
AcDbEntity
  8
寸法
 62
     0
 48
50.0
370
    -2
100
AcDbLine
 10
8223.600000000008
 20
7120.436988717068
 30
0.0
 11
8223.600000000008
 21
8246.045805387316
 31
0.0
  0
LINE
  5
28BE5
330
2858A
100
AcDbEntity
  8
寸法
 62
     0
 48
50.0
370
    -2
100
AcDbLine
 10
7273.600000000008
 20
7120.436988717068
 30
0.0
 11
7273.600000000008
 21
8246.045805387316
 31
0.0
  0
LINE
  5
28BE6
330
2858A
100
AcDbEntity
  8
寸法
 62
     0
 48
50.0
370
    -2
100
AcDbLine
 10
8223.600000000008
 20
8186.045805387317
 30
0.0
 11
7273.600000000008
 21
8186.045805387317
 31
0.0
  0
INSERT
  5
28BE7
330
2858A
100
AcDbEntity
  8
寸法
 62
     0
 48
50.0
370
    -2
100
AcDbBlockReference
  2
_DOTSMALL
 10
8223.600000000008
 20
8186.045805387317
 30
0.0
 41
100.0
 42
100.0
 43
100.0
  0
INSERT
  5
28BE8
330
2858A
100
AcDbEntity
  8
寸法
 62
     0
 48
50.0
370
    -2
100
AcDbBlockReference
  2
_DOTSMALL
 10
7273.600000000008
 20
8186.045805387317
 30
0.0
 41
100.0
 42
100.0
 43
100.0
 50
180.0
  0
MTEXT
  5
28BE9
330
2858A
100
AcDbEntity
  8
寸法
 62
     7
 48
50.0
100
AcDbMText
 10
7748.600000000007
 20
8286.045805387317
 30
0.0
 40
120.0
 41
0.0
 71
     5
 72
     1
  1
\A1;950
  7
STYLE1
 73
     1
 44
1.0
1001
ACAD
1000
MTEXTBEGIN
1070
    73
1070
     1
1070
    44
1040
1.0
1070
    74
1070
     0
1000
MTEXTEND
  0
POINT
  5
28BEA
330
2858A
100
AcDbEntity
  8
DEFPOINTS
 62
     0
 48
50.0
100
AcDbPoint
 10
8223.600000000008
 20
7100.436988717068
 30
0.0
  0
POINT
  5
28BEB
330
2858A
100
AcDbEntity
  8
DEFPOINTS
 62
     0
 48
50.0
100
AcDbPoint
 10
7273.600000000008
 20
7100.436988717068
 30
0.0
  0
POINT
  5
28BEC
330
2858A
100
AcDbEntity
  8
DEFPOINTS
 62
     0
 48
50.0
100
AcDbPoint
 10
7273.600000000008
 20
8186.045805387317
 30
0.0
  0
ENDBLK
  5
28595
330
2858A
100
AcDbEntity
  8
0
 48
50.0
100
AcDbBlockEnd
  0
BLOCK
  5
285AE
330
285A3
100
AcDbEntity
  8
0
 48
50.0
100
AcDbBlockBegin
  2
*D43
 70
     1
 10
0.0
 20
0.0
 30
0.0
  3
*D43
  1

  0
LINE
  5
28AD9
330
285A3
100
AcDbEntity
  8
寸法
 62
     0
 48
50.0
370
    -2
100
AcDbLine
 10
3521.600000000008
 20
6521.436988717072
 30
0.0
 11
2785.665006330072
 21
6521.436988717072
 31
0.0
  0
LINE
  5
28ADA
330
285A3
100
AcDbEntity
  8
寸法
 62
     0
 48
50.0
370
    -2
100
AcDbLine
 10
3448.600000000001
 20
6323.436988717069
 30
0.0
 11
2785.665006330072
 21
6323.436988717069
 31
0.0
  0
LINE
  5
28ADB
330
285A3
100
AcDbEntity
  8
寸法
 62
     0
 48
50.0
370
    -2
100
AcDbLine
 10
2845.665006330072
 20
6521.436988717072
 30
0.0
 11
2845.665006330072
 21
6323.436988717069
 31
0.0
  0
LINE
  5
28ADC
330
285A3
100
AcDbEntity
  8
寸法
 62
     0
 48
50.0
370
    -2
100
AcDbLine
 10
2845.665006330072
 20
6323.436988717069
 30
0.0
 11
2845.665006330072
 21
5851.69638004482
 31
0.0
  0
INSERT
  5
28ADD
330
285A3
100
AcDbEntity
  8
寸法
 62
     0
 48
50.0
370
    -2
100
AcDbBlockReference
  2
_DOTSMALL
 10
2845.665006330072
 20
6521.436988717072
 30
0.0
 41
100.0
 42
100.0
 43
100.0
 50
90.0
  0
INSERT
  5
28ADE
330
285A3
100
AcDbEntity
  8
寸法
 62
     0
 48
50.0
370
    -2
100
AcDbBlockReference
  2
_DOTSMALL
 10
2845.665006330072
 20
6323.436988717069
 30
0.0
 41
100.0
 42
100.0
 43
100.0
 50
270.0
  0
MTEXT
  5
28ADF
330
285A3
100
AcDbEntity
  8
寸法
 62
     7
 48
50.0
100
AcDbMText
 10
2745.665006330071
 20
5987.906039874477
 30
0.0
 40
120.0
 41
0.0
 71
     5
 72
     1
  1
\A1;198
  7
STYLE1
 11
0.0000000000000001
 21
1.0
 31
0.0
 73
     1
 44
1.0
1001
ACAD
1000
MTEXTBEGIN
1070
    73
1070
     1
1070
    44
1040
1.0
1070
    74
1070
     0
1000
MTEXTEND
  0
POINT
  5
28AE0
330
285A3
100
AcDbEntity
  8
DEFPOINTS
 62
     0
 48
50.0
100
AcDbPoint
 10
3541.600000000008
 20
6521.436988717072
 30
0.0
  0
POINT
  5
28AE1
330
285A3
100
AcDbEntity
  8
DEFPOINTS
 62
     0
 48
50.0
100
AcDbPoint
 10
3468.600000000001
 20
6323.436988717069
 30
0.0
  0
POINT
  5
28AE2
330
285A3
100
AcDbEntity
  8
DEFPOINTS
 62
     0
 48
50.0
100
AcDbPoint
 10
2845.665006330072
 20
6323.436988717069
 30
0.0
  0
ENDBLK
  5
285AF
330
285A3
100
AcDbEntity
  8
0
 48
50.0
100
AcDbBlockEnd
  0
BLOCK
  5
285BA
330
285B0
100
AcDbEntity
  8
0
 48
50.0
100
AcDbBlockBegin
  2
*D44
 70
     1
 10
0.0
 20
0.0
 30
0.0
  3
*D44
  1

  0
LINE
  5
28A3E
330
285B0
100
AcDbEntity
  8
寸法
 62
     0
 48
50.0
370
    -2
100
AcDbLine
 10
3448.600000000004
 20
6323.436988717065
 30
0.0
 11
3295.512673767881
 21
6323.436988717065
 31
0.0
  0
LINE
  5
28A3F
330
285B0
100
AcDbEntity
  8
寸法
 62
     0
 48
50.0
370
    -2
100
AcDbLine
 10
3804.325326928809
 20
5603.436988717065
 30
0.0
 11
3295.512673767881
 21
5603.436988717065
 31
0.0
  0
LINE
  5
28A40
330
285B0
100
AcDbEntity
  8
寸法
 62
     0
 48
50.0
370
    -2
100
AcDbLine
 10
3355.512673767881
 20
6323.436988717065
 30
0.0
 11
3355.512673767881
 21
5603.436988717065
 31
0.0
  0
INSERT
  5
28A41
330
285B0
100
AcDbEntity
  8
寸法
 62
     0
 48
50.0
370
    -2
100
AcDbBlockReference
  2
_DOTSMALL
 10
3355.512673767881
 20
6323.436988717065
 30
0.0
 41
100.0
 42
100.0
 43
100.0
 50
90.0
  0
INSERT
  5
28A42
330
285B0
100
AcDbEntity
  8
寸法
 62
     0
 48
50.0
370
    -2
100
AcDbBlockReference
  2
_DOTSMALL
 10
3355.512673767881
 20
5603.436988717065
 30
0.0
 41
100.0
 42
100.0
 43
100.0
 50
270.0
  0
MTEXT
  5
28A43
330
285B0
100
AcDbEntity
  8
寸法
 62
     7
 48
50.0
100
AcDbMText
 10
3255.500862744258
 20
5963.436988717067
 30
0.0
 40
120.0
 41
0.0
 71
     5
 72
     1
  1
\A1;扉の出720
  7
STYLE1
 11
0.0000000000000001
 21
1.0
 31
0.0
 73
     1
 44
1.0
1001
ACAD
1000
MTEXTBEGIN
1070
    73
1070
     1
1070
    44
1040
1.0
1070
    74
1070
     0
1000
MTEXTEND
  0
POINT
  5
28A44
330
285B0
100
AcDbEntity
  8
DEFPOINTS
 62
     0
 48
50.0
100
AcDbPoint
 10
3468.600000000004
 20
6323.436988717065
 30
0.0
  0
POINT
  5
28A45
330
285B0
100
AcDbEntity
  8
DEFPOINTS
 62
     0
 48
50.0
100
AcDbPoint
 10
3824.325326928809
 20
5603.436988717065
 30
0.0
  0
POINT
  5
28A46
330
285B0
100
AcDbEntity
  8
DEFPOINTS
 62
     0
 48
50.0
100
AcDbPoint
 10
3355.512673767881
 20
5603.436988717065
 30
0.0
  0
ENDBLK
  5
285BB
330
285B0
100
AcDbEntity
  8
0
 48
50.0
100
AcDbBlockEnd
  0
BLOCK
  5
285D2
330
285C8
100
AcDbEntity
  8
0
 48
50.0
100
AcDbBlockBegin
  2
*D45
 70
     1
 10
0.0
 20
0.0
 30
0.0
  3
*D45
  1

  0
LINE
  5
28BDB
330
285C8
100
AcDbEntity
  8
寸法
 62
     0
 48
50.0
370
    -2
100
AcDbLine
 10
4022.765475140901
 20
6323.43698871708
 30
0.0
 11
3891.285990614301
 21
6323.43698871708
 31
0.0
  0
LINE
  5
28BDC
330
285C8
100
AcDbEntity
  8
寸法
 62
     0
 48
50.0
370
    -2
100
AcDbLine
 10
4353.600000000008
 20
7050.436988717068
 30
0.0
 11
3891.285990614301
 21
7050.436988717068
 31
0.0
  0
LINE
  5
28BDD
330
285C8
100
AcDbEntity
  8
寸法
 62
     0
 48
50.0
370
    -2
100
AcDbLine
 10
3951.285990614302
 20
6323.43698871708
 30
0.0
 11
3951.285990614302
 21
7050.436988717068
 31
0.0
  0
INSERT
  5
28BDE
330
285C8
100
AcDbEntity
  8
寸法
 62
     0
 48
50.0
370
    -2
100
AcDbBlockReference
  2
_DOTSMALL
 10
3951.285990614302
 20
6323.43698871708
 30
0.0
 41
100.0
 42
100.0
 43
100.0
 50
270.0
  0
INSERT
  5
28BDF
330
285C8
100
AcDbEntity
  8
寸法
 62
     0
 48
50.0
370
    -2
100
AcDbBlockReference
  2
_DOTSMALL
 10
3951.285990614302
 20
7050.436988717068
 30
0.0
 41
100.0
 42
100.0
 43
100.0
 50
90.0
  0
MTEXT
  5
28BE0
330
285C8
100
AcDbEntity
  8
寸法
 62
     7
 48
50.0
100
AcDbMText
 10
3851.274179590678
 20
6765.436988717069
 30
0.0
 40
120.0
 41
0.0
 71
     5
 72
     1
  1
\A1;727
  7
STYLE1
 11
0.0000000000000001
 21
1.0
 31
0.0
 73
     1
 44
1.0
1001
ACAD
1000
MTEXTBEGIN
1070
    73
1070
     1
1070
    44
1040
1.0
1070
    74
1070
     0
1000
MTEXTEND
  0
POINT
  5
28BE1
330
285C8
100
AcDbEntity
  8
DEFPOINTS
 62
     0
 48
50.0
100
AcDbPoint
 10
4042.765475140901
 20
6323.43698871708
 30
0.0
  0
POINT
  5
28BE2
330
285C8
100
AcDbEntity
  8
DEFPOINTS
 62
     0
 48
50.0
100
AcDbPoint
 10
4373.600000000007
 20
7050.436988717068
 30
0.0
  0
POINT
  5
28BE3
330
285C8
100
AcDbEntity
  8
DEFPOINTS
 62
     0
 48
50.0
100
AcDbPoint
 10
3951.285990614302
 20
7050.436988717068
 30
0.0
  0
ENDBLK
  5
285D3
330
285C8
100
AcDbEntity
  8
0
 48
50.0
100
AcDbBlockEnd
  0
BLOCK
  5
285DD
330
285D4
100
AcDbEntity
  8
0
 48
50.0
100
AcDbBlockBegin
  2
*D46
 70
     1
 10
0.0
 20
0.0
 30
0.0
  3
*D46
  1

  0
LINE
  5
289ED
330
285D4
100
AcDbEntity
  8
寸法
 62
     0
 48
50.0
370
    -2
100
AcDbLine
 10
6205.6
 20
7650.436988717068
 30
0.0
 11
6205.6
 21
8489.703446810979
 31
0.0
  0
LINE
  5
289EE
330
285D4
100
AcDbEntity
  8
寸法
 62
     0
 48
50.0
370
    -2
100
AcDbLine
 10
3591.600000000001
 20
7650.436988717068
 30
0.0
 11
3591.600000000001
 21
8489.703446810979
 31
0.0
  0
LINE
  5
289EF
330
285D4
100
AcDbEntity
  8
寸法
 62
     0
 48
50.0
370
    -2
100
AcDbLine
 10
6205.6
 20
8429.703446810981
 30
0.0
 11
3591.600000000001
 21
8429.703446810981
 31
0.0
  0
INSERT
  5
289F0
330
285D4
100
AcDbEntity
  8
寸法
 62
     0
 48
50.0
370
    -2
100
AcDbBlockReference
  2
_DOTSMALL
 10
6205.6
 20
8429.703446810981
 30
0.0
 41
100.0
 42
100.0
 43
100.0
  0
INSERT
  5
289F1
330
285D4
100
AcDbEntity
  8
寸法
 62
     0
 48
50.0
370
    -2
100
AcDbBlockReference
  2
_DOTSMALL
 10
3591.600000000001
 20
8429.703446810981
 30
0.0
 41
100.0
 42
100.0
 43
100.0
 50
180.0
  0
MTEXT
  5
289F2
330
285D4
100
AcDbEntity
  8
寸法
 62
     7
 48
50.0
100
AcDbMText
 10
4898.6
 20
8529.715257834601
 30
0.0
 40
120.0
 41
0.0
 71
     5
 72
     1
  1
\A1;2614
  7
STYLE1
 73
     1
 44
1.0
1001
ACAD
1000
MTEXTBEGIN
1070
    73
1070
     1
1070
    44
1040
1.0
1070
    74
1070
     0
1000
MTEXTEND
  0
POINT
  5
289F3
330
285D4
100
AcDbEntity
  8
DEFPOINTS
 62
     0
 48
50.0
100
AcDbPoint
 10
6205.6
 20
7630.436988717069
 30
0.0
  0
POINT
  5
289F4
330
285D4
100
AcDbEntity
  8
DEFPOINTS
 62
     0
 48
50.0
100
AcDbPoint
 10
3591.600000000001
 20
7630.436988717069
 30
0.0
  0
POINT
  5
289F5
330
285D4
100
AcDbEntity
  8
DEFPOINTS
 62
     0
 48
50.0
100
AcDbPoint
 10
3591.600000000001
 20
8429.703446810981
 30
0.0
  0
ENDBLK
  5
285DE
330
285D4
100
AcDbEntity
  8
0
 48
50.0
100
AcDbBlockEnd
  0
BLOCK
  5
285EA
330
285DF
100
AcDbEntity
  8
0
 48
50.0
100
AcDbBlockBegin
  2
*D47
 70
     1
 10
0.0
 20
0.0
 30
0.0
  3
*D47
  1

  0
LINE
  5
289E3
330
285DF
100
AcDbEntity
  8
寸法
 62
     0
 48
50.0
370
    -2
100
AcDbLine
 10
3591.600000000001
 20
7650.436988717068
 30
0.0
 11
3591.600000000001
 21
8489.703446810979
 31
0.0
  0
LINE
  5
289E4
330
285DF
100
AcDbEntity
  8
寸法
 62
     0
 48
50.0
370
    -2
100
AcDbLine
 10
3468.600000000001
 20
7723.436988717068
 30
0.0
 11
3468.600000000001
 21
8489.703446810979
 31
0.0
  0
LINE
  5
289E5
330
285DF
100
AcDbEntity
  8
寸法
 62
     0
 48
50.0
370
    -2
100
AcDbLine
 10
3591.600000000001
 20
8429.703446810981
 30
0.0
 11
3468.600000000001
 21
8429.703446810981
 31
0.0
  0
LINE
  5
289E6
330
285DF
100
AcDbEntity
  8
寸法
 62
     0
 48
50.0
370
    -2
100
AcDbLine
 10
3468.600000000001
 20
8429.703446810981
 30
0.0
 11
3057.008116907964
 21
8429.703446810981
 31
0.0
  0
INSERT
  5
289E7
330
285DF
100
AcDbEntity
  8
寸法
 62
     0
 48
50.0
370
    -2
100
AcDbBlockReference
  2
_DOTSMALL
 10
3591.600000000001
 20
8429.703446810981
 30
0.0
 41
100.0
 42
100.0
 43
100.0
  0
INSERT
  5
289E8
330
285DF
100
AcDbEntity
  8
寸法
 62
     0
 48
50.0
370
    -2
100
AcDbBlockReference
  2
_DOTSMALL
 10
3468.600000000001
 20
8429.703446810981
 30
0.0
 41
100.0
 42
100.0
 43
100.0
 50
180.0
  0
MTEXT
  5
289E9
330
285DF
100
AcDbEntity
  8
寸法
 62
     7
 48
50.0
100
AcDbMText
 10
3195.493398282203
 20
8529.715257834601
 30
0.0
 40
120.0
 41
0.0
 71
     5
 72
     1
  1
\A1;123
  7
STYLE1
 73
     1
 44
1.0
1001
ACAD
1000
MTEXTBEGIN
1070
    73
1070
     1
1070
    44
1040
1.0
1070
    74
1070
     0
1000
MTEXTEND
  0
POINT
  5
289EA
330
285DF
100
AcDbEntity
  8
DEFPOINTS
 62
     0
 48
50.0
100
AcDbPoint
 10
3591.600000000001
 20
7630.436988717069
 30
0.0
  0
POINT
  5
289EB
330
285DF
100
AcDbEntity
  8
DEFPOINTS
 62
     0
 48
50.0
100
AcDbPoint
 10
3468.600000000001
 20
7703.436988717069
 30
0.0
  0
POINT
  5
289EC
330
285DF
100
AcDbEntity
  8
DEFPOINTS
 62
     0
 48
50.0
100
AcDbPoint
 10
3468.600000000001
 20
8429.703446810981
 30
0.0
  0
ENDBLK
  5
285EB
330
285DF
100
AcDbEntity
  8
0
 48
50.0
100
AcDbBlockEnd
  0
BLOCK
  5
285F7
330
285EC
100
AcDbEntity
  8
0
 48
50.0
100
AcDbBlockBegin
  2
*D48
 70
     1
 10
0.0
 20
0.0
 30
0.0
  3
*D48
  1

  0
LINE
  5
289D9
330
285EC
100
AcDbEntity
  8
寸法
 62
     0
 48
50.0
370
    -2
100
AcDbLine
 10
3448.600000000001
 20
7703.436988717069
 30
0.0
 11
2785.665006330073
 21
7703.436988717069
 31
0.0
  0
LINE
  5
289DA
330
285EC
100
AcDbEntity
  8
寸法
 62
     0
 48
50.0
370
    -2
100
AcDbLine
 10
3521.6
 20
7580.436988717069
 30
0.0
 11
2785.665006330073
 21
7580.436988717069
 31
0.0
  0
LINE
  5
289DB
330
285EC
100
AcDbEntity
  8
寸法
 62
     0
 48
50.0
370
    -2
100
AcDbLine
 10
2845.665006330073
 20
7580.436988717069
 30
0.0
 11
2845.665006330073
 21
7703.436988717069
 31
0.0
  0
LINE
  5
289DC
330
285EC
100
AcDbEntity
  8
寸法
 62
     0
 48
50.0
370
    -2
100
AcDbLine
 10
2845.665006330073
 20
7703.436988717069
 30
0.0
 11
2845.665006330073
 21
8115.028871809107
 31
0.0
  0
INSERT
  5
289DD
330
285EC
100
AcDbEntity
  8
寸法
 62
     0
 48
50.0
370
    -2
100
AcDbBlockReference
  2
_DOTSMALL
 10
2845.665006330073
 20
7580.436988717069
 30
0.0
 41
100.0
 42
100.0
 43
100.0
 50
270.0
  0
INSERT
  5
289DE
330
285EC
100
AcDbEntity
  8
寸法
 62
     0
 48
50.0
370
    -2
100
AcDbBlockReference
  2
_DOTSMALL
 10
2845.665006330073
 20
7703.436988717069
 30
0.0
 41
100.0
 42
100.0
 43
100.0
 50
90.0
  0
MTEXT
  5
289DF
330
285EC
100
AcDbEntity
  8
寸法
 62
     7
 48
50.0
100
AcDbMText
 10
2745.653195306449
 20
7976.543590434868
 30
0.0
 40
120.0
 41
0.0
 71
     5
 72
     1
  1
\A1;123
  7
STYLE1
 11
0.0000000000000001
 21
1.0
 31
0.0
 73
     1
 44
1.0
1001
ACAD
1000
MTEXTBEGIN
1070
    73
1070
     1
1070
    44
1040
1.0
1070
    74
1070
     0
1000
MTEXTEND
  0
POINT
  5
289E0
330
285EC
100
AcDbEntity
  8
DEFPOINTS
 62
     0
 48
50.0
100
AcDbPoint
 10
3468.600000000001
 20
7703.436988717069
 30
0.0
  0
POINT
  5
289E1
330
285EC
100
AcDbEntity
  8
DEFPOINTS
 62
     0
 48
50.0
100
AcDbPoint
 10
3541.600000000001
 20
7580.436988717069
 30
0.0
  0
POINT
  5
289E2
330
285EC
100
AcDbEntity
  8
DEFPOINTS
 62
     0
 48
50.0
100
AcDbPoint
 10
2845.665006330073
 20
7580.436988717069
 30
0.0
  0
ENDBLK
  5
285F8
330
285EC
100
AcDbEntity
  8
0
 48
50.0
100
AcDbBlockEnd
  0
BLOCK
  5
2861A
330
28610
100
AcDbEntity
  8
0
 48
50.0
100
AcDbBlockBegin
  2
*D49
 70
     1
 10
0.0
 20
0.0
 30
0.0
  3
*D49
  1

  0
LINE
  5
289D0
330
28610
100
AcDbEntity
  8
寸法
 62
     0
 48
50.0
370
    -2
100
AcDbLine
 10
8105.6
 20
7650.436988717068
 30
0.0
 11
8105.6
 21
8489.703446810979
 31
0.0
  0
LINE
  5
289D1
330
28610
100
AcDbEntity
  8
寸法
 62
     0
 48
50.0
370
    -2
100
AcDbLine
 10
6205.6
 20
7650.436988717068
 30
0.0
 11
6205.6
 21
8489.703446810979
 31
0.0
  0
LINE
  5
289D2
330
28610
100
AcDbEntity
  8
寸法
 62
     0
 48
50.0
370
    -2
100
AcDbLine
 10
8105.6
 20
8429.703446810981
 30
0.0
 11
6205.6
 21
8429.703446810981
 31
0.0
  0
INSERT
  5
289D3
330
28610
100
AcDbEntity
  8
寸法
 62
     0
 48
50.0
370
    -2
100
AcDbBlockReference
  2
_DOTSMALL
 10
8105.6
 20
8429.703446810981
 30
0.0
 41
100.0
 42
100.0
 43
100.0
  0
INSERT
  5
289D4
330
28610
100
AcDbEntity
  8
寸法
 62
     0
 48
50.0
370
    -2
100
AcDbBlockReference
  2
_DOTSMALL
 10
6205.6
 20
8429.703446810981
 30
0.0
 41
100.0
 42
100.0
 43
100.0
 50
180.0
  0
MTEXT
  5
289D5
330
28610
100
AcDbEntity
  8
寸法
 62
     7
 48
50.0
100
AcDbMText
 10
7155.600000000001
 20
8529.70344681098
 30
0.0
 40
120.0
 41
0.0
 71
     5
 72
     1
  1
\A1;1900
  7
STYLE1
 73
     1
 44
1.0
1001
ACAD
1000
MTEXTBEGIN
1070
    73
1070
     1
1070
    44
1040
1.0
1070
    74
1070
     0
1000
MTEXTEND
  0
POINT
  5
289D6
330
28610
100
AcDbEntity
  8
DEFPOINTS
 62
     0
 48
50.0
100
AcDbPoint
 10
8105.6
 20
7630.436988717069
 30
0.0
  0
POINT
  5
289D7
330
28610
100
AcDbEntity
  8
DEFPOINTS
 62
     0
 48
50.0
100
AcDbPoint
 10
6205.6
 20
7630.436988717069
 30
0.0
  0
POINT
  5
289D8
330
28610
100
AcDbEntity
  8
DEFPOINTS
 62
     0
 48
50.0
100
AcDbPoint
 10
6205.6
 20
8429.703446810981
 30
0.0
  0
ENDBLK
  5
2861B
330
28610
100
AcDbEntity
  8
0
 48
50.0
100
AcDbBlockEnd
  0
BLOCK
  5
28633
330
28629
100
AcDbEntity
  8
0
 48
50.0
100
AcDbBlockBegin
  2
*D50
 70
     1
 10
0.0
 20
0.0
 30
0.0
  3
*D50
  1

  0
LINE
  5
28BD2
330
28629
100
AcDbEntity
  8
寸法
 62
     0
 48
50.0
370
    -2
100
AcDbLine
 10
10123.60000000001
 20
7120.436988717068
 30
0.0
 11
10123.60000000001
 21
8246.045805387316
 31
0.0
  0
LINE
  5
28BD3
330
28629
100
AcDbEntity
  8
寸法
 62
     0
 48
50.0
370
    -2
100
AcDbLine
 10
9173.600000000007
 20
7120.436988717068
 30
0.0
 11
9173.600000000007
 21
8246.045805387316
 31
0.0
  0
LINE
  5
28BD4
330
28629
100
AcDbEntity
  8
寸法
 62
     0
 48
50.0
370
    -2
100
AcDbLine
 10
10123.60000000001
 20
8186.045805387317
 30
0.0
 11
9173.600000000007
 21
8186.045805387317
 31
0.0
  0
INSERT
  5
28BD5
330
28629
100
AcDbEntity
  8
寸法
 62
     0
 48
50.0
370
    -2
100
AcDbBlockReference
  2
_DOTSMALL
 10
10123.60000000001
 20
8186.045805387317
 30
0.0
 41
100.0
 42
100.0
 43
100.0
  0
INSERT
  5
28BD6
330
28629
100
AcDbEntity
  8
寸法
 62
     0
 48
50.0
370
    -2
100
AcDbBlockReference
  2
_DOTSMALL
 10
9173.600000000007
 20
8186.045805387317
 30
0.0
 41
100.0
 42
100.0
 43
100.0
 50
180.0
  0
MTEXT
  5
28BD7
330
28629
100
AcDbEntity
  8
寸法
 62
     7
 48
50.0
100
AcDbMText
 10
9648.600000000008
 20
8286.045805387317
 30
0.0
 40
120.0
 41
0.0
 71
     5
 72
     1
  1
\A1;950
  7
STYLE1
 73
     1
 44
1.0
1001
ACAD
1000
MTEXTBEGIN
1070
    73
1070
     1
1070
    44
1040
1.0
1070
    74
1070
     0
1000
MTEXTEND
  0
POINT
  5
28BD8
330
28629
100
AcDbEntity
  8
DEFPOINTS
 62
     0
 48
50.0
100
AcDbPoint
 10
10123.60000000001
 20
7100.436988717068
 30
0.0
  0
POINT
  5
28BD9
330
28629
100
AcDbEntity
  8
DEFPOINTS
 62
     0
 48
50.0
100
AcDbPoint
 10
9173.600000000007
 20
7100.436988717068
 30
0.0
  0
POINT
  5
28BDA
330
28629
100
AcDbEntity
  8
DEFPOINTS
 62
     0
 48
50.0
100
AcDbPoint
 10
9173.600000000007
 20
8186.045805387317
 30
0.0
  0
ENDBLK
  5
28634
330
28629
100
AcDbEntity
  8
0
 48
50.0
100
AcDbBlockEnd
  0
BLOCK
  5
2863F
330
28635
100
AcDbEntity
  8
0
 48
50.0
100
AcDbBlockBegin
  2
*D51
 70
     1
 10
0.0
 20
0.0
 30
0.0
  3
*D51
  1

  0
LINE
  5
28BC9
330
28635
100
AcDbEntity
  8
寸法
 62
     0
 48
50.0
370
    -2
100
AcDbLine
 10
12978.6
 20
7723.436988717068
 30
0.0
 11
12978.6
 21
8246.045805387316
 31
0.0
  0
LINE
  5
28BCA
330
28635
100
AcDbEntity
  8
寸法
 62
     0
 48
50.0
370
    -2
100
AcDbLine
 10
12023.6
 20
7120.436988717068
 30
0.0
 11
12023.6
 21
8246.045805387316
 31
0.0
  0
LINE
  5
28BCB
330
28635
100
AcDbEntity
  8
寸法
 62
     0
 48
50.0
370
    -2
100
AcDbLine
 10
12978.6
 20
8186.045805387317
 30
0.0
 11
12023.6
 21
8186.045805387317
 31
0.0
  0
INSERT
  5
28BCC
330
28635
100
AcDbEntity
  8
寸法
 62
     0
 48
50.0
370
    -2
100
AcDbBlockReference
  2
_DOTSMALL
 10
12978.6
 20
8186.045805387317
 30
0.0
 41
100.0
 42
100.0
 43
100.0
  0
INSERT
  5
28BCD
330
28635
100
AcDbEntity
  8
寸法
 62
     0
 48
50.0
370
    -2
100
AcDbBlockReference
  2
_DOTSMALL
 10
12023.6
 20
8186.045805387317
 30
0.0
 41
100.0
 42
100.0
 43
100.0
 50
180.0
  0
MTEXT
  5
28BCE
330
28635
100
AcDbEntity
  8
寸法
 62
     7
 48
50.0
100
AcDbMText
 10
12501.1
 20
8286.045805387317
 30
0.0
 40
120.0
 41
0.0
 71
     5
 72
     1
  1
\A1;955
  7
STYLE1
 73
     1
 44
1.0
1001
ACAD
1000
MTEXTBEGIN
1070
    73
1070
     1
1070
    44
1040
1.0
1070
    74
1070
     0
1000
MTEXTEND
  0
POINT
  5
28BCF
330
28635
100
AcDbEntity
  8
DEFPOINTS
 62
     0
 48
50.0
100
AcDbPoint
 10
12978.6
 20
7703.436988717069
 30
0.0
  0
POINT
  5
28BD0
330
28635
100
AcDbEntity
  8
DEFPOINTS
 62
     0
 48
50.0
100
AcDbPoint
 10
12023.6
 20
7100.436988717068
 30
0.0
  0
POINT
  5
28BD1
330
28635
100
AcDbEntity
  8
DEFPOINTS
 62
     0
 48
50.0
100
AcDbPoint
 10
12023.6
 20
8186.045805387317
 30
0.0
  0
ENDBLK
  5
28640
330
28635
100
AcDbEntity
  8
0
 48
50.0
100
AcDbBlockEnd
  0
BLOCK
  5
2864B
330
28641
100
AcDbEntity
  8
0
 48
50.0
100
AcDbBlockBegin
  2
*D52
 70
     1
 10
0.0
 20
0.0
 30
0.0
  3
*D52
  1

  0
LINE
  5
28BC0
330
28641
100
AcDbEntity
  8
寸法
 62
     0
 48
50.0
370
    -2
100
AcDbLine
 10
11073.60000000001
 20
7120.436988717068
 30
0.0
 11
11073.60000000001
 21
8246.045805387316
 31
0.0
  0
LINE
  5
28BC1
330
28641
100
AcDbEntity
  8
寸法
 62
     0
 48
50.0
370
    -2
100
AcDbLine
 10
10123.60000000001
 20
7120.436988717068
 30
0.0
 11
10123.60000000001
 21
8246.045805387316
 31
0.0
  0
LINE
  5
28BC2
330
28641
100
AcDbEntity
  8
寸法
 62
     0
 48
50.0
370
    -2
100
AcDbLine
 10
11073.60000000001
 20
8186.045805387317
 30
0.0
 11
10123.60000000001
 21
8186.045805387317
 31
0.0
  0
INSERT
  5
28BC3
330
28641
100
AcDbEntity
  8
寸法
 62
     0
 48
50.0
370
    -2
100
AcDbBlockReference
  2
_DOTSMALL
 10
11073.60000000001
 20
8186.045805387317
 30
0.0
 41
100.0
 42
100.0
 43
100.0
  0
INSERT
  5
28BC4
330
28641
100
AcDbEntity
  8
寸法
 62
     0
 48
50.0
370
    -2
100
AcDbBlockReference
  2
_DOTSMALL
 10
10123.60000000001
 20
8186.045805387317
 30
0.0
 41
100.0
 42
100.0
 43
100.0
 50
180.0
  0
MTEXT
  5
28BC5
330
28641
100
AcDbEntity
  8
寸法
 62
     7
 48
50.0
100
AcDbMText
 10
10598.60000000001
 20
8286.045805387317
 30
0.0
 40
120.0
 41
0.0
 71
     5
 72
     1
  1
\A1;950
  7
STYLE1
 73
     1
 44
1.0
1001
ACAD
1000
MTEXTBEGIN
1070
    73
1070
     1
1070
    44
1040
1.0
1070
    74
1070
     0
1000
MTEXTEND
  0
POINT
  5
28BC6
330
28641
100
AcDbEntity
  8
DEFPOINTS
 62
     0
 48
50.0
100
AcDbPoint
 10
11073.60000000001
 20
7100.436988717068
 30
0.0
  0
POINT
  5
28BC7
330
28641
100
AcDbEntity
  8
DEFPOINTS
 62
     0
 48
50.0
100
AcDbPoint
 10
10123.60000000001
 20
7100.436988717068
 30
0.0
  0
POINT
  5
28BC8
330
28641
100
AcDbEntity
  8
DEFPOINTS
 62
     0
 48
50.0
100
AcDbPoint
 10
10123.60000000001
 20
8186.045805387317
 30
0.0
  0
ENDBLK
  5
2864C
330
28641
100
AcDbEntity
  8
0
 48
50.0
100
AcDbBlockEnd
  0
BLOCK
  5
28657
330
2864D
100
AcDbEntity
  8
0
 48
50.0
100
AcDbBlockBegin
  2
*D53
 70
     1
 10
0.0
 20
0.0
 30
0.0
  3
*D53
  1

  0
LINE
  5
28BB7
330
2864D
100
AcDbEntity
  8
寸法
 62
     0
 48
50.0
370
    -2
100
AcDbLine
 10
12023.6
 20
7120.436988717068
 30
0.0
 11
12023.6
 21
8246.045805387316
 31
0.0
  0
LINE
  5
28BB8
330
2864D
100
AcDbEntity
  8
寸法
 62
     0
 48
50.0
370
    -2
100
AcDbLine
 10
11073.60000000001
 20
7120.436988717068
 30
0.0
 11
11073.60000000001
 21
8246.045805387316
 31
0.0
  0
LINE
  5
28BB9
330
2864D
100
AcDbEntity
  8
寸法
 62
     0
 48
50.0
370
    -2
100
AcDbLine
 10
12023.6
 20
8186.045805387317
 30
0.0
 11
11073.60000000001
 21
8186.045805387317
 31
0.0
  0
INSERT
  5
28BBA
330
2864D
100
AcDbEntity
  8
寸法
 62
     0
 48
50.0
370
    -2
100
AcDbBlockReference
  2
_DOTSMALL
 10
12023.6
 20
8186.045805387317
 30
0.0
 41
100.0
 42
100.0
 43
100.0
  0
INSERT
  5
28BBB
330
2864D
100
AcDbEntity
  8
寸法
 62
     0
 48
50.0
370
    -2
100
AcDbBlockReference
  2
_DOTSMALL
 10
11073.60000000001
 20
8186.045805387317
 30
0.0
 41
100.0
 42
100.0
 43
100.0
 50
180.0
  0
MTEXT
  5
28BBC
330
2864D
100
AcDbEntity
  8
寸法
 62
     7
 48
50.0
100
AcDbMText
 10
11548.60000000001
 20
8286.045805387317
 30
0.0
 40
120.0
 41
0.0
 71
     5
 72
     1
  1
\A1;950
  7
STYLE1
 73
     1
 44
1.0
1001
ACAD
1000
MTEXTBEGIN
1070
    73
1070
     1
1070
    44
1040
1.0
1070
    74
1070
     0
1000
MTEXTEND
  0
POINT
  5
28BBD
330
2864D
100
AcDbEntity
  8
DEFPOINTS
 62
     0
 48
50.0
100
AcDbPoint
 10
12023.6
 20
7100.436988717068
 30
0.0
  0
POINT
  5
28BBE
330
2864D
100
AcDbEntity
  8
DEFPOINTS
 62
     0
 48
50.0
100
AcDbPoint
 10
11073.60000000001
 20
7100.436988717068
 30
0.0
  0
POINT
  5
28BBF
330
2864D
100
AcDbEntity
  8
DEFPOINTS
 62
     0
 48
50.0
100
AcDbPoint
 10
11073.60000000001
 20
8186.045805387317
 30
0.0
  0
ENDBLK
  5
28658
330
2864D
100
AcDbEntity
  8
0
 48
50.0
100
AcDbBlockEnd
  0
BLOCK
  5
28F04
330
28EFA
100
AcDbEntity
  8
0
 48
50.0
100
AcDbBlockBegin
  2
*D60
 70
     1
 10
0.0
 20
0.0
 30
0.0
  3
*D60
  1

  0
LINE
  5
28F44
330
28EFA
100
AcDbEntity
  8
寸法
 62
     0
 48
50.0
370
    -2
100
AcDbLine
 10
6454.014684969329
 20
1781.398800139455
 30
0.0
 11
6454.014684969329
 21
2241.066608055836
 31
0.0
  0
LINE
  5
28F45
330
28EFA
100
AcDbEntity
  8
寸法
 62
     0
 48
50.0
370
    -2
100
AcDbLine
 10
6262.014684969329
 20
1781.398800139455
 30
0.0
 11
6262.014684969329
 21
2241.066608055836
 31
0.0
  0
LINE
  5
28F46
330
28EFA
100
AcDbEntity
  8
寸法
 62
     0
 48
50.0
370
    -2
100
AcDbLine
 10
6454.014684969329
 20
2181.066608055836
 30
0.0
 11
6262.014684969329
 21
2181.066608055836
 31
0.0
  0
INSERT
  5
28F47
330
28EFA
100
AcDbEntity
  8
寸法
 62
     0
 48
50.0
370
    -2
100
AcDbBlockReference
  2
_DOTSMALL
 10
6454.014684969329
 20
2181.066608055836
 30
0.0
 41
100.0
 42
100.0
 43
100.0
  0
INSERT
  5
28F48
330
28EFA
100
AcDbEntity
  8
寸法
 62
     0
 48
50.0
370
    -2
100
AcDbBlockReference
  2
_DOTSMALL
 10
6262.014684969329
 20
2181.066608055836
 30
0.0
 41
100.0
 42
100.0
 43
100.0
 50
180.0
  0
MTEXT
  5
28F49
330
28EFA
100
AcDbEntity
  8
寸法
 62
     7
 48
50.0
100
AcDbMText
 10
6358.014684969329
 20
2481.102041126702
 30
0.0
 40
120.0
 41
0.0
 71
     5
 72
     1
  1
\A1;120\P200\P280
  7
STYLE1
 73
     1
 44
1.0
1001
ACAD
1000
MTEXTBEGIN
1070
    73
1070
     1
1070
    44
1040
1.0
1070
    74
1070
     0
1000
MTEXTEND
  0
POINT
  5
28F4A
330
28EFA
100
AcDbEntity
  8
DEFPOINTS
 62
     0
 48
50.0
100
AcDbPoint
 10
6454.014684969329
 20
1761.398800139456
 30
0.0
  0
POINT
  5
28F4B
330
28EFA
100
AcDbEntity
  8
DEFPOINTS
 62
     0
 48
50.0
100
AcDbPoint
 10
6262.014684969329
 20
1761.398800139456
 30
0.0
  0
POINT
  5
28F4C
330
28EFA
100
AcDbEntity
  8
DEFPOINTS
 62
     0
 48
50.0
100
AcDbPoint
 10
6262.014684969329
 20
2181.066608055836
 30
0.0
  0
ENDBLK
  5
28F05
330
28EFA
100
AcDbEntity
  8
0
 48
50.0
100
AcDbBlockEnd
  0
BLOCK
  5
28F10
330
28F06
100
AcDbEntity
  8
0
 48
50.0
100
AcDbBlockBegin
  2
*D61
 70
     1
 10
0.0
 20
0.0
 30
0.0
  3
*D61
  1

  0
LINE
  5
28F4D
330
28F06
100
AcDbEntity
  8
寸法
 62
     0
 48
50.0
370
    -2
100
AcDbLine
 10
6134.014684969329
 20
829.3988001394554
 30
0.0
 11
6134.014684969329
 21
378.9691621342954
 31
0.0
  0
LINE
  5
28F4E
330
28F06
100
AcDbEntity
  8
寸法
 62
     0
 48
50.0
370
    -2
100
AcDbLine
 10
6582.014684969329
 20
829.3988001394554
 30
0.0
 11
6582.014684969329
 21
378.9691621342954
 31
0.0
  0
LINE
  5
28F4F
330
28F06
100
AcDbEntity
  8
寸法
 62
     0
 48
50.0
370
    -2
100
AcDbLine
 10
6134.014684969329
 20
438.9691621342953
 30
0.0
 11
6582.014684969329
 21
438.9691621342953
 31
0.0
  0
INSERT
  5
28F50
330
28F06
100
AcDbEntity
  8
寸法
 62
     0
 48
50.0
370
    -2
100
AcDbBlockReference
  2
_DOTSMALL
 10
6134.014684969329
 20
438.9691621342953
 30
0.0
 41
100.0
 42
100.0
 43
100.0
 50
180.0
  0
INSERT
  5
28F51
330
28F06
100
AcDbEntity
  8
寸法
 62
     0
 48
50.0
370
    -2
100
AcDbBlockReference
  2
_DOTSMALL
 10
6582.014684969329
 20
438.9691621342953
 30
0.0
 41
100.0
 42
100.0
 43
100.0
  0
MTEXT
  5
28F52
330
28F06
100
AcDbEntity
  8
寸法
 62
     7
 48
50.0
100
AcDbMText
 10
6337.917926291106
 20
538.9691621342953
 30
0.0
 40
120.0
 41
0.0
 71
     5
 72
     1
  1
\A1;300
  7
STYLE1
 73
     1
 44
1.0
1001
ACAD
1000
MTEXTBEGIN
1070
    73
1070
     1
1070
    44
1040
1.0
1070
    74
1070
     0
1000
MTEXTEND
  0
POINT
  5
28F53
330
28F06
100
AcDbEntity
  8
DEFPOINTS
 62
     0
 48
50.0
100
AcDbPoint
 10
6134.014684969329
 20
849.3988001394555
 30
0.0
  0
POINT
  5
28F54
330
28F06
100
AcDbEntity
  8
DEFPOINTS
 62
     0
 48
50.0
100
AcDbPoint
 10
6582.014684969329
 20
849.3988001394555
 30
0.0
  0
POINT
  5
28F55
330
28F06
100
AcDbEntity
  8
DEFPOINTS
 62
     0
 48
50.0
100
AcDbPoint
 10
6582.014684969329
 20
438.9691621342953
 30
0.0
  0
ENDBLK
  5
28F11
330
28F06
100
AcDbEntity
  8
0
 48
50.0
100
AcDbBlockEnd
  0
BLOCK
  5
28F1C
330
28F12
100
AcDbEntity
  8
0
 48
50.0
100
AcDbBlockBegin
  2
*D62
 70
     1
 10
0.0
 20
0.0
 30
0.0
  3
*D62
  1

  0
LINE
  5
28F56
330
28F12
100
AcDbEntity
  8
寸法
 62
     0
 48
50.0
370
    -2
100
AcDbLine
 10
6242.01468496933
 20
1761.398800139456
 30
0.0
 11
5466.977446407589
 21
1761.398800139456
 31
0.0
  0
LINE
  5
28F57
330
28F12
100
AcDbEntity
  8
寸法
 62
     0
 48
50.0
370
    -2
100
AcDbLine
 10
6034.014684969332
 20
977.3988001394554
 30
0.0
 11
5466.977446407589
 21
977.3988001394556
 31
0.0
  0
LINE
  5
28F58
330
28F12
100
AcDbEntity
  8
寸法
 62
     0
 48
50.0
370
    -2
100
AcDbLine
 10
5526.977446407589
 20
1761.398800139456
 30
0.0
 11
5526.977446407589
 21
977.3988001394556
 31
0.0
  0
INSERT
  5
28F59
330
28F12
100
AcDbEntity
  8
寸法
 62
     0
 48
50.0
370
    -2
100
AcDbBlockReference
  2
_DOTSMALL
 10
5526.977446407589
 20
1761.398800139456
 30
0.0
 41
100.0
 42
100.0
 43
100.0
 50
90.0
  0
INSERT
  5
28F5A
330
28F12
100
AcDbEntity
  8
寸法
 62
     0
 48
50.0
370
    -2
100
AcDbBlockReference
  2
_DOTSMALL
 10
5526.977446407589
 20
977.3988001394556
 30
0.0
 41
100.0
 42
100.0
 43
100.0
 50
270.0
  0
MTEXT
  5
28F5B
330
28F12
100
AcDbEntity
  8
寸法
 62
     7
 48
50.0
100
AcDbMText
 10
5426.977446407589
 20
1348.938949795456
 30
0.0
 40
120.0
 41
0.0
 71
     5
 72
     1
  1
\A1;540
  7
STYLE1
 11
0.0000000000000001
 21
1.0
 31
0.0
 73
     1
 44
1.0
1001
ACAD
1000
MTEXTBEGIN
1070
    73
1070
     1
1070
    44
1040
1.0
1070
    74
1070
     0
1000
MTEXTEND
  0
POINT
  5
28F5C
330
28F12
100
AcDbEntity
  8
DEFPOINTS
 62
     0
 48
50.0
100
AcDbPoint
 10
6262.014684969329
 20
1761.398800139456
 30
0.0
  0
POINT
  5
28F5D
330
28F12
100
AcDbEntity
  8
DEFPOINTS
 62
     0
 48
50.0
100
AcDbPoint
 10
6054.014684969333
 20
977.3988001394554
 30
0.0
  0
POINT
  5
28F5E
330
28F12
100
AcDbEntity
  8
DEFPOINTS
 62
     0
 48
50.0
100
AcDbPoint
 10
5526.977446407589
 20
977.3988001394556
 30
0.0
  0
ENDBLK
  5
28F1D
330
28F12
100
AcDbEntity
  8
0
 48
50.0
100
AcDbBlockEnd
  0
BLOCK
  5
28F28
330
28F1E
100
AcDbEntity
  8
0
 48
50.0
100
AcDbBlockBegin
  2
*D63
 70
     1
 10
0.0
 20
0.0
 30
0.0
  3
*D63
  1

  0
LINE
  5
28F5F
330
28F1E
100
AcDbEntity
  8
寸法
 62
     0
 48
50.0
370
    -2
100
AcDbLine
 10
6114.01468496933
 20
1217.398800139455
 30
0.0
 11
5931.59437123687
 21
1217.398800139455
 31
0.0
  0
LINE
  5
28F60
330
28F1E
100
AcDbEntity
  8
寸法
 62
     0
 48
50.0
370
    -2
100
AcDbLine
 10
6034.014684969332
 20
977.3988001394554
 30
0.0
 11
5931.59437123687
 21
977.3988001394554
 31
0.0
  0
LINE
  5
28F61
330
28F1E
100
AcDbEntity
  8
寸法
 62
     0
 48
50.0
370
    -2
100
AcDbLine
 10
5991.59437123687
 20
1217.398800139455
 30
0.0
 11
5991.59437123687
 21
977.3988001394554
 31
0.0
  0
INSERT
  5
28F62
330
28F1E
100
AcDbEntity
  8
寸法
 62
     0
 48
50.0
370
    -2
100
AcDbBlockReference
  2
_DOTSMALL
 10
5991.59437123687
 20
1217.398800139455
 30
0.0
 41
100.0
 42
100.0
 43
100.0
 50
90.0
  0
INSERT
  5
28F63
330
28F1E
100
AcDbEntity
  8
寸法
 62
     0
 48
50.0
370
    -2
100
AcDbBlockReference
  2
_DOTSMALL
 10
5991.59437123687
 20
977.3988001394554
 30
0.0
 41
100.0
 42
100.0
 43
100.0
 50
270.0
  0
MTEXT
  5
28F64
330
28F1E
100
AcDbEntity
  8
寸法
 62
     7
 48
50.0
100
AcDbMText
 10
5891.59437123687
 20
1097.398800139456
 30
0.0
 40
120.0
 41
0.0
 71
     5
 72
     1
  1
\A1;150
  7
STYLE1
 11
0.0000000000000001
 21
1.0
 31
0.0
 73
     1
 44
1.0
1001
ACAD
1000
MTEXTBEGIN
1070
    73
1070
     1
1070
    44
1040
1.0
1070
    74
1070
     0
1000
MTEXTEND
  0
POINT
  5
28F65
330
28F1E
100
AcDbEntity
  8
DEFPOINTS
 62
     0
 48
50.0
100
AcDbPoint
 10
6134.014684969329
 20
1217.398800139455
 30
0.0
  0
POINT
  5
28F66
330
28F1E
100
AcDbEntity
  8
DEFPOINTS
 62
     0
 48
50.0
100
AcDbPoint
 10
6054.014684969333
 20
977.3988001394554
 30
0.0
  0
POINT
  5
28F67
330
28F1E
100
AcDbEntity
  8
DEFPOINTS
 62
     0
 48
50.0
100
AcDbPoint
 10
5991.59437123687
 20
977.3988001394554
 30
0.0
  0
ENDBLK
  5
28F29
330
28F1E
100
AcDbEntity
  8
0
 48
50.0
100
AcDbBlockEnd
  0
BLOCK
  5
28F36
330
28F2A
100
AcDbEntity
  8
0
 48
50.0
100
AcDbBlockBegin
  2
*D64
 70
     1
 10
0.0
 20
0.0
 30
0.0
  3
*D64
  1

  0
LINE
  5
28F68
330
28F2A
100
AcDbEntity
  8
寸法
 62
     0
 48
50.0
370
    -2
100
AcDbLine
 10
8208.853998146524
 20
1814.158800139457
 30
0.0
 11
9213.977264034395
 21
1814.158800139456
 31
0.0
  0
LINE
  5
28F69
330
28F2A
100
AcDbEntity
  8
寸法
 62
     0
 48
50.0
370
    -2
100
AcDbLine
 10
8396.053998146523
 20
1761.398800139456
 30
0.0
 11
9213.977264034395
 21
1761.398800139455
 31
0.0
  0
LINE
  5
28F6A
330
28F2A
100
AcDbEntity
  8
寸法
 62
     0
 48
50.0
370
    -2
100
AcDbLine
 10
9153.977264034393
 20
1814.158800139456
 30
0.0
 11
9153.977264034393
 21
1914.158800139456
 31
0.0
  0
LINE
  5
28F6B
330
28F2A
100
AcDbEntity
  8
寸法
 62
     0
 48
50.0
370
    -2
100
AcDbLine
 10
9153.977264034393
 20
1761.398800139455
 30
0.0
 11
9153.977264034393
 21
1029.380993296489
 31
0.0
  0
LINE
  5
28F6C
330
28F2A
100
AcDbEntity
  8
寸法
 62
     0
 48
50.0
370
    -2
100
AcDbLine
 10
9153.977264034393
 20
1814.158800139456
 30
0.0
 11
9153.977264034393
 21
1761.398800139455
 31
0.0
  0
INSERT
  5
28F6D
330
28F2A
100
AcDbEntity
  8
寸法
 62
     0
 48
50.0
370
    -2
100
AcDbBlockReference
  2
_DOTSMALL
 10
9153.977264034393
 20
1814.158800139456
 30
0.0
 41
100.0
 42
100.0
 43
100.0
 50
270.0
  0
INSERT
  5
28F6E
330
28F2A
100
AcDbEntity
  8
寸法
 62
     0
 48
50.0
370
    -2
100
AcDbBlockReference
  2
_DOTSMALL
 10
9153.977264034393
 20
1761.398800139455
 30
0.0
 41
100.0
 42
100.0
 43
100.0
 50
90.0
  0
MTEXT
  5
28F6F
330
28F2A
100
AcDbEntity
  8
寸法
 62
     7
 48
50.0
100
AcDbMText
 10
9053.965453010773
 20
1295.389896717973
 30
0.0
 40
120.0
 41
0.0
 71
     5
 72
     1
  1
\A1;20～25
  7
STYLE1
 11
0.0000000000000001
 21
1.0
 31
0.0
 73
     1
 44
1.0
1001
ACAD
1000
MTEXTBEGIN
1070
    73
1070
     1
1070
    44
1040
1.0
1070
    74
1070
     0
1000
MTEXTEND
  0
POINT
  5
28F70
330
28F2A
100
AcDbEntity
  8
DEFPOINTS
 62
     0
 48
50.0
100
AcDbPoint
 10
8188.853998146525
 20
1814.158800139457
 30
0.0
  0
POINT
  5
28F71
330
28F2A
100
AcDbEntity
  8
DEFPOINTS
 62
     0
 48
50.0
100
AcDbPoint
 10
8376.053998146522
 20
1761.398800139456
 30
0.0
  0
POINT
  5
28F72
330
28F2A
100
AcDbEntity
  8
DEFPOINTS
 62
     0
 48
50.0
100
AcDbPoint
 10
9153.977264034393
 20
1761.398800139455
 30
0.0
  0
ENDBLK
  5
28F37
330
28F2A
100
AcDbEntity
  8
0
 48
50.0
100
AcDbBlockEnd
  0
BLOCK
  5
28F42
330
28F38
100
AcDbEntity
  8
0
 48
50.0
100
AcDbBlockBegin
  2
*D65
 70
     1
 10
0.0
 20
0.0
 30
0.0
  3
*D65
  1

  0
LINE
  5
28F73
330
28F38
100
AcDbEntity
  8
寸法
 62
     0
 48
50.0
370
    -2
100
AcDbLine
 10
8396.053998146523
 20
1761.398800139456
 30
0.0
 11
8937.922597915367
 21
1761.398800139455
 31
0.0
  0
LINE
  5
28F74
330
28F38
100
AcDbEntity
  8
寸法
 62
     0
 48
50.0
370
    -2
100
AcDbLine
 10
8396.053998146523
 20
1437.398800139454
 30
0.0
 11
8937.922597915367
 21
1437.398800139454
 31
0.0
  0
LINE
  5
28F75
330
28F38
100
AcDbEntity
  8
寸法
 62
     0
 48
50.0
370
    -2
100
AcDbLine
 10
8877.922597915368
 20
1761.398800139455
 30
0.0
 11
8877.922597915368
 21
1437.398800139454
 31
0.0
  0
INSERT
  5
28F76
330
28F38
100
AcDbEntity
  8
寸法
 62
     0
 48
50.0
370
    -2
100
AcDbBlockReference
  2
_DOTSMALL
 10
8877.922597915368
 20
1761.398800139455
 30
0.0
 41
100.0
 42
100.0
 43
100.0
 50
90.0
  0
INSERT
  5
28F77
330
28F38
100
AcDbEntity
  8
寸法
 62
     0
 48
50.0
370
    -2
100
AcDbBlockReference
  2
_DOTSMALL
 10
8877.922597915368
 20
1437.398800139454
 30
0.0
 41
100.0
 42
100.0
 43
100.0
 50
270.0
  0
MTEXT
  5
28F78
330
28F38
100
AcDbEntity
  8
寸法
 62
     7
 48
50.0
100
AcDbMText
 10
8777.922597915368
 20
1599.398800139456
 30
0.0
 40
120.0
 41
0.0
 71
     5
 72
     1
  1
\A1;180
  7
STYLE1
 11
0.0000000000000001
 21
1.0
 31
0.0
 73
     1
 44
1.0
1001
ACAD
1000
MTEXTBEGIN
1070
    73
1070
     1
1070
    44
1040
1.0
1070
    74
1070
     0
1000
MTEXTEND
  0
POINT
  5
28F79
330
28F38
100
AcDbEntity
  8
DEFPOINTS
 62
     0
 48
50.0
100
AcDbPoint
 10
8376.053998146522
 20
1761.398800139456
 30
0.0
  0
POINT
  5
28F7A
330
28F38
100
AcDbEntity
  8
DEFPOINTS
 62
     0
 48
50.0
100
AcDbPoint
 10
8376.053998146522
 20
1437.398800139454
 30
0.0
  0
POINT
  5
28F7B
330
28F38
100
AcDbEntity
  8
DEFPOINTS
 62
     0
 48
50.0
100
AcDbPoint
 10
8877.922597915368
 20
1437.398800139454
 30
0.0
  0
ENDBLK
  5
28F43
330
28F38
100
AcDbEntity
  8
0
 48
50.0
100
AcDbBlockEnd
  0
ENDSEC
  0
SECTION
  2
ENTITIES
  0
MTEXT
  5
763F
330
747D
100
AcDbEntity
  8
0
100
AcDbMText
 10
302.846345836809
 20
280.1983726409901
 30
0.0
 40
3.5
 41
5.323721266742722
 71
     1
 72
     5
  1

  7
MSMINCHO
 73
     1
 44
1.0
1001
ACAD
1000
MTEXTBEGIN
1070
    73
1070
     1
1070
    44
1040
1.0
1070
    74
1070
     0
1000
MTEXTEND
  0
LINE
  5
10B57
330
747D
100
AcDbEntity
  8
補助
  6
PHANTOM
 62
   230
 48
50.0
100
AcDbLine
 10
139.9999999999995
 20
11409.6
 30
0.0
 11
16307.2
 21
11409.6
 31
0.0
  0
LINE
  5
10B59
330
747D
100
AcDbEntity
  8
仕様書枠
  6
Continuous
 48
50.0
100
AcDbLine
 10
13107.2
 20
1200.0
 30
0.0
 11
13107.2
 21
-0.0000000000000729
 31
0.0
  0
LINE
  5
10B5D
330
747D
100
AcDbEntity
  8
仕様書枠
 48
50.0
100
AcDbLine
 10
140.0
 20
0.0
 30
0.0
 11
16307.2
 21
-0.0000000000000909
 31
0.0
  0
LINE
  5
10B5E
330
747D
100
AcDbEntity
  8
補助
  6
PHANTOM
 62
   230
 48
50.0
100
AcDbLine
 10
16307.2
 20
11409.6
 30
0.0
 11
16307.2
 21
1200.0
 31
0.0
  0
LINE
  5
10B6C
330
747D
100
AcDbEntity
  8
仕様書枠
 48
50.0
100
AcDbLine
 10
13107.2
 20
1200.0
 30
0.0
 11
16307.2
 21
1200.0
 31
0.0
  0
TEXT
  5
10B73
330
747D
100
AcDbEntity
  8
文字
 62
     7
 48
50.0
100
AcDbText
 10
13162.9790565769
 20
895.0906074299405
 30
0.0
 40
200.0
  1
基 礎 図
  7
STYLE2
100
AcDbText
  0
LINE
  5
10B7B
330
747D
100
AcDbEntity
  8
仕様書枠
 48
50.0
100
AcDbLine
 10
13107.2
 20
800.0
 30
0.0
 11
14251.2
 21
800.0
 31
0.0
  0
LINE
  5
10B88
330
747D
100
AcDbEntity
  8
仕様書枠
  6
Continuous
 48
50.0
100
AcDbLine
 10
14251.2
 20
1200.0
 30
0.0
 11
14251.2
 21
800.0
 31
0.0
  0
LINE
  5
16462
330
747D
100
AcDbEntity
  8
仕様書枠
 48
50.0
100
AcDbLine
 10
16307.2
 20
1200.0
 30
0.0
 11
16307.2
 21
-0.0000000000000909
 31
0.0
  0
LINE
  5
1903B
330
747D
100
AcDbEntity
  8
補助
  6
PHANTOM
 62
   230
 48
50.0
100
AcDbLine
 10
140.0
 20
0.0
 30
0.0
 11
139.9999999999995
 21
11409.6
 31
0.0
  0
LEADER
  5
1AC27
330
747D
100
AcDbEntity
  8
寸法
 48
50.0
100
AcDbLeader
  3
INABA_S50G
 73
     0
 74
     0
 75
     1
 40
120.0
 41
720.0000000000001
 76
     3
 10
12980.05985718447
 20
7009.423925171315
 30
0.0
 10
13136.83343157075
 20
6748.410011603481
 30
0.0
 10
13261.83343157075
 20
6748.410011603481
 30
0.0
340
1AC28
1001
ACAD
1000
DSTYLE
1002
{
1070
   341
1005
0
1070
    40
1040
1.0
1070
   343
1005
0
1070
   344
1005
0
1002
}
  0
MTEXT
  5
1AC28
102
{ACAD_REACTORS
330
1AC27
102
}
330
747D
100
AcDbEntity
  8
部品1
 62
     7
 48
50.0
100
AcDbMText
 10
14006.83343157075
 20
6833.410011603482
 30
0.0
 40
120.0
 41
0.0
 71
     6
 72
     1
  1
\A1;床下換気口
  7
STYLE1
 73
     1
 44
1.0
1001
ACAD
1000
MTEXTBEGIN
1070
    73
1070
     1
1070
    44
1040
1.0
1070
    74
1070
     0
1000
MTEXTEND
  0
TEXT
  5
1AC29
330
747D
100
AcDbEntity
  8
部品1
 48
50.0
100
AcDbText
 10
13327.43013846118
 20
6016.135563645499
 30
0.0
 40
80.0
  1
(a=45,b=55,c=75)
  7
STYLE1
100
AcDbText
  0
TEXT
  5
1AC2A
330
747D
100
AcDbEntity
  8
部品1
 48
50.0
100
AcDbText
 10
13168.85112970687
 20
6122.980784514253
 30
0.0
 40
80.0
  1
※a,b,cは屋根の出幅です。
  7
STYLE1
100
AcDbText
  0
MTEXT
  5
1AC2B
102
{ACAD_REACTORS
330
1AC2C
102
}
330
747D
100
AcDbEntity
  8
部品1
 62
     7
 48
50.0
100
AcDbMText
 10
13966.63832569548
 20
6302.291471447328
 30
0.0
 40
120.0
 41
0.0
 71
     6
 72
     1
  1
\A1;屋根の外寸
  7
STYLE1
 73
     1
 44
1.0
1001
ACAD
1000
MTEXTBEGIN
1070
    73
1070
     1
1070
    44
1040
1.0
1070
    74
1070
     0
1000
MTEXTEND
  0
LEADER
  5
1AC2C
330
747D
100
AcDbEntity
  8
寸法
 48
50.0
100
AcDbLeader
  3
INABA_S50G
 73
     0
 74
     0
 75
     1
 40
120.0
 41
672.0
 76
     3
 10
13028.69831350344
 20
6476.180814910904
 30
0.0
 10
13144.63832569548
 20
6217.291471447328
 30
0.0
 10
13269.63832569548
 20
6217.291471447328
 30
0.0
340
1AC2B
1001
ACAD
1000
DSTYLE
1002
{
1070
   341
1005
0
1070
    40
1040
1.0
1070
   343
1005
0
1070
   344
1005
0
1002
}
  0
TEXT
  5
1C7A1
330
747D
100
AcDbEntity
  8
文字
 62
     7
 48
50.0
100
AcDbText
 10
13188.16259899338
 20
79.80631269190417
 30
0.0
 40
80.0
  1
※布基礎には換気口を設けてください。
  7
STYLE2
100
AcDbText
  0
TEXT
  5
1C7E7
330
747D
100
AcDbEntity
  8
文字
 62
     7
 48
50.0
100
AcDbText
 10
13188.16259899338
 20
246.7109242801889
 30
0.0
 40
80.0
  1
※寒冷地等は地域の実情に合わせた基礎にして下さい。
  7
STYLE2
100
AcDbText
  0
TEXT
  5
1C7E8
330
747D
100
AcDbEntity
  8
文字
 62
     7
 48
50.0
100
AcDbText
 10
14188.28039622686
 20
499.5983841039506
 30
0.0
 40
160.0
  1
ＮＸＮ－１３ＤＬ－１０
  7
STYLE2
100
AcDbText
  0
TEXT
  5
1C7EC
330
747D
100
AcDbEntity
  8
文字
 62
     7
 48
50.0
100
AcDbText
 10
14524.131837222
 20
1031.557706291229
 30
0.0
 40
100.0
  1
<縮尺> S=1/40
  7
STYLE2
100
AcDbText
  0
TEXT
  5
1C7ED
330
747D
100
AcDbEntity
  8
文字
 62
     7
 48
50.0
100
AcDbText
 10
13201.43669998441
 20
477.2740661031257
 30
0.0
 40
160.0
  1
機種名
  7
STYLE2
100
AcDbText
  0
LINE
  5
1C7EF
330
747D
100
AcDbEntity
  8
文字
 62
     7
 48
50.0
100
AcDbLine
 10
13187.2
 20
400.0
 30
0.0
 11
16227.2
 21
400.0
 31
0.0
  0
MTEXT
  5
1D2D5
102
{ACAD_REACTORS
330
1D2D6
102
}
330
747D
100
AcDbEntity
  8
部品1
 62
     7
 48
50.0
100
AcDbMText
 10
14173.99523070988
 20
8019.049732959578
 30
0.0
 40
120.0
 41
0.0
 71
     6
 72
     1
  1
アンカーボルト
  7
STYLE1
 73
     1
 44
1.0
1001
ACAD
1000
MTEXTBEGIN
1070
    73
1070
     1
1070
    44
1040
1.0
1070
    74
1070
     0
1000
MTEXTEND
  0
LEADER
  5
1D2D6
330
747D
100
AcDbEntity
  8
寸法
 48
50.0
100
AcDbLeader
  3
INABA_S50G
 73
     0
 74
     0
 75
     1
 40
120.0
 41
994.3492424049171
 76
     3
 10
12855.680085757
 20
7580.64483307578
 30
0.0
 10
13029.64598830496
 20
7934.049732959578
 30
0.0
 10
13154.64598830496
 20
7934.049732959578
 30
0.0
340
1D2D5
1001
ACAD
1000
DSTYLE
1002
{
1070
   341
1005
0
1070
    40
1040
1.0
1070
   343
1005
0
1070
   344
1005
0
1002
}
  0
MTEXT
  5
1D332
102
{ACAD_REACTORS
330
1D333
102
}
330
747D
100
AcDbEntity
  8
部品1
 62
     7
 48
50.0
100
AcDbMText
 10
12538.82869701569
 20
6874.027509650625
 30
0.0
 40
120.0
 41
0.0
 71
     6
 72
     1
  1
CB
  7
STYLE1
 73
     1
 44
1.0
1001
ACAD
1000
MTEXTBEGIN
1070
    73
1070
     1
1070
    44
1040
1.0
1070
    74
1070
     0
1000
MTEXTEND
  0
LEADER
  5
1D333
330
747D
100
AcDbEntity
  8
寸法
 48
50.0
100
AcDbLeader
  3
INABA_S50G
 73
     0
 74
     0
 75
     1
 40
120.0
 41
149.591883092037
 76
     3
 10
12111.95401106101
 20
7011.745823205451
 30
0.0
 10
12239.23681392365
 20
6789.027509650626
 30
0.0
 10
12364.23681392365
 20
6789.027509650626
 30
0.0
340
1D332
1001
ACAD
1000
DSTYLE
1002
{
1070
   341
1005
0
1070
    40
1040
1.0
1070
   343
1005
0
1070
   344
1005
0
1002
}
  0
DIMENSION
  5
20DE1
330
747D
100
AcDbEntity
  8
寸法
 48
50.0
100
AcDbDimension
  2
*D19
 10
13023.6
 20
8661.657310775991
 30
0.0
 11
13294.77462120246
 21
8661.657310775991
 31
0.0
 70
   160
  1
a
 71
     5
 42
45.0
  3
INABA_S40G
100
AcDbAlignedDimension
 13
12978.6
 23
7703.436988717069
 33
0.0
 14
13023.6
 24
8429.703446810981
 34
0.0
100
AcDbRotatedDimension
1001
ACAD
1000
DSTYLE
1002
{
1070
   341
1005
0
1002
}
  0
DIMENSION
  5
20DFB
330
747D
100
AcDbEntity
  8
寸法
 48
50.0
100
AcDbDimension
  2
*D20
 10
3468.600000000001
 20
8661.657310775991
 30
0.0
 11
3152.425378797542
 21
8661.657310775991
 31
0.0
 70
   160
  1
a
 71
     5
 42
44.99999999999272
  3
INABA_S40G
100
AcDbAlignedDimension
 13
3423.600000000007
 23
8429.703446810981
 33
0.0
 14
3468.600000000001
 24
7703.436988717069
 34
0.0
100
AcDbRotatedDimension
1001
ACAD
1000
DSTYLE
1002
{
1070
   341
1005
0
1002
}
  0
LINE
  5
22711
330
747D
100
AcDbEntity
  8
想像線
 48
10.0
100
AcDbLine
 10
13023.6
 20
7778.436988717071
 30
0.0
 11
3423.6
 21
7778.436988717094
 31
0.0
  0
LINE
  5
22712
330
747D
100
AcDbEntity
  8
想像線
 48
10.0
100
AcDbLine
 10
3423.6
 20
6268.436988717078
 30
0.0
 11
3423.6
 21
7778.436988717077
 31
0.0
  0
LINE
  5
22713
330
747D
100
AcDbEntity
  8
想像線
 48
10.0
100
AcDbLine
 10
13023.6
 20
6268.436988717085
 30
0.0
 11
13023.6
 21
7778.436988717071
 31
0.0
  0
LINE
  5
22714
330
747D
100
AcDbEntity
  8
想像線
 48
10.0
100
AcDbLine
 10
13023.6
 20
6268.436988717085
 30
0.0
 11
3423.6
 21
6268.43698871706
 31
0.0
  0
DIMENSION
  5
22741
330
747D
100
AcDbEntity
  8
寸法
 48
50.0
100
AcDbDimension
  2
*D25
 10
2593.72190961068
 20
7703.436988717069
 30
0.0
 11
2493.721909610679
 21
7740.936988717073
 31
0.0
 70
    32
  1
c
 71
     5
 42
75.00000000000636
  3
INABA_S40G
100
AcDbAlignedDimension
 13
2845.665006330071
 23
7778.436988717075
 33
0.0
 14
3468.600000000001
 24
7703.436988717069
 34
0.0
 50
90.0
100
AcDbRotatedDimension
1001
ACAD
1000
DSTYLE
1002
{
1070
   341
1005
0
1002
}
  0
DIMENSION
  5
2275B
330
747D
100
AcDbEntity
  8
寸法
 48
50.0
100
AcDbDimension
  2
*D26
 10
2593.72190961068
 20
6268.436988717095
 30
0.0
 11
2493.721909610679
 21
6295.936988717084
 31
0.0
 70
    32
  1
b
 71
     5
 42
54.99999999997453
  3
INABA_S40G
100
AcDbAlignedDimension
 13
3468.600000000001
 23
6323.43698871707
 33
0.0
 14
2845.665006330079
 24
6268.436988717095
 34
0.0
 50
90.0
100
AcDbRotatedDimension
1001
ACAD
1000
DSTYLE
1002
{
1070
   341
1005
0
1002
}
  0
DIMENSION
  5
23FD9
330
747D
100
AcDbEntity
  8
寸法
 48
50.0
100
AcDbDimension
  2
*D28
 10
12297.81202022566
 20
6323.436988717087
 30
0.0
 11
12297.81202022565
 21
6036.473406039915
 31
0.0
 70
   160
 71
     5
 42
279.9999999999791
  3
INABA_S40G
100
AcDbAlignedDimension
 13
12398.59999999998
 23
6603.436988717065
 33
0.0
 14
12398.6
 24
6323.436988717087
 34
0.0
 50
90.0
100
AcDbRotatedDimension
1001
ACAD
1000
DSTYLE
1002
{
1070
   341
1005
0
1002
}
  0
DIMENSION
  5
24043
330
747D
100
AcDbEntity
  8
寸法
 48
50.0
100
AcDbDimension
  2
*D27
 10
12858.6
 20
7253.035601815179
 30
0.0
 11
13248.65905511811
 21
7253.035601815179
 31
0.0
 70
   160
 71
     5
 42
120.0000000000018
  3
INABA_S40G
100
AcDbAlignedDimension
 13
12978.6
 23
7138.436988717106
 33
0.0
 14
12858.6
 24
7138.4369887171
 34
0.0
100
AcDbRotatedDimension
1001
ACAD
1000
DSTYLE
1002
{
1070
   341
1005
0
1002
}
  0
DIMENSION
  5
27DE5
330
747D
100
AcDbEntity
  8
寸法
 48
50.0
100
AcDbDimension
  2
*D29
 10
12297.81202022566
 20
7503.436988717071
 30
0.0
 11
12297.81202022566
 21
7990.400571394227
 31
0.0
 70
   160
 71
     5
 42
199.9999999999854
  3
INABA_S40G
100
AcDbAlignedDimension
 13
12398.6
 23
7703.436988717055
 33
0.0
 14
12398.60000000001
 24
7503.436988717071
 34
0.0
 50
90.0
100
AcDbRotatedDimension
1001
ACAD
1000
DSTYLE
1002
{
1070
   341
1005
0
1002
}
  0
LINE
  5
28361
330
747D
100
AcDbEntity
  8
部品1
 48
50.0
100
AcDbLine
 10
12858.6
 20
7503.436988717068
 30
0.0
 11
3588.599999999996
 21
7503.436988717069
 31
0.0
  0
DIMENSION
  5
28362
330
747D
100
AcDbEntity
  8
寸法
 48
50.0
100
AcDbDimension
  2
*D32
 10
8223.600000000008
 20
8186.045805387317
 30
0.0
 11
8698.600000000007
 21
8286.045805387317
 31
0.0
 70
    32
 71
     5
 42
950.0
  3
INABA_S40G
100
AcDbAlignedDimension
 13
9173.600000000007
 23
7100.436988717068
 33
0.0
 14
8223.600000000008
 24
7100.436988717068
 34
0.0
100
AcDbRotatedDimension
1001
ACAD
1000
DSTYLE
1002
{
1070
   341
1005
0
1002
}
  0
DIMENSION
  5
28363
330
747D
100
AcDbEntity
  8
寸法
 48
50.0
100
AcDbDimension
  2
*D33
 10
8105.6
 20
8429.703446810981
 30
0.0
 11
9055.600000000001
 21
8529.70344681098
 31
0.0
 70
    32
 71
     5
 42
1900.0
  3
INABA_S40G
100
AcDbAlignedDimension
 13
10005.6
 23
7630.436988717069
 33
0.0
 14
8105.6
 24
7630.436988717069
 34
0.0
100
AcDbRotatedDimension
1001
ACAD
1000
DSTYLE
1002
{
1070
   341
1005
0
1002
}
  0
LINE
  5
28365
330
747D
100
AcDbEntity
  8
部品1
 48
50.0
100
AcDbLine
 10
12978.6
 20
7703.436988717069
 30
0.0
 11
3468.600000000001
 21
7703.436988717069
 31
0.0
  0
DIMENSION
  5
28366
330
747D
100
AcDbEntity
  8
寸法
 48
50.0
100
AcDbDimension
  2
*D34
 10
12978.6
 20
8661.657310775984
 30
0.0
 11
8223.600000000001
 21
8761.657310775985
 31
0.0
 70
    32
 71
     5
 42
9510.0
  3
INABA_S40G
100
AcDbAlignedDimension
 13
3468.600000000001
 23
7703.436988717069
 33
0.0
 14
12978.6
 24
7703.436988717069
 34
0.0
100
AcDbRotatedDimension
1001
ACAD
1000
DSTYLE
1002
{
1070
   341
1005
0
1002
}
  0
LINE
  5
28368
330
747D
100
AcDbEntity
  8
部品1
 48
50.0
100
AcDbLine
 10
12978.6
 20
6323.436988717103
 30
0.0
 11
3468.599999999997
 21
6323.436988717065
 31
0.0
  0
LINE
  5
28369
330
747D
100
AcDbEntity
  8
細線
 48
50.0
100
AcDbLine
 10
3468.599999999997
 20
7025.559516480196
 30
0.0
 11
3581.477472236868
 21
7138.436988717067
 31
0.0
  0
LINE
  5
2836A
330
747D
100
AcDbEntity
  8
細線
 48
50.0
100
AcDbLine
 10
3468.599999999996
 20
7070.460797085542
 30
0.0
 11
3536.576191631521
 21
7138.436988717067
 31
0.0
  0
LINE
  5
2836B
330
747D
100
AcDbEntity
  8
部品1
 48
50.0
100
AcDbLine
 10
7373.600000000007
 20
6950.436988717068
 30
0.0
 11
7373.600000000007
 21
7150.436988717068
 31
0.0
  0
LINE
  5
2836C
330
747D
100
AcDbEntity
  8
部品1
 48
50.0
100
AcDbLine
 10
7173.600000000007
 20
6950.436988717068
 30
0.0
 11
7173.600000000007
 21
7150.436988717068
 31
0.0
  0
DIMENSION
  5
2836D
330
747D
100
AcDbEntity
  8
寸法
 48
50.0
100
AcDbDimension
  2
*D35
 10
6323.600000000007
 20
8186.045805387317
 30
0.0
 11
6798.600000000007
 21
8286.045805387317
 31
0.0
 70
    32
 71
     5
 42
950.0
  3
INABA_S40G
100
AcDbAlignedDimension
 13
7273.600000000008
 23
7100.436988717068
 33
0.0
 14
6323.600000000007
 24
7100.436988717068
 34
0.0
100
AcDbRotatedDimension
1001
ACAD
1000
DSTYLE
1002
{
1070
   341
1005
0
1002
}
  0
DIMENSION
  5
2836E
330
747D
100
AcDbEntity
  8
寸法
 48
50.0
100
AcDbDimension
  2
*D36
 10
4423.600000000007
 20
8186.045805387317
 30
0.0
 11
4898.600000000008
 21
8286.045805387317
 31
0.0
 70
    32
 71
     5
 42
950.0
  3
INABA_S40G
100
AcDbAlignedDimension
 13
5373.600000000007
 23
7100.436988717068
 33
0.0
 14
4423.600000000007
 24
7100.436988717068
 34
0.0
100
AcDbRotatedDimension
1001
ACAD
1000
DSTYLE
1002
{
1070
   341
1005
0
1002
}
  0
LINE
  5
2836F
330
747D
100
AcDbEntity
  8
部品1
 48
50.0
100
AcDbLine
 10
5273.600000000008
 20
6950.436988717068
 30
0.0
 11
5273.600000000008
 21
7150.436988717068
 31
0.0
  0
LINE
  5
28370
330
747D
100
AcDbEntity
  8
部品1
 48
50.0
100
AcDbLine
 10
5473.600000000008
 20
6950.436988717068
 30
0.0
 11
5473.600000000008
 21
7150.436988717068
 31
0.0
  0
LINE
  5
28371
330
747D
100
AcDbEntity
  8
部品1
 48
50.0
100
AcDbLine
 10
8323.600000000007
 20
6950.436988717068
 30
0.0
 11
8323.600000000007
 21
7150.436988717068
 31
0.0
  0
LINE
  5
28372
330
747D
100
AcDbEntity
  8
部品1
 48
50.0
100
AcDbLine
 10
8123.600000000008
 20
6950.436988717068
 30
0.0
 11
8123.600000000008
 21
7150.436988717068
 31
0.0
  0
LINE
  5
28373
330
747D
100
AcDbEntity
  8
部品1
 48
50.0
100
AcDbLine
 10
6423.600000000007
 20
6950.436988717068
 30
0.0
 11
6423.600000000007
 21
7150.436988717068
 31
0.0
  0
LINE
  5
28376
330
747D
100
AcDbEntity
  8
部品1
 48
50.0
100
AcDbLine
 10
6223.600000000008
 20
6950.436988717068
 30
0.0
 11
6223.600000000008
 21
7150.436988717068
 31
0.0
  0
LINE
  5
28377
330
747D
100
AcDbEntity
  8
部品1
 48
50.0
100
AcDbLine
 10
4323.600000000007
 20
6950.436988717068
 30
0.0
 11
4323.600000000007
 21
7150.436988717068
 31
0.0
  0
LINE
  5
28378
330
747D
100
AcDbEntity
  8
部品1
 48
50.0
100
AcDbLine
 10
4523.600000000008
 20
6950.436988717068
 30
0.0
 11
4523.600000000008
 21
7150.436988717068
 31
0.0
  0
DIMENSION
  5
28379
330
747D
100
AcDbEntity
  8
寸法
 48
50.0
100
AcDbDimension
  2
*D37
 10
2845.665006330072
 20
6521.436988717072
 30
0.0
 11
2845.665006330071
 21
7050.936988717069
 31
0.0
 70
   160
 71
     5
 42
1058.999999999996
  3
INABA_S40G
100
AcDbAlignedDimension
 13
3541.600000000001
 23
7580.436988717069
 33
0.0
 14
3541.600000000008
 24
6521.436988717072
 34
0.0
 50
90.0
100
AcDbRotatedDimension
1001
ACAD
1000
DSTYLE
1002
{
1070
   341
1005
0
1002
}
  0
DIMENSION
  5
2837A
330
747D
100
AcDbEntity
  8
寸法
 48
50.0
100
AcDbDimension
  2
*D38
 10
2593.721909610674
 20
6323.436988717069
 30
0.0
 11
2593.721909610673
 21
7050.936988717069
 31
0.0
 70
   160
 71
     5
 42
1380.0
  3
INABA_S40G
100
AcDbAlignedDimension
 13
3468.600000000001
 23
7703.436988717069
 33
0.0
 14
3468.600000000001
 24
6323.436988717069
 34
0.0
 50
90.0
100
AcDbRotatedDimension
1001
ACAD
1000
DSTYLE
1002
{
1070
   341
1005
0
1002
}
  0
LINE
  5
2837C
330
747D
100
AcDbEntity
  8
部品1
 48
50.0
100
AcDbLine
 10
3468.600000000001
 20
6323.436988717069
 30
0.0
 11
3468.600000000001
 21
7703.436988717069
 31
0.0
  0
DIMENSION
  5
2837E
330
747D
100
AcDbEntity
  8
寸法
 48
50.0
100
AcDbDimension
  2
*D39
 10
3951.285990614303
 20
7703.436988717069
 30
0.0
 11
3951.285990614302
 21
7283.010524699054
 31
0.0
 70
   160
 71
     5
 42
653.0
  3
INABA_S40G
100
AcDbAlignedDimension
 13
4373.600000000007
 23
7050.436988717068
 33
0.0
 14
4042.765475140901
 24
7703.436988717069
 34
0.0
 50
90.0
100
AcDbRotatedDimension
1001
ACAD
1000
DSTYLE
1002
{
1070
   341
1005
0
1002
}
  0
DIMENSION
  5
2837F
330
747D
100
AcDbEntity
  8
寸法
 48
50.0
100
AcDbDimension
  2
*D40
 10
3468.600000000001
 20
8186.045805387317
 30
0.0
 11
3946.100000000004
 21
8286.045805387317
 31
0.0
 70
    32
 71
     5
 42
955.0000000000073
  3
INABA_S40G
100
AcDbAlignedDimension
 13
4423.600000000007
 23
7100.436988717068
 33
0.0
 14
3468.600000000001
 24
7703.436988717069
 34
0.0
100
AcDbRotatedDimension
1001
ACAD
1000
DSTYLE
1002
{
1070
   341
1005
0
1002
}
  0
DIMENSION
  5
28380
330
747D
100
AcDbEntity
  8
寸法
 48
50.0
100
AcDbDimension
  2
*D41
 10
5373.600000000007
 20
8186.045805387317
 30
0.0
 11
5848.600000000008
 21
8286.045805387317
 31
0.0
 70
    32
 71
     5
 42
950.0
  3
INABA_S40G
100
AcDbAlignedDimension
 13
6323.600000000007
 23
7100.436988717068
 33
0.0
 14
5373.600000000007
 24
7100.436988717068
 34
0.0
100
AcDbRotatedDimension
1001
ACAD
1000
DSTYLE
1002
{
1070
   341
1005
0
1002
}
  0
DIMENSION
  5
28381
330
747D
100
AcDbEntity
  8
寸法
 48
50.0
100
AcDbDimension
  2
*D42
 10
7273.600000000008
 20
8186.045805387317
 30
0.0
 11
7748.600000000007
 21
8286.045805387317
 31
0.0
 70
    32
 71
     5
 42
950.0
  3
INABA_S40G
100
AcDbAlignedDimension
 13
8223.600000000008
 23
7100.436988717068
 33
0.0
 14
7273.600000000008
 24
7100.436988717068
 34
0.0
100
AcDbRotatedDimension
1001
ACAD
1000
DSTYLE
1002
{
1070
   341
1005
0
1002
}
  0
LINE
  5
28383
330
747D
100
AcDbEntity
  8
細線
 48
50.0
100
AcDbLine
 10
3516.181314052905
 20
6938.436988717068
 30
0.0
 11
3588.599999999998
 21
7010.85567466416
 31
0.0
  0
LINE
  5
28384
330
747D
100
AcDbEntity
  8
細線
 48
50.0
100
AcDbLine
 10
3471.280033447559
 20
6938.436988717068
 30
0.0
 11
3588.599999999998
 21
7055.756955269507
 31
0.0
  0
LINE
  5
28385
330
747D
100
AcDbEntity
  8
細線
 48
50.0
100
AcDbLine
 10
3468.599999999997
 20
6980.65823587485
 30
0.0
 11
3588.599999999998
 21
7100.65823587485
 31
0.0
  0
LINE
  5
28386
330
747D
100
AcDbEntity
  8
部品1
 48
50.0
100
AcDbLine
 10
3588.599999999999
 20
6938.436988717068
 30
0.0
 11
3468.599999999997
 21
6938.436988717068
 31
0.0
  0
DIMENSION
  5
28387
330
747D
100
AcDbEntity
  8
寸法
 48
50.0
100
AcDbDimension
  2
*D43
 10
2845.665006330072
 20
6323.436988717069
 30
0.0
 11
2845.665006330071
 21
5987.906039874477
 31
0.0
 70
   160
 71
     5
 42
198.0000000000036
  3
INABA_S40G
100
AcDbAlignedDimension
 13
3541.600000000008
 23
6521.436988717072
 33
0.0
 14
3468.600000000001
 24
6323.436988717069
 34
0.0
 50
90.0
100
AcDbRotatedDimension
1001
ACAD
1000
DSTYLE
1002
{
1070
   341
1005
0
1002
}
  0
DIMENSION
  5
28388
330
747D
100
AcDbEntity
  8
寸法
 48
50.0
100
AcDbDimension
  2
*D44
 10
3355.512673767881
 20
5603.436988717065
 30
0.0
 11
3355.512673767881
 21
5963.436988717067
 31
0.0
 70
   160
  1
扉の出<>
 71
     5
 42
720.0
  3
INABA_S40G
100
AcDbAlignedDimension
 13
3468.600000000004
 23
6323.436988717065
 33
0.0
 14
3824.325326928809
 24
5603.436988717065
 34
0.0
 50
90.0
100
AcDbRotatedDimension
1001
ACAD
1000
DSTYLE
1002
{
1070
   341
1005
0
1002
}
  0
ARC
  5
28389
330
747D
100
AcDbEntity
  8
想像線
 48
5.0
100
AcDbCircle
 10
4238.600000000004
 20
6323.436988717072
 30
0.0
 40
720.0
100
AcDbArc
 50
180.0
 51
270.0
  0
LINE
  5
2838B
330
747D
100
AcDbEntity
  8
想像線
 48
5.0
100
AcDbLine
 10
4238.600000000004
 20
6323.436988717084
 30
0.0
 11
4238.600000000004
 21
5603.436988717072
 31
0.0
  0
LINE
  5
2838C
330
747D
100
AcDbEntity
  8
部品1
 48
50.0
100
AcDbLine
 10
4523.600000000008
 20
6950.436988717068
 30
0.0
 11
4323.600000000007
 21
6950.436988717068
 31
0.0
  0
DIMENSION
  5
2838D
330
747D
100
AcDbEntity
  8
寸法
 48
50.0
100
AcDbDimension
  2
*D45
 10
3951.285990614302
 20
7050.436988717068
 30
0.0
 11
3951.285990614301
 21
6765.436988717069
 31
0.0
 70
   160
 71
     5
 42
726.9999999999891
  3
INABA_S40G
100
AcDbAlignedDimension
 13
4042.765475140901
 23
6323.43698871708
 33
0.0
 14
4373.600000000007
 24
7050.436988717068
 34
0.0
 50
90.0
100
AcDbRotatedDimension
1001
ACAD
1000
DSTYLE
1002
{
1070
   341
1005
0
1002
}
  0
LINE
  5
2838E
330
747D
100
AcDbEntity
  8
部品1
 48
50.0
100
AcDbLine
 10
4048.599999999985
 20
6603.436988717067
 30
0.0
 11
4048.599999999991
 21
6323.436988717109
 31
0.0
  0
LINE
  5
2838F
330
747D
100
AcDbEntity
  8
細線
 48
50.0
100
AcDbLine
 10
3848.59999999999
 20
6457.040307400068
 30
0.0
 11
3994.996681316988
 21
6603.436988717065
 31
0.0
  0
LINE
  5
28390
330
747D
100
AcDbEntity
  8
細線
 48
50.0
100
AcDbLine
 10
3848.59999999999
 20
6412.139026794723
 30
0.0
 11
4039.897961922329
 21
6603.436988717068
 31
0.0
  0
LINE
  5
28391
330
747D
100
AcDbEntity
  8
細線
 48
50.0
100
AcDbLine
 10
3848.599999999988
 20
6501.941588005417
 30
0.0
 11
3950.095400711641
 21
6603.436988717065
 31
0.0
  0
LINE
  5
28392
330
747D
100
AcDbEntity
  8
部品1
 48
50.0
100
AcDbLine
 10
3848.599999999986
 20
6603.436988717065
 30
0.0
 11
3848.599999999991
 21
6323.436988717105
 31
0.0
  0
LINE
  5
28393
330
747D
100
AcDbEntity
  8
細線
 48
50.0
100
AcDbLine
 10
3848.59999999999
 20
6367.237746189378
 30
0.0
 11
4048.599999999986
 21
6567.237746189372
 31
0.0
  0
LINE
  5
28394
330
747D
100
AcDbEntity
  8
細線
 48
50.0
100
AcDbLine
 10
3849.700523133066
 20
6323.436988717105
 30
0.0
 11
4048.599999999986
 21
6522.336465584029
 31
0.0
  0
LINE
  5
28395
330
747D
100
AcDbEntity
  8
センター
 48
2.0
100
AcDbLine
 10
3591.600000000008
 20
6571.436988717072
 30
0.0
 11
3591.600000000008
 21
6471.436988717072
 31
0.0
  0
CIRCLE
  5
28396
330
747D
100
AcDbEntity
  8
部品1
 48
50.0
100
AcDbCircle
 10
3591.599999999993
 20
6521.436988717072
 30
0.0
 40
35.0
  0
LINE
  5
28397
330
747D
100
AcDbEntity
  8
細線
 48
50.0
100
AcDbLine
 10
3894.601803738412
 20
6323.436988717107
 30
0.0
 11
4048.599999999987
 21
6477.435184978682
 31
0.0
  0
LINE
  5
28398
330
747D
100
AcDbEntity
  8
センター
 48
2.0
100
AcDbLine
 10
3541.600000000008
 20
6521.436988717072
 30
0.0
 11
3641.600000000007
 21
6521.436988717072
 31
0.0
  0
LINE
  5
28399
330
747D
100
AcDbEntity
  8
細線
 48
50.0
100
AcDbLine
 10
4029.30564555445
 20
6323.436988717109
 30
0.0
 11
4048.599999999993
 21
6342.731343162654
 31
0.0
  0
LINE
  5
2839A
330
747D
100
AcDbEntity
  8
細線
 48
50.0
100
AcDbLine
 10
3939.503084343758
 20
6323.436988717107
 30
0.0
 11
4048.599999999993
 21
6432.533904373343
 31
0.0
  0
LINE
  5
2839B
330
747D
100
AcDbEntity
  8
細線
 48
50.0
100
AcDbLine
 10
3984.404364949105
 20
6323.436988717109
 30
0.0
 11
4048.599999999993
 21
6387.632623767997
 31
0.0
  0
LINE
  5
2839C
330
747D
100
AcDbEntity
  8
細線
 48
50.0
100
AcDbLine
 10
3848.599999999986
 20
6546.842868610756
 30
0.0
 11
3905.194120106297
 21
6603.436988717067
 31
0.0
  0
LINE
  5
2839D
330
747D
100
AcDbEntity
  8
細線
 48
50.0
100
AcDbLine
 10
3561.08259465825
 20
6938.436988717064
 30
0.0
 11
3588.599999999998
 21
6965.954394058815
 31
0.0
  0
LINE
  5
283A9
330
747D
100
AcDbEntity
  8
センター
 48
2.0
100
AcDbLine
 10
4373.600000000007
 20
7050.436988717068
 30
0.0
 11
4473.600000000007
 21
7050.436988717068
 31
0.0
  0
LINE
  5
283AA
330
747D
100
AcDbEntity
  8
センター
 48
2.0
100
AcDbLine
 10
4423.600000000007
 20
7100.436988717068
 30
0.0
 11
4423.600000000007
 21
7000.436988717068
 31
0.0
  0
LINE
  5
283BD
330
747D
100
AcDbEntity
  8
センター
 48
2.0
100
AcDbLine
 10
5323.600000000007
 20
7050.436988717068
 30
0.0
 11
5423.600000000007
 21
7050.436988717068
 31
0.0
  0
LINE
  5
283BE
330
747D
100
AcDbEntity
  8
部品1
 48
50.0
100
AcDbLine
 10
5473.600000000008
 20
6950.436988717068
 30
0.0
 11
5273.600000000008
 21
6950.436988717068
 31
0.0
  0
LINE
  5
283BF
330
747D
100
AcDbEntity
  8
センター
 48
2.0
100
AcDbLine
 10
5373.600000000007
 20
7100.436988717068
 30
0.0
 11
5373.600000000007
 21
7000.436988717068
 31
0.0
  0
LINE
  5
283C3
330
747D
100
AcDbEntity
  8
センター
 48
2.0
100
AcDbLine
 10
6205.600000000006
 20
6571.436988717072
 30
0.0
 11
6205.600000000006
 21
6471.436988717072
 31
0.0
  0
CIRCLE
  5
283C4
330
747D
100
AcDbEntity
  8
部品1
 48
50.0
100
AcDbCircle
 10
6205.600000000006
 20
6521.436988717072
 30
0.0
 40
35.0
  0
LINE
  5
283C5
330
747D
100
AcDbEntity
  8
センター
 48
2.0
100
AcDbLine
 10
6155.600000000006
 20
6521.436988717072
 30
0.0
 11
6255.600000000006
 21
6521.436988717072
 31
0.0
  0
LINE
  5
283C6
330
747D
100
AcDbEntity
  8
部品1
 48
50.0
100
AcDbLine
 10
6423.600000000007
 20
6950.436988717068
 30
0.0
 11
6223.600000000008
 21
6950.436988717068
 31
0.0
  0
LINE
  5
283C7
330
747D
100
AcDbEntity
  8
センター
 48
2.0
100
AcDbLine
 10
6273.600000000008
 20
7050.436988717068
 30
0.0
 11
6373.600000000007
 21
7050.436988717068
 31
0.0
  0
LINE
  5
283C8
330
747D
100
AcDbEntity
  8
センター
 48
2.0
100
AcDbLine
 10
6323.600000000007
 20
7100.436988717068
 30
0.0
 11
6323.600000000007
 21
7000.436988717068
 31
0.0
  0
LINE
  5
283CD
330
747D
100
AcDbEntity
  8
部品1
 48
50.0
100
AcDbLine
 10
7373.600000000007
 20
6950.436988717068
 30
0.0
 11
7173.600000000007
 21
6950.436988717068
 31
0.0
  0
LINE
  5
283CE
330
747D
100
AcDbEntity
  8
センター
 48
2.0
100
AcDbLine
 10
7223.600000000008
 20
7050.436988717068
 30
0.0
 11
7323.600000000007
 21
7050.436988717068
 31
0.0
  0
LINE
  5
283CF
330
747D
100
AcDbEntity
  8
センター
 48
2.0
100
AcDbLine
 10
7273.600000000008
 20
7100.436988717068
 30
0.0
 11
7273.600000000008
 21
7000.436988717068
 31
0.0
  0
LINE
  5
283D7
330
747D
100
AcDbEntity
  8
センター
 48
2.0
100
AcDbLine
 10
8105.600000000007
 20
6571.436988717072
 30
0.0
 11
8105.600000000007
 21
6471.436988717072
 31
0.0
  0
CIRCLE
  5
283D8
330
747D
100
AcDbEntity
  8
部品1
 48
50.0
100
AcDbCircle
 10
8105.600000000007
 20
6521.436988717072
 30
0.0
 40
35.0
  0
TEXT
  5
283DD
330
747D
100
AcDbEntity
  8
寸法
 48
50.0
100
AcDbText
 10
8234.538968767461
 20
6342.118279509807
 30
0.0
 40
120.0
  1
扉面
  7
STYLE1
100
AcDbText
  0
LINE
  5
283DE
330
747D
100
AcDbEntity
  8
センター
 48
2.0
100
AcDbLine
 10
8055.600000000008
 20
6521.436988717072
 30
0.0
 11
8155.600000000008
 21
6521.436988717072
 31
0.0
  0
LINE
  5
283E0
330
747D
100
AcDbEntity
  8
センター
 48
2.0
100
AcDbLine
 10
8173.600000000007
 20
7050.436988717068
 30
0.0
 11
8273.600000000007
 21
7050.436988717068
 31
0.0
  0
LINE
  5
283E1
330
747D
100
AcDbEntity
  8
部品1
 48
50.0
100
AcDbLine
 10
8323.600000000007
 20
6950.436988717068
 30
0.0
 11
8123.600000000008
 21
6950.436988717068
 31
0.0
  0
LINE
  5
283E2
330
747D
100
AcDbEntity
  8
センター
 48
2.0
100
AcDbLine
 10
8223.600000000008
 20
7100.436988717068
 30
0.0
 11
8223.600000000008
 21
7000.436988717068
 31
0.0
  0
DIMENSION
  5
283E3
330
747D
100
AcDbEntity
  8
寸法
 48
50.0
100
AcDbDimension
  2
*D46
 10
3591.600000000001
 20
8429.703446810981
 30
0.0
 11
4898.6
 21
8529.715257834601
 31
0.0
 70
    32
 71
     5
 42
2614.0
  3
INABA_S40G
100
AcDbAlignedDimension
 13
6205.6
 23
7630.436988717069
 33
0.0
 14
3591.600000000001
 24
7630.436988717069
 34
0.0
100
AcDbRotatedDimension
1001
ACAD
1000
DSTYLE
1002
{
1070
   341
1005
0
1002
}
  0
LINE
  5
283E4
330
747D
100
AcDbEntity
  8
部品1
 48
50.0
100
AcDbLine
 10
3588.599999999998
 20
7138.436988717067
 30
0.0
 11
3468.599999999997
 21
7138.436988717067
 31
0.0
  0
DIMENSION
  5
283E5
330
747D
100
AcDbEntity
  8
寸法
 48
50.0
100
AcDbDimension
  2
*D47
 10
3468.600000000001
 20
8429.703446810981
 30
0.0
 11
3195.493398282203
 21
8429.703446810981
 31
0.0
 70
   160
 71
     5
 42
123.0
  3
INABA_S40G
100
AcDbAlignedDimension
 13
3591.600000000001
 23
7630.436988717069
 33
0.0
 14
3468.600000000001
 24
7703.436988717069
 34
0.0
100
AcDbRotatedDimension
1001
ACAD
1000
DSTYLE
1002
{
1070
   341
1005
0
1002
}
  0
DIMENSION
  5
283E6
330
747D
100
AcDbEntity
  8
寸法
 48
50.0
100
AcDbDimension
  2
*D48
 10
2845.665006330073
 20
7580.436988717069
 30
0.0
 11
2845.665006330071
 21
7976.543590434868
 31
0.0
 70
   160
 71
     5
 42
123.0
  3
INABA_S40G
100
AcDbAlignedDimension
 13
3468.600000000001
 23
7703.436988717069
 33
0.0
 14
3541.600000000001
 24
7580.436988717069
 34
0.0
 50
90.0
100
AcDbRotatedDimension
1001
ACAD
1000
DSTYLE
1002
{
1070
   341
1005
0
1002
}
  0
LINE
  5
283E9
330
747D
100
AcDbEntity
  8
細線
 48
50.0
100
AcDbLine
 10
3468.599999999997
 20
7115.362077690888
 30
0.0
 11
3491.674911026176
 21
7138.436988717067
 31
0.0
  0
LINE
  5
283EA
330
747D
100
AcDbEntity
  8
部品1
 48
50.0
100
AcDbLine
 10
4523.600000000008
 20
7150.436988717068
 30
0.0
 11
4323.600000000007
 21
7150.436988717068
 31
0.0
  0
LINE
  5
283EB
330
747D
100
AcDbEntity
  8
部品1
 48
50.0
100
AcDbLine
 10
4048.599999999989
 20
7703.436988717097
 30
0.0
 11
4048.599999999996
 21
7503.436988717071
 31
0.0
  0
LINE
  5
283EC
330
747D
100
AcDbEntity
  8
細線
 48
50.0
100
AcDbLine
 10
3848.599999999994
 20
7595.460797085594
 30
0.0
 11
3956.576191631495
 21
7703.436988717093
 31
0.0
  0
LINE
  5
283ED
330
747D
100
AcDbEntity
  8
細線
 48
50.0
100
AcDbLine
 10
3848.599999999995
 20
7550.559516480252
 30
0.0
 11
4001.477472236842
 21
7703.436988717093
 31
0.0
  0
LINE
  5
283EE
330
747D
100
AcDbEntity
  8
部品1
 48
50.0
100
AcDbLine
 10
3848.59999999999
 20
7703.436988717097
 30
0.0
 11
3848.599999999997
 21
7503.436988717071
 31
0.0
  0
LINE
  5
283EF
330
747D
100
AcDbEntity
  8
細線
 48
50.0
100
AcDbLine
 10
3848.599999999994
 20
7640.362077690939
 30
0.0
 11
3911.67491102615
 21
7703.436988717097
 31
0.0
  0
LINE
  5
283F0
330
747D
100
AcDbEntity
  8
細線
 48
50.0
100
AcDbLine
 10
3848.599999999997
 20
7505.658235874905
 30
0.0
 11
4046.378752842187
 21
7703.436988717093
 31
0.0
  0
LINE
  5
283F1
330
747D
100
AcDbEntity
  8
細線
 48
50.0
100
AcDbLine
 10
3891.280033447502
 20
7503.436988717068
 30
0.0
 11
4048.599999999991
 21
7660.756955269554
 31
0.0
  0
LINE
  5
283F2
330
747D
100
AcDbEntity
  8
センター
 48
2.0
100
AcDbLine
 10
3541.600000000001
 20
7580.436988717069
 30
0.0
 11
3641.6
 21
7580.436988717069
 31
0.0
  0
CIRCLE
  5
283F3
330
747D
100
AcDbEntity
  8
部品1
 48
50.0
100
AcDbCircle
 10
3591.600000000001
 20
7580.436988717069
 30
0.0
 40
35.0
  0
LINE
  5
283F4
330
747D
100
AcDbEntity
  8
センター
 48
2.0
100
AcDbLine
 10
3591.600000000001
 20
7630.436988717069
 30
0.0
 11
3591.600000000001
 21
7530.436988717069
 31
0.0
  0
LINE
  5
283F5
330
747D
100
AcDbEntity
  8
細線
 48
50.0
100
AcDbLine
 10
3936.181314052851
 20
7503.436988717067
 30
0.0
 11
4048.599999999993
 21
7615.85567466421
 31
0.0
  0
LINE
  5
283F6
330
747D
100
AcDbEntity
  8
細線
 48
50.0
100
AcDbLine
 10
3981.082594658196
 20
7503.436988717068
 30
0.0
 11
4048.599999999995
 21
7570.954394058865
 31
0.0
  0
LINE
  5
283F7
330
747D
100
AcDbEntity
  8
細線
 48
50.0
100
AcDbLine
 10
4025.983875263542
 20
7503.436988717068
 30
0.0
 11
4048.599999999996
 21
7526.053113453521
 31
0.0
  0
LINE
  5
283F8
330
747D
100
AcDbEntity
  8
細線
 48
50.0
100
AcDbLine
 10
3848.599999999991
 20
7685.263358296281
 30
0.0
 11
3866.773630420805
 21
7703.436988717098
 31
0.0
  0
LINE
  5
283F9
330
747D
100
AcDbEntity
  8
部品1
 48
50.0
100
AcDbLine
 10
4998.599999999989
 20
7703.436988717097
 30
0.0
 11
4998.599999999997
 21
7503.436988717071
 31
0.0
  0
LINE
  5
283FA
330
747D
100
AcDbEntity
  8
部品1
 48
50.0
100
AcDbLine
 10
4798.599999999989
 20
7703.436988717097
 30
0.0
 11
4798.599999999996
 21
7503.436988717071
 31
0.0
  0
LINE
  5
283FB
330
747D
100
AcDbEntity
  8
細線
 48
50.0
100
AcDbLine
 10
4798.599999999996
 20
7505.658235874905
 30
0.0
 11
4996.378752842187
 21
7703.436988717093
 31
0.0
  0
LINE
  5
283FC
330
747D
100
AcDbEntity
  8
細線
 48
50.0
100
AcDbLine
 10
4798.599999999993
 20
7640.362077690939
 30
0.0
 11
4861.67491102615
 21
7703.436988717097
 31
0.0
  0
LINE
  5
283FD
330
747D
100
AcDbEntity
  8
細線
 48
50.0
100
AcDbLine
 10
4798.599999999995
 20
7550.559516480252
 30
0.0
 11
4951.477472236842
 21
7703.436988717093
 31
0.0
  0
LINE
  5
283FE
330
747D
100
AcDbEntity
  8
細線
 48
50.0
100
AcDbLine
 10
4798.599999999993
 20
7595.460797085594
 30
0.0
 11
4906.576191631495
 21
7703.436988717093
 31
0.0
  0
LINE
  5
283FF
330
747D
100
AcDbEntity
  8
細線
 48
50.0
100
AcDbLine
 10
4931.082594658196
 20
7503.436988717068
 30
0.0
 11
4998.599999999995
 21
7570.954394058865
 31
0.0
  0
LINE
  5
28400
330
747D
100
AcDbEntity
  8
細線
 48
50.0
100
AcDbLine
 10
4886.181314052851
 20
7503.436988717067
 30
0.0
 11
4998.599999999993
 21
7615.85567466421
 31
0.0
  0
LINE
  5
28401
330
747D
100
AcDbEntity
  8
細線
 48
50.0
100
AcDbLine
 10
4841.280033447501
 20
7503.436988717068
 30
0.0
 11
4998.599999999991
 21
7660.756955269554
 31
0.0
  0
LINE
  5
28402
330
747D
100
AcDbEntity
  8
細線
 48
50.0
100
AcDbLine
 10
4975.983875263542
 20
7503.436988717068
 30
0.0
 11
4998.599999999997
 21
7526.053113453521
 31
0.0
  0
LINE
  5
28403
330
747D
100
AcDbEntity
  8
細線
 48
50.0
100
AcDbLine
 10
4798.599999999991
 20
7685.263358296281
 30
0.0
 11
4816.773630420804
 21
7703.436988717098
 31
0.0
  0
LINE
  5
28404
330
747D
100
AcDbEntity
  8
細線
 48
50.0
100
AcDbLine
 10
6698.599999999995
 20
7550.559516480319
 30
0.0
 11
6851.477472236841
 21
7703.436988717164
 31
0.0
  0
LINE
  5
28405
330
747D
100
AcDbEntity
  8
細線
 48
50.0
100
AcDbLine
 10
6698.599999999996
 20
7505.658235874975
 30
0.0
 11
6896.378752842188
 21
7703.436988717164
 31
0.0
  0
LINE
  5
28406
330
747D
100
AcDbEntity
  8
細線
 48
50.0
100
AcDbLine
 10
6698.599999999993
 20
7595.460797085663
 30
0.0
 11
6806.576191631496
 21
7703.436988717164
 31
0.0
  0
LINE
  5
28407
330
747D
100
AcDbEntity
  8
細線
 48
50.0
100
AcDbLine
 10
6741.280033447501
 20
7503.436988717138
 30
0.0
 11
6898.599999999992
 21
7660.756955269622
 31
0.0
  0
LINE
  5
28408
330
747D
100
AcDbEntity
  8
細線
 48
50.0
100
AcDbLine
 10
6786.181314052853
 20
7503.436988717137
 30
0.0
 11
6898.599999999993
 21
7615.855674664278
 31
0.0
  0
DIMENSION
  5
28409
330
747D
100
AcDbEntity
  8
寸法
 48
50.0
100
AcDbDimension
  2
*D49
 10
6205.6
 20
8429.703446810981
 30
0.0
 11
7155.600000000001
 21
8529.70344681098
 31
0.0
 70
    32
 71
     5
 42
1900.0
  3
INABA_S40G
100
AcDbAlignedDimension
 13
8105.6
 23
7630.436988717069
 33
0.0
 14
6205.6
 24
7630.436988717069
 34
0.0
100
AcDbRotatedDimension
1001
ACAD
1000
DSTYLE
1002
{
1070
   341
1005
0
1002
}
  0
LINE
  5
2840A
330
747D
100
AcDbEntity
  8
部品1
 48
50.0
100
AcDbLine
 10
5948.59999999999
 20
7703.436988717097
 30
0.0
 11
5948.599999999997
 21
7503.436988717071
 31
0.0
  0
LINE
  5
2840B
330
747D
100
AcDbEntity
  8
細線
 48
50.0
100
AcDbLine
 10
5748.599999999993
 20
7595.460797085594
 30
0.0
 11
5856.576191631496
 21
7703.436988717093
 31
0.0
  0
LINE
  5
2840C
330
747D
100
AcDbEntity
  8
細線
 48
50.0
100
AcDbLine
 10
5748.599999999993
 20
7640.362077690939
 30
0.0
 11
5811.67491102615
 21
7703.436988717097
 31
0.0
  0
LINE
  5
2840D
330
747D
100
AcDbEntity
  8
部品1
 48
50.0
100
AcDbLine
 10
5748.599999999989
 20
7703.436988717097
 30
0.0
 11
5748.599999999997
 21
7503.436988717071
 31
0.0
  0
LINE
  5
2840E
330
747D
100
AcDbEntity
  8
細線
 48
50.0
100
AcDbLine
 10
5748.599999999995
 20
7550.559516480252
 30
0.0
 11
5901.477472236842
 21
7703.436988717093
 31
0.0
  0
LINE
  5
2840F
330
747D
100
AcDbEntity
  8
細線
 48
50.0
100
AcDbLine
 10
5748.599999999997
 20
7505.658235874905
 30
0.0
 11
5946.378752842187
 21
7703.436988717093
 31
0.0
  0
LINE
  5
28411
330
747D
100
AcDbEntity
  8
部品1
 48
50.0
100
AcDbLine
 10
5473.600000000008
 20
7150.436988717068
 30
0.0
 11
5273.600000000008
 21
7150.436988717068
 31
0.0
  0
LINE
  5
28412
330
747D
100
AcDbEntity
  8
細線
 48
50.0
100
AcDbLine
 10
5881.082594658195
 20
7503.436988717068
 30
0.0
 11
5948.599999999995
 21
7570.954394058865
 31
0.0
  0
LINE
  5
28413
330
747D
100
AcDbEntity
  8
細線
 48
50.0
100
AcDbLine
 10
5925.983875263542
 20
7503.436988717068
 30
0.0
 11
5948.599999999997
 21
7526.053113453521
 31
0.0
  0
LINE
  5
28414
330
747D
100
AcDbEntity
  8
細線
 48
50.0
100
AcDbLine
 10
5791.280033447502
 20
7503.436988717068
 30
0.0
 11
5948.599999999991
 21
7660.756955269554
 31
0.0
  0
LINE
  5
28415
330
747D
100
AcDbEntity
  8
細線
 48
50.0
100
AcDbLine
 10
5836.181314052852
 20
7503.436988717067
 30
0.0
 11
5948.599999999993
 21
7615.85567466421
 31
0.0
  0
LINE
  5
28416
330
747D
100
AcDbEntity
  8
細線
 48
50.0
100
AcDbLine
 10
5748.599999999991
 20
7685.263358296281
 30
0.0
 11
5766.773630420805
 21
7703.436988717098
 31
0.0
  0
LINE
  5
28417
330
747D
100
AcDbEntity
  8
部品1
 48
50.0
100
AcDbLine
 10
6698.599999999989
 20
7703.436988717164
 30
0.0
 11
6698.599999999996
 21
7503.436988717139
 31
0.0
  0
LINE
  5
28418
330
747D
100
AcDbEntity
  8
細線
 48
50.0
100
AcDbLine
 10
6698.599999999993
 20
7640.362077691008
 30
0.0
 11
6761.674911026152
 21
7703.436988717164
 31
0.0
  0
LINE
  5
28419
330
747D
100
AcDbEntity
  8
部品1
 48
50.0
100
AcDbLine
 10
6423.600000000007
 20
7150.436988717068
 30
0.0
 11
6223.600000000008
 21
7150.436988717068
 31
0.0
  0
LINE
  5
2841A
330
747D
100
AcDbEntity
  8
センター
 48
2.0
100
AcDbLine
 10
6155.6
 20
7580.436988717069
 30
0.0
 11
6255.600000000001
 21
7580.436988717069
 31
0.0
  0
CIRCLE
  5
2841B
330
747D
100
AcDbEntity
  8
部品1
 48
50.0
100
AcDbCircle
 10
6205.6
 20
7580.436988717069
 30
0.0
 40
35.0
  0
LINE
  5
2841C
330
747D
100
AcDbEntity
  8
センター
 48
2.0
100
AcDbLine
 10
6205.6
 20
7630.436988717069
 30
0.0
 11
6205.6
 21
7530.436988717069
 31
0.0
  0
LINE
  5
2841D
330
747D
100
AcDbEntity
  8
細線
 48
50.0
100
AcDbLine
 10
6698.599999999991
 20
7685.26335829635
 30
0.0
 11
6716.773630420805
 21
7703.436988717168
 31
0.0
  0
LINE
  5
2841E
330
747D
100
AcDbEntity
  8
部品1
 48
50.0
100
AcDbLine
 10
6898.599999999989
 20
7703.436988717164
 30
0.0
 11
6898.599999999998
 21
7503.436988717139
 31
0.0
  0
LINE
  5
2841F
330
747D
100
AcDbEntity
  8
部品1
 48
50.0
100
AcDbLine
 10
7373.600000000007
 20
7150.436988717068
 30
0.0
 11
7173.600000000007
 21
7150.436988717068
 31
0.0
  0
LINE
  5
28420
330
747D
100
AcDbEntity
  8
細線
 48
50.0
100
AcDbLine
 10
6831.082594658197
 20
7503.436988717138
 30
0.0
 11
6898.599999999994
 21
7570.954394058934
 31
0.0
  0
LINE
  5
28421
330
747D
100
AcDbEntity
  8
細線
 48
50.0
100
AcDbLine
 10
6875.983875263544
 20
7503.436988717138
 30
0.0
 11
6898.599999999998
 21
7526.053113453591
 31
0.0
  0
LINE
  5
28422
330
747D
100
AcDbEntity
  8
部品1
 48
50.0
100
AcDbLine
 10
7848.599999999989
 20
7703.436988717164
 30
0.0
 11
7848.599999999997
 21
7503.436988717139
 31
0.0
  0
LINE
  5
28423
330
747D
100
AcDbEntity
  8
部品1
 48
50.0
100
AcDbLine
 10
7648.599999999989
 20
7703.436988717164
 30
0.0
 11
7648.599999999998
 21
7503.436988717139
 31
0.0
  0
LINE
  5
28424
330
747D
100
AcDbEntity
  8
細線
 48
50.0
100
AcDbLine
 10
7648.599999999993
 20
7640.362077691008
 30
0.0
 11
7711.674911026152
 21
7703.436988717164
 31
0.0
  0
LINE
  5
28425
330
747D
100
AcDbEntity
  8
細線
 48
50.0
100
AcDbLine
 10
7648.599999999998
 20
7505.658235874975
 30
0.0
 11
7846.378752842188
 21
7703.436988717164
 31
0.0
  0
LINE
  5
28426
330
747D
100
AcDbEntity
  8
細線
 48
50.0
100
AcDbLine
 10
7648.599999999994
 20
7550.559516480319
 30
0.0
 11
7801.477472236841
 21
7703.436988717164
 31
0.0
  0
LINE
  5
28427
330
747D
100
AcDbEntity
  8
細線
 48
50.0
100
AcDbLine
 10
7648.599999999993
 20
7595.460797085663
 30
0.0
 11
7756.576191631495
 21
7703.436988717164
 31
0.0
  0
LINE
  5
28428
330
747D
100
AcDbEntity
  8
細線
 48
50.0
100
AcDbLine
 10
7825.983875263545
 20
7503.436988717138
 30
0.0
 11
7848.599999999997
 21
7526.053113453591
 31
0.0
  0
LINE
  5
28429
330
747D
100
AcDbEntity
  8
細線
 48
50.0
100
AcDbLine
 10
7781.082594658197
 20
7503.436988717138
 30
0.0
 11
7848.599999999994
 21
7570.954394058934
 31
0.0
  0
LINE
  5
2842A
330
747D
100
AcDbEntity
  8
細線
 48
50.0
100
AcDbLine
 10
7736.181314052853
 20
7503.436988717137
 30
0.0
 11
7848.599999999994
 21
7615.855674664278
 31
0.0
  0
LINE
  5
2842B
330
747D
100
AcDbEntity
  8
細線
 48
50.0
100
AcDbLine
 10
7691.280033447502
 20
7503.436988717138
 30
0.0
 11
7848.599999999992
 21
7660.756955269622
 31
0.0
  0
LINE
  5
2842C
330
747D
100
AcDbEntity
  8
部品1
 48
50.0
100
AcDbLine
 10
8323.600000000007
 20
7150.436988717068
 30
0.0
 11
8123.600000000008
 21
7150.436988717068
 31
0.0
  0
LINE
  5
2842D
330
747D
100
AcDbEntity
  8
センター
 48
2.0
100
AcDbLine
 10
8105.6
 20
7630.436988717069
 30
0.0
 11
8105.6
 21
7530.436988717069
 31
0.0
  0
CIRCLE
  5
2842E
330
747D
100
AcDbEntity
  8
部品1
 48
50.0
100
AcDbCircle
 10
8105.6
 20
7580.436988717069
 30
0.0
 40
35.0
  0
LINE
  5
2842F
330
747D
100
AcDbEntity
  8
センター
 48
2.0
100
AcDbLine
 10
8055.600000000001
 20
7580.436988717069
 30
0.0
 11
8155.600000000001
 21
7580.436988717069
 31
0.0
  0
LINE
  5
28430
330
747D
100
AcDbEntity
  8
細線
 48
50.0
100
AcDbLine
 10
7648.599999999992
 20
7685.26335829635
 30
0.0
 11
7666.773630420805
 21
7703.436988717168
 31
0.0
  0
LINE
  5
28431
330
747D
100
AcDbEntity
  8
細線
 48
50.0
100
AcDbLine
 10
12858.6
 20
7005.559516480239
 30
0.0
 11
12978.59999999999
 21
7125.559516480231
 31
0.0
  0
LINE
  5
28432
330
747D
100
AcDbEntity
  8
細線
 48
50.0
100
AcDbLine
 10
12858.6
 20
7050.460797085586
 30
0.0
 11
12946.57619163151
 21
7138.436988717102
 31
0.0
  0
LINE
  5
28433
330
747D
100
AcDbEntity
  8
部品1
 48
50.0
100
AcDbLine
 10
9073.600000000007
 20
6950.436988717068
 30
0.0
 11
9073.600000000007
 21
7150.436988717068
 31
0.0
  0
LINE
  5
28434
330
747D
100
AcDbEntity
  8
部品1
 48
50.0
100
AcDbLine
 10
9273.600000000007
 20
6950.436988717068
 30
0.0
 11
9273.600000000007
 21
7150.436988717068
 31
0.0
  0
DIMENSION
  5
28435
330
747D
100
AcDbEntity
  8
寸法
 48
50.0
100
AcDbDimension
  2
*D50
 10
9173.600000000007
 20
8186.045805387317
 30
0.0
 11
9648.600000000008
 21
8286.045805387317
 31
0.0
 70
    32
 71
     5
 42
950.0
  3
INABA_S40G
100
AcDbAlignedDimension
 13
10123.60000000001
 23
7100.436988717068
 33
0.0
 14
9173.600000000007
 24
7100.436988717068
 34
0.0
100
AcDbRotatedDimension
1001
ACAD
1000
DSTYLE
1002
{
1070
   341
1005
0
1002
}
  0
LINE
  5
28438
330
747D
100
AcDbEntity
  8
部品1
 48
50.0
100
AcDbLine
 10
12978.6
 20
6323.436988717087
 30
0.0
 11
12978.6
 21
7703.436988717069
 31
0.0
  0
LINE
  5
28439
330
747D
100
AcDbEntity
  8
部品1
 48
50.0
100
AcDbLine
 10
11923.6
 20
6950.436988717068
 30
0.0
 11
11923.6
 21
7150.436988717068
 31
0.0
  0
LINE
  5
2843A
330
747D
100
AcDbEntity
  8
部品1
 48
50.0
100
AcDbLine
 10
12123.6
 20
6950.436988717068
 30
0.0
 11
12123.6
 21
7150.436988717068
 31
0.0
  0
LINE
  5
2843B
330
747D
100
AcDbEntity
  8
部品1
 48
50.0
100
AcDbLine
 10
11173.60000000001
 20
6950.436988717068
 30
0.0
 11
11173.60000000001
 21
7150.436988717068
 31
0.0
  0
DIMENSION
  5
2843C
330
747D
100
AcDbEntity
  8
寸法
 48
50.0
100
AcDbDimension
  2
*D51
 10
12023.6
 20
8186.045805387317
 30
0.0
 11
12501.1
 21
8286.045805387317
 31
0.0
 70
    32
 71
     5
 42
954.9999999999927
  3
INABA_S40G
100
AcDbAlignedDimension
 13
12978.6
 23
7703.436988717069
 33
0.0
 14
12023.6
 24
7100.436988717068
 34
0.0
100
AcDbRotatedDimension
1001
ACAD
1000
DSTYLE
1002
{
1070
   341
1005
0
1002
}
  0
LINE
  5
2843D
330
747D
100
AcDbEntity
  8
部品1
 48
50.0
100
AcDbLine
 10
10973.60000000001
 20
6950.436988717068
 30
0.0
 11
10973.60000000001
 21
7150.436988717068
 31
0.0
  0
LINE
  5
2843E
330
747D
100
AcDbEntity
  8
部品1
 48
50.0
100
AcDbLine
 10
10023.60000000001
 20
6950.436988717068
 30
0.0
 11
10023.60000000001
 21
7150.436988717068
 31
0.0
  0
LINE
  5
2843F
330
747D
100
AcDbEntity
  8
部品1
 48
50.0
100
AcDbLine
 10
10223.60000000001
 20
6950.436988717068
 30
0.0
 11
10223.60000000001
 21
7150.436988717068
 31
0.0
  0
DIMENSION
  5
28440
330
747D
100
AcDbEntity
  8
寸法
 48
50.0
100
AcDbDimension
  2
*D52
 10
10123.60000000001
 20
8186.045805387317
 30
0.0
 11
10598.60000000001
 21
8286.045805387317
 31
0.0
 70
    32
 71
     5
 42
950.0
  3
INABA_S40G
100
AcDbAlignedDimension
 13
11073.60000000001
 23
7100.436988717068
 33
0.0
 14
10123.60000000001
 24
7100.436988717068
 34
0.0
100
AcDbRotatedDimension
1001
ACAD
1000
DSTYLE
1002
{
1070
   341
1005
0
1002
}
  0
DIMENSION
  5
28441
330
747D
100
AcDbEntity
  8
寸法
 48
50.0
100
AcDbDimension
  2
*D53
 10
11073.60000000001
 20
8186.045805387317
 30
0.0
 11
11548.60000000001
 21
8286.045805387317
 31
0.0
 70
    32
 71
     5
 42
950.0
  3
INABA_S40G
100
AcDbAlignedDimension
 13
12023.6
 23
7100.436988717068
 33
0.0
 14
11073.60000000001
 24
7100.436988717068
 34
0.0
100
AcDbRotatedDimension
1001
ACAD
1000
DSTYLE
1002
{
1070
   341
1005
0
1002
}
  0
LINE
  5
28442
330
747D
100
AcDbEntity
  8
センター
 48
2.0
100
AcDbLine
 10
10073.60000000001
 20
7050.436988717068
 30
0.0
 11
10173.6
 21
7050.436988717068
 31
0.0
  0
LINE
  5
28443
330
747D
100
AcDbEntity
  8
部品1
 48
50.0
100
AcDbLine
 10
10223.60000000001
 20
6950.436988717068
 30
0.0
 11
10023.60000000001
 21
6950.436988717068
 31
0.0
  0
LINE
  5
28444
330
747D
100
AcDbEntity
  8
部品1
 48
50.0
100
AcDbLine
 10
9273.600000000007
 20
6950.436988717068
 30
0.0
 11
9073.600000000007
 21
6950.436988717068
 31
0.0
  0
LINE
  5
28451
330
747D
100
AcDbEntity
  8
センター
 48
2.0
100
AcDbLine
 10
9123.600000000008
 20
7050.436988717068
 30
0.0
 11
9223.600000000008
 21
7050.436988717068
 31
0.0
  0
LINE
  5
28452
330
747D
100
AcDbEntity
  8
センター
 48
2.0
100
AcDbLine
 10
9173.600000000007
 20
7100.436988717068
 30
0.0
 11
9173.600000000007
 21
7000.436988717068
 31
0.0
  0
CIRCLE
  5
2845A
330
747D
100
AcDbEntity
  8
部品1
 48
50.0
100
AcDbCircle
 10
10005.60000000001
 20
6521.436988717072
 30
0.0
 40
35.0
  0
LINE
  5
2845B
330
747D
100
AcDbEntity
  8
センター
 48
2.0
100
AcDbLine
 10
10005.60000000001
 20
6571.436988717072
 30
0.0
 11
10005.60000000001
 21
6471.436988717072
 31
0.0
  0
LINE
  5
28460
330
747D
100
AcDbEntity
  8
センター
 48
2.0
100
AcDbLine
 10
9955.600000000009
 20
6521.436988717072
 30
0.0
 11
10055.60000000001
 21
6521.436988717072
 31
0.0
  0
LINE
  5
2846D
330
747D
100
AcDbEntity
  8
センター
 48
2.0
100
AcDbLine
 10
10123.60000000001
 20
7100.436988717068
 30
0.0
 11
10123.60000000001
 21
7000.436988717068
 31
0.0
  0
LINE
  5
2847A
330
747D
100
AcDbEntity
  8
部品1
 48
50.0
100
AcDbLine
 10
11173.60000000001
 20
6950.436988717068
 30
0.0
 11
10973.60000000001
 21
6950.436988717068
 31
0.0
  0
LINE
  5
2847B
330
747D
100
AcDbEntity
  8
センター
 48
2.0
100
AcDbLine
 10
11023.60000000001
 20
7050.436988717068
 30
0.0
 11
11123.60000000001
 21
7050.436988717068
 31
0.0
  0
LINE
  5
2847C
330
747D
100
AcDbEntity
  8
センター
 48
2.0
100
AcDbLine
 10
11073.60000000001
 20
7100.436988717068
 30
0.0
 11
11073.60000000001
 21
7000.436988717068
 31
0.0
  0
LINE
  5
2848D
330
747D
100
AcDbEntity
  8
部品1
 48
50.0
100
AcDbLine
 10
12123.6
 20
6950.436988717068
 30
0.0
 11
11923.6
 21
6950.436988717068
 31
0.0
  0
LINE
  5
2848E
330
747D
100
AcDbEntity
  8
センター
 48
2.0
100
AcDbLine
 10
11973.60000000001
 20
7050.436988717068
 30
0.0
 11
12073.60000000001
 21
7050.436988717068
 31
0.0
  0
LINE
  5
2848F
330
747D
100
AcDbEntity
  8
センター
 48
2.0
100
AcDbLine
 10
12023.6
 20
7100.436988717068
 30
0.0
 11
12023.6
 21
7000.436988717068
 31
0.0
  0
CIRCLE
  5
28492
330
747D
100
AcDbEntity
  8
部品1
 48
50.0
100
AcDbCircle
 10
12855.60000000001
 20
6521.436988717072
 30
0.0
 40
35.0
  0
LINE
  5
28493
330
747D
100
AcDbEntity
  8
センター
 48
2.0
100
AcDbLine
 10
12855.60000000001
 20
6571.436988717072
 30
0.0
 11
12855.60000000001
 21
6471.436988717072
 31
0.0
  0
LINE
  5
28495
330
747D
100
AcDbEntity
  8
センター
 48
2.0
100
AcDbLine
 10
12805.60000000001
 20
6521.436988717072
 30
0.0
 11
12905.60000000001
 21
6521.436988717072
 31
0.0
  0
LINE
  5
28496
330
747D
100
AcDbEntity
  8
細線
 48
50.0
100
AcDbLine
 10
12926.1813140529
 20
6938.436988717102
 30
0.0
 11
12978.59999999999
 21
6990.855674664193
 31
0.0
  0
LINE
  5
28497
330
747D
100
AcDbEntity
  8
細線
 48
50.0
100
AcDbLine
 10
12881.28003344755
 20
6938.436988717102
 30
0.0
 11
12978.59999999999
 21
7035.756955269538
 31
0.0
  0
LINE
  5
28498
330
747D
100
AcDbEntity
  8
細線
 48
50.0
100
AcDbLine
 10
12858.6
 20
6960.658235874895
 30
0.0
 11
12978.59999999999
 21
7080.658235874885
 31
0.0
  0
LINE
  5
28499
330
747D
100
AcDbEntity
  8
部品1
 48
50.0
100
AcDbLine
 10
12978.59999999999
 20
6938.436988717102
 30
0.0
 11
12858.6
 21
6938.4369887171
 31
0.0
  0
LINE
  5
2849A
330
747D
100
AcDbEntity
  8
細線
 48
50.0
100
AcDbLine
 10
12971.08259465824
 20
6938.436988717099
 30
0.0
 11
12978.59999999999
 21
6945.954394058848
 31
0.0
  0
DIMENSION
  5
2849B
330
747D
100
AcDbEntity
  8
寸法
 48
50.0
100
AcDbDimension
  2
*D30
 10
10005.6
 20
8429.703446810981
 30
0.0
 11
11430.6
 21
8529.715257834601
 31
0.0
 70
    32
 71
     5
 42
2850.0
  3
INABA_S40G
100
AcDbAlignedDimension
 13
12855.6
 23
7630.436988717069
 33
0.0
 14
10005.6
 24
7630.436988717069
 34
0.0
100
AcDbRotatedDimension
1001
ACAD
1000
DSTYLE
1002
{
1070
   341
1005
0
1002
}
  0
LINE
  5
2849C
330
747D
100
AcDbEntity
  8
部品1
 48
50.0
100
AcDbLine
 10
10223.60000000001
 20
7150.436988717068
 30
0.0
 11
10023.60000000001
 21
7150.436988717068
 31
0.0
  0
LINE
  5
2849D
330
747D
100
AcDbEntity
  8
部品1
 48
50.0
100
AcDbLine
 10
9273.600000000007
 20
7150.436988717068
 30
0.0
 11
9073.600000000007
 21
7150.436988717068
 31
0.0
  0
LINE
  5
2849E
330
747D
100
AcDbEntity
  8
部品1
 48
50.0
100
AcDbLine
 10
8798.599999999989
 20
7703.436988717164
 30
0.0
 11
8798.599999999998
 21
7503.436988717139
 31
0.0
  0
LINE
  5
2849F
330
747D
100
AcDbEntity
  8
細線
 48
50.0
100
AcDbLine
 10
8598.599999999997
 20
7595.460797085663
 30
0.0
 11
8706.576191631494
 21
7703.436988717164
 31
0.0
  0
LINE
  5
284A0
330
747D
100
AcDbEntity
  8
細線
 48
50.0
100
AcDbLine
 10
8598.599999999994
 20
7640.362077691008
 30
0.0
 11
8661.67491102615
 21
7703.436988717164
 31
0.0
  0
LINE
  5
284A1
330
747D
100
AcDbEntity
  8
部品1
 48
50.0
100
AcDbLine
 10
8598.599999999988
 20
7703.436988717164
 30
0.0
 11
8598.599999999997
 21
7503.436988717139
 31
0.0
  0
LINE
  5
284A2
330
747D
100
AcDbEntity
  8
細線
 48
50.0
100
AcDbLine
 10
8598.599999999997
 20
7505.658235874975
 30
0.0
 11
8796.378752842187
 21
7703.436988717164
 31
0.0
  0
LINE
  5
284A3
330
747D
100
AcDbEntity
  8
細線
 48
50.0
100
AcDbLine
 10
8598.599999999997
 20
7550.559516480319
 30
0.0
 11
8751.477472236844
 21
7703.436988717164
 31
0.0
  0
LINE
  5
284A4
330
747D
100
AcDbEntity
  8
細線
 48
50.0
100
AcDbLine
 10
8641.280033447502
 20
7503.436988717138
 30
0.0
 11
8798.599999999989
 21
7660.756955269622
 31
0.0
  0
LINE
  5
284A5
330
747D
100
AcDbEntity
  8
細線
 48
50.0
100
AcDbLine
 10
8775.983875263547
 20
7503.436988717138
 30
0.0
 11
8798.599999999998
 21
7526.053113453591
 31
0.0
  0
LINE
  5
284A6
330
747D
100
AcDbEntity
  8
細線
 48
50.0
100
AcDbLine
 10
8731.082594658195
 20
7503.436988717138
 30
0.0
 11
8798.599999999998
 21
7570.954394058934
 31
0.0
  0
LINE
  5
284A7
330
747D
100
AcDbEntity
  8
細線
 48
50.0
100
AcDbLine
 10
8686.181314052852
 20
7503.436988717137
 30
0.0
 11
8798.599999999993
 21
7615.855674664278
 31
0.0
  0
LINE
  5
284A8
330
747D
100
AcDbEntity
  8
細線
 48
50.0
100
AcDbLine
 10
8598.599999999988
 20
7685.26335829635
 30
0.0
 11
8616.773630420807
 21
7703.436988717168
 31
0.0
  0
LINE
  5
284A9
330
747D
100
AcDbEntity
  8
部品1
 48
50.0
100
AcDbLine
 10
9748.599999999989
 20
7703.436988717164
 30
0.0
 11
9748.599999999997
 21
7503.436988717139
 31
0.0
  0
LINE
  5
284AA
330
747D
100
AcDbEntity
  8
部品1
 48
50.0
100
AcDbLine
 10
9548.599999999989
 20
7703.436988717164
 30
0.0
 11
9548.599999999998
 21
7503.436988717139
 31
0.0
  0
LINE
  5
284AB
330
747D
100
AcDbEntity
  8
細線
 48
50.0
100
AcDbLine
 10
9548.599999999998
 20
7550.559516480319
 30
0.0
 11
9701.477472236845
 21
7703.436988717164
 31
0.0
  0
LINE
  5
284AC
330
747D
100
AcDbEntity
  8
細線
 48
50.0
100
AcDbLine
 10
9548.599999999998
 20
7505.658235874975
 30
0.0
 11
9746.378752842188
 21
7703.436988717164
 31
0.0
  0
LINE
  5
284AD
330
747D
100
AcDbEntity
  8
細線
 48
50.0
100
AcDbLine
 10
9548.599999999998
 20
7595.460797085663
 30
0.0
 11
9656.576191631494
 21
7703.436988717164
 31
0.0
  0
LINE
  5
284AE
330
747D
100
AcDbEntity
  8
細線
 48
50.0
100
AcDbLine
 10
9548.599999999993
 20
7640.362077691008
 30
0.0
 11
9611.674911026149
 21
7703.436988717164
 31
0.0
  0
LINE
  5
284AF
330
747D
100
AcDbEntity
  8
細線
 48
50.0
100
AcDbLine
 10
9591.280033447501
 20
7503.436988717138
 30
0.0
 11
9748.599999999989
 21
7660.756955269622
 31
0.0
  0
LINE
  5
284B0
330
747D
100
AcDbEntity
  8
細線
 48
50.0
100
AcDbLine
 10
9636.181314052853
 20
7503.436988717137
 30
0.0
 11
9748.599999999994
 21
7615.855674664278
 31
0.0
  0
LINE
  5
284B1
330
747D
100
AcDbEntity
  8
細線
 48
50.0
100
AcDbLine
 10
9681.082594658196
 20
7503.436988717138
 30
0.0
 11
9748.599999999997
 21
7570.954394058934
 31
0.0
  0
LINE
  5
284B2
330
747D
100
AcDbEntity
  8
細線
 48
50.0
100
AcDbLine
 10
9725.983875263546
 20
7503.436988717138
 30
0.0
 11
9748.599999999997
 21
7526.053113453591
 31
0.0
  0
LINE
  5
284B3
330
747D
100
AcDbEntity
  8
センター
 48
2.0
100
AcDbLine
 10
9955.600000000002
 20
7580.436988717069
 30
0.0
 11
10055.6
 21
7580.436988717069
 31
0.0
  0
LINE
  5
284B4
330
747D
100
AcDbEntity
  8
センター
 48
2.0
100
AcDbLine
 10
10005.6
 20
7630.436988717069
 30
0.0
 11
10005.6
 21
7530.436988717069
 31
0.0
  0
CIRCLE
  5
284B5
330
747D
100
AcDbEntity
  8
部品1
 48
50.0
100
AcDbCircle
 10
10005.6
 20
7580.436988717069
 30
0.0
 40
35.0
  0
LINE
  5
284B6
330
747D
100
AcDbEntity
  8
細線
 48
50.0
100
AcDbLine
 10
9548.599999999989
 20
7685.26335829635
 30
0.0
 11
9566.773630420806
 21
7703.436988717168
 31
0.0
  0
LINE
  5
284B7
330
747D
100
AcDbEntity
  8
部品1
 48
50.0
100
AcDbLine
 10
10698.59999999999
 20
7703.436988717164
 30
0.0
 11
10698.6
 21
7503.436988717139
 31
0.0
  0
LINE
  5
284B8
330
747D
100
AcDbEntity
  8
細線
 48
50.0
100
AcDbLine
 10
10498.59999999999
 20
7640.362077691008
 30
0.0
 11
10561.67491102615
 21
7703.436988717164
 31
0.0
  0
LINE
  5
284B9
330
747D
100
AcDbEntity
  8
部品1
 48
50.0
100
AcDbLine
 10
10498.59999999999
 20
7703.436988717164
 30
0.0
 11
10498.6
 21
7503.436988717139
 31
0.0
  0
LINE
  5
284BA
330
747D
100
AcDbEntity
  8
細線
 48
50.0
100
AcDbLine
 10
10498.6
 20
7595.460797085663
 30
0.0
 11
10606.57619163149
 21
7703.436988717164
 31
0.0
  0
LINE
  5
284BB
330
747D
100
AcDbEntity
  8
細線
 48
50.0
100
AcDbLine
 10
10498.6
 20
7505.658235874975
 30
0.0
 11
10696.37875284219
 21
7703.436988717164
 31
0.0
  0
LINE
  5
284BC
330
747D
100
AcDbEntity
  8
細線
 48
50.0
100
AcDbLine
 10
10498.6
 20
7550.559516480319
 30
0.0
 11
10651.47747223684
 21
7703.436988717164
 31
0.0
  0
LINE
  5
284BD
330
747D
100
AcDbEntity
  8
細線
 48
50.0
100
AcDbLine
 10
10675.98387526354
 20
7503.436988717138
 30
0.0
 11
10698.6
 21
7526.053113453591
 31
0.0
  0
LINE
  5
284BE
330
747D
100
AcDbEntity
  8
細線
 48
50.0
100
AcDbLine
 10
10631.08259465819
 20
7503.436988717138
 30
0.0
 11
10698.6
 21
7570.954394058934
 31
0.0
  0
LINE
  5
284BF
330
747D
100
AcDbEntity
  8
細線
 48
50.0
100
AcDbLine
 10
10586.18131405285
 20
7503.436988717137
 30
0.0
 11
10698.59999999999
 21
7615.855674664278
 31
0.0
  0
LINE
  5
284C0
330
747D
100
AcDbEntity
  8
細線
 48
50.0
100
AcDbLine
 10
10541.2800334475
 20
7503.436988717138
 30
0.0
 11
10698.59999999999
 21
7660.756955269622
 31
0.0
  0
LINE
  5
284C1
330
747D
100
AcDbEntity
  8
細線
 48
50.0
100
AcDbLine
 10
10498.59999999999
 20
7685.26335829635
 30
0.0
 11
10516.7736304208
 21
7703.436988717168
 31
0.0
  0
LINE
  5
284C2
330
747D
100
AcDbEntity
  8
細線
 48
50.0
100
AcDbLine
 10
11448.59999999999
 20
7550.559516480319
 30
0.0
 11
11601.47747223684
 21
7703.436988717164
 31
0.0
  0
LINE
  5
284C3
330
747D
100
AcDbEntity
  8
細線
 48
50.0
100
AcDbLine
 10
11448.59999999999
 20
7505.658235874975
 30
0.0
 11
11646.37875284219
 21
7703.436988717164
 31
0.0
  0
LINE
  5
284C4
330
747D
100
AcDbEntity
  8
細線
 48
50.0
100
AcDbLine
 10
11448.59999999999
 20
7595.460797085663
 30
0.0
 11
11556.57619163149
 21
7703.436988717164
 31
0.0
  0
LINE
  5
284C5
330
747D
100
AcDbEntity
  8
部品1
 48
50.0
100
AcDbLine
 10
11448.59999999999
 20
7703.436988717164
 30
0.0
 11
11448.59999999999
 21
7503.436988717139
 31
0.0
  0
LINE
  5
284C6
330
747D
100
AcDbEntity
  8
細線
 48
50.0
100
AcDbLine
 10
11448.59999999999
 20
7640.362077691008
 30
0.0
 11
11511.67491102615
 21
7703.436988717164
 31
0.0
  0
LINE
  5
284C7
330
747D
100
AcDbEntity
  8
部品1
 48
50.0
100
AcDbLine
 10
11648.59999999999
 20
7703.436988717164
 30
0.0
 11
11648.6
 21
7503.436988717139
 31
0.0
  0
LINE
  5
284C8
330
747D
100
AcDbEntity
  8
部品1
 48
50.0
100
AcDbLine
 10
11173.60000000001
 20
7150.436988717068
 30
0.0
 11
10973.60000000001
 21
7150.436988717068
 31
0.0
  0
LINE
  5
284C9
330
747D
100
AcDbEntity
  8
細線
 48
50.0
100
AcDbLine
 10
11491.2800334475
 20
7503.436988717138
 30
0.0
 11
11648.59999999999
 21
7660.756955269622
 31
0.0
  0
LINE
  5
284CA
330
747D
100
AcDbEntity
  8
細線
 48
50.0
100
AcDbLine
 10
11581.08259465819
 20
7503.436988717138
 30
0.0
 11
11648.6
 21
7570.954394058934
 31
0.0
  0
LINE
  5
284CB
330
747D
100
AcDbEntity
  8
細線
 48
50.0
100
AcDbLine
 10
11625.98387526354
 20
7503.436988717138
 30
0.0
 11
11648.6
 21
7526.053113453591
 31
0.0
  0
LINE
  5
284CC
330
747D
100
AcDbEntity
  8
細線
 48
50.0
100
AcDbLine
 10
11536.18131405285
 20
7503.436988717137
 30
0.0
 11
11648.59999999999
 21
7615.855674664278
 31
0.0
  0
LINE
  5
284CD
330
747D
100
AcDbEntity
  8
細線
 48
50.0
100
AcDbLine
 10
11448.59999999999
 20
7685.26335829635
 30
0.0
 11
11466.77363042081
 21
7703.436988717168
 31
0.0
  0
DIMENSION
  5
284CF
330
747D
100
AcDbEntity
  8
寸法
 48
50.0
100
AcDbDimension
  2
*D31
 10
12855.6
 20
8429.703446810981
 30
0.0
 11
13251.7066017178
 21
8429.703446810981
 31
0.0
 70
   160
 71
     5
 42
123.0
  3
INABA_S40G
100
AcDbAlignedDimension
 13
12978.6
 23
7703.436988717069
 33
0.0
 14
12855.6
 24
7630.436988717069
 34
0.0
100
AcDbRotatedDimension
1001
ACAD
1000
DSTYLE
1002
{
1070
   341
1005
0
1002
}
  0
LINE
  5
284D1
330
747D
100
AcDbEntity
  8
細線
 48
50.0
100
AcDbLine
 10
12398.59999999999
 20
7550.559516480319
 30
0.0
 11
12551.47747223684
 21
7703.436988717164
 31
0.0
  0
LINE
  5
284D2
330
747D
100
AcDbEntity
  8
細線
 48
50.0
100
AcDbLine
 10
12398.59999999999
 20
7505.658235874975
 30
0.0
 11
12596.37875284218
 21
7703.436988717164
 31
0.0
  0
LINE
  5
284D3
330
747D
100
AcDbEntity
  8
細線
 48
50.0
100
AcDbLine
 10
12441.2800334475
 20
7503.436988717138
 30
0.0
 11
12598.59999999999
 21
7660.756955269622
 31
0.0
  0
LINE
  5
284D4
330
747D
100
AcDbEntity
  8
細線
 48
50.0
100
AcDbLine
 10
12486.18131405285
 20
7503.436988717137
 30
0.0
 11
12598.59999999999
 21
7615.855674664278
 31
0.0
  0
LINE
  5
284D5
330
747D
100
AcDbEntity
  8
細線
 48
50.0
100
AcDbLine
 10
12531.08259465819
 20
7503.436988717138
 30
0.0
 11
12598.59999999999
 21
7570.954394058934
 31
0.0
  0
LINE
  5
284D6
330
747D
100
AcDbEntity
  8
細線
 48
50.0
100
AcDbLine
 10
12398.59999999999
 20
7640.362077691008
 30
0.0
 11
12461.67491102615
 21
7703.436988717164
 31
0.0
  0
LINE
  5
284D7
330
747D
100
AcDbEntity
  8
部品1
 48
50.0
100
AcDbLine
 10
12398.59999999999
 20
7703.436988717164
 30
0.0
 11
12398.59999999999
 21
7503.436988717139
 31
0.0
  0
LINE
  5
284D8
330
747D
100
AcDbEntity
  8
細線
 48
50.0
100
AcDbLine
 10
12398.59999999999
 20
7595.460797085663
 30
0.0
 11
12506.57619163149
 21
7703.436988717164
 31
0.0
  0
LINE
  5
284D9
330
747D
100
AcDbEntity
  8
部品1
 48
50.0
100
AcDbLine
 10
12123.6
 20
7150.436988717068
 30
0.0
 11
11923.6
 21
7150.436988717068
 31
0.0
  0
LINE
  5
284DA
330
747D
100
AcDbEntity
  8
細線
 48
50.0
100
AcDbLine
 10
12398.59999999999
 20
7685.26335829635
 30
0.0
 11
12416.7736304208
 21
7703.436988717168
 31
0.0
  0
LINE
  5
284DB
330
747D
100
AcDbEntity
  8
部品1
 48
50.0
100
AcDbLine
 10
12598.59999999999
 20
7703.436988717164
 30
0.0
 11
12598.59999999999
 21
7503.436988717139
 31
0.0
  0
LINE
  5
284DC
330
747D
100
AcDbEntity
  8
部品1
 48
50.0
100
AcDbLine
 10
12978.59999999999
 20
7138.436988717102
 30
0.0
 11
12858.6
 21
7138.4369887171
 31
0.0
  0
LINE
  5
284DD
330
747D
100
AcDbEntity
  8
細線
 48
50.0
100
AcDbLine
 10
12858.6
 20
7095.36207769093
 30
0.0
 11
12901.67491102617
 21
7138.436988717102
 31
0.0
  0
LINE
  5
284DE
330
747D
100
AcDbEntity
  8
細線
 48
50.0
100
AcDbLine
 10
12575.98387526354
 20
7503.436988717138
 30
0.0
 11
12598.59999999999
 21
7526.053113453591
 31
0.0
  0
LINE
  5
284DF
330
747D
100
AcDbEntity
  8
センター
 48
2.0
100
AcDbLine
 10
12805.6
 20
7580.436988717069
 30
0.0
 11
12905.6
 21
7580.436988717069
 31
0.0
  0
CIRCLE
  5
284E0
330
747D
100
AcDbEntity
  8
部品1
 48
50.0
100
AcDbCircle
 10
12855.6
 20
7580.436988717069
 30
0.0
 40
35.0
  0
LINE
  5
284E1
330
747D
100
AcDbEntity
  8
センター
 48
2.0
100
AcDbLine
 10
12855.6
 20
7630.436988717069
 30
0.0
 11
12855.6
 21
7530.436988717069
 31
0.0
  0
TEXT
  5
28AFC
330
747D
100
AcDbEntity
  8
文字
 62
     7
 48
50.0
100
AcDbText
 10
7507.667163342853
 20
5250.242052644011
 30
0.0
 40
200.0
  1
〈参 考 図〉
  7
STYLE2
100
AcDbText
  0
TEXT
  5
28B0D
330
747D
100
AcDbEntity
  8
文字
 62
     7
 48
50.0
100
AcDbText
 10
14267.69561199343
 20
838.2527270729188
 30
0.0
 40
100.0
  1
～一般型・多雪地型・豪雪地型～
  7
STYLE2
100
AcDbText
  0
LINE
  5
28B2D
330
747D
100
AcDbEntity
  8
部品1
 48
50.0
100
AcDbLine
 10
12858.6
 20
6603.436988717104
 30
0.0
 11
3588.6
 21
6603.436988717065
 31
0.0
  0
LINE
  5
28B2E
330
747D
100
AcDbEntity
  8
細線
 48
50.0
100
AcDbLine
 10
4798.599999999986
 20
6546.842868610756
 30
0.0
 11
4855.194120106297
 21
6603.436988717067
 31
0.0
  0
LINE
  5
28B2F
330
747D
100
AcDbEntity
  8
細線
 48
50.0
100
AcDbLine
 10
4934.404364949105
 20
6323.436988717109
 30
0.0
 11
4998.599999999993
 21
6387.632623767997
 31
0.0
  0
LINE
  5
28B30
330
747D
100
AcDbEntity
  8
細線
 48
50.0
100
AcDbLine
 10
4889.503084343758
 20
6323.436988717107
 30
0.0
 11
4998.599999999993
 21
6432.533904373343
 31
0.0
  0
LINE
  5
28B31
330
747D
100
AcDbEntity
  8
細線
 48
50.0
100
AcDbLine
 10
4979.30564555445
 20
6323.436988717109
 30
0.0
 11
4998.599999999993
 21
6342.731343162654
 31
0.0
  0
LINE
  5
28B32
330
747D
100
AcDbEntity
  8
細線
 48
50.0
100
AcDbLine
 10
4844.601803738411
 20
6323.436988717107
 30
0.0
 11
4998.599999999988
 21
6477.435184978682
 31
0.0
  0
LINE
  5
28B33
330
747D
100
AcDbEntity
  8
細線
 48
50.0
100
AcDbLine
 10
4799.700523133066
 20
6323.436988717105
 30
0.0
 11
4998.599999999986
 21
6522.336465584029
 31
0.0
  0
LINE
  5
28B34
330
747D
100
AcDbEntity
  8
細線
 48
50.0
100
AcDbLine
 10
4798.599999999989
 20
6367.237746189378
 30
0.0
 11
4998.599999999986
 21
6567.237746189372
 31
0.0
  0
LINE
  5
28B35
330
747D
100
AcDbEntity
  8
部品1
 48
50.0
100
AcDbLine
 10
4798.599999999986
 20
6603.436988717065
 30
0.0
 11
4798.599999999991
 21
6323.436988717105
 31
0.0
  0
LINE
  5
28B36
330
747D
100
AcDbEntity
  8
細線
 48
50.0
100
AcDbLine
 10
4798.599999999987
 20
6501.941588005417
 30
0.0
 11
4900.09540071164
 21
6603.436988717065
 31
0.0
  0
LINE
  5
28B37
330
747D
100
AcDbEntity
  8
細線
 48
50.0
100
AcDbLine
 10
4798.599999999989
 20
6412.139026794723
 30
0.0
 11
4989.897961922328
 21
6603.436988717068
 31
0.0
  0
LINE
  5
28B38
330
747D
100
AcDbEntity
  8
細線
 48
50.0
100
AcDbLine
 10
4798.599999999989
 20
6457.040307400068
 30
0.0
 11
4944.996681316989
 21
6603.436988717065
 31
0.0
  0
LINE
  5
28B39
330
747D
100
AcDbEntity
  8
部品1
 48
50.0
100
AcDbLine
 10
4998.599999999986
 20
6603.436988717067
 30
0.0
 11
4998.599999999991
 21
6323.436988717109
 31
0.0
  0
LINE
  5
28B3A
330
747D
100
AcDbEntity
  8
細線
 48
50.0
100
AcDbLine
 10
5748.599999999986
 20
6546.842868610756
 30
0.0
 11
5805.194120106296
 21
6603.436988717067
 31
0.0
  0
LINE
  5
28B3B
330
747D
100
AcDbEntity
  8
細線
 48
50.0
100
AcDbLine
 10
5884.404364949105
 20
6323.436988717109
 30
0.0
 11
5948.599999999993
 21
6387.632623767997
 31
0.0
  0
LINE
  5
28B3C
330
747D
100
AcDbEntity
  8
細線
 48
50.0
100
AcDbLine
 10
5839.503084343758
 20
6323.436988717107
 30
0.0
 11
5948.599999999993
 21
6432.533904373343
 31
0.0
  0
LINE
  5
28B3D
330
747D
100
AcDbEntity
  8
細線
 48
50.0
100
AcDbLine
 10
5929.30564555445
 20
6323.436988717109
 30
0.0
 11
5948.599999999993
 21
6342.731343162654
 31
0.0
  0
LINE
  5
28B3E
330
747D
100
AcDbEntity
  8
細線
 48
50.0
100
AcDbLine
 10
5794.601803738411
 20
6323.436988717107
 30
0.0
 11
5948.599999999988
 21
6477.435184978682
 31
0.0
  0
LINE
  5
28B3F
330
747D
100
AcDbEntity
  8
細線
 48
50.0
100
AcDbLine
 10
5749.700523133066
 20
6323.436988717105
 30
0.0
 11
5948.599999999986
 21
6522.336465584029
 31
0.0
  0
LINE
  5
28B40
330
747D
100
AcDbEntity
  8
細線
 48
50.0
100
AcDbLine
 10
5748.599999999989
 20
6367.237746189378
 30
0.0
 11
5948.599999999986
 21
6567.237746189372
 31
0.0
  0
LINE
  5
28B41
330
747D
100
AcDbEntity
  8
部品1
 48
50.0
100
AcDbLine
 10
5748.599999999986
 20
6603.436988717065
 30
0.0
 11
5748.599999999991
 21
6323.436988717105
 31
0.0
  0
LINE
  5
28B42
330
747D
100
AcDbEntity
  8
細線
 48
50.0
100
AcDbLine
 10
5748.599999999988
 20
6501.941588005417
 30
0.0
 11
5850.09540071164
 21
6603.436988717065
 31
0.0
  0
LINE
  5
28B43
330
747D
100
AcDbEntity
  8
細線
 48
50.0
100
AcDbLine
 10
5748.599999999989
 20
6412.139026794723
 30
0.0
 11
5939.897961922328
 21
6603.436988717068
 31
0.0
  0
LINE
  5
28B44
330
747D
100
AcDbEntity
  8
細線
 48
50.0
100
AcDbLine
 10
5748.599999999989
 20
6457.040307400068
 30
0.0
 11
5894.996681316989
 21
6603.436988717065
 31
0.0
  0
LINE
  5
28B45
330
747D
100
AcDbEntity
  8
部品1
 48
50.0
100
AcDbLine
 10
5948.599999999986
 20
6603.436988717067
 30
0.0
 11
5948.599999999991
 21
6323.436988717109
 31
0.0
  0
LINE
  5
28B46
330
747D
100
AcDbEntity
  8
細線
 48
50.0
100
AcDbLine
 10
6698.599999999986
 20
6546.842868610756
 30
0.0
 11
6755.194120106295
 21
6603.436988717067
 31
0.0
  0
LINE
  5
28B47
330
747D
100
AcDbEntity
  8
細線
 48
50.0
100
AcDbLine
 10
6834.404364949105
 20
6323.436988717109
 30
0.0
 11
6898.599999999993
 21
6387.632623767997
 31
0.0
  0
LINE
  5
28B48
330
747D
100
AcDbEntity
  8
細線
 48
50.0
100
AcDbLine
 10
6789.503084343758
 20
6323.436988717107
 30
0.0
 11
6898.599999999993
 21
6432.533904373343
 31
0.0
  0
LINE
  5
28B49
330
747D
100
AcDbEntity
  8
細線
 48
50.0
100
AcDbLine
 10
6879.30564555445
 20
6323.436988717109
 30
0.0
 11
6898.599999999993
 21
6342.731343162654
 31
0.0
  0
LINE
  5
28B4A
330
747D
100
AcDbEntity
  8
細線
 48
50.0
100
AcDbLine
 10
6744.601803738411
 20
6323.436988717107
 30
0.0
 11
6898.599999999987
 21
6477.435184978682
 31
0.0
  0
LINE
  5
28B4B
330
747D
100
AcDbEntity
  8
細線
 48
50.0
100
AcDbLine
 10
6699.700523133066
 20
6323.436988717105
 30
0.0
 11
6898.599999999986
 21
6522.336465584029
 31
0.0
  0
LINE
  5
28B4C
330
747D
100
AcDbEntity
  8
細線
 48
50.0
100
AcDbLine
 10
6698.599999999989
 20
6367.237746189378
 30
0.0
 11
6898.599999999986
 21
6567.237746189372
 31
0.0
  0
LINE
  5
28B4D
330
747D
100
AcDbEntity
  8
部品1
 48
50.0
100
AcDbLine
 10
6698.599999999986
 20
6603.436988717065
 30
0.0
 11
6698.599999999991
 21
6323.436988717105
 31
0.0
  0
LINE
  5
28B4E
330
747D
100
AcDbEntity
  8
細線
 48
50.0
100
AcDbLine
 10
6698.599999999988
 20
6501.941588005417
 30
0.0
 11
6800.09540071164
 21
6603.436988717065
 31
0.0
  0
LINE
  5
28B4F
330
747D
100
AcDbEntity
  8
細線
 48
50.0
100
AcDbLine
 10
6698.599999999989
 20
6412.139026794723
 30
0.0
 11
6889.897961922328
 21
6603.436988717068
 31
0.0
  0
LINE
  5
28B50
330
747D
100
AcDbEntity
  8
細線
 48
50.0
100
AcDbLine
 10
6698.599999999989
 20
6457.040307400068
 30
0.0
 11
6844.996681316989
 21
6603.436988717065
 31
0.0
  0
LINE
  5
28B51
330
747D
100
AcDbEntity
  8
部品1
 48
50.0
100
AcDbLine
 10
6898.599999999986
 20
6603.436988717067
 30
0.0
 11
6898.599999999992
 21
6323.436988717109
 31
0.0
  0
LINE
  5
28B52
330
747D
100
AcDbEntity
  8
細線
 48
50.0
100
AcDbLine
 10
7648.599999999986
 20
6546.842868610756
 30
0.0
 11
7705.194120106296
 21
6603.436988717067
 31
0.0
  0
LINE
  5
28B53
330
747D
100
AcDbEntity
  8
細線
 48
50.0
100
AcDbLine
 10
7784.404364949105
 20
6323.436988717109
 30
0.0
 11
7848.599999999994
 21
6387.632623767997
 31
0.0
  0
LINE
  5
28B54
330
747D
100
AcDbEntity
  8
細線
 48
50.0
100
AcDbLine
 10
7739.503084343758
 20
6323.436988717107
 30
0.0
 11
7848.599999999994
 21
6432.533904373343
 31
0.0
  0
LINE
  5
28B55
330
747D
100
AcDbEntity
  8
細線
 48
50.0
100
AcDbLine
 10
7829.30564555445
 20
6323.436988717109
 30
0.0
 11
7848.599999999994
 21
6342.731343162654
 31
0.0
  0
LINE
  5
28B56
330
747D
100
AcDbEntity
  8
細線
 48
50.0
100
AcDbLine
 10
7694.601803738411
 20
6323.436988717107
 30
0.0
 11
7848.599999999987
 21
6477.435184978682
 31
0.0
  0
LINE
  5
28B57
330
747D
100
AcDbEntity
  8
細線
 48
50.0
100
AcDbLine
 10
7649.700523133066
 20
6323.436988717105
 30
0.0
 11
7848.599999999986
 21
6522.336465584029
 31
0.0
  0
LINE
  5
28B58
330
747D
100
AcDbEntity
  8
細線
 48
50.0
100
AcDbLine
 10
7648.599999999989
 20
6367.237746189378
 30
0.0
 11
7848.599999999986
 21
6567.237746189372
 31
0.0
  0
LINE
  5
28B59
330
747D
100
AcDbEntity
  8
部品1
 48
50.0
100
AcDbLine
 10
7648.599999999986
 20
6603.436988717065
 30
0.0
 11
7648.599999999992
 21
6323.436988717105
 31
0.0
  0
LINE
  5
28B5A
330
747D
100
AcDbEntity
  8
細線
 48
50.0
100
AcDbLine
 10
7648.599999999987
 20
6501.941588005417
 30
0.0
 11
7750.09540071164
 21
6603.436988717065
 31
0.0
  0
LINE
  5
28B5B
330
747D
100
AcDbEntity
  8
細線
 48
50.0
100
AcDbLine
 10
7648.599999999989
 20
6412.139026794723
 30
0.0
 11
7839.897961922329
 21
6603.436988717068
 31
0.0
  0
LINE
  5
28B5C
330
747D
100
AcDbEntity
  8
細線
 48
50.0
100
AcDbLine
 10
7648.599999999989
 20
6457.040307400068
 30
0.0
 11
7794.996681316989
 21
6603.436988717065
 31
0.0
  0
LINE
  5
28B5D
330
747D
100
AcDbEntity
  8
部品1
 48
50.0
100
AcDbLine
 10
7848.599999999986
 20
6603.436988717067
 30
0.0
 11
7848.599999999992
 21
6323.436988717109
 31
0.0
  0
LINE
  5
28B5E
330
747D
100
AcDbEntity
  8
細線
 48
50.0
100
AcDbLine
 10
8598.599999999986
 20
6546.842868610756
 30
0.0
 11
8655.194120106296
 21
6603.436988717067
 31
0.0
  0
LINE
  5
28B5F
330
747D
100
AcDbEntity
  8
細線
 48
50.0
100
AcDbLine
 10
8734.404364949105
 20
6323.436988717109
 30
0.0
 11
8798.599999999993
 21
6387.632623767997
 31
0.0
  0
LINE
  5
28B60
330
747D
100
AcDbEntity
  8
細線
 48
50.0
100
AcDbLine
 10
8689.503084343758
 20
6323.436988717107
 30
0.0
 11
8798.599999999993
 21
6432.533904373343
 31
0.0
  0
LINE
  5
28B61
330
747D
100
AcDbEntity
  8
細線
 48
50.0
100
AcDbLine
 10
8779.305645554449
 20
6323.436988717109
 30
0.0
 11
8798.599999999993
 21
6342.731343162654
 31
0.0
  0
LINE
  5
28B62
330
747D
100
AcDbEntity
  8
細線
 48
50.0
100
AcDbLine
 10
8644.60180373841
 20
6323.436988717107
 30
0.0
 11
8798.599999999987
 21
6477.435184978682
 31
0.0
  0
LINE
  5
28B63
330
747D
100
AcDbEntity
  8
細線
 48
50.0
100
AcDbLine
 10
8599.700523133066
 20
6323.436988717105
 30
0.0
 11
8798.599999999986
 21
6522.336465584029
 31
0.0
  0
LINE
  5
28B64
330
747D
100
AcDbEntity
  8
細線
 48
50.0
100
AcDbLine
 10
8598.599999999988
 20
6367.237746189378
 30
0.0
 11
8798.599999999986
 21
6567.237746189372
 31
0.0
  0
LINE
  5
28B65
330
747D
100
AcDbEntity
  8
部品1
 48
50.0
100
AcDbLine
 10
8598.599999999986
 20
6603.436988717065
 30
0.0
 11
8598.599999999992
 21
6323.436988717105
 31
0.0
  0
LINE
  5
28B66
330
747D
100
AcDbEntity
  8
細線
 48
50.0
100
AcDbLine
 10
8598.599999999988
 20
6501.941588005417
 30
0.0
 11
8700.09540071164
 21
6603.436988717065
 31
0.0
  0
LINE
  5
28B67
330
747D
100
AcDbEntity
  8
細線
 48
50.0
100
AcDbLine
 10
8598.599999999988
 20
6412.139026794723
 30
0.0
 11
8789.897961922328
 21
6603.436988717068
 31
0.0
  0
LINE
  5
28B68
330
747D
100
AcDbEntity
  8
細線
 48
50.0
100
AcDbLine
 10
8598.599999999988
 20
6457.040307400068
 30
0.0
 11
8744.996681316989
 21
6603.436988717065
 31
0.0
  0
LINE
  5
28B69
330
747D
100
AcDbEntity
  8
部品1
 48
50.0
100
AcDbLine
 10
8798.599999999986
 20
6603.436988717067
 30
0.0
 11
8798.599999999991
 21
6323.436988717109
 31
0.0
  0
LINE
  5
28B6A
330
747D
100
AcDbEntity
  8
細線
 48
50.0
100
AcDbLine
 10
9548.599999999986
 20
6546.842868610756
 30
0.0
 11
9605.194120106297
 21
6603.436988717067
 31
0.0
  0
LINE
  5
28B6B
330
747D
100
AcDbEntity
  8
細線
 48
50.0
100
AcDbLine
 10
9684.404364949106
 20
6323.436988717109
 30
0.0
 11
9748.599999999994
 21
6387.632623767997
 31
0.0
  0
LINE
  5
28B6C
330
747D
100
AcDbEntity
  8
細線
 48
50.0
100
AcDbLine
 10
9639.503084343758
 20
6323.436988717107
 30
0.0
 11
9748.599999999994
 21
6432.533904373343
 31
0.0
  0
LINE
  5
28B6D
330
747D
100
AcDbEntity
  8
細線
 48
50.0
100
AcDbLine
 10
9729.30564555445
 20
6323.436988717109
 30
0.0
 11
9748.599999999994
 21
6342.731343162654
 31
0.0
  0
LINE
  5
28B6E
330
747D
100
AcDbEntity
  8
細線
 48
50.0
100
AcDbLine
 10
9594.601803738411
 20
6323.436988717107
 30
0.0
 11
9748.599999999989
 21
6477.435184978682
 31
0.0
  0
LINE
  5
28B6F
330
747D
100
AcDbEntity
  8
細線
 48
50.0
100
AcDbLine
 10
9549.700523133067
 20
6323.436988717105
 30
0.0
 11
9748.599999999987
 21
6522.336465584029
 31
0.0
  0
LINE
  5
28B70
330
747D
100
AcDbEntity
  8
細線
 48
50.0
100
AcDbLine
 10
9548.599999999989
 20
6367.237746189378
 30
0.0
 11
9748.599999999987
 21
6567.237746189372
 31
0.0
  0
LINE
  5
28B71
330
747D
100
AcDbEntity
  8
部品1
 48
50.0
100
AcDbLine
 10
9548.599999999986
 20
6603.436988717065
 30
0.0
 11
9548.599999999991
 21
6323.436988717105
 31
0.0
  0
LINE
  5
28B72
330
747D
100
AcDbEntity
  8
細線
 48
50.0
100
AcDbLine
 10
9548.599999999987
 20
6501.941588005417
 30
0.0
 11
9650.095400711641
 21
6603.436988717065
 31
0.0
  0
LINE
  5
28B73
330
747D
100
AcDbEntity
  8
細線
 48
50.0
100
AcDbLine
 10
9548.599999999989
 20
6412.139026794723
 30
0.0
 11
9739.897961922329
 21
6603.436988717068
 31
0.0
  0
LINE
  5
28B74
330
747D
100
AcDbEntity
  8
細線
 48
50.0
100
AcDbLine
 10
9548.599999999989
 20
6457.040307400068
 30
0.0
 11
9694.99668131699
 21
6603.436988717065
 31
0.0
  0
LINE
  5
28B75
330
747D
100
AcDbEntity
  8
部品1
 48
50.0
100
AcDbLine
 10
9748.599999999987
 20
6603.436988717067
 30
0.0
 11
9748.599999999992
 21
6323.436988717109
 31
0.0
  0
LINE
  5
28B76
330
747D
100
AcDbEntity
  8
細線
 48
50.0
100
AcDbLine
 10
10498.59999999998
 20
6546.842868610756
 30
0.0
 11
10555.19412010629
 21
6603.436988717067
 31
0.0
  0
LINE
  5
28B77
330
747D
100
AcDbEntity
  8
細線
 48
50.0
100
AcDbLine
 10
10634.4043649491
 20
6323.436988717109
 30
0.0
 11
10698.59999999999
 21
6387.632623767997
 31
0.0
  0
LINE
  5
28B78
330
747D
100
AcDbEntity
  8
細線
 48
50.0
100
AcDbLine
 10
10589.50308434376
 20
6323.436988717107
 30
0.0
 11
10698.59999999999
 21
6432.533904373343
 31
0.0
  0
LINE
  5
28B79
330
747D
100
AcDbEntity
  8
細線
 48
50.0
100
AcDbLine
 10
10679.30564555445
 20
6323.436988717109
 30
0.0
 11
10698.59999999999
 21
6342.731343162654
 31
0.0
  0
LINE
  5
28B7A
330
747D
100
AcDbEntity
  8
細線
 48
50.0
100
AcDbLine
 10
10544.60180373841
 20
6323.436988717107
 30
0.0
 11
10698.59999999999
 21
6477.435184978682
 31
0.0
  0
LINE
  5
28B7B
330
747D
100
AcDbEntity
  8
細線
 48
50.0
100
AcDbLine
 10
10499.70052313306
 20
6323.436988717105
 30
0.0
 11
10698.59999999998
 21
6522.336465584029
 31
0.0
  0
LINE
  5
28B7C
330
747D
100
AcDbEntity
  8
細線
 48
50.0
100
AcDbLine
 10
10498.59999999999
 20
6367.237746189378
 30
0.0
 11
10698.59999999998
 21
6567.237746189372
 31
0.0
  0
LINE
  5
28B7D
330
747D
100
AcDbEntity
  8
部品1
 48
50.0
100
AcDbLine
 10
10498.59999999998
 20
6603.436988717065
 30
0.0
 11
10498.59999999999
 21
6323.436988717105
 31
0.0
  0
LINE
  5
28B7E
330
747D
100
AcDbEntity
  8
細線
 48
50.0
100
AcDbLine
 10
10498.59999999999
 20
6501.941588005417
 30
0.0
 11
10600.09540071164
 21
6603.436988717065
 31
0.0
  0
LINE
  5
28B7F
330
747D
100
AcDbEntity
  8
細線
 48
50.0
100
AcDbLine
 10
10498.59999999999
 20
6412.139026794723
 30
0.0
 11
10689.89796192232
 21
6603.436988717068
 31
0.0
  0
LINE
  5
28B80
330
747D
100
AcDbEntity
  8
細線
 48
50.0
100
AcDbLine
 10
10498.59999999999
 20
6457.040307400068
 30
0.0
 11
10644.99668131699
 21
6603.436988717065
 31
0.0
  0
LINE
  5
28B81
330
747D
100
AcDbEntity
  8
部品1
 48
50.0
100
AcDbLine
 10
10698.59999999998
 20
6603.436988717067
 30
0.0
 11
10698.59999999999
 21
6323.436988717109
 31
0.0
  0
LINE
  5
28B82
330
747D
100
AcDbEntity
  8
細線
 48
50.0
100
AcDbLine
 10
11448.59999999998
 20
6546.842868610756
 30
0.0
 11
11505.19412010629
 21
6603.436988717067
 31
0.0
  0
LINE
  5
28B83
330
747D
100
AcDbEntity
  8
細線
 48
50.0
100
AcDbLine
 10
11584.4043649491
 20
6323.436988717109
 30
0.0
 11
11648.59999999999
 21
6387.632623767997
 31
0.0
  0
LINE
  5
28B84
330
747D
100
AcDbEntity
  8
細線
 48
50.0
100
AcDbLine
 10
11539.50308434376
 20
6323.436988717107
 30
0.0
 11
11648.59999999999
 21
6432.533904373343
 31
0.0
  0
LINE
  5
28B85
330
747D
100
AcDbEntity
  8
細線
 48
50.0
100
AcDbLine
 10
11629.30564555445
 20
6323.436988717109
 30
0.0
 11
11648.59999999999
 21
6342.731343162654
 31
0.0
  0
LINE
  5
28B86
330
747D
100
AcDbEntity
  8
細線
 48
50.0
100
AcDbLine
 10
11494.60180373841
 20
6323.436988717107
 30
0.0
 11
11648.59999999999
 21
6477.435184978682
 31
0.0
  0
LINE
  5
28B87
330
747D
100
AcDbEntity
  8
細線
 48
50.0
100
AcDbLine
 10
11449.70052313306
 20
6323.436988717105
 30
0.0
 11
11648.59999999998
 21
6522.336465584029
 31
0.0
  0
LINE
  5
28B88
330
747D
100
AcDbEntity
  8
細線
 48
50.0
100
AcDbLine
 10
11448.59999999999
 20
6367.237746189378
 30
0.0
 11
11648.59999999998
 21
6567.237746189372
 31
0.0
  0
LINE
  5
28B89
330
747D
100
AcDbEntity
  8
部品1
 48
50.0
100
AcDbLine
 10
11448.59999999998
 20
6603.436988717065
 30
0.0
 11
11448.59999999999
 21
6323.436988717105
 31
0.0
  0
LINE
  5
28B8A
330
747D
100
AcDbEntity
  8
細線
 48
50.0
100
AcDbLine
 10
11448.59999999999
 20
6501.941588005417
 30
0.0
 11
11550.09540071164
 21
6603.436988717065
 31
0.0
  0
LINE
  5
28B8B
330
747D
100
AcDbEntity
  8
細線
 48
50.0
100
AcDbLine
 10
11448.59999999999
 20
6412.139026794723
 30
0.0
 11
11639.89796192233
 21
6603.436988717068
 31
0.0
  0
LINE
  5
28B8C
330
747D
100
AcDbEntity
  8
細線
 48
50.0
100
AcDbLine
 10
11448.59999999999
 20
6457.040307400068
 30
0.0
 11
11594.99668131699
 21
6603.436988717065
 31
0.0
  0
LINE
  5
28B8D
330
747D
100
AcDbEntity
  8
部品1
 48
50.0
100
AcDbLine
 10
11648.59999999998
 20
6603.436988717067
 30
0.0
 11
11648.59999999999
 21
6323.436988717109
 31
0.0
  0
LINE
  5
28B8E
330
747D
100
AcDbEntity
  8
細線
 48
50.0
100
AcDbLine
 10
12398.59999999998
 20
6546.842868610756
 30
0.0
 11
12455.19412010629
 21
6603.436988717067
 31
0.0
  0
LINE
  5
28B8F
330
747D
100
AcDbEntity
  8
細線
 48
50.0
100
AcDbLine
 10
12534.4043649491
 20
6323.436988717109
 30
0.0
 11
12598.59999999999
 21
6387.632623767997
 31
0.0
  0
LINE
  5
28B90
330
747D
100
AcDbEntity
  8
細線
 48
50.0
100
AcDbLine
 10
12489.50308434376
 20
6323.436988717107
 30
0.0
 11
12598.59999999999
 21
6432.533904373343
 31
0.0
  0
LINE
  5
28B91
330
747D
100
AcDbEntity
  8
細線
 48
50.0
100
AcDbLine
 10
12579.30564555445
 20
6323.436988717109
 30
0.0
 11
12598.59999999999
 21
6342.731343162654
 31
0.0
  0
LINE
  5
28B92
330
747D
100
AcDbEntity
  8
細線
 48
50.0
100
AcDbLine
 10
12444.60180373841
 20
6323.436988717107
 30
0.0
 11
12598.59999999999
 21
6477.435184978682
 31
0.0
  0
LINE
  5
28B93
330
747D
100
AcDbEntity
  8
細線
 48
50.0
100
AcDbLine
 10
12399.70052313306
 20
6323.436988717105
 30
0.0
 11
12598.59999999998
 21
6522.336465584029
 31
0.0
  0
LINE
  5
28B94
330
747D
100
AcDbEntity
  8
細線
 48
50.0
100
AcDbLine
 10
12398.59999999999
 20
6367.237746189378
 30
0.0
 11
12598.59999999998
 21
6567.237746189372
 31
0.0
  0
LINE
  5
28B95
330
747D
100
AcDbEntity
  8
部品1
 48
50.0
100
AcDbLine
 10
12398.59999999998
 20
6603.436988717065
 30
0.0
 11
12398.59999999999
 21
6323.436988717105
 31
0.0
  0
LINE
  5
28B96
330
747D
100
AcDbEntity
  8
細線
 48
50.0
100
AcDbLine
 10
12398.59999999999
 20
6501.941588005417
 30
0.0
 11
12500.09540071164
 21
6603.436988717065
 31
0.0
  0
LINE
  5
28B97
330
747D
100
AcDbEntity
  8
細線
 48
50.0
100
AcDbLine
 10
12398.59999999999
 20
6412.139026794723
 30
0.0
 11
12589.89796192233
 21
6603.436988717068
 31
0.0
  0
LINE
  5
28B98
330
747D
100
AcDbEntity
  8
細線
 48
50.0
100
AcDbLine
 10
12398.59999999999
 20
6457.040307400068
 30
0.0
 11
12544.99668131699
 21
6603.436988717065
 31
0.0
  0
LINE
  5
28B99
330
747D
100
AcDbEntity
  8
部品1
 48
50.0
100
AcDbLine
 10
12598.59999999998
 20
6603.436988717067
 30
0.0
 11
12598.59999999999
 21
6323.436988717109
 31
0.0
  0
LINE
  5
28C36
330
747D
100
AcDbEntity
  8
部品1
 48
50.0
100
AcDbLine
 10
3588.6
 20
6603.436988717065
 30
0.0
 11
3588.599999999996
 21
7503.436988717068
 31
0.0
  0
LINE
  5
28C37
330
747D
100
AcDbEntity
  8
部品1
 48
50.0
100
AcDbLine
 10
12858.6
 20
6603.436988717104
 30
0.0
 11
12858.6
 21
7503.436988717068
 31
0.0
  0
MTEXT
  5
28DC5
102
{ACAD_REACTORS
330
28DC6
102
}
330
747D
100
AcDbEntity
  8
寸法
 62
     7
 48
50.0
100
AcDbMText
 10
10669.45254869885
 20
2018.545120820594
 30
0.0
 40
120.0
 41
0.8
 71
     4
 72
     1
  1
\A1;C.B
  7
STYLE1
 73
     1
 44
1.0
1001
ACAD
1000
MTEXTBEGIN
1070
    73
1070
     1
1070
    44
1040
1.0
1070
    74
1070
     0
1000
MTEXTEND
  0
LEADER
  5
28DC6
330
747D
100
AcDbEntity
  8
寸法
 48
50.0
100
AcDbLeader
  3
INABA_S50G
 73
     0
 74
     0
 75
     1
 40
120.0
 41
185.591883092037
 76
     3
 10
10486.3143420652
 20
1761.398800139456
 30
0.0
 10
10519.45254869885
 20
1933.545120820593
 30
0.0
 10
10644.45254869885
 20
1933.545120820593
 30
0.0
340
28DC5
1001
ACAD
1000
DSTYLE
1002
{
1070
    40
1040
1.0
1002
}
  0
LINE
  5
28DC7
330
747D
100
AcDbEntity
  8
細線
 48
50.0
100
AcDbLine
 10
10631.96775564161
 20
1405.699884486104
 30
0.0
 11
10625.53697502327
 21
1429.699884486104
 31
0.0
  0
LINE
  5
28DC8
330
747D
100
AcDbEntity
  8
細線
 48
50.0
100
AcDbLine
 10
10610.53182024712
 20
1325.699884486104
 30
0.0
 11
10616.96260086547
 21
1301.699884486104
 31
0.0
  0
LINE
  5
28DC9
330
747D
100
AcDbEntity
  8
部品1
100
AcDbLine
 10
10675.58993044928
 20
1521.398800139455
 30
0.0
 11
10675.58993044928
 21
1301.699884486105
 31
0.0
  0
LINE
  5
28DCA
330
747D
100
AcDbEntity
  8
細線
 48
50.0
100
AcDbLine
 10
10604.10103962877
 20
1301.699884486104
 30
0.0
 11
10638.39853625996
 21
1429.699884486103
 31
0.0
  0
LINE
  5
28DCB
330
747D
100
AcDbEntity
  8
細線
 48
50.0
100
AcDbLine
 10
10553.07971069437
 20
1405.699884486104
 30
0.0
 11
10546.64893007602
 21
1429.699884486104
 31
0.0
  0
LINE
  5
28DCC
330
747D
100
AcDbEntity
  8
細線
100
AcDbLine
 10
10428.62632494861
 20
1429.699884486107
 30
0.0
 11
10520.32524060196
 21
1521.398800139455
 31
0.0
  0
LINE
  5
28DCD
330
747D
100
AcDbEntity
  8
細線
 48
50.0
100
AcDbLine
 10
10474.19166574711
 20
1405.699884486105
 30
0.0
 11
10467.76088512876
 21
1429.699884486105
 31
0.0
  0
LINE
  5
28DCE
330
747D
100
AcDbEntity
  8
細線
100
AcDbLine
 10
10462.56745044557
 20
1429.699884486107
 30
0.0
 11
10554.26636609891
 21
1521.398800139455
 31
0.0
  0
LINE
  5
28DCF
330
747D
100
AcDbEntity
  8
細線
 48
50.0
100
AcDbLine
 10
10237.52753090538
 20
1405.699884486105
 30
0.0
 11
10231.09675028703
 21
1429.699884486105
 31
0.0
  0
LINE
  5
28DD0
330
747D
100
AcDbEntity
  8
細線
 48
50.0
100
AcDbLine
 10
10316.41557585262
 20
1405.699884486105
 30
0.0
 11
10309.98479523428
 21
1429.699884486105
 31
0.0
  0
LINE
  5
28DD1
330
747D
100
AcDbEntity
  8
細線
 48
50.0
100
AcDbLine
 10
10395.30362079987
 20
1405.699884486105
 30
0.0
 11
10388.87284018152
 21
1429.699884486105
 31
0.0
  0
LINE
  5
28DD2
330
747D
100
AcDbEntity
  8
細線
 48
50.0
100
AcDbLine
 10
10531.64377529988
 20
1325.699884486104
 30
0.0
 11
10538.07455591822
 21
1301.699884486104
 31
0.0
  0
LINE
  5
28DD3
330
747D
100
AcDbEntity
  8
細線
 48
50.0
100
AcDbLine
 10
10452.75573035263
 20
1325.699884486105
 30
0.0
 11
10459.18651097099
 21
1301.699884486105
 31
0.0
  0
LINE
  5
28DD4
330
747D
100
AcDbEntity
  8
細線
 48
50.0
100
AcDbLine
 10
10294.97964045813
 20
1325.699884486105
 30
0.0
 11
10301.41042107648
 21
1301.699884486105
 31
0.0
  0
LINE
  5
28DD5
330
747D
100
AcDbEntity
  8
細線
 48
50.0
100
AcDbLine
 10
10373.86768540538
 20
1325.699884486105
 30
0.0
 11
10380.29846602373
 21
1301.699884486105
 31
0.0
  0
LINE
  5
28DD6
330
747D
100
AcDbEntity
  8
細線
 48
50.0
100
AcDbLine
 10
10367.43690478703
 20
1301.699884486105
 30
0.0
 11
10401.73440141821
 21
1429.699884486104
 31
0.0
  0
LINE
  5
28DD7
330
747D
100
AcDbEntity
  8
細線
 48
50.0
100
AcDbLine
 10
10288.54885983979
 20
1301.699884486104
 30
0.0
 11
10322.84635647097
 21
1429.699884486104
 31
0.0
  0
LINE
  5
28DD8
330
747D
100
AcDbEntity
  8
細線
 48
50.0
100
AcDbLine
 10
10446.32494973428
 20
1301.699884486104
 30
0.0
 11
10480.62244636545
 21
1429.699884486105
 31
0.0
  0
LINE
  5
28DD9
330
747D
100
AcDbEntity
  8
細線
100
AcDbLine
 10
10496.50857594252
 20
1429.699884486107
 30
0.0
 11
10588.20749159586
 21
1521.398800139455
 31
0.0
  0
LINE
  5
28DDA
330
747D
100
AcDbEntity
  8
細線
 48
50.0
100
AcDbLine
 10
10525.21299468153
 20
1301.699884486103
 30
0.0
 11
10559.51049131271
 21
1429.699884486103
 31
0.0
  0
LINE
  5
28DDB
330
747D
100
AcDbEntity
  8
部品1
100
AcDbLine
 10
10555.58993044928
 20
1761.398800139456
 30
0.0
 11
10555.58993044928
 21
1521.398800139455
 31
0.0
  0
LINE
  5
28DDC
330
747D
100
AcDbEntity
  8
細線
100
AcDbLine
 10
10541.7522681017
 20
1521.398800139457
 30
0.0
 11
10301.7522681017
 21
1761.398800139456
 31
0.0
  0
LINE
  5
28DDD
330
747D
100
AcDbEntity
  8
細線
100
AcDbLine
 10
10490.84057985627
 20
1521.398800139455
 30
0.0
 11
10250.84057985627
 21
1761.398800139456
 31
0.0
  0
LINE
  5
28DDE
330
747D
100
AcDbEntity
  8
細線
100
AcDbLine
 10
10102.56745044556
 20
1429.699884486105
 30
0.0
 11
10194.26636609891
 21
1521.398800139455
 31
0.0
  0
LINE
  5
28DDF
330
747D
100
AcDbEntity
  8
細線
100
AcDbLine
 10
10068.62632494861
 20
1429.699884486105
 30
0.0
 11
10160.32524060196
 21
1521.398800139455
 31
0.0
  0
LINE
  5
28DE0
330
747D
100
AcDbEntity
  8
細線
 48
50.0
100
AcDbLine
 10
10079.75144101088
 20
1405.699884486105
 30
0.0
 11
10073.32066039253
 21
1429.699884486105
 31
0.0
  0
LINE
  5
28DE1
330
747D
100
AcDbEntity
  8
細線
 48
50.0
100
AcDbLine
 10
10158.63948595813
 20
1405.699884486105
 30
0.0
 11
10152.20870533979
 21
1429.699884486105
 31
0.0
  0
LINE
  5
28DE2
330
747D
100
AcDbEntity
  8
細線
 48
50.0
100
AcDbLine
 10
10000.86339606363
 20
1405.699884486105
 30
0.0
 11
9994.432615445283
 21
1429.699884486105
 31
0.0
  0
LINE
  5
28DE3
330
747D
100
AcDbEntity
  8
細線
 48
50.0
100
AcDbLine
 10
10216.09159551089
 20
1325.699884486105
 30
0.0
 11
10222.52237612924
 21
1301.699884486105
 31
0.0
  0
LINE
  5
28DE4
330
747D
100
AcDbEntity
  8
細線
 48
50.0
100
AcDbLine
 10
10137.20355056364
 20
1325.699884486105
 30
0.0
 11
10143.63433118199
 21
1301.699884486105
 31
0.0
  0
LINE
  5
28DE5
330
747D
100
AcDbEntity
  8
細線
 48
50.0
100
AcDbLine
 10
9979.427460669143
 20
1325.699884486105
 30
0.0
 11
9985.858241287489
 21
1301.699884486105
 31
0.0
  0
LINE
  5
28DE6
330
747D
100
AcDbEntity
  8
細線
 48
50.0
100
AcDbLine
 10
10058.31550561639
 20
1325.699884486105
 30
0.0
 11
10064.74628623474
 21
1301.699884486105
 31
0.0
  0
LINE
  5
28DE7
330
747D
100
AcDbEntity
  8
部品1
100
AcDbLine
 10
9955.589930449281
 20
1301.699884486102
 30
0.0
 11
9955.589930449281
 21
1521.398800139455
 31
0.0
  0
LINE
  5
28DE8
330
747D
100
AcDbEntity
  8
細線
 48
50.0
100
AcDbLine
 10
9972.996680050794
 20
1301.699884486105
 30
0.0
 11
10007.29417668198
 21
1429.699884486105
 31
0.0
  0
LINE
  5
28DE9
330
747D
100
AcDbEntity
  8
細線
 48
50.0
100
AcDbLine
 10
10130.77276994529
 20
1301.699884486105
 30
0.0
 11
10165.07026657647
 21
1429.699884486105
 31
0.0
  0
LINE
  5
28DEA
330
747D
100
AcDbEntity
  8
細線
 48
50.0
100
AcDbLine
 10
10051.88472499804
 20
1301.699884486104
 30
0.0
 11
10086.18222162922
 21
1429.699884486104
 31
0.0
  0
LINE
  5
28DEB
330
747D
100
AcDbEntity
  8
部品1
100
AcDbLine
 10
10075.58993044928
 20
1521.398800139455
 30
0.0
 11
10075.58993044928
 21
1761.398800139456
 31
0.0
  0
TEXT
  5
28DEC
330
747D
100
AcDbEntity
  8
部品1
 48
50.0
100
AcDbText
 10
9311.47184369078
 20
1254.599059502147
 30
0.0
 40
80.0
  1
ボルトの出
 50
90.0
  7
STYLE2
100
AcDbText
  0
LINE
  5
28DED
330
747D
100
AcDbEntity
  8
細線
100
AcDbLine
 10
10219.31157588063
 20
1521.398800139455
 30
0.0
 11
10075.58993044928
 21
1665.120445570808
 31
0.0
  0
LWPOLYLINE
  5
28DEE
330
747D
100
AcDbEntity
  8
部品1
 48
50.0
100
AcDbPolyline
 90
        2
 70
     0
 43
12.0
 10
9690.978668348893
 20
1521.398800139455
 10
10892.07097148052
 20
1521.398800139455
  0
LINE
  5
28DEF
330
747D
100
AcDbEntity
  8
細線
100
AcDbLine
 10
10136.50857594252
 20
1429.699884486105
 30
0.0
 11
10228.20749159587
 21
1521.398800139455
 31
0.0
  0
LINE
  5
28DF0
330
747D
100
AcDbEntity
  8
部品1
100
AcDbLine
 10
9955.589930449281
 20
1429.699884486105
 30
0.0
 11
10675.58993044928
 21
1429.699884486108
 31
0.0
  0
LINE
  5
28DF1
330
747D
100
AcDbEntity
  8
部品1
100
AcDbLine
 10
9955.589930449281
 20
1301.699884486102
 30
0.0
 11
10675.58993044928
 21
1301.699884486105
 31
0.0
  0
LINE
  5
28DF2
330
747D
100
AcDbEntity
  8
細線
 48
50.0
100
AcDbLine
 10
10209.66081489254
 20
1301.699884486105
 30
0.0
 11
10243.95831152372
 21
1429.699884486104
 31
0.0
  0
LINE
  5
28DF3
330
747D
100
AcDbEntity
  8
部品1
100
AcDbLine
 10
10075.58993044928
 20
1761.398800139456
 30
0.0
 11
10555.58993044928
 21
1761.398800139456
 31
0.0
  0
LINE
  5
28DF4
330
747D
100
AcDbEntity
  8
細線
100
AcDbLine
 10
10270.22326412606
 20
1521.398800139455
 30
0.0
 11
10075.58993044928
 21
1716.032133816239
 31
0.0
  0
LINE
  5
28DF5
330
747D
100
AcDbEntity
  8
部品1
100
AcDbLine
 10
11262.33143154631
 20
196.4304977553938
 30
0.0
 11
11262.33143154632
 21
3160.737467340041
 31
0.0
  0
TEXT
  5
28DF6
330
747D
100
AcDbEntity
  8
部品1
100
AcDbText
 10
7884.226247338455
 20
2981.185535388613
 30
0.0
 40
120.0
  1
基礎詳細
  7
STYLE2
100
AcDbText
  0
LINE
  5
28DF7
330
747D
100
AcDbEntity
  8
部品1
 48
50.0
100
AcDbLine
 10
8199.453998146523
 20
2160.274081248598
 30
0.0
 11
8215.453998146525
 21
2152.274081248598
 31
0.0
  0
LINE
  5
28DF8
330
747D
100
AcDbEntity
  8
細線
 48
50.0
100
AcDbLine
 10
8167.453998146525
 20
2112.274081248598
 30
0.0
 11
8167.453998146525
 21
2144.274081248598
 31
0.0
  0
LINE
  5
28DF9
330
747D
100
AcDbEntity
  8
部品1
 48
50.0
100
AcDbLine
 10
8215.453998146525
 20
2120.274081248598
 30
0.0
 11
8215.453998146525
 21
2152.274081248598
 31
0.0
  0
LINE
  5
28DFA
330
747D
100
AcDbEntity
  8
細線
 48
50.0
100
AcDbLine
 10
8199.453998146523
 20
2112.274081248598
 30
0.0
 11
8199.453998146523
 21
2144.274081248598
 31
0.0
  0
LINE
  5
28DFB
330
747D
100
AcDbEntity
  8
部品1
 48
50.0
100
AcDbLine
 10
8199.453998146523
 20
2144.274081248598
 30
0.0
 11
8215.453998146525
 21
2152.274081248598
 31
0.0
  0
LINE
  5
28DFC
330
747D
100
AcDbEntity
  8
部品1
 48
50.0
100
AcDbLine
 10
8167.453998146525
 20
2144.274081248598
 30
0.0
 11
8199.453998146523
 21
2144.274081248598
 31
0.0
  0
LINE
  5
28DFD
330
747D
100
AcDbEntity
  8
部品1
 48
50.0
100
AcDbLine
 10
8199.453998146523
 20
2112.274081248598
 30
0.0
 11
8215.453998146525
 21
2120.274081248598
 31
0.0
  0
LINE
  5
28DFE
330
747D
100
AcDbEntity
  8
部品1
 48
50.0
100
AcDbLine
 10
8167.453998146525
 20
2112.274081248598
 30
0.0
 11
8199.453998146523
 21
2112.274081248598
 31
0.0
  0
ELLIPSE
  5
28DFF
330
747D
100
AcDbEntity
  8
細線
 48
50.0
100
AcDbEllipse
 10
8183.453998146523
 20
2152.274081248598
 30
0.0
 11
14.76670786606846
 21
0.0
 31
0.0
210
0.0
220
0.0
230
1.0
 40
0.2071254069489396
 41
0.0
 42
6.283185307179586
  0
LINE
  5
28E00
330
747D
100
AcDbEntity
  8
部品1
 48
50.0
100
AcDbLine
 10
8167.453998146525
 20
2160.274081248598
 30
0.0
 11
8199.453998146523
 21
2160.274081248598
 31
0.0
  0
LINE
  5
28E01
330
747D
100
AcDbEntity
  8
部品1
 48
50.0
100
AcDbLine
 10
8151.453998146525
 20
2120.274081248598
 30
0.0
 11
8151.453998146525
 21
2152.274081248598
 31
0.0
  0
LINE
  5
28E02
330
747D
100
AcDbEntity
  8
部品1
 48
50.0
100
AcDbLine
 10
8151.453998146525
 20
2152.274081248598
 30
0.0
 11
8167.453998146525
 21
2160.274081248598
 31
0.0
  0
LINE
  5
28E03
330
747D
100
AcDbEntity
  8
部品1
 48
50.0
100
AcDbLine
 10
8151.453998146525
 20
2120.274081248598
 30
0.0
 11
8167.453998146525
 21
2112.274081248598
 31
0.0
  0
LINE
  5
28E04
330
747D
100
AcDbEntity
  8
部品1
 48
50.0
100
AcDbLine
 10
8151.453998146525
 20
2152.274081248598
 30
0.0
 11
8167.453998146525
 21
2144.274081248598
 31
0.0
  0
LINE
  5
28E05
330
747D
100
AcDbEntity
  8
部品1
 48
50.0
100
AcDbLine
 10
8223.453998146524
 20
2020.922088583728
 30
0.0
 11
8223.453998146524
 21
2030.522088583728
 31
0.0
  0
ELLIPSE
  5
28E06
330
747D
100
AcDbEntity
  8
部品1
 48
50.0
100
AcDbEllipse
 10
8183.453998146523
 20
2030.522088583728
 30
0.0
 11
18.4
 21
0.0
 31
0.0
210
0.0
220
0.0
230
1.0
 40
0.3478260869565217
 41
0.0
 42
6.283185307179586
  0
ARC
  5
28E07
330
747D
100
AcDbEntity
  8
部品1
100
AcDbCircle
 10
8022.353998146524
 20
1859.498800139456
 30
0.0
 40
2.7
100
AcDbArc
 50
90.0
 51
180.0
  0
LINE
  5
28E08
330
747D
100
AcDbEntity
  8
部品1
100
AcDbLine
 10
8025.053998146523
 20
1872.998800139456
 30
0.0
 11
8067.353998146524
 21
1872.998800139452
 31
0.0
  0
LINE
  5
28E09
330
747D
100
AcDbEntity
  8
部品1
100
AcDbLine
 10
8022.353998146524
 20
1862.198800139455
 30
0.0
 11
8022.353998146524
 21
1870.298800139455
 31
0.0
  0
LINE
  5
28E0A
330
747D
100
AcDbEntity
  8
部品1
100
AcDbLine
 10
8022.353998146524
 20
1862.198800139455
 30
0.0
 11
8022.353998146524
 21
1862.198800139455
 31
0.0
  0
ARC
  5
28E0B
330
747D
100
AcDbEntity
  8
部品1
100
AcDbCircle
 10
8025.053998146523
 20
1870.298800139455
 30
0.0
 40
2.7
100
AcDbArc
 50
90.0
 51
180.0
  0
ARC
  5
28E0C
330
747D
100
AcDbEntity
  8
部品1
100
AcDbCircle
 10
8067.353998146524
 20
1870.298800139452
 30
0.0
 40
2.7
100
AcDbArc
 50
0.0
 51
90.0
  0
LINE
  5
28E0D
330
747D
100
AcDbEntity
  8
部品1
 48
50.0
100
AcDbLine
 10
8143.453998146524
 20
2030.522088583728
 30
0.0
 11
8143.453998146524
 21
2020.922088583728
 31
0.0
  0
ELLIPSE
  5
28E0E
330
747D
100
AcDbEntity
  8
部品1
 48
50.0
100
AcDbEllipse
 10
8183.453998146523
 20
2020.922088583729
 30
0.0
 11
40.0
 21
0.0
 31
0.0
210
0.0
220
0.0
230
1.0
 40
0.4
 41
3.141592653589793
 42
6.283185307179586
  0
ELLIPSE
  5
28E0F
330
747D
100
AcDbEntity
  8
部品1
 48
50.0
100
AcDbEllipse
 10
8183.453998146523
 20
2030.522088583728
 30
0.0
 11
40.0
 21
0.0
 31
0.0
210
0.0
220
0.0
230
1.0
 40
0.4
 41
0.0
 42
6.283185307179586
  0
LINE
  5
28E10
330
747D
100
AcDbEntity
  8
部品1
100
AcDbLine
 10
8178.053998146522
 20
1814.158800139455
 30
0.0
 11
8188.853998146525
 21
1814.158800139455
 31
0.0
  0
LINE
  5
28E11
330
747D
100
AcDbEntity
  8
部品1
100
AcDbLine
 10
8174.453998146523
 20
1810.558800139456
 30
0.0
 11
8192.453998146524
 21
1810.558800139456
 31
0.0
  0
LINE
  5
28E12
330
747D
100
AcDbEntity
  8
細線
100
AcDbLine
 10
8178.053998146527
 20
1770.958800139456
 30
0.0
 11
8178.053998146522
 21
1814.158800139455
 31
0.0
  0
LINE
  5
28E13
330
747D
100
AcDbEntity
  8
細線
100
AcDbLine
 10
8188.853998146525
 20
1770.958800139456
 30
0.0
 11
8188.853998146525
 21
1814.158800139455
 31
0.0
  0
LINE
  5
28E14
330
747D
100
AcDbEntity
  8
部品1
100
AcDbLine
 10
8090.753998146523
 20
1828.258800139456
 30
0.0
 11
8090.753998146523
 21
1811.158800139456
 31
0.0
  0
LINE
  5
28E15
330
747D
100
AcDbEntity
  8
部品1
100
AcDbLine
 10
8124.313998146524
 20
1828.258800139456
 30
0.0
 11
8124.31399814652
 21
1773.658800139456
 31
0.0
  0
ARC
  5
28E16
330
747D
100
AcDbEntity
  8
部品1
100
AcDbCircle
 10
8109.653998146525
 20
1816.298800139455
 30
0.0
 40
2.7
100
AcDbArc
 50
0.0
 51
90.0
  0
LINE
  5
28E17
330
747D
100
AcDbEntity
  8
部品1
100
AcDbLine
 10
8070.053998146523
 20
1818.998800139456
 30
0.0
 11
8109.653998146525
 21
1818.998800139456
 31
0.0
  0
ARC
  5
28E18
330
747D
100
AcDbEntity
  8
部品1
100
AcDbCircle
 10
8109.653998146525
 20
1773.658800139456
 30
0.0
 40
2.7
100
AcDbArc
 50
270.0
 51
0.0
  0
ARC
  5
28E19
330
747D
100
AcDbEntity
  8
部品1
100
AcDbCircle
 10
8127.013998146518
 20
1773.658800139456
 30
0.0
 40
2.7
100
AcDbArc
 50
180.0
 51
270.0
  0
LINE
  5
28E1A
330
747D
100
AcDbEntity
  8
部品1
100
AcDbLine
 10
8097.953998146524
 20
1770.958800139456
 30
0.0
 11
8109.653998146525
 21
1770.958800139456
 31
0.0
  0
LINE
  5
28E1B
330
747D
100
AcDbEntity
  8
部品1
100
AcDbLine
 10
8112.353998146524
 20
1816.298800139455
 30
0.0
 11
8112.353998146524
 21
1773.658800139456
 31
0.0
  0
ARC
  5
28E1C
330
747D
100
AcDbEntity
  8
部品1
100
AcDbCircle
 10
8121.613998146525
 20
1828.258800139456
 30
0.0
 40
2.7
100
AcDbArc
 50
0.0
 51
90.0
  0
ARC
  5
28E1D
330
747D
100
AcDbEntity
  8
部品1
100
AcDbCircle
 10
8093.453998146525
 20
1828.258800139456
 30
0.0
 40
2.7
100
AcDbArc
 50
90.0
 51
180.0
  0
LINE
  5
28E1E
330
747D
100
AcDbEntity
  8
部品1
100
AcDbLine
 10
8093.453998146525
 20
1830.958800139456
 30
0.0
 11
8121.613998146525
 21
1830.958800139456
 31
0.0
  0
LINE
  5
28E1F
330
747D
100
AcDbEntity
  8
部品1
100
AcDbLine
 10
8070.053998146523
 20
1870.298800139452
 30
0.0
 11
8070.053998146523
 21
1818.998800139456
 31
0.0
  0
LINE
  5
28E20
330
747D
100
AcDbEntity
  8
部品1
100
AcDbLine
 10
8019.653998146525
 20
1851.398800139455
 30
0.0
 11
8019.653998146525
 21
1859.498800139456
 31
0.0
  0
LINE
  5
28E21
330
747D
100
AcDbEntity
  8
部品1
100
AcDbLine
 10
8127.013998146518
 20
1770.958800139456
 30
0.0
 11
8328.353998146518
 21
1770.958800139456
 31
0.0
  0
LINE
  5
28E22
330
747D
100
AcDbEntity
  8
部品1
100
AcDbLine
 10
7968.353998146525
 20
1773.658800139456
 30
0.0
 11
7968.353998146525
 21
1835.790703842164
 31
0.0
  0
LINE
  5
28E23
330
747D
100
AcDbEntity
  8
部品1
100
AcDbLine
 10
7971.053998146523
 20
1770.958800139456
 30
0.0
 11
7982.753998146518
 21
1770.958800139456
 31
0.0
  0
LINE
  5
28E24
330
747D
100
AcDbEntity
  8
細線
 48
50.0
100
AcDbLine
 10
7962.053998146522
 20
1749.17937643936
 30
0.0
 11
7974.273421846618
 21
1761.398800139456
 31
0.0
  0
ARC
  5
28E25
330
747D
100
AcDbEntity
  8
部品1
100
AcDbCircle
 10
7971.053998146523
 20
1773.658800139456
 30
0.0
 40
2.7
100
AcDbArc
 50
180.0
 51
270.0
  0
LINE
  5
28E26
330
747D
100
AcDbEntity
  8
部品1
100
AcDbLine
 10
7970.399151958925
 20
1838.410088592555
 30
0.0
 11
7979.153998146525
 21
1840.598800139455
 31
0.0
  0
ARC
  5
28E27
330
747D
100
AcDbEntity
  8
部品1
100
AcDbCircle
 10
7971.053998146523
 20
1835.790703842164
 30
0.0
 40
2.7
100
AcDbArc
 50
104.0362434679067
 51
180.0
  0
ARC
  5
28E28
330
747D
100
AcDbEntity
  8
部品1
100
AcDbCircle
 10
7981.853998146523
 20
1848.698800139455
 30
0.0
 40
2.7
100
AcDbArc
 50
90.0
 51
180.0
  0
LINE
  5
28E29
330
747D
100
AcDbEntity
  8
部品1
100
AcDbLine
 10
7979.153998146525
 20
1840.598800139455
 30
0.0
 11
7979.153998146525
 21
1848.698800139455
 31
0.0
  0
LINE
  5
28E2A
330
747D
100
AcDbEntity
  8
部品1
 48
50.0
100
AcDbLine
 10
7962.053998146522
 20
1761.398800139456
 30
0.0
 11
8376.053998146527
 21
1761.398800139456
 31
0.0
  0
LINE
  5
28E2B
330
747D
100
AcDbEntity
  8
細線
 48
50.0
100
AcDbLine
 10
7962.053998146522
 20
1695.297839712945
 30
0.0
 11
8028.154958573033
 21
1761.398800139456
 31
0.0
  0
LINE
  5
28E2C
330
747D
100
AcDbEntity
  8
細線
 48
50.0
100
AcDbLine
 10
7962.053998146522
 20
1722.238608076153
 30
0.0
 11
8001.214190209831
 21
1761.398800139456
 31
0.0
  0
LINE
  5
28E2D
330
747D
100
AcDbEntity
  8
部品1
100
AcDbLine
 10
7981.853998146523
 20
1851.398800139455
 30
0.0
 11
8019.653998146525
 21
1851.398800139455
 31
0.0
  0
LINE
  5
28E2E
330
747D
100
AcDbEntity
  8
部品1
 48
50.0
100
AcDbLine
 10
8376.053998146522
 20
1217.398800139455
 30
0.0
 11
8504.053998146522
 21
1217.398800139455
 31
0.0
  0
LINE
  5
28E2F
330
747D
100
AcDbEntity
  8
部品1
100
AcDbLine
 10
8192.453998146524
 20
1536.398800139455
 30
0.0
 11
8228.453998146525
 21
1536.398800139455
 31
0.0
  0
LINE
  5
28E30
330
747D
100
AcDbEntity
  8
部品1
100
AcDbLine
 10
8192.453998146524
 20
1518.398800139455
 30
0.0
 11
8228.453998146525
 21
1518.398800139455
 31
0.0
  0
ARC
  5
28E31
330
747D
100
AcDbEntity
  8
部品1
100
AcDbCircle
 10
8192.453998146524
 20
1536.398800139455
 30
0.0
 40
18.0
100
AcDbArc
 50
180.0
 51
270.0
  0
LINE
  5
28E32
330
747D
100
AcDbEntity
  8
部品1
100
AcDbLine
 10
8228.453998146525
 20
1518.398800139455
 30
0.0
 11
8228.453998146525
 21
1536.398800139455
 31
0.0
  0
LINE
  5
28E33
330
747D
100
AcDbEntity
  8
部品1
100
AcDbLine
 10
8246.453998146524
 20
1437.398800139454
 30
0.0
 11
8120.453998146517
 21
1437.398800139454
 31
0.0
  0
LINE
  5
28E34
330
747D
100
AcDbEntity
  8
細線
 48
50.0
100
AcDbLine
 10
8540.43182333886
 20
953.3988001394536
 30
0.0
 11
8534.001042720513
 21
977.3988001394537
 31
0.0
  0
LINE
  5
28E35
330
747D
100
AcDbEntity
  8
細線
 48
50.0
100
AcDbLine
 10
8461.543778391613
 20
953.3988001394536
 30
0.0
 11
8455.112997773268
 21
977.3988001394537
 31
0.0
  0
LINE
  5
28E36
330
747D
100
AcDbEntity
  8
細線
 48
50.0
100
AcDbLine
 10
8382.655733444357
 20
953.3988001394554
 30
0.0
 11
8376.224952826008
 21
977.3988001394554
 31
0.0
  0
LINE
  5
28E37
330
747D
100
AcDbEntity
  8
細線
 48
50.0
100
AcDbLine
 10
8518.995887944369
 20
873.3988001394536
 30
0.0
 11
8525.426668562717
 21
849.3988001394537
 31
0.0
  0
LINE
  5
28E38
330
747D
100
AcDbEntity
  8
細線
 48
50.0
100
AcDbLine
 10
8440.107842997123
 20
873.3988001394536
 30
0.0
 11
8446.53862361547
 21
849.3988001394537
 31
0.0
  0
LINE
  5
28E39
330
747D
100
AcDbEntity
  8
細線
 48
50.0
100
AcDbLine
 10
8361.219798049875
 20
873.3988001394555
 30
0.0
 11
8367.650578668232
 21
849.3988001394555
 31
0.0
  0
LINE
  5
28E3A
330
747D
100
AcDbEntity
  8
細線
 48
50.0
100
AcDbLine
 10
8433.677062378775
 20
849.3988001394527
 30
0.0
 11
8467.974559009958
 21
977.3988001394528
 31
0.0
  0
LINE
  5
28E3B
330
747D
100
AcDbEntity
  8
細線
 48
50.0
100
AcDbLine
 10
8354.789017431526
 20
849.3988001394537
 30
0.0
 11
8389.0865140627
 21
977.3988001394554
 31
0.0
  0
LINE
  5
28E3C
330
747D
100
AcDbEntity
  8
細線
 48
50.0
100
AcDbLine
 10
8512.565107326018
 20
849.3988001394537
 30
0.0
 11
8546.862603957205
 21
977.3988001394528
 31
0.0
  0
LINE
  5
28E3D
330
747D
100
AcDbEntity
  8
部品1
 48
50.0
100
AcDbLine
 10
8584.053998146528
 20
977.3988001394554
 30
0.0
 11
8584.053998146528
 21
849.3988001394555
 31
0.0
  0
LINE
  5
28E3E
330
747D
100
AcDbEntity
  8
細線
 48
50.0
100
AcDbLine
 10
8303.767688497119
 20
953.3988001394554
 30
0.0
 11
8297.336907878772
 21
977.3988001394554
 31
0.0
  0
LINE
  5
28E3F
330
747D
100
AcDbEntity
  8
細線
 48
50.0
100
AcDbLine
 10
8224.879643549874
 20
953.3988001394554
 30
0.0
 11
8218.448862931525
 21
977.3988001394554
 31
0.0
  0
LINE
  5
28E40
330
747D
100
AcDbEntity
  8
細線
 48
50.0
100
AcDbLine
 10
8067.103553655378
 20
953.3988001394554
 30
0.0
 11
8060.672773037033
 21
977.3988001394554
 31
0.0
  0
LINE
  5
28E41
330
747D
100
AcDbEntity
  8
細線
 48
50.0
100
AcDbLine
 10
8145.991598602625
 20
953.3988001394554
 30
0.0
 11
8139.560817984278
 21
977.3988001394554
 31
0.0
  0
LINE
  5
28E42
330
747D
100
AcDbEntity
  8
細線
 48
50.0
100
AcDbLine
 10
8203.443708155385
 20
873.3988001394555
 30
0.0
 11
8209.874488773731
 21
849.3988001394555
 31
0.0
  0
LINE
  5
28E43
330
747D
100
AcDbEntity
  8
細線
 48
50.0
100
AcDbLine
 10
8282.33175310263
 20
873.3988001394555
 30
0.0
 11
8288.762533720975
 21
849.3988001394555
 31
0.0
  0
LINE
  5
28E44
330
747D
100
AcDbEntity
  8
細線
 48
50.0
100
AcDbLine
 10
8045.667618260891
 20
873.3988001394555
 30
0.0
 11
8052.098398879238
 21
849.3988001394555
 31
0.0
  0
LINE
  5
28E45
330
747D
100
AcDbEntity
  8
細線
 48
50.0
100
AcDbLine
 10
8124.555663208138
 20
873.3988001394555
 30
0.0
 11
8130.986443826484
 21
849.3988001394555
 31
0.0
  0
LINE
  5
28E46
330
747D
100
AcDbEntity
  8
細線
 48
50.0
100
AcDbLine
 10
8275.900972484278
 20
849.3988001394555
 30
0.0
 11
8310.19846911546
 21
977.3988001394537
 31
0.0
  0
LINE
  5
28E47
330
747D
100
AcDbEntity
  8
細線
 48
50.0
100
AcDbLine
 10
8118.124882589786
 20
849.3988001394555
 30
0.0
 11
8152.42237922097
 21
977.3988001394537
 31
0.0
  0
LINE
  5
28E48
330
747D
100
AcDbEntity
  8
細線
 48
50.0
100
AcDbLine
 10
8039.236837642539
 20
849.3988001394555
 30
0.0
 11
8073.534334273722
 21
977.3988001394554
 31
0.0
  0
LINE
  5
28E49
330
747D
100
AcDbEntity
  8
細線
 48
50.0
100
AcDbLine
 10
8197.012927537036
 20
849.3988001394537
 30
0.0
 11
8231.310424168215
 21
977.3988001394537
 31
0.0
  0
LINE
  5
28E4A
330
747D
100
AcDbEntity
  8
細線
 48
50.0
100
AcDbLine
 10
8321.785693101331
 20
977.3988001394554
 30
0.0
 11
8504.053998146522
 21
1159.667105184651
 31
0.0
  0
LINE
  5
28E4B
330
747D
100
AcDbEntity
  8
部品1
 48
50.0
100
AcDbLine
 10
8504.053998146522
 20
1217.398800139455
 30
0.0
 11
8504.053998146522
 21
977.3988001394554
 31
0.0
  0
LINE
  5
28E4C
330
747D
100
AcDbEntity
  8
細線
 48
50.0
100
AcDbLine
 10
8294.844924738129
 20
977.3988001394554
 30
0.0
 11
8504.053998146522
 21
1186.607873547848
 31
0.0
  0
LINE
  5
28E4D
330
747D
100
AcDbEntity
  8
細線
 48
50.0
100
AcDbLine
 10
8267.904156374916
 20
977.3988001394554
 30
0.0
 11
8504.053998146522
 21
1213.548641911064
 31
0.0
  0
LINE
  5
28E4E
330
747D
100
AcDbEntity
  8
細線
 48
50.0
100
AcDbLine
 10
8052.378009469258
 20
977.3988001394554
 30
0.0
 11
8376.053998146522
 21
1301.074788816722
 31
0.0
  0
LINE
  5
28E4F
330
747D
100
AcDbEntity
  8
細線
 48
50.0
100
AcDbLine
 10
8106.259546195673
 20
977.3988001394554
 30
0.0
 11
8376.053998146522
 21
1247.193252090313
 31
0.0
  0
LINE
  5
28E50
330
747D
100
AcDbEntity
  8
細線
 48
50.0
100
AcDbLine
 10
8079.318777832467
 20
977.3988001394554
 30
0.0
 11
8376.053998146522
 21
1274.134020453508
 31
0.0
  0
LINE
  5
28E51
330
747D
100
AcDbEntity
  8
細線
 48
50.0
100
AcDbLine
 10
7834.05399814652
 20
1190.127082628041
 30
0.0
 11
7861.325715657938
 21
1217.398800139455
 31
0.0
  0
LINE
  5
28E52
330
747D
100
AcDbEntity
  8
部品1
 48
50.0
100
AcDbLine
 10
7834.053998146522
 20
1217.398800139455
 30
0.0
 11
7962.053998146522
 21
1217.398800139455
 31
0.0
  0
LINE
  5
28E53
330
747D
100
AcDbEntity
  8
細線
 48
50.0
100
AcDbLine
 10
7834.05399814652
 20
1163.186314264831
 30
0.0
 11
7888.266484021148
 21
1217.398800139455
 31
0.0
  0
LWPOLYLINE
  5
28E54
330
747D
100
AcDbEntity
  8
部品1
 48
50.0
100
AcDbPolyline
 90
        2
 70
     0
 43
8.0
 10
7547.914096313568
 20
1521.398800139456
 10
7962.053998146522
 20
1521.398800139456
  0
LINE
  5
28E55
330
747D
100
AcDbEntity
  8
細線
 48
50.0
100
AcDbLine
 10
7909.327463760877
 20
953.3988001394554
 30
0.0
 11
7902.896683142529
 21
977.3988001394554
 31
0.0
  0
LINE
  5
28E56
330
747D
100
AcDbEntity
  8
細線
 48
50.0
100
AcDbLine
 10
7988.215508708129
 20
953.3988001394554
 30
0.0
 11
7981.784728089781
 21
977.3988001394554
 31
0.0
  0
LINE
  5
28E57
330
747D
100
AcDbEntity
  8
細線
 48
50.0
100
AcDbLine
 10
7830.439418813624
 20
953.3988001394554
 30
0.0
 11
7824.008638195279
 21
977.3988001394554
 31
0.0
  0
LINE
  5
28E58
330
747D
100
AcDbEntity
  8
細線
 48
50.0
100
AcDbLine
 10
7754.053998146523
 20
962.7387211052354
 30
0.0
 11
7757.982154484718
 21
977.3988001394554
 31
0.0
  0
LINE
  5
28E59
330
747D
100
AcDbEntity
  8
細線
 48
50.0
100
AcDbLine
 10
7887.891528366388
 20
873.3988001394555
 30
0.0
 11
7894.322308984735
 21
849.3988001394555
 31
0.0
  0
LINE
  5
28E5A
330
747D
100
AcDbEntity
  8
細線
 48
50.0
100
AcDbLine
 10
7966.779573313639
 20
873.3988001394555
 30
0.0
 11
7973.210353931986
 21
849.3988001394555
 31
0.0
  0
LINE
  5
28E5B
330
747D
100
AcDbEntity
  8
細線
 48
50.0
100
AcDbLine
 10
7809.003483419136
 20
873.3988001394555
 30
0.0
 11
7815.434264037482
 21
849.3988001394555
 31
0.0
  0
LINE
  5
28E5C
330
747D
100
AcDbEntity
  8
細線
 48
50.0
100
AcDbLine
 10
7960.348792695288
 20
849.3988001394537
 30
0.0
 11
7994.646289326469
 21
977.3988001394537
 31
0.0
  0
LINE
  5
28E5D
330
747D
100
AcDbEntity
  8
細線
 48
50.0
100
AcDbLine
 10
7802.572702800782
 20
849.3988001394537
 30
0.0
 11
7836.870199431965
 21
977.3988001394537
 31
0.0
  0
LINE
  5
28E5E
330
747D
100
AcDbEntity
  8
部品1
 48
50.0
100
AcDbLine
 10
7754.053998146526
 20
849.3988001394555
 30
0.0
 11
7754.053998146526
 21
977.3988001394554
 31
0.0
  0
LINE
  5
28E5F
330
747D
100
AcDbEntity
  8
細線
 48
50.0
100
AcDbLine
 10
7881.46074774804
 20
849.3988001394555
 30
0.0
 11
7915.758244379223
 21
977.3988001394554
 31
0.0
  0
LINE
  5
28E60
330
747D
100
AcDbEntity
  8
部品1
 48
50.0
100
AcDbLine
 10
7834.053998146522
 20
977.3988001394554
 30
0.0
 11
7834.053998146522
 21
1217.398800139455
 31
0.0
  0
LINE
  5
28E61
330
747D
100
AcDbEntity
  8
細線
 48
50.0
100
AcDbLine
 10
7834.05399814652
 20
1136.245545901626
 30
0.0
 11
7915.207252384353
 21
1217.398800139455
 31
0.0
  0
LINE
  5
28E62
330
747D
100
AcDbEntity
  8
部品1
 48
50.0
100
AcDbLine
 10
8584.053998146528
 20
849.3988001394555
 30
0.0
 11
7754.053998146526
 21
849.3988001394555
 31
0.0
  0
LINE
  5
28E63
330
747D
100
AcDbEntity
  8
部品1
 48
50.0
100
AcDbLine
 10
8584.053998146528
 20
977.3988001394554
 30
0.0
 11
7754.053998146526
 21
977.3988001394554
 31
0.0
  0
LINE
  5
28E64
330
747D
100
AcDbEntity
  8
細線
 48
50.0
100
AcDbLine
 10
7836.851862563598
 20
977.3988001394554
 30
0.0
 11
8376.053998146522
 21
1516.600935722381
 31
0.0
  0
LINE
  5
28E65
330
747D
100
AcDbEntity
  8
細線
 48
50.0
100
AcDbLine
 10
7863.792630926808
 20
977.3988001394554
 30
0.0
 11
8376.053998146527
 21
1489.660167359169
 31
0.0
  0
LINE
  5
28E66
330
747D
100
AcDbEntity
  8
細線
 48
50.0
100
AcDbLine
 10
7890.733399290013
 20
977.3988001394554
 30
0.0
 11
8376.053998146522
 21
1462.719398995963
 31
0.0
  0
LINE
  5
28E67
330
747D
100
AcDbEntity
  8
細線
 48
50.0
100
AcDbLine
 10
7962.053998146522
 20
1318.127082628042
 30
0.0
 11
8120.453998146517
 21
1476.527082628036
 31
0.0
  0
LINE
  5
28E68
330
747D
100
AcDbEntity
  8
細線
 48
50.0
100
AcDbLine
 10
7962.053998146522
 20
1264.245545901626
 30
0.0
 11
8135.207252384359
 21
1437.398800139454
 31
0.0
  0
LINE
  5
28E69
330
747D
100
AcDbEntity
  8
細線
 48
50.0
100
AcDbLine
 10
7962.053998146522
 20
1291.186314264833
 30
0.0
 11
8120.453998146517
 21
1449.586314264822
 31
0.0
  0
LINE
  5
28E6A
330
747D
100
AcDbEntity
  8
部品1
100
AcDbLine
 10
8120.453998146517
 20
1437.398800139455
 30
0.0
 11
8120.453998146524
 21
1761.398800139456
 31
0.0
  0
LINE
  5
28E6B
330
747D
100
AcDbEntity
  8
部品1
100
AcDbLine
 10
8246.453998146524
 20
1437.398800139455
 30
0.0
 11
8246.453998146524
 21
1761.398800139456
 31
0.0
  0
LINE
  5
28E6C
330
747D
100
AcDbEntity
  8
細線
 48
50.0
100
AcDbLine
 10
8246.453998146524
 20
1575.586314264827
 30
0.0
 11
8376.053998146522
 21
1705.186314264824
 31
0.0
  0
LINE
  5
28E6D
330
747D
100
AcDbEntity
  8
細線
 48
50.0
100
AcDbLine
 10
8246.453998146524
 20
1548.645545901614
 30
0.0
 11
8376.053998146522
 21
1678.245545901605
 31
0.0
  0
LINE
  5
28E6E
330
747D
100
AcDbEntity
  8
部品1
100
AcDbLine
 10
8174.453998146523
 20
1536.398800139455
 30
0.0
 11
8174.453998146521
 21
1810.558800139456
 31
0.0
  0
LINE
  5
28E6F
330
747D
100
AcDbEntity
  8
部品1
100
AcDbLine
 10
8192.453998146524
 20
1536.398800139455
 30
0.0
 11
8192.45399814652
 21
1810.558800139456
 31
0.0
  0
TEXT
  5
28E70
330
747D
100
AcDbEntity
  8
部品1
 48
50.0
100
AcDbText
 10
7547.914096313568
 20
1532.63779242271
 30
0.0
 40
80.0
  1
▽G.L
  7
STYLE2
100
AcDbText
  0
LINE
  5
28E71
330
747D
100
AcDbEntity
  8
細線
 48
50.0
100
AcDbLine
 10
7962.053998146522
 20
1479.771692807286
 30
0.0
 11
8120.453998146521
 21
1638.171692807278
 31
0.0
  0
LINE
  5
28E72
330
747D
100
AcDbEntity
  8
細線
 48
50.0
100
AcDbLine
 10
7962.053998146522
 20
1506.712461170493
 30
0.0
 11
8120.453998146523
 21
1665.112461170491
 31
0.0
  0
LINE
  5
28E73
330
747D
100
AcDbEntity
  8
細線
 48
50.0
100
AcDbLine
 10
7962.053998146522
 20
1533.653229533701
 30
0.0
 11
8120.453998146523
 21
1692.053229533698
 31
0.0
  0
LINE
  5
28E74
330
747D
100
AcDbEntity
  8
部品1
 48
50.0
100
AcDbLine
 10
7962.053998146522
 20
1217.398800139455
 30
0.0
 11
7962.053998146522
 21
1761.398800139456
 31
0.0
  0
LINE
  5
28E75
330
747D
100
AcDbEntity
  8
部品1
100
AcDbLine
 10
8376.053998146522
 20
1217.398800139455
 30
0.0
 11
8376.053998146522
 21
1761.398800139456
 31
0.0
  0
LINE
  5
28E76
330
747D
100
AcDbEntity
  8
細線
 48
50.0
100
AcDbLine
 10
8246.453998146524
 20
1602.527082628044
 30
0.0
 11
8376.053998146522
 21
1732.127082628042
 31
0.0
  0
LINE
  5
28E77
330
747D
100
AcDbEntity
  8
細線
 48
50.0
100
AcDbLine
 10
6370.5071074718
 20
1642.145652036171
 30
0.0
 11
6454.01468496933
 21
1725.653229533701
 31
0.0
  0
LINE
  5
28E78
330
747D
100
AcDbEntity
  8
細線
 48
50.0
100
AcDbLine
 10
6381.567392235316
 20
1626.265168436477
 30
0.0
 11
6454.01468496933
 21
1698.712461170493
 31
0.0
  0
LINE
  5
28E79
330
747D
100
AcDbEntity
  8
細線
 48
50.0
100
AcDbLine
 10
6262.01468496933
 20
1749.17937643936
 30
0.0
 11
6274.234108669425
 21
1761.398800139456
 31
0.0
  0
LINE
  5
28E7A
330
747D
100
AcDbEntity
  8
細線
 48
50.0
100
AcDbLine
 10
6262.01468496933
 20
1695.297839712945
 30
0.0
 11
6328.11564539584
 21
1761.398800139456
 31
0.0
  0
LINE
  5
28E7B
330
747D
100
AcDbEntity
  8
細線
 48
50.0
100
AcDbLine
 10
6262.01468496933
 20
1722.238608076153
 30
0.0
 11
6301.174877032634
 21
1761.398800139456
 31
0.0
  0
LINE
  5
28E7C
330
747D
100
AcDbEntity
  8
部品1
 48
50.0
100
AcDbLine
 10
6262.01468496933
 20
1761.398800139456
 30
0.0
 11
6454.01468496933
 21
1761.398800139456
 31
0.0
  0
DIMENSION
  5
28E7D
330
747D
100
AcDbEntity
  8
寸法
 48
50.0
100
AcDbDimension
  2
*D60
 10
6262.014684969329
 20
2181.066608055836
 30
0.0
 11
6358.014684969329
 21
2181.066608055836
 31
0.0
 70
   160
  1
120\P200\P280
 71
     5
 42
192.0
  3
INABA_S40G
100
AcDbAlignedDimension
 13
6454.014684969329
 23
1761.398800139456
 33
0.0
 14
6262.014684969329
 24
1761.398800139456
 34
0.0
100
AcDbRotatedDimension
1001
ACAD
1000
DSTYLE
1002
{
1070
   341
1005
0
1002
}
  0
MTEXT
  5
28E7E
102
{ACAD_REACTORS
330
28ED3
102
}
330
747D
100
AcDbEntity
  8
寸法
 62
     7
 48
50.0
100
AcDbMText
 10
6695.753140830581
 20
800.0497144073024
 30
0.0
 40
80.0
 41
0.8
 71
     4
 72
     1
  1
\A1;D10@300
  7
STYLE2
 73
     1
 44
1.0
1001
ACAD
1000
MTEXTBEGIN
1070
    73
1070
     1
1070
    44
1040
1.0
1070
    74
1070
     0
1000
MTEXTEND
  0
LINE
  5
28E7F
330
747D
100
AcDbEntity
  8
細線
 48
50.0
100
AcDbLine
 10
6382.014684969336
 20
1411.186314264836
 30
0.0
 11
6454.014684969322
 21
1483.186314264831
 31
0.0
  0
LINE
  5
28E80
330
747D
100
AcDbEntity
  8
細線
 48
50.0
100
AcDbLine
 10
6382.01468496933
 20
1438.127082628041
 30
0.0
 11
6454.01468496933
 21
1510.127082628041
 31
0.0
  0
LINE
  5
28E81
330
747D
100
AcDbEntity
  8
細線
 48
50.0
100
AcDbLine
 10
6382.014684969336
 20
1168.719398995967
 30
0.0
 11
6454.014684969322
 21
1240.719398995967
 31
0.0
  0
LINE
  5
28E82
330
747D
100
AcDbEntity
  8
細線
 48
50.0
100
AcDbLine
 10
6382.014684969336
 20
1222.600935722385
 30
0.0
 11
6454.014684969322
 21
1294.600935722381
 31
0.0
  0
LINE
  5
28E83
330
747D
100
AcDbEntity
  8
細線
 48
50.0
100
AcDbLine
 10
6382.014684969336
 20
1195.660167359177
 30
0.0
 11
6454.014684969322
 21
1267.660167359171
 31
0.0
  0
LINE
  5
28E84
330
747D
100
AcDbEntity
  8
部品1
 48
50.0
100
AcDbLine
 10
6454.01468496933
 20
1217.398800139455
 30
0.0
 11
6582.01468496933
 21
1217.398800139455
 31
0.0
  0
LINE
  5
28E85
330
747D
100
AcDbEntity
  8
細線
 48
50.0
100
AcDbLine
 10
6382.014684969336
 20
1384.245545901626
 30
0.0
 11
6454.014684969322
 21
1456.245545901626
 31
0.0
  0
LINE
  5
28E86
330
747D
100
AcDbEntity
  8
部品1
 48
50.0
100
AcDbLine
 10
6350.01468496933
 20
1563.526014836578
 30
0.0
 11
6350.01468496933
 21
1621.653229533701
 31
0.0
  0
LINE
  5
28E87
330
747D
100
AcDbEntity
  8
細線
 48
50.0
100
AcDbLine
 10
6262.01468496933
 20
1533.653229533701
 30
0.0
 11
6334.01468496933
 21
1605.653229533701
 31
0.0
  0
LINE
  5
28E88
330
747D
100
AcDbEntity
  8
部品1
 48
50.0
100
AcDbLine
 10
6334.01468496933
 20
1563.526014836581
 30
0.0
 11
6334.01468496933
 21
1621.653229533701
 31
0.0
  0
LINE
  5
28E89
330
747D
100
AcDbEntity
  8
細線
 48
50.0
100
AcDbLine
 10
6262.01468496933
 20
1506.712461170493
 30
0.0
 11
6334.01468496933
 21
1578.712461170493
 31
0.0
  0
LINE
  5
28E8A
330
747D
100
AcDbEntity
  8
細線
 48
50.0
100
AcDbLine
 10
6262.01468496933
 20
1479.771692807286
 30
0.0
 11
6345.769006998624
 21
1563.526014836578
 31
0.0
  0
LINE
  5
28E8B
330
747D
100
AcDbEntity
  8
部品1
 48
50.0
100
AcDbLine
 10
6350.01468496933
 20
1563.526014836578
 30
0.0
 11
6334.01468496933
 21
1563.526014836581
 31
0.0
  0
LINE
  5
28E8C
330
747D
100
AcDbEntity
  8
細線
 48
50.0
100
AcDbLine
 10
6134.014684969322
 20
1190.127082628041
 30
0.0
 11
6161.286402480744
 21
1217.398800139455
 31
0.0
  0
LINE
  5
28E8D
330
747D
100
AcDbEntity
  8
細線
 48
50.0
100
AcDbLine
 10
6134.014684969322
 20
1163.186314264831
 30
0.0
 11
6188.227170843955
 21
1217.398800139455
 31
0.0
  0
LINE
  5
28E8E
330
747D
100
AcDbEntity
  8
部品1
 48
50.0
100
AcDbLine
 10
6134.01468496933
 20
1217.398800139455
 30
0.0
 11
6262.01468496933
 21
1217.398800139455
 31
0.0
  0
LINE
  5
28E8F
330
747D
100
AcDbEntity
  8
細線
 48
50.0
100
AcDbLine
 10
6350.01468496933
 20
1594.712461170493
 30
0.0
 11
6366.01468496933
 21
1610.712461170493
 31
0.0
  0
LINE
  5
28E90
330
747D
100
AcDbEntity
  8
細線
 48
50.0
100
AcDbLine
 10
6350.01468496933
 20
1567.771692807286
 30
0.0
 11
6366.01468496933
 21
1583.771692807286
 31
0.0
  0
LINE
  5
28E91
330
747D
100
AcDbEntity
  8
細線
 48
50.0
100
AcDbLine
 10
6262.01468496933
 20
1264.245545901626
 30
0.0
 11
6366.014684969336
 21
1368.245545901626
 31
0.0
  0
LINE
  5
28E92
330
747D
100
AcDbEntity
  8
細線
 48
50.0
100
AcDbLine
 10
6262.01468496933
 20
1318.127082628042
 30
0.0
 11
6366.01468496933
 21
1422.127082628041
 31
0.0
  0
LINE
  5
28E93
330
747D
100
AcDbEntity
  8
細線
 48
50.0
100
AcDbLine
 10
6262.01468496933
 20
1291.186314264833
 30
0.0
 11
6366.014684969336
 21
1395.186314264836
 31
0.0
  0
LINE
  5
28E94
330
747D
100
AcDbEntity
  8
細線
 48
50.0
100
AcDbLine
 10
6524.840330372677
 20
953.3988001394554
 30
0.0
 11
6518.409549754331
 21
977.3988001394554
 31
0.0
  0
LINE
  5
28E95
330
747D
100
AcDbEntity
  8
細線
 48
50.0
100
AcDbLine
 10
6567.864843197724
 20
977.3988001394554
 30
0.0
 11
6582.01468496933
 21
991.5486419110621
 31
0.0
  0
LINE
  5
28E96
330
747D
100
AcDbEntity
  8
細線
 48
50.0
100
AcDbLine
 10
6603.728375319924
 20
953.3988001394554
 30
0.0
 11
6597.297594701577
 21
977.3988001394554
 31
0.0
  0
LINE
  5
28E97
330
747D
100
AcDbEntity
  8
部品1
 48
50.0
100
AcDbLine
 10
6526.01468496933
 20
1089.398800139455
 30
0.0
 11
6526.01468496933
 21
1073.398800139455
 31
0.0
  0
LINE
  5
28E98
330
747D
100
AcDbEntity
  8
細線
 48
50.0
100
AcDbLine
 10
6406.220233018477
 20
977.3988001394554
 30
0.0
 11
6502.221120863615
 21
1073.399687984594
 31
0.0
  0
LINE
  5
28E99
330
747D
100
AcDbEntity
  8
細線
 48
50.0
100
AcDbLine
 10
6379.279464655274
 20
977.3988001394554
 30
0.0
 11
6475.279464655274
 21
1073.398800139455
 31
0.0
  0
LINE
  5
28E9A
330
747D
100
AcDbEntity
  8
細線
 48
50.0
100
AcDbLine
 10
6445.952285425431
 20
953.3988001394554
 30
0.0
 11
6439.521504807086
 21
977.3988001394554
 31
0.0
  0
LINE
  5
28E9B
330
747D
100
AcDbEntity
  8
細線
 48
50.0
100
AcDbLine
 10
6367.064240478186
 20
953.3988001394554
 30
0.0
 11
6360.633459859839
 21
977.3988001394554
 31
0.0
  0
ARC
  5
28E9C
330
747D
100
AcDbEntity
  8
部品1
 48
50.0
100
AcDbCircle
 10
6358.014684969329
 20
1097.398800139455
 30
0.0
 40
24.0
100
AcDbArc
 50
340.5287793655272
 51
0.0
  0
CIRCLE
  5
28E9D
330
747D
100
AcDbEntity
  8
部品1
 48
50.0
100
AcDbCircle
 10
6486.01468496933
 20
1097.398800139455
 30
0.0
 40
8.0
  0
LINE
  5
28E9E
330
747D
100
AcDbEntity
  8
細線
 48
50.0
100
AcDbLine
 10
6518.220233018478
 20
1089.398800139455
 30
0.0
 11
6582.01468496933
 21
1153.193252090306
 31
0.0
  0
LINE
  5
28E9F
330
747D
100
AcDbEntity
  8
細線
 48
50.0
100
AcDbLine
 10
6654.749704254332
 20
849.3988001394537
 30
0.0
 11
6662.01468496933
 21
876.5120772838436
 31
0.0
  0
LINE
  5
28EA0
330
747D
100
AcDbEntity
  8
細線
 48
50.0
100
AcDbLine
 10
6661.180484872682
 20
873.3988001394555
 30
0.0
 11
6662.01468496933
 21
870.2855229950911
 31
0.0
  0
LINE
  5
28EA1
330
747D
100
AcDbEntity
  8
細線
 48
50.0
100
AcDbLine
 10
6582.292439925435
 20
873.3988001394555
 30
0.0
 11
6588.723220543783
 21
849.3988001394555
 31
0.0
  0
LINE
  5
28EA2
330
747D
100
AcDbEntity
  8
細線
 48
50.0
100
AcDbLine
 10
6424.516350030943
 20
873.3988001394555
 30
0.0
 11
6430.94713064929
 21
849.3988001394555
 31
0.0
  0
LINE
  5
28EA3
330
747D
100
AcDbEntity
  8
細線
 48
50.0
100
AcDbLine
 10
6503.404394978187
 20
873.3988001394555
 30
0.0
 11
6509.835175596535
 21
849.3988001394555
 31
0.0
  0
LINE
  5
28EA4
330
747D
100
AcDbEntity
  8
細線
 48
50.0
100
AcDbLine
 10
6496.973614359838
 20
849.3988001394537
 30
0.0
 11
6531.271110991024
 21
977.3988001394537
 31
0.0
  0
LINE
  5
28EA5
330
747D
100
AcDbEntity
  8
細線
 48
50.0
100
AcDbLine
 10
6418.085569412589
 20
849.3988001394555
 30
0.0
 11
6452.383066043776
 21
977.3988001394537
 31
0.0
  0
LINE
  5
28EA6
330
747D
100
AcDbEntity
  8
細線
 48
50.0
100
AcDbLine
 10
6575.861659307084
 20
849.3988001394555
 30
0.0
 11
6610.159155938268
 21
977.3988001394537
 31
0.0
  0
LINE
  5
28EA7
330
747D
100
AcDbEntity
  8
部品1
 48
50.0
100
AcDbLine
 10
6662.014684969334
 20
977.3988001394554
 30
0.0
 11
6662.014684969334
 21
849.3988001394555
 31
0.0
  0
LINE
  5
28EA8
330
747D
100
AcDbEntity
  8
部品1
 48
50.0
100
AcDbLine
 10
6350.01468496933
 20
1155.526014836578
 30
0.0
 11
6350.01468496933
 21
1097.398800139455
 31
0.0
  0
LINE
  5
28EA9
330
747D
100
AcDbEntity
  8
細線
 48
50.0
100
AcDbLine
 10
6275.753317749614
 20
1089.398800139455
 30
0.0
 11
6334.01468496933
 21
1147.660167359174
 31
0.0
  0
LINE
  5
28EAA
330
747D
100
AcDbEntity
  8
部品1
 48
50.0
100
AcDbLine
 10
6334.01468496933
 20
1155.526014836578
 30
0.0
 11
6334.01468496933
 21
1097.398800139455
 31
0.0
  0
LINE
  5
28EAB
330
747D
100
AcDbEntity
  8
細線
 48
50.0
100
AcDbLine
 10
6190.694086112819
 20
977.3988001394554
 30
0.0
 11
6286.694086112818
 21
1073.398800139455
 31
0.0
  0
LINE
  5
28EAC
330
747D
100
AcDbEntity
  8
細線
 48
50.0
100
AcDbLine
 10
6288.176195530934
 20
953.3988001394554
 30
0.0
 11
6281.745414912588
 21
977.3988001394554
 31
0.0
  0
LINE
  5
28EAD
330
747D
100
AcDbEntity
  8
細線
 48
50.0
100
AcDbLine
 10
6209.288150583681
 20
953.3988001394554
 30
0.0
 11
6202.857369965336
 21
977.3988001394554
 31
0.0
  0
ARC
  5
28EAE
330
747D
100
AcDbEntity
  8
部品1
 48
50.0
100
AcDbCircle
 10
6358.014684969329
 20
1097.398800139455
 30
0.0
 40
24.0
100
AcDbArc
 50
180.0
 51
199.4712206344728
  0
LINE
  5
28EAF
330
747D
100
AcDbEntity
  8
細線
 48
50.0
100
AcDbLine
 10
6302.694086112818
 20
1089.398800139455
 30
0.0
 11
6334.01468496933
 21
1120.719398995967
 31
0.0
  0
CIRCLE
  5
28EB0
330
747D
100
AcDbEntity
  8
部品1
 48
50.0
100
AcDbCircle
 10
6230.01468496933
 20
1097.398800139455
 30
0.0
 40
8.0
  0
LINE
  5
28EB1
330
747D
100
AcDbEntity
  8
部品1
 48
50.0
100
AcDbLine
 10
6350.01468496933
 20
1155.526014836578
 30
0.0
 11
6334.01468496933
 21
1155.526014836578
 31
0.0
  0
LINE
  5
28EB2
330
747D
100
AcDbEntity
  8
細線
 48
50.0
100
AcDbLine
 10
6054.01468496933
 20
962.7387211052354
 30
0.0
 11
6057.942841307525
 21
977.3988001394554
 31
0.0
  0
LINE
  5
28EB3
330
747D
100
AcDbEntity
  8
細線
 48
50.0
100
AcDbLine
 10
6130.400105636431
 20
953.3988001394554
 30
0.0
 11
6123.969325018083
 21
977.3988001394554
 31
0.0
  0
LINE
  5
28EB4
330
747D
100
AcDbEntity
  8
部品1
 48
50.0
100
AcDbLine
 10
6190.01468496933
 20
1089.398800139455
 30
0.0
 11
6190.01468496933
 21
1073.398800139455
 31
0.0
  0
LINE
  5
28EB5
330
747D
100
AcDbEntity
  8
細線
 48
50.0
100
AcDbLine
 10
6136.812549386402
 20
977.3988001394554
 30
0.0
 11
6232.812549386403
 21
1073.398800139455
 31
0.0
  0
LINE
  5
28EB6
330
747D
100
AcDbEntity
  8
細線
 48
50.0
100
AcDbLine
 10
6163.753317749613
 20
977.3988001394554
 30
0.0
 11
6259.753317749614
 21
1073.398800139455
 31
0.0
  0
LINE
  5
28EB7
330
747D
100
AcDbEntity
  8
細線
 48
50.0
100
AcDbLine
 10
6266.740260136445
 20
873.3988001394555
 30
0.0
 11
6273.171040754791
 21
849.3988001394555
 31
0.0
  0
LINE
  5
28EB8
330
747D
100
AcDbEntity
  8
細線
 48
50.0
100
AcDbLine
 10
6345.628305083697
 20
873.3988001394555
 30
0.0
 11
6352.059085702044
 21
849.3988001394555
 31
0.0
  0
LINE
  5
28EB9
330
747D
100
AcDbEntity
  8
細線
 48
50.0
100
AcDbLine
 10
6108.964170241941
 20
873.3988001394555
 30
0.0
 11
6115.394950860287
 21
849.3988001394555
 31
0.0
  0
LINE
  5
28EBA
330
747D
100
AcDbEntity
  8
細線
 48
50.0
100
AcDbLine
 10
6187.852215189192
 20
873.3988001394555
 30
0.0
 11
6194.28299580754
 21
849.3988001394555
 31
0.0
  0
LINE
  5
28EBB
330
747D
100
AcDbEntity
  8
部品1
 48
50.0
100
AcDbLine
 10
6054.014684969332
 20
849.3988001394555
 30
0.0
 11
6054.014684969332
 21
977.3988001394554
 31
0.0
  0
LINE
  5
28EBC
330
747D
100
AcDbEntity
  8
細線
 48
50.0
100
AcDbLine
 10
6102.533389623587
 20
849.3988001394537
 30
0.0
 11
6136.830886254771
 21
977.3988001394537
 31
0.0
  0
LINE
  5
28EBD
330
747D
100
AcDbEntity
  8
細線
 48
50.0
100
AcDbLine
 10
6260.309479518092
 20
849.3988001394537
 30
0.0
 11
6294.606976149275
 21
977.3988001394537
 31
0.0
  0
LINE
  5
28EBE
330
747D
100
AcDbEntity
  8
細線
 48
50.0
100
AcDbLine
 10
6181.421434570847
 20
849.3988001394555
 30
0.0
 11
6215.71893120203
 21
977.3988001394554
 31
0.0
  0
LINE
  5
28EBF
330
747D
100
AcDbEntity
  8
細線
 48
50.0
100
AcDbLine
 10
6352.338696292063
 20
977.3988001394554
 30
0.0
 11
6448.338696292063
 21
1073.398800139455
 31
0.0
  0
CIRCLE
  5
28EC0
330
747D
100
AcDbEntity
  8
部品1
 48
50.0
100
AcDbCircle
 10
6358.014684969329
 20
1097.398800139455
 30
0.0
 40
8.0
  0
LINE
  5
28EC1
330
747D
100
AcDbEntity
  8
部品1
 48
50.0
100
AcDbLine
 10
6662.014684969334
 20
977.3988001394554
 30
0.0
 11
6054.014684969332
 21
977.3988001394554
 31
0.0
  0
LINE
  5
28EC2
330
747D
100
AcDbEntity
  8
部品1
 48
50.0
100
AcDbLine
 10
6190.01468496933
 20
1089.398800139455
 30
0.0
 11
6526.01468496933
 21
1089.398800139455
 31
0.0
  0
LINE
  5
28EC3
330
747D
100
AcDbEntity
  8
部品1
 48
50.0
100
AcDbLine
 10
6190.01468496933
 20
1073.398800139455
 30
0.0
 11
6526.01468496933
 21
1073.398800139455
 31
0.0
  0
LINE
  5
28EC4
330
747D
100
AcDbEntity
  8
部品1
 48
50.0
100
AcDbLine
 10
6662.014684969334
 20
849.3988001394555
 30
0.0
 11
6054.014684969332
 21
849.3988001394555
 31
0.0
  0
LINE
  5
28EC5
330
747D
100
AcDbEntity
  8
細線
 48
50.0
100
AcDbLine
 10
6339.197524465344
 20
849.3988001394555
 30
0.0
 11
6373.495021096527
 21
977.3988001394554
 31
0.0
  0
LINE
  5
28EC6
330
747D
100
AcDbEntity
  8
細線
 48
50.0
100
AcDbLine
 10
6350.01468496933
 20
1136.719398995967
 30
0.0
 11
6366.014684969336
 21
1152.719398995967
 31
0.0
  0
LINE
  5
28EC7
330
747D
100
AcDbEntity
  8
部品1
 48
50.0
100
AcDbLine
 10
6366.014684969336
 20
1097.398800139455
 30
0.0
 11
6366.014684969322
 21
1621.653229533701
 31
0.0
  0
LINE
  5
28EC8
330
747D
100
AcDbEntity
  8
部品1
 48
50.0
100
AcDbLine
 10
6382.014684969336
 20
1097.398800139455
 30
0.0
 11
6382.01468496933
 21
1621.653229533701
 31
0.0
  0
LINE
  5
28EC9
330
747D
100
AcDbEntity
  8
部品1
 48
50.0
100
AcDbLine
 10
6582.01468496933
 20
1217.398800139455
 30
0.0
 11
6582.01468496933
 21
977.3988001394554
 31
0.0
  0
LINE
  5
28ECA
330
747D
100
AcDbEntity
  8
細線
 48
50.0
100
AcDbLine
 10
6464.338696292057
 20
1089.398800139455
 30
0.0
 11
6582.01468496933
 21
1207.074788816721
 31
0.0
  0
LINE
  5
28ECB
330
747D
100
AcDbEntity
  8
細線
 48
50.0
100
AcDbLine
 10
6491.279464655274
 20
1089.398800139455
 30
0.0
 11
6582.01468496933
 21
1180.134020453514
 31
0.0
  0
LINE
  5
28ECC
330
747D
100
AcDbEntity
  8
部品1
 48
50.0
100
AcDbLine
 10
6134.01468496933
 20
977.3988001394554
 30
0.0
 11
6134.01468496933
 21
1217.398800139455
 31
0.0
  0
LINE
  5
28ECD
330
747D
100
AcDbEntity
  8
細線
 48
50.0
100
AcDbLine
 10
6248.812549386403
 20
1089.398800139455
 30
0.0
 11
6366.01468496933
 21
1206.600935722381
 31
0.0
  0
LINE
  5
28ECE
330
747D
100
AcDbEntity
  8
細線
 48
50.0
100
AcDbLine
 10
6341.880532446734
 20
1155.526014836578
 30
0.0
 11
6366.014684969336
 21
1179.660167359177
 31
0.0
  0
LINE
  5
28ECF
330
747D
100
AcDbEntity
  8
細線
 48
50.0
100
AcDbLine
 10
6134.014684969322
 20
1136.245545901626
 30
0.0
 11
6215.167939207159
 21
1217.398800139455
 31
0.0
  0
LEADER
  5
28ED0
330
747D
100
AcDbEntity
  8
寸法
 48
50.0
100
AcDbLeader
  3
INABA_S50G
 71
     0
 73
     0
 74
     0
 75
     1
 40
100.0
 41
222.7272727272727
 76
     3
 10
6358.014684969329
 20
1621.653229533701
 30
0.0
 10
6411.900621996725
 20
1720.888802386875
 30
0.0
 10
6536.900621996725
 20
1720.888802386875
 30
0.0
1001
ACAD
1000
DSTYLE
1002
{
1070
    40
1040
1.0
1070
   272
1070
     1
1070
   279
1070
     1
1070
   341
1005
0
1002
}
  0
LWPOLYLINE
  5
28ED1
330
747D
100
AcDbEntity
  8
部品1
 48
50.0
100
AcDbPolyline
 90
        2
 70
     0
 43
8.0
 10
6454.014684969329
 20
1521.398800139456
 10
6868.154586802287
 20
1521.398800139456
  0
MTEXT
  5
28ED2
102
{ACAD_REACTORS
330
28ED4
102
}
330
747D
100
AcDbEntity
  8
寸法
 62
     7
 48
50.0
100
AcDbMText
 10
6685.342344776015
 20
1062.001731196483
 30
0.0
 40
80.0
 41
0.8
 71
     4
 72
     1
  1
D10
  7
STYLE2
 73
     1
 44
1.0
1001
ACAD
1000
MTEXTBEGIN
1070
    73
1070
     1
1070
    44
1040
1.0
1070
    74
1070
     0
1000
MTEXTEND
  0
LEADER
  5
28ED3
330
747D
100
AcDbEntity
  8
寸法
 48
50.0
100
AcDbLeader
  3
INABA_S50G
 71
     0
 73
     0
 74
     0
 75
     1
 40
100.0
 41
540.3409090909091
 76
     3
 10
6431.959853982504
 20
1080.65826972593
 30
0.0
 10
6550.753140830581
 20
739.0274517310326
 30
0.0
 10
6675.753140830581
 20
739.0274517310326
 30
0.0
213
0.0
223
-1.022262676269383
233
0.0
1001
ACAD
1000
DSTYLE
1002
{
1070
    40
1040
1.0
1070
   272
1070
     1
1070
   279
1070
     1
1070
   341
1005
0
1002
}
  0
LEADER
  5
28ED4
330
747D
100
AcDbEntity
  8
寸法
 48
50.0
100
AcDbLeader
  3
INABA_S50G
 71
     0
 73
     0
 74
     0
 75
     1
 40
100.0
 41
225.0
 76
     3
 10
6485.917637321472
 20
1097.398800139455
 30
0.0
 10
6540.342344776014
 20
1002.001731196483
 30
0.0
 10
6665.342344776014
 20
1002.001731196483
 30
0.0
1001
ACAD
1000
DSTYLE
1002
{
1070
    40
1040
1.0
1070
   272
1070
     1
1070
   279
1070
     1
1070
   341
1005
0
1002
}
  0
MTEXT
  5
28ED5
102
{ACAD_REACTORS
330
28ED0
102
}
330
747D
100
AcDbEntity
  8
寸法
 62
     7
 48
50.0
100
AcDbMText
 10
6536.900621996725
 20
1783.954699432266
 30
0.0
 40
80.0
 41
0.8
 71
     4
 72
     1
  1
D13
  7
STYLE2
 73
     1
 44
1.0
1001
ACAD
1000
MTEXTBEGIN
1070
    73
1070
     1
1070
    44
1040
1.0
1070
    74
1070
     0
1000
MTEXTEND
  0
LINE
  5
28ED6
330
747D
100
AcDbEntity
  8
部品1
 48
50.0
100
AcDbLine
 10
6454.01468496933
 20
1761.398800139456
 30
0.0
 11
6454.01468496933
 21
1217.398800139455
 31
0.0
  0
LINE
  5
28ED7
330
747D
100
AcDbEntity
  8
部品1
 48
50.0
100
AcDbLine
 10
6262.01468496933
 20
1217.398800139455
 30
0.0
 11
6262.01468496933
 21
1761.398800139456
 31
0.0
  0
CIRCLE
  5
28ED8
330
747D
100
AcDbEntity
  8
部品1
 48
50.0
100
AcDbCircle
 10
6358.014684969329
 20
1621.653229533701
 30
0.0
 40
8.0
  0
ARC
  5
28ED9
330
747D
100
AcDbEntity
  8
部品1
 48
50.0
100
AcDbCircle
 10
6358.014684969329
 20
1621.653229533701
 30
0.0
 40
24.0
100
AcDbArc
 50
0.0
 51
180.0
  0
LINE
  5
28EDA
330
747D
100
AcDbEntity
  8
細線
 48
50.0
100
AcDbLine
 10
6382.01468496933
 20
1599.771692807286
 30
0.0
 11
6454.01468496933
 21
1671.771692807286
 31
0.0
  0
LEADER
  5
28EDB
330
747D
100
AcDbEntity
  8
寸法
 48
50.0
100
AcDbLeader
  3
INABA_S50G
 73
     0
 75
     1
 40
106.3636363636363
 41
893.1818181818181
 76
     3
 10
8093.453998146525
 20
1830.958800139457
 30
0.0
 10
8045.029925801584
 20
2205.018374855789
 30
0.0
 10
7920.029925801585
 20
2205.018374855789
 30
0.0
340
28EDC
1001
ACAD
1000
DSTYLE
1002
{
1070
   341
1005
0
1070
    40
1040
1.0
1070
   343
1005
0
1070
   344
1005
0
1002
}
  0
MTEXT
  5
28EDC
102
{ACAD_REACTORS
330
28EDB
102
}
330
747D
100
AcDbEntity
  8
寸法
 62
     7
 48
50.0
100
AcDbMText
 10
7895.029925801584
 20
2283.200193037608
 30
0.0
 40
80.0
 41
0.8
 71
     6
 72
     1
  1
\A1;アンカープレート L
  7
STYLE2
 73
     1
 44
1.0
1001
ACAD
1000
MTEXTBEGIN
1070
    73
1070
     1
1070
    44
1040
1.0
1070
    74
1070
     0
1000
MTEXTEND
  0
DIMENSION
  5
28EDD
330
747D
100
AcDbEntity
  8
寸法
 48
50.0
100
AcDbDimension
  2
*D61
 10
6582.014684969329
 20
438.9691621342953
 30
0.0
 11
6337.917926291106
 21
438.9691621342953
 31
0.0
 70
   160
  1
300
 71
     5
 42
448.0
  3
INABA_S40G
100
AcDbAlignedDimension
 13
6134.014684969329
 23
849.3988001394555
 33
0.0
 14
6582.014684969329
 24
849.3988001394555
 34
0.0
100
AcDbRotatedDimension
1001
ACAD
1000
DSTYLE
1002
{
1070
   341
1005
0
1002
}
  0
MTEXT
  5
28EDE
102
{ACAD_REACTORS
330
28EE6
102
}
330
747D
100
AcDbEntity
  8
寸法
 62
     7
 48
50.0
100
AcDbMText
 10
5963.079658774135
 20
893.8761065210192
 30
0.0
 40
80.0
 41
0.8
 71
     6
 72
     1
  1
D10
  7
STYLE2
 73
     1
 44
1.0
1001
ACAD
1000
MTEXTBEGIN
1070
    73
1070
     1
1070
    44
1040
1.0
1070
    74
1070
     0
1000
MTEXTEND
  0
MTEXT
  5
28EDF
102
{ACAD_REACTORS
330
28EE5
102
}
330
747D
100
AcDbEntity
  8
寸法
 62
     7
 48
50.0
100
AcDbMText
 10
5991.20238633157
 20
713.5599539815757
 30
0.0
 40
80.0
 41
0.8
 71
     6
 72
     1
  1
D13
  7
STYLE2
 73
     1
 44
1.0
1001
ACAD
1000
MTEXTBEGIN
1070
    73
1070
     1
1070
    44
1040
1.0
1070
    74
1070
     0
1000
MTEXTEND
  0
DIMENSION
  5
28EE0
330
747D
100
AcDbEntity
  8
寸法
 48
50.0
100
AcDbDimension
  2
*D62
 10
5526.977446407589
 20
977.3988001394556
 30
0.0
 11
5526.977446407589
 21
1348.938949795456
 31
0.0
 70
   160
  1
540
 71
     5
 42
784.0
  3
INABA_S40G
100
AcDbAlignedDimension
 13
6262.014684969329
 23
1761.398800139456
 33
0.0
 14
6054.014684969333
 24
977.3988001394554
 34
0.0
 50
90.0
100
AcDbRotatedDimension
1001
ACAD
1000
DSTYLE
1002
{
1070
   341
1005
0
1002
}
  0
MTEXT
  5
28EE1
102
{ACAD_REACTORS
330
28EE2
102
}
330
747D
100
AcDbEntity
  8
寸法
 62
     7
 48
50.0
100
AcDbMText
 10
6041.916205486057
 20
1973.915020141498
 30
0.0
 40
80.0
 41
0.8
 71
     6
 72
     1
  1
\A1;金コテ押エ
  7
STYLE2
 73
     1
 44
1.0
1001
ACAD
1000
MTEXTBEGIN
1070
    73
1070
     1
1070
    44
1040
1.0
1070
    74
1070
     0
1000
MTEXTEND
  0
LEADER
  5
28EE2
330
747D
100
AcDbEntity
  8
寸法
 48
50.0
100
AcDbLeader
  3
INABA_S50G
 71
     0
 73
     0
 75
     1
 40
130.1136363636363
 41
651.1363636363636
 76
     3
 10
6342.014684969329
 20
1761.398800139456
 30
0.0
 10
6229.590104805313
 20
1901.869565596044
 30
0.0
 10
6104.590104805313
 20
1901.869565596044
 30
0.0
1001
ACAD
1000
DSTYLE
1002
{
1070
    40
1040
1.0
1070
   272
1070
     1
1070
   279
1070
     1
1070
   341
1005
0
1002
}
  0
LEADER
  5
28EE3
330
747D
100
AcDbEntity
  8
寸法
 48
50.0
100
AcDbLeader
  3
INABA_S50G
 71
     0
 73
     0
 75
     1
 40
100.0
 41
540.3409090909091
 76
     3
 10
6366.014684969329
 20
1519.526014836579
 30
0.0
 10
6308.032448440631
 20
1298.055686295773
 30
0.0
 10
6183.032448440631
 20
1298.055686295773
 30
0.0
213
-9.732182305893367
223
-4.643716661138569
233
0.0
1001
ACAD
1000
DSTYLE
1002
{
1070
    40
1040
1.0
1070
   272
1070
     1
1070
   279
1070
     1
1070
   341
1005
0
1002
}
  0
MTEXT
  5
28EE4
102
{ACAD_REACTORS
330
28EE3
102
}
330
747D
100
AcDbEntity
  8
寸法
 62
     7
 48
50.0
100
AcDbMText
 10
6172.764630746525
 20
1362.699402956912
 30
0.0
 40
80.0
 41
0.8
 71
     6
 72
     1
  1
\A1;D10@300
  7
STYLE2
 73
     1
 44
1.0
1001
ACAD
1000
MTEXTBEGIN
1070
    73
1070
     1
1070
    44
1040
1.0
1070
    74
1070
     0
1000
MTEXTEND
  0
LEADER
  5
28EE5
330
747D
100
AcDbEntity
  8
寸法
 48
50.0
100
AcDbLeader
  3
INABA_S50G
 71
     0
 73
     0
 75
     1
 40
100.0
 41
222.7272727272727
 76
     3
 10
6358.014684969329
 20
1097.398800139455
 30
0.0
 10
6136.20238633157
 20
653.5599539815757
 30
0.0
 10
6011.20238633157
 20
653.5599539815757
 30
0.0
1001
ACAD
1000
DSTYLE
1002
{
1070
    40
1040
1.0
1070
   272
1070
     1
1070
   279
1070
     1
1070
   341
1005
0
1002
}
  0
LEADER
  5
28EE6
330
747D
100
AcDbEntity
  8
寸法
 48
50.0
100
AcDbLeader
  3
INABA_S50G
 71
     0
 73
     0
 75
     1
 40
100.0
 41
225.0
 76
     3
 10
6229.917637321473
 20
1097.398800139455
 30
0.0
 10
6108.079658774135
 20
833.8761065210192
 30
0.0
 10
5983.079658774135
 20
833.8761065210192
 30
0.0
1001
ACAD
1000
DSTYLE
1002
{
1070
    40
1040
1.0
1070
   272
1070
     1
1070
   279
1070
     1
1070
   341
1005
0
1002
}
  0
DIMENSION
  5
28EE7
330
747D
100
AcDbEntity
  8
寸法
 48
50.0
100
AcDbDimension
  2
*D63
 10
5991.59437123687
 20
977.3988001394554
 30
0.0
 11
5991.59437123687
 21
1097.398800139456
 31
0.0
 70
   160
  1
150
 71
     5
 42
240.0
  3
INABA_S40G
100
AcDbAlignedDimension
 13
6134.014684969329
 23
1217.398800139455
 33
0.0
 14
6054.014684969333
 24
977.3988001394554
 34
0.0
 50
90.0
100
AcDbRotatedDimension
1001
ACAD
1000
DSTYLE
1002
{
1070
   341
1005
0
1002
}
  0
TEXT
  5
28EE8
330
747D
100
AcDbEntity
  8
部品1
 48
50.0
100
AcDbText
 10
5847.874783136372
 20
1532.63779242271
 30
0.0
 40
80.0
  1
▽G.L
  7
STYLE2
100
AcDbText
  0
LWPOLYLINE
  5
28EE9
330
747D
100
AcDbEntity
  8
部品1
 48
50.0
100
AcDbPolyline
 90
        2
 70
     0
 43
8.0
 10
5847.874783136372
 20
1521.398800139456
 10
6262.014684969329
 20
1521.398800139456
  0
MTEXT
  5
28EEA
102
{ACAD_REACTORS
330
28EEB
102
}
330
747D
100
AcDbEntity
  8
寸法
 62
     7
 48
50.0
100
AcDbMText
 10
7868.386919593226
 20
2643.884464945121
 30
0.0
 40
80.0
 41
0.8
 71
     6
 72
     1
  1
\A1;φ70スリーブ
  7
STYLE2
 73
     1
 44
1.0
1001
ACAD
1000
MTEXTBEGIN
1070
    73
1070
     1
1070
    44
1040
1.0
1070
    74
1070
     0
1000
MTEXTEND
  0
LEADER
  5
28EEB
330
747D
100
AcDbEntity
  8
寸法
 48
50.0
100
AcDbLeader
  3
INABA_S50G
 73
     0
 75
     1
 40
113.1818181818182
 41
608.6363636363635
 76
     3
 10
8152.190748284574
 20
1710.914473497734
 30
0.0
 10
8018.386919593226
 20
2562.293555854212
 30
0.0
 10
7893.386919593226
 20
2562.293555854212
 30
0.0
340
28EEA
1001
ACAD
1000
DSTYLE
1002
{
1070
   341
1005
0
1070
    40
1040
1.0
1070
   343
1005
0
1070
   344
1005
0
1002
}
  0
LINE
  5
28EEC
330
747D
100
AcDbEntity
  8
部品1
100
AcDbLine
 10
5191.346246160066
 20
3160.737467340041
 30
0.0
 11
5191.346246160069
 21
196.4304977553938
 31
0.0
  0
LEADER
  5
28EED
330
747D
100
AcDbEntity
  8
寸法
 48
50.0
100
AcDbLeader
  3
INABA_S50G
 73
     0
 74
     0
 75
     1
 40
80.0
 41
435.0
 76
     3
 10
8192.453998146524
 20
1810.558800139456
 30
0.0
 10
8234.998460565844
 20
1960.782126292685
 30
0.0
 10
8359.998460565844
 20
1960.782126292685
 30
0.0
340
28EEE
1001
ACAD
1000
DSTYLE
1002
{
1070
   341
1005
0
1070
    40
1040
1.0
1070
   343
1005
0
1070
   344
1005
0
1002
}
  0
MTEXT
  5
28EEE
102
{ACAD_REACTORS
330
28EED
102
}
330
747D
100
AcDbEntity
  8
部品1
 62
     7
 48
50.0
100
AcDbMText
 10
8384.998460565844
 20
2025.782126292686
 30
0.0
 40
80.0
 41
0.8
 71
     4
 72
     1
  1
M10X160
  7
STYLE2
 73
     1
 44
1.0
1001
ACAD
1000
MTEXTBEGIN
1070
    73
1070
     1
1070
    44
1040
1.0
1070
    74
1070
     0
1000
MTEXTEND
  0
DIMENSION
  5
28EEF
330
747D
100
AcDbEntity
  8
寸法
 48
50.0
100
AcDbDimension
  2
*D64
 10
9153.977264034393
 20
1761.398800139455
 30
0.0
 11
9153.977264034393
 21
1295.389896717973
 31
0.0
 70
   160
  1
20～25
 71
     5
 42
52.76000000000113
  3
INABA_S40G
100
AcDbAlignedDimension
 13
8188.853998146525
 23
1814.158800139457
 33
0.0
 14
8376.053998146522
 24
1761.398800139456
 34
0.0
 50
90.0
100
AcDbRotatedDimension
1001
ACAD
1000
DSTYLE
1002
{
1070
   341
1005
0
1002
}
  0
DIMENSION
  5
28EF0
330
747D
100
AcDbEntity
  8
寸法
 48
50.0
100
AcDbDimension
  2
*D65
 10
8877.922597915368
 20
1437.398800139454
 30
0.0
 11
8777.922597915368
 21
1599.398800139456
 31
0.0
 70
    32
  1
180
 71
     5
 42
324.0000000000009
  3
INABA_S40G
100
AcDbAlignedDimension
 13
8376.053998146522
 23
1761.398800139456
 33
0.0
 14
8376.053998146522
 24
1437.398800139454
 34
0.0
 50
90.0
100
AcDbRotatedDimension
1001
ACAD
1000
DSTYLE
1002
{
1070
   341
1005
0
1002
}
  0
TEXT
  5
28EF1
330
747D
100
AcDbEntity
  8
部品1
 48
50.0
100
AcDbText
 10
8380.407582430951
 20
2117.277480901655
 30
0.0
 40
80.0
  1
基礎ボルト(市販品)
  7
STYLE2
100
AcDbText
  0
LWPOLYLINE
  5
28EF2
330
747D
100
AcDbEntity
  8
部品1
 48
50.0
100
AcDbPolyline
 90
        2
 70
     0
 43
8.0
 10
8376.053998146522
 20
1521.398800139456
 10
8669.756461545906
 20
1521.398800139456
  0
MTEXT
  5
28EF3
102
{ACAD_REACTORS
330
28EF4
102
}
330
747D
100
AcDbEntity
  8
部品1
 62
     7
 48
50.0
100
AcDbMText
 10
8415.325588515363
 20
2461.894173226716
 30
0.0
 40
80.0
 41
0.8
 71
     4
 72
     1
  1
\A1;ワッシャー(市販品)
  7
STYLE2
 73
     1
 44
1.0
1001
ACAD
1000
MTEXTBEGIN
1070
    73
1070
     1
1070
    44
1040
1.0
1070
    74
1070
     0
1000
MTEXTEND
  0
LEADER
  5
28EF4
330
747D
100
AcDbEntity
  8
寸法
 48
50.0
100
AcDbLeader
  3
INABA_S50G
 73
     0
 74
     0
 75
     1
 40
102.2727272727273
 41
906.8181818181818
 76
     3
 10
8223.453998146524
 20
2030.522088583735
 30
0.0
 10
8265.325588515363
 20
2385.757809590352
 30
0.0
 10
8390.325588515363
 20
2385.757809590352
 30
0.0
340
28EF3
1001
ACAD
1000
DSTYLE
1002
{
1070
   341
1005
0
1070
    40
1040
1.0
1070
   343
1005
0
1070
   344
1005
0
1002
}
  0
MTEXT
  5
28EF5
102
{ACAD_REACTORS
330
28EF6
102
}
330
747D
100
AcDbEntity
  8
部品1
 62
     7
 48
50.0
100
AcDbMText
 10
8383.807969259882
 20
2646.863255991503
 30
0.0
 40
80.0
 41
0.8
 71
     4
 72
     1
  1
\A1;ナット(市販品)
  7
STYLE2
 73
     1
 44
1.0
1001
ACAD
1000
MTEXTBEGIN
1070
    73
1070
     1
1070
    44
1040
1.0
1070
    74
1070
     0
1000
MTEXTEND
  0
LEADER
  5
28EF6
330
747D
100
AcDbEntity
  8
寸法
 48
50.0
100
AcDbLeader
  3
INABA_S50G
 73
     0
 74
     0
 75
     1
 40
102.2727272727273
 41
680.0000000000001
 76
     3
 10
8199.453998146523
 20
2160.274081248598
 30
0.0
 10
8233.807969259881
 20
2570.72689235514
 30
0.0
 10
8358.807969259881
 20
2570.72689235514
 30
0.0
340
28EF5
1001
ACAD
1000
DSTYLE
1002
{
1070
   341
1005
0
1070
    40
1040
1.0
1070
   343
1005
0
1070
   344
1005
0
1002
}
  0
LINE
  5
28EF7
330
747D
100
AcDbEntity
  8
部品1
100
AcDbLine
 10
5191.34624616007
 20
196.4304977553938
 30
0.0
 11
11262.33143154631
 21
196.4304977553938
 31
0.0
  0
LINE
  5
28EF8
330
747D
100
AcDbEntity
  8
部品1
100
AcDbLine
 10
11262.33143154631
 20
2920.737467340039
 30
0.0
 11
5191.346246160069
 21
2920.737467340039
 31
0.0
  0
LINE
  5
28EF9
330
747D
100
AcDbEntity
  8
部品1
100
AcDbLine
 10
11262.33143154632
 20
3160.737467340041
 30
0.0
 11
5191.346246160065
 21
3160.737467340041
 31
0.0
  0
ENDSEC
  0
SECTION
  2
OBJECTS
  0
DICTIONARY
  5
7471
330
0
100
AcDbDictionary
281
     1
  3
ACAD_COLOR
350
173D2
  3
ACAD_GROUP
350
7472
  3
ACAD_LAYOUT
350
173D3
  3
ACAD_MATERIAL
350
173D1
  3
ACAD_MLINESTYLE
350
7473
  3
ACAD_PLOTSETTINGS
350
173D4
  3
ACAD_PLOTSTYLENAME
350
173CF
  3
ACDBHEADERROUNDTRIPXREC
350
28F87
  3
AcDbVariableDictionary
350
28ACD
  3
CONTENTDICTIONARY
350
E71C
  3
DRAWINGVARIABLESDICT
350
F3B9
  0
DICTIONARY
  5
1758F
330
7467
100
AcDbDictionary
280
     1
281
     1
  3
ACAD_LAYERSTATES
360
17590
  0
DICTIONARY
  5
173D2
102
{ACAD_REACTORS
330
7471
102
}
330
7471
100
AcDbDictionary
281
     1
  0
DICTIONARY
  5
7472
102
{ACAD_REACTORS
330
7471
102
}
330
7471
100
AcDbDictionary
281
     1
  3
*A1
350
1D2A9
  0
DICTIONARY
  5
173D3
102
{ACAD_REACTORS
330
7471
102
}
330
7471
100
AcDbDictionary
281
     1
  3
Model
350
173D5
  3
レイアウト1
350
173D6
  0
DICTIONARY
  5
173D1
102
{ACAD_REACTORS
330
7471
102
}
330
7471
100
AcDbDictionary
281
     1
  0
DICTIONARY
  5
7473
102
{ACAD_REACTORS
330
7471
102
}
330
7471
100
AcDbDictionary
281
     1
  3
STANDARD
350
7480
  0
DICTIONARY
  5
173D4
102
{ACAD_REACTORS
330
7471
102
}
330
7471
100
AcDbDictionary
281
     1
  0
ACDBDICTIONARYWDFLT
  5
173CF
102
{ACAD_REACTORS
330
7471
102
}
330
7471
100
AcDbDictionary
281
     1
  3
Normal
350
173D0
100
AcDbDictionaryWithDefault
340
173D0
  0
DICTIONARY
  5
28F87
102
{ACAD_REACTORS
330
7471
102
}
330
7471
100
AcDbDictionary
281
     1
  3
COLORDICT
350
28F89
  3
MATERIALDICT
350
28F88
  0
DICTIONARY
  5
28ACD
102
{ACAD_REACTORS
330
7471
102
}
330
7471
100
AcDbDictionary
281
     1
  3
DIMASSOC
350
28ACE
  3
PROJECTNAME
350
28ACF
  0
DICTIONARY
  5
E71C
102
{ACAD_REACTORS
330
7471
102
}
330
7471
100
AcDbDictionary
281
     1
  0
DICTIONARY
  5
F3B9
102
{ACAD_REACTORS
330
7471
102
}
330
7471
100
AcDbDictionary
281
     1
1001
DRAWINGVARIABLESXDATA
1000
POLARMODE
1000
1
  0
DICTIONARY
  5
17590
102
{ACAD_REACTORS
330
1758F
102
}
330
1758F
100
AcDbDictionary
281
     1
  0
GROUP
  5
1D2A9
102
{ACAD_REACTORS
330
7472
102
}
330
7472
100
AcDbGroup
300

 70
     1
 71
     1
  0
LAYOUT
  5
173D5
102
{ACAD_XDICTIONARY
360
28F8A
102
}
102
{ACAD_REACTORS
330
173D3
102
}
330
173D3
100
AcDbPlotSettings
  1

  2
Microsoft Office Document Image Writer
  4

  6

 40
0.0
 41
0.0
 42
0.0
 43
0.0
 44
0.0
 45
0.0
 46
0.0
 47
0.0
 48
0.0
 49
0.0
140
0.0
141
0.0
142
1.0
143
1.0
 70
  1712
 72
     0
 73
     0
 74
     0
  7

 75
     0
147
1.0
148
0.0
149
0.0
100
AcDbLayout
  1
Model
 70
     1
 71
     0
 10
0.0
 20
0.0
 11
12.0
 21
9.0
 12
0.0
 22
0.0
 32
0.0
 14
0.0
 24
0.0
 34
0.0
 15
0.0
 25
0.0
 35
0.0
146
0.0
 13
0.0
 23
0.0
 33
0.0
 16
1.0
 26
0.0
 36
0.0
 17
0.0
 27
1.0
 37
0.0
 76
     0
330
747D
  0
LAYOUT
  5
173D6
102
{ACAD_XDICTIONARY
360
28F8C
102
}
102
{ACAD_REACTORS
330
173D3
102
}
330
173D3
100
AcDbPlotSettings
  1

  2
Microsoft Office Document Image Writer
  4

  6

 40
0.0
 41
0.0
 42
0.0
 43
0.0
 44
0.0
 45
0.0
 46
0.0
 47
0.0
 48
0.0
 49
0.0
140
0.0
141
0.0
142
1.0
143
1.0
 70
   688
 72
     0
 73
     0
 74
     5
  7

 75
    16
147
1.0
148
0.0
149
0.0
100
AcDbLayout
  1
レイアウト1
 70
     0
 71
     1
 10
0.0
 20
0.0
 11
420.0
 21
297.0
 12
0.0
 22
0.0
 32
0.0
 14
1.000000000000000E+20
 24
1.000000000000000E+20
 34
1.000000000000000E+20
 15
-1.000000000000000E+20
 25
-1.000000000000000E+20
 35
-1.000000000000000E+20
146
0.0
 13
0.0
 23
0.0
 33
0.0
 16
1.0
 26
0.0
 36
0.0
 17
0.0
 27
1.0
 37
0.0
 76
     0
330
747A
  0
MLINESTYLE
  5
7480
102
{ACAD_REACTORS
330
7473
102
}
330
7473
100
AcDbMlineStyle
  2
STANDARD
 70
     0
  3

 62
     0
 51
90.0
 52
90.0
 71
     2
 49
0.5
 62
   256
  6
BYLAYER
 49
-0.5
 62
   256
  6
BYLAYER
  0
ACDBPLACEHOLDER
  5
173D0
102
{ACAD_REACTORS
330
173CF
102
}
330
173CF
  0
XRECORD
  5
28F89
102
{ACAD_REACTORS
330
28F87
102
}
330
28F87
100
AcDbXrecord
280
     1
340
173D2
  0
XRECORD
  5
28F88
102
{ACAD_REACTORS
330
28F87
102
}
330
28F87
100
AcDbXrecord
280
     1
340
173D1
  0
DICTIONARYVAR
  5
28ACE
102
{ACAD_REACTORS
330
28ACD
102
}
330
28ACD
100
DictionaryVariables
280
     0
  1
1
  0
DICTIONARYVAR
  5
28ACF
102
{ACAD_REACTORS
330
28ACD
102
}
330
28ACD
100
DictionaryVariables
280
     0
  1

  0
DICTIONARY
  5
28F8A
330
173D5
100
AcDbDictionary
280
     1
281
     1
  3
ACAD_XREC_ROUNDTRIP
360
28F8B
  0
DICTIONARY
  5
28F8C
330
173D6
100
AcDbDictionary
280
     1
281
     1
  3
ACAD_XREC_ROUNDTRIP
360
28F8D
  0
XRECORD
  5
28F8B
102
{ACAD_REACTORS
330
28F8A
102
}
330
28F8A
100
AcDbXrecord
280
     1
102
SHADEPLOT
 70
     0
102
SHADEPLOTRESLEVEL
 70
     2
102
SHADEPLOTCUSTOMDPI
 70
   300
  0
XRECORD
  5
28F8D
102
{ACAD_REACTORS
330
28F8C
102
}
330
28F8C
100
AcDbXrecord
280
     1
102
SHADEPLOT
 70
     0
102
SHADEPLOTRESLEVEL
 70
     2
102
SHADEPLOTCUSTOMDPI
 70
   300
  0
ENDSEC
  0
EOF
