  0
SECTION
  2
HEADER
  9
$ACADVER
  1
AC1015
  9
$ACADMAINTVER
 70
    20
  9
$DWGCODEPAGE
  3
ANSI_932
  9
$INSBASE
 10
0.0
 20
0.0
 30
0.0
  9
$EXTMIN
 10
139.9999999999995
 20
-0.0000000000000909
 30
0.0
  9
$EXTMAX
 10
16307.2
 20
11409.6
 30
0.0
  9
$LIMMIN
 10
0.0
 20
0.0
  9
$LIMMAX
 10
16800.0
 20
11880.0
  9
$ORTHOMODE
 70
     0
  9
$REGENMODE
 70
     1
  9
$FILLMODE
 70
     1
  9
$QTEXTMODE
 70
     0
  9
$MIRRTEXT
 70
     1
  9
$LTSCALE
 40
20.0
  9
$ATTMODE
 70
     1
  9
$TEXTSIZE
 40
4.0
  9
$TRACEWID
 40
1.0
  9
$TEXTSTYLE
  7
STYLE1
  9
$CLAYER
  8
細線
  9
$CELTYPE
  6
BYLAYER
  9
$CECOLOR
 62
   256
  9
$CELTSCALE
 40
50.0
  9
$DISPSILH
 70
     0
  9
$DIMSCALE
 40
40.0
  9
$DIMASZ
 40
2.5
  9
$DIMEXO
 40
0.5
  9
$DIMDLI
 40
7.0
  9
$DIMRND
 40
0.0
  9
$DIMDLE
 40
0.0
  9
$DIMEXE
 40
1.5
  9
$DIMTP
 40
0.0
  9
$DIMTM
 40
0.0
  9
$DIMTXT
 40
3.0
  9
$DIMCEN
 40
0.0
  9
$DIMTSZ
 40
0.0
  9
$DIMTOL
 70
     0
  9
$DIMLIM
 70
     0
  9
$DIMTIH
 70
     0
  9
$DIMTOH
 70
     0
  9
$DIMSE1
 70
     0
  9
$DIMSE2
 70
     0
  9
$DIMTAD
 70
     3
  9
$DIMZIN
 70
     8
  9
$DIMBLK
  1

  9
$DIMASO
 70
     1
  9
$DIMSHO
 70
     1
  9
$DIMPOST
  1

  9
$DIMAPOST
  1

  9
$DIMALT
 70
     0
  9
$DIMALTD
 70
     2
  9
$DIMALTF
 40
0.0394
  9
$DIMLFAC
 40
1.0
  9
$DIMTOFL
 70
     1
  9
$DIMTVP
 40
0.0
  9
$DIMTIX
 70
     1
  9
$DIMSOXD
 70
     0
  9
$DIMSAH
 70
     1
  9
$DIMBLK1
  1
DOTSMALL
  9
$DIMBLK2
  1
DOTSMALL
  9
$DIMSTYLE
  2
INABA_S40G
  9
$DIMCLRD
 70
     0
  9
$DIMCLRE
 70
     0
  9
$DIMCLRT
 70
     7
  9
$DIMTFAC
 40
1.0
  9
$DIMGAP
 40
1.0
  9
$DIMJUST
 70
     0
  9
$DIMSD1
 70
     0
  9
$DIMSD2
 70
     0
  9
$DIMTOLJ
 70
     1
  9
$DIMTZIN
 70
     0
  9
$DIMALTZ
 70
     0
  9
$DIMALTTZ
 70
     0
  9
$DIMUPT
 70
     0
  9
$DIMDEC
 70
     1
  9
$DIMTDEC
 70
     4
  9
$DIMALTU
 70
     2
  9
$DIMALTTD
 70
     2
  9
$DIMTXSTY
  7
STYLE1
  9
$DIMAUNIT
 70
     0
  9
$DIMADEC
 70
     0
  9
$DIMALTRND
 40
0.0
  9
$DIMAZIN
 70
     0
  9
$DIMDSEP
 70
    46
  9
$DIMATFIT
 70
     3
  9
$DIMFRAC
 70
     0
  9
$DIMLDRBLK
  1

  9
$DIMLUNIT
 70
     2
  9
$DIMLWD
 70
    -2
  9
$DIMLWE
 70
    -2
  9
$DIMTMOVE
 70
     0
  9
$LUNITS
 70
     2
  9
$LUPREC
 70
     1
  9
$SKETCHINC
 40
1.0
  9
$FILLETRAD
 40
3.0
  9
$AUNITS
 70
     0
  9
$AUPREC
 70
     0
  9
$MENU
  1
acad
  9
$ELEVATION
 40
0.0
  9
$PELEVATION
 40
0.0
  9
$THICKNESS
 40
0.0
  9
$LIMCHECK
 70
     0
  9
$CHAMFERA
 40
0.0
  9
$CHAMFERB
 40
0.0
  9
$CHAMFERC
 40
0.0
  9
$CHAMFERD
 40
0.0
  9
$SKPOLY
 70
     0
  9
$TDCREATE
 40
2451368.612993866
  9
$TDUCREATE
 40
2451368.237993866
  9
$TDUPDATE
 40
2455826.606484549
  9
$TDUUPDATE
 40
2455826.231484549
  9
$TDINDWG
 40
0.8058940972
  9
$TDUSRTIMER
 40
0.8058940972
  9
$USRTIMER
 70
     1
  9
$ANGBASE
 50
0.0
  9
$ANGDIR
 70
     0
  9
$PDMODE
 70
     3
  9
$PDSIZE
 40
2.0
  9
$PLINEWID
 40
0.0
  9
$SPLFRAME
 70
     0
  9
$SPLINETYPE
 70
     6
  9
$SPLINESEGS
 70
     8
  9
$HANDSEED
  5
2A97A
  9
$SURFTAB1
 70
     6
  9
$SURFTAB2
 70
     6
  9
$SURFTYPE
 70
     6
  9
$SURFU
 70
     6
  9
$SURFV
 70
     6
  9
$UCSBASE
  2

  9
$UCSNAME
  2

  9
$UCSORG
 10
0.0
 20
0.0
 30
0.0
  9
$UCSXDIR
 10
1.0
 20
0.0
 30
0.0
  9
$UCSYDIR
 10
0.0
 20
1.0
 30
0.0
  9
$UCSORTHOREF
  2

  9
$UCSORTHOVIEW
 70
     0
  9
$UCSORGTOP
 10
0.0
 20
0.0
 30
0.0
  9
$UCSORGBOTTOM
 10
0.0
 20
0.0
 30
0.0
  9
$UCSORGLEFT
 10
0.0
 20
0.0
 30
0.0
  9
$UCSORGRIGHT
 10
0.0
 20
0.0
 30
0.0
  9
$UCSORGFRONT
 10
0.0
 20
0.0
 30
0.0
  9
$UCSORGBACK
 10
0.0
 20
0.0
 30
0.0
  9
$PUCSBASE
  2

  9
$PUCSNAME
  2

  9
$PUCSORG
 10
0.0
 20
0.0
 30
0.0
  9
$PUCSXDIR
 10
1.0
 20
0.0
 30
0.0
  9
$PUCSYDIR
 10
0.0
 20
1.0
 30
0.0
  9
$PUCSORTHOREF
  2

  9
$PUCSORTHOVIEW
 70
     0
  9
$PUCSORGTOP
 10
0.0
 20
0.0
 30
0.0
  9
$PUCSORGBOTTOM
 10
0.0
 20
0.0
 30
0.0
  9
$PUCSORGLEFT
 10
0.0
 20
0.0
 30
0.0
  9
$PUCSORGRIGHT
 10
0.0
 20
0.0
 30
0.0
  9
$PUCSORGFRONT
 10
0.0
 20
0.0
 30
0.0
  9
$PUCSORGBACK
 10
0.0
 20
0.0
 30
0.0
  9
$USERI1
 70
     0
  9
$USERI2
 70
     0
  9
$USERI3
 70
     0
  9
$USERI4
 70
     0
  9
$USERI5
 70
     0
  9
$USERR1
 40
0.0
  9
$USERR2
 40
0.0
  9
$USERR3
 40
0.0
  9
$USERR4
 40
0.0
  9
$USERR5
 40
0.0
  9
$WORLDVIEW
 70
     1
  9
$SHADEDGE
 70
     3
  9
$SHADEDIF
 70
    70
  9
$TILEMODE
 70
     1
  9
$MAXACTVP
 70
    16
  9
$PINSBASE
 10
0.0
 20
0.0
 30
0.0
  9
$PLIMCHECK
 70
     0
  9
$PEXTMIN
 10
1.000000000000000E+20
 20
1.000000000000000E+20
 30
1.000000000000000E+20
  9
$PEXTMAX
 10
-1.000000000000000E+20
 20
-1.000000000000000E+20
 30
-1.000000000000000E+20
  9
$PLIMMIN
 10
0.0
 20
0.0
  9
$PLIMMAX
 10
420.0
 20
297.0
  9
$UNITMODE
 70
     0
  9
$VISRETAIN
 70
     0
  9
$PLINEGEN
 70
     0
  9
$PSLTSCALE
 70
     0
  9
$TREEDEPTH
 70
  3020
  9
$CMLSTYLE
  2
STANDARD
  9
$CMLJUST
 70
     0
  9
$CMLSCALE
 40
1.0
  9
$PROXYGRAPHICS
 70
     1
  9
$MEASUREMENT
 70
     1
  9
$CELWEIGHT
370
    -1
  9
$ENDCAPS
280
     0
  9
$JOINSTYLE
280
     0
  9
$LWDISPLAY
290
     0
  9
$INSUNITS
 70
     0
  9
$HYPERLINKBASE
  1

  9
$STYLESHEET
  1

  9
$XEDIT
290
     1
  9
$CEPSNTYPE
380
     0
  9
$PSTYLEMODE
290
     1
  9
$FINGERPRINTGUID
  2
{5EAC461A-2277-4BF8-9AB0-99C43BB394F0}
  9
$VERSIONGUID
  2
{F937AD76-8874-4554-89B1-0589318CB985}
  9
$EXTNAMES
290
     1
  9
$PSVPSCALE
 40
0.0
  9
$OLESTARTUP
290
     0
  0
ENDSEC
  0
SECTION
  2
CLASSES
  0
CLASS
  1
ACDBDICTIONARYWDFLT
  2
AcDbDictionaryWithDefault
  3
ObjectDBX Classes
 90
        0
280
     0
281
     0
  0
CLASS
  1
DICTIONARYVAR
  2
AcDbDictionaryVar
  3
ObjectDBX Classes
 90
        0
280
     0
281
     0
  0
CLASS
  1
ACDBPLACEHOLDER
  2
AcDbPlaceHolder
  3
ObjectDBX Classes
 90
        0
280
     0
281
     0
  0
CLASS
  1
LAYOUT
  2
AcDbLayout
  3
ObjectDBX Classes
 90
        0
280
     0
281
     0
  0
ENDSEC
  0
SECTION
  2
TABLES
  0
TABLE
  2
VPORT
  5
746D
330
0
100
AcDbSymbolTable
 70
     2
  0
VPORT
  5
2A972
330
746D
100
AcDbSymbolTableRecord
100
AcDbViewportTableRecord
  2
*Active
 70
     0
 10
0.0
 20
0.0
 11
1.0
 21
1.0
 12
8400.000000000002
 22
6532.467989526317
 13
0.0
 23
0.0
 14
10.0
 24
10.0
 15
10.0
 25
10.0
 16
0.0
 26
0.0
 36
1.0
 17
0.0
 27
0.0
 37
0.0
 40
13159.96111582214
 41
1.522222222222222
 42
50.0
 43
0.0
 44
0.0
 50
0.0
 51
0.0
 71
     0
 72
     0
 73
     1
 74
     0
 75
     0
 76
     0
 77
     0
 78
     0
281
     0
 65
     1
110
0.0
120
0.0
130
0.0
111
1.0
121
0.0
131
0.0
112
0.0
122
1.0
132
0.0
 79
     0
146
0.0
  0
ENDTAB
  0
TABLE
  2
LTYPE
  5
746A
330
0
100
AcDbSymbolTable
 70
     5
  0
LTYPE
  5
7477
330
746A
100
AcDbSymbolTableRecord
100
AcDbLinetypeTableRecord
  2
BYBLOCK
 70
     0
  3

 72
    65
 73
     0
 40
0.0
  0
LTYPE
  5
7478
330
746A
100
AcDbSymbolTableRecord
100
AcDbLinetypeTableRecord
  2
BYLAYER
 70
     0
  3

 72
    65
 73
     0
 40
0.0
  0
LTYPE
  5
7479
330
746A
100
AcDbSymbolTableRecord
100
AcDbLinetypeTableRecord
  2
CONTINUOUS
 70
     0
  3
Solid line
 72
    65
 73
     0
 40
0.0
  0
LTYPE
  5
7816
330
746A
100
AcDbSymbolTableRecord
100
AcDbLinetypeTableRecord
  2
CENTER
 70
     0
  3
____ _ ____ _ ____ _ ____ _ ____ _ ____ _ ____ 
 72
    65
 73
     4
 40
2.0
 49
1.25
 74
     0
 49
-0.25
 74
     0
 49
0.25
 74
     0
 49
-0.25
 74
     0
  0
LTYPE
  5
781A
330
746A
100
AcDbSymbolTableRecord
100
AcDbLinetypeTableRecord
  2
HIDDEN
 70
     0
  3
__ __ __ __ __ __ __ __ __ __ __ __ __ __ __ __
 72
    65
 73
     2
 40
0.375
 49
0.25
 74
     0
 49
-0.125
 74
     0
  0
LTYPE
  5
781B
330
746A
100
AcDbSymbolTableRecord
100
AcDbLinetypeTableRecord
  2
PHANTOM
 70
     0
  3
______  __  __  ______  __  __  ______  __  __ 
 72
    65
 73
     6
 40
2.5
 49
1.25
 74
     0
 49
-0.25
 74
     0
 49
0.25
 74
     0
 49
-0.25
 74
     0
 49
0.25
 74
     0
 49
-0.25
 74
     0
  0
LTYPE
  5
12CC3
330
746A
100
AcDbSymbolTableRecord
100
AcDbLinetypeTableRecord
  2
HIDDENX2
 70
     0
  3
Hidden (2x) ____ ____ ____ ____ ____ ____ ____
 72
    65
 73
     2
 40
19.05
 49
12.7
 74
     0
 49
-6.349999999999999
 74
     0
  0
ENDTAB
  0
TABLE
  2
LAYER
  5
7467
102
{ACAD_XDICTIONARY
360
1758F
102
}
330
0
100
AcDbSymbolTable
 70
    12
  0
LAYER
  5
7474
330
7467
100
AcDbSymbolTableRecord
100
AcDbLayerTableRecord
  2
0
 70
     0
 62
     7
  6
CONTINUOUS
370
    -3
390
173D0
  0
LAYER
  5
DEB2
330
7467
100
AcDbSymbolTableRecord
100
AcDbLayerTableRecord
  2
センター
 70
     0
 62
     3
  6
CENTER
370
    -3
390
173D0
  0
LAYER
  5
DEB3
330
7467
100
AcDbSymbolTableRecord
100
AcDbLayerTableRecord
  2
寸法
 70
     0
 62
     4
  6
CONTINUOUS
370
    -3
390
173D0
  0
LAYER
  5
DEB4
330
7467
100
AcDbSymbolTableRecord
100
AcDbLayerTableRecord
  2
部品1
 70
     0
 62
     7
  6
CONTINUOUS
370
    -3
390
173D0
  0
LAYER
  5
DEB5
330
7467
100
AcDbSymbolTableRecord
100
AcDbLayerTableRecord
  2
補助
 70
     0
 62
    -1
  6
CONTINUOUS
370
    -3
390
173D0
  0
LAYER
  5
DEB6
330
7467
100
AcDbSymbolTableRecord
100
AcDbLayerTableRecord
  2
文字
 70
     0
 62
     7
  6
CONTINUOUS
370
    -3
390
173D0
  0
LAYER
  5
F255
330
7467
100
AcDbSymbolTableRecord
100
AcDbLayerTableRecord
  2
DEFPOINTS
 70
     0
 62
     7
  6
CONTINUOUS
290
     0
370
    -3
390
173D0
  0
LAYER
  5
10B54
330
7467
100
AcDbSymbolTableRecord
100
AcDbLayerTableRecord
  2
仕様書枠
 70
     0
 62
   230
  6
CONTINUOUS
370
    -3
390
173D0
  0
LAYER
  5
11729
330
7467
100
AcDbSymbolTableRecord
100
AcDbLayerTableRecord
  2
Ｇ．Ｌ
 70
     0
 62
    30
  6
CONTINUOUS
370
    -3
390
173D0
  0
LAYER
  5
1173F
330
7467
100
AcDbSymbolTableRecord
100
AcDbLayerTableRecord
  2
細線
 70
     0
 62
     5
  6
CONTINUOUS
370
    -3
390
173D0
  0
LAYER
  5
12CC4
330
7467
100
AcDbSymbolTableRecord
100
AcDbLayerTableRecord
  2
想像線
 70
     0
 62
     6
  6
PHANTOM
370
    -3
390
173D0
  0
LAYER
  5
142E2
330
7467
100
AcDbSymbolTableRecord
100
AcDbLayerTableRecord
  2
破線
 70
     0
 62
     2
  6
HIDDEN
370
    -3
390
173D0
  0
ENDTAB
  0
TABLE
  2
STYLE
  5
7468
330
0
100
AcDbSymbolTable
 70
     7
  0
STYLE
  5
7475
330
7468
100
AcDbSymbolTableRecord
100
AcDbTextStyleTableRecord
  2
STANDARD
 70
     0
 40
0.0
 41
1.0
 50
0.0
 71
     0
 42
4.0
  3
txt
  4
C:\AutoCAD LT\bigfont.shx
  0
STYLE
  5
763C
330
7468
100
AcDbSymbolTableRecord
100
AcDbTextStyleTableRecord
  2
MSMINCHO
 70
     0
 40
0.0
 41
1.0
 50
0.0
 71
     0
 42
1.199999999999999
  3
C:\AutoCAD LT\msminch2.TTF
  4

  0
STYLE
  5
F706
330
7468
100
AcDbSymbolTableRecord
100
AcDbTextStyleTableRecord
  2
STYLE1
 70
     0
 40
0.0
 41
1.0
 50
0.0
 71
     0
 42
4.0
  3
isocp.shx
  4
bigfont.shx
  0
STYLE
  5
103BF
330
7468
100
AcDbSymbolTableRecord
100
AcDbTextStyleTableRecord
  2
STYLE2
 70
     0
 40
0.0
 41
1.0
 50
0.0
 71
     0
 42
100.0
  3
MS PGothic.ttf
  4

1001
ACAD
1000
MS PGothic
1071
    32818
  0
STYLE
  5
10BAA
330
7468
100
AcDbSymbolTableRecord
100
AcDbTextStyleTableRecord
  2
STYLE3
 70
     0
 40
0.0
 41
1.0
 50
0.0
 71
     0
 42
100.0
  3

  4

1001
ACAD
1000
DFPGothic-EB
1071
    32818
  0
STYLE
  5
11A15
330
7468
100
AcDbSymbolTableRecord
100
AcDbTextStyleTableRecord
  2
MSGOTHIC
 70
     0
 40
0.0
 41
1.0
 50
0.0
 71
     0
 42
3.5
  3
msgothi2.ttf
  4

  0
STYLE
  5
13E96
330
7468
100
AcDbSymbolTableRecord
100
AcDbTextStyleTableRecord
  2
MSPゴシック
 70
     0
 40
0.0
 41
1.0
 50
0.0
 71
     0
 42
4.0
  3
MS PGothic.ttf
  4

1001
ACAD
1000
MS PGothic
1071
    32818
  0
ENDTAB
  0
TABLE
  2
VIEW
  5
746B
330
0
100
AcDbSymbolTable
 70
     0
  0
ENDTAB
  0
TABLE
  2
UCS
  5
746C
330
0
100
AcDbSymbolTable
 70
     0
  0
ENDTAB
  0
TABLE
  2
APPID
  5
746E
330
0
100
AcDbSymbolTable
 70
     6
  0
APPID
  5
7476
330
746E
100
AcDbSymbolTableRecord
100
AcDbRegAppTableRecord
  2
ACAD
 70
     0
  0
APPID
  5
DEA9
330
746E
100
AcDbSymbolTableRecord
100
AcDbRegAppTableRecord
  2
CONTENTBLOCKICON
 70
     0
  0
APPID
  5
DEAA
330
746E
100
AcDbSymbolTableRecord
100
AcDbRegAppTableRecord
  2
CONTENTBLOCKDESCRIPTION
 70
     0
  0
APPID
  5
E71D
330
746E
100
AcDbSymbolTableRecord
100
AcDbRegAppTableRecord
  2
CONTENTTABDATA
 70
     0
  0
APPID
  5
E71E
330
746E
100
AcDbSymbolTableRecord
100
AcDbRegAppTableRecord
  2
CONTENTCURRENTTAB
 70
     0
  0
APPID
  5
F3BA
330
746E
100
AcDbSymbolTableRecord
100
AcDbRegAppTableRecord
  2
DRAWINGVARIABLESXDATA
 70
     0
  0
ENDTAB
  0
TABLE
  2
DIMSTYLE
  5
746F
330
0
100
AcDbSymbolTable
 70
     6
100
AcDbDimStyleTable
 71
     1
340
F71F
  0
DIMSTYLE
105
7484
330
746F
100
AcDbSymbolTableRecord
100
AcDbDimStyleTableRecord
  2
JIS
 70
     0
 41
2.5
 42
1.0
 43
7.0
 44
1.0
 73
     0
 74
     0
 77
     1
 78
     8
140
2.5
141
0.0
143
0.0394
147
0.0
172
     1
174
     1
175
     1
340
7475
  0
DIMSTYLE
105
F236
330
746F
100
AcDbSymbolTableRecord
100
AcDbDimStyleTableRecord
  2
INABA_S40
 70
     0
 40
40.0
 41
2.5
 42
0.5
 43
7.0
 44
1.5
 73
     0
 74
     0
 77
     3
 78
     8
140
3.0
141
0.0
143
0.0394
147
1.0
172
     1
173
     1
174
     1
175
     1
178
     7
289
     0
340
7475
341
DEAC
343
DEAC
344
DEAC
  0
DIMSTYLE
105
F71F
102
{ACAD_REACTORS
330
2960C
330
295DA
330
29579
330
29578
330
29577
330
29576
330
29550
330
2952E
330
2952B
330
294B3
330
294AD
330
294AB
330
294AA
330
294A2
330
294BB
330
29530
330
294BA
330
294B2
330
294AF
330
294D5
330
2A0DC
330
2A0DD
330
2A0E2
330
2A0E3
330
294B8
330
294AC
330
2960E
330
2A803
330
2A863
330
2A866
330
2A86D
330
2A875
330
2A876
102
}
330
746F
100
AcDbSymbolTableRecord
100
AcDbDimStyleTableRecord
  2
INABA_S40G
 70
     0
 40
40.0
 41
2.5
 42
0.5
 43
7.0
 44
1.5
 73
     0
 74
     0
 77
     3
 78
     8
140
3.0
141
0.0
143
0.0394
147
1.0
172
     1
173
     1
174
     1
178
     7
271
     1
340
F706
341
F770
343
F770
344
F770
  0
DIMSTYLE
105
142E3
330
746F
100
AcDbSymbolTableRecord
100
AcDbDimStyleTableRecord
  2
INABA_S1
 70
     0
 40
0.0
 41
2.5
 42
0.5
 43
7.0
 44
1.5
 73
     0
 74
     0
 77
     3
 78
     8
140
3.0
141
0.0
143
0.0394
146
0.5
147
0.5
172
     1
173
     1
176
   256
177
   256
178
     7
271
     2
272
     2
284
     8
288
     1
340
7475
341
DEAC
343
DEAC
344
DEAC
  0
DIMSTYLE
105
14463
330
746F
100
AcDbSymbolTableRecord
100
AcDbDimStyleTableRecord
  2
INABA_S30G
 70
     0
 40
30.0
 41
2.5
 42
0.5
 43
7.0
 44
1.5
 73
     0
 74
     0
 77
     3
 78
     8
140
3.0
141
0.0
143
0.0394
147
1.0
172
     1
173
     1
174
     1
175
     1
178
     7
271
     1
340
F706
341
F770
343
F770
344
F770
  0
DIMSTYLE
105
1758E
330
746F
100
AcDbSymbolTableRecord
100
AcDbDimStyleTableRecord
  2
INABA_S50G
 70
     0
 41
125.0
 42
25.0
 43
7.0
 44
75.0
 73
     0
 74
     0
 77
     3
 78
     8
140
150.0
141
0.0
143
0.0394
147
25.0
172
     1
173
     1
174
     1
175
     1
178
     7
271
     1
340
F706
341
F770
343
F770
344
F770
  0
ENDTAB
  0
TABLE
  2
BLOCK_RECORD
  5
7466
330
0
100
AcDbSymbolTable
 70
    52
  0
BLOCK_RECORD
  5
747D
330
7466
100
AcDbSymbolTableRecord
100
AcDbBlockTableRecord
  2
*MODEL_SPACE
340
173D5
  0
BLOCK_RECORD
  5
747A
330
7466
100
AcDbSymbolTableRecord
100
AcDbBlockTableRecord
  2
*PAPER_SPACE
340
173D6
  0
BLOCK_RECORD
  5
DEAC
330
7466
100
AcDbSymbolTableRecord
100
AcDbBlockTableRecord
  2
_OPEN
340
0
  0
BLOCK_RECORD
  5
F770
330
7466
100
AcDbSymbolTableRecord
100
AcDbBlockTableRecord
  2
_DOTSMALL
340
0
102
{BLKREFS
331
18C65
331
18C66
331
18C59
331
18C5A
331
18C4D
331
18C4E
331
18C41
331
18C42
331
18C35
331
18C36
331
18C29
331
18C2A
331
18C1D
331
18C1E
331
18C0F
331
18C10
331
18C03
331
18C04
331
18BF5
331
18BF6
331
18BE7
331
18BE8
331
18BD9
331
18BDA
331
18BCD
331
18BCE
331
29B4B
331
29B4C
331
29B54
331
29B55
331
29B82
331
29B83
331
29B8C
331
29B8D
331
29B95
331
29B96
331
29BC2
331
29BC3
331
29BCB
331
29BCC
331
29BD5
331
29BD6
331
29BF1
331
29BF2
331
2A346
331
2A347
331
2A351
331
2A352
331
2A35C
331
2A35D
331
2A367
331
2A368
331
2A3B3
331
2A3B4
331
2A3BC
331
2A3BD
331
2A3E1
331
2A3E2
331
2A3F3
331
2A3F4
331
2A405
331
2A406
331
2A417
331
2A418
331
2A432
331
2A433
331
2A444
331
2A445
331
2A44D
331
2A44E
331
2A456
331
2A457
331
2A45F
331
2A460
331
2A468
331
2A469
331
2A599
331
2A59A
331
2A5C2
331
2A5C3
331
2A8CD
331
2A8CE
331
2A8D6
331
2A8D7
331
2A8DF
331
2A8E0
331
2A8E8
331
2A8E9
331
2A8F3
331
2A8F4
331
2A8FC
331
2A8FD
102
}
  0
BLOCK_RECORD
  5
164B4
330
7466
100
AcDbSymbolTableRecord
100
AcDbBlockTableRecord
  2
_DOT
340
0
102
{BLKREFS
331
18C73
331
18C74
102
}
  0
BLOCK_RECORD
  5
18BC8
330
7466
100
AcDbSymbolTableRecord
100
AcDbBlockTableRecord
  2
*D3
340
0
  0
BLOCK_RECORD
  5
18BD4
330
7466
100
AcDbSymbolTableRecord
100
AcDbBlockTableRecord
  2
*D4
340
0
  0
BLOCK_RECORD
  5
18BE0
330
7466
100
AcDbSymbolTableRecord
100
AcDbBlockTableRecord
  2
*D5
340
0
  0
BLOCK_RECORD
  5
18BEE
330
7466
100
AcDbSymbolTableRecord
100
AcDbBlockTableRecord
  2
*D6
340
0
  0
BLOCK_RECORD
  5
18BFC
330
7466
100
AcDbSymbolTableRecord
100
AcDbBlockTableRecord
  2
*D7
340
0
  0
BLOCK_RECORD
  5
18C0A
330
7466
100
AcDbSymbolTableRecord
100
AcDbBlockTableRecord
  2
*D8
340
0
  0
BLOCK_RECORD
  5
18C16
330
7466
100
AcDbSymbolTableRecord
100
AcDbBlockTableRecord
  2
*D9
340
0
  0
BLOCK_RECORD
  5
18C24
330
7466
100
AcDbSymbolTableRecord
100
AcDbBlockTableRecord
  2
*D10
340
0
  0
BLOCK_RECORD
  5
18C30
330
7466
100
AcDbSymbolTableRecord
100
AcDbBlockTableRecord
  2
*D11
340
0
  0
BLOCK_RECORD
  5
18C3C
330
7466
100
AcDbSymbolTableRecord
100
AcDbBlockTableRecord
  2
*D12
340
0
  0
BLOCK_RECORD
  5
18C48
330
7466
100
AcDbSymbolTableRecord
100
AcDbBlockTableRecord
  2
*D13
340
0
  0
BLOCK_RECORD
  5
18C54
330
7466
100
AcDbSymbolTableRecord
100
AcDbBlockTableRecord
  2
*D14
340
0
  0
BLOCK_RECORD
  5
18C60
330
7466
100
AcDbSymbolTableRecord
100
AcDbBlockTableRecord
  2
*D15
340
0
  0
BLOCK_RECORD
  5
18C6C
330
7466
100
AcDbSymbolTableRecord
100
AcDbBlockTableRecord
  2
*D16
340
0
  0
BLOCK_RECORD
  5
18C7A
330
7466
100
AcDbSymbolTableRecord
100
AcDbBlockTableRecord
  2
A$C3B1A506B
340
0
  0
BLOCK_RECORD
  5
1C4CA
330
7466
100
AcDbSymbolTableRecord
100
AcDbBlockTableRecord
  2
_NONE
340
0
  0
BLOCK_RECORD
  5
29612
330
7466
100
AcDbSymbolTableRecord
100
AcDbBlockTableRecord
  2
*D19
340
0
  0
BLOCK_RECORD
  5
2961E
330
7466
100
AcDbSymbolTableRecord
100
AcDbBlockTableRecord
  2
*D20
340
0
  0
BLOCK_RECORD
  5
29629
330
7466
100
AcDbSymbolTableRecord
100
AcDbBlockTableRecord
  2
*D21
340
0
  0
BLOCK_RECORD
  5
29635
330
7466
100
AcDbSymbolTableRecord
100
AcDbBlockTableRecord
  2
*D22
340
0
  0
BLOCK_RECORD
  5
29641
330
7466
100
AcDbSymbolTableRecord
100
AcDbBlockTableRecord
  2
*D23
340
0
  0
BLOCK_RECORD
  5
2964D
330
7466
100
AcDbSymbolTableRecord
100
AcDbBlockTableRecord
  2
*D24
340
0
  0
BLOCK_RECORD
  5
29659
330
7466
100
AcDbSymbolTableRecord
100
AcDbBlockTableRecord
  2
*D25
340
0
  0
BLOCK_RECORD
  5
29665
330
7466
100
AcDbSymbolTableRecord
100
AcDbBlockTableRecord
  2
*D26
340
0
  0
BLOCK_RECORD
  5
29670
330
7466
100
AcDbSymbolTableRecord
100
AcDbBlockTableRecord
  2
*D27
340
0
  0
BLOCK_RECORD
  5
29688
330
7466
100
AcDbSymbolTableRecord
100
AcDbBlockTableRecord
  2
*D28
340
0
  0
BLOCK_RECORD
  5
29695
330
7466
100
AcDbSymbolTableRecord
100
AcDbBlockTableRecord
  2
*D29
340
0
  0
BLOCK_RECORD
  5
296A1
330
7466
100
AcDbSymbolTableRecord
100
AcDbBlockTableRecord
  2
*D30
340
0
  0
BLOCK_RECORD
  5
296AE
330
7466
100
AcDbSymbolTableRecord
100
AcDbBlockTableRecord
  2
*D31
340
0
  0
BLOCK_RECORD
  5
296C7
330
7466
100
AcDbSymbolTableRecord
100
AcDbBlockTableRecord
  2
*D32
340
0
  0
BLOCK_RECORD
  5
296DE
330
7466
100
AcDbSymbolTableRecord
100
AcDbBlockTableRecord
  2
*D33
340
0
  0
BLOCK_RECORD
  5
296EB
330
7466
100
AcDbSymbolTableRecord
100
AcDbBlockTableRecord
  2
*D34
340
0
  0
BLOCK_RECORD
  5
296F8
330
7466
100
AcDbSymbolTableRecord
100
AcDbBlockTableRecord
  2
*D35
340
0
  0
BLOCK_RECORD
  5
29704
330
7466
100
AcDbSymbolTableRecord
100
AcDbBlockTableRecord
  2
*D36
340
0
  0
BLOCK_RECORD
  5
29710
330
7466
100
AcDbSymbolTableRecord
100
AcDbBlockTableRecord
  2
*D37
340
0
  0
BLOCK_RECORD
  5
2971C
330
7466
100
AcDbSymbolTableRecord
100
AcDbBlockTableRecord
  2
*D38
340
0
  0
BLOCK_RECORD
  5
29728
330
7466
100
AcDbSymbolTableRecord
100
AcDbBlockTableRecord
  2
*D39
340
0
  0
BLOCK_RECORD
  5
29734
330
7466
100
AcDbSymbolTableRecord
100
AcDbBlockTableRecord
  2
*D40
340
0
  0
BLOCK_RECORD
  5
2974E
330
7466
100
AcDbSymbolTableRecord
100
AcDbBlockTableRecord
  2
*D41
340
0
  0
BLOCK_RECORD
  5
2A208
330
7466
100
AcDbSymbolTableRecord
100
AcDbBlockTableRecord
  2
*D42
340
0
  0
BLOCK_RECORD
  5
2A216
330
7466
100
AcDbSymbolTableRecord
100
AcDbBlockTableRecord
  2
*D43
340
0
  0
BLOCK_RECORD
  5
2A224
330
7466
100
AcDbSymbolTableRecord
100
AcDbBlockTableRecord
  2
*D44
340
0
  0
BLOCK_RECORD
  5
2A232
330
7466
100
AcDbSymbolTableRecord
100
AcDbBlockTableRecord
  2
*D45
340
0
  0
BLOCK_RECORD
  5
2A880
330
7466
100
AcDbSymbolTableRecord
100
AcDbBlockTableRecord
  2
*D46
340
0
  0
BLOCK_RECORD
  5
2A88C
330
7466
100
AcDbSymbolTableRecord
100
AcDbBlockTableRecord
  2
*D47
340
0
  0
BLOCK_RECORD
  5
2A898
330
7466
100
AcDbSymbolTableRecord
100
AcDbBlockTableRecord
  2
*D48
340
0
  0
BLOCK_RECORD
  5
2A8A4
330
7466
100
AcDbSymbolTableRecord
100
AcDbBlockTableRecord
  2
*D49
340
0
  0
BLOCK_RECORD
  5
2A8B0
330
7466
100
AcDbSymbolTableRecord
100
AcDbBlockTableRecord
  2
*D50
340
0
  0
BLOCK_RECORD
  5
2A8BE
330
7466
100
AcDbSymbolTableRecord
100
AcDbBlockTableRecord
  2
*D51
340
0
  0
ENDTAB
  0
ENDSEC
  0
SECTION
  2
BLOCKS
  0
BLOCK
  5
7489
330
747D
100
AcDbEntity
  8
0
100
AcDbBlockBegin
  2
*MODEL_SPACE
 70
     0
 10
0.0
 20
0.0
 30
0.0
  3
*MODEL_SPACE
  1

  0
ENDBLK
  5
748A
330
747D
100
AcDbEntity
  8
0
100
AcDbBlockEnd
  0
BLOCK
  5
7487
330
747A
100
AcDbEntity
 67
     1
  8
0
100
AcDbBlockBegin
  2
*PAPER_SPACE
 70
     0
 10
0.0
 20
0.0
 30
0.0
  3
*PAPER_SPACE
  1

  0
ENDBLK
  5
7488
330
747A
100
AcDbEntity
 67
     1
  8
0
100
AcDbBlockEnd
  0
BLOCK
  5
DEAD
330
DEAC
100
AcDbEntity
  8
0
100
AcDbBlockBegin
  2
_OPEN
 70
     0
 10
0.0
 20
0.0
 30
0.0
  3
_OPEN
  1

  0
LINE
  5
DEAE
330
DEAC
100
AcDbEntity
  8
0
  6
ByBlock
 62
     0
100
AcDbLine
 10
-1.0
 20
0.1666666666666666
 30
0.0
 11
0.0
 21
0.0
 31
0.0
  0
LINE
  5
DEAF
330
DEAC
100
AcDbEntity
  8
0
  6
ByBlock
 62
     0
100
AcDbLine
 10
0.0
 20
0.0
 30
0.0
 11
-1.0
 21
-0.1666666666666666
 31
0.0
  0
LINE
  5
DEB0
330
DEAC
100
AcDbEntity
  8
0
  6
ByBlock
 62
     0
100
AcDbLine
 10
0.0
 20
0.0
 30
0.0
 11
-1.0
 21
0.0
 31
0.0
  0
ENDBLK
  5
DEB1
330
DEAC
100
AcDbEntity
  8
0
100
AcDbBlockEnd
  0
BLOCK
  5
F771
330
F770
100
AcDbEntity
  8
0
 48
50.0
100
AcDbBlockBegin
  2
_DOTSMALL
 70
     0
 10
0.0
 20
0.0
 30
0.0
  3
_DOTSMALL
  1

  0
LWPOLYLINE
  5
F772
330
F770
100
AcDbEntity
  8
0
  6
ByBlock
 62
     0
 48
50.0
100
AcDbPolyline
 90
        2
 70
     1
 43
0.5
 10
-0.0625
 20
0.0
 42
1.0
 10
0.0625
 20
0.0
 42
1.0
  0
ENDBLK
  5
F776
330
F770
100
AcDbEntity
  8
0
 48
50.0
100
AcDbBlockEnd
  0
BLOCK
  5
164BA
330
164B4
100
AcDbEntity
  8
0
 48
50.0
100
AcDbBlockBegin
  2
_DOT
 70
     0
 10
0.0
 20
0.0
 30
0.0
  3
_DOT
  1

  0
LWPOLYLINE
  5
164B5
330
164B4
100
AcDbEntity
  8
0
  6
ByBlock
 62
     0
 48
50.0
100
AcDbPolyline
 90
        2
 70
     1
 43
0.5
 10
-0.25
 20
0.0
 42
1.0
 10
0.25
 20
0.0
 42
1.0
  0
LINE
  5
164B9
330
164B4
100
AcDbEntity
  8
0
  6
ByBlock
 62
     0
 48
50.0
100
AcDbLine
 10
-0.5
 20
0.0
 30
0.0
 11
-1.0
 21
0.0
 31
0.0
  0
ENDBLK
  5
164BB
330
164B4
100
AcDbEntity
  8
0
 48
50.0
100
AcDbBlockEnd
  0
BLOCK
  5
18BC9
330
18BC8
100
AcDbEntity
  8
0
 48
50.0
100
AcDbBlockBegin
  2
*D3
 70
     1
 10
0.0
 20
0.0
 30
0.0
  3
*D3
  1

  0
LINE
  5
18BCA
330
18BC8
100
AcDbEntity
  8
寸法
 62
     0
 48
50.0
370
    -2
100
AcDbLine
 10
7649.896575106999
 20
9636.123139034717
 30
0.0
 11
8702.429862581047
 21
9636.123139034717
 31
0.0
  0
LINE
  5
18BCB
330
18BC8
100
AcDbEntity
  8
寸法
 62
     0
 48
50.0
370
    -2
100
AcDbLine
 10
7649.896575106973
 20
7846.123139034709
 30
0.0
 11
8702.429862581047
 21
7846.123139034709
 31
0.0
  0
LINE
  5
18BCC
330
18BC8
100
AcDbEntity
  8
寸法
 62
     0
 48
50.0
370
    -2
100
AcDbLine
 10
8642.429862581046
 20
9636.123139034717
 30
0.0
 11
8642.429862581046
 21
7846.123139034709
 31
0.0
  0
INSERT
  5
18BCD
330
18BC8
100
AcDbEntity
  8
寸法
 62
     0
 48
50.0
370
    -2
100
AcDbBlockReference
  2
_DOTSMALL
 10
8642.429862581046
 20
9636.123139034717
 30
0.0
 41
100.0
 42
100.0
 43
100.0
 50
90.0
  0
INSERT
  5
18BCE
330
18BC8
100
AcDbEntity
  8
寸法
 62
     0
 48
50.0
370
    -2
100
AcDbBlockReference
  2
_DOTSMALL
 10
8642.429862581046
 20
7846.123139034709
 30
0.0
 41
100.0
 42
100.0
 43
100.0
 50
270.0
  0
MTEXT
  5
18BCF
330
18BC8
100
AcDbEntity
  8
寸法
 62
     7
 48
50.0
100
AcDbMText
 10
8542.429862581045
 20
8741.123139034712
 30
0.0
 40
120.0
 41
0.0
 71
     5
 72
     1
  1
\A1;1790
  7
STYLE1
 11
0.0000000000000001
 21
1.0
 31
0.0
 73
     1
 44
1.0
1001
ACAD
1000
MTEXTBEGIN
1070
    73
1070
     1
1070
    44
1040
1.0
1070
    74
1070
     0
1000
MTEXTEND
  0
POINT
  5
18BD0
330
18BC8
100
AcDbEntity
  8
DEFPOINTS
 62
     0
 48
50.0
100
AcDbPoint
 10
7629.896575106998
 20
9636.123139034717
 30
0.0
  0
POINT
  5
18BD1
330
18BC8
100
AcDbEntity
  8
DEFPOINTS
 62
     0
 48
50.0
100
AcDbPoint
 10
7629.896575106974
 20
7846.123139034709
 30
0.0
  0
POINT
  5
18BD2
330
18BC8
100
AcDbEntity
  8
DEFPOINTS
 62
     0
 48
50.0
100
AcDbPoint
 10
8642.429862581046
 20
7846.123139034709
 30
0.0
  0
ENDBLK
  5
18BD3
330
18BC8
100
AcDbEntity
  8
0
 48
50.0
100
AcDbBlockEnd
  0
BLOCK
  5
18BD5
330
18BD4
100
AcDbEntity
  8
0
 48
50.0
100
AcDbBlockBegin
  2
*D4
 70
     1
 10
0.0
 20
0.0
 30
0.0
  3
*D4
  1

  0
LINE
  5
18BD6
330
18BD4
100
AcDbEntity
  8
寸法
 62
     0
 48
50.0
370
    -2
100
AcDbLine
 10
4214.896575106998
 20
9656.123139034622
 30
0.0
 11
4214.896575106998
 21
10211.93135865972
 31
0.0
  0
LINE
  5
18BD7
330
18BD4
100
AcDbEntity
  8
寸法
 62
     0
 48
50.0
370
    -2
100
AcDbLine
 10
7574.896575106999
 20
9656.123139034718
 30
0.0
 11
7574.896575106999
 21
10211.93135865972
 31
0.0
  0
LINE
  5
18BD8
330
18BD4
100
AcDbEntity
  8
寸法
 62
     0
 48
50.0
370
    -2
100
AcDbLine
 10
4214.896575106998
 20
10151.93135865972
 30
0.0
 11
7574.896575106999
 21
10151.93135865972
 31
0.0
  0
INSERT
  5
18BD9
330
18BD4
100
AcDbEntity
  8
寸法
 62
     0
 48
50.0
370
    -2
100
AcDbBlockReference
  2
_DOTSMALL
 10
4214.896575106998
 20
10151.93135865972
 30
0.0
 41
100.0
 42
100.0
 43
100.0
 50
180.0
  0
INSERT
  5
18BDA
330
18BD4
100
AcDbEntity
  8
寸法
 62
     0
 48
50.0
370
    -2
100
AcDbBlockReference
  2
_DOTSMALL
 10
7574.896575106999
 20
10151.93135865972
 30
0.0
 41
100.0
 42
100.0
 43
100.0
  0
MTEXT
  5
18BDB
330
18BD4
100
AcDbEntity
  8
寸法
 62
     7
 48
50.0
100
AcDbMText
 10
5894.896575106997
 20
10251.94316968334
 30
0.0
 40
120.0
 41
0.0
 71
     5
 72
     1
  1
\A1;8X420=3360
  7
STYLE1
 73
     1
 44
1.0
1001
ACAD
1000
MTEXTBEGIN
1070
    73
1070
     1
1070
    44
1040
1.0
1070
    74
1070
     0
1000
MTEXTEND
  0
POINT
  5
18BDC
330
18BD4
100
AcDbEntity
  8
DEFPOINTS
 62
     0
 48
50.0
100
AcDbPoint
 10
4214.896575106998
 20
9636.123139034623
 30
0.0
  0
POINT
  5
18BDD
330
18BD4
100
AcDbEntity
  8
DEFPOINTS
 62
     0
 48
50.0
100
AcDbPoint
 10
7574.896575106999
 20
9636.123139034717
 30
0.0
  0
POINT
  5
18BDE
330
18BD4
100
AcDbEntity
  8
DEFPOINTS
 62
     0
 48
50.0
100
AcDbPoint
 10
7574.896575106999
 20
10151.93135865972
 30
0.0
  0
ENDBLK
  5
18BDF
330
18BD4
100
AcDbEntity
  8
0
 48
50.0
100
AcDbBlockEnd
  0
BLOCK
  5
18BE1
330
18BE0
100
AcDbEntity
  8
0
 48
50.0
100
AcDbBlockBegin
  2
*D5
 70
     1
 10
0.0
 20
0.0
 30
0.0
  3
*D5
  1

  0
LINE
  5
18BE2
330
18BE0
100
AcDbEntity
  8
寸法
 62
     0
 48
50.0
370
    -2
100
AcDbLine
 10
7574.896575106999
 20
9656.123139034718
 30
0.0
 11
7574.896575106999
 21
10211.9313586597
 31
0.0
  0
LINE
  5
18BE3
330
18BE0
100
AcDbEntity
  8
寸法
 62
     0
 48
50.0
370
    -2
100
AcDbLine
 10
7629.896575106998
 20
9656.123139034718
 30
0.0
 11
7629.896575106998
 21
10211.9313586597
 31
0.0
  0
LINE
  5
18BE4
330
18BE0
100
AcDbEntity
  8
寸法
 62
     0
 48
50.0
370
    -2
100
AcDbLine
 10
7574.896575106999
 20
10151.9313586597
 30
0.0
 11
7474.896575106999
 21
10151.9313586597
 31
0.0
  0
LINE
  5
18BE5
330
18BE0
100
AcDbEntity
  8
寸法
 62
     0
 48
50.0
370
    -2
100
AcDbLine
 10
7629.896575106998
 20
10151.9313586597
 30
0.0
 11
8046.867137855477
 21
10151.9313586597
 31
0.0
  0
LINE
  5
18BE6
330
18BE0
100
AcDbEntity
  8
寸法
 62
     0
 48
50.0
370
    -2
100
AcDbLine
 10
7574.896575106999
 20
10151.9313586597
 30
0.0
 11
7629.896575106998
 21
10151.9313586597
 31
0.0
  0
INSERT
  5
18BE7
330
18BE0
100
AcDbEntity
  8
寸法
 62
     0
 48
50.0
370
    -2
100
AcDbBlockReference
  2
_DOTSMALL
 10
7574.896575106999
 20
10151.9313586597
 30
0.0
 41
100.0
 42
100.0
 43
100.0
  0
INSERT
  5
18BE8
330
18BE0
100
AcDbEntity
  8
寸法
 62
     0
 48
50.0
370
    -2
100
AcDbBlockReference
  2
_DOTSMALL
 10
7629.896575106998
 20
10151.9313586597
 30
0.0
 41
100.0
 42
100.0
 43
100.0
 50
180.0
  0
MTEXT
  5
18BE9
330
18BE0
100
AcDbEntity
  8
寸法
 62
     7
 48
50.0
100
AcDbMText
 10
7938.381856481237
 20
10251.9313586597
 30
0.0
 40
120.0
 41
0.0
 71
     5
 72
     1
  1
\A1;55
  7
STYLE1
 73
     1
 44
1.0
1001
ACAD
1000
MTEXTBEGIN
1070
    73
1070
     1
1070
    44
1040
1.0
1070
    74
1070
     0
1000
MTEXTEND
  0
POINT
  5
18BEA
330
18BE0
100
AcDbEntity
  8
DEFPOINTS
 62
     0
 48
50.0
100
AcDbPoint
 10
7574.896575106999
 20
9636.123139034717
 30
0.0
  0
POINT
  5
18BEB
330
18BE0
100
AcDbEntity
  8
DEFPOINTS
 62
     0
 48
50.0
100
AcDbPoint
 10
7629.896575106998
 20
9636.123139034717
 30
0.0
  0
POINT
  5
18BEC
330
18BE0
100
AcDbEntity
  8
DEFPOINTS
 62
     0
 48
50.0
100
AcDbPoint
 10
7629.896575106998
 20
10151.9313586597
 30
0.0
  0
ENDBLK
  5
18BED
330
18BE0
100
AcDbEntity
  8
0
 48
50.0
100
AcDbBlockEnd
  0
BLOCK
  5
18BEF
330
18BEE
100
AcDbEntity
  8
0
 48
50.0
100
AcDbBlockBegin
  2
*D6
 70
     1
 10
0.0
 20
0.0
 30
0.0
  3
*D6
  1

  0
LINE
  5
18BF0
330
18BEE
100
AcDbEntity
  8
寸法
 62
     0
 48
50.0
370
    -2
100
AcDbLine
 10
7649.896575106999
 20
9636.123139034717
 30
0.0
 11
8337.32292084141
 21
9636.123139034717
 31
0.0
  0
LINE
  5
18BF1
330
18BEE
100
AcDbEntity
  8
寸法
 62
     0
 48
50.0
370
    -2
100
AcDbLine
 10
7649.896575106999
 20
9581.123139034721
 30
0.0
 11
8337.32292084141
 21
9581.123139034721
 31
0.0
  0
LINE
  5
18BF2
330
18BEE
100
AcDbEntity
  8
寸法
 62
     0
 48
50.0
370
    -2
100
AcDbLine
 10
8277.322920841411
 20
9581.123139034721
 30
0.0
 11
8277.322920841411
 21
9481.123139034719
 31
0.0
  0
LINE
  5
18BF3
330
18BEE
100
AcDbEntity
  8
寸法
 62
     0
 48
50.0
370
    -2
100
AcDbLine
 10
8277.322920841411
 20
9636.123139034717
 30
0.0
 11
8277.322920841411
 21
10053.09370178319
 31
0.0
  0
LINE
  5
18BF4
330
18BEE
100
AcDbEntity
  8
寸法
 62
     0
 48
50.0
370
    -2
100
AcDbLine
 10
8277.322920841411
 20
9581.123139034721
 30
0.0
 11
8277.322920841411
 21
9636.123139034717
 31
0.0
  0
INSERT
  5
18BF5
330
18BEE
100
AcDbEntity
  8
寸法
 62
     0
 48
50.0
370
    -2
100
AcDbBlockReference
  2
_DOTSMALL
 10
8277.322920841411
 20
9581.123139034721
 30
0.0
 41
100.0
 42
100.0
 43
100.0
 50
90.0
  0
INSERT
  5
18BF6
330
18BEE
100
AcDbEntity
  8
寸法
 62
     0
 48
50.0
370
    -2
100
AcDbBlockReference
  2
_DOTSMALL
 10
8277.322920841411
 20
9636.123139034717
 30
0.0
 41
100.0
 42
100.0
 43
100.0
 50
270.0
  0
MTEXT
  5
18BF7
330
18BEE
100
AcDbEntity
  8
寸法
 62
     7
 48
50.0
100
AcDbMText
 10
8177.32292084141
 20
9944.608420408957
 30
0.0
 40
120.0
 41
0.0
 71
     5
 72
     1
  1
\A1;55
  7
STYLE1
 11
0.0000000000000001
 21
1.0
 31
0.0
 73
     1
 44
1.0
1001
ACAD
1000
MTEXTBEGIN
1070
    73
1070
     1
1070
    44
1040
1.0
1070
    74
1070
     0
1000
MTEXTEND
  0
POINT
  5
18BF8
330
18BEE
100
AcDbEntity
  8
DEFPOINTS
 62
     0
 48
50.0
100
AcDbPoint
 10
7629.896575106998
 20
9636.123139034717
 30
0.0
  0
POINT
  5
18BF9
330
18BEE
100
AcDbEntity
  8
DEFPOINTS
 62
     0
 48
50.0
100
AcDbPoint
 10
7629.896575106998
 20
9581.123139034721
 30
0.0
  0
POINT
  5
18BFA
330
18BEE
100
AcDbEntity
  8
DEFPOINTS
 62
     0
 48
50.0
100
AcDbPoint
 10
8277.322920841411
 20
9581.123139034721
 30
0.0
  0
ENDBLK
  5
18BFB
330
18BEE
100
AcDbEntity
  8
0
 48
50.0
100
AcDbBlockEnd
  0
BLOCK
  5
18BFD
330
18BFC
100
AcDbEntity
  8
0
 48
50.0
100
AcDbBlockBegin
  2
*D7
 70
     1
 10
0.0
 20
0.0
 30
0.0
  3
*D7
  1

  0
LINE
  5
18BFE
330
18BFC
100
AcDbEntity
  8
寸法
 62
     0
 48
50.0
370
    -2
100
AcDbLine
 10
4159.896575106963
 20
9656.123139034622
 30
0.0
 11
4159.896575106963
 21
10211.9313586596
 31
0.0
  0
LINE
  5
18BFF
330
18BFC
100
AcDbEntity
  8
寸法
 62
     0
 48
50.0
370
    -2
100
AcDbLine
 10
4214.896575106998
 20
9656.123139034622
 30
0.0
 11
4214.896575106998
 21
10211.9313586596
 31
0.0
  0
LINE
  5
18C00
330
18BFC
100
AcDbEntity
  8
寸法
 62
     0
 48
50.0
370
    -2
100
AcDbLine
 10
4214.896575106998
 20
10151.9313586596
 30
0.0
 11
4314.896575106998
 21
10151.9313586596
 31
0.0
  0
LINE
  5
18C01
330
18BFC
100
AcDbEntity
  8
寸法
 62
     0
 48
50.0
370
    -2
100
AcDbLine
 10
4159.896575106963
 20
10151.9313586596
 30
0.0
 11
3742.926012358486
 21
10151.9313586596
 31
0.0
  0
LINE
  5
18C02
330
18BFC
100
AcDbEntity
  8
寸法
 62
     0
 48
50.0
370
    -2
100
AcDbLine
 10
4214.896575106998
 20
10151.9313586596
 30
0.0
 11
4159.896575106963
 21
10151.9313586596
 31
0.0
  0
INSERT
  5
18C03
330
18BFC
100
AcDbEntity
  8
寸法
 62
     0
 48
50.0
370
    -2
100
AcDbBlockReference
  2
_DOTSMALL
 10
4214.896575106998
 20
10151.9313586596
 30
0.0
 41
100.0
 42
100.0
 43
100.0
 50
180.0
  0
INSERT
  5
18C04
330
18BFC
100
AcDbEntity
  8
寸法
 62
     0
 48
50.0
370
    -2
100
AcDbBlockReference
  2
_DOTSMALL
 10
4159.896575106963
 20
10151.9313586596
 30
0.0
 41
100.0
 42
100.0
 43
100.0
  0
MTEXT
  5
18C05
330
18BFC
100
AcDbEntity
  8
寸法
 62
     7
 48
50.0
100
AcDbMText
 10
3851.411293732725
 20
10251.9313586596
 30
0.0
 40
120.0
 41
0.0
 71
     5
 72
     1
  1
\A1;55
  7
STYLE1
 73
     1
 44
1.0
1001
ACAD
1000
MTEXTBEGIN
1070
    73
1070
     1
1070
    44
1040
1.0
1070
    74
1070
     0
1000
MTEXTEND
  0
POINT
  5
18C06
330
18BFC
100
AcDbEntity
  8
DEFPOINTS
 62
     0
 48
50.0
100
AcDbPoint
 10
4159.896575106963
 20
9636.123139034623
 30
0.0
  0
POINT
  5
18C07
330
18BFC
100
AcDbEntity
  8
DEFPOINTS
 62
     0
 48
50.0
100
AcDbPoint
 10
4214.896575106998
 20
9636.123139034623
 30
0.0
  0
POINT
  5
18C08
330
18BFC
100
AcDbEntity
  8
DEFPOINTS
 62
     0
 48
50.0
100
AcDbPoint
 10
4214.896575106998
 20
10151.9313586596
 30
0.0
  0
ENDBLK
  5
18C09
330
18BFC
100
AcDbEntity
  8
0
 48
50.0
100
AcDbBlockEnd
  0
BLOCK
  5
18C0B
330
18C0A
100
AcDbEntity
  8
0
 48
50.0
100
AcDbBlockBegin
  2
*D8
 70
     1
 10
0.0
 20
0.0
 30
0.0
  3
*D8
  1

  0
LINE
  5
18C0C
330
18C0A
100
AcDbEntity
  8
寸法
 62
     0
 48
50.0
370
    -2
100
AcDbLine
 10
4159.896575106992
 20
7826.123139034546
 30
0.0
 11
4159.896575106992
 21
6804.372203245664
 31
0.0
  0
LINE
  5
18C0D
330
18C0A
100
AcDbEntity
  8
寸法
 62
     0
 48
50.0
370
    -2
100
AcDbLine
 10
7629.896575106974
 20
7826.123139034674
 30
0.0
 11
7629.896575106974
 21
6804.372203245664
 31
0.0
  0
LINE
  5
18C0E
330
18C0A
100
AcDbEntity
  8
寸法
 62
     0
 48
50.0
370
    -2
100
AcDbLine
 10
4159.896575106992
 20
6864.372203245665
 30
0.0
 11
7629.896575106974
 21
6864.372203245665
 31
0.0
  0
INSERT
  5
18C0F
330
18C0A
100
AcDbEntity
  8
寸法
 62
     0
 48
50.0
370
    -2
100
AcDbBlockReference
  2
_DOTSMALL
 10
4159.896575106992
 20
6864.372203245665
 30
0.0
 41
100.0
 42
100.0
 43
100.0
 50
180.0
  0
INSERT
  5
18C10
330
18C0A
100
AcDbEntity
  8
寸法
 62
     0
 48
50.0
370
    -2
100
AcDbBlockReference
  2
_DOTSMALL
 10
7629.896575106974
 20
6864.372203245665
 30
0.0
 41
100.0
 42
100.0
 43
100.0
  0
MTEXT
  5
18C11
330
18C0A
100
AcDbEntity
  8
寸法
 62
     7
 48
50.0
100
AcDbMText
 10
5911.12376113973
 20
6964.372203245665
 30
0.0
 40
120.0
 41
0.0
 71
     5
 72
     1
  1
\A1;3470
  7
STYLE1
 73
     1
 44
1.0
1001
ACAD
1000
MTEXTBEGIN
1070
    73
1070
     1
1070
    44
1040
1.0
1070
    74
1070
     0
1000
MTEXTEND
  0
POINT
  5
18C12
330
18C0A
100
AcDbEntity
  8
DEFPOINTS
 62
     0
 48
50.0
100
AcDbPoint
 10
4159.896575106992
 20
7846.123139034546
 30
0.0
  0
POINT
  5
18C13
330
18C0A
100
AcDbEntity
  8
DEFPOINTS
 62
     0
 48
50.0
100
AcDbPoint
 10
7629.896575106974
 20
7846.123139034673
 30
0.0
  0
POINT
  5
18C14
330
18C0A
100
AcDbEntity
  8
DEFPOINTS
 62
     0
 48
50.0
100
AcDbPoint
 10
7629.896575106974
 20
6864.372203245665
 30
0.0
  0
ENDBLK
  5
18C15
330
18C0A
100
AcDbEntity
  8
0
 48
50.0
100
AcDbBlockEnd
  0
BLOCK
  5
18C17
330
18C16
100
AcDbEntity
  8
0
 48
50.0
100
AcDbBlockBegin
  2
*D9
 70
     1
 10
0.0
 20
0.0
 30
0.0
  3
*D9
  1

  0
LINE
  5
18C18
330
18C16
100
AcDbEntity
  8
寸法
 62
     0
 48
50.0
370
    -2
100
AcDbLine
 10
7649.896575106973
 20
7901.123139034706
 30
0.0
 11
8337.322920841385
 21
7901.123139034706
 31
0.0
  0
LINE
  5
18C19
330
18C16
100
AcDbEntity
  8
寸法
 62
     0
 48
50.0
370
    -2
100
AcDbLine
 10
7649.896575106973
 20
7846.123139034709
 30
0.0
 11
8337.322920841385
 21
7846.123139034709
 31
0.0
  0
LINE
  5
18C1A
330
18C16
100
AcDbEntity
  8
寸法
 62
     0
 48
50.0
370
    -2
100
AcDbLine
 10
8277.322920841385
 20
7901.123139034706
 30
0.0
 11
8277.322920841385
 21
8001.123139034707
 31
0.0
  0
LINE
  5
18C1B
330
18C16
100
AcDbEntity
  8
寸法
 62
     0
 48
50.0
370
    -2
100
AcDbLine
 10
8277.322920841385
 20
7846.123139034709
 30
0.0
 11
8277.322920841385
 21
7429.152576286229
 31
0.0
  0
LINE
  5
18C1C
330
18C16
100
AcDbEntity
  8
寸法
 62
     0
 48
50.0
370
    -2
100
AcDbLine
 10
8277.322920841385
 20
7901.123139034706
 30
0.0
 11
8277.322920841385
 21
7846.123139034709
 31
0.0
  0
INSERT
  5
18C1D
330
18C16
100
AcDbEntity
  8
寸法
 62
     0
 48
50.0
370
    -2
100
AcDbBlockReference
  2
_DOTSMALL
 10
8277.322920841385
 20
7901.123139034706
 30
0.0
 41
100.0
 42
100.0
 43
100.0
 50
270.0
  0
INSERT
  5
18C1E
330
18C16
100
AcDbEntity
  8
寸法
 62
     0
 48
50.0
370
    -2
100
AcDbBlockReference
  2
_DOTSMALL
 10
8277.322920841385
 20
7846.123139034709
 30
0.0
 41
100.0
 42
100.0
 43
100.0
 50
90.0
  0
MTEXT
  5
18C1F
330
18C16
100
AcDbEntity
  8
寸法
 62
     7
 48
50.0
100
AcDbMText
 10
8177.322920841383
 20
7537.637857660469
 30
0.0
 40
120.0
 41
0.0
 71
     5
 72
     1
  1
\A1;55
  7
STYLE1
 11
0.0000000000000001
 21
1.0
 31
0.0
 73
     1
 44
1.0
1001
ACAD
1000
MTEXTBEGIN
1070
    73
1070
     1
1070
    44
1040
1.0
1070
    74
1070
     0
1000
MTEXTEND
  0
POINT
  5
18C20
330
18C16
100
AcDbEntity
  8
DEFPOINTS
 62
     0
 48
50.0
100
AcDbPoint
 10
7629.896575106974
 20
7901.123139034706
 30
0.0
  0
POINT
  5
18C21
330
18C16
100
AcDbEntity
  8
DEFPOINTS
 62
     0
 48
50.0
100
AcDbPoint
 10
7629.896575106974
 20
7846.123139034709
 30
0.0
  0
POINT
  5
18C22
330
18C16
100
AcDbEntity
  8
DEFPOINTS
 62
     0
 48
50.0
100
AcDbPoint
 10
8277.322920841385
 20
7846.123139034709
 30
0.0
  0
ENDBLK
  5
18C23
330
18C16
100
AcDbEntity
  8
0
 48
50.0
100
AcDbBlockEnd
  0
BLOCK
  5
18C25
330
18C24
100
AcDbEntity
  8
0
 48
50.0
100
AcDbBlockBegin
  2
*D10
 70
     1
 10
0.0
 20
0.0
 30
0.0
  3
*D10
  1

  0
LINE
  5
18C26
330
18C24
100
AcDbEntity
  8
寸法
 62
     0
 48
50.0
370
    -2
100
AcDbLine
 10
6533.037591258376
 20
9136.123139034728
 30
0.0
 11
6465.083950562664
 21
8882.516699399049
 31
0.0
  0
LINE
  5
18C27
330
18C24
100
AcDbEntity
  8
寸法
 62
     0
 48
50.0
370
    -2
100
AcDbLine
 10
7596.037591258388
 20
9136.123139034721
 30
0.0
 11
7528.083950562677
 21
8882.516699399049
 31
0.0
  0
LINE
  5
18C28
330
18C24
100
AcDbEntity
  8
寸法
 62
     0
 48
50.0
370
    -2
100
AcDbLine
 10
6481.160902108531
 20
8942.51669939905
 30
0.0
 11
7544.160902108544
 21
8942.51669939905
 31
0.0
  0
INSERT
  5
18C29
330
18C24
100
AcDbEntity
  8
寸法
 62
     0
 48
50.0
370
    -2
100
AcDbBlockReference
  2
_DOTSMALL
 10
6481.160902108531
 20
8942.51669939905
 30
0.0
 41
100.0
 42
100.0
 43
100.0
 50
180.0
  0
INSERT
  5
18C2A
330
18C24
100
AcDbEntity
  8
寸法
 62
     0
 48
50.0
370
    -2
100
AcDbBlockReference
  2
_DOTSMALL
 10
7544.160902108544
 20
8942.51669939905
 30
0.0
 41
100.0
 42
100.0
 43
100.0
  0
MTEXT
  5
18C2B
330
18C24
100
AcDbEntity
  8
寸法
 62
     7
 48
50.0
100
AcDbMText
 10
7061.28653022935
 20
9042.516699399049
 30
0.0
 40
120.0
 41
0.0
 71
     5
 72
     1
  1
\A1;1063
  7
STYLE1
 73
     1
 44
1.0
1001
ACAD
1000
MTEXTBEGIN
1070
    73
1070
     1
1070
    44
1040
1.0
1070
    74
1070
     0
1000
MTEXTEND
  0
POINT
  5
18C2C
330
18C24
100
AcDbEntity
  8
DEFPOINTS
 62
     0
 48
50.0
100
AcDbPoint
 10
6538.396575106998
 20
9156.123139034727
 30
0.0
  0
POINT
  5
18C2D
330
18C24
100
AcDbEntity
  8
DEFPOINTS
 62
     0
 48
50.0
100
AcDbPoint
 10
7601.39657510701
 20
9156.12313903472
 30
0.0
  0
POINT
  5
18C2E
330
18C24
100
AcDbEntity
  8
DEFPOINTS
 62
     0
 48
50.0
100
AcDbPoint
 10
7544.160902108544
 20
8942.51669939905
 30
0.0
  0
ENDBLK
  5
18C2F
330
18C24
100
AcDbEntity
  8
0
 48
50.0
100
AcDbBlockEnd
  0
BLOCK
  5
18C31
330
18C30
100
AcDbEntity
  8
0
 48
50.0
100
AcDbBlockBegin
  2
*D11
 70
     1
 10
0.0
 20
0.0
 30
0.0
  3
*D11
  1

  0
LINE
  5
18C32
330
18C30
100
AcDbEntity
  8
寸法
 62
     0
 48
50.0
370
    -2
100
AcDbLine
 10
7621.396575106999
 20
9600.764155186094
 30
0.0
 11
8016.754300969024
 21
9494.828371819961
 31
0.0
  0
LINE
  5
18C33
330
18C30
100
AcDbEntity
  8
寸法
 62
     0
 48
50.0
370
    -2
100
AcDbLine
 10
7621.396575106999
 20
9150.764155186099
 30
0.0
 11
8016.754300969024
 21
9044.828371819964
 31
0.0
  0
LINE
  5
18C34
330
18C30
100
AcDbEntity
  8
寸法
 62
     0
 48
50.0
370
    -2
100
AcDbLine
 10
7956.754300969024
 20
9510.905323365827
 30
0.0
 11
7956.754300969024
 21
9060.90532336583
 31
0.0
  0
INSERT
  5
18C35
330
18C30
100
AcDbEntity
  8
寸法
 62
     0
 48
50.0
370
    -2
100
AcDbBlockReference
  2
_DOTSMALL
 10
7956.754300969024
 20
9510.905323365827
 30
0.0
 41
100.0
 42
100.0
 43
100.0
 50
90.0
  0
INSERT
  5
18C36
330
18C30
100
AcDbEntity
  8
寸法
 62
     0
 48
50.0
370
    -2
100
AcDbBlockReference
  2
_DOTSMALL
 10
7956.754300969024
 20
9060.90532336583
 30
0.0
 41
100.0
 42
100.0
 43
100.0
 50
270.0
  0
MTEXT
  5
18C37
330
18C30
100
AcDbEntity
  8
寸法
 62
     7
 48
50.0
100
AcDbMText
 10
7856.754300969022
 20
9285.905323365829
 30
0.0
 40
120.0
 41
0.0
 71
     5
 72
     1
  1
\A1;450
  7
STYLE1
 11
0.0000000000000001
 21
1.0
 31
0.0
 73
     1
 44
1.0
1001
ACAD
1000
MTEXTBEGIN
1070
    73
1070
     1
1070
    44
1040
1.0
1070
    74
1070
     0
1000
MTEXTEND
  0
POINT
  5
18C38
330
18C30
100
AcDbEntity
  8
DEFPOINTS
 62
     0
 48
50.0
100
AcDbPoint
 10
7601.396575106999
 20
9606.123139034718
 30
0.0
  0
POINT
  5
18C39
330
18C30
100
AcDbEntity
  8
DEFPOINTS
 62
     0
 48
50.0
100
AcDbPoint
 10
7601.396575106999
 20
9156.12313903472
 30
0.0
  0
POINT
  5
18C3A
330
18C30
100
AcDbEntity
  8
DEFPOINTS
 62
     0
 48
50.0
100
AcDbPoint
 10
7956.754300969024
 20
9060.90532336583
 30
0.0
  0
ENDBLK
  5
18C3B
330
18C30
100
AcDbEntity
  8
0
 48
50.0
100
AcDbBlockEnd
  0
BLOCK
  5
18C3D
330
18C3C
100
AcDbEntity
  8
0
 48
50.0
100
AcDbBlockBegin
  2
*D12
 70
     1
 10
0.0
 20
0.0
 30
0.0
  3
*D12
  1

  0
LINE
  5
18C3E
330
18C3C
100
AcDbEntity
  8
寸法
 62
     0
 48
50.0
370
    -2
100
AcDbLine
 10
7649.896575106999
 20
9581.123139034721
 30
0.0
 11
8337.32292084141
 21
9581.123139034721
 31
0.0
  0
LINE
  5
18C3F
330
18C3C
100
AcDbEntity
  8
寸法
 62
     0
 48
50.0
370
    -2
100
AcDbLine
 10
7649.896575106973
 20
7901.123139034706
 30
0.0
 11
8337.32292084141
 21
7901.123139034706
 31
0.0
  0
LINE
  5
18C40
330
18C3C
100
AcDbEntity
  8
寸法
 62
     0
 48
50.0
370
    -2
100
AcDbLine
 10
8277.322920841411
 20
9581.123139034721
 30
0.0
 11
8277.322920841411
 21
7901.123139034706
 31
0.0
  0
INSERT
  5
18C41
330
18C3C
100
AcDbEntity
  8
寸法
 62
     0
 48
50.0
370
    -2
100
AcDbBlockReference
  2
_DOTSMALL
 10
8277.322920841411
 20
9581.123139034721
 30
0.0
 41
100.0
 42
100.0
 43
100.0
 50
90.0
  0
INSERT
  5
18C42
330
18C3C
100
AcDbEntity
  8
寸法
 62
     0
 48
50.0
370
    -2
100
AcDbBlockReference
  2
_DOTSMALL
 10
8277.322920841411
 20
7901.123139034706
 30
0.0
 41
100.0
 42
100.0
 43
100.0
 50
270.0
  0
MTEXT
  5
18C43
330
18C3C
100
AcDbEntity
  8
寸法
 62
     7
 48
50.0
100
AcDbMText
 10
8177.311109817788
 20
8741.123139034712
 30
0.0
 40
120.0
 41
0.0
 71
     5
 72
     1
  1
\A1;4X420=1680
  7
STYLE1
 11
0.0000000000000001
 21
1.0
 31
0.0
 73
     1
 44
1.0
1001
ACAD
1000
MTEXTBEGIN
1070
    73
1070
     1
1070
    44
1040
1.0
1070
    74
1070
     0
1000
MTEXTEND
  0
POINT
  5
18C44
330
18C3C
100
AcDbEntity
  8
DEFPOINTS
 62
     0
 48
50.0
100
AcDbPoint
 10
7629.896575106998
 20
9581.123139034721
 30
0.0
  0
POINT
  5
18C45
330
18C3C
100
AcDbEntity
  8
DEFPOINTS
 62
     0
 48
50.0
100
AcDbPoint
 10
7629.896575106974
 20
7901.123139034706
 30
0.0
  0
POINT
  5
18C46
330
18C3C
100
AcDbEntity
  8
DEFPOINTS
 62
     0
 48
50.0
100
AcDbPoint
 10
8277.322920841411
 20
7901.123139034706
 30
0.0
  0
ENDBLK
  5
18C47
330
18C3C
100
AcDbEntity
  8
0
 48
50.0
100
AcDbBlockEnd
  0
BLOCK
  5
18C49
330
18C48
100
AcDbEntity
  8
0
 48
50.0
100
AcDbBlockBegin
  2
*D13
 70
     1
 10
0.0
 20
0.0
 30
0.0
  3
*D13
  1

  0
LINE
  5
18C4A
330
18C48
100
AcDbEntity
  8
寸法
 62
     0
 48
50.0
370
    -2
100
AcDbLine
 10
4183.037591258377
 20
9136.123139034619
 30
0.0
 11
4115.083950562663
 21
8882.516699398941
 31
0.0
  0
LINE
  5
18C4B
330
18C48
100
AcDbEntity
  8
寸法
 62
     0
 48
50.0
370
    -2
100
AcDbLine
 10
5246.037591258307
 20
9136.123139034671
 30
0.0
 11
5178.08395056258
 21
8882.516699398941
 31
0.0
  0
LINE
  5
18C4C
330
18C48
100
AcDbEntity
  8
寸法
 62
     0
 48
50.0
370
    -2
100
AcDbLine
 10
4131.160902108532
 20
8942.516699398941
 30
0.0
 11
5194.160902108448
 21
8942.516699398941
 31
0.0
  0
INSERT
  5
18C4D
330
18C48
100
AcDbEntity
  8
寸法
 62
     0
 48
50.0
370
    -2
100
AcDbBlockReference
  2
_DOTSMALL
 10
4131.160902108532
 20
8942.516699398941
 30
0.0
 41
100.0
 42
100.0
 43
100.0
 50
180.0
  0
INSERT
  5
18C4E
330
18C48
100
AcDbEntity
  8
寸法
 62
     0
 48
50.0
370
    -2
100
AcDbBlockReference
  2
_DOTSMALL
 10
5194.160902108448
 20
8942.516699398941
 30
0.0
 41
100.0
 42
100.0
 43
100.0
  0
MTEXT
  5
18C4F
330
18C48
100
AcDbEntity
  8
寸法
 62
     7
 48
50.0
100
AcDbMText
 10
4658.986452655306
 20
9042.516699398941
 30
0.0
 40
120.0
 41
0.0
 71
     5
 72
     1
  1
\A1;1063
  7
STYLE1
 73
     1
 44
1.0
1001
ACAD
1000
MTEXTBEGIN
1070
    73
1070
     1
1070
    44
1040
1.0
1070
    74
1070
     0
1000
MTEXTEND
  0
POINT
  5
18C50
330
18C48
100
AcDbEntity
  8
DEFPOINTS
 62
     0
 48
50.0
100
AcDbPoint
 10
4188.396575106999
 20
9156.123139034617
 30
0.0
  0
POINT
  5
18C51
330
18C48
100
AcDbEntity
  8
DEFPOINTS
 62
     0
 48
50.0
100
AcDbPoint
 10
5251.396575106929
 20
9156.123139034672
 30
0.0
  0
POINT
  5
18C52
330
18C48
100
AcDbEntity
  8
DEFPOINTS
 62
     0
 48
50.0
100
AcDbPoint
 10
5194.160902108448
 20
8942.516699398941
 30
0.0
  0
ENDBLK
  5
18C53
330
18C48
100
AcDbEntity
  8
0
 48
50.0
100
AcDbBlockEnd
  0
BLOCK
  5
18C55
330
18C54
100
AcDbEntity
  8
0
 48
50.0
100
AcDbBlockBegin
  2
*D14
 70
     1
 10
0.0
 20
0.0
 30
0.0
  3
*D14
  1

  0
LINE
  5
18C56
330
18C54
100
AcDbEntity
  8
寸法
 62
     0
 48
50.0
370
    -2
100
AcDbLine
 10
5274.037591258307
 20
9136.123139034669
 30
0.0
 11
5206.08395056258
 21
8882.516699398941
 31
0.0
  0
LINE
  5
18C57
330
18C54
100
AcDbEntity
  8
寸法
 62
     0
 48
50.0
370
    -2
100
AcDbLine
 10
6505.037591258377
 20
9136.123139034662
 30
0.0
 11
6437.083950562653
 21
8882.516699398941
 31
0.0
  0
LINE
  5
18C58
330
18C54
100
AcDbEntity
  8
寸法
 62
     0
 48
50.0
370
    -2
100
AcDbLine
 10
5222.160902108448
 20
8942.516699398941
 30
0.0
 11
6453.16090210852
 21
8942.516699398941
 31
0.0
  0
INSERT
  5
18C59
330
18C54
100
AcDbEntity
  8
寸法
 62
     0
 48
50.0
370
    -2
100
AcDbBlockReference
  2
_DOTSMALL
 10
5222.160902108448
 20
8942.516699398941
 30
0.0
 41
100.0
 42
100.0
 43
100.0
 50
180.0
  0
INSERT
  5
18C5A
330
18C54
100
AcDbEntity
  8
寸法
 62
     0
 48
50.0
370
    -2
100
AcDbBlockReference
  2
_DOTSMALL
 10
6453.16090210852
 20
8942.516699398941
 30
0.0
 41
100.0
 42
100.0
 43
100.0
  0
MTEXT
  5
18C5B
330
18C54
100
AcDbEntity
  8
寸法
 62
     7
 48
50.0
100
AcDbMText
 10
6081.244808320626
 20
9042.528510422561
 30
0.0
 40
120.0
 41
0.0
 71
     5
 72
     1
  1
\A1;1231
  7
STYLE1
 73
     1
 44
1.0
1001
ACAD
1000
MTEXTBEGIN
1070
    73
1070
     1
1070
    44
1040
1.0
1070
    74
1070
     0
1000
MTEXTEND
  0
POINT
  5
18C5C
330
18C54
100
AcDbEntity
  8
DEFPOINTS
 62
     0
 48
50.0
100
AcDbPoint
 10
5279.396575106929
 20
9156.123139034669
 30
0.0
  0
POINT
  5
18C5D
330
18C54
100
AcDbEntity
  8
DEFPOINTS
 62
     0
 48
50.0
100
AcDbPoint
 10
6510.396575106999
 20
9156.123139034662
 30
0.0
  0
POINT
  5
18C5E
330
18C54
100
AcDbEntity
  8
DEFPOINTS
 62
     0
 48
50.0
100
AcDbPoint
 10
6453.16090210852
 20
8942.516699398941
 30
0.0
  0
ENDBLK
  5
18C5F
330
18C54
100
AcDbEntity
  8
0
 48
50.0
100
AcDbBlockEnd
  0
BLOCK
  5
18C61
330
18C60
100
AcDbEntity
  8
0
 48
50.0
100
AcDbBlockBegin
  2
*D15
 70
     1
 10
0.0
 20
0.0
 30
0.0
  3
*D15
  1

  0
LINE
  5
18C62
330
18C60
100
AcDbEntity
  8
寸法
 62
     0
 48
50.0
370
    -2
100
AcDbLine
 10
5065.896575106966
 20
7749.123139034579
 30
0.0
 11
5065.896575106966
 21
7099.952920982538
 31
0.0
  0
LINE
  5
18C63
330
18C60
100
AcDbEntity
  8
寸法
 62
     0
 48
50.0
370
    -2
100
AcDbLine
 10
6331.896575106966
 20
7749.123139034579
 30
0.0
 11
6331.896575106966
 21
7099.952920982538
 31
0.0
  0
LINE
  5
18C64
330
18C60
100
AcDbEntity
  8
寸法
 62
     0
 48
50.0
370
    -2
100
AcDbLine
 10
5065.896575106966
 20
7159.952920982537
 30
0.0
 11
6331.896575106966
 21
7159.952920982537
 31
0.0
  0
INSERT
  5
18C65
330
18C60
100
AcDbEntity
  8
寸法
 62
     0
 48
50.0
370
    -2
100
AcDbBlockReference
  2
_DOTSMALL
 10
5065.896575106966
 20
7159.952920982537
 30
0.0
 41
100.0
 42
100.0
 43
100.0
 50
180.0
  0
INSERT
  5
18C66
330
18C60
100
AcDbEntity
  8
寸法
 62
     0
 48
50.0
370
    -2
100
AcDbBlockReference
  2
_DOTSMALL
 10
6331.896575106966
 20
7159.952920982537
 30
0.0
 41
100.0
 42
100.0
 43
100.0
  0
MTEXT
  5
18C67
330
18C60
100
AcDbEntity
  8
寸法
 62
     7
 48
50.0
100
AcDbMText
 10
5711.986008735934
 20
7359.964732006159
 30
0.0
 40
120.0
 41
0.0
 71
     5
 72
     1
  1
\A1;有効開口部間口\P1266
  7
STYLE1
 73
     1
 44
1.0
1001
ACAD
1000
MTEXTBEGIN
1070
    73
1070
     1
1070
    44
1040
1.0
1070
    74
1070
     0
1000
MTEXTEND
  0
POINT
  5
18C68
330
18C60
100
AcDbEntity
  8
DEFPOINTS
 62
     0
 48
50.0
100
AcDbPoint
 10
5065.896575106966
 20
7769.123139034579
 30
0.0
  0
POINT
  5
18C69
330
18C60
100
AcDbEntity
  8
DEFPOINTS
 62
     0
 48
50.0
100
AcDbPoint
 10
6331.896575106966
 20
7769.123139034579
 30
0.0
  0
POINT
  5
18C6A
330
18C60
100
AcDbEntity
  8
DEFPOINTS
 62
     0
 48
50.0
100
AcDbPoint
 10
6331.896575106966
 20
7159.952920982537
 30
0.0
  0
ENDBLK
  5
18C6B
330
18C60
100
AcDbEntity
  8
0
 48
50.0
100
AcDbBlockEnd
  0
BLOCK
  5
18C6D
330
18C6C
100
AcDbEntity
  8
0
 48
50.0
100
AcDbBlockBegin
  2
*D16
 70
     1
 10
0.0
 20
0.0
 30
0.0
  3
*D16
  1

  0
LINE
  5
18C6E
330
18C6C
100
AcDbEntity
  8
寸法
 62
     0
 48
50.0
370
    -2
100
AcDbLine
 10
7200.896575106966
 20
7846.123139034578
 30
0.0
 11
7457.192158500191
 21
7846.123139034578
 31
0.0
  0
LINE
  5
18C6F
330
18C6C
100
AcDbEntity
  8
寸法
 62
     0
 48
50.0
370
    -2
100
AcDbLine
 10
7199.896575106966
 20
7769.123139034579
 30
0.0
 11
7457.192158500191
 21
7769.123139034579
 31
0.0
  0
LINE
  5
18C70
330
18C6C
100
AcDbEntity
  8
寸法
 62
     0
 48
50.0
370
    -2
100
AcDbLine
 10
7417.192158500192
 20
7866.123139034579
 30
0.0
 11
7417.192158500192
 21
7886.123139034578
 31
0.0
  0
LINE
  5
18C71
330
18C6C
100
AcDbEntity
  8
寸法
 62
     0
 48
50.0
370
    -2
100
AcDbLine
 10
7417.192158500192
 20
7749.123139034579
 30
0.0
 11
7417.192158500192
 21
7533.123139034573
 31
0.0
  0
LINE
  5
18C72
330
18C6C
100
AcDbEntity
  8
寸法
 62
     0
 48
50.0
370
    -2
100
AcDbLine
 10
7417.192158500192
 20
7846.123139034578
 30
0.0
 11
7417.192158500192
 21
7769.123139034579
 31
0.0
  0
INSERT
  5
18C73
330
18C6C
100
AcDbEntity
  8
寸法
 62
     0
 48
50.0
370
    -2
100
AcDbBlockReference
  2
_DOT
 10
7417.192158500192
 20
7846.123139034578
 30
0.0
 41
20.0
 42
20.0
 43
20.0
 50
270.0
  0
INSERT
  5
18C74
330
18C6C
100
AcDbEntity
  8
寸法
 62
     0
 48
50.0
370
    -2
100
AcDbBlockReference
  2
_DOT
 10
7417.192158500192
 20
7769.123139034579
 30
0.0
 41
20.0
 42
20.0
 43
20.0
 50
90.0
  0
MTEXT
  5
18C75
330
18C6C
100
AcDbEntity
  8
寸法
 62
     7
 48
50.0
100
AcDbMText
 10
7325.192158500191
 20
7631.123139034575
 30
0.0
 40
120.0
 41
0.0
 71
     5
 72
     1
  1
\A1;77
  7
STYLE1
 11
0.0000000000000001
 21
1.0
 31
0.0
 73
     1
 44
1.0
1001
ACAD
1000
MTEXTBEGIN
1070
    73
1070
     1
1070
    44
1040
1.0
1070
    74
1070
     0
1000
MTEXTEND
  0
POINT
  5
18C76
330
18C6C
100
AcDbEntity
  8
DEFPOINTS
 62
     0
 48
50.0
100
AcDbPoint
 10
7180.896575106967
 20
7846.123139034578
 30
0.0
  0
POINT
  5
18C77
330
18C6C
100
AcDbEntity
  8
DEFPOINTS
 62
     0
 48
50.0
100
AcDbPoint
 10
7179.896575106965
 20
7769.123139034579
 30
0.0
  0
POINT
  5
18C78
330
18C6C
100
AcDbEntity
  8
DEFPOINTS
 62
     0
 48
50.0
100
AcDbPoint
 10
7417.192158500192
 20
7769.123139034579
 30
0.0
  0
ENDBLK
  5
18C79
330
18C6C
100
AcDbEntity
  8
0
 48
50.0
100
AcDbBlockEnd
  0
BLOCK
  5
18DA0
330
18C7A
100
AcDbEntity
  8
0
 48
50.0
100
AcDbBlockBegin
  2
A$C3B1A506B
 70
     0
 10
0.0
 20
0.0
 30
0.0
  3
A$C3B1A506B
  1

  0
MTEXT
  5
18C7B
330
18C7A
100
AcDbEntity
  8
寸法
 62
     7
 48
50.0
100
AcDbMText
 10
3342.250386887194
 20
2778.329429134012
 30
0.0
 40
96.0
 41
0.0
 71
     5
 72
     1
  1
棚 2段
  7
STYLE1
 73
     1
 44
1.0
1001
ACAD
1000
MTEXTBEGIN
1070
    73
1070
     1
1070
    44
1040
1.0
1070
    74
1070
     0
1000
MTEXTEND
  0
MTEXT
  5
18C7C
330
18C7A
100
AcDbEntity
  8
寸法
 62
     7
 48
50.0
100
AcDbMText
 10
2167.25038688716
 20
2778.329429133986
 30
0.0
 40
96.0
 41
0.0
 71
     5
 72
     1
  1
棚 2段
  7
STYLE1
 73
     1
 44
1.0
1001
ACAD
1000
MTEXTBEGIN
1070
    73
1070
     1
1070
    44
1040
1.0
1070
    74
1070
     0
1000
MTEXTEND
  0
MTEXT
  5
18C7D
330
18C7A
100
AcDbEntity
  8
寸法
 62
     7
 48
50.0
100
AcDbMText
 10
992.2503868871608
 20
2778.329429133935
 30
0.0
 40
96.0
 41
0.0
 71
     5
 72
     1
  1
棚 2段
  7
STYLE1
 73
     1
 44
1.0
1001
ACAD
1000
MTEXTBEGIN
1070
    73
1070
     1
1070
    44
1040
1.0
1070
    74
1070
     0
1000
MTEXTEND
  0
LINE
  5
18C7E
330
18C7A
100
AcDbEntity
  8
細線
 48
50.0
100
AcDbLine
 10
2771.970589276527
 20
1368.994384123192
 30
0.0
 11
3398.970589276523
 21
1368.994384123192
 31
0.0
  0
LINE
  5
18C7F
330
18C7A
100
AcDbEntity
  8
細線
 48
50.0
100
AcDbLine
 10
2117.970593930113
 20
1335.285615569113
 30
0.0
 11
3398.970589276523
 21
1335.285615569113
 31
0.0
  0
LINE
  5
18C80
330
18C7A
100
AcDbEntity
  8
細線
 48
50.0
100
AcDbLine
 10
2076.970593930115
 20
1364.690523565368
 30
0.0
 11
1322.970589276523
 21
1364.690523565367
 31
0.0
  0
LINE
  5
18C81
330
18C7A
100
AcDbEntity
  8
細線
100
AcDbLine
 10
3170.720579860066
 20
1388.494284088199
 30
0.0
 11
3173.052119381877
 21
1393.494286728162
 31
0.0
  0
LINE
  5
18C82
330
18C7A
100
AcDbEntity
  8
細線
100
AcDbLine
 10
3240.720589276525
 20
1388.494269174465
 30
0.0
 11
3238.389042800336
 21
1393.494286728144
 31
0.0
  0
LINE
  5
18C83
330
18C7A
100
AcDbEntity
  8
細線
100
AcDbLine
 10
3238.389042800336
 20
1393.494286728144
 30
0.0
 11
3173.052119381862
 21
1393.494286728133
 31
0.0
  0
LINE
  5
18C84
330
18C7A
100
AcDbEntity
  8
細線
100
AcDbLine
 10
3098.389042800336
 20
1393.494286728144
 30
0.0
 11
3033.052119381862
 21
1393.494286728133
 31
0.0
  0
LINE
  5
18C85
330
18C7A
100
AcDbEntity
  8
細線
100
AcDbLine
 10
3100.720589276523
 20
1388.494269174465
 30
0.0
 11
3098.389042800336
 21
1393.494286728144
 31
0.0
  0
LINE
  5
18C86
330
18C7A
100
AcDbEntity
  8
細線
100
AcDbLine
 10
3030.720579860066
 20
1388.494284088199
 30
0.0
 11
3033.052119381875
 21
1393.494286728162
 31
0.0
  0
LINE
  5
18C87
330
18C7A
100
AcDbEntity
  8
細線
100
AcDbLine
 10
2890.720589276525
 20
1388.494269174465
 30
0.0
 11
2893.052128798336
 21
1393.494271814428
 31
0.0
  0
LINE
  5
18C88
330
18C7A
100
AcDbEntity
  8
細線
100
AcDbLine
 10
2960.720598692984
 20
1388.494254260731
 30
0.0
 11
2958.389052216793
 21
1393.49427181441
 31
0.0
  0
LINE
  5
18C89
330
18C7A
100
AcDbEntity
  8
細線
100
AcDbLine
 10
2958.389052216795
 20
1393.49427181441
 30
0.0
 11
2893.052128798321
 21
1393.494271814399
 31
0.0
  0
LINE
  5
18C8A
330
18C7A
100
AcDbEntity
  8
細線
100
AcDbLine
 10
2667.139038146739
 20
1359.494298590735
 30
0.0
 11
2601.802114728263
 21
1359.494298590724
 31
0.0
  0
LINE
  5
18C8B
330
18C7A
100
AcDbEntity
  8
細線
100
AcDbLine
 10
2669.470584622926
 20
1354.494281037055
 30
0.0
 11
2667.139038146737
 21
1359.494298590735
 31
0.0
  0
LINE
  5
18C8C
330
18C7A
100
AcDbEntity
  8
細線
100
AcDbLine
 10
2599.470575206469
 20
1354.49429595079
 30
0.0
 11
2601.802114728278
 21
1359.494298590752
 31
0.0
  0
LINE
  5
18C8D
330
18C7A
100
AcDbEntity
  8
細線
 48
50.0
100
AcDbLine
 10
2440.853968524536
 20
1372.765132327548
 30
0.0
 11
2446.609486107205
 21
1354.494281037057
 31
0.0
  0
LINE
  5
18C8E
330
18C7A
100
AcDbEntity
  8
細線
 48
50.0
100
AcDbLine
 10
2429.925520044106
 20
1372.765132327546
 30
0.0
 11
2440.853968524536
 21
1372.765132327548
 31
0.0
  0
ARC
  5
18C8F
330
18C7A
100
AcDbEntity
  8
細線
 48
50.0
100
AcDbCircle
 10
2424.471163986787
 20
1374.265132327546
 30
0.0
 40
5.0
100
AcDbArc
 50
204.6243183520723
 51
335.3756816479278
  0
ARC
  5
18C90
330
18C7A
100
AcDbEntity
  8
細線
 48
50.0
100
AcDbCircle
 10
2429.925520044106
 20
1371.765132327546
 30
0.0
 40
1.0
100
AcDbArc
 50
90.0
 51
155.3756816479277
  0
ARC
  5
18C91
330
18C7A
100
AcDbEntity
  8
細線
 48
50.0
100
AcDbCircle
 10
2419.016807929469
 20
1371.765132327546
 30
0.0
 40
1.0
100
AcDbArc
 50
24.62431835207225
 51
90.0
  0
LINE
  5
18C92
330
18C7A
100
AcDbEntity
  8
細線
 48
50.0
100
AcDbLine
 10
2408.088359449037
 20
1372.765132327548
 30
0.0
 11
2419.016807929469
 21
1372.765132327546
 31
0.0
  0
LINE
  5
18C93
330
18C7A
100
AcDbEntity
  8
細線
 48
50.0
100
AcDbLine
 10
2402.33284186637
 20
1354.494281037054
 30
0.0
 11
2408.088359449037
 21
1372.765132327548
 31
0.0
  0
LINE
  5
18C94
330
18C7A
100
AcDbEntity
  8
細線
100
AcDbLine
 10
2458.070304175992
 20
1354.494278397076
 30
0.0
 11
2460.401843697802
 21
1359.494281037039
 31
0.0
  0
LINE
  5
18C95
330
18C7A
100
AcDbEntity
  8
細線
100
AcDbLine
 10
2528.070313592451
 20
1354.494263483342
 30
0.0
 11
2525.738767116262
 21
1359.494281037021
 31
0.0
  0
LINE
  5
18C96
330
18C7A
100
AcDbEntity
  8
細線
100
AcDbLine
 10
2525.738767116262
 20
1359.494281037021
 30
0.0
 11
2460.40184369779
 21
1359.49428103701
 31
0.0
  0
LINE
  5
18C97
330
18C7A
100
AcDbEntity
  8
細線
100
AcDbLine
 10
2387.139046332155
 20
1359.494281037021
 30
0.0
 11
2321.80212291368
 21
1359.49428103701
 31
0.0
  0
LINE
  5
18C98
330
18C7A
100
AcDbEntity
  8
細線
100
AcDbLine
 10
2389.470592808342
 20
1354.494263483342
 30
0.0
 11
2387.139046332153
 21
1359.494281037021
 31
0.0
  0
LINE
  5
18C99
330
18C7A
100
AcDbEntity
  8
細線
100
AcDbLine
 10
2319.470584622926
 20
1354.494281037054
 30
0.0
 11
2321.802122913694
 21
1359.494281037039
 31
0.0
  0
LINE
  5
18C9A
330
18C7A
100
AcDbEntity
  8
細線
100
AcDbLine
 10
2179.47061994182
 20
1354.494289224422
 30
0.0
 11
2181.802158232587
 21
1359.494289224407
 31
0.0
  0
LINE
  5
18C9B
330
18C7A
100
AcDbEntity
  8
細線
100
AcDbLine
 10
2249.470628127236
 20
1354.49427167071
 30
0.0
 11
2247.139081651047
 21
1359.494289224389
 31
0.0
  0
LINE
  5
18C9C
330
18C7A
100
AcDbEntity
  8
細線
100
AcDbLine
 10
2247.139081651047
 20
1359.494289224389
 30
0.0
 11
2181.802158232573
 21
1359.494289224378
 31
0.0
  0
LINE
  5
18C9D
330
18C7A
100
AcDbEntity
  8
細線
100
AcDbLine
 10
1807.970585744697
 20
1320.494460905133
 30
0.0
 11
1810.302124035464
 21
1325.494460905118
 31
0.0
  0
LINE
  5
18C9E
330
18C7A
100
AcDbEntity
  8
細線
100
AcDbLine
 10
1877.970593930113
 20
1320.494443351421
 30
0.0
 11
1875.639047453926
 21
1325.4944609051
 31
0.0
  0
LINE
  5
18C9F
330
18C7A
100
AcDbEntity
  8
細線
100
AcDbLine
 10
1875.639047453926
 20
1325.4944609051
 30
0.0
 11
1810.302124035452
 21
1325.494460905089
 31
0.0
  0
LINE
  5
18CA0
330
18C7A
100
AcDbEntity
  8
細線
100
AcDbLine
 10
2015.639047453926
 20
1325.4944609051
 30
0.0
 11
1950.302124035452
 21
1325.494460905089
 31
0.0
  0
LINE
  5
18CA1
330
18C7A
100
AcDbEntity
  8
細線
100
AcDbLine
 10
2017.970593930113
 20
1320.494443351421
 30
0.0
 11
2015.639047453924
 21
1325.4944609051
 31
0.0
  0
LINE
  5
18CA2
330
18C7A
100
AcDbEntity
  8
細線
100
AcDbLine
 10
1947.970585744697
 20
1320.494460905133
 30
0.0
 11
1950.302124035465
 21
1325.494460905118
 31
0.0
  0
LINE
  5
18CA3
330
18C7A
100
AcDbEntity
  8
細線
100
AcDbLine
 10
1735.639047453926
 20
1325.494460905098
 30
0.0
 11
1670.302124035454
 21
1325.494460905087
 31
0.0
  0
LINE
  5
18CA4
330
18C7A
100
AcDbEntity
  8
細線
100
AcDbLine
 10
1737.970593930113
 20
1320.494443351419
 30
0.0
 11
1735.639047453926
 21
1325.494460905098
 31
0.0
  0
LINE
  5
18CA5
330
18C7A
100
AcDbEntity
  8
細線
100
AcDbLine
 10
1667.970585744697
 20
1320.494460905131
 30
0.0
 11
1670.302124035465
 21
1325.494460905116
 31
0.0
  0
LINE
  5
18CA6
330
18C7A
100
AcDbEntity
  8
細線
100
AcDbLine
 10
1527.970593930113
 20
1320.494460905133
 30
0.0
 11
1530.302132220881
 21
1325.494460905118
 31
0.0
  0
LINE
  5
18CA7
330
18C7A
100
AcDbEntity
  8
細線
100
AcDbLine
 10
1597.970602115529
 20
1320.494443351421
 30
0.0
 11
1595.639055639342
 21
1325.4944609051
 31
0.0
  0
LINE
  5
18CA8
330
18C7A
100
AcDbEntity
  8
細線
100
AcDbLine
 10
1595.639055639342
 20
1325.4944609051
 30
0.0
 11
1530.302132220869
 21
1325.494460905089
 31
0.0
  0
ARC
  5
18CA9
330
18C7A
100
AcDbEntity
  8
部品1
 48
0.01
100
AcDbCircle
 10
1483.470482677778
 20
1319.493338720063
 30
0.0
 40
0.5
100
AcDbArc
 50
270.0
 51
0.0
  0
LINE
  5
18CAA
330
18C7A
100
AcDbEntity
  8
部品1
 48
0.01
100
AcDbLine
 10
1483.970482677778
 20
1320.493338720063
 30
0.0
 11
1483.970482677778
 21
1319.493338720063
 31
0.0
  0
LINE
  5
18CAB
330
18C7A
100
AcDbEntity
  8
部品1
 48
0.01
100
AcDbLine
 10
1483.970482677778
 20
1320.493338720063
 30
0.0
 11
1483.970482677778
 21
1319.493338720063
 31
0.0
  0
LINE
  5
18CAC
330
18C7A
100
AcDbEntity
  8
部品1
 48
0.01
100
AcDbLine
 10
1483.470482677778
 20
1318.993338720063
 30
0.0
 11
1476.857977247713
 21
1318.993338720062
 31
0.0
  0
ARC
  5
18CAD
330
18C7A
100
AcDbEntity
  8
部品1
100
AcDbCircle
 10
1476.926326800494
 20
1319.993338720062
 30
0.0
 40
1.0
100
AcDbArc
 50
160.5287793655865
 51
270.0
  0
ARC
  5
18CAE
330
18C7A
100
AcDbEntity
  8
部品1
100
AcDbCircle
 10
1451.470482677778
 20
1328.993338720062
 30
0.0
 40
26.0
100
AcDbArc
 50
340.5287793655865
 51
0.0
  0
LINE
  5
18CAF
330
18C7A
100
AcDbEntity
  8
部品1
100
AcDbLine
 10
1477.470482677778
 20
1328.993338720062
 30
0.0
 11
1477.470482677778
 21
1333.993338720061
 31
0.0
  0
ARC
  5
18CB0
330
18C7A
100
AcDbEntity
  8
部品1
 48
0.01
100
AcDbCircle
 10
1475.470482677778
 20
1333.993338720061
 30
0.0
 40
2.0
100
AcDbArc
 50
0.0
 51
90.0
  0
ARC
  5
18CB1
330
18C7A
100
AcDbEntity
  8
部品1
100
AcDbCircle
 10
1473.862091052968
 20
1332.993338720062
 30
0.0
 40
3.0
100
AcDbArc
 50
90.0
 51
141.6069559808035
  0
LINE
  5
18CB2
330
18C7A
100
AcDbEntity
  8
部品1
 48
0.01
100
AcDbLine
 10
1475.470482677778
 20
1335.993338720062
 30
0.0
 11
1473.862091052968
 21
1335.993338720062
 31
0.0
  0
ARC
  5
18CB3
330
18C7A
100
AcDbEntity
  8
部品1
100
AcDbCircle
 10
1455.399768463507
 20
1332.293338720065
 30
0.0
 40
3.0
100
AcDbArc
 50
254.0576313943215
 51
270.0
  0
ARC
  5
18CB4
330
18C7A
100
AcDbEntity
  8
部品1
100
AcDbCircle
 10
1462.541196892049
 20
1332.293338720065
 30
0.0
 40
3.0
100
AcDbArc
 50
270.0
 51
285.9423686056786
  0
LINE
  5
18CB5
330
18C7A
100
AcDbEntity
  8
部品1
100
AcDbLine
 10
1462.541196892049
 20
1329.293338720064
 30
0.0
 11
1455.399768463507
 21
1329.293338720064
 31
0.0
  0
ARC
  5
18CB6
330
18C7A
100
AcDbEntity
  8
部品1
100
AcDbCircle
 10
1458.970482677778
 20
1344.793338720065
 30
0.0
 40
16.0
100
AcDbArc
 50
285.9423686056786
 51
321.6069559808035
  0
LINE
  5
18CB7
330
18C7A
100
AcDbEntity
  8
部品1
 48
0.01
100
AcDbLine
 10
1442.470482677778
 20
1335.993338720062
 30
0.0
 11
1444.078874302588
 21
1335.993338720062
 31
0.0
  0
ARC
  5
18CB8
330
18C7A
100
AcDbEntity
  8
部品1
100
AcDbCircle
 10
1444.078874302588
 20
1332.993338720062
 30
0.0
 40
3.0
100
AcDbArc
 50
38.39304401919648
 51
90.0
  0
ARC
  5
18CB9
330
18C7A
100
AcDbEntity
  8
部品1
100
AcDbCircle
 10
1458.970482677778
 20
1344.793338720065
 30
0.0
 40
16.0
100
AcDbArc
 50
218.3930440191965
 51
254.0576313943215
  0
LINE
  5
18CBA
330
18C7A
100
AcDbEntity
  8
部品1
100
AcDbLine
 10
1440.470482677778
 20
1328.993338720062
 30
0.0
 11
1440.470482677778
 21
1333.993338720061
 31
0.0
  0
ARC
  5
18CBB
330
18C7A
100
AcDbEntity
  8
部品1
 48
0.01
100
AcDbCircle
 10
1442.470482677778
 20
1333.993338720061
 30
0.0
 40
2.0
100
AcDbArc
 50
90.0
 51
180.0
  0
ARC
  5
18CBC
330
18C7A
100
AcDbEntity
  8
部品1
100
AcDbCircle
 10
1466.470482677778
 20
1328.993338720062
 30
0.0
 40
26.0
100
AcDbArc
 50
180.0
 51
199.4712206344134
  0
ARC
  5
18CBD
330
18C7A
100
AcDbEntity
  8
部品1
 48
0.01
100
AcDbCircle
 10
1434.470482677778
 20
1319.493338720063
 30
0.0
 40
0.5
100
AcDbArc
 50
180.0
 51
270.0
  0
LINE
  5
18CBE
330
18C7A
100
AcDbEntity
  8
部品1
 48
0.01
100
AcDbLine
 10
1434.470482677778
 20
1318.993338720063
 30
0.0
 11
1441.014638555061
 21
1318.993338720062
 31
0.0
  0
LINE
  5
18CBF
330
18C7A
100
AcDbEntity
  8
部品1
 48
0.01
100
AcDbLine
 10
1433.970482677778
 20
1320.493338720063
 30
0.0
 11
1433.970482677778
 21
1319.493338720063
 31
0.0
  0
ARC
  5
18CC0
330
18C7A
100
AcDbEntity
  8
部品1
100
AcDbCircle
 10
1441.014638555061
 20
1319.993338720062
 30
0.0
 40
1.0
100
AcDbArc
 50
270.0
 51
19.47122063441346
  0
LINE
  5
18CC1
330
18C7A
100
AcDbEntity
  8
細線
100
AcDbLine
 10
1479.470482677785
 20
1338.493338720065
 30
0.0
 11
1438.470482677785
 21
1338.493338720058
 31
0.0
  0
LINE
  5
18CC2
330
18C7A
100
AcDbEntity
  8
細線
100
AcDbLine
 10
1438.470482677785
 20
1338.493338720058
 30
0.0
 11
1438.470482677785
 21
1320.49333872004
 31
0.0
  0
LINE
  5
18CC3
330
18C7A
100
AcDbEntity
  8
細線
100
AcDbLine
 10
1479.470482677785
 20
1338.493338720065
 30
0.0
 11
1479.470482677785
 21
1320.49333872004
 31
0.0
  0
LINE
  5
18CC4
330
18C7A
100
AcDbEntity
  8
細線
100
AcDbLine
 10
1322.970589276523
 20
1324.494269174465
 30
0.0
 11
1322.970589276523
 21
1320.494269174513
 31
0.0
  0
LINE
  5
18CC5
330
18C7A
100
AcDbEntity
  8
寸法
 48
50.0
100
AcDbLine
 10
1746.17359555837
 20
1170.531020743327
 30
0.0
 11
1694.767587648266
 21
1170.531020743327
 31
0.0
  0
LINE
  5
18CC6
330
18C7A
100
AcDbEntity
  8
寸法
 48
50.0
100
AcDbLine
 10
1694.767587648266
 20
1170.531020743327
 30
0.0
 11
1694.767587648266
 21
1201.841179395494
 31
0.0
  0
LINE
  5
18CC7
330
18C7A
100
AcDbEntity
  8
寸法
 48
50.0
100
AcDbLine
 10
1694.767587648266
 20
1201.841179395494
 30
0.0
 11
1665.006255656843
 21
1201.841179395494
 31
0.0
  0
LINE
  5
18CC8
330
18C7A
100
AcDbEntity
  8
寸法
 48
50.0
100
AcDbLine
 10
1665.006255656843
 20
1201.841179395494
 30
0.0
 11
1720.470591603318
 21
1239.420630324105
 31
0.0
  0
LINE
  5
18CC9
330
18C7A
100
AcDbEntity
  8
寸法
 48
50.0
100
AcDbLine
 10
1775.934927549793
 20
1201.841179395494
 30
0.0
 11
1720.470591603318
 21
1239.420630324105
 31
0.0
  0
LINE
  5
18CCA
330
18C7A
100
AcDbEntity
  8
寸法
 48
50.0
100
AcDbLine
 10
1746.17359555837
 20
1201.841179395494
 30
0.0
 11
1775.934927549793
 21
1201.841179395494
 31
0.0
  0
LINE
  5
18CCB
330
18C7A
100
AcDbEntity
  8
寸法
 48
50.0
100
AcDbLine
 10
1746.17359555837
 20
1170.531020743327
 30
0.0
 11
1746.17359555837
 21
1201.841179395494
 31
0.0
  0
LINE
  5
18CCC
330
18C7A
100
AcDbEntity
  8
寸法
 48
50.0
100
AcDbLine
 10
1694.767587648266
 20
1170.531020743327
 30
0.0
 11
1746.17359555837
 21
1170.531020743327
 31
0.0
  0
LINE
  5
18CCD
330
18C7A
100
AcDbEntity
  8
寸法
 48
50.0
100
AcDbLine
 10
2025.339129835225
 20
1227.676611498152
 30
0.0
 11
2025.339129835225
 21
1174.01297691636
 31
0.0
  0
LINE
  5
18CCE
330
18C7A
100
AcDbEntity
  8
寸法
 48
50.0
100
AcDbLine
 10
2114.623348430647
 20
1203.752977228664
 30
0.0
 11
2025.339129835225
 21
1227.676611498152
 31
0.0
  0
LINE
  5
18CCF
330
18C7A
100
AcDbEntity
  8
寸法
 48
50.0
100
AcDbLine
 10
1895.471408254923
 20
1203.752977228664
 30
0.0
 11
2114.623348430647
 21
1203.752977228664
 31
0.0
  0
DIMENSION
  5
18CD0
330
18C7A
100
AcDbEntity
  8
寸法
 48
50.0
100
AcDbDimension
  2
*D15
 10
2588.970589276523
 20
706.3240511224249
 30
0.0
 11
1969.060022905491
 21
706.3240511224249
 31
0.0
 12
-3742.925985830444
 22
-6453.628869860112
 32
0.0
 70
   128
  1
有効開口部間口\P<>
 71
     5
 42
1266.0
  3
INABA_S40G
100
AcDbAlignedDimension
 13
1322.970589276523
 23
1315.494269174465
 33
0.0
 14
2588.970589276523
 24
1315.494269174465
 34
0.0
100
AcDbRotatedDimension
1001
ACAD
1000
DSTYLE
1002
{
1070
   341
1005
0
1002
}
  0
LINE
  5
18CD1
330
18C7A
100
AcDbEntity
  8
部品1
100
AcDbLine
 10
3409.970589276524
 20
1392.494269174465
 30
0.0
 11
3437.970589276523
 21
1392.494269174465
 31
0.0
  0
DIMENSION
  5
18CD2
330
18C7A
100
AcDbEntity
  8
寸法
100
AcDbDimension
  2
*D16
 10
3674.266172669749
 20
1315.494269174465
 30
0.0
 11
3674.266172669748
 21
1177.494269174462
 31
0.0
 12
-3742.925985830444
 22
-6453.628869860112
 32
0.0
 70
   128
 71
     5
 42
77.0
  3
INABA_S40
100
AcDbAlignedDimension
 13
3437.970589276523
 23
1392.494269174465
 33
0.0
 14
3436.970589276523
 24
1315.494269174465
 34
0.0
 50
90.0
100
AcDbRotatedDimension
1001
ACAD
1000
DSTYLE
1002
{
1070
    41
1040
0.5
1070
    44
1040
1.0
1070
   147
1040
0.8
1070
   271
1070
     2
1070
   272
1070
     2
1070
   289
1070
     3
1070
   340
1005
F706
1070
   343
1005
164B4
1070
   344
1005
164B4
1002
}
  0
LINE
  5
18CD3
330
18C7A
100
AcDbEntity
  8
部品1
100
AcDbLine
 10
3437.970589276523
 20
1315.494269174465
 30
0.0
 11
3437.970589276523
 21
1392.494269174465
 31
0.0
  0
LINE
  5
18CD4
330
18C7A
100
AcDbEntity
  8
部品1
100
AcDbLine
 10
3398.970589276523
 20
1388.494269174465
 30
0.0
 11
3409.970589276524
 21
1388.494269174465
 31
0.0
  0
LINE
  5
18CD5
330
18C7A
100
AcDbEntity
  8
部品1
100
AcDbLine
 10
3407.970589276523
 20
1324.494269174465
 30
0.0
 11
3407.970589276523
 21
1315.494269174465
 31
0.0
  0
LINE
  5
18CD6
330
18C7A
100
AcDbEntity
  8
部品1
100
AcDbLine
 10
3398.970589276523
 20
1324.494269174465
 30
0.0
 11
3407.970589276523
 21
1324.494269174465
 31
0.0
  0
LINE
  5
18CD7
330
18C7A
100
AcDbEntity
  8
部品1
100
AcDbLine
 10
3398.970589276523
 20
1388.494269174465
 30
0.0
 11
3398.970589276523
 21
1324.494269174465
 31
0.0
  0
LINE
  5
18CD8
330
18C7A
100
AcDbEntity
  8
部品1
100
AcDbLine
 10
3409.970589276524
 20
1419.494269174465
 30
0.0
 11
3409.970589276524
 21
1388.494269174465
 31
0.0
  0
LINE
  5
18CD9
330
18C7A
100
AcDbEntity
  8
部品1
100
AcDbLine
 10
1322.970589276523
 20
1388.494269174465
 30
0.0
 11
1311.970589276523
 21
1388.494269174465
 31
0.0
  0
LINE
  5
18CDA
330
18C7A
100
AcDbEntity
  8
部品1
100
AcDbLine
 10
1283.970589276523
 20
1392.494269174465
 30
0.0
 11
1311.970589276523
 21
1392.494269174465
 31
0.0
  0
LINE
  5
18CDB
330
18C7A
100
AcDbEntity
  8
部品1
100
AcDbLine
 10
1313.970589276523
 20
1324.494269174465
 30
0.0
 11
1313.970589276523
 21
1315.494269174465
 31
0.0
  0
LINE
  5
18CDC
330
18C7A
100
AcDbEntity
  8
部品1
100
AcDbLine
 10
1322.970589276523
 20
1324.494269174465
 30
0.0
 11
1313.970589276523
 21
1324.494269174465
 31
0.0
  0
LINE
  5
18CDD
330
18C7A
100
AcDbEntity
  8
部品1
100
AcDbLine
 10
1313.970589276523
 20
1315.494269174465
 30
0.0
 11
1283.970589276523
 21
1315.494269174465
 31
0.0
  0
LINE
  5
18CDE
330
18C7A
100
AcDbEntity
  8
部品1
100
AcDbLine
 10
1283.970589276523
 20
1315.494269174465
 30
0.0
 11
1283.970589276523
 21
1392.494269174465
 31
0.0
  0
LINE
  5
18CDF
330
18C7A
100
AcDbEntity
  8
部品1
100
AcDbLine
 10
1322.970589276523
 20
1388.494269174465
 30
0.0
 11
1322.970589276523
 21
1324.494269174465
 31
0.0
  0
LINE
  5
18CE0
330
18C7A
100
AcDbEntity
  8
部品1
100
AcDbLine
 10
1311.970589276523
 20
1419.494269174462
 30
0.0
 11
1311.970589276523
 21
1388.494269174465
 31
0.0
  0
LINE
  5
18CE1
330
18C7A
100
AcDbEntity
  8
部品1
100
AcDbLine
 10
1311.970589276523
 20
1419.494269174462
 30
0.0
 11
3409.970589276524
 21
1419.494269174465
 31
0.0
  0
LINE
  5
18CE2
330
18C7A
100
AcDbEntity
  8
部品1
100
AcDbLine
 10
3407.970589276523
 20
1315.494269174465
 30
0.0
 11
3437.970589276523
 21
1315.494269174465
 31
0.0
  0
LINE
  5
18CE3
330
18C7A
100
AcDbEntity
  8
部品1
100
AcDbLine
 10
1313.970589276523
 20
1315.494269174465
 30
0.0
 11
3410.970589276523
 21
1315.494269174465
 31
0.0
  0
LINE
  5
18CE4
330
18C7A
100
AcDbEntity
  8
細線
  6
Continuous
 62
     5
100
AcDbLine
 10
2689.970589276527
 20
1354.494269174462
 30
0.0
 11
2689.970589276527
 21
1354.494269174462
 31
0.0
  0
LINE
  5
18CE5
330
18C7A
100
AcDbEntity
  8
細線
  6
Continuous
 62
     5
100
AcDbLine
 10
2682.470589276527
 20
1354.494269174462
 30
0.0
 11
2682.470589276527
 21
1354.494269174462
 31
0.0
  0
LINE
  5
18CE6
330
18C7A
100
AcDbEntity
  8
細線
  6
Continuous
 62
     5
100
AcDbLine
 10
2676.470589276527
 20
1354.494269174462
 30
0.0
 11
2676.470589276527
 21
1354.494269174462
 31
0.0
  0
LINE
  5
18CE7
330
18C7A
100
AcDbEntity
  8
細線
  6
Continuous
 62
     5
100
AcDbLine
 10
2743.970589276527
 20
1373.494269174462
 30
0.0
 11
2743.970589276527
 21
1373.494269174462
 31
0.0
  0
LINE
  5
18CE8
330
18C7A
100
AcDbEntity
  8
細線
 48
50.0
100
AcDbLine
 10
1336.970593930116
 20
1341.094443351418
 30
0.0
 11
1336.970593930113
 21
1349.490593759059
 31
0.0
  0
LINE
  5
18CE9
330
18C7A
100
AcDbEntity
  8
細線
 48
50.0
100
AcDbLine
 10
1336.970593930113
 20
1349.490593759059
 30
0.0
 11
1322.970589276523
 21
1349.490593759057
 31
0.0
  0
LINE
  5
18CEA
330
18C7A
100
AcDbEntity
  8
細線
 48
50.0
100
AcDbLine
 10
2087.970593930113
 20
1337.644443351419
 30
0.0
 11
2087.970593930113
 21
1342.494443351421
 31
0.0
  0
LINE
  5
18CEB
330
18C7A
100
AcDbEntity
  8
細線
 48
50.0
100
AcDbLine
 10
2087.970593930113
 20
1342.494443351421
 30
0.0
 11
2102.970593930113
 21
1342.494443351421
 31
0.0
  0
LINE
  5
18CEC
330
18C7A
100
AcDbEntity
  8
細線
 48
50.0
100
AcDbLine
 10
2102.970593930113
 20
1342.494443351421
 30
0.0
 11
2102.970593930115
 21
1349.494443351419
 31
0.0
  0
LINE
  5
18CED
330
18C7A
100
AcDbEntity
  8
細線
 48
50.0
100
AcDbLine
 10
2102.970593930115
 20
1349.494443351419
 30
0.0
 11
2117.970593930113
 21
1349.494443351419
 31
0.0
  0
LINE
  5
18CEE
330
18C7A
100
AcDbEntity
  8
細線
 48
50.0
100
AcDbLine
 10
2117.970593930113
 20
1349.494443351419
 30
0.0
 11
2117.970593930113
 21
1320.494443351421
 31
0.0
  0
LINE
  5
18CEF
330
18C7A
100
AcDbEntity
  8
細線
 48
50.0
100
AcDbLine
 10
1313.970589276523
 20
1320.491777694889
 30
0.0
 11
1527.970593930113
 21
1320.494460905133
 31
0.0
  0
LINE
  5
18CF0
330
18C7A
100
AcDbEntity
  8
細線
 48
50.0
100
AcDbLine
 10
2017.970593930113
 20
1320.494443351421
 30
0.0
 11
2117.970593930113
 21
1320.494443351421
 31
0.0
  0
LINE
  5
18CF1
330
18C7A
100
AcDbEntity
  8
細線
 48
50.0
100
AcDbLine
 10
1737.970593930113
 20
1320.494443351419
 30
0.0
 11
1807.970593930113
 21
1320.494443351423
 31
0.0
  0
LINE
  5
18CF2
330
18C7A
100
AcDbEntity
  8
細線
 48
50.0
100
AcDbLine
 10
1750.832558942642
 20
1320.494443351419
 30
0.0
 11
1756.588076525309
 21
1338.765294641913
 31
0.0
  0
LINE
  5
18CF3
330
18C7A
100
AcDbEntity
  8
細線
 48
50.0
100
AcDbLine
 10
1756.588076525309
 20
1338.765294641913
 30
0.0
 11
1767.516525005743
 21
1338.765294641911
 31
0.0
  0
ARC
  5
18CF4
330
18C7A
100
AcDbEntity
  8
細線
 48
50.0
100
AcDbCircle
 10
1767.516525005743
 20
1337.765294641911
 30
0.0
 40
1.0
100
AcDbArc
 50
24.62431835207225
 51
90.0
  0
ARC
  5
18CF5
330
18C7A
100
AcDbEntity
  8
細線
 48
50.0
100
AcDbCircle
 10
1778.425237120377
 20
1337.765294641911
 30
0.0
 40
1.0
100
AcDbArc
 50
90.0
 51
155.3756816479277
  0
ARC
  5
18CF6
330
18C7A
100
AcDbEntity
  8
細線
 48
50.0
100
AcDbCircle
 10
1772.970881063058
 20
1340.265294641911
 30
0.0
 40
5.0
100
AcDbArc
 50
204.6243183520723
 51
335.3756816479278
  0
LINE
  5
18CF7
330
18C7A
100
AcDbEntity
  8
細線
 48
50.0
100
AcDbLine
 10
1778.425237120377
 20
1338.765294641911
 30
0.0
 11
1789.35368560081
 21
1338.765294641913
 31
0.0
  0
LINE
  5
18CF8
330
18C7A
100
AcDbEntity
  8
細線
 48
50.0
100
AcDbLine
 10
1789.35368560081
 20
1338.765294641913
 30
0.0
 11
1795.109203183478
 21
1320.494443351423
 31
0.0
  0
LINE
  5
18CF9
330
18C7A
100
AcDbEntity
  8
細線
 48
50.0
100
AcDbLine
 10
2087.970593930113
 20
1341.094443351419
 30
0.0
 11
1336.970593930116
 21
1341.094443351418
 31
0.0
  0
LINE
  5
18CFA
330
18C7A
100
AcDbEntity
  8
細線
 48
50.0
100
AcDbLine
 10
1947.970593930113
 20
1320.494443351421
 30
0.0
 11
1877.970593930113
 21
1320.494443351421
 31
0.0
  0
LINE
  5
18CFB
330
18C7A
100
AcDbEntity
  8
細線
100
AcDbLine
 10
1667.970593930113
 20
1320.494443351421
 30
0.0
 11
1597.970602115529
 21
1320.494443351421
 31
0.0
  0
LINE
  5
18CFC
330
18C7A
100
AcDbEntity
  8
細線
 48
50.0
100
AcDbLine
 10
2741.970584622936
 20
1375.094487209288
 30
0.0
 11
2106.970593930113
 21
1375.094487209284
 31
0.0
  0
LINE
  5
18CFD
330
18C7A
100
AcDbEntity
  8
細線
 48
50.0
100
AcDbLine
 10
2106.970593930113
 20
1371.990637616925
 30
0.0
 11
2106.970593930113
 21
1376.490637616925
 31
0.0
  0
LINE
  5
18CFE
330
18C7A
100
AcDbEntity
  8
細線
 48
50.0
100
AcDbLine
 10
2106.970593930113
 20
1376.490637616925
 30
0.0
 11
2091.970593930113
 21
1376.490637616925
 31
0.0
  0
LINE
  5
18CFF
330
18C7A
100
AcDbEntity
  8
細線
 48
50.0
100
AcDbLine
 10
2091.970593930113
 20
1376.490637616925
 30
0.0
 11
2091.970593930113
 21
1383.490637616927
 31
0.0
  0
LINE
  5
18D00
330
18C7A
100
AcDbEntity
  8
細線
 48
50.0
100
AcDbLine
 10
2091.970593930113
 20
1383.490637616927
 30
0.0
 11
2076.970593930115
 21
1383.490637616924
 31
0.0
  0
LINE
  5
18D01
330
18C7A
100
AcDbEntity
  8
細線
 48
50.0
100
AcDbLine
 10
2076.970593930115
 20
1383.490637616924
 30
0.0
 11
2076.970593930115
 21
1345.890409513813
 31
0.0
  0
LINE
  5
18D02
330
18C7A
100
AcDbEntity
  8
細線
 48
50.0
100
AcDbLine
 10
2076.970593930115
 20
1345.890409513813
 30
0.0
 11
2096.970601231289
 21
1345.890451063353
 31
0.0
  0
LINE
  5
18D03
330
18C7A
100
AcDbEntity
  8
細線
 48
50.0
100
AcDbLine
 10
2096.970556362348
 20
1354.493912699161
 30
0.0
 11
2096.970601231289
 21
1345.890451063353
 31
0.0
  0
LINE
  5
18D04
330
18C7A
100
AcDbEntity
  8
細線
 48
50.0
100
AcDbLine
 10
2741.970584622936
 20
1371.644487209287
 30
0.0
 11
2741.970584622936
 21
1376.494487209284
 31
0.0
  0
LINE
  5
18D05
330
18C7A
100
AcDbEntity
  8
細線
 48
50.0
100
AcDbLine
 10
2741.970584622936
 20
1376.494487209284
 30
0.0
 11
2756.970584622934
 21
1376.494487209285
 31
0.0
  0
LINE
  5
18D06
330
18C7A
100
AcDbEntity
  8
細線
 48
50.0
100
AcDbLine
 10
2756.970584622934
 20
1376.494487209285
 30
0.0
 11
2756.970596256909
 21
1383.494487209331
 31
0.0
  0
LINE
  5
18D07
330
18C7A
100
AcDbEntity
  8
細線
 48
50.0
100
AcDbLine
 10
2756.970596256909
 20
1383.494487209331
 30
0.0
 11
2771.970594427439
 21
1383.494487209329
 31
0.0
  0
LINE
  5
18D08
330
18C7A
100
AcDbEntity
  8
細線
 48
50.0
100
AcDbLine
 10
2771.970594427439
 20
1383.494487209329
 30
0.0
 11
2771.970584125617
 21
1354.494281037055
 31
0.0
  0
LINE
  5
18D09
330
18C7A
100
AcDbEntity
  8
細線
 48
50.0
100
AcDbLine
 10
2458.070304175992
 20
1354.494278397076
 30
0.0
 11
2389.470863838818
 21
1354.494283787084
 31
0.0
  0
LINE
  5
18D0A
330
18C7A
100
AcDbEntity
  8
細線
 48
50.0
100
AcDbLine
 10
2096.970556362348
 20
1354.493912699161
 30
0.0
 11
2108.203245717057
 21
1354.494095652309
 31
0.0
  0
ARC
  5
18D0B
330
18C7A
100
AcDbEntity
  8
細線
 48
50.0
100
AcDbCircle
 10
2114.785538024393
 20
1353.294259565922
 30
0.0
 40
1.8
100
AcDbArc
 50
270.0006665777295
 51
345.000555481349
  0
LINE
  5
18D0C
330
18C7A
100
AcDbEntity
  8
細線
 48
50.0
100
AcDbLine
 10
2116.771971470473
 20
1353.753100023201
 30
0.0
 11
2116.524209028273
 21
1352.828402141094
 31
0.0
  0
LINE
  5
18D0D
330
18C7A
100
AcDbEntity
  8
細線
 48
50.0
100
AcDbLine
 10
2114.785558965548
 20
1351.494259566043
 30
0.0
 11
2111.155631546781
 21
1351.494217335563
 31
0.0
  0
ARC
  5
18D0E
330
18C7A
100
AcDbEntity
  8
細線
 48
50.0
100
AcDbCircle
 10
2111.155610605627
 20
1353.29421733544
 30
0.0
 40
1.8
100
AcDbArc
 50
195.0010443049965
 51
270.0006665777295
  0
LINE
  5
18D0F
330
18C7A
100
AcDbEntity
  8
細線
 48
50.0
100
AcDbLine
 10
2109.169183113368
 20
1353.752932303007
 30
0.0
 11
2109.416952609882
 21
1352.828311364425
 31
0.0
  0
ARC
  5
18D10
330
18C7A
100
AcDbEntity
  8
細線
 48
50.0
100
AcDbCircle
 10
2108.203262004622
 20
1353.494095652444
 30
0.0
 40
1.0
100
AcDbArc
 50
15.00104430499651
 51
90.00093320877969
  0
LINE
  5
18D11
330
18C7A
100
AcDbEntity
  8
細線
 48
50.0
100
AcDbLine
 10
2117.737892825577
 20
1354.494290342714
 30
0.0
 11
2118.679652976481
 21
1354.494296916564
 31
0.0
  0
ARC
  5
18D12
330
18C7A
100
AcDbEntity
  8
細線
 48
50.0
100
AcDbCircle
 10
2117.737899805961
 20
1353.49429034274
 30
0.0
 40
1.0
100
AcDbArc
 50
90.0003999466794
 51
165.000555481349
  0
LINE
  5
18D13
330
18C7A
100
AcDbEntity
  8
細線
 48
50.0
100
AcDbLine
 10
2669.470584622926
 20
1354.494281037055
 30
0.0
 11
2771.970584125617
 21
1354.494281037055
 31
0.0
  0
LINE
  5
18D14
330
18C7A
100
AcDbEntity
  8
細線
 48
50.0
100
AcDbLine
 10
2179.47061994182
 20
1354.494289224422
 30
0.0
 11
2118.370558714898
 21
1354.494296916564
 31
0.0
  0
LINE
  5
18D15
330
18C7A
100
AcDbEntity
  8
細線
 48
50.0
100
AcDbLine
 10
2599.470584622926
 20
1354.494281037057
 30
0.0
 11
2529.470584622926
 21
1354.494281037055
 31
0.0
  0
LINE
  5
18D16
330
18C7A
100
AcDbEntity
  8
細線
 48
50.0
100
AcDbLine
 10
2319.470584622926
 20
1354.494281037054
 30
0.0
 11
2249.470567335051
 21
1354.494281037057
 31
0.0
  0
ARC
  5
18D17
330
18C7A
100
AcDbEntity
  8
細線
 48
50.0
100
AcDbCircle
 10
2756.170589276533
 20
1387.694269174466
 30
0.0
 40
0.8
100
AcDbArc
 50
359.9997333689499
 51
89.99986668437072
  0
ARC
  5
18D18
330
18C7A
100
AcDbEntity
  8
細線
 48
50.0
100
AcDbCircle
 10
2763.770596101631
 20
1387.694280343081
 30
0.0
 40
0.8
100
AcDbArc
 50
90.00014387753465
 51
179.9997333689498
  0
LINE
  5
18D19
330
18C7A
100
AcDbEntity
  8
細線
 48
50.0
100
AcDbLine
 10
2756.170591137969
 20
1388.494269174465
 30
0.0
 11
2750.970589276525
 21
1388.494269174465
 31
0.0
  0
ARC
  5
18D1A
330
18C7A
100
AcDbEntity
  8
細線
 48
50.0
100
AcDbCircle
 10
2757.670589276524
 20
1386.194269174464
 30
0.0
 40
0.7
100
AcDbArc
 50
180.0
 51
270.0
  0
ARC
  5
18D1B
330
18C7A
100
AcDbEntity
  8
細線
 48
50.0
100
AcDbCircle
 10
2762.270589276524
 20
1386.194269174464
 30
0.0
 40
0.7
100
AcDbArc
 50
270.0
 51
0.0
  0
LINE
  5
18D1C
330
18C7A
100
AcDbEntity
  8
細線
 48
50.0
100
AcDbLine
 10
2762.970589276525
 20
1386.194269174464
 30
0.0
 11
2762.970596101639
 21
1387.694284065954
 31
0.0
  0
LINE
  5
18D1D
330
18C7A
100
AcDbEntity
  8
細線
 48
50.0
100
AcDbLine
 10
2757.670589276524
 20
1385.494269174465
 30
0.0
 11
2762.270589276524
 21
1385.494269174465
 31
0.0
  0
LINE
  5
18D1E
330
18C7A
100
AcDbEntity
  8
細線
 48
50.0
100
AcDbLine
 10
2756.970589276525
 20
1387.694269174466
 30
0.0
 11
2756.970589276525
 21
1386.194269174464
 31
0.0
  0
LINE
  5
18D1F
330
18C7A
100
AcDbEntity
  8
細線
 48
50.0
100
AcDbLine
 10
3382.570589276527
 20
1418.494269174465
 30
0.0
 11
2745.970589276525
 21
1418.494269174463
 31
0.0
  0
LINE
  5
18D20
330
18C7A
100
AcDbEntity
  8
細線
 48
50.0
100
AcDbLine
 10
3408.470589276525
 20
1413.494269174467
 30
0.0
 11
3392.570589276527
 21
1413.494269174465
 31
0.0
  0
LINE
  5
18D21
330
18C7A
100
AcDbEntity
  8
細線
 48
50.0
100
AcDbLine
 10
3392.570589276526
 20
1413.494269174465
 30
0.0
 11
3382.570589276527
 21
1418.494269174465
 31
0.0
  0
LINE
  5
18D22
330
18C7A
100
AcDbEntity
  8
細線
100
AcDbLine
 10
2993.470589276525
 20
1388.494269174465
 30
0.0
 11
2993.470589276525
 21
1417.794269174464
 31
0.0
  0
LINE
  5
18D23
330
18C7A
100
AcDbEntity
  8
細線
100
AcDbLine
 10
2993.470589276525
 20
1417.794269174464
 30
0.0
 11
3013.470589276525
 21
1417.794269174464
 31
0.0
  0
LINE
  5
18D24
330
18C7A
100
AcDbEntity
  8
細線
100
AcDbLine
 10
3013.470589276525
 20
1388.494269174465
 30
0.0
 11
3013.470589276525
 21
1417.794269174464
 31
0.0
  0
LINE
  5
18D25
330
18C7A
100
AcDbEntity
  8
細線
100
AcDbLine
 10
3170.720589276524
 20
1388.494269174465
 30
0.0
 11
3100.720589276523
 21
1388.494269174465
 31
0.0
  0
LINE
  5
18D26
330
18C7A
100
AcDbEntity
  8
細線
 48
50.0
100
AcDbLine
 10
2890.720589276525
 20
1388.494269174465
 30
0.0
 11
2763.766368849365
 21
1388.494269174465
 31
0.0
  0
LINE
  5
18D27
330
18C7A
100
AcDbEntity
  8
細線
100
AcDbLine
 10
3030.720589276525
 20
1388.494269174465
 30
0.0
 11
2960.720589276525
 21
1388.494269174465
 31
0.0
  0
LINE
  5
18D28
330
18C7A
100
AcDbEntity
  8
細線
 48
50.0
100
AcDbLine
 10
2750.970589276525
 20
1380.494269174465
 30
0.0
 11
2750.970589276525
 21
1388.494269174465
 31
0.0
  0
LINE
  5
18D29
330
18C7A
100
AcDbEntity
  8
細線
 48
50.0
100
AcDbLine
 10
2730.970589276524
 20
1380.494269174467
 30
0.0
 11
2750.970589276525
 21
1380.494269174465
 31
0.0
  0
LINE
  5
18D2A
330
18C7A
100
AcDbEntity
  8
細線
 48
50.0
100
AcDbLine
 10
2745.970589276525
 20
1418.494269174465
 30
0.0
 11
2745.970589276525
 21
1413.494269174465
 31
0.0
  0
LINE
  5
18D2B
330
18C7A
100
AcDbEntity
  8
細線
 48
50.0
100
AcDbLine
 10
2730.970589276525
 20
1418.494269174463
 30
0.0
 11
2745.970589276525
 21
1418.494269174465
 31
0.0
  0
LINE
  5
18D2C
330
18C7A
100
AcDbEntity
  8
細線
 48
50.0
100
AcDbLine
 10
2730.970589276524
 20
1380.494269174467
 30
0.0
 11
2730.970589276525
 21
1418.494269174463
 31
0.0
  0
LINE
  5
18D2D
330
18C7A
100
AcDbEntity
  8
細線
100
AcDbLine
 10
3398.970589276523
 20
1388.494269174465
 30
0.0
 11
3240.720589276525
 21
1388.494269174465
 31
0.0
  0
LINE
  5
18D2E
330
18C7A
100
AcDbEntity
  8
細線
 48
50.0
100
AcDbLine
 10
3408.470589276525
 20
1413.494269174467
 30
0.0
 11
3408.470589276524
 21
1388.494269174465
 31
0.0
  0
TEXT
  5
18D2F
330
18C7A
100
AcDbEntity
  8
部品1
100
AcDbText
 10
1860.154865991392
 20
46.99880823813145
 30
0.0
 40
135.0
  1
平面図
  7
STYLE2
100
AcDbText
  0
LWPOLYLINE
  5
18D30
330
18C7A
100
AcDbEntity
  8
部品1
100
AcDbPolyline
 90
        4
 70
     1
 43
0.0
 10
1770.23525616235
 20
239.8923374566548
 10
1770.23525616235
 20
0.0000159111223184
 10
2533.705922390791
 20
0.0000159111223184
 10
2533.705922390791
 20
239.8923374566548
  0
LINE
  5
18D31
330
18C7A
100
AcDbEntity
  8
部品1
100
AcDbLine
 10
1534.470589276487
 20
3154.494269174626
 30
0.0
 11
2769.470589276552
 21
3154.494269174626
 31
0.0
  0
LINE
  5
18D32
330
18C7A
100
AcDbEntity
  8
部品1
 48
50.0
100
AcDbLine
 10
1311.970589276523
 20
1420.494269174462
 30
0.0
 11
3411.970589276523
 21
1420.494269174465
 31
0.0
  0
LINE
  5
18D33
330
18C7A
100
AcDbEntity
  8
部品1
 48
50.0
100
AcDbLine
 10
471.9705892765232
 20
1392.494269174465
 30
0.0
 11
1311.970589276523
 21
1392.494269174465
 31
0.0
  0
DIMENSION
  5
18D34
330
18C7A
100
AcDbEntity
  8
寸法
100
AcDbDimension
  2
*D14
 10
2710.234916278077
 20
2488.887829538828
 30
0.0
 11
2338.318822490183
 21
2488.887829538828
 31
0.0
 12
-3742.925985830444
 22
-6453.628869860112
 32
0.0
 70
   128
 71
     5
 42
1231.00000000007
  3
INABA_S40G
100
AcDbAlignedDimension
 13
1536.470589276486
 23
2702.494269174557
 33
0.0
 14
2767.470589276556
 24
2702.494269174549
 34
0.0
100
AcDbRotatedDimension
1001
ACAD
1000
DSTYLE
1002
{
1002
}
  0
LINE
  5
18D35
330
18C7A
100
AcDbEntity
  8
部品1
100
AcDbLine
 10
1536.470589276487
 20
2702.494269174557
 30
0.0
 11
2767.470589276554
 21
2702.494269174615
 31
0.0
  0
LINE
  5
18D36
330
18C7A
100
AcDbEntity
  8
部品1
100
AcDbLine
 10
1536.470589276487
 20
3152.494269174557
 30
0.0
 11
2767.470589276556
 21
3152.494269174615
 31
0.0
  0
LINE
  5
18D37
330
18C7A
100
AcDbEntity
  8
細線
 48
50.0
100
AcDbLine
 10
1508.470589276487
 20
3152.494269174558
 30
0.0
 11
445.4705892765559
 21
2702.494269174509
 31
0.0
  0
LINE
  5
18D38
330
18C7A
100
AcDbEntity
  8
細線
 48
50.0
100
AcDbLine
 10
1508.470589276487
 20
2702.494269174558
 30
0.0
 11
445.4705892765542
 21
3152.494269174509
 31
0.0
  0
LINE
  5
18D39
330
18C7A
100
AcDbEntity
  8
部品1
100
AcDbLine
 10
1556.970589276487
 20
3172.494269174611
 30
0.0
 11
1556.970589276487
 21
3154.494269174611
 31
0.0
  0
LINE
  5
18D3A
330
18C7A
100
AcDbEntity
  8
部品1
100
AcDbLine
 10
1556.970589276487
 20
3172.494269174611
 30
0.0
 11
1550.970589276487
 21
3172.494269174611
 31
0.0
  0
LINE
  5
18D3B
330
18C7A
100
AcDbEntity
  8
部品1
100
AcDbLine
 10
1534.470589276487
 20
3146.494269174608
 30
0.0
 11
1509.470589276487
 21
3146.494269174611
 31
0.0
  0
LINE
  5
18D3C
330
18C7A
100
AcDbEntity
  8
部品1
100
AcDbLine
 10
1486.970589276487
 20
3172.494269174611
 30
0.0
 11
1486.970589276487
 21
3154.494269174611
 31
0.0
  0
LINE
  5
18D3D
330
18C7A
100
AcDbEntity
  8
部品1
100
AcDbLine
 10
1492.970589276487
 20
3172.494269174611
 30
0.0
 11
1486.970589276487
 21
3172.494269174611
 31
0.0
  0
LINE
  5
18D3E
330
18C7A
100
AcDbEntity
  8
部品1
100
AcDbLine
 10
1534.470589276487
 20
2702.494269174615
 30
0.0
 11
1509.470589276487
 21
2702.494269174615
 31
0.0
  0
LINE
  5
18D3F
330
18C7A
100
AcDbEntity
  8
部品1
 48
50.0
100
AcDbLine
 10
1536.470589276487
 20
3152.494269174611
 30
0.0
 11
1536.470589276487
 21
2702.494269174615
 31
0.0
  0
LINE
  5
18D40
330
18C7A
100
AcDbEntity
  8
部品1
 48
50.0
100
AcDbLine
 10
1508.470589276487
 20
3152.494269174607
 30
0.0
 11
1508.470589276487
 21
2702.494269174615
 31
0.0
  0
LINE
  5
18D41
330
18C7A
100
AcDbEntity
  8
部品1
 48
50.0
100
AcDbLine
 10
1534.470589276487
 20
3154.494269174618
 30
0.0
 11
1534.470589276487
 21
2702.494269174615
 31
0.0
  0
LINE
  5
18D42
330
18C7A
100
AcDbEntity
  8
部品1
 48
50.0
100
AcDbLine
 10
1509.470589276487
 20
3154.494269174615
 30
0.0
 11
1509.470589276487
 21
2702.494269174615
 31
0.0
  0
LINE
  5
18D43
330
18C7A
100
AcDbEntity
  8
部品1
100
AcDbLine
 10
3411.970589276556
 20
1392.494269174582
 30
0.0
 11
3411.970589276556
 21
1420.494269174596
 31
0.0
  0
LINE
  5
18D44
330
18C7A
100
AcDbEntity
  8
部品1
100
AcDbLine
 10
1311.970589276523
 20
1392.494269174596
 30
0.0
 11
1311.970589276523
 21
1420.494269174596
 31
0.0
  0
LINE
  5
18D45
330
18C7A
100
AcDbEntity
  8
部品1
100
AcDbLine
 10
891.9705892765232
 20
1392.494269174596
 30
0.0
 11
891.9705892765232
 21
1420.494269174596
 31
0.0
  0
LINE
  5
18D46
330
18C7A
100
AcDbEntity
  8
部品1
100
AcDbLine
 10
3411.97058927652
 20
3182.494269174477
 30
0.0
 11
3411.970589276523
 21
3154.494269174477
 31
0.0
  0
LINE
  5
18D47
330
18C7A
100
AcDbEntity
  8
部品1
100
AcDbLine
 10
2571.97058927652
 20
3182.494269174477
 30
0.0
 11
2571.970589276523
 21
3154.494269174477
 31
0.0
  0
LINE
  5
18D48
330
18C7A
100
AcDbEntity
  8
部品1
100
AcDbLine
 10
2991.97058927652
 20
3182.494269174477
 30
0.0
 11
2991.970589276523
 21
3154.494269174477
 31
0.0
  0
LINE
  5
18D49
330
18C7A
100
AcDbEntity
  8
部品1
100
AcDbLine
 10
2151.970589276519
 20
3182.494269174477
 30
0.0
 11
2151.970589276523
 21
3154.494269174477
 31
0.0
  0
LINE
  5
18D4A
330
18C7A
100
AcDbEntity
  8
部品1
100
AcDbLine
 10
1731.970589276519
 20
3182.494269174477
 30
0.0
 11
1731.970589276523
 21
3154.494269174477
 31
0.0
  0
LINE
  5
18D4B
330
18C7A
100
AcDbEntity
  8
部品1
100
AcDbLine
 10
1311.970589276519
 20
3182.494269174477
 30
0.0
 11
1311.970589276523
 21
3154.494269174477
 31
0.0
  0
LINE
  5
18D4C
330
18C7A
100
AcDbEntity
  8
部品1
100
AcDbLine
 10
891.9705892765195
 20
3182.494269174477
 30
0.0
 11
891.9705892765232
 21
3154.494269174477
 31
0.0
  0
LINE
  5
18D4D
330
18C7A
100
AcDbEntity
  8
部品1
100
AcDbLine
 10
471.9705892765232
 20
1392.494269174596
 30
0.0
 11
471.9705892765232
 21
1420.494269174596
 31
0.0
  0
LINE
  5
18D4E
330
18C7A
100
AcDbEntity
  8
部品1
100
AcDbLine
 10
444.9705892765305
 20
1420.494269174558
 30
0.0
 11
3858.970589276556
 21
1420.494269174596
 31
0.0
  0
LINE
  5
18D4F
330
18C7A
100
AcDbEntity
  8
部品1
100
AcDbLine
 10
3831.970589276556
 20
1392.494269174596
 30
0.0
 11
3831.970589276556
 21
1420.494269174596
 31
0.0
  0
LINE
  5
18D50
330
18C7A
100
AcDbEntity
  8
部品1
100
AcDbLine
 10
3858.970589276556
 20
1447.494269174593
 30
0.0
 11
3886.970589276556
 21
1447.494269174593
 31
0.0
  0
LINE
  5
18D51
330
18C7A
100
AcDbEntity
  8
部品1
100
AcDbLine
 10
3858.970589276556
 20
1867.494269174607
 30
0.0
 11
3886.970589276556
 21
1867.494269174607
 31
0.0
  0
LINE
  5
18D52
330
18C7A
100
AcDbEntity
  8
部品1
100
AcDbLine
 10
444.9705892765305
 20
1867.49426917448
 30
0.0
 11
416.9705892765305
 21
1867.49426917448
 31
0.0
  0
LINE
  5
18D53
330
18C7A
100
AcDbEntity
  8
部品1
100
AcDbLine
 10
3830.470589276541
 20
1867.49426917458
 30
0.0
 11
473.4705892765396
 21
1867.49426917448
 31
0.0
  0
LINE
  5
18D54
330
18C7A
100
AcDbEntity
  8
部品1
100
AcDbLine
 10
3830.470589276541
 20
2287.49426917458
 30
0.0
 11
473.4705892765396
 21
2287.49426917448
 31
0.0
  0
LINE
  5
18D55
330
18C7A
100
AcDbEntity
  8
部品1
100
AcDbLine
 10
444.9705892765305
 20
2287.49426917448
 30
0.0
 11
416.9705892765305
 21
2287.49426917448
 31
0.0
  0
LINE
  5
18D56
330
18C7A
100
AcDbEntity
  8
部品1
100
AcDbLine
 10
3858.970589276556
 20
2287.494269174608
 30
0.0
 11
3886.970589276556
 21
2287.494269174608
 31
0.0
  0
LINE
  5
18D57
330
18C7A
100
AcDbEntity
  8
部品1
 48
50.0
100
AcDbLine
 10
2151.970589276551
 20
2702.494269174586
 30
0.0
 11
2151.970589276581
 21
1448.994269174494
 31
0.0
  0
LINE
  5
18D58
330
18C7A
100
AcDbEntity
  8
破線
 48
10.0
100
AcDbLine
 10
2959.470589276535
 20
1472.494269174522
 30
0.0
 11
2176.970589276532
 21
1472.494269174505
 31
0.0
  0
LINE
  5
18D59
330
18C7A
100
AcDbEntity
  8
破線
 48
10.0
100
AcDbLine
 10
3009.47058927653
 20
1448.994269174509
 30
0.0
 11
3009.47058927653
 21
2702.494269174615
 31
0.0
  0
LINE
  5
18D5A
330
18C7A
100
AcDbEntity
  8
破線
 48
10.0
100
AcDbLine
 10
2959.470589276535
 20
1448.994269174505
 30
0.0
 11
2959.470589276531
 21
2702.494269174615
 31
0.0
  0
LINE
  5
18D5B
330
18C7A
100
AcDbEntity
  8
破線
 48
10.0
100
AcDbLine
 10
1344.47058927653
 20
1448.994269174509
 30
0.0
 11
1344.47058927653
 21
2702.494269174615
 31
0.0
  0
LINE
  5
18D5C
330
18C7A
100
AcDbEntity
  8
破線
 48
10.0
100
AcDbLine
 10
1294.470589276534
 20
1448.994269174505
 30
0.0
 11
1294.47058927653
 21
2702.494269174615
 31
0.0
  0
DIMENSION
  5
18D5D
330
18C7A
100
AcDbEntity
  8
寸法
100
AcDbDimension
  2
*D13
 10
1451.234916278005
 20
2488.887829538828
 30
0.0
 11
916.0604668248634
 21
2488.887829538828
 31
0.0
 12
-3742.925985830444
 22
-6453.628869860112
 32
0.0
 70
   128
 71
     5
 42
1062.99999999993
  3
INABA_S40G
100
AcDbAlignedDimension
 13
445.4705892765559
 23
2702.494269174505
 33
0.0
 14
1508.470589276486
 24
2702.494269174558
 34
0.0
100
AcDbRotatedDimension
1001
ACAD
1000
DSTYLE
1002
{
1002
}
  0
LINE
  5
18D5E
330
18C7A
100
AcDbEntity
  8
破線
 48
10.0
100
AcDbLine
 10
1294.470589276534
 20
1472.494269174469
 30
0.0
 11
496.9705892765414
 21
1472.494269174476
 31
0.0
  0
LINE
  5
18D5F
330
18C7A
100
AcDbEntity
  8
部品1
100
AcDbLine
 10
3831.970589276556
 20
3182.494269174604
 30
0.0
 11
3831.970589276556
 21
3154.494269174604
 31
0.0
  0
LINE
  5
18D60
330
18C7A
100
AcDbEntity
  8
部品1
100
AcDbLine
 10
3831.970589276556
 20
3182.494269174626
 30
0.0
 11
3831.970589276556
 21
3154.494269174626
 31
0.0
  0
LINE
  5
18D61
330
18C7A
100
AcDbEntity
  8
部品1
100
AcDbLine
 10
3858.970589276556
 20
3127.494269174607
 30
0.0
 11
3886.970589276556
 21
3127.494269174607
 31
0.0
  0
LINE
  5
18D62
330
18C7A
100
AcDbEntity
  8
部品1
100
AcDbLine
 10
3858.970589276556
 20
2707.494269174608
 30
0.0
 11
3886.970589276556
 21
2707.494269174608
 31
0.0
  0
LINE
  5
18D63
330
18C7A
100
AcDbEntity
  8
部品1
100
AcDbLine
 10
3858.470589276556
 20
3152.494269174604
 30
0.0
 11
3858.470589276556
 21
2702.494269174608
 31
0.0
  0
LINE
  5
18D64
330
18C7A
100
AcDbEntity
  8
部品1
100
AcDbLine
 10
3886.970589276533
 20
1447.494269174593
 30
0.0
 11
3886.970589276531
 21
1392.494269174596
 31
0.0
  0
LINE
  5
18D65
330
18C7A
100
AcDbEntity
  8
部品1
 48
50.0
100
AcDbLine
 10
3830.470589276556
 20
1448.994269174596
 30
0.0
 11
3858.970589276554
 21
1420.494269174596
 31
0.0
  0
LINE
  5
18D66
330
18C7A
100
AcDbEntity
  8
部品1
100
AcDbLine
 10
3886.970589276531
 20
1392.494269174596
 30
0.0
 11
3835.970589276531
 21
1392.494269174596
 31
0.0
  0
LINE
  5
18D67
330
18C7A
100
AcDbEntity
  8
部品1
100
AcDbLine
 10
3858.970589276533
 20
1447.494269174593
 30
0.0
 11
3886.970589276531
 21
1447.494269174593
 31
0.0
  0
LINE
  5
18D68
330
18C7A
100
AcDbEntity
  8
部品1
100
AcDbLine
 10
3886.970589276556
 20
3182.494269174604
 30
0.0
 11
3886.970589276531
 21
1392.494269174596
 31
0.0
  0
DIMENSION
  5
18D69
330
18C7A
100
AcDbEntity
  8
寸法
100
AcDbDimension
  2
*D12
 10
4534.396935010967
 20
1447.494269174593
 30
0.0
 11
4534.396935010965
 21
2287.4942691746
 31
0.0
 12
-3742.925985830444
 22
-6453.628869860112
 32
0.0
 70
   128
  1
4X420=<>
 71
     5
 42
1680.000000000014
  3
INABA_S40G
100
AcDbAlignedDimension
 13
3886.970589276556
 23
3127.494269174607
 33
0.0
 14
3886.970589276531
 24
1447.494269174593
 34
0.0
 50
90.0
100
AcDbRotatedDimension
1001
ACAD
1000
DSTYLE
1002
{
1002
}
  0
LINE
  5
18D6A
330
18C7A
100
AcDbEntity
  8
部品1
100
AcDbLine
 10
3858.970589276556
 20
3154.494269174604
 30
0.0
 11
3858.970589276534
 21
1420.494269174596
 31
0.0
  0
DIMENSION
  5
18D6B
330
18C7A
100
AcDbEntity
  8
寸法
100
AcDbDimension
  2
*D11
 10
4213.82831513858
 20
2607.276453505718
 30
0.0
 11
4113.828315138579
 21
2832.276453505718
 31
0.0
 12
-3742.925985830444
 22
-6453.628869860112
 32
0.0
 71
     5
 42
449.9999999999963
  3
INABA_S40G
100
AcDbAlignedDimension
 13
3858.470589276556
 23
3152.494269174604
 33
0.0
 14
3858.470589276556
 24
2702.494269174608
 34
0.0
 50
90.0
100
AcDbRotatedDimension
1001
ACAD
1000
DSTYLE
1002
{
1002
}
  0
LINE
  5
18D6C
330
18C7A
100
AcDbEntity
  8
部品1
100
AcDbLine
 10
3830.470589276547
 20
2702.494269174608
 30
0.0
 11
3830.470589276556
 21
1448.994269174596
 31
0.0
  0
LINE
  5
18D6D
330
18C7A
100
AcDbEntity
  8
破線
 48
10.0
100
AcDbLine
 10
3806.970589276549
 20
2702.494269174608
 30
0.0
 11
3806.970589276558
 21
1472.494269174593
 31
0.0
  0
LINE
  5
18D6E
330
18C7A
100
AcDbEntity
  8
部品1
100
AcDbLine
 10
2769.470589276556
 20
3146.494269174608
 30
0.0
 11
2794.470589276556
 21
3146.494269174611
 31
0.0
  0
LINE
  5
18D6F
330
18C7A
100
AcDbEntity
  8
部品1
100
AcDbLine
 10
2810.970589276556
 20
3172.494269174611
 30
0.0
 11
2816.970589276556
 21
3172.494269174611
 31
0.0
  0
LINE
  5
18D70
330
18C7A
100
AcDbEntity
  8
部品1
100
AcDbLine
 10
2816.970589276556
 20
3172.494269174611
 30
0.0
 11
2816.970589276556
 21
3154.494269174611
 31
0.0
  0
LINE
  5
18D71
330
18C7A
100
AcDbEntity
  8
部品1
100
AcDbLine
 10
2746.970589276556
 20
3172.494269174611
 30
0.0
 11
2752.970589276556
 21
3172.494269174611
 31
0.0
  0
LINE
  5
18D72
330
18C7A
100
AcDbEntity
  8
部品1
100
AcDbLine
 10
2746.970589276556
 20
3172.494269174611
 30
0.0
 11
2746.970589276556
 21
3154.494269174611
 31
0.0
  0
LINE
  5
18D73
330
18C7A
100
AcDbEntity
  8
部品1
100
AcDbLine
 10
2769.470589276556
 20
2702.494269174615
 30
0.0
 11
2794.470589276556
 21
2702.494269174615
 31
0.0
  0
LINE
  5
18D74
330
18C7A
100
AcDbEntity
  8
部品1
 48
50.0
100
AcDbLine
 10
2794.470589276556
 20
3154.494269174615
 30
0.0
 11
2794.470589276556
 21
2702.494269174615
 31
0.0
  0
LINE
  5
18D75
330
18C7A
100
AcDbEntity
  8
部品1
 48
50.0
100
AcDbLine
 10
2769.470589276554
 20
3154.494269174618
 30
0.0
 11
2769.470589276556
 21
2702.494269174615
 31
0.0
  0
LINE
  5
18D76
330
18C7A
100
AcDbEntity
  8
部品1
 48
50.0
100
AcDbLine
 10
2795.470589276556
 20
3152.494269174607
 30
0.0
 11
2795.470589276556
 21
2702.494269174615
 31
0.0
  0
LINE
  5
18D77
330
18C7A
100
AcDbEntity
  8
部品1
 48
50.0
100
AcDbLine
 10
2767.470589276556
 20
3152.494269174611
 30
0.0
 11
2767.470589276556
 21
2702.494269174615
 31
0.0
  0
LINE
  5
18D78
330
18C7A
100
AcDbEntity
  8
破線
 48
10.0
100
AcDbLine
 10
2176.97058927653
 20
1448.994269174509
 30
0.0
 11
2176.97058927653
 21
2702.494269174588
 31
0.0
  0
LINE
  5
18D79
330
18C7A
100
AcDbEntity
  8
破線
 48
10.0
100
AcDbLine
 10
2126.970589276534
 20
1448.994269174505
 30
0.0
 11
2126.970589276531
 21
2702.494269174586
 31
0.0
  0
LINE
  5
18D7A
330
18C7A
100
AcDbEntity
  8
部品1
100
AcDbLine
 10
2794.470589276556
 20
3154.494269174622
 30
0.0
 11
3858.970589276556
 21
3154.494269174604
 31
0.0
  0
LINE
  5
18D7B
330
18C7A
100
AcDbEntity
  8
細線
 48
50.0
100
AcDbLine
 10
3858.470589276556
 20
2702.494269174608
 30
0.0
 11
2795.470589276556
 21
3152.494269174607
 31
0.0
  0
LINE
  5
18D7C
330
18C7A
100
AcDbEntity
  8
部品1
100
AcDbLine
 10
2795.470589276555
 20
2702.494269174615
 30
0.0
 11
3858.470589276556
 21
2702.494269174608
 31
0.0
  0
LINE
  5
18D7D
330
18C7A
100
AcDbEntity
  8
部品1
100
AcDbLine
 10
2795.470589276556
 20
3152.494269174611
 30
0.0
 11
3858.470589276556
 21
3152.494269174604
 31
0.0
  0
LINE
  5
18D7E
330
18C7A
100
AcDbEntity
  8
細線
 48
50.0
100
AcDbLine
 10
3858.470589276556
 20
3152.494269174604
 30
0.0
 11
2795.470589276555
 21
2702.494269174615
 31
0.0
  0
DIMENSION
  5
18D7F
330
18C7A
100
AcDbEntity
  8
寸法
100
AcDbDimension
  2
*D10
 10
3801.234916278101
 20
2488.887829538937
 30
0.0
 11
3318.360544398907
 21
2488.887829538937
 31
0.0
 12
-3742.925985830444
 22
-6453.628869860112
 32
0.0
 70
   128
 71
     5
 42
1063.000000000012
  3
INABA_S40G
100
AcDbAlignedDimension
 13
2795.470589276555
 23
2702.494269174615
 33
0.0
 14
3858.470589276567
 24
2702.494269174608
 34
0.0
100
AcDbRotatedDimension
1001
ACAD
1000
DSTYLE
1002
{
1002
}
  0
LINE
  5
18D80
330
18C7A
100
AcDbEntity
  8
破線
 48
10.0
100
AcDbLine
 10
3806.970589276556
 20
1472.494269174594
 30
0.0
 11
3009.47058927653
 21
1472.494269174523
 31
0.0
  0
DIMENSION
  5
18D81
330
18C7A
100
AcDbEntity
  8
寸法
100
AcDbDimension
  2
*D9
 10
4534.396935010941
 20
1392.494269174596
 30
0.0
 11
4534.39693501094
 21
1084.008987800356
 31
0.0
 12
-3742.925985830444
 22
-6453.628869860112
 32
0.0
 70
   128
 71
     5
 42
54.99999999999636
  3
INABA_S40G
100
AcDbAlignedDimension
 13
3886.970589276531
 23
1447.494269174593
 33
0.0
 14
3886.970589276531
 24
1392.494269174596
 34
0.0
 50
90.0
100
AcDbRotatedDimension
1001
ACAD
1000
DSTYLE
1002
{
1002
}
  0
LINE
  5
18D82
330
18C7A
100
AcDbEntity
  8
部品1
100
AcDbLine
 10
471.9705892765196
 20
3182.494269174477
 30
0.0
 11
471.9705892765232
 21
3154.494269174477
 31
0.0
  0
LINE
  5
18D83
330
18C7A
100
AcDbEntity
  8
部品1
100
AcDbLine
 10
471.9705892765559
 20
3182.494269174509
 30
0.0
 11
471.9705892765559
 21
3154.494269174509
 31
0.0
  0
LINE
  5
18D84
330
18C7A
100
AcDbEntity
  8
部品1
100
AcDbLine
 10
444.9705892765232
 20
3127.49426917448
 30
0.0
 11
416.9705892765232
 21
3127.49426917448
 31
0.0
  0
LINE
  5
18D85
330
18C7A
100
AcDbEntity
  8
部品1
100
AcDbLine
 10
444.9705892765305
 20
2707.49426917448
 30
0.0
 11
416.9705892765305
 21
2707.49426917448
 31
0.0
  0
LINE
  5
18D86
330
18C7A
100
AcDbEntity
  8
部品1
 48
50.0
100
AcDbLine
 10
445.4705892765542
 20
3152.494269174506
 30
0.0
 11
445.4705892765559
 21
2702.494269174505
 31
0.0
  0
LINE
  5
18D87
330
18C7A
100
AcDbEntity
  8
部品1
 48
50.0
100
AcDbLine
 10
473.470589276545
 20
1448.994269174573
 30
0.0
 11
444.970589276545
 21
1420.494269174574
 31
0.0
  0
LINE
  5
18D88
330
18C7A
100
AcDbEntity
  8
部品1
100
AcDbLine
 10
471.9705892765232
 20
1392.494269174465
 30
0.0
 11
416.9705892765486
 21
1392.494269174465
 31
0.0
  0
LINE
  5
18D89
330
18C7A
100
AcDbEntity
  8
部品1
100
AcDbLine
 10
444.9705892765305
 20
1447.494269174429
 30
0.0
 11
416.9705892765469
 21
1447.494269174429
 31
0.0
  0
LINE
  5
18D8A
330
18C7A
100
AcDbEntity
  8
部品1
100
AcDbLine
 10
444.9705892765305
 20
1447.494269174465
 30
0.0
 11
416.9705892765469
 21
1447.494269174465
 31
0.0
  0
LINE
  5
18D8B
330
18C7A
100
AcDbEntity
  8
部品1
100
AcDbLine
 10
444.9705892765469
 20
1447.49426917448
 30
0.0
 11
416.9705892765469
 21
1447.49426917448
 31
0.0
  0
LINE
  5
18D8C
330
18C7A
100
AcDbEntity
  8
部品1
100
AcDbLine
 10
416.9705892765469
 20
1447.494269174429
 30
0.0
 11
416.9705892765486
 21
1392.494269174433
 31
0.0
  0
LINE
  5
18D8D
330
18C7A
100
AcDbEntity
  8
部品1
100
AcDbLine
 10
416.9705892765196
 20
3182.494269174477
 30
0.0
 11
416.9705892765486
 21
1392.494269174465
 31
0.0
  0
LINE
  5
18D8E
330
18C7A
100
AcDbEntity
  8
部品1
100
AcDbLine
 10
444.9705892765305
 20
1420.494269174556
 30
0.0
 11
444.9705892765559
 21
3154.494269174509
 31
0.0
  0
LINE
  5
18D8F
330
18C7A
100
AcDbEntity
  8
部品1
100
AcDbLine
 10
473.4705892765323
 20
2702.494269174608
 30
0.0
 11
473.470589276545
 21
1448.994269174571
 31
0.0
  0
LINE
  5
18D90
330
18C7A
100
AcDbEntity
  8
破線
 48
10.0
100
AcDbLine
 10
496.9705892765305
 20
2702.494269174608
 30
0.0
 11
496.9705892765451
 21
1472.494269174476
 31
0.0
  0
DIMENSION
  5
18D91
330
18C7A
100
AcDbEntity
  8
寸法
100
AcDbDimension
  2
*D8
 10
3886.970589276531
 20
410.7433333855515
 30
0.0
 11
2168.197775309287
 21
410.7433333855515
 31
0.0
 12
-3742.925985830444
 22
-6453.628869860112
 32
0.0
 70
   128
 71
     5
 42
3469.999999999982
  3
INABA_S40G
100
AcDbAlignedDimension
 13
416.9705892765486
 23
1392.494269174433
 33
0.0
 14
3886.970589276531
 24
1392.49426917456
 34
0.0
100
AcDbRotatedDimension
1001
ACAD
1000
DSTYLE
1002
{
1070
   341
1005
0
1002
}
  0
LINE
  5
18D92
330
18C7A
100
AcDbEntity
  8
部品1
100
AcDbLine
 10
444.9705892765559
 20
3154.494269174624
 30
0.0
 11
1509.470589276487
 21
3154.494269174626
 31
0.0
  0
LINE
  5
18D93
330
18C7A
100
AcDbEntity
  8
部品1
100
AcDbLine
 10
3886.970589276531
 20
1392.494269174596
 30
0.0
 11
3411.970589276556
 21
1392.494269174582
 31
0.0
  0
LINE
  5
18D94
330
18C7A
100
AcDbEntity
  8
部品1
100
AcDbLine
 10
416.9705892765559
 20
3182.494269174509
 30
0.0
 11
3886.970589276556
 21
3182.494269174604
 31
0.0
  0
LINE
  5
18D95
330
18C7A
100
AcDbEntity
  8
部品1
100
AcDbLine
 10
445.4705892765559
 20
2702.494269174509
 30
0.0
 11
1508.470589276487
 21
2702.494269174558
 31
0.0
  0
LINE
  5
18D96
330
18C7A
100
AcDbEntity
  8
細線
 48
50.0
100
AcDbLine
 10
2767.470589276556
 20
3152.494269174611
 30
0.0
 11
1536.470589276487
 21
2702.494269174558
 31
0.0
  0
LINE
  5
18D97
330
18C7A
100
AcDbEntity
  8
部品1
100
AcDbLine
 10
445.4705892765542
 20
3152.494269174509
 30
0.0
 11
1508.470589276485
 21
3152.494269174558
 31
0.0
  0
LINE
  5
18D98
330
18C7A
100
AcDbEntity
  8
細線
 48
50.0
100
AcDbLine
 10
2767.470589276554
 20
2702.494269174615
 30
0.0
 11
1536.470589276485
 21
3152.494269174558
 31
0.0
  0
LINE
  5
18D99
330
18C7A
100
AcDbEntity
  8
破線
 48
10.0
100
AcDbLine
 10
2126.970589276534
 20
1472.494269174502
 30
0.0
 11
1344.47058927653
 21
1472.494269174473
 31
0.0
  0
LINE
  5
18D9A
330
18C7A
100
AcDbEntity
  8
部品1
100
AcDbLine
 10
3830.470589276556
 20
1448.994269174596
 30
0.0
 11
473.4705892764487
 21
1448.994269174476
 31
0.0
  0
DIMENSION
  5
18D9B
330
18C7A
100
AcDbEntity
  8
寸法
100
AcDbDimension
  2
*D7
 10
471.970589276555
 20
3698.302488799491
 30
0.0
 11
108.4853079022819
 21
3698.302488799491
 31
0.0
 12
-3742.925985830444
 22
-6453.628869860112
 32
0.0
 70
   128
 71
     5
 42
55.00000000003456
  3
INABA_S40G
100
AcDbAlignedDimension
 13
416.9705892765205
 23
3182.494269174509
 33
0.0
 14
471.970589276555
 24
3182.494269174509
 34
0.0
100
AcDbRotatedDimension
1001
ACAD
1000
DSTYLE
1002
{
1002
}
  0
DIMENSION
  5
18D9C
330
18C7A
100
AcDbEntity
  8
寸法
100
AcDbDimension
  2
*D6
 10
4534.396935010967
 20
3127.494269174607
 30
0.0
 11
4534.396935010965
 21
3490.979550548844
 31
0.0
 12
-3742.925985830444
 22
-6453.628869860112
 32
0.0
 70
   128
 71
     5
 42
54.99999999999636
  3
INABA_S40G
100
AcDbAlignedDimension
 13
3886.970589276556
 23
3182.494269174604
 33
0.0
 14
3886.970589276556
 24
3127.494269174607
 34
0.0
 50
90.0
100
AcDbRotatedDimension
1001
ACAD
1000
DSTYLE
1002
{
1002
}
  0
DIMENSION
  5
18D9D
330
18C7A
100
AcDbEntity
  8
寸法
100
AcDbDimension
  2
*D5
 10
3886.970589276556
 20
3698.302488799589
 30
0.0
 11
4195.455870650794
 21
3698.302488799589
 31
0.0
 12
-3742.925985830444
 22
-6453.628869860112
 32
0.0
 70
   128
 71
     5
 42
55.0
  3
INABA_S40G
100
AcDbAlignedDimension
 13
3831.970589276556
 23
3182.494269174604
 33
0.0
 14
3886.970589276556
 24
3182.494269174604
 34
0.0
100
AcDbRotatedDimension
1001
ACAD
1000
DSTYLE
1002
{
1002
}
  0
DIMENSION
  5
18D9E
330
18C7A
100
AcDbEntity
  8
寸法
100
AcDbDimension
  2
*D4
 10
3831.970589276556
 20
3698.302488799607
 30
0.0
 11
2151.970589276555
 21
3698.302488799607
 31
0.0
 12
-3742.925985830444
 22
-6453.628869860112
 32
0.0
 70
   128
  1
8X420=<>
 71
     5
 42
3360.000000000001
  3
INABA_S40G
100
AcDbAlignedDimension
 13
471.970589276555
 23
3182.494269174509
 33
0.0
 14
3831.970589276556
 24
3182.494269174604
 34
0.0
100
AcDbRotatedDimension
1001
ACAD
1000
DSTYLE
1002
{
1002
}
  0
DIMENSION
  5
18D9F
330
18C7A
100
AcDbEntity
  8
寸法
100
AcDbDimension
  2
*D3
 10
4899.503876750603
 20
1392.494269174596
 30
0.0
 11
4899.503876750601
 21
2287.4942691746
 31
0.0
 12
-3742.925985830444
 22
-6453.628869860112
 32
0.0
 70
   128
 71
     5
 42
1790.000000000007
  3
INABA_S40G
100
AcDbAlignedDimension
 13
3886.970589276556
 23
3182.494269174604
 33
0.0
 14
3886.970589276531
 24
1392.494269174596
 34
0.0
 50
90.0
100
AcDbRotatedDimension
1001
ACAD
1000
DSTYLE
1002
{
1002
}
  0
ENDBLK
  5
18DA1
330
18C7A
100
AcDbEntity
  8
0
 48
50.0
100
AcDbBlockEnd
  0
BLOCK
  5
1C4CB
330
1C4CA
100
AcDbEntity
  8
0
 48
50.0
100
AcDbBlockBegin
  2
_NONE
 70
     0
 10
0.0
 20
0.0
 30
0.0
  3
_NONE
  1

  0
CIRCLE
  5
1C4CC
330
1C4CA
100
AcDbEntity
  8
0
  6
ByBlock
 62
     0
 48
50.0
100
AcDbCircle
 10
0.0
 20
0.0
 30
0.0
 40
0.25
  0
ENDBLK
  5
1C4CD
330
1C4CA
100
AcDbEntity
  8
0
 48
50.0
100
AcDbBlockEnd
  0
BLOCK
  5
2961C
330
29612
100
AcDbEntity
  8
0
 48
50.0
100
AcDbBlockBegin
  2
*D19
 70
     1
 10
0.0
 20
0.0
 30
0.0
  3
*D19
  1

  0
LINE
  5
29BBF
330
29612
100
AcDbEntity
  8
寸法
 62
     0
 48
50.0
370
    -2
100
AcDbLine
 10
4528.600000000002
 20
7506.352470292189
 30
0.0
 11
4528.600000000002
 21
8504.572792351108
 31
0.0
  0
LINE
  5
29BC0
330
29612
100
AcDbEntity
  8
寸法
 62
     0
 48
50.0
370
    -2
100
AcDbLine
 10
11918.6
 20
7506.352470292189
 30
0.0
 11
11918.6
 21
8504.572792351108
 31
0.0
  0
LINE
  5
29BC1
330
29612
100
AcDbEntity
  8
寸法
 62
     0
 48
50.0
370
    -2
100
AcDbLine
 10
4528.600000000002
 20
8444.572792351108
 30
0.0
 11
11918.6
 21
8444.572792351108
 31
0.0
  0
INSERT
  5
29BC2
330
29612
100
AcDbEntity
  8
寸法
 62
     0
 48
50.0
370
    -2
100
AcDbBlockReference
  2
_DOTSMALL
 10
4528.600000000002
 20
8444.572792351108
 30
0.0
 41
100.0
 42
100.0
 43
100.0
 50
180.0
  0
INSERT
  5
29BC3
330
29612
100
AcDbEntity
  8
寸法
 62
     0
 48
50.0
370
    -2
100
AcDbBlockReference
  2
_DOTSMALL
 10
11918.6
 20
8444.572792351108
 30
0.0
 41
100.0
 42
100.0
 43
100.0
  0
MTEXT
  5
29BC4
330
29612
100
AcDbEntity
  8
寸法
 62
     7
 48
50.0
100
AcDbMText
 10
8223.600000000002
 20
8544.58460337473
 30
0.0
 40
120.0
 41
0.0
 71
     5
 72
     1
  1
\A1;N X 820+10
  7
STYLE1
 73
     1
 44
1.0
1001
ACAD
1000
MTEXTBEGIN
1070
    73
1070
     1
1070
    44
1040
1.0
1070
    74
1070
     0
1000
MTEXTEND
  0
POINT
  5
29BC5
330
29612
100
AcDbEntity
  8
DEFPOINTS
 62
     0
 48
50.0
100
AcDbPoint
 10
4528.600000000002
 20
7486.352470292189
 30
0.0
  0
POINT
  5
29BC6
330
29612
100
AcDbEntity
  8
DEFPOINTS
 62
     0
 48
50.0
100
AcDbPoint
 10
11918.6
 20
7486.352470292189
 30
0.0
  0
POINT
  5
29BC7
330
29612
100
AcDbEntity
  8
DEFPOINTS
 62
     0
 48
50.0
100
AcDbPoint
 10
11918.6
 20
8444.572792351108
 30
0.0
  0
ENDBLK
  5
2961D
330
29612
100
AcDbEntity
  8
0
 48
50.0
100
AcDbBlockEnd
  0
BLOCK
  5
29627
330
2961E
100
AcDbEntity
  8
0
 48
50.0
100
AcDbBlockBegin
  2
*D20
 70
     1
 10
0.0
 20
0.0
 30
0.0
  3
*D20
  1

  0
LINE
  5
2A441
330
2961E
100
AcDbEntity
  8
寸法
 62
     0
 48
50.0
370
    -2
100
AcDbLine
 10
6993.600000000009
 20
6823.352470292189
 30
0.0
 11
6993.600000000009
 21
8028.961286962438
 31
0.0
  0
LINE
  5
2A442
330
2961E
100
AcDbEntity
  8
寸法
 62
     0
 48
50.0
370
    -2
100
AcDbLine
 10
6173.60000000001
 20
6823.352470292189
 30
0.0
 11
6173.60000000001
 21
8028.961286962438
 31
0.0
  0
LINE
  5
2A443
330
2961E
100
AcDbEntity
  8
寸法
 62
     0
 48
50.0
370
    -2
100
AcDbLine
 10
6993.600000000009
 20
7968.961286962438
 30
0.0
 11
6173.60000000001
 21
7968.961286962438
 31
0.0
  0
INSERT
  5
2A444
330
2961E
100
AcDbEntity
  8
寸法
 62
     0
 48
50.0
370
    -2
100
AcDbBlockReference
  2
_DOTSMALL
 10
6993.600000000009
 20
7968.961286962438
 30
0.0
 41
100.0
 42
100.0
 43
100.0
  0
INSERT
  5
2A445
330
2961E
100
AcDbEntity
  8
寸法
 62
     0
 48
50.0
370
    -2
100
AcDbBlockReference
  2
_DOTSMALL
 10
6173.60000000001
 20
7968.961286962438
 30
0.0
 41
100.0
 42
100.0
 43
100.0
 50
180.0
  0
MTEXT
  5
2A446
330
2961E
100
AcDbEntity
  8
寸法
 62
     7
 48
50.0
100
AcDbMText
 10
6583.60000000001
 20
8068.973097986059
 30
0.0
 40
120.0
 41
0.0
 71
     5
 72
     1
  1
\A1;820
  7
STYLE1
 73
     1
 44
1.0
1001
ACAD
1000
MTEXTBEGIN
1070
    73
1070
     1
1070
    44
1040
1.0
1070
    74
1070
     0
1000
MTEXTEND
  0
POINT
  5
2A447
330
2961E
100
AcDbEntity
  8
DEFPOINTS
 62
     0
 48
50.0
100
AcDbPoint
 10
6993.600000000009
 20
6803.352470292189
 30
0.0
  0
POINT
  5
2A448
330
2961E
100
AcDbEntity
  8
DEFPOINTS
 62
     0
 48
50.0
100
AcDbPoint
 10
6173.60000000001
 20
6803.352470292189
 30
0.0
  0
POINT
  5
2A449
330
2961E
100
AcDbEntity
  8
DEFPOINTS
 62
     0
 48
50.0
100
AcDbPoint
 10
6173.60000000001
 20
7968.961286962438
 30
0.0
  0
ENDBLK
  5
29628
330
2961E
100
AcDbEntity
  8
0
 48
50.0
100
AcDbBlockEnd
  0
BLOCK
  5
29633
330
29629
100
AcDbEntity
  8
0
 48
50.0
100
AcDbBlockBegin
  2
*D21
 70
     1
 10
0.0
 20
0.0
 30
0.0
  3
*D21
  1

  0
LINE
  5
2A42F
330
29629
100
AcDbEntity
  8
寸法
 62
     0
 48
50.0
370
    -2
100
AcDbLine
 10
7813.600000000009
 20
6823.352470292189
 30
0.0
 11
7813.600000000009
 21
8028.961286962438
 31
0.0
  0
LINE
  5
2A430
330
29629
100
AcDbEntity
  8
寸法
 62
     0
 48
50.0
370
    -2
100
AcDbLine
 10
6993.600000000009
 20
6823.352470292189
 30
0.0
 11
6993.600000000009
 21
8028.961286962438
 31
0.0
  0
LINE
  5
2A431
330
29629
100
AcDbEntity
  8
寸法
 62
     0
 48
50.0
370
    -2
100
AcDbLine
 10
7813.600000000009
 20
7968.961286962438
 30
0.0
 11
6993.600000000009
 21
7968.961286962438
 31
0.0
  0
INSERT
  5
2A432
330
29629
100
AcDbEntity
  8
寸法
 62
     0
 48
50.0
370
    -2
100
AcDbBlockReference
  2
_DOTSMALL
 10
7813.600000000009
 20
7968.961286962438
 30
0.0
 41
100.0
 42
100.0
 43
100.0
  0
INSERT
  5
2A433
330
29629
100
AcDbEntity
  8
寸法
 62
     0
 48
50.0
370
    -2
100
AcDbBlockReference
  2
_DOTSMALL
 10
6993.600000000009
 20
7968.961286962438
 30
0.0
 41
100.0
 42
100.0
 43
100.0
 50
180.0
  0
MTEXT
  5
2A434
330
29629
100
AcDbEntity
  8
寸法
 62
     7
 48
50.0
100
AcDbMText
 10
7403.60000000001
 20
8068.973097986059
 30
0.0
 40
120.0
 41
0.0
 71
     5
 72
     1
  1
\A1;820
  7
STYLE1
 73
     1
 44
1.0
1001
ACAD
1000
MTEXTBEGIN
1070
    73
1070
     1
1070
    44
1040
1.0
1070
    74
1070
     0
1000
MTEXTEND
  0
POINT
  5
2A435
330
29629
100
AcDbEntity
  8
DEFPOINTS
 62
     0
 48
50.0
100
AcDbPoint
 10
7813.600000000009
 20
6803.352470292189
 30
0.0
  0
POINT
  5
2A436
330
29629
100
AcDbEntity
  8
DEFPOINTS
 62
     0
 48
50.0
100
AcDbPoint
 10
6993.600000000009
 20
6803.352470292189
 30
0.0
  0
POINT
  5
2A437
330
29629
100
AcDbEntity
  8
DEFPOINTS
 62
     0
 48
50.0
100
AcDbPoint
 10
6993.600000000009
 20
7968.961286962438
 30
0.0
  0
ENDBLK
  5
29634
330
29629
100
AcDbEntity
  8
0
 48
50.0
100
AcDbBlockEnd
  0
BLOCK
  5
2963F
330
29635
100
AcDbEntity
  8
0
 48
50.0
100
AcDbBlockBegin
  2
*D22
 70
     1
 10
0.0
 20
0.0
 30
0.0
  3
*D22
  1

  0
LINE
  5
2A465
330
29635
100
AcDbEntity
  8
寸法
 62
     0
 48
50.0
370
    -2
100
AcDbLine
 10
5283.60000000001
 20
6753.352470292189
 30
0.0
 11
4982.442995307158
 21
6753.352470292189
 31
0.0
  0
LINE
  5
2A466
330
29635
100
AcDbEntity
  8
寸法
 62
     0
 48
50.0
370
    -2
100
AcDbLine
 10
4992.765475140902
 20
7486.352470292189
 30
0.0
 11
5102.442995307157
 21
7486.352470292189
 31
0.0
  0
LINE
  5
2A467
330
29635
100
AcDbEntity
  8
寸法
 62
     0
 48
50.0
370
    -2
100
AcDbLine
 10
5042.442995307158
 20
6753.352470292189
 30
0.0
 11
5042.442995307158
 21
7486.352470292189
 31
0.0
  0
INSERT
  5
2A468
330
29635
100
AcDbEntity
  8
寸法
 62
     0
 48
50.0
370
    -2
100
AcDbBlockReference
  2
_DOTSMALL
 10
5042.442995307158
 20
6753.352470292189
 30
0.0
 41
100.0
 42
100.0
 43
100.0
 50
270.0
  0
INSERT
  5
2A469
330
29635
100
AcDbEntity
  8
寸法
 62
     0
 48
50.0
370
    -2
100
AcDbBlockReference
  2
_DOTSMALL
 10
5042.442995307158
 20
7486.352470292189
 30
0.0
 41
100.0
 42
100.0
 43
100.0
 50
90.0
  0
MTEXT
  5
2A46A
330
29635
100
AcDbEntity
  8
寸法
 62
     7
 48
50.0
100
AcDbMText
 10
4942.442995307156
 20
7045.947260986366
 30
0.0
 40
120.0
 41
0.0
 71
     5
 72
     1
  1
\A1;733
  7
STYLE1
 11
0.0000000000000001
 21
1.0
 31
0.0
 73
     1
 44
1.0
1001
ACAD
1000
MTEXTBEGIN
1070
    73
1070
     1
1070
    44
1040
1.0
1070
    74
1070
     0
1000
MTEXTEND
  0
POINT
  5
2A46B
330
29635
100
AcDbEntity
  8
DEFPOINTS
 62
     0
 48
50.0
100
AcDbPoint
 10
5303.60000000001
 20
6753.352470292189
 30
0.0
  0
POINT
  5
2A46C
330
29635
100
AcDbEntity
  8
DEFPOINTS
 62
     0
 48
50.0
100
AcDbPoint
 10
4972.765475140903
 20
7486.352470292189
 30
0.0
  0
POINT
  5
2A46D
330
29635
100
AcDbEntity
  8
DEFPOINTS
 62
     0
 48
50.0
100
AcDbPoint
 10
5042.442995307158
 20
7486.352470292189
 30
0.0
  0
ENDBLK
  5
29640
330
29635
100
AcDbEntity
  8
0
 48
50.0
100
AcDbBlockEnd
  0
BLOCK
  5
2964B
330
29641
100
AcDbEntity
  8
0
 48
50.0
100
AcDbBlockBegin
  2
*D23
 70
     1
 10
0.0
 20
0.0
 30
0.0
  3
*D23
  1

  0
LINE
  5
2A44A
330
29641
100
AcDbEntity
  8
寸法
 62
     0
 48
50.0
370
    -2
100
AcDbLine
 10
5353.600000000009
 20
6823.352470292189
 30
0.0
 11
5353.600000000009
 21
8028.961286962438
 31
0.0
  0
LINE
  5
2A44B
330
29641
100
AcDbEntity
  8
寸法
 62
     0
 48
50.0
370
    -2
100
AcDbLine
 10
4528.600000000002
 20
7506.352470292189
 30
0.0
 11
4528.600000000002
 21
8028.961286962438
 31
0.0
  0
LINE
  5
2A44C
330
29641
100
AcDbEntity
  8
寸法
 62
     0
 48
50.0
370
    -2
100
AcDbLine
 10
5353.600000000009
 20
7968.961286962438
 30
0.0
 11
4528.600000000002
 21
7968.961286962438
 31
0.0
  0
INSERT
  5
2A44D
330
29641
100
AcDbEntity
  8
寸法
 62
     0
 48
50.0
370
    -2
100
AcDbBlockReference
  2
_DOTSMALL
 10
5353.600000000009
 20
7968.961286962438
 30
0.0
 41
100.0
 42
100.0
 43
100.0
  0
INSERT
  5
2A44E
330
29641
100
AcDbEntity
  8
寸法
 62
     0
 48
50.0
370
    -2
100
AcDbBlockReference
  2
_DOTSMALL
 10
4528.600000000002
 20
7968.961286962438
 30
0.0
 41
100.0
 42
100.0
 43
100.0
 50
180.0
  0
MTEXT
  5
2A44F
330
29641
100
AcDbEntity
  8
寸法
 62
     7
 48
50.0
100
AcDbMText
 10
4941.100000000005
 20
8068.973097986059
 30
0.0
 40
120.0
 41
0.0
 71
     5
 72
     1
  1
\A1;825
  7
STYLE1
 73
     1
 44
1.0
1001
ACAD
1000
MTEXTBEGIN
1070
    73
1070
     1
1070
    44
1040
1.0
1070
    74
1070
     0
1000
MTEXTEND
  0
POINT
  5
2A450
330
29641
100
AcDbEntity
  8
DEFPOINTS
 62
     0
 48
50.0
100
AcDbPoint
 10
5353.600000000009
 20
6803.352470292189
 30
0.0
  0
POINT
  5
2A451
330
29641
100
AcDbEntity
  8
DEFPOINTS
 62
     0
 48
50.0
100
AcDbPoint
 10
4528.600000000002
 20
7486.352470292189
 30
0.0
  0
POINT
  5
2A452
330
29641
100
AcDbEntity
  8
DEFPOINTS
 62
     0
 48
50.0
100
AcDbPoint
 10
4528.600000000002
 20
7968.961286962438
 30
0.0
  0
ENDBLK
  5
2964C
330
29641
100
AcDbEntity
  8
0
 48
50.0
100
AcDbBlockEnd
  0
BLOCK
  5
29657
330
2964D
100
AcDbEntity
  8
0
 48
50.0
100
AcDbBlockBegin
  2
*D24
 70
     1
 10
0.0
 20
0.0
 30
0.0
  3
*D24
  1

  0
LINE
  5
29BEE
330
2964D
100
AcDbEntity
  8
寸法
 62
     0
 48
50.0
370
    -2
100
AcDbLine
 10
4508.600000000002
 20
7486.352470292189
 30
0.0
 11
3593.721909610676
 21
7486.352470292189
 31
0.0
  0
LINE
  5
29BEF
330
2964D
100
AcDbEntity
  8
寸法
 62
     0
 48
50.0
370
    -2
100
AcDbLine
 10
4508.600000000002
 20
5946.35247029219
 30
0.0
 11
3593.721909610676
 21
5946.35247029219
 31
0.0
  0
LINE
  5
29BF0
330
2964D
100
AcDbEntity
  8
寸法
 62
     0
 48
50.0
370
    -2
100
AcDbLine
 10
3653.721909610676
 20
7486.352470292189
 30
0.0
 11
3653.721909610676
 21
5946.35247029219
 31
0.0
  0
INSERT
  5
29BF1
330
2964D
100
AcDbEntity
  8
寸法
 62
     0
 48
50.0
370
    -2
100
AcDbBlockReference
  2
_DOTSMALL
 10
3653.721909610676
 20
7486.352470292189
 30
0.0
 41
100.0
 42
100.0
 43
100.0
 50
90.0
  0
INSERT
  5
29BF2
330
2964D
100
AcDbEntity
  8
寸法
 62
     0
 48
50.0
370
    -2
100
AcDbBlockReference
  2
_DOTSMALL
 10
3653.721909610676
 20
5946.35247029219
 30
0.0
 41
100.0
 42
100.0
 43
100.0
 50
270.0
  0
MTEXT
  5
29BF3
330
2964D
100
AcDbEntity
  8
寸法
 62
     7
 48
50.0
100
AcDbMText
 10
3553.721909610675
 20
6753.852470292189
 30
0.0
 40
120.0
 41
0.0
 71
     5
 72
     1
  1
\A1;1540
  7
STYLE1
 11
0.0000000000000001
 21
1.0
 31
0.0
 73
     1
 44
1.0
1001
ACAD
1000
MTEXTBEGIN
1070
    73
1070
     1
1070
    44
1040
1.0
1070
    74
1070
     0
1000
MTEXTEND
  0
POINT
  5
29BF4
330
2964D
100
AcDbEntity
  8
DEFPOINTS
 62
     0
 48
50.0
100
AcDbPoint
 10
4528.600000000002
 20
7486.352470292189
 30
0.0
  0
POINT
  5
29BF5
330
2964D
100
AcDbEntity
  8
DEFPOINTS
 62
     0
 48
50.0
100
AcDbPoint
 10
4528.600000000002
 20
5946.35247029219
 30
0.0
  0
POINT
  5
29BF6
330
2964D
100
AcDbEntity
  8
DEFPOINTS
 62
     0
 48
50.0
100
AcDbPoint
 10
3653.721909610676
 20
5946.35247029219
 30
0.0
  0
ENDBLK
  5
29658
330
2964D
100
AcDbEntity
  8
0
 48
50.0
100
AcDbBlockEnd
  0
BLOCK
  5
29663
330
29659
100
AcDbEntity
  8
0
 48
50.0
100
AcDbBlockBegin
  2
*D25
 70
     1
 10
0.0
 20
0.0
 30
0.0
  3
*D25
  1

  0
LINE
  5
2A3B9
330
29659
100
AcDbEntity
  8
寸法
 62
     0
 48
50.0
370
    -2
100
AcDbLine
 10
4581.600000000002
 20
7363.35247029219
 30
0.0
 11
3845.665006330074
 21
7363.35247029219
 31
0.0
  0
LINE
  5
2A3BA
330
29659
100
AcDbEntity
  8
寸法
 62
     0
 48
50.0
370
    -2
100
AcDbLine
 10
4581.600000000009
 20
6144.352470292194
 30
0.0
 11
3845.665006330074
 21
6144.352470292194
 31
0.0
  0
LINE
  5
2A3BB
330
29659
100
AcDbEntity
  8
寸法
 62
     0
 48
50.0
370
    -2
100
AcDbLine
 10
3905.665006330075
 20
7363.35247029219
 30
0.0
 11
3905.665006330075
 21
6144.352470292194
 31
0.0
  0
INSERT
  5
2A3BC
330
29659
100
AcDbEntity
  8
寸法
 62
     0
 48
50.0
370
    -2
100
AcDbBlockReference
  2
_DOTSMALL
 10
3905.665006330075
 20
7363.35247029219
 30
0.0
 41
100.0
 42
100.0
 43
100.0
 50
90.0
  0
INSERT
  5
2A3BD
330
29659
100
AcDbEntity
  8
寸法
 62
     0
 48
50.0
370
    -2
100
AcDbBlockReference
  2
_DOTSMALL
 10
3905.665006330075
 20
6144.352470292194
 30
0.0
 41
100.0
 42
100.0
 43
100.0
 50
270.0
  0
MTEXT
  5
2A3BE
330
29659
100
AcDbEntity
  8
寸法
 62
     7
 48
50.0
100
AcDbMText
 10
3805.653195306451
 20
6753.852470292189
 30
0.0
 40
120.0
 41
0.0
 71
     5
 72
     1
  1
\A1;1219
  7
STYLE1
 11
0.0000000000000001
 21
1.0
 31
0.0
 73
     1
 44
1.0
1001
ACAD
1000
MTEXTBEGIN
1070
    73
1070
     1
1070
    44
1040
1.0
1070
    74
1070
     0
1000
MTEXTEND
  0
POINT
  5
2A3BF
330
29659
100
AcDbEntity
  8
DEFPOINTS
 62
     0
 48
50.0
100
AcDbPoint
 10
4601.600000000002
 20
7363.35247029219
 30
0.0
  0
POINT
  5
2A3C0
330
29659
100
AcDbEntity
  8
DEFPOINTS
 62
     0
 48
50.0
100
AcDbPoint
 10
4601.60000000001
 20
6144.352470292194
 30
0.0
  0
POINT
  5
2A3C1
330
29659
100
AcDbEntity
  8
DEFPOINTS
 62
     0
 48
50.0
100
AcDbPoint
 10
3905.665006330075
 20
6144.352470292194
 30
0.0
  0
ENDBLK
  5
29664
330
29659
100
AcDbEntity
  8
0
 48
50.0
100
AcDbBlockEnd
  0
BLOCK
  5
2966E
330
29665
100
AcDbEntity
  8
0
 48
50.0
100
AcDbBlockBegin
  2
*D26
 70
     1
 10
0.0
 20
0.0
 30
0.0
  3
*D26
  1

  0
LINE
  5
2A453
330
29665
100
AcDbEntity
  8
寸法
 62
     0
 48
50.0
370
    -2
100
AcDbLine
 10
6173.60000000001
 20
6823.352470292189
 30
0.0
 11
6173.60000000001
 21
8028.961286962438
 31
0.0
  0
LINE
  5
2A454
330
29665
100
AcDbEntity
  8
寸法
 62
     0
 48
50.0
370
    -2
100
AcDbLine
 10
5353.600000000009
 20
6823.352470292189
 30
0.0
 11
5353.600000000009
 21
8028.961286962438
 31
0.0
  0
LINE
  5
2A455
330
29665
100
AcDbEntity
  8
寸法
 62
     0
 48
50.0
370
    -2
100
AcDbLine
 10
6173.60000000001
 20
7968.961286962438
 30
0.0
 11
5353.600000000009
 21
7968.961286962438
 31
0.0
  0
INSERT
  5
2A456
330
29665
100
AcDbEntity
  8
寸法
 62
     0
 48
50.0
370
    -2
100
AcDbBlockReference
  2
_DOTSMALL
 10
6173.60000000001
 20
7968.961286962438
 30
0.0
 41
100.0
 42
100.0
 43
100.0
  0
INSERT
  5
2A457
330
29665
100
AcDbEntity
  8
寸法
 62
     0
 48
50.0
370
    -2
100
AcDbBlockReference
  2
_DOTSMALL
 10
5353.600000000009
 20
7968.961286962438
 30
0.0
 41
100.0
 42
100.0
 43
100.0
 50
180.0
  0
MTEXT
  5
2A458
330
29665
100
AcDbEntity
  8
寸法
 62
     7
 48
50.0
100
AcDbMText
 10
5763.60000000001
 20
8068.973097986059
 30
0.0
 40
120.0
 41
0.0
 71
     5
 72
     1
  1
\A1;820
  7
STYLE1
 73
     1
 44
1.0
1001
ACAD
1000
MTEXTBEGIN
1070
    73
1070
     1
1070
    44
1040
1.0
1070
    74
1070
     0
1000
MTEXTEND
  0
POINT
  5
2A459
330
29665
100
AcDbEntity
  8
DEFPOINTS
 62
     0
 48
50.0
100
AcDbPoint
 10
6173.60000000001
 20
6803.352470292189
 30
0.0
  0
POINT
  5
2A45A
330
29665
100
AcDbEntity
  8
DEFPOINTS
 62
     0
 48
50.0
100
AcDbPoint
 10
5353.600000000009
 20
6803.352470292189
 30
0.0
  0
POINT
  5
2A45B
330
29665
100
AcDbEntity
  8
DEFPOINTS
 62
     0
 48
50.0
100
AcDbPoint
 10
5353.600000000009
 20
7968.961286962438
 30
0.0
  0
ENDBLK
  5
2966F
330
29665
100
AcDbEntity
  8
0
 48
50.0
100
AcDbBlockEnd
  0
BLOCK
  5
2967A
330
29670
100
AcDbEntity
  8
0
 48
50.0
100
AcDbBlockBegin
  2
*D27
 70
     1
 10
0.0
 20
0.0
 30
0.0
  3
*D27
  1

  0
LINE
  5
2A45C
330
29670
100
AcDbEntity
  8
寸法
 62
     0
 48
50.0
370
    -2
100
AcDbLine
 10
4992.765475140902
 20
5946.3524702922
 30
0.0
 11
5102.442995307157
 21
5946.3524702922
 31
0.0
  0
LINE
  5
2A45D
330
29670
100
AcDbEntity
  8
寸法
 62
     0
 48
50.0
370
    -2
100
AcDbLine
 10
5283.60000000001
 20
6753.352470292189
 30
0.0
 11
4982.442995307158
 21
6753.352470292189
 31
0.0
  0
LINE
  5
2A45E
330
29670
100
AcDbEntity
  8
寸法
 62
     0
 48
50.0
370
    -2
100
AcDbLine
 10
5042.442995307157
 20
5946.3524702922
 30
0.0
 11
5042.442995307158
 21
6753.352470292189
 31
0.0
  0
INSERT
  5
2A45F
330
29670
100
AcDbEntity
  8
寸法
 62
     0
 48
50.0
370
    -2
100
AcDbBlockReference
  2
_DOTSMALL
 10
5042.442995307157
 20
5946.3524702922
 30
0.0
 41
100.0
 42
100.0
 43
100.0
 50
270.0
  0
INSERT
  5
2A460
330
29670
100
AcDbEntity
  8
寸法
 62
     0
 48
50.0
370
    -2
100
AcDbBlockReference
  2
_DOTSMALL
 10
5042.442995307158
 20
6753.352470292189
 30
0.0
 41
100.0
 42
100.0
 43
100.0
 50
90.0
  0
MTEXT
  5
2A461
330
29670
100
AcDbEntity
  8
寸法
 62
     7
 48
50.0
100
AcDbMText
 10
4942.442995307156
 20
6431.352470292189
 30
0.0
 40
120.0
 41
0.0
 71
     5
 72
     1
  1
\A1;807
  7
STYLE1
 11
0.0000000000000001
 21
1.0
 31
0.0
 73
     1
 44
1.0
1001
ACAD
1000
MTEXTBEGIN
1070
    73
1070
     1
1070
    44
1040
1.0
1070
    74
1070
     0
1000
MTEXTEND
  0
POINT
  5
2A462
330
29670
100
AcDbEntity
  8
DEFPOINTS
 62
     0
 48
50.0
100
AcDbPoint
 10
4972.765475140903
 20
5946.3524702922
 30
0.0
  0
POINT
  5
2A463
330
29670
100
AcDbEntity
  8
DEFPOINTS
 62
     0
 48
50.0
100
AcDbPoint
 10
5303.60000000001
 20
6753.352470292189
 30
0.0
  0
POINT
  5
2A464
330
29670
100
AcDbEntity
  8
DEFPOINTS
 62
     0
 48
50.0
100
AcDbPoint
 10
5042.442995307158
 20
6753.352470292189
 30
0.0
  0
ENDBLK
  5
2967B
330
29670
100
AcDbEntity
  8
0
 48
50.0
100
AcDbBlockEnd
  0
BLOCK
  5
29693
330
29688
100
AcDbEntity
  8
0
 48
50.0
100
AcDbBlockBegin
  2
*D28
 70
     1
 10
0.0
 20
0.0
 30
0.0
  3
*D28
  1

  0
LINE
  5
2A3AF
330
29688
100
AcDbEntity
  8
寸法
 62
     0
 48
50.0
370
    -2
100
AcDbLine
 10
4581.600000000009
 20
6144.352470292194
 30
0.0
 11
3845.665006330074
 21
6144.352470292194
 31
0.0
  0
LINE
  5
2A3B0
330
29688
100
AcDbEntity
  8
寸法
 62
     0
 48
50.0
370
    -2
100
AcDbLine
 10
4508.600000000002
 20
5946.35247029219
 30
0.0
 11
3845.665006330074
 21
5946.35247029219
 31
0.0
  0
LINE
  5
2A3B1
330
29688
100
AcDbEntity
  8
寸法
 62
     0
 48
50.0
370
    -2
100
AcDbLine
 10
3905.665006330075
 20
6144.352470292194
 30
0.0
 11
3905.665006330075
 21
5946.35247029219
 31
0.0
  0
LINE
  5
2A3B2
330
29688
100
AcDbEntity
  8
寸法
 62
     0
 48
50.0
370
    -2
100
AcDbLine
 10
3905.665006330075
 20
5946.35247029219
 30
0.0
 11
3905.665006330075
 21
5474.611861619941
 31
0.0
  0
INSERT
  5
2A3B3
330
29688
100
AcDbEntity
  8
寸法
 62
     0
 48
50.0
370
    -2
100
AcDbBlockReference
  2
_DOTSMALL
 10
3905.665006330075
 20
6144.352470292194
 30
0.0
 41
100.0
 42
100.0
 43
100.0
 50
90.0
  0
INSERT
  5
2A3B4
330
29688
100
AcDbEntity
  8
寸法
 62
     0
 48
50.0
370
    -2
100
AcDbBlockReference
  2
_DOTSMALL
 10
3905.665006330075
 20
5946.35247029219
 30
0.0
 41
100.0
 42
100.0
 43
100.0
 50
270.0
  0
MTEXT
  5
2A3B5
330
29688
100
AcDbEntity
  8
寸法
 62
     7
 48
50.0
100
AcDbMText
 10
3805.665006330073
 20
5610.821521449597
 30
0.0
 40
120.0
 41
0.0
 71
     5
 72
     1
  1
\A1;198
  7
STYLE1
 11
0.0000000000000001
 21
1.0
 31
0.0
 73
     1
 44
1.0
1001
ACAD
1000
MTEXTBEGIN
1070
    73
1070
     1
1070
    44
1040
1.0
1070
    74
1070
     0
1000
MTEXTEND
  0
POINT
  5
2A3B6
330
29688
100
AcDbEntity
  8
DEFPOINTS
 62
     0
 48
50.0
100
AcDbPoint
 10
4601.60000000001
 20
6144.352470292194
 30
0.0
  0
POINT
  5
2A3B7
330
29688
100
AcDbEntity
  8
DEFPOINTS
 62
     0
 48
50.0
100
AcDbPoint
 10
4528.600000000002
 20
5946.35247029219
 30
0.0
  0
POINT
  5
2A3B8
330
29688
100
AcDbEntity
  8
DEFPOINTS
 62
     0
 48
50.0
100
AcDbPoint
 10
3905.665006330075
 20
5946.35247029219
 30
0.0
  0
ENDBLK
  5
29694
330
29688
100
AcDbEntity
  8
0
 48
50.0
100
AcDbBlockEnd
  0
BLOCK
  5
2969F
330
29695
100
AcDbEntity
  8
0
 48
50.0
100
AcDbBlockBegin
  2
*D29
 70
     1
 10
0.0
 20
0.0
 30
0.0
  3
*D29
  1

  0
LINE
  5
29BC8
330
29695
100
AcDbEntity
  8
寸法
 62
     0
 48
50.0
370
    -2
100
AcDbLine
 10
4508.600000000002
 20
5946.352470292186
 30
0.0
 11
4355.512673767881
 21
5946.352470292186
 31
0.0
  0
LINE
  5
29BC9
330
29695
100
AcDbEntity
  8
寸法
 62
     0
 48
50.0
370
    -2
100
AcDbLine
 10
4864.325326928807
 20
5226.352470292186
 30
0.0
 11
4355.512673767881
 21
5226.352470292186
 31
0.0
  0
LINE
  5
29BCA
330
29695
100
AcDbEntity
  8
寸法
 62
     0
 48
50.0
370
    -2
100
AcDbLine
 10
4415.512673767881
 20
5946.352470292186
 30
0.0
 11
4415.512673767881
 21
5226.352470292186
 31
0.0
  0
INSERT
  5
29BCB
330
29695
100
AcDbEntity
  8
寸法
 62
     0
 48
50.0
370
    -2
100
AcDbBlockReference
  2
_DOTSMALL
 10
4415.512673767881
 20
5946.352470292186
 30
0.0
 41
100.0
 42
100.0
 43
100.0
 50
90.0
  0
INSERT
  5
29BCC
330
29695
100
AcDbEntity
  8
寸法
 62
     0
 48
50.0
370
    -2
100
AcDbBlockReference
  2
_DOTSMALL
 10
4415.512673767881
 20
5226.352470292186
 30
0.0
 41
100.0
 42
100.0
 43
100.0
 50
270.0
  0
MTEXT
  5
29BCD
330
29695
100
AcDbEntity
  8
寸法
 62
     7
 48
50.0
100
AcDbMText
 10
4315.500862744258
 20
5586.352470292187
 30
0.0
 40
120.0
 41
0.0
 71
     5
 72
     1
  1
\A1;扉の出720
  7
STYLE1
 11
0.0000000000000001
 21
1.0
 31
0.0
 73
     1
 44
1.0
1001
ACAD
1000
MTEXTBEGIN
1070
    73
1070
     1
1070
    44
1040
1.0
1070
    74
1070
     0
1000
MTEXTEND
  0
POINT
  5
29BCE
330
29695
100
AcDbEntity
  8
DEFPOINTS
 62
     0
 48
50.0
100
AcDbPoint
 10
4528.600000000002
 20
5946.352470292186
 30
0.0
  0
POINT
  5
29BCF
330
29695
100
AcDbEntity
  8
DEFPOINTS
 62
     0
 48
50.0
100
AcDbPoint
 10
4884.325326928807
 20
5226.352470292186
 30
0.0
  0
POINT
  5
29BD0
330
29695
100
AcDbEntity
  8
DEFPOINTS
 62
     0
 48
50.0
100
AcDbPoint
 10
4415.512673767881
 20
5226.352470292186
 30
0.0
  0
ENDBLK
  5
296A0
330
29695
100
AcDbEntity
  8
0
 48
50.0
100
AcDbBlockEnd
  0
BLOCK
  5
296AC
330
296A1
100
AcDbEntity
  8
0
 48
50.0
100
AcDbBlockBegin
  2
*D30
 70
     1
 10
0.0
 20
0.0
 30
0.0
  3
*D30
  1

  0
LINE
  5
2A595
330
296A1
100
AcDbEntity
  8
寸法
 62
     0
 48
50.0
370
    -2
100
AcDbLine
 10
6663.788016725456
 20
6226.352470292184
 30
0.0
 11
6486.819725318591
 21
6226.352470292184
 31
0.0
  0
LINE
  5
2A596
330
296A1
100
AcDbEntity
  8
寸法
 62
     0
 48
50.0
370
    -2
100
AcDbLine
 10
6663.788016725468
 20
5946.352470292215
 30
0.0
 11
6486.819725318591
 21
5946.352470292215
 31
0.0
  0
LINE
  5
2A597
330
296A1
100
AcDbEntity
  8
寸法
 62
     0
 48
50.0
370
    -2
100
AcDbLine
 10
6546.819725318592
 20
6226.352470292184
 30
0.0
 11
6546.819725318591
 21
5946.352470292215
 31
0.0
  0
LINE
  5
2A598
330
296A1
100
AcDbEntity
  8
寸法
 62
     0
 48
50.0
370
    -2
100
AcDbLine
 10
6546.819725318591
 20
5946.352470292215
 30
0.0
 11
6546.819725318591
 21
5509.818021473279
 31
0.0
  0
INSERT
  5
2A599
330
296A1
100
AcDbEntity
  8
寸法
 62
     0
 48
50.0
370
    -2
100
AcDbBlockReference
  2
_DOTSMALL
 10
6546.819725318592
 20
6226.352470292184
 30
0.0
 41
100.0
 42
100.0
 43
100.0
 50
90.0
  0
INSERT
  5
2A59A
330
296A1
100
AcDbEntity
  8
寸法
 62
     0
 48
50.0
370
    -2
100
AcDbBlockReference
  2
_DOTSMALL
 10
6546.819725318591
 20
5946.352470292215
 30
0.0
 41
100.0
 42
100.0
 43
100.0
 50
270.0
  0
MTEXT
  5
2A59B
330
296A1
100
AcDbEntity
  8
寸法
 62
     7
 48
50.0
100
AcDbMText
 10
6446.807914294968
 20
5659.388887615013
 30
0.0
 40
120.0
 41
0.0
 71
     5
 72
     1
  1
\A1;280
  7
STYLE1
 11
0.0000000000000001
 21
1.0
 31
0.0
 73
     1
 44
1.0
1001
ACAD
1000
MTEXTBEGIN
1070
    73
1070
     1
1070
    44
1040
1.0
1070
    74
1070
     0
1000
MTEXTEND
  0
POINT
  5
2A59C
330
296A1
100
AcDbEntity
  8
DEFPOINTS
 62
     0
 48
50.0
100
AcDbPoint
 10
6683.788016725457
 20
6226.352470292184
 30
0.0
  0
POINT
  5
2A59D
330
296A1
100
AcDbEntity
  8
DEFPOINTS
 62
     0
 48
50.0
100
AcDbPoint
 10
6683.788016725467
 20
5946.352470292215
 30
0.0
  0
POINT
  5
2A59E
330
296A1
100
AcDbEntity
  8
DEFPOINTS
 62
     0
 48
50.0
100
AcDbPoint
 10
6546.819725318591
 20
5946.352470292215
 30
0.0
  0
ENDBLK
  5
296AD
330
296A1
100
AcDbEntity
  8
0
 48
50.0
100
AcDbBlockEnd
  0
BLOCK
  5
296B8
330
296AE
100
AcDbEntity
  8
0
 48
50.0
100
AcDbBlockBegin
  2
*D31
 70
     1
 10
0.0
 20
0.0
 30
0.0
  3
*D31
  1

  0
LINE
  5
29B92
330
296AE
100
AcDbEntity
  8
寸法
 62
     0
 48
50.0
370
    -2
100
AcDbLine
 10
6875.600000000003
 20
7433.352470292189
 30
0.0
 11
6875.600000000003
 21
8272.6189283861
 31
0.0
  0
LINE
  5
29B93
330
296AE
100
AcDbEntity
  8
寸法
 62
     0
 48
50.0
370
    -2
100
AcDbLine
 10
4651.600000000001
 20
7433.352470292189
 30
0.0
 11
4651.600000000001
 21
8272.6189283861
 31
0.0
  0
LINE
  5
29B94
330
296AE
100
AcDbEntity
  8
寸法
 62
     0
 48
50.0
370
    -2
100
AcDbLine
 10
6875.600000000003
 20
8212.618928386101
 30
0.0
 11
4651.600000000001
 21
8212.618928386101
 31
0.0
  0
INSERT
  5
29B95
330
296AE
100
AcDbEntity
  8
寸法
 62
     0
 48
50.0
370
    -2
100
AcDbBlockReference
  2
_DOTSMALL
 10
6875.600000000003
 20
8212.618928386101
 30
0.0
 41
100.0
 42
100.0
 43
100.0
  0
INSERT
  5
29B96
330
296AE
100
AcDbEntity
  8
寸法
 62
     0
 48
50.0
370
    -2
100
AcDbBlockReference
  2
_DOTSMALL
 10
4651.600000000001
 20
8212.618928386101
 30
0.0
 41
100.0
 42
100.0
 43
100.0
 50
180.0
  0
MTEXT
  5
29B97
330
296AE
100
AcDbEntity
  8
寸法
 62
     7
 48
50.0
100
AcDbMText
 10
5763.600000000002
 20
8312.630739409723
 30
0.0
 40
120.0
 41
0.0
 71
     5
 72
     1
  1
\A1;2224
  7
STYLE1
 73
     1
 44
1.0
1001
ACAD
1000
MTEXTBEGIN
1070
    73
1070
     1
1070
    44
1040
1.0
1070
    74
1070
     0
1000
MTEXTEND
  0
POINT
  5
29B98
330
296AE
100
AcDbEntity
  8
DEFPOINTS
 62
     0
 48
50.0
100
AcDbPoint
 10
6875.600000000003
 20
7413.35247029219
 30
0.0
  0
POINT
  5
29B99
330
296AE
100
AcDbEntity
  8
DEFPOINTS
 62
     0
 48
50.0
100
AcDbPoint
 10
4651.600000000001
 20
7413.35247029219
 30
0.0
  0
POINT
  5
29B9A
330
296AE
100
AcDbEntity
  8
DEFPOINTS
 62
     0
 48
50.0
100
AcDbPoint
 10
4651.600000000001
 20
8212.618928386101
 30
0.0
  0
ENDBLK
  5
296B9
330
296AE
100
AcDbEntity
  8
0
 48
50.0
100
AcDbBlockEnd
  0
BLOCK
  5
296D2
330
296C7
100
AcDbEntity
  8
0
 48
50.0
100
AcDbBlockBegin
  2
*D32
 70
     1
 10
0.0
 20
0.0
 30
0.0
  3
*D32
  1

  0
LINE
  5
29B88
330
296C7
100
AcDbEntity
  8
寸法
 62
     0
 48
50.0
370
    -2
100
AcDbLine
 10
4651.600000000001
 20
7433.352470292189
 30
0.0
 11
4651.600000000001
 21
8272.6189283861
 31
0.0
  0
LINE
  5
29B89
330
296C7
100
AcDbEntity
  8
寸法
 62
     0
 48
50.0
370
    -2
100
AcDbLine
 10
4528.600000000002
 20
7506.352470292189
 30
0.0
 11
4528.600000000002
 21
8272.6189283861
 31
0.0
  0
LINE
  5
29B8A
330
296C7
100
AcDbEntity
  8
寸法
 62
     0
 48
50.0
370
    -2
100
AcDbLine
 10
4651.600000000001
 20
8212.618928386101
 30
0.0
 11
4528.600000000002
 21
8212.618928386101
 31
0.0
  0
LINE
  5
29B8B
330
296C7
100
AcDbEntity
  8
寸法
 62
     0
 48
50.0
370
    -2
100
AcDbLine
 10
4528.600000000002
 20
8212.618928386101
 30
0.0
 11
4117.008116907961
 21
8212.618928386101
 31
0.0
  0
INSERT
  5
29B8C
330
296C7
100
AcDbEntity
  8
寸法
 62
     0
 48
50.0
370
    -2
100
AcDbBlockReference
  2
_DOTSMALL
 10
4651.600000000001
 20
8212.618928386101
 30
0.0
 41
100.0
 42
100.0
 43
100.0
  0
INSERT
  5
29B8D
330
296C7
100
AcDbEntity
  8
寸法
 62
     0
 48
50.0
370
    -2
100
AcDbBlockReference
  2
_DOTSMALL
 10
4528.600000000002
 20
8212.618928386101
 30
0.0
 41
100.0
 42
100.0
 43
100.0
 50
180.0
  0
MTEXT
  5
29B8E
330
296C7
100
AcDbEntity
  8
寸法
 62
     7
 48
50.0
100
AcDbMText
 10
4255.4933982822
 20
8312.630739409723
 30
0.0
 40
120.0
 41
0.0
 71
     5
 72
     1
  1
\A1;123
  7
STYLE1
 73
     1
 44
1.0
1001
ACAD
1000
MTEXTBEGIN
1070
    73
1070
     1
1070
    44
1040
1.0
1070
    74
1070
     0
1000
MTEXTEND
  0
POINT
  5
29B8F
330
296C7
100
AcDbEntity
  8
DEFPOINTS
 62
     0
 48
50.0
100
AcDbPoint
 10
4651.600000000001
 20
7413.35247029219
 30
0.0
  0
POINT
  5
29B90
330
296C7
100
AcDbEntity
  8
DEFPOINTS
 62
     0
 48
50.0
100
AcDbPoint
 10
4528.600000000002
 20
7486.352470292189
 30
0.0
  0
POINT
  5
29B91
330
296C7
100
AcDbEntity
  8
DEFPOINTS
 62
     0
 48
50.0
100
AcDbPoint
 10
4528.600000000002
 20
8212.618928386101
 30
0.0
  0
ENDBLK
  5
296D3
330
296C7
100
AcDbEntity
  8
0
 48
50.0
100
AcDbBlockEnd
  0
BLOCK
  5
296E9
330
296DE
100
AcDbEntity
  8
0
 48
50.0
100
AcDbBlockBegin
  2
*D33
 70
     1
 10
0.0
 20
0.0
 30
0.0
  3
*D33
  1

  0
LINE
  5
29BD1
330
296DE
100
AcDbEntity
  8
寸法
 62
     0
 48
50.0
370
    -2
100
AcDbLine
 10
4508.600000000002
 20
7486.352470292189
 30
0.0
 11
3845.665006330074
 21
7486.352470292189
 31
0.0
  0
LINE
  5
29BD2
330
296DE
100
AcDbEntity
  8
寸法
 62
     0
 48
50.0
370
    -2
100
AcDbLine
 10
4581.600000000002
 20
7363.35247029219
 30
0.0
 11
3845.665006330074
 21
7363.35247029219
 31
0.0
  0
LINE
  5
29BD3
330
296DE
100
AcDbEntity
  8
寸法
 62
     0
 48
50.0
370
    -2
100
AcDbLine
 10
3905.665006330075
 20
7363.35247029219
 30
0.0
 11
3905.665006330075
 21
7486.352470292189
 31
0.0
  0
LINE
  5
29BD4
330
296DE
100
AcDbEntity
  8
寸法
 62
     0
 48
50.0
370
    -2
100
AcDbLine
 10
3905.665006330075
 20
7486.352470292189
 30
0.0
 11
3905.665006330075
 21
7897.944353384229
 31
0.0
  0
INSERT
  5
29BD5
330
296DE
100
AcDbEntity
  8
寸法
 62
     0
 48
50.0
370
    -2
100
AcDbBlockReference
  2
_DOTSMALL
 10
3905.665006330075
 20
7363.35247029219
 30
0.0
 41
100.0
 42
100.0
 43
100.0
 50
270.0
  0
INSERT
  5
29BD6
330
296DE
100
AcDbEntity
  8
寸法
 62
     0
 48
50.0
370
    -2
100
AcDbBlockReference
  2
_DOTSMALL
 10
3905.665006330075
 20
7486.352470292189
 30
0.0
 41
100.0
 42
100.0
 43
100.0
 50
90.0
  0
MTEXT
  5
29BD7
330
296DE
100
AcDbEntity
  8
寸法
 62
     7
 48
50.0
100
AcDbMText
 10
3805.653195306451
 20
7759.45907200999
 30
0.0
 40
120.0
 41
0.0
 71
     5
 72
     1
  1
\A1;123
  7
STYLE1
 11
0.0000000000000001
 21
1.0
 31
0.0
 73
     1
 44
1.0
1001
ACAD
1000
MTEXTBEGIN
1070
    73
1070
     1
1070
    44
1040
1.0
1070
    74
1070
     0
1000
MTEXTEND
  0
POINT
  5
29BD8
330
296DE
100
AcDbEntity
  8
DEFPOINTS
 62
     0
 48
50.0
100
AcDbPoint
 10
4528.600000000002
 20
7486.352470292189
 30
0.0
  0
POINT
  5
29BD9
330
296DE
100
AcDbEntity
  8
DEFPOINTS
 62
     0
 48
50.0
100
AcDbPoint
 10
4601.600000000002
 20
7363.35247029219
 30
0.0
  0
POINT
  5
29BDA
330
296DE
100
AcDbEntity
  8
DEFPOINTS
 62
     0
 48
50.0
100
AcDbPoint
 10
3905.665006330075
 20
7363.35247029219
 30
0.0
  0
ENDBLK
  5
296EA
330
296DE
100
AcDbEntity
  8
0
 48
50.0
100
AcDbBlockEnd
  0
BLOCK
  5
296F6
330
296EB
100
AcDbEntity
  8
0
 48
50.0
100
AcDbBlockBegin
  2
*D34
 70
     1
 10
0.0
 20
0.0
 30
0.0
  3
*D34
  1

  0
LINE
  5
29B7E
330
296EB
100
AcDbEntity
  8
寸法
 62
     0
 48
50.0
370
    -2
100
AcDbLine
 10
6540.85468201165
 20
7486.352470292159
 30
0.0
 11
6606.819725318591
 21
7486.352470292159
 31
0.0
  0
LINE
  5
29B7F
330
296EB
100
AcDbEntity
  8
寸法
 62
     0
 48
50.0
370
    -2
100
AcDbLine
 10
6540.85468201165
 20
7286.352470292192
 30
0.0
 11
6606.819725318591
 21
7286.352470292192
 31
0.0
  0
LINE
  5
29B80
330
296EB
100
AcDbEntity
  8
寸法
 62
     0
 48
50.0
370
    -2
100
AcDbLine
 10
6546.819725318591
 20
7286.352470292192
 30
0.0
 11
6546.819725318591
 21
7486.352470292159
 31
0.0
  0
LINE
  5
29B81
330
296EB
100
AcDbEntity
  8
寸法
 62
     0
 48
50.0
370
    -2
100
AcDbLine
 10
6546.819725318591
 20
7486.352470292159
 30
0.0
 11
6546.819725318591
 21
7922.886919111057
 31
0.0
  0
INSERT
  5
29B82
330
296EB
100
AcDbEntity
  8
寸法
 62
     0
 48
50.0
370
    -2
100
AcDbBlockReference
  2
_DOTSMALL
 10
6546.819725318591
 20
7286.352470292192
 30
0.0
 41
100.0
 42
100.0
 43
100.0
 50
270.0
  0
INSERT
  5
29B83
330
296EB
100
AcDbEntity
  8
寸法
 62
     0
 48
50.0
370
    -2
100
AcDbBlockReference
  2
_DOTSMALL
 10
6546.819725318591
 20
7486.352470292159
 30
0.0
 41
100.0
 42
100.0
 43
100.0
 50
90.0
  0
MTEXT
  5
29B84
330
296EB
100
AcDbEntity
  8
寸法
 62
     7
 48
50.0
100
AcDbMText
 10
6446.807914294968
 20
7773.316052969327
 30
0.0
 40
120.0
 41
0.0
 71
     5
 72
     1
  1
\A1;200
  7
STYLE1
 11
0.0000000000000001
 21
1.0
 31
0.0
 73
     1
 44
1.0
1001
ACAD
1000
MTEXTBEGIN
1070
    73
1070
     1
1070
    44
1040
1.0
1070
    74
1070
     0
1000
MTEXTEND
  0
POINT
  5
29B85
330
296EB
100
AcDbEntity
  8
DEFPOINTS
 62
     0
 48
50.0
100
AcDbPoint
 10
6520.854682011649
 20
7486.352470292159
 30
0.0
  0
POINT
  5
29B86
330
296EB
100
AcDbEntity
  8
DEFPOINTS
 62
     0
 48
50.0
100
AcDbPoint
 10
6520.854682011649
 20
7286.352470292192
 30
0.0
  0
POINT
  5
29B87
330
296EB
100
AcDbEntity
  8
DEFPOINTS
 62
     0
 48
50.0
100
AcDbPoint
 10
6546.819725318591
 20
7286.352470292192
 30
0.0
  0
ENDBLK
  5
296F7
330
296EB
100
AcDbEntity
  8
0
 48
50.0
100
AcDbBlockEnd
  0
BLOCK
  5
29702
330
296F8
100
AcDbEntity
  8
0
 48
50.0
100
AcDbBlockBegin
  2
*D35
 70
     1
 10
0.0
 20
0.0
 30
0.0
  3
*D35
  1

  0
LINE
  5
2A414
330
296F8
100
AcDbEntity
  8
寸法
 62
     0
 48
50.0
370
    -2
100
AcDbLine
 10
9453.600000000003
 20
6823.352470292189
 30
0.0
 11
9453.600000000003
 21
8028.961286962438
 31
0.0
  0
LINE
  5
2A415
330
296F8
100
AcDbEntity
  8
寸法
 62
     0
 48
50.0
370
    -2
100
AcDbLine
 10
8633.60000000001
 20
6823.352470292189
 30
0.0
 11
8633.60000000001
 21
8028.961286962438
 31
0.0
  0
LINE
  5
2A416
330
296F8
100
AcDbEntity
  8
寸法
 62
     0
 48
50.0
370
    -2
100
AcDbLine
 10
9453.600000000003
 20
7968.961286962438
 30
0.0
 11
8633.60000000001
 21
7968.961286962438
 31
0.0
  0
INSERT
  5
2A417
330
296F8
100
AcDbEntity
  8
寸法
 62
     0
 48
50.0
370
    -2
100
AcDbBlockReference
  2
_DOTSMALL
 10
9453.600000000003
 20
7968.961286962438
 30
0.0
 41
100.0
 42
100.0
 43
100.0
  0
INSERT
  5
2A418
330
296F8
100
AcDbEntity
  8
寸法
 62
     0
 48
50.0
370
    -2
100
AcDbBlockReference
  2
_DOTSMALL
 10
8633.60000000001
 20
7968.961286962438
 30
0.0
 41
100.0
 42
100.0
 43
100.0
 50
180.0
  0
MTEXT
  5
2A419
330
296F8
100
AcDbEntity
  8
寸法
 62
     7
 48
50.0
100
AcDbMText
 10
9043.600000000006
 20
8068.973097986059
 30
0.0
 40
120.0
 41
0.0
 71
     5
 72
     1
  1
\A1;820
  7
STYLE1
 73
     1
 44
1.0
1001
ACAD
1000
MTEXTBEGIN
1070
    73
1070
     1
1070
    44
1040
1.0
1070
    74
1070
     0
1000
MTEXTEND
  0
POINT
  5
2A41A
330
296F8
100
AcDbEntity
  8
DEFPOINTS
 62
     0
 48
50.0
100
AcDbPoint
 10
9453.600000000003
 20
6803.352470292189
 30
0.0
  0
POINT
  5
2A41B
330
296F8
100
AcDbEntity
  8
DEFPOINTS
 62
     0
 48
50.0
100
AcDbPoint
 10
8633.60000000001
 20
6803.352470292189
 30
0.0
  0
POINT
  5
2A41C
330
296F8
100
AcDbEntity
  8
DEFPOINTS
 62
     0
 48
50.0
100
AcDbPoint
 10
8633.60000000001
 20
7968.961286962438
 30
0.0
  0
ENDBLK
  5
29703
330
296F8
100
AcDbEntity
  8
0
 48
50.0
100
AcDbBlockEnd
  0
BLOCK
  5
2970E
330
29704
100
AcDbEntity
  8
0
 48
50.0
100
AcDbBlockBegin
  2
*D36
 70
     1
 10
0.0
 20
0.0
 30
0.0
  3
*D36
  1

  0
LINE
  5
2A3F0
330
29704
100
AcDbEntity
  8
寸法
 62
     0
 48
50.0
370
    -2
100
AcDbLine
 10
11093.6
 20
6823.352470292189
 30
0.0
 11
11093.6
 21
8028.961286962438
 31
0.0
  0
LINE
  5
2A3F1
330
29704
100
AcDbEntity
  8
寸法
 62
     0
 48
50.0
370
    -2
100
AcDbLine
 10
10273.6
 20
6823.352470292189
 30
0.0
 11
10273.6
 21
8028.961286962438
 31
0.0
  0
LINE
  5
2A3F2
330
29704
100
AcDbEntity
  8
寸法
 62
     0
 48
50.0
370
    -2
100
AcDbLine
 10
11093.6
 20
7968.961286962438
 30
0.0
 11
10273.6
 21
7968.961286962438
 31
0.0
  0
INSERT
  5
2A3F3
330
29704
100
AcDbEntity
  8
寸法
 62
     0
 48
50.0
370
    -2
100
AcDbBlockReference
  2
_DOTSMALL
 10
11093.6
 20
7968.961286962438
 30
0.0
 41
100.0
 42
100.0
 43
100.0
  0
INSERT
  5
2A3F4
330
29704
100
AcDbEntity
  8
寸法
 62
     0
 48
50.0
370
    -2
100
AcDbBlockReference
  2
_DOTSMALL
 10
10273.6
 20
7968.961286962438
 30
0.0
 41
100.0
 42
100.0
 43
100.0
 50
180.0
  0
MTEXT
  5
2A3F5
330
29704
100
AcDbEntity
  8
寸法
 62
     7
 48
50.0
100
AcDbMText
 10
10683.6
 20
8068.973097986059
 30
0.0
 40
120.0
 41
0.0
 71
     5
 72
     1
  1
\A1;820
  7
STYLE1
 73
     1
 44
1.0
1001
ACAD
1000
MTEXTBEGIN
1070
    73
1070
     1
1070
    44
1040
1.0
1070
    74
1070
     0
1000
MTEXTEND
  0
POINT
  5
2A3F6
330
29704
100
AcDbEntity
  8
DEFPOINTS
 62
     0
 48
50.0
100
AcDbPoint
 10
11093.6
 20
6803.352470292189
 30
0.0
  0
POINT
  5
2A3F7
330
29704
100
AcDbEntity
  8
DEFPOINTS
 62
     0
 48
50.0
100
AcDbPoint
 10
10273.6
 20
6803.352470292189
 30
0.0
  0
POINT
  5
2A3F8
330
29704
100
AcDbEntity
  8
DEFPOINTS
 62
     0
 48
50.0
100
AcDbPoint
 10
10273.6
 20
7968.961286962438
 30
0.0
  0
ENDBLK
  5
2970F
330
29704
100
AcDbEntity
  8
0
 48
50.0
100
AcDbBlockEnd
  0
BLOCK
  5
2971A
330
29710
100
AcDbEntity
  8
0
 48
50.0
100
AcDbBlockBegin
  2
*D37
 70
     1
 10
0.0
 20
0.0
 30
0.0
  3
*D37
  1

  0
LINE
  5
2A3DE
330
29710
100
AcDbEntity
  8
寸法
 62
     0
 48
50.0
370
    -2
100
AcDbLine
 10
11918.6
 20
7506.352470292189
 30
0.0
 11
11918.6
 21
8028.961286962438
 31
0.0
  0
LINE
  5
2A3DF
330
29710
100
AcDbEntity
  8
寸法
 62
     0
 48
50.0
370
    -2
100
AcDbLine
 10
11093.6
 20
6823.352470292189
 30
0.0
 11
11093.6
 21
8028.961286962438
 31
0.0
  0
LINE
  5
2A3E0
330
29710
100
AcDbEntity
  8
寸法
 62
     0
 48
50.0
370
    -2
100
AcDbLine
 10
11918.6
 20
7968.961286962438
 30
0.0
 11
11093.6
 21
7968.961286962438
 31
0.0
  0
INSERT
  5
2A3E1
330
29710
100
AcDbEntity
  8
寸法
 62
     0
 48
50.0
370
    -2
100
AcDbBlockReference
  2
_DOTSMALL
 10
11918.6
 20
7968.961286962438
 30
0.0
 41
100.0
 42
100.0
 43
100.0
  0
INSERT
  5
2A3E2
330
29710
100
AcDbEntity
  8
寸法
 62
     0
 48
50.0
370
    -2
100
AcDbBlockReference
  2
_DOTSMALL
 10
11093.6
 20
7968.961286962438
 30
0.0
 41
100.0
 42
100.0
 43
100.0
 50
180.0
  0
MTEXT
  5
2A3E3
330
29710
100
AcDbEntity
  8
寸法
 62
     7
 48
50.0
100
AcDbMText
 10
11506.1
 20
8068.973097986059
 30
0.0
 40
120.0
 41
0.0
 71
     5
 72
     1
  1
\A1;825
  7
STYLE1
 73
     1
 44
1.0
1001
ACAD
1000
MTEXTBEGIN
1070
    73
1070
     1
1070
    44
1040
1.0
1070
    74
1070
     0
1000
MTEXTEND
  0
POINT
  5
2A3E4
330
29710
100
AcDbEntity
  8
DEFPOINTS
 62
     0
 48
50.0
100
AcDbPoint
 10
11918.6
 20
7486.352470292189
 30
0.0
  0
POINT
  5
2A3E5
330
29710
100
AcDbEntity
  8
DEFPOINTS
 62
     0
 48
50.0
100
AcDbPoint
 10
11093.6
 20
6803.352470292189
 30
0.0
  0
POINT
  5
2A3E6
330
29710
100
AcDbEntity
  8
DEFPOINTS
 62
     0
 48
50.0
100
AcDbPoint
 10
11093.6
 20
7968.961286962438
 30
0.0
  0
ENDBLK
  5
2971B
330
29710
100
AcDbEntity
  8
0
 48
50.0
100
AcDbBlockEnd
  0
BLOCK
  5
29726
330
2971C
100
AcDbEntity
  8
0
 48
50.0
100
AcDbBlockBegin
  2
*D38
 70
     1
 10
0.0
 20
0.0
 30
0.0
  3
*D38
  1

  0
LINE
  5
2A402
330
2971C
100
AcDbEntity
  8
寸法
 62
     0
 48
50.0
370
    -2
100
AcDbLine
 10
10273.6
 20
6823.352470292189
 30
0.0
 11
10273.6
 21
8028.961286962438
 31
0.0
  0
LINE
  5
2A403
330
2971C
100
AcDbEntity
  8
寸法
 62
     0
 48
50.0
370
    -2
100
AcDbLine
 10
9453.600000000003
 20
6823.352470292189
 30
0.0
 11
9453.600000000003
 21
8028.961286962438
 31
0.0
  0
LINE
  5
2A404
330
2971C
100
AcDbEntity
  8
寸法
 62
     0
 48
50.0
370
    -2
100
AcDbLine
 10
10273.6
 20
7968.961286962438
 30
0.0
 11
9453.600000000003
 21
7968.961286962438
 31
0.0
  0
INSERT
  5
2A405
330
2971C
100
AcDbEntity
  8
寸法
 62
     0
 48
50.0
370
    -2
100
AcDbBlockReference
  2
_DOTSMALL
 10
10273.6
 20
7968.961286962438
 30
0.0
 41
100.0
 42
100.0
 43
100.0
  0
INSERT
  5
2A406
330
2971C
100
AcDbEntity
  8
寸法
 62
     0
 48
50.0
370
    -2
100
AcDbBlockReference
  2
_DOTSMALL
 10
9453.600000000003
 20
7968.961286962438
 30
0.0
 41
100.0
 42
100.0
 43
100.0
 50
180.0
  0
MTEXT
  5
2A407
330
2971C
100
AcDbEntity
  8
寸法
 62
     7
 48
50.0
100
AcDbMText
 10
9863.600000000003
 20
8068.973097986059
 30
0.0
 40
120.0
 41
0.0
 71
     5
 72
     1
  1
\A1;820
  7
STYLE1
 73
     1
 44
1.0
1001
ACAD
1000
MTEXTBEGIN
1070
    73
1070
     1
1070
    44
1040
1.0
1070
    74
1070
     0
1000
MTEXTEND
  0
POINT
  5
2A408
330
2971C
100
AcDbEntity
  8
DEFPOINTS
 62
     0
 48
50.0
100
AcDbPoint
 10
10273.6
 20
6803.352470292189
 30
0.0
  0
POINT
  5
2A409
330
2971C
100
AcDbEntity
  8
DEFPOINTS
 62
     0
 48
50.0
100
AcDbPoint
 10
9453.600000000003
 20
6803.352470292189
 30
0.0
  0
POINT
  5
2A40A
330
2971C
100
AcDbEntity
  8
DEFPOINTS
 62
     0
 48
50.0
100
AcDbPoint
 10
9453.600000000003
 20
7968.961286962438
 30
0.0
  0
ENDBLK
  5
29727
330
2971C
100
AcDbEntity
  8
0
 48
50.0
100
AcDbBlockEnd
  0
BLOCK
  5
29732
330
29728
100
AcDbEntity
  8
0
 48
50.0
100
AcDbBlockBegin
  2
*D39
 70
     1
 10
0.0
 20
0.0
 30
0.0
  3
*D39
  1

  0
LINE
  5
29B51
330
29728
100
AcDbEntity
  8
寸法
 62
     0
 48
50.0
370
    -2
100
AcDbLine
 10
11795.6
 20
7433.352470292189
 30
0.0
 11
11795.6
 21
8272.6189283861
 31
0.0
  0
LINE
  5
29B52
330
29728
100
AcDbEntity
  8
寸法
 62
     0
 48
50.0
370
    -2
100
AcDbLine
 10
9335.600000000003
 20
7433.352470292189
 30
0.0
 11
9335.600000000003
 21
8272.6189283861
 31
0.0
  0
LINE
  5
29B53
330
29728
100
AcDbEntity
  8
寸法
 62
     0
 48
50.0
370
    -2
100
AcDbLine
 10
11795.6
 20
8212.618928386101
 30
0.0
 11
9335.600000000003
 21
8212.618928386101
 31
0.0
  0
INSERT
  5
29B54
330
29728
100
AcDbEntity
  8
寸法
 62
     0
 48
50.0
370
    -2
100
AcDbBlockReference
  2
_DOTSMALL
 10
11795.6
 20
8212.618928386101
 30
0.0
 41
100.0
 42
100.0
 43
100.0
  0
INSERT
  5
29B55
330
29728
100
AcDbEntity
  8
寸法
 62
     0
 48
50.0
370
    -2
100
AcDbBlockReference
  2
_DOTSMALL
 10
9335.600000000003
 20
8212.618928386101
 30
0.0
 41
100.0
 42
100.0
 43
100.0
 50
180.0
  0
MTEXT
  5
29B56
330
29728
100
AcDbEntity
  8
寸法
 62
     7
 48
50.0
100
AcDbMText
 10
10565.6
 20
8312.630739409723
 30
0.0
 40
120.0
 41
0.0
 71
     5
 72
     1
  1
\A1;2460
  7
STYLE1
 73
     1
 44
1.0
1001
ACAD
1000
MTEXTBEGIN
1070
    73
1070
     1
1070
    44
1040
1.0
1070
    74
1070
     0
1000
MTEXTEND
  0
POINT
  5
29B57
330
29728
100
AcDbEntity
  8
DEFPOINTS
 62
     0
 48
50.0
100
AcDbPoint
 10
11795.6
 20
7413.35247029219
 30
0.0
  0
POINT
  5
29B58
330
29728
100
AcDbEntity
  8
DEFPOINTS
 62
     0
 48
50.0
100
AcDbPoint
 10
9335.600000000003
 20
7413.35247029219
 30
0.0
  0
POINT
  5
29B59
330
29728
100
AcDbEntity
  8
DEFPOINTS
 62
     0
 48
50.0
100
AcDbPoint
 10
9335.600000000003
 20
8212.618928386101
 30
0.0
  0
ENDBLK
  5
29733
330
29728
100
AcDbEntity
  8
0
 48
50.0
100
AcDbBlockEnd
  0
BLOCK
  5
2973F
330
29734
100
AcDbEntity
  8
0
 48
50.0
100
AcDbBlockBegin
  2
*D40
 70
     1
 10
0.0
 20
0.0
 30
0.0
  3
*D40
  1

  0
LINE
  5
29B47
330
29734
100
AcDbEntity
  8
寸法
 62
     0
 48
50.0
370
    -2
100
AcDbLine
 10
11918.6
 20
7506.352470292189
 30
0.0
 11
11918.6
 21
8272.6189283861
 31
0.0
  0
LINE
  5
29B48
330
29734
100
AcDbEntity
  8
寸法
 62
     0
 48
50.0
370
    -2
100
AcDbLine
 10
11795.6
 20
7433.352470292189
 30
0.0
 11
11795.6
 21
8272.6189283861
 31
0.0
  0
LINE
  5
29B49
330
29734
100
AcDbEntity
  8
寸法
 62
     0
 48
50.0
370
    -2
100
AcDbLine
 10
11795.6
 20
8212.618928386101
 30
0.0
 11
11918.6
 21
8212.618928386101
 31
0.0
  0
LINE
  5
29B4A
330
29734
100
AcDbEntity
  8
寸法
 62
     0
 48
50.0
370
    -2
100
AcDbLine
 10
11918.6
 20
8212.618928386101
 30
0.0
 11
12330.19188309204
 21
8212.618928386101
 31
0.0
  0
INSERT
  5
29B4B
330
29734
100
AcDbEntity
  8
寸法
 62
     0
 48
50.0
370
    -2
100
AcDbBlockReference
  2
_DOTSMALL
 10
11795.6
 20
8212.618928386101
 30
0.0
 41
100.0
 42
100.0
 43
100.0
 50
180.0
  0
INSERT
  5
29B4C
330
29734
100
AcDbEntity
  8
寸法
 62
     0
 48
50.0
370
    -2
100
AcDbBlockReference
  2
_DOTSMALL
 10
11918.6
 20
8212.618928386101
 30
0.0
 41
100.0
 42
100.0
 43
100.0
  0
MTEXT
  5
29B4D
330
29734
100
AcDbEntity
  8
寸法
 62
     7
 48
50.0
100
AcDbMText
 10
12191.7066017178
 20
8312.630739409723
 30
0.0
 40
120.0
 41
0.0
 71
     5
 72
     1
  1
\A1;123
  7
STYLE1
 73
     1
 44
1.0
1001
ACAD
1000
MTEXTBEGIN
1070
    73
1070
     1
1070
    44
1040
1.0
1070
    74
1070
     0
1000
MTEXTEND
  0
POINT
  5
29B4E
330
29734
100
AcDbEntity
  8
DEFPOINTS
 62
     0
 48
50.0
100
AcDbPoint
 10
11918.6
 20
7486.352470292189
 30
0.0
  0
POINT
  5
29B4F
330
29734
100
AcDbEntity
  8
DEFPOINTS
 62
     0
 48
50.0
100
AcDbPoint
 10
11795.6
 20
7413.35247029219
 30
0.0
  0
POINT
  5
29B50
330
29734
100
AcDbEntity
  8
DEFPOINTS
 62
     0
 48
50.0
100
AcDbPoint
 10
11795.6
 20
8212.618928386101
 30
0.0
  0
ENDBLK
  5
29740
330
29734
100
AcDbEntity
  8
0
 48
50.0
100
AcDbBlockEnd
  0
BLOCK
  5
29759
330
2974E
100
AcDbEntity
  8
0
 48
50.0
100
AcDbBlockBegin
  2
*D41
 70
     1
 10
0.0
 20
0.0
 30
0.0
  3
*D41
  1

  0
LINE
  5
2A5BE
330
2974E
100
AcDbEntity
  8
寸法
 62
     0
 48
50.0
370
    -2
100
AcDbLine
 10
11918.6
 20
6987.718527361765
 30
0.0
 11
11918.6
 21
6930.725263322933
 31
0.0
  0
LINE
  5
2A5BF
330
2974E
100
AcDbEntity
  8
寸法
 62
     0
 48
50.0
370
    -2
100
AcDbLine
 10
11798.6
 20
7010.725263322932
 30
0.0
 11
11798.6
 21
7050.725263322933
 31
0.0
  0
LINE
  5
2A5C0
330
2974E
100
AcDbEntity
  8
寸法
 62
     0
 48
50.0
370
    -2
100
AcDbLine
 10
11798.6
 20
6990.725263322933
 30
0.0
 11
11918.6
 21
6990.725263322933
 31
0.0
  0
LINE
  5
2A5C1
330
2974E
100
AcDbEntity
  8
寸法
 62
     0
 48
50.0
370
    -2
100
AcDbLine
 10
11918.6
 20
6990.725263322933
 30
0.0
 11
12324.7062992126
 21
6990.725263322933
 31
0.0
  0
INSERT
  5
2A5C2
330
2974E
100
AcDbEntity
  8
寸法
 62
     0
 48
50.0
370
    -2
100
AcDbBlockReference
  2
_DOTSMALL
 10
11798.6
 20
6990.725263322933
 30
0.0
 41
100.0
 42
100.0
 43
100.0
 50
180.0
  0
INSERT
  5
2A5C3
330
2974E
100
AcDbEntity
  8
寸法
 62
     0
 48
50.0
370
    -2
100
AcDbBlockReference
  2
_DOTSMALL
 10
11918.6
 20
6990.725263322933
 30
0.0
 41
100.0
 42
100.0
 43
100.0
  0
MTEXT
  5
2A5C4
330
2974E
100
AcDbEntity
  8
寸法
 62
     7
 48
50.0
100
AcDbMText
 10
12188.65905511811
 20
7090.737074346555
 30
0.0
 40
120.0
 41
0.0
 71
     5
 72
     1
  1
\A1;120
  7
STYLE1
 73
     1
 44
1.0
1001
ACAD
1000
MTEXTBEGIN
1070
    73
1070
     1
1070
    44
1040
1.0
1070
    74
1070
     0
1000
MTEXTEND
  0
POINT
  5
2A5C5
330
2974E
100
AcDbEntity
  8
DEFPOINTS
 62
     0
 48
50.0
100
AcDbPoint
 10
11918.6
 20
7007.718527361766
 30
0.0
  0
POINT
  5
2A5C6
330
2974E
100
AcDbEntity
  8
DEFPOINTS
 62
     0
 48
50.0
100
AcDbPoint
 10
11798.6
 20
6990.725263322933
 30
0.0
  0
POINT
  5
2A5C7
330
2974E
100
AcDbEntity
  8
DEFPOINTS
 62
     0
 48
50.0
100
AcDbPoint
 10
11798.6
 20
6990.725263322933
 30
0.0
  0
ENDBLK
  5
2975A
330
2974E
100
AcDbEntity
  8
0
 48
50.0
100
AcDbBlockEnd
  0
BLOCK
  5
2A214
330
2A208
100
AcDbEntity
  8
0
 48
50.0
100
AcDbBlockBegin
  2
*D42
 70
     1
 10
0.0
 20
0.0
 30
0.0
  3
*D42
  1

  0
LINE
  5
2A362
330
2A208
100
AcDbEntity
  8
寸法
 62
     0
 48
50.0
370
    -2
100
AcDbLine
 10
4508.600000000002
 20
5946.352470292186
 30
0.0
 11
3593.721909610673
 21
5946.352470292186
 31
0.0
  0
LINE
  5
2A363
330
2A208
100
AcDbEntity
  8
寸法
 62
     0
 48
50.0
370
    -2
100
AcDbLine
 10
3885.665006330071
 20
5891.352470292211
 30
0.0
 11
3593.721909610673
 21
5891.352470292211
 31
0.0
  0
LINE
  5
2A364
330
2A208
100
AcDbEntity
  8
寸法
 62
     0
 48
50.0
370
    -2
100
AcDbLine
 10
3653.721909610673
 20
5946.352470292186
 30
0.0
 11
3653.721909610673
 21
6046.352470292186
 31
0.0
  0
LINE
  5
2A365
330
2A208
100
AcDbEntity
  8
寸法
 62
     0
 48
50.0
370
    -2
100
AcDbLine
 10
3653.721909610673
 20
5891.352470292211
 30
0.0
 11
3653.721909610673
 21
5791.352470292212
 31
0.0
  0
LINE
  5
2A366
330
2A208
100
AcDbEntity
  8
寸法
 62
     0
 48
50.0
370
    -2
100
AcDbLine
 10
3653.721909610673
 20
5946.352470292186
 30
0.0
 11
3653.721909610673
 21
5891.352470292211
 31
0.0
  0
INSERT
  5
2A367
330
2A208
100
AcDbEntity
  8
寸法
 62
     0
 48
50.0
370
    -2
100
AcDbBlockReference
  2
_DOTSMALL
 10
3653.721909610673
 20
5946.352470292186
 30
0.0
 41
100.0
 42
100.0
 43
100.0
 50
270.0
  0
INSERT
  5
2A368
330
2A208
100
AcDbEntity
  8
寸法
 62
     0
 48
50.0
370
    -2
100
AcDbBlockReference
  2
_DOTSMALL
 10
3653.721909610673
 20
5891.352470292211
 30
0.0
 41
100.0
 42
100.0
 43
100.0
 50
90.0
  0
MTEXT
  5
2A369
330
2A208
100
AcDbEntity
  8
寸法
 62
     7
 48
50.0
100
AcDbMText
 10
3553.721909610672
 20
5918.8524702922
 30
0.0
 40
120.0
 41
0.0
 71
     5
 72
     1
  1
\A1;b
  7
STYLE1
 11
0.0000000000000001
 21
1.0
 31
0.0
 73
     1
 44
1.0
1001
ACAD
1000
MTEXTBEGIN
1070
    73
1070
     1
1070
    44
1040
1.0
1070
    74
1070
     0
1000
MTEXTEND
  0
POINT
  5
2A36A
330
2A208
100
AcDbEntity
  8
DEFPOINTS
 62
     0
 48
50.0
100
AcDbPoint
 10
4528.600000000002
 20
5946.352470292186
 30
0.0
  0
POINT
  5
2A36B
330
2A208
100
AcDbEntity
  8
DEFPOINTS
 62
     0
 48
50.0
100
AcDbPoint
 10
3905.665006330071
 20
5891.352470292211
 30
0.0
  0
POINT
  5
2A36C
330
2A208
100
AcDbEntity
  8
DEFPOINTS
 62
     0
 48
50.0
100
AcDbPoint
 10
3653.721909610673
 20
5891.352470292211
 30
0.0
  0
ENDBLK
  5
2A215
330
2A208
100
AcDbEntity
  8
0
 48
50.0
100
AcDbBlockEnd
  0
BLOCK
  5
2A222
330
2A216
100
AcDbEntity
  8
0
 48
50.0
100
AcDbBlockBegin
  2
*D43
 70
     1
 10
0.0
 20
0.0
 30
0.0
  3
*D43
  1

  0
LINE
  5
2A357
330
2A216
100
AcDbEntity
  8
寸法
 62
     0
 48
50.0
370
    -2
100
AcDbLine
 10
3885.665006330064
 20
7561.352470292193
 30
0.0
 11
3593.721909610673
 21
7561.352470292193
 31
0.0
  0
LINE
  5
2A358
330
2A216
100
AcDbEntity
  8
寸法
 62
     0
 48
50.0
370
    -2
100
AcDbLine
 10
4508.600000000002
 20
7486.352470292186
 30
0.0
 11
3593.721909610673
 21
7486.352470292186
 31
0.0
  0
LINE
  5
2A359
330
2A216
100
AcDbEntity
  8
寸法
 62
     0
 48
50.0
370
    -2
100
AcDbLine
 10
3653.721909610673
 20
7561.352470292193
 30
0.0
 11
3653.721909610673
 21
7661.352470292193
 31
0.0
  0
LINE
  5
2A35A
330
2A216
100
AcDbEntity
  8
寸法
 62
     0
 48
50.0
370
    -2
100
AcDbLine
 10
3653.721909610673
 20
7486.352470292186
 30
0.0
 11
3653.721909610673
 21
7386.352470292187
 31
0.0
  0
LINE
  5
2A35B
330
2A216
100
AcDbEntity
  8
寸法
 62
     0
 48
50.0
370
    -2
100
AcDbLine
 10
3653.721909610673
 20
7561.352470292193
 30
0.0
 11
3653.721909610673
 21
7486.352470292186
 31
0.0
  0
INSERT
  5
2A35C
330
2A216
100
AcDbEntity
  8
寸法
 62
     0
 48
50.0
370
    -2
100
AcDbBlockReference
  2
_DOTSMALL
 10
3653.721909610673
 20
7561.352470292193
 30
0.0
 41
100.0
 42
100.0
 43
100.0
 50
270.0
  0
INSERT
  5
2A35D
330
2A216
100
AcDbEntity
  8
寸法
 62
     0
 48
50.0
370
    -2
100
AcDbBlockReference
  2
_DOTSMALL
 10
3653.721909610673
 20
7486.352470292186
 30
0.0
 41
100.0
 42
100.0
 43
100.0
 50
90.0
  0
MTEXT
  5
2A35E
330
2A216
100
AcDbEntity
  8
寸法
 62
     7
 48
50.0
100
AcDbMText
 10
3553.721909610672
 20
7523.852470292192
 30
0.0
 40
120.0
 41
0.0
 71
     5
 72
     1
  1
\A1;c
  7
STYLE1
 11
0.0000000000000001
 21
1.0
 31
0.0
 73
     1
 44
1.0
1001
ACAD
1000
MTEXTBEGIN
1070
    73
1070
     1
1070
    44
1040
1.0
1070
    74
1070
     0
1000
MTEXTEND
  0
POINT
  5
2A35F
330
2A216
100
AcDbEntity
  8
DEFPOINTS
 62
     0
 48
50.0
100
AcDbPoint
 10
3905.665006330064
 20
7561.352470292193
 30
0.0
  0
POINT
  5
2A360
330
2A216
100
AcDbEntity
  8
DEFPOINTS
 62
     0
 48
50.0
100
AcDbPoint
 10
4528.600000000002
 20
7486.352470292186
 30
0.0
  0
POINT
  5
2A361
330
2A216
100
AcDbEntity
  8
DEFPOINTS
 62
     0
 48
50.0
100
AcDbPoint
 10
3653.721909610673
 20
7486.352470292186
 30
0.0
  0
ENDBLK
  5
2A223
330
2A216
100
AcDbEntity
  8
0
 48
50.0
100
AcDbBlockEnd
  0
BLOCK
  5
2A230
330
2A224
100
AcDbEntity
  8
0
 48
50.0
100
AcDbBlockBegin
  2
*D44
 70
     1
 10
0.0
 20
0.0
 30
0.0
  3
*D44
  1

  0
LINE
  5
2A34C
330
2A224
100
AcDbEntity
  8
寸法
 62
     0
 48
50.0
370
    -2
100
AcDbLine
 10
4483.600000000001
 20
8232.618928386099
 30
0.0
 11
4483.600000000001
 21
8504.572792351108
 31
0.0
  0
LINE
  5
2A34D
330
2A224
100
AcDbEntity
  8
寸法
 62
     0
 48
50.0
370
    -2
100
AcDbLine
 10
4528.600000000002
 20
7506.352470292187
 30
0.0
 11
4528.600000000002
 21
8504.572792351108
 31
0.0
  0
LINE
  5
2A34E
330
2A224
100
AcDbEntity
  8
寸法
 62
     0
 48
50.0
370
    -2
100
AcDbLine
 10
4528.600000000002
 20
8444.572792351108
 30
0.0
 11
4628.600000000002
 21
8444.572792351108
 31
0.0
  0
LINE
  5
2A34F
330
2A224
100
AcDbEntity
  8
寸法
 62
     0
 48
50.0
370
    -2
100
AcDbLine
 10
4483.600000000001
 20
8444.572792351108
 30
0.0
 11
4146.250757595082
 21
8444.572792351108
 31
0.0
  0
LINE
  5
2A350
330
2A224
100
AcDbEntity
  8
寸法
 62
     0
 48
50.0
370
    -2
100
AcDbLine
 10
4528.600000000002
 20
8444.572792351108
 30
0.0
 11
4483.600000000001
 21
8444.572792351108
 31
0.0
  0
INSERT
  5
2A351
330
2A224
100
AcDbEntity
  8
寸法
 62
     0
 48
50.0
370
    -2
100
AcDbBlockReference
  2
_DOTSMALL
 10
4528.600000000002
 20
8444.572792351108
 30
0.0
 41
100.0
 42
100.0
 43
100.0
 50
180.0
  0
INSERT
  5
2A352
330
2A224
100
AcDbEntity
  8
寸法
 62
     0
 48
50.0
370
    -2
100
AcDbBlockReference
  2
_DOTSMALL
 10
4483.600000000001
 20
8444.572792351108
 30
0.0
 41
100.0
 42
100.0
 43
100.0
  0
MTEXT
  5
2A353
330
2A224
100
AcDbEntity
  8
寸法
 62
     7
 48
50.0
100
AcDbMText
 10
4212.425378797541
 20
8544.572792351107
 30
0.0
 40
120.0
 41
0.0
 71
     5
 72
     1
  1
\A1;a
  7
STYLE1
 73
     1
 44
1.0
1001
ACAD
1000
MTEXTBEGIN
1070
    73
1070
     1
1070
    44
1040
1.0
1070
    74
1070
     0
1000
MTEXTEND
  0
POINT
  5
2A354
330
2A224
100
AcDbEntity
  8
DEFPOINTS
 62
     0
 48
50.0
100
AcDbPoint
 10
4483.600000000001
 20
8212.618928386097
 30
0.0
  0
POINT
  5
2A355
330
2A224
100
AcDbEntity
  8
DEFPOINTS
 62
     0
 48
50.0
100
AcDbPoint
 10
4528.600000000002
 20
7486.352470292186
 30
0.0
  0
POINT
  5
2A356
330
2A224
100
AcDbEntity
  8
DEFPOINTS
 62
     0
 48
50.0
100
AcDbPoint
 10
4528.600000000002
 20
8444.572792351108
 30
0.0
  0
ENDBLK
  5
2A231
330
2A224
100
AcDbEntity
  8
0
 48
50.0
100
AcDbBlockEnd
  0
BLOCK
  5
2A23E
330
2A232
100
AcDbEntity
  8
0
 48
50.0
100
AcDbBlockBegin
  2
*D45
 70
     1
 10
0.0
 20
0.0
 30
0.0
  3
*D45
  1

  0
LINE
  5
2A341
330
2A232
100
AcDbEntity
  8
寸法
 62
     0
 48
50.0
370
    -2
100
AcDbLine
 10
11918.6
 20
7506.352470292201
 30
0.0
 11
11918.6
 21
8504.572792351124
 31
0.0
  0
LINE
  5
2A342
330
2A232
100
AcDbEntity
  8
寸法
 62
     0
 48
50.0
370
    -2
100
AcDbLine
 10
11963.6
 20
8232.618928386111
 30
0.0
 11
11963.6
 21
8504.572792351124
 31
0.0
  0
LINE
  5
2A343
330
2A232
100
AcDbEntity
  8
寸法
 62
     0
 48
50.0
370
    -2
100
AcDbLine
 10
11918.6
 20
8444.572792351124
 30
0.0
 11
11818.6
 21
8444.572792351124
 31
0.0
  0
LINE
  5
2A344
330
2A232
100
AcDbEntity
  8
寸法
 62
     0
 48
50.0
370
    -2
100
AcDbLine
 10
11963.6
 20
8444.572792351124
 30
0.0
 11
12300.94924240492
 21
8444.572792351124
 31
0.0
  0
LINE
  5
2A345
330
2A232
100
AcDbEntity
  8
寸法
 62
     0
 48
50.0
370
    -2
100
AcDbLine
 10
11918.6
 20
8444.572792351124
 30
0.0
 11
11963.6
 21
8444.572792351124
 31
0.0
  0
INSERT
  5
2A346
330
2A232
100
AcDbEntity
  8
寸法
 62
     0
 48
50.0
370
    -2
100
AcDbBlockReference
  2
_DOTSMALL
 10
11918.6
 20
8444.572792351124
 30
0.0
 41
100.0
 42
100.0
 43
100.0
  0
INSERT
  5
2A347
330
2A232
100
AcDbEntity
  8
寸法
 62
     0
 48
50.0
370
    -2
100
AcDbBlockReference
  2
_DOTSMALL
 10
11963.6
 20
8444.572792351124
 30
0.0
 41
100.0
 42
100.0
 43
100.0
 50
180.0
  0
MTEXT
  5
2A348
330
2A232
100
AcDbEntity
  8
寸法
 62
     7
 48
50.0
100
AcDbMText
 10
12234.77462120246
 20
8544.572792351123
 30
0.0
 40
120.0
 41
0.0
 71
     5
 72
     1
  1
\A1;a
  7
STYLE1
 73
     1
 44
1.0
1001
ACAD
1000
MTEXTBEGIN
1070
    73
1070
     1
1070
    44
1040
1.0
1070
    74
1070
     0
1000
MTEXTEND
  0
POINT
  5
2A349
330
2A232
100
AcDbEntity
  8
DEFPOINTS
 62
     0
 48
50.0
100
AcDbPoint
 10
11918.6
 20
7486.352470292202
 30
0.0
  0
POINT
  5
2A34A
330
2A232
100
AcDbEntity
  8
DEFPOINTS
 62
     0
 48
50.0
100
AcDbPoint
 10
11963.6
 20
8212.618928386111
 30
0.0
  0
POINT
  5
2A34B
330
2A232
100
AcDbEntity
  8
DEFPOINTS
 62
     0
 48
50.0
100
AcDbPoint
 10
11963.6
 20
8444.572792351124
 30
0.0
  0
ENDBLK
  5
2A23F
330
2A232
100
AcDbEntity
  8
0
 48
50.0
100
AcDbBlockEnd
  0
BLOCK
  5
2A88A
330
2A880
100
AcDbEntity
  8
0
 48
50.0
100
AcDbBlockBegin
  2
*D46
 70
     1
 10
0.0
 20
0.0
 30
0.0
  3
*D46
  1

  0
LINE
  5
2A8CA
330
2A880
100
AcDbEntity
  8
寸法
 62
     0
 48
50.0
370
    -2
100
AcDbLine
 10
6492.805603752272
 20
1882.098479371989
 30
0.0
 11
6492.805603752272
 21
2341.766287288369
 31
0.0
  0
LINE
  5
2A8CB
330
2A880
100
AcDbEntity
  8
寸法
 62
     0
 48
50.0
370
    -2
100
AcDbLine
 10
6300.805603752272
 20
1882.098479371989
 30
0.0
 11
6300.805603752272
 21
2341.766287288369
 31
0.0
  0
LINE
  5
2A8CC
330
2A880
100
AcDbEntity
  8
寸法
 62
     0
 48
50.0
370
    -2
100
AcDbLine
 10
6492.805603752272
 20
2281.76628728837
 30
0.0
 11
6300.805603752272
 21
2281.76628728837
 31
0.0
  0
INSERT
  5
2A8CD
330
2A880
100
AcDbEntity
  8
寸法
 62
     0
 48
50.0
370
    -2
100
AcDbBlockReference
  2
_DOTSMALL
 10
6492.805603752272
 20
2281.76628728837
 30
0.0
 41
100.0
 42
100.0
 43
100.0
  0
INSERT
  5
2A8CE
330
2A880
100
AcDbEntity
  8
寸法
 62
     0
 48
50.0
370
    -2
100
AcDbBlockReference
  2
_DOTSMALL
 10
6300.805603752272
 20
2281.76628728837
 30
0.0
 41
100.0
 42
100.0
 43
100.0
 50
180.0
  0
MTEXT
  5
2A8CF
330
2A880
100
AcDbEntity
  8
寸法
 62
     7
 48
50.0
100
AcDbMText
 10
6396.805603752272
 20
2581.801720359236
 30
0.0
 40
120.0
 41
0.0
 71
     5
 72
     1
  1
\A1;120\P200\P280
  7
STYLE1
 73
     1
 44
1.0
1001
ACAD
1000
MTEXTBEGIN
1070
    73
1070
     1
1070
    44
1040
1.0
1070
    74
1070
     0
1000
MTEXTEND
  0
POINT
  5
2A8D0
330
2A880
100
AcDbEntity
  8
DEFPOINTS
 62
     0
 48
50.0
100
AcDbPoint
 10
6492.805603752272
 20
1862.098479371989
 30
0.0
  0
POINT
  5
2A8D1
330
2A880
100
AcDbEntity
  8
DEFPOINTS
 62
     0
 48
50.0
100
AcDbPoint
 10
6300.805603752272
 20
1862.098479371989
 30
0.0
  0
POINT
  5
2A8D2
330
2A880
100
AcDbEntity
  8
DEFPOINTS
 62
     0
 48
50.0
100
AcDbPoint
 10
6300.805603752272
 20
2281.76628728837
 30
0.0
  0
ENDBLK
  5
2A88B
330
2A880
100
AcDbEntity
  8
0
 48
50.0
100
AcDbBlockEnd
  0
BLOCK
  5
2A896
330
2A88C
100
AcDbEntity
  8
0
 48
50.0
100
AcDbBlockBegin
  2
*D47
 70
     1
 10
0.0
 20
0.0
 30
0.0
  3
*D47
  1

  0
LINE
  5
2A8D3
330
2A88C
100
AcDbEntity
  8
寸法
 62
     0
 48
50.0
370
    -2
100
AcDbLine
 10
6172.805603752272
 20
930.0984793719889
 30
0.0
 11
6172.805603752272
 21
479.6688413668289
 31
0.0
  0
LINE
  5
2A8D4
330
2A88C
100
AcDbEntity
  8
寸法
 62
     0
 48
50.0
370
    -2
100
AcDbLine
 10
6620.805603752272
 20
930.0984793719889
 30
0.0
 11
6620.805603752272
 21
479.6688413668289
 31
0.0
  0
LINE
  5
2A8D5
330
2A88C
100
AcDbEntity
  8
寸法
 62
     0
 48
50.0
370
    -2
100
AcDbLine
 10
6172.805603752272
 20
539.6688413668289
 30
0.0
 11
6620.805603752272
 21
539.6688413668289
 31
0.0
  0
INSERT
  5
2A8D6
330
2A88C
100
AcDbEntity
  8
寸法
 62
     0
 48
50.0
370
    -2
100
AcDbBlockReference
  2
_DOTSMALL
 10
6172.805603752272
 20
539.6688413668289
 30
0.0
 41
100.0
 42
100.0
 43
100.0
 50
180.0
  0
INSERT
  5
2A8D7
330
2A88C
100
AcDbEntity
  8
寸法
 62
     0
 48
50.0
370
    -2
100
AcDbBlockReference
  2
_DOTSMALL
 10
6620.805603752272
 20
539.6688413668289
 30
0.0
 41
100.0
 42
100.0
 43
100.0
  0
MTEXT
  5
2A8D8
330
2A88C
100
AcDbEntity
  8
寸法
 62
     7
 48
50.0
100
AcDbMText
 10
6376.708845074048
 20
639.6688413668289
 30
0.0
 40
120.0
 41
0.0
 71
     5
 72
     1
  1
\A1;300
  7
STYLE1
 73
     1
 44
1.0
1001
ACAD
1000
MTEXTBEGIN
1070
    73
1070
     1
1070
    44
1040
1.0
1070
    74
1070
     0
1000
MTEXTEND
  0
POINT
  5
2A8D9
330
2A88C
100
AcDbEntity
  8
DEFPOINTS
 62
     0
 48
50.0
100
AcDbPoint
 10
6172.805603752272
 20
950.098479371989
 30
0.0
  0
POINT
  5
2A8DA
330
2A88C
100
AcDbEntity
  8
DEFPOINTS
 62
     0
 48
50.0
100
AcDbPoint
 10
6620.805603752272
 20
950.098479371989
 30
0.0
  0
POINT
  5
2A8DB
330
2A88C
100
AcDbEntity
  8
DEFPOINTS
 62
     0
 48
50.0
100
AcDbPoint
 10
6620.805603752272
 20
539.6688413668289
 30
0.0
  0
ENDBLK
  5
2A897
330
2A88C
100
AcDbEntity
  8
0
 48
50.0
100
AcDbBlockEnd
  0
BLOCK
  5
2A8A2
330
2A898
100
AcDbEntity
  8
0
 48
50.0
100
AcDbBlockBegin
  2
*D48
 70
     1
 10
0.0
 20
0.0
 30
0.0
  3
*D48
  1

  0
LINE
  5
2A8DC
330
2A898
100
AcDbEntity
  8
寸法
 62
     0
 48
50.0
370
    -2
100
AcDbLine
 10
6280.805603752272
 20
1862.098479371989
 30
0.0
 11
5505.768365190532
 21
1862.098479371989
 31
0.0
  0
LINE
  5
2A8DD
330
2A898
100
AcDbEntity
  8
寸法
 62
     0
 48
50.0
370
    -2
100
AcDbLine
 10
6072.805603752275
 20
1078.098479371989
 30
0.0
 11
5505.768365190532
 21
1078.098479371989
 31
0.0
  0
LINE
  5
2A8DE
330
2A898
100
AcDbEntity
  8
寸法
 62
     0
 48
50.0
370
    -2
100
AcDbLine
 10
5565.768365190532
 20
1862.098479371989
 30
0.0
 11
5565.768365190532
 21
1078.098479371989
 31
0.0
  0
INSERT
  5
2A8DF
330
2A898
100
AcDbEntity
  8
寸法
 62
     0
 48
50.0
370
    -2
100
AcDbBlockReference
  2
_DOTSMALL
 10
5565.768365190532
 20
1862.098479371989
 30
0.0
 41
100.0
 42
100.0
 43
100.0
 50
90.0
  0
INSERT
  5
2A8E0
330
2A898
100
AcDbEntity
  8
寸法
 62
     0
 48
50.0
370
    -2
100
AcDbBlockReference
  2
_DOTSMALL
 10
5565.768365190532
 20
1078.098479371989
 30
0.0
 41
100.0
 42
100.0
 43
100.0
 50
270.0
  0
MTEXT
  5
2A8E1
330
2A898
100
AcDbEntity
  8
寸法
 62
     7
 48
50.0
100
AcDbMText
 10
5465.768365190531
 20
1449.63862902799
 30
0.0
 40
120.0
 41
0.0
 71
     5
 72
     1
  1
\A1;540
  7
STYLE1
 11
0.0000000000000001
 21
1.0
 31
0.0
 73
     1
 44
1.0
1001
ACAD
1000
MTEXTBEGIN
1070
    73
1070
     1
1070
    44
1040
1.0
1070
    74
1070
     0
1000
MTEXTEND
  0
POINT
  5
2A8E2
330
2A898
100
AcDbEntity
  8
DEFPOINTS
 62
     0
 48
50.0
100
AcDbPoint
 10
6300.805603752272
 20
1862.098479371989
 30
0.0
  0
POINT
  5
2A8E3
330
2A898
100
AcDbEntity
  8
DEFPOINTS
 62
     0
 48
50.0
100
AcDbPoint
 10
6092.805603752275
 20
1078.098479371989
 30
0.0
  0
POINT
  5
2A8E4
330
2A898
100
AcDbEntity
  8
DEFPOINTS
 62
     0
 48
50.0
100
AcDbPoint
 10
5565.768365190532
 20
1078.098479371989
 30
0.0
  0
ENDBLK
  5
2A8A3
330
2A898
100
AcDbEntity
  8
0
 48
50.0
100
AcDbBlockEnd
  0
BLOCK
  5
2A8AE
330
2A8A4
100
AcDbEntity
  8
0
 48
50.0
100
AcDbBlockBegin
  2
*D49
 70
     1
 10
0.0
 20
0.0
 30
0.0
  3
*D49
  1

  0
LINE
  5
2A8E5
330
2A8A4
100
AcDbEntity
  8
寸法
 62
     0
 48
50.0
370
    -2
100
AcDbLine
 10
6152.805603752272
 20
1318.098479371989
 30
0.0
 11
5970.385290019812
 21
1318.098479371989
 31
0.0
  0
LINE
  5
2A8E6
330
2A8A4
100
AcDbEntity
  8
寸法
 62
     0
 48
50.0
370
    -2
100
AcDbLine
 10
6072.805603752275
 20
1078.098479371989
 30
0.0
 11
5970.385290019812
 21
1078.098479371989
 31
0.0
  0
LINE
  5
2A8E7
330
2A8A4
100
AcDbEntity
  8
寸法
 62
     0
 48
50.0
370
    -2
100
AcDbLine
 10
6030.385290019813
 20
1318.098479371989
 30
0.0
 11
6030.385290019813
 21
1078.098479371989
 31
0.0
  0
INSERT
  5
2A8E8
330
2A8A4
100
AcDbEntity
  8
寸法
 62
     0
 48
50.0
370
    -2
100
AcDbBlockReference
  2
_DOTSMALL
 10
6030.385290019813
 20
1318.098479371989
 30
0.0
 41
100.0
 42
100.0
 43
100.0
 50
90.0
  0
INSERT
  5
2A8E9
330
2A8A4
100
AcDbEntity
  8
寸法
 62
     0
 48
50.0
370
    -2
100
AcDbBlockReference
  2
_DOTSMALL
 10
6030.385290019813
 20
1078.098479371989
 30
0.0
 41
100.0
 42
100.0
 43
100.0
 50
270.0
  0
MTEXT
  5
2A8EA
330
2A8A4
100
AcDbEntity
  8
寸法
 62
     7
 48
50.0
100
AcDbMText
 10
5930.385290019813
 20
1198.09847937199
 30
0.0
 40
120.0
 41
0.0
 71
     5
 72
     1
  1
\A1;150
  7
STYLE1
 11
0.0000000000000001
 21
1.0
 31
0.0
 73
     1
 44
1.0
1001
ACAD
1000
MTEXTBEGIN
1070
    73
1070
     1
1070
    44
1040
1.0
1070
    74
1070
     0
1000
MTEXTEND
  0
POINT
  5
2A8EB
330
2A8A4
100
AcDbEntity
  8
DEFPOINTS
 62
     0
 48
50.0
100
AcDbPoint
 10
6172.805603752272
 20
1318.098479371989
 30
0.0
  0
POINT
  5
2A8EC
330
2A8A4
100
AcDbEntity
  8
DEFPOINTS
 62
     0
 48
50.0
100
AcDbPoint
 10
6092.805603752275
 20
1078.098479371989
 30
0.0
  0
POINT
  5
2A8ED
330
2A8A4
100
AcDbEntity
  8
DEFPOINTS
 62
     0
 48
50.0
100
AcDbPoint
 10
6030.385290019813
 20
1078.098479371989
 30
0.0
  0
ENDBLK
  5
2A8AF
330
2A8A4
100
AcDbEntity
  8
0
 48
50.0
100
AcDbBlockEnd
  0
BLOCK
  5
2A8BC
330
2A8B0
100
AcDbEntity
  8
0
 48
50.0
100
AcDbBlockBegin
  2
*D50
 70
     1
 10
0.0
 20
0.0
 30
0.0
  3
*D50
  1

  0
LINE
  5
2A8EE
330
2A8B0
100
AcDbEntity
  8
寸法
 62
     0
 48
50.0
370
    -2
100
AcDbLine
 10
8247.644916929466
 20
1914.85847937199
 30
0.0
 11
9252.768182817337
 21
1914.85847937199
 31
0.0
  0
LINE
  5
2A8EF
330
2A8B0
100
AcDbEntity
  8
寸法
 62
     0
 48
50.0
370
    -2
100
AcDbLine
 10
8434.844916929465
 20
1862.098479371989
 30
0.0
 11
9252.768182817337
 21
1862.098479371988
 31
0.0
  0
LINE
  5
2A8F0
330
2A8B0
100
AcDbEntity
  8
寸法
 62
     0
 48
50.0
370
    -2
100
AcDbLine
 10
9192.768182817337
 20
1914.85847937199
 30
0.0
 11
9192.768182817337
 21
2014.85847937199
 31
0.0
  0
LINE
  5
2A8F1
330
2A8B0
100
AcDbEntity
  8
寸法
 62
     0
 48
50.0
370
    -2
100
AcDbLine
 10
9192.768182817337
 20
1862.098479371988
 30
0.0
 11
9192.768182817337
 21
1130.080672529022
 31
0.0
  0
LINE
  5
2A8F2
330
2A8B0
100
AcDbEntity
  8
寸法
 62
     0
 48
50.0
370
    -2
100
AcDbLine
 10
9192.768182817337
 20
1914.85847937199
 30
0.0
 11
9192.768182817337
 21
1862.098479371988
 31
0.0
  0
INSERT
  5
2A8F3
330
2A8B0
100
AcDbEntity
  8
寸法
 62
     0
 48
50.0
370
    -2
100
AcDbBlockReference
  2
_DOTSMALL
 10
9192.768182817337
 20
1914.85847937199
 30
0.0
 41
100.0
 42
100.0
 43
100.0
 50
270.0
  0
INSERT
  5
2A8F4
330
2A8B0
100
AcDbEntity
  8
寸法
 62
     0
 48
50.0
370
    -2
100
AcDbBlockReference
  2
_DOTSMALL
 10
9192.768182817337
 20
1862.098479371988
 30
0.0
 41
100.0
 42
100.0
 43
100.0
 50
90.0
  0
MTEXT
  5
2A8F5
330
2A8B0
100
AcDbEntity
  8
寸法
 62
     7
 48
50.0
100
AcDbMText
 10
9092.756371793717
 20
1396.089575950506
 30
0.0
 40
120.0
 41
0.0
 71
     5
 72
     1
  1
\A1;20～25
  7
STYLE1
 11
0.0000000000000001
 21
1.0
 31
0.0
 73
     1
 44
1.0
1001
ACAD
1000
MTEXTBEGIN
1070
    73
1070
     1
1070
    44
1040
1.0
1070
    74
1070
     0
1000
MTEXTEND
  0
POINT
  5
2A8F6
330
2A8B0
100
AcDbEntity
  8
DEFPOINTS
 62
     0
 48
50.0
100
AcDbPoint
 10
8227.644916929467
 20
1914.85847937199
 30
0.0
  0
POINT
  5
2A8F7
330
2A8B0
100
AcDbEntity
  8
DEFPOINTS
 62
     0
 48
50.0
100
AcDbPoint
 10
8414.844916929466
 20
1862.098479371989
 30
0.0
  0
POINT
  5
2A8F8
330
2A8B0
100
AcDbEntity
  8
DEFPOINTS
 62
     0
 48
50.0
100
AcDbPoint
 10
9192.768182817337
 20
1862.098479371988
 30
0.0
  0
ENDBLK
  5
2A8BD
330
2A8B0
100
AcDbEntity
  8
0
 48
50.0
100
AcDbBlockEnd
  0
BLOCK
  5
2A8C8
330
2A8BE
100
AcDbEntity
  8
0
 48
50.0
100
AcDbBlockBegin
  2
*D51
 70
     1
 10
0.0
 20
0.0
 30
0.0
  3
*D51
  1

  0
LINE
  5
2A8F9
330
2A8BE
100
AcDbEntity
  8
寸法
 62
     0
 48
50.0
370
    -2
100
AcDbLine
 10
8434.844916929465
 20
1862.098479371989
 30
0.0
 11
8976.713516698309
 21
1862.098479371988
 31
0.0
  0
LINE
  5
2A8FA
330
2A8BE
100
AcDbEntity
  8
寸法
 62
     0
 48
50.0
370
    -2
100
AcDbLine
 10
8434.844916929465
 20
1538.098479371988
 30
0.0
 11
8976.713516698309
 21
1538.098479371988
 31
0.0
  0
LINE
  5
2A8FB
330
2A8BE
100
AcDbEntity
  8
寸法
 62
     0
 48
50.0
370
    -2
100
AcDbLine
 10
8916.71351669831
 20
1862.098479371988
 30
0.0
 11
8916.71351669831
 21
1538.098479371988
 31
0.0
  0
INSERT
  5
2A8FC
330
2A8BE
100
AcDbEntity
  8
寸法
 62
     0
 48
50.0
370
    -2
100
AcDbBlockReference
  2
_DOTSMALL
 10
8916.71351669831
 20
1862.098479371988
 30
0.0
 41
100.0
 42
100.0
 43
100.0
 50
90.0
  0
INSERT
  5
2A8FD
330
2A8BE
100
AcDbEntity
  8
寸法
 62
     0
 48
50.0
370
    -2
100
AcDbBlockReference
  2
_DOTSMALL
 10
8916.71351669831
 20
1538.098479371988
 30
0.0
 41
100.0
 42
100.0
 43
100.0
 50
270.0
  0
MTEXT
  5
2A8FE
330
2A8BE
100
AcDbEntity
  8
寸法
 62
     7
 48
50.0
100
AcDbMText
 10
8816.71351669831
 20
1700.09847937199
 30
0.0
 40
120.0
 41
0.0
 71
     5
 72
     1
  1
\A1;180
  7
STYLE1
 11
0.0000000000000001
 21
1.0
 31
0.0
 73
     1
 44
1.0
1001
ACAD
1000
MTEXTBEGIN
1070
    73
1070
     1
1070
    44
1040
1.0
1070
    74
1070
     0
1000
MTEXTEND
  0
POINT
  5
2A8FF
330
2A8BE
100
AcDbEntity
  8
DEFPOINTS
 62
     0
 48
50.0
100
AcDbPoint
 10
8414.844916929466
 20
1862.098479371989
 30
0.0
  0
POINT
  5
2A900
330
2A8BE
100
AcDbEntity
  8
DEFPOINTS
 62
     0
 48
50.0
100
AcDbPoint
 10
8414.844916929466
 20
1538.098479371988
 30
0.0
  0
POINT
  5
2A901
330
2A8BE
100
AcDbEntity
  8
DEFPOINTS
 62
     0
 48
50.0
100
AcDbPoint
 10
8916.71351669831
 20
1538.098479371988
 30
0.0
  0
ENDBLK
  5
2A8C9
330
2A8BE
100
AcDbEntity
  8
0
 48
50.0
100
AcDbBlockEnd
  0
ENDSEC
  0
SECTION
  2
ENTITIES
  0
MTEXT
  5
763F
330
747D
100
AcDbEntity
  8
0
100
AcDbMText
 10
302.846345836809
 20
280.1983726409901
 30
0.0
 40
3.5
 41
5.323721266742722
 71
     1
 72
     5
  1

  7
MSMINCHO
 73
     1
 44
1.0
1001
ACAD
1000
MTEXTBEGIN
1070
    73
1070
     1
1070
    44
1040
1.0
1070
    74
1070
     0
1000
MTEXTEND
  0
LINE
  5
10B57
330
747D
100
AcDbEntity
  8
補助
  6
PHANTOM
 62
   230
 48
50.0
100
AcDbLine
 10
139.9999999999995
 20
11409.6
 30
0.0
 11
16307.2
 21
11409.6
 31
0.0
  0
LINE
  5
10B59
330
747D
100
AcDbEntity
  8
仕様書枠
  6
Continuous
 48
50.0
100
AcDbLine
 10
13107.2
 20
1200.0
 30
0.0
 11
13107.2
 21
-0.0000000000000729
 31
0.0
  0
LINE
  5
10B5D
330
747D
100
AcDbEntity
  8
仕様書枠
 48
50.0
100
AcDbLine
 10
140.0
 20
0.0
 30
0.0
 11
16307.2
 21
-0.0000000000000909
 31
0.0
  0
LINE
  5
10B5E
330
747D
100
AcDbEntity
  8
補助
  6
PHANTOM
 62
   230
 48
50.0
100
AcDbLine
 10
16307.2
 20
11409.6
 30
0.0
 11
16307.2
 21
1200.0
 31
0.0
  0
LINE
  5
10B6C
330
747D
100
AcDbEntity
  8
仕様書枠
 48
50.0
100
AcDbLine
 10
13107.2
 20
1200.0
 30
0.0
 11
16307.2
 21
1200.0
 31
0.0
  0
TEXT
  5
10B73
330
747D
100
AcDbEntity
  8
文字
 62
     7
 48
50.0
100
AcDbText
 10
13162.9790565769
 20
895.0906074299405
 30
0.0
 40
200.0
  1
基 礎 図
  7
STYLE2
100
AcDbText
  0
LINE
  5
10B7B
330
747D
100
AcDbEntity
  8
仕様書枠
 48
50.0
100
AcDbLine
 10
13107.2
 20
800.0
 30
0.0
 11
14251.2
 21
800.0
 31
0.0
  0
LINE
  5
10B88
330
747D
100
AcDbEntity
  8
仕様書枠
  6
Continuous
 48
50.0
100
AcDbLine
 10
14251.2
 20
1200.0
 30
0.0
 11
14251.2
 21
800.0
 31
0.0
  0
LINE
  5
16462
330
747D
100
AcDbEntity
  8
仕様書枠
 48
50.0
100
AcDbLine
 10
16307.2
 20
1200.0
 30
0.0
 11
16307.2
 21
-0.0000000000000909
 31
0.0
  0
LINE
  5
1903B
330
747D
100
AcDbEntity
  8
補助
  6
PHANTOM
 62
   230
 48
50.0
100
AcDbLine
 10
140.0
 20
0.0
 30
0.0
 11
139.9999999999995
 21
11409.6
 31
0.0
  0
TEXT
  5
1C7A1
330
747D
100
AcDbEntity
  8
文字
 62
     7
 48
50.0
100
AcDbText
 10
13188.16259899338
 20
79.80631269190417
 30
0.0
 40
80.0
  1
※布基礎には換気口を設けてください。
  7
STYLE2
100
AcDbText
  0
TEXT
  5
1C7E7
330
747D
100
AcDbEntity
  8
文字
 62
     7
 48
50.0
100
AcDbText
 10
13188.16259899338
 20
246.7109242801889
 30
0.0
 40
80.0
  1
※寒冷地等は地域の実情に合わせた基礎にして下さい。
  7
STYLE2
100
AcDbText
  0
TEXT
  5
1C7EC
330
747D
100
AcDbEntity
  8
文字
 62
     7
 48
50.0
100
AcDbText
 10
14524.131837222
 20
1031.557706291229
 30
0.0
 40
100.0
  1
<縮尺> S=1/40
  7
STYLE2
100
AcDbText
  0
TEXT
  5
1C7ED
330
747D
100
AcDbEntity
  8
文字
 62
     7
 48
50.0
100
AcDbText
 10
13201.43669998441
 20
477.2740661031257
 30
0.0
 40
160.0
  1
機種名
  7
STYLE2
100
AcDbText
  0
LINE
  5
1C7EF
330
747D
100
AcDbEntity
  8
文字
 62
     7
 48
50.0
100
AcDbLine
 10
13187.2
 20
400.0
 30
0.0
 11
16227.2
 21
400.0
 31
0.0
  0
TEXT
  5
271E7
330
747D
100
AcDbEntity
  8
部品1
100
AcDbText
 10
7020.398178799904
 20
4894.762450550089
 30
0.0
 40
135.0
  1
9連棟・12連棟・15連棟・18連棟
  7
STYLE2
100
AcDbText
  0
TEXT
  5
27754
330
747D
100
AcDbEntity
  8
文字
 62
     7
 48
50.0
100
AcDbText
 10
14271.39351435261
 20
483.8967129911416
 30
0.0
 40
160.0
  1
ＮＸＮ－１２ＤＬ-Ｎ
  7
STYLE2
100
AcDbText
  0
MTEXT
  5
27DA8
330
747D
100
AcDbEntity
  8
寸法
 62
     7
 48
50.0
100
AcDbMText
 10
7976.984919384904
 20
8065.789758569286
 30
0.0
 40
120.0
 41
0.0
 71
     5
 72
     1
  1
\A1;820
  7
STYLE1
 73
     1
 44
1.0
1001
ACAD
1000
MTEXTBEGIN
1070
    73
1070
     1
1070
    44
1040
1.0
1070
    74
1070
     0
1000
MTEXTEND
  0
MTEXT
  5
27DAE
330
747D
100
AcDbEntity
  8
寸法
 62
     7
 48
50.0
100
AcDbMText
 10
7265.036898755098
 20
8300.096317515572
 30
0.0
 40
120.0
 41
0.0
 71
     5
 72
     1
  1
\A1;2460
  7
STYLE1
 73
     1
 44
1.0
1001
ACAD
1000
MTEXTBEGIN
1070
    73
1070
     1
1070
    44
1040
1.0
1070
    74
1070
     0
1000
MTEXTEND
  0
MTEXT
  5
27DAF
330
747D
100
AcDbEntity
  8
寸法
 62
     7
 48
50.0
100
AcDbMText
 10
8480.386216567461
 20
8065.789758569286
 30
0.0
 40
120.0
 41
0.0
 71
     5
 72
     1
  1
\A1;820
  7
STYLE1
 73
     1
 44
1.0
1001
ACAD
1000
MTEXTBEGIN
1070
    73
1070
     1
1070
    44
1040
1.0
1070
    74
1070
     0
1000
MTEXTEND
  0
MTEXT
  5
27DB0
330
747D
100
AcDbEntity
  8
寸法
 62
     7
 48
50.0
100
AcDbMText
 10
9000.799137359477
 20
8300.096317515572
 30
0.0
 40
120.0
 41
0.0
 71
     5
 72
     1
  1
\A1;2460
  7
STYLE1
 73
     1
 44
1.0
1001
ACAD
1000
MTEXTBEGIN
1070
    73
1070
     1
1070
    44
1040
1.0
1070
    74
1070
     0
1000
MTEXTEND
  0
LINE
  5
2949F
330
747D
100
AcDbEntity
  8
寸法
 48
50.0
100
AcDbLine
 10
8353.60000000001
 20
7968.96128696255
 30
0.0
 11
8633.60000000001
 21
7968.96128696255
 31
0.0
  0
TEXT
  5
294A1
330
747D
100
AcDbEntity
  8
寸法
 48
50.0
100
AcDbText
 10
8433.06788145192
 20
5965.033761084928
 30
0.0
 40
120.0
  1
扉面
  7
STYLE1
100
AcDbText
  0
DIMENSION
  5
294A2
330
747D
100
AcDbEntity
  8
寸法
 48
50.0
100
AcDbDimension
  2
*D19
 10
11918.6
 20
8444.572792351108
 30
0.0
 11
8223.600000000002
 21
8544.58460337473
 31
0.0
 70
    32
  1
N X 820+10
 71
     5
 42
7390.0
  3
INABA_S40G
100
AcDbAlignedDimension
 13
4528.600000000002
 23
7486.352470292189
 33
0.0
 14
11918.6
 24
7486.352470292189
 34
0.0
100
AcDbRotatedDimension
1001
ACAD
1000
DSTYLE
1002
{
1070
   341
1005
0
1002
}
  0
DIMENSION
  5
294AA
330
747D
100
AcDbEntity
  8
寸法
 48
50.0
100
AcDbDimension
  2
*D20
 10
6173.60000000001
 20
7968.961286962438
 30
0.0
 11
6583.60000000001
 21
8068.973097986059
 31
0.0
 70
    32
 71
     5
 42
820.0
  3
INABA_S40G
100
AcDbAlignedDimension
 13
6993.600000000009
 23
6803.352470292189
 33
0.0
 14
6173.60000000001
 24
6803.352470292189
 34
0.0
100
AcDbRotatedDimension
1001
ACAD
1000
DSTYLE
1002
{
1070
   341
1005
0
1002
}
  0
DIMENSION
  5
294AB
330
747D
100
AcDbEntity
  8
寸法
 48
50.0
100
AcDbDimension
  2
*D21
 10
6993.600000000009
 20
7968.961286962438
 30
0.0
 11
7403.60000000001
 21
8068.973097986059
 31
0.0
 70
    32
 71
     5
 42
820.0
  3
INABA_S40G
100
AcDbAlignedDimension
 13
7813.600000000009
 23
6803.352470292189
 33
0.0
 14
6993.600000000009
 24
6803.352470292189
 34
0.0
100
AcDbRotatedDimension
1001
ACAD
1000
DSTYLE
1002
{
1070
   341
1005
0
1002
}
  0
DIMENSION
  5
294AC
330
747D
100
AcDbEntity
  8
寸法
 48
50.0
100
AcDbDimension
  2
*D22
 10
5042.442995307158
 20
7486.352470292189
 30
0.0
 11
5042.442995307156
 21
7045.947260986366
 31
0.0
 70
   160
 71
     5
 42
733.0
  3
INABA_S40G
100
AcDbAlignedDimension
 13
5303.60000000001
 23
6753.352470292189
 33
0.0
 14
4972.765475140903
 24
7486.352470292189
 34
0.0
 50
90.0
100
AcDbRotatedDimension
1001
ACAD
1000
DSTYLE
1002
{
1070
   341
1005
0
1002
}
  0
DIMENSION
  5
294AD
330
747D
100
AcDbEntity
  8
寸法
 48
50.0
100
AcDbDimension
  2
*D23
 10
4528.600000000002
 20
7968.961286962438
 30
0.0
 11
4941.100000000005
 21
8068.973097986059
 31
0.0
 70
    32
 71
     5
 42
825.0000000000072
  3
INABA_S40G
100
AcDbAlignedDimension
 13
5353.600000000009
 23
6803.352470292189
 33
0.0
 14
4528.600000000002
 24
7486.352470292189
 34
0.0
100
AcDbRotatedDimension
1001
ACAD
1000
DSTYLE
1002
{
1070
   341
1005
0
1002
}
  0
DIMENSION
  5
294AF
330
747D
100
AcDbEntity
  8
寸法
 48
50.0
100
AcDbDimension
  2
*D24
 10
3653.721909610676
 20
5946.35247029219
 30
0.0
 11
3653.721909610675
 21
6753.852470292189
 31
0.0
 70
   160
 71
     5
 42
1540.0
  3
INABA_S40G
100
AcDbAlignedDimension
 13
4528.600000000002
 23
7486.352470292189
 33
0.0
 14
4528.600000000002
 24
5946.35247029219
 34
0.0
 50
90.0
100
AcDbRotatedDimension
1001
ACAD
1000
DSTYLE
1002
{
1070
   341
1005
0
1002
}
  0
LINE
  5
294B0
330
747D
100
AcDbEntity
  8
部品1
 48
50.0
100
AcDbLine
 10
4528.600000000002
 20
5946.35247029219
 30
0.0
 11
4528.600000000002
 21
7486.352470292189
 31
0.0
  0
DIMENSION
  5
294B2
330
747D
100
AcDbEntity
  8
寸法
 48
50.0
100
AcDbDimension
  2
*D25
 10
3905.665006330075
 20
6144.352470292194
 30
0.0
 11
3905.665006330073
 21
6753.852470292189
 31
0.0
 70
   160
 71
     5
 42
1218.999999999996
  3
INABA_S40G
100
AcDbAlignedDimension
 13
4601.600000000002
 23
7363.35247029219
 33
0.0
 14
4601.60000000001
 24
6144.352470292194
 34
0.0
 50
90.0
100
AcDbRotatedDimension
1001
ACAD
1000
DSTYLE
1002
{
1070
   341
1005
0
1002
}
  0
DIMENSION
  5
294B3
330
747D
100
AcDbEntity
  8
寸法
 48
50.0
100
AcDbDimension
  2
*D26
 10
5353.600000000009
 20
7968.961286962438
 30
0.0
 11
5763.60000000001
 21
8068.973097986059
 31
0.0
 70
    32
 71
     5
 42
820.0
  3
INABA_S40G
100
AcDbAlignedDimension
 13
6173.60000000001
 23
6803.352470292189
 33
0.0
 14
5353.600000000009
 24
6803.352470292189
 34
0.0
100
AcDbRotatedDimension
1001
ACAD
1000
DSTYLE
1002
{
1070
   341
1005
0
1002
}
  0
LINE
  5
294B5
102
{ACAD_REACTORS
330
2A956
102
}
330
747D
100
AcDbEntity
  8
部品1
 48
50.0
100
AcDbLine
 10
11918.6
 20
5946.352470292225
 30
0.0
 11
4528.599999999995
 21
5946.352470292186
 31
0.0
  0
ARC
  5
294B7
330
747D
100
AcDbEntity
  8
想像線
 48
5.0
100
AcDbCircle
 10
5298.600000000003
 20
5946.352470292193
 30
0.0
 40
720.0
100
AcDbArc
 50
180.0
 51
270.0
  0
DIMENSION
  5
294B8
330
747D
100
AcDbEntity
  8
寸法
 48
50.0
100
AcDbDimension
  2
*D27
 10
5042.442995307158
 20
6753.352470292189
 30
0.0
 11
5042.442995307156
 21
6431.352470292189
 31
0.0
 70
   160
 71
     5
 42
806.999999999989
  3
INABA_S40G
100
AcDbAlignedDimension
 13
4972.765475140903
 23
5946.3524702922
 33
0.0
 14
5303.60000000001
 24
6753.352470292189
 34
0.0
 50
90.0
100
AcDbRotatedDimension
1001
ACAD
1000
DSTYLE
1002
{
1070
   341
1005
0
1002
}
  0
DIMENSION
  5
294BA
330
747D
100
AcDbEntity
  8
寸法
 48
50.0
100
AcDbDimension
  2
*D28
 10
3905.665006330075
 20
5946.35247029219
 30
0.0
 11
3905.665006330073
 21
5610.821521449597
 31
0.0
 70
   160
 71
     5
 42
198.0000000000036
  3
INABA_S40G
100
AcDbAlignedDimension
 13
4601.60000000001
 23
6144.352470292194
 33
0.0
 14
4528.600000000002
 24
5946.35247029219
 34
0.0
 50
90.0
100
AcDbRotatedDimension
1001
ACAD
1000
DSTYLE
1002
{
1070
   341
1005
0
1002
}
  0
DIMENSION
  5
294BB
330
747D
100
AcDbEntity
  8
寸法
 48
50.0
100
AcDbDimension
  2
*D29
 10
4415.512673767881
 20
5226.352470292186
 30
0.0
 11
4415.512673767881
 21
5586.352470292187
 31
0.0
 70
   160
  1
扉の出<>
 71
     5
 42
720.0
  3
INABA_S40G
100
AcDbAlignedDimension
 13
4528.600000000002
 23
5946.352470292186
 33
0.0
 14
4884.325326928807
 24
5226.352470292186
 34
0.0
 50
90.0
100
AcDbRotatedDimension
1001
ACAD
1000
DSTYLE
1002
{
1070
   341
1005
0
1002
}
  0
CIRCLE
  5
294BC
330
747D
100
AcDbEntity
  8
部品1
 48
50.0
100
AcDbCircle
 10
4651.599999999994
 20
6144.352470292194
 30
0.0
 40
35.0
  0
LINE
  5
294BD
330
747D
100
AcDbEntity
  8
センター
 48
2.0
100
AcDbLine
 10
4601.60000000001
 20
6144.352470292194
 30
0.0
 11
4701.600000000009
 21
6144.352470292194
 31
0.0
  0
LINE
  5
294BE
330
747D
100
AcDbEntity
  8
センター
 48
2.0
100
AcDbLine
 10
4651.600000000009
 20
6194.352470292193
 30
0.0
 11
4651.600000000009
 21
6094.352470292193
 31
0.0
  0
LINE
  5
294BF
330
747D
100
AcDbEntity
  8
細線
 48
50.0
100
AcDbLine
 10
4979.592381674578
 20
5946.352470292188
 30
0.0
 11
5043.788016725464
 21
6010.548105343074
 31
0.0
  0
LINE
  5
294C0
330
747D
100
AcDbEntity
  8
細線
 48
50.0
100
AcDbLine
 10
4934.69110106923
 20
5946.352470292186
 30
0.0
 11
5043.788016725462
 21
6055.449385948419
 31
0.0
  0
LINE
  5
294C1
330
747D
100
AcDbEntity
  8
細線
 48
50.0
100
AcDbLine
 10
4889.789820463882
 20
5946.352470292186
 30
0.0
 11
5043.788016725462
 21
6100.350666553763
 31
0.0
  0
LINE
  5
294C2
330
747D
100
AcDbEntity
  8
細線
 48
50.0
100
AcDbLine
 10
4844.888539858537
 20
5946.352470292186
 30
0.0
 11
5043.788016725461
 21
6145.25194715911
 31
0.0
  0
LINE
  5
294C3
330
747D
100
AcDbEntity
  8
細線
 48
50.0
100
AcDbLine
 10
4843.788016725465
 20
5990.153227764459
 30
0.0
 11
5043.78801672546
 21
6190.153227764453
 31
0.0
  0
LINE
  5
294C4
330
747D
100
AcDbEntity
  8
部品1
 48
50.0
100
AcDbLine
 10
4843.788016725459
 20
6226.352470292184
 30
0.0
 11
4843.788016725465
 21
5946.352470292184
 31
0.0
  0
LINE
  5
294C5
330
747D
100
AcDbEntity
  8
部品1
 48
50.0
100
AcDbLine
 10
5043.788016725457
 20
6226.352470292184
 30
0.0
 11
5043.788016725465
 21
5946.352470292188
 31
0.0
  0
LINE
  5
294C6
330
747D
100
AcDbEntity
  8
細線
 48
50.0
100
AcDbLine
 10
5024.493662279923
 20
5946.35247029219
 30
0.0
 11
5043.788016725466
 21
5965.646824737731
 31
0.0
  0
LINE
  5
294C7
330
747D
100
AcDbEntity
  8
細線
 48
50.0
100
AcDbLine
 10
4843.788016725462
 20
6035.054508369801
 30
0.0
 11
5035.085978647845
 21
6226.352470292184
 31
0.0
  0
LINE
  5
294C8
330
747D
100
AcDbEntity
  8
細線
 48
50.0
100
AcDbLine
 10
4843.78801672546
 20
6079.955788975147
 30
0.0
 11
4990.184698042497
 21
6226.352470292184
 31
0.0
  0
LINE
  5
294C9
330
747D
100
AcDbEntity
  8
細線
 48
50.0
100
AcDbLine
 10
4843.78801672546
 20
6169.758350185837
 30
0.0
 11
4900.382136831808
 21
6226.352470292185
 31
0.0
  0
LINE
  5
294CA
330
747D
100
AcDbEntity
  8
細線
 48
50.0
100
AcDbLine
 10
4843.78801672546
 20
6124.857069580492
 30
0.0
 11
4945.283417437148
 21
6226.352470292184
 31
0.0
  0
LINE
  5
294CB
330
747D
100
AcDbEntity
  8
細線
 48
50.0
100
AcDbLine
 10
4531.280033447561
 20
6641.352470292201
 30
0.0
 11
4648.6
 21
6758.67243684464
 31
0.0
  0
LINE
  5
294CC
330
747D
100
AcDbEntity
  8
細線
 48
50.0
100
AcDbLine
 10
4528.600000000004
 20
6683.573717449988
 30
0.0
 11
4648.6
 21
6803.573717449985
 31
0.0
  0
LINE
  5
294CD
330
747D
100
AcDbEntity
  8
細線
 48
50.0
100
AcDbLine
 10
4528.600000000004
 20
6728.474998055336
 30
0.0
 11
4641.477472236869
 21
6841.352470292202
 31
0.0
  0
LINE
  5
294CE
330
747D
100
AcDbEntity
  8
細線
 48
50.0
100
AcDbLine
 10
4528.600000000002
 20
6773.376278660679
 30
0.0
 11
4596.576191631524
 21
6841.3524702922
 31
0.0
  0
LINE
  5
294CF
330
747D
100
AcDbEntity
  8
細線
 48
50.0
100
AcDbLine
 10
4528.600000000002
 20
6818.277559266025
 30
0.0
 11
4551.67491102618
 21
6841.352470292202
 31
0.0
  0
LINE
  5
294D0
330
747D
100
AcDbEntity
  8
部品1
 48
50.0
100
AcDbLine
 10
4648.6
 20
6841.352470292202
 30
0.0
 11
4528.600000000002
 21
6841.352470292202
 31
0.0
  0
LINE
  5
294D1
330
747D
100
AcDbEntity
  8
部品1
 48
50.0
100
AcDbLine
 10
4648.600000000002
 20
6641.352470292203
 30
0.0
 11
4528.600000000002
 21
6641.352470292201
 31
0.0
  0
LINE
  5
294D2
330
747D
100
AcDbEntity
  8
細線
 48
50.0
100
AcDbLine
 10
4621.082594658251
 20
6641.352470292201
 30
0.0
 11
4648.6
 21
6668.869875633946
 31
0.0
  0
LINE
  5
294D3
330
747D
100
AcDbEntity
  8
細線
 48
50.0
100
AcDbLine
 10
4576.181314052906
 20
6641.352470292201
 30
0.0
 11
4648.6
 21
6713.771156239296
 31
0.0
  0
LINE
  5
294D4
330
747D
100
AcDbEntity
  8
想像線
 48
5.0
100
AcDbLine
 10
5298.600000000003
 20
5946.352470292204
 30
0.0
 11
5298.600000000003
 21
5226.352470292193
 31
0.0
  0
DIMENSION
  5
294D5
330
747D
100
AcDbEntity
  8
寸法
 48
50.0
100
AcDbDimension
  2
*D30
 10
6546.819725318591
 20
5946.352470292215
 30
0.0
 11
6546.819725318591
 21
5659.388887615013
 31
0.0
 70
   160
 71
     5
 42
279.99999999997
  3
INABA_S40G
100
AcDbAlignedDimension
 13
6683.788016725457
 23
6226.352470292184
 33
0.0
 14
6683.788016725467
 24
5946.352470292215
 34
0.0
 50
90.0
100
AcDbRotatedDimension
1001
ACAD
1000
DSTYLE
1002
{
1070
   341
1005
0
1002
}
  0
LINE
  5
294E2
330
747D
100
AcDbEntity
  8
部品1
 48
50.0
100
AcDbLine
 10
5453.600000000009
 20
6853.35247029219
 30
0.0
 11
5253.600000000009
 21
6853.35247029219
 31
0.0
  0
LINE
  5
294E3
330
747D
100
AcDbEntity
  8
部品1
 48
50.0
100
AcDbLine
 10
5453.600000000009
 20
6653.35247029219
 30
0.0
 11
5253.600000000009
 21
6653.35247029219
 31
0.0
  0
LINE
  5
294E4
330
747D
100
AcDbEntity
  8
センター
 48
2.0
100
AcDbLine
 10
5303.60000000001
 20
6753.352470292189
 30
0.0
 11
5403.600000000009
 21
6753.352470292189
 31
0.0
  0
LINE
  5
294E5
330
747D
100
AcDbEntity
  8
センター
 48
2.0
100
AcDbLine
 10
5353.600000000009
 20
6803.352470292189
 30
0.0
 11
5353.600000000009
 21
6703.352470292189
 31
0.0
  0
LINE
  5
294E6
330
747D
100
AcDbEntity
  8
部品1
 48
50.0
100
AcDbLine
 10
5253.600000000009
 20
6653.35247029219
 30
0.0
 11
5253.600000000009
 21
6853.35247029219
 31
0.0
  0
LINE
  5
294E7
330
747D
100
AcDbEntity
  8
部品1
 48
50.0
100
AcDbLine
 10
5453.600000000009
 20
6653.35247029219
 30
0.0
 11
5453.600000000009
 21
6853.35247029219
 31
0.0
  0
LINE
  5
294F4
330
747D
100
AcDbEntity
  8
センター
 48
2.0
100
AcDbLine
 10
6123.60000000001
 20
6753.352470292189
 30
0.0
 11
6223.60000000001
 21
6753.352470292189
 31
0.0
  0
LINE
  5
294F5
330
747D
100
AcDbEntity
  8
部品1
 48
50.0
100
AcDbLine
 10
6273.600000000009
 20
6653.35247029219
 30
0.0
 11
6073.600000000009
 21
6653.35247029219
 31
0.0
  0
LINE
  5
294F6
330
747D
100
AcDbEntity
  8
部品1
 48
50.0
100
AcDbLine
 10
6273.600000000009
 20
6853.35247029219
 30
0.0
 11
6073.600000000009
 21
6853.35247029219
 31
0.0
  0
LINE
  5
294F7
330
747D
100
AcDbEntity
  8
センター
 48
2.0
100
AcDbLine
 10
6173.60000000001
 20
6803.352470292189
 30
0.0
 11
6173.60000000001
 21
6703.352470292189
 31
0.0
  0
LINE
  5
294F8
330
747D
100
AcDbEntity
  8
部品1
 48
50.0
100
AcDbLine
 10
6073.600000000009
 20
6653.35247029219
 30
0.0
 11
6073.600000000009
 21
6853.35247029219
 31
0.0
  0
LINE
  5
294F9
330
747D
100
AcDbEntity
  8
部品1
 48
50.0
100
AcDbLine
 10
6273.600000000009
 20
6653.35247029219
 30
0.0
 11
6273.600000000009
 21
6853.35247029219
 31
0.0
  0
CIRCLE
  5
294FC
330
747D
100
AcDbEntity
  8
部品1
 48
50.0
100
AcDbCircle
 10
6875.60000000001
 20
6144.352470292194
 30
0.0
 40
35.0
  0
LINE
  5
294FD
330
747D
100
AcDbEntity
  8
センター
 48
2.0
100
AcDbLine
 10
6825.60000000001
 20
6144.352470292194
 30
0.0
 11
6925.600000000009
 21
6144.352470292194
 31
0.0
  0
LINE
  5
294FE
330
747D
100
AcDbEntity
  8
センター
 48
2.0
100
AcDbLine
 10
6875.60000000001
 20
6194.352470292193
 30
0.0
 11
6875.60000000001
 21
6094.352470292193
 31
0.0
  0
LINE
  5
2950B
330
747D
100
AcDbEntity
  8
センター
 48
2.0
100
AcDbLine
 10
6943.600000000009
 20
6753.352470292189
 30
0.0
 11
7043.600000000009
 21
6753.352470292189
 31
0.0
  0
LINE
  5
2950C
330
747D
100
AcDbEntity
  8
部品1
 48
50.0
100
AcDbLine
 10
7093.600000000009
 20
6653.35247029219
 30
0.0
 11
6893.600000000009
 21
6653.35247029219
 31
0.0
  0
LINE
  5
2950D
330
747D
100
AcDbEntity
  8
部品1
 48
50.0
100
AcDbLine
 10
7093.600000000009
 20
6853.35247029219
 30
0.0
 11
6893.600000000009
 21
6853.35247029219
 31
0.0
  0
LINE
  5
2950E
330
747D
100
AcDbEntity
  8
センター
 48
2.0
100
AcDbLine
 10
6993.600000000009
 20
6803.352470292189
 30
0.0
 11
6993.600000000009
 21
6703.352470292189
 31
0.0
  0
LINE
  5
2950F
330
747D
100
AcDbEntity
  8
部品1
 48
50.0
100
AcDbLine
 10
6893.600000000009
 20
6653.35247029219
 30
0.0
 11
6893.600000000009
 21
6853.35247029219
 31
0.0
  0
LINE
  5
29510
330
747D
100
AcDbEntity
  8
部品1
 48
50.0
100
AcDbLine
 10
7093.600000000009
 20
6653.35247029219
 30
0.0
 11
7093.600000000009
 21
6853.35247029219
 31
0.0
  0
LINE
  5
29512
102
{ACAD_REACTORS
330
2A956
102
}
330
747D
100
AcDbEntity
  8
部品1
 48
50.0
100
AcDbLine
 10
8323.788016725458
 20
6226.352470292206
 30
0.0
 11
8323.788016725465
 21
5946.352470292188
 31
0.0
  0
LINE
  5
29517
102
{ACAD_REACTORS
330
2A956
102
}
330
747D
100
AcDbEntity
  8
部品1
 48
50.0
100
AcDbLine
 10
8123.788016725454
 20
6226.352470292201
 30
0.0
 11
8123.788016725464
 21
5946.352470292204
 31
0.0
  0
LINE
  5
2951E
330
747D
100
AcDbEntity
  8
センター
 48
2.0
100
AcDbLine
 10
7763.60000000001
 20
6753.352470292189
 30
0.0
 11
7863.600000000009
 21
6753.352470292189
 31
0.0
  0
LINE
  5
2951F
330
747D
100
AcDbEntity
  8
部品1
 48
50.0
100
AcDbLine
 10
7913.600000000009
 20
6653.35247029219
 30
0.0
 11
7713.60000000001
 21
6653.35247029219
 31
0.0
  0
LINE
  5
29520
330
747D
100
AcDbEntity
  8
部品1
 48
50.0
100
AcDbLine
 10
7913.600000000009
 20
6853.35247029219
 30
0.0
 11
7713.60000000001
 21
6853.35247029219
 31
0.0
  0
LINE
  5
29521
330
747D
100
AcDbEntity
  8
センター
 48
2.0
100
AcDbLine
 10
7813.600000000009
 20
6803.352470292189
 30
0.0
 11
7813.600000000009
 21
6703.352470292189
 31
0.0
  0
LINE
  5
29522
330
747D
100
AcDbEntity
  8
部品1
 48
50.0
100
AcDbLine
 10
7713.60000000001
 20
6653.35247029219
 30
0.0
 11
7713.60000000001
 21
6853.35247029219
 31
0.0
  0
LINE
  5
29523
330
747D
100
AcDbEntity
  8
部品1
 48
50.0
100
AcDbLine
 10
7913.600000000009
 20
6653.35247029219
 30
0.0
 11
7913.600000000009
 21
6853.35247029219
 31
0.0
  0
LINE
  5
29529
102
{ACAD_REACTORS
330
2A92F
102
}
330
747D
100
AcDbEntity
  8
部品1
 48
50.0
100
AcDbLine
 10
11798.6
 20
7286.352470292192
 30
0.0
 11
4648.599999999993
 21
7286.35247029219
 31
0.0
  0
LINE
  5
2952A
102
{ACAD_REACTORS
330
2A92F
102
}
330
747D
100
AcDbEntity
  8
部品1
 48
50.0
100
AcDbLine
 10
11918.6
 20
7486.352470292189
 30
0.0
 11
4528.600000000002
 21
7486.352470292189
 31
0.0
  0
DIMENSION
  5
2952B
330
747D
100
AcDbEntity
  8
寸法
 48
50.0
100
AcDbDimension
  2
*D31
 10
4651.600000000001
 20
8212.618928386101
 30
0.0
 11
5763.600000000002
 21
8312.630739409723
 31
0.0
 70
    32
 71
     5
 42
2224.0
  3
INABA_S40G
100
AcDbAlignedDimension
 13
6875.600000000003
 23
7413.35247029219
 33
0.0
 14
4651.600000000001
 24
7413.35247029219
 34
0.0
100
AcDbRotatedDimension
1001
ACAD
1000
DSTYLE
1002
{
1070
   341
1005
0
1002
}
  0
DIMENSION
  5
2952E
330
747D
100
AcDbEntity
  8
寸法
 48
50.0
100
AcDbDimension
  2
*D32
 10
4528.600000000002
 20
8212.618928386101
 30
0.0
 11
4255.4933982822
 21
8212.618928386101
 31
0.0
 70
   160
 71
     5
 42
123.0
  3
INABA_S40G
100
AcDbAlignedDimension
 13
4651.600000000001
 23
7413.35247029219
 33
0.0
 14
4528.600000000002
 24
7486.352470292189
 34
0.0
100
AcDbRotatedDimension
1001
ACAD
1000
DSTYLE
1002
{
1070
   341
1005
0
1002
}
  0
DIMENSION
  5
29530
330
747D
100
AcDbEntity
  8
寸法
 48
50.0
100
AcDbDimension
  2
*D33
 10
3905.665006330075
 20
7363.35247029219
 30
0.0
 11
3905.665006330073
 21
7759.45907200999
 31
0.0
 70
   160
 71
     5
 42
123.0
  3
INABA_S40G
100
AcDbAlignedDimension
 13
4528.600000000002
 23
7486.352470292189
 33
0.0
 14
4601.600000000002
 24
7363.35247029219
 34
0.0
 50
90.0
100
AcDbRotatedDimension
1001
ACAD
1000
DSTYLE
1002
{
1070
   341
1005
0
1002
}
  0
LINE
  5
29531
330
747D
100
AcDbEntity
  8
細線
 48
50.0
100
AcDbLine
 10
4843.600000000002
 20
7288.573717449998
 30
0.0
 11
5041.378752842193
 21
7486.352470292188
 31
0.0
  0
LINE
  5
29532
330
747D
100
AcDbEntity
  8
細線
 48
50.0
100
AcDbLine
 10
4843.600000000001
 20
7333.474998055338
 30
0.0
 11
4996.47747223685
 21
7486.352470292189
 31
0.0
  0
LINE
  5
29533
330
747D
100
AcDbEntity
  8
細線
 48
50.0
100
AcDbLine
 10
4843.600000000002
 20
7378.376278660687
 30
0.0
 11
4951.576191631504
 21
7486.352470292189
 31
0.0
  0
LINE
  5
29534
330
747D
100
AcDbEntity
  8
細線
 48
50.0
100
AcDbLine
 10
4843.599999999999
 20
7423.277559266032
 30
0.0
 11
4906.674911026158
 21
7486.352470292189
 31
0.0
  0
LINE
  5
29535
330
747D
100
AcDbEntity
  8
部品1
 48
50.0
100
AcDbLine
 10
4843.599999999998
 20
7486.352470292189
 30
0.0
 11
4843.600000000003
 21
7286.35247029219
 31
0.0
  0
LINE
  5
29536
330
747D
100
AcDbEntity
  8
部品1
 48
50.0
100
AcDbLine
 10
5043.599999999998
 20
7486.352470292189
 30
0.0
 11
5043.600000000004
 21
7286.35247029219
 31
0.0
  0
CIRCLE
  5
29537
330
747D
100
AcDbEntity
  8
部品1
 48
50.0
100
AcDbCircle
 10
4651.600000000001
 20
7363.35247029219
 30
0.0
 40
35.0
  0
LINE
  5
29538
330
747D
100
AcDbEntity
  8
センター
 48
2.0
100
AcDbLine
 10
4601.600000000002
 20
7363.35247029219
 30
0.0
 11
4701.600000000001
 21
7363.35247029219
 31
0.0
  0
LINE
  5
29539
330
747D
100
AcDbEntity
  8
センター
 48
2.0
100
AcDbLine
 10
4651.600000000001
 20
7413.35247029219
 30
0.0
 11
4651.600000000001
 21
7313.352470292191
 31
0.0
  0
LINE
  5
2953A
330
747D
100
AcDbEntity
  8
細線
 48
50.0
100
AcDbLine
 10
4931.181314052884
 20
7286.352470292188
 30
0.0
 11
5043.599999999998
 21
7398.771156239302
 31
0.0
  0
LINE
  5
2953B
330
747D
100
AcDbEntity
  8
細線
 48
50.0
100
AcDbLine
 10
4886.28003344754
 20
7286.352470292188
 30
0.0
 11
5043.599999999998
 21
7443.672436844646
 31
0.0
  0
LINE
  5
2953C
330
747D
100
AcDbEntity
  8
細線
 48
50.0
100
AcDbLine
 10
5020.983875263579
 20
7286.35247029219
 30
0.0
 11
5043.600000000004
 21
7308.968595028613
 31
0.0
  0
LINE
  5
2953D
330
747D
100
AcDbEntity
  8
細線
 48
50.0
100
AcDbLine
 10
4976.082594658236
 20
7286.352470292188
 30
0.0
 11
5043.600000000001
 21
7353.869875633954
 31
0.0
  0
LINE
  5
2953E
330
747D
100
AcDbEntity
  8
細線
 48
50.0
100
AcDbLine
 10
4843.599999999998
 20
7468.178839871376
 30
0.0
 11
4861.773630420813
 21
7486.352470292189
 31
0.0
  0
LINE
  5
2953F
330
747D
100
AcDbEntity
  8
細線
 48
50.0
100
AcDbLine
 10
5663.599999999999
 20
7423.277559266032
 30
0.0
 11
5726.674911026158
 21
7486.352470292189
 31
0.0
  0
LINE
  5
29540
330
747D
100
AcDbEntity
  8
部品1
 48
50.0
100
AcDbLine
 10
5863.599999999999
 20
7486.352470292189
 30
0.0
 11
5863.600000000002
 21
7286.35247029219
 31
0.0
  0
LINE
  5
29541
330
747D
100
AcDbEntity
  8
部品1
 48
50.0
100
AcDbLine
 10
5663.599999999998
 20
7486.352470292189
 30
0.0
 11
5663.600000000003
 21
7286.35247029219
 31
0.0
  0
LINE
  5
29542
330
747D
100
AcDbEntity
  8
細線
 48
50.0
100
AcDbLine
 10
5663.600000000002
 20
7288.573717449998
 30
0.0
 11
5861.378752842193
 21
7486.352470292188
 31
0.0
  0
LINE
  5
29543
330
747D
100
AcDbEntity
  8
細線
 48
50.0
100
AcDbLine
 10
5663.6
 20
7333.474998055338
 30
0.0
 11
5816.477472236849
 21
7486.352470292189
 31
0.0
  0
LINE
  5
29544
330
747D
100
AcDbEntity
  8
細線
 48
50.0
100
AcDbLine
 10
5663.600000000002
 20
7378.376278660687
 30
0.0
 11
5771.576191631504
 21
7486.352470292189
 31
0.0
  0
LINE
  5
29545
330
747D
100
AcDbEntity
  8
細線
 48
50.0
100
AcDbLine
 10
5751.181314052884
 20
7286.352470292188
 30
0.0
 11
5863.599999999999
 21
7398.771156239302
 31
0.0
  0
LINE
  5
29546
330
747D
100
AcDbEntity
  8
細線
 48
50.0
100
AcDbLine
 10
5706.280033447541
 20
7286.352470292188
 30
0.0
 11
5863.599999999999
 21
7443.672436844646
 31
0.0
  0
LINE
  5
29547
330
747D
100
AcDbEntity
  8
細線
 48
50.0
100
AcDbLine
 10
5840.983875263578
 20
7286.35247029219
 30
0.0
 11
5863.600000000002
 21
7308.968595028613
 31
0.0
  0
LINE
  5
29548
330
747D
100
AcDbEntity
  8
細線
 48
50.0
100
AcDbLine
 10
5796.082594658235
 20
7286.352470292188
 30
0.0
 11
5863.600000000002
 21
7353.869875633954
 31
0.0
  0
LINE
  5
29549
330
747D
100
AcDbEntity
  8
細線
 48
50.0
100
AcDbLine
 10
5663.599999999998
 20
7468.178839871376
 30
0.0
 11
5681.773630420813
 21
7486.352470292189
 31
0.0
  0
LINE
  5
2954A
330
747D
100
AcDbEntity
  8
細線
 48
50.0
100
AcDbLine
 10
6483.599999999999
 20
7423.277559266032
 30
0.0
 11
6546.674911026158
 21
7486.352470292189
 31
0.0
  0
LINE
  5
2954B
330
747D
100
AcDbEntity
  8
部品1
 48
50.0
100
AcDbLine
 10
6683.599999999998
 20
7486.352470292189
 30
0.0
 11
6683.600000000002
 21
7286.35247029219
 31
0.0
  0
LINE
  5
2954C
330
747D
100
AcDbEntity
  8
部品1
 48
50.0
100
AcDbLine
 10
6483.599999999999
 20
7486.352470292189
 30
0.0
 11
6483.600000000002
 21
7286.35247029219
 31
0.0
  0
LINE
  5
2954D
330
747D
100
AcDbEntity
  8
細線
 48
50.0
100
AcDbLine
 10
6483.600000000002
 20
7288.573717449998
 30
0.0
 11
6681.378752842192
 21
7486.352470292188
 31
0.0
  0
LINE
  5
2954E
330
747D
100
AcDbEntity
  8
細線
 48
50.0
100
AcDbLine
 10
6483.6
 20
7333.474998055338
 30
0.0
 11
6636.477472236849
 21
7486.352470292189
 31
0.0
  0
LINE
  5
2954F
330
747D
100
AcDbEntity
  8
細線
 48
50.0
100
AcDbLine
 10
6483.600000000002
 20
7378.376278660687
 30
0.0
 11
6591.576191631505
 21
7486.352470292189
 31
0.0
  0
DIMENSION
  5
29550
330
747D
100
AcDbEntity
  8
寸法
 48
50.0
100
AcDbDimension
  2
*D34
 10
6546.819725318591
 20
7286.352470292192
 30
0.0
 11
6546.819725318591
 21
7773.316052969327
 31
0.0
 70
   160
 71
     5
 42
199.9999999999672
  3
INABA_S40G
100
AcDbAlignedDimension
 13
6520.854682011649
 23
7486.352470292159
 33
0.0
 14
6520.854682011649
 24
7286.352470292192
 34
0.0
 50
90.0
100
AcDbRotatedDimension
1001
ACAD
1000
DSTYLE
1002
{
1070
   341
1005
0
1002
}
  0
LINE
  5
29551
330
747D
100
AcDbEntity
  8
細線
 48
50.0
100
AcDbLine
 10
6571.181314052883
 20
7286.352470292188
 30
0.0
 11
6683.599999999998
 21
7398.771156239302
 31
0.0
  0
LINE
  5
29552
330
747D
100
AcDbEntity
  8
細線
 48
50.0
100
AcDbLine
 10
6526.28003344754
 20
7286.352470292188
 30
0.0
 11
6683.599999999998
 21
7443.672436844646
 31
0.0
  0
LINE
  5
29553
330
747D
100
AcDbEntity
  8
細線
 48
50.0
100
AcDbLine
 10
6660.983875263579
 20
7286.35247029219
 30
0.0
 11
6683.600000000002
 21
7308.968595028613
 31
0.0
  0
LINE
  5
29554
330
747D
100
AcDbEntity
  8
細線
 48
50.0
100
AcDbLine
 10
6616.082594658235
 20
7286.352470292188
 30
0.0
 11
6683.600000000002
 21
7353.869875633954
 31
0.0
  0
LINE
  5
29555
330
747D
100
AcDbEntity
  8
細線
 48
50.0
100
AcDbLine
 10
6483.599999999999
 20
7468.178839871376
 30
0.0
 11
6501.773630420814
 21
7486.352470292189
 31
0.0
  0
LINE
  5
29557
330
747D
100
AcDbEntity
  8
細線
 48
50.0
100
AcDbLine
 10
7303.599999999999
 20
7423.277559266032
 30
0.0
 11
7366.674911026159
 21
7486.352470292189
 31
0.0
  0
LINE
  5
29558
330
747D
100
AcDbEntity
  8
細線
 48
50.0
100
AcDbLine
 10
7303.600000000002
 20
7378.376278660687
 30
0.0
 11
7411.576191631503
 21
7486.352470292189
 31
0.0
  0
LINE
  5
29559
330
747D
100
AcDbEntity
  8
細線
 48
50.0
100
AcDbLine
 10
7303.6
 20
7333.474998055338
 30
0.0
 11
7456.47747223685
 21
7486.352470292189
 31
0.0
  0
LINE
  5
2955A
330
747D
100
AcDbEntity
  8
細線
 48
50.0
100
AcDbLine
 10
7303.600000000002
 20
7288.573717449998
 30
0.0
 11
7501.378752842192
 21
7486.352470292188
 31
0.0
  0
LINE
  5
2955B
330
747D
100
AcDbEntity
  8
部品1
 48
50.0
100
AcDbLine
 10
7303.599999999999
 20
7486.352470292189
 30
0.0
 11
7303.600000000002
 21
7286.35247029219
 31
0.0
  0
LINE
  5
2955C
330
747D
100
AcDbEntity
  8
部品1
 48
50.0
100
AcDbLine
 10
7503.599999999998
 20
7486.352470292189
 30
0.0
 11
7503.600000000003
 21
7286.35247029219
 31
0.0
  0
LINE
  5
2955D
330
747D
100
AcDbEntity
  8
センター
 48
2.0
100
AcDbLine
 10
6875.600000000003
 20
7413.35247029219
 30
0.0
 11
6875.600000000003
 21
7313.352470292191
 31
0.0
  0
LINE
  5
2955E
330
747D
100
AcDbEntity
  8
センター
 48
2.0
100
AcDbLine
 10
6825.600000000003
 20
7363.35247029219
 30
0.0
 11
6925.600000000002
 21
7363.35247029219
 31
0.0
  0
CIRCLE
  5
2955F
330
747D
100
AcDbEntity
  8
部品1
 48
50.0
100
AcDbCircle
 10
6875.600000000003
 20
7363.35247029219
 30
0.0
 40
35.0
  0
LINE
  5
29560
330
747D
100
AcDbEntity
  8
細線
 48
50.0
100
AcDbLine
 10
7391.181314052883
 20
7286.352470292188
 30
0.0
 11
7503.599999999998
 21
7398.771156239302
 31
0.0
  0
LINE
  5
29561
330
747D
100
AcDbEntity
  8
細線
 48
50.0
100
AcDbLine
 10
7346.28003344754
 20
7286.352470292188
 30
0.0
 11
7503.599999999998
 21
7443.672436844646
 31
0.0
  0
LINE
  5
29562
330
747D
100
AcDbEntity
  8
細線
 48
50.0
100
AcDbLine
 10
7480.983875263579
 20
7286.35247029219
 30
0.0
 11
7503.600000000003
 21
7308.968595028613
 31
0.0
  0
LINE
  5
29563
330
747D
100
AcDbEntity
  8
細線
 48
50.0
100
AcDbLine
 10
7436.082594658235
 20
7286.352470292188
 30
0.0
 11
7503.600000000003
 21
7353.869875633954
 31
0.0
  0
LINE
  5
29564
330
747D
100
AcDbEntity
  8
細線
 48
50.0
100
AcDbLine
 10
7303.599999999999
 20
7468.178839871376
 30
0.0
 11
7321.773630420814
 21
7486.352470292189
 31
0.0
  0
LINE
  5
29566
102
{ACAD_REACTORS
330
2A92F
102
}
330
747D
100
AcDbEntity
  8
部品1
 48
50.0
100
AcDbLine
 10
8323.599999999998
 20
7486.352470292189
 30
0.0
 11
8323.600000000002
 21
7286.35247029219
 31
0.0
  0
LINE
  5
29567
102
{ACAD_REACTORS
330
2A92F
102
}
330
747D
100
AcDbEntity
  8
部品1
 48
50.0
100
AcDbLine
 10
8123.599999999999
 20
7486.352470292189
 30
0.0
 11
8123.600000000001
 21
7286.35247029219
 31
0.0
  0
LINE
  5
29571
330
747D
100
AcDbEntity
  8
寸法
 48
50.0
100
AcDbLine
 10
7813.600000000009
 20
7968.961286962434
 30
0.0
 11
8093.600000000009
 21
7968.961286962434
 31
0.0
  0
LINE
  5
29573
330
747D
100
AcDbEntity
  8
細線
 48
50.0
100
AcDbLine
 10
8319.429617590342
 20
7484.403335040335
 30
0.0
 11
8321.378752842193
 21
7486.352470292188
 31
0.0
  0
LINE
  5
29574
330
747D
100
AcDbEntity
  8
寸法
 48
50.0
100
AcDbLine
 10
6875.600000000003
 20
8212.618928386101
 30
0.0
 11
7575.644554822073
 21
8212.618928386101
 31
0.0
  0
DIMENSION
  5
29576
330
747D
100
AcDbEntity
  8
寸法
 48
50.0
100
AcDbDimension
  2
*D35
 10
8633.60000000001
 20
7968.961286962438
 30
0.0
 11
9043.600000000006
 21
8068.973097986059
 31
0.0
 70
    32
 71
     5
 42
819.9999999999928
  3
INABA_S40G
100
AcDbAlignedDimension
 13
9453.600000000003
 23
6803.352470292189
 33
0.0
 14
8633.60000000001
 24
6803.352470292189
 34
0.0
100
AcDbRotatedDimension
1001
ACAD
1000
DSTYLE
1002
{
1070
   341
1005
0
1002
}
  0
DIMENSION
  5
29577
330
747D
100
AcDbEntity
  8
寸法
 48
50.0
100
AcDbDimension
  2
*D36
 10
10273.6
 20
7968.961286962438
 30
0.0
 11
10683.6
 21
8068.973097986059
 31
0.0
 70
    32
 71
     5
 42
820.0
  3
INABA_S40G
100
AcDbAlignedDimension
 13
11093.6
 23
6803.352470292189
 33
0.0
 14
10273.6
 24
6803.352470292189
 34
0.0
100
AcDbRotatedDimension
1001
ACAD
1000
DSTYLE
1002
{
1070
   341
1005
0
1002
}
  0
DIMENSION
  5
29578
330
747D
100
AcDbEntity
  8
寸法
 48
50.0
100
AcDbDimension
  2
*D37
 10
11093.6
 20
7968.961286962438
 30
0.0
 11
11506.1
 21
8068.973097986059
 31
0.0
 70
    32
 71
     5
 42
825.0
  3
INABA_S40G
100
AcDbAlignedDimension
 13
11918.6
 23
7486.352470292189
 33
0.0
 14
11093.6
 24
6803.352470292189
 34
0.0
100
AcDbRotatedDimension
1001
ACAD
1000
DSTYLE
1002
{
1070
   341
1005
0
1002
}
  0
DIMENSION
  5
29579
330
747D
100
AcDbEntity
  8
寸法
 48
50.0
100
AcDbDimension
  2
*D38
 10
9453.600000000003
 20
7968.961286962438
 30
0.0
 11
9863.600000000003
 21
8068.973097986059
 31
0.0
 70
    32
 71
     5
 42
820.0
  3
INABA_S40G
100
AcDbAlignedDimension
 13
10273.6
 23
6803.352470292189
 33
0.0
 14
9453.600000000003
 24
6803.352470292189
 34
0.0
100
AcDbRotatedDimension
1001
ACAD
1000
DSTYLE
1002
{
1070
   341
1005
0
1002
}
  0
LINE
  5
2957A
330
747D
100
AcDbEntity
  8
部品1
 48
50.0
100
AcDbLine
 10
11918.6
 20
5946.352470292207
 30
0.0
 11
11918.6
 21
7486.352470292189
 31
0.0
  0
LINE
  5
29580
330
747D
100
AcDbEntity
  8
細線
 48
50.0
100
AcDbLine
 10
8943.788016725465
 20
5990.153227764459
 30
0.0
 11
9143.788016725459
 21
6190.153227764453
 31
0.0
  0
LINE
  5
29581
330
747D
100
AcDbEntity
  8
部品1
 48
50.0
100
AcDbLine
 10
8943.788016725459
 20
6226.352470292209
 30
0.0
 11
8943.788016725466
 21
5946.352470292184
 31
0.0
  0
LINE
  5
29582
330
747D
100
AcDbEntity
  8
部品1
 48
50.0
100
AcDbLine
 10
9143.788016725459
 20
6226.35247029221
 30
0.0
 11
9143.788016725466
 21
5946.352470292188
 31
0.0
  0
LINE
  5
29583
330
747D
100
AcDbEntity
  8
細線
 48
50.0
100
AcDbLine
 10
9034.691101069231
 20
5946.352470292186
 30
0.0
 11
9143.788016725464
 21
6055.449385948419
 31
0.0
  0
LINE
  5
29584
330
747D
100
AcDbEntity
  8
細線
 48
50.0
100
AcDbLine
 10
9079.592381674578
 20
5946.352470292188
 30
0.0
 11
9143.788016725464
 21
6010.548105343074
 31
0.0
  0
LINE
  5
29585
330
747D
100
AcDbEntity
  8
細線
 48
50.0
100
AcDbLine
 10
8989.789820463881
 20
5946.352470292186
 30
0.0
 11
9143.788016725464
 21
6100.350666553763
 31
0.0
  0
LINE
  5
29586
330
747D
100
AcDbEntity
  8
細線
 48
50.0
100
AcDbLine
 10
8944.888539858537
 20
5946.352470292186
 30
0.0
 11
9143.78801672546
 21
6145.25194715911
 31
0.0
  0
LINE
  5
29587
330
747D
100
AcDbEntity
  8
細線
 48
50.0
100
AcDbLine
 10
9124.493662279922
 20
5946.35247029219
 30
0.0
 11
9143.788016725466
 21
5965.646824737731
 31
0.0
  0
LINE
  5
29588
330
747D
100
AcDbEntity
  8
細線
 48
50.0
100
AcDbLine
 10
8943.788016725461
 20
6079.955788975147
 30
0.0
 11
9090.184698042525
 21
6226.352470292211
 31
0.0
  0
LINE
  5
29589
330
747D
100
AcDbEntity
  8
細線
 48
50.0
100
AcDbLine
 10
8943.788016725463
 20
6035.054508369801
 30
0.0
 11
9135.085978647872
 21
6226.352470292211
 31
0.0
  0
LINE
  5
2958A
330
747D
100
AcDbEntity
  8
細線
 48
50.0
100
AcDbLine
 10
8943.788016725459
 20
6169.758350185837
 30
0.0
 11
9000.382136831836
 21
6226.352470292209
 31
0.0
  0
LINE
  5
2958B
330
747D
100
AcDbEntity
  8
細線
 48
50.0
100
AcDbLine
 10
8943.788016725461
 20
6124.857069580492
 30
0.0
 11
9045.283417437174
 21
6226.352470292209
 31
0.0
  0
LINE
  5
2958C
330
747D
100
AcDbEntity
  8
部品1
 48
50.0
100
AcDbLine
 10
8733.600000000009
 20
6853.35247029219
 30
0.0
 11
8533.60000000001
 21
6853.35247029219
 31
0.0
  0
LINE
  5
2958D
330
747D
100
AcDbEntity
  8
部品1
 48
50.0
100
AcDbLine
 10
8733.600000000009
 20
6653.35247029219
 30
0.0
 11
8533.60000000001
 21
6653.35247029219
 31
0.0
  0
LINE
  5
2958E
330
747D
100
AcDbEntity
  8
センター
 48
2.0
100
AcDbLine
 10
8583.600000000009
 20
6753.352470292189
 30
0.0
 11
8683.60000000001
 21
6753.352470292189
 31
0.0
  0
LINE
  5
2958F
330
747D
100
AcDbEntity
  8
部品1
 48
50.0
100
AcDbLine
 10
8533.60000000001
 20
6653.35247029219
 30
0.0
 11
8533.60000000001
 21
6853.35247029219
 31
0.0
  0
LINE
  5
29590
330
747D
100
AcDbEntity
  8
センター
 48
2.0
100
AcDbLine
 10
8633.60000000001
 20
6803.352470292189
 30
0.0
 11
8633.60000000001
 21
6703.352470292189
 31
0.0
  0
LINE
  5
29591
330
747D
100
AcDbEntity
  8
部品1
 48
50.0
100
AcDbLine
 10
8733.600000000009
 20
6653.35247029219
 30
0.0
 11
8733.600000000009
 21
6853.35247029219
 31
0.0
  0
LINE
  5
29592
330
747D
100
AcDbEntity
  8
センター
 48
2.0
100
AcDbLine
 10
9335.600000000003
 20
6194.352470292193
 30
0.0
 11
9335.600000000003
 21
6094.352470292193
 31
0.0
  0
CIRCLE
  5
29593
330
747D
100
AcDbEntity
  8
部品1
 48
50.0
100
AcDbCircle
 10
9335.600000000003
 20
6144.352470292194
 30
0.0
 40
35.0
  0
LINE
  5
29594
330
747D
100
AcDbEntity
  8
センター
 48
2.0
100
AcDbLine
 10
9285.600000000002
 20
6144.352470292194
 30
0.0
 11
9385.600000000001
 21
6144.352470292194
 31
0.0
  0
LINE
  5
295A1
330
747D
100
AcDbEntity
  8
センター
 48
2.0
100
AcDbLine
 10
9403.600000000002
 20
6753.352470292189
 30
0.0
 11
9503.600000000004
 21
6753.352470292189
 31
0.0
  0
LINE
  5
295A2
330
747D
100
AcDbEntity
  8
部品1
 48
50.0
100
AcDbLine
 10
9553.600000000002
 20
6653.35247029219
 30
0.0
 11
9353.600000000003
 21
6653.35247029219
 31
0.0
  0
LINE
  5
295A3
330
747D
100
AcDbEntity
  8
部品1
 48
50.0
100
AcDbLine
 10
9553.600000000002
 20
6853.35247029219
 30
0.0
 11
9353.600000000003
 21
6853.35247029219
 31
0.0
  0
LINE
  5
295A4
330
747D
100
AcDbEntity
  8
センター
 48
2.0
100
AcDbLine
 10
9453.600000000003
 20
6803.352470292189
 30
0.0
 11
9453.600000000003
 21
6703.352470292189
 31
0.0
  0
LINE
  5
295A5
330
747D
100
AcDbEntity
  8
部品1
 48
50.0
100
AcDbLine
 10
9353.600000000003
 20
6653.35247029219
 30
0.0
 11
9353.600000000003
 21
6853.35247029219
 31
0.0
  0
LINE
  5
295A6
330
747D
100
AcDbEntity
  8
部品1
 48
50.0
100
AcDbLine
 10
9553.600000000002
 20
6653.35247029219
 30
0.0
 11
9553.600000000002
 21
6853.35247029219
 31
0.0
  0
LINE
  5
295B3
330
747D
100
AcDbEntity
  8
部品1
 48
50.0
100
AcDbLine
 10
10373.6
 20
6653.35247029219
 30
0.0
 11
10173.6
 21
6653.35247029219
 31
0.0
  0
LINE
  5
295B4
330
747D
100
AcDbEntity
  8
センター
 48
2.0
100
AcDbLine
 10
10223.6
 20
6753.352470292189
 30
0.0
 11
10323.6
 21
6753.352470292189
 31
0.0
  0
LINE
  5
295B5
330
747D
100
AcDbEntity
  8
部品1
 48
50.0
100
AcDbLine
 10
10373.6
 20
6853.35247029219
 30
0.0
 11
10173.6
 21
6853.35247029219
 31
0.0
  0
LINE
  5
295B6
330
747D
100
AcDbEntity
  8
センター
 48
2.0
100
AcDbLine
 10
10273.6
 20
6803.352470292189
 30
0.0
 11
10273.6
 21
6703.352470292189
 31
0.0
  0
LINE
  5
295B7
330
747D
100
AcDbEntity
  8
部品1
 48
50.0
100
AcDbLine
 10
10173.6
 20
6653.35247029219
 30
0.0
 11
10173.6
 21
6853.35247029219
 31
0.0
  0
LINE
  5
295B8
330
747D
100
AcDbEntity
  8
部品1
 48
50.0
100
AcDbLine
 10
10373.6
 20
6653.35247029219
 30
0.0
 11
10373.6
 21
6853.35247029219
 31
0.0
  0
LINE
  5
295C5
330
747D
100
AcDbEntity
  8
部品1
 48
50.0
100
AcDbLine
 10
11193.6
 20
6653.35247029219
 30
0.0
 11
10993.6
 21
6653.35247029219
 31
0.0
  0
LINE
  5
295C6
330
747D
100
AcDbEntity
  8
部品1
 48
50.0
100
AcDbLine
 10
11193.6
 20
6853.35247029219
 30
0.0
 11
10993.6
 21
6853.35247029219
 31
0.0
  0
LINE
  5
295C7
330
747D
100
AcDbEntity
  8
センター
 48
2.0
100
AcDbLine
 10
11043.6
 20
6753.352470292189
 30
0.0
 11
11143.6
 21
6753.352470292189
 31
0.0
  0
LINE
  5
295C8
330
747D
100
AcDbEntity
  8
センター
 48
2.0
100
AcDbLine
 10
11093.6
 20
6803.352470292189
 30
0.0
 11
11093.6
 21
6703.352470292189
 31
0.0
  0
LINE
  5
295C9
330
747D
100
AcDbEntity
  8
部品1
 48
50.0
100
AcDbLine
 10
10993.6
 20
6653.35247029219
 30
0.0
 11
10993.6
 21
6853.35247029219
 31
0.0
  0
LINE
  5
295CA
330
747D
100
AcDbEntity
  8
部品1
 48
50.0
100
AcDbLine
 10
11193.6
 20
6653.35247029219
 30
0.0
 11
11193.6
 21
6853.35247029219
 31
0.0
  0
LINE
  5
295CE
330
747D
100
AcDbEntity
  8
センター
 48
2.0
100
AcDbLine
 10
11795.6
 20
6194.352470292193
 30
0.0
 11
11795.6
 21
6094.352470292193
 31
0.0
  0
CIRCLE
  5
295CF
330
747D
100
AcDbEntity
  8
部品1
 48
50.0
100
AcDbCircle
 10
11795.6
 20
6144.352470292194
 30
0.0
 40
35.0
  0
LINE
  5
295D0
330
747D
100
AcDbEntity
  8
センター
 48
2.0
100
AcDbLine
 10
11745.6
 20
6144.352470292194
 30
0.0
 11
11845.6
 21
6144.352470292194
 31
0.0
  0
LINE
  5
295D1
330
747D
100
AcDbEntity
  8
細線
 48
50.0
100
AcDbLine
 10
11911.08259465825
 20
6641.352470292201
 30
0.0
 11
11918.6
 21
6648.869875633952
 31
0.0
  0
LINE
  5
295D2
330
747D
100
AcDbEntity
  8
細線
 48
50.0
100
AcDbLine
 10
11866.18131405291
 20
6641.352470292201
 30
0.0
 11
11918.6
 21
6693.771156239297
 31
0.0
  0
LINE
  5
295D3
330
747D
100
AcDbEntity
  8
細線
 48
50.0
100
AcDbLine
 10
11821.28003344756
 20
6641.352470292201
 30
0.0
 11
11918.6
 21
6738.672436844641
 31
0.0
  0
LINE
  5
295D4
330
747D
100
AcDbEntity
  8
細線
 48
50.0
100
AcDbLine
 10
11798.6
 20
6663.573717449989
 30
0.0
 11
11918.6
 21
6783.573717449988
 31
0.0
  0
LINE
  5
295D5
330
747D
100
AcDbEntity
  8
細線
 48
50.0
100
AcDbLine
 10
11798.6
 20
6708.474998055329
 30
0.0
 11
11918.6
 21
6828.474998055336
 31
0.0
  0
LINE
  5
295D6
330
747D
100
AcDbEntity
  8
細線
 48
50.0
100
AcDbLine
 10
11798.6
 20
6753.37627866068
 30
0.0
 11
11886.57619163152
 21
6841.3524702922
 31
0.0
  0
LINE
  5
295D7
330
747D
100
AcDbEntity
  8
細線
 48
50.0
100
AcDbLine
 10
11798.6
 20
6798.277559266026
 30
0.0
 11
11841.67491102618
 21
6841.352470292204
 31
0.0
  0
LINE
  5
295D8
330
747D
100
AcDbEntity
  8
部品1
 48
50.0
100
AcDbLine
 10
11918.6
 20
6841.352470292202
 30
0.0
 11
11798.6
 21
6841.352470292202
 31
0.0
  0
LINE
  5
295D9
330
747D
100
AcDbEntity
  8
部品1
 48
50.0
100
AcDbLine
 10
11918.6
 20
6641.352470292201
 30
0.0
 11
11798.6
 21
6641.352470292201
 31
0.0
  0
DIMENSION
  5
295DA
330
747D
100
AcDbEntity
  8
寸法
 48
50.0
100
AcDbDimension
  2
*D39
 10
9335.600000000003
 20
8212.618928386101
 30
0.0
 11
10565.6
 21
8312.630739409723
 31
0.0
 70
    32
 71
     5
 42
2460.0
  3
INABA_S40G
100
AcDbAlignedDimension
 13
11795.6
 23
7413.35247029219
 33
0.0
 14
9335.600000000003
 24
7413.35247029219
 34
0.0
100
AcDbRotatedDimension
1001
ACAD
1000
DSTYLE
1002
{
1070
   341
1005
0
1002
}
  0
LINE
  5
295DB
330
747D
100
AcDbEntity
  8
細線
 48
50.0
100
AcDbLine
 10
8943.599999999999
 20
7423.277559266032
 30
0.0
 11
9006.674911026159
 21
7486.352470292189
 31
0.0
  0
LINE
  5
295DC
330
747D
100
AcDbEntity
  8
部品1
 48
50.0
100
AcDbLine
 10
9143.599999999999
 20
7486.352470292189
 30
0.0
 11
9143.600000000002
 21
7286.35247029219
 31
0.0
  0
LINE
  5
295DD
330
747D
100
AcDbEntity
  8
部品1
 48
50.0
100
AcDbLine
 10
8943.599999999999
 20
7486.352470292189
 30
0.0
 11
8943.600000000001
 21
7286.35247029219
 31
0.0
  0
LINE
  5
295DE
330
747D
100
AcDbEntity
  8
細線
 48
50.0
100
AcDbLine
 10
8943.600000000001
 20
7288.573717449998
 30
0.0
 11
9141.378752842193
 21
7486.352470292188
 31
0.0
  0
LINE
  5
295DF
330
747D
100
AcDbEntity
  8
細線
 48
50.0
100
AcDbLine
 10
8943.600000000001
 20
7333.474998055338
 30
0.0
 11
9096.477472236848
 21
7486.352470292189
 31
0.0
  0
LINE
  5
295E0
330
747D
100
AcDbEntity
  8
細線
 48
50.0
100
AcDbLine
 10
8943.600000000001
 20
7378.376278660687
 30
0.0
 11
9051.576191631504
 21
7486.352470292189
 31
0.0
  0
LINE
  5
295E1
330
747D
100
AcDbEntity
  8
細線
 48
50.0
100
AcDbLine
 10
9031.181314052883
 20
7286.352470292188
 30
0.0
 11
9143.599999999999
 21
7398.771156239302
 31
0.0
  0
LINE
  5
295E2
330
747D
100
AcDbEntity
  8
細線
 48
50.0
100
AcDbLine
 10
8986.28003344754
 20
7286.352470292188
 30
0.0
 11
9143.599999999999
 21
7443.672436844646
 31
0.0
  0
LINE
  5
295E3
330
747D
100
AcDbEntity
  8
細線
 48
50.0
100
AcDbLine
 10
9120.983875263579
 20
7286.35247029219
 30
0.0
 11
9143.600000000002
 21
7308.968595028613
 31
0.0
  0
LINE
  5
295E4
330
747D
100
AcDbEntity
  8
細線
 48
50.0
100
AcDbLine
 10
9076.082594658236
 20
7286.352470292188
 30
0.0
 11
9143.600000000002
 21
7353.869875633954
 31
0.0
  0
LINE
  5
295E5
330
747D
100
AcDbEntity
  8
細線
 48
50.0
100
AcDbLine
 10
8943.599999999999
 20
7468.178839871376
 30
0.0
 11
8961.773630420813
 21
7486.352470292189
 31
0.0
  0
LINE
  5
295E6
330
747D
100
AcDbEntity
  8
細線
 48
50.0
100
AcDbLine
 10
9763.599999999998
 20
7423.277559266032
 30
0.0
 11
9826.674911026159
 21
7486.352470292189
 31
0.0
  0
LINE
  5
295E7
330
747D
100
AcDbEntity
  8
細線
 48
50.0
100
AcDbLine
 10
9763.600000000003
 20
7378.376278660687
 30
0.0
 11
9871.576191631504
 21
7486.352470292189
 31
0.0
  0
LINE
  5
295E8
330
747D
100
AcDbEntity
  8
細線
 48
50.0
100
AcDbLine
 10
9763.600000000002
 20
7333.474998055338
 30
0.0
 11
9916.477472236849
 21
7486.352470292189
 31
0.0
  0
LINE
  5
295E9
330
747D
100
AcDbEntity
  8
細線
 48
50.0
100
AcDbLine
 10
9763.600000000003
 20
7288.573717449998
 30
0.0
 11
9961.378752842193
 21
7486.352470292188
 31
0.0
  0
LINE
  5
295EA
330
747D
100
AcDbEntity
  8
部品1
 48
50.0
100
AcDbLine
 10
9763.599999999998
 20
7486.352470292189
 30
0.0
 11
9763.600000000003
 21
7286.35247029219
 31
0.0
  0
LINE
  5
295EB
330
747D
100
AcDbEntity
  8
部品1
 48
50.0
100
AcDbLine
 10
9963.599999999999
 20
7486.352470292189
 30
0.0
 11
9963.600000000003
 21
7286.35247029219
 31
0.0
  0
LINE
  5
295EC
330
747D
100
AcDbEntity
  8
センター
 48
2.0
100
AcDbLine
 10
9335.600000000003
 20
7413.35247029219
 30
0.0
 11
9335.600000000003
 21
7313.352470292191
 31
0.0
  0
CIRCLE
  5
295ED
330
747D
100
AcDbEntity
  8
部品1
 48
50.0
100
AcDbCircle
 10
9335.600000000003
 20
7363.35247029219
 30
0.0
 40
35.0
  0
LINE
  5
295EE
330
747D
100
AcDbEntity
  8
センター
 48
2.0
100
AcDbLine
 10
9285.600000000002
 20
7363.35247029219
 30
0.0
 11
9385.600000000001
 21
7363.35247029219
 31
0.0
  0
LINE
  5
295EF
330
747D
100
AcDbEntity
  8
細線
 48
50.0
100
AcDbLine
 10
9851.181314052883
 20
7286.352470292188
 30
0.0
 11
9963.599999999999
 21
7398.771156239302
 31
0.0
  0
LINE
  5
295F0
330
747D
100
AcDbEntity
  8
細線
 48
50.0
100
AcDbLine
 10
9806.28003344754
 20
7286.352470292188
 30
0.0
 11
9963.599999999999
 21
7443.672436844646
 31
0.0
  0
LINE
  5
295F1
330
747D
100
AcDbEntity
  8
細線
 48
50.0
100
AcDbLine
 10
9940.983875263579
 20
7286.35247029219
 30
0.0
 11
9963.600000000003
 21
7308.968595028613
 31
0.0
  0
LINE
  5
295F2
330
747D
100
AcDbEntity
  8
細線
 48
50.0
100
AcDbLine
 10
9896.082594658237
 20
7286.352470292188
 30
0.0
 11
9963.600000000003
 21
7353.869875633954
 31
0.0
  0
LINE
  5
295F3
330
747D
100
AcDbEntity
  8
細線
 48
50.0
100
AcDbLine
 10
9763.599999999998
 20
7468.178839871376
 30
0.0
 11
9781.773630420815
 21
7486.352470292189
 31
0.0
  0
LINE
  5
295F4
330
747D
100
AcDbEntity
  8
寸法
 48
50.0
100
AcDbLine
 10
8635.555445177931
 20
8212.618928386213
 30
0.0
 11
9335.600000000003
 21
8212.618928386213
 31
0.0
  0
LINE
  5
295F6
330
747D
100
AcDbEntity
  8
細線
 48
50.0
100
AcDbLine
 10
10583.6
 20
7423.277559266032
 30
0.0
 11
10646.67491102616
 21
7486.352470292189
 31
0.0
  0
LINE
  5
295F7
330
747D
100
AcDbEntity
  8
細線
 48
50.0
100
AcDbLine
 10
10583.6
 20
7378.376278660687
 30
0.0
 11
10691.5761916315
 21
7486.352470292189
 31
0.0
  0
LINE
  5
295F8
330
747D
100
AcDbEntity
  8
細線
 48
50.0
100
AcDbLine
 10
10583.6
 20
7333.474998055338
 30
0.0
 11
10736.47747223685
 21
7486.352470292189
 31
0.0
  0
LINE
  5
295F9
330
747D
100
AcDbEntity
  8
細線
 48
50.0
100
AcDbLine
 10
10583.6
 20
7288.573717449998
 30
0.0
 11
10781.37875284219
 21
7486.352470292188
 31
0.0
  0
LINE
  5
295FA
330
747D
100
AcDbEntity
  8
部品1
 48
50.0
100
AcDbLine
 10
10583.6
 20
7486.352470292189
 30
0.0
 11
10583.6
 21
7286.35247029219
 31
0.0
  0
LINE
  5
295FB
330
747D
100
AcDbEntity
  8
部品1
 48
50.0
100
AcDbLine
 10
10783.6
 20
7486.352470292189
 30
0.0
 11
10783.6
 21
7286.35247029219
 31
0.0
  0
LINE
  5
295FC
330
747D
100
AcDbEntity
  8
細線
 48
50.0
100
AcDbLine
 10
10671.18131405288
 20
7286.352470292188
 30
0.0
 11
10783.6
 21
7398.771156239302
 31
0.0
  0
LINE
  5
295FD
330
747D
100
AcDbEntity
  8
細線
 48
50.0
100
AcDbLine
 10
10626.28003344754
 20
7286.352470292188
 30
0.0
 11
10783.6
 21
7443.672436844646
 31
0.0
  0
LINE
  5
295FE
330
747D
100
AcDbEntity
  8
細線
 48
50.0
100
AcDbLine
 10
10760.98387526358
 20
7286.35247029219
 30
0.0
 11
10783.6
 21
7308.968595028613
 31
0.0
  0
LINE
  5
295FF
330
747D
100
AcDbEntity
  8
細線
 48
50.0
100
AcDbLine
 10
10716.08259465823
 20
7286.352470292188
 30
0.0
 11
10783.6
 21
7353.869875633954
 31
0.0
  0
LINE
  5
29600
330
747D
100
AcDbEntity
  8
細線
 48
50.0
100
AcDbLine
 10
10583.6
 20
7468.178839871376
 30
0.0
 11
10601.77363042081
 21
7486.352470292189
 31
0.0
  0
LINE
  5
29601
330
747D
100
AcDbEntity
  8
細線
 48
50.0
100
AcDbLine
 10
11403.6
 20
7423.277559266032
 30
0.0
 11
11466.67491102616
 21
7486.352470292189
 31
0.0
  0
LINE
  5
29602
330
747D
100
AcDbEntity
  8
部品1
 48
50.0
100
AcDbLine
 10
11603.6
 20
7486.352470292189
 30
0.0
 11
11603.6
 21
7286.35247029219
 31
0.0
  0
LINE
  5
29603
330
747D
100
AcDbEntity
  8
部品1
 48
50.0
100
AcDbLine
 10
11403.6
 20
7486.352470292189
 30
0.0
 11
11403.6
 21
7286.35247029219
 31
0.0
  0
LINE
  5
29604
330
747D
100
AcDbEntity
  8
細線
 48
50.0
100
AcDbLine
 10
11403.6
 20
7288.573717449998
 30
0.0
 11
11601.37875284219
 21
7486.352470292188
 31
0.0
  0
LINE
  5
29605
330
747D
100
AcDbEntity
  8
細線
 48
50.0
100
AcDbLine
 10
11403.6
 20
7333.474998055338
 30
0.0
 11
11556.47747223685
 21
7486.352470292189
 31
0.0
  0
LINE
  5
29606
330
747D
100
AcDbEntity
  8
細線
 48
50.0
100
AcDbLine
 10
11403.6
 20
7378.376278660687
 30
0.0
 11
11511.5761916315
 21
7486.352470292189
 31
0.0
  0
LINE
  5
29607
330
747D
100
AcDbEntity
  8
細線
 48
50.0
100
AcDbLine
 10
11491.18131405288
 20
7286.352470292188
 30
0.0
 11
11603.6
 21
7398.771156239302
 31
0.0
  0
LINE
  5
29608
330
747D
100
AcDbEntity
  8
細線
 48
50.0
100
AcDbLine
 10
11446.28003344754
 20
7286.352470292188
 30
0.0
 11
11603.6
 21
7443.672436844646
 31
0.0
  0
LINE
  5
29609
330
747D
100
AcDbEntity
  8
細線
 48
50.0
100
AcDbLine
 10
11580.98387526358
 20
7286.35247029219
 30
0.0
 11
11603.6
 21
7308.968595028613
 31
0.0
  0
LINE
  5
2960A
330
747D
100
AcDbEntity
  8
細線
 48
50.0
100
AcDbLine
 10
11536.08259465823
 20
7286.352470292188
 30
0.0
 11
11603.6
 21
7353.869875633954
 31
0.0
  0
LINE
  5
2960B
330
747D
100
AcDbEntity
  8
細線
 48
50.0
100
AcDbLine
 10
11403.6
 20
7468.178839871376
 30
0.0
 11
11421.77363042081
 21
7486.352470292189
 31
0.0
  0
DIMENSION
  5
2960C
330
747D
100
AcDbEntity
  8
寸法
 48
50.0
100
AcDbDimension
  2
*D40
 10
11795.6
 20
8212.618928386101
 30
0.0
 11
12191.7066017178
 21
8212.618928386101
 31
0.0
 70
   160
 71
     5
 42
123.0
  3
INABA_S40G
100
AcDbAlignedDimension
 13
11918.6
 23
7486.352470292189
 33
0.0
 14
11795.6
 24
7413.35247029219
 34
0.0
100
AcDbRotatedDimension
1001
ACAD
1000
DSTYLE
1002
{
1070
   341
1005
0
1002
}
  0
DIMENSION
  5
2960E
330
747D
100
AcDbEntity
  8
寸法
 48
50.0
100
AcDbDimension
  2
*D41
 10
11798.6
 20
6990.725263322933
 30
0.0
 11
12188.65905511811
 21
6990.725263322933
 31
0.0
 70
   160
 71
     5
 42
120.0
  3
INABA_S40G
100
AcDbAlignedDimension
 13
11918.6
 23
7007.718527361766
 33
0.0
 14
11798.6
 24
6990.725263322933
 34
0.0
100
AcDbRotatedDimension
1001
ACAD
1000
DSTYLE
1002
{
1070
   341
1005
0
1002
}
  0
LINE
  5
2960F
330
747D
100
AcDbEntity
  8
センター
 48
2.0
100
AcDbLine
 10
11795.6
 20
7413.35247029219
 30
0.0
 11
11795.6
 21
7313.352470292191
 31
0.0
  0
CIRCLE
  5
29610
330
747D
100
AcDbEntity
  8
部品1
 48
50.0
100
AcDbCircle
 10
11795.6
 20
7363.35247029219
 30
0.0
 40
35.0
  0
LINE
  5
29611
330
747D
100
AcDbEntity
  8
センター
 48
2.0
100
AcDbLine
 10
11745.6
 20
7363.35247029219
 30
0.0
 11
11845.6
 21
7363.35247029219
 31
0.0
  0
DIMENSION
  5
2A0DC
330
747D
100
AcDbEntity
  8
寸法
 48
50.0
100
AcDbDimension
  2
*D42
 10
3653.721909610673
 20
5891.352470292211
 30
0.0
 11
3553.721909610672
 21
5918.8524702922
 31
0.0
 70
    32
  1
b
 71
     5
 42
54.99999999997453
  3
INABA_S40G
100
AcDbAlignedDimension
 13
4528.600000000002
 23
5946.352470292186
 33
0.0
 14
3905.665006330071
 24
5891.352470292211
 34
0.0
 50
90.0
100
AcDbRotatedDimension
1001
ACAD
1000
DSTYLE
1002
{
1070
   341
1005
0
1002
}
  0
DIMENSION
  5
2A0DD
330
747D
100
AcDbEntity
  8
寸法
 48
50.0
100
AcDbDimension
  2
*D43
 10
3653.721909610673
 20
7486.352470292186
 30
0.0
 11
3553.721909610672
 21
7523.852470292192
 31
0.0
 70
    32
  1
c
 71
     5
 42
75.00000000000636
  3
INABA_S40G
100
AcDbAlignedDimension
 13
3905.665006330064
 23
7561.352470292193
 33
0.0
 14
4528.600000000002
 24
7486.352470292186
 34
0.0
 50
90.0
100
AcDbRotatedDimension
1001
ACAD
1000
DSTYLE
1002
{
1070
   341
1005
0
1002
}
  0
LINE
  5
2A0DF
330
747D
100
AcDbEntity
  8
想像線
 48
10.0
100
AcDbLine
 10
11963.6
 20
5891.352470292222
 30
0.0
 11
11963.6
 21
7561.352470292208
 31
0.0
  0
LINE
  5
2A0E0
330
747D
100
AcDbEntity
  8
想像線
 48
10.0
100
AcDbLine
 10
4483.599999999994
 20
5891.352470292202
 30
0.0
 11
4483.600000000001
 21
7561.352470292193
 31
0.0
  0
DIMENSION
  5
2A0E2
330
747D
100
AcDbEntity
  8
寸法
 48
50.0
100
AcDbDimension
  2
*D44
 10
4528.600000000002
 20
8444.572792351108
 30
0.0
 11
4212.425378797541
 21
8444.572792351108
 31
0.0
 70
   160
  1
a
 71
     5
 42
45.0
  3
INABA_S40G
100
AcDbAlignedDimension
 13
4483.600000000001
 23
8212.618928386097
 33
0.0
 14
4528.600000000002
 24
7486.352470292186
 34
0.0
100
AcDbRotatedDimension
1001
ACAD
1000
DSTYLE
1002
{
1070
   341
1005
0
1002
}
  0
DIMENSION
  5
2A0E3
330
747D
100
AcDbEntity
  8
寸法
 48
50.0
100
AcDbDimension
  2
*D45
 10
11963.6
 20
8444.572792351124
 30
0.0
 11
12234.77462120246
 21
8444.572792351124
 31
0.0
 70
   160
  1
a
 71
     5
 42
45.0
  3
INABA_S40G
100
AcDbAlignedDimension
 13
11918.6
 23
7486.352470292202
 33
0.0
 14
11963.6
 24
8212.618928386111
 34
0.0
100
AcDbRotatedDimension
1001
ACAD
1000
DSTYLE
1002
{
1070
   341
1005
0
1002
}
  0
LEADER
  5
2A0E4
330
747D
100
AcDbEntity
  8
寸法
 48
50.0
100
AcDbLeader
  3
INABA_S50G
 73
     0
 74
     0
 75
     1
 40
120.0
 41
149.591883092037
 76
     3
 10
11181.95401106101
 20
6745.706487359342
 30
0.0
 10
11309.23681392366
 20
6522.988173804517
 30
0.0
 10
11434.23681392366
 20
6522.988173804517
 30
0.0
340
2A0E5
1001
ACAD
1000
DSTYLE
1002
{
1070
   341
1005
0
1070
    40
1040
1.0
1070
   343
1005
0
1070
   344
1005
0
1002
}
  0
MTEXT
  5
2A0E5
102
{ACAD_REACTORS
330
2A0E4
102
}
330
747D
100
AcDbEntity
  8
部品1
 62
     7
 48
50.0
100
AcDbMText
 10
11608.82869701569
 20
6607.988173804516
 30
0.0
 40
120.0
 41
0.0
 71
     6
 72
     1
  1
CB
  7
STYLE1
 73
     1
 44
1.0
1001
ACAD
1000
MTEXTBEGIN
1070
    73
1070
     1
1070
    44
1040
1.0
1070
    74
1070
     0
1000
MTEXTEND
  0
LEADER
  5
2A0E6
330
747D
100
AcDbEntity
  8
寸法
 48
50.0
100
AcDbLeader
  3
INABA_S50G
 73
     0
 74
     0
 75
     1
 40
120.0
 41
994.3492424049171
 76
     3
 10
11795.680085757
 20
7363.560314650917
 30
0.0
 10
11969.64598830496
 20
7716.965214534714
 30
0.0
 10
12094.64598830496
 20
7716.965214534714
 30
0.0
340
2A0E7
1001
ACAD
1000
DSTYLE
1002
{
1070
   341
1005
0
1070
    40
1040
1.0
1070
   343
1005
0
1070
   344
1005
0
1002
}
  0
MTEXT
  5
2A0E7
102
{ACAD_REACTORS
330
2A0E6
102
}
330
747D
100
AcDbEntity
  8
部品1
 62
     7
 48
50.0
100
AcDbMText
 10
13113.99523070988
 20
7801.965214534714
 30
0.0
 40
120.0
 41
0.0
 71
     6
 72
     1
  1
アンカーボルト
  7
STYLE1
 73
     1
 44
1.0
1001
ACAD
1000
MTEXTBEGIN
1070
    73
1070
     1
1070
    44
1040
1.0
1070
    74
1070
     0
1000
MTEXTEND
  0
LEADER
  5
2A0E8
330
747D
100
AcDbEntity
  8
寸法
 48
50.0
100
AcDbLeader
  3
INABA_S50G
 73
     0
 74
     0
 75
     1
 40
120.0
 41
672.0
 76
     3
 10
11968.69831350344
 20
6196.291114370641
 30
0.0
 10
12084.63832569548
 20
5937.401770907065
 30
0.0
 10
12209.63832569548
 20
5937.401770907065
 30
0.0
340
2A0E9
1001
ACAD
1000
DSTYLE
1002
{
1070
   341
1005
0
1070
    40
1040
1.0
1070
   343
1005
0
1070
   344
1005
0
1002
}
  0
MTEXT
  5
2A0E9
102
{ACAD_REACTORS
330
2A0E8
102
}
330
747D
100
AcDbEntity
  8
部品1
 62
     7
 48
50.0
100
AcDbMText
 10
12906.63832569548
 20
6022.401770907065
 30
0.0
 40
120.0
 41
0.0
 71
     6
 72
     1
  1
\A1;屋根の外寸
  7
STYLE1
 73
     1
 44
1.0
1001
ACAD
1000
MTEXTBEGIN
1070
    73
1070
     1
1070
    44
1040
1.0
1070
    74
1070
     0
1000
MTEXTEND
  0
TEXT
  5
2A0EA
330
747D
100
AcDbEntity
  8
部品1
 48
50.0
100
AcDbText
 10
12108.85112970688
 20
5843.09108397399
 30
0.0
 40
80.0
  1
※a,b,cは屋根の出幅です。
  7
STYLE1
100
AcDbText
  0
TEXT
  5
2A0EB
330
747D
100
AcDbEntity
  8
部品1
 48
50.0
100
AcDbText
 10
12267.43013846118
 20
5736.245863105236
 30
0.0
 40
80.0
  1
(a=45,b=55,c=75)
  7
STYLE1
100
AcDbText
  0
MTEXT
  5
2A0EC
102
{ACAD_REACTORS
330
2A0ED
102
}
330
747D
100
AcDbEntity
  8
部品1
 62
     7
 48
50.0
100
AcDbMText
 10
12945.46907400128
 20
6571.069326784183
 30
0.0
 40
120.0
 41
0.0
 71
     6
 72
     1
  1
\A1;床下換気口
  7
STYLE1
 73
     1
 44
1.0
1001
ACAD
1000
MTEXTBEGIN
1070
    73
1070
     1
1070
    44
1040
1.0
1070
    74
1070
     0
1000
MTEXTEND
  0
LEADER
  5
2A0ED
330
747D
100
AcDbEntity
  8
寸法
 48
50.0
100
AcDbLeader
  3
INABA_S50G
 73
     0
 74
     0
 75
     1
 40
120.0
 41
720.0000000000001
 76
     3
 10
11918.695499615
 20
6747.083240352015
 30
0.0
 10
12075.46907400128
 20
6486.069326784182
 30
0.0
 10
12200.46907400128
 20
6486.069326784182
 30
0.0
340
2A0EC
1001
ACAD
1000
DSTYLE
1002
{
1070
   341
1005
0
1070
    40
1040
1.0
1070
   343
1005
0
1070
   344
1005
0
1002
}
  0
LINE
  5
2A393
330
747D
100
AcDbEntity
  8
想像線
 48
10.0
100
AcDbLine
 10
11963.6
 20
5891.352470292225
 30
0.0
 11
4483.599999999994
 21
5891.352470292209
 31
0.0
  0
LINE
  5
2A394
330
747D
100
AcDbEntity
  8
想像線
 48
10.0
100
AcDbLine
 10
11963.6
 20
7561.352470292205
 30
0.0
 11
4483.600000000001
 21
7561.352470292222
 31
0.0
  0
TEXT
  5
2A3D2
330
747D
100
AcDbEntity
  8
文字
 62
     7
 48
50.0
100
AcDbText
 10
7565.346650601303
 20
4151.759347727188
 30
0.0
 40
200.0
  1
〈参 考 図〉
  7
STYLE2
100
AcDbText
  0
TEXT
  5
2A52B
330
747D
100
AcDbEntity
  8
文字
 62
     7
 48
50.0
100
AcDbText
 10
14251.2
 20
838.2527270729188
 30
0.0
 40
100.0
  1
～一般型・多雪地型・豪雪地型～
  7
STYLE2
100
AcDbText
  0
LINE
  5
2A54B
102
{ACAD_REACTORS
330
2A956
102
}
330
747D
100
AcDbEntity
  8
部品1
 48
50.0
100
AcDbLine
 10
11798.6
 20
6226.352470292226
 30
0.0
 11
4648.600000000006
 21
6226.352470292181
 31
0.0
  0
LINE
  5
2A54D
330
747D
100
AcDbEntity
  8
細線
 48
50.0
100
AcDbLine
 10
5663.788016725461
 20
6124.857069580492
 30
0.0
 11
5765.283417437149
 21
6226.352470292184
 31
0.0
  0
LINE
  5
2A54E
330
747D
100
AcDbEntity
  8
細線
 48
50.0
100
AcDbLine
 10
5663.78801672546
 20
6169.758350185837
 30
0.0
 11
5720.382136831808
 21
6226.352470292185
 31
0.0
  0
LINE
  5
2A54F
330
747D
100
AcDbEntity
  8
細線
 48
50.0
100
AcDbLine
 10
5663.788016725461
 20
6079.955788975147
 30
0.0
 11
5810.184698042498
 21
6226.352470292184
 31
0.0
  0
LINE
  5
2A550
330
747D
100
AcDbEntity
  8
細線
 48
50.0
100
AcDbLine
 10
5663.788016725463
 20
6035.054508369801
 30
0.0
 11
5855.085978647846
 21
6226.352470292184
 31
0.0
  0
LINE
  5
2A551
330
747D
100
AcDbEntity
  8
細線
 48
50.0
100
AcDbLine
 10
5844.493662279923
 20
5946.35247029219
 30
0.0
 11
5863.788016725466
 21
5965.646824737731
 31
0.0
  0
LINE
  5
2A552
330
747D
100
AcDbEntity
  8
部品1
 48
50.0
100
AcDbLine
 10
5863.788016725457
 20
6226.352470292184
 30
0.0
 11
5863.788016725465
 21
5946.352470292188
 31
0.0
  0
LINE
  5
2A553
330
747D
100
AcDbEntity
  8
部品1
 48
50.0
100
AcDbLine
 10
5663.788016725459
 20
6226.352470292184
 30
0.0
 11
5663.788016725465
 21
5946.352470292184
 31
0.0
  0
LINE
  5
2A554
330
747D
100
AcDbEntity
  8
細線
 48
50.0
100
AcDbLine
 10
5663.788016725464
 20
5990.153227764459
 30
0.0
 11
5863.78801672546
 21
6190.153227764453
 31
0.0
  0
LINE
  5
2A555
330
747D
100
AcDbEntity
  8
細線
 48
50.0
100
AcDbLine
 10
5664.888539858537
 20
5946.352470292186
 30
0.0
 11
5863.788016725461
 21
6145.25194715911
 31
0.0
  0
LINE
  5
2A556
330
747D
100
AcDbEntity
  8
細線
 48
50.0
100
AcDbLine
 10
5709.789820463882
 20
5946.352470292186
 30
0.0
 11
5863.788016725461
 21
6100.350666553763
 31
0.0
  0
LINE
  5
2A557
330
747D
100
AcDbEntity
  8
細線
 48
50.0
100
AcDbLine
 10
5754.69110106923
 20
5946.352470292186
 30
0.0
 11
5863.788016725461
 21
6055.449385948419
 31
0.0
  0
LINE
  5
2A558
330
747D
100
AcDbEntity
  8
細線
 48
50.0
100
AcDbLine
 10
5799.592381674578
 20
5946.352470292188
 30
0.0
 11
5863.788016725465
 21
6010.548105343074
 31
0.0
  0
LINE
  5
2A559
330
747D
100
AcDbEntity
  8
細線
 48
50.0
100
AcDbLine
 10
6483.788016725461
 20
6124.857069580492
 30
0.0
 11
6585.283417437148
 21
6226.352470292184
 31
0.0
  0
LINE
  5
2A55A
330
747D
100
AcDbEntity
  8
細線
 48
50.0
100
AcDbLine
 10
6483.788016725459
 20
6169.758350185837
 30
0.0
 11
6540.382136831809
 21
6226.352470292185
 31
0.0
  0
LINE
  5
2A55B
330
747D
100
AcDbEntity
  8
細線
 48
50.0
100
AcDbLine
 10
6483.788016725461
 20
6079.955788975147
 30
0.0
 11
6630.184698042497
 21
6226.352470292184
 31
0.0
  0
LINE
  5
2A55C
330
747D
100
AcDbEntity
  8
細線
 48
50.0
100
AcDbLine
 10
6483.788016725462
 20
6035.054508369801
 30
0.0
 11
6675.085978647846
 21
6226.352470292184
 31
0.0
  0
LINE
  5
2A55D
330
747D
100
AcDbEntity
  8
細線
 48
50.0
100
AcDbLine
 10
6664.493662279923
 20
5946.35247029219
 30
0.0
 11
6683.788016725467
 21
5965.646824737731
 31
0.0
  0
LINE
  5
2A55E
330
747D
100
AcDbEntity
  8
部品1
 48
50.0
100
AcDbLine
 10
6683.788016725457
 20
6226.352470292184
 30
0.0
 11
6683.788016725465
 21
5946.352470292188
 31
0.0
  0
LINE
  5
2A55F
330
747D
100
AcDbEntity
  8
部品1
 48
50.0
100
AcDbLine
 10
6483.788016725459
 20
6226.352470292184
 30
0.0
 11
6483.788016725466
 21
5946.352470292184
 31
0.0
  0
LINE
  5
2A560
330
747D
100
AcDbEntity
  8
細線
 48
50.0
100
AcDbLine
 10
6483.788016725464
 20
5990.153227764459
 30
0.0
 11
6683.788016725459
 21
6190.153227764453
 31
0.0
  0
LINE
  5
2A561
330
747D
100
AcDbEntity
  8
細線
 48
50.0
100
AcDbLine
 10
6484.888539858537
 20
5946.352470292186
 30
0.0
 11
6683.788016725461
 21
6145.25194715911
 31
0.0
  0
LINE
  5
2A562
330
747D
100
AcDbEntity
  8
細線
 48
50.0
100
AcDbLine
 10
6529.789820463882
 20
5946.352470292186
 30
0.0
 11
6683.788016725461
 21
6100.350666553763
 31
0.0
  0
LINE
  5
2A563
330
747D
100
AcDbEntity
  8
細線
 48
50.0
100
AcDbLine
 10
6574.69110106923
 20
5946.352470292186
 30
0.0
 11
6683.788016725461
 21
6055.449385948419
 31
0.0
  0
LINE
  5
2A564
330
747D
100
AcDbEntity
  8
細線
 48
50.0
100
AcDbLine
 10
6619.592381674578
 20
5946.352470292188
 30
0.0
 11
6683.788016725464
 21
6010.548105343074
 31
0.0
  0
LINE
  5
2A565
330
747D
100
AcDbEntity
  8
細線
 48
50.0
100
AcDbLine
 10
7303.788016725461
 20
6124.857069580492
 30
0.0
 11
7405.283417437148
 21
6226.352470292184
 31
0.0
  0
LINE
  5
2A566
330
747D
100
AcDbEntity
  8
細線
 48
50.0
100
AcDbLine
 10
7303.78801672546
 20
6169.758350185837
 30
0.0
 11
7360.382136831809
 21
6226.352470292185
 31
0.0
  0
LINE
  5
2A567
330
747D
100
AcDbEntity
  8
細線
 48
50.0
100
AcDbLine
 10
7303.788016725461
 20
6079.955788975147
 30
0.0
 11
7450.184698042497
 21
6226.352470292184
 31
0.0
  0
LINE
  5
2A568
330
747D
100
AcDbEntity
  8
細線
 48
50.0
100
AcDbLine
 10
7303.788016725462
 20
6035.054508369801
 30
0.0
 11
7495.085978647846
 21
6226.352470292184
 31
0.0
  0
LINE
  5
2A569
330
747D
100
AcDbEntity
  8
細線
 48
50.0
100
AcDbLine
 10
7484.493662279923
 20
5946.35247029219
 30
0.0
 11
7503.788016725467
 21
5965.646824737731
 31
0.0
  0
LINE
  5
2A56A
330
747D
100
AcDbEntity
  8
部品1
 48
50.0
100
AcDbLine
 10
7503.788016725457
 20
6226.352470292184
 30
0.0
 11
7503.788016725465
 21
5946.352470292188
 31
0.0
  0
LINE
  5
2A56B
330
747D
100
AcDbEntity
  8
部品1
 48
50.0
100
AcDbLine
 10
7303.788016725459
 20
6226.352470292184
 30
0.0
 11
7303.788016725466
 21
5946.352470292184
 31
0.0
  0
LINE
  5
2A56C
330
747D
100
AcDbEntity
  8
細線
 48
50.0
100
AcDbLine
 10
7303.788016725464
 20
5990.153227764459
 30
0.0
 11
7503.78801672546
 21
6190.153227764453
 31
0.0
  0
LINE
  5
2A56D
330
747D
100
AcDbEntity
  8
細線
 48
50.0
100
AcDbLine
 10
7304.888539858537
 20
5946.352470292186
 30
0.0
 11
7503.788016725462
 21
6145.25194715911
 31
0.0
  0
LINE
  5
2A56E
330
747D
100
AcDbEntity
  8
細線
 48
50.0
100
AcDbLine
 10
7349.789820463882
 20
5946.352470292186
 30
0.0
 11
7503.788016725462
 21
6100.350666553763
 31
0.0
  0
LINE
  5
2A56F
330
747D
100
AcDbEntity
  8
細線
 48
50.0
100
AcDbLine
 10
7394.691101069231
 20
5946.352470292186
 30
0.0
 11
7503.788016725462
 21
6055.449385948419
 31
0.0
  0
LINE
  5
2A570
330
747D
100
AcDbEntity
  8
細線
 48
50.0
100
AcDbLine
 10
7439.592381674578
 20
5946.352470292188
 30
0.0
 11
7503.788016725464
 21
6010.548105343074
 31
0.0
  0
LINE
  5
2A571
330
747D
100
AcDbEntity
  8
細線
 48
50.0
100
AcDbLine
 10
9763.788016725461
 20
6124.857069580492
 30
0.0
 11
9865.283417437176
 21
6226.352470292209
 31
0.0
  0
LINE
  5
2A572
330
747D
100
AcDbEntity
  8
細線
 48
50.0
100
AcDbLine
 10
9763.78801672546
 20
6169.758350185837
 30
0.0
 11
9820.382136831836
 21
6226.352470292209
 31
0.0
  0
LINE
  5
2A573
330
747D
100
AcDbEntity
  8
細線
 48
50.0
100
AcDbLine
 10
9763.788016725463
 20
6035.054508369801
 30
0.0
 11
9955.085978647872
 21
6226.352470292211
 31
0.0
  0
LINE
  5
2A574
330
747D
100
AcDbEntity
  8
細線
 48
50.0
100
AcDbLine
 10
9763.788016725461
 20
6079.955788975147
 30
0.0
 11
9910.184698042526
 21
6226.352470292211
 31
0.0
  0
LINE
  5
2A575
330
747D
100
AcDbEntity
  8
細線
 48
50.0
100
AcDbLine
 10
9944.493662279924
 20
5946.35247029219
 30
0.0
 11
9963.788016725466
 21
5965.646824737731
 31
0.0
  0
LINE
  5
2A576
330
747D
100
AcDbEntity
  8
細線
 48
50.0
100
AcDbLine
 10
9764.888539858539
 20
5946.352470292186
 30
0.0
 11
9963.788016725461
 21
6145.25194715911
 31
0.0
  0
LINE
  5
2A577
330
747D
100
AcDbEntity
  8
細線
 48
50.0
100
AcDbLine
 10
9809.789820463883
 20
5946.352470292186
 30
0.0
 11
9963.788016725462
 21
6100.350666553763
 31
0.0
  0
LINE
  5
2A578
330
747D
100
AcDbEntity
  8
細線
 48
50.0
100
AcDbLine
 10
9899.59238167458
 20
5946.352470292188
 30
0.0
 11
9963.788016725466
 21
6010.548105343074
 31
0.0
  0
LINE
  5
2A579
330
747D
100
AcDbEntity
  8
細線
 48
50.0
100
AcDbLine
 10
9854.691101069231
 20
5946.352470292186
 30
0.0
 11
9963.788016725462
 21
6055.449385948419
 31
0.0
  0
LINE
  5
2A57A
330
747D
100
AcDbEntity
  8
部品1
 48
50.0
100
AcDbLine
 10
9963.788016725459
 20
6226.35247029221
 30
0.0
 11
9963.788016725466
 21
5946.352470292188
 31
0.0
  0
LINE
  5
2A57B
330
747D
100
AcDbEntity
  8
部品1
 48
50.0
100
AcDbLine
 10
9763.78801672546
 20
6226.352470292209
 30
0.0
 11
9763.788016725467
 21
5946.352470292184
 31
0.0
  0
LINE
  5
2A57C
330
747D
100
AcDbEntity
  8
細線
 48
50.0
100
AcDbLine
 10
9763.788016725465
 20
5990.153227764459
 30
0.0
 11
9963.788016725459
 21
6190.153227764453
 31
0.0
  0
LINE
  5
2A57D
330
747D
100
AcDbEntity
  8
細線
 48
50.0
100
AcDbLine
 10
10583.78801672546
 20
6124.857069580492
 30
0.0
 11
10685.28341743717
 21
6226.352470292209
 31
0.0
  0
LINE
  5
2A57E
330
747D
100
AcDbEntity
  8
細線
 48
50.0
100
AcDbLine
 10
10583.78801672546
 20
6169.758350185837
 30
0.0
 11
10640.38213683183
 21
6226.352470292209
 31
0.0
  0
LINE
  5
2A57F
330
747D
100
AcDbEntity
  8
細線
 48
50.0
100
AcDbLine
 10
10583.78801672546
 20
6035.054508369801
 30
0.0
 11
10775.08597864787
 21
6226.352470292211
 31
0.0
  0
LINE
  5
2A580
330
747D
100
AcDbEntity
  8
細線
 48
50.0
100
AcDbLine
 10
10583.78801672546
 20
6079.955788975147
 30
0.0
 11
10730.18469804252
 21
6226.352470292211
 31
0.0
  0
LINE
  5
2A581
330
747D
100
AcDbEntity
  8
細線
 48
50.0
100
AcDbLine
 10
10764.49366227992
 20
5946.35247029219
 30
0.0
 11
10783.78801672546
 21
5965.646824737731
 31
0.0
  0
LINE
  5
2A582
330
747D
100
AcDbEntity
  8
細線
 48
50.0
100
AcDbLine
 10
10584.88853985853
 20
5946.352470292186
 30
0.0
 11
10783.78801672546
 21
6145.25194715911
 31
0.0
  0
LINE
  5
2A583
330
747D
100
AcDbEntity
  8
細線
 48
50.0
100
AcDbLine
 10
10629.78982046388
 20
5946.352470292186
 30
0.0
 11
10783.78801672546
 21
6100.350666553763
 31
0.0
  0
LINE
  5
2A584
330
747D
100
AcDbEntity
  8
細線
 48
50.0
100
AcDbLine
 10
10719.59238167458
 20
5946.352470292188
 30
0.0
 11
10783.78801672546
 21
6010.548105343074
 31
0.0
  0
LINE
  5
2A585
330
747D
100
AcDbEntity
  8
細線
 48
50.0
100
AcDbLine
 10
10674.69110106923
 20
5946.352470292186
 30
0.0
 11
10783.78801672546
 21
6055.449385948419
 31
0.0
  0
LINE
  5
2A586
330
747D
100
AcDbEntity
  8
部品1
 48
50.0
100
AcDbLine
 10
10783.78801672546
 20
6226.35247029221
 30
0.0
 11
10783.78801672546
 21
5946.352470292188
 31
0.0
  0
LINE
  5
2A587
330
747D
100
AcDbEntity
  8
部品1
 48
50.0
100
AcDbLine
 10
10583.78801672546
 20
6226.352470292209
 30
0.0
 11
10583.78801672546
 21
5946.352470292184
 31
0.0
  0
LINE
  5
2A588
330
747D
100
AcDbEntity
  8
細線
 48
50.0
100
AcDbLine
 10
10583.78801672546
 20
5990.153227764459
 30
0.0
 11
10783.78801672546
 21
6190.153227764453
 31
0.0
  0
LINE
  5
2A589
330
747D
100
AcDbEntity
  8
細線
 48
50.0
100
AcDbLine
 10
11403.78801672546
 20
6124.857069580492
 30
0.0
 11
11505.28341743717
 21
6226.352470292209
 31
0.0
  0
LINE
  5
2A58A
330
747D
100
AcDbEntity
  8
細線
 48
50.0
100
AcDbLine
 10
11403.78801672546
 20
6169.758350185837
 30
0.0
 11
11460.38213683183
 21
6226.352470292209
 31
0.0
  0
LINE
  5
2A58B
330
747D
100
AcDbEntity
  8
細線
 48
50.0
100
AcDbLine
 10
11403.78801672546
 20
6035.054508369801
 30
0.0
 11
11595.08597864787
 21
6226.352470292211
 31
0.0
  0
LINE
  5
2A58C
330
747D
100
AcDbEntity
  8
細線
 48
50.0
100
AcDbLine
 10
11403.78801672546
 20
6079.955788975147
 30
0.0
 11
11550.18469804252
 21
6226.352470292211
 31
0.0
  0
LINE
  5
2A58D
330
747D
100
AcDbEntity
  8
細線
 48
50.0
100
AcDbLine
 10
11584.49366227992
 20
5946.35247029219
 30
0.0
 11
11603.78801672546
 21
5965.646824737731
 31
0.0
  0
LINE
  5
2A58E
330
747D
100
AcDbEntity
  8
細線
 48
50.0
100
AcDbLine
 10
11404.88853985853
 20
5946.352470292186
 30
0.0
 11
11603.78801672546
 21
6145.25194715911
 31
0.0
  0
LINE
  5
2A58F
330
747D
100
AcDbEntity
  8
細線
 48
50.0
100
AcDbLine
 10
11449.78982046388
 20
5946.352470292186
 30
0.0
 11
11603.78801672546
 21
6100.350666553763
 31
0.0
  0
LINE
  5
2A590
330
747D
100
AcDbEntity
  8
細線
 48
50.0
100
AcDbLine
 10
11539.59238167458
 20
5946.352470292188
 30
0.0
 11
11603.78801672546
 21
6010.548105343074
 31
0.0
  0
LINE
  5
2A591
330
747D
100
AcDbEntity
  8
細線
 48
50.0
100
AcDbLine
 10
11494.69110106923
 20
5946.352470292186
 30
0.0
 11
11603.78801672546
 21
6055.449385948419
 31
0.0
  0
LINE
  5
2A592
330
747D
100
AcDbEntity
  8
部品1
 48
50.0
100
AcDbLine
 10
11603.78801672546
 20
6226.35247029221
 30
0.0
 11
11603.78801672546
 21
5946.352470292188
 31
0.0
  0
LINE
  5
2A593
330
747D
100
AcDbEntity
  8
部品1
 48
50.0
100
AcDbLine
 10
11403.78801672546
 20
6226.352470292209
 30
0.0
 11
11403.78801672546
 21
5946.352470292184
 31
0.0
  0
LINE
  5
2A594
330
747D
100
AcDbEntity
  8
細線
 48
50.0
100
AcDbLine
 10
11403.78801672546
 20
5990.153227764459
 30
0.0
 11
11603.78801672546
 21
6190.153227764453
 31
0.0
  0
LINE
  5
2A5B2
330
747D
100
AcDbEntity
  8
部品1
 48
50.0
100
AcDbLine
 10
11798.6
 20
6226.352470292226
 30
0.0
 11
11798.6
 21
7286.35247029219
 31
0.0
  0
LINE
  5
2A5B3
330
747D
100
AcDbEntity
  8
部品1
 48
50.0
100
AcDbLine
 10
4648.600000000006
 20
6226.352470292186
 30
0.0
 11
4648.599999999994
 21
7286.35247029219
 31
0.0
  0
MTEXT
  5
2A74B
102
{ACAD_REACTORS
330
2A74C
102
}
330
747D
100
AcDbEntity
  8
寸法
 62
     7
 48
50.0
100
AcDbMText
 10
10708.24346748179
 20
2119.244800053127
 30
0.0
 40
120.0
 41
0.8
 71
     4
 72
     1
  1
\A1;C.B
  7
STYLE1
 73
     1
 44
1.0
1001
ACAD
1000
MTEXTBEGIN
1070
    73
1070
     1
1070
    44
1040
1.0
1070
    74
1070
     0
1000
MTEXTEND
  0
LEADER
  5
2A74C
330
747D
100
AcDbEntity
  8
寸法
 48
50.0
100
AcDbLeader
  3
INABA_S50G
 73
     0
 74
     0
 75
     1
 40
120.0
 41
185.591883092037
 76
     3
 10
10525.10526084815
 20
1862.098479371989
 30
0.0
 10
10558.24346748179
 20
2034.244800053127
 30
0.0
 10
10683.24346748179
 20
2034.244800053127
 30
0.0
340
2A74B
1001
ACAD
1000
DSTYLE
1002
{
1070
    40
1040
1.0
1002
}
  0
LINE
  5
2A74D
330
747D
100
AcDbEntity
  8
細線
 48
50.0
100
AcDbLine
 10
10670.75867442455
 20
1506.399563718638
 30
0.0
 11
10664.32789380621
 21
1530.399563718638
 31
0.0
  0
LINE
  5
2A74E
330
747D
100
AcDbEntity
  8
細線
 48
50.0
100
AcDbLine
 10
10649.32273903006
 20
1426.399563718638
 30
0.0
 11
10655.75351964841
 21
1402.399563718638
 31
0.0
  0
LINE
  5
2A74F
330
747D
100
AcDbEntity
  8
部品1
100
AcDbLine
 10
10714.38084923222
 20
1622.098479371989
 30
0.0
 11
10714.38084923222
 21
1402.399563718639
 31
0.0
  0
LINE
  5
2A750
330
747D
100
AcDbEntity
  8
細線
 48
50.0
100
AcDbLine
 10
10642.89195841171
 20
1402.399563718638
 30
0.0
 11
10677.1894550429
 21
1530.399563718636
 31
0.0
  0
LINE
  5
2A751
330
747D
100
AcDbEntity
  8
細線
 48
50.0
100
AcDbLine
 10
10591.87062947731
 20
1506.399563718638
 30
0.0
 11
10585.43984885896
 21
1530.399563718638
 31
0.0
  0
LINE
  5
2A752
330
747D
100
AcDbEntity
  8
細線
100
AcDbLine
 10
10467.41724373156
 20
1530.399563718641
 30
0.0
 11
10559.1161593849
 21
1622.098479371989
 31
0.0
  0
LINE
  5
2A753
330
747D
100
AcDbEntity
  8
細線
 48
50.0
100
AcDbLine
 10
10512.98258453005
 20
1506.399563718639
 30
0.0
 11
10506.55180391171
 21
1530.399563718639
 31
0.0
  0
LINE
  5
2A754
330
747D
100
AcDbEntity
  8
細線
100
AcDbLine
 10
10501.35836922851
 20
1530.399563718641
 30
0.0
 11
10593.05728488185
 21
1622.098479371989
 31
0.0
  0
LINE
  5
2A755
330
747D
100
AcDbEntity
  8
細線
 48
50.0
100
AcDbLine
 10
10276.31844968832
 20
1506.399563718639
 30
0.0
 11
10269.88766906997
 21
1530.399563718639
 31
0.0
  0
LINE
  5
2A756
330
747D
100
AcDbEntity
  8
細線
 48
50.0
100
AcDbLine
 10
10355.20649463557
 20
1506.399563718639
 30
0.0
 11
10348.77571401722
 21
1530.399563718639
 31
0.0
  0
LINE
  5
2A757
330
747D
100
AcDbEntity
  8
細線
 48
50.0
100
AcDbLine
 10
10434.09453958281
 20
1506.399563718639
 30
0.0
 11
10427.66375896447
 21
1530.399563718639
 31
0.0
  0
LINE
  5
2A758
330
747D
100
AcDbEntity
  8
細線
 48
50.0
100
AcDbLine
 10
10570.43469408282
 20
1426.399563718638
 30
0.0
 11
10576.86547470117
 21
1402.399563718638
 31
0.0
  0
LINE
  5
2A759
330
747D
100
AcDbEntity
  8
細線
 48
50.0
100
AcDbLine
 10
10491.54664913557
 20
1426.399563718639
 30
0.0
 11
10497.97742975393
 21
1402.399563718639
 31
0.0
  0
LINE
  5
2A75A
330
747D
100
AcDbEntity
  8
細線
 48
50.0
100
AcDbLine
 10
10333.77055924108
 20
1426.399563718639
 30
0.0
 11
10340.20133985942
 21
1402.399563718639
 31
0.0
  0
LINE
  5
2A75B
330
747D
100
AcDbEntity
  8
細線
 48
50.0
100
AcDbLine
 10
10412.65860418832
 20
1426.399563718639
 30
0.0
 11
10419.08938480667
 21
1402.399563718639
 31
0.0
  0
LINE
  5
2A75C
330
747D
100
AcDbEntity
  8
細線
 48
50.0
100
AcDbLine
 10
10406.22782356997
 20
1402.399563718639
 30
0.0
 11
10440.52532020116
 21
1530.399563718638
 31
0.0
  0
LINE
  5
2A75D
330
747D
100
AcDbEntity
  8
細線
 48
50.0
100
AcDbLine
 10
10327.33977862273
 20
1402.399563718638
 30
0.0
 11
10361.63727525391
 21
1530.399563718638
 31
0.0
  0
LINE
  5
2A75E
330
747D
100
AcDbEntity
  8
細線
 48
50.0
100
AcDbLine
 10
10485.11586851722
 20
1402.399563718638
 30
0.0
 11
10519.4133651484
 21
1530.399563718639
 31
0.0
  0
LINE
  5
2A75F
330
747D
100
AcDbEntity
  8
細線
100
AcDbLine
 10
10535.29949472546
 20
1530.399563718641
 30
0.0
 11
10626.99841037881
 21
1622.098479371989
 31
0.0
  0
LINE
  5
2A760
330
747D
100
AcDbEntity
  8
細線
 48
50.0
100
AcDbLine
 10
10564.00391346447
 20
1402.399563718636
 30
0.0
 11
10598.30141009565
 21
1530.399563718636
 31
0.0
  0
LINE
  5
2A761
330
747D
100
AcDbEntity
  8
部品1
100
AcDbLine
 10
10594.38084923222
 20
1862.098479371989
 30
0.0
 11
10594.38084923222
 21
1622.098479371989
 31
0.0
  0
LINE
  5
2A762
330
747D
100
AcDbEntity
  8
細線
100
AcDbLine
 10
10580.54318688464
 20
1622.098479371991
 30
0.0
 11
10340.54318688464
 21
1862.098479371989
 31
0.0
  0
LINE
  5
2A763
330
747D
100
AcDbEntity
  8
細線
100
AcDbLine
 10
10529.63149863921
 20
1622.098479371989
 30
0.0
 11
10289.63149863921
 21
1862.098479371989
 31
0.0
  0
LINE
  5
2A764
330
747D
100
AcDbEntity
  8
細線
100
AcDbLine
 10
10141.35836922851
 20
1530.399563718639
 30
0.0
 11
10233.05728488185
 21
1622.098479371989
 31
0.0
  0
LINE
  5
2A765
330
747D
100
AcDbEntity
  8
細線
100
AcDbLine
 10
10107.41724373155
 20
1530.399563718639
 30
0.0
 11
10199.1161593849
 21
1622.098479371989
 31
0.0
  0
LINE
  5
2A766
330
747D
100
AcDbEntity
  8
細線
 48
50.0
100
AcDbLine
 10
10118.54235979382
 20
1506.399563718639
 30
0.0
 11
10112.11157917548
 21
1530.399563718639
 31
0.0
  0
LINE
  5
2A767
330
747D
100
AcDbEntity
  8
細線
 48
50.0
100
AcDbLine
 10
10197.43040474107
 20
1506.399563718639
 30
0.0
 11
10190.99962412273
 21
1530.399563718639
 31
0.0
  0
LINE
  5
2A768
330
747D
100
AcDbEntity
  8
細線
 48
50.0
100
AcDbLine
 10
10039.65431484657
 20
1506.399563718639
 30
0.0
 11
10033.22353422822
 21
1530.399563718639
 31
0.0
  0
LINE
  5
2A769
330
747D
100
AcDbEntity
  8
細線
 48
50.0
100
AcDbLine
 10
10254.88251429383
 20
1426.399563718639
 30
0.0
 11
10261.31329491218
 21
1402.399563718639
 31
0.0
  0
LINE
  5
2A76A
330
747D
100
AcDbEntity
  8
細線
 48
50.0
100
AcDbLine
 10
10175.99446934658
 20
1426.399563718639
 30
0.0
 11
10182.42524996493
 21
1402.399563718639
 31
0.0
  0
LINE
  5
2A76B
330
747D
100
AcDbEntity
  8
細線
 48
50.0
100
AcDbLine
 10
10018.21837945208
 20
1426.399563718639
 30
0.0
 11
10024.64916007043
 21
1402.399563718639
 31
0.0
  0
LINE
  5
2A76C
330
747D
100
AcDbEntity
  8
細線
 48
50.0
100
AcDbLine
 10
10097.10642439933
 20
1426.399563718639
 30
0.0
 11
10103.53720501768
 21
1402.399563718639
 31
0.0
  0
LINE
  5
2A76D
330
747D
100
AcDbEntity
  8
部品1
100
AcDbLine
 10
9994.380849232225
 20
1402.399563718635
 30
0.0
 11
9994.380849232225
 21
1622.098479371989
 31
0.0
  0
LINE
  5
2A76E
330
747D
100
AcDbEntity
  8
細線
 48
50.0
100
AcDbLine
 10
10011.78759883373
 20
1402.399563718639
 30
0.0
 11
10046.08509546492
 21
1530.399563718639
 31
0.0
  0
LINE
  5
2A76F
330
747D
100
AcDbEntity
  8
細線
 48
50.0
100
AcDbLine
 10
10169.56368872823
 20
1402.399563718639
 30
0.0
 11
10203.86118535942
 21
1530.399563718639
 31
0.0
  0
LINE
  5
2A770
330
747D
100
AcDbEntity
  8
細線
 48
50.0
100
AcDbLine
 10
10090.67564378098
 20
1402.399563718638
 30
0.0
 11
10124.97314041217
 21
1530.399563718638
 31
0.0
  0
LINE
  5
2A771
330
747D
100
AcDbEntity
  8
部品1
100
AcDbLine
 10
10114.38084923222
 20
1622.098479371989
 30
0.0
 11
10114.38084923222
 21
1862.098479371989
 31
0.0
  0
TEXT
  5
2A772
330
747D
100
AcDbEntity
  8
部品1
 48
50.0
100
AcDbText
 10
9350.262762473722
 20
1355.29873873468
 30
0.0
 40
80.0
  1
ボルトの出
 50
90.0
  7
STYLE2
100
AcDbText
  0
LINE
  5
2A773
330
747D
100
AcDbEntity
  8
細線
100
AcDbLine
 10
10258.10249466357
 20
1622.098479371989
 30
0.0
 11
10114.38084923222
 21
1765.820124803342
 31
0.0
  0
LWPOLYLINE
  5
2A774
330
747D
100
AcDbEntity
  8
部品1
 48
50.0
100
AcDbPolyline
 90
        2
 70
     0
 43
12.0
 10
9729.769587131835
 20
1622.098479371989
 10
10930.86189026346
 20
1622.098479371989
  0
LINE
  5
2A775
330
747D
100
AcDbEntity
  8
細線
100
AcDbLine
 10
10175.29949472546
 20
1530.399563718639
 30
0.0
 11
10266.99841037881
 21
1622.098479371989
 31
0.0
  0
LINE
  5
2A776
330
747D
100
AcDbEntity
  8
部品1
100
AcDbLine
 10
9994.380849232225
 20
1530.399563718639
 30
0.0
 11
10714.38084923222
 21
1530.399563718642
 31
0.0
  0
LINE
  5
2A777
330
747D
100
AcDbEntity
  8
部品1
100
AcDbLine
 10
9994.380849232225
 20
1402.399563718635
 30
0.0
 11
10714.38084923222
 21
1402.399563718639
 31
0.0
  0
LINE
  5
2A778
330
747D
100
AcDbEntity
  8
細線
 48
50.0
100
AcDbLine
 10
10248.45173367548
 20
1402.399563718639
 30
0.0
 11
10282.74923030667
 21
1530.399563718638
 31
0.0
  0
LINE
  5
2A779
330
747D
100
AcDbEntity
  8
部品1
100
AcDbLine
 10
10114.38084923222
 20
1862.098479371989
 30
0.0
 11
10594.38084923222
 21
1862.098479371989
 31
0.0
  0
LINE
  5
2A77A
330
747D
100
AcDbEntity
  8
細線
100
AcDbLine
 10
10309.01418290901
 20
1622.098479371989
 30
0.0
 11
10114.38084923222
 21
1816.731813048772
 31
0.0
  0
LINE
  5
2A77B
330
747D
100
AcDbEntity
  8
部品1
100
AcDbLine
 10
11301.12235032926
 20
297.1301769879273
 30
0.0
 11
11301.12235032926
 21
3261.437146572575
 31
0.0
  0
TEXT
  5
2A77C
330
747D
100
AcDbEntity
  8
部品1
100
AcDbText
 10
7923.017166121397
 20
3081.885214621147
 30
0.0
 40
120.0
  1
基礎詳細
  7
STYLE2
100
AcDbText
  0
LINE
  5
2A77D
330
747D
100
AcDbEntity
  8
部品1
 48
50.0
100
AcDbLine
 10
8238.244916929467
 20
2260.973760481132
 30
0.0
 11
8254.244916929467
 21
2252.973760481132
 31
0.0
  0
LINE
  5
2A77E
330
747D
100
AcDbEntity
  8
細線
 48
50.0
100
AcDbLine
 10
8206.244916929467
 20
2212.973760481132
 30
0.0
 11
8206.244916929467
 21
2244.973760481132
 31
0.0
  0
LINE
  5
2A77F
330
747D
100
AcDbEntity
  8
部品1
 48
50.0
100
AcDbLine
 10
8254.244916929467
 20
2220.973760481132
 30
0.0
 11
8254.244916929467
 21
2252.973760481132
 31
0.0
  0
LINE
  5
2A780
330
747D
100
AcDbEntity
  8
細線
 48
50.0
100
AcDbLine
 10
8238.244916929467
 20
2212.973760481132
 30
0.0
 11
8238.244916929467
 21
2244.973760481132
 31
0.0
  0
LINE
  5
2A781
330
747D
100
AcDbEntity
  8
部品1
 48
50.0
100
AcDbLine
 10
8238.244916929467
 20
2244.973760481132
 30
0.0
 11
8254.244916929467
 21
2252.973760481132
 31
0.0
  0
LINE
  5
2A782
330
747D
100
AcDbEntity
  8
部品1
 48
50.0
100
AcDbLine
 10
8206.244916929467
 20
2244.973760481132
 30
0.0
 11
8238.244916929467
 21
2244.973760481132
 31
0.0
  0
LINE
  5
2A783
330
747D
100
AcDbEntity
  8
部品1
 48
50.0
100
AcDbLine
 10
8238.244916929467
 20
2212.973760481132
 30
0.0
 11
8254.244916929467
 21
2220.973760481132
 31
0.0
  0
LINE
  5
2A784
330
747D
100
AcDbEntity
  8
部品1
 48
50.0
100
AcDbLine
 10
8206.244916929467
 20
2212.973760481132
 30
0.0
 11
8238.244916929467
 21
2212.973760481132
 31
0.0
  0
ELLIPSE
  5
2A785
330
747D
100
AcDbEntity
  8
細線
 48
50.0
100
AcDbEllipse
 10
8222.244916929467
 20
2252.973760481132
 30
0.0
 11
14.76670786606846
 21
0.0
 31
0.0
210
0.0
220
0.0
230
1.0
 40
0.2071254069489396
 41
0.0
 42
6.283185307179586
  0
LINE
  5
2A786
330
747D
100
AcDbEntity
  8
部品1
 48
50.0
100
AcDbLine
 10
8206.244916929467
 20
2260.973760481132
 30
0.0
 11
8238.244916929467
 21
2260.973760481132
 31
0.0
  0
LINE
  5
2A787
330
747D
100
AcDbEntity
  8
部品1
 48
50.0
100
AcDbLine
 10
8190.244916929467
 20
2220.973760481132
 30
0.0
 11
8190.244916929467
 21
2252.973760481132
 31
0.0
  0
LINE
  5
2A788
330
747D
100
AcDbEntity
  8
部品1
 48
50.0
100
AcDbLine
 10
8190.244916929467
 20
2252.973760481132
 30
0.0
 11
8206.244916929467
 21
2260.973760481132
 31
0.0
  0
LINE
  5
2A789
330
747D
100
AcDbEntity
  8
部品1
 48
50.0
100
AcDbLine
 10
8190.244916929467
 20
2220.973760481132
 30
0.0
 11
8206.244916929467
 21
2212.973760481132
 31
0.0
  0
LINE
  5
2A78A
330
747D
100
AcDbEntity
  8
部品1
 48
50.0
100
AcDbLine
 10
8190.244916929467
 20
2252.973760481132
 30
0.0
 11
8206.244916929467
 21
2244.973760481132
 31
0.0
  0
LINE
  5
2A78B
330
747D
100
AcDbEntity
  8
部品1
 48
50.0
100
AcDbLine
 10
8262.244916929466
 20
2121.621767816261
 30
0.0
 11
8262.244916929466
 21
2131.221767816262
 31
0.0
  0
ELLIPSE
  5
2A78C
330
747D
100
AcDbEntity
  8
部品1
 48
50.0
100
AcDbEllipse
 10
8222.244916929467
 20
2131.221767816262
 30
0.0
 11
18.4
 21
0.0
 31
0.0
210
0.0
220
0.0
230
1.0
 40
0.3478260869565217
 41
0.0
 42
6.283185307179586
  0
ARC
  5
2A78D
330
747D
100
AcDbEntity
  8
部品1
100
AcDbCircle
 10
8061.144916929467
 20
1960.198479371989
 30
0.0
 40
2.7
100
AcDbArc
 50
90.0
 51
180.0
  0
LINE
  5
2A78E
330
747D
100
AcDbEntity
  8
部品1
100
AcDbLine
 10
8063.844916929467
 20
1973.698479371989
 30
0.0
 11
8106.144916929466
 21
1973.698479371986
 31
0.0
  0
LINE
  5
2A78F
330
747D
100
AcDbEntity
  8
部品1
100
AcDbLine
 10
8061.144916929467
 20
1962.898479371989
 30
0.0
 11
8061.144916929467
 21
1970.998479371989
 31
0.0
  0
LINE
  5
2A790
330
747D
100
AcDbEntity
  8
部品1
100
AcDbLine
 10
8061.144916929467
 20
1962.898479371989
 30
0.0
 11
8061.144916929467
 21
1962.898479371989
 31
0.0
  0
ARC
  5
2A791
330
747D
100
AcDbEntity
  8
部品1
100
AcDbCircle
 10
8063.844916929467
 20
1970.998479371989
 30
0.0
 40
2.7
100
AcDbArc
 50
90.0
 51
180.0
  0
ARC
  5
2A792
330
747D
100
AcDbEntity
  8
部品1
100
AcDbCircle
 10
8106.144916929466
 20
1970.998479371986
 30
0.0
 40
2.7
100
AcDbArc
 50
0.0
 51
90.0
  0
LINE
  5
2A793
330
747D
100
AcDbEntity
  8
部品1
 48
50.0
100
AcDbLine
 10
8182.244916929468
 20
2131.221767816262
 30
0.0
 11
8182.244916929468
 21
2121.621767816261
 31
0.0
  0
ELLIPSE
  5
2A794
330
747D
100
AcDbEntity
  8
部品1
 48
50.0
100
AcDbEllipse
 10
8222.244916929467
 20
2121.621767816262
 30
0.0
 11
40.0
 21
0.0
 31
0.0
210
0.0
220
0.0
230
1.0
 40
0.4
 41
3.141592653589793
 42
6.283185307179586
  0
ELLIPSE
  5
2A795
330
747D
100
AcDbEntity
  8
部品1
 48
50.0
100
AcDbEllipse
 10
8222.244916929467
 20
2131.221767816262
 30
0.0
 11
40.0
 21
0.0
 31
0.0
210
0.0
220
0.0
230
1.0
 40
0.4
 41
0.0
 42
6.283185307179586
  0
LINE
  5
2A796
330
747D
100
AcDbEntity
  8
部品1
100
AcDbLine
 10
8216.844916929465
 20
1914.858479371989
 30
0.0
 11
8227.644916929467
 21
1914.858479371989
 31
0.0
  0
LINE
  5
2A797
330
747D
100
AcDbEntity
  8
部品1
100
AcDbLine
 10
8213.244916929467
 20
1911.25847937199
 30
0.0
 11
8231.244916929467
 21
1911.25847937199
 31
0.0
  0
LINE
  5
2A798
330
747D
100
AcDbEntity
  8
細線
100
AcDbLine
 10
8216.844916929469
 20
1871.658479371989
 30
0.0
 11
8216.844916929465
 21
1914.858479371989
 31
0.0
  0
LINE
  5
2A799
330
747D
100
AcDbEntity
  8
細線
100
AcDbLine
 10
8227.644916929467
 20
1871.658479371989
 30
0.0
 11
8227.644916929467
 21
1914.858479371989
 31
0.0
  0
LINE
  5
2A79A
330
747D
100
AcDbEntity
  8
部品1
100
AcDbLine
 10
8129.544916929466
 20
1928.95847937199
 30
0.0
 11
8129.544916929466
 21
1911.858479371989
 31
0.0
  0
LINE
  5
2A79B
330
747D
100
AcDbEntity
  8
部品1
100
AcDbLine
 10
8163.104916929468
 20
1928.95847937199
 30
0.0
 11
8163.104916929464
 21
1874.358479371989
 31
0.0
  0
ARC
  5
2A79C
330
747D
100
AcDbEntity
  8
部品1
100
AcDbCircle
 10
8148.444916929468
 20
1916.998479371988
 30
0.0
 40
2.7
100
AcDbArc
 50
0.0
 51
90.0
  0
LINE
  5
2A79D
330
747D
100
AcDbEntity
  8
部品1
100
AcDbLine
 10
8108.844916929466
 20
1919.698479371989
 30
0.0
 11
8148.444916929468
 21
1919.698479371989
 31
0.0
  0
ARC
  5
2A79E
330
747D
100
AcDbEntity
  8
部品1
100
AcDbCircle
 10
8148.444916929468
 20
1874.358479371989
 30
0.0
 40
2.7
100
AcDbArc
 50
270.0
 51
0.0
  0
ARC
  5
2A79F
330
747D
100
AcDbEntity
  8
部品1
100
AcDbCircle
 10
8165.804916929461
 20
1874.358479371989
 30
0.0
 40
2.7
100
AcDbArc
 50
180.0
 51
270.0
  0
LINE
  5
2A7A0
330
747D
100
AcDbEntity
  8
部品1
100
AcDbLine
 10
8136.744916929467
 20
1871.658479371989
 30
0.0
 11
8148.444916929468
 21
1871.658479371989
 31
0.0
  0
LINE
  5
2A7A1
330
747D
100
AcDbEntity
  8
部品1
100
AcDbLine
 10
8151.144916929466
 20
1916.998479371988
 30
0.0
 11
8151.144916929466
 21
1874.358479371989
 31
0.0
  0
ARC
  5
2A7A2
330
747D
100
AcDbEntity
  8
部品1
100
AcDbCircle
 10
8160.404916929467
 20
1928.95847937199
 30
0.0
 40
2.7
100
AcDbArc
 50
0.0
 51
90.0
  0
ARC
  5
2A7A3
330
747D
100
AcDbEntity
  8
部品1
100
AcDbCircle
 10
8132.244916929467
 20
1928.95847937199
 30
0.0
 40
2.7
100
AcDbArc
 50
90.0
 51
180.0
  0
LINE
  5
2A7A4
330
747D
100
AcDbEntity
  8
部品1
100
AcDbLine
 10
8132.244916929467
 20
1931.658479371989
 30
0.0
 11
8160.404916929467
 21
1931.658479371989
 31
0.0
  0
LINE
  5
2A7A5
330
747D
100
AcDbEntity
  8
部品1
100
AcDbLine
 10
8108.844916929466
 20
1970.998479371986
 30
0.0
 11
8108.844916929466
 21
1919.698479371989
 31
0.0
  0
LINE
  5
2A7A6
330
747D
100
AcDbEntity
  8
部品1
100
AcDbLine
 10
8058.444916929467
 20
1952.098479371989
 30
0.0
 11
8058.444916929467
 21
1960.198479371989
 31
0.0
  0
LINE
  5
2A7A7
330
747D
100
AcDbEntity
  8
部品1
100
AcDbLine
 10
8165.804916929461
 20
1871.658479371989
 30
0.0
 11
8367.144916929461
 21
1871.658479371989
 31
0.0
  0
LINE
  5
2A7A8
330
747D
100
AcDbEntity
  8
部品1
100
AcDbLine
 10
8007.144916929467
 20
1874.358479371989
 30
0.0
 11
8007.144916929467
 21
1936.490383074697
 31
0.0
  0
LINE
  5
2A7A9
330
747D
100
AcDbEntity
  8
部品1
100
AcDbLine
 10
8009.844916929464
 20
1871.658479371989
 30
0.0
 11
8021.544916929462
 21
1871.658479371989
 31
0.0
  0
LINE
  5
2A7AA
330
747D
100
AcDbEntity
  8
細線
 48
50.0
100
AcDbLine
 10
8000.844916929464
 20
1849.879055671894
 30
0.0
 11
8013.06434062956
 21
1862.098479371989
 31
0.0
  0
ARC
  5
2A7AB
330
747D
100
AcDbEntity
  8
部品1
100
AcDbCircle
 10
8009.844916929464
 20
1874.358479371989
 30
0.0
 40
2.7
100
AcDbArc
 50
180.0
 51
270.0
  0
LINE
  5
2A7AC
330
747D
100
AcDbEntity
  8
部品1
100
AcDbLine
 10
8009.190070741869
 20
1939.109767825089
 30
0.0
 11
8017.944916929467
 21
1941.298479371989
 31
0.0
  0
ARC
  5
2A7AD
330
747D
100
AcDbEntity
  8
部品1
100
AcDbCircle
 10
8009.844916929464
 20
1936.490383074697
 30
0.0
 40
2.7
100
AcDbArc
 50
104.0362434679067
 51
180.0
  0
ARC
  5
2A7AE
330
747D
100
AcDbEntity
  8
部品1
100
AcDbCircle
 10
8020.644916929468
 20
1949.398479371989
 30
0.0
 40
2.7
100
AcDbArc
 50
90.0
 51
180.0
  0
LINE
  5
2A7AF
330
747D
100
AcDbEntity
  8
部品1
100
AcDbLine
 10
8017.944916929467
 20
1941.298479371989
 30
0.0
 11
8017.944916929467
 21
1949.398479371989
 31
0.0
  0
LINE
  5
2A7B0
330
747D
100
AcDbEntity
  8
部品1
 48
50.0
100
AcDbLine
 10
8000.844916929464
 20
1862.098479371989
 30
0.0
 11
8414.844916929469
 21
1862.098479371989
 31
0.0
  0
LINE
  5
2A7B1
330
747D
100
AcDbEntity
  8
細線
 48
50.0
100
AcDbLine
 10
8000.844916929464
 20
1795.997518945479
 30
0.0
 11
8066.945877355976
 21
1862.098479371989
 31
0.0
  0
LINE
  5
2A7B2
330
747D
100
AcDbEntity
  8
細線
 48
50.0
100
AcDbLine
 10
8000.844916929464
 20
1822.938287308687
 30
0.0
 11
8040.005108992772
 21
1862.098479371989
 31
0.0
  0
LINE
  5
2A7B3
330
747D
100
AcDbEntity
  8
部品1
100
AcDbLine
 10
8020.644916929468
 20
1952.098479371989
 30
0.0
 11
8058.444916929467
 21
1952.098479371989
 31
0.0
  0
LINE
  5
2A7B4
330
747D
100
AcDbEntity
  8
部品1
 48
50.0
100
AcDbLine
 10
8414.844916929466
 20
1318.098479371989
 30
0.0
 11
8542.844916929466
 21
1318.098479371989
 31
0.0
  0
LINE
  5
2A7B5
330
747D
100
AcDbEntity
  8
部品1
100
AcDbLine
 10
8231.244916929467
 20
1637.098479371989
 30
0.0
 11
8267.244916929467
 21
1637.098479371989
 31
0.0
  0
LINE
  5
2A7B6
330
747D
100
AcDbEntity
  8
部品1
100
AcDbLine
 10
8231.244916929467
 20
1619.098479371989
 30
0.0
 11
8267.244916929467
 21
1619.098479371989
 31
0.0
  0
ARC
  5
2A7B7
330
747D
100
AcDbEntity
  8
部品1
100
AcDbCircle
 10
8231.244916929467
 20
1637.098479371989
 30
0.0
 40
18.0
100
AcDbArc
 50
180.0
 51
270.0
  0
LINE
  5
2A7B8
330
747D
100
AcDbEntity
  8
部品1
100
AcDbLine
 10
8267.244916929467
 20
1619.098479371989
 30
0.0
 11
8267.244916929467
 21
1637.098479371989
 31
0.0
  0
LINE
  5
2A7B9
330
747D
100
AcDbEntity
  8
部品1
100
AcDbLine
 10
8285.244916929467
 20
1538.098479371987
 30
0.0
 11
8159.244916929459
 21
1538.098479371987
 31
0.0
  0
LINE
  5
2A7BA
330
747D
100
AcDbEntity
  8
細線
 48
50.0
100
AcDbLine
 10
8579.222742121801
 20
1054.098479371987
 30
0.0
 11
8572.791961503455
 21
1078.098479371987
 31
0.0
  0
LINE
  5
2A7BB
330
747D
100
AcDbEntity
  8
細線
 48
50.0
100
AcDbLine
 10
8500.334697174556
 20
1054.098479371987
 30
0.0
 11
8493.903916556211
 21
1078.098479371987
 31
0.0
  0
LINE
  5
2A7BC
330
747D
100
AcDbEntity
  8
細線
 48
50.0
100
AcDbLine
 10
8421.446652227301
 20
1054.098479371989
 30
0.0
 11
8415.015871608952
 21
1078.098479371989
 31
0.0
  0
LINE
  5
2A7BD
330
747D
100
AcDbEntity
  8
細線
 48
50.0
100
AcDbLine
 10
8557.786806727312
 20
974.0984793719873
 30
0.0
 11
8564.217587345659
 21
950.0984793719872
 31
0.0
  0
LINE
  5
2A7BE
330
747D
100
AcDbEntity
  8
細線
 48
50.0
100
AcDbLine
 10
8478.898761780067
 20
974.0984793719873
 30
0.0
 11
8485.329542398414
 21
950.0984793719872
 31
0.0
  0
LINE
  5
2A7BF
330
747D
100
AcDbEntity
  8
細線
 48
50.0
100
AcDbLine
 10
8400.010716832818
 20
974.098479371989
 30
0.0
 11
8406.441497451174
 21
950.098479371989
 31
0.0
  0
LINE
  5
2A7C0
330
747D
100
AcDbEntity
  8
細線
 48
50.0
100
AcDbLine
 10
8472.467981161718
 20
950.0984793719863
 30
0.0
 11
8506.765477792901
 21
1078.098479371986
 31
0.0
  0
LINE
  5
2A7C1
330
747D
100
AcDbEntity
  8
細線
 48
50.0
100
AcDbLine
 10
8393.579936214468
 20
950.0984793719872
 30
0.0
 11
8427.877432845642
 21
1078.098479371989
 31
0.0
  0
LINE
  5
2A7C2
330
747D
100
AcDbEntity
  8
細線
 48
50.0
100
AcDbLine
 10
8551.35602610896
 20
950.0984793719872
 30
0.0
 11
8585.653522740148
 21
1078.098479371986
 31
0.0
  0
LINE
  5
2A7C3
330
747D
100
AcDbEntity
  8
部品1
 48
50.0
100
AcDbLine
 10
8622.844916929469
 20
1078.098479371989
 30
0.0
 11
8622.844916929469
 21
950.098479371989
 31
0.0
  0
LINE
  5
2A7C4
330
747D
100
AcDbEntity
  8
細線
 48
50.0
100
AcDbLine
 10
8342.558607280061
 20
1054.098479371989
 30
0.0
 11
8336.127826661716
 21
1078.098479371989
 31
0.0
  0
LINE
  5
2A7C5
330
747D
100
AcDbEntity
  8
細線
 48
50.0
100
AcDbLine
 10
8263.670562332817
 20
1054.098479371989
 30
0.0
 11
8257.239781714469
 21
1078.098479371989
 31
0.0
  0
LINE
  5
2A7C6
330
747D
100
AcDbEntity
  8
細線
 48
50.0
100
AcDbLine
 10
8105.894472438322
 20
1054.098479371989
 30
0.0
 11
8099.463691819975
 21
1078.098479371989
 31
0.0
  0
LINE
  5
2A7C7
330
747D
100
AcDbEntity
  8
細線
 48
50.0
100
AcDbLine
 10
8184.782517385569
 20
1054.098479371989
 30
0.0
 11
8178.351736767222
 21
1078.098479371989
 31
0.0
  0
LINE
  5
2A7C8
330
747D
100
AcDbEntity
  8
細線
 48
50.0
100
AcDbLine
 10
8242.234626938326
 20
974.098479371989
 30
0.0
 11
8248.665407556673
 21
950.098479371989
 31
0.0
  0
LINE
  5
2A7C9
330
747D
100
AcDbEntity
  8
細線
 48
50.0
100
AcDbLine
 10
8321.122671885573
 20
974.098479371989
 30
0.0
 11
8327.553452503918
 21
950.098479371989
 31
0.0
  0
LINE
  5
2A7CA
330
747D
100
AcDbEntity
  8
細線
 48
50.0
100
AcDbLine
 10
8084.458537043833
 20
974.098479371989
 30
0.0
 11
8090.889317662179
 21
950.098479371989
 31
0.0
  0
LINE
  5
2A7CB
330
747D
100
AcDbEntity
  8
細線
 48
50.0
100
AcDbLine
 10
8163.346581991079
 20
974.098479371989
 30
0.0
 11
8169.777362609428
 21
950.098479371989
 31
0.0
  0
LINE
  5
2A7CC
330
747D
100
AcDbEntity
  8
細線
 48
50.0
100
AcDbLine
 10
8314.691891267219
 20
950.098479371989
 30
0.0
 11
8348.989387898404
 21
1078.098479371987
 31
0.0
  0
LINE
  5
2A7CD
330
747D
100
AcDbEntity
  8
細線
 48
50.0
100
AcDbLine
 10
8156.915801372729
 20
950.098479371989
 30
0.0
 11
8191.213298003914
 21
1078.098479371987
 31
0.0
  0
LINE
  5
2A7CE
330
747D
100
AcDbEntity
  8
細線
 48
50.0
100
AcDbLine
 10
8078.027756425482
 20
950.098479371989
 30
0.0
 11
8112.325253056665
 21
1078.098479371989
 31
0.0
  0
LINE
  5
2A7CF
330
747D
100
AcDbEntity
  8
細線
 48
50.0
100
AcDbLine
 10
8235.803846319978
 20
950.0984793719872
 30
0.0
 11
8270.101342951159
 21
1078.098479371987
 31
0.0
  0
LINE
  5
2A7D0
330
747D
100
AcDbEntity
  8
細線
 48
50.0
100
AcDbLine
 10
8360.576611884274
 20
1078.098479371989
 30
0.0
 11
8542.844916929466
 21
1260.366784417185
 31
0.0
  0
LINE
  5
2A7D1
330
747D
100
AcDbEntity
  8
部品1
 48
50.0
100
AcDbLine
 10
8542.844916929466
 20
1318.098479371989
 30
0.0
 11
8542.844916929466
 21
1078.098479371989
 31
0.0
  0
LINE
  5
2A7D2
330
747D
100
AcDbEntity
  8
細線
 48
50.0
100
AcDbLine
 10
8333.63584352107
 20
1078.098479371989
 30
0.0
 11
8542.844916929466
 21
1287.307552780382
 31
0.0
  0
LINE
  5
2A7D3
330
747D
100
AcDbEntity
  8
細線
 48
50.0
100
AcDbLine
 10
8306.695075157859
 20
1078.098479371989
 30
0.0
 11
8542.844916929466
 21
1314.248321143597
 31
0.0
  0
LINE
  5
2A7D4
330
747D
100
AcDbEntity
  8
細線
 48
50.0
100
AcDbLine
 10
8091.1689282522
 20
1078.098479371989
 30
0.0
 11
8414.844916929466
 21
1401.774468049255
 31
0.0
  0
LINE
  5
2A7D5
330
747D
100
AcDbEntity
  8
細線
 48
50.0
100
AcDbLine
 10
8145.050464978616
 20
1078.098479371989
 30
0.0
 11
8414.844916929466
 21
1347.892931322846
 31
0.0
  0
LINE
  5
2A7D6
330
747D
100
AcDbEntity
  8
細線
 48
50.0
100
AcDbLine
 10
8118.109696615411
 20
1078.098479371989
 30
0.0
 11
8414.844916929466
 21
1374.833699686041
 31
0.0
  0
LINE
  5
2A7D7
330
747D
100
AcDbEntity
  8
細線
 48
50.0
100
AcDbLine
 10
7872.844916929462
 20
1290.826761860575
 30
0.0
 11
7900.116634440881
 21
1318.098479371989
 31
0.0
  0
LINE
  5
2A7D8
330
747D
100
AcDbEntity
  8
部品1
 48
50.0
100
AcDbLine
 10
7872.844916929465
 20
1318.098479371989
 30
0.0
 11
8000.844916929464
 21
1318.098479371989
 31
0.0
  0
LINE
  5
2A7D9
330
747D
100
AcDbEntity
  8
細線
 48
50.0
100
AcDbLine
 10
7872.844916929462
 20
1263.885993497364
 30
0.0
 11
7927.05740280409
 21
1318.098479371989
 31
0.0
  0
LWPOLYLINE
  5
2A7DA
330
747D
100
AcDbEntity
  8
部品1
 48
50.0
100
AcDbPolyline
 90
        2
 70
     0
 43
8.0
 10
7586.70501509651
 20
1622.09847937199
 10
8000.844916929464
 20
1622.09847937199
  0
LINE
  5
2A7DB
330
747D
100
AcDbEntity
  8
細線
 48
50.0
100
AcDbLine
 10
7948.118382543821
 20
1054.098479371989
 30
0.0
 11
7941.687601925472
 21
1078.098479371989
 31
0.0
  0
LINE
  5
2A7DC
330
747D
100
AcDbEntity
  8
細線
 48
50.0
100
AcDbLine
 10
8027.006427491071
 20
1054.098479371989
 30
0.0
 11
8020.575646872723
 21
1078.098479371989
 31
0.0
  0
LINE
  5
2A7DD
330
747D
100
AcDbEntity
  8
細線
 48
50.0
100
AcDbLine
 10
7869.230337596568
 20
1054.098479371989
 30
0.0
 11
7862.799556978221
 21
1078.098479371989
 31
0.0
  0
LINE
  5
2A7DE
330
747D
100
AcDbEntity
  8
細線
 48
50.0
100
AcDbLine
 10
7792.844916929465
 20
1063.438400337769
 30
0.0
 11
7796.773073267662
 21
1078.098479371989
 31
0.0
  0
LINE
  5
2A7DF
330
747D
100
AcDbEntity
  8
細線
 48
50.0
100
AcDbLine
 10
7926.682447149331
 20
974.098479371989
 30
0.0
 11
7933.113227767677
 21
950.098479371989
 31
0.0
  0
LINE
  5
2A7E0
330
747D
100
AcDbEntity
  8
細線
 48
50.0
100
AcDbLine
 10
8005.570492096582
 20
974.098479371989
 30
0.0
 11
8012.001272714931
 21
950.098479371989
 31
0.0
  0
LINE
  5
2A7E1
330
747D
100
AcDbEntity
  8
細線
 48
50.0
100
AcDbLine
 10
7847.794402202078
 20
974.098479371989
 30
0.0
 11
7854.225182820425
 21
950.098479371989
 31
0.0
  0
LINE
  5
2A7E2
330
747D
100
AcDbEntity
  8
細線
 48
50.0
100
AcDbLine
 10
7999.13971147823
 20
950.0984793719872
 30
0.0
 11
8033.437208109411
 21
1078.098479371987
 31
0.0
  0
LINE
  5
2A7E3
330
747D
100
AcDbEntity
  8
細線
 48
50.0
100
AcDbLine
 10
7841.363621583726
 20
950.0984793719872
 30
0.0
 11
7875.661118214908
 21
1078.098479371987
 31
0.0
  0
LINE
  5
2A7E4
330
747D
100
AcDbEntity
  8
部品1
 48
50.0
100
AcDbLine
 10
7792.844916929469
 20
950.098479371989
 30
0.0
 11
7792.844916929469
 21
1078.098479371989
 31
0.0
  0
LINE
  5
2A7E5
330
747D
100
AcDbEntity
  8
細線
 48
50.0
100
AcDbLine
 10
7920.251666530983
 20
950.098479371989
 30
0.0
 11
7954.549163162166
 21
1078.098479371989
 31
0.0
  0
LINE
  5
2A7E6
330
747D
100
AcDbEntity
  8
部品1
 48
50.0
100
AcDbLine
 10
7872.844916929465
 20
1078.098479371989
 30
0.0
 11
7872.844916929465
 21
1318.098479371989
 31
0.0
  0
LINE
  5
2A7E7
330
747D
100
AcDbEntity
  8
細線
 48
50.0
100
AcDbLine
 10
7872.844916929462
 20
1236.94522513416
 30
0.0
 11
7953.998171167295
 21
1318.098479371989
 31
0.0
  0
LINE
  5
2A7E8
330
747D
100
AcDbEntity
  8
部品1
 48
50.0
100
AcDbLine
 10
8622.844916929469
 20
950.098479371989
 30
0.0
 11
7792.844916929469
 21
950.098479371989
 31
0.0
  0
LINE
  5
2A7E9
330
747D
100
AcDbEntity
  8
部品1
 48
50.0
100
AcDbLine
 10
8622.844916929469
 20
1078.098479371989
 30
0.0
 11
7792.844916929469
 21
1078.098479371989
 31
0.0
  0
LINE
  5
2A7EA
330
747D
100
AcDbEntity
  8
細線
 48
50.0
100
AcDbLine
 10
7875.642781346542
 20
1078.098479371989
 30
0.0
 11
8414.844916929466
 21
1617.300614954914
 31
0.0
  0
LINE
  5
2A7EB
330
747D
100
AcDbEntity
  8
細線
 48
50.0
100
AcDbLine
 10
7902.58354970975
 20
1078.098479371989
 30
0.0
 11
8414.844916929469
 21
1590.359846591703
 31
0.0
  0
LINE
  5
2A7EC
330
747D
100
AcDbEntity
  8
細線
 48
50.0
100
AcDbLine
 10
7929.524318072956
 20
1078.098479371989
 30
0.0
 11
8414.844916929466
 21
1563.419078228497
 31
0.0
  0
LINE
  5
2A7ED
330
747D
100
AcDbEntity
  8
細線
 48
50.0
100
AcDbLine
 10
8000.844916929464
 20
1418.826761860575
 30
0.0
 11
8159.244916929459
 21
1577.22676186057
 31
0.0
  0
LINE
  5
2A7EE
330
747D
100
AcDbEntity
  8
細線
 48
50.0
100
AcDbLine
 10
8000.844916929464
 20
1364.94522513416
 30
0.0
 11
8173.998171167303
 21
1538.098479371987
 31
0.0
  0
LINE
  5
2A7EF
330
747D
100
AcDbEntity
  8
細線
 48
50.0
100
AcDbLine
 10
8000.844916929464
 20
1391.885993497367
 30
0.0
 11
8159.244916929459
 21
1550.285993497356
 31
0.0
  0
LINE
  5
2A7F0
330
747D
100
AcDbEntity
  8
部品1
100
AcDbLine
 10
8159.244916929459
 20
1538.098479371989
 30
0.0
 11
8159.244916929466
 21
1862.098479371989
 31
0.0
  0
LINE
  5
2A7F1
330
747D
100
AcDbEntity
  8
部品1
100
AcDbLine
 10
8285.244916929467
 20
1538.098479371989
 30
0.0
 11
8285.244916929467
 21
1862.098479371989
 31
0.0
  0
LINE
  5
2A7F2
330
747D
100
AcDbEntity
  8
細線
 48
50.0
100
AcDbLine
 10
8285.244916929467
 20
1676.28599349736
 30
0.0
 11
8414.844916929466
 21
1805.885993497357
 31
0.0
  0
LINE
  5
2A7F3
330
747D
100
AcDbEntity
  8
細線
 48
50.0
100
AcDbLine
 10
8285.244916929467
 20
1649.345225134148
 30
0.0
 11
8414.844916929466
 21
1778.945225134139
 31
0.0
  0
LINE
  5
2A7F4
330
747D
100
AcDbEntity
  8
部品1
100
AcDbLine
 10
8213.244916929467
 20
1637.098479371989
 30
0.0
 11
8213.244916929463
 21
1911.25847937199
 31
0.0
  0
LINE
  5
2A7F5
330
747D
100
AcDbEntity
  8
部品1
100
AcDbLine
 10
8231.244916929467
 20
1637.098479371989
 30
0.0
 11
8231.244916929464
 21
1911.25847937199
 31
0.0
  0
TEXT
  5
2A7F6
330
747D
100
AcDbEntity
  8
部品1
 48
50.0
100
AcDbText
 10
7586.70501509651
 20
1633.337471655244
 30
0.0
 40
80.0
  1
▽G.L
  7
STYLE2
100
AcDbText
  0
LINE
  5
2A7F7
330
747D
100
AcDbEntity
  8
細線
 48
50.0
100
AcDbLine
 10
8000.844916929464
 20
1580.471372039819
 30
0.0
 11
8159.244916929464
 21
1738.871372039812
 31
0.0
  0
LINE
  5
2A7F8
330
747D
100
AcDbEntity
  8
細線
 48
50.0
100
AcDbLine
 10
8000.844916929464
 20
1607.412140403026
 30
0.0
 11
8159.244916929464
 21
1765.812140403024
 31
0.0
  0
LINE
  5
2A7F9
330
747D
100
AcDbEntity
  8
細線
 48
50.0
100
AcDbLine
 10
8000.844916929464
 20
1634.352908766234
 30
0.0
 11
8159.244916929464
 21
1792.752908766231
 31
0.0
  0
LINE
  5
2A7FA
330
747D
100
AcDbEntity
  8
部品1
 48
50.0
100
AcDbLine
 10
8000.844916929464
 20
1318.098479371989
 30
0.0
 11
8000.844916929464
 21
1862.098479371989
 31
0.0
  0
LINE
  5
2A7FB
330
747D
100
AcDbEntity
  8
部品1
100
AcDbLine
 10
8414.844916929466
 20
1318.098479371989
 30
0.0
 11
8414.844916929466
 21
1862.098479371989
 31
0.0
  0
LINE
  5
2A7FC
330
747D
100
AcDbEntity
  8
細線
 48
50.0
100
AcDbLine
 10
8285.244916929467
 20
1703.226761860577
 30
0.0
 11
8414.844916929466
 21
1832.826761860576
 31
0.0
  0
LINE
  5
2A7FD
330
747D
100
AcDbEntity
  8
細線
 48
50.0
100
AcDbLine
 10
6409.298026254742
 20
1742.845331268705
 30
0.0
 11
6492.805603752273
 21
1826.352908766234
 31
0.0
  0
LINE
  5
2A7FE
330
747D
100
AcDbEntity
  8
細線
 48
50.0
100
AcDbLine
 10
6420.358311018259
 20
1726.964847669011
 30
0.0
 11
6492.805603752273
 21
1799.412140403027
 31
0.0
  0
LINE
  5
2A7FF
330
747D
100
AcDbEntity
  8
細線
 48
50.0
100
AcDbLine
 10
6300.805603752273
 20
1849.879055671894
 30
0.0
 11
6313.025027452368
 21
1862.098479371989
 31
0.0
  0
LINE
  5
2A800
330
747D
100
AcDbEntity
  8
細線
 48
50.0
100
AcDbLine
 10
6300.805603752273
 20
1795.997518945479
 30
0.0
 11
6366.906564178782
 21
1862.098479371989
 31
0.0
  0
LINE
  5
2A801
330
747D
100
AcDbEntity
  8
細線
 48
50.0
100
AcDbLine
 10
6300.805603752273
 20
1822.938287308687
 30
0.0
 11
6339.965795815577
 21
1862.098479371989
 31
0.0
  0
LINE
  5
2A802
330
747D
100
AcDbEntity
  8
部品1
 48
50.0
100
AcDbLine
 10
6300.805603752273
 20
1862.098479371989
 30
0.0
 11
6492.805603752273
 21
1862.098479371989
 31
0.0
  0
DIMENSION
  5
2A803
330
747D
100
AcDbEntity
  8
寸法
 48
50.0
100
AcDbDimension
  2
*D46
 10
6300.805603752272
 20
2281.76628728837
 30
0.0
 11
6396.805603752272
 21
2281.76628728837
 31
0.0
 70
   160
  1
120\P200\P280
 71
     5
 42
192.0
  3
INABA_S40G
100
AcDbAlignedDimension
 13
6492.805603752272
 23
1862.098479371989
 33
0.0
 14
6300.805603752272
 24
1862.098479371989
 34
0.0
100
AcDbRotatedDimension
1001
ACAD
1000
DSTYLE
1002
{
1070
   341
1005
0
1002
}
  0
MTEXT
  5
2A804
102
{ACAD_REACTORS
330
2A859
102
}
330
747D
100
AcDbEntity
  8
寸法
 62
     7
 48
50.0
100
AcDbMText
 10
6734.544059613523
 20
900.7493936398359
 30
0.0
 40
80.0
 41
0.8
 71
     4
 72
     1
  1
\A1;D10@300
  7
STYLE2
 73
     1
 44
1.0
1001
ACAD
1000
MTEXTBEGIN
1070
    73
1070
     1
1070
    44
1040
1.0
1070
    74
1070
     0
1000
MTEXTEND
  0
LINE
  5
2A805
330
747D
100
AcDbEntity
  8
細線
 48
50.0
100
AcDbLine
 10
6420.805603752278
 20
1511.88599349737
 30
0.0
 11
6492.805603752265
 21
1583.885993497364
 31
0.0
  0
LINE
  5
2A806
330
747D
100
AcDbEntity
  8
細線
 48
50.0
100
AcDbLine
 10
6420.805603752272
 20
1538.826761860575
 30
0.0
 11
6492.805603752273
 21
1610.826761860575
 31
0.0
  0
LINE
  5
2A807
330
747D
100
AcDbEntity
  8
細線
 48
50.0
100
AcDbLine
 10
6420.805603752278
 20
1269.4190782285
 30
0.0
 11
6492.805603752265
 21
1341.4190782285
 31
0.0
  0
LINE
  5
2A808
330
747D
100
AcDbEntity
  8
細線
 48
50.0
100
AcDbLine
 10
6420.805603752278
 20
1323.300614954918
 30
0.0
 11
6492.805603752265
 21
1395.300614954914
 31
0.0
  0
LINE
  5
2A809
330
747D
100
AcDbEntity
  8
細線
 48
50.0
100
AcDbLine
 10
6420.805603752278
 20
1296.35984659171
 30
0.0
 11
6492.805603752265
 21
1368.359846591705
 31
0.0
  0
LINE
  5
2A80A
330
747D
100
AcDbEntity
  8
部品1
 48
50.0
100
AcDbLine
 10
6492.805603752273
 20
1318.098479371989
 30
0.0
 11
6620.805603752272
 21
1318.098479371989
 31
0.0
  0
LINE
  5
2A80B
330
747D
100
AcDbEntity
  8
細線
 48
50.0
100
AcDbLine
 10
6420.805603752278
 20
1484.94522513416
 30
0.0
 11
6492.805603752265
 21
1556.94522513416
 31
0.0
  0
LINE
  5
2A80C
330
747D
100
AcDbEntity
  8
部品1
 48
50.0
100
AcDbLine
 10
6388.805603752273
 20
1664.225694069111
 30
0.0
 11
6388.805603752273
 21
1722.352908766234
 31
0.0
  0
LINE
  5
2A80D
330
747D
100
AcDbEntity
  8
細線
 48
50.0
100
AcDbLine
 10
6300.805603752273
 20
1634.352908766234
 30
0.0
 11
6372.805603752272
 21
1706.352908766234
 31
0.0
  0
LINE
  5
2A80E
330
747D
100
AcDbEntity
  8
部品1
 48
50.0
100
AcDbLine
 10
6372.805603752272
 20
1664.225694069115
 30
0.0
 11
6372.805603752272
 21
1722.352908766234
 31
0.0
  0
LINE
  5
2A80F
330
747D
100
AcDbEntity
  8
細線
 48
50.0
100
AcDbLine
 10
6300.805603752273
 20
1607.412140403026
 30
0.0
 11
6372.805603752272
 21
1679.412140403027
 31
0.0
  0
LINE
  5
2A810
330
747D
100
AcDbEntity
  8
細線
 48
50.0
100
AcDbLine
 10
6300.805603752273
 20
1580.471372039819
 30
0.0
 11
6384.559925781566
 21
1664.225694069111
 31
0.0
  0
LINE
  5
2A811
330
747D
100
AcDbEntity
  8
部品1
 48
50.0
100
AcDbLine
 10
6388.805603752273
 20
1664.225694069111
 30
0.0
 11
6372.805603752272
 21
1664.225694069115
 31
0.0
  0
LINE
  5
2A812
330
747D
100
AcDbEntity
  8
細線
 48
50.0
100
AcDbLine
 10
6172.805603752266
 20
1290.826761860575
 30
0.0
 11
6200.077321263687
 21
1318.098479371989
 31
0.0
  0
LINE
  5
2A813
330
747D
100
AcDbEntity
  8
細線
 48
50.0
100
AcDbLine
 10
6172.805603752266
 20
1263.885993497364
 30
0.0
 11
6227.018089626898
 21
1318.098479371989
 31
0.0
  0
LINE
  5
2A814
330
747D
100
AcDbEntity
  8
部品1
 48
50.0
100
AcDbLine
 10
6172.805603752273
 20
1318.098479371989
 30
0.0
 11
6300.805603752273
 21
1318.098479371989
 31
0.0
  0
LINE
  5
2A815
330
747D
100
AcDbEntity
  8
細線
 48
50.0
100
AcDbLine
 10
6388.805603752273
 20
1695.412140403027
 30
0.0
 11
6404.805603752272
 21
1711.412140403027
 31
0.0
  0
LINE
  5
2A816
330
747D
100
AcDbEntity
  8
細線
 48
50.0
100
AcDbLine
 10
6388.805603752273
 20
1668.471372039819
 30
0.0
 11
6404.805603752272
 21
1684.471372039819
 31
0.0
  0
LINE
  5
2A817
330
747D
100
AcDbEntity
  8
細線
 48
50.0
100
AcDbLine
 10
6300.805603752273
 20
1364.94522513416
 30
0.0
 11
6404.805603752278
 21
1468.94522513416
 31
0.0
  0
LINE
  5
2A818
330
747D
100
AcDbEntity
  8
細線
 48
50.0
100
AcDbLine
 10
6300.805603752273
 20
1418.826761860575
 30
0.0
 11
6404.805603752272
 21
1522.826761860575
 31
0.0
  0
LINE
  5
2A819
330
747D
100
AcDbEntity
  8
細線
 48
50.0
100
AcDbLine
 10
6300.805603752273
 20
1391.885993497367
 30
0.0
 11
6404.805603752278
 21
1495.88599349737
 31
0.0
  0
LINE
  5
2A81A
330
747D
100
AcDbEntity
  8
細線
 48
50.0
100
AcDbLine
 10
6563.631249155619
 20
1054.098479371989
 30
0.0
 11
6557.200468537274
 21
1078.098479371989
 31
0.0
  0
LINE
  5
2A81B
330
747D
100
AcDbEntity
  8
細線
 48
50.0
100
AcDbLine
 10
6606.655761980666
 20
1078.098479371989
 30
0.0
 11
6620.805603752272
 21
1092.248321143595
 31
0.0
  0
LINE
  5
2A81C
330
747D
100
AcDbEntity
  8
細線
 48
50.0
100
AcDbLine
 10
6642.519294102867
 20
1054.098479371989
 30
0.0
 11
6636.088513484519
 21
1078.098479371989
 31
0.0
  0
LINE
  5
2A81D
330
747D
100
AcDbEntity
  8
部品1
 48
50.0
100
AcDbLine
 10
6564.805603752273
 20
1190.098479371989
 30
0.0
 11
6564.805603752273
 21
1174.098479371989
 31
0.0
  0
LINE
  5
2A81E
330
747D
100
AcDbEntity
  8
細線
 48
50.0
100
AcDbLine
 10
6445.01115180142
 20
1078.098479371989
 30
0.0
 11
6541.012039646557
 21
1174.099367217128
 31
0.0
  0
LINE
  5
2A81F
330
747D
100
AcDbEntity
  8
細線
 48
50.0
100
AcDbLine
 10
6418.070383438217
 20
1078.098479371989
 30
0.0
 11
6514.070383438216
 21
1174.098479371989
 31
0.0
  0
LINE
  5
2A820
330
747D
100
AcDbEntity
  8
細線
 48
50.0
100
AcDbLine
 10
6484.743204208375
 20
1054.098479371989
 30
0.0
 11
6478.312423590029
 21
1078.098479371989
 31
0.0
  0
LINE
  5
2A821
330
747D
100
AcDbEntity
  8
細線
 48
50.0
100
AcDbLine
 10
6405.855159261129
 20
1054.098479371989
 30
0.0
 11
6399.424378642781
 21
1078.098479371989
 31
0.0
  0
ARC
  5
2A822
330
747D
100
AcDbEntity
  8
部品1
 48
50.0
100
AcDbCircle
 10
6396.805603752273
 20
1198.098479371989
 30
0.0
 40
24.0
100
AcDbArc
 50
340.5287793655256
 51
0.0
  0
CIRCLE
  5
2A823
330
747D
100
AcDbEntity
  8
部品1
 48
50.0
100
AcDbCircle
 10
6524.805603752273
 20
1198.098479371989
 30
0.0
 40
8.0
  0
LINE
  5
2A824
330
747D
100
AcDbEntity
  8
細線
 48
50.0
100
AcDbLine
 10
6557.01115180142
 20
1190.098479371989
 30
0.0
 11
6620.805603752272
 21
1253.89293132284
 31
0.0
  0
LINE
  5
2A825
330
747D
100
AcDbEntity
  8
細線
 48
50.0
100
AcDbLine
 10
6693.540623037276
 20
950.0984793719872
 30
0.0
 11
6700.805603752273
 21
977.2117565163771
 31
0.0
  0
LINE
  5
2A826
330
747D
100
AcDbEntity
  8
細線
 48
50.0
100
AcDbLine
 10
6699.971403655625
 20
974.098479371989
 30
0.0
 11
6700.805603752273
 21
970.9852022276246
 31
0.0
  0
LINE
  5
2A827
330
747D
100
AcDbEntity
  8
細線
 48
50.0
100
AcDbLine
 10
6621.083358708379
 20
974.098479371989
 30
0.0
 11
6627.514139326726
 21
950.098479371989
 31
0.0
  0
LINE
  5
2A828
330
747D
100
AcDbEntity
  8
細線
 48
50.0
100
AcDbLine
 10
6463.307268813885
 20
974.098479371989
 30
0.0
 11
6469.738049432232
 21
950.098479371989
 31
0.0
  0
LINE
  5
2A829
330
747D
100
AcDbEntity
  8
細線
 48
50.0
100
AcDbLine
 10
6542.195313761131
 20
974.098479371989
 30
0.0
 11
6548.626094379478
 21
950.098479371989
 31
0.0
  0
LINE
  5
2A82A
330
747D
100
AcDbEntity
  8
細線
 48
50.0
100
AcDbLine
 10
6535.764533142781
 20
950.0984793719872
 30
0.0
 11
6570.062029773966
 21
1078.098479371987
 31
0.0
  0
LINE
  5
2A82B
330
747D
100
AcDbEntity
  8
細線
 48
50.0
100
AcDbLine
 10
6456.876488195532
 20
950.098479371989
 30
0.0
 11
6491.173984826719
 21
1078.098479371987
 31
0.0
  0
LINE
  5
2A82C
330
747D
100
AcDbEntity
  8
細線
 48
50.0
100
AcDbLine
 10
6614.652578090026
 20
950.098479371989
 30
0.0
 11
6648.950074721212
 21
1078.098479371987
 31
0.0
  0
LINE
  5
2A82D
330
747D
100
AcDbEntity
  8
部品1
 48
50.0
100
AcDbLine
 10
6700.805603752276
 20
1078.098479371989
 30
0.0
 11
6700.805603752276
 21
950.098479371989
 31
0.0
  0
LINE
  5
2A82E
330
747D
100
AcDbEntity
  8
部品1
 48
50.0
100
AcDbLine
 10
6388.805603752273
 20
1256.225694069111
 30
0.0
 11
6388.805603752273
 21
1198.098479371989
 31
0.0
  0
LINE
  5
2A82F
330
747D
100
AcDbEntity
  8
細線
 48
50.0
100
AcDbLine
 10
6314.544236532556
 20
1190.098479371989
 30
0.0
 11
6372.805603752272
 21
1248.359846591707
 31
0.0
  0
LINE
  5
2A830
330
747D
100
AcDbEntity
  8
部品1
 48
50.0
100
AcDbLine
 10
6372.805603752272
 20
1256.225694069111
 30
0.0
 11
6372.805603752272
 21
1198.098479371989
 31
0.0
  0
LINE
  5
2A831
330
747D
100
AcDbEntity
  8
細線
 48
50.0
100
AcDbLine
 10
6229.485004895761
 20
1078.098479371989
 30
0.0
 11
6325.485004895761
 21
1174.098479371989
 31
0.0
  0
LINE
  5
2A832
330
747D
100
AcDbEntity
  8
細線
 48
50.0
100
AcDbLine
 10
6326.967114313877
 20
1054.098479371989
 30
0.0
 11
6320.536333695531
 21
1078.098479371989
 31
0.0
  0
LINE
  5
2A833
330
747D
100
AcDbEntity
  8
細線
 48
50.0
100
AcDbLine
 10
6248.079069366625
 20
1054.098479371989
 30
0.0
 11
6241.648288748278
 21
1078.098479371989
 31
0.0
  0
ARC
  5
2A834
330
747D
100
AcDbEntity
  8
部品1
 48
50.0
100
AcDbCircle
 10
6396.805603752273
 20
1198.098479371989
 30
0.0
 40
24.0
100
AcDbArc
 50
180.0
 51
199.4712206344743
  0
LINE
  5
2A835
330
747D
100
AcDbEntity
  8
細線
 48
50.0
100
AcDbLine
 10
6341.485004895762
 20
1190.098479371989
 30
0.0
 11
6372.805603752272
 21
1221.4190782285
 31
0.0
  0
CIRCLE
  5
2A836
330
747D
100
AcDbEntity
  8
部品1
 48
50.0
100
AcDbCircle
 10
6268.805603752273
 20
1198.098479371989
 30
0.0
 40
8.0
  0
LINE
  5
2A837
330
747D
100
AcDbEntity
  8
部品1
 48
50.0
100
AcDbLine
 10
6388.805603752273
 20
1256.225694069111
 30
0.0
 11
6372.805603752272
 21
1256.225694069111
 31
0.0
  0
LINE
  5
2A838
330
747D
100
AcDbEntity
  8
細線
 48
50.0
100
AcDbLine
 10
6092.805603752273
 20
1063.438400337769
 30
0.0
 11
6096.733760090469
 21
1078.098479371989
 31
0.0
  0
LINE
  5
2A839
330
747D
100
AcDbEntity
  8
細線
 48
50.0
100
AcDbLine
 10
6169.191024419373
 20
1054.098479371989
 30
0.0
 11
6162.760243801026
 21
1078.098479371989
 31
0.0
  0
LINE
  5
2A83A
330
747D
100
AcDbEntity
  8
部品1
 48
50.0
100
AcDbLine
 10
6228.805603752273
 20
1190.098479371989
 30
0.0
 11
6228.805603752273
 21
1174.098479371989
 31
0.0
  0
LINE
  5
2A83B
330
747D
100
AcDbEntity
  8
細線
 48
50.0
100
AcDbLine
 10
6175.603468169345
 20
1078.098479371989
 30
0.0
 11
6271.603468169345
 21
1174.098479371989
 31
0.0
  0
LINE
  5
2A83C
330
747D
100
AcDbEntity
  8
細線
 48
50.0
100
AcDbLine
 10
6202.544236532556
 20
1078.098479371989
 30
0.0
 11
6298.544236532556
 21
1174.098479371989
 31
0.0
  0
LINE
  5
2A83D
330
747D
100
AcDbEntity
  8
細線
 48
50.0
100
AcDbLine
 10
6305.531178919387
 20
974.098479371989
 30
0.0
 11
6311.961959537733
 21
950.098479371989
 31
0.0
  0
LINE
  5
2A83E
330
747D
100
AcDbEntity
  8
細線
 48
50.0
100
AcDbLine
 10
6384.41922386664
 20
974.098479371989
 30
0.0
 11
6390.850004484986
 21
950.098479371989
 31
0.0
  0
LINE
  5
2A83F
330
747D
100
AcDbEntity
  8
細線
 48
50.0
100
AcDbLine
 10
6147.755089024884
 20
974.098479371989
 30
0.0
 11
6154.18586964323
 21
950.098479371989
 31
0.0
  0
LINE
  5
2A840
330
747D
100
AcDbEntity
  8
細線
 48
50.0
100
AcDbLine
 10
6226.643133972135
 20
974.098479371989
 30
0.0
 11
6233.073914590483
 21
950.098479371989
 31
0.0
  0
LINE
  5
2A841
330
747D
100
AcDbEntity
  8
部品1
 48
50.0
100
AcDbLine
 10
6092.805603752275
 20
950.098479371989
 30
0.0
 11
6092.805603752275
 21
1078.098479371989
 31
0.0
  0
LINE
  5
2A842
330
747D
100
AcDbEntity
  8
細線
 48
50.0
100
AcDbLine
 10
6141.324308406531
 20
950.0984793719872
 30
0.0
 11
6175.621805037714
 21
1078.098479371987
 31
0.0
  0
LINE
  5
2A843
330
747D
100
AcDbEntity
  8
細線
 48
50.0
100
AcDbLine
 10
6299.100398301034
 20
950.0984793719872
 30
0.0
 11
6333.397894932217
 21
1078.098479371987
 31
0.0
  0
LINE
  5
2A844
330
747D
100
AcDbEntity
  8
細線
 48
50.0
100
AcDbLine
 10
6220.212353353788
 20
950.098479371989
 30
0.0
 11
6254.509849984972
 21
1078.098479371989
 31
0.0
  0
LINE
  5
2A845
330
747D
100
AcDbEntity
  8
細線
 48
50.0
100
AcDbLine
 10
6391.129615075006
 20
1078.098479371989
 30
0.0
 11
6487.129615075005
 21
1174.098479371989
 31
0.0
  0
CIRCLE
  5
2A846
330
747D
100
AcDbEntity
  8
部品1
 48
50.0
100
AcDbCircle
 10
6396.805603752273
 20
1198.098479371989
 30
0.0
 40
8.0
  0
LINE
  5
2A847
330
747D
100
AcDbEntity
  8
部品1
 48
50.0
100
AcDbLine
 10
6700.805603752276
 20
1078.098479371989
 30
0.0
 11
6092.805603752275
 21
1078.098479371989
 31
0.0
  0
LINE
  5
2A848
330
747D
100
AcDbEntity
  8
部品1
 48
50.0
100
AcDbLine
 10
6228.805603752273
 20
1190.098479371989
 30
0.0
 11
6564.805603752273
 21
1190.098479371989
 31
0.0
  0
LINE
  5
2A849
330
747D
100
AcDbEntity
  8
部品1
 48
50.0
100
AcDbLine
 10
6228.805603752273
 20
1174.098479371989
 30
0.0
 11
6564.805603752273
 21
1174.098479371989
 31
0.0
  0
LINE
  5
2A84A
330
747D
100
AcDbEntity
  8
部品1
 48
50.0
100
AcDbLine
 10
6700.805603752276
 20
950.098479371989
 30
0.0
 11
6092.805603752275
 21
950.098479371989
 31
0.0
  0
LINE
  5
2A84B
330
747D
100
AcDbEntity
  8
細線
 48
50.0
100
AcDbLine
 10
6377.988443248287
 20
950.098479371989
 30
0.0
 11
6412.28593987947
 21
1078.098479371989
 31
0.0
  0
LINE
  5
2A84C
330
747D
100
AcDbEntity
  8
細線
 48
50.0
100
AcDbLine
 10
6388.805603752273
 20
1237.4190782285
 30
0.0
 11
6404.805603752278
 21
1253.4190782285
 31
0.0
  0
LINE
  5
2A84D
330
747D
100
AcDbEntity
  8
部品1
 48
50.0
100
AcDbLine
 10
6404.805603752278
 20
1198.098479371989
 30
0.0
 11
6404.805603752265
 21
1722.352908766234
 31
0.0
  0
LINE
  5
2A84E
330
747D
100
AcDbEntity
  8
部品1
 48
50.0
100
AcDbLine
 10
6420.805603752278
 20
1198.098479371989
 30
0.0
 11
6420.805603752272
 21
1722.352908766234
 31
0.0
  0
LINE
  5
2A84F
330
747D
100
AcDbEntity
  8
部品1
 48
50.0
100
AcDbLine
 10
6620.805603752272
 20
1318.098479371989
 30
0.0
 11
6620.805603752272
 21
1078.098479371989
 31
0.0
  0
LINE
  5
2A850
330
747D
100
AcDbEntity
  8
細線
 48
50.0
100
AcDbLine
 10
6503.129615075001
 20
1190.098479371989
 30
0.0
 11
6620.805603752272
 21
1307.774468049255
 31
0.0
  0
LINE
  5
2A851
330
747D
100
AcDbEntity
  8
細線
 48
50.0
100
AcDbLine
 10
6530.070383438216
 20
1190.098479371989
 30
0.0
 11
6620.805603752272
 21
1280.833699686048
 31
0.0
  0
LINE
  5
2A852
330
747D
100
AcDbEntity
  8
部品1
 48
50.0
100
AcDbLine
 10
6172.805603752273
 20
1078.098479371989
 30
0.0
 11
6172.805603752273
 21
1318.098479371989
 31
0.0
  0
LINE
  5
2A853
330
747D
100
AcDbEntity
  8
細線
 48
50.0
100
AcDbLine
 10
6287.603468169345
 20
1190.098479371989
 30
0.0
 11
6404.805603752272
 21
1307.300614954914
 31
0.0
  0
LINE
  5
2A854
330
747D
100
AcDbEntity
  8
細線
 48
50.0
100
AcDbLine
 10
6380.671451229677
 20
1256.225694069111
 30
0.0
 11
6404.805603752278
 21
1280.35984659171
 31
0.0
  0
LINE
  5
2A855
330
747D
100
AcDbEntity
  8
細線
 48
50.0
100
AcDbLine
 10
6172.805603752266
 20
1236.94522513416
 30
0.0
 11
6253.958857990101
 21
1318.098479371989
 31
0.0
  0
LEADER
  5
2A856
330
747D
100
AcDbEntity
  8
寸法
 48
50.0
100
AcDbLeader
  3
INABA_S50G
 71
     0
 73
     0
 74
     0
 75
     1
 40
100.0
 41
222.7272727272727
 76
     3
 10
6396.805603752272
 20
1722.352908766234
 30
0.0
 10
6450.691540779667
 20
1821.588481619408
 30
0.0
 10
6575.691540779667
 20
1821.588481619408
 30
0.0
1001
ACAD
1000
DSTYLE
1002
{
1070
    40
1040
1.0
1070
   272
1070
     1
1070
   279
1070
     1
1070
   341
1005
0
1002
}
  0
LWPOLYLINE
  5
2A857
330
747D
100
AcDbEntity
  8
部品1
 48
50.0
100
AcDbPolyline
 90
        2
 70
     0
 43
8.0
 10
6492.805603752272
 20
1622.09847937199
 10
6906.94550558523
 20
1622.09847937199
  0
MTEXT
  5
2A858
102
{ACAD_REACTORS
330
2A85A
102
}
330
747D
100
AcDbEntity
  8
寸法
 62
     7
 48
50.0
100
AcDbMText
 10
6724.133263558957
 20
1162.701410429016
 30
0.0
 40
80.0
 41
0.8
 71
     4
 72
     1
  1
D10
  7
STYLE2
 73
     1
 44
1.0
1001
ACAD
1000
MTEXTBEGIN
1070
    73
1070
     1
1070
    44
1040
1.0
1070
    74
1070
     0
1000
MTEXTEND
  0
LEADER
  5
2A859
330
747D
100
AcDbEntity
  8
寸法
 48
50.0
100
AcDbLeader
  3
INABA_S50G
 71
     0
 73
     0
 74
     0
 75
     1
 40
100.0
 41
540.3409090909091
 76
     3
 10
6470.750772765447
 20
1181.357948958464
 30
0.0
 10
6589.544059613523
 20
839.7271309635662
 30
0.0
 10
6714.544059613523
 20
839.7271309635662
 30
0.0
213
0.0
223
-1.022262676269383
233
0.0
1001
ACAD
1000
DSTYLE
1002
{
1070
    40
1040
1.0
1070
   272
1070
     1
1070
   279
1070
     1
1070
   341
1005
0
1002
}
  0
LEADER
  5
2A85A
330
747D
100
AcDbEntity
  8
寸法
 48
50.0
100
AcDbLeader
  3
INABA_S50G
 71
     0
 73
     0
 74
     0
 75
     1
 40
100.0
 41
225.0
 76
     3
 10
6524.708556104414
 20
1198.098479371989
 30
0.0
 10
6579.133263558957
 20
1102.701410429016
 30
0.0
 10
6704.133263558957
 20
1102.701410429016
 30
0.0
1001
ACAD
1000
DSTYLE
1002
{
1070
    40
1040
1.0
1070
   272
1070
     1
1070
   279
1070
     1
1070
   341
1005
0
1002
}
  0
MTEXT
  5
2A85B
102
{ACAD_REACTORS
330
2A856
102
}
330
747D
100
AcDbEntity
  8
寸法
 62
     7
 48
50.0
100
AcDbMText
 10
6575.691540779667
 20
1884.6543786648
 30
0.0
 40
80.0
 41
0.8
 71
     4
 72
     1
  1
D13
  7
STYLE2
 73
     1
 44
1.0
1001
ACAD
1000
MTEXTBEGIN
1070
    73
1070
     1
1070
    44
1040
1.0
1070
    74
1070
     0
1000
MTEXTEND
  0
LINE
  5
2A85C
330
747D
100
AcDbEntity
  8
部品1
 48
50.0
100
AcDbLine
 10
6492.805603752273
 20
1862.098479371989
 30
0.0
 11
6492.805603752273
 21
1318.098479371989
 31
0.0
  0
LINE
  5
2A85D
330
747D
100
AcDbEntity
  8
部品1
 48
50.0
100
AcDbLine
 10
6300.805603752273
 20
1318.098479371989
 30
0.0
 11
6300.805603752273
 21
1862.098479371989
 31
0.0
  0
CIRCLE
  5
2A85E
330
747D
100
AcDbEntity
  8
部品1
 48
50.0
100
AcDbCircle
 10
6396.805603752273
 20
1722.352908766234
 30
0.0
 40
8.0
  0
ARC
  5
2A85F
330
747D
100
AcDbEntity
  8
部品1
 48
50.0
100
AcDbCircle
 10
6396.805603752273
 20
1722.352908766234
 30
0.0
 40
24.0
100
AcDbArc
 50
0.0
 51
180.0
  0
LINE
  5
2A860
330
747D
100
AcDbEntity
  8
細線
 48
50.0
100
AcDbLine
 10
6420.805603752272
 20
1700.471372039819
 30
0.0
 11
6492.805603752273
 21
1772.471372039819
 31
0.0
  0
LEADER
  5
2A861
330
747D
100
AcDbEntity
  8
寸法
 48
50.0
100
AcDbLeader
  3
INABA_S50G
 73
     0
 75
     1
 40
106.3636363636363
 41
893.1818181818181
 76
     3
 10
8132.244916929467
 20
1931.65847937199
 30
0.0
 10
8083.820844584527
 20
2305.718054088322
 30
0.0
 10
7958.820844584526
 20
2305.718054088322
 30
0.0
340
2A862
1001
ACAD
1000
DSTYLE
1002
{
1070
   341
1005
0
1070
    40
1040
1.0
1070
   343
1005
0
1070
   344
1005
0
1002
}
  0
MTEXT
  5
2A862
102
{ACAD_REACTORS
330
2A861
102
}
330
747D
100
AcDbEntity
  8
寸法
 62
     7
 48
50.0
100
AcDbMText
 10
7933.820844584527
 20
2383.899872270141
 30
0.0
 40
80.0
 41
0.8
 71
     6
 72
     1
  1
\A1;アンカープレート L
  7
STYLE2
 73
     1
 44
1.0
1001
ACAD
1000
MTEXTBEGIN
1070
    73
1070
     1
1070
    44
1040
1.0
1070
    74
1070
     0
1000
MTEXTEND
  0
DIMENSION
  5
2A863
330
747D
100
AcDbEntity
  8
寸法
 48
50.0
100
AcDbDimension
  2
*D47
 10
6620.805603752272
 20
539.6688413668289
 30
0.0
 11
6376.708845074048
 21
539.6688413668289
 31
0.0
 70
   160
  1
300
 71
     5
 42
448.0
  3
INABA_S40G
100
AcDbAlignedDimension
 13
6172.805603752272
 23
950.098479371989
 33
0.0
 14
6620.805603752272
 24
950.098479371989
 34
0.0
100
AcDbRotatedDimension
1001
ACAD
1000
DSTYLE
1002
{
1070
   341
1005
0
1002
}
  0
MTEXT
  5
2A864
102
{ACAD_REACTORS
330
2A86C
102
}
330
747D
100
AcDbEntity
  8
寸法
 62
     7
 48
50.0
100
AcDbMText
 10
6001.870577557077
 20
994.5757857535527
 30
0.0
 40
80.0
 41
0.8
 71
     6
 72
     1
  1
D10
  7
STYLE2
 73
     1
 44
1.0
1001
ACAD
1000
MTEXTBEGIN
1070
    73
1070
     1
1070
    44
1040
1.0
1070
    74
1070
     0
1000
MTEXTEND
  0
MTEXT
  5
2A865
102
{ACAD_REACTORS
330
2A86B
102
}
330
747D
100
AcDbEntity
  8
寸法
 62
     7
 48
50.0
100
AcDbMText
 10
6029.993305114512
 20
814.2596332141092
 30
0.0
 40
80.0
 41
0.8
 71
     6
 72
     1
  1
D13
  7
STYLE2
 73
     1
 44
1.0
1001
ACAD
1000
MTEXTBEGIN
1070
    73
1070
     1
1070
    44
1040
1.0
1070
    74
1070
     0
1000
MTEXTEND
  0
DIMENSION
  5
2A866
330
747D
100
AcDbEntity
  8
寸法
 48
50.0
100
AcDbDimension
  2
*D48
 10
5565.768365190532
 20
1078.098479371989
 30
0.0
 11
5565.768365190532
 21
1449.63862902799
 31
0.0
 70
   160
  1
540
 71
     5
 42
784.0
  3
INABA_S40G
100
AcDbAlignedDimension
 13
6300.805603752272
 23
1862.098479371989
 33
0.0
 14
6092.805603752275
 24
1078.098479371989
 34
0.0
 50
90.0
100
AcDbRotatedDimension
1001
ACAD
1000
DSTYLE
1002
{
1070
   341
1005
0
1002
}
  0
MTEXT
  5
2A867
102
{ACAD_REACTORS
330
2A868
102
}
330
747D
100
AcDbEntity
  8
寸法
 62
     7
 48
50.0
100
AcDbMText
 10
6080.707124268999
 20
2074.614699374031
 30
0.0
 40
80.0
 41
0.8
 71
     6
 72
     1
  1
\A1;金コテ押エ
  7
STYLE2
 73
     1
 44
1.0
1001
ACAD
1000
MTEXTBEGIN
1070
    73
1070
     1
1070
    44
1040
1.0
1070
    74
1070
     0
1000
MTEXTEND
  0
LEADER
  5
2A868
330
747D
100
AcDbEntity
  8
寸法
 48
50.0
100
AcDbLeader
  3
INABA_S50G
 71
     0
 73
     0
 75
     1
 40
130.1136363636363
 41
651.1363636363636
 76
     3
 10
6380.805603752271
 20
1862.098479371989
 30
0.0
 10
6268.381023588256
 20
2002.569244828578
 30
0.0
 10
6143.381023588256
 20
2002.569244828578
 30
0.0
1001
ACAD
1000
DSTYLE
1002
{
1070
    40
1040
1.0
1070
   272
1070
     1
1070
   279
1070
     1
1070
   341
1005
0
1002
}
  0
LEADER
  5
2A869
330
747D
100
AcDbEntity
  8
寸法
 48
50.0
100
AcDbLeader
  3
INABA_S50G
 71
     0
 73
     0
 75
     1
 40
100.0
 41
540.3409090909091
 76
     3
 10
6404.805603752272
 20
1620.225694069112
 30
0.0
 10
6346.823367223574
 20
1398.755365528307
 30
0.0
 10
6221.823367223574
 20
1398.755365528307
 30
0.0
213
-9.732182305893367
223
-4.643716661138569
233
0.0
1001
ACAD
1000
DSTYLE
1002
{
1070
    40
1040
1.0
1070
   272
1070
     1
1070
   279
1070
     1
1070
   341
1005
0
1002
}
  0
MTEXT
  5
2A86A
102
{ACAD_REACTORS
330
2A869
102
}
330
747D
100
AcDbEntity
  8
寸法
 62
     7
 48
50.0
100
AcDbMText
 10
6211.555549529467
 20
1463.399082189446
 30
0.0
 40
80.0
 41
0.8
 71
     6
 72
     1
  1
\A1;D10@300
  7
STYLE2
 73
     1
 44
1.0
1001
ACAD
1000
MTEXTBEGIN
1070
    73
1070
     1
1070
    44
1040
1.0
1070
    74
1070
     0
1000
MTEXTEND
  0
LEADER
  5
2A86B
330
747D
100
AcDbEntity
  8
寸法
 48
50.0
100
AcDbLeader
  3
INABA_S50G
 71
     0
 73
     0
 75
     1
 40
100.0
 41
222.7272727272727
 76
     3
 10
6396.805603752272
 20
1198.098479371989
 30
0.0
 10
6174.993305114512
 20
754.2596332141092
 30
0.0
 10
6049.993305114512
 20
754.2596332141092
 30
0.0
1001
ACAD
1000
DSTYLE
1002
{
1070
    40
1040
1.0
1070
   272
1070
     1
1070
   279
1070
     1
1070
   341
1005
0
1002
}
  0
LEADER
  5
2A86C
330
747D
100
AcDbEntity
  8
寸法
 48
50.0
100
AcDbLeader
  3
INABA_S50G
 71
     0
 73
     0
 75
     1
 40
100.0
 41
225.0
 76
     3
 10
6268.708556104415
 20
1198.098479371989
 30
0.0
 10
6146.870577557078
 20
934.5757857535527
 30
0.0
 10
6021.870577557078
 20
934.5757857535527
 30
0.0
1001
ACAD
1000
DSTYLE
1002
{
1070
    40
1040
1.0
1070
   272
1070
     1
1070
   279
1070
     1
1070
   341
1005
0
1002
}
  0
DIMENSION
  5
2A86D
330
747D
100
AcDbEntity
  8
寸法
 48
50.0
100
AcDbDimension
  2
*D49
 10
6030.385290019813
 20
1078.098479371989
 30
0.0
 11
6030.385290019813
 21
1198.09847937199
 31
0.0
 70
   160
  1
150
 71
     5
 42
240.0
  3
INABA_S40G
100
AcDbAlignedDimension
 13
6172.805603752272
 23
1318.098479371989
 33
0.0
 14
6092.805603752275
 24
1078.098479371989
 34
0.0
 50
90.0
100
AcDbRotatedDimension
1001
ACAD
1000
DSTYLE
1002
{
1070
   341
1005
0
1002
}
  0
TEXT
  5
2A86E
330
747D
100
AcDbEntity
  8
部品1
 48
50.0
100
AcDbText
 10
5886.665701919316
 20
1633.337471655244
 30
0.0
 40
80.0
  1
▽G.L
  7
STYLE2
100
AcDbText
  0
LWPOLYLINE
  5
2A86F
330
747D
100
AcDbEntity
  8
部品1
 48
50.0
100
AcDbPolyline
 90
        2
 70
     0
 43
8.0
 10
5886.665701919316
 20
1622.09847937199
 10
6300.805603752272
 20
1622.09847937199
  0
MTEXT
  5
2A870
102
{ACAD_REACTORS
330
2A871
102
}
330
747D
100
AcDbEntity
  8
寸法
 62
     7
 48
50.0
100
AcDbMText
 10
7907.177838376168
 20
2744.584144177655
 30
0.0
 40
80.0
 41
0.8
 71
     6
 72
     1
  1
\A1;φ70スリーブ
  7
STYLE2
 73
     1
 44
1.0
1001
ACAD
1000
MTEXTBEGIN
1070
    73
1070
     1
1070
    44
1040
1.0
1070
    74
1070
     0
1000
MTEXTEND
  0
LEADER
  5
2A871
330
747D
100
AcDbEntity
  8
寸法
 48
50.0
100
AcDbLeader
  3
INABA_S50G
 73
     0
 75
     1
 40
113.1818181818182
 41
608.6363636363635
 76
     3
 10
8190.981667067516
 20
1811.614152730268
 30
0.0
 10
8057.177838376167
 20
2662.993235086746
 30
0.0
 10
7932.177838376168
 20
2662.993235086746
 30
0.0
340
2A870
1001
ACAD
1000
DSTYLE
1002
{
1070
   341
1005
0
1070
    40
1040
1.0
1070
   343
1005
0
1070
   344
1005
0
1002
}
  0
LINE
  5
2A872
330
747D
100
AcDbEntity
  8
部品1
100
AcDbLine
 10
5230.137164943009
 20
3261.437146572575
 30
0.0
 11
5230.137164943011
 21
297.1301769879273
 31
0.0
  0
LEADER
  5
2A873
330
747D
100
AcDbEntity
  8
寸法
 48
50.0
100
AcDbLeader
  3
INABA_S50G
 73
     0
 74
     0
 75
     1
 40
80.0
 41
435.0
 76
     3
 10
8231.244916929467
 20
1911.25847937199
 30
0.0
 10
8273.789379348785
 20
2061.481805525219
 30
0.0
 10
8398.789379348785
 20
2061.481805525219
 30
0.0
340
2A874
1001
ACAD
1000
DSTYLE
1002
{
1070
   341
1005
0
1070
    40
1040
1.0
1070
   343
1005
0
1070
   344
1005
0
1002
}
  0
MTEXT
  5
2A874
102
{ACAD_REACTORS
330
2A873
102
}
330
747D
100
AcDbEntity
  8
部品1
 62
     7
 48
50.0
100
AcDbMText
 10
8423.789379348786
 20
2126.481805525219
 30
0.0
 40
80.0
 41
0.8
 71
     4
 72
     1
  1
M10X160
  7
STYLE2
 73
     1
 44
1.0
1001
ACAD
1000
MTEXTBEGIN
1070
    73
1070
     1
1070
    44
1040
1.0
1070
    74
1070
     0
1000
MTEXTEND
  0
DIMENSION
  5
2A875
330
747D
100
AcDbEntity
  8
寸法
 48
50.0
100
AcDbDimension
  2
*D50
 10
9192.768182817337
 20
1862.098479371988
 30
0.0
 11
9192.768182817337
 21
1396.089575950506
 31
0.0
 70
   160
  1
20～25
 71
     5
 42
52.76000000000113
  3
INABA_S40G
100
AcDbAlignedDimension
 13
8227.644916929467
 23
1914.85847937199
 33
0.0
 14
8414.844916929466
 24
1862.098479371989
 34
0.0
 50
90.0
100
AcDbRotatedDimension
1001
ACAD
1000
DSTYLE
1002
{
1070
   341
1005
0
1002
}
  0
DIMENSION
  5
2A876
330
747D
100
AcDbEntity
  8
寸法
 48
50.0
100
AcDbDimension
  2
*D51
 10
8916.71351669831
 20
1538.098479371988
 30
0.0
 11
8816.71351669831
 21
1700.09847937199
 31
0.0
 70
    32
  1
180
 71
     5
 42
324.0000000000009
  3
INABA_S40G
100
AcDbAlignedDimension
 13
8414.844916929466
 23
1862.098479371989
 33
0.0
 14
8414.844916929466
 24
1538.098479371988
 34
0.0
 50
90.0
100
AcDbRotatedDimension
1001
ACAD
1000
DSTYLE
1002
{
1070
   341
1005
0
1002
}
  0
TEXT
  5
2A877
330
747D
100
AcDbEntity
  8
部品1
 48
50.0
100
AcDbText
 10
8419.198501213895
 20
2217.977160134189
 30
0.0
 40
80.0
  1
基礎ボルト(市販品)
  7
STYLE2
100
AcDbText
  0
LWPOLYLINE
  5
2A878
330
747D
100
AcDbEntity
  8
部品1
 48
50.0
100
AcDbPolyline
 90
        2
 70
     0
 43
8.0
 10
8414.844916929466
 20
1622.09847937199
 10
8708.54738032885
 20
1622.09847937199
  0
MTEXT
  5
2A879
102
{ACAD_REACTORS
330
2A87A
102
}
330
747D
100
AcDbEntity
  8
部品1
 62
     7
 48
50.0
100
AcDbMText
 10
8454.116507298307
 20
2562.593852459249
 30
0.0
 40
80.0
 41
0.8
 71
     4
 72
     1
  1
\A1;ワッシャー(市販品)
  7
STYLE2
 73
     1
 44
1.0
1001
ACAD
1000
MTEXTBEGIN
1070
    73
1070
     1
1070
    44
1040
1.0
1070
    74
1070
     0
1000
MTEXTEND
  0
LEADER
  5
2A87A
330
747D
100
AcDbEntity
  8
寸法
 48
50.0
100
AcDbLeader
  3
INABA_S50G
 73
     0
 74
     0
 75
     1
 40
102.2727272727273
 41
906.8181818181818
 76
     3
 10
8262.244916929466
 20
2131.221767816269
 30
0.0
 10
8304.116507298306
 20
2486.457488822886
 30
0.0
 10
8429.116507298306
 20
2486.457488822886
 30
0.0
340
2A879
1001
ACAD
1000
DSTYLE
1002
{
1070
   341
1005
0
1070
    40
1040
1.0
1070
   343
1005
0
1070
   344
1005
0
1002
}
  0
MTEXT
  5
2A87B
102
{ACAD_REACTORS
330
2A87C
102
}
330
747D
100
AcDbEntity
  8
部品1
 62
     7
 48
50.0
100
AcDbMText
 10
8422.598888042823
 20
2747.562935224037
 30
0.0
 40
80.0
 41
0.8
 71
     4
 72
     1
  1
\A1;ナット(市販品)
  7
STYLE2
 73
     1
 44
1.0
1001
ACAD
1000
MTEXTBEGIN
1070
    73
1070
     1
1070
    44
1040
1.0
1070
    74
1070
     0
1000
MTEXTEND
  0
LEADER
  5
2A87C
330
747D
100
AcDbEntity
  8
寸法
 48
50.0
100
AcDbLeader
  3
INABA_S50G
 73
     0
 74
     0
 75
     1
 40
102.2727272727273
 41
680.0000000000001
 76
     3
 10
8238.244916929467
 20
2260.973760481132
 30
0.0
 10
8272.598888042823
 20
2671.426571587673
 30
0.0
 10
8397.598888042823
 20
2671.426571587673
 30
0.0
340
2A87B
1001
ACAD
1000
DSTYLE
1002
{
1070
   341
1005
0
1070
    40
1040
1.0
1070
   343
1005
0
1070
   344
1005
0
1002
}
  0
LINE
  5
2A87D
330
747D
100
AcDbEntity
  8
部品1
100
AcDbLine
 10
5230.137164943013
 20
297.1301769879273
 30
0.0
 11
11301.12235032926
 21
297.1301769879273
 31
0.0
  0
LINE
  5
2A87E
330
747D
100
AcDbEntity
  8
部品1
100
AcDbLine
 10
11301.12235032926
 20
3021.437146572573
 30
0.0
 11
5230.137164943011
 21
3021.437146572573
 31
0.0
  0
LINE
  5
2A87F
330
747D
100
AcDbEntity
  8
部品1
100
AcDbLine
 10
11301.12235032926
 20
3261.437146572575
 30
0.0
 11
5230.137164943007
 21
3261.437146572575
 31
0.0
  0
HATCH
  5
2A92F
330
747D
100
AcDbEntity
  8
細線
 48
50.0
100
AcDbHatch
 10
0.0
 20
0.0
 30
0.0
210
0.0
220
0.0
230
1.0
  2
LINE
 70
     0
 71
     1
 91
        1
 92
        7
 72
     0
 73
     1
 93
        4
 10
8323.599999999998
 20
7486.352470292191
 10
8123.599999999999
 20
7486.352470292191
 10
8123.600000000001
 20
7286.35247029219
 10
8323.600000000004
 20
7286.352470292192
 97
        4
330
2952A
330
29567
330
29529
330
29566
 75
     0
 76
     1
 52
45.0
 41
10.0
 77
     0
 78
     1
 53
45.0
 43
0.0
 44
0.0
 45
-22.45064030267288
 46
22.45064030267288
 79
     0
 47
0.7363922791544075
 98
        1
 10
8224.512882015282
 20
7431.663491694457
  0
HATCH
  5
2A956
330
747D
100
AcDbEntity
  8
細線
 48
50.0
100
AcDbHatch
 10
0.0
 20
0.0
 30
0.0
210
0.0
220
0.0
230
1.0
  2
LINE
 70
     0
 71
     1
 91
        1
 92
        7
 72
     0
 73
     1
 93
        4
 10
8323.788016725458
 20
6226.352470292203
 10
8123.788016725455
 20
6226.352470292203
 10
8123.788016725466
 20
5946.352470292205
 10
8323.788016725465
 20
5946.352470292205
 97
        4
330
2A54B
330
29517
330
294B5
330
29512
 75
     0
 76
     1
 52
45.0
 41
10.0
 77
     0
 78
     1
 53
45.0
 43
0.0
 44
0.0
 45
-22.45064030267288
 46
22.45064030267288
 79
     0
 47
4.818352338052998
 98
        3
 10
7991.430234162312
 20
6163.539377755493
 10
8208.371981030774
 20
6052.71727864585
 10
8280.685896653595
 20
6124.992569159818
  0
SPLINE
  5
2A966
330
747D
100
AcDbEntity
  8
細線
 48
50.0
100
AcDbSpline
210
0.0
220
0.0
230
1.0
 70
     8
 71
     3
 72
    10
 73
     6
 74
     4
 42
0.0000000001
 43
0.0000000001
 44
0.0000000001
 40
0.0
 40
0.0
 40
0.0
 40
0.0
 40
192.2397835813012
 40
392.3518421163208
 40
606.4563990014053
 40
606.4563990014053
 40
606.4563990014053
 40
606.4563990014053
 10
8166.296583292162
 20
6825.95261410549
 30
0.0
 10
8066.350396048877
 20
6814.376850350299
 30
0.0
 10
7862.365196175715
 20
6790.75129195317
 30
0.0
 10
8282.022629103357
 20
6657.474531922023
 30
0.0
 10
8061.227223533171
 20
6633.24891659616
 30
0.0
 10
7947.100216764207
 20
6620.72693065566
 30
0.0
 11
8166.296583292162
 21
6825.95261410549
 31
0.0
 11
7980.607211490762
 21
6776.197296888262
 31
0.0
 11
8153.909337785689
 21
6676.141267620753
 31
0.0
 11
7947.100216764207
 21
6620.72693065566
 31
0.0
  0
LINE
  5
2A967
330
747D
100
AcDbEntity
  8
細線
 48
50.0
100
AcDbLine
 10
8236.03117329187
 20
7880.028175431021
 30
0.0
 11
7906.748254806787
 21
5558.2410625678
 31
0.0
  0
ENDSEC
  0
SECTION
  2
OBJECTS
  0
DICTIONARY
  5
7471
330
0
100
AcDbDictionary
281
     1
  3
ACAD_COLOR
350
173D2
  3
ACAD_GROUP
350
7472
  3
ACAD_LAYOUT
350
173D3
  3
ACAD_MATERIAL
350
173D1
  3
ACAD_MLINESTYLE
350
7473
  3
ACAD_PLOTSETTINGS
350
173D4
  3
ACAD_PLOTSTYLENAME
350
173CF
  3
ACDBHEADERROUNDTRIPXREC
350
2A973
  3
AcDbVariableDictionary
350
2A3A3
  3
CONTENTDICTIONARY
350
E71C
  3
DRAWINGVARIABLESDICT
350
F3B9
  0
DICTIONARY
  5
1758F
330
7467
100
AcDbDictionary
280
     1
281
     1
  3
ACAD_LAYERSTATES
360
17590
  0
DICTIONARY
  5
173D2
102
{ACAD_REACTORS
330
7471
102
}
330
7471
100
AcDbDictionary
281
     1
  0
DICTIONARY
  5
7472
102
{ACAD_REACTORS
330
7471
102
}
330
7471
100
AcDbDictionary
281
     1
  3
*A1
350
1D2A9
  0
DICTIONARY
  5
173D3
102
{ACAD_REACTORS
330
7471
102
}
330
7471
100
AcDbDictionary
281
     1
  3
Model
350
173D5
  3
レイアウト1
350
173D6
  0
DICTIONARY
  5
173D1
102
{ACAD_REACTORS
330
7471
102
}
330
7471
100
AcDbDictionary
281
     1
  0
DICTIONARY
  5
7473
102
{ACAD_REACTORS
330
7471
102
}
330
7471
100
AcDbDictionary
281
     1
  3
STANDARD
350
7480
  0
DICTIONARY
  5
173D4
102
{ACAD_REACTORS
330
7471
102
}
330
7471
100
AcDbDictionary
281
     1
  0
ACDBDICTIONARYWDFLT
  5
173CF
102
{ACAD_REACTORS
330
7471
102
}
330
7471
100
AcDbDictionary
281
     1
  3
Normal
350
173D0
100
AcDbDictionaryWithDefault
340
173D0
  0
DICTIONARY
  5
2A973
102
{ACAD_REACTORS
330
7471
102
}
330
7471
100
AcDbDictionary
281
     1
  3
COLORDICT
350
2A975
  3
MATERIALDICT
350
2A974
  0
DICTIONARY
  5
2A3A3
102
{ACAD_REACTORS
330
7471
102
}
330
7471
100
AcDbDictionary
281
     1
  3
DIMASSOC
350
2A3A4
  3
PROJECTNAME
350
2A3A5
  0
DICTIONARY
  5
E71C
102
{ACAD_REACTORS
330
7471
102
}
330
7471
100
AcDbDictionary
281
     1
  0
DICTIONARY
  5
F3B9
102
{ACAD_REACTORS
330
7471
102
}
330
7471
100
AcDbDictionary
281
     1
1001
DRAWINGVARIABLESXDATA
1000
POLARMODE
1000
1
  0
DICTIONARY
  5
17590
102
{ACAD_REACTORS
330
1758F
102
}
330
1758F
100
AcDbDictionary
281
     1
  0
GROUP
  5
1D2A9
102
{ACAD_REACTORS
330
7472
102
}
330
7472
100
AcDbGroup
300

 70
     1
 71
     1
  0
LAYOUT
  5
173D5
102
{ACAD_XDICTIONARY
360
2A976
102
}
102
{ACAD_REACTORS
330
173D3
102
}
330
173D3
100
AcDbPlotSettings
  1

  2
Microsoft Office Document Image Writer
  4

  6

 40
0.0
 41
0.0
 42
0.0
 43
0.0
 44
0.0
 45
0.0
 46
0.0
 47
0.0
 48
0.0
 49
0.0
140
0.0
141
0.0
142
1.0
143
1.0
 70
  1712
 72
     0
 73
     0
 74
     0
  7

 75
     0
147
1.0
148
0.0
149
0.0
100
AcDbLayout
  1
Model
 70
     1
 71
     0
 10
0.0
 20
0.0
 11
12.0
 21
9.0
 12
0.0
 22
0.0
 32
0.0
 14
0.0
 24
0.0
 34
0.0
 15
0.0
 25
0.0
 35
0.0
146
0.0
 13
0.0
 23
0.0
 33
0.0
 16
1.0
 26
0.0
 36
0.0
 17
0.0
 27
1.0
 37
0.0
 76
     0
330
747D
  0
LAYOUT
  5
173D6
102
{ACAD_XDICTIONARY
360
2A978
102
}
102
{ACAD_REACTORS
330
173D3
102
}
330
173D3
100
AcDbPlotSettings
  1

  2
Microsoft Office Document Image Writer
  4

  6

 40
0.0
 41
0.0
 42
0.0
 43
0.0
 44
0.0
 45
0.0
 46
0.0
 47
0.0
 48
0.0
 49
0.0
140
0.0
141
0.0
142
1.0
143
1.0
 70
   688
 72
     0
 73
     0
 74
     5
  7

 75
    16
147
1.0
148
0.0
149
0.0
100
AcDbLayout
  1
レイアウト1
 70
     0
 71
     1
 10
0.0
 20
0.0
 11
420.0
 21
297.0
 12
0.0
 22
0.0
 32
0.0
 14
1.000000000000000E+20
 24
1.000000000000000E+20
 34
1.000000000000000E+20
 15
-1.000000000000000E+20
 25
-1.000000000000000E+20
 35
-1.000000000000000E+20
146
0.0
 13
0.0
 23
0.0
 33
0.0
 16
1.0
 26
0.0
 36
0.0
 17
0.0
 27
1.0
 37
0.0
 76
     0
330
747A
  0
MLINESTYLE
  5
7480
102
{ACAD_REACTORS
330
7473
102
}
330
7473
100
AcDbMlineStyle
  2
STANDARD
 70
     0
  3

 62
     0
 51
90.0
 52
90.0
 71
     2
 49
0.5
 62
   256
  6
BYLAYER
 49
-0.5
 62
   256
  6
BYLAYER
  0
ACDBPLACEHOLDER
  5
173D0
102
{ACAD_REACTORS
330
173CF
102
}
330
173CF
  0
XRECORD
  5
2A975
102
{ACAD_REACTORS
330
2A973
102
}
330
2A973
100
AcDbXrecord
280
     1
340
173D2
  0
XRECORD
  5
2A974
102
{ACAD_REACTORS
330
2A973
102
}
330
2A973
100
AcDbXrecord
280
     1
340
173D1
  0
DICTIONARYVAR
  5
2A3A4
102
{ACAD_REACTORS
330
2A3A3
102
}
330
2A3A3
100
DictionaryVariables
280
     0
  1
1
  0
DICTIONARYVAR
  5
2A3A5
102
{ACAD_REACTORS
330
2A3A3
102
}
330
2A3A3
100
DictionaryVariables
280
     0
  1

  0
DICTIONARY
  5
2A976
330
173D5
100
AcDbDictionary
280
     1
281
     1
  3
ACAD_XREC_ROUNDTRIP
360
2A977
  0
DICTIONARY
  5
2A978
330
173D6
100
AcDbDictionary
280
     1
281
     1
  3
ACAD_XREC_ROUNDTRIP
360
2A979
  0
XRECORD
  5
2A977
102
{ACAD_REACTORS
330
2A976
102
}
330
2A976
100
AcDbXrecord
280
     1
102
SHADEPLOT
 70
     0
102
SHADEPLOTRESLEVEL
 70
     2
102
SHADEPLOTCUSTOMDPI
 70
   300
  0
XRECORD
  5
2A979
102
{ACAD_REACTORS
330
2A978
102
}
330
2A978
100
AcDbXrecord
280
     1
102
SHADEPLOT
 70
     0
102
SHADEPLOTRESLEVEL
 70
     2
102
SHADEPLOTCUSTOMDPI
 70
   300
  0
ENDSEC
  0
EOF
