  0
SECTION
  2
HEADER
  9
$ACADVER
  1
AC1015
  9
$ACADMAINTVER
 70
    20
  9
$DWGCODEPAGE
  3
ANSI_932
  9
$INSBASE
 10
0.0
 20
0.0
 30
0.0
  9
$EXTMIN
 10
139.9999999999995
 20
-0.0000000000000909
 30
0.0
  9
$EXTMAX
 10
16307.2
 20
11409.6
 30
0.0
  9
$LIMMIN
 10
0.0
 20
0.0
  9
$LIMMAX
 10
16800.0
 20
11880.0
  9
$ORTHOMODE
 70
     0
  9
$REGENMODE
 70
     1
  9
$FILLMODE
 70
     1
  9
$QTEXTMODE
 70
     0
  9
$MIRRTEXT
 70
     1
  9
$LTSCALE
 40
20.0
  9
$ATTMODE
 70
     1
  9
$TEXTSIZE
 40
4.0
  9
$TRACEWID
 40
1.0
  9
$TEXTSTYLE
  7
STYLE1
  9
$CLAYER
  8
寸法
  9
$CELTYPE
  6
BYLAYER
  9
$CECOLOR
 62
   256
  9
$CELTSCALE
 40
50.0
  9
$DISPSILH
 70
     0
  9
$DIMSCALE
 40
40.0
  9
$DIMASZ
 40
2.5
  9
$DIMEXO
 40
0.5
  9
$DIMDLI
 40
7.0
  9
$DIMRND
 40
0.0
  9
$DIMDLE
 40
0.0
  9
$DIMEXE
 40
1.5
  9
$DIMTP
 40
0.0
  9
$DIMTM
 40
0.0
  9
$DIMTXT
 40
3.0
  9
$DIMCEN
 40
0.0
  9
$DIMTSZ
 40
0.0
  9
$DIMTOL
 70
     0
  9
$DIMLIM
 70
     0
  9
$DIMTIH
 70
     0
  9
$DIMTOH
 70
     0
  9
$DIMSE1
 70
     0
  9
$DIMSE2
 70
     0
  9
$DIMTAD
 70
     3
  9
$DIMZIN
 70
     8
  9
$DIMBLK
  1

  9
$DIMASO
 70
     1
  9
$DIMSHO
 70
     1
  9
$DIMPOST
  1

  9
$DIMAPOST
  1

  9
$DIMALT
 70
     0
  9
$DIMALTD
 70
     2
  9
$DIMALTF
 40
0.0394
  9
$DIMLFAC
 40
1.0
  9
$DIMTOFL
 70
     1
  9
$DIMTVP
 40
0.0
  9
$DIMTIX
 70
     1
  9
$DIMSOXD
 70
     0
  9
$DIMSAH
 70
     1
  9
$DIMBLK1
  1
DOTSMALL
  9
$DIMBLK2
  1
DOTSMALL
  9
$DIMSTYLE
  2
INABA_S40G
  9
$DIMCLRD
 70
     0
  9
$DIMCLRE
 70
     0
  9
$DIMCLRT
 70
     7
  9
$DIMTFAC
 40
1.0
  9
$DIMGAP
 40
1.0
  9
$DIMJUST
 70
     0
  9
$DIMSD1
 70
     0
  9
$DIMSD2
 70
     0
  9
$DIMTOLJ
 70
     1
  9
$DIMTZIN
 70
     0
  9
$DIMALTZ
 70
     0
  9
$DIMALTTZ
 70
     0
  9
$DIMUPT
 70
     0
  9
$DIMDEC
 70
     1
  9
$DIMTDEC
 70
     4
  9
$DIMALTU
 70
     2
  9
$DIMALTTD
 70
     2
  9
$DIMTXSTY
  7
STYLE1
  9
$DIMAUNIT
 70
     0
  9
$DIMADEC
 70
     0
  9
$DIMALTRND
 40
0.0
  9
$DIMAZIN
 70
     0
  9
$DIMDSEP
 70
    46
  9
$DIMATFIT
 70
     3
  9
$DIMFRAC
 70
     0
  9
$DIMLDRBLK
  1

  9
$DIMLUNIT
 70
     2
  9
$DIMLWD
 70
    -2
  9
$DIMLWE
 70
    -2
  9
$DIMTMOVE
 70
     0
  9
$LUNITS
 70
     2
  9
$LUPREC
 70
     1
  9
$SKETCHINC
 40
1.0
  9
$FILLETRAD
 40
3.0
  9
$AUNITS
 70
     0
  9
$AUPREC
 70
     0
  9
$MENU
  1
acad
  9
$ELEVATION
 40
0.0
  9
$PELEVATION
 40
0.0
  9
$THICKNESS
 40
0.0
  9
$LIMCHECK
 70
     0
  9
$CHAMFERA
 40
0.0
  9
$CHAMFERB
 40
0.0
  9
$CHAMFERC
 40
0.0
  9
$CHAMFERD
 40
0.0
  9
$SKPOLY
 70
     0
  9
$TDCREATE
 40
2451368.612993866
  9
$TDUCREATE
 40
2451368.237993866
  9
$TDUPDATE
 40
2455826.606421979
  9
$TDUUPDATE
 40
2455826.231421979
  9
$TDINDWG
 40
0.7897261806
  9
$TDUSRTIMER
 40
0.7897261806
  9
$USRTIMER
 70
     1
  9
$ANGBASE
 50
0.0
  9
$ANGDIR
 70
     0
  9
$PDMODE
 70
     3
  9
$PDSIZE
 40
2.0
  9
$PLINEWID
 40
0.0
  9
$SPLFRAME
 70
     0
  9
$SPLINETYPE
 70
     6
  9
$SPLINESEGS
 70
     8
  9
$HANDSEED
  5
26977
  9
$SURFTAB1
 70
     6
  9
$SURFTAB2
 70
     6
  9
$SURFTYPE
 70
     6
  9
$SURFU
 70
     6
  9
$SURFV
 70
     6
  9
$UCSBASE
  2

  9
$UCSNAME
  2

  9
$UCSORG
 10
0.0
 20
0.0
 30
0.0
  9
$UCSXDIR
 10
1.0
 20
0.0
 30
0.0
  9
$UCSYDIR
 10
0.0
 20
1.0
 30
0.0
  9
$UCSORTHOREF
  2

  9
$UCSORTHOVIEW
 70
     0
  9
$UCSORGTOP
 10
0.0
 20
0.0
 30
0.0
  9
$UCSORGBOTTOM
 10
0.0
 20
0.0
 30
0.0
  9
$UCSORGLEFT
 10
0.0
 20
0.0
 30
0.0
  9
$UCSORGRIGHT
 10
0.0
 20
0.0
 30
0.0
  9
$UCSORGFRONT
 10
0.0
 20
0.0
 30
0.0
  9
$UCSORGBACK
 10
0.0
 20
0.0
 30
0.0
  9
$PUCSBASE
  2

  9
$PUCSNAME
  2

  9
$PUCSORG
 10
0.0
 20
0.0
 30
0.0
  9
$PUCSXDIR
 10
1.0
 20
0.0
 30
0.0
  9
$PUCSYDIR
 10
0.0
 20
1.0
 30
0.0
  9
$PUCSORTHOREF
  2

  9
$PUCSORTHOVIEW
 70
     0
  9
$PUCSORGTOP
 10
0.0
 20
0.0
 30
0.0
  9
$PUCSORGBOTTOM
 10
0.0
 20
0.0
 30
0.0
  9
$PUCSORGLEFT
 10
0.0
 20
0.0
 30
0.0
  9
$PUCSORGRIGHT
 10
0.0
 20
0.0
 30
0.0
  9
$PUCSORGFRONT
 10
0.0
 20
0.0
 30
0.0
  9
$PUCSORGBACK
 10
0.0
 20
0.0
 30
0.0
  9
$USERI1
 70
     0
  9
$USERI2
 70
     0
  9
$USERI3
 70
     0
  9
$USERI4
 70
     0
  9
$USERI5
 70
     0
  9
$USERR1
 40
0.0
  9
$USERR2
 40
0.0
  9
$USERR3
 40
0.0
  9
$USERR4
 40
0.0
  9
$USERR5
 40
0.0
  9
$WORLDVIEW
 70
     1
  9
$SHADEDGE
 70
     3
  9
$SHADEDIF
 70
    70
  9
$TILEMODE
 70
     1
  9
$MAXACTVP
 70
    16
  9
$PINSBASE
 10
0.0
 20
0.0
 30
0.0
  9
$PLIMCHECK
 70
     0
  9
$PEXTMIN
 10
1.000000000000000E+20
 20
1.000000000000000E+20
 30
1.000000000000000E+20
  9
$PEXTMAX
 10
-1.000000000000000E+20
 20
-1.000000000000000E+20
 30
-1.000000000000000E+20
  9
$PLIMMIN
 10
0.0
 20
0.0
  9
$PLIMMAX
 10
420.0
 20
297.0
  9
$UNITMODE
 70
     0
  9
$VISRETAIN
 70
     0
  9
$PLINEGEN
 70
     0
  9
$PSLTSCALE
 70
     0
  9
$TREEDEPTH
 70
  3020
  9
$CMLSTYLE
  2
STANDARD
  9
$CMLJUST
 70
     0
  9
$CMLSCALE
 40
1.0
  9
$PROXYGRAPHICS
 70
     1
  9
$MEASUREMENT
 70
     1
  9
$CELWEIGHT
370
    -1
  9
$ENDCAPS
280
     0
  9
$JOINSTYLE
280
     0
  9
$LWDISPLAY
290
     0
  9
$INSUNITS
 70
     0
  9
$HYPERLINKBASE
  1

  9
$STYLESHEET
  1

  9
$XEDIT
290
     1
  9
$CEPSNTYPE
380
     0
  9
$PSTYLEMODE
290
     1
  9
$FINGERPRINTGUID
  2
{5EAC461A-2277-4BF8-9AB0-99C43BB394F0}
  9
$VERSIONGUID
  2
{367DEBD6-A890-4047-B594-5B60064BA6F6}
  9
$EXTNAMES
290
     1
  9
$PSVPSCALE
 40
0.0
  9
$OLESTARTUP
290
     0
  0
ENDSEC
  0
SECTION
  2
CLASSES
  0
CLASS
  1
ACDBDICTIONARYWDFLT
  2
AcDbDictionaryWithDefault
  3
ObjectDBX Classes
 90
        0
280
     0
281
     0
  0
CLASS
  1
DICTIONARYVAR
  2
AcDbDictionaryVar
  3
ObjectDBX Classes
 90
        0
280
     0
281
     0
  0
CLASS
  1
ACDBPLACEHOLDER
  2
AcDbPlaceHolder
  3
ObjectDBX Classes
 90
        0
280
     0
281
     0
  0
CLASS
  1
LAYOUT
  2
AcDbLayout
  3
ObjectDBX Classes
 90
        0
280
     0
281
     0
  0
ENDSEC
  0
SECTION
  2
TABLES
  0
TABLE
  2
VPORT
  5
746D
330
0
100
AcDbSymbolTable
 70
     2
  0
VPORT
  5
2696F
330
746D
100
AcDbSymbolTableRecord
100
AcDbViewportTableRecord
  2
*Active
 70
     0
 10
0.0
 20
0.0
 11
1.0
 21
1.0
 12
8400.0
 22
6532.223175279203
 13
0.0
 23
0.0
 14
10.0
 24
10.0
 15
10.0
 25
10.0
 16
0.0
 26
0.0
 36
1.0
 17
0.0
 27
0.0
 37
0.0
 40
13160.56358925593
 41
1.522222222222222
 42
50.0
 43
0.0
 44
0.0
 50
0.0
 51
0.0
 71
     0
 72
     0
 73
     1
 74
     0
 75
     0
 76
     0
 77
     0
 78
     0
281
     0
 65
     1
110
0.0
120
0.0
130
0.0
111
1.0
121
0.0
131
0.0
112
0.0
122
1.0
132
0.0
 79
     0
146
0.0
  0
ENDTAB
  0
TABLE
  2
LTYPE
  5
746A
330
0
100
AcDbSymbolTable
 70
     5
  0
LTYPE
  5
7477
330
746A
100
AcDbSymbolTableRecord
100
AcDbLinetypeTableRecord
  2
BYBLOCK
 70
     0
  3

 72
    65
 73
     0
 40
0.0
  0
LTYPE
  5
7478
330
746A
100
AcDbSymbolTableRecord
100
AcDbLinetypeTableRecord
  2
BYLAYER
 70
     0
  3

 72
    65
 73
     0
 40
0.0
  0
LTYPE
  5
7479
330
746A
100
AcDbSymbolTableRecord
100
AcDbLinetypeTableRecord
  2
CONTINUOUS
 70
     0
  3
Solid line
 72
    65
 73
     0
 40
0.0
  0
LTYPE
  5
7816
330
746A
100
AcDbSymbolTableRecord
100
AcDbLinetypeTableRecord
  2
CENTER
 70
     0
  3
____ _ ____ _ ____ _ ____ _ ____ _ ____ _ ____ 
 72
    65
 73
     4
 40
2.0
 49
1.25
 74
     0
 49
-0.25
 74
     0
 49
0.25
 74
     0
 49
-0.25
 74
     0
  0
LTYPE
  5
781A
330
746A
100
AcDbSymbolTableRecord
100
AcDbLinetypeTableRecord
  2
HIDDEN
 70
     0
  3
__ __ __ __ __ __ __ __ __ __ __ __ __ __ __ __
 72
    65
 73
     2
 40
0.375
 49
0.25
 74
     0
 49
-0.125
 74
     0
  0
LTYPE
  5
781B
330
746A
100
AcDbSymbolTableRecord
100
AcDbLinetypeTableRecord
  2
PHANTOM
 70
     0
  3
______  __  __  ______  __  __  ______  __  __ 
 72
    65
 73
     6
 40
2.5
 49
1.25
 74
     0
 49
-0.25
 74
     0
 49
0.25
 74
     0
 49
-0.25
 74
     0
 49
0.25
 74
     0
 49
-0.25
 74
     0
  0
LTYPE
  5
12CC3
330
746A
100
AcDbSymbolTableRecord
100
AcDbLinetypeTableRecord
  2
HIDDENX2
 70
     0
  3
Hidden (2x) ____ ____ ____ ____ ____ ____ ____
 72
    65
 73
     2
 40
19.05
 49
12.7
 74
     0
 49
-6.349999999999999
 74
     0
  0
ENDTAB
  0
TABLE
  2
LAYER
  5
7467
102
{ACAD_XDICTIONARY
360
1758F
102
}
330
0
100
AcDbSymbolTable
 70
    12
  0
LAYER
  5
7474
330
7467
100
AcDbSymbolTableRecord
100
AcDbLayerTableRecord
  2
0
 70
     0
 62
     7
  6
CONTINUOUS
370
    -3
390
173D0
  0
LAYER
  5
DEB2
330
7467
100
AcDbSymbolTableRecord
100
AcDbLayerTableRecord
  2
センター
 70
     0
 62
     3
  6
CENTER
370
    -3
390
173D0
  0
LAYER
  5
DEB3
330
7467
100
AcDbSymbolTableRecord
100
AcDbLayerTableRecord
  2
寸法
 70
     0
 62
     4
  6
CONTINUOUS
370
    -3
390
173D0
  0
LAYER
  5
DEB4
330
7467
100
AcDbSymbolTableRecord
100
AcDbLayerTableRecord
  2
部品1
 70
     0
 62
     7
  6
CONTINUOUS
370
    -3
390
173D0
  0
LAYER
  5
DEB5
330
7467
100
AcDbSymbolTableRecord
100
AcDbLayerTableRecord
  2
補助
 70
     0
 62
    -1
  6
CONTINUOUS
370
    -3
390
173D0
  0
LAYER
  5
DEB6
330
7467
100
AcDbSymbolTableRecord
100
AcDbLayerTableRecord
  2
文字
 70
     0
 62
     7
  6
CONTINUOUS
370
    -3
390
173D0
  0
LAYER
  5
F255
330
7467
100
AcDbSymbolTableRecord
100
AcDbLayerTableRecord
  2
DEFPOINTS
 70
     0
 62
     7
  6
CONTINUOUS
290
     0
370
    -3
390
173D0
  0
LAYER
  5
10B54
330
7467
100
AcDbSymbolTableRecord
100
AcDbLayerTableRecord
  2
仕様書枠
 70
     0
 62
   230
  6
CONTINUOUS
370
    -3
390
173D0
  0
LAYER
  5
11729
330
7467
100
AcDbSymbolTableRecord
100
AcDbLayerTableRecord
  2
Ｇ．Ｌ
 70
     0
 62
    30
  6
CONTINUOUS
370
    -3
390
173D0
  0
LAYER
  5
1173F
330
7467
100
AcDbSymbolTableRecord
100
AcDbLayerTableRecord
  2
細線
 70
     0
 62
     5
  6
CONTINUOUS
370
    -3
390
173D0
  0
LAYER
  5
12CC4
330
7467
100
AcDbSymbolTableRecord
100
AcDbLayerTableRecord
  2
想像線
 70
     0
 62
     6
  6
PHANTOM
370
    -3
390
173D0
  0
LAYER
  5
142E2
330
7467
100
AcDbSymbolTableRecord
100
AcDbLayerTableRecord
  2
破線
 70
     0
 62
     2
  6
HIDDEN
370
    -3
390
173D0
  0
ENDTAB
  0
TABLE
  2
STYLE
  5
7468
330
0
100
AcDbSymbolTable
 70
     7
  0
STYLE
  5
7475
330
7468
100
AcDbSymbolTableRecord
100
AcDbTextStyleTableRecord
  2
STANDARD
 70
     0
 40
0.0
 41
1.0
 50
0.0
 71
     0
 42
4.0
  3
txt
  4
C:\AutoCAD LT\bigfont.shx
  0
STYLE
  5
763C
330
7468
100
AcDbSymbolTableRecord
100
AcDbTextStyleTableRecord
  2
MSMINCHO
 70
     0
 40
0.0
 41
1.0
 50
0.0
 71
     0
 42
1.199999999999999
  3
C:\AutoCAD LT\msminch2.TTF
  4

  0
STYLE
  5
F706
330
7468
100
AcDbSymbolTableRecord
100
AcDbTextStyleTableRecord
  2
STYLE1
 70
     0
 40
0.0
 41
1.0
 50
0.0
 71
     0
 42
4.0
  3
isocp.shx
  4
bigfont.shx
  0
STYLE
  5
103BF
330
7468
100
AcDbSymbolTableRecord
100
AcDbTextStyleTableRecord
  2
STYLE2
 70
     0
 40
0.0
 41
1.0
 50
0.0
 71
     0
 42
100.0
  3
MS PGothic.ttf
  4

1001
ACAD
1000
MS PGothic
1071
    32818
  0
STYLE
  5
10BAA
330
7468
100
AcDbSymbolTableRecord
100
AcDbTextStyleTableRecord
  2
STYLE3
 70
     0
 40
0.0
 41
1.0
 50
0.0
 71
     0
 42
100.0
  3

  4

1001
ACAD
1000
DFPGothic-EB
1071
    32818
  0
STYLE
  5
11A15
330
7468
100
AcDbSymbolTableRecord
100
AcDbTextStyleTableRecord
  2
MSGOTHIC
 70
     0
 40
0.0
 41
1.0
 50
0.0
 71
     0
 42
3.5
  3
msgothi2.ttf
  4

  0
STYLE
  5
13E96
330
7468
100
AcDbSymbolTableRecord
100
AcDbTextStyleTableRecord
  2
MSPゴシック
 70
     0
 40
0.0
 41
1.0
 50
0.0
 71
     0
 42
4.0
  3
MS PGothic.ttf
  4

1001
ACAD
1000
MS PGothic
1071
    32818
  0
ENDTAB
  0
TABLE
  2
VIEW
  5
746B
330
0
100
AcDbSymbolTable
 70
     0
  0
ENDTAB
  0
TABLE
  2
UCS
  5
746C
330
0
100
AcDbSymbolTable
 70
     0
  0
ENDTAB
  0
TABLE
  2
APPID
  5
746E
330
0
100
AcDbSymbolTable
 70
     6
  0
APPID
  5
7476
330
746E
100
AcDbSymbolTableRecord
100
AcDbRegAppTableRecord
  2
ACAD
 70
     0
  0
APPID
  5
DEA9
330
746E
100
AcDbSymbolTableRecord
100
AcDbRegAppTableRecord
  2
CONTENTBLOCKICON
 70
     0
  0
APPID
  5
DEAA
330
746E
100
AcDbSymbolTableRecord
100
AcDbRegAppTableRecord
  2
CONTENTBLOCKDESCRIPTION
 70
     0
  0
APPID
  5
E71D
330
746E
100
AcDbSymbolTableRecord
100
AcDbRegAppTableRecord
  2
CONTENTTABDATA
 70
     0
  0
APPID
  5
E71E
330
746E
100
AcDbSymbolTableRecord
100
AcDbRegAppTableRecord
  2
CONTENTCURRENTTAB
 70
     0
  0
APPID
  5
F3BA
330
746E
100
AcDbSymbolTableRecord
100
AcDbRegAppTableRecord
  2
DRAWINGVARIABLESXDATA
 70
     0
  0
ENDTAB
  0
TABLE
  2
DIMSTYLE
  5
746F
330
0
100
AcDbSymbolTable
 70
     6
100
AcDbDimStyleTable
 71
     1
340
F71F
  0
DIMSTYLE
105
7484
330
746F
100
AcDbSymbolTableRecord
100
AcDbDimStyleTableRecord
  2
JIS
 70
     0
 41
2.5
 42
1.0
 43
7.0
 44
1.0
 73
     0
 74
     0
 77
     1
 78
     8
140
2.5
141
0.0
143
0.0394
147
0.0
172
     1
174
     1
175
     1
340
7475
  0
DIMSTYLE
105
F236
330
746F
100
AcDbSymbolTableRecord
100
AcDbDimStyleTableRecord
  2
INABA_S40
 70
     0
 40
40.0
 41
2.5
 42
0.5
 43
7.0
 44
1.5
 73
     0
 74
     0
 77
     3
 78
     8
140
3.0
141
0.0
143
0.0394
147
1.0
172
     1
173
     1
174
     1
175
     1
178
     7
289
     0
340
7475
341
DEAC
343
DEAC
344
DEAC
  0
DIMSTYLE
105
F71F
102
{ACAD_REACTORS
330
20DE1
330
20DFB
330
22741
330
2275B
330
25C86
330
25C6B
330
25C1E
330
25C1B
330
25C1A
330
25BFB
330
25BE6
330
25BE4
330
25B87
330
25B7F
330
25B7E
330
25B7B
330
25B78
330
25B77
330
25B8A
330
25BE2
330
25B8B
330
25B84
330
25B83
330
25B8D
330
25B8F
330
25B88
330
25C92
330
26866
330
268C6
330
268C9
330
268D0
330
268D8
330
268D9
102
}
330
746F
100
AcDbSymbolTableRecord
100
AcDbDimStyleTableRecord
  2
INABA_S40G
 70
     0
 40
40.0
 41
2.5
 42
0.5
 43
7.0
 44
1.5
 73
     0
 74
     0
 77
     3
 78
     8
140
3.0
141
0.0
143
0.0394
147
1.0
172
     1
173
     1
174
     1
178
     7
271
     1
340
F706
341
F770
343
F770
344
F770
  0
DIMSTYLE
105
142E3
330
746F
100
AcDbSymbolTableRecord
100
AcDbDimStyleTableRecord
  2
INABA_S1
 70
     0
 40
0.0
 41
2.5
 42
0.5
 43
7.0
 44
1.5
 73
     0
 74
     0
 77
     3
 78
     8
140
3.0
141
0.0
143
0.0394
146
0.5
147
0.5
172
     1
173
     1
176
   256
177
   256
178
     7
271
     2
272
     2
284
     8
288
     1
340
7475
341
DEAC
343
DEAC
344
DEAC
  0
DIMSTYLE
105
14463
330
746F
100
AcDbSymbolTableRecord
100
AcDbDimStyleTableRecord
  2
INABA_S30G
 70
     0
 40
30.0
 41
2.5
 42
0.5
 43
7.0
 44
1.5
 73
     0
 74
     0
 77
     3
 78
     8
140
3.0
141
0.0
143
0.0394
147
1.0
172
     1
173
     1
174
     1
175
     1
178
     7
271
     1
340
F706
341
F770
343
F770
344
F770
  0
DIMSTYLE
105
1758E
330
746F
100
AcDbSymbolTableRecord
100
AcDbDimStyleTableRecord
  2
INABA_S50G
 70
     0
 41
125.0
 42
25.0
 43
7.0
 44
75.0
 73
     0
 74
     0
 77
     3
 78
     8
140
150.0
141
0.0
143
0.0394
147
25.0
172
     1
173
     1
174
     1
175
     1
178
     7
271
     1
340
F706
341
F770
343
F770
344
F770
  0
ENDTAB
  0
TABLE
  2
BLOCK_RECORD
  5
7466
330
0
100
AcDbSymbolTable
 70
    62
  0
BLOCK_RECORD
  5
747D
330
7466
100
AcDbSymbolTableRecord
100
AcDbBlockTableRecord
  2
*MODEL_SPACE
340
173D5
  0
BLOCK_RECORD
  5
747A
330
7466
100
AcDbSymbolTableRecord
100
AcDbBlockTableRecord
  2
*PAPER_SPACE
340
173D6
  0
BLOCK_RECORD
  5
DEAC
330
7466
100
AcDbSymbolTableRecord
100
AcDbBlockTableRecord
  2
_OPEN
340
0
  0
BLOCK_RECORD
  5
F770
330
7466
100
AcDbSymbolTableRecord
100
AcDbBlockTableRecord
  2
_DOTSMALL
340
0
102
{BLKREFS
331
18C65
331
18C66
331
18C59
331
18C5A
331
18C4D
331
18C4E
331
18C41
331
18C42
331
18C35
331
18C36
331
18C29
331
18C2A
331
18C1D
331
18C1E
331
18C0F
331
18C10
331
18C03
331
18C04
331
18BF5
331
18BF6
331
18BE7
331
18BE8
331
18BD9
331
18BDA
331
18BCD
331
18BCE
331
21316
331
21317
331
21321
331
21322
331
2132A
331
2132B
331
263E7
331
263E8
331
263F0
331
263F1
331
26415
331
26416
331
2641E
331
2641F
331
26428
331
26429
331
26432
331
26433
331
26458
331
26459
331
26473
331
26474
331
26497
331
26498
331
264A0
331
264A1
331
264B4
331
264B5
331
264BF
331
264C0
331
264CA
331
264CB
331
264D5
331
264D6
331
264F9
331
264FA
331
26502
331
26503
331
26516
331
26517
331
2651F
331
26520
331
26528
331
26529
331
26531
331
26532
331
2653A
331
2653B
331
26555
331
26556
331
26567
331
26568
331
26570
331
26571
331
26579
331
2657A
331
265FC
331
265FD
331
26606
331
26607
331
26625
331
26626
331
2666E
331
2666F
331
26662
331
26663
331
26656
331
26657
331
2664A
331
2664B
331
2663E
331
2663F
331
26630
331
26631
331
26930
331
26931
331
26939
331
2693A
331
26942
331
26943
331
2694B
331
2694C
331
26956
331
26957
331
2695F
331
26960
102
}
  0
BLOCK_RECORD
  5
164B4
330
7466
100
AcDbSymbolTableRecord
100
AcDbBlockTableRecord
  2
_DOT
340
0
102
{BLKREFS
331
18C73
331
18C74
102
}
  0
BLOCK_RECORD
  5
18BC8
330
7466
100
AcDbSymbolTableRecord
100
AcDbBlockTableRecord
  2
*D3
340
0
  0
BLOCK_RECORD
  5
18BD4
330
7466
100
AcDbSymbolTableRecord
100
AcDbBlockTableRecord
  2
*D4
340
0
  0
BLOCK_RECORD
  5
18BE0
330
7466
100
AcDbSymbolTableRecord
100
AcDbBlockTableRecord
  2
*D5
340
0
  0
BLOCK_RECORD
  5
18BEE
330
7466
100
AcDbSymbolTableRecord
100
AcDbBlockTableRecord
  2
*D6
340
0
  0
BLOCK_RECORD
  5
18BFC
330
7466
100
AcDbSymbolTableRecord
100
AcDbBlockTableRecord
  2
*D7
340
0
  0
BLOCK_RECORD
  5
18C0A
330
7466
100
AcDbSymbolTableRecord
100
AcDbBlockTableRecord
  2
*D8
340
0
  0
BLOCK_RECORD
  5
18C16
330
7466
100
AcDbSymbolTableRecord
100
AcDbBlockTableRecord
  2
*D9
340
0
  0
BLOCK_RECORD
  5
18C24
330
7466
100
AcDbSymbolTableRecord
100
AcDbBlockTableRecord
  2
*D10
340
0
  0
BLOCK_RECORD
  5
18C30
330
7466
100
AcDbSymbolTableRecord
100
AcDbBlockTableRecord
  2
*D11
340
0
  0
BLOCK_RECORD
  5
18C3C
330
7466
100
AcDbSymbolTableRecord
100
AcDbBlockTableRecord
  2
*D12
340
0
  0
BLOCK_RECORD
  5
18C48
330
7466
100
AcDbSymbolTableRecord
100
AcDbBlockTableRecord
  2
*D13
340
0
  0
BLOCK_RECORD
  5
18C54
330
7466
100
AcDbSymbolTableRecord
100
AcDbBlockTableRecord
  2
*D14
340
0
  0
BLOCK_RECORD
  5
18C60
330
7466
100
AcDbSymbolTableRecord
100
AcDbBlockTableRecord
  2
*D15
340
0
  0
BLOCK_RECORD
  5
18C6C
330
7466
100
AcDbSymbolTableRecord
100
AcDbBlockTableRecord
  2
*D16
340
0
  0
BLOCK_RECORD
  5
18C7A
330
7466
100
AcDbSymbolTableRecord
100
AcDbBlockTableRecord
  2
A$C3B1A506B
340
0
  0
BLOCK_RECORD
  5
1C4CA
330
7466
100
AcDbSymbolTableRecord
100
AcDbBlockTableRecord
  2
_NONE
340
0
  0
BLOCK_RECORD
  5
20DE2
330
7466
100
AcDbSymbolTableRecord
100
AcDbBlockTableRecord
  2
*D19
340
0
  0
BLOCK_RECORD
  5
20DFC
330
7466
100
AcDbSymbolTableRecord
100
AcDbBlockTableRecord
  2
*D20
340
0
  0
BLOCK_RECORD
  5
22742
330
7466
100
AcDbSymbolTableRecord
100
AcDbBlockTableRecord
  2
*D25
340
0
  0
BLOCK_RECORD
  5
2275C
330
7466
100
AcDbSymbolTableRecord
100
AcDbBlockTableRecord
  2
*D26
340
0
  0
BLOCK_RECORD
  5
25C96
330
7466
100
AcDbSymbolTableRecord
100
AcDbBlockTableRecord
  2
*D27
340
0
  0
BLOCK_RECORD
  5
25CAD
330
7466
100
AcDbSymbolTableRecord
100
AcDbBlockTableRecord
  2
*D28
340
0
  0
BLOCK_RECORD
  5
25CC7
330
7466
100
AcDbSymbolTableRecord
100
AcDbBlockTableRecord
  2
*D29
340
0
  0
BLOCK_RECORD
  5
25CD2
330
7466
100
AcDbSymbolTableRecord
100
AcDbBlockTableRecord
  2
*D30
340
0
  0
BLOCK_RECORD
  5
25CDF
330
7466
100
AcDbSymbolTableRecord
100
AcDbBlockTableRecord
  2
*D31
340
0
  0
BLOCK_RECORD
  5
25CEB
330
7466
100
AcDbSymbolTableRecord
100
AcDbBlockTableRecord
  2
*D32
340
0
  0
BLOCK_RECORD
  5
25CF7
330
7466
100
AcDbSymbolTableRecord
100
AcDbBlockTableRecord
  2
*D33
340
0
  0
BLOCK_RECORD
  5
25D03
330
7466
100
AcDbSymbolTableRecord
100
AcDbBlockTableRecord
  2
*D34
340
0
  0
BLOCK_RECORD
  5
25D1C
330
7466
100
AcDbSymbolTableRecord
100
AcDbBlockTableRecord
  2
*D35
340
0
  0
BLOCK_RECORD
  5
25D29
330
7466
100
AcDbSymbolTableRecord
100
AcDbBlockTableRecord
  2
*D36
340
0
  0
BLOCK_RECORD
  5
25D36
330
7466
100
AcDbSymbolTableRecord
100
AcDbBlockTableRecord
  2
*D37
340
0
  0
BLOCK_RECORD
  5
25D42
330
7466
100
AcDbSymbolTableRecord
100
AcDbBlockTableRecord
  2
*D38
340
0
  0
BLOCK_RECORD
  5
25D4E
330
7466
100
AcDbSymbolTableRecord
100
AcDbBlockTableRecord
  2
*D39
340
0
  0
BLOCK_RECORD
  5
25D5A
330
7466
100
AcDbSymbolTableRecord
100
AcDbBlockTableRecord
  2
*D40
340
0
  0
BLOCK_RECORD
  5
25D66
330
7466
100
AcDbSymbolTableRecord
100
AcDbBlockTableRecord
  2
*D41
340
0
  0
BLOCK_RECORD
  5
25D71
330
7466
100
AcDbSymbolTableRecord
100
AcDbBlockTableRecord
  2
*D42
340
0
  0
BLOCK_RECORD
  5
25D7D
330
7466
100
AcDbSymbolTableRecord
100
AcDbBlockTableRecord
  2
*D43
340
0
  0
BLOCK_RECORD
  5
25D89
330
7466
100
AcDbSymbolTableRecord
100
AcDbBlockTableRecord
  2
*D44
340
0
  0
BLOCK_RECORD
  5
25D95
330
7466
100
AcDbSymbolTableRecord
100
AcDbBlockTableRecord
  2
*D45
340
0
  0
BLOCK_RECORD
  5
25DAD
330
7466
100
AcDbSymbolTableRecord
100
AcDbBlockTableRecord
  2
*D46
340
0
  0
BLOCK_RECORD
  5
25DB9
330
7466
100
AcDbSymbolTableRecord
100
AcDbBlockTableRecord
  2
*D47
340
0
  0
BLOCK_RECORD
  5
25DC6
330
7466
100
AcDbSymbolTableRecord
100
AcDbBlockTableRecord
  2
*D48
340
0
  0
BLOCK_RECORD
  5
25DD3
330
7466
100
AcDbSymbolTableRecord
100
AcDbBlockTableRecord
  2
*D49
340
0
  0
BLOCK_RECORD
  5
268E3
330
7466
100
AcDbSymbolTableRecord
100
AcDbBlockTableRecord
  2
*D56
340
0
  0
BLOCK_RECORD
  5
268EF
330
7466
100
AcDbSymbolTableRecord
100
AcDbBlockTableRecord
  2
*D57
340
0
  0
BLOCK_RECORD
  5
268FB
330
7466
100
AcDbSymbolTableRecord
100
AcDbBlockTableRecord
  2
*D58
340
0
  0
BLOCK_RECORD
  5
26907
330
7466
100
AcDbSymbolTableRecord
100
AcDbBlockTableRecord
  2
*D59
340
0
  0
BLOCK_RECORD
  5
26913
330
7466
100
AcDbSymbolTableRecord
100
AcDbBlockTableRecord
  2
*D60
340
0
  0
BLOCK_RECORD
  5
26921
330
7466
100
AcDbSymbolTableRecord
100
AcDbBlockTableRecord
  2
*D61
340
0
  0
ENDTAB
  0
ENDSEC
  0
SECTION
  2
BLOCKS
  0
BLOCK
  5
7489
330
747D
100
AcDbEntity
  8
0
100
AcDbBlockBegin
  2
*MODEL_SPACE
 70
     0
 10
0.0
 20
0.0
 30
0.0
  3
*MODEL_SPACE
  1

  0
ENDBLK
  5
748A
330
747D
100
AcDbEntity
  8
0
100
AcDbBlockEnd
  0
BLOCK
  5
7487
330
747A
100
AcDbEntity
 67
     1
  8
0
100
AcDbBlockBegin
  2
*PAPER_SPACE
 70
     0
 10
0.0
 20
0.0
 30
0.0
  3
*PAPER_SPACE
  1

  0
ENDBLK
  5
7488
330
747A
100
AcDbEntity
 67
     1
  8
0
100
AcDbBlockEnd
  0
BLOCK
  5
DEAD
330
DEAC
100
AcDbEntity
  8
0
100
AcDbBlockBegin
  2
_OPEN
 70
     0
 10
0.0
 20
0.0
 30
0.0
  3
_OPEN
  1

  0
LINE
  5
DEAE
330
DEAC
100
AcDbEntity
  8
0
  6
ByBlock
 62
     0
100
AcDbLine
 10
-1.0
 20
0.1666666666666666
 30
0.0
 11
0.0
 21
0.0
 31
0.0
  0
LINE
  5
DEAF
330
DEAC
100
AcDbEntity
  8
0
  6
ByBlock
 62
     0
100
AcDbLine
 10
0.0
 20
0.0
 30
0.0
 11
-1.0
 21
-0.1666666666666666
 31
0.0
  0
LINE
  5
DEB0
330
DEAC
100
AcDbEntity
  8
0
  6
ByBlock
 62
     0
100
AcDbLine
 10
0.0
 20
0.0
 30
0.0
 11
-1.0
 21
0.0
 31
0.0
  0
ENDBLK
  5
DEB1
330
DEAC
100
AcDbEntity
  8
0
100
AcDbBlockEnd
  0
BLOCK
  5
F771
330
F770
100
AcDbEntity
  8
0
 48
50.0
100
AcDbBlockBegin
  2
_DOTSMALL
 70
     0
 10
0.0
 20
0.0
 30
0.0
  3
_DOTSMALL
  1

  0
LWPOLYLINE
  5
F772
330
F770
100
AcDbEntity
  8
0
  6
ByBlock
 62
     0
 48
50.0
100
AcDbPolyline
 90
        2
 70
     1
 43
0.5
 10
-0.0625
 20
0.0
 42
1.0
 10
0.0625
 20
0.0
 42
1.0
  0
ENDBLK
  5
F776
330
F770
100
AcDbEntity
  8
0
 48
50.0
100
AcDbBlockEnd
  0
BLOCK
  5
164BA
330
164B4
100
AcDbEntity
  8
0
 48
50.0
100
AcDbBlockBegin
  2
_DOT
 70
     0
 10
0.0
 20
0.0
 30
0.0
  3
_DOT
  1

  0
LWPOLYLINE
  5
164B5
330
164B4
100
AcDbEntity
  8
0
  6
ByBlock
 62
     0
 48
50.0
100
AcDbPolyline
 90
        2
 70
     1
 43
0.5
 10
-0.25
 20
0.0
 42
1.0
 10
0.25
 20
0.0
 42
1.0
  0
LINE
  5
164B9
330
164B4
100
AcDbEntity
  8
0
  6
ByBlock
 62
     0
 48
50.0
100
AcDbLine
 10
-0.5
 20
0.0
 30
0.0
 11
-1.0
 21
0.0
 31
0.0
  0
ENDBLK
  5
164BB
330
164B4
100
AcDbEntity
  8
0
 48
50.0
100
AcDbBlockEnd
  0
BLOCK
  5
18BC9
330
18BC8
100
AcDbEntity
  8
0
 48
50.0
100
AcDbBlockBegin
  2
*D3
 70
     1
 10
0.0
 20
0.0
 30
0.0
  3
*D3
  1

  0
LINE
  5
18BCA
330
18BC8
100
AcDbEntity
  8
寸法
 62
     0
 48
50.0
370
    -2
100
AcDbLine
 10
7649.896575106999
 20
9636.123139034717
 30
0.0
 11
8702.429862581047
 21
9636.123139034717
 31
0.0
  0
LINE
  5
18BCB
330
18BC8
100
AcDbEntity
  8
寸法
 62
     0
 48
50.0
370
    -2
100
AcDbLine
 10
7649.896575106973
 20
7846.123139034709
 30
0.0
 11
8702.429862581047
 21
7846.123139034709
 31
0.0
  0
LINE
  5
18BCC
330
18BC8
100
AcDbEntity
  8
寸法
 62
     0
 48
50.0
370
    -2
100
AcDbLine
 10
8642.429862581046
 20
9636.123139034717
 30
0.0
 11
8642.429862581046
 21
7846.123139034709
 31
0.0
  0
INSERT
  5
18BCD
330
18BC8
100
AcDbEntity
  8
寸法
 62
     0
 48
50.0
370
    -2
100
AcDbBlockReference
  2
_DOTSMALL
 10
8642.429862581046
 20
9636.123139034717
 30
0.0
 41
100.0
 42
100.0
 43
100.0
 50
90.0
  0
INSERT
  5
18BCE
330
18BC8
100
AcDbEntity
  8
寸法
 62
     0
 48
50.0
370
    -2
100
AcDbBlockReference
  2
_DOTSMALL
 10
8642.429862581046
 20
7846.123139034709
 30
0.0
 41
100.0
 42
100.0
 43
100.0
 50
270.0
  0
MTEXT
  5
18BCF
330
18BC8
100
AcDbEntity
  8
寸法
 62
     7
 48
50.0
100
AcDbMText
 10
8542.429862581045
 20
8741.123139034712
 30
0.0
 40
120.0
 41
0.0
 71
     5
 72
     1
  1
\A1;1790
  7
STYLE1
 11
0.0000000000000001
 21
1.0
 31
0.0
 73
     1
 44
1.0
1001
ACAD
1000
MTEXTBEGIN
1070
    73
1070
     1
1070
    44
1040
1.0
1070
    74
1070
     0
1000
MTEXTEND
  0
POINT
  5
18BD0
330
18BC8
100
AcDbEntity
  8
DEFPOINTS
 62
     0
 48
50.0
100
AcDbPoint
 10
7629.896575106998
 20
9636.123139034717
 30
0.0
  0
POINT
  5
18BD1
330
18BC8
100
AcDbEntity
  8
DEFPOINTS
 62
     0
 48
50.0
100
AcDbPoint
 10
7629.896575106974
 20
7846.123139034709
 30
0.0
  0
POINT
  5
18BD2
330
18BC8
100
AcDbEntity
  8
DEFPOINTS
 62
     0
 48
50.0
100
AcDbPoint
 10
8642.429862581046
 20
7846.123139034709
 30
0.0
  0
ENDBLK
  5
18BD3
330
18BC8
100
AcDbEntity
  8
0
 48
50.0
100
AcDbBlockEnd
  0
BLOCK
  5
18BD5
330
18BD4
100
AcDbEntity
  8
0
 48
50.0
100
AcDbBlockBegin
  2
*D4
 70
     1
 10
0.0
 20
0.0
 30
0.0
  3
*D4
  1

  0
LINE
  5
18BD6
330
18BD4
100
AcDbEntity
  8
寸法
 62
     0
 48
50.0
370
    -2
100
AcDbLine
 10
4214.896575106998
 20
9656.123139034622
 30
0.0
 11
4214.896575106998
 21
10211.93135865972
 31
0.0
  0
LINE
  5
18BD7
330
18BD4
100
AcDbEntity
  8
寸法
 62
     0
 48
50.0
370
    -2
100
AcDbLine
 10
7574.896575106999
 20
9656.123139034718
 30
0.0
 11
7574.896575106999
 21
10211.93135865972
 31
0.0
  0
LINE
  5
18BD8
330
18BD4
100
AcDbEntity
  8
寸法
 62
     0
 48
50.0
370
    -2
100
AcDbLine
 10
4214.896575106998
 20
10151.93135865972
 30
0.0
 11
7574.896575106999
 21
10151.93135865972
 31
0.0
  0
INSERT
  5
18BD9
330
18BD4
100
AcDbEntity
  8
寸法
 62
     0
 48
50.0
370
    -2
100
AcDbBlockReference
  2
_DOTSMALL
 10
4214.896575106998
 20
10151.93135865972
 30
0.0
 41
100.0
 42
100.0
 43
100.0
 50
180.0
  0
INSERT
  5
18BDA
330
18BD4
100
AcDbEntity
  8
寸法
 62
     0
 48
50.0
370
    -2
100
AcDbBlockReference
  2
_DOTSMALL
 10
7574.896575106999
 20
10151.93135865972
 30
0.0
 41
100.0
 42
100.0
 43
100.0
  0
MTEXT
  5
18BDB
330
18BD4
100
AcDbEntity
  8
寸法
 62
     7
 48
50.0
100
AcDbMText
 10
5894.896575106997
 20
10251.94316968334
 30
0.0
 40
120.0
 41
0.0
 71
     5
 72
     1
  1
\A1;8X420=3360
  7
STYLE1
 73
     1
 44
1.0
1001
ACAD
1000
MTEXTBEGIN
1070
    73
1070
     1
1070
    44
1040
1.0
1070
    74
1070
     0
1000
MTEXTEND
  0
POINT
  5
18BDC
330
18BD4
100
AcDbEntity
  8
DEFPOINTS
 62
     0
 48
50.0
100
AcDbPoint
 10
4214.896575106998
 20
9636.123139034623
 30
0.0
  0
POINT
  5
18BDD
330
18BD4
100
AcDbEntity
  8
DEFPOINTS
 62
     0
 48
50.0
100
AcDbPoint
 10
7574.896575106999
 20
9636.123139034717
 30
0.0
  0
POINT
  5
18BDE
330
18BD4
100
AcDbEntity
  8
DEFPOINTS
 62
     0
 48
50.0
100
AcDbPoint
 10
7574.896575106999
 20
10151.93135865972
 30
0.0
  0
ENDBLK
  5
18BDF
330
18BD4
100
AcDbEntity
  8
0
 48
50.0
100
AcDbBlockEnd
  0
BLOCK
  5
18BE1
330
18BE0
100
AcDbEntity
  8
0
 48
50.0
100
AcDbBlockBegin
  2
*D5
 70
     1
 10
0.0
 20
0.0
 30
0.0
  3
*D5
  1

  0
LINE
  5
18BE2
330
18BE0
100
AcDbEntity
  8
寸法
 62
     0
 48
50.0
370
    -2
100
AcDbLine
 10
7574.896575106999
 20
9656.123139034718
 30
0.0
 11
7574.896575106999
 21
10211.9313586597
 31
0.0
  0
LINE
  5
18BE3
330
18BE0
100
AcDbEntity
  8
寸法
 62
     0
 48
50.0
370
    -2
100
AcDbLine
 10
7629.896575106998
 20
9656.123139034718
 30
0.0
 11
7629.896575106998
 21
10211.9313586597
 31
0.0
  0
LINE
  5
18BE4
330
18BE0
100
AcDbEntity
  8
寸法
 62
     0
 48
50.0
370
    -2
100
AcDbLine
 10
7574.896575106999
 20
10151.9313586597
 30
0.0
 11
7474.896575106999
 21
10151.9313586597
 31
0.0
  0
LINE
  5
18BE5
330
18BE0
100
AcDbEntity
  8
寸法
 62
     0
 48
50.0
370
    -2
100
AcDbLine
 10
7629.896575106998
 20
10151.9313586597
 30
0.0
 11
8046.867137855477
 21
10151.9313586597
 31
0.0
  0
LINE
  5
18BE6
330
18BE0
100
AcDbEntity
  8
寸法
 62
     0
 48
50.0
370
    -2
100
AcDbLine
 10
7574.896575106999
 20
10151.9313586597
 30
0.0
 11
7629.896575106998
 21
10151.9313586597
 31
0.0
  0
INSERT
  5
18BE7
330
18BE0
100
AcDbEntity
  8
寸法
 62
     0
 48
50.0
370
    -2
100
AcDbBlockReference
  2
_DOTSMALL
 10
7574.896575106999
 20
10151.9313586597
 30
0.0
 41
100.0
 42
100.0
 43
100.0
  0
INSERT
  5
18BE8
330
18BE0
100
AcDbEntity
  8
寸法
 62
     0
 48
50.0
370
    -2
100
AcDbBlockReference
  2
_DOTSMALL
 10
7629.896575106998
 20
10151.9313586597
 30
0.0
 41
100.0
 42
100.0
 43
100.0
 50
180.0
  0
MTEXT
  5
18BE9
330
18BE0
100
AcDbEntity
  8
寸法
 62
     7
 48
50.0
100
AcDbMText
 10
7938.381856481237
 20
10251.9313586597
 30
0.0
 40
120.0
 41
0.0
 71
     5
 72
     1
  1
\A1;55
  7
STYLE1
 73
     1
 44
1.0
1001
ACAD
1000
MTEXTBEGIN
1070
    73
1070
     1
1070
    44
1040
1.0
1070
    74
1070
     0
1000
MTEXTEND
  0
POINT
  5
18BEA
330
18BE0
100
AcDbEntity
  8
DEFPOINTS
 62
     0
 48
50.0
100
AcDbPoint
 10
7574.896575106999
 20
9636.123139034717
 30
0.0
  0
POINT
  5
18BEB
330
18BE0
100
AcDbEntity
  8
DEFPOINTS
 62
     0
 48
50.0
100
AcDbPoint
 10
7629.896575106998
 20
9636.123139034717
 30
0.0
  0
POINT
  5
18BEC
330
18BE0
100
AcDbEntity
  8
DEFPOINTS
 62
     0
 48
50.0
100
AcDbPoint
 10
7629.896575106998
 20
10151.9313586597
 30
0.0
  0
ENDBLK
  5
18BED
330
18BE0
100
AcDbEntity
  8
0
 48
50.0
100
AcDbBlockEnd
  0
BLOCK
  5
18BEF
330
18BEE
100
AcDbEntity
  8
0
 48
50.0
100
AcDbBlockBegin
  2
*D6
 70
     1
 10
0.0
 20
0.0
 30
0.0
  3
*D6
  1

  0
LINE
  5
18BF0
330
18BEE
100
AcDbEntity
  8
寸法
 62
     0
 48
50.0
370
    -2
100
AcDbLine
 10
7649.896575106999
 20
9636.123139034717
 30
0.0
 11
8337.32292084141
 21
9636.123139034717
 31
0.0
  0
LINE
  5
18BF1
330
18BEE
100
AcDbEntity
  8
寸法
 62
     0
 48
50.0
370
    -2
100
AcDbLine
 10
7649.896575106999
 20
9581.123139034721
 30
0.0
 11
8337.32292084141
 21
9581.123139034721
 31
0.0
  0
LINE
  5
18BF2
330
18BEE
100
AcDbEntity
  8
寸法
 62
     0
 48
50.0
370
    -2
100
AcDbLine
 10
8277.322920841411
 20
9581.123139034721
 30
0.0
 11
8277.322920841411
 21
9481.123139034719
 31
0.0
  0
LINE
  5
18BF3
330
18BEE
100
AcDbEntity
  8
寸法
 62
     0
 48
50.0
370
    -2
100
AcDbLine
 10
8277.322920841411
 20
9636.123139034717
 30
0.0
 11
8277.322920841411
 21
10053.09370178319
 31
0.0
  0
LINE
  5
18BF4
330
18BEE
100
AcDbEntity
  8
寸法
 62
     0
 48
50.0
370
    -2
100
AcDbLine
 10
8277.322920841411
 20
9581.123139034721
 30
0.0
 11
8277.322920841411
 21
9636.123139034717
 31
0.0
  0
INSERT
  5
18BF5
330
18BEE
100
AcDbEntity
  8
寸法
 62
     0
 48
50.0
370
    -2
100
AcDbBlockReference
  2
_DOTSMALL
 10
8277.322920841411
 20
9581.123139034721
 30
0.0
 41
100.0
 42
100.0
 43
100.0
 50
90.0
  0
INSERT
  5
18BF6
330
18BEE
100
AcDbEntity
  8
寸法
 62
     0
 48
50.0
370
    -2
100
AcDbBlockReference
  2
_DOTSMALL
 10
8277.322920841411
 20
9636.123139034717
 30
0.0
 41
100.0
 42
100.0
 43
100.0
 50
270.0
  0
MTEXT
  5
18BF7
330
18BEE
100
AcDbEntity
  8
寸法
 62
     7
 48
50.0
100
AcDbMText
 10
8177.32292084141
 20
9944.608420408957
 30
0.0
 40
120.0
 41
0.0
 71
     5
 72
     1
  1
\A1;55
  7
STYLE1
 11
0.0000000000000001
 21
1.0
 31
0.0
 73
     1
 44
1.0
1001
ACAD
1000
MTEXTBEGIN
1070
    73
1070
     1
1070
    44
1040
1.0
1070
    74
1070
     0
1000
MTEXTEND
  0
POINT
  5
18BF8
330
18BEE
100
AcDbEntity
  8
DEFPOINTS
 62
     0
 48
50.0
100
AcDbPoint
 10
7629.896575106998
 20
9636.123139034717
 30
0.0
  0
POINT
  5
18BF9
330
18BEE
100
AcDbEntity
  8
DEFPOINTS
 62
     0
 48
50.0
100
AcDbPoint
 10
7629.896575106998
 20
9581.123139034721
 30
0.0
  0
POINT
  5
18BFA
330
18BEE
100
AcDbEntity
  8
DEFPOINTS
 62
     0
 48
50.0
100
AcDbPoint
 10
8277.322920841411
 20
9581.123139034721
 30
0.0
  0
ENDBLK
  5
18BFB
330
18BEE
100
AcDbEntity
  8
0
 48
50.0
100
AcDbBlockEnd
  0
BLOCK
  5
18BFD
330
18BFC
100
AcDbEntity
  8
0
 48
50.0
100
AcDbBlockBegin
  2
*D7
 70
     1
 10
0.0
 20
0.0
 30
0.0
  3
*D7
  1

  0
LINE
  5
18BFE
330
18BFC
100
AcDbEntity
  8
寸法
 62
     0
 48
50.0
370
    -2
100
AcDbLine
 10
4159.896575106963
 20
9656.123139034622
 30
0.0
 11
4159.896575106963
 21
10211.9313586596
 31
0.0
  0
LINE
  5
18BFF
330
18BFC
100
AcDbEntity
  8
寸法
 62
     0
 48
50.0
370
    -2
100
AcDbLine
 10
4214.896575106998
 20
9656.123139034622
 30
0.0
 11
4214.896575106998
 21
10211.9313586596
 31
0.0
  0
LINE
  5
18C00
330
18BFC
100
AcDbEntity
  8
寸法
 62
     0
 48
50.0
370
    -2
100
AcDbLine
 10
4214.896575106998
 20
10151.9313586596
 30
0.0
 11
4314.896575106998
 21
10151.9313586596
 31
0.0
  0
LINE
  5
18C01
330
18BFC
100
AcDbEntity
  8
寸法
 62
     0
 48
50.0
370
    -2
100
AcDbLine
 10
4159.896575106963
 20
10151.9313586596
 30
0.0
 11
3742.926012358486
 21
10151.9313586596
 31
0.0
  0
LINE
  5
18C02
330
18BFC
100
AcDbEntity
  8
寸法
 62
     0
 48
50.0
370
    -2
100
AcDbLine
 10
4214.896575106998
 20
10151.9313586596
 30
0.0
 11
4159.896575106963
 21
10151.9313586596
 31
0.0
  0
INSERT
  5
18C03
330
18BFC
100
AcDbEntity
  8
寸法
 62
     0
 48
50.0
370
    -2
100
AcDbBlockReference
  2
_DOTSMALL
 10
4214.896575106998
 20
10151.9313586596
 30
0.0
 41
100.0
 42
100.0
 43
100.0
 50
180.0
  0
INSERT
  5
18C04
330
18BFC
100
AcDbEntity
  8
寸法
 62
     0
 48
50.0
370
    -2
100
AcDbBlockReference
  2
_DOTSMALL
 10
4159.896575106963
 20
10151.9313586596
 30
0.0
 41
100.0
 42
100.0
 43
100.0
  0
MTEXT
  5
18C05
330
18BFC
100
AcDbEntity
  8
寸法
 62
     7
 48
50.0
100
AcDbMText
 10
3851.411293732725
 20
10251.9313586596
 30
0.0
 40
120.0
 41
0.0
 71
     5
 72
     1
  1
\A1;55
  7
STYLE1
 73
     1
 44
1.0
1001
ACAD
1000
MTEXTBEGIN
1070
    73
1070
     1
1070
    44
1040
1.0
1070
    74
1070
     0
1000
MTEXTEND
  0
POINT
  5
18C06
330
18BFC
100
AcDbEntity
  8
DEFPOINTS
 62
     0
 48
50.0
100
AcDbPoint
 10
4159.896575106963
 20
9636.123139034623
 30
0.0
  0
POINT
  5
18C07
330
18BFC
100
AcDbEntity
  8
DEFPOINTS
 62
     0
 48
50.0
100
AcDbPoint
 10
4214.896575106998
 20
9636.123139034623
 30
0.0
  0
POINT
  5
18C08
330
18BFC
100
AcDbEntity
  8
DEFPOINTS
 62
     0
 48
50.0
100
AcDbPoint
 10
4214.896575106998
 20
10151.9313586596
 30
0.0
  0
ENDBLK
  5
18C09
330
18BFC
100
AcDbEntity
  8
0
 48
50.0
100
AcDbBlockEnd
  0
BLOCK
  5
18C0B
330
18C0A
100
AcDbEntity
  8
0
 48
50.0
100
AcDbBlockBegin
  2
*D8
 70
     1
 10
0.0
 20
0.0
 30
0.0
  3
*D8
  1

  0
LINE
  5
18C0C
330
18C0A
100
AcDbEntity
  8
寸法
 62
     0
 48
50.0
370
    -2
100
AcDbLine
 10
4159.896575106992
 20
7826.123139034546
 30
0.0
 11
4159.896575106992
 21
6804.372203245664
 31
0.0
  0
LINE
  5
18C0D
330
18C0A
100
AcDbEntity
  8
寸法
 62
     0
 48
50.0
370
    -2
100
AcDbLine
 10
7629.896575106974
 20
7826.123139034674
 30
0.0
 11
7629.896575106974
 21
6804.372203245664
 31
0.0
  0
LINE
  5
18C0E
330
18C0A
100
AcDbEntity
  8
寸法
 62
     0
 48
50.0
370
    -2
100
AcDbLine
 10
4159.896575106992
 20
6864.372203245665
 30
0.0
 11
7629.896575106974
 21
6864.372203245665
 31
0.0
  0
INSERT
  5
18C0F
330
18C0A
100
AcDbEntity
  8
寸法
 62
     0
 48
50.0
370
    -2
100
AcDbBlockReference
  2
_DOTSMALL
 10
4159.896575106992
 20
6864.372203245665
 30
0.0
 41
100.0
 42
100.0
 43
100.0
 50
180.0
  0
INSERT
  5
18C10
330
18C0A
100
AcDbEntity
  8
寸法
 62
     0
 48
50.0
370
    -2
100
AcDbBlockReference
  2
_DOTSMALL
 10
7629.896575106974
 20
6864.372203245665
 30
0.0
 41
100.0
 42
100.0
 43
100.0
  0
MTEXT
  5
18C11
330
18C0A
100
AcDbEntity
  8
寸法
 62
     7
 48
50.0
100
AcDbMText
 10
5911.12376113973
 20
6964.372203245665
 30
0.0
 40
120.0
 41
0.0
 71
     5
 72
     1
  1
\A1;3470
  7
STYLE1
 73
     1
 44
1.0
1001
ACAD
1000
MTEXTBEGIN
1070
    73
1070
     1
1070
    44
1040
1.0
1070
    74
1070
     0
1000
MTEXTEND
  0
POINT
  5
18C12
330
18C0A
100
AcDbEntity
  8
DEFPOINTS
 62
     0
 48
50.0
100
AcDbPoint
 10
4159.896575106992
 20
7846.123139034546
 30
0.0
  0
POINT
  5
18C13
330
18C0A
100
AcDbEntity
  8
DEFPOINTS
 62
     0
 48
50.0
100
AcDbPoint
 10
7629.896575106974
 20
7846.123139034673
 30
0.0
  0
POINT
  5
18C14
330
18C0A
100
AcDbEntity
  8
DEFPOINTS
 62
     0
 48
50.0
100
AcDbPoint
 10
7629.896575106974
 20
6864.372203245665
 30
0.0
  0
ENDBLK
  5
18C15
330
18C0A
100
AcDbEntity
  8
0
 48
50.0
100
AcDbBlockEnd
  0
BLOCK
  5
18C17
330
18C16
100
AcDbEntity
  8
0
 48
50.0
100
AcDbBlockBegin
  2
*D9
 70
     1
 10
0.0
 20
0.0
 30
0.0
  3
*D9
  1

  0
LINE
  5
18C18
330
18C16
100
AcDbEntity
  8
寸法
 62
     0
 48
50.0
370
    -2
100
AcDbLine
 10
7649.896575106973
 20
7901.123139034706
 30
0.0
 11
8337.322920841385
 21
7901.123139034706
 31
0.0
  0
LINE
  5
18C19
330
18C16
100
AcDbEntity
  8
寸法
 62
     0
 48
50.0
370
    -2
100
AcDbLine
 10
7649.896575106973
 20
7846.123139034709
 30
0.0
 11
8337.322920841385
 21
7846.123139034709
 31
0.0
  0
LINE
  5
18C1A
330
18C16
100
AcDbEntity
  8
寸法
 62
     0
 48
50.0
370
    -2
100
AcDbLine
 10
8277.322920841385
 20
7901.123139034706
 30
0.0
 11
8277.322920841385
 21
8001.123139034707
 31
0.0
  0
LINE
  5
18C1B
330
18C16
100
AcDbEntity
  8
寸法
 62
     0
 48
50.0
370
    -2
100
AcDbLine
 10
8277.322920841385
 20
7846.123139034709
 30
0.0
 11
8277.322920841385
 21
7429.152576286229
 31
0.0
  0
LINE
  5
18C1C
330
18C16
100
AcDbEntity
  8
寸法
 62
     0
 48
50.0
370
    -2
100
AcDbLine
 10
8277.322920841385
 20
7901.123139034706
 30
0.0
 11
8277.322920841385
 21
7846.123139034709
 31
0.0
  0
INSERT
  5
18C1D
330
18C16
100
AcDbEntity
  8
寸法
 62
     0
 48
50.0
370
    -2
100
AcDbBlockReference
  2
_DOTSMALL
 10
8277.322920841385
 20
7901.123139034706
 30
0.0
 41
100.0
 42
100.0
 43
100.0
 50
270.0
  0
INSERT
  5
18C1E
330
18C16
100
AcDbEntity
  8
寸法
 62
     0
 48
50.0
370
    -2
100
AcDbBlockReference
  2
_DOTSMALL
 10
8277.322920841385
 20
7846.123139034709
 30
0.0
 41
100.0
 42
100.0
 43
100.0
 50
90.0
  0
MTEXT
  5
18C1F
330
18C16
100
AcDbEntity
  8
寸法
 62
     7
 48
50.0
100
AcDbMText
 10
8177.322920841383
 20
7537.637857660469
 30
0.0
 40
120.0
 41
0.0
 71
     5
 72
     1
  1
\A1;55
  7
STYLE1
 11
0.0000000000000001
 21
1.0
 31
0.0
 73
     1
 44
1.0
1001
ACAD
1000
MTEXTBEGIN
1070
    73
1070
     1
1070
    44
1040
1.0
1070
    74
1070
     0
1000
MTEXTEND
  0
POINT
  5
18C20
330
18C16
100
AcDbEntity
  8
DEFPOINTS
 62
     0
 48
50.0
100
AcDbPoint
 10
7629.896575106974
 20
7901.123139034706
 30
0.0
  0
POINT
  5
18C21
330
18C16
100
AcDbEntity
  8
DEFPOINTS
 62
     0
 48
50.0
100
AcDbPoint
 10
7629.896575106974
 20
7846.123139034709
 30
0.0
  0
POINT
  5
18C22
330
18C16
100
AcDbEntity
  8
DEFPOINTS
 62
     0
 48
50.0
100
AcDbPoint
 10
8277.322920841385
 20
7846.123139034709
 30
0.0
  0
ENDBLK
  5
18C23
330
18C16
100
AcDbEntity
  8
0
 48
50.0
100
AcDbBlockEnd
  0
BLOCK
  5
18C25
330
18C24
100
AcDbEntity
  8
0
 48
50.0
100
AcDbBlockBegin
  2
*D10
 70
     1
 10
0.0
 20
0.0
 30
0.0
  3
*D10
  1

  0
LINE
  5
18C26
330
18C24
100
AcDbEntity
  8
寸法
 62
     0
 48
50.0
370
    -2
100
AcDbLine
 10
6533.037591258376
 20
9136.123139034728
 30
0.0
 11
6465.083950562664
 21
8882.516699399049
 31
0.0
  0
LINE
  5
18C27
330
18C24
100
AcDbEntity
  8
寸法
 62
     0
 48
50.0
370
    -2
100
AcDbLine
 10
7596.037591258388
 20
9136.123139034721
 30
0.0
 11
7528.083950562677
 21
8882.516699399049
 31
0.0
  0
LINE
  5
18C28
330
18C24
100
AcDbEntity
  8
寸法
 62
     0
 48
50.0
370
    -2
100
AcDbLine
 10
6481.160902108531
 20
8942.51669939905
 30
0.0
 11
7544.160902108544
 21
8942.51669939905
 31
0.0
  0
INSERT
  5
18C29
330
18C24
100
AcDbEntity
  8
寸法
 62
     0
 48
50.0
370
    -2
100
AcDbBlockReference
  2
_DOTSMALL
 10
6481.160902108531
 20
8942.51669939905
 30
0.0
 41
100.0
 42
100.0
 43
100.0
 50
180.0
  0
INSERT
  5
18C2A
330
18C24
100
AcDbEntity
  8
寸法
 62
     0
 48
50.0
370
    -2
100
AcDbBlockReference
  2
_DOTSMALL
 10
7544.160902108544
 20
8942.51669939905
 30
0.0
 41
100.0
 42
100.0
 43
100.0
  0
MTEXT
  5
18C2B
330
18C24
100
AcDbEntity
  8
寸法
 62
     7
 48
50.0
100
AcDbMText
 10
7061.28653022935
 20
9042.516699399049
 30
0.0
 40
120.0
 41
0.0
 71
     5
 72
     1
  1
\A1;1063
  7
STYLE1
 73
     1
 44
1.0
1001
ACAD
1000
MTEXTBEGIN
1070
    73
1070
     1
1070
    44
1040
1.0
1070
    74
1070
     0
1000
MTEXTEND
  0
POINT
  5
18C2C
330
18C24
100
AcDbEntity
  8
DEFPOINTS
 62
     0
 48
50.0
100
AcDbPoint
 10
6538.396575106998
 20
9156.123139034727
 30
0.0
  0
POINT
  5
18C2D
330
18C24
100
AcDbEntity
  8
DEFPOINTS
 62
     0
 48
50.0
100
AcDbPoint
 10
7601.39657510701
 20
9156.12313903472
 30
0.0
  0
POINT
  5
18C2E
330
18C24
100
AcDbEntity
  8
DEFPOINTS
 62
     0
 48
50.0
100
AcDbPoint
 10
7544.160902108544
 20
8942.51669939905
 30
0.0
  0
ENDBLK
  5
18C2F
330
18C24
100
AcDbEntity
  8
0
 48
50.0
100
AcDbBlockEnd
  0
BLOCK
  5
18C31
330
18C30
100
AcDbEntity
  8
0
 48
50.0
100
AcDbBlockBegin
  2
*D11
 70
     1
 10
0.0
 20
0.0
 30
0.0
  3
*D11
  1

  0
LINE
  5
18C32
330
18C30
100
AcDbEntity
  8
寸法
 62
     0
 48
50.0
370
    -2
100
AcDbLine
 10
7621.396575106999
 20
9600.764155186094
 30
0.0
 11
8016.754300969024
 21
9494.828371819961
 31
0.0
  0
LINE
  5
18C33
330
18C30
100
AcDbEntity
  8
寸法
 62
     0
 48
50.0
370
    -2
100
AcDbLine
 10
7621.396575106999
 20
9150.764155186099
 30
0.0
 11
8016.754300969024
 21
9044.828371819964
 31
0.0
  0
LINE
  5
18C34
330
18C30
100
AcDbEntity
  8
寸法
 62
     0
 48
50.0
370
    -2
100
AcDbLine
 10
7956.754300969024
 20
9510.905323365827
 30
0.0
 11
7956.754300969024
 21
9060.90532336583
 31
0.0
  0
INSERT
  5
18C35
330
18C30
100
AcDbEntity
  8
寸法
 62
     0
 48
50.0
370
    -2
100
AcDbBlockReference
  2
_DOTSMALL
 10
7956.754300969024
 20
9510.905323365827
 30
0.0
 41
100.0
 42
100.0
 43
100.0
 50
90.0
  0
INSERT
  5
18C36
330
18C30
100
AcDbEntity
  8
寸法
 62
     0
 48
50.0
370
    -2
100
AcDbBlockReference
  2
_DOTSMALL
 10
7956.754300969024
 20
9060.90532336583
 30
0.0
 41
100.0
 42
100.0
 43
100.0
 50
270.0
  0
MTEXT
  5
18C37
330
18C30
100
AcDbEntity
  8
寸法
 62
     7
 48
50.0
100
AcDbMText
 10
7856.754300969022
 20
9285.905323365829
 30
0.0
 40
120.0
 41
0.0
 71
     5
 72
     1
  1
\A1;450
  7
STYLE1
 11
0.0000000000000001
 21
1.0
 31
0.0
 73
     1
 44
1.0
1001
ACAD
1000
MTEXTBEGIN
1070
    73
1070
     1
1070
    44
1040
1.0
1070
    74
1070
     0
1000
MTEXTEND
  0
POINT
  5
18C38
330
18C30
100
AcDbEntity
  8
DEFPOINTS
 62
     0
 48
50.0
100
AcDbPoint
 10
7601.396575106999
 20
9606.123139034718
 30
0.0
  0
POINT
  5
18C39
330
18C30
100
AcDbEntity
  8
DEFPOINTS
 62
     0
 48
50.0
100
AcDbPoint
 10
7601.396575106999
 20
9156.12313903472
 30
0.0
  0
POINT
  5
18C3A
330
18C30
100
AcDbEntity
  8
DEFPOINTS
 62
     0
 48
50.0
100
AcDbPoint
 10
7956.754300969024
 20
9060.90532336583
 30
0.0
  0
ENDBLK
  5
18C3B
330
18C30
100
AcDbEntity
  8
0
 48
50.0
100
AcDbBlockEnd
  0
BLOCK
  5
18C3D
330
18C3C
100
AcDbEntity
  8
0
 48
50.0
100
AcDbBlockBegin
  2
*D12
 70
     1
 10
0.0
 20
0.0
 30
0.0
  3
*D12
  1

  0
LINE
  5
18C3E
330
18C3C
100
AcDbEntity
  8
寸法
 62
     0
 48
50.0
370
    -2
100
AcDbLine
 10
7649.896575106999
 20
9581.123139034721
 30
0.0
 11
8337.32292084141
 21
9581.123139034721
 31
0.0
  0
LINE
  5
18C3F
330
18C3C
100
AcDbEntity
  8
寸法
 62
     0
 48
50.0
370
    -2
100
AcDbLine
 10
7649.896575106973
 20
7901.123139034706
 30
0.0
 11
8337.32292084141
 21
7901.123139034706
 31
0.0
  0
LINE
  5
18C40
330
18C3C
100
AcDbEntity
  8
寸法
 62
     0
 48
50.0
370
    -2
100
AcDbLine
 10
8277.322920841411
 20
9581.123139034721
 30
0.0
 11
8277.322920841411
 21
7901.123139034706
 31
0.0
  0
INSERT
  5
18C41
330
18C3C
100
AcDbEntity
  8
寸法
 62
     0
 48
50.0
370
    -2
100
AcDbBlockReference
  2
_DOTSMALL
 10
8277.322920841411
 20
9581.123139034721
 30
0.0
 41
100.0
 42
100.0
 43
100.0
 50
90.0
  0
INSERT
  5
18C42
330
18C3C
100
AcDbEntity
  8
寸法
 62
     0
 48
50.0
370
    -2
100
AcDbBlockReference
  2
_DOTSMALL
 10
8277.322920841411
 20
7901.123139034706
 30
0.0
 41
100.0
 42
100.0
 43
100.0
 50
270.0
  0
MTEXT
  5
18C43
330
18C3C
100
AcDbEntity
  8
寸法
 62
     7
 48
50.0
100
AcDbMText
 10
8177.311109817788
 20
8741.123139034712
 30
0.0
 40
120.0
 41
0.0
 71
     5
 72
     1
  1
\A1;4X420=1680
  7
STYLE1
 11
0.0000000000000001
 21
1.0
 31
0.0
 73
     1
 44
1.0
1001
ACAD
1000
MTEXTBEGIN
1070
    73
1070
     1
1070
    44
1040
1.0
1070
    74
1070
     0
1000
MTEXTEND
  0
POINT
  5
18C44
330
18C3C
100
AcDbEntity
  8
DEFPOINTS
 62
     0
 48
50.0
100
AcDbPoint
 10
7629.896575106998
 20
9581.123139034721
 30
0.0
  0
POINT
  5
18C45
330
18C3C
100
AcDbEntity
  8
DEFPOINTS
 62
     0
 48
50.0
100
AcDbPoint
 10
7629.896575106974
 20
7901.123139034706
 30
0.0
  0
POINT
  5
18C46
330
18C3C
100
AcDbEntity
  8
DEFPOINTS
 62
     0
 48
50.0
100
AcDbPoint
 10
8277.322920841411
 20
7901.123139034706
 30
0.0
  0
ENDBLK
  5
18C47
330
18C3C
100
AcDbEntity
  8
0
 48
50.0
100
AcDbBlockEnd
  0
BLOCK
  5
18C49
330
18C48
100
AcDbEntity
  8
0
 48
50.0
100
AcDbBlockBegin
  2
*D13
 70
     1
 10
0.0
 20
0.0
 30
0.0
  3
*D13
  1

  0
LINE
  5
18C4A
330
18C48
100
AcDbEntity
  8
寸法
 62
     0
 48
50.0
370
    -2
100
AcDbLine
 10
4183.037591258377
 20
9136.123139034619
 30
0.0
 11
4115.083950562663
 21
8882.516699398941
 31
0.0
  0
LINE
  5
18C4B
330
18C48
100
AcDbEntity
  8
寸法
 62
     0
 48
50.0
370
    -2
100
AcDbLine
 10
5246.037591258307
 20
9136.123139034671
 30
0.0
 11
5178.08395056258
 21
8882.516699398941
 31
0.0
  0
LINE
  5
18C4C
330
18C48
100
AcDbEntity
  8
寸法
 62
     0
 48
50.0
370
    -2
100
AcDbLine
 10
4131.160902108532
 20
8942.516699398941
 30
0.0
 11
5194.160902108448
 21
8942.516699398941
 31
0.0
  0
INSERT
  5
18C4D
330
18C48
100
AcDbEntity
  8
寸法
 62
     0
 48
50.0
370
    -2
100
AcDbBlockReference
  2
_DOTSMALL
 10
4131.160902108532
 20
8942.516699398941
 30
0.0
 41
100.0
 42
100.0
 43
100.0
 50
180.0
  0
INSERT
  5
18C4E
330
18C48
100
AcDbEntity
  8
寸法
 62
     0
 48
50.0
370
    -2
100
AcDbBlockReference
  2
_DOTSMALL
 10
5194.160902108448
 20
8942.516699398941
 30
0.0
 41
100.0
 42
100.0
 43
100.0
  0
MTEXT
  5
18C4F
330
18C48
100
AcDbEntity
  8
寸法
 62
     7
 48
50.0
100
AcDbMText
 10
4658.986452655306
 20
9042.516699398941
 30
0.0
 40
120.0
 41
0.0
 71
     5
 72
     1
  1
\A1;1063
  7
STYLE1
 73
     1
 44
1.0
1001
ACAD
1000
MTEXTBEGIN
1070
    73
1070
     1
1070
    44
1040
1.0
1070
    74
1070
     0
1000
MTEXTEND
  0
POINT
  5
18C50
330
18C48
100
AcDbEntity
  8
DEFPOINTS
 62
     0
 48
50.0
100
AcDbPoint
 10
4188.396575106999
 20
9156.123139034617
 30
0.0
  0
POINT
  5
18C51
330
18C48
100
AcDbEntity
  8
DEFPOINTS
 62
     0
 48
50.0
100
AcDbPoint
 10
5251.396575106929
 20
9156.123139034672
 30
0.0
  0
POINT
  5
18C52
330
18C48
100
AcDbEntity
  8
DEFPOINTS
 62
     0
 48
50.0
100
AcDbPoint
 10
5194.160902108448
 20
8942.516699398941
 30
0.0
  0
ENDBLK
  5
18C53
330
18C48
100
AcDbEntity
  8
0
 48
50.0
100
AcDbBlockEnd
  0
BLOCK
  5
18C55
330
18C54
100
AcDbEntity
  8
0
 48
50.0
100
AcDbBlockBegin
  2
*D14
 70
     1
 10
0.0
 20
0.0
 30
0.0
  3
*D14
  1

  0
LINE
  5
18C56
330
18C54
100
AcDbEntity
  8
寸法
 62
     0
 48
50.0
370
    -2
100
AcDbLine
 10
5274.037591258307
 20
9136.123139034669
 30
0.0
 11
5206.08395056258
 21
8882.516699398941
 31
0.0
  0
LINE
  5
18C57
330
18C54
100
AcDbEntity
  8
寸法
 62
     0
 48
50.0
370
    -2
100
AcDbLine
 10
6505.037591258377
 20
9136.123139034662
 30
0.0
 11
6437.083950562653
 21
8882.516699398941
 31
0.0
  0
LINE
  5
18C58
330
18C54
100
AcDbEntity
  8
寸法
 62
     0
 48
50.0
370
    -2
100
AcDbLine
 10
5222.160902108448
 20
8942.516699398941
 30
0.0
 11
6453.16090210852
 21
8942.516699398941
 31
0.0
  0
INSERT
  5
18C59
330
18C54
100
AcDbEntity
  8
寸法
 62
     0
 48
50.0
370
    -2
100
AcDbBlockReference
  2
_DOTSMALL
 10
5222.160902108448
 20
8942.516699398941
 30
0.0
 41
100.0
 42
100.0
 43
100.0
 50
180.0
  0
INSERT
  5
18C5A
330
18C54
100
AcDbEntity
  8
寸法
 62
     0
 48
50.0
370
    -2
100
AcDbBlockReference
  2
_DOTSMALL
 10
6453.16090210852
 20
8942.516699398941
 30
0.0
 41
100.0
 42
100.0
 43
100.0
  0
MTEXT
  5
18C5B
330
18C54
100
AcDbEntity
  8
寸法
 62
     7
 48
50.0
100
AcDbMText
 10
6081.244808320626
 20
9042.528510422561
 30
0.0
 40
120.0
 41
0.0
 71
     5
 72
     1
  1
\A1;1231
  7
STYLE1
 73
     1
 44
1.0
1001
ACAD
1000
MTEXTBEGIN
1070
    73
1070
     1
1070
    44
1040
1.0
1070
    74
1070
     0
1000
MTEXTEND
  0
POINT
  5
18C5C
330
18C54
100
AcDbEntity
  8
DEFPOINTS
 62
     0
 48
50.0
100
AcDbPoint
 10
5279.396575106929
 20
9156.123139034669
 30
0.0
  0
POINT
  5
18C5D
330
18C54
100
AcDbEntity
  8
DEFPOINTS
 62
     0
 48
50.0
100
AcDbPoint
 10
6510.396575106999
 20
9156.123139034662
 30
0.0
  0
POINT
  5
18C5E
330
18C54
100
AcDbEntity
  8
DEFPOINTS
 62
     0
 48
50.0
100
AcDbPoint
 10
6453.16090210852
 20
8942.516699398941
 30
0.0
  0
ENDBLK
  5
18C5F
330
18C54
100
AcDbEntity
  8
0
 48
50.0
100
AcDbBlockEnd
  0
BLOCK
  5
18C61
330
18C60
100
AcDbEntity
  8
0
 48
50.0
100
AcDbBlockBegin
  2
*D15
 70
     1
 10
0.0
 20
0.0
 30
0.0
  3
*D15
  1

  0
LINE
  5
18C62
330
18C60
100
AcDbEntity
  8
寸法
 62
     0
 48
50.0
370
    -2
100
AcDbLine
 10
5065.896575106966
 20
7749.123139034579
 30
0.0
 11
5065.896575106966
 21
7099.952920982538
 31
0.0
  0
LINE
  5
18C63
330
18C60
100
AcDbEntity
  8
寸法
 62
     0
 48
50.0
370
    -2
100
AcDbLine
 10
6331.896575106966
 20
7749.123139034579
 30
0.0
 11
6331.896575106966
 21
7099.952920982538
 31
0.0
  0
LINE
  5
18C64
330
18C60
100
AcDbEntity
  8
寸法
 62
     0
 48
50.0
370
    -2
100
AcDbLine
 10
5065.896575106966
 20
7159.952920982537
 30
0.0
 11
6331.896575106966
 21
7159.952920982537
 31
0.0
  0
INSERT
  5
18C65
330
18C60
100
AcDbEntity
  8
寸法
 62
     0
 48
50.0
370
    -2
100
AcDbBlockReference
  2
_DOTSMALL
 10
5065.896575106966
 20
7159.952920982537
 30
0.0
 41
100.0
 42
100.0
 43
100.0
 50
180.0
  0
INSERT
  5
18C66
330
18C60
100
AcDbEntity
  8
寸法
 62
     0
 48
50.0
370
    -2
100
AcDbBlockReference
  2
_DOTSMALL
 10
6331.896575106966
 20
7159.952920982537
 30
0.0
 41
100.0
 42
100.0
 43
100.0
  0
MTEXT
  5
18C67
330
18C60
100
AcDbEntity
  8
寸法
 62
     7
 48
50.0
100
AcDbMText
 10
5711.986008735934
 20
7359.964732006159
 30
0.0
 40
120.0
 41
0.0
 71
     5
 72
     1
  1
\A1;有効開口部間口\P1266
  7
STYLE1
 73
     1
 44
1.0
1001
ACAD
1000
MTEXTBEGIN
1070
    73
1070
     1
1070
    44
1040
1.0
1070
    74
1070
     0
1000
MTEXTEND
  0
POINT
  5
18C68
330
18C60
100
AcDbEntity
  8
DEFPOINTS
 62
     0
 48
50.0
100
AcDbPoint
 10
5065.896575106966
 20
7769.123139034579
 30
0.0
  0
POINT
  5
18C69
330
18C60
100
AcDbEntity
  8
DEFPOINTS
 62
     0
 48
50.0
100
AcDbPoint
 10
6331.896575106966
 20
7769.123139034579
 30
0.0
  0
POINT
  5
18C6A
330
18C60
100
AcDbEntity
  8
DEFPOINTS
 62
     0
 48
50.0
100
AcDbPoint
 10
6331.896575106966
 20
7159.952920982537
 30
0.0
  0
ENDBLK
  5
18C6B
330
18C60
100
AcDbEntity
  8
0
 48
50.0
100
AcDbBlockEnd
  0
BLOCK
  5
18C6D
330
18C6C
100
AcDbEntity
  8
0
 48
50.0
100
AcDbBlockBegin
  2
*D16
 70
     1
 10
0.0
 20
0.0
 30
0.0
  3
*D16
  1

  0
LINE
  5
18C6E
330
18C6C
100
AcDbEntity
  8
寸法
 62
     0
 48
50.0
370
    -2
100
AcDbLine
 10
7200.896575106966
 20
7846.123139034578
 30
0.0
 11
7457.192158500191
 21
7846.123139034578
 31
0.0
  0
LINE
  5
18C6F
330
18C6C
100
AcDbEntity
  8
寸法
 62
     0
 48
50.0
370
    -2
100
AcDbLine
 10
7199.896575106966
 20
7769.123139034579
 30
0.0
 11
7457.192158500191
 21
7769.123139034579
 31
0.0
  0
LINE
  5
18C70
330
18C6C
100
AcDbEntity
  8
寸法
 62
     0
 48
50.0
370
    -2
100
AcDbLine
 10
7417.192158500192
 20
7866.123139034579
 30
0.0
 11
7417.192158500192
 21
7886.123139034578
 31
0.0
  0
LINE
  5
18C71
330
18C6C
100
AcDbEntity
  8
寸法
 62
     0
 48
50.0
370
    -2
100
AcDbLine
 10
7417.192158500192
 20
7749.123139034579
 30
0.0
 11
7417.192158500192
 21
7533.123139034573
 31
0.0
  0
LINE
  5
18C72
330
18C6C
100
AcDbEntity
  8
寸法
 62
     0
 48
50.0
370
    -2
100
AcDbLine
 10
7417.192158500192
 20
7846.123139034578
 30
0.0
 11
7417.192158500192
 21
7769.123139034579
 31
0.0
  0
INSERT
  5
18C73
330
18C6C
100
AcDbEntity
  8
寸法
 62
     0
 48
50.0
370
    -2
100
AcDbBlockReference
  2
_DOT
 10
7417.192158500192
 20
7846.123139034578
 30
0.0
 41
20.0
 42
20.0
 43
20.0
 50
270.0
  0
INSERT
  5
18C74
330
18C6C
100
AcDbEntity
  8
寸法
 62
     0
 48
50.0
370
    -2
100
AcDbBlockReference
  2
_DOT
 10
7417.192158500192
 20
7769.123139034579
 30
0.0
 41
20.0
 42
20.0
 43
20.0
 50
90.0
  0
MTEXT
  5
18C75
330
18C6C
100
AcDbEntity
  8
寸法
 62
     7
 48
50.0
100
AcDbMText
 10
7325.192158500191
 20
7631.123139034575
 30
0.0
 40
120.0
 41
0.0
 71
     5
 72
     1
  1
\A1;77
  7
STYLE1
 11
0.0000000000000001
 21
1.0
 31
0.0
 73
     1
 44
1.0
1001
ACAD
1000
MTEXTBEGIN
1070
    73
1070
     1
1070
    44
1040
1.0
1070
    74
1070
     0
1000
MTEXTEND
  0
POINT
  5
18C76
330
18C6C
100
AcDbEntity
  8
DEFPOINTS
 62
     0
 48
50.0
100
AcDbPoint
 10
7180.896575106967
 20
7846.123139034578
 30
0.0
  0
POINT
  5
18C77
330
18C6C
100
AcDbEntity
  8
DEFPOINTS
 62
     0
 48
50.0
100
AcDbPoint
 10
7179.896575106965
 20
7769.123139034579
 30
0.0
  0
POINT
  5
18C78
330
18C6C
100
AcDbEntity
  8
DEFPOINTS
 62
     0
 48
50.0
100
AcDbPoint
 10
7417.192158500192
 20
7769.123139034579
 30
0.0
  0
ENDBLK
  5
18C79
330
18C6C
100
AcDbEntity
  8
0
 48
50.0
100
AcDbBlockEnd
  0
BLOCK
  5
18DA0
330
18C7A
100
AcDbEntity
  8
0
 48
50.0
100
AcDbBlockBegin
  2
A$C3B1A506B
 70
     0
 10
0.0
 20
0.0
 30
0.0
  3
A$C3B1A506B
  1

  0
MTEXT
  5
18C7B
330
18C7A
100
AcDbEntity
  8
寸法
 62
     7
 48
50.0
100
AcDbMText
 10
3342.250386887194
 20
2778.329429134012
 30
0.0
 40
96.0
 41
0.0
 71
     5
 72
     1
  1
棚 2段
  7
STYLE1
 73
     1
 44
1.0
1001
ACAD
1000
MTEXTBEGIN
1070
    73
1070
     1
1070
    44
1040
1.0
1070
    74
1070
     0
1000
MTEXTEND
  0
MTEXT
  5
18C7C
330
18C7A
100
AcDbEntity
  8
寸法
 62
     7
 48
50.0
100
AcDbMText
 10
2167.25038688716
 20
2778.329429133986
 30
0.0
 40
96.0
 41
0.0
 71
     5
 72
     1
  1
棚 2段
  7
STYLE1
 73
     1
 44
1.0
1001
ACAD
1000
MTEXTBEGIN
1070
    73
1070
     1
1070
    44
1040
1.0
1070
    74
1070
     0
1000
MTEXTEND
  0
MTEXT
  5
18C7D
330
18C7A
100
AcDbEntity
  8
寸法
 62
     7
 48
50.0
100
AcDbMText
 10
992.2503868871608
 20
2778.329429133935
 30
0.0
 40
96.0
 41
0.0
 71
     5
 72
     1
  1
棚 2段
  7
STYLE1
 73
     1
 44
1.0
1001
ACAD
1000
MTEXTBEGIN
1070
    73
1070
     1
1070
    44
1040
1.0
1070
    74
1070
     0
1000
MTEXTEND
  0
LINE
  5
18C7E
330
18C7A
100
AcDbEntity
  8
細線
 48
50.0
100
AcDbLine
 10
2771.970589276527
 20
1368.994384123192
 30
0.0
 11
3398.970589276523
 21
1368.994384123192
 31
0.0
  0
LINE
  5
18C7F
330
18C7A
100
AcDbEntity
  8
細線
 48
50.0
100
AcDbLine
 10
2117.970593930113
 20
1335.285615569113
 30
0.0
 11
3398.970589276523
 21
1335.285615569113
 31
0.0
  0
LINE
  5
18C80
330
18C7A
100
AcDbEntity
  8
細線
 48
50.0
100
AcDbLine
 10
2076.970593930115
 20
1364.690523565368
 30
0.0
 11
1322.970589276523
 21
1364.690523565367
 31
0.0
  0
LINE
  5
18C81
330
18C7A
100
AcDbEntity
  8
細線
100
AcDbLine
 10
3170.720579860066
 20
1388.494284088199
 30
0.0
 11
3173.052119381877
 21
1393.494286728162
 31
0.0
  0
LINE
  5
18C82
330
18C7A
100
AcDbEntity
  8
細線
100
AcDbLine
 10
3240.720589276525
 20
1388.494269174465
 30
0.0
 11
3238.389042800336
 21
1393.494286728144
 31
0.0
  0
LINE
  5
18C83
330
18C7A
100
AcDbEntity
  8
細線
100
AcDbLine
 10
3238.389042800336
 20
1393.494286728144
 30
0.0
 11
3173.052119381862
 21
1393.494286728133
 31
0.0
  0
LINE
  5
18C84
330
18C7A
100
AcDbEntity
  8
細線
100
AcDbLine
 10
3098.389042800336
 20
1393.494286728144
 30
0.0
 11
3033.052119381862
 21
1393.494286728133
 31
0.0
  0
LINE
  5
18C85
330
18C7A
100
AcDbEntity
  8
細線
100
AcDbLine
 10
3100.720589276523
 20
1388.494269174465
 30
0.0
 11
3098.389042800336
 21
1393.494286728144
 31
0.0
  0
LINE
  5
18C86
330
18C7A
100
AcDbEntity
  8
細線
100
AcDbLine
 10
3030.720579860066
 20
1388.494284088199
 30
0.0
 11
3033.052119381875
 21
1393.494286728162
 31
0.0
  0
LINE
  5
18C87
330
18C7A
100
AcDbEntity
  8
細線
100
AcDbLine
 10
2890.720589276525
 20
1388.494269174465
 30
0.0
 11
2893.052128798336
 21
1393.494271814428
 31
0.0
  0
LINE
  5
18C88
330
18C7A
100
AcDbEntity
  8
細線
100
AcDbLine
 10
2960.720598692984
 20
1388.494254260731
 30
0.0
 11
2958.389052216793
 21
1393.49427181441
 31
0.0
  0
LINE
  5
18C89
330
18C7A
100
AcDbEntity
  8
細線
100
AcDbLine
 10
2958.389052216795
 20
1393.49427181441
 30
0.0
 11
2893.052128798321
 21
1393.494271814399
 31
0.0
  0
LINE
  5
18C8A
330
18C7A
100
AcDbEntity
  8
細線
100
AcDbLine
 10
2667.139038146739
 20
1359.494298590735
 30
0.0
 11
2601.802114728263
 21
1359.494298590724
 31
0.0
  0
LINE
  5
18C8B
330
18C7A
100
AcDbEntity
  8
細線
100
AcDbLine
 10
2669.470584622926
 20
1354.494281037055
 30
0.0
 11
2667.139038146737
 21
1359.494298590735
 31
0.0
  0
LINE
  5
18C8C
330
18C7A
100
AcDbEntity
  8
細線
100
AcDbLine
 10
2599.470575206469
 20
1354.49429595079
 30
0.0
 11
2601.802114728278
 21
1359.494298590752
 31
0.0
  0
LINE
  5
18C8D
330
18C7A
100
AcDbEntity
  8
細線
 48
50.0
100
AcDbLine
 10
2440.853968524536
 20
1372.765132327548
 30
0.0
 11
2446.609486107205
 21
1354.494281037057
 31
0.0
  0
LINE
  5
18C8E
330
18C7A
100
AcDbEntity
  8
細線
 48
50.0
100
AcDbLine
 10
2429.925520044106
 20
1372.765132327546
 30
0.0
 11
2440.853968524536
 21
1372.765132327548
 31
0.0
  0
ARC
  5
18C8F
330
18C7A
100
AcDbEntity
  8
細線
 48
50.0
100
AcDbCircle
 10
2424.471163986787
 20
1374.265132327546
 30
0.0
 40
5.0
100
AcDbArc
 50
204.6243183520723
 51
335.3756816479278
  0
ARC
  5
18C90
330
18C7A
100
AcDbEntity
  8
細線
 48
50.0
100
AcDbCircle
 10
2429.925520044106
 20
1371.765132327546
 30
0.0
 40
1.0
100
AcDbArc
 50
90.0
 51
155.3756816479277
  0
ARC
  5
18C91
330
18C7A
100
AcDbEntity
  8
細線
 48
50.0
100
AcDbCircle
 10
2419.016807929469
 20
1371.765132327546
 30
0.0
 40
1.0
100
AcDbArc
 50
24.62431835207225
 51
90.0
  0
LINE
  5
18C92
330
18C7A
100
AcDbEntity
  8
細線
 48
50.0
100
AcDbLine
 10
2408.088359449037
 20
1372.765132327548
 30
0.0
 11
2419.016807929469
 21
1372.765132327546
 31
0.0
  0
LINE
  5
18C93
330
18C7A
100
AcDbEntity
  8
細線
 48
50.0
100
AcDbLine
 10
2402.33284186637
 20
1354.494281037054
 30
0.0
 11
2408.088359449037
 21
1372.765132327548
 31
0.0
  0
LINE
  5
18C94
330
18C7A
100
AcDbEntity
  8
細線
100
AcDbLine
 10
2458.070304175992
 20
1354.494278397076
 30
0.0
 11
2460.401843697802
 21
1359.494281037039
 31
0.0
  0
LINE
  5
18C95
330
18C7A
100
AcDbEntity
  8
細線
100
AcDbLine
 10
2528.070313592451
 20
1354.494263483342
 30
0.0
 11
2525.738767116262
 21
1359.494281037021
 31
0.0
  0
LINE
  5
18C96
330
18C7A
100
AcDbEntity
  8
細線
100
AcDbLine
 10
2525.738767116262
 20
1359.494281037021
 30
0.0
 11
2460.40184369779
 21
1359.49428103701
 31
0.0
  0
LINE
  5
18C97
330
18C7A
100
AcDbEntity
  8
細線
100
AcDbLine
 10
2387.139046332155
 20
1359.494281037021
 30
0.0
 11
2321.80212291368
 21
1359.49428103701
 31
0.0
  0
LINE
  5
18C98
330
18C7A
100
AcDbEntity
  8
細線
100
AcDbLine
 10
2389.470592808342
 20
1354.494263483342
 30
0.0
 11
2387.139046332153
 21
1359.494281037021
 31
0.0
  0
LINE
  5
18C99
330
18C7A
100
AcDbEntity
  8
細線
100
AcDbLine
 10
2319.470584622926
 20
1354.494281037054
 30
0.0
 11
2321.802122913694
 21
1359.494281037039
 31
0.0
  0
LINE
  5
18C9A
330
18C7A
100
AcDbEntity
  8
細線
100
AcDbLine
 10
2179.47061994182
 20
1354.494289224422
 30
0.0
 11
2181.802158232587
 21
1359.494289224407
 31
0.0
  0
LINE
  5
18C9B
330
18C7A
100
AcDbEntity
  8
細線
100
AcDbLine
 10
2249.470628127236
 20
1354.49427167071
 30
0.0
 11
2247.139081651047
 21
1359.494289224389
 31
0.0
  0
LINE
  5
18C9C
330
18C7A
100
AcDbEntity
  8
細線
100
AcDbLine
 10
2247.139081651047
 20
1359.494289224389
 30
0.0
 11
2181.802158232573
 21
1359.494289224378
 31
0.0
  0
LINE
  5
18C9D
330
18C7A
100
AcDbEntity
  8
細線
100
AcDbLine
 10
1807.970585744697
 20
1320.494460905133
 30
0.0
 11
1810.302124035464
 21
1325.494460905118
 31
0.0
  0
LINE
  5
18C9E
330
18C7A
100
AcDbEntity
  8
細線
100
AcDbLine
 10
1877.970593930113
 20
1320.494443351421
 30
0.0
 11
1875.639047453926
 21
1325.4944609051
 31
0.0
  0
LINE
  5
18C9F
330
18C7A
100
AcDbEntity
  8
細線
100
AcDbLine
 10
1875.639047453926
 20
1325.4944609051
 30
0.0
 11
1810.302124035452
 21
1325.494460905089
 31
0.0
  0
LINE
  5
18CA0
330
18C7A
100
AcDbEntity
  8
細線
100
AcDbLine
 10
2015.639047453926
 20
1325.4944609051
 30
0.0
 11
1950.302124035452
 21
1325.494460905089
 31
0.0
  0
LINE
  5
18CA1
330
18C7A
100
AcDbEntity
  8
細線
100
AcDbLine
 10
2017.970593930113
 20
1320.494443351421
 30
0.0
 11
2015.639047453924
 21
1325.4944609051
 31
0.0
  0
LINE
  5
18CA2
330
18C7A
100
AcDbEntity
  8
細線
100
AcDbLine
 10
1947.970585744697
 20
1320.494460905133
 30
0.0
 11
1950.302124035465
 21
1325.494460905118
 31
0.0
  0
LINE
  5
18CA3
330
18C7A
100
AcDbEntity
  8
細線
100
AcDbLine
 10
1735.639047453926
 20
1325.494460905098
 30
0.0
 11
1670.302124035454
 21
1325.494460905087
 31
0.0
  0
LINE
  5
18CA4
330
18C7A
100
AcDbEntity
  8
細線
100
AcDbLine
 10
1737.970593930113
 20
1320.494443351419
 30
0.0
 11
1735.639047453926
 21
1325.494460905098
 31
0.0
  0
LINE
  5
18CA5
330
18C7A
100
AcDbEntity
  8
細線
100
AcDbLine
 10
1667.970585744697
 20
1320.494460905131
 30
0.0
 11
1670.302124035465
 21
1325.494460905116
 31
0.0
  0
LINE
  5
18CA6
330
18C7A
100
AcDbEntity
  8
細線
100
AcDbLine
 10
1527.970593930113
 20
1320.494460905133
 30
0.0
 11
1530.302132220881
 21
1325.494460905118
 31
0.0
  0
LINE
  5
18CA7
330
18C7A
100
AcDbEntity
  8
細線
100
AcDbLine
 10
1597.970602115529
 20
1320.494443351421
 30
0.0
 11
1595.639055639342
 21
1325.4944609051
 31
0.0
  0
LINE
  5
18CA8
330
18C7A
100
AcDbEntity
  8
細線
100
AcDbLine
 10
1595.639055639342
 20
1325.4944609051
 30
0.0
 11
1530.302132220869
 21
1325.494460905089
 31
0.0
  0
ARC
  5
18CA9
330
18C7A
100
AcDbEntity
  8
部品1
 48
0.01
100
AcDbCircle
 10
1483.470482677778
 20
1319.493338720063
 30
0.0
 40
0.5
100
AcDbArc
 50
270.0
 51
0.0
  0
LINE
  5
18CAA
330
18C7A
100
AcDbEntity
  8
部品1
 48
0.01
100
AcDbLine
 10
1483.970482677778
 20
1320.493338720063
 30
0.0
 11
1483.970482677778
 21
1319.493338720063
 31
0.0
  0
LINE
  5
18CAB
330
18C7A
100
AcDbEntity
  8
部品1
 48
0.01
100
AcDbLine
 10
1483.970482677778
 20
1320.493338720063
 30
0.0
 11
1483.970482677778
 21
1319.493338720063
 31
0.0
  0
LINE
  5
18CAC
330
18C7A
100
AcDbEntity
  8
部品1
 48
0.01
100
AcDbLine
 10
1483.470482677778
 20
1318.993338720063
 30
0.0
 11
1476.857977247713
 21
1318.993338720062
 31
0.0
  0
ARC
  5
18CAD
330
18C7A
100
AcDbEntity
  8
部品1
100
AcDbCircle
 10
1476.926326800494
 20
1319.993338720062
 30
0.0
 40
1.0
100
AcDbArc
 50
160.5287793655865
 51
270.0
  0
ARC
  5
18CAE
330
18C7A
100
AcDbEntity
  8
部品1
100
AcDbCircle
 10
1451.470482677778
 20
1328.993338720062
 30
0.0
 40
26.0
100
AcDbArc
 50
340.5287793655865
 51
0.0
  0
LINE
  5
18CAF
330
18C7A
100
AcDbEntity
  8
部品1
100
AcDbLine
 10
1477.470482677778
 20
1328.993338720062
 30
0.0
 11
1477.470482677778
 21
1333.993338720061
 31
0.0
  0
ARC
  5
18CB0
330
18C7A
100
AcDbEntity
  8
部品1
 48
0.01
100
AcDbCircle
 10
1475.470482677778
 20
1333.993338720061
 30
0.0
 40
2.0
100
AcDbArc
 50
0.0
 51
90.0
  0
ARC
  5
18CB1
330
18C7A
100
AcDbEntity
  8
部品1
100
AcDbCircle
 10
1473.862091052968
 20
1332.993338720062
 30
0.0
 40
3.0
100
AcDbArc
 50
90.0
 51
141.6069559808035
  0
LINE
  5
18CB2
330
18C7A
100
AcDbEntity
  8
部品1
 48
0.01
100
AcDbLine
 10
1475.470482677778
 20
1335.993338720062
 30
0.0
 11
1473.862091052968
 21
1335.993338720062
 31
0.0
  0
ARC
  5
18CB3
330
18C7A
100
AcDbEntity
  8
部品1
100
AcDbCircle
 10
1455.399768463507
 20
1332.293338720065
 30
0.0
 40
3.0
100
AcDbArc
 50
254.0576313943215
 51
270.0
  0
ARC
  5
18CB4
330
18C7A
100
AcDbEntity
  8
部品1
100
AcDbCircle
 10
1462.541196892049
 20
1332.293338720065
 30
0.0
 40
3.0
100
AcDbArc
 50
270.0
 51
285.9423686056786
  0
LINE
  5
18CB5
330
18C7A
100
AcDbEntity
  8
部品1
100
AcDbLine
 10
1462.541196892049
 20
1329.293338720064
 30
0.0
 11
1455.399768463507
 21
1329.293338720064
 31
0.0
  0
ARC
  5
18CB6
330
18C7A
100
AcDbEntity
  8
部品1
100
AcDbCircle
 10
1458.970482677778
 20
1344.793338720065
 30
0.0
 40
16.0
100
AcDbArc
 50
285.9423686056786
 51
321.6069559808035
  0
LINE
  5
18CB7
330
18C7A
100
AcDbEntity
  8
部品1
 48
0.01
100
AcDbLine
 10
1442.470482677778
 20
1335.993338720062
 30
0.0
 11
1444.078874302588
 21
1335.993338720062
 31
0.0
  0
ARC
  5
18CB8
330
18C7A
100
AcDbEntity
  8
部品1
100
AcDbCircle
 10
1444.078874302588
 20
1332.993338720062
 30
0.0
 40
3.0
100
AcDbArc
 50
38.39304401919648
 51
90.0
  0
ARC
  5
18CB9
330
18C7A
100
AcDbEntity
  8
部品1
100
AcDbCircle
 10
1458.970482677778
 20
1344.793338720065
 30
0.0
 40
16.0
100
AcDbArc
 50
218.3930440191965
 51
254.0576313943215
  0
LINE
  5
18CBA
330
18C7A
100
AcDbEntity
  8
部品1
100
AcDbLine
 10
1440.470482677778
 20
1328.993338720062
 30
0.0
 11
1440.470482677778
 21
1333.993338720061
 31
0.0
  0
ARC
  5
18CBB
330
18C7A
100
AcDbEntity
  8
部品1
 48
0.01
100
AcDbCircle
 10
1442.470482677778
 20
1333.993338720061
 30
0.0
 40
2.0
100
AcDbArc
 50
90.0
 51
180.0
  0
ARC
  5
18CBC
330
18C7A
100
AcDbEntity
  8
部品1
100
AcDbCircle
 10
1466.470482677778
 20
1328.993338720062
 30
0.0
 40
26.0
100
AcDbArc
 50
180.0
 51
199.4712206344134
  0
ARC
  5
18CBD
330
18C7A
100
AcDbEntity
  8
部品1
 48
0.01
100
AcDbCircle
 10
1434.470482677778
 20
1319.493338720063
 30
0.0
 40
0.5
100
AcDbArc
 50
180.0
 51
270.0
  0
LINE
  5
18CBE
330
18C7A
100
AcDbEntity
  8
部品1
 48
0.01
100
AcDbLine
 10
1434.470482677778
 20
1318.993338720063
 30
0.0
 11
1441.014638555061
 21
1318.993338720062
 31
0.0
  0
LINE
  5
18CBF
330
18C7A
100
AcDbEntity
  8
部品1
 48
0.01
100
AcDbLine
 10
1433.970482677778
 20
1320.493338720063
 30
0.0
 11
1433.970482677778
 21
1319.493338720063
 31
0.0
  0
ARC
  5
18CC0
330
18C7A
100
AcDbEntity
  8
部品1
100
AcDbCircle
 10
1441.014638555061
 20
1319.993338720062
 30
0.0
 40
1.0
100
AcDbArc
 50
270.0
 51
19.47122063441346
  0
LINE
  5
18CC1
330
18C7A
100
AcDbEntity
  8
細線
100
AcDbLine
 10
1479.470482677785
 20
1338.493338720065
 30
0.0
 11
1438.470482677785
 21
1338.493338720058
 31
0.0
  0
LINE
  5
18CC2
330
18C7A
100
AcDbEntity
  8
細線
100
AcDbLine
 10
1438.470482677785
 20
1338.493338720058
 30
0.0
 11
1438.470482677785
 21
1320.49333872004
 31
0.0
  0
LINE
  5
18CC3
330
18C7A
100
AcDbEntity
  8
細線
100
AcDbLine
 10
1479.470482677785
 20
1338.493338720065
 30
0.0
 11
1479.470482677785
 21
1320.49333872004
 31
0.0
  0
LINE
  5
18CC4
330
18C7A
100
AcDbEntity
  8
細線
100
AcDbLine
 10
1322.970589276523
 20
1324.494269174465
 30
0.0
 11
1322.970589276523
 21
1320.494269174513
 31
0.0
  0
LINE
  5
18CC5
330
18C7A
100
AcDbEntity
  8
寸法
 48
50.0
100
AcDbLine
 10
1746.17359555837
 20
1170.531020743327
 30
0.0
 11
1694.767587648266
 21
1170.531020743327
 31
0.0
  0
LINE
  5
18CC6
330
18C7A
100
AcDbEntity
  8
寸法
 48
50.0
100
AcDbLine
 10
1694.767587648266
 20
1170.531020743327
 30
0.0
 11
1694.767587648266
 21
1201.841179395494
 31
0.0
  0
LINE
  5
18CC7
330
18C7A
100
AcDbEntity
  8
寸法
 48
50.0
100
AcDbLine
 10
1694.767587648266
 20
1201.841179395494
 30
0.0
 11
1665.006255656843
 21
1201.841179395494
 31
0.0
  0
LINE
  5
18CC8
330
18C7A
100
AcDbEntity
  8
寸法
 48
50.0
100
AcDbLine
 10
1665.006255656843
 20
1201.841179395494
 30
0.0
 11
1720.470591603318
 21
1239.420630324105
 31
0.0
  0
LINE
  5
18CC9
330
18C7A
100
AcDbEntity
  8
寸法
 48
50.0
100
AcDbLine
 10
1775.934927549793
 20
1201.841179395494
 30
0.0
 11
1720.470591603318
 21
1239.420630324105
 31
0.0
  0
LINE
  5
18CCA
330
18C7A
100
AcDbEntity
  8
寸法
 48
50.0
100
AcDbLine
 10
1746.17359555837
 20
1201.841179395494
 30
0.0
 11
1775.934927549793
 21
1201.841179395494
 31
0.0
  0
LINE
  5
18CCB
330
18C7A
100
AcDbEntity
  8
寸法
 48
50.0
100
AcDbLine
 10
1746.17359555837
 20
1170.531020743327
 30
0.0
 11
1746.17359555837
 21
1201.841179395494
 31
0.0
  0
LINE
  5
18CCC
330
18C7A
100
AcDbEntity
  8
寸法
 48
50.0
100
AcDbLine
 10
1694.767587648266
 20
1170.531020743327
 30
0.0
 11
1746.17359555837
 21
1170.531020743327
 31
0.0
  0
LINE
  5
18CCD
330
18C7A
100
AcDbEntity
  8
寸法
 48
50.0
100
AcDbLine
 10
2025.339129835225
 20
1227.676611498152
 30
0.0
 11
2025.339129835225
 21
1174.01297691636
 31
0.0
  0
LINE
  5
18CCE
330
18C7A
100
AcDbEntity
  8
寸法
 48
50.0
100
AcDbLine
 10
2114.623348430647
 20
1203.752977228664
 30
0.0
 11
2025.339129835225
 21
1227.676611498152
 31
0.0
  0
LINE
  5
18CCF
330
18C7A
100
AcDbEntity
  8
寸法
 48
50.0
100
AcDbLine
 10
1895.471408254923
 20
1203.752977228664
 30
0.0
 11
2114.623348430647
 21
1203.752977228664
 31
0.0
  0
DIMENSION
  5
18CD0
330
18C7A
100
AcDbEntity
  8
寸法
 48
50.0
100
AcDbDimension
  2
*D15
 10
2588.970589276523
 20
706.3240511224249
 30
0.0
 11
1969.060022905491
 21
706.3240511224249
 31
0.0
 12
-3742.925985830444
 22
-6453.628869860112
 32
0.0
 70
   128
  1
有効開口部間口\P<>
 71
     5
 42
1266.0
  3
INABA_S40G
100
AcDbAlignedDimension
 13
1322.970589276523
 23
1315.494269174465
 33
0.0
 14
2588.970589276523
 24
1315.494269174465
 34
0.0
100
AcDbRotatedDimension
1001
ACAD
1000
DSTYLE
1002
{
1070
   341
1005
0
1002
}
  0
LINE
  5
18CD1
330
18C7A
100
AcDbEntity
  8
部品1
100
AcDbLine
 10
3409.970589276524
 20
1392.494269174465
 30
0.0
 11
3437.970589276523
 21
1392.494269174465
 31
0.0
  0
DIMENSION
  5
18CD2
330
18C7A
100
AcDbEntity
  8
寸法
100
AcDbDimension
  2
*D16
 10
3674.266172669749
 20
1315.494269174465
 30
0.0
 11
3674.266172669748
 21
1177.494269174462
 31
0.0
 12
-3742.925985830444
 22
-6453.628869860112
 32
0.0
 70
   128
 71
     5
 42
77.0
  3
INABA_S40
100
AcDbAlignedDimension
 13
3437.970589276523
 23
1392.494269174465
 33
0.0
 14
3436.970589276523
 24
1315.494269174465
 34
0.0
 50
90.0
100
AcDbRotatedDimension
1001
ACAD
1000
DSTYLE
1002
{
1070
    41
1040
0.5
1070
    44
1040
1.0
1070
   147
1040
0.8
1070
   271
1070
     2
1070
   272
1070
     2
1070
   289
1070
     3
1070
   340
1005
F706
1070
   343
1005
164B4
1070
   344
1005
164B4
1002
}
  0
LINE
  5
18CD3
330
18C7A
100
AcDbEntity
  8
部品1
100
AcDbLine
 10
3437.970589276523
 20
1315.494269174465
 30
0.0
 11
3437.970589276523
 21
1392.494269174465
 31
0.0
  0
LINE
  5
18CD4
330
18C7A
100
AcDbEntity
  8
部品1
100
AcDbLine
 10
3398.970589276523
 20
1388.494269174465
 30
0.0
 11
3409.970589276524
 21
1388.494269174465
 31
0.0
  0
LINE
  5
18CD5
330
18C7A
100
AcDbEntity
  8
部品1
100
AcDbLine
 10
3407.970589276523
 20
1324.494269174465
 30
0.0
 11
3407.970589276523
 21
1315.494269174465
 31
0.0
  0
LINE
  5
18CD6
330
18C7A
100
AcDbEntity
  8
部品1
100
AcDbLine
 10
3398.970589276523
 20
1324.494269174465
 30
0.0
 11
3407.970589276523
 21
1324.494269174465
 31
0.0
  0
LINE
  5
18CD7
330
18C7A
100
AcDbEntity
  8
部品1
100
AcDbLine
 10
3398.970589276523
 20
1388.494269174465
 30
0.0
 11
3398.970589276523
 21
1324.494269174465
 31
0.0
  0
LINE
  5
18CD8
330
18C7A
100
AcDbEntity
  8
部品1
100
AcDbLine
 10
3409.970589276524
 20
1419.494269174465
 30
0.0
 11
3409.970589276524
 21
1388.494269174465
 31
0.0
  0
LINE
  5
18CD9
330
18C7A
100
AcDbEntity
  8
部品1
100
AcDbLine
 10
1322.970589276523
 20
1388.494269174465
 30
0.0
 11
1311.970589276523
 21
1388.494269174465
 31
0.0
  0
LINE
  5
18CDA
330
18C7A
100
AcDbEntity
  8
部品1
100
AcDbLine
 10
1283.970589276523
 20
1392.494269174465
 30
0.0
 11
1311.970589276523
 21
1392.494269174465
 31
0.0
  0
LINE
  5
18CDB
330
18C7A
100
AcDbEntity
  8
部品1
100
AcDbLine
 10
1313.970589276523
 20
1324.494269174465
 30
0.0
 11
1313.970589276523
 21
1315.494269174465
 31
0.0
  0
LINE
  5
18CDC
330
18C7A
100
AcDbEntity
  8
部品1
100
AcDbLine
 10
1322.970589276523
 20
1324.494269174465
 30
0.0
 11
1313.970589276523
 21
1324.494269174465
 31
0.0
  0
LINE
  5
18CDD
330
18C7A
100
AcDbEntity
  8
部品1
100
AcDbLine
 10
1313.970589276523
 20
1315.494269174465
 30
0.0
 11
1283.970589276523
 21
1315.494269174465
 31
0.0
  0
LINE
  5
18CDE
330
18C7A
100
AcDbEntity
  8
部品1
100
AcDbLine
 10
1283.970589276523
 20
1315.494269174465
 30
0.0
 11
1283.970589276523
 21
1392.494269174465
 31
0.0
  0
LINE
  5
18CDF
330
18C7A
100
AcDbEntity
  8
部品1
100
AcDbLine
 10
1322.970589276523
 20
1388.494269174465
 30
0.0
 11
1322.970589276523
 21
1324.494269174465
 31
0.0
  0
LINE
  5
18CE0
330
18C7A
100
AcDbEntity
  8
部品1
100
AcDbLine
 10
1311.970589276523
 20
1419.494269174462
 30
0.0
 11
1311.970589276523
 21
1388.494269174465
 31
0.0
  0
LINE
  5
18CE1
330
18C7A
100
AcDbEntity
  8
部品1
100
AcDbLine
 10
1311.970589276523
 20
1419.494269174462
 30
0.0
 11
3409.970589276524
 21
1419.494269174465
 31
0.0
  0
LINE
  5
18CE2
330
18C7A
100
AcDbEntity
  8
部品1
100
AcDbLine
 10
3407.970589276523
 20
1315.494269174465
 30
0.0
 11
3437.970589276523
 21
1315.494269174465
 31
0.0
  0
LINE
  5
18CE3
330
18C7A
100
AcDbEntity
  8
部品1
100
AcDbLine
 10
1313.970589276523
 20
1315.494269174465
 30
0.0
 11
3410.970589276523
 21
1315.494269174465
 31
0.0
  0
LINE
  5
18CE4
330
18C7A
100
AcDbEntity
  8
細線
  6
Continuous
 62
     5
100
AcDbLine
 10
2689.970589276527
 20
1354.494269174462
 30
0.0
 11
2689.970589276527
 21
1354.494269174462
 31
0.0
  0
LINE
  5
18CE5
330
18C7A
100
AcDbEntity
  8
細線
  6
Continuous
 62
     5
100
AcDbLine
 10
2682.470589276527
 20
1354.494269174462
 30
0.0
 11
2682.470589276527
 21
1354.494269174462
 31
0.0
  0
LINE
  5
18CE6
330
18C7A
100
AcDbEntity
  8
細線
  6
Continuous
 62
     5
100
AcDbLine
 10
2676.470589276527
 20
1354.494269174462
 30
0.0
 11
2676.470589276527
 21
1354.494269174462
 31
0.0
  0
LINE
  5
18CE7
330
18C7A
100
AcDbEntity
  8
細線
  6
Continuous
 62
     5
100
AcDbLine
 10
2743.970589276527
 20
1373.494269174462
 30
0.0
 11
2743.970589276527
 21
1373.494269174462
 31
0.0
  0
LINE
  5
18CE8
330
18C7A
100
AcDbEntity
  8
細線
 48
50.0
100
AcDbLine
 10
1336.970593930116
 20
1341.094443351418
 30
0.0
 11
1336.970593930113
 21
1349.490593759059
 31
0.0
  0
LINE
  5
18CE9
330
18C7A
100
AcDbEntity
  8
細線
 48
50.0
100
AcDbLine
 10
1336.970593930113
 20
1349.490593759059
 30
0.0
 11
1322.970589276523
 21
1349.490593759057
 31
0.0
  0
LINE
  5
18CEA
330
18C7A
100
AcDbEntity
  8
細線
 48
50.0
100
AcDbLine
 10
2087.970593930113
 20
1337.644443351419
 30
0.0
 11
2087.970593930113
 21
1342.494443351421
 31
0.0
  0
LINE
  5
18CEB
330
18C7A
100
AcDbEntity
  8
細線
 48
50.0
100
AcDbLine
 10
2087.970593930113
 20
1342.494443351421
 30
0.0
 11
2102.970593930113
 21
1342.494443351421
 31
0.0
  0
LINE
  5
18CEC
330
18C7A
100
AcDbEntity
  8
細線
 48
50.0
100
AcDbLine
 10
2102.970593930113
 20
1342.494443351421
 30
0.0
 11
2102.970593930115
 21
1349.494443351419
 31
0.0
  0
LINE
  5
18CED
330
18C7A
100
AcDbEntity
  8
細線
 48
50.0
100
AcDbLine
 10
2102.970593930115
 20
1349.494443351419
 30
0.0
 11
2117.970593930113
 21
1349.494443351419
 31
0.0
  0
LINE
  5
18CEE
330
18C7A
100
AcDbEntity
  8
細線
 48
50.0
100
AcDbLine
 10
2117.970593930113
 20
1349.494443351419
 30
0.0
 11
2117.970593930113
 21
1320.494443351421
 31
0.0
  0
LINE
  5
18CEF
330
18C7A
100
AcDbEntity
  8
細線
 48
50.0
100
AcDbLine
 10
1313.970589276523
 20
1320.491777694889
 30
0.0
 11
1527.970593930113
 21
1320.494460905133
 31
0.0
  0
LINE
  5
18CF0
330
18C7A
100
AcDbEntity
  8
細線
 48
50.0
100
AcDbLine
 10
2017.970593930113
 20
1320.494443351421
 30
0.0
 11
2117.970593930113
 21
1320.494443351421
 31
0.0
  0
LINE
  5
18CF1
330
18C7A
100
AcDbEntity
  8
細線
 48
50.0
100
AcDbLine
 10
1737.970593930113
 20
1320.494443351419
 30
0.0
 11
1807.970593930113
 21
1320.494443351423
 31
0.0
  0
LINE
  5
18CF2
330
18C7A
100
AcDbEntity
  8
細線
 48
50.0
100
AcDbLine
 10
1750.832558942642
 20
1320.494443351419
 30
0.0
 11
1756.588076525309
 21
1338.765294641913
 31
0.0
  0
LINE
  5
18CF3
330
18C7A
100
AcDbEntity
  8
細線
 48
50.0
100
AcDbLine
 10
1756.588076525309
 20
1338.765294641913
 30
0.0
 11
1767.516525005743
 21
1338.765294641911
 31
0.0
  0
ARC
  5
18CF4
330
18C7A
100
AcDbEntity
  8
細線
 48
50.0
100
AcDbCircle
 10
1767.516525005743
 20
1337.765294641911
 30
0.0
 40
1.0
100
AcDbArc
 50
24.62431835207225
 51
90.0
  0
ARC
  5
18CF5
330
18C7A
100
AcDbEntity
  8
細線
 48
50.0
100
AcDbCircle
 10
1778.425237120377
 20
1337.765294641911
 30
0.0
 40
1.0
100
AcDbArc
 50
90.0
 51
155.3756816479277
  0
ARC
  5
18CF6
330
18C7A
100
AcDbEntity
  8
細線
 48
50.0
100
AcDbCircle
 10
1772.970881063058
 20
1340.265294641911
 30
0.0
 40
5.0
100
AcDbArc
 50
204.6243183520723
 51
335.3756816479278
  0
LINE
  5
18CF7
330
18C7A
100
AcDbEntity
  8
細線
 48
50.0
100
AcDbLine
 10
1778.425237120377
 20
1338.765294641911
 30
0.0
 11
1789.35368560081
 21
1338.765294641913
 31
0.0
  0
LINE
  5
18CF8
330
18C7A
100
AcDbEntity
  8
細線
 48
50.0
100
AcDbLine
 10
1789.35368560081
 20
1338.765294641913
 30
0.0
 11
1795.109203183478
 21
1320.494443351423
 31
0.0
  0
LINE
  5
18CF9
330
18C7A
100
AcDbEntity
  8
細線
 48
50.0
100
AcDbLine
 10
2087.970593930113
 20
1341.094443351419
 30
0.0
 11
1336.970593930116
 21
1341.094443351418
 31
0.0
  0
LINE
  5
18CFA
330
18C7A
100
AcDbEntity
  8
細線
 48
50.0
100
AcDbLine
 10
1947.970593930113
 20
1320.494443351421
 30
0.0
 11
1877.970593930113
 21
1320.494443351421
 31
0.0
  0
LINE
  5
18CFB
330
18C7A
100
AcDbEntity
  8
細線
100
AcDbLine
 10
1667.970593930113
 20
1320.494443351421
 30
0.0
 11
1597.970602115529
 21
1320.494443351421
 31
0.0
  0
LINE
  5
18CFC
330
18C7A
100
AcDbEntity
  8
細線
 48
50.0
100
AcDbLine
 10
2741.970584622936
 20
1375.094487209288
 30
0.0
 11
2106.970593930113
 21
1375.094487209284
 31
0.0
  0
LINE
  5
18CFD
330
18C7A
100
AcDbEntity
  8
細線
 48
50.0
100
AcDbLine
 10
2106.970593930113
 20
1371.990637616925
 30
0.0
 11
2106.970593930113
 21
1376.490637616925
 31
0.0
  0
LINE
  5
18CFE
330
18C7A
100
AcDbEntity
  8
細線
 48
50.0
100
AcDbLine
 10
2106.970593930113
 20
1376.490637616925
 30
0.0
 11
2091.970593930113
 21
1376.490637616925
 31
0.0
  0
LINE
  5
18CFF
330
18C7A
100
AcDbEntity
  8
細線
 48
50.0
100
AcDbLine
 10
2091.970593930113
 20
1376.490637616925
 30
0.0
 11
2091.970593930113
 21
1383.490637616927
 31
0.0
  0
LINE
  5
18D00
330
18C7A
100
AcDbEntity
  8
細線
 48
50.0
100
AcDbLine
 10
2091.970593930113
 20
1383.490637616927
 30
0.0
 11
2076.970593930115
 21
1383.490637616924
 31
0.0
  0
LINE
  5
18D01
330
18C7A
100
AcDbEntity
  8
細線
 48
50.0
100
AcDbLine
 10
2076.970593930115
 20
1383.490637616924
 30
0.0
 11
2076.970593930115
 21
1345.890409513813
 31
0.0
  0
LINE
  5
18D02
330
18C7A
100
AcDbEntity
  8
細線
 48
50.0
100
AcDbLine
 10
2076.970593930115
 20
1345.890409513813
 30
0.0
 11
2096.970601231289
 21
1345.890451063353
 31
0.0
  0
LINE
  5
18D03
330
18C7A
100
AcDbEntity
  8
細線
 48
50.0
100
AcDbLine
 10
2096.970556362348
 20
1354.493912699161
 30
0.0
 11
2096.970601231289
 21
1345.890451063353
 31
0.0
  0
LINE
  5
18D04
330
18C7A
100
AcDbEntity
  8
細線
 48
50.0
100
AcDbLine
 10
2741.970584622936
 20
1371.644487209287
 30
0.0
 11
2741.970584622936
 21
1376.494487209284
 31
0.0
  0
LINE
  5
18D05
330
18C7A
100
AcDbEntity
  8
細線
 48
50.0
100
AcDbLine
 10
2741.970584622936
 20
1376.494487209284
 30
0.0
 11
2756.970584622934
 21
1376.494487209285
 31
0.0
  0
LINE
  5
18D06
330
18C7A
100
AcDbEntity
  8
細線
 48
50.0
100
AcDbLine
 10
2756.970584622934
 20
1376.494487209285
 30
0.0
 11
2756.970596256909
 21
1383.494487209331
 31
0.0
  0
LINE
  5
18D07
330
18C7A
100
AcDbEntity
  8
細線
 48
50.0
100
AcDbLine
 10
2756.970596256909
 20
1383.494487209331
 30
0.0
 11
2771.970594427439
 21
1383.494487209329
 31
0.0
  0
LINE
  5
18D08
330
18C7A
100
AcDbEntity
  8
細線
 48
50.0
100
AcDbLine
 10
2771.970594427439
 20
1383.494487209329
 30
0.0
 11
2771.970584125617
 21
1354.494281037055
 31
0.0
  0
LINE
  5
18D09
330
18C7A
100
AcDbEntity
  8
細線
 48
50.0
100
AcDbLine
 10
2458.070304175992
 20
1354.494278397076
 30
0.0
 11
2389.470863838818
 21
1354.494283787084
 31
0.0
  0
LINE
  5
18D0A
330
18C7A
100
AcDbEntity
  8
細線
 48
50.0
100
AcDbLine
 10
2096.970556362348
 20
1354.493912699161
 30
0.0
 11
2108.203245717057
 21
1354.494095652309
 31
0.0
  0
ARC
  5
18D0B
330
18C7A
100
AcDbEntity
  8
細線
 48
50.0
100
AcDbCircle
 10
2114.785538024393
 20
1353.294259565922
 30
0.0
 40
1.8
100
AcDbArc
 50
270.0006665777295
 51
345.000555481349
  0
LINE
  5
18D0C
330
18C7A
100
AcDbEntity
  8
細線
 48
50.0
100
AcDbLine
 10
2116.771971470473
 20
1353.753100023201
 30
0.0
 11
2116.524209028273
 21
1352.828402141094
 31
0.0
  0
LINE
  5
18D0D
330
18C7A
100
AcDbEntity
  8
細線
 48
50.0
100
AcDbLine
 10
2114.785558965548
 20
1351.494259566043
 30
0.0
 11
2111.155631546781
 21
1351.494217335563
 31
0.0
  0
ARC
  5
18D0E
330
18C7A
100
AcDbEntity
  8
細線
 48
50.0
100
AcDbCircle
 10
2111.155610605627
 20
1353.29421733544
 30
0.0
 40
1.8
100
AcDbArc
 50
195.0010443049965
 51
270.0006665777295
  0
LINE
  5
18D0F
330
18C7A
100
AcDbEntity
  8
細線
 48
50.0
100
AcDbLine
 10
2109.169183113368
 20
1353.752932303007
 30
0.0
 11
2109.416952609882
 21
1352.828311364425
 31
0.0
  0
ARC
  5
18D10
330
18C7A
100
AcDbEntity
  8
細線
 48
50.0
100
AcDbCircle
 10
2108.203262004622
 20
1353.494095652444
 30
0.0
 40
1.0
100
AcDbArc
 50
15.00104430499651
 51
90.00093320877969
  0
LINE
  5
18D11
330
18C7A
100
AcDbEntity
  8
細線
 48
50.0
100
AcDbLine
 10
2117.737892825577
 20
1354.494290342714
 30
0.0
 11
2118.679652976481
 21
1354.494296916564
 31
0.0
  0
ARC
  5
18D12
330
18C7A
100
AcDbEntity
  8
細線
 48
50.0
100
AcDbCircle
 10
2117.737899805961
 20
1353.49429034274
 30
0.0
 40
1.0
100
AcDbArc
 50
90.0003999466794
 51
165.000555481349
  0
LINE
  5
18D13
330
18C7A
100
AcDbEntity
  8
細線
 48
50.0
100
AcDbLine
 10
2669.470584622926
 20
1354.494281037055
 30
0.0
 11
2771.970584125617
 21
1354.494281037055
 31
0.0
  0
LINE
  5
18D14
330
18C7A
100
AcDbEntity
  8
細線
 48
50.0
100
AcDbLine
 10
2179.47061994182
 20
1354.494289224422
 30
0.0
 11
2118.370558714898
 21
1354.494296916564
 31
0.0
  0
LINE
  5
18D15
330
18C7A
100
AcDbEntity
  8
細線
 48
50.0
100
AcDbLine
 10
2599.470584622926
 20
1354.494281037057
 30
0.0
 11
2529.470584622926
 21
1354.494281037055
 31
0.0
  0
LINE
  5
18D16
330
18C7A
100
AcDbEntity
  8
細線
 48
50.0
100
AcDbLine
 10
2319.470584622926
 20
1354.494281037054
 30
0.0
 11
2249.470567335051
 21
1354.494281037057
 31
0.0
  0
ARC
  5
18D17
330
18C7A
100
AcDbEntity
  8
細線
 48
50.0
100
AcDbCircle
 10
2756.170589276533
 20
1387.694269174466
 30
0.0
 40
0.8
100
AcDbArc
 50
359.9997333689499
 51
89.99986668437072
  0
ARC
  5
18D18
330
18C7A
100
AcDbEntity
  8
細線
 48
50.0
100
AcDbCircle
 10
2763.770596101631
 20
1387.694280343081
 30
0.0
 40
0.8
100
AcDbArc
 50
90.00014387753465
 51
179.9997333689498
  0
LINE
  5
18D19
330
18C7A
100
AcDbEntity
  8
細線
 48
50.0
100
AcDbLine
 10
2756.170591137969
 20
1388.494269174465
 30
0.0
 11
2750.970589276525
 21
1388.494269174465
 31
0.0
  0
ARC
  5
18D1A
330
18C7A
100
AcDbEntity
  8
細線
 48
50.0
100
AcDbCircle
 10
2757.670589276524
 20
1386.194269174464
 30
0.0
 40
0.7
100
AcDbArc
 50
180.0
 51
270.0
  0
ARC
  5
18D1B
330
18C7A
100
AcDbEntity
  8
細線
 48
50.0
100
AcDbCircle
 10
2762.270589276524
 20
1386.194269174464
 30
0.0
 40
0.7
100
AcDbArc
 50
270.0
 51
0.0
  0
LINE
  5
18D1C
330
18C7A
100
AcDbEntity
  8
細線
 48
50.0
100
AcDbLine
 10
2762.970589276525
 20
1386.194269174464
 30
0.0
 11
2762.970596101639
 21
1387.694284065954
 31
0.0
  0
LINE
  5
18D1D
330
18C7A
100
AcDbEntity
  8
細線
 48
50.0
100
AcDbLine
 10
2757.670589276524
 20
1385.494269174465
 30
0.0
 11
2762.270589276524
 21
1385.494269174465
 31
0.0
  0
LINE
  5
18D1E
330
18C7A
100
AcDbEntity
  8
細線
 48
50.0
100
AcDbLine
 10
2756.970589276525
 20
1387.694269174466
 30
0.0
 11
2756.970589276525
 21
1386.194269174464
 31
0.0
  0
LINE
  5
18D1F
330
18C7A
100
AcDbEntity
  8
細線
 48
50.0
100
AcDbLine
 10
3382.570589276527
 20
1418.494269174465
 30
0.0
 11
2745.970589276525
 21
1418.494269174463
 31
0.0
  0
LINE
  5
18D20
330
18C7A
100
AcDbEntity
  8
細線
 48
50.0
100
AcDbLine
 10
3408.470589276525
 20
1413.494269174467
 30
0.0
 11
3392.570589276527
 21
1413.494269174465
 31
0.0
  0
LINE
  5
18D21
330
18C7A
100
AcDbEntity
  8
細線
 48
50.0
100
AcDbLine
 10
3392.570589276526
 20
1413.494269174465
 30
0.0
 11
3382.570589276527
 21
1418.494269174465
 31
0.0
  0
LINE
  5
18D22
330
18C7A
100
AcDbEntity
  8
細線
100
AcDbLine
 10
2993.470589276525
 20
1388.494269174465
 30
0.0
 11
2993.470589276525
 21
1417.794269174464
 31
0.0
  0
LINE
  5
18D23
330
18C7A
100
AcDbEntity
  8
細線
100
AcDbLine
 10
2993.470589276525
 20
1417.794269174464
 30
0.0
 11
3013.470589276525
 21
1417.794269174464
 31
0.0
  0
LINE
  5
18D24
330
18C7A
100
AcDbEntity
  8
細線
100
AcDbLine
 10
3013.470589276525
 20
1388.494269174465
 30
0.0
 11
3013.470589276525
 21
1417.794269174464
 31
0.0
  0
LINE
  5
18D25
330
18C7A
100
AcDbEntity
  8
細線
100
AcDbLine
 10
3170.720589276524
 20
1388.494269174465
 30
0.0
 11
3100.720589276523
 21
1388.494269174465
 31
0.0
  0
LINE
  5
18D26
330
18C7A
100
AcDbEntity
  8
細線
 48
50.0
100
AcDbLine
 10
2890.720589276525
 20
1388.494269174465
 30
0.0
 11
2763.766368849365
 21
1388.494269174465
 31
0.0
  0
LINE
  5
18D27
330
18C7A
100
AcDbEntity
  8
細線
100
AcDbLine
 10
3030.720589276525
 20
1388.494269174465
 30
0.0
 11
2960.720589276525
 21
1388.494269174465
 31
0.0
  0
LINE
  5
18D28
330
18C7A
100
AcDbEntity
  8
細線
 48
50.0
100
AcDbLine
 10
2750.970589276525
 20
1380.494269174465
 30
0.0
 11
2750.970589276525
 21
1388.494269174465
 31
0.0
  0
LINE
  5
18D29
330
18C7A
100
AcDbEntity
  8
細線
 48
50.0
100
AcDbLine
 10
2730.970589276524
 20
1380.494269174467
 30
0.0
 11
2750.970589276525
 21
1380.494269174465
 31
0.0
  0
LINE
  5
18D2A
330
18C7A
100
AcDbEntity
  8
細線
 48
50.0
100
AcDbLine
 10
2745.970589276525
 20
1418.494269174465
 30
0.0
 11
2745.970589276525
 21
1413.494269174465
 31
0.0
  0
LINE
  5
18D2B
330
18C7A
100
AcDbEntity
  8
細線
 48
50.0
100
AcDbLine
 10
2730.970589276525
 20
1418.494269174463
 30
0.0
 11
2745.970589276525
 21
1418.494269174465
 31
0.0
  0
LINE
  5
18D2C
330
18C7A
100
AcDbEntity
  8
細線
 48
50.0
100
AcDbLine
 10
2730.970589276524
 20
1380.494269174467
 30
0.0
 11
2730.970589276525
 21
1418.494269174463
 31
0.0
  0
LINE
  5
18D2D
330
18C7A
100
AcDbEntity
  8
細線
100
AcDbLine
 10
3398.970589276523
 20
1388.494269174465
 30
0.0
 11
3240.720589276525
 21
1388.494269174465
 31
0.0
  0
LINE
  5
18D2E
330
18C7A
100
AcDbEntity
  8
細線
 48
50.0
100
AcDbLine
 10
3408.470589276525
 20
1413.494269174467
 30
0.0
 11
3408.470589276524
 21
1388.494269174465
 31
0.0
  0
TEXT
  5
18D2F
330
18C7A
100
AcDbEntity
  8
部品1
100
AcDbText
 10
1860.154865991392
 20
46.99880823813145
 30
0.0
 40
135.0
  1
平面図
  7
STYLE2
100
AcDbText
  0
LWPOLYLINE
  5
18D30
330
18C7A
100
AcDbEntity
  8
部品1
100
AcDbPolyline
 90
        4
 70
     1
 43
0.0
 10
1770.23525616235
 20
239.8923374566548
 10
1770.23525616235
 20
0.0000159111223184
 10
2533.705922390791
 20
0.0000159111223184
 10
2533.705922390791
 20
239.8923374566548
  0
LINE
  5
18D31
330
18C7A
100
AcDbEntity
  8
部品1
100
AcDbLine
 10
1534.470589276487
 20
3154.494269174626
 30
0.0
 11
2769.470589276552
 21
3154.494269174626
 31
0.0
  0
LINE
  5
18D32
330
18C7A
100
AcDbEntity
  8
部品1
 48
50.0
100
AcDbLine
 10
1311.970589276523
 20
1420.494269174462
 30
0.0
 11
3411.970589276523
 21
1420.494269174465
 31
0.0
  0
LINE
  5
18D33
330
18C7A
100
AcDbEntity
  8
部品1
 48
50.0
100
AcDbLine
 10
471.9705892765232
 20
1392.494269174465
 30
0.0
 11
1311.970589276523
 21
1392.494269174465
 31
0.0
  0
DIMENSION
  5
18D34
330
18C7A
100
AcDbEntity
  8
寸法
100
AcDbDimension
  2
*D14
 10
2710.234916278077
 20
2488.887829538828
 30
0.0
 11
2338.318822490183
 21
2488.887829538828
 31
0.0
 12
-3742.925985830444
 22
-6453.628869860112
 32
0.0
 70
   128
 71
     5
 42
1231.00000000007
  3
INABA_S40G
100
AcDbAlignedDimension
 13
1536.470589276486
 23
2702.494269174557
 33
0.0
 14
2767.470589276556
 24
2702.494269174549
 34
0.0
100
AcDbRotatedDimension
1001
ACAD
1000
DSTYLE
1002
{
1002
}
  0
LINE
  5
18D35
330
18C7A
100
AcDbEntity
  8
部品1
100
AcDbLine
 10
1536.470589276487
 20
2702.494269174557
 30
0.0
 11
2767.470589276554
 21
2702.494269174615
 31
0.0
  0
LINE
  5
18D36
330
18C7A
100
AcDbEntity
  8
部品1
100
AcDbLine
 10
1536.470589276487
 20
3152.494269174557
 30
0.0
 11
2767.470589276556
 21
3152.494269174615
 31
0.0
  0
LINE
  5
18D37
330
18C7A
100
AcDbEntity
  8
細線
 48
50.0
100
AcDbLine
 10
1508.470589276487
 20
3152.494269174558
 30
0.0
 11
445.4705892765559
 21
2702.494269174509
 31
0.0
  0
LINE
  5
18D38
330
18C7A
100
AcDbEntity
  8
細線
 48
50.0
100
AcDbLine
 10
1508.470589276487
 20
2702.494269174558
 30
0.0
 11
445.4705892765542
 21
3152.494269174509
 31
0.0
  0
LINE
  5
18D39
330
18C7A
100
AcDbEntity
  8
部品1
100
AcDbLine
 10
1556.970589276487
 20
3172.494269174611
 30
0.0
 11
1556.970589276487
 21
3154.494269174611
 31
0.0
  0
LINE
  5
18D3A
330
18C7A
100
AcDbEntity
  8
部品1
100
AcDbLine
 10
1556.970589276487
 20
3172.494269174611
 30
0.0
 11
1550.970589276487
 21
3172.494269174611
 31
0.0
  0
LINE
  5
18D3B
330
18C7A
100
AcDbEntity
  8
部品1
100
AcDbLine
 10
1534.470589276487
 20
3146.494269174608
 30
0.0
 11
1509.470589276487
 21
3146.494269174611
 31
0.0
  0
LINE
  5
18D3C
330
18C7A
100
AcDbEntity
  8
部品1
100
AcDbLine
 10
1486.970589276487
 20
3172.494269174611
 30
0.0
 11
1486.970589276487
 21
3154.494269174611
 31
0.0
  0
LINE
  5
18D3D
330
18C7A
100
AcDbEntity
  8
部品1
100
AcDbLine
 10
1492.970589276487
 20
3172.494269174611
 30
0.0
 11
1486.970589276487
 21
3172.494269174611
 31
0.0
  0
LINE
  5
18D3E
330
18C7A
100
AcDbEntity
  8
部品1
100
AcDbLine
 10
1534.470589276487
 20
2702.494269174615
 30
0.0
 11
1509.470589276487
 21
2702.494269174615
 31
0.0
  0
LINE
  5
18D3F
330
18C7A
100
AcDbEntity
  8
部品1
 48
50.0
100
AcDbLine
 10
1536.470589276487
 20
3152.494269174611
 30
0.0
 11
1536.470589276487
 21
2702.494269174615
 31
0.0
  0
LINE
  5
18D40
330
18C7A
100
AcDbEntity
  8
部品1
 48
50.0
100
AcDbLine
 10
1508.470589276487
 20
3152.494269174607
 30
0.0
 11
1508.470589276487
 21
2702.494269174615
 31
0.0
  0
LINE
  5
18D41
330
18C7A
100
AcDbEntity
  8
部品1
 48
50.0
100
AcDbLine
 10
1534.470589276487
 20
3154.494269174618
 30
0.0
 11
1534.470589276487
 21
2702.494269174615
 31
0.0
  0
LINE
  5
18D42
330
18C7A
100
AcDbEntity
  8
部品1
 48
50.0
100
AcDbLine
 10
1509.470589276487
 20
3154.494269174615
 30
0.0
 11
1509.470589276487
 21
2702.494269174615
 31
0.0
  0
LINE
  5
18D43
330
18C7A
100
AcDbEntity
  8
部品1
100
AcDbLine
 10
3411.970589276556
 20
1392.494269174582
 30
0.0
 11
3411.970589276556
 21
1420.494269174596
 31
0.0
  0
LINE
  5
18D44
330
18C7A
100
AcDbEntity
  8
部品1
100
AcDbLine
 10
1311.970589276523
 20
1392.494269174596
 30
0.0
 11
1311.970589276523
 21
1420.494269174596
 31
0.0
  0
LINE
  5
18D45
330
18C7A
100
AcDbEntity
  8
部品1
100
AcDbLine
 10
891.9705892765232
 20
1392.494269174596
 30
0.0
 11
891.9705892765232
 21
1420.494269174596
 31
0.0
  0
LINE
  5
18D46
330
18C7A
100
AcDbEntity
  8
部品1
100
AcDbLine
 10
3411.97058927652
 20
3182.494269174477
 30
0.0
 11
3411.970589276523
 21
3154.494269174477
 31
0.0
  0
LINE
  5
18D47
330
18C7A
100
AcDbEntity
  8
部品1
100
AcDbLine
 10
2571.97058927652
 20
3182.494269174477
 30
0.0
 11
2571.970589276523
 21
3154.494269174477
 31
0.0
  0
LINE
  5
18D48
330
18C7A
100
AcDbEntity
  8
部品1
100
AcDbLine
 10
2991.97058927652
 20
3182.494269174477
 30
0.0
 11
2991.970589276523
 21
3154.494269174477
 31
0.0
  0
LINE
  5
18D49
330
18C7A
100
AcDbEntity
  8
部品1
100
AcDbLine
 10
2151.970589276519
 20
3182.494269174477
 30
0.0
 11
2151.970589276523
 21
3154.494269174477
 31
0.0
  0
LINE
  5
18D4A
330
18C7A
100
AcDbEntity
  8
部品1
100
AcDbLine
 10
1731.970589276519
 20
3182.494269174477
 30
0.0
 11
1731.970589276523
 21
3154.494269174477
 31
0.0
  0
LINE
  5
18D4B
330
18C7A
100
AcDbEntity
  8
部品1
100
AcDbLine
 10
1311.970589276519
 20
3182.494269174477
 30
0.0
 11
1311.970589276523
 21
3154.494269174477
 31
0.0
  0
LINE
  5
18D4C
330
18C7A
100
AcDbEntity
  8
部品1
100
AcDbLine
 10
891.9705892765195
 20
3182.494269174477
 30
0.0
 11
891.9705892765232
 21
3154.494269174477
 31
0.0
  0
LINE
  5
18D4D
330
18C7A
100
AcDbEntity
  8
部品1
100
AcDbLine
 10
471.9705892765232
 20
1392.494269174596
 30
0.0
 11
471.9705892765232
 21
1420.494269174596
 31
0.0
  0
LINE
  5
18D4E
330
18C7A
100
AcDbEntity
  8
部品1
100
AcDbLine
 10
444.9705892765305
 20
1420.494269174558
 30
0.0
 11
3858.970589276556
 21
1420.494269174596
 31
0.0
  0
LINE
  5
18D4F
330
18C7A
100
AcDbEntity
  8
部品1
100
AcDbLine
 10
3831.970589276556
 20
1392.494269174596
 30
0.0
 11
3831.970589276556
 21
1420.494269174596
 31
0.0
  0
LINE
  5
18D50
330
18C7A
100
AcDbEntity
  8
部品1
100
AcDbLine
 10
3858.970589276556
 20
1447.494269174593
 30
0.0
 11
3886.970589276556
 21
1447.494269174593
 31
0.0
  0
LINE
  5
18D51
330
18C7A
100
AcDbEntity
  8
部品1
100
AcDbLine
 10
3858.970589276556
 20
1867.494269174607
 30
0.0
 11
3886.970589276556
 21
1867.494269174607
 31
0.0
  0
LINE
  5
18D52
330
18C7A
100
AcDbEntity
  8
部品1
100
AcDbLine
 10
444.9705892765305
 20
1867.49426917448
 30
0.0
 11
416.9705892765305
 21
1867.49426917448
 31
0.0
  0
LINE
  5
18D53
330
18C7A
100
AcDbEntity
  8
部品1
100
AcDbLine
 10
3830.470589276541
 20
1867.49426917458
 30
0.0
 11
473.4705892765396
 21
1867.49426917448
 31
0.0
  0
LINE
  5
18D54
330
18C7A
100
AcDbEntity
  8
部品1
100
AcDbLine
 10
3830.470589276541
 20
2287.49426917458
 30
0.0
 11
473.4705892765396
 21
2287.49426917448
 31
0.0
  0
LINE
  5
18D55
330
18C7A
100
AcDbEntity
  8
部品1
100
AcDbLine
 10
444.9705892765305
 20
2287.49426917448
 30
0.0
 11
416.9705892765305
 21
2287.49426917448
 31
0.0
  0
LINE
  5
18D56
330
18C7A
100
AcDbEntity
  8
部品1
100
AcDbLine
 10
3858.970589276556
 20
2287.494269174608
 30
0.0
 11
3886.970589276556
 21
2287.494269174608
 31
0.0
  0
LINE
  5
18D57
330
18C7A
100
AcDbEntity
  8
部品1
 48
50.0
100
AcDbLine
 10
2151.970589276551
 20
2702.494269174586
 30
0.0
 11
2151.970589276581
 21
1448.994269174494
 31
0.0
  0
LINE
  5
18D58
330
18C7A
100
AcDbEntity
  8
破線
 48
10.0
100
AcDbLine
 10
2959.470589276535
 20
1472.494269174522
 30
0.0
 11
2176.970589276532
 21
1472.494269174505
 31
0.0
  0
LINE
  5
18D59
330
18C7A
100
AcDbEntity
  8
破線
 48
10.0
100
AcDbLine
 10
3009.47058927653
 20
1448.994269174509
 30
0.0
 11
3009.47058927653
 21
2702.494269174615
 31
0.0
  0
LINE
  5
18D5A
330
18C7A
100
AcDbEntity
  8
破線
 48
10.0
100
AcDbLine
 10
2959.470589276535
 20
1448.994269174505
 30
0.0
 11
2959.470589276531
 21
2702.494269174615
 31
0.0
  0
LINE
  5
18D5B
330
18C7A
100
AcDbEntity
  8
破線
 48
10.0
100
AcDbLine
 10
1344.47058927653
 20
1448.994269174509
 30
0.0
 11
1344.47058927653
 21
2702.494269174615
 31
0.0
  0
LINE
  5
18D5C
330
18C7A
100
AcDbEntity
  8
破線
 48
10.0
100
AcDbLine
 10
1294.470589276534
 20
1448.994269174505
 30
0.0
 11
1294.47058927653
 21
2702.494269174615
 31
0.0
  0
DIMENSION
  5
18D5D
330
18C7A
100
AcDbEntity
  8
寸法
100
AcDbDimension
  2
*D13
 10
1451.234916278005
 20
2488.887829538828
 30
0.0
 11
916.0604668248634
 21
2488.887829538828
 31
0.0
 12
-3742.925985830444
 22
-6453.628869860112
 32
0.0
 70
   128
 71
     5
 42
1062.99999999993
  3
INABA_S40G
100
AcDbAlignedDimension
 13
445.4705892765559
 23
2702.494269174505
 33
0.0
 14
1508.470589276486
 24
2702.494269174558
 34
0.0
100
AcDbRotatedDimension
1001
ACAD
1000
DSTYLE
1002
{
1002
}
  0
LINE
  5
18D5E
330
18C7A
100
AcDbEntity
  8
破線
 48
10.0
100
AcDbLine
 10
1294.470589276534
 20
1472.494269174469
 30
0.0
 11
496.9705892765414
 21
1472.494269174476
 31
0.0
  0
LINE
  5
18D5F
330
18C7A
100
AcDbEntity
  8
部品1
100
AcDbLine
 10
3831.970589276556
 20
3182.494269174604
 30
0.0
 11
3831.970589276556
 21
3154.494269174604
 31
0.0
  0
LINE
  5
18D60
330
18C7A
100
AcDbEntity
  8
部品1
100
AcDbLine
 10
3831.970589276556
 20
3182.494269174626
 30
0.0
 11
3831.970589276556
 21
3154.494269174626
 31
0.0
  0
LINE
  5
18D61
330
18C7A
100
AcDbEntity
  8
部品1
100
AcDbLine
 10
3858.970589276556
 20
3127.494269174607
 30
0.0
 11
3886.970589276556
 21
3127.494269174607
 31
0.0
  0
LINE
  5
18D62
330
18C7A
100
AcDbEntity
  8
部品1
100
AcDbLine
 10
3858.970589276556
 20
2707.494269174608
 30
0.0
 11
3886.970589276556
 21
2707.494269174608
 31
0.0
  0
LINE
  5
18D63
330
18C7A
100
AcDbEntity
  8
部品1
100
AcDbLine
 10
3858.470589276556
 20
3152.494269174604
 30
0.0
 11
3858.470589276556
 21
2702.494269174608
 31
0.0
  0
LINE
  5
18D64
330
18C7A
100
AcDbEntity
  8
部品1
100
AcDbLine
 10
3886.970589276533
 20
1447.494269174593
 30
0.0
 11
3886.970589276531
 21
1392.494269174596
 31
0.0
  0
LINE
  5
18D65
330
18C7A
100
AcDbEntity
  8
部品1
 48
50.0
100
AcDbLine
 10
3830.470589276556
 20
1448.994269174596
 30
0.0
 11
3858.970589276554
 21
1420.494269174596
 31
0.0
  0
LINE
  5
18D66
330
18C7A
100
AcDbEntity
  8
部品1
100
AcDbLine
 10
3886.970589276531
 20
1392.494269174596
 30
0.0
 11
3835.970589276531
 21
1392.494269174596
 31
0.0
  0
LINE
  5
18D67
330
18C7A
100
AcDbEntity
  8
部品1
100
AcDbLine
 10
3858.970589276533
 20
1447.494269174593
 30
0.0
 11
3886.970589276531
 21
1447.494269174593
 31
0.0
  0
LINE
  5
18D68
330
18C7A
100
AcDbEntity
  8
部品1
100
AcDbLine
 10
3886.970589276556
 20
3182.494269174604
 30
0.0
 11
3886.970589276531
 21
1392.494269174596
 31
0.0
  0
DIMENSION
  5
18D69
330
18C7A
100
AcDbEntity
  8
寸法
100
AcDbDimension
  2
*D12
 10
4534.396935010967
 20
1447.494269174593
 30
0.0
 11
4534.396935010965
 21
2287.4942691746
 31
0.0
 12
-3742.925985830444
 22
-6453.628869860112
 32
0.0
 70
   128
  1
4X420=<>
 71
     5
 42
1680.000000000014
  3
INABA_S40G
100
AcDbAlignedDimension
 13
3886.970589276556
 23
3127.494269174607
 33
0.0
 14
3886.970589276531
 24
1447.494269174593
 34
0.0
 50
90.0
100
AcDbRotatedDimension
1001
ACAD
1000
DSTYLE
1002
{
1002
}
  0
LINE
  5
18D6A
330
18C7A
100
AcDbEntity
  8
部品1
100
AcDbLine
 10
3858.970589276556
 20
3154.494269174604
 30
0.0
 11
3858.970589276534
 21
1420.494269174596
 31
0.0
  0
DIMENSION
  5
18D6B
330
18C7A
100
AcDbEntity
  8
寸法
100
AcDbDimension
  2
*D11
 10
4213.82831513858
 20
2607.276453505718
 30
0.0
 11
4113.828315138579
 21
2832.276453505718
 31
0.0
 12
-3742.925985830444
 22
-6453.628869860112
 32
0.0
 71
     5
 42
449.9999999999963
  3
INABA_S40G
100
AcDbAlignedDimension
 13
3858.470589276556
 23
3152.494269174604
 33
0.0
 14
3858.470589276556
 24
2702.494269174608
 34
0.0
 50
90.0
100
AcDbRotatedDimension
1001
ACAD
1000
DSTYLE
1002
{
1002
}
  0
LINE
  5
18D6C
330
18C7A
100
AcDbEntity
  8
部品1
100
AcDbLine
 10
3830.470589276547
 20
2702.494269174608
 30
0.0
 11
3830.470589276556
 21
1448.994269174596
 31
0.0
  0
LINE
  5
18D6D
330
18C7A
100
AcDbEntity
  8
破線
 48
10.0
100
AcDbLine
 10
3806.970589276549
 20
2702.494269174608
 30
0.0
 11
3806.970589276558
 21
1472.494269174593
 31
0.0
  0
LINE
  5
18D6E
330
18C7A
100
AcDbEntity
  8
部品1
100
AcDbLine
 10
2769.470589276556
 20
3146.494269174608
 30
0.0
 11
2794.470589276556
 21
3146.494269174611
 31
0.0
  0
LINE
  5
18D6F
330
18C7A
100
AcDbEntity
  8
部品1
100
AcDbLine
 10
2810.970589276556
 20
3172.494269174611
 30
0.0
 11
2816.970589276556
 21
3172.494269174611
 31
0.0
  0
LINE
  5
18D70
330
18C7A
100
AcDbEntity
  8
部品1
100
AcDbLine
 10
2816.970589276556
 20
3172.494269174611
 30
0.0
 11
2816.970589276556
 21
3154.494269174611
 31
0.0
  0
LINE
  5
18D71
330
18C7A
100
AcDbEntity
  8
部品1
100
AcDbLine
 10
2746.970589276556
 20
3172.494269174611
 30
0.0
 11
2752.970589276556
 21
3172.494269174611
 31
0.0
  0
LINE
  5
18D72
330
18C7A
100
AcDbEntity
  8
部品1
100
AcDbLine
 10
2746.970589276556
 20
3172.494269174611
 30
0.0
 11
2746.970589276556
 21
3154.494269174611
 31
0.0
  0
LINE
  5
18D73
330
18C7A
100
AcDbEntity
  8
部品1
100
AcDbLine
 10
2769.470589276556
 20
2702.494269174615
 30
0.0
 11
2794.470589276556
 21
2702.494269174615
 31
0.0
  0
LINE
  5
18D74
330
18C7A
100
AcDbEntity
  8
部品1
 48
50.0
100
AcDbLine
 10
2794.470589276556
 20
3154.494269174615
 30
0.0
 11
2794.470589276556
 21
2702.494269174615
 31
0.0
  0
LINE
  5
18D75
330
18C7A
100
AcDbEntity
  8
部品1
 48
50.0
100
AcDbLine
 10
2769.470589276554
 20
3154.494269174618
 30
0.0
 11
2769.470589276556
 21
2702.494269174615
 31
0.0
  0
LINE
  5
18D76
330
18C7A
100
AcDbEntity
  8
部品1
 48
50.0
100
AcDbLine
 10
2795.470589276556
 20
3152.494269174607
 30
0.0
 11
2795.470589276556
 21
2702.494269174615
 31
0.0
  0
LINE
  5
18D77
330
18C7A
100
AcDbEntity
  8
部品1
 48
50.0
100
AcDbLine
 10
2767.470589276556
 20
3152.494269174611
 30
0.0
 11
2767.470589276556
 21
2702.494269174615
 31
0.0
  0
LINE
  5
18D78
330
18C7A
100
AcDbEntity
  8
破線
 48
10.0
100
AcDbLine
 10
2176.97058927653
 20
1448.994269174509
 30
0.0
 11
2176.97058927653
 21
2702.494269174588
 31
0.0
  0
LINE
  5
18D79
330
18C7A
100
AcDbEntity
  8
破線
 48
10.0
100
AcDbLine
 10
2126.970589276534
 20
1448.994269174505
 30
0.0
 11
2126.970589276531
 21
2702.494269174586
 31
0.0
  0
LINE
  5
18D7A
330
18C7A
100
AcDbEntity
  8
部品1
100
AcDbLine
 10
2794.470589276556
 20
3154.494269174622
 30
0.0
 11
3858.970589276556
 21
3154.494269174604
 31
0.0
  0
LINE
  5
18D7B
330
18C7A
100
AcDbEntity
  8
細線
 48
50.0
100
AcDbLine
 10
3858.470589276556
 20
2702.494269174608
 30
0.0
 11
2795.470589276556
 21
3152.494269174607
 31
0.0
  0
LINE
  5
18D7C
330
18C7A
100
AcDbEntity
  8
部品1
100
AcDbLine
 10
2795.470589276555
 20
2702.494269174615
 30
0.0
 11
3858.470589276556
 21
2702.494269174608
 31
0.0
  0
LINE
  5
18D7D
330
18C7A
100
AcDbEntity
  8
部品1
100
AcDbLine
 10
2795.470589276556
 20
3152.494269174611
 30
0.0
 11
3858.470589276556
 21
3152.494269174604
 31
0.0
  0
LINE
  5
18D7E
330
18C7A
100
AcDbEntity
  8
細線
 48
50.0
100
AcDbLine
 10
3858.470589276556
 20
3152.494269174604
 30
0.0
 11
2795.470589276555
 21
2702.494269174615
 31
0.0
  0
DIMENSION
  5
18D7F
330
18C7A
100
AcDbEntity
  8
寸法
100
AcDbDimension
  2
*D10
 10
3801.234916278101
 20
2488.887829538937
 30
0.0
 11
3318.360544398907
 21
2488.887829538937
 31
0.0
 12
-3742.925985830444
 22
-6453.628869860112
 32
0.0
 70
   128
 71
     5
 42
1063.000000000012
  3
INABA_S40G
100
AcDbAlignedDimension
 13
2795.470589276555
 23
2702.494269174615
 33
0.0
 14
3858.470589276567
 24
2702.494269174608
 34
0.0
100
AcDbRotatedDimension
1001
ACAD
1000
DSTYLE
1002
{
1002
}
  0
LINE
  5
18D80
330
18C7A
100
AcDbEntity
  8
破線
 48
10.0
100
AcDbLine
 10
3806.970589276556
 20
1472.494269174594
 30
0.0
 11
3009.47058927653
 21
1472.494269174523
 31
0.0
  0
DIMENSION
  5
18D81
330
18C7A
100
AcDbEntity
  8
寸法
100
AcDbDimension
  2
*D9
 10
4534.396935010941
 20
1392.494269174596
 30
0.0
 11
4534.39693501094
 21
1084.008987800356
 31
0.0
 12
-3742.925985830444
 22
-6453.628869860112
 32
0.0
 70
   128
 71
     5
 42
54.99999999999636
  3
INABA_S40G
100
AcDbAlignedDimension
 13
3886.970589276531
 23
1447.494269174593
 33
0.0
 14
3886.970589276531
 24
1392.494269174596
 34
0.0
 50
90.0
100
AcDbRotatedDimension
1001
ACAD
1000
DSTYLE
1002
{
1002
}
  0
LINE
  5
18D82
330
18C7A
100
AcDbEntity
  8
部品1
100
AcDbLine
 10
471.9705892765196
 20
3182.494269174477
 30
0.0
 11
471.9705892765232
 21
3154.494269174477
 31
0.0
  0
LINE
  5
18D83
330
18C7A
100
AcDbEntity
  8
部品1
100
AcDbLine
 10
471.9705892765559
 20
3182.494269174509
 30
0.0
 11
471.9705892765559
 21
3154.494269174509
 31
0.0
  0
LINE
  5
18D84
330
18C7A
100
AcDbEntity
  8
部品1
100
AcDbLine
 10
444.9705892765232
 20
3127.49426917448
 30
0.0
 11
416.9705892765232
 21
3127.49426917448
 31
0.0
  0
LINE
  5
18D85
330
18C7A
100
AcDbEntity
  8
部品1
100
AcDbLine
 10
444.9705892765305
 20
2707.49426917448
 30
0.0
 11
416.9705892765305
 21
2707.49426917448
 31
0.0
  0
LINE
  5
18D86
330
18C7A
100
AcDbEntity
  8
部品1
 48
50.0
100
AcDbLine
 10
445.4705892765542
 20
3152.494269174506
 30
0.0
 11
445.4705892765559
 21
2702.494269174505
 31
0.0
  0
LINE
  5
18D87
330
18C7A
100
AcDbEntity
  8
部品1
 48
50.0
100
AcDbLine
 10
473.470589276545
 20
1448.994269174573
 30
0.0
 11
444.970589276545
 21
1420.494269174574
 31
0.0
  0
LINE
  5
18D88
330
18C7A
100
AcDbEntity
  8
部品1
100
AcDbLine
 10
471.9705892765232
 20
1392.494269174465
 30
0.0
 11
416.9705892765486
 21
1392.494269174465
 31
0.0
  0
LINE
  5
18D89
330
18C7A
100
AcDbEntity
  8
部品1
100
AcDbLine
 10
444.9705892765305
 20
1447.494269174429
 30
0.0
 11
416.9705892765469
 21
1447.494269174429
 31
0.0
  0
LINE
  5
18D8A
330
18C7A
100
AcDbEntity
  8
部品1
100
AcDbLine
 10
444.9705892765305
 20
1447.494269174465
 30
0.0
 11
416.9705892765469
 21
1447.494269174465
 31
0.0
  0
LINE
  5
18D8B
330
18C7A
100
AcDbEntity
  8
部品1
100
AcDbLine
 10
444.9705892765469
 20
1447.49426917448
 30
0.0
 11
416.9705892765469
 21
1447.49426917448
 31
0.0
  0
LINE
  5
18D8C
330
18C7A
100
AcDbEntity
  8
部品1
100
AcDbLine
 10
416.9705892765469
 20
1447.494269174429
 30
0.0
 11
416.9705892765486
 21
1392.494269174433
 31
0.0
  0
LINE
  5
18D8D
330
18C7A
100
AcDbEntity
  8
部品1
100
AcDbLine
 10
416.9705892765196
 20
3182.494269174477
 30
0.0
 11
416.9705892765486
 21
1392.494269174465
 31
0.0
  0
LINE
  5
18D8E
330
18C7A
100
AcDbEntity
  8
部品1
100
AcDbLine
 10
444.9705892765305
 20
1420.494269174556
 30
0.0
 11
444.9705892765559
 21
3154.494269174509
 31
0.0
  0
LINE
  5
18D8F
330
18C7A
100
AcDbEntity
  8
部品1
100
AcDbLine
 10
473.4705892765323
 20
2702.494269174608
 30
0.0
 11
473.470589276545
 21
1448.994269174571
 31
0.0
  0
LINE
  5
18D90
330
18C7A
100
AcDbEntity
  8
破線
 48
10.0
100
AcDbLine
 10
496.9705892765305
 20
2702.494269174608
 30
0.0
 11
496.9705892765451
 21
1472.494269174476
 31
0.0
  0
DIMENSION
  5
18D91
330
18C7A
100
AcDbEntity
  8
寸法
100
AcDbDimension
  2
*D8
 10
3886.970589276531
 20
410.7433333855515
 30
0.0
 11
2168.197775309287
 21
410.7433333855515
 31
0.0
 12
-3742.925985830444
 22
-6453.628869860112
 32
0.0
 70
   128
 71
     5
 42
3469.999999999982
  3
INABA_S40G
100
AcDbAlignedDimension
 13
416.9705892765486
 23
1392.494269174433
 33
0.0
 14
3886.970589276531
 24
1392.49426917456
 34
0.0
100
AcDbRotatedDimension
1001
ACAD
1000
DSTYLE
1002
{
1070
   341
1005
0
1002
}
  0
LINE
  5
18D92
330
18C7A
100
AcDbEntity
  8
部品1
100
AcDbLine
 10
444.9705892765559
 20
3154.494269174624
 30
0.0
 11
1509.470589276487
 21
3154.494269174626
 31
0.0
  0
LINE
  5
18D93
330
18C7A
100
AcDbEntity
  8
部品1
100
AcDbLine
 10
3886.970589276531
 20
1392.494269174596
 30
0.0
 11
3411.970589276556
 21
1392.494269174582
 31
0.0
  0
LINE
  5
18D94
330
18C7A
100
AcDbEntity
  8
部品1
100
AcDbLine
 10
416.9705892765559
 20
3182.494269174509
 30
0.0
 11
3886.970589276556
 21
3182.494269174604
 31
0.0
  0
LINE
  5
18D95
330
18C7A
100
AcDbEntity
  8
部品1
100
AcDbLine
 10
445.4705892765559
 20
2702.494269174509
 30
0.0
 11
1508.470589276487
 21
2702.494269174558
 31
0.0
  0
LINE
  5
18D96
330
18C7A
100
AcDbEntity
  8
細線
 48
50.0
100
AcDbLine
 10
2767.470589276556
 20
3152.494269174611
 30
0.0
 11
1536.470589276487
 21
2702.494269174558
 31
0.0
  0
LINE
  5
18D97
330
18C7A
100
AcDbEntity
  8
部品1
100
AcDbLine
 10
445.4705892765542
 20
3152.494269174509
 30
0.0
 11
1508.470589276485
 21
3152.494269174558
 31
0.0
  0
LINE
  5
18D98
330
18C7A
100
AcDbEntity
  8
細線
 48
50.0
100
AcDbLine
 10
2767.470589276554
 20
2702.494269174615
 30
0.0
 11
1536.470589276485
 21
3152.494269174558
 31
0.0
  0
LINE
  5
18D99
330
18C7A
100
AcDbEntity
  8
破線
 48
10.0
100
AcDbLine
 10
2126.970589276534
 20
1472.494269174502
 30
0.0
 11
1344.47058927653
 21
1472.494269174473
 31
0.0
  0
LINE
  5
18D9A
330
18C7A
100
AcDbEntity
  8
部品1
100
AcDbLine
 10
3830.470589276556
 20
1448.994269174596
 30
0.0
 11
473.4705892764487
 21
1448.994269174476
 31
0.0
  0
DIMENSION
  5
18D9B
330
18C7A
100
AcDbEntity
  8
寸法
100
AcDbDimension
  2
*D7
 10
471.970589276555
 20
3698.302488799491
 30
0.0
 11
108.4853079022819
 21
3698.302488799491
 31
0.0
 12
-3742.925985830444
 22
-6453.628869860112
 32
0.0
 70
   128
 71
     5
 42
55.00000000003456
  3
INABA_S40G
100
AcDbAlignedDimension
 13
416.9705892765205
 23
3182.494269174509
 33
0.0
 14
471.970589276555
 24
3182.494269174509
 34
0.0
100
AcDbRotatedDimension
1001
ACAD
1000
DSTYLE
1002
{
1002
}
  0
DIMENSION
  5
18D9C
330
18C7A
100
AcDbEntity
  8
寸法
100
AcDbDimension
  2
*D6
 10
4534.396935010967
 20
3127.494269174607
 30
0.0
 11
4534.396935010965
 21
3490.979550548844
 31
0.0
 12
-3742.925985830444
 22
-6453.628869860112
 32
0.0
 70
   128
 71
     5
 42
54.99999999999636
  3
INABA_S40G
100
AcDbAlignedDimension
 13
3886.970589276556
 23
3182.494269174604
 33
0.0
 14
3886.970589276556
 24
3127.494269174607
 34
0.0
 50
90.0
100
AcDbRotatedDimension
1001
ACAD
1000
DSTYLE
1002
{
1002
}
  0
DIMENSION
  5
18D9D
330
18C7A
100
AcDbEntity
  8
寸法
100
AcDbDimension
  2
*D5
 10
3886.970589276556
 20
3698.302488799589
 30
0.0
 11
4195.455870650794
 21
3698.302488799589
 31
0.0
 12
-3742.925985830444
 22
-6453.628869860112
 32
0.0
 70
   128
 71
     5
 42
55.0
  3
INABA_S40G
100
AcDbAlignedDimension
 13
3831.970589276556
 23
3182.494269174604
 33
0.0
 14
3886.970589276556
 24
3182.494269174604
 34
0.0
100
AcDbRotatedDimension
1001
ACAD
1000
DSTYLE
1002
{
1002
}
  0
DIMENSION
  5
18D9E
330
18C7A
100
AcDbEntity
  8
寸法
100
AcDbDimension
  2
*D4
 10
3831.970589276556
 20
3698.302488799607
 30
0.0
 11
2151.970589276555
 21
3698.302488799607
 31
0.0
 12
-3742.925985830444
 22
-6453.628869860112
 32
0.0
 70
   128
  1
8X420=<>
 71
     5
 42
3360.000000000001
  3
INABA_S40G
100
AcDbAlignedDimension
 13
471.970589276555
 23
3182.494269174509
 33
0.0
 14
3831.970589276556
 24
3182.494269174604
 34
0.0
100
AcDbRotatedDimension
1001
ACAD
1000
DSTYLE
1002
{
1002
}
  0
DIMENSION
  5
18D9F
330
18C7A
100
AcDbEntity
  8
寸法
100
AcDbDimension
  2
*D3
 10
4899.503876750603
 20
1392.494269174596
 30
0.0
 11
4899.503876750601
 21
2287.4942691746
 31
0.0
 12
-3742.925985830444
 22
-6453.628869860112
 32
0.0
 70
   128
 71
     5
 42
1790.000000000007
  3
INABA_S40G
100
AcDbAlignedDimension
 13
3886.970589276556
 23
3182.494269174604
 33
0.0
 14
3886.970589276531
 24
1392.494269174596
 34
0.0
 50
90.0
100
AcDbRotatedDimension
1001
ACAD
1000
DSTYLE
1002
{
1002
}
  0
ENDBLK
  5
18DA1
330
18C7A
100
AcDbEntity
  8
0
 48
50.0
100
AcDbBlockEnd
  0
BLOCK
  5
1C4CB
330
1C4CA
100
AcDbEntity
  8
0
 48
50.0
100
AcDbBlockBegin
  2
_NONE
 70
     0
 10
0.0
 20
0.0
 30
0.0
  3
_NONE
  1

  0
CIRCLE
  5
1C4CC
330
1C4CA
100
AcDbEntity
  8
0
  6
ByBlock
 62
     0
 48
50.0
100
AcDbCircle
 10
0.0
 20
0.0
 30
0.0
 40
0.25
  0
ENDBLK
  5
1C4CD
330
1C4CA
100
AcDbEntity
  8
0
 48
50.0
100
AcDbBlockEnd
  0
BLOCK
  5
20DEE
330
20DE2
100
AcDbEntity
  8
0
 48
50.0
100
AcDbBlockBegin
  2
*D19
 70
     1
 10
0.0
 20
0.0
 30
0.0
  3
*D19
  1

  0
LINE
  5
264D0
330
20DE2
100
AcDbEntity
  8
寸法
 62
     0
 48
50.0
370
    -2
100
AcDbLine
 10
11166.90427671119
 20
7599.395418156188
 30
0.0
 11
11166.90427671119
 21
8597.615740215109
 31
0.0
  0
LINE
  5
264D1
330
20DE2
100
AcDbEntity
  8
寸法
 62
     0
 48
50.0
370
    -2
100
AcDbLine
 10
11211.90427671119
 20
8325.661876250096
 30
0.0
 11
11211.90427671119
 21
8597.615740215109
 31
0.0
  0
LINE
  5
264D2
330
20DE2
100
AcDbEntity
  8
寸法
 62
     0
 48
50.0
370
    -2
100
AcDbLine
 10
11166.90427671119
 20
8537.615740215109
 30
0.0
 11
11066.90427671119
 21
8537.615740215109
 31
0.0
  0
LINE
  5
264D3
330
20DE2
100
AcDbEntity
  8
寸法
 62
     0
 48
50.0
370
    -2
100
AcDbLine
 10
11211.90427671119
 20
8537.615740215109
 30
0.0
 11
11549.25351911611
 21
8537.615740215109
 31
0.0
  0
LINE
  5
264D4
330
20DE2
100
AcDbEntity
  8
寸法
 62
     0
 48
50.0
370
    -2
100
AcDbLine
 10
11166.90427671119
 20
8537.615740215109
 30
0.0
 11
11211.90427671119
 21
8537.615740215109
 31
0.0
  0
INSERT
  5
264D5
330
20DE2
100
AcDbEntity
  8
寸法
 62
     0
 48
50.0
370
    -2
100
AcDbBlockReference
  2
_DOTSMALL
 10
11166.90427671119
 20
8537.615740215109
 30
0.0
 41
100.0
 42
100.0
 43
100.0
  0
INSERT
  5
264D6
330
20DE2
100
AcDbEntity
  8
寸法
 62
     0
 48
50.0
370
    -2
100
AcDbBlockReference
  2
_DOTSMALL
 10
11211.90427671119
 20
8537.615740215109
 30
0.0
 41
100.0
 42
100.0
 43
100.0
 50
180.0
  0
MTEXT
  5
264D7
330
20DE2
100
AcDbEntity
  8
寸法
 62
     7
 48
50.0
100
AcDbMText
 10
11483.07889791365
 20
8637.615740215109
 30
0.0
 40
120.0
 41
0.0
 71
     5
 72
     1
  1
\A1;a
  7
STYLE1
 73
     1
 44
1.0
1001
ACAD
1000
MTEXTBEGIN
1070
    73
1070
     1
1070
    44
1040
1.0
1070
    74
1070
     0
1000
MTEXTEND
  0
POINT
  5
264D8
330
20DE2
100
AcDbEntity
  8
DEFPOINTS
 62
     0
 48
50.0
100
AcDbPoint
 10
11166.90427671119
 20
7579.395418156187
 30
0.0
  0
POINT
  5
264D9
330
20DE2
100
AcDbEntity
  8
DEFPOINTS
 62
     0
 48
50.0
100
AcDbPoint
 10
11211.90427671119
 20
8305.661876250097
 30
0.0
  0
POINT
  5
264DA
330
20DE2
100
AcDbEntity
  8
DEFPOINTS
 62
     0
 48
50.0
100
AcDbPoint
 10
11211.90427671119
 20
8537.615740215109
 30
0.0
  0
ENDBLK
  5
20DEF
330
20DE2
100
AcDbEntity
  8
0
 48
50.0
100
AcDbBlockEnd
  0
BLOCK
  5
20E08
330
20DFC
100
AcDbEntity
  8
0
 48
50.0
100
AcDbBlockBegin
  2
*D20
 70
     1
 10
0.0
 20
0.0
 30
0.0
  3
*D20
  1

  0
LINE
  5
264C5
330
20DFC
100
AcDbEntity
  8
寸法
 62
     0
 48
50.0
370
    -2
100
AcDbLine
 10
5371.904276711195
 20
8325.661876250084
 30
0.0
 11
5371.904276711195
 21
8597.615740215093
 31
0.0
  0
LINE
  5
264C6
330
20DFC
100
AcDbEntity
  8
寸法
 62
     0
 48
50.0
370
    -2
100
AcDbLine
 10
5416.904276711195
 20
7599.395418156172
 30
0.0
 11
5416.904276711195
 21
8597.615740215093
 31
0.0
  0
LINE
  5
264C7
330
20DFC
100
AcDbEntity
  8
寸法
 62
     0
 48
50.0
370
    -2
100
AcDbLine
 10
5416.904276711195
 20
8537.615740215093
 30
0.0
 11
5516.904276711195
 21
8537.615740215093
 31
0.0
  0
LINE
  5
264C8
330
20DFC
100
AcDbEntity
  8
寸法
 62
     0
 48
50.0
370
    -2
100
AcDbLine
 10
5371.904276711195
 20
8537.615740215093
 30
0.0
 11
5034.555034306277
 21
8537.615740215093
 31
0.0
  0
LINE
  5
264C9
330
20DFC
100
AcDbEntity
  8
寸法
 62
     0
 48
50.0
370
    -2
100
AcDbLine
 10
5416.904276711195
 20
8537.615740215093
 30
0.0
 11
5371.904276711195
 21
8537.615740215093
 31
0.0
  0
INSERT
  5
264CA
330
20DFC
100
AcDbEntity
  8
寸法
 62
     0
 48
50.0
370
    -2
100
AcDbBlockReference
  2
_DOTSMALL
 10
5416.904276711195
 20
8537.615740215093
 30
0.0
 41
100.0
 42
100.0
 43
100.0
 50
180.0
  0
INSERT
  5
264CB
330
20DFC
100
AcDbEntity
  8
寸法
 62
     0
 48
50.0
370
    -2
100
AcDbBlockReference
  2
_DOTSMALL
 10
5371.904276711195
 20
8537.615740215093
 30
0.0
 41
100.0
 42
100.0
 43
100.0
  0
MTEXT
  5
264CC
330
20DFC
100
AcDbEntity
  8
寸法
 62
     7
 48
50.0
100
AcDbMText
 10
5100.729655508736
 20
8637.615740215094
 30
0.0
 40
120.0
 41
0.0
 71
     5
 72
     1
  1
\A1;a
  7
STYLE1
 73
     1
 44
1.0
1001
ACAD
1000
MTEXTBEGIN
1070
    73
1070
     1
1070
    44
1040
1.0
1070
    74
1070
     0
1000
MTEXTEND
  0
POINT
  5
264CD
330
20DFC
100
AcDbEntity
  8
DEFPOINTS
 62
     0
 48
50.0
100
AcDbPoint
 10
5371.904276711195
 20
8305.661876250084
 30
0.0
  0
POINT
  5
264CE
330
20DFC
100
AcDbEntity
  8
DEFPOINTS
 62
     0
 48
50.0
100
AcDbPoint
 10
5416.904276711195
 20
7579.395418156171
 30
0.0
  0
POINT
  5
264CF
330
20DFC
100
AcDbEntity
  8
DEFPOINTS
 62
     0
 48
50.0
100
AcDbPoint
 10
5416.904276711195
 20
8537.615740215093
 30
0.0
  0
ENDBLK
  5
20E09
330
20DFC
100
AcDbEntity
  8
0
 48
50.0
100
AcDbBlockEnd
  0
BLOCK
  5
2274E
330
22742
100
AcDbEntity
  8
0
 48
50.0
100
AcDbBlockBegin
  2
*D25
 70
     1
 10
0.0
 20
0.0
 30
0.0
  3
*D25
  1

  0
LINE
  5
264BA
330
22742
100
AcDbEntity
  8
寸法
 62
     0
 48
50.0
370
    -2
100
AcDbLine
 10
4773.969283041259
 20
7654.395418156179
 30
0.0
 11
4482.026186321867
 21
7654.395418156179
 31
0.0
  0
LINE
  5
264BB
330
22742
100
AcDbEntity
  8
寸法
 62
     0
 48
50.0
370
    -2
100
AcDbLine
 10
5396.904276711195
 20
7579.395418156171
 30
0.0
 11
4482.026186321867
 21
7579.395418156171
 31
0.0
  0
LINE
  5
264BC
330
22742
100
AcDbEntity
  8
寸法
 62
     0
 48
50.0
370
    -2
100
AcDbLine
 10
4542.026186321868
 20
7654.395418156179
 30
0.0
 11
4542.026186321868
 21
7754.395418156178
 31
0.0
  0
LINE
  5
264BD
330
22742
100
AcDbEntity
  8
寸法
 62
     0
 48
50.0
370
    -2
100
AcDbLine
 10
4542.026186321868
 20
7579.395418156171
 30
0.0
 11
4542.026186321868
 21
7479.395418156172
 31
0.0
  0
LINE
  5
264BE
330
22742
100
AcDbEntity
  8
寸法
 62
     0
 48
50.0
370
    -2
100
AcDbLine
 10
4542.026186321868
 20
7654.395418156179
 30
0.0
 11
4542.026186321868
 21
7579.395418156171
 31
0.0
  0
INSERT
  5
264BF
330
22742
100
AcDbEntity
  8
寸法
 62
     0
 48
50.0
370
    -2
100
AcDbBlockReference
  2
_DOTSMALL
 10
4542.026186321868
 20
7654.395418156179
 30
0.0
 41
100.0
 42
100.0
 43
100.0
 50
270.0
  0
INSERT
  5
264C0
330
22742
100
AcDbEntity
  8
寸法
 62
     0
 48
50.0
370
    -2
100
AcDbBlockReference
  2
_DOTSMALL
 10
4542.026186321868
 20
7579.395418156171
 30
0.0
 41
100.0
 42
100.0
 43
100.0
 50
90.0
  0
MTEXT
  5
264C1
330
22742
100
AcDbEntity
  8
寸法
 62
     7
 48
50.0
100
AcDbMText
 10
4442.026186321867
 20
7616.895418156177
 30
0.0
 40
120.0
 41
0.0
 71
     5
 72
     1
  1
\A1;c
  7
STYLE1
 11
0.0000000000000001
 21
1.0
 31
0.0
 73
     1
 44
1.0
1001
ACAD
1000
MTEXTBEGIN
1070
    73
1070
     1
1070
    44
1040
1.0
1070
    74
1070
     0
1000
MTEXTEND
  0
POINT
  5
264C2
330
22742
100
AcDbEntity
  8
DEFPOINTS
 62
     0
 48
50.0
100
AcDbPoint
 10
4793.969283041259
 20
7654.395418156179
 30
0.0
  0
POINT
  5
264C3
330
22742
100
AcDbEntity
  8
DEFPOINTS
 62
     0
 48
50.0
100
AcDbPoint
 10
5416.904276711195
 20
7579.395418156171
 30
0.0
  0
POINT
  5
264C4
330
22742
100
AcDbEntity
  8
DEFPOINTS
 62
     0
 48
50.0
100
AcDbPoint
 10
4542.026186321868
 20
7579.395418156171
 30
0.0
  0
ENDBLK
  5
2274F
330
22742
100
AcDbEntity
  8
0
 48
50.0
100
AcDbBlockEnd
  0
BLOCK
  5
22768
330
2275C
100
AcDbEntity
  8
0
 48
50.0
100
AcDbBlockBegin
  2
*D26
 70
     1
 10
0.0
 20
0.0
 30
0.0
  3
*D26
  1

  0
LINE
  5
264AF
330
2275C
100
AcDbEntity
  8
寸法
 62
     0
 48
50.0
370
    -2
100
AcDbLine
 10
5396.904276711195
 20
6039.395418156171
 30
0.0
 11
4482.026186321867
 21
6039.395418156171
 31
0.0
  0
LINE
  5
264B0
330
2275C
100
AcDbEntity
  8
寸法
 62
     0
 48
50.0
370
    -2
100
AcDbLine
 10
4773.969283041266
 20
5984.395418156196
 30
0.0
 11
4482.026186321867
 21
5984.395418156196
 31
0.0
  0
LINE
  5
264B1
330
2275C
100
AcDbEntity
  8
寸法
 62
     0
 48
50.0
370
    -2
100
AcDbLine
 10
4542.026186321868
 20
6039.395418156171
 30
0.0
 11
4542.026186321868
 21
6139.395418156171
 31
0.0
  0
LINE
  5
264B2
330
2275C
100
AcDbEntity
  8
寸法
 62
     0
 48
50.0
370
    -2
100
AcDbLine
 10
4542.026186321868
 20
5984.395418156196
 30
0.0
 11
4542.026186321868
 21
5884.395418156197
 31
0.0
  0
LINE
  5
264B3
330
2275C
100
AcDbEntity
  8
寸法
 62
     0
 48
50.0
370
    -2
100
AcDbLine
 10
4542.026186321868
 20
6039.395418156171
 30
0.0
 11
4542.026186321868
 21
5984.395418156196
 31
0.0
  0
INSERT
  5
264B4
330
2275C
100
AcDbEntity
  8
寸法
 62
     0
 48
50.0
370
    -2
100
AcDbBlockReference
  2
_DOTSMALL
 10
4542.026186321868
 20
6039.395418156171
 30
0.0
 41
100.0
 42
100.0
 43
100.0
 50
270.0
  0
INSERT
  5
264B5
330
2275C
100
AcDbEntity
  8
寸法
 62
     0
 48
50.0
370
    -2
100
AcDbBlockReference
  2
_DOTSMALL
 10
4542.026186321868
 20
5984.395418156196
 30
0.0
 41
100.0
 42
100.0
 43
100.0
 50
90.0
  0
MTEXT
  5
264B6
330
2275C
100
AcDbEntity
  8
寸法
 62
     7
 48
50.0
100
AcDbMText
 10
4442.026186321867
 20
6011.895418156185
 30
0.0
 40
120.0
 41
0.0
 71
     5
 72
     1
  1
\A1;b
  7
STYLE1
 11
0.0000000000000001
 21
1.0
 31
0.0
 73
     1
 44
1.0
1001
ACAD
1000
MTEXTBEGIN
1070
    73
1070
     1
1070
    44
1040
1.0
1070
    74
1070
     0
1000
MTEXTEND
  0
POINT
  5
264B7
330
2275C
100
AcDbEntity
  8
DEFPOINTS
 62
     0
 48
50.0
100
AcDbPoint
 10
5416.904276711195
 20
6039.395418156171
 30
0.0
  0
POINT
  5
264B8
330
2275C
100
AcDbEntity
  8
DEFPOINTS
 62
     0
 48
50.0
100
AcDbPoint
 10
4793.969283041266
 20
5984.395418156196
 30
0.0
  0
POINT
  5
264B9
330
2275C
100
AcDbEntity
  8
DEFPOINTS
 62
     0
 48
50.0
100
AcDbPoint
 10
4542.026186321868
 20
5984.395418156196
 30
0.0
  0
ENDBLK
  5
22769
330
2275C
100
AcDbEntity
  8
0
 48
50.0
100
AcDbBlockEnd
  0
BLOCK
  5
25CA1
330
25C96
100
AcDbEntity
  8
0
 48
50.0
100
AcDbBlockBegin
  2
*D27
 70
     1
 10
0.0
 20
0.0
 30
0.0
  3
*D27
  1

  0
LINE
  5
2642E
330
25C96
100
AcDbEntity
  8
寸法
 62
     0
 48
50.0
370
    -2
100
AcDbLine
 10
5396.904276711191
 20
7579.395418156174
 30
0.0
 11
4733.969283041263
 21
7579.395418156174
 31
0.0
  0
LINE
  5
2642F
330
25C96
100
AcDbEntity
  8
寸法
 62
     0
 48
50.0
370
    -2
100
AcDbLine
 10
5469.904276711191
 20
7456.395418156176
 30
0.0
 11
4733.969283041263
 21
7456.395418156176
 31
0.0
  0
LINE
  5
26430
330
25C96
100
AcDbEntity
  8
寸法
 62
     0
 48
50.0
370
    -2
100
AcDbLine
 10
4793.969283041263
 20
7456.395418156176
 30
0.0
 11
4793.969283041263
 21
7579.395418156174
 31
0.0
  0
LINE
  5
26431
330
25C96
100
AcDbEntity
  8
寸法
 62
     0
 48
50.0
370
    -2
100
AcDbLine
 10
4793.969283041263
 20
7579.395418156174
 30
0.0
 11
4793.969283041263
 21
7990.987301248214
 31
0.0
  0
INSERT
  5
26432
330
25C96
100
AcDbEntity
  8
寸法
 62
     0
 48
50.0
370
    -2
100
AcDbBlockReference
  2
_DOTSMALL
 10
4793.969283041263
 20
7456.395418156176
 30
0.0
 41
100.0
 42
100.0
 43
100.0
 50
270.0
  0
INSERT
  5
26433
330
25C96
100
AcDbEntity
  8
寸法
 62
     0
 48
50.0
370
    -2
100
AcDbBlockReference
  2
_DOTSMALL
 10
4793.969283041263
 20
7579.395418156174
 30
0.0
 41
100.0
 42
100.0
 43
100.0
 50
90.0
  0
MTEXT
  5
26434
330
25C96
100
AcDbEntity
  8
寸法
 62
     7
 48
50.0
100
AcDbMText
 10
4693.957472017641
 20
7852.502019873975
 30
0.0
 40
120.0
 41
0.0
 71
     5
 72
     1
  1
\A1;123
  7
STYLE1
 11
0.0000000000000001
 21
1.0
 31
0.0
 73
     1
 44
1.0
1001
ACAD
1000
MTEXTBEGIN
1070
    73
1070
     1
1070
    44
1040
1.0
1070
    74
1070
     0
1000
MTEXTEND
  0
POINT
  5
26435
330
25C96
100
AcDbEntity
  8
DEFPOINTS
 62
     0
 48
50.0
100
AcDbPoint
 10
5416.904276711192
 20
7579.395418156174
 30
0.0
  0
POINT
  5
26436
330
25C96
100
AcDbEntity
  8
DEFPOINTS
 62
     0
 48
50.0
100
AcDbPoint
 10
5489.904276711191
 20
7456.395418156176
 30
0.0
  0
POINT
  5
26437
330
25C96
100
AcDbEntity
  8
DEFPOINTS
 62
     0
 48
50.0
100
AcDbPoint
 10
4793.969283041263
 20
7456.395418156176
 30
0.0
  0
ENDBLK
  5
25CA2
330
25C96
100
AcDbEntity
  8
0
 48
50.0
100
AcDbBlockEnd
  0
BLOCK
  5
25CB8
330
25CAD
100
AcDbEntity
  8
0
 48
50.0
100
AcDbBlockBegin
  2
*D28
 70
     1
 10
0.0
 20
0.0
 30
0.0
  3
*D28
  1

  0
LINE
  5
26424
330
25CAD
100
AcDbEntity
  8
寸法
 62
     0
 48
50.0
370
    -2
100
AcDbLine
 10
5539.904276711191
 20
7526.395418156174
 30
0.0
 11
5539.904276711191
 21
8365.661876250085
 31
0.0
  0
LINE
  5
26425
330
25CAD
100
AcDbEntity
  8
寸法
 62
     0
 48
50.0
370
    -2
100
AcDbLine
 10
5416.904276711192
 20
7599.395418156174
 30
0.0
 11
5416.904276711192
 21
8365.661876250085
 31
0.0
  0
LINE
  5
26426
330
25CAD
100
AcDbEntity
  8
寸法
 62
     0
 48
50.0
370
    -2
100
AcDbLine
 10
5539.904276711191
 20
8305.661876250086
 30
0.0
 11
5416.904276711192
 21
8305.661876250086
 31
0.0
  0
LINE
  5
26427
330
25CAD
100
AcDbEntity
  8
寸法
 62
     0
 48
50.0
370
    -2
100
AcDbLine
 10
5416.904276711192
 20
8305.661876250086
 30
0.0
 11
5005.312393619154
 21
8305.661876250086
 31
0.0
  0
INSERT
  5
26428
330
25CAD
100
AcDbEntity
  8
寸法
 62
     0
 48
50.0
370
    -2
100
AcDbBlockReference
  2
_DOTSMALL
 10
5539.904276711191
 20
8305.661876250086
 30
0.0
 41
100.0
 42
100.0
 43
100.0
  0
INSERT
  5
26429
330
25CAD
100
AcDbEntity
  8
寸法
 62
     0
 48
50.0
370
    -2
100
AcDbBlockReference
  2
_DOTSMALL
 10
5416.904276711192
 20
8305.661876250086
 30
0.0
 41
100.0
 42
100.0
 43
100.0
 50
180.0
  0
MTEXT
  5
2642A
330
25CAD
100
AcDbEntity
  8
寸法
 62
     7
 48
50.0
100
AcDbMText
 10
5143.797674993393
 20
8405.673687273708
 30
0.0
 40
120.0
 41
0.0
 71
     5
 72
     1
  1
\A1;123
  7
STYLE1
 73
     1
 44
1.0
1001
ACAD
1000
MTEXTBEGIN
1070
    73
1070
     1
1070
    44
1040
1.0
1070
    74
1070
     0
1000
MTEXTEND
  0
POINT
  5
2642B
330
25CAD
100
AcDbEntity
  8
DEFPOINTS
 62
     0
 48
50.0
100
AcDbPoint
 10
5539.904276711191
 20
7506.395418156175
 30
0.0
  0
POINT
  5
2642C
330
25CAD
100
AcDbEntity
  8
DEFPOINTS
 62
     0
 48
50.0
100
AcDbPoint
 10
5416.904276711192
 20
7579.395418156174
 30
0.0
  0
POINT
  5
2642D
330
25CAD
100
AcDbEntity
  8
DEFPOINTS
 62
     0
 48
50.0
100
AcDbPoint
 10
5416.904276711192
 20
8305.661876250086
 30
0.0
  0
ENDBLK
  5
25CB9
330
25CAD
100
AcDbEntity
  8
0
 48
50.0
100
AcDbBlockEnd
  0
BLOCK
  5
25CD0
330
25CC7
100
AcDbEntity
  8
0
 48
50.0
100
AcDbBlockBegin
  2
*D29
 70
     1
 10
0.0
 20
0.0
 30
0.0
  3
*D29
  1

  0
LINE
  5
2641B
330
25CC7
100
AcDbEntity
  8
寸法
 62
     0
 48
50.0
370
    -2
100
AcDbLine
 10
6943.904276711191
 20
7526.395418156174
 30
0.0
 11
6943.904276711191
 21
8365.661876250085
 31
0.0
  0
LINE
  5
2641C
330
25CC7
100
AcDbEntity
  8
寸法
 62
     0
 48
50.0
370
    -2
100
AcDbLine
 10
5539.904276711191
 20
7526.395418156174
 30
0.0
 11
5539.904276711191
 21
8365.661876250085
 31
0.0
  0
LINE
  5
2641D
330
25CC7
100
AcDbEntity
  8
寸法
 62
     0
 48
50.0
370
    -2
100
AcDbLine
 10
6943.904276711191
 20
8305.661876250086
 30
0.0
 11
5539.904276711191
 21
8305.661876250086
 31
0.0
  0
INSERT
  5
2641E
330
25CC7
100
AcDbEntity
  8
寸法
 62
     0
 48
50.0
370
    -2
100
AcDbBlockReference
  2
_DOTSMALL
 10
6943.904276711191
 20
8305.661876250086
 30
0.0
 41
100.0
 42
100.0
 43
100.0
  0
INSERT
  5
2641F
330
25CC7
100
AcDbEntity
  8
寸法
 62
     0
 48
50.0
370
    -2
100
AcDbBlockReference
  2
_DOTSMALL
 10
5539.904276711191
 20
8305.661876250086
 30
0.0
 41
100.0
 42
100.0
 43
100.0
 50
180.0
  0
MTEXT
  5
26420
330
25CC7
100
AcDbEntity
  8
寸法
 62
     7
 48
50.0
100
AcDbMText
 10
6241.904276711192
 20
8405.661876250086
 30
0.0
 40
120.0
 41
0.0
 71
     5
 72
     1
  1
\A1;1404
  7
STYLE1
 73
     1
 44
1.0
1001
ACAD
1000
MTEXTBEGIN
1070
    73
1070
     1
1070
    44
1040
1.0
1070
    74
1070
     0
1000
MTEXTEND
  0
POINT
  5
26421
330
25CC7
100
AcDbEntity
  8
DEFPOINTS
 62
     0
 48
50.0
100
AcDbPoint
 10
6943.904276711191
 20
7506.395418156175
 30
0.0
  0
POINT
  5
26422
330
25CC7
100
AcDbEntity
  8
DEFPOINTS
 62
     0
 48
50.0
100
AcDbPoint
 10
5539.904276711191
 20
7506.395418156175
 30
0.0
  0
POINT
  5
26423
330
25CC7
100
AcDbEntity
  8
DEFPOINTS
 62
     0
 48
50.0
100
AcDbPoint
 10
5539.904276711191
 20
8305.661876250086
 30
0.0
  0
ENDBLK
  5
25CD1
330
25CC7
100
AcDbEntity
  8
0
 48
50.0
100
AcDbBlockEnd
  0
BLOCK
  5
25CDD
330
25CD2
100
AcDbEntity
  8
0
 48
50.0
100
AcDbBlockBegin
  2
*D30
 70
     1
 10
0.0
 20
0.0
 30
0.0
  3
*D30
  1

  0
LINE
  5
26411
330
25CD2
100
AcDbEntity
  8
寸法
 62
     0
 48
50.0
370
    -2
100
AcDbLine
 10
6609.15895872284
 20
7579.395418156145
 30
0.0
 11
6675.12400202978
 21
7579.395418156145
 31
0.0
  0
LINE
  5
26412
330
25CD2
100
AcDbEntity
  8
寸法
 62
     0
 48
50.0
370
    -2
100
AcDbLine
 10
6609.15895872284
 20
7379.395418156177
 30
0.0
 11
6675.12400202978
 21
7379.395418156177
 31
0.0
  0
LINE
  5
26413
330
25CD2
100
AcDbEntity
  8
寸法
 62
     0
 48
50.0
370
    -2
100
AcDbLine
 10
6615.12400202978
 20
7379.395418156177
 30
0.0
 11
6615.12400202978
 21
7579.395418156145
 31
0.0
  0
LINE
  5
26414
330
25CD2
100
AcDbEntity
  8
寸法
 62
     0
 48
50.0
370
    -2
100
AcDbLine
 10
6615.12400202978
 20
7579.395418156145
 30
0.0
 11
6615.12400202978
 21
8015.929866975042
 31
0.0
  0
INSERT
  5
26415
330
25CD2
100
AcDbEntity
  8
寸法
 62
     0
 48
50.0
370
    -2
100
AcDbBlockReference
  2
_DOTSMALL
 10
6615.12400202978
 20
7379.395418156177
 30
0.0
 41
100.0
 42
100.0
 43
100.0
 50
270.0
  0
INSERT
  5
26416
330
25CD2
100
AcDbEntity
  8
寸法
 62
     0
 48
50.0
370
    -2
100
AcDbBlockReference
  2
_DOTSMALL
 10
6615.12400202978
 20
7579.395418156145
 30
0.0
 41
100.0
 42
100.0
 43
100.0
 50
90.0
  0
MTEXT
  5
26417
330
25CD2
100
AcDbEntity
  8
寸法
 62
     7
 48
50.0
100
AcDbMText
 10
6515.112191006157
 20
7866.359000833312
 30
0.0
 40
120.0
 41
0.0
 71
     5
 72
     1
  1
\A1;200
  7
STYLE1
 11
0.0000000000000001
 21
1.0
 31
0.0
 73
     1
 44
1.0
1001
ACAD
1000
MTEXTBEGIN
1070
    73
1070
     1
1070
    44
1040
1.0
1070
    74
1070
     0
1000
MTEXTEND
  0
POINT
  5
26418
330
25CD2
100
AcDbEntity
  8
DEFPOINTS
 62
     0
 48
50.0
100
AcDbPoint
 10
6589.15895872284
 20
7579.395418156145
 30
0.0
  0
POINT
  5
26419
330
25CD2
100
AcDbEntity
  8
DEFPOINTS
 62
     0
 48
50.0
100
AcDbPoint
 10
6589.15895872284
 20
7379.395418156177
 30
0.0
  0
POINT
  5
2641A
330
25CD2
100
AcDbEntity
  8
DEFPOINTS
 62
     0
 48
50.0
100
AcDbPoint
 10
6615.12400202978
 20
7379.395418156177
 30
0.0
  0
ENDBLK
  5
25CDE
330
25CD2
100
AcDbEntity
  8
0
 48
50.0
100
AcDbBlockEnd
  0
BLOCK
  5
25CE9
330
25CDF
100
AcDbEntity
  8
0
 48
50.0
100
AcDbBlockBegin
  2
*D31
 70
     1
 10
0.0
 20
0.0
 30
0.0
  3
*D31
  1

  0
LINE
  5
26576
330
25CDF
100
AcDbEntity
  8
寸法
 62
     0
 48
50.0
370
    -2
100
AcDbLine
 10
10341.9042767112
 20
6916.395418156175
 30
0.0
 11
10341.9042767112
 21
8122.004234826423
 31
0.0
  0
LINE
  5
26577
330
25CDF
100
AcDbEntity
  8
寸法
 62
     0
 48
50.0
370
    -2
100
AcDbLine
 10
9521.904276711198
 20
6919.395418156175
 30
0.0
 11
9521.904276711198
 21
8122.004234826423
 31
0.0
  0
LINE
  5
26578
330
25CDF
100
AcDbEntity
  8
寸法
 62
     0
 48
50.0
370
    -2
100
AcDbLine
 10
10341.9042767112
 20
8062.004234826423
 30
0.0
 11
9521.904276711198
 21
8062.004234826423
 31
0.0
  0
INSERT
  5
26579
330
25CDF
100
AcDbEntity
  8
寸法
 62
     0
 48
50.0
370
    -2
100
AcDbBlockReference
  2
_DOTSMALL
 10
10341.9042767112
 20
8062.004234826423
 30
0.0
 41
100.0
 42
100.0
 43
100.0
  0
INSERT
  5
2657A
330
25CDF
100
AcDbEntity
  8
寸法
 62
     0
 48
50.0
370
    -2
100
AcDbBlockReference
  2
_DOTSMALL
 10
9521.904276711198
 20
8062.004234826423
 30
0.0
 41
100.0
 42
100.0
 43
100.0
 50
180.0
  0
MTEXT
  5
2657B
330
25CDF
100
AcDbEntity
  8
寸法
 62
     7
 48
50.0
100
AcDbMText
 10
9931.9042767112
 20
8162.016045850045
 30
0.0
 40
120.0
 41
0.0
 71
     5
 72
     1
  1
\A1;820
  7
STYLE1
 73
     1
 44
1.0
1001
ACAD
1000
MTEXTBEGIN
1070
    73
1070
     1
1070
    44
1040
1.0
1070
    74
1070
     0
1000
MTEXTEND
  0
POINT
  5
2657C
330
25CDF
100
AcDbEntity
  8
DEFPOINTS
 62
     0
 48
50.0
100
AcDbPoint
 10
10341.9042767112
 20
6896.395418156174
 30
0.0
  0
POINT
  5
2657D
330
25CDF
100
AcDbEntity
  8
DEFPOINTS
 62
     0
 48
50.0
100
AcDbPoint
 10
9521.904276711198
 20
6899.395418156174
 30
0.0
  0
POINT
  5
2657E
330
25CDF
100
AcDbEntity
  8
DEFPOINTS
 62
     0
 48
50.0
100
AcDbPoint
 10
9521.904276711198
 20
8062.004234826423
 30
0.0
  0
ENDBLK
  5
25CEA
330
25CDF
100
AcDbEntity
  8
0
 48
50.0
100
AcDbBlockEnd
  0
BLOCK
  5
25CF5
330
25CEB
100
AcDbEntity
  8
0
 48
50.0
100
AcDbBlockBegin
  2
*D32
 70
     1
 10
0.0
 20
0.0
 30
0.0
  3
*D32
  1

  0
LINE
  5
26564
330
25CEB
100
AcDbEntity
  8
寸法
 62
     0
 48
50.0
370
    -2
100
AcDbLine
 10
9521.904276711198
 20
6919.395418156175
 30
0.0
 11
9521.904276711198
 21
8122.004234826423
 31
0.0
  0
LINE
  5
26565
330
25CEB
100
AcDbEntity
  8
寸法
 62
     0
 48
50.0
370
    -2
100
AcDbLine
 10
8701.904276711198
 20
6916.395418156175
 30
0.0
 11
8701.904276711198
 21
8122.004234826423
 31
0.0
  0
LINE
  5
26566
330
25CEB
100
AcDbEntity
  8
寸法
 62
     0
 48
50.0
370
    -2
100
AcDbLine
 10
9521.904276711198
 20
8062.004234826423
 30
0.0
 11
8701.904276711198
 21
8062.004234826423
 31
0.0
  0
INSERT
  5
26567
330
25CEB
100
AcDbEntity
  8
寸法
 62
     0
 48
50.0
370
    -2
100
AcDbBlockReference
  2
_DOTSMALL
 10
9521.904276711198
 20
8062.004234826423
 30
0.0
 41
100.0
 42
100.0
 43
100.0
  0
INSERT
  5
26568
330
25CEB
100
AcDbEntity
  8
寸法
 62
     0
 48
50.0
370
    -2
100
AcDbBlockReference
  2
_DOTSMALL
 10
8701.904276711198
 20
8062.004234826423
 30
0.0
 41
100.0
 42
100.0
 43
100.0
 50
180.0
  0
MTEXT
  5
26569
330
25CEB
100
AcDbEntity
  8
寸法
 62
     7
 48
50.0
100
AcDbMText
 10
9111.904276711198
 20
8162.016045850045
 30
0.0
 40
120.0
 41
0.0
 71
     5
 72
     1
  1
\A1;820
  7
STYLE1
 73
     1
 44
1.0
1001
ACAD
1000
MTEXTBEGIN
1070
    73
1070
     1
1070
    44
1040
1.0
1070
    74
1070
     0
1000
MTEXTEND
  0
POINT
  5
2656A
330
25CEB
100
AcDbEntity
  8
DEFPOINTS
 62
     0
 48
50.0
100
AcDbPoint
 10
9521.904276711198
 20
6899.395418156174
 30
0.0
  0
POINT
  5
2656B
330
25CEB
100
AcDbEntity
  8
DEFPOINTS
 62
     0
 48
50.0
100
AcDbPoint
 10
8701.904276711198
 20
6896.395418156174
 30
0.0
  0
POINT
  5
2656C
330
25CEB
100
AcDbEntity
  8
DEFPOINTS
 62
     0
 48
50.0
100
AcDbPoint
 10
8701.904276711198
 20
8062.004234826423
 30
0.0
  0
ENDBLK
  5
25CF6
330
25CEB
100
AcDbEntity
  8
0
 48
50.0
100
AcDbBlockEnd
  0
BLOCK
  5
25D01
330
25CF7
100
AcDbEntity
  8
0
 48
50.0
100
AcDbBlockBegin
  2
*D33
 70
     1
 10
0.0
 20
0.0
 30
0.0
  3
*D33
  1

  0
LINE
  5
2656D
330
25CF7
100
AcDbEntity
  8
寸法
 62
     0
 48
50.0
370
    -2
100
AcDbLine
 10
11166.90427671119
 20
7599.395418156174
 30
0.0
 11
11166.90427671119
 21
8122.004234826423
 31
0.0
  0
LINE
  5
2656E
330
25CF7
100
AcDbEntity
  8
寸法
 62
     0
 48
50.0
370
    -2
100
AcDbLine
 10
10341.9042767112
 20
6916.395418156175
 30
0.0
 11
10341.9042767112
 21
8122.004234826423
 31
0.0
  0
LINE
  5
2656F
330
25CF7
100
AcDbEntity
  8
寸法
 62
     0
 48
50.0
370
    -2
100
AcDbLine
 10
11166.90427671119
 20
8062.004234826423
 30
0.0
 11
10341.9042767112
 21
8062.004234826423
 31
0.0
  0
INSERT
  5
26570
330
25CF7
100
AcDbEntity
  8
寸法
 62
     0
 48
50.0
370
    -2
100
AcDbBlockReference
  2
_DOTSMALL
 10
11166.90427671119
 20
8062.004234826423
 30
0.0
 41
100.0
 42
100.0
 43
100.0
  0
INSERT
  5
26571
330
25CF7
100
AcDbEntity
  8
寸法
 62
     0
 48
50.0
370
    -2
100
AcDbBlockReference
  2
_DOTSMALL
 10
10341.9042767112
 20
8062.004234826423
 30
0.0
 41
100.0
 42
100.0
 43
100.0
 50
180.0
  0
MTEXT
  5
26572
330
25CF7
100
AcDbEntity
  8
寸法
 62
     7
 48
50.0
100
AcDbMText
 10
10754.40427671119
 20
8162.016045850045
 30
0.0
 40
120.0
 41
0.0
 71
     5
 72
     1
  1
\A1;825
  7
STYLE1
 73
     1
 44
1.0
1001
ACAD
1000
MTEXTBEGIN
1070
    73
1070
     1
1070
    44
1040
1.0
1070
    74
1070
     0
1000
MTEXTEND
  0
POINT
  5
26573
330
25CF7
100
AcDbEntity
  8
DEFPOINTS
 62
     0
 48
50.0
100
AcDbPoint
 10
11166.90427671119
 20
7579.395418156174
 30
0.0
  0
POINT
  5
26574
330
25CF7
100
AcDbEntity
  8
DEFPOINTS
 62
     0
 48
50.0
100
AcDbPoint
 10
10341.9042767112
 20
6896.395418156174
 30
0.0
  0
POINT
  5
26575
330
25CF7
100
AcDbEntity
  8
DEFPOINTS
 62
     0
 48
50.0
100
AcDbPoint
 10
10341.9042767112
 20
8062.004234826423
 30
0.0
  0
ENDBLK
  5
25D02
330
25CF7
100
AcDbEntity
  8
0
 48
50.0
100
AcDbBlockEnd
  0
BLOCK
  5
25D0D
330
25D03
100
AcDbEntity
  8
0
 48
50.0
100
AcDbBlockBegin
  2
*D34
 70
     1
 10
0.0
 20
0.0
 30
0.0
  3
*D34
  1

  0
LINE
  5
263ED
330
25D03
100
AcDbEntity
  8
寸法
 62
     0
 48
50.0
370
    -2
100
AcDbLine
 10
11043.90427671119
 20
7526.395418156174
 30
0.0
 11
11043.90427671119
 21
8365.661876250085
 31
0.0
  0
LINE
  5
263EE
330
25D03
100
AcDbEntity
  8
寸法
 62
     0
 48
50.0
370
    -2
100
AcDbLine
 10
8583.904276711193
 20
7526.395418156174
 30
0.0
 11
8583.904276711193
 21
8365.661876250085
 31
0.0
  0
LINE
  5
263EF
330
25D03
100
AcDbEntity
  8
寸法
 62
     0
 48
50.0
370
    -2
100
AcDbLine
 10
11043.90427671119
 20
8305.661876250086
 30
0.0
 11
8583.904276711193
 21
8305.661876250086
 31
0.0
  0
INSERT
  5
263F0
330
25D03
100
AcDbEntity
  8
寸法
 62
     0
 48
50.0
370
    -2
100
AcDbBlockReference
  2
_DOTSMALL
 10
11043.90427671119
 20
8305.661876250086
 30
0.0
 41
100.0
 42
100.0
 43
100.0
  0
INSERT
  5
263F1
330
25D03
100
AcDbEntity
  8
寸法
 62
     0
 48
50.0
370
    -2
100
AcDbBlockReference
  2
_DOTSMALL
 10
8583.904276711193
 20
8305.661876250086
 30
0.0
 41
100.0
 42
100.0
 43
100.0
 50
180.0
  0
MTEXT
  5
263F2
330
25D03
100
AcDbEntity
  8
寸法
 62
     7
 48
50.0
100
AcDbMText
 10
9813.904276711191
 20
8405.673687273708
 30
0.0
 40
120.0
 41
0.0
 71
     5
 72
     1
  1
\A1;2460
  7
STYLE1
 73
     1
 44
1.0
1001
ACAD
1000
MTEXTBEGIN
1070
    73
1070
     1
1070
    44
1040
1.0
1070
    74
1070
     0
1000
MTEXTEND
  0
POINT
  5
263F3
330
25D03
100
AcDbEntity
  8
DEFPOINTS
 62
     0
 48
50.0
100
AcDbPoint
 10
11043.90427671119
 20
7506.395418156175
 30
0.0
  0
POINT
  5
263F4
330
25D03
100
AcDbEntity
  8
DEFPOINTS
 62
     0
 48
50.0
100
AcDbPoint
 10
8583.904276711193
 20
7506.395418156175
 30
0.0
  0
POINT
  5
263F5
330
25D03
100
AcDbEntity
  8
DEFPOINTS
 62
     0
 48
50.0
100
AcDbPoint
 10
8583.904276711193
 20
8305.661876250086
 30
0.0
  0
ENDBLK
  5
25D0E
330
25D03
100
AcDbEntity
  8
0
 48
50.0
100
AcDbBlockEnd
  0
BLOCK
  5
25D27
330
25D1C
100
AcDbEntity
  8
0
 48
50.0
100
AcDbBlockBegin
  2
*D35
 70
     1
 10
0.0
 20
0.0
 30
0.0
  3
*D35
  1

  0
LINE
  5
263E3
330
25D1C
100
AcDbEntity
  8
寸法
 62
     0
 48
50.0
370
    -2
100
AcDbLine
 10
11166.90427671119
 20
7599.395418156174
 30
0.0
 11
11166.90427671119
 21
8365.661876250085
 31
0.0
  0
LINE
  5
263E4
330
25D1C
100
AcDbEntity
  8
寸法
 62
     0
 48
50.0
370
    -2
100
AcDbLine
 10
11043.90427671119
 20
7526.395418156174
 30
0.0
 11
11043.90427671119
 21
8365.661876250085
 31
0.0
  0
LINE
  5
263E5
330
25D1C
100
AcDbEntity
  8
寸法
 62
     0
 48
50.0
370
    -2
100
AcDbLine
 10
11043.90427671119
 20
8305.661876250086
 30
0.0
 11
11166.90427671119
 21
8305.661876250086
 31
0.0
  0
LINE
  5
263E6
330
25D1C
100
AcDbEntity
  8
寸法
 62
     0
 48
50.0
370
    -2
100
AcDbLine
 10
11166.90427671119
 20
8305.661876250086
 30
0.0
 11
11578.49615980323
 21
8305.661876250086
 31
0.0
  0
INSERT
  5
263E7
330
25D1C
100
AcDbEntity
  8
寸法
 62
     0
 48
50.0
370
    -2
100
AcDbBlockReference
  2
_DOTSMALL
 10
11043.90427671119
 20
8305.661876250086
 30
0.0
 41
100.0
 42
100.0
 43
100.0
 50
180.0
  0
INSERT
  5
263E8
330
25D1C
100
AcDbEntity
  8
寸法
 62
     0
 48
50.0
370
    -2
100
AcDbBlockReference
  2
_DOTSMALL
 10
11166.90427671119
 20
8305.661876250086
 30
0.0
 41
100.0
 42
100.0
 43
100.0
  0
MTEXT
  5
263E9
330
25D1C
100
AcDbEntity
  8
寸法
 62
     7
 48
50.0
100
AcDbMText
 10
11440.01087842899
 20
8405.673687273708
 30
0.0
 40
120.0
 41
0.0
 71
     5
 72
     1
  1
\A1;123
  7
STYLE1
 73
     1
 44
1.0
1001
ACAD
1000
MTEXTBEGIN
1070
    73
1070
     1
1070
    44
1040
1.0
1070
    74
1070
     0
1000
MTEXTEND
  0
POINT
  5
263EA
330
25D1C
100
AcDbEntity
  8
DEFPOINTS
 62
     0
 48
50.0
100
AcDbPoint
 10
11166.90427671119
 20
7579.395418156174
 30
0.0
  0
POINT
  5
263EB
330
25D1C
100
AcDbEntity
  8
DEFPOINTS
 62
     0
 48
50.0
100
AcDbPoint
 10
11043.90427671119
 20
7506.395418156175
 30
0.0
  0
POINT
  5
263EC
330
25D1C
100
AcDbEntity
  8
DEFPOINTS
 62
     0
 48
50.0
100
AcDbPoint
 10
11043.90427671119
 20
8305.661876250086
 30
0.0
  0
ENDBLK
  5
25D28
330
25D1C
100
AcDbEntity
  8
0
 48
50.0
100
AcDbBlockEnd
  0
BLOCK
  5
25D34
330
25D29
100
AcDbEntity
  8
0
 48
50.0
100
AcDbBlockBegin
  2
*D36
 70
     1
 10
0.0
 20
0.0
 30
0.0
  3
*D36
  1

  0
LINE
  5
26621
330
25D29
100
AcDbEntity
  8
寸法
 62
     0
 48
50.0
370
    -2
100
AcDbLine
 10
11166.90427671119
 20
7080.761475225751
 30
0.0
 11
11166.90427671119
 21
7023.768211186918
 31
0.0
  0
LINE
  5
26622
330
25D29
100
AcDbEntity
  8
寸法
 62
     0
 48
50.0
370
    -2
100
AcDbLine
 10
11046.90427671119
 20
7103.768211186919
 30
0.0
 11
11046.90427671119
 21
7143.768211186918
 31
0.0
  0
LINE
  5
26623
330
25D29
100
AcDbEntity
  8
寸法
 62
     0
 48
50.0
370
    -2
100
AcDbLine
 10
11046.90427671119
 20
7083.768211186918
 30
0.0
 11
11166.90427671119
 21
7083.768211186918
 31
0.0
  0
LINE
  5
26624
330
25D29
100
AcDbEntity
  8
寸法
 62
     0
 48
50.0
370
    -2
100
AcDbLine
 10
11166.90427671119
 20
7083.768211186918
 30
0.0
 11
11573.01057592379
 21
7083.768211186918
 31
0.0
  0
INSERT
  5
26625
330
25D29
100
AcDbEntity
  8
寸法
 62
     0
 48
50.0
370
    -2
100
AcDbBlockReference
  2
_DOTSMALL
 10
11046.90427671119
 20
7083.768211186918
 30
0.0
 41
100.0
 42
100.0
 43
100.0
 50
180.0
  0
INSERT
  5
26626
330
25D29
100
AcDbEntity
  8
寸法
 62
     0
 48
50.0
370
    -2
100
AcDbBlockReference
  2
_DOTSMALL
 10
11166.90427671119
 20
7083.768211186918
 30
0.0
 41
100.0
 42
100.0
 43
100.0
  0
MTEXT
  5
26627
330
25D29
100
AcDbEntity
  8
寸法
 62
     7
 48
50.0
100
AcDbMText
 10
11436.9633318293
 20
7183.78002221054
 30
0.0
 40
120.0
 41
0.0
 71
     5
 72
     1
  1
\A1;120
  7
STYLE1
 73
     1
 44
1.0
1001
ACAD
1000
MTEXTBEGIN
1070
    73
1070
     1
1070
    44
1040
1.0
1070
    74
1070
     0
1000
MTEXTEND
  0
POINT
  5
26628
330
25D29
100
AcDbEntity
  8
DEFPOINTS
 62
     0
 48
50.0
100
AcDbPoint
 10
11166.90427671119
 20
7100.761475225751
 30
0.0
  0
POINT
  5
26629
330
25D29
100
AcDbEntity
  8
DEFPOINTS
 62
     0
 48
50.0
100
AcDbPoint
 10
11046.90427671119
 20
7083.768211186918
 30
0.0
  0
POINT
  5
2662A
330
25D29
100
AcDbEntity
  8
DEFPOINTS
 62
     0
 48
50.0
100
AcDbPoint
 10
11046.90427671119
 20
7083.768211186918
 30
0.0
  0
ENDBLK
  5
25D35
330
25D29
100
AcDbEntity
  8
0
 48
50.0
100
AcDbBlockEnd
  0
BLOCK
  5
25D40
330
25D36
100
AcDbEntity
  8
0
 48
50.0
100
AcDbBlockBegin
  2
*D37
 70
     1
 10
0.0
 20
0.0
 30
0.0
  3
*D37
  1

  0
LINE
  5
26552
330
25D36
100
AcDbEntity
  8
寸法
 62
     0
 48
50.0
370
    -2
100
AcDbLine
 10
8701.904276711198
 20
6916.395418156175
 30
0.0
 11
8701.904276711198
 21
8122.004234826423
 31
0.0
  0
LINE
  5
26553
330
25D36
100
AcDbEntity
  8
寸法
 62
     0
 48
50.0
370
    -2
100
AcDbLine
 10
7881.9042767112
 20
6966.395418156174
 30
0.0
 11
7881.9042767112
 21
8122.004234826423
 31
0.0
  0
LINE
  5
26554
330
25D36
100
AcDbEntity
  8
寸法
 62
     0
 48
50.0
370
    -2
100
AcDbLine
 10
8701.904276711198
 20
8062.004234826423
 30
0.0
 11
7881.9042767112
 21
8062.004234826423
 31
0.0
  0
INSERT
  5
26555
330
25D36
100
AcDbEntity
  8
寸法
 62
     0
 48
50.0
370
    -2
100
AcDbBlockReference
  2
_DOTSMALL
 10
8701.904276711198
 20
8062.004234826423
 30
0.0
 41
100.0
 42
100.0
 43
100.0
  0
INSERT
  5
26556
330
25D36
100
AcDbEntity
  8
寸法
 62
     0
 48
50.0
370
    -2
100
AcDbBlockReference
  2
_DOTSMALL
 10
7881.9042767112
 20
8062.004234826423
 30
0.0
 41
100.0
 42
100.0
 43
100.0
 50
180.0
  0
MTEXT
  5
26557
330
25D36
100
AcDbEntity
  8
寸法
 62
     7
 48
50.0
100
AcDbMText
 10
8291.904276711198
 20
8162.016045850045
 30
0.0
 40
120.0
 41
0.0
 71
     5
 72
     1
  1
\A1;820
  7
STYLE1
 73
     1
 44
1.0
1001
ACAD
1000
MTEXTBEGIN
1070
    73
1070
     1
1070
    44
1040
1.0
1070
    74
1070
     0
1000
MTEXTEND
  0
POINT
  5
26558
330
25D36
100
AcDbEntity
  8
DEFPOINTS
 62
     0
 48
50.0
100
AcDbPoint
 10
8701.904276711198
 20
6896.395418156174
 30
0.0
  0
POINT
  5
26559
330
25D36
100
AcDbEntity
  8
DEFPOINTS
 62
     0
 48
50.0
100
AcDbPoint
 10
7881.9042767112
 20
6946.395418156175
 30
0.0
  0
POINT
  5
2655A
330
25D36
100
AcDbEntity
  8
DEFPOINTS
 62
     0
 48
50.0
100
AcDbPoint
 10
7881.9042767112
 20
8062.004234826423
 30
0.0
  0
ENDBLK
  5
25D41
330
25D36
100
AcDbEntity
  8
0
 48
50.0
100
AcDbBlockEnd
  0
BLOCK
  5
25D4C
330
25D42
100
AcDbEntity
  8
0
 48
50.0
100
AcDbBlockBegin
  2
*D38
 70
     1
 10
0.0
 20
0.0
 30
0.0
  3
*D38
  1

  0
LINE
  5
2649D
330
25D42
100
AcDbEntity
  8
寸法
 62
     0
 48
50.0
370
    -2
100
AcDbLine
 10
8583.904276711193
 20
7526.395418156174
 30
0.0
 11
8583.904276711193
 21
8365.661876250085
 31
0.0
  0
LINE
  5
2649E
330
25D42
100
AcDbEntity
  8
寸法
 62
     0
 48
50.0
370
    -2
100
AcDbLine
 10
6943.904276711191
 20
7526.395418156174
 30
0.0
 11
6943.904276711191
 21
8365.661876250085
 31
0.0
  0
LINE
  5
2649F
330
25D42
100
AcDbEntity
  8
寸法
 62
     0
 48
50.0
370
    -2
100
AcDbLine
 10
8583.904276711193
 20
8305.661876250086
 30
0.0
 11
6943.904276711191
 21
8305.661876250086
 31
0.0
  0
INSERT
  5
264A0
330
25D42
100
AcDbEntity
  8
寸法
 62
     0
 48
50.0
370
    -2
100
AcDbBlockReference
  2
_DOTSMALL
 10
8583.904276711193
 20
8305.661876250086
 30
0.0
 41
100.0
 42
100.0
 43
100.0
  0
INSERT
  5
264A1
330
25D42
100
AcDbEntity
  8
寸法
 62
     0
 48
50.0
370
    -2
100
AcDbBlockReference
  2
_DOTSMALL
 10
6943.904276711191
 20
8305.661876250086
 30
0.0
 41
100.0
 42
100.0
 43
100.0
 50
180.0
  0
MTEXT
  5
264A2
330
25D42
100
AcDbEntity
  8
寸法
 62
     7
 48
50.0
100
AcDbMText
 10
7763.904276711191
 20
8405.661876250086
 30
0.0
 40
120.0
 41
0.0
 71
     5
 72
     1
  1
\A1;1640
  7
STYLE1
 73
     1
 44
1.0
1001
ACAD
1000
MTEXTBEGIN
1070
    73
1070
     1
1070
    44
1040
1.0
1070
    74
1070
     0
1000
MTEXTEND
  0
POINT
  5
264A3
330
25D42
100
AcDbEntity
  8
DEFPOINTS
 62
     0
 48
50.0
100
AcDbPoint
 10
8583.904276711193
 20
7506.395418156175
 30
0.0
  0
POINT
  5
264A4
330
25D42
100
AcDbEntity
  8
DEFPOINTS
 62
     0
 48
50.0
100
AcDbPoint
 10
6943.904276711191
 20
7506.395418156175
 30
0.0
  0
POINT
  5
264A5
330
25D42
100
AcDbEntity
  8
DEFPOINTS
 62
     0
 48
50.0
100
AcDbPoint
 10
6943.904276711191
 20
8305.661876250086
 30
0.0
  0
ENDBLK
  5
25D4D
330
25D42
100
AcDbEntity
  8
0
 48
50.0
100
AcDbBlockEnd
  0
BLOCK
  5
25D58
330
25D4E
100
AcDbEntity
  8
0
 48
50.0
100
AcDbBlockBegin
  2
*D39
 70
     1
 10
0.0
 20
0.0
 30
0.0
  3
*D39
  1

  0
LINE
  5
26494
330
25D4E
100
AcDbEntity
  8
寸法
 62
     0
 48
50.0
370
    -2
100
AcDbLine
 10
5416.904276711192
 20
7599.395418156174
 30
0.0
 11
5416.904276711192
 21
8597.615740215093
 31
0.0
  0
LINE
  5
26495
330
25D4E
100
AcDbEntity
  8
寸法
 62
     0
 48
50.0
370
    -2
100
AcDbLine
 10
11166.90427671119
 20
7599.395418156174
 30
0.0
 11
11166.90427671119
 21
8597.615740215093
 31
0.0
  0
LINE
  5
26496
330
25D4E
100
AcDbEntity
  8
寸法
 62
     0
 48
50.0
370
    -2
100
AcDbLine
 10
5416.904276711192
 20
8537.615740215093
 30
0.0
 11
11166.90427671119
 21
8537.615740215093
 31
0.0
  0
INSERT
  5
26497
330
25D4E
100
AcDbEntity
  8
寸法
 62
     0
 48
50.0
370
    -2
100
AcDbBlockReference
  2
_DOTSMALL
 10
5416.904276711192
 20
8537.615740215093
 30
0.0
 41
100.0
 42
100.0
 43
100.0
 50
180.0
  0
INSERT
  5
26498
330
25D4E
100
AcDbEntity
  8
寸法
 62
     0
 48
50.0
370
    -2
100
AcDbBlockReference
  2
_DOTSMALL
 10
11166.90427671119
 20
8537.615740215093
 30
0.0
 41
100.0
 42
100.0
 43
100.0
  0
MTEXT
  5
26499
330
25D4E
100
AcDbEntity
  8
寸法
 62
     7
 48
50.0
100
AcDbMText
 10
8291.904276711191
 20
8637.615740215094
 30
0.0
 40
120.0
 41
0.0
 71
     5
 72
     1
  1
\A1;5750
  7
STYLE1
 73
     1
 44
1.0
1001
ACAD
1000
MTEXTBEGIN
1070
    73
1070
     1
1070
    44
1040
1.0
1070
    74
1070
     0
1000
MTEXTEND
  0
POINT
  5
2649A
330
25D4E
100
AcDbEntity
  8
DEFPOINTS
 62
     0
 48
50.0
100
AcDbPoint
 10
5416.904276711192
 20
7579.395418156174
 30
0.0
  0
POINT
  5
2649B
330
25D4E
100
AcDbEntity
  8
DEFPOINTS
 62
     0
 48
50.0
100
AcDbPoint
 10
11166.90427671119
 20
7579.395418156174
 30
0.0
  0
POINT
  5
2649C
330
25D4E
100
AcDbEntity
  8
DEFPOINTS
 62
     0
 48
50.0
100
AcDbPoint
 10
11166.90427671119
 20
8537.615740215093
 30
0.0
  0
ENDBLK
  5
25D59
330
25D4E
100
AcDbEntity
  8
0
 48
50.0
100
AcDbBlockEnd
  0
BLOCK
  5
25D64
330
25D5A
100
AcDbEntity
  8
0
 48
50.0
100
AcDbBlockBegin
  2
*D40
 70
     1
 10
0.0
 20
0.0
 30
0.0
  3
*D40
  1

  0
LINE
  5
26537
330
25D5A
100
AcDbEntity
  8
寸法
 62
     0
 48
50.0
370
    -2
100
AcDbLine
 10
7881.9042767112
 20
6966.395418156174
 30
0.0
 11
7881.9042767112
 21
8122.004234826423
 31
0.0
  0
LINE
  5
26538
330
25D5A
100
AcDbEntity
  8
寸法
 62
     0
 48
50.0
370
    -2
100
AcDbLine
 10
7061.904276711199
 20
6899.395418156174
 30
0.0
 11
7061.904276711199
 21
8122.004234826423
 31
0.0
  0
LINE
  5
26539
330
25D5A
100
AcDbEntity
  8
寸法
 62
     0
 48
50.0
370
    -2
100
AcDbLine
 10
7881.9042767112
 20
8062.004234826423
 30
0.0
 11
7061.904276711199
 21
8062.004234826423
 31
0.0
  0
INSERT
  5
2653A
330
25D5A
100
AcDbEntity
  8
寸法
 62
     0
 48
50.0
370
    -2
100
AcDbBlockReference
  2
_DOTSMALL
 10
7881.9042767112
 20
8062.004234826423
 30
0.0
 41
100.0
 42
100.0
 43
100.0
  0
INSERT
  5
2653B
330
25D5A
100
AcDbEntity
  8
寸法
 62
     0
 48
50.0
370
    -2
100
AcDbBlockReference
  2
_DOTSMALL
 10
7061.904276711199
 20
8062.004234826423
 30
0.0
 41
100.0
 42
100.0
 43
100.0
 50
180.0
  0
MTEXT
  5
2653C
330
25D5A
100
AcDbEntity
  8
寸法
 62
     7
 48
50.0
100
AcDbMText
 10
7471.904276711199
 20
8162.016045850045
 30
0.0
 40
120.0
 41
0.0
 71
     5
 72
     1
  1
\A1;820
  7
STYLE1
 73
     1
 44
1.0
1001
ACAD
1000
MTEXTBEGIN
1070
    73
1070
     1
1070
    44
1040
1.0
1070
    74
1070
     0
1000
MTEXTEND
  0
POINT
  5
2653D
330
25D5A
100
AcDbEntity
  8
DEFPOINTS
 62
     0
 48
50.0
100
AcDbPoint
 10
7881.9042767112
 20
6946.395418156175
 30
0.0
  0
POINT
  5
2653E
330
25D5A
100
AcDbEntity
  8
DEFPOINTS
 62
     0
 48
50.0
100
AcDbPoint
 10
7061.904276711199
 20
6879.395418156175
 30
0.0
  0
POINT
  5
2653F
330
25D5A
100
AcDbEntity
  8
DEFPOINTS
 62
     0
 48
50.0
100
AcDbPoint
 10
7061.904276711199
 20
8062.004234826423
 30
0.0
  0
ENDBLK
  5
25D65
330
25D5A
100
AcDbEntity
  8
0
 48
50.0
100
AcDbBlockEnd
  0
BLOCK
  5
25D6F
330
25D66
100
AcDbEntity
  8
0
 48
50.0
100
AcDbBlockBegin
  2
*D41
 70
     1
 10
0.0
 20
0.0
 30
0.0
  3
*D41
  1

  0
LINE
  5
2652E
330
25D66
100
AcDbEntity
  8
寸法
 62
     0
 48
50.0
370
    -2
100
AcDbLine
 10
7061.904276711199
 20
6899.395418156174
 30
0.0
 11
7061.904276711199
 21
8122.004234826423
 31
0.0
  0
LINE
  5
2652F
330
25D66
100
AcDbEntity
  8
寸法
 62
     0
 48
50.0
370
    -2
100
AcDbLine
 10
6241.904276711199
 20
6916.395418156175
 30
0.0
 11
6241.904276711199
 21
8122.004234826423
 31
0.0
  0
LINE
  5
26530
330
25D66
100
AcDbEntity
  8
寸法
 62
     0
 48
50.0
370
    -2
100
AcDbLine
 10
7061.904276711199
 20
8062.004234826423
 30
0.0
 11
6241.904276711199
 21
8062.004234826423
 31
0.0
  0
INSERT
  5
26531
330
25D66
100
AcDbEntity
  8
寸法
 62
     0
 48
50.0
370
    -2
100
AcDbBlockReference
  2
_DOTSMALL
 10
7061.904276711199
 20
8062.004234826423
 30
0.0
 41
100.0
 42
100.0
 43
100.0
  0
INSERT
  5
26532
330
25D66
100
AcDbEntity
  8
寸法
 62
     0
 48
50.0
370
    -2
100
AcDbBlockReference
  2
_DOTSMALL
 10
6241.904276711199
 20
8062.004234826423
 30
0.0
 41
100.0
 42
100.0
 43
100.0
 50
180.0
  0
MTEXT
  5
26533
330
25D66
100
AcDbEntity
  8
寸法
 62
     7
 48
50.0
100
AcDbMText
 10
6651.904276711198
 20
8162.016045850045
 30
0.0
 40
120.0
 41
0.0
 71
     5
 72
     1
  1
\A1;820
  7
STYLE1
 73
     1
 44
1.0
1001
ACAD
1000
MTEXTBEGIN
1070
    73
1070
     1
1070
    44
1040
1.0
1070
    74
1070
     0
1000
MTEXTEND
  0
POINT
  5
26534
330
25D66
100
AcDbEntity
  8
DEFPOINTS
 62
     0
 48
50.0
100
AcDbPoint
 10
7061.904276711199
 20
6879.395418156175
 30
0.0
  0
POINT
  5
26535
330
25D66
100
AcDbEntity
  8
DEFPOINTS
 62
     0
 48
50.0
100
AcDbPoint
 10
6241.904276711199
 20
6896.395418156174
 30
0.0
  0
POINT
  5
26536
330
25D66
100
AcDbEntity
  8
DEFPOINTS
 62
     0
 48
50.0
100
AcDbPoint
 10
6241.904276711199
 20
8062.004234826423
 30
0.0
  0
ENDBLK
  5
25D70
330
25D66
100
AcDbEntity
  8
0
 48
50.0
100
AcDbBlockEnd
  0
BLOCK
  5
25D7B
330
25D71
100
AcDbEntity
  8
0
 48
50.0
100
AcDbBlockBegin
  2
*D42
 70
     1
 10
0.0
 20
0.0
 30
0.0
  3
*D42
  1

  0
LINE
  5
264FF
330
25D71
100
AcDbEntity
  8
寸法
 62
     0
 48
50.0
370
    -2
100
AcDbLine
 10
5469.904276711191
 20
7456.395418156176
 30
0.0
 11
4733.969283041264
 21
7456.395418156176
 31
0.0
  0
LINE
  5
26500
330
25D71
100
AcDbEntity
  8
寸法
 62
     0
 48
50.0
370
    -2
100
AcDbLine
 10
5469.904276711199
 20
6237.395418156179
 30
0.0
 11
4733.969283041264
 21
6237.395418156179
 31
0.0
  0
LINE
  5
26501
330
25D71
100
AcDbEntity
  8
寸法
 62
     0
 48
50.0
370
    -2
100
AcDbLine
 10
4793.969283041263
 20
7456.395418156176
 30
0.0
 11
4793.969283041263
 21
6237.395418156179
 31
0.0
  0
INSERT
  5
26502
330
25D71
100
AcDbEntity
  8
寸法
 62
     0
 48
50.0
370
    -2
100
AcDbBlockReference
  2
_DOTSMALL
 10
4793.969283041263
 20
7456.395418156176
 30
0.0
 41
100.0
 42
100.0
 43
100.0
 50
90.0
  0
INSERT
  5
26503
330
25D71
100
AcDbEntity
  8
寸法
 62
     0
 48
50.0
370
    -2
100
AcDbBlockReference
  2
_DOTSMALL
 10
4793.969283041263
 20
6237.395418156179
 30
0.0
 41
100.0
 42
100.0
 43
100.0
 50
270.0
  0
MTEXT
  5
26504
330
25D71
100
AcDbEntity
  8
寸法
 62
     7
 48
50.0
100
AcDbMText
 10
4693.957472017641
 20
6846.895418156176
 30
0.0
 40
120.0
 41
0.0
 71
     5
 72
     1
  1
\A1;1219
  7
STYLE1
 11
0.0000000000000001
 21
1.0
 31
0.0
 73
     1
 44
1.0
1001
ACAD
1000
MTEXTBEGIN
1070
    73
1070
     1
1070
    44
1040
1.0
1070
    74
1070
     0
1000
MTEXTEND
  0
POINT
  5
26505
330
25D71
100
AcDbEntity
  8
DEFPOINTS
 62
     0
 48
50.0
100
AcDbPoint
 10
5489.904276711191
 20
7456.395418156176
 30
0.0
  0
POINT
  5
26506
330
25D71
100
AcDbEntity
  8
DEFPOINTS
 62
     0
 48
50.0
100
AcDbPoint
 10
5489.904276711198
 20
6237.395418156179
 30
0.0
  0
POINT
  5
26507
330
25D71
100
AcDbEntity
  8
DEFPOINTS
 62
     0
 48
50.0
100
AcDbPoint
 10
4793.969283041263
 20
6237.395418156179
 30
0.0
  0
ENDBLK
  5
25D7C
330
25D71
100
AcDbEntity
  8
0
 48
50.0
100
AcDbBlockEnd
  0
BLOCK
  5
25D87
330
25D7D
100
AcDbEntity
  8
0
 48
50.0
100
AcDbBlockBegin
  2
*D43
 70
     1
 10
0.0
 20
0.0
 30
0.0
  3
*D43
  1

  0
LINE
  5
26470
330
25D7D
100
AcDbEntity
  8
寸法
 62
     0
 48
50.0
370
    -2
100
AcDbLine
 10
5396.904276711191
 20
7579.395418156174
 30
0.0
 11
4482.026186321865
 21
7579.395418156174
 31
0.0
  0
LINE
  5
26471
330
25D7D
100
AcDbEntity
  8
寸法
 62
     0
 48
50.0
370
    -2
100
AcDbLine
 10
5396.904276711191
 20
6039.395418156175
 30
0.0
 11
4482.026186321864
 21
6039.395418156175
 31
0.0
  0
LINE
  5
26472
330
25D7D
100
AcDbEntity
  8
寸法
 62
     0
 48
50.0
370
    -2
100
AcDbLine
 10
4542.026186321865
 20
7579.395418156174
 30
0.0
 11
4542.026186321865
 21
6039.395418156175
 31
0.0
  0
INSERT
  5
26473
330
25D7D
100
AcDbEntity
  8
寸法
 62
     0
 48
50.0
370
    -2
100
AcDbBlockReference
  2
_DOTSMALL
 10
4542.026186321865
 20
7579.395418156174
 30
0.0
 41
100.0
 42
100.0
 43
100.0
 50
90.0
  0
INSERT
  5
26474
330
25D7D
100
AcDbEntity
  8
寸法
 62
     0
 48
50.0
370
    -2
100
AcDbBlockReference
  2
_DOTSMALL
 10
4542.026186321865
 20
6039.395418156175
 30
0.0
 41
100.0
 42
100.0
 43
100.0
 50
270.0
  0
MTEXT
  5
26475
330
25D7D
100
AcDbEntity
  8
寸法
 62
     7
 48
50.0
100
AcDbMText
 10
4442.026186321863
 20
6846.895418156176
 30
0.0
 40
120.0
 41
0.0
 71
     5
 72
     1
  1
\A1;1540
  7
STYLE1
 11
0.0000000000000001
 21
1.0
 31
0.0
 73
     1
 44
1.0
1001
ACAD
1000
MTEXTBEGIN
1070
    73
1070
     1
1070
    44
1040
1.0
1070
    74
1070
     0
1000
MTEXTEND
  0
POINT
  5
26476
330
25D7D
100
AcDbEntity
  8
DEFPOINTS
 62
     0
 48
50.0
100
AcDbPoint
 10
5416.904276711192
 20
7579.395418156174
 30
0.0
  0
POINT
  5
26477
330
25D7D
100
AcDbEntity
  8
DEFPOINTS
 62
     0
 48
50.0
100
AcDbPoint
 10
5416.904276711192
 20
6039.395418156175
 30
0.0
  0
POINT
  5
26478
330
25D7D
100
AcDbEntity
  8
DEFPOINTS
 62
     0
 48
50.0
100
AcDbPoint
 10
4542.026186321865
 20
6039.395418156175
 30
0.0
  0
ENDBLK
  5
25D88
330
25D7D
100
AcDbEntity
  8
0
 48
50.0
100
AcDbBlockEnd
  0
BLOCK
  5
25D93
330
25D89
100
AcDbEntity
  8
0
 48
50.0
100
AcDbBlockBegin
  2
*D44
 70
     1
 10
0.0
 20
0.0
 30
0.0
  3
*D44
  1

  0
LINE
  5
26525
330
25D89
100
AcDbEntity
  8
寸法
 62
     0
 48
50.0
370
    -2
100
AcDbLine
 10
6241.904276711199
 20
6916.395418156175
 30
0.0
 11
6241.904276711199
 21
8122.004234826423
 31
0.0
  0
LINE
  5
26526
330
25D89
100
AcDbEntity
  8
寸法
 62
     0
 48
50.0
370
    -2
100
AcDbLine
 10
5416.904276711192
 20
7599.395418156174
 30
0.0
 11
5416.904276711192
 21
8122.004234826423
 31
0.0
  0
LINE
  5
26527
330
25D89
100
AcDbEntity
  8
寸法
 62
     0
 48
50.0
370
    -2
100
AcDbLine
 10
6241.904276711199
 20
8062.004234826423
 30
0.0
 11
5416.904276711192
 21
8062.004234826423
 31
0.0
  0
INSERT
  5
26528
330
25D89
100
AcDbEntity
  8
寸法
 62
     0
 48
50.0
370
    -2
100
AcDbBlockReference
  2
_DOTSMALL
 10
6241.904276711199
 20
8062.004234826423
 30
0.0
 41
100.0
 42
100.0
 43
100.0
  0
INSERT
  5
26529
330
25D89
100
AcDbEntity
  8
寸法
 62
     0
 48
50.0
370
    -2
100
AcDbBlockReference
  2
_DOTSMALL
 10
5416.904276711192
 20
8062.004234826423
 30
0.0
 41
100.0
 42
100.0
 43
100.0
 50
180.0
  0
MTEXT
  5
2652A
330
25D89
100
AcDbEntity
  8
寸法
 62
     7
 48
50.0
100
AcDbMText
 10
5829.404276711195
 20
8162.016045850045
 30
0.0
 40
120.0
 41
0.0
 71
     5
 72
     1
  1
\A1;825
  7
STYLE1
 73
     1
 44
1.0
1001
ACAD
1000
MTEXTBEGIN
1070
    73
1070
     1
1070
    44
1040
1.0
1070
    74
1070
     0
1000
MTEXTEND
  0
POINT
  5
2652B
330
25D89
100
AcDbEntity
  8
DEFPOINTS
 62
     0
 48
50.0
100
AcDbPoint
 10
6241.904276711199
 20
6896.395418156174
 30
0.0
  0
POINT
  5
2652C
330
25D89
100
AcDbEntity
  8
DEFPOINTS
 62
     0
 48
50.0
100
AcDbPoint
 10
5416.904276711192
 20
7579.395418156174
 30
0.0
  0
POINT
  5
2652D
330
25D89
100
AcDbEntity
  8
DEFPOINTS
 62
     0
 48
50.0
100
AcDbPoint
 10
5416.904276711192
 20
8062.004234826423
 30
0.0
  0
ENDBLK
  5
25D94
330
25D89
100
AcDbEntity
  8
0
 48
50.0
100
AcDbBlockEnd
  0
BLOCK
  5
25D9F
330
25D95
100
AcDbEntity
  8
0
 48
50.0
100
AcDbBlockBegin
  2
*D45
 70
     1
 10
0.0
 20
0.0
 30
0.0
  3
*D45
  1

  0
LINE
  5
2651C
330
25D95
100
AcDbEntity
  8
寸法
 62
     0
 48
50.0
370
    -2
100
AcDbLine
 10
6171.904276711199
 20
6846.395418156174
 30
0.0
 11
5928.960149834705
 21
6846.395418156176
 31
0.0
  0
LINE
  5
2651D
330
25D95
100
AcDbEntity
  8
寸法
 62
     0
 48
50.0
370
    -2
100
AcDbLine
 10
5881.069751852091
 20
7579.395418156174
 30
0.0
 11
6048.960149834705
 21
7579.395418156174
 31
0.0
  0
LINE
  5
2651E
330
25D95
100
AcDbEntity
  8
寸法
 62
     0
 48
50.0
370
    -2
100
AcDbLine
 10
5988.960149834706
 20
6846.395418156176
 30
0.0
 11
5988.960149834706
 21
7579.395418156174
 31
0.0
  0
INSERT
  5
2651F
330
25D95
100
AcDbEntity
  8
寸法
 62
     0
 48
50.0
370
    -2
100
AcDbBlockReference
  2
_DOTSMALL
 10
5988.960149834706
 20
6846.395418156176
 30
0.0
 41
100.0
 42
100.0
 43
100.0
 50
270.0
  0
INSERT
  5
26520
330
25D95
100
AcDbEntity
  8
寸法
 62
     0
 48
50.0
370
    -2
100
AcDbBlockReference
  2
_DOTSMALL
 10
5988.960149834706
 20
7579.395418156174
 30
0.0
 41
100.0
 42
100.0
 43
100.0
 50
90.0
  0
MTEXT
  5
26521
330
25D95
100
AcDbEntity
  8
寸法
 62
     7
 48
50.0
100
AcDbMText
 10
5888.960149834704
 20
7158.375807878766
 30
0.0
 40
120.0
 41
0.0
 71
     5
 72
     1
  1
\A1;733
  7
STYLE1
 11
0.0000000000000001
 21
1.0
 31
0.0
 73
     1
 44
1.0
1001
ACAD
1000
MTEXTBEGIN
1070
    73
1070
     1
1070
    44
1040
1.0
1070
    74
1070
     0
1000
MTEXTEND
  0
POINT
  5
26522
330
25D95
100
AcDbEntity
  8
DEFPOINTS
 62
     0
 48
50.0
100
AcDbPoint
 10
6191.904276711198
 20
6846.395418156174
 30
0.0
  0
POINT
  5
26523
330
25D95
100
AcDbEntity
  8
DEFPOINTS
 62
     0
 48
50.0
100
AcDbPoint
 10
5861.069751852092
 20
7579.395418156174
 30
0.0
  0
POINT
  5
26524
330
25D95
100
AcDbEntity
  8
DEFPOINTS
 62
     0
 48
50.0
100
AcDbPoint
 10
5988.960149834706
 20
7579.395418156174
 30
0.0
  0
ENDBLK
  5
25DA0
330
25D95
100
AcDbEntity
  8
0
 48
50.0
100
AcDbBlockEnd
  0
BLOCK
  5
25DB7
330
25DAD
100
AcDbEntity
  8
0
 48
50.0
100
AcDbBlockBegin
  2
*D46
 70
     1
 10
0.0
 20
0.0
 30
0.0
  3
*D46
  1

  0
LINE
  5
26455
330
25DAD
100
AcDbEntity
  8
寸法
 62
     0
 48
50.0
370
    -2
100
AcDbLine
 10
5396.904276711195
 20
6039.395418156171
 30
0.0
 11
5243.816950479074
 21
6039.395418156171
 31
0.0
  0
LINE
  5
26456
330
25DAD
100
AcDbEntity
  8
寸法
 62
     0
 48
50.0
370
    -2
100
AcDbLine
 10
5752.629603639999
 20
5319.395418156172
 30
0.0
 11
5243.816950479074
 21
5319.395418156172
 31
0.0
  0
LINE
  5
26457
330
25DAD
100
AcDbEntity
  8
寸法
 62
     0
 48
50.0
370
    -2
100
AcDbLine
 10
5303.816950479074
 20
6039.395418156171
 30
0.0
 11
5303.816950479074
 21
5319.395418156172
 31
0.0
  0
INSERT
  5
26458
330
25DAD
100
AcDbEntity
  8
寸法
 62
     0
 48
50.0
370
    -2
100
AcDbBlockReference
  2
_DOTSMALL
 10
5303.816950479074
 20
6039.395418156171
 30
0.0
 41
100.0
 42
100.0
 43
100.0
 50
90.0
  0
INSERT
  5
26459
330
25DAD
100
AcDbEntity
  8
寸法
 62
     0
 48
50.0
370
    -2
100
AcDbBlockReference
  2
_DOTSMALL
 10
5303.816950479074
 20
5319.395418156172
 30
0.0
 41
100.0
 42
100.0
 43
100.0
 50
270.0
  0
MTEXT
  5
2645A
330
25DAD
100
AcDbEntity
  8
寸法
 62
     7
 48
50.0
100
AcDbMText
 10
5203.805139455451
 20
5679.395418156172
 30
0.0
 40
120.0
 41
0.0
 71
     5
 72
     1
  1
\A1;扉の出720
  7
STYLE1
 11
0.0000000000000001
 21
1.0
 31
0.0
 73
     1
 44
1.0
1001
ACAD
1000
MTEXTBEGIN
1070
    73
1070
     1
1070
    44
1040
1.0
1070
    74
1070
     0
1000
MTEXTEND
  0
POINT
  5
2645B
330
25DAD
100
AcDbEntity
  8
DEFPOINTS
 62
     0
 48
50.0
100
AcDbPoint
 10
5416.904276711195
 20
6039.395418156171
 30
0.0
  0
POINT
  5
2645C
330
25DAD
100
AcDbEntity
  8
DEFPOINTS
 62
     0
 48
50.0
100
AcDbPoint
 10
5772.62960364
 20
5319.395418156172
 30
0.0
  0
POINT
  5
2645D
330
25DAD
100
AcDbEntity
  8
DEFPOINTS
 62
     0
 48
50.0
100
AcDbPoint
 10
5303.816950479074
 20
5319.395418156172
 30
0.0
  0
ENDBLK
  5
25DB8
330
25DAD
100
AcDbEntity
  8
0
 48
50.0
100
AcDbBlockEnd
  0
BLOCK
  5
25DC4
330
25DB9
100
AcDbEntity
  8
0
 48
50.0
100
AcDbBlockBegin
  2
*D47
 70
     1
 10
0.0
 20
0.0
 30
0.0
  3
*D47
  1

  0
LINE
  5
264F5
330
25DB9
100
AcDbEntity
  8
寸法
 62
     0
 48
50.0
370
    -2
100
AcDbLine
 10
5469.904276711199
 20
6237.395418156179
 30
0.0
 11
4733.969283041264
 21
6237.395418156179
 31
0.0
  0
LINE
  5
264F6
330
25DB9
100
AcDbEntity
  8
寸法
 62
     0
 48
50.0
370
    -2
100
AcDbLine
 10
5396.904276711191
 20
6039.395418156175
 30
0.0
 11
4733.969283041263
 21
6039.395418156175
 31
0.0
  0
LINE
  5
264F7
330
25DB9
100
AcDbEntity
  8
寸法
 62
     0
 48
50.0
370
    -2
100
AcDbLine
 10
4793.969283041263
 20
6237.395418156179
 30
0.0
 11
4793.969283041263
 21
6039.395418156175
 31
0.0
  0
LINE
  5
264F8
330
25DB9
100
AcDbEntity
  8
寸法
 62
     0
 48
50.0
370
    -2
100
AcDbLine
 10
4793.969283041263
 20
6039.395418156175
 30
0.0
 11
4793.969283041263
 21
5567.654809483926
 31
0.0
  0
INSERT
  5
264F9
330
25DB9
100
AcDbEntity
  8
寸法
 62
     0
 48
50.0
370
    -2
100
AcDbBlockReference
  2
_DOTSMALL
 10
4793.969283041263
 20
6237.395418156179
 30
0.0
 41
100.0
 42
100.0
 43
100.0
 50
90.0
  0
INSERT
  5
264FA
330
25DB9
100
AcDbEntity
  8
寸法
 62
     0
 48
50.0
370
    -2
100
AcDbBlockReference
  2
_DOTSMALL
 10
4793.969283041263
 20
6039.395418156175
 30
0.0
 41
100.0
 42
100.0
 43
100.0
 50
270.0
  0
MTEXT
  5
264FB
330
25DB9
100
AcDbEntity
  8
寸法
 62
     7
 48
50.0
100
AcDbMText
 10
4693.969283041262
 20
5703.864469313582
 30
0.0
 40
120.0
 41
0.0
 71
     5
 72
     1
  1
\A1;198
  7
STYLE1
 11
0.0000000000000001
 21
1.0
 31
0.0
 73
     1
 44
1.0
1001
ACAD
1000
MTEXTBEGIN
1070
    73
1070
     1
1070
    44
1040
1.0
1070
    74
1070
     0
1000
MTEXTEND
  0
POINT
  5
264FC
330
25DB9
100
AcDbEntity
  8
DEFPOINTS
 62
     0
 48
50.0
100
AcDbPoint
 10
5489.904276711198
 20
6237.395418156179
 30
0.0
  0
POINT
  5
264FD
330
25DB9
100
AcDbEntity
  8
DEFPOINTS
 62
     0
 48
50.0
100
AcDbPoint
 10
5416.904276711192
 20
6039.395418156175
 30
0.0
  0
POINT
  5
264FE
330
25DB9
100
AcDbEntity
  8
DEFPOINTS
 62
     0
 48
50.0
100
AcDbPoint
 10
4793.969283041263
 20
6039.395418156175
 30
0.0
  0
ENDBLK
  5
25DC5
330
25DB9
100
AcDbEntity
  8
0
 48
50.0
100
AcDbBlockEnd
  0
BLOCK
  5
25DD1
330
25DC6
100
AcDbEntity
  8
0
 48
50.0
100
AcDbBlockBegin
  2
*D48
 70
     1
 10
0.0
 20
0.0
 30
0.0
  3
*D48
  1

  0
LINE
  5
265F8
330
25DC6
100
AcDbEntity
  8
寸法
 62
     0
 48
50.0
370
    -2
100
AcDbLine
 10
6731.904276711197
 20
6319.395418156176
 30
0.0
 11
6555.124002029781
 21
6319.395418156176
 31
0.0
  0
LINE
  5
265F9
330
25DC6
100
AcDbEntity
  8
寸法
 62
     0
 48
50.0
370
    -2
100
AcDbLine
 10
6731.904276711202
 20
6039.395418156174
 30
0.0
 11
6555.12400202978
 21
6039.395418156174
 31
0.0
  0
LINE
  5
265FA
330
25DC6
100
AcDbEntity
  8
寸法
 62
     0
 48
50.0
370
    -2
100
AcDbLine
 10
6615.12400202978
 20
6319.395418156176
 30
0.0
 11
6615.12400202978
 21
6039.395418156174
 31
0.0
  0
LINE
  5
265FB
330
25DC6
100
AcDbEntity
  8
寸法
 62
     0
 48
50.0
370
    -2
100
AcDbLine
 10
6615.12400202978
 20
6039.395418156174
 30
0.0
 11
6615.12400202978
 21
5602.860969337266
 31
0.0
  0
INSERT
  5
265FC
330
25DC6
100
AcDbEntity
  8
寸法
 62
     0
 48
50.0
370
    -2
100
AcDbBlockReference
  2
_DOTSMALL
 10
6615.12400202978
 20
6319.395418156176
 30
0.0
 41
100.0
 42
100.0
 43
100.0
 50
90.0
  0
INSERT
  5
265FD
330
25DC6
100
AcDbEntity
  8
寸法
 62
     0
 48
50.0
370
    -2
100
AcDbBlockReference
  2
_DOTSMALL
 10
6615.12400202978
 20
6039.395418156174
 30
0.0
 41
100.0
 42
100.0
 43
100.0
 50
270.0
  0
MTEXT
  5
265FE
330
25DC6
100
AcDbEntity
  8
寸法
 62
     7
 48
50.0
100
AcDbMText
 10
6515.112191006157
 20
5752.431835479001
 30
0.0
 40
120.0
 41
0.0
 71
     5
 72
     1
  1
\A1;280
  7
STYLE1
 11
0.0000000000000001
 21
1.0
 31
0.0
 73
     1
 44
1.0
1001
ACAD
1000
MTEXTBEGIN
1070
    73
1070
     1
1070
    44
1040
1.0
1070
    74
1070
     0
1000
MTEXTEND
  0
POINT
  5
265FF
330
25DC6
100
AcDbEntity
  8
DEFPOINTS
 62
     0
 48
50.0
100
AcDbPoint
 10
6751.904276711197
 20
6319.395418156176
 30
0.0
  0
POINT
  5
26600
330
25DC6
100
AcDbEntity
  8
DEFPOINTS
 62
     0
 48
50.0
100
AcDbPoint
 10
6751.904276711202
 20
6039.395418156174
 30
0.0
  0
POINT
  5
26601
330
25DC6
100
AcDbEntity
  8
DEFPOINTS
 62
     0
 48
50.0
100
AcDbPoint
 10
6615.12400202978
 20
6039.395418156174
 30
0.0
  0
ENDBLK
  5
25DD2
330
25DC6
100
AcDbEntity
  8
0
 48
50.0
100
AcDbBlockEnd
  0
BLOCK
  5
25DDD
330
25DD3
100
AcDbEntity
  8
0
 48
50.0
100
AcDbBlockBegin
  2
*D49
 70
     1
 10
0.0
 20
0.0
 30
0.0
  3
*D49
  1

  0
LINE
  5
26513
330
25DD3
100
AcDbEntity
  8
寸法
 62
     0
 48
50.0
370
    -2
100
AcDbLine
 10
5881.069751852091
 20
6039.395418156185
 30
0.0
 11
6048.960149834705
 21
6039.395418156185
 31
0.0
  0
LINE
  5
26514
330
25DD3
100
AcDbEntity
  8
寸法
 62
     0
 48
50.0
370
    -2
100
AcDbLine
 10
6171.904276711199
 20
6846.395418156174
 30
0.0
 11
5928.960149834705
 21
6846.395418156176
 31
0.0
  0
LINE
  5
26515
330
25DD3
100
AcDbEntity
  8
寸法
 62
     0
 48
50.0
370
    -2
100
AcDbLine
 10
5988.960149834705
 20
6039.395418156185
 30
0.0
 11
5988.960149834706
 21
6846.395418156176
 31
0.0
  0
INSERT
  5
26516
330
25DD3
100
AcDbEntity
  8
寸法
 62
     0
 48
50.0
370
    -2
100
AcDbBlockReference
  2
_DOTSMALL
 10
5988.960149834705
 20
6039.395418156185
 30
0.0
 41
100.0
 42
100.0
 43
100.0
 50
270.0
  0
INSERT
  5
26517
330
25DD3
100
AcDbEntity
  8
寸法
 62
     0
 48
50.0
370
    -2
100
AcDbBlockReference
  2
_DOTSMALL
 10
5988.960149834706
 20
6846.395418156176
 30
0.0
 41
100.0
 42
100.0
 43
100.0
 50
90.0
  0
MTEXT
  5
26518
330
25DD3
100
AcDbEntity
  8
寸法
 62
     7
 48
50.0
100
AcDbMText
 10
5888.960149834704
 20
6524.395418156174
 30
0.0
 40
120.0
 41
0.0
 71
     5
 72
     1
  1
\A1;807
  7
STYLE1
 11
0.0000000000000001
 21
1.0
 31
0.0
 73
     1
 44
1.0
1001
ACAD
1000
MTEXTBEGIN
1070
    73
1070
     1
1070
    44
1040
1.0
1070
    74
1070
     0
1000
MTEXTEND
  0
POINT
  5
26519
330
25DD3
100
AcDbEntity
  8
DEFPOINTS
 62
     0
 48
50.0
100
AcDbPoint
 10
5861.069751852092
 20
6039.395418156185
 30
0.0
  0
POINT
  5
2651A
330
25DD3
100
AcDbEntity
  8
DEFPOINTS
 62
     0
 48
50.0
100
AcDbPoint
 10
6191.904276711198
 20
6846.395418156174
 30
0.0
  0
POINT
  5
2651B
330
25DD3
100
AcDbEntity
  8
DEFPOINTS
 62
     0
 48
50.0
100
AcDbPoint
 10
5988.960149834706
 20
6846.395418156176
 30
0.0
  0
ENDBLK
  5
25DDE
330
25DD3
100
AcDbEntity
  8
0
 48
50.0
100
AcDbBlockEnd
  0
BLOCK
  5
268ED
330
268E3
100
AcDbEntity
  8
0
 48
50.0
100
AcDbBlockBegin
  2
*D56
 70
     1
 10
0.0
 20
0.0
 30
0.0
  3
*D56
  1

  0
LINE
  5
2692D
330
268E3
100
AcDbEntity
  8
寸法
 62
     0
 48
50.0
370
    -2
100
AcDbLine
 10
6528.411500180704
 20
2258.102531423739
 30
0.0
 11
6528.411500180704
 21
2717.77033934012
 31
0.0
  0
LINE
  5
2692E
330
268E3
100
AcDbEntity
  8
寸法
 62
     0
 48
50.0
370
    -2
100
AcDbLine
 10
6336.411500180703
 20
2258.102531423739
 30
0.0
 11
6336.411500180703
 21
2717.77033934012
 31
0.0
  0
LINE
  5
2692F
330
268E3
100
AcDbEntity
  8
寸法
 62
     0
 48
50.0
370
    -2
100
AcDbLine
 10
6528.411500180704
 20
2657.77033934012
 30
0.0
 11
6336.411500180703
 21
2657.77033934012
 31
0.0
  0
INSERT
  5
26930
330
268E3
100
AcDbEntity
  8
寸法
 62
     0
 48
50.0
370
    -2
100
AcDbBlockReference
  2
_DOTSMALL
 10
6528.411500180704
 20
2657.77033934012
 30
0.0
 41
100.0
 42
100.0
 43
100.0
  0
INSERT
  5
26931
330
268E3
100
AcDbEntity
  8
寸法
 62
     0
 48
50.0
370
    -2
100
AcDbBlockReference
  2
_DOTSMALL
 10
6336.411500180703
 20
2657.77033934012
 30
0.0
 41
100.0
 42
100.0
 43
100.0
 50
180.0
  0
MTEXT
  5
26932
330
268E3
100
AcDbEntity
  8
寸法
 62
     7
 48
50.0
100
AcDbMText
 10
6432.411500180703
 20
2957.805772410986
 30
0.0
 40
120.0
 41
0.0
 71
     5
 72
     1
  1
\A1;120\P200\P280
  7
STYLE1
 73
     1
 44
1.0
1001
ACAD
1000
MTEXTBEGIN
1070
    73
1070
     1
1070
    44
1040
1.0
1070
    74
1070
     0
1000
MTEXTEND
  0
POINT
  5
26933
330
268E3
100
AcDbEntity
  8
DEFPOINTS
 62
     0
 48
50.0
100
AcDbPoint
 10
6528.411500180704
 20
2238.10253142374
 30
0.0
  0
POINT
  5
26934
330
268E3
100
AcDbEntity
  8
DEFPOINTS
 62
     0
 48
50.0
100
AcDbPoint
 10
6336.411500180703
 20
2238.10253142374
 30
0.0
  0
POINT
  5
26935
330
268E3
100
AcDbEntity
  8
DEFPOINTS
 62
     0
 48
50.0
100
AcDbPoint
 10
6336.411500180703
 20
2657.77033934012
 30
0.0
  0
ENDBLK
  5
268EE
330
268E3
100
AcDbEntity
  8
0
 48
50.0
100
AcDbBlockEnd
  0
BLOCK
  5
268F9
330
268EF
100
AcDbEntity
  8
0
 48
50.0
100
AcDbBlockBegin
  2
*D57
 70
     1
 10
0.0
 20
0.0
 30
0.0
  3
*D57
  1

  0
LINE
  5
26936
330
268EF
100
AcDbEntity
  8
寸法
 62
     0
 48
50.0
370
    -2
100
AcDbLine
 10
6208.411500180703
 20
1306.102531423739
 30
0.0
 11
6208.411500180703
 21
855.6728934185795
 31
0.0
  0
LINE
  5
26937
330
268EF
100
AcDbEntity
  8
寸法
 62
     0
 48
50.0
370
    -2
100
AcDbLine
 10
6656.411500180704
 20
1306.102531423739
 30
0.0
 11
6656.411500180704
 21
855.6728934185795
 31
0.0
  0
LINE
  5
26938
330
268EF
100
AcDbEntity
  8
寸法
 62
     0
 48
50.0
370
    -2
100
AcDbLine
 10
6208.411500180703
 20
915.6728934185794
 30
0.0
 11
6656.411500180704
 21
915.6728934185794
 31
0.0
  0
INSERT
  5
26939
330
268EF
100
AcDbEntity
  8
寸法
 62
     0
 48
50.0
370
    -2
100
AcDbBlockReference
  2
_DOTSMALL
 10
6208.411500180703
 20
915.6728934185794
 30
0.0
 41
100.0
 42
100.0
 43
100.0
 50
180.0
  0
INSERT
  5
2693A
330
268EF
100
AcDbEntity
  8
寸法
 62
     0
 48
50.0
370
    -2
100
AcDbBlockReference
  2
_DOTSMALL
 10
6656.411500180704
 20
915.6728934185794
 30
0.0
 41
100.0
 42
100.0
 43
100.0
  0
MTEXT
  5
2693B
330
268EF
100
AcDbEntity
  8
寸法
 62
     7
 48
50.0
100
AcDbMText
 10
6412.314741502481
 20
1015.672893418579
 30
0.0
 40
120.0
 41
0.0
 71
     5
 72
     1
  1
\A1;300
  7
STYLE1
 73
     1
 44
1.0
1001
ACAD
1000
MTEXTBEGIN
1070
    73
1070
     1
1070
    44
1040
1.0
1070
    74
1070
     0
1000
MTEXTEND
  0
POINT
  5
2693C
330
268EF
100
AcDbEntity
  8
DEFPOINTS
 62
     0
 48
50.0
100
AcDbPoint
 10
6208.411500180703
 20
1326.102531423739
 30
0.0
  0
POINT
  5
2693D
330
268EF
100
AcDbEntity
  8
DEFPOINTS
 62
     0
 48
50.0
100
AcDbPoint
 10
6656.411500180704
 20
1326.102531423739
 30
0.0
  0
POINT
  5
2693E
330
268EF
100
AcDbEntity
  8
DEFPOINTS
 62
     0
 48
50.0
100
AcDbPoint
 10
6656.411500180704
 20
915.6728934185794
 30
0.0
  0
ENDBLK
  5
268FA
330
268EF
100
AcDbEntity
  8
0
 48
50.0
100
AcDbBlockEnd
  0
BLOCK
  5
26905
330
268FB
100
AcDbEntity
  8
0
 48
50.0
100
AcDbBlockBegin
  2
*D58
 70
     1
 10
0.0
 20
0.0
 30
0.0
  3
*D58
  1

  0
LINE
  5
2693F
330
268FB
100
AcDbEntity
  8
寸法
 62
     0
 48
50.0
370
    -2
100
AcDbLine
 10
6316.411500180703
 20
2238.10253142374
 30
0.0
 11
5541.374261618964
 21
2238.10253142374
 31
0.0
  0
LINE
  5
26940
330
268FB
100
AcDbEntity
  8
寸法
 62
     0
 48
50.0
370
    -2
100
AcDbLine
 10
6108.411500180707
 20
1454.102531423739
 30
0.0
 11
5541.374261618963
 21
1454.10253142374
 31
0.0
  0
LINE
  5
26941
330
268FB
100
AcDbEntity
  8
寸法
 62
     0
 48
50.0
370
    -2
100
AcDbLine
 10
5601.374261618964
 20
2238.10253142374
 30
0.0
 11
5601.374261618963
 21
1454.10253142374
 31
0.0
  0
INSERT
  5
26942
330
268FB
100
AcDbEntity
  8
寸法
 62
     0
 48
50.0
370
    -2
100
AcDbBlockReference
  2
_DOTSMALL
 10
5601.374261618964
 20
2238.10253142374
 30
0.0
 41
100.0
 42
100.0
 43
100.0
 50
90.0
  0
INSERT
  5
26943
330
268FB
100
AcDbEntity
  8
寸法
 62
     0
 48
50.0
370
    -2
100
AcDbBlockReference
  2
_DOTSMALL
 10
5601.374261618963
 20
1454.10253142374
 30
0.0
 41
100.0
 42
100.0
 43
100.0
 50
270.0
  0
MTEXT
  5
26944
330
268FB
100
AcDbEntity
  8
寸法
 62
     7
 48
50.0
100
AcDbMText
 10
5501.374261618963
 20
1825.64268107974
 30
0.0
 40
120.0
 41
0.0
 71
     5
 72
     1
  1
\A1;540
  7
STYLE1
 11
0.0000000000000001
 21
1.0
 31
0.0
 73
     1
 44
1.0
1001
ACAD
1000
MTEXTBEGIN
1070
    73
1070
     1
1070
    44
1040
1.0
1070
    74
1070
     0
1000
MTEXTEND
  0
POINT
  5
26945
330
268FB
100
AcDbEntity
  8
DEFPOINTS
 62
     0
 48
50.0
100
AcDbPoint
 10
6336.411500180703
 20
2238.10253142374
 30
0.0
  0
POINT
  5
26946
330
268FB
100
AcDbEntity
  8
DEFPOINTS
 62
     0
 48
50.0
100
AcDbPoint
 10
6128.411500180707
 20
1454.102531423739
 30
0.0
  0
POINT
  5
26947
330
268FB
100
AcDbEntity
  8
DEFPOINTS
 62
     0
 48
50.0
100
AcDbPoint
 10
5601.374261618963
 20
1454.10253142374
 30
0.0
  0
ENDBLK
  5
26906
330
268FB
100
AcDbEntity
  8
0
 48
50.0
100
AcDbBlockEnd
  0
BLOCK
  5
26911
330
26907
100
AcDbEntity
  8
0
 48
50.0
100
AcDbBlockBegin
  2
*D59
 70
     1
 10
0.0
 20
0.0
 30
0.0
  3
*D59
  1

  0
LINE
  5
26948
330
26907
100
AcDbEntity
  8
寸法
 62
     0
 48
50.0
370
    -2
100
AcDbLine
 10
6188.411500180703
 20
1694.102531423739
 30
0.0
 11
6005.991186448244
 21
1694.102531423739
 31
0.0
  0
LINE
  5
26949
330
26907
100
AcDbEntity
  8
寸法
 62
     0
 48
50.0
370
    -2
100
AcDbLine
 10
6108.411500180707
 20
1454.102531423739
 30
0.0
 11
6005.991186448244
 21
1454.102531423739
 31
0.0
  0
LINE
  5
2694A
330
26907
100
AcDbEntity
  8
寸法
 62
     0
 48
50.0
370
    -2
100
AcDbLine
 10
6065.991186448243
 20
1694.102531423739
 30
0.0
 11
6065.991186448243
 21
1454.102531423739
 31
0.0
  0
INSERT
  5
2694B
330
26907
100
AcDbEntity
  8
寸法
 62
     0
 48
50.0
370
    -2
100
AcDbBlockReference
  2
_DOTSMALL
 10
6065.991186448243
 20
1694.102531423739
 30
0.0
 41
100.0
 42
100.0
 43
100.0
 50
90.0
  0
INSERT
  5
2694C
330
26907
100
AcDbEntity
  8
寸法
 62
     0
 48
50.0
370
    -2
100
AcDbBlockReference
  2
_DOTSMALL
 10
6065.991186448243
 20
1454.102531423739
 30
0.0
 41
100.0
 42
100.0
 43
100.0
 50
270.0
  0
MTEXT
  5
2694D
330
26907
100
AcDbEntity
  8
寸法
 62
     7
 48
50.0
100
AcDbMText
 10
5965.991186448244
 20
1574.10253142374
 30
0.0
 40
120.0
 41
0.0
 71
     5
 72
     1
  1
\A1;150
  7
STYLE1
 11
0.0000000000000001
 21
1.0
 31
0.0
 73
     1
 44
1.0
1001
ACAD
1000
MTEXTBEGIN
1070
    73
1070
     1
1070
    44
1040
1.0
1070
    74
1070
     0
1000
MTEXTEND
  0
POINT
  5
2694E
330
26907
100
AcDbEntity
  8
DEFPOINTS
 62
     0
 48
50.0
100
AcDbPoint
 10
6208.411500180703
 20
1694.102531423739
 30
0.0
  0
POINT
  5
2694F
330
26907
100
AcDbEntity
  8
DEFPOINTS
 62
     0
 48
50.0
100
AcDbPoint
 10
6128.411500180707
 20
1454.102531423739
 30
0.0
  0
POINT
  5
26950
330
26907
100
AcDbEntity
  8
DEFPOINTS
 62
     0
 48
50.0
100
AcDbPoint
 10
6065.991186448243
 20
1454.102531423739
 30
0.0
  0
ENDBLK
  5
26912
330
26907
100
AcDbEntity
  8
0
 48
50.0
100
AcDbBlockEnd
  0
BLOCK
  5
2691F
330
26913
100
AcDbEntity
  8
0
 48
50.0
100
AcDbBlockBegin
  2
*D60
 70
     1
 10
0.0
 20
0.0
 30
0.0
  3
*D60
  1

  0
LINE
  5
26951
330
26913
100
AcDbEntity
  8
寸法
 62
     0
 48
50.0
370
    -2
100
AcDbLine
 10
8283.250813357899
 20
2290.862531423741
 30
0.0
 11
9288.374079245768
 21
2290.86253142374
 31
0.0
  0
LINE
  5
26952
330
26913
100
AcDbEntity
  8
寸法
 62
     0
 48
50.0
370
    -2
100
AcDbLine
 10
8470.450813357897
 20
2238.10253142374
 30
0.0
 11
9288.374079245768
 21
2238.102531423739
 31
0.0
  0
LINE
  5
26953
330
26913
100
AcDbEntity
  8
寸法
 62
     0
 48
50.0
370
    -2
100
AcDbLine
 10
9228.374079245769
 20
2290.86253142374
 30
0.0
 11
9228.374079245769
 21
2390.86253142374
 31
0.0
  0
LINE
  5
26954
330
26913
100
AcDbEntity
  8
寸法
 62
     0
 48
50.0
370
    -2
100
AcDbLine
 10
9228.374079245769
 20
2238.102531423739
 30
0.0
 11
9228.374079245769
 21
1506.084724580773
 31
0.0
  0
LINE
  5
26955
330
26913
100
AcDbEntity
  8
寸法
 62
     0
 48
50.0
370
    -2
100
AcDbLine
 10
9228.374079245769
 20
2290.86253142374
 30
0.0
 11
9228.374079245769
 21
2238.102531423739
 31
0.0
  0
INSERT
  5
26956
330
26913
100
AcDbEntity
  8
寸法
 62
     0
 48
50.0
370
    -2
100
AcDbBlockReference
  2
_DOTSMALL
 10
9228.374079245769
 20
2290.86253142374
 30
0.0
 41
100.0
 42
100.0
 43
100.0
 50
270.0
  0
INSERT
  5
26957
330
26913
100
AcDbEntity
  8
寸法
 62
     0
 48
50.0
370
    -2
100
AcDbBlockReference
  2
_DOTSMALL
 10
9228.374079245769
 20
2238.102531423739
 30
0.0
 41
100.0
 42
100.0
 43
100.0
 50
90.0
  0
MTEXT
  5
26958
330
26913
100
AcDbEntity
  8
寸法
 62
     7
 48
50.0
100
AcDbMText
 10
9128.362268222145
 20
1772.093628002257
 30
0.0
 40
120.0
 41
0.0
 71
     5
 72
     1
  1
\A1;20～25
  7
STYLE1
 11
0.0000000000000001
 21
1.0
 31
0.0
 73
     1
 44
1.0
1001
ACAD
1000
MTEXTBEGIN
1070
    73
1070
     1
1070
    44
1040
1.0
1070
    74
1070
     0
1000
MTEXTEND
  0
POINT
  5
26959
330
26913
100
AcDbEntity
  8
DEFPOINTS
 62
     0
 48
50.0
100
AcDbPoint
 10
8263.250813357897
 20
2290.862531423741
 30
0.0
  0
POINT
  5
2695A
330
26913
100
AcDbEntity
  8
DEFPOINTS
 62
     0
 48
50.0
100
AcDbPoint
 10
8450.450813357896
 20
2238.10253142374
 30
0.0
  0
POINT
  5
2695B
330
26913
100
AcDbEntity
  8
DEFPOINTS
 62
     0
 48
50.0
100
AcDbPoint
 10
9228.374079245769
 20
2238.102531423739
 30
0.0
  0
ENDBLK
  5
26920
330
26913
100
AcDbEntity
  8
0
 48
50.0
100
AcDbBlockEnd
  0
BLOCK
  5
2692B
330
26921
100
AcDbEntity
  8
0
 48
50.0
100
AcDbBlockBegin
  2
*D61
 70
     1
 10
0.0
 20
0.0
 30
0.0
  3
*D61
  1

  0
LINE
  5
2695C
330
26921
100
AcDbEntity
  8
寸法
 62
     0
 48
50.0
370
    -2
100
AcDbLine
 10
8470.450813357897
 20
2238.10253142374
 30
0.0
 11
9012.319413126741
 21
2238.10253142374
 31
0.0
  0
LINE
  5
2695D
330
26921
100
AcDbEntity
  8
寸法
 62
     0
 48
50.0
370
    -2
100
AcDbLine
 10
8470.450813357897
 20
1914.102531423738
 30
0.0
 11
9012.319413126741
 21
1914.102531423738
 31
0.0
  0
LINE
  5
2695E
330
26921
100
AcDbEntity
  8
寸法
 62
     0
 48
50.0
370
    -2
100
AcDbLine
 10
8952.319413126742
 20
2238.10253142374
 30
0.0
 11
8952.319413126742
 21
1914.102531423738
 31
0.0
  0
INSERT
  5
2695F
330
26921
100
AcDbEntity
  8
寸法
 62
     0
 48
50.0
370
    -2
100
AcDbBlockReference
  2
_DOTSMALL
 10
8952.319413126742
 20
2238.10253142374
 30
0.0
 41
100.0
 42
100.0
 43
100.0
 50
90.0
  0
INSERT
  5
26960
330
26921
100
AcDbEntity
  8
寸法
 62
     0
 48
50.0
370
    -2
100
AcDbBlockReference
  2
_DOTSMALL
 10
8952.319413126742
 20
1914.102531423738
 30
0.0
 41
100.0
 42
100.0
 43
100.0
 50
270.0
  0
MTEXT
  5
26961
330
26921
100
AcDbEntity
  8
寸法
 62
     7
 48
50.0
100
AcDbMText
 10
8852.319413126741
 20
2076.102531423741
 30
0.0
 40
120.0
 41
0.0
 71
     5
 72
     1
  1
\A1;180
  7
STYLE1
 11
0.0000000000000001
 21
1.0
 31
0.0
 73
     1
 44
1.0
1001
ACAD
1000
MTEXTBEGIN
1070
    73
1070
     1
1070
    44
1040
1.0
1070
    74
1070
     0
1000
MTEXTEND
  0
POINT
  5
26962
330
26921
100
AcDbEntity
  8
DEFPOINTS
 62
     0
 48
50.0
100
AcDbPoint
 10
8450.450813357896
 20
2238.10253142374
 30
0.0
  0
POINT
  5
26963
330
26921
100
AcDbEntity
  8
DEFPOINTS
 62
     0
 48
50.0
100
AcDbPoint
 10
8450.450813357896
 20
1914.102531423738
 30
0.0
  0
POINT
  5
26964
330
26921
100
AcDbEntity
  8
DEFPOINTS
 62
     0
 48
50.0
100
AcDbPoint
 10
8952.319413126742
 20
1914.102531423738
 30
0.0
  0
ENDBLK
  5
2692C
330
26921
100
AcDbEntity
  8
0
 48
50.0
100
AcDbBlockEnd
  0
ENDSEC
  0
SECTION
  2
ENTITIES
  0
MTEXT
  5
763F
330
747D
100
AcDbEntity
  8
0
100
AcDbMText
 10
302.846345836809
 20
280.1983726409901
 30
0.0
 40
3.5
 41
5.323721266742722
 71
     1
 72
     5
  1

  7
MSMINCHO
 73
     1
 44
1.0
1001
ACAD
1000
MTEXTBEGIN
1070
    73
1070
     1
1070
    44
1040
1.0
1070
    74
1070
     0
1000
MTEXTEND
  0
LINE
  5
10B57
330
747D
100
AcDbEntity
  8
補助
  6
PHANTOM
 62
   230
 48
50.0
100
AcDbLine
 10
139.9999999999995
 20
11409.6
 30
0.0
 11
16307.2
 21
11409.6
 31
0.0
  0
LINE
  5
10B59
330
747D
100
AcDbEntity
  8
仕様書枠
  6
Continuous
 48
50.0
100
AcDbLine
 10
13107.2
 20
1200.0
 30
0.0
 11
13107.2
 21
-0.0000000000000729
 31
0.0
  0
LINE
  5
10B5D
330
747D
100
AcDbEntity
  8
仕様書枠
 48
50.0
100
AcDbLine
 10
140.0
 20
0.0
 30
0.0
 11
16307.2
 21
-0.0000000000000909
 31
0.0
  0
LINE
  5
10B5E
330
747D
100
AcDbEntity
  8
補助
  6
PHANTOM
 62
   230
 48
50.0
100
AcDbLine
 10
16307.2
 20
11409.6
 30
0.0
 11
16307.2
 21
1200.0
 31
0.0
  0
LINE
  5
10B6C
330
747D
100
AcDbEntity
  8
仕様書枠
 48
50.0
100
AcDbLine
 10
13107.2
 20
1200.0
 30
0.0
 11
16307.2
 21
1200.0
 31
0.0
  0
TEXT
  5
10B73
330
747D
100
AcDbEntity
  8
文字
 62
     7
 48
50.0
100
AcDbText
 10
13162.9790565769
 20
895.0906074299405
 30
0.0
 40
200.0
  1
基 礎 図
  7
STYLE2
100
AcDbText
  0
LINE
  5
10B7B
330
747D
100
AcDbEntity
  8
仕様書枠
 48
50.0
100
AcDbLine
 10
13107.2
 20
800.0
 30
0.0
 11
14251.2
 21
800.0
 31
0.0
  0
LINE
  5
10B88
330
747D
100
AcDbEntity
  8
仕様書枠
  6
Continuous
 48
50.0
100
AcDbLine
 10
14251.2
 20
1200.0
 30
0.0
 11
14251.2
 21
800.0
 31
0.0
  0
LINE
  5
16462
330
747D
100
AcDbEntity
  8
仕様書枠
 48
50.0
100
AcDbLine
 10
16307.2
 20
1200.0
 30
0.0
 11
16307.2
 21
-0.0000000000000909
 31
0.0
  0
LINE
  5
1903B
330
747D
100
AcDbEntity
  8
補助
  6
PHANTOM
 62
   230
 48
50.0
100
AcDbLine
 10
140.0
 20
0.0
 30
0.0
 11
139.9999999999995
 21
11409.6
 31
0.0
  0
LEADER
  5
1AC27
330
747D
100
AcDbEntity
  8
寸法
 48
50.0
100
AcDbLeader
  3
INABA_S50G
 73
     0
 74
     0
 75
     1
 40
120.0
 41
720.0000000000001
 76
     3
 10
11166.99977632618
 20
6840.126188216001
 30
0.0
 10
11323.77335071247
 20
6579.112274648167
 30
0.0
 10
11448.77335071247
 20
6579.112274648167
 30
0.0
340
1AC28
1001
ACAD
1000
DSTYLE
1002
{
1070
   341
1005
0
1070
    40
1040
1.0
1070
   343
1005
0
1070
   344
1005
0
1002
}
  0
MTEXT
  5
1AC28
102
{ACAD_REACTORS
330
1AC27
102
}
330
747D
100
AcDbEntity
  8
部品1
 62
     7
 48
50.0
100
AcDbMText
 10
12193.77335071247
 20
6664.112274648168
 30
0.0
 40
120.0
 41
0.0
 71
     6
 72
     1
  1
\A1;床下換気口
  7
STYLE1
 73
     1
 44
1.0
1001
ACAD
1000
MTEXTBEGIN
1070
    73
1070
     1
1070
    44
1040
1.0
1070
    74
1070
     0
1000
MTEXTEND
  0
TEXT
  5
1AC29
330
747D
100
AcDbEntity
  8
部品1
 48
50.0
100
AcDbText
 10
11515.73441517237
 20
5829.288810969221
 30
0.0
 40
80.0
  1
(a=45,b=55,c=75)
  7
STYLE1
100
AcDbText
  0
TEXT
  5
1AC2A
330
747D
100
AcDbEntity
  8
部品1
 48
50.0
100
AcDbText
 10
11357.15540641807
 20
5936.134031837975
 30
0.0
 40
80.0
  1
※a,b,cは屋根の出幅です。
  7
STYLE1
100
AcDbText
  0
MTEXT
  5
1AC2B
102
{ACAD_REACTORS
330
1AC2C
102
}
330
747D
100
AcDbEntity
  8
部品1
 62
     7
 48
50.0
100
AcDbMText
 10
12154.94260240667
 20
6115.44471877105
 30
0.0
 40
120.0
 41
0.0
 71
     6
 72
     1
  1
\A1;屋根の外寸
  7
STYLE1
 73
     1
 44
1.0
1001
ACAD
1000
MTEXTBEGIN
1070
    73
1070
     1
1070
    44
1040
1.0
1070
    74
1070
     0
1000
MTEXTEND
  0
LEADER
  5
1AC2C
330
747D
100
AcDbEntity
  8
寸法
 48
50.0
100
AcDbLeader
  3
INABA_S50G
 73
     0
 74
     0
 75
     1
 40
120.0
 41
672.0
 76
     3
 10
11217.00259021463
 20
6289.334062234626
 30
0.0
 10
11332.94260240667
 20
6030.44471877105
 30
0.0
 10
11457.94260240667
 20
6030.44471877105
 30
0.0
340
1AC2B
1001
ACAD
1000
DSTYLE
1002
{
1070
   341
1005
0
1070
    40
1040
1.0
1070
   343
1005
0
1070
   344
1005
0
1002
}
  0
TEXT
  5
1C7A1
330
747D
100
AcDbEntity
  8
文字
 62
     7
 48
50.0
100
AcDbText
 10
13188.16259899338
 20
79.80631269190417
 30
0.0
 40
80.0
  1
※布基礎には換気口を設けてください。
  7
STYLE2
100
AcDbText
  0
TEXT
  5
1C7E7
330
747D
100
AcDbEntity
  8
文字
 62
     7
 48
50.0
100
AcDbText
 10
13188.16259899338
 20
246.7109242801889
 30
0.0
 40
80.0
  1
※寒冷地等は地域の実情に合わせた基礎にして下さい。
  7
STYLE2
100
AcDbText
  0
TEXT
  5
1C7E8
330
747D
100
AcDbEntity
  8
文字
 62
     7
 48
50.0
100
AcDbText
 10
14325.79230300687
 20
499.5983841039506
 30
0.0
 40
160.0
  1
ＮＸＮ－１２ＤＬ－７
  7
STYLE2
100
AcDbText
  0
TEXT
  5
1C7EC
330
747D
100
AcDbEntity
  8
文字
 62
     7
 48
50.0
100
AcDbText
 10
14524.131837222
 20
1031.557706291229
 30
0.0
 40
100.0
  1
<縮尺> S=1/40
  7
STYLE2
100
AcDbText
  0
TEXT
  5
1C7ED
330
747D
100
AcDbEntity
  8
文字
 62
     7
 48
50.0
100
AcDbText
 10
13201.43669998441
 20
477.2740661031257
 30
0.0
 40
160.0
  1
機種名
  7
STYLE2
100
AcDbText
  0
LINE
  5
1C7EF
330
747D
100
AcDbEntity
  8
文字
 62
     7
 48
50.0
100
AcDbLine
 10
13187.2
 20
400.0
 30
0.0
 11
16227.2
 21
400.0
 31
0.0
  0
MTEXT
  5
1D2D5
102
{ACAD_REACTORS
330
1D2D6
102
}
330
747D
100
AcDbEntity
  8
部品1
 62
     7
 48
50.0
100
AcDbMText
 10
12362.29950742107
 20
7895.008162398699
 30
0.0
 40
120.0
 41
0.0
 71
     6
 72
     1
  1
アンカーボルト
  7
STYLE1
 73
     1
 44
1.0
1001
ACAD
1000
MTEXTBEGIN
1070
    73
1070
     1
1070
    44
1040
1.0
1070
    74
1070
     0
1000
MTEXTEND
  0
LEADER
  5
1D2D6
330
747D
100
AcDbEntity
  8
寸法
 48
50.0
100
AcDbLeader
  3
INABA_S50G
 73
     0
 74
     0
 75
     1
 40
120.0
 41
994.3492424049171
 76
     3
 10
11043.98436246819
 20
7456.603262514902
 30
0.0
 10
11217.95026501615
 20
7810.008162398699
 30
0.0
 10
11342.95026501615
 20
7810.008162398699
 30
0.0
340
1D2D5
1001
ACAD
1000
DSTYLE
1002
{
1070
   341
1005
0
1070
    40
1040
1.0
1070
   343
1005
0
1070
   344
1005
0
1002
}
  0
MTEXT
  5
1D332
102
{ACAD_REACTORS
330
1D333
102
}
330
747D
100
AcDbEntity
  8
部品1
 62
     7
 48
50.0
100
AcDbMText
 10
10857.13297372688
 20
6701.031121668501
 30
0.0
 40
120.0
 41
0.0
 71
     6
 72
     1
  1
CB
  7
STYLE1
 73
     1
 44
1.0
1001
ACAD
1000
MTEXTBEGIN
1070
    73
1070
     1
1070
    44
1040
1.0
1070
    74
1070
     0
1000
MTEXTEND
  0
LEADER
  5
1D333
330
747D
100
AcDbEntity
  8
寸法
 48
50.0
100
AcDbLeader
  3
INABA_S50G
 73
     0
 74
     0
 75
     1
 40
120.0
 41
149.591883092037
 76
     3
 10
10430.2582877722
 20
6838.749435223327
 30
0.0
 10
10557.54109063484
 20
6616.031121668502
 30
0.0
 10
10682.54109063485
 20
6616.031121668502
 30
0.0
340
1D332
1001
ACAD
1000
DSTYLE
1002
{
1070
   341
1005
0
1070
    40
1040
1.0
1070
   343
1005
0
1070
   344
1005
0
1002
}
  0
DIMENSION
  5
20DE1
330
747D
100
AcDbEntity
  8
寸法
 48
50.0
100
AcDbDimension
  2
*D19
 10
11211.90427671119
 20
8537.615740215109
 30
0.0
 11
11483.07889791365
 21
8537.615740215109
 31
0.0
 70
   160
  1
a
 71
     5
 42
45.0
  3
INABA_S40G
100
AcDbAlignedDimension
 13
11166.90427671119
 23
7579.395418156187
 33
0.0
 14
11211.90427671119
 24
8305.661876250097
 34
0.0
100
AcDbRotatedDimension
1001
ACAD
1000
DSTYLE
1002
{
1070
   341
1005
0
1002
}
  0
DIMENSION
  5
20DFB
330
747D
100
AcDbEntity
  8
寸法
 48
50.0
100
AcDbDimension
  2
*D20
 10
5416.904276711195
 20
8537.615740215093
 30
0.0
 11
5100.729655508736
 21
8537.615740215093
 31
0.0
 70
   160
  1
a
 71
     5
 42
45.0
  3
INABA_S40G
100
AcDbAlignedDimension
 13
5371.904276711195
 23
8305.661876250084
 33
0.0
 14
5416.904276711195
 24
7579.395418156171
 34
0.0
100
AcDbRotatedDimension
1001
ACAD
1000
DSTYLE
1002
{
1070
   341
1005
0
1002
}
  0
LINE
  5
22711
330
747D
100
AcDbEntity
  8
想像線
 48
10.0
100
AcDbLine
 10
11211.90427671119
 20
7654.395418156193
 30
0.0
 11
5371.904276711195
 21
7654.395418156204
 31
0.0
  0
LINE
  5
22712
330
747D
100
AcDbEntity
  8
想像線
 48
10.0
100
AcDbLine
 10
5371.904276711187
 20
5984.395418156188
 30
0.0
 11
5371.904276711195
 21
7654.39541815618
 31
0.0
  0
LINE
  5
22713
330
747D
100
AcDbEntity
  8
想像線
 48
10.0
100
AcDbLine
 10
11211.90427671119
 20
5984.395418156207
 30
0.0
 11
11211.90427671119
 21
7654.395418156193
 31
0.0
  0
LINE
  5
22714
330
747D
100
AcDbEntity
  8
想像線
 48
10.0
100
AcDbLine
 10
11211.90427671119
 20
5984.395418156207
 30
0.0
 11
5371.904276711188
 21
5984.395418156196
 31
0.0
  0
DIMENSION
  5
22741
330
747D
100
AcDbEntity
  8
寸法
 48
50.0
100
AcDbDimension
  2
*D25
 10
4542.026186321868
 20
7579.395418156171
 30
0.0
 11
4442.026186321867
 21
7616.895418156177
 31
0.0
 70
    32
  1
c
 71
     5
 42
75.00000000000636
  3
INABA_S40G
100
AcDbAlignedDimension
 13
4793.969283041259
 23
7654.395418156179
 33
0.0
 14
5416.904276711195
 24
7579.395418156171
 34
0.0
 50
90.0
100
AcDbRotatedDimension
1001
ACAD
1000
DSTYLE
1002
{
1070
   341
1005
0
1002
}
  0
DIMENSION
  5
2275B
330
747D
100
AcDbEntity
  8
寸法
 48
50.0
100
AcDbDimension
  2
*D26
 10
4542.026186321868
 20
5984.395418156196
 30
0.0
 11
4442.026186321867
 21
6011.895418156185
 31
0.0
 70
    32
  1
b
 71
     5
 42
54.99999999997453
  3
INABA_S40G
100
AcDbAlignedDimension
 13
5416.904276711195
 23
6039.395418156171
 33
0.0
 14
4793.969283041266
 24
5984.395418156196
 34
0.0
 50
90.0
100
AcDbRotatedDimension
1001
ACAD
1000
DSTYLE
1002
{
1070
   341
1005
0
1002
}
  0
LINE
  5
25B76
330
747D
100
AcDbEntity
  8
部品1
 48
50.0
100
AcDbLine
 10
11046.90427671119
 20
7379.395418156171
 30
0.0
 11
5536.904276711188
 21
7379.395418156176
 31
0.0
  0
DIMENSION
  5
25B77
330
747D
100
AcDbEntity
  8
寸法
 48
50.0
100
AcDbDimension
  2
*D37
 10
7881.9042767112
 20
8062.004234826423
 30
0.0
 11
8291.904276711198
 21
8162.016045850045
 31
0.0
 70
    32
 71
     5
 42
820.0
  3
INABA_S40G
100
AcDbAlignedDimension
 13
8701.904276711198
 23
6896.395418156174
 33
0.0
 14
7881.9042767112
 24
6946.395418156175
 34
0.0
100
AcDbRotatedDimension
1001
ACAD
1000
DSTYLE
1002
{
1070
   341
1005
0
1002
}
  0
DIMENSION
  5
25B78
330
747D
100
AcDbEntity
  8
寸法
 48
50.0
100
AcDbDimension
  2
*D38
 10
6943.904276711191
 20
8305.661876250086
 30
0.0
 11
7763.904276711191
 21
8405.661876250086
 31
0.0
 70
    32
 71
     5
 42
1640.0
  3
INABA_S40G
100
AcDbAlignedDimension
 13
8583.904276711193
 23
7506.395418156175
 33
0.0
 14
6943.904276711191
 24
7506.395418156175
 34
0.0
100
AcDbRotatedDimension
1001
ACAD
1000
DSTYLE
1002
{
1070
   341
1005
0
1002
}
  0
LINE
  5
25B7A
330
747D
100
AcDbEntity
  8
部品1
 48
50.0
100
AcDbLine
 10
11166.90427671119
 20
7579.395418156174
 30
0.0
 11
5416.904276711192
 21
7579.395418156174
 31
0.0
  0
DIMENSION
  5
25B7B
330
747D
100
AcDbEntity
  8
寸法
 48
50.0
100
AcDbDimension
  2
*D39
 10
11166.90427671119
 20
8537.615740215093
 30
0.0
 11
8291.904276711191
 21
8637.615740215094
 31
0.0
 70
    32
 71
     5
 42
5750.0
  3
INABA_S40G
100
AcDbAlignedDimension
 13
5416.904276711192
 23
7579.395418156174
 33
0.0
 14
11166.90427671119
 24
7579.395418156174
 34
0.0
100
AcDbRotatedDimension
1001
ACAD
1000
DSTYLE
1002
{
1070
   341
1005
0
1002
}
  0
LINE
  5
25B7D
330
747D
100
AcDbEntity
  8
部品1
 48
50.0
100
AcDbLine
 10
11166.90427671119
 20
6039.395418156209
 30
0.0
 11
5416.904276711187
 21
6039.395418156171
 31
0.0
  0
DIMENSION
  5
25B7E
330
747D
100
AcDbEntity
  8
寸法
 48
50.0
100
AcDbDimension
  2
*D40
 10
7061.904276711199
 20
8062.004234826423
 30
0.0
 11
7471.904276711199
 21
8162.016045850045
 31
0.0
 70
    32
 71
     5
 42
820.0
  3
INABA_S40G
100
AcDbAlignedDimension
 13
7881.9042767112
 23
6946.395418156175
 33
0.0
 14
7061.904276711199
 24
6879.395418156175
 34
0.0
100
AcDbRotatedDimension
1001
ACAD
1000
DSTYLE
1002
{
1070
   341
1005
0
1002
}
  0
DIMENSION
  5
25B7F
330
747D
100
AcDbEntity
  8
寸法
 48
50.0
100
AcDbDimension
  2
*D41
 10
6241.904276711199
 20
8062.004234826423
 30
0.0
 11
6651.904276711198
 21
8162.016045850045
 31
0.0
 70
    32
 71
     5
 42
820.0
  3
INABA_S40G
100
AcDbAlignedDimension
 13
7061.904276711199
 23
6879.395418156175
 33
0.0
 14
6241.904276711199
 24
6896.395418156174
 34
0.0
100
AcDbRotatedDimension
1001
ACAD
1000
DSTYLE
1002
{
1070
   341
1005
0
1002
}
  0
LINE
  5
25B82
330
747D
100
AcDbEntity
  8
部品1
 48
50.0
100
AcDbLine
 10
5416.904276711192
 20
6039.395418156175
 30
0.0
 11
5416.904276711192
 21
7579.395418156174
 31
0.0
  0
DIMENSION
  5
25B83
330
747D
100
AcDbEntity
  8
寸法
 48
50.0
100
AcDbDimension
  2
*D42
 10
4793.969283041263
 20
6237.395418156179
 30
0.0
 11
4793.969283041263
 21
6846.895418156176
 31
0.0
 70
   160
 71
     5
 42
1218.999999999996
  3
INABA_S40G
100
AcDbAlignedDimension
 13
5489.904276711191
 23
7456.395418156176
 33
0.0
 14
5489.904276711198
 24
6237.395418156179
 34
0.0
 50
90.0
100
AcDbRotatedDimension
1001
ACAD
1000
DSTYLE
1002
{
1070
   341
1005
0
1002
}
  0
DIMENSION
  5
25B84
330
747D
100
AcDbEntity
  8
寸法
 48
50.0
100
AcDbDimension
  2
*D43
 10
4542.026186321865
 20
6039.395418156175
 30
0.0
 11
4542.026186321864
 21
6846.895418156176
 31
0.0
 70
   160
 71
     5
 42
1540.0
  3
INABA_S40G
100
AcDbAlignedDimension
 13
5416.904276711192
 23
7579.395418156174
 33
0.0
 14
5416.904276711192
 24
6039.395418156175
 34
0.0
 50
90.0
100
AcDbRotatedDimension
1001
ACAD
1000
DSTYLE
1002
{
1070
   341
1005
0
1002
}
  0
DIMENSION
  5
25B87
330
747D
100
AcDbEntity
  8
寸法
 48
50.0
100
AcDbDimension
  2
*D44
 10
5416.904276711192
 20
8062.004234826423
 30
0.0
 11
5829.404276711195
 21
8162.016045850045
 31
0.0
 70
    32
 71
     5
 42
825.0000000000072
  3
INABA_S40G
100
AcDbAlignedDimension
 13
6241.904276711199
 23
6896.395418156174
 33
0.0
 14
5416.904276711192
 24
7579.395418156174
 34
0.0
100
AcDbRotatedDimension
1001
ACAD
1000
DSTYLE
1002
{
1070
   341
1005
0
1002
}
  0
DIMENSION
  5
25B88
330
747D
100
AcDbEntity
  8
寸法
 48
50.0
100
AcDbDimension
  2
*D45
 10
5988.960149834706
 20
7579.395418156174
 30
0.0
 11
5988.960149834704
 21
7158.375807878766
 31
0.0
 70
   160
 71
     5
 42
732.9999999999991
  3
INABA_S40G
100
AcDbAlignedDimension
 13
6191.904276711198
 23
6846.395418156174
 33
0.0
 14
5861.069751852092
 24
7579.395418156174
 34
0.0
 50
90.0
100
AcDbRotatedDimension
1001
ACAD
1000
DSTYLE
1002
{
1070
   341
1005
0
1002
}
  0
DIMENSION
  5
25B8A
330
747D
100
AcDbEntity
  8
寸法
 48
50.0
100
AcDbDimension
  2
*D46
 10
5303.816950479074
 20
5319.395418156172
 30
0.0
 11
5303.816950479073
 21
5679.395418156172
 31
0.0
 70
   160
  1
扉の出<>
 71
     5
 42
720.0
  3
INABA_S40G
100
AcDbAlignedDimension
 13
5416.904276711195
 23
6039.395418156171
 33
0.0
 14
5772.62960364
 24
5319.395418156172
 34
0.0
 50
90.0
100
AcDbRotatedDimension
1001
ACAD
1000
DSTYLE
1002
{
1070
   341
1005
0
1002
}
  0
DIMENSION
  5
25B8B
330
747D
100
AcDbEntity
  8
寸法
 48
50.0
100
AcDbDimension
  2
*D47
 10
4793.969283041263
 20
6039.395418156175
 30
0.0
 11
4793.969283041263
 21
5703.864469313582
 31
0.0
 70
   160
 71
     5
 42
198.0000000000036
  3
INABA_S40G
100
AcDbAlignedDimension
 13
5489.904276711198
 23
6237.395418156179
 33
0.0
 14
5416.904276711192
 24
6039.395418156175
 34
0.0
 50
90.0
100
AcDbRotatedDimension
1001
ACAD
1000
DSTYLE
1002
{
1070
   341
1005
0
1002
}
  0
LINE
  5
25B8C
330
747D
100
AcDbEntity
  8
想像線
 48
5.0
100
AcDbLine
 10
6186.904276711195
 20
6039.395418156189
 30
0.0
 11
6186.904276711195
 21
5319.395418156179
 31
0.0
  0
DIMENSION
  5
25B8D
330
747D
100
AcDbEntity
  8
寸法
 48
50.0
100
AcDbDimension
  2
*D48
 10
6615.12400202978
 20
6039.395418156174
 30
0.0
 11
6615.124002029779
 21
5752.431835479001
 31
0.0
 70
   160
 71
     5
 42
280.0000000000018
  3
INABA_S40G
100
AcDbAlignedDimension
 13
6751.904276711197
 23
6319.395418156176
 33
0.0
 14
6751.904276711202
 24
6039.395418156174
 34
0.0
 50
90.0
100
AcDbRotatedDimension
1001
ACAD
1000
DSTYLE
1002
{
1070
   341
1005
0
1002
}
  0
ARC
  5
25B8E
330
747D
100
AcDbEntity
  8
想像線
 48
5.0
100
AcDbCircle
 10
6186.904276711195
 20
6039.395418156178
 30
0.0
 40
720.0
100
AcDbArc
 50
180.0
 51
270.0
  0
DIMENSION
  5
25B8F
330
747D
100
AcDbEntity
  8
寸法
 48
50.0
100
AcDbDimension
  2
*D49
 10
5988.960149834706
 20
6846.395418156176
 30
0.0
 11
5988.960149834704
 21
6524.395418156174
 31
0.0
 70
   160
 71
     5
 42
806.99999999999
  3
INABA_S40G
100
AcDbAlignedDimension
 13
5861.069751852092
 23
6039.395418156185
 33
0.0
 14
6191.904276711198
 24
6846.395418156174
 34
0.0
 50
90.0
100
AcDbRotatedDimension
1001
ACAD
1000
DSTYLE
1002
{
1070
   341
1005
0
1002
}
  0
LINE
  5
25B90
330
747D
100
AcDbEntity
  8
センター
 48
2.0
100
AcDbLine
 10
5539.904276711198
 20
6287.395418156179
 30
0.0
 11
5539.904276711198
 21
6187.395418156178
 31
0.0
  0
LINE
  5
25B91
330
747D
100
AcDbEntity
  8
センター
 48
2.0
100
AcDbLine
 10
5489.904276711198
 20
6237.395418156179
 30
0.0
 11
5589.904276711198
 21
6237.395418156179
 31
0.0
  0
CIRCLE
  5
25B92
330
747D
100
AcDbEntity
  8
部品1
 48
50.0
100
AcDbCircle
 10
5539.904276711184
 20
6237.395418156179
 30
0.0
 40
35.0
  0
LINE
  5
25B93
330
747D
100
AcDbEntity
  8
細線
 48
50.0
100
AcDbLine
 10
5867.708641660315
 20
6039.395418156209
 30
0.0
 11
5931.904276711202
 21
6103.591053207096
 31
0.0
  0
LINE
  5
25B94
330
747D
100
AcDbEntity
  8
細線
 48
50.0
100
AcDbLine
 10
5822.807361054969
 20
6039.395418156208
 30
0.0
 11
5931.9042767112
 21
6148.492333812441
 31
0.0
  0
LINE
  5
25B95
330
747D
100
AcDbEntity
  8
細線
 48
50.0
100
AcDbLine
 10
5777.906080449621
 20
6039.395418156208
 30
0.0
 11
5931.9042767112
 21
6193.393614417786
 31
0.0
  0
LINE
  5
25B96
330
747D
100
AcDbEntity
  8
細線
 48
50.0
100
AcDbLine
 10
5733.004799844275
 20
6039.395418156208
 30
0.0
 11
5931.904276711199
 21
6238.294895023131
 31
0.0
  0
LINE
  5
25B97
330
747D
100
AcDbEntity
  8
細線
 48
50.0
100
AcDbLine
 10
5731.904276711202
 20
6083.196175628479
 30
0.0
 11
5931.904276711197
 21
6283.196175628471
 31
0.0
  0
LINE
  5
25B98
330
747D
100
AcDbEntity
  8
部品1
 48
50.0
100
AcDbLine
 10
5931.904276711197
 20
6319.395418156176
 30
0.0
 11
5931.904276711203
 21
6039.395418156209
 31
0.0
  0
LINE
  5
25B99
330
747D
100
AcDbEntity
  8
部品1
 48
50.0
100
AcDbLine
 10
5731.904276711196
 20
6319.395418156174
 30
0.0
 11
5731.904276711203
 21
6039.395418156206
 31
0.0
  0
LINE
  5
25B9A
330
747D
100
AcDbEntity
  8
細線
 48
50.0
100
AcDbLine
 10
5912.609922265662
 20
6039.395418156211
 30
0.0
 11
5931.904276711204
 21
6058.689772601752
 31
0.0
  0
LINE
  5
25B9B
330
747D
100
AcDbEntity
  8
細線
 48
50.0
100
AcDbLine
 10
5731.904276711201
 20
6128.097456233824
 30
0.0
 11
5923.202238633551
 21
6319.395418156175
 31
0.0
  0
LINE
  5
25B9C
330
747D
100
AcDbEntity
  8
細線
 48
50.0
100
AcDbLine
 10
5731.904276711201
 20
6172.99873683917
 30
0.0
 11
5878.300958028205
 21
6319.395418156175
 31
0.0
  0
LINE
  5
25B9D
330
747D
100
AcDbEntity
  8
細線
 48
50.0
100
AcDbLine
 10
5731.904276711198
 20
6217.900017444516
 30
0.0
 11
5833.399677422857
 21
6319.395418156175
 31
0.0
  0
LINE
  5
25B9E
330
747D
100
AcDbEntity
  8
細線
 48
50.0
100
AcDbLine
 10
5731.904276711198
 20
6262.801298049861
 30
0.0
 11
5788.498396817515
 21
6319.395418156175
 31
0.0
  0
LINE
  5
25B9F
330
747D
100
AcDbEntity
  8
細線
 48
50.0
100
AcDbLine
 10
5419.584310158753
 20
6734.395418156186
 30
0.0
 11
5536.90427671119
 21
6851.715384708623
 31
0.0
  0
LINE
  5
25BA0
330
747D
100
AcDbEntity
  8
細線
 48
50.0
100
AcDbLine
 10
5416.904276711193
 20
6776.61666531397
 30
0.0
 11
5536.90427671119
 21
6896.616665313969
 31
0.0
  0
LINE
  5
25BA1
330
747D
100
AcDbEntity
  8
細線
 48
50.0
100
AcDbLine
 10
5416.904276711193
 20
6821.517945919317
 30
0.0
 11
5529.781748948064
 21
6934.395418156185
 31
0.0
  0
LINE
  5
25BA2
330
747D
100
AcDbEntity
  8
細線
 48
50.0
100
AcDbLine
 10
5416.904276711193
 20
6866.419226524662
 30
0.0
 11
5484.880468342716
 21
6934.395418156184
 31
0.0
  0
LINE
  5
25BA3
330
747D
100
AcDbEntity
  8
細線
 48
50.0
100
AcDbLine
 10
5416.904276711193
 20
6911.320507130007
 30
0.0
 11
5439.979187737372
 21
6934.395418156185
 31
0.0
  0
LINE
  5
25BA4
330
747D
100
AcDbEntity
  8
部品1
 48
50.0
100
AcDbLine
 10
5536.904276711191
 20
6934.395418156187
 30
0.0
 11
5416.904276711192
 21
6934.395418156185
 31
0.0
  0
LINE
  5
25BA5
330
747D
100
AcDbEntity
  8
部品1
 48
50.0
100
AcDbLine
 10
5536.904276711191
 20
6734.395418156186
 30
0.0
 11
5416.904276711192
 21
6734.395418156186
 31
0.0
  0
LINE
  5
25BA6
330
747D
100
AcDbEntity
  8
細線
 48
50.0
100
AcDbLine
 10
5509.386871369442
 20
6734.395418156182
 30
0.0
 11
5536.90427671119
 21
6761.912823497934
 31
0.0
  0
LINE
  5
25BA7
330
747D
100
AcDbEntity
  8
細線
 48
50.0
100
AcDbLine
 10
5464.485590764099
 20
6734.395418156186
 30
0.0
 11
5536.90427671119
 21
6806.814104103278
 31
0.0
  0
LINE
  5
25BB4
330
747D
100
AcDbEntity
  8
部品1
 48
50.0
100
AcDbLine
 10
6341.904276711199
 20
6946.395418156175
 30
0.0
 11
6141.904276711199
 21
6946.395418156175
 31
0.0
  0
LINE
  5
25BB5
330
747D
100
AcDbEntity
  8
センター
 48
2.0
100
AcDbLine
 10
6191.904276711198
 20
6846.395418156174
 30
0.0
 11
6291.904276711199
 21
6846.395418156174
 31
0.0
  0
LINE
  5
25BB6
330
747D
100
AcDbEntity
  8
部品1
 48
50.0
100
AcDbLine
 10
6341.904276711199
 20
6746.395418156175
 30
0.0
 11
6141.904276711199
 21
6746.395418156175
 31
0.0
  0
LINE
  5
25BB7
330
747D
100
AcDbEntity
  8
センター
 48
2.0
100
AcDbLine
 10
6241.904276711199
 20
6896.395418156174
 30
0.0
 11
6241.904276711199
 21
6796.395418156174
 31
0.0
  0
LINE
  5
25BB8
330
747D
100
AcDbEntity
  8
部品1
 48
50.0
100
AcDbLine
 10
6141.904276711199
 20
6746.395418156175
 30
0.0
 11
6141.904276711199
 21
6946.395418156175
 31
0.0
  0
LINE
  5
25BB9
330
747D
100
AcDbEntity
  8
部品1
 48
50.0
100
AcDbLine
 10
6341.904276711199
 20
6746.395418156175
 30
0.0
 11
6341.904276711199
 21
6946.395418156175
 31
0.0
  0
CIRCLE
  5
25BBA
330
747D
100
AcDbEntity
  8
部品1
 48
50.0
100
AcDbCircle
 10
6943.904276711198
 20
6237.395418156179
 30
0.0
 40
35.0
  0
LINE
  5
25BBB
330
747D
100
AcDbEntity
  8
センター
 48
2.0
100
AcDbLine
 10
6893.904276711198
 20
6237.395418156179
 30
0.0
 11
6993.904276711198
 21
6237.395418156179
 31
0.0
  0
LINE
  5
25BBC
330
747D
100
AcDbEntity
  8
センター
 48
2.0
100
AcDbLine
 10
6943.904276711198
 20
6287.395418156179
 30
0.0
 11
6943.904276711198
 21
6187.395418156178
 31
0.0
  0
LINE
  5
25BC9
330
747D
100
AcDbEntity
  8
部品1
 48
50.0
100
AcDbLine
 10
7161.904276711199
 20
6946.395418156175
 30
0.0
 11
6961.904276711199
 21
6946.395418156175
 31
0.0
  0
LINE
  5
25BCA
330
747D
100
AcDbEntity
  8
部品1
 48
50.0
100
AcDbLine
 10
7161.904276711199
 20
6746.395418156175
 30
0.0
 11
6961.904276711199
 21
6746.395418156175
 31
0.0
  0
LINE
  5
25BCB
330
747D
100
AcDbEntity
  8
センター
 48
2.0
100
AcDbLine
 10
7011.904276711199
 20
6846.395418156174
 30
0.0
 11
7111.904276711199
 21
6846.395418156174
 31
0.0
  0
LINE
  5
25BCC
330
747D
100
AcDbEntity
  8
センター
 48
2.0
100
AcDbLine
 10
7061.904276711199
 20
6896.395418156174
 30
0.0
 11
7061.904276711199
 21
6796.395418156174
 31
0.0
  0
LINE
  5
25BCD
330
747D
100
AcDbEntity
  8
部品1
 48
50.0
100
AcDbLine
 10
6961.904276711199
 20
6746.395418156175
 30
0.0
 11
6961.904276711199
 21
6946.395418156175
 31
0.0
  0
LINE
  5
25BCE
330
747D
100
AcDbEntity
  8
部品1
 48
50.0
100
AcDbLine
 10
7161.904276711199
 20
6746.395418156175
 30
0.0
 11
7161.904276711199
 21
6946.395418156175
 31
0.0
  0
TEXT
  5
25BCF
330
747D
100
AcDbEntity
  8
寸法
 48
50.0
100
AcDbText
 10
7800.484940933192
 20
6058.076708948913
 30
0.0
 40
120.0
  1
扉面
  7
STYLE1
100
AcDbText
  0
LINE
  5
25BDC
330
747D
100
AcDbEntity
  8
部品1
 48
50.0
100
AcDbLine
 10
7981.904276711199
 20
6946.395418156175
 30
0.0
 11
7781.904276711199
 21
6946.395418156175
 31
0.0
  0
LINE
  5
25BDD
330
747D
100
AcDbEntity
  8
部品1
 48
50.0
100
AcDbLine
 10
7981.904276711199
 20
6746.395418156175
 30
0.0
 11
7781.904276711199
 21
6746.395418156175
 31
0.0
  0
LINE
  5
25BDE
330
747D
100
AcDbEntity
  8
センター
 48
2.0
100
AcDbLine
 10
7831.904276711199
 20
6846.395418156174
 30
0.0
 11
7931.9042767112
 21
6846.395418156174
 31
0.0
  0
LINE
  5
25BDF
330
747D
100
AcDbEntity
  8
センター
 48
2.0
100
AcDbLine
 10
7881.9042767112
 20
6896.395418156174
 30
0.0
 11
7881.9042767112
 21
6796.395418156174
 31
0.0
  0
LINE
  5
25BE0
330
747D
100
AcDbEntity
  8
部品1
 48
50.0
100
AcDbLine
 10
7781.904276711199
 20
6746.395418156175
 30
0.0
 11
7781.904276711199
 21
6946.395418156175
 31
0.0
  0
LINE
  5
25BE1
330
747D
100
AcDbEntity
  8
部品1
 48
50.0
100
AcDbLine
 10
7981.904276711199
 20
6746.395418156175
 30
0.0
 11
7981.904276711199
 21
6946.395418156175
 31
0.0
  0
DIMENSION
  5
25BE2
330
747D
100
AcDbEntity
  8
寸法
 48
50.0
100
AcDbDimension
  2
*D27
 10
4793.969283041263
 20
7456.395418156176
 30
0.0
 11
4793.969283041263
 21
7852.502019873975
 31
0.0
 70
   160
 71
     5
 42
123.0
  3
INABA_S40G
100
AcDbAlignedDimension
 13
5416.904276711192
 23
7579.395418156174
 33
0.0
 14
5489.904276711191
 24
7456.395418156176
 34
0.0
 50
90.0
100
AcDbRotatedDimension
1001
ACAD
1000
DSTYLE
1002
{
1070
   341
1005
0
1002
}
  0
DIMENSION
  5
25BE4
330
747D
100
AcDbEntity
  8
寸法
 48
50.0
100
AcDbDimension
  2
*D28
 10
5416.904276711192
 20
8305.661876250086
 30
0.0
 11
5143.797674993393
 21
8305.661876250086
 31
0.0
 70
   160
 71
     5
 42
123.0
  3
INABA_S40G
100
AcDbAlignedDimension
 13
5539.904276711191
 23
7506.395418156175
 33
0.0
 14
5416.904276711192
 24
7579.395418156174
 34
0.0
100
AcDbRotatedDimension
1001
ACAD
1000
DSTYLE
1002
{
1070
   341
1005
0
1002
}
  0
DIMENSION
  5
25BE6
330
747D
100
AcDbEntity
  8
寸法
 48
50.0
100
AcDbDimension
  2
*D29
 10
5539.904276711191
 20
8305.661876250086
 30
0.0
 11
6241.904276711192
 21
8405.661876250086
 31
0.0
 70
    32
 71
     5
 42
1404.0
  3
INABA_S40G
100
AcDbAlignedDimension
 13
6943.904276711191
 23
7506.395418156175
 33
0.0
 14
5539.904276711191
 24
7506.395418156175
 34
0.0
100
AcDbRotatedDimension
1001
ACAD
1000
DSTYLE
1002
{
1070
   341
1005
0
1002
}
  0
LINE
  5
25BE7
330
747D
100
AcDbEntity
  8
細線
 48
50.0
100
AcDbLine
 10
5731.904276711206
 20
7381.616665313983
 30
0.0
 11
5929.6830295534
 21
7579.395418156174
 31
0.0
  0
LINE
  5
25BE8
330
747D
100
AcDbEntity
  8
細線
 48
50.0
100
AcDbLine
 10
5731.904276711206
 20
7426.517945919326
 30
0.0
 11
5884.781748948054
 21
7579.395418156174
 31
0.0
  0
LINE
  5
25BE9
330
747D
100
AcDbEntity
  8
細線
 48
50.0
100
AcDbLine
 10
5731.904276711205
 20
7471.419226524671
 30
0.0
 11
5839.880468342709
 21
7579.395418156174
 31
0.0
  0
LINE
  5
25BEA
330
747D
100
AcDbEntity
  8
細線
 48
50.0
100
AcDbLine
 10
5731.904276711205
 20
7516.320507130017
 30
0.0
 11
5794.979187737364
 21
7579.395418156178
 31
0.0
  0
LINE
  5
25BEB
330
747D
100
AcDbEntity
  8
部品1
 48
50.0
100
AcDbLine
 10
5931.904276711203
 20
7579.395418156174
 30
0.0
 11
5931.904276711208
 21
7379.395418156175
 31
0.0
  0
LINE
  5
25BEC
330
747D
100
AcDbEntity
  8
部品1
 48
50.0
100
AcDbLine
 10
5731.904276711203
 20
7579.395418156174
 30
0.0
 11
5731.904276711207
 21
7379.395418156175
 31
0.0
  0
LINE
  5
25BED
330
747D
100
AcDbEntity
  8
センター
 48
2.0
100
AcDbLine
 10
5489.904276711191
 20
7456.395418156176
 30
0.0
 11
5589.904276711191
 21
7456.395418156176
 31
0.0
  0
CIRCLE
  5
25BEE
330
747D
100
AcDbEntity
  8
部品1
 48
50.0
100
AcDbCircle
 10
5539.904276711191
 20
7456.395418156176
 30
0.0
 40
35.0
  0
LINE
  5
25BEF
330
747D
100
AcDbEntity
  8
センター
 48
2.0
100
AcDbLine
 10
5539.904276711191
 20
7506.395418156175
 30
0.0
 11
5539.904276711191
 21
7406.395418156176
 31
0.0
  0
LINE
  5
25BF0
330
747D
100
AcDbEntity
  8
細線
 48
50.0
100
AcDbLine
 10
5819.485590764108
 20
7379.395418156175
 30
0.0
 11
5931.904276711202
 21
7491.814104103287
 31
0.0
  0
LINE
  5
25BF1
330
747D
100
AcDbEntity
  8
細線
 48
50.0
100
AcDbLine
 10
5774.584310158749
 20
7379.395418156178
 30
0.0
 11
5931.904276711203
 21
7536.715384708633
 31
0.0
  0
LINE
  5
25BF2
330
747D
100
AcDbEntity
  8
細線
 48
50.0
100
AcDbLine
 10
5909.2881519748
 20
7379.395418156177
 30
0.0
 11
5931.904276711206
 21
7402.011542892586
 31
0.0
  0
LINE
  5
25BF3
330
747D
100
AcDbEntity
  8
細線
 48
50.0
100
AcDbLine
 10
5864.386871369447
 20
7379.395418156177
 30
0.0
 11
5931.904276711206
 21
7446.912823497935
 31
0.0
  0
LINE
  5
25BF4
330
747D
100
AcDbEntity
  8
細線
 48
50.0
100
AcDbLine
 10
5731.904276711202
 20
7561.221787735362
 30
0.0
 11
5750.077907132017
 21
7579.395418156174
 31
0.0
  0
LINE
  5
25BF5
330
747D
100
AcDbEntity
  8
部品1
 48
50.0
100
AcDbLine
 10
6551.904276711202
 20
7579.395418156174
 30
0.0
 11
6551.904276711205
 21
7379.395418156175
 31
0.0
  0
LINE
  5
25BF6
330
747D
100
AcDbEntity
  8
部品1
 48
50.0
100
AcDbLine
 10
6751.904276711202
 20
7579.395418156174
 30
0.0
 11
6751.904276711205
 21
7379.395418156175
 31
0.0
  0
LINE
  5
25BF7
330
747D
100
AcDbEntity
  8
細線
 48
50.0
100
AcDbLine
 10
6551.904276711204
 20
7516.320507130017
 30
0.0
 11
6614.979187737365
 21
7579.395418156178
 31
0.0
  0
LINE
  5
25BF8
330
747D
100
AcDbEntity
  8
細線
 48
50.0
100
AcDbLine
 10
6551.904276711205
 20
7471.419226524671
 30
0.0
 11
6659.88046834271
 21
7579.395418156174
 31
0.0
  0
LINE
  5
25BF9
330
747D
100
AcDbEntity
  8
細線
 48
50.0
100
AcDbLine
 10
6551.904276711205
 20
7426.517945919326
 30
0.0
 11
6704.781748948054
 21
7579.395418156174
 31
0.0
  0
LINE
  5
25BFA
330
747D
100
AcDbEntity
  8
細線
 48
50.0
100
AcDbLine
 10
6551.904276711205
 20
7381.616665313983
 30
0.0
 11
6749.683029553399
 21
7579.395418156174
 31
0.0
  0
DIMENSION
  5
25BFB
330
747D
100
AcDbEntity
  8
寸法
 48
50.0
100
AcDbDimension
  2
*D30
 10
6615.12400202978
 20
7379.395418156177
 30
0.0
 11
6615.124002029779
 21
7866.359000833312
 31
0.0
 70
   160
 71
     5
 42
199.9999999999672
  3
INABA_S40G
100
AcDbAlignedDimension
 13
6589.15895872284
 23
7579.395418156145
 33
0.0
 14
6589.15895872284
 24
7379.395418156177
 34
0.0
 50
90.0
100
AcDbRotatedDimension
1001
ACAD
1000
DSTYLE
1002
{
1070
   341
1005
0
1002
}
  0
LINE
  5
25BFC
330
747D
100
AcDbEntity
  8
細線
 48
50.0
100
AcDbLine
 10
6639.485590764109
 20
7379.395418156175
 30
0.0
 11
6751.904276711202
 21
7491.814104103287
 31
0.0
  0
LINE
  5
25BFD
330
747D
100
AcDbEntity
  8
細線
 48
50.0
100
AcDbLine
 10
6594.584310158748
 20
7379.395418156178
 30
0.0
 11
6751.904276711202
 21
7536.715384708633
 31
0.0
  0
LINE
  5
25BFE
330
747D
100
AcDbEntity
  8
細線
 48
50.0
100
AcDbLine
 10
6729.288151974801
 20
7379.395418156177
 30
0.0
 11
6751.904276711205
 21
7402.011542892586
 31
0.0
  0
LINE
  5
25BFF
330
747D
100
AcDbEntity
  8
細線
 48
50.0
100
AcDbLine
 10
6684.386871369449
 20
7379.395418156177
 30
0.0
 11
6751.904276711205
 21
7446.912823497935
 31
0.0
  0
LINE
  5
25C00
330
747D
100
AcDbEntity
  8
細線
 48
50.0
100
AcDbLine
 10
6551.904276711202
 20
7561.221787735362
 30
0.0
 11
6570.077907132017
 21
7579.395418156174
 31
0.0
  0
LINE
  5
25C01
330
747D
100
AcDbEntity
  8
細線
 48
50.0
100
AcDbLine
 10
7371.904276711205
 20
7381.616665313983
 30
0.0
 11
7569.6830295534
 21
7579.395418156174
 31
0.0
  0
LINE
  5
25C02
330
747D
100
AcDbEntity
  8
細線
 48
50.0
100
AcDbLine
 10
7371.904276711205
 20
7426.517945919326
 30
0.0
 11
7524.781748948054
 21
7579.395418156174
 31
0.0
  0
LINE
  5
25C03
330
747D
100
AcDbEntity
  8
細線
 48
50.0
100
AcDbLine
 10
7371.904276711205
 20
7471.419226524671
 30
0.0
 11
7479.88046834271
 21
7579.395418156174
 31
0.0
  0
LINE
  5
25C04
330
747D
100
AcDbEntity
  8
細線
 48
50.0
100
AcDbLine
 10
7371.904276711204
 20
7516.320507130017
 30
0.0
 11
7434.979187737365
 21
7579.395418156178
 31
0.0
  0
LINE
  5
25C05
330
747D
100
AcDbEntity
  8
部品1
 48
50.0
100
AcDbLine
 10
7571.904276711203
 20
7579.395418156174
 30
0.0
 11
7571.904276711205
 21
7379.395418156175
 31
0.0
  0
LINE
  5
25C06
330
747D
100
AcDbEntity
  8
部品1
 48
50.0
100
AcDbLine
 10
7371.904276711203
 20
7579.395418156174
 30
0.0
 11
7371.904276711205
 21
7379.395418156175
 31
0.0
  0
LINE
  5
25C07
330
747D
100
AcDbEntity
  8
センター
 48
2.0
100
AcDbLine
 10
6893.904276711191
 20
7456.395418156176
 30
0.0
 11
6993.904276711191
 21
7456.395418156176
 31
0.0
  0
CIRCLE
  5
25C08
330
747D
100
AcDbEntity
  8
部品1
 48
50.0
100
AcDbCircle
 10
6943.904276711191
 20
7456.395418156176
 30
0.0
 40
35.0
  0
LINE
  5
25C09
330
747D
100
AcDbEntity
  8
センター
 48
2.0
100
AcDbLine
 10
6943.904276711191
 20
7506.395418156175
 30
0.0
 11
6943.904276711191
 21
7406.395418156176
 31
0.0
  0
LINE
  5
25C0A
330
747D
100
AcDbEntity
  8
細線
 48
50.0
100
AcDbLine
 10
7459.485590764109
 20
7379.395418156175
 30
0.0
 11
7571.904276711203
 21
7491.814104103287
 31
0.0
  0
LINE
  5
25C0B
330
747D
100
AcDbEntity
  8
細線
 48
50.0
100
AcDbLine
 10
7414.584310158748
 20
7379.395418156178
 30
0.0
 11
7571.904276711203
 21
7536.715384708633
 31
0.0
  0
LINE
  5
25C0C
330
747D
100
AcDbEntity
  8
細線
 48
50.0
100
AcDbLine
 10
7504.386871369447
 20
7379.395418156177
 30
0.0
 11
7571.904276711205
 21
7446.912823497935
 31
0.0
  0
LINE
  5
25C0D
330
747D
100
AcDbEntity
  8
細線
 48
50.0
100
AcDbLine
 10
7549.288151974801
 20
7379.395418156177
 30
0.0
 11
7571.904276711205
 21
7402.011542892586
 31
0.0
  0
LINE
  5
25C0E
330
747D
100
AcDbEntity
  8
細線
 48
50.0
100
AcDbLine
 10
7371.904276711203
 20
7561.221787735362
 30
0.0
 11
7390.077907132017
 21
7579.395418156174
 31
0.0
  0
LINE
  5
25C0F
330
747D
100
AcDbEntity
  8
部品1
 48
50.0
100
AcDbLine
 10
8191.904276711204
 20
7579.395418156174
 30
0.0
 11
8191.904276711206
 21
7379.395418156175
 31
0.0
  0
LINE
  5
25C10
330
747D
100
AcDbEntity
  8
部品1
 48
50.0
100
AcDbLine
 10
8391.904276711203
 20
7579.395418156174
 30
0.0
 11
8391.904276711207
 21
7379.395418156175
 31
0.0
  0
LINE
  5
25C11
330
747D
100
AcDbEntity
  8
細線
 48
50.0
100
AcDbLine
 10
8191.904276711204
 20
7516.320507130017
 30
0.0
 11
8254.979187737365
 21
7579.395418156178
 31
0.0
  0
LINE
  5
25C12
330
747D
100
AcDbEntity
  8
細線
 48
50.0
100
AcDbLine
 10
8191.904276711206
 20
7471.419226524671
 30
0.0
 11
8299.88046834271
 21
7579.395418156174
 31
0.0
  0
LINE
  5
25C13
330
747D
100
AcDbEntity
  8
細線
 48
50.0
100
AcDbLine
 10
8191.904276711206
 20
7426.517945919326
 30
0.0
 11
8344.781748948053
 21
7579.395418156174
 31
0.0
  0
LINE
  5
25C14
330
747D
100
AcDbEntity
  8
細線
 48
50.0
100
AcDbLine
 10
8191.904276711206
 20
7381.616665313983
 30
0.0
 11
8389.683029553401
 21
7579.395418156174
 31
0.0
  0
LINE
  5
25C15
330
747D
100
AcDbEntity
  8
細線
 48
50.0
100
AcDbLine
 10
8279.485590764108
 20
7379.395418156175
 30
0.0
 11
8391.904276711203
 21
7491.814104103287
 31
0.0
  0
LINE
  5
25C16
330
747D
100
AcDbEntity
  8
細線
 48
50.0
100
AcDbLine
 10
8234.58431015875
 20
7379.395418156178
 30
0.0
 11
8391.904276711203
 21
7536.715384708633
 31
0.0
  0
LINE
  5
25C17
330
747D
100
AcDbEntity
  8
細線
 48
50.0
100
AcDbLine
 10
8369.288151974801
 20
7379.395418156177
 30
0.0
 11
8391.904276711207
 21
7402.011542892586
 31
0.0
  0
LINE
  5
25C18
330
747D
100
AcDbEntity
  8
細線
 48
50.0
100
AcDbLine
 10
8324.386871369448
 20
7379.395418156177
 30
0.0
 11
8391.904276711207
 21
7446.912823497935
 31
0.0
  0
LINE
  5
25C19
330
747D
100
AcDbEntity
  8
細線
 48
50.0
100
AcDbLine
 10
8191.904276711204
 20
7561.221787735362
 30
0.0
 11
8210.077907132017
 21
7579.395418156174
 31
0.0
  0
DIMENSION
  5
25C1A
330
747D
100
AcDbEntity
  8
寸法
 48
50.0
100
AcDbDimension
  2
*D31
 10
9521.904276711198
 20
8062.004234826423
 30
0.0
 11
9931.9042767112
 21
8162.016045850045
 31
0.0
 70
    32
 71
     5
 42
820.0
  3
INABA_S40G
100
AcDbAlignedDimension
 13
10341.9042767112
 23
6896.395418156174
 33
0.0
 14
9521.904276711198
 24
6899.395418156174
 34
0.0
100
AcDbRotatedDimension
1001
ACAD
1000
DSTYLE
1002
{
1070
   341
1005
0
1002
}
  0
DIMENSION
  5
25C1B
330
747D
100
AcDbEntity
  8
寸法
 48
50.0
100
AcDbDimension
  2
*D32
 10
8701.904276711198
 20
8062.004234826423
 30
0.0
 11
9111.904276711198
 21
8162.016045850045
 31
0.0
 70
    32
 71
     5
 42
820.0
  3
INABA_S40G
100
AcDbAlignedDimension
 13
9521.904276711198
 23
6899.395418156174
 33
0.0
 14
8701.904276711198
 24
6896.395418156174
 34
0.0
100
AcDbRotatedDimension
1001
ACAD
1000
DSTYLE
1002
{
1070
   341
1005
0
1002
}
  0
LINE
  5
25C1D
330
747D
100
AcDbEntity
  8
部品1
 48
50.0
100
AcDbLine
 10
11166.90427671119
 20
6039.395418156193
 30
0.0
 11
11166.90427671119
 21
7579.395418156174
 31
0.0
  0
DIMENSION
  5
25C1E
330
747D
100
AcDbEntity
  8
寸法
 48
50.0
100
AcDbDimension
  2
*D33
 10
10341.9042767112
 20
8062.004234826423
 30
0.0
 11
10754.40427671119
 21
8162.016045850045
 31
0.0
 70
    32
 71
     5
 42
824.9999999999927
  3
INABA_S40G
100
AcDbAlignedDimension
 13
11166.90427671119
 23
7579.395418156174
 33
0.0
 14
10341.9042767112
 24
6896.395418156174
 34
0.0
100
AcDbRotatedDimension
1001
ACAD
1000
DSTYLE
1002
{
1070
   341
1005
0
1002
}
  0
LINE
  5
25C26
330
747D
100
AcDbEntity
  8
センター
 48
2.0
100
AcDbLine
 10
8583.9042767112
 20
6287.395418156179
 30
0.0
 11
8583.9042767112
 21
6187.395418156178
 31
0.0
  0
LINE
  5
25C27
330
747D
100
AcDbEntity
  8
センター
 48
2.0
100
AcDbLine
 10
8533.904276711199
 20
6237.395418156179
 30
0.0
 11
8633.904276711199
 21
6237.395418156179
 31
0.0
  0
CIRCLE
  5
25C28
330
747D
100
AcDbEntity
  8
部品1
 48
50.0
100
AcDbCircle
 10
8583.9042767112
 20
6237.395418156179
 30
0.0
 40
35.0
  0
LINE
  5
25C35
330
747D
100
AcDbEntity
  8
部品1
 48
50.0
100
AcDbLine
 10
8801.904276711198
 20
6946.395418156175
 30
0.0
 11
8601.904276711199
 21
6946.395418156175
 31
0.0
  0
LINE
  5
25C36
330
747D
100
AcDbEntity
  8
部品1
 48
50.0
100
AcDbLine
 10
8801.904276711198
 20
6746.395418156175
 30
0.0
 11
8601.904276711199
 21
6746.395418156175
 31
0.0
  0
LINE
  5
25C37
330
747D
100
AcDbEntity
  8
センター
 48
2.0
100
AcDbLine
 10
8651.904276711197
 20
6846.395418156174
 30
0.0
 11
8751.904276711199
 21
6846.395418156174
 31
0.0
  0
LINE
  5
25C38
330
747D
100
AcDbEntity
  8
センター
 48
2.0
100
AcDbLine
 10
8701.904276711198
 20
6896.395418156174
 30
0.0
 11
8701.904276711198
 21
6796.395418156174
 31
0.0
  0
LINE
  5
25C39
330
747D
100
AcDbEntity
  8
部品1
 48
50.0
100
AcDbLine
 10
8601.904276711199
 20
6746.395418156175
 30
0.0
 11
8601.904276711199
 21
6946.395418156175
 31
0.0
  0
LINE
  5
25C3A
330
747D
100
AcDbEntity
  8
部品1
 48
50.0
100
AcDbLine
 10
8801.904276711198
 20
6746.395418156175
 30
0.0
 11
8801.904276711198
 21
6946.395418156175
 31
0.0
  0
LINE
  5
25C47
330
747D
100
AcDbEntity
  8
部品1
 48
50.0
100
AcDbLine
 10
9621.904276711198
 20
6946.395418156175
 30
0.0
 11
9421.904276711199
 21
6946.395418156175
 31
0.0
  0
LINE
  5
25C48
330
747D
100
AcDbEntity
  8
部品1
 48
50.0
100
AcDbLine
 10
9621.904276711198
 20
6746.395418156175
 30
0.0
 11
9421.904276711199
 21
6746.395418156175
 31
0.0
  0
LINE
  5
25C49
330
747D
100
AcDbEntity
  8
センター
 48
2.0
100
AcDbLine
 10
9471.904276711198
 20
6846.395418156174
 30
0.0
 11
9571.904276711199
 21
6846.395418156174
 31
0.0
  0
LINE
  5
25C4A
330
747D
100
AcDbEntity
  8
センター
 48
2.0
100
AcDbLine
 10
9521.904276711198
 20
6896.395418156174
 30
0.0
 11
9521.904276711198
 21
6796.395418156174
 31
0.0
  0
LINE
  5
25C4B
330
747D
100
AcDbEntity
  8
部品1
 48
50.0
100
AcDbLine
 10
9421.904276711199
 20
6746.395418156175
 30
0.0
 11
9421.904276711199
 21
6946.395418156175
 31
0.0
  0
LINE
  5
25C4C
330
747D
100
AcDbEntity
  8
部品1
 48
50.0
100
AcDbLine
 10
9621.904276711198
 20
6746.395418156175
 30
0.0
 11
9621.904276711198
 21
6946.395418156175
 31
0.0
  0
LINE
  5
25C59
330
747D
100
AcDbEntity
  8
部品1
 48
50.0
100
AcDbLine
 10
10441.9042767112
 20
6946.395418156175
 30
0.0
 11
10241.9042767112
 21
6946.395418156175
 31
0.0
  0
LINE
  5
25C5A
330
747D
100
AcDbEntity
  8
部品1
 48
50.0
100
AcDbLine
 10
10441.9042767112
 20
6746.395418156175
 30
0.0
 11
10241.9042767112
 21
6746.395418156175
 31
0.0
  0
LINE
  5
25C5B
330
747D
100
AcDbEntity
  8
センター
 48
2.0
100
AcDbLine
 10
10291.9042767112
 20
6846.395418156174
 30
0.0
 11
10391.9042767112
 21
6846.395418156174
 31
0.0
  0
LINE
  5
25C5C
330
747D
100
AcDbEntity
  8
センター
 48
2.0
100
AcDbLine
 10
10341.9042767112
 20
6896.395418156174
 30
0.0
 11
10341.9042767112
 21
6796.395418156174
 31
0.0
  0
LINE
  5
25C5D
330
747D
100
AcDbEntity
  8
部品1
 48
50.0
100
AcDbLine
 10
10241.9042767112
 20
6746.395418156175
 30
0.0
 11
10241.9042767112
 21
6946.395418156175
 31
0.0
  0
LINE
  5
25C5E
330
747D
100
AcDbEntity
  8
部品1
 48
50.0
100
AcDbLine
 10
10441.9042767112
 20
6746.395418156175
 30
0.0
 11
10441.9042767112
 21
6946.395418156175
 31
0.0
  0
LINE
  5
25C5F
330
747D
100
AcDbEntity
  8
センター
 48
2.0
100
AcDbLine
 10
10993.9042767112
 20
6237.395418156179
 30
0.0
 11
11093.9042767112
 21
6237.395418156179
 31
0.0
  0
CIRCLE
  5
25C60
330
747D
100
AcDbEntity
  8
部品1
 48
50.0
100
AcDbCircle
 10
11043.9042767112
 20
6237.395418156179
 30
0.0
 40
35.0
  0
LINE
  5
25C61
330
747D
100
AcDbEntity
  8
センター
 48
2.0
100
AcDbLine
 10
11043.9042767112
 20
6287.395418156179
 30
0.0
 11
11043.9042767112
 21
6187.395418156178
 31
0.0
  0
LINE
  5
25C62
330
747D
100
AcDbEntity
  8
細線
 48
50.0
100
AcDbLine
 10
11159.38687136944
 20
6734.395418156184
 30
0.0
 11
11166.90427671119
 21
6741.912823497933
 31
0.0
  0
LINE
  5
25C63
330
747D
100
AcDbEntity
  8
細線
 48
50.0
100
AcDbLine
 10
11114.4855907641
 20
6734.395418156186
 30
0.0
 11
11166.90427671119
 21
6786.814104103277
 31
0.0
  0
LINE
  5
25C64
330
747D
100
AcDbEntity
  8
細線
 48
50.0
100
AcDbLine
 10
11069.58431015875
 20
6734.395418156186
 30
0.0
 11
11166.90427671119
 21
6831.715384708624
 31
0.0
  0
LINE
  5
25C65
330
747D
100
AcDbEntity
  8
細線
 48
50.0
100
AcDbLine
 10
11046.90427671119
 20
6756.616665313973
 30
0.0
 11
11166.90427671119
 21
6876.616665313971
 31
0.0
  0
LINE
  5
25C66
330
747D
100
AcDbEntity
  8
細線
 48
50.0
100
AcDbLine
 10
11046.90427671119
 20
6801.517945919316
 30
0.0
 11
11166.90427671119
 21
6921.517945919316
 31
0.0
  0
LINE
  5
25C67
330
747D
100
AcDbEntity
  8
細線
 48
50.0
100
AcDbLine
 10
11046.90427671119
 20
6846.419226524663
 30
0.0
 11
11134.88046834271
 21
6934.395418156184
 31
0.0
  0
LINE
  5
25C68
330
747D
100
AcDbEntity
  8
細線
 48
50.0
100
AcDbLine
 10
11046.90427671119
 20
6891.320507130011
 30
0.0
 11
11089.97918773737
 21
6934.395418156185
 31
0.0
  0
LINE
  5
25C69
330
747D
100
AcDbEntity
  8
部品1
 48
50.0
100
AcDbLine
 10
11166.90427671119
 20
6934.395418156185
 30
0.0
 11
11046.90427671119
 21
6934.395418156185
 31
0.0
  0
LINE
  5
25C6A
330
747D
100
AcDbEntity
  8
部品1
 48
50.0
100
AcDbLine
 10
11166.90427671119
 20
6734.395418156186
 30
0.0
 11
11046.90427671119
 21
6734.395418156184
 31
0.0
  0
DIMENSION
  5
25C6B
330
747D
100
AcDbEntity
  8
寸法
 48
50.0
100
AcDbDimension
  2
*D34
 10
8583.904276711193
 20
8305.661876250086
 30
0.0
 11
9813.904276711191
 21
8405.673687273708
 31
0.0
 70
    32
 71
     5
 42
2460.0
  3
INABA_S40G
100
AcDbAlignedDimension
 13
11043.90427671119
 23
7506.395418156175
 33
0.0
 14
8583.904276711193
 24
7506.395418156175
 34
0.0
100
AcDbRotatedDimension
1001
ACAD
1000
DSTYLE
1002
{
1070
   341
1005
0
1002
}
  0
LINE
  5
25C6C
330
747D
100
AcDbEntity
  8
細線
 48
50.0
100
AcDbLine
 10
9011.904276711206
 20
7381.616665313983
 30
0.0
 11
9209.683029553401
 21
7579.395418156174
 31
0.0
  0
LINE
  5
25C6D
330
747D
100
AcDbEntity
  8
細線
 48
50.0
100
AcDbLine
 10
9011.904276711206
 20
7426.517945919326
 30
0.0
 11
9164.781748948053
 21
7579.395418156174
 31
0.0
  0
LINE
  5
25C6E
330
747D
100
AcDbEntity
  8
細線
 48
50.0
100
AcDbLine
 10
9011.904276711206
 20
7471.419226524671
 30
0.0
 11
9119.88046834271
 21
7579.395418156174
 31
0.0
  0
LINE
  5
25C6F
330
747D
100
AcDbEntity
  8
細線
 48
50.0
100
AcDbLine
 10
9011.904276711204
 20
7516.320507130017
 30
0.0
 11
9074.979187737366
 21
7579.395418156178
 31
0.0
  0
LINE
  5
25C70
330
747D
100
AcDbEntity
  8
部品1
 48
50.0
100
AcDbLine
 10
9211.904276711202
 20
7579.395418156174
 30
0.0
 11
9211.904276711207
 21
7379.395418156175
 31
0.0
  0
LINE
  5
25C71
330
747D
100
AcDbEntity
  8
部品1
 48
50.0
100
AcDbLine
 10
9011.904276711202
 20
7579.395418156174
 30
0.0
 11
9011.904276711206
 21
7379.395418156175
 31
0.0
  0
LINE
  5
25C72
330
747D
100
AcDbEntity
  8
センター
 48
2.0
100
AcDbLine
 10
8533.904276711192
 20
7456.395418156176
 30
0.0
 11
8633.904276711191
 21
7456.395418156176
 31
0.0
  0
LINE
  5
25C73
330
747D
100
AcDbEntity
  8
センター
 48
2.0
100
AcDbLine
 10
8583.904276711193
 20
7506.395418156175
 30
0.0
 11
8583.904276711193
 21
7406.395418156176
 31
0.0
  0
CIRCLE
  5
25C74
330
747D
100
AcDbEntity
  8
部品1
 48
50.0
100
AcDbCircle
 10
8583.904276711193
 20
7456.395418156176
 30
0.0
 40
35.0
  0
LINE
  5
25C75
330
747D
100
AcDbEntity
  8
細線
 48
50.0
100
AcDbLine
 10
9099.485590764109
 20
7379.395418156175
 30
0.0
 11
9211.904276711202
 21
7491.814104103287
 31
0.0
  0
LINE
  5
25C76
330
747D
100
AcDbEntity
  8
細線
 48
50.0
100
AcDbLine
 10
9054.58431015875
 20
7379.395418156178
 30
0.0
 11
9211.904276711202
 21
7536.715384708633
 31
0.0
  0
LINE
  5
25C77
330
747D
100
AcDbEntity
  8
細線
 48
50.0
100
AcDbLine
 10
9144.386871369448
 20
7379.395418156177
 30
0.0
 11
9211.904276711207
 21
7446.912823497935
 31
0.0
  0
LINE
  5
25C78
330
747D
100
AcDbEntity
  8
細線
 48
50.0
100
AcDbLine
 10
9189.2881519748
 20
7379.395418156177
 30
0.0
 11
9211.904276711207
 21
7402.011542892586
 31
0.0
  0
LINE
  5
25C79
330
747D
100
AcDbEntity
  8
細線
 48
50.0
100
AcDbLine
 10
9011.904276711202
 20
7561.221787735362
 30
0.0
 11
9030.077907132017
 21
7579.395418156174
 31
0.0
  0
LINE
  5
25C7A
330
747D
100
AcDbEntity
  8
部品1
 48
50.0
100
AcDbLine
 10
9831.904276711203
 20
7579.395418156174
 30
0.0
 11
9831.904276711206
 21
7379.395418156175
 31
0.0
  0
LINE
  5
25C7B
330
747D
100
AcDbEntity
  8
部品1
 48
50.0
100
AcDbLine
 10
10031.9042767112
 20
7579.395418156174
 30
0.0
 11
10031.9042767112
 21
7379.395418156175
 31
0.0
  0
LINE
  5
25C7C
330
747D
100
AcDbEntity
  8
細線
 48
50.0
100
AcDbLine
 10
9831.904276711204
 20
7516.320507130017
 30
0.0
 11
9894.979187737364
 21
7579.395418156178
 31
0.0
  0
LINE
  5
25C7D
330
747D
100
AcDbEntity
  8
細線
 48
50.0
100
AcDbLine
 10
9831.904276711206
 20
7471.419226524671
 30
0.0
 11
9939.88046834271
 21
7579.395418156174
 31
0.0
  0
LINE
  5
25C7E
330
747D
100
AcDbEntity
  8
細線
 48
50.0
100
AcDbLine
 10
9831.904276711206
 20
7426.517945919326
 30
0.0
 11
9984.781748948053
 21
7579.395418156174
 31
0.0
  0
LINE
  5
25C7F
330
747D
100
AcDbEntity
  8
細線
 48
50.0
100
AcDbLine
 10
9831.904276711206
 20
7381.616665313983
 30
0.0
 11
10029.6830295534
 21
7579.395418156174
 31
0.0
  0
LINE
  5
25C80
330
747D
100
AcDbEntity
  8
細線
 48
50.0
100
AcDbLine
 10
9919.485590764109
 20
7379.395418156175
 30
0.0
 11
10031.9042767112
 21
7491.814104103287
 31
0.0
  0
LINE
  5
25C81
330
747D
100
AcDbEntity
  8
細線
 48
50.0
100
AcDbLine
 10
9874.58431015875
 20
7379.395418156178
 30
0.0
 11
10031.9042767112
 21
7536.715384708633
 31
0.0
  0
LINE
  5
25C82
330
747D
100
AcDbEntity
  8
細線
 48
50.0
100
AcDbLine
 10
10009.2881519748
 20
7379.395418156177
 30
0.0
 11
10031.9042767112
 21
7402.011542892586
 31
0.0
  0
LINE
  5
25C83
330
747D
100
AcDbEntity
  8
細線
 48
50.0
100
AcDbLine
 10
9964.386871369448
 20
7379.395418156177
 30
0.0
 11
10031.9042767112
 21
7446.912823497935
 31
0.0
  0
LINE
  5
25C84
330
747D
100
AcDbEntity
  8
細線
 48
50.0
100
AcDbLine
 10
9831.904276711203
 20
7561.221787735362
 30
0.0
 11
9850.077907132018
 21
7579.395418156174
 31
0.0
  0
DIMENSION
  5
25C86
330
747D
100
AcDbEntity
  8
寸法
 48
50.0
100
AcDbDimension
  2
*D35
 10
11043.90427671119
 20
8305.661876250086
 30
0.0
 11
11440.01087842899
 21
8305.661876250086
 31
0.0
 70
   160
 71
     5
 42
123.0
  3
INABA_S40G
100
AcDbAlignedDimension
 13
11166.90427671119
 23
7579.395418156174
 33
0.0
 14
11043.90427671119
 24
7506.395418156175
 34
0.0
100
AcDbRotatedDimension
1001
ACAD
1000
DSTYLE
1002
{
1070
   341
1005
0
1002
}
  0
LINE
  5
25C87
330
747D
100
AcDbEntity
  8
細線
 48
50.0
100
AcDbLine
 10
10651.9042767112
 20
7381.616665313983
 30
0.0
 11
10849.6830295534
 21
7579.395418156174
 31
0.0
  0
LINE
  5
25C88
330
747D
100
AcDbEntity
  8
細線
 48
50.0
100
AcDbLine
 10
10651.9042767112
 20
7426.517945919326
 30
0.0
 11
10804.78174894805
 21
7579.395418156174
 31
0.0
  0
LINE
  5
25C89
330
747D
100
AcDbEntity
  8
細線
 48
50.0
100
AcDbLine
 10
10651.9042767112
 20
7471.419226524671
 30
0.0
 11
10759.88046834271
 21
7579.395418156174
 31
0.0
  0
LINE
  5
25C8A
330
747D
100
AcDbEntity
  8
細線
 48
50.0
100
AcDbLine
 10
10651.9042767112
 20
7516.320507130017
 30
0.0
 11
10714.97918773736
 21
7579.395418156178
 31
0.0
  0
LINE
  5
25C8B
330
747D
100
AcDbEntity
  8
部品1
 48
50.0
100
AcDbLine
 10
10851.9042767112
 20
7579.395418156174
 30
0.0
 11
10851.9042767112
 21
7379.395418156175
 31
0.0
  0
LINE
  5
25C8C
330
747D
100
AcDbEntity
  8
部品1
 48
50.0
100
AcDbLine
 10
10651.9042767112
 20
7579.395418156174
 30
0.0
 11
10651.9042767112
 21
7379.395418156175
 31
0.0
  0
LINE
  5
25C8D
330
747D
100
AcDbEntity
  8
細線
 48
50.0
100
AcDbLine
 10
10739.48559076411
 20
7379.395418156175
 30
0.0
 11
10851.9042767112
 21
7491.814104103287
 31
0.0
  0
LINE
  5
25C8E
330
747D
100
AcDbEntity
  8
細線
 48
50.0
100
AcDbLine
 10
10694.58431015875
 20
7379.395418156178
 30
0.0
 11
10851.9042767112
 21
7536.715384708633
 31
0.0
  0
LINE
  5
25C8F
330
747D
100
AcDbEntity
  8
細線
 48
50.0
100
AcDbLine
 10
10784.38687136945
 20
7379.395418156177
 30
0.0
 11
10851.9042767112
 21
7446.912823497935
 31
0.0
  0
LINE
  5
25C90
330
747D
100
AcDbEntity
  8
細線
 48
50.0
100
AcDbLine
 10
10829.2881519748
 20
7379.395418156177
 30
0.0
 11
10851.9042767112
 21
7402.011542892586
 31
0.0
  0
LINE
  5
25C91
330
747D
100
AcDbEntity
  8
細線
 48
50.0
100
AcDbLine
 10
10651.9042767112
 20
7561.221787735362
 30
0.0
 11
10670.07790713202
 21
7579.395418156174
 31
0.0
  0
DIMENSION
  5
25C92
330
747D
100
AcDbEntity
  8
寸法
 48
50.0
100
AcDbDimension
  2
*D36
 10
11046.90427671119
 20
7083.768211186918
 30
0.0
 11
11436.9633318293
 21
7083.768211186918
 31
0.0
 70
   160
 71
     5
 42
119.9999999999981
  3
INABA_S40G
100
AcDbAlignedDimension
 13
11166.90427671119
 23
7100.761475225751
 33
0.0
 14
11046.90427671119
 24
7083.768211186918
 34
0.0
100
AcDbRotatedDimension
1001
ACAD
1000
DSTYLE
1002
{
1070
   341
1005
0
1002
}
  0
LINE
  5
25C93
330
747D
100
AcDbEntity
  8
センター
 48
2.0
100
AcDbLine
 10
10993.90427671119
 20
7456.395418156176
 30
0.0
 11
11093.90427671119
 21
7456.395418156176
 31
0.0
  0
CIRCLE
  5
25C94
330
747D
100
AcDbEntity
  8
部品1
 48
50.0
100
AcDbCircle
 10
11043.90427671119
 20
7456.395418156176
 30
0.0
 40
35.0
  0
LINE
  5
25C95
330
747D
100
AcDbEntity
  8
センター
 48
2.0
100
AcDbLine
 10
11043.90427671119
 20
7506.395418156175
 30
0.0
 11
11043.90427671119
 21
7406.395418156176
 31
0.0
  0
TEXT
  5
2658F
330
747D
100
AcDbEntity
  8
文字
 62
     7
 48
50.0
100
AcDbText
 10
14251.2
 20
838.2527270729188
 30
0.0
 40
100.0
  1
～一般型・多雪地型・豪雪地型～
  7
STYLE2
100
AcDbText
  0
LINE
  5
265AF
330
747D
100
AcDbEntity
  8
部品1
 48
50.0
100
AcDbLine
 10
11046.90427671119
 20
6319.395418156208
 30
0.0
 11
5536.904276711192
 21
6319.395418156174
 31
0.0
  0
LINE
  5
265B0
330
747D
100
AcDbEntity
  8
細線
 48
50.0
100
AcDbLine
 10
6551.904276711198
 20
6262.801298049861
 30
0.0
 11
6608.498396817515
 21
6319.395418156175
 31
0.0
  0
LINE
  5
265B1
330
747D
100
AcDbEntity
  8
細線
 48
50.0
100
AcDbLine
 10
6551.904276711198
 20
6217.900017444516
 30
0.0
 11
6653.399677422857
 21
6319.395418156175
 31
0.0
  0
LINE
  5
265B2
330
747D
100
AcDbEntity
  8
細線
 48
50.0
100
AcDbLine
 10
6551.904276711201
 20
6172.99873683917
 30
0.0
 11
6698.300958028205
 21
6319.395418156175
 31
0.0
  0
LINE
  5
265B3
330
747D
100
AcDbEntity
  8
細線
 48
50.0
100
AcDbLine
 10
6551.904276711201
 20
6128.097456233824
 30
0.0
 11
6743.202238633552
 21
6319.395418156175
 31
0.0
  0
LINE
  5
265B4
330
747D
100
AcDbEntity
  8
細線
 48
50.0
100
AcDbLine
 10
6732.609922265663
 20
6039.395418156211
 30
0.0
 11
6751.904276711204
 21
6058.689772601752
 31
0.0
  0
LINE
  5
265B5
330
747D
100
AcDbEntity
  8
部品1
 48
50.0
100
AcDbLine
 10
6551.904276711195
 20
6319.395418156174
 30
0.0
 11
6551.904276711204
 21
6039.395418156206
 31
0.0
  0
LINE
  5
265B6
330
747D
100
AcDbEntity
  8
部品1
 48
50.0
100
AcDbLine
 10
6751.904276711197
 20
6319.395418156176
 30
0.0
 11
6751.904276711204
 21
6039.395418156209
 31
0.0
  0
LINE
  5
265B7
330
747D
100
AcDbEntity
  8
細線
 48
50.0
100
AcDbLine
 10
6551.904276711202
 20
6083.196175628479
 30
0.0
 11
6751.904276711197
 21
6283.196175628471
 31
0.0
  0
LINE
  5
265B8
330
747D
100
AcDbEntity
  8
細線
 48
50.0
100
AcDbLine
 10
6553.004799844275
 20
6039.395418156208
 30
0.0
 11
6751.904276711198
 21
6238.294895023131
 31
0.0
  0
LINE
  5
265B9
330
747D
100
AcDbEntity
  8
細線
 48
50.0
100
AcDbLine
 10
6597.906080449622
 20
6039.395418156208
 30
0.0
 11
6751.9042767112
 21
6193.393614417786
 31
0.0
  0
LINE
  5
265BA
330
747D
100
AcDbEntity
  8
細線
 48
50.0
100
AcDbLine
 10
6642.807361054969
 20
6039.395418156208
 30
0.0
 11
6751.9042767112
 21
6148.492333812441
 31
0.0
  0
LINE
  5
265BB
330
747D
100
AcDbEntity
  8
細線
 48
50.0
100
AcDbLine
 10
6687.708641660314
 20
6039.395418156209
 30
0.0
 11
6751.904276711202
 21
6103.591053207096
 31
0.0
  0
LINE
  5
265BC
330
747D
100
AcDbEntity
  8
細線
 48
50.0
100
AcDbLine
 10
7371.904276711198
 20
6262.801298049861
 30
0.0
 11
7428.498396817516
 21
6319.395418156175
 31
0.0
  0
LINE
  5
265BD
330
747D
100
AcDbEntity
  8
細線
 48
50.0
100
AcDbLine
 10
7371.904276711198
 20
6217.900017444516
 30
0.0
 11
7473.399677422857
 21
6319.395418156175
 31
0.0
  0
LINE
  5
265BE
330
747D
100
AcDbEntity
  8
細線
 48
50.0
100
AcDbLine
 10
7371.9042767112
 20
6172.99873683917
 30
0.0
 11
7518.300958028205
 21
6319.395418156175
 31
0.0
  0
LINE
  5
265BF
330
747D
100
AcDbEntity
  8
細線
 48
50.0
100
AcDbLine
 10
7371.9042767112
 20
6128.097456233824
 30
0.0
 11
7563.20223863355
 21
6319.395418156175
 31
0.0
  0
LINE
  5
265C0
330
747D
100
AcDbEntity
  8
細線
 48
50.0
100
AcDbLine
 10
7552.609922265663
 20
6039.395418156211
 30
0.0
 11
7571.904276711205
 21
6058.689772601752
 31
0.0
  0
LINE
  5
265C1
330
747D
100
AcDbEntity
  8
部品1
 48
50.0
100
AcDbLine
 10
7371.904276711195
 20
6319.395418156174
 30
0.0
 11
7371.904276711203
 21
6039.395418156206
 31
0.0
  0
LINE
  5
265C2
330
747D
100
AcDbEntity
  8
部品1
 48
50.0
100
AcDbLine
 10
7571.904276711197
 20
6319.395418156176
 30
0.0
 11
7571.904276711203
 21
6039.395418156209
 31
0.0
  0
LINE
  5
265C3
330
747D
100
AcDbEntity
  8
細線
 48
50.0
100
AcDbLine
 10
7371.904276711203
 20
6083.196175628479
 30
0.0
 11
7571.904276711197
 21
6283.196175628471
 31
0.0
  0
LINE
  5
265C4
330
747D
100
AcDbEntity
  8
細線
 48
50.0
100
AcDbLine
 10
7373.004799844276
 20
6039.395418156208
 30
0.0
 11
7571.904276711198
 21
6238.294895023131
 31
0.0
  0
LINE
  5
265C5
330
747D
100
AcDbEntity
  8
細線
 48
50.0
100
AcDbLine
 10
7417.906080449622
 20
6039.395418156208
 30
0.0
 11
7571.9042767112
 21
6193.393614417786
 31
0.0
  0
LINE
  5
265C6
330
747D
100
AcDbEntity
  8
細線
 48
50.0
100
AcDbLine
 10
7462.807361054967
 20
6039.395418156208
 30
0.0
 11
7571.9042767112
 21
6148.492333812441
 31
0.0
  0
LINE
  5
265C7
330
747D
100
AcDbEntity
  8
細線
 48
50.0
100
AcDbLine
 10
7507.708641660315
 20
6039.395418156209
 30
0.0
 11
7571.904276711203
 21
6103.591053207096
 31
0.0
  0
LINE
  5
265C8
330
747D
100
AcDbEntity
  8
細線
 48
50.0
100
AcDbLine
 10
8191.904276711197
 20
6262.801298049861
 30
0.0
 11
8248.498396817515
 21
6319.395418156175
 31
0.0
  0
LINE
  5
265C9
330
747D
100
AcDbEntity
  8
細線
 48
50.0
100
AcDbLine
 10
8191.904276711198
 20
6217.900017444516
 30
0.0
 11
8293.399677422859
 21
6319.395418156175
 31
0.0
  0
LINE
  5
265CA
330
747D
100
AcDbEntity
  8
細線
 48
50.0
100
AcDbLine
 10
8191.9042767112
 20
6172.99873683917
 30
0.0
 11
8338.300958028204
 21
6319.395418156175
 31
0.0
  0
LINE
  5
265CB
330
747D
100
AcDbEntity
  8
細線
 48
50.0
100
AcDbLine
 10
8191.9042767112
 20
6128.097456233824
 30
0.0
 11
8383.202238633552
 21
6319.395418156175
 31
0.0
  0
LINE
  5
265CC
330
747D
100
AcDbEntity
  8
細線
 48
50.0
100
AcDbLine
 10
8372.609922265663
 20
6039.395418156211
 30
0.0
 11
8391.904276711205
 21
6058.689772601752
 31
0.0
  0
LINE
  5
265CD
330
747D
100
AcDbEntity
  8
部品1
 48
50.0
100
AcDbLine
 10
8191.904276711197
 20
6319.395418156174
 30
0.0
 11
8191.904276711204
 21
6039.395418156206
 31
0.0
  0
LINE
  5
265CE
330
747D
100
AcDbEntity
  8
部品1
 48
50.0
100
AcDbLine
 10
8391.904276711198
 20
6319.395418156176
 30
0.0
 11
8391.904276711205
 21
6039.395418156209
 31
0.0
  0
LINE
  5
265CF
330
747D
100
AcDbEntity
  8
細線
 48
50.0
100
AcDbLine
 10
8191.904276711204
 20
6083.196175628479
 30
0.0
 11
8391.904276711198
 21
6283.196175628471
 31
0.0
  0
LINE
  5
265D0
330
747D
100
AcDbEntity
  8
細線
 48
50.0
100
AcDbLine
 10
8193.004799844276
 20
6039.395418156208
 30
0.0
 11
8391.904276711199
 21
6238.294895023131
 31
0.0
  0
LINE
  5
265D1
330
747D
100
AcDbEntity
  8
細線
 48
50.0
100
AcDbLine
 10
8237.906080449622
 20
6039.395418156208
 30
0.0
 11
8391.904276711199
 21
6193.393614417786
 31
0.0
  0
LINE
  5
265D2
330
747D
100
AcDbEntity
  8
細線
 48
50.0
100
AcDbLine
 10
8282.807361054969
 20
6039.395418156208
 30
0.0
 11
8391.904276711199
 21
6148.492333812441
 31
0.0
  0
LINE
  5
265D3
330
747D
100
AcDbEntity
  8
細線
 48
50.0
100
AcDbLine
 10
8327.708641660317
 20
6039.395418156209
 30
0.0
 11
8391.904276711203
 21
6103.591053207096
 31
0.0
  0
LINE
  5
265D4
330
747D
100
AcDbEntity
  8
細線
 48
50.0
100
AcDbLine
 10
9011.904276711197
 20
6262.801298049861
 30
0.0
 11
9068.498396817515
 21
6319.395418156175
 31
0.0
  0
LINE
  5
265D5
330
747D
100
AcDbEntity
  8
細線
 48
50.0
100
AcDbLine
 10
9011.904276711199
 20
6217.900017444516
 30
0.0
 11
9113.399677422858
 21
6319.395418156175
 31
0.0
  0
LINE
  5
265D6
330
747D
100
AcDbEntity
  8
細線
 48
50.0
100
AcDbLine
 10
9011.9042767112
 20
6172.99873683917
 30
0.0
 11
9158.300958028204
 21
6319.395418156175
 31
0.0
  0
LINE
  5
265D7
330
747D
100
AcDbEntity
  8
細線
 48
50.0
100
AcDbLine
 10
9011.9042767112
 20
6128.097456233824
 30
0.0
 11
9203.202238633553
 21
6319.395418156175
 31
0.0
  0
LINE
  5
265D8
330
747D
100
AcDbEntity
  8
細線
 48
50.0
100
AcDbLine
 10
9192.609922265663
 20
6039.395418156211
 30
0.0
 11
9211.904276711205
 21
6058.689772601752
 31
0.0
  0
LINE
  5
265D9
330
747D
100
AcDbEntity
  8
部品1
 48
50.0
100
AcDbLine
 10
9011.904276711197
 20
6319.395418156174
 30
0.0
 11
9011.904276711204
 21
6039.395418156206
 31
0.0
  0
LINE
  5
265DA
330
747D
100
AcDbEntity
  8
部品1
 48
50.0
100
AcDbLine
 10
9211.904276711196
 20
6319.395418156176
 30
0.0
 11
9211.904276711205
 21
6039.395418156209
 31
0.0
  0
LINE
  5
265DB
330
747D
100
AcDbEntity
  8
細線
 48
50.0
100
AcDbLine
 10
9011.904276711202
 20
6083.196175628479
 30
0.0
 11
9211.904276711196
 21
6283.196175628471
 31
0.0
  0
LINE
  5
265DC
330
747D
100
AcDbEntity
  8
細線
 48
50.0
100
AcDbLine
 10
9013.004799844274
 20
6039.395418156208
 30
0.0
 11
9211.9042767112
 21
6238.294895023131
 31
0.0
  0
LINE
  5
265DD
330
747D
100
AcDbEntity
  8
細線
 48
50.0
100
AcDbLine
 10
9057.906080449622
 20
6039.395418156208
 30
0.0
 11
9211.9042767112
 21
6193.393614417786
 31
0.0
  0
LINE
  5
265DE
330
747D
100
AcDbEntity
  8
細線
 48
50.0
100
AcDbLine
 10
9102.807361054969
 20
6039.395418156208
 30
0.0
 11
9211.9042767112
 21
6148.492333812441
 31
0.0
  0
LINE
  5
265DF
330
747D
100
AcDbEntity
  8
細線
 48
50.0
100
AcDbLine
 10
9147.708641660315
 20
6039.395418156209
 30
0.0
 11
9211.904276711202
 21
6103.591053207096
 31
0.0
  0
LINE
  5
265E0
330
747D
100
AcDbEntity
  8
細線
 48
50.0
100
AcDbLine
 10
9831.904276711197
 20
6262.801298049861
 30
0.0
 11
9888.498396817515
 21
6319.395418156175
 31
0.0
  0
LINE
  5
265E1
330
747D
100
AcDbEntity
  8
細線
 48
50.0
100
AcDbLine
 10
9831.904276711199
 20
6217.900017444516
 30
0.0
 11
9933.399677422858
 21
6319.395418156175
 31
0.0
  0
LINE
  5
265E2
330
747D
100
AcDbEntity
  8
細線
 48
50.0
100
AcDbLine
 10
9831.904276711201
 20
6172.99873683917
 30
0.0
 11
9978.300958028206
 21
6319.395418156175
 31
0.0
  0
LINE
  5
265E3
330
747D
100
AcDbEntity
  8
細線
 48
50.0
100
AcDbLine
 10
9831.904276711201
 20
6128.097456233824
 30
0.0
 11
10023.20223863355
 21
6319.395418156175
 31
0.0
  0
LINE
  5
265E4
330
747D
100
AcDbEntity
  8
細線
 48
50.0
100
AcDbLine
 10
10012.60992226566
 20
6039.395418156211
 30
0.0
 11
10031.9042767112
 21
6058.689772601752
 31
0.0
  0
LINE
  5
265E5
330
747D
100
AcDbEntity
  8
部品1
 48
50.0
100
AcDbLine
 10
9831.904276711197
 20
6319.395418156174
 30
0.0
 11
9831.904276711204
 21
6039.395418156206
 31
0.0
  0
LINE
  5
265E6
330
747D
100
AcDbEntity
  8
部品1
 48
50.0
100
AcDbLine
 10
10031.90427671119
 20
6319.395418156176
 30
0.0
 11
10031.9042767112
 21
6039.395418156209
 31
0.0
  0
LINE
  5
265E7
330
747D
100
AcDbEntity
  8
細線
 48
50.0
100
AcDbLine
 10
9831.904276711203
 20
6083.196175628479
 30
0.0
 11
10031.90427671119
 21
6283.196175628471
 31
0.0
  0
LINE
  5
265E8
330
747D
100
AcDbEntity
  8
細線
 48
50.0
100
AcDbLine
 10
9833.004799844275
 20
6039.395418156208
 30
0.0
 11
10031.9042767112
 21
6238.294895023131
 31
0.0
  0
LINE
  5
265E9
330
747D
100
AcDbEntity
  8
細線
 48
50.0
100
AcDbLine
 10
9877.906080449623
 20
6039.395418156208
 30
0.0
 11
10031.9042767112
 21
6193.393614417786
 31
0.0
  0
LINE
  5
265EA
330
747D
100
AcDbEntity
  8
細線
 48
50.0
100
AcDbLine
 10
9922.807361054971
 20
6039.395418156208
 30
0.0
 11
10031.9042767112
 21
6148.492333812441
 31
0.0
  0
LINE
  5
265EB
330
747D
100
AcDbEntity
  8
細線
 48
50.0
100
AcDbLine
 10
9967.708641660316
 20
6039.395418156209
 30
0.0
 11
10031.9042767112
 21
6103.591053207096
 31
0.0
  0
LINE
  5
265EC
330
747D
100
AcDbEntity
  8
細線
 48
50.0
100
AcDbLine
 10
10651.90427671119
 20
6262.801298049861
 30
0.0
 11
10708.49839681751
 21
6319.395418156175
 31
0.0
  0
LINE
  5
265ED
330
747D
100
AcDbEntity
  8
細線
 48
50.0
100
AcDbLine
 10
10651.9042767112
 20
6217.900017444516
 30
0.0
 11
10753.39967742286
 21
6319.395418156175
 31
0.0
  0
LINE
  5
265EE
330
747D
100
AcDbEntity
  8
細線
 48
50.0
100
AcDbLine
 10
10651.9042767112
 20
6172.99873683917
 30
0.0
 11
10798.3009580282
 21
6319.395418156175
 31
0.0
  0
LINE
  5
265EF
330
747D
100
AcDbEntity
  8
細線
 48
50.0
100
AcDbLine
 10
10651.9042767112
 20
6128.097456233824
 30
0.0
 11
10843.20223863355
 21
6319.395418156175
 31
0.0
  0
LINE
  5
265F0
330
747D
100
AcDbEntity
  8
細線
 48
50.0
100
AcDbLine
 10
10832.60992226566
 20
6039.395418156211
 30
0.0
 11
10851.9042767112
 21
6058.689772601752
 31
0.0
  0
LINE
  5
265F1
330
747D
100
AcDbEntity
  8
部品1
 48
50.0
100
AcDbLine
 10
10651.90427671119
 20
6319.395418156174
 30
0.0
 11
10651.9042767112
 21
6039.395418156206
 31
0.0
  0
LINE
  5
265F2
330
747D
100
AcDbEntity
  8
部品1
 48
50.0
100
AcDbLine
 10
10851.90427671119
 20
6319.395418156176
 30
0.0
 11
10851.9042767112
 21
6039.395418156209
 31
0.0
  0
LINE
  5
265F3
330
747D
100
AcDbEntity
  8
細線
 48
50.0
100
AcDbLine
 10
10651.9042767112
 20
6083.196175628479
 30
0.0
 11
10851.90427671119
 21
6283.196175628471
 31
0.0
  0
LINE
  5
265F4
330
747D
100
AcDbEntity
  8
細線
 48
50.0
100
AcDbLine
 10
10653.00479984427
 20
6039.395418156208
 30
0.0
 11
10851.9042767112
 21
6238.294895023131
 31
0.0
  0
LINE
  5
265F5
330
747D
100
AcDbEntity
  8
細線
 48
50.0
100
AcDbLine
 10
10697.90608044962
 20
6039.395418156208
 30
0.0
 11
10851.9042767112
 21
6193.393614417786
 31
0.0
  0
LINE
  5
265F6
330
747D
100
AcDbEntity
  8
細線
 48
50.0
100
AcDbLine
 10
10742.80736105497
 20
6039.395418156208
 30
0.0
 11
10851.9042767112
 21
6148.492333812441
 31
0.0
  0
LINE
  5
265F7
330
747D
100
AcDbEntity
  8
細線
 48
50.0
100
AcDbLine
 10
10787.70864166031
 20
6039.395418156209
 30
0.0
 11
10851.9042767112
 21
6103.591053207096
 31
0.0
  0
LINE
  5
26615
330
747D
100
AcDbEntity
  8
部品1
 48
50.0
100
AcDbLine
 10
11046.90427671119
 20
6319.395418156211
 30
0.0
 11
11046.90427671119
 21
7379.395418156173
 31
0.0
  0
LINE
  5
26616
330
747D
100
AcDbEntity
  8
部品1
 48
50.0
100
AcDbLine
 10
5536.904276711191
 20
6319.395418156172
 30
0.0
 11
5536.904276711188
 21
7379.395418156175
 31
0.0
  0
MTEXT
  5
267AE
102
{ACAD_REACTORS
330
267AF
102
}
330
747D
100
AcDbEntity
  8
寸法
 62
     7
 48
50.0
100
AcDbMText
 10
10743.84936391022
 20
2495.248852104877
 30
0.0
 40
120.0
 41
0.8
 71
     4
 72
     1
  1
\A1;C.B
  7
STYLE1
 73
     1
 44
1.0
1001
ACAD
1000
MTEXTBEGIN
1070
    73
1070
     1
1070
    44
1040
1.0
1070
    74
1070
     0
1000
MTEXTEND
  0
LEADER
  5
267AF
330
747D
100
AcDbEntity
  8
寸法
 48
50.0
100
AcDbLeader
  3
INABA_S50G
 73
     0
 74
     0
 75
     1
 40
120.0
 41
185.591883092037
 76
     3
 10
10560.71115727658
 20
2238.10253142374
 30
0.0
 10
10593.84936391022
 20
2410.248852104877
 30
0.0
 10
10718.84936391022
 20
2410.248852104877
 30
0.0
340
267AE
1001
ACAD
1000
DSTYLE
1002
{
1070
    40
1040
1.0
1002
}
  0
LINE
  5
267B0
330
747D
100
AcDbEntity
  8
細線
 48
50.0
100
AcDbLine
 10
10706.36457085299
 20
1882.403615770389
 30
0.0
 11
10699.93379023464
 21
1906.403615770388
 31
0.0
  0
LINE
  5
267B1
330
747D
100
AcDbEntity
  8
細線
 48
50.0
100
AcDbLine
 10
10684.9286354585
 20
1802.403615770388
 30
0.0
 11
10691.35941607684
 21
1778.403615770389
 31
0.0
  0
LINE
  5
267B2
330
747D
100
AcDbEntity
  8
部品1
100
AcDbLine
 10
10749.98674566065
 20
1998.102531423739
 30
0.0
 11
10749.98674566066
 21
1778.403615770389
 31
0.0
  0
LINE
  5
267B3
330
747D
100
AcDbEntity
  8
細線
 48
50.0
100
AcDbLine
 10
10678.49785484014
 20
1778.403615770389
 30
0.0
 11
10712.79535147133
 21
1906.403615770386
 31
0.0
  0
LINE
  5
267B4
330
747D
100
AcDbEntity
  8
細線
 48
50.0
100
AcDbLine
 10
10627.47652590574
 20
1882.403615770389
 30
0.0
 11
10621.04574528739
 21
1906.403615770388
 31
0.0
  0
LINE
  5
267B5
330
747D
100
AcDbEntity
  8
細線
100
AcDbLine
 10
10503.02314015999
 20
1906.403615770391
 30
0.0
 11
10594.72205581333
 21
1998.102531423739
 31
0.0
  0
LINE
  5
267B6
330
747D
100
AcDbEntity
  8
細線
 48
50.0
100
AcDbLine
 10
10548.58848095848
 20
1882.403615770389
 30
0.0
 11
10542.15770034014
 21
1906.403615770389
 31
0.0
  0
LINE
  5
267B7
330
747D
100
AcDbEntity
  8
細線
100
AcDbLine
 10
10536.96426565694
 20
1906.403615770391
 30
0.0
 11
10628.66318131028
 21
1998.102531423739
 31
0.0
  0
LINE
  5
267B8
330
747D
100
AcDbEntity
  8
細線
 48
50.0
100
AcDbLine
 10
10311.92434611675
 20
1882.403615770389
 30
0.0
 11
10305.4935654984
 21
1906.403615770389
 31
0.0
  0
LINE
  5
267B9
330
747D
100
AcDbEntity
  8
細線
 48
50.0
100
AcDbLine
 10
10390.812391064
 20
1882.403615770389
 30
0.0
 11
10384.38161044565
 21
1906.403615770389
 31
0.0
  0
LINE
  5
267BA
330
747D
100
AcDbEntity
  8
細線
 48
50.0
100
AcDbLine
 10
10469.70043601124
 20
1882.403615770389
 30
0.0
 11
10463.2696553929
 21
1906.403615770389
 31
0.0
  0
LINE
  5
267BB
330
747D
100
AcDbEntity
  8
細線
 48
50.0
100
AcDbLine
 10
10606.04059051125
 20
1802.403615770388
 30
0.0
 11
10612.4713711296
 21
1778.403615770389
 31
0.0
  0
LINE
  5
267BC
330
747D
100
AcDbEntity
  8
細線
 48
50.0
100
AcDbLine
 10
10527.152545564
 20
1802.40361577039
 30
0.0
 11
10533.58332618236
 21
1778.403615770389
 31
0.0
  0
LINE
  5
267BD
330
747D
100
AcDbEntity
  8
細線
 48
50.0
100
AcDbLine
 10
10369.37645566951
 20
1802.40361577039
 30
0.0
 11
10375.80723628785
 21
1778.403615770389
 31
0.0
  0
LINE
  5
267BE
330
747D
100
AcDbEntity
  8
細線
 48
50.0
100
AcDbLine
 10
10448.26450061675
 20
1802.40361577039
 30
0.0
 11
10454.6952812351
 21
1778.403615770389
 31
0.0
  0
LINE
  5
267BF
330
747D
100
AcDbEntity
  8
細線
 48
50.0
100
AcDbLine
 10
10441.8337199984
 20
1778.403615770389
 30
0.0
 11
10476.13121662959
 21
1906.403615770388
 31
0.0
  0
LINE
  5
267C0
330
747D
100
AcDbEntity
  8
細線
 48
50.0
100
AcDbLine
 10
10362.94567505116
 20
1778.403615770389
 30
0.0
 11
10397.24317168234
 21
1906.403615770388
 31
0.0
  0
LINE
  5
267C1
330
747D
100
AcDbEntity
  8
細線
 48
50.0
100
AcDbLine
 10
10520.72176494565
 20
1778.403615770389
 30
0.0
 11
10555.01926157683
 21
1906.403615770389
 31
0.0
  0
LINE
  5
267C2
330
747D
100
AcDbEntity
  8
細線
100
AcDbLine
 10
10570.90539115389
 20
1906.403615770391
 30
0.0
 11
10662.60430680724
 21
1998.102531423739
 31
0.0
  0
LINE
  5
267C3
330
747D
100
AcDbEntity
  8
細線
 48
50.0
100
AcDbLine
 10
10599.6098098929
 20
1778.403615770386
 30
0.0
 11
10633.90730652408
 21
1906.403615770386
 31
0.0
  0
LINE
  5
267C4
330
747D
100
AcDbEntity
  8
部品1
100
AcDbLine
 10
10629.98674566065
 20
2238.10253142374
 30
0.0
 11
10629.98674566065
 21
1998.102531423739
 31
0.0
  0
LINE
  5
267C5
330
747D
100
AcDbEntity
  8
細線
100
AcDbLine
 10
10616.14908331307
 20
1998.102531423741
 30
0.0
 11
10376.14908331307
 21
2238.10253142374
 31
0.0
  0
LINE
  5
267C6
330
747D
100
AcDbEntity
  8
細線
100
AcDbLine
 10
10565.23739506764
 20
1998.102531423739
 30
0.0
 11
10325.23739506764
 21
2238.10253142374
 31
0.0
  0
LINE
  5
267C7
330
747D
100
AcDbEntity
  8
細線
100
AcDbLine
 10
10176.96426565694
 20
1906.403615770389
 30
0.0
 11
10268.66318131028
 21
1998.102531423739
 31
0.0
  0
LINE
  5
267C8
330
747D
100
AcDbEntity
  8
細線
100
AcDbLine
 10
10143.02314015998
 20
1906.403615770389
 30
0.0
 11
10234.72205581333
 21
1998.102531423739
 31
0.0
  0
LINE
  5
267C9
330
747D
100
AcDbEntity
  8
細線
 48
50.0
100
AcDbLine
 10
10154.14825622225
 20
1882.403615770389
 30
0.0
 11
10147.71747560391
 21
1906.403615770389
 31
0.0
  0
LINE
  5
267CA
330
747D
100
AcDbEntity
  8
細線
 48
50.0
100
AcDbLine
 10
10233.03630116951
 20
1882.403615770389
 30
0.0
 11
10226.60552055116
 21
1906.403615770389
 31
0.0
  0
LINE
  5
267CB
330
747D
100
AcDbEntity
  8
細線
 48
50.0
100
AcDbLine
 10
10075.260211275
 20
1882.403615770389
 30
0.0
 11
10068.82943065665
 21
1906.403615770389
 31
0.0
  0
LINE
  5
267CC
330
747D
100
AcDbEntity
  8
細線
 48
50.0
100
AcDbLine
 10
10290.48841072226
 20
1802.40361577039
 30
0.0
 11
10296.91919134061
 21
1778.403615770389
 31
0.0
  0
LINE
  5
267CD
330
747D
100
AcDbEntity
  8
細線
 48
50.0
100
AcDbLine
 10
10211.60036577502
 20
1802.40361577039
 30
0.0
 11
10218.03114639336
 21
1778.403615770389
 31
0.0
  0
LINE
  5
267CE
330
747D
100
AcDbEntity
  8
細線
 48
50.0
100
AcDbLine
 10
10053.82427588051
 20
1802.40361577039
 30
0.0
 11
10060.25505649886
 21
1778.403615770389
 31
0.0
  0
LINE
  5
267CF
330
747D
100
AcDbEntity
  8
細線
 48
50.0
100
AcDbLine
 10
10132.71232082776
 20
1802.40361577039
 30
0.0
 11
10139.14310144611
 21
1778.403615770389
 31
0.0
  0
LINE
  5
267D0
330
747D
100
AcDbEntity
  8
部品1
100
AcDbLine
 10
10029.98674566065
 20
1778.403615770386
 30
0.0
 11
10029.98674566065
 21
1998.102531423739
 31
0.0
  0
LINE
  5
267D1
330
747D
100
AcDbEntity
  8
細線
 48
50.0
100
AcDbLine
 10
10047.39349526217
 20
1778.403615770389
 30
0.0
 11
10081.69099189335
 21
1906.403615770389
 31
0.0
  0
LINE
  5
267D2
330
747D
100
AcDbEntity
  8
細線
 48
50.0
100
AcDbLine
 10
10205.16958515666
 20
1778.403615770389
 30
0.0
 11
10239.46708178785
 21
1906.403615770389
 31
0.0
  0
LINE
  5
267D3
330
747D
100
AcDbEntity
  8
細線
 48
50.0
100
AcDbLine
 10
10126.28154020941
 20
1778.403615770389
 30
0.0
 11
10160.5790368406
 21
1906.403615770388
 31
0.0
  0
LINE
  5
267D4
330
747D
100
AcDbEntity
  8
部品1
100
AcDbLine
 10
10149.98674566065
 20
1998.102531423739
 30
0.0
 11
10149.98674566065
 21
2238.10253142374
 31
0.0
  0
TEXT
  5
267D5
330
747D
100
AcDbEntity
  8
部品1
 48
50.0
100
AcDbText
 10
9385.868658902152
 20
1731.30279078643
 30
0.0
 40
80.0
  1
ボルトの出
 50
90.0
  7
STYLE2
100
AcDbText
  0
LINE
  5
267D6
330
747D
100
AcDbEntity
  8
細線
100
AcDbLine
 10
10293.70839109201
 20
1998.102531423739
 30
0.0
 11
10149.98674566065
 21
2141.824176855092
 31
0.0
  0
LWPOLYLINE
  5
267D7
330
747D
100
AcDbEntity
  8
部品1
 48
50.0
100
AcDbPolyline
 90
        2
 70
     0
 43
12.0
 10
9765.375483560267
 20
1998.102531423739
 10
10966.46778669189
 20
1998.102531423739
  0
LINE
  5
267D8
330
747D
100
AcDbEntity
  8
細線
100
AcDbLine
 10
10210.90539115389
 20
1906.403615770389
 30
0.0
 11
10302.60430680724
 21
1998.102531423739
 31
0.0
  0
LINE
  5
267D9
330
747D
100
AcDbEntity
  8
部品1
100
AcDbLine
 10
10029.98674566065
 20
1906.403615770389
 30
0.0
 11
10749.98674566065
 21
1906.403615770392
 31
0.0
  0
LINE
  5
267DA
330
747D
100
AcDbEntity
  8
部品1
100
AcDbLine
 10
10029.98674566065
 20
1778.403615770386
 30
0.0
 11
10749.98674566065
 21
1778.403615770389
 31
0.0
  0
LINE
  5
267DB
330
747D
100
AcDbEntity
  8
細線
 48
50.0
100
AcDbLine
 10
10284.05763010391
 20
1778.403615770389
 30
0.0
 11
10318.3551267351
 21
1906.403615770388
 31
0.0
  0
LINE
  5
267DC
330
747D
100
AcDbEntity
  8
部品1
100
AcDbLine
 10
10149.98674566065
 20
2238.10253142374
 30
0.0
 11
10629.98674566065
 21
2238.10253142374
 31
0.0
  0
LINE
  5
267DD
330
747D
100
AcDbEntity
  8
細線
100
AcDbLine
 10
10344.62007933744
 20
1998.102531423739
 30
0.0
 11
10149.98674566065
 21
2192.735865100523
 31
0.0
  0
LINE
  5
267DE
330
747D
100
AcDbEntity
  8
部品1
100
AcDbLine
 10
11336.72824675769
 20
673.1342290396778
 30
0.0
 11
11336.72824675769
 21
3637.441198624325
 31
0.0
  0
TEXT
  5
267DF
330
747D
100
AcDbEntity
  8
部品1
100
AcDbText
 10
7958.623062549829
 20
3457.889266672897
 30
0.0
 40
120.0
  1
基礎詳細
  7
STYLE2
100
AcDbText
  0
LINE
  5
267E0
330
747D
100
AcDbEntity
  8
部品1
 48
50.0
100
AcDbLine
 10
8273.850813357897
 20
2636.977812532882
 30
0.0
 11
8289.850813357899
 21
2628.977812532883
 31
0.0
  0
LINE
  5
267E1
330
747D
100
AcDbEntity
  8
細線
 48
50.0
100
AcDbLine
 10
8241.850813357897
 20
2588.977812532882
 30
0.0
 11
8241.850813357897
 21
2620.977812532882
 31
0.0
  0
LINE
  5
267E2
330
747D
100
AcDbEntity
  8
部品1
 48
50.0
100
AcDbLine
 10
8289.850813357899
 20
2596.977812532883
 30
0.0
 11
8289.850813357899
 21
2628.977812532883
 31
0.0
  0
LINE
  5
267E3
330
747D
100
AcDbEntity
  8
細線
 48
50.0
100
AcDbLine
 10
8273.850813357897
 20
2588.977812532882
 30
0.0
 11
8273.850813357897
 21
2620.977812532882
 31
0.0
  0
LINE
  5
267E4
330
747D
100
AcDbEntity
  8
部品1
 48
50.0
100
AcDbLine
 10
8273.850813357897
 20
2620.977812532882
 30
0.0
 11
8289.850813357899
 21
2628.977812532883
 31
0.0
  0
LINE
  5
267E5
330
747D
100
AcDbEntity
  8
部品1
 48
50.0
100
AcDbLine
 10
8241.850813357897
 20
2620.977812532882
 30
0.0
 11
8273.850813357897
 21
2620.977812532882
 31
0.0
  0
LINE
  5
267E6
330
747D
100
AcDbEntity
  8
部品1
 48
50.0
100
AcDbLine
 10
8273.850813357897
 20
2588.977812532882
 30
0.0
 11
8289.850813357899
 21
2596.977812532883
 31
0.0
  0
LINE
  5
267E7
330
747D
100
AcDbEntity
  8
部品1
 48
50.0
100
AcDbLine
 10
8241.850813357897
 20
2588.977812532882
 30
0.0
 11
8273.850813357897
 21
2588.977812532882
 31
0.0
  0
ELLIPSE
  5
267E8
330
747D
100
AcDbEntity
  8
細線
 48
50.0
100
AcDbEllipse
 10
8257.850813357897
 20
2628.977812532883
 30
0.0
 11
14.76670786606846
 21
0.0
 31
0.0
210
0.0
220
0.0
230
1.0
 40
0.2071254069489396
 41
0.0
 42
6.283185307179586
  0
LINE
  5
267E9
330
747D
100
AcDbEntity
  8
部品1
 48
50.0
100
AcDbLine
 10
8241.850813357897
 20
2636.977812532882
 30
0.0
 11
8273.850813357897
 21
2636.977812532882
 31
0.0
  0
LINE
  5
267EA
330
747D
100
AcDbEntity
  8
部品1
 48
50.0
100
AcDbLine
 10
8225.850813357899
 20
2596.977812532883
 30
0.0
 11
8225.850813357899
 21
2628.977812532883
 31
0.0
  0
LINE
  5
267EB
330
747D
100
AcDbEntity
  8
部品1
 48
50.0
100
AcDbLine
 10
8225.850813357899
 20
2628.977812532883
 30
0.0
 11
8241.850813357897
 21
2636.977812532882
 31
0.0
  0
LINE
  5
267EC
330
747D
100
AcDbEntity
  8
部品1
 48
50.0
100
AcDbLine
 10
8225.850813357899
 20
2596.977812532883
 30
0.0
 11
8241.850813357897
 21
2588.977812532882
 31
0.0
  0
LINE
  5
267ED
330
747D
100
AcDbEntity
  8
部品1
 48
50.0
100
AcDbLine
 10
8225.850813357899
 20
2628.977812532883
 30
0.0
 11
8241.850813357897
 21
2620.977812532882
 31
0.0
  0
LINE
  5
267EE
330
747D
100
AcDbEntity
  8
部品1
 48
50.0
100
AcDbLine
 10
8297.850813357898
 20
2497.625819868012
 30
0.0
 11
8297.850813357898
 21
2507.225819868012
 31
0.0
  0
ELLIPSE
  5
267EF
330
747D
100
AcDbEntity
  8
部品1
 48
50.0
100
AcDbEllipse
 10
8257.850813357897
 20
2507.225819868012
 30
0.0
 11
18.4
 21
0.0
 31
0.0
210
0.0
220
0.0
230
1.0
 40
0.3478260869565217
 41
0.0
 42
6.283185307179586
  0
ARC
  5
267F0
330
747D
100
AcDbEntity
  8
部品1
100
AcDbCircle
 10
8096.750813357898
 20
2336.20253142374
 30
0.0
 40
2.7
100
AcDbArc
 50
90.0
 51
180.0
  0
LINE
  5
267F1
330
747D
100
AcDbEntity
  8
部品1
100
AcDbLine
 10
8099.450813357895
 20
2349.70253142374
 30
0.0
 11
8141.750813357898
 21
2349.702531423736
 31
0.0
  0
LINE
  5
267F2
330
747D
100
AcDbEntity
  8
部品1
100
AcDbLine
 10
8096.750813357898
 20
2338.90253142374
 30
0.0
 11
8096.750813357898
 21
2347.002531423739
 31
0.0
  0
LINE
  5
267F3
330
747D
100
AcDbEntity
  8
部品1
100
AcDbLine
 10
8096.750813357898
 20
2338.90253142374
 30
0.0
 11
8096.750813357898
 21
2338.90253142374
 31
0.0
  0
ARC
  5
267F4
330
747D
100
AcDbEntity
  8
部品1
100
AcDbCircle
 10
8099.450813357895
 20
2347.002531423739
 30
0.0
 40
2.7
100
AcDbArc
 50
90.0
 51
180.0
  0
ARC
  5
267F5
330
747D
100
AcDbEntity
  8
部品1
100
AcDbCircle
 10
8141.750813357898
 20
2347.002531423736
 30
0.0
 40
2.7
100
AcDbArc
 50
0.0
 51
90.0
  0
LINE
  5
267F6
330
747D
100
AcDbEntity
  8
部品1
 48
50.0
100
AcDbLine
 10
8217.850813357898
 20
2507.225819868012
 30
0.0
 11
8217.850813357898
 21
2497.625819868012
 31
0.0
  0
ELLIPSE
  5
267F7
330
747D
100
AcDbEntity
  8
部品1
 48
50.0
100
AcDbEllipse
 10
8257.850813357897
 20
2497.625819868013
 30
0.0
 11
40.0
 21
0.0
 31
0.0
210
0.0
220
0.0
230
1.0
 40
0.4
 41
3.141592653589793
 42
6.283185307179586
  0
ELLIPSE
  5
267F8
330
747D
100
AcDbEntity
  8
部品1
 48
50.0
100
AcDbEllipse
 10
8257.850813357897
 20
2507.225819868012
 30
0.0
 11
40.0
 21
0.0
 31
0.0
210
0.0
220
0.0
230
1.0
 40
0.4
 41
0.0
 42
6.283185307179586
  0
LINE
  5
267F9
330
747D
100
AcDbEntity
  8
部品1
100
AcDbLine
 10
8252.450813357896
 20
2290.86253142374
 30
0.0
 11
8263.250813357897
 21
2290.86253142374
 31
0.0
  0
LINE
  5
267FA
330
747D
100
AcDbEntity
  8
部品1
100
AcDbLine
 10
8248.850813357897
 20
2287.26253142374
 30
0.0
 11
8266.850813357898
 21
2287.26253142374
 31
0.0
  0
LINE
  5
267FB
330
747D
100
AcDbEntity
  8
細線
100
AcDbLine
 10
8252.450813357901
 20
2247.66253142374
 30
0.0
 11
8252.450813357896
 21
2290.86253142374
 31
0.0
  0
LINE
  5
267FC
330
747D
100
AcDbEntity
  8
細線
100
AcDbLine
 10
8263.250813357897
 20
2247.66253142374
 30
0.0
 11
8263.250813357897
 21
2290.86253142374
 31
0.0
  0
LINE
  5
267FD
330
747D
100
AcDbEntity
  8
部品1
100
AcDbLine
 10
8165.150813357897
 20
2304.96253142374
 30
0.0
 11
8165.150813357897
 21
2287.86253142374
 31
0.0
  0
LINE
  5
267FE
330
747D
100
AcDbEntity
  8
部品1
100
AcDbLine
 10
8198.710813357898
 20
2304.96253142374
 30
0.0
 11
8198.710813357896
 21
2250.36253142374
 31
0.0
  0
ARC
  5
267FF
330
747D
100
AcDbEntity
  8
部品1
100
AcDbCircle
 10
8184.050813357899
 20
2293.002531423739
 30
0.0
 40
2.7
100
AcDbArc
 50
0.0
 51
90.0
  0
LINE
  5
26800
330
747D
100
AcDbEntity
  8
部品1
100
AcDbLine
 10
8144.450813357897
 20
2295.70253142374
 30
0.0
 11
8184.050813357899
 21
2295.70253142374
 31
0.0
  0
ARC
  5
26801
330
747D
100
AcDbEntity
  8
部品1
100
AcDbCircle
 10
8184.050813357899
 20
2250.36253142374
 30
0.0
 40
2.7
100
AcDbArc
 50
270.0
 51
0.0
  0
ARC
  5
26802
330
747D
100
AcDbEntity
  8
部品1
100
AcDbCircle
 10
8201.410813357892
 20
2250.36253142374
 30
0.0
 40
2.7
100
AcDbArc
 50
180.0
 51
270.0
  0
LINE
  5
26803
330
747D
100
AcDbEntity
  8
部品1
100
AcDbLine
 10
8172.350813357899
 20
2247.66253142374
 30
0.0
 11
8184.050813357899
 21
2247.66253142374
 31
0.0
  0
LINE
  5
26804
330
747D
100
AcDbEntity
  8
部品1
100
AcDbLine
 10
8186.750813357898
 20
2293.002531423739
 30
0.0
 11
8186.750813357898
 21
2250.36253142374
 31
0.0
  0
ARC
  5
26805
330
747D
100
AcDbEntity
  8
部品1
100
AcDbCircle
 10
8196.010813357899
 20
2304.96253142374
 30
0.0
 40
2.7
100
AcDbArc
 50
0.0
 51
90.0
  0
ARC
  5
26806
330
747D
100
AcDbEntity
  8
部品1
100
AcDbCircle
 10
8167.850813357899
 20
2304.96253142374
 30
0.0
 40
2.7
100
AcDbArc
 50
90.0
 51
180.0
  0
LINE
  5
26807
330
747D
100
AcDbEntity
  8
部品1
100
AcDbLine
 10
8167.850813357899
 20
2307.66253142374
 30
0.0
 11
8196.010813357899
 21
2307.66253142374
 31
0.0
  0
LINE
  5
26808
330
747D
100
AcDbEntity
  8
部品1
100
AcDbLine
 10
8144.450813357897
 20
2347.002531423736
 30
0.0
 11
8144.450813357897
 21
2295.70253142374
 31
0.0
  0
LINE
  5
26809
330
747D
100
AcDbEntity
  8
部品1
100
AcDbLine
 10
8094.050813357899
 20
2328.10253142374
 30
0.0
 11
8094.050813357899
 21
2336.20253142374
 31
0.0
  0
LINE
  5
2680A
330
747D
100
AcDbEntity
  8
部品1
100
AcDbLine
 10
8201.410813357892
 20
2247.66253142374
 30
0.0
 11
8402.750813357892
 21
2247.66253142374
 31
0.0
  0
LINE
  5
2680B
330
747D
100
AcDbEntity
  8
部品1
100
AcDbLine
 10
8042.750813357898
 20
2250.36253142374
 30
0.0
 11
8042.750813357898
 21
2312.494435126447
 31
0.0
  0
LINE
  5
2680C
330
747D
100
AcDbEntity
  8
部品1
100
AcDbLine
 10
8045.450813357897
 20
2247.66253142374
 30
0.0
 11
8057.150813357891
 21
2247.66253142374
 31
0.0
  0
LINE
  5
2680D
330
747D
100
AcDbEntity
  8
細線
 48
50.0
100
AcDbLine
 10
8036.450813357896
 20
2225.883107723645
 30
0.0
 11
8048.670237057992
 21
2238.10253142374
 31
0.0
  0
ARC
  5
2680E
330
747D
100
AcDbEntity
  8
部品1
100
AcDbCircle
 10
8045.450813357897
 20
2250.36253142374
 30
0.0
 40
2.7
100
AcDbArc
 50
180.0
 51
270.0
  0
LINE
  5
2680F
330
747D
100
AcDbEntity
  8
部品1
100
AcDbLine
 10
8044.795967170299
 20
2315.113819876839
 30
0.0
 11
8053.550813357899
 21
2317.302531423739
 31
0.0
  0
ARC
  5
26810
330
747D
100
AcDbEntity
  8
部品1
100
AcDbCircle
 10
8045.450813357897
 20
2312.494435126447
 30
0.0
 40
2.7
100
AcDbArc
 50
104.0362434679059
 51
180.0
  0
ARC
  5
26811
330
747D
100
AcDbEntity
  8
部品1
100
AcDbCircle
 10
8056.250813357896
 20
2325.40253142374
 30
0.0
 40
2.7
100
AcDbArc
 50
90.0
 51
180.0
  0
LINE
  5
26812
330
747D
100
AcDbEntity
  8
部品1
100
AcDbLine
 10
8053.550813357899
 20
2317.302531423739
 30
0.0
 11
8053.550813357899
 21
2325.40253142374
 31
0.0
  0
LINE
  5
26813
330
747D
100
AcDbEntity
  8
部品1
 48
50.0
100
AcDbLine
 10
8036.450813357896
 20
2238.10253142374
 30
0.0
 11
8450.450813357901
 21
2238.10253142374
 31
0.0
  0
LINE
  5
26814
330
747D
100
AcDbEntity
  8
細線
 48
50.0
100
AcDbLine
 10
8036.450813357896
 20
2172.001570997229
 30
0.0
 11
8102.551773784409
 21
2238.10253142374
 31
0.0
  0
LINE
  5
26815
330
747D
100
AcDbEntity
  8
細線
 48
50.0
100
AcDbLine
 10
8036.450813357896
 20
2198.942339360438
 30
0.0
 11
8075.611005421205
 21
2238.10253142374
 31
0.0
  0
LINE
  5
26816
330
747D
100
AcDbEntity
  8
部品1
100
AcDbLine
 10
8056.250813357896
 20
2328.10253142374
 30
0.0
 11
8094.050813357899
 21
2328.10253142374
 31
0.0
  0
LINE
  5
26817
330
747D
100
AcDbEntity
  8
部品1
 48
50.0
100
AcDbLine
 10
8450.450813357896
 20
1694.102531423739
 30
0.0
 11
8578.450813357896
 21
1694.102531423739
 31
0.0
  0
LINE
  5
26818
330
747D
100
AcDbEntity
  8
部品1
100
AcDbLine
 10
8266.850813357898
 20
2013.10253142374
 30
0.0
 11
8302.850813357897
 21
2013.10253142374
 31
0.0
  0
LINE
  5
26819
330
747D
100
AcDbEntity
  8
部品1
100
AcDbLine
 10
8266.850813357898
 20
1995.102531423739
 30
0.0
 11
8302.850813357897
 21
1995.102531423739
 31
0.0
  0
ARC
  5
2681A
330
747D
100
AcDbEntity
  8
部品1
100
AcDbCircle
 10
8266.850813357898
 20
2013.10253142374
 30
0.0
 40
18.0
100
AcDbArc
 50
180.0
 51
270.0
  0
LINE
  5
2681B
330
747D
100
AcDbEntity
  8
部品1
100
AcDbLine
 10
8302.850813357897
 20
1995.102531423739
 30
0.0
 11
8302.850813357897
 21
2013.10253142374
 31
0.0
  0
LINE
  5
2681C
330
747D
100
AcDbEntity
  8
部品1
100
AcDbLine
 10
8320.850813357898
 20
1914.102531423738
 30
0.0
 11
8194.850813357891
 21
1914.102531423738
 31
0.0
  0
LINE
  5
2681D
330
747D
100
AcDbEntity
  8
細線
 48
50.0
100
AcDbLine
 10
8614.828638550234
 20
1430.102531423737
 30
0.0
 11
8608.397857931887
 21
1454.102531423737
 31
0.0
  0
LINE
  5
2681E
330
747D
100
AcDbEntity
  8
細線
 48
50.0
100
AcDbLine
 10
8535.940593602987
 20
1430.102531423737
 30
0.0
 11
8529.50981298464
 21
1454.102531423737
 31
0.0
  0
LINE
  5
2681F
330
747D
100
AcDbEntity
  8
細線
 48
50.0
100
AcDbLine
 10
8457.052548655731
 20
1430.102531423739
 30
0.0
 11
8450.621768037384
 21
1454.102531423739
 31
0.0
  0
LINE
  5
26820
330
747D
100
AcDbEntity
  8
細線
 48
50.0
100
AcDbLine
 10
8593.392703155743
 20
1350.102531423738
 30
0.0
 11
8599.823483774091
 21
1326.102531423738
 31
0.0
  0
LINE
  5
26821
330
747D
100
AcDbEntity
  8
細線
 48
50.0
100
AcDbLine
 10
8514.504658208499
 20
1350.102531423738
 30
0.0
 11
8520.935438826844
 21
1326.102531423738
 31
0.0
  0
LINE
  5
26822
330
747D
100
AcDbEntity
  8
細線
 48
50.0
100
AcDbLine
 10
8435.616613261249
 20
1350.102531423739
 30
0.0
 11
8442.047393879606
 21
1326.102531423739
 31
0.0
  0
LINE
  5
26823
330
747D
100
AcDbEntity
  8
細線
 48
50.0
100
AcDbLine
 10
8508.073877590147
 20
1326.102531423737
 30
0.0
 11
8542.37137422133
 21
1454.102531423736
 31
0.0
  0
LINE
  5
26824
330
747D
100
AcDbEntity
  8
細線
 48
50.0
100
AcDbLine
 10
8429.185832642899
 20
1326.102531423738
 30
0.0
 11
8463.483329274074
 21
1454.102531423739
 31
0.0
  0
LINE
  5
26825
330
747D
100
AcDbEntity
  8
細線
 48
50.0
100
AcDbLine
 10
8586.961922537392
 20
1326.102531423738
 30
0.0
 11
8621.259419168579
 21
1454.102531423736
 31
0.0
  0
LINE
  5
26826
330
747D
100
AcDbEntity
  8
部品1
 48
50.0
100
AcDbLine
 10
8658.4508133579
 20
1454.102531423739
 30
0.0
 11
8658.4508133579
 21
1326.102531423739
 31
0.0
  0
LINE
  5
26827
330
747D
100
AcDbEntity
  8
細線
 48
50.0
100
AcDbLine
 10
8378.164503708493
 20
1430.102531423739
 30
0.0
 11
8371.733723090146
 21
1454.102531423739
 31
0.0
  0
LINE
  5
26828
330
747D
100
AcDbEntity
  8
細線
 48
50.0
100
AcDbLine
 10
8299.276458761246
 20
1430.102531423739
 30
0.0
 11
8292.845678142899
 21
1454.102531423739
 31
0.0
  0
LINE
  5
26829
330
747D
100
AcDbEntity
  8
細線
 48
50.0
100
AcDbLine
 10
8141.500368866752
 20
1430.102531423739
 30
0.0
 11
8135.069588248407
 21
1454.102531423739
 31
0.0
  0
LINE
  5
2682A
330
747D
100
AcDbEntity
  8
細線
 48
50.0
100
AcDbLine
 10
8220.388413813999
 20
1430.102531423739
 30
0.0
 11
8213.957633195652
 21
1454.102531423739
 31
0.0
  0
LINE
  5
2682B
330
747D
100
AcDbEntity
  8
細線
 48
50.0
100
AcDbLine
 10
8277.840523366759
 20
1350.102531423739
 30
0.0
 11
8284.271303985105
 21
1326.102531423739
 31
0.0
  0
LINE
  5
2682C
330
747D
100
AcDbEntity
  8
細線
 48
50.0
100
AcDbLine
 10
8356.728568314004
 20
1350.102531423739
 30
0.0
 11
8363.159348932349
 21
1326.102531423739
 31
0.0
  0
LINE
  5
2682D
330
747D
100
AcDbEntity
  8
細線
 48
50.0
100
AcDbLine
 10
8120.064433472263
 20
1350.102531423739
 30
0.0
 11
8126.495214090612
 21
1326.102531423739
 31
0.0
  0
LINE
  5
2682E
330
747D
100
AcDbEntity
  8
細線
 48
50.0
100
AcDbLine
 10
8198.952478419512
 20
1350.102531423739
 30
0.0
 11
8205.383259037859
 21
1326.102531423739
 31
0.0
  0
LINE
  5
2682F
330
747D
100
AcDbEntity
  8
細線
 48
50.0
100
AcDbLine
 10
8350.29778769565
 20
1326.102531423739
 30
0.0
 11
8384.595284326834
 21
1454.102531423737
 31
0.0
  0
LINE
  5
26830
330
747D
100
AcDbEntity
  8
細線
 48
50.0
100
AcDbLine
 10
8192.52169780116
 20
1326.102531423739
 30
0.0
 11
8226.819194432344
 21
1454.102531423737
 31
0.0
  0
LINE
  5
26831
330
747D
100
AcDbEntity
  8
細線
 48
50.0
100
AcDbLine
 10
8113.633652853911
 20
1326.102531423739
 30
0.0
 11
8147.931149485096
 21
1454.102531423739
 31
0.0
  0
LINE
  5
26832
330
747D
100
AcDbEntity
  8
細線
 48
50.0
100
AcDbLine
 10
8271.409742748408
 20
1326.102531423738
 30
0.0
 11
8305.707239379591
 21
1454.102531423737
 31
0.0
  0
LINE
  5
26833
330
747D
100
AcDbEntity
  8
細線
 48
50.0
100
AcDbLine
 10
8396.182508312707
 20
1454.102531423739
 30
0.0
 11
8578.450813357896
 21
1636.370836468935
 31
0.0
  0
LINE
  5
26834
330
747D
100
AcDbEntity
  8
部品1
 48
50.0
100
AcDbLine
 10
8578.450813357896
 20
1694.102531423739
 30
0.0
 11
8578.450813357896
 21
1454.102531423739
 31
0.0
  0
LINE
  5
26835
330
747D
100
AcDbEntity
  8
細線
 48
50.0
100
AcDbLine
 10
8369.241739949503
 20
1454.102531423739
 30
0.0
 11
8578.450813357896
 21
1663.311604832133
 31
0.0
  0
LINE
  5
26836
330
747D
100
AcDbEntity
  8
細線
 48
50.0
100
AcDbLine
 10
8342.30097158629
 20
1454.102531423739
 30
0.0
 11
8578.450813357896
 21
1690.252373195348
 31
0.0
  0
LINE
  5
26837
330
747D
100
AcDbEntity
  8
細線
 48
50.0
100
AcDbLine
 10
8126.774824680632
 20
1454.102531423739
 30
0.0
 11
8450.450813357896
 21
1777.778520101006
 31
0.0
  0
LINE
  5
26838
330
747D
100
AcDbEntity
  8
細線
 48
50.0
100
AcDbLine
 10
8180.656361407047
 20
1454.102531423739
 30
0.0
 11
8450.450813357896
 21
1723.896983374597
 31
0.0
  0
LINE
  5
26839
330
747D
100
AcDbEntity
  8
細線
 48
50.0
100
AcDbLine
 10
8153.715593043841
 20
1454.102531423739
 30
0.0
 11
8450.450813357896
 21
1750.837751737792
 31
0.0
  0
LINE
  5
2683A
330
747D
100
AcDbEntity
  8
細線
 48
50.0
100
AcDbLine
 10
7908.450813357894
 20
1666.830813912325
 30
0.0
 11
7935.722530869313
 21
1694.102531423739
 31
0.0
  0
LINE
  5
2683B
330
747D
100
AcDbEntity
  8
部品1
 48
50.0
100
AcDbLine
 10
7908.450813357896
 20
1694.102531423739
 30
0.0
 11
8036.450813357896
 21
1694.102531423739
 31
0.0
  0
LINE
  5
2683C
330
747D
100
AcDbEntity
  8
細線
 48
50.0
100
AcDbLine
 10
7908.450813357894
 20
1639.890045549115
 30
0.0
 11
7962.663299232521
 21
1694.102531423739
 31
0.0
  0
LWPOLYLINE
  5
2683D
330
747D
100
AcDbEntity
  8
部品1
 48
50.0
100
AcDbPolyline
 90
        2
 70
     0
 43
8.0
 10
7622.310911524941
 20
1998.10253142374
 10
8036.450813357896
 20
1998.10253142374
  0
LINE
  5
2683E
330
747D
100
AcDbEntity
  8
細線
 48
50.0
100
AcDbLine
 10
7983.724278972251
 20
1430.102531423739
 30
0.0
 11
7977.293498353903
 21
1454.102531423739
 31
0.0
  0
LINE
  5
2683F
330
747D
100
AcDbEntity
  8
細線
 48
50.0
100
AcDbLine
 10
8062.612323919502
 20
1430.102531423739
 30
0.0
 11
8056.181543301155
 21
1454.102531423739
 31
0.0
  0
LINE
  5
26840
330
747D
100
AcDbEntity
  8
細線
 48
50.0
100
AcDbLine
 10
7904.836234024999
 20
1430.102531423739
 30
0.0
 11
7898.405453406653
 21
1454.102531423739
 31
0.0
  0
LINE
  5
26841
330
747D
100
AcDbEntity
  8
細線
 48
50.0
100
AcDbLine
 10
7828.450813357896
 20
1439.442452389519
 30
0.0
 11
7832.378969696093
 21
1454.102531423739
 31
0.0
  0
LINE
  5
26842
330
747D
100
AcDbEntity
  8
細線
 48
50.0
100
AcDbLine
 10
7962.288343577762
 20
1350.102531423739
 30
0.0
 11
7968.719124196109
 21
1326.102531423739
 31
0.0
  0
LINE
  5
26843
330
747D
100
AcDbEntity
  8
細線
 48
50.0
100
AcDbLine
 10
8041.176388525013
 20
1350.102531423739
 30
0.0
 11
8047.607169143359
 21
1326.102531423739
 31
0.0
  0
LINE
  5
26844
330
747D
100
AcDbEntity
  8
細線
 48
50.0
100
AcDbLine
 10
7883.400298630509
 20
1350.102531423739
 30
0.0
 11
7889.831079248856
 21
1326.102531423739
 31
0.0
  0
LINE
  5
26845
330
747D
100
AcDbEntity
  8
細線
 48
50.0
100
AcDbLine
 10
8034.745607906662
 20
1326.102531423738
 30
0.0
 11
8069.043104537843
 21
1454.102531423737
 31
0.0
  0
LINE
  5
26846
330
747D
100
AcDbEntity
  8
細線
 48
50.0
100
AcDbLine
 10
7876.969518012156
 20
1326.102531423738
 30
0.0
 11
7911.267014643339
 21
1454.102531423737
 31
0.0
  0
LINE
  5
26847
330
747D
100
AcDbEntity
  8
部品1
 48
50.0
100
AcDbLine
 10
7828.450813357901
 20
1326.102531423739
 30
0.0
 11
7828.450813357901
 21
1454.102531423739
 31
0.0
  0
LINE
  5
26848
330
747D
100
AcDbEntity
  8
細線
 48
50.0
100
AcDbLine
 10
7955.857562959415
 20
1326.102531423739
 30
0.0
 11
7990.155059590597
 21
1454.102531423739
 31
0.0
  0
LINE
  5
26849
330
747D
100
AcDbEntity
  8
部品1
 48
50.0
100
AcDbLine
 10
7908.450813357896
 20
1454.102531423739
 30
0.0
 11
7908.450813357896
 21
1694.102531423739
 31
0.0
  0
LINE
  5
2684A
330
747D
100
AcDbEntity
  8
細線
 48
50.0
100
AcDbLine
 10
7908.450813357894
 20
1612.94927718591
 30
0.0
 11
7989.604067595727
 21
1694.102531423739
 31
0.0
  0
LINE
  5
2684B
330
747D
100
AcDbEntity
  8
部品1
 48
50.0
100
AcDbLine
 10
8658.4508133579
 20
1326.102531423739
 30
0.0
 11
7828.450813357901
 21
1326.102531423739
 31
0.0
  0
LINE
  5
2684C
330
747D
100
AcDbEntity
  8
部品1
 48
50.0
100
AcDbLine
 10
8658.4508133579
 20
1454.102531423739
 30
0.0
 11
7828.450813357901
 21
1454.102531423739
 31
0.0
  0
LINE
  5
2684D
330
747D
100
AcDbEntity
  8
細線
 48
50.0
100
AcDbLine
 10
7911.248677774972
 20
1454.102531423739
 30
0.0
 11
8450.450813357896
 21
1993.304667006665
 31
0.0
  0
LINE
  5
2684E
330
747D
100
AcDbEntity
  8
細線
 48
50.0
100
AcDbLine
 10
7938.189446138181
 20
1454.102531423739
 30
0.0
 11
8450.450813357901
 21
1966.363898643453
 31
0.0
  0
LINE
  5
2684F
330
747D
100
AcDbEntity
  8
細線
 48
50.0
100
AcDbLine
 10
7965.130214501387
 20
1454.102531423739
 30
0.0
 11
8450.450813357896
 21
1939.423130280247
 31
0.0
  0
LINE
  5
26850
330
747D
100
AcDbEntity
  8
細線
 48
50.0
100
AcDbLine
 10
8036.450813357896
 20
1794.830813912325
 30
0.0
 11
8194.850813357891
 21
1953.23081391232
 31
0.0
  0
LINE
  5
26851
330
747D
100
AcDbEntity
  8
細線
 48
50.0
100
AcDbLine
 10
8036.450813357896
 20
1740.94927718591
 30
0.0
 11
8209.604067595734
 21
1914.102531423738
 31
0.0
  0
LINE
  5
26852
330
747D
100
AcDbEntity
  8
細線
 48
50.0
100
AcDbLine
 10
8036.450813357896
 20
1767.890045549117
 30
0.0
 11
8194.850813357891
 21
1926.290045549106
 31
0.0
  0
LINE
  5
26853
330
747D
100
AcDbEntity
  8
部品1
100
AcDbLine
 10
8194.850813357891
 20
1914.102531423739
 30
0.0
 11
8194.850813357898
 21
2238.10253142374
 31
0.0
  0
LINE
  5
26854
330
747D
100
AcDbEntity
  8
部品1
100
AcDbLine
 10
8320.850813357898
 20
1914.102531423739
 30
0.0
 11
8320.850813357898
 21
2238.10253142374
 31
0.0
  0
LINE
  5
26855
330
747D
100
AcDbEntity
  8
細線
 48
50.0
100
AcDbLine
 10
8320.850813357898
 20
2052.290045549111
 30
0.0
 11
8450.450813357896
 21
2181.890045549108
 31
0.0
  0
LINE
  5
26856
330
747D
100
AcDbEntity
  8
細線
 48
50.0
100
AcDbLine
 10
8320.850813357898
 20
2025.349277185898
 30
0.0
 11
8450.450813357896
 21
2154.94927718589
 31
0.0
  0
LINE
  5
26857
330
747D
100
AcDbEntity
  8
部品1
100
AcDbLine
 10
8248.850813357897
 20
2013.10253142374
 30
0.0
 11
8248.850813357895
 21
2287.26253142374
 31
0.0
  0
LINE
  5
26858
330
747D
100
AcDbEntity
  8
部品1
100
AcDbLine
 10
8266.850813357898
 20
2013.10253142374
 30
0.0
 11
8266.850813357894
 21
2287.26253142374
 31
0.0
  0
TEXT
  5
26859
330
747D
100
AcDbEntity
  8
部品1
 48
50.0
100
AcDbText
 10
7622.310911524941
 20
2009.341523706995
 30
0.0
 40
80.0
  1
▽G.L
  7
STYLE2
100
AcDbText
  0
LINE
  5
2685A
330
747D
100
AcDbEntity
  8
細線
 48
50.0
100
AcDbLine
 10
8036.450813357896
 20
1956.47542409157
 30
0.0
 11
8194.850813357893
 21
2114.875424091562
 31
0.0
  0
LINE
  5
2685B
330
747D
100
AcDbEntity
  8
細線
 48
50.0
100
AcDbLine
 10
8036.450813357896
 20
1983.416192454777
 30
0.0
 11
8194.850813357897
 21
2141.816192454775
 31
0.0
  0
LINE
  5
2685C
330
747D
100
AcDbEntity
  8
細線
 48
50.0
100
AcDbLine
 10
8036.450813357896
 20
2010.356960817985
 30
0.0
 11
8194.850813357897
 21
2168.756960817982
 31
0.0
  0
LINE
  5
2685D
330
747D
100
AcDbEntity
  8
部品1
 48
50.0
100
AcDbLine
 10
8036.450813357896
 20
1694.102531423739
 30
0.0
 11
8036.450813357896
 21
2238.10253142374
 31
0.0
  0
LINE
  5
2685E
330
747D
100
AcDbEntity
  8
部品1
100
AcDbLine
 10
8450.450813357896
 20
1694.102531423739
 30
0.0
 11
8450.450813357896
 21
2238.10253142374
 31
0.0
  0
LINE
  5
2685F
330
747D
100
AcDbEntity
  8
細線
 48
50.0
100
AcDbLine
 10
8320.850813357898
 20
2079.230813912328
 30
0.0
 11
8450.450813357896
 21
2208.830813912326
 31
0.0
  0
LINE
  5
26860
330
747D
100
AcDbEntity
  8
細線
 48
50.0
100
AcDbLine
 10
6444.903922683174
 20
2118.849383320456
 30
0.0
 11
6528.411500180704
 21
2202.356960817985
 31
0.0
  0
LINE
  5
26861
330
747D
100
AcDbEntity
  8
細線
 48
50.0
100
AcDbLine
 10
6455.96420744669
 20
2102.968899720762
 30
0.0
 11
6528.411500180704
 21
2175.416192454777
 31
0.0
  0
LINE
  5
26862
330
747D
100
AcDbEntity
  8
細線
 48
50.0
100
AcDbLine
 10
6336.411500180704
 20
2225.883107723645
 30
0.0
 11
6348.630923880799
 21
2238.10253142374
 31
0.0
  0
LINE
  5
26863
330
747D
100
AcDbEntity
  8
細線
 48
50.0
100
AcDbLine
 10
6336.411500180704
 20
2172.001570997229
 30
0.0
 11
6402.512460607212
 21
2238.10253142374
 31
0.0
  0
LINE
  5
26864
330
747D
100
AcDbEntity
  8
細線
 48
50.0
100
AcDbLine
 10
6336.411500180704
 20
2198.942339360438
 30
0.0
 11
6375.571692244008
 21
2238.10253142374
 31
0.0
  0
LINE
  5
26865
330
747D
100
AcDbEntity
  8
部品1
 48
50.0
100
AcDbLine
 10
6336.411500180704
 20
2238.10253142374
 30
0.0
 11
6528.411500180704
 21
2238.10253142374
 31
0.0
  0
DIMENSION
  5
26866
330
747D
100
AcDbEntity
  8
寸法
 48
50.0
100
AcDbDimension
  2
*D56
 10
6336.411500180703
 20
2657.77033934012
 30
0.0
 11
6432.411500180703
 21
2657.77033934012
 31
0.0
 70
   160
  1
120\P200\P280
 71
     5
 42
192.0
  3
INABA_S40G
100
AcDbAlignedDimension
 13
6528.411500180704
 23
2238.10253142374
 33
0.0
 14
6336.411500180703
 24
2238.10253142374
 34
0.0
100
AcDbRotatedDimension
1001
ACAD
1000
DSTYLE
1002
{
1070
   341
1005
0
1002
}
  0
MTEXT
  5
26867
102
{ACAD_REACTORS
330
268BC
102
}
330
747D
100
AcDbEntity
  8
寸法
 62
     7
 48
50.0
100
AcDbMText
 10
6770.149956041954
 20
1276.753445691586
 30
0.0
 40
80.0
 41
0.8
 71
     4
 72
     1
  1
\A1;D10@300
  7
STYLE2
 73
     1
 44
1.0
1001
ACAD
1000
MTEXTBEGIN
1070
    73
1070
     1
1070
    44
1040
1.0
1070
    74
1070
     0
1000
MTEXTEND
  0
LINE
  5
26868
330
747D
100
AcDbEntity
  8
細線
 48
50.0
100
AcDbLine
 10
6456.41150018071
 20
1887.89004554912
 30
0.0
 11
6528.411500180697
 21
1959.890045549115
 31
0.0
  0
LINE
  5
26869
330
747D
100
AcDbEntity
  8
細線
 48
50.0
100
AcDbLine
 10
6456.411500180704
 20
1914.830813912325
 30
0.0
 11
6528.411500180704
 21
1986.830813912325
 31
0.0
  0
LINE
  5
2686A
330
747D
100
AcDbEntity
  8
細線
 48
50.0
100
AcDbLine
 10
6456.41150018071
 20
1645.423130280251
 30
0.0
 11
6528.411500180697
 21
1717.423130280251
 31
0.0
  0
LINE
  5
2686B
330
747D
100
AcDbEntity
  8
細線
 48
50.0
100
AcDbLine
 10
6456.41150018071
 20
1699.304667006668
 30
0.0
 11
6528.411500180697
 21
1771.304667006665
 31
0.0
  0
LINE
  5
2686C
330
747D
100
AcDbEntity
  8
細線
 48
50.0
100
AcDbLine
 10
6456.41150018071
 20
1672.36389864346
 30
0.0
 11
6528.411500180697
 21
1744.363898643455
 31
0.0
  0
LINE
  5
2686D
330
747D
100
AcDbEntity
  8
部品1
 48
50.0
100
AcDbLine
 10
6528.411500180704
 20
1694.102531423739
 30
0.0
 11
6656.411500180704
 21
1694.102531423739
 31
0.0
  0
LINE
  5
2686E
330
747D
100
AcDbEntity
  8
細線
 48
50.0
100
AcDbLine
 10
6456.41150018071
 20
1860.94927718591
 30
0.0
 11
6528.411500180697
 21
1932.94927718591
 31
0.0
  0
LINE
  5
2686F
330
747D
100
AcDbEntity
  8
部品1
 48
50.0
100
AcDbLine
 10
6424.411500180704
 20
2040.229746120862
 30
0.0
 11
6424.411500180704
 21
2098.356960817985
 31
0.0
  0
LINE
  5
26870
330
747D
100
AcDbEntity
  8
細線
 48
50.0
100
AcDbLine
 10
6336.411500180704
 20
2010.356960817985
 30
0.0
 11
6408.411500180704
 21
2082.356960817985
 31
0.0
  0
LINE
  5
26871
330
747D
100
AcDbEntity
  8
部品1
 48
50.0
100
AcDbLine
 10
6408.411500180704
 20
2040.229746120866
 30
0.0
 11
6408.411500180704
 21
2098.356960817985
 31
0.0
  0
LINE
  5
26872
330
747D
100
AcDbEntity
  8
細線
 48
50.0
100
AcDbLine
 10
6336.411500180704
 20
1983.416192454777
 30
0.0
 11
6408.411500180704
 21
2055.416192454777
 31
0.0
  0
LINE
  5
26873
330
747D
100
AcDbEntity
  8
細線
 48
50.0
100
AcDbLine
 10
6336.411500180704
 20
1956.47542409157
 30
0.0
 11
6420.165822209998
 21
2040.229746120862
 31
0.0
  0
LINE
  5
26874
330
747D
100
AcDbEntity
  8
部品1
 48
50.0
100
AcDbLine
 10
6424.411500180704
 20
2040.229746120862
 30
0.0
 11
6408.411500180704
 21
2040.229746120866
 31
0.0
  0
LINE
  5
26875
330
747D
100
AcDbEntity
  8
細線
 48
50.0
100
AcDbLine
 10
6208.411500180697
 20
1666.830813912325
 30
0.0
 11
6235.683217692118
 21
1694.102531423739
 31
0.0
  0
LINE
  5
26876
330
747D
100
AcDbEntity
  8
細線
 48
50.0
100
AcDbLine
 10
6208.411500180697
 20
1639.890045549115
 30
0.0
 11
6262.623986055329
 21
1694.102531423739
 31
0.0
  0
LINE
  5
26877
330
747D
100
AcDbEntity
  8
部品1
 48
50.0
100
AcDbLine
 10
6208.411500180704
 20
1694.102531423739
 30
0.0
 11
6336.411500180704
 21
1694.102531423739
 31
0.0
  0
LINE
  5
26878
330
747D
100
AcDbEntity
  8
細線
 48
50.0
100
AcDbLine
 10
6424.411500180704
 20
2071.416192454777
 30
0.0
 11
6440.411500180704
 21
2087.416192454777
 31
0.0
  0
LINE
  5
26879
330
747D
100
AcDbEntity
  8
細線
 48
50.0
100
AcDbLine
 10
6424.411500180704
 20
2044.47542409157
 30
0.0
 11
6440.411500180704
 21
2060.47542409157
 31
0.0
  0
LINE
  5
2687A
330
747D
100
AcDbEntity
  8
細線
 48
50.0
100
AcDbLine
 10
6336.411500180704
 20
1740.94927718591
 30
0.0
 11
6440.41150018071
 21
1844.94927718591
 31
0.0
  0
LINE
  5
2687B
330
747D
100
AcDbEntity
  8
細線
 48
50.0
100
AcDbLine
 10
6336.411500180704
 20
1794.830813912325
 30
0.0
 11
6440.411500180704
 21
1898.830813912325
 31
0.0
  0
LINE
  5
2687C
330
747D
100
AcDbEntity
  8
細線
 48
50.0
100
AcDbLine
 10
6336.411500180704
 20
1767.890045549117
 30
0.0
 11
6440.41150018071
 21
1871.89004554912
 31
0.0
  0
LINE
  5
2687D
330
747D
100
AcDbEntity
  8
細線
 48
50.0
100
AcDbLine
 10
6599.237145584051
 20
1430.102531423739
 30
0.0
 11
6592.806364965705
 21
1454.102531423739
 31
0.0
  0
LINE
  5
2687E
330
747D
100
AcDbEntity
  8
細線
 48
50.0
100
AcDbLine
 10
6642.261658409097
 20
1454.102531423739
 30
0.0
 11
6656.411500180704
 21
1468.252373195346
 31
0.0
  0
LINE
  5
2687F
330
747D
100
AcDbEntity
  8
細線
 48
50.0
100
AcDbLine
 10
6678.125190531298
 20
1430.102531423739
 30
0.0
 11
6671.694409912951
 21
1454.102531423739
 31
0.0
  0
LINE
  5
26880
330
747D
100
AcDbEntity
  8
部品1
 48
50.0
100
AcDbLine
 10
6600.411500180704
 20
1566.102531423739
 30
0.0
 11
6600.411500180704
 21
1550.102531423739
 31
0.0
  0
LINE
  5
26881
330
747D
100
AcDbEntity
  8
細線
 48
50.0
100
AcDbLine
 10
6480.617048229851
 20
1454.102531423739
 30
0.0
 11
6576.617936074988
 21
1550.103419268878
 31
0.0
  0
LINE
  5
26882
330
747D
100
AcDbEntity
  8
細線
 48
50.0
100
AcDbLine
 10
6453.676279866647
 20
1454.102531423739
 30
0.0
 11
6549.676279866648
 21
1550.102531423739
 31
0.0
  0
LINE
  5
26883
330
747D
100
AcDbEntity
  8
細線
 48
50.0
100
AcDbLine
 10
6520.349100636805
 20
1430.102531423739
 30
0.0
 11
6513.91832001846
 21
1454.102531423739
 31
0.0
  0
LINE
  5
26884
330
747D
100
AcDbEntity
  8
細線
 48
50.0
100
AcDbLine
 10
6441.461055689561
 20
1430.102531423739
 30
0.0
 11
6435.030275071213
 21
1454.102531423739
 31
0.0
  0
ARC
  5
26885
330
747D
100
AcDbEntity
  8
部品1
 48
50.0
100
AcDbCircle
 10
6432.411500180704
 20
1574.102531423739
 30
0.0
 40
24.0
100
AcDbArc
 50
340.5287793655287
 51
0.0
  0
CIRCLE
  5
26886
330
747D
100
AcDbEntity
  8
部品1
 48
50.0
100
AcDbCircle
 10
6560.411500180705
 20
1574.102531423739
 30
0.0
 40
8.0
  0
LINE
  5
26887
330
747D
100
AcDbEntity
  8
細線
 48
50.0
100
AcDbLine
 10
6592.617048229851
 20
1566.102531423739
 30
0.0
 11
6656.411500180704
 21
1629.89698337459
 31
0.0
  0
LINE
  5
26888
330
747D
100
AcDbEntity
  8
細線
 48
50.0
100
AcDbLine
 10
6729.146519465706
 20
1326.102531423738
 30
0.0
 11
6736.411500180704
 21
1353.215808568127
 31
0.0
  0
LINE
  5
26889
330
747D
100
AcDbEntity
  8
細線
 48
50.0
100
AcDbLine
 10
6735.577300084057
 20
1350.102531423739
 30
0.0
 11
6736.411500180704
 21
1346.989254279375
 31
0.0
  0
LINE
  5
2688A
330
747D
100
AcDbEntity
  8
細線
 48
50.0
100
AcDbLine
 10
6656.68925513681
 20
1350.102531423739
 30
0.0
 11
6663.120035755158
 21
1326.102531423739
 31
0.0
  0
LINE
  5
2688B
330
747D
100
AcDbEntity
  8
細線
 48
50.0
100
AcDbLine
 10
6498.913165242317
 20
1350.102531423739
 30
0.0
 11
6505.343945860663
 21
1326.102531423739
 31
0.0
  0
LINE
  5
2688C
330
747D
100
AcDbEntity
  8
細線
 48
50.0
100
AcDbLine
 10
6577.801210189562
 20
1350.102531423739
 30
0.0
 11
6584.231990807911
 21
1326.102531423739
 31
0.0
  0
LINE
  5
2688D
330
747D
100
AcDbEntity
  8
細線
 48
50.0
100
AcDbLine
 10
6571.370429571212
 20
1326.102531423738
 30
0.0
 11
6605.667926202397
 21
1454.102531423737
 31
0.0
  0
LINE
  5
2688E
330
747D
100
AcDbEntity
  8
細線
 48
50.0
100
AcDbLine
 10
6492.482384623963
 20
1326.102531423739
 30
0.0
 11
6526.77988125515
 21
1454.102531423737
 31
0.0
  0
LINE
  5
2688F
330
747D
100
AcDbEntity
  8
細線
 48
50.0
100
AcDbLine
 10
6650.258474518458
 20
1326.102531423739
 30
0.0
 11
6684.555971149642
 21
1454.102531423737
 31
0.0
  0
LINE
  5
26890
330
747D
100
AcDbEntity
  8
部品1
 48
50.0
100
AcDbLine
 10
6736.411500180707
 20
1454.102531423739
 30
0.0
 11
6736.411500180707
 21
1326.102531423739
 31
0.0
  0
LINE
  5
26891
330
747D
100
AcDbEntity
  8
部品1
 48
50.0
100
AcDbLine
 10
6424.411500180704
 20
1632.229746120861
 30
0.0
 11
6424.411500180704
 21
1574.102531423739
 31
0.0
  0
LINE
  5
26892
330
747D
100
AcDbEntity
  8
細線
 48
50.0
100
AcDbLine
 10
6350.150132960987
 20
1566.102531423739
 30
0.0
 11
6408.411500180704
 21
1624.363898643458
 31
0.0
  0
LINE
  5
26893
330
747D
100
AcDbEntity
  8
部品1
 48
50.0
100
AcDbLine
 10
6408.411500180704
 20
1632.229746120861
 30
0.0
 11
6408.411500180704
 21
1574.102531423739
 31
0.0
  0
LINE
  5
26894
330
747D
100
AcDbEntity
  8
細線
 48
50.0
100
AcDbLine
 10
6265.090901324192
 20
1454.102531423739
 30
0.0
 11
6361.090901324192
 21
1550.102531423739
 31
0.0
  0
LINE
  5
26895
330
747D
100
AcDbEntity
  8
細線
 48
50.0
100
AcDbLine
 10
6362.573010742308
 20
1430.102531423739
 30
0.0
 11
6356.142230123961
 21
1454.102531423739
 31
0.0
  0
LINE
  5
26896
330
747D
100
AcDbEntity
  8
細線
 48
50.0
100
AcDbLine
 10
6283.684965795055
 20
1430.102531423739
 30
0.0
 11
6277.254185176709
 21
1454.102531423739
 31
0.0
  0
ARC
  5
26897
330
747D
100
AcDbEntity
  8
部品1
 48
50.0
100
AcDbCircle
 10
6432.411500180704
 20
1574.102531423739
 30
0.0
 40
24.0
100
AcDbArc
 50
180.0
 51
199.4712206344713
  0
LINE
  5
26898
330
747D
100
AcDbEntity
  8
細線
 48
50.0
100
AcDbLine
 10
6377.090901324192
 20
1566.102531423739
 30
0.0
 11
6408.411500180704
 21
1597.423130280251
 31
0.0
  0
CIRCLE
  5
26899
330
747D
100
AcDbEntity
  8
部品1
 48
50.0
100
AcDbCircle
 10
6304.411500180704
 20
1574.102531423739
 30
0.0
 40
8.0
  0
LINE
  5
2689A
330
747D
100
AcDbEntity
  8
部品1
 48
50.0
100
AcDbLine
 10
6424.411500180704
 20
1632.229746120861
 30
0.0
 11
6408.411500180704
 21
1632.229746120861
 31
0.0
  0
LINE
  5
2689B
330
747D
100
AcDbEntity
  8
細線
 48
50.0
100
AcDbLine
 10
6128.411500180703
 20
1439.442452389519
 30
0.0
 11
6132.3396565189
 21
1454.102531423739
 31
0.0
  0
LINE
  5
2689C
330
747D
100
AcDbEntity
  8
細線
 48
50.0
100
AcDbLine
 10
6204.796920847805
 20
1430.102531423739
 30
0.0
 11
6198.366140229456
 21
1454.102531423739
 31
0.0
  0
LINE
  5
2689D
330
747D
100
AcDbEntity
  8
部品1
 48
50.0
100
AcDbLine
 10
6264.411500180704
 20
1566.102531423739
 30
0.0
 11
6264.411500180704
 21
1550.102531423739
 31
0.0
  0
LINE
  5
2689E
330
747D
100
AcDbEntity
  8
細線
 48
50.0
100
AcDbLine
 10
6211.209364597777
 20
1454.102531423739
 30
0.0
 11
6307.209364597777
 21
1550.102531423739
 31
0.0
  0
LINE
  5
2689F
330
747D
100
AcDbEntity
  8
細線
 48
50.0
100
AcDbLine
 10
6238.150132960988
 20
1454.102531423739
 30
0.0
 11
6334.150132960988
 21
1550.102531423739
 31
0.0
  0
LINE
  5
268A0
330
747D
100
AcDbEntity
  8
細線
 48
50.0
100
AcDbLine
 10
6341.137075347819
 20
1350.102531423739
 30
0.0
 11
6347.567855966165
 21
1326.102531423739
 31
0.0
  0
LINE
  5
268A1
330
747D
100
AcDbEntity
  8
細線
 48
50.0
100
AcDbLine
 10
6420.025120295071
 20
1350.102531423739
 30
0.0
 11
6426.455900913417
 21
1326.102531423739
 31
0.0
  0
LINE
  5
268A2
330
747D
100
AcDbEntity
  8
細線
 48
50.0
100
AcDbLine
 10
6183.360985453315
 20
1350.102531423739
 30
0.0
 11
6189.791766071661
 21
1326.102531423739
 31
0.0
  0
LINE
  5
268A3
330
747D
100
AcDbEntity
  8
細線
 48
50.0
100
AcDbLine
 10
6262.249030400566
 20
1350.102531423739
 30
0.0
 11
6268.679811018913
 21
1326.102531423739
 31
0.0
  0
LINE
  5
268A4
330
747D
100
AcDbEntity
  8
部品1
 48
50.0
100
AcDbLine
 10
6128.411500180706
 20
1326.102531423739
 30
0.0
 11
6128.411500180706
 21
1454.102531423739
 31
0.0
  0
LINE
  5
268A5
330
747D
100
AcDbEntity
  8
細線
 48
50.0
100
AcDbLine
 10
6176.930204834962
 20
1326.102531423738
 30
0.0
 11
6211.227701466145
 21
1454.102531423737
 31
0.0
  0
LINE
  5
268A6
330
747D
100
AcDbEntity
  8
細線
 48
50.0
100
AcDbLine
 10
6334.706294729465
 20
1326.102531423738
 30
0.0
 11
6369.003791360649
 21
1454.102531423737
 31
0.0
  0
LINE
  5
268A7
330
747D
100
AcDbEntity
  8
細線
 48
50.0
100
AcDbLine
 10
6255.81824978222
 20
1326.102531423739
 30
0.0
 11
6290.115746413403
 21
1454.102531423739
 31
0.0
  0
LINE
  5
268A8
330
747D
100
AcDbEntity
  8
細線
 48
50.0
100
AcDbLine
 10
6426.735511503437
 20
1454.102531423739
 30
0.0
 11
6522.735511503437
 21
1550.102531423739
 31
0.0
  0
CIRCLE
  5
268A9
330
747D
100
AcDbEntity
  8
部品1
 48
50.0
100
AcDbCircle
 10
6432.411500180704
 20
1574.102531423739
 30
0.0
 40
8.0
  0
LINE
  5
268AA
330
747D
100
AcDbEntity
  8
部品1
 48
50.0
100
AcDbLine
 10
6736.411500180707
 20
1454.102531423739
 30
0.0
 11
6128.411500180706
 21
1454.102531423739
 31
0.0
  0
LINE
  5
268AB
330
747D
100
AcDbEntity
  8
部品1
 48
50.0
100
AcDbLine
 10
6264.411500180704
 20
1566.102531423739
 30
0.0
 11
6600.411500180704
 21
1566.102531423739
 31
0.0
  0
LINE
  5
268AC
330
747D
100
AcDbEntity
  8
部品1
 48
50.0
100
AcDbLine
 10
6264.411500180704
 20
1550.102531423739
 30
0.0
 11
6600.411500180704
 21
1550.102531423739
 31
0.0
  0
LINE
  5
268AD
330
747D
100
AcDbEntity
  8
部品1
 48
50.0
100
AcDbLine
 10
6736.411500180707
 20
1326.102531423739
 30
0.0
 11
6128.411500180706
 21
1326.102531423739
 31
0.0
  0
LINE
  5
268AE
330
747D
100
AcDbEntity
  8
細線
 48
50.0
100
AcDbLine
 10
6413.594339676717
 20
1326.102531423739
 30
0.0
 11
6447.891836307902
 21
1454.102531423739
 31
0.0
  0
LINE
  5
268AF
330
747D
100
AcDbEntity
  8
細線
 48
50.0
100
AcDbLine
 10
6424.411500180704
 20
1613.423130280251
 30
0.0
 11
6440.41150018071
 21
1629.423130280251
 31
0.0
  0
LINE
  5
268B0
330
747D
100
AcDbEntity
  8
部品1
 48
50.0
100
AcDbLine
 10
6440.41150018071
 20
1574.102531423739
 30
0.0
 11
6440.411500180697
 21
2098.356960817985
 31
0.0
  0
LINE
  5
268B1
330
747D
100
AcDbEntity
  8
部品1
 48
50.0
100
AcDbLine
 10
6456.41150018071
 20
1574.102531423739
 30
0.0
 11
6456.411500180704
 21
2098.356960817985
 31
0.0
  0
LINE
  5
268B2
330
747D
100
AcDbEntity
  8
部品1
 48
50.0
100
AcDbLine
 10
6656.411500180704
 20
1694.102531423739
 30
0.0
 11
6656.411500180704
 21
1454.102531423739
 31
0.0
  0
LINE
  5
268B3
330
747D
100
AcDbEntity
  8
細線
 48
50.0
100
AcDbLine
 10
6538.735511503431
 20
1566.102531423739
 30
0.0
 11
6656.411500180704
 21
1683.778520101006
 31
0.0
  0
LINE
  5
268B4
330
747D
100
AcDbEntity
  8
細線
 48
50.0
100
AcDbLine
 10
6565.676279866647
 20
1566.102531423739
 30
0.0
 11
6656.411500180704
 21
1656.837751737798
 31
0.0
  0
LINE
  5
268B5
330
747D
100
AcDbEntity
  8
部品1
 48
50.0
100
AcDbLine
 10
6208.411500180704
 20
1454.102531423739
 30
0.0
 11
6208.411500180704
 21
1694.102531423739
 31
0.0
  0
LINE
  5
268B6
330
747D
100
AcDbEntity
  8
細線
 48
50.0
100
AcDbLine
 10
6323.209364597777
 20
1566.102531423739
 30
0.0
 11
6440.411500180704
 21
1683.304667006665
 31
0.0
  0
LINE
  5
268B7
330
747D
100
AcDbEntity
  8
細線
 48
50.0
100
AcDbLine
 10
6416.277347658108
 20
1632.229746120861
 30
0.0
 11
6440.41150018071
 21
1656.36389864346
 31
0.0
  0
LINE
  5
268B8
330
747D
100
AcDbEntity
  8
細線
 48
50.0
100
AcDbLine
 10
6208.411500180697
 20
1612.94927718591
 30
0.0
 11
6289.564754418532
 21
1694.102531423739
 31
0.0
  0
LEADER
  5
268B9
330
747D
100
AcDbEntity
  8
寸法
 48
50.0
100
AcDbLeader
  3
INABA_S50G
 71
     0
 73
     0
 74
     0
 75
     1
 40
100.0
 41
222.7272727272727
 76
     3
 10
6432.411500180703
 20
2098.356960817985
 30
0.0
 10
6486.297437208098
 20
2197.592533671159
 30
0.0
 10
6611.297437208098
 20
2197.592533671159
 30
0.0
1001
ACAD
1000
DSTYLE
1002
{
1070
    40
1040
1.0
1070
   272
1070
     1
1070
   279
1070
     1
1070
   341
1005
0
1002
}
  0
LWPOLYLINE
  5
268BA
330
747D
100
AcDbEntity
  8
部品1
 48
50.0
100
AcDbPolyline
 90
        2
 70
     0
 43
8.0
 10
6528.411500180704
 20
1998.10253142374
 10
6942.55140201366
 20
1998.10253142374
  0
MTEXT
  5
268BB
102
{ACAD_REACTORS
330
268BD
102
}
330
747D
100
AcDbEntity
  8
寸法
 62
     7
 48
50.0
100
AcDbMText
 10
6759.739159987389
 20
1538.705462480767
 30
0.0
 40
80.0
 41
0.8
 71
     4
 72
     1
  1
D10
  7
STYLE2
 73
     1
 44
1.0
1001
ACAD
1000
MTEXTBEGIN
1070
    73
1070
     1
1070
    44
1040
1.0
1070
    74
1070
     0
1000
MTEXTEND
  0
LEADER
  5
268BC
330
747D
100
AcDbEntity
  8
寸法
 48
50.0
100
AcDbLeader
  3
INABA_S50G
 71
     0
 73
     0
 74
     0
 75
     1
 40
100.0
 41
540.3409090909091
 76
     3
 10
6506.356669193877
 20
1557.362001010214
 30
0.0
 10
6625.149956041955
 20
1215.731183015317
 30
0.0
 10
6750.149956041955
 20
1215.731183015317
 30
0.0
213
0.0
223
-1.022262676269383
233
0.0
1001
ACAD
1000
DSTYLE
1002
{
1070
    40
1040
1.0
1070
   272
1070
     1
1070
   279
1070
     1
1070
   341
1005
0
1002
}
  0
LEADER
  5
268BD
330
747D
100
AcDbEntity
  8
寸法
 48
50.0
100
AcDbLeader
  3
INABA_S50G
 71
     0
 73
     0
 74
     0
 75
     1
 40
100.0
 41
225.0
 76
     3
 10
6560.314452532846
 20
1574.102531423739
 30
0.0
 10
6614.739159987388
 20
1478.705462480767
 30
0.0
 10
6739.739159987388
 20
1478.705462480767
 30
0.0
1001
ACAD
1000
DSTYLE
1002
{
1070
    40
1040
1.0
1070
   272
1070
     1
1070
   279
1070
     1
1070
   341
1005
0
1002
}
  0
MTEXT
  5
268BE
102
{ACAD_REACTORS
330
268B9
102
}
330
747D
100
AcDbEntity
  8
寸法
 62
     7
 48
50.0
100
AcDbMText
 10
6611.297437208098
 20
2260.658430716551
 30
0.0
 40
80.0
 41
0.8
 71
     4
 72
     1
  1
D13
  7
STYLE2
 73
     1
 44
1.0
1001
ACAD
1000
MTEXTBEGIN
1070
    73
1070
     1
1070
    44
1040
1.0
1070
    74
1070
     0
1000
MTEXTEND
  0
LINE
  5
268BF
330
747D
100
AcDbEntity
  8
部品1
 48
50.0
100
AcDbLine
 10
6528.411500180704
 20
2238.10253142374
 30
0.0
 11
6528.411500180704
 21
1694.102531423739
 31
0.0
  0
LINE
  5
268C0
330
747D
100
AcDbEntity
  8
部品1
 48
50.0
100
AcDbLine
 10
6336.411500180704
 20
1694.102531423739
 30
0.0
 11
6336.411500180704
 21
2238.10253142374
 31
0.0
  0
CIRCLE
  5
268C1
330
747D
100
AcDbEntity
  8
部品1
 48
50.0
100
AcDbCircle
 10
6432.411500180704
 20
2098.356960817985
 30
0.0
 40
8.0
  0
ARC
  5
268C2
330
747D
100
AcDbEntity
  8
部品1
 48
50.0
100
AcDbCircle
 10
6432.411500180704
 20
2098.356960817985
 30
0.0
 40
24.0
100
AcDbArc
 50
0.0
 51
180.0
  0
LINE
  5
268C3
330
747D
100
AcDbEntity
  8
細線
 48
50.0
100
AcDbLine
 10
6456.411500180704
 20
2076.47542409157
 30
0.0
 11
6528.411500180704
 21
2148.47542409157
 31
0.0
  0
LEADER
  5
268C4
330
747D
100
AcDbEntity
  8
寸法
 48
50.0
100
AcDbLeader
  3
INABA_S50G
 73
     0
 75
     1
 40
106.3636363636363
 41
893.1818181818181
 76
     3
 10
8167.850813357899
 20
2307.662531423741
 30
0.0
 10
8119.426741012958
 20
2681.722106140073
 30
0.0
 10
7994.426741012958
 20
2681.722106140073
 30
0.0
340
268C5
1001
ACAD
1000
DSTYLE
1002
{
1070
   341
1005
0
1070
    40
1040
1.0
1070
   343
1005
0
1070
   344
1005
0
1002
}
  0
MTEXT
  5
268C5
102
{ACAD_REACTORS
330
268C4
102
}
330
747D
100
AcDbEntity
  8
寸法
 62
     7
 48
50.0
100
AcDbMText
 10
7969.426741012958
 20
2759.903924321891
 30
0.0
 40
80.0
 41
0.8
 71
     6
 72
     1
  1
\A1;アンカープレート L
  7
STYLE2
 73
     1
 44
1.0
1001
ACAD
1000
MTEXTBEGIN
1070
    73
1070
     1
1070
    44
1040
1.0
1070
    74
1070
     0
1000
MTEXTEND
  0
DIMENSION
  5
268C6
330
747D
100
AcDbEntity
  8
寸法
 48
50.0
100
AcDbDimension
  2
*D57
 10
6656.411500180704
 20
915.6728934185794
 30
0.0
 11
6412.314741502481
 21
915.6728934185794
 31
0.0
 70
   160
  1
300
 71
     5
 42
448.0
  3
INABA_S40G
100
AcDbAlignedDimension
 13
6208.411500180703
 23
1326.102531423739
 33
0.0
 14
6656.411500180704
 24
1326.102531423739
 34
0.0
100
AcDbRotatedDimension
1001
ACAD
1000
DSTYLE
1002
{
1070
   341
1005
0
1002
}
  0
MTEXT
  5
268C7
102
{ACAD_REACTORS
330
268CF
102
}
330
747D
100
AcDbEntity
  8
寸法
 62
     7
 48
50.0
100
AcDbMText
 10
6037.47647398551
 20
1370.579837805303
 30
0.0
 40
80.0
 41
0.8
 71
     6
 72
     1
  1
D10
  7
STYLE2
 73
     1
 44
1.0
1001
ACAD
1000
MTEXTBEGIN
1070
    73
1070
     1
1070
    44
1040
1.0
1070
    74
1070
     0
1000
MTEXTEND
  0
MTEXT
  5
268C8
102
{ACAD_REACTORS
330
268CE
102
}
330
747D
100
AcDbEntity
  8
寸法
 62
     7
 48
50.0
100
AcDbMText
 10
6065.599201542944
 20
1190.263685265859
 30
0.0
 40
80.0
 41
0.8
 71
     6
 72
     1
  1
D13
  7
STYLE2
 73
     1
 44
1.0
1001
ACAD
1000
MTEXTBEGIN
1070
    73
1070
     1
1070
    44
1040
1.0
1070
    74
1070
     0
1000
MTEXTEND
  0
DIMENSION
  5
268C9
330
747D
100
AcDbEntity
  8
寸法
 48
50.0
100
AcDbDimension
  2
*D58
 10
5601.374261618963
 20
1454.10253142374
 30
0.0
 11
5601.374261618963
 21
1825.64268107974
 31
0.0
 70
   160
  1
540
 71
     5
 42
784.0
  3
INABA_S40G
100
AcDbAlignedDimension
 13
6336.411500180703
 23
2238.10253142374
 33
0.0
 14
6128.411500180707
 24
1454.102531423739
 34
0.0
 50
90.0
100
AcDbRotatedDimension
1001
ACAD
1000
DSTYLE
1002
{
1070
   341
1005
0
1002
}
  0
MTEXT
  5
268CA
102
{ACAD_REACTORS
330
268CB
102
}
330
747D
100
AcDbEntity
  8
寸法
 62
     7
 48
50.0
100
AcDbMText
 10
6116.31302069743
 20
2450.618751425782
 30
0.0
 40
80.0
 41
0.8
 71
     6
 72
     1
  1
\A1;金コテ押エ
  7
STYLE2
 73
     1
 44
1.0
1001
ACAD
1000
MTEXTBEGIN
1070
    73
1070
     1
1070
    44
1040
1.0
1070
    74
1070
     0
1000
MTEXTEND
  0
LEADER
  5
268CB
330
747D
100
AcDbEntity
  8
寸法
 48
50.0
100
AcDbLeader
  3
INABA_S50G
 71
     0
 73
     0
 75
     1
 40
130.1136363636363
 41
651.1363636363636
 76
     3
 10
6416.411500180704
 20
2238.10253142374
 30
0.0
 10
6303.986920016686
 20
2378.573296880328
 30
0.0
 10
6178.986920016686
 20
2378.573296880328
 30
0.0
1001
ACAD
1000
DSTYLE
1002
{
1070
    40
1040
1.0
1070
   272
1070
     1
1070
   279
1070
     1
1070
   341
1005
0
1002
}
  0
LEADER
  5
268CC
330
747D
100
AcDbEntity
  8
寸法
 48
50.0
100
AcDbLeader
  3
INABA_S50G
 71
     0
 73
     0
 75
     1
 40
100.0
 41
540.3409090909091
 76
     3
 10
6440.411500180703
 20
1996.229746120863
 30
0.0
 10
6382.429263652005
 20
1774.759417580058
 30
0.0
 10
6257.429263652005
 20
1774.759417580058
 30
0.0
213
-9.732182305893367
223
-4.643716661138569
233
0.0
1001
ACAD
1000
DSTYLE
1002
{
1070
    40
1040
1.0
1070
   272
1070
     1
1070
   279
1070
     1
1070
   341
1005
0
1002
}
  0
MTEXT
  5
268CD
102
{ACAD_REACTORS
330
268CC
102
}
330
747D
100
AcDbEntity
  8
寸法
 62
     7
 48
50.0
100
AcDbMText
 10
6247.161445957899
 20
1839.403134241196
 30
0.0
 40
80.0
 41
0.8
 71
     6
 72
     1
  1
\A1;D10@300
  7
STYLE2
 73
     1
 44
1.0
1001
ACAD
1000
MTEXTBEGIN
1070
    73
1070
     1
1070
    44
1040
1.0
1070
    74
1070
     0
1000
MTEXTEND
  0
LEADER
  5
268CE
330
747D
100
AcDbEntity
  8
寸法
 48
50.0
100
AcDbLeader
  3
INABA_S50G
 71
     0
 73
     0
 75
     1
 40
100.0
 41
222.7272727272727
 76
     3
 10
6432.411500180703
 20
1574.102531423739
 30
0.0
 10
6210.599201542944
 20
1130.26368526586
 30
0.0
 10
6085.599201542944
 20
1130.26368526586
 30
0.0
1001
ACAD
1000
DSTYLE
1002
{
1070
    40
1040
1.0
1070
   272
1070
     1
1070
   279
1070
     1
1070
   341
1005
0
1002
}
  0
LEADER
  5
268CF
330
747D
100
AcDbEntity
  8
寸法
 48
50.0
100
AcDbLeader
  3
INABA_S50G
 71
     0
 73
     0
 75
     1
 40
100.0
 41
225.0
 76
     3
 10
6304.314452532846
 20
1574.102531423739
 30
0.0
 10
6182.476473985509
 20
1310.579837805303
 30
0.0
 10
6057.476473985509
 20
1310.579837805303
 30
0.0
1001
ACAD
1000
DSTYLE
1002
{
1070
    40
1040
1.0
1070
   272
1070
     1
1070
   279
1070
     1
1070
   341
1005
0
1002
}
  0
DIMENSION
  5
268D0
330
747D
100
AcDbEntity
  8
寸法
 48
50.0
100
AcDbDimension
  2
*D59
 10
6065.991186448243
 20
1454.102531423739
 30
0.0
 11
6065.991186448243
 21
1574.10253142374
 31
0.0
 70
   160
  1
150
 71
     5
 42
240.0
  3
INABA_S40G
100
AcDbAlignedDimension
 13
6208.411500180703
 23
1694.102531423739
 33
0.0
 14
6128.411500180707
 24
1454.102531423739
 34
0.0
 50
90.0
100
AcDbRotatedDimension
1001
ACAD
1000
DSTYLE
1002
{
1070
   341
1005
0
1002
}
  0
TEXT
  5
268D1
330
747D
100
AcDbEntity
  8
部品1
 48
50.0
100
AcDbText
 10
5922.271598347746
 20
2009.341523706995
 30
0.0
 40
80.0
  1
▽G.L
  7
STYLE2
100
AcDbText
  0
LWPOLYLINE
  5
268D2
330
747D
100
AcDbEntity
  8
部品1
 48
50.0
100
AcDbPolyline
 90
        2
 70
     0
 43
8.0
 10
5922.271598347746
 20
1998.10253142374
 10
6336.411500180703
 20
1998.10253142374
  0
MTEXT
  5
268D3
102
{ACAD_REACTORS
330
268D4
102
}
330
747D
100
AcDbEntity
  8
寸法
 62
     7
 48
50.0
100
AcDbMText
 10
7942.783734804599
 20
3120.588196229406
 30
0.0
 40
80.0
 41
0.8
 71
     6
 72
     1
  1
\A1;φ70スリーブ
  7
STYLE2
 73
     1
 44
1.0
1001
ACAD
1000
MTEXTBEGIN
1070
    73
1070
     1
1070
    44
1040
1.0
1070
    74
1070
     0
1000
MTEXTEND
  0
LEADER
  5
268D4
330
747D
100
AcDbEntity
  8
寸法
 48
50.0
100
AcDbLeader
  3
INABA_S50G
 73
     0
 75
     1
 40
113.1818181818182
 41
608.6363636363635
 76
     3
 10
8226.587563495948
 20
2187.618204782018
 30
0.0
 10
8092.7837348046
 20
3038.997287138496
 30
0.0
 10
7967.7837348046
 20
3038.997287138496
 30
0.0
340
268D3
1001
ACAD
1000
DSTYLE
1002
{
1070
   341
1005
0
1070
    40
1040
1.0
1070
   343
1005
0
1070
   344
1005
0
1002
}
  0
LINE
  5
268D5
330
747D
100
AcDbEntity
  8
部品1
100
AcDbLine
 10
5265.74306137144
 20
3637.441198624325
 30
0.0
 11
5265.743061371442
 21
673.1342290396778
 31
0.0
  0
LEADER
  5
268D6
330
747D
100
AcDbEntity
  8
寸法
 48
50.0
100
AcDbLeader
  3
INABA_S50G
 73
     0
 74
     0
 75
     1
 40
80.0
 41
435.0
 76
     3
 10
8266.850813357898
 20
2287.26253142374
 30
0.0
 10
8309.395275777218
 20
2437.48585757697
 30
0.0
 10
8434.395275777218
 20
2437.48585757697
 30
0.0
340
268D7
1001
ACAD
1000
DSTYLE
1002
{
1070
   341
1005
0
1070
    40
1040
1.0
1070
   343
1005
0
1070
   344
1005
0
1002
}
  0
MTEXT
  5
268D7
102
{ACAD_REACTORS
330
268D6
102
}
330
747D
100
AcDbEntity
  8
部品1
 62
     7
 48
50.0
100
AcDbMText
 10
8459.395275777216
 20
2502.485857576969
 30
0.0
 40
80.0
 41
0.8
 71
     4
 72
     1
  1
M10X160
  7
STYLE2
 73
     1
 44
1.0
1001
ACAD
1000
MTEXTBEGIN
1070
    73
1070
     1
1070
    44
1040
1.0
1070
    74
1070
     0
1000
MTEXTEND
  0
DIMENSION
  5
268D8
330
747D
100
AcDbEntity
  8
寸法
 48
50.0
100
AcDbDimension
  2
*D60
 10
9228.374079245769
 20
2238.102531423739
 30
0.0
 11
9228.374079245769
 21
1772.093628002257
 31
0.0
 70
   160
  1
20～25
 71
     5
 42
52.76000000000113
  3
INABA_S40G
100
AcDbAlignedDimension
 13
8263.250813357897
 23
2290.862531423741
 33
0.0
 14
8450.450813357896
 24
2238.10253142374
 34
0.0
 50
90.0
100
AcDbRotatedDimension
1001
ACAD
1000
DSTYLE
1002
{
1070
   341
1005
0
1002
}
  0
DIMENSION
  5
268D9
330
747D
100
AcDbEntity
  8
寸法
 48
50.0
100
AcDbDimension
  2
*D61
 10
8952.319413126742
 20
1914.102531423738
 30
0.0
 11
8852.319413126741
 21
2076.102531423741
 31
0.0
 70
    32
  1
180
 71
     5
 42
324.0000000000009
  3
INABA_S40G
100
AcDbAlignedDimension
 13
8450.450813357896
 23
2238.10253142374
 33
0.0
 14
8450.450813357896
 24
1914.102531423738
 34
0.0
 50
90.0
100
AcDbRotatedDimension
1001
ACAD
1000
DSTYLE
1002
{
1070
   341
1005
0
1002
}
  0
TEXT
  5
268DA
330
747D
100
AcDbEntity
  8
部品1
 48
50.0
100
AcDbText
 10
8454.804397642325
 20
2593.98121218594
 30
0.0
 40
80.0
  1
基礎ボルト(市販品)
  7
STYLE2
100
AcDbText
  0
LWPOLYLINE
  5
268DB
330
747D
100
AcDbEntity
  8
部品1
 48
50.0
100
AcDbPolyline
 90
        2
 70
     0
 43
8.0
 10
8450.450813357896
 20
1998.10253142374
 10
8744.15327675728
 20
1998.10253142374
  0
MTEXT
  5
268DC
102
{ACAD_REACTORS
330
268DD
102
}
330
747D
100
AcDbEntity
  8
部品1
 62
     7
 48
50.0
100
AcDbMText
 10
8489.722403726737
 20
2938.597904511
 30
0.0
 40
80.0
 41
0.8
 71
     4
 72
     1
  1
\A1;ワッシャー(市販品)
  7
STYLE2
 73
     1
 44
1.0
1001
ACAD
1000
MTEXTBEGIN
1070
    73
1070
     1
1070
    44
1040
1.0
1070
    74
1070
     0
1000
MTEXTEND
  0
LEADER
  5
268DD
330
747D
100
AcDbEntity
  8
寸法
 48
50.0
100
AcDbLeader
  3
INABA_S50G
 73
     0
 74
     0
 75
     1
 40
102.2727272727273
 41
906.8181818181818
 76
     3
 10
8297.850813357898
 20
2507.225819868019
 30
0.0
 10
8339.722403726737
 20
2862.461540874636
 30
0.0
 10
8464.722403726737
 20
2862.461540874636
 30
0.0
340
268DC
1001
ACAD
1000
DSTYLE
1002
{
1070
   341
1005
0
1070
    40
1040
1.0
1070
   343
1005
0
1070
   344
1005
0
1002
}
  0
MTEXT
  5
268DE
102
{ACAD_REACTORS
330
268DF
102
}
330
747D
100
AcDbEntity
  8
部品1
 62
     7
 48
50.0
100
AcDbMText
 10
8458.204784471254
 20
3123.566987275787
 30
0.0
 40
80.0
 41
0.8
 71
     4
 72
     1
  1
\A1;ナット(市販品)
  7
STYLE2
 73
     1
 44
1.0
1001
ACAD
1000
MTEXTBEGIN
1070
    73
1070
     1
1070
    44
1040
1.0
1070
    74
1070
     0
1000
MTEXTEND
  0
LEADER
  5
268DF
330
747D
100
AcDbEntity
  8
寸法
 48
50.0
100
AcDbLeader
  3
INABA_S50G
 73
     0
 74
     0
 75
     1
 40
102.2727272727273
 41
680.0000000000001
 76
     3
 10
8273.850813357897
 20
2636.977812532882
 30
0.0
 10
8308.204784471255
 20
3047.430623639423
 30
0.0
 10
8433.204784471255
 20
3047.430623639423
 30
0.0
340
268DE
1001
ACAD
1000
DSTYLE
1002
{
1070
   341
1005
0
1070
    40
1040
1.0
1070
   343
1005
0
1070
   344
1005
0
1002
}
  0
LINE
  5
268E0
330
747D
100
AcDbEntity
  8
部品1
100
AcDbLine
 10
5265.743061371444
 20
673.1342290396778
 30
0.0
 11
11336.72824675769
 21
673.1342290396778
 31
0.0
  0
LINE
  5
268E1
330
747D
100
AcDbEntity
  8
部品1
100
AcDbLine
 10
11336.72824675769
 20
3397.441198624323
 30
0.0
 11
5265.743061371442
 21
3397.441198624323
 31
0.0
  0
LINE
  5
268E2
330
747D
100
AcDbEntity
  8
部品1
100
AcDbLine
 10
11336.72824675769
 20
3637.441198624325
 30
0.0
 11
5265.743061371439
 21
3637.441198624325
 31
0.0
  0
ENDSEC
  0
SECTION
  2
OBJECTS
  0
DICTIONARY
  5
7471
330
0
100
AcDbDictionary
281
     1
  3
ACAD_COLOR
350
173D2
  3
ACAD_GROUP
350
7472
  3
ACAD_LAYOUT
350
173D3
  3
ACAD_MATERIAL
350
173D1
  3
ACAD_MLINESTYLE
350
7473
  3
ACAD_PLOTSETTINGS
350
173D4
  3
ACAD_PLOTSTYLENAME
350
173CF
  3
ACDBHEADERROUNDTRIPXREC
350
26970
  3
AcDbVariableDictionary
350
264E9
  3
CONTENTDICTIONARY
350
E71C
  3
DRAWINGVARIABLESDICT
350
F3B9
  0
DICTIONARY
  5
1758F
330
7467
100
AcDbDictionary
280
     1
281
     1
  3
ACAD_LAYERSTATES
360
17590
  0
DICTIONARY
  5
173D2
102
{ACAD_REACTORS
330
7471
102
}
330
7471
100
AcDbDictionary
281
     1
  0
DICTIONARY
  5
7472
102
{ACAD_REACTORS
330
7471
102
}
330
7471
100
AcDbDictionary
281
     1
  3
*A1
350
1D2A9
  0
DICTIONARY
  5
173D3
102
{ACAD_REACTORS
330
7471
102
}
330
7471
100
AcDbDictionary
281
     1
  3
Model
350
173D5
  3
レイアウト1
350
173D6
  0
DICTIONARY
  5
173D1
102
{ACAD_REACTORS
330
7471
102
}
330
7471
100
AcDbDictionary
281
     1
  0
DICTIONARY
  5
7473
102
{ACAD_REACTORS
330
7471
102
}
330
7471
100
AcDbDictionary
281
     1
  3
STANDARD
350
7480
  0
DICTIONARY
  5
173D4
102
{ACAD_REACTORS
330
7471
102
}
330
7471
100
AcDbDictionary
281
     1
  0
ACDBDICTIONARYWDFLT
  5
173CF
102
{ACAD_REACTORS
330
7471
102
}
330
7471
100
AcDbDictionary
281
     1
  3
Normal
350
173D0
100
AcDbDictionaryWithDefault
340
173D0
  0
DICTIONARY
  5
26970
102
{ACAD_REACTORS
330
7471
102
}
330
7471
100
AcDbDictionary
281
     1
  3
COLORDICT
350
26972
  3
MATERIALDICT
350
26971
  0
DICTIONARY
  5
264E9
102
{ACAD_REACTORS
330
7471
102
}
330
7471
100
AcDbDictionary
281
     1
  3
DIMASSOC
350
264EA
  3
PROJECTNAME
350
264EB
  0
DICTIONARY
  5
E71C
102
{ACAD_REACTORS
330
7471
102
}
330
7471
100
AcDbDictionary
281
     1
  0
DICTIONARY
  5
F3B9
102
{ACAD_REACTORS
330
7471
102
}
330
7471
100
AcDbDictionary
281
     1
1001
DRAWINGVARIABLESXDATA
1000
POLARMODE
1000
1
  0
DICTIONARY
  5
17590
102
{ACAD_REACTORS
330
1758F
102
}
330
1758F
100
AcDbDictionary
281
     1
  0
GROUP
  5
1D2A9
102
{ACAD_REACTORS
330
7472
102
}
330
7472
100
AcDbGroup
300

 70
     1
 71
     1
  0
LAYOUT
  5
173D5
102
{ACAD_XDICTIONARY
360
26973
102
}
102
{ACAD_REACTORS
330
173D3
102
}
330
173D3
100
AcDbPlotSettings
  1

  2
Microsoft Office Document Image Writer
  4

  6

 40
0.0
 41
0.0
 42
0.0
 43
0.0
 44
0.0
 45
0.0
 46
0.0
 47
0.0
 48
0.0
 49
0.0
140
0.0
141
0.0
142
1.0
143
1.0
 70
  1712
 72
     0
 73
     0
 74
     0
  7

 75
     0
147
1.0
148
0.0
149
0.0
100
AcDbLayout
  1
Model
 70
     1
 71
     0
 10
0.0
 20
0.0
 11
12.0
 21
9.0
 12
0.0
 22
0.0
 32
0.0
 14
0.0
 24
0.0
 34
0.0
 15
0.0
 25
0.0
 35
0.0
146
0.0
 13
0.0
 23
0.0
 33
0.0
 16
1.0
 26
0.0
 36
0.0
 17
0.0
 27
1.0
 37
0.0
 76
     0
330
747D
  0
LAYOUT
  5
173D6
102
{ACAD_XDICTIONARY
360
26975
102
}
102
{ACAD_REACTORS
330
173D3
102
}
330
173D3
100
AcDbPlotSettings
  1

  2
Microsoft Office Document Image Writer
  4

  6

 40
0.0
 41
0.0
 42
0.0
 43
0.0
 44
0.0
 45
0.0
 46
0.0
 47
0.0
 48
0.0
 49
0.0
140
0.0
141
0.0
142
1.0
143
1.0
 70
   688
 72
     0
 73
     0
 74
     5
  7

 75
    16
147
1.0
148
0.0
149
0.0
100
AcDbLayout
  1
レイアウト1
 70
     0
 71
     1
 10
0.0
 20
0.0
 11
420.0
 21
297.0
 12
0.0
 22
0.0
 32
0.0
 14
1.000000000000000E+20
 24
1.000000000000000E+20
 34
1.000000000000000E+20
 15
-1.000000000000000E+20
 25
-1.000000000000000E+20
 35
-1.000000000000000E+20
146
0.0
 13
0.0
 23
0.0
 33
0.0
 16
1.0
 26
0.0
 36
0.0
 17
0.0
 27
1.0
 37
0.0
 76
     0
330
747A
  0
MLINESTYLE
  5
7480
102
{ACAD_REACTORS
330
7473
102
}
330
7473
100
AcDbMlineStyle
  2
STANDARD
 70
     0
  3

 62
     0
 51
90.0
 52
90.0
 71
     2
 49
0.5
 62
   256
  6
BYLAYER
 49
-0.5
 62
   256
  6
BYLAYER
  0
ACDBPLACEHOLDER
  5
173D0
102
{ACAD_REACTORS
330
173CF
102
}
330
173CF
  0
XRECORD
  5
26972
102
{ACAD_REACTORS
330
26970
102
}
330
26970
100
AcDbXrecord
280
     1
340
173D2
  0
XRECORD
  5
26971
102
{ACAD_REACTORS
330
26970
102
}
330
26970
100
AcDbXrecord
280
     1
340
173D1
  0
DICTIONARYVAR
  5
264EA
102
{ACAD_REACTORS
330
264E9
102
}
330
264E9
100
DictionaryVariables
280
     0
  1
1
  0
DICTIONARYVAR
  5
264EB
102
{ACAD_REACTORS
330
264E9
102
}
330
264E9
100
DictionaryVariables
280
     0
  1

  0
DICTIONARY
  5
26973
330
173D5
100
AcDbDictionary
280
     1
281
     1
  3
ACAD_XREC_ROUNDTRIP
360
26974
  0
DICTIONARY
  5
26975
330
173D6
100
AcDbDictionary
280
     1
281
     1
  3
ACAD_XREC_ROUNDTRIP
360
26976
  0
XRECORD
  5
26974
102
{ACAD_REACTORS
330
26973
102
}
330
26973
100
AcDbXrecord
280
     1
102
SHADEPLOT
 70
     0
102
SHADEPLOTRESLEVEL
 70
     2
102
SHADEPLOTCUSTOMDPI
 70
   300
  0
XRECORD
  5
26976
102
{ACAD_REACTORS
330
26975
102
}
330
26975
100
AcDbXrecord
280
     1
102
SHADEPLOT
 70
     0
102
SHADEPLOTRESLEVEL
 70
     2
102
SHADEPLOTCUSTOMDPI
 70
   300
  0
ENDSEC
  0
EOF
