  0
SECTION
  2
HEADER
  9
$ACADVER
  1
AC1015
  9
$ACADMAINTVER
 70
    20
  9
$DWGCODEPAGE
  3
ANSI_932
  9
$INSBASE
 10
0.0
 20
0.0
 30
0.0
  9
$EXTMIN
 10
139.9999999999995
 20
-0.0000000000000909
 30
0.0
  9
$EXTMAX
 10
16307.2
 20
11409.6
 30
0.0
  9
$LIMMIN
 10
0.0
 20
0.0
  9
$LIMMAX
 10
16800.0
 20
11880.0
  9
$ORTHOMODE
 70
     0
  9
$REGENMODE
 70
     1
  9
$FILLMODE
 70
     1
  9
$QTEXTMODE
 70
     0
  9
$MIRRTEXT
 70
     1
  9
$LTSCALE
 40
20.0
  9
$ATTMODE
 70
     1
  9
$TEXTSIZE
 40
4.0
  9
$TRACEWID
 40
1.0
  9
$TEXTSTYLE
  7
STYLE1
  9
$CLAYER
  8
寸法
  9
$CELTYPE
  6
BYLAYER
  9
$CECOLOR
 62
   256
  9
$CELTSCALE
 40
50.0
  9
$DISPSILH
 70
     0
  9
$DIMSCALE
 40
40.0
  9
$DIMASZ
 40
2.5
  9
$DIMEXO
 40
0.5
  9
$DIMDLI
 40
7.0
  9
$DIMRND
 40
0.0
  9
$DIMDLE
 40
0.0
  9
$DIMEXE
 40
1.5
  9
$DIMTP
 40
0.0
  9
$DIMTM
 40
0.0
  9
$DIMTXT
 40
3.0
  9
$DIMCEN
 40
0.0
  9
$DIMTSZ
 40
0.0
  9
$DIMTOL
 70
     0
  9
$DIMLIM
 70
     0
  9
$DIMTIH
 70
     0
  9
$DIMTOH
 70
     0
  9
$DIMSE1
 70
     0
  9
$DIMSE2
 70
     0
  9
$DIMTAD
 70
     3
  9
$DIMZIN
 70
     8
  9
$DIMBLK
  1

  9
$DIMASO
 70
     1
  9
$DIMSHO
 70
     1
  9
$DIMPOST
  1

  9
$DIMAPOST
  1

  9
$DIMALT
 70
     0
  9
$DIMALTD
 70
     2
  9
$DIMALTF
 40
0.0394
  9
$DIMLFAC
 40
1.0
  9
$DIMTOFL
 70
     1
  9
$DIMTVP
 40
0.0
  9
$DIMTIX
 70
     1
  9
$DIMSOXD
 70
     0
  9
$DIMSAH
 70
     1
  9
$DIMBLK1
  1
DOTSMALL
  9
$DIMBLK2
  1
DOTSMALL
  9
$DIMSTYLE
  2
INABA_S40G
  9
$DIMCLRD
 70
     0
  9
$DIMCLRE
 70
     0
  9
$DIMCLRT
 70
     7
  9
$DIMTFAC
 40
1.0
  9
$DIMGAP
 40
1.0
  9
$DIMJUST
 70
     0
  9
$DIMSD1
 70
     0
  9
$DIMSD2
 70
     0
  9
$DIMTOLJ
 70
     1
  9
$DIMTZIN
 70
     0
  9
$DIMALTZ
 70
     0
  9
$DIMALTTZ
 70
     0
  9
$DIMUPT
 70
     0
  9
$DIMDEC
 70
     1
  9
$DIMTDEC
 70
     4
  9
$DIMALTU
 70
     2
  9
$DIMALTTD
 70
     2
  9
$DIMTXSTY
  7
STYLE1
  9
$DIMAUNIT
 70
     0
  9
$DIMADEC
 70
     0
  9
$DIMALTRND
 40
0.0
  9
$DIMAZIN
 70
     0
  9
$DIMDSEP
 70
    46
  9
$DIMATFIT
 70
     3
  9
$DIMFRAC
 70
     0
  9
$DIMLDRBLK
  1

  9
$DIMLUNIT
 70
     2
  9
$DIMLWD
 70
    -2
  9
$DIMLWE
 70
    -2
  9
$DIMTMOVE
 70
     0
  9
$LUNITS
 70
     2
  9
$LUPREC
 70
     1
  9
$SKETCHINC
 40
1.0
  9
$FILLETRAD
 40
3.0
  9
$AUNITS
 70
     0
  9
$AUPREC
 70
     0
  9
$MENU
  1
acad
  9
$ELEVATION
 40
0.0
  9
$PELEVATION
 40
0.0
  9
$THICKNESS
 40
0.0
  9
$LIMCHECK
 70
     0
  9
$CHAMFERA
 40
0.0
  9
$CHAMFERB
 40
0.0
  9
$CHAMFERC
 40
0.0
  9
$CHAMFERD
 40
0.0
  9
$SKPOLY
 70
     0
  9
$TDCREATE
 40
2451368.612993866
  9
$TDUCREATE
 40
2451368.237993866
  9
$TDUPDATE
 40
2455826.606390868
  9
$TDUUPDATE
 40
2455826.231390868
  9
$TDINDWG
 40
0.7804905208
  9
$TDUSRTIMER
 40
0.7804905208
  9
$USRTIMER
 70
     1
  9
$ANGBASE
 50
0.0
  9
$ANGDIR
 70
     0
  9
$PDMODE
 70
     3
  9
$PDSIZE
 40
2.0
  9
$PLINEWID
 40
0.0
  9
$SPLFRAME
 70
     0
  9
$SPLINETYPE
 70
     6
  9
$SPLINESEGS
 70
     8
  9
$HANDSEED
  5
25D87
  9
$SURFTAB1
 70
     6
  9
$SURFTAB2
 70
     6
  9
$SURFTYPE
 70
     6
  9
$SURFU
 70
     6
  9
$SURFV
 70
     6
  9
$UCSBASE
  2

  9
$UCSNAME
  2

  9
$UCSORG
 10
0.0
 20
0.0
 30
0.0
  9
$UCSXDIR
 10
1.0
 20
0.0
 30
0.0
  9
$UCSYDIR
 10
0.0
 20
1.0
 30
0.0
  9
$UCSORTHOREF
  2

  9
$UCSORTHOVIEW
 70
     0
  9
$UCSORGTOP
 10
0.0
 20
0.0
 30
0.0
  9
$UCSORGBOTTOM
 10
0.0
 20
0.0
 30
0.0
  9
$UCSORGLEFT
 10
0.0
 20
0.0
 30
0.0
  9
$UCSORGRIGHT
 10
0.0
 20
0.0
 30
0.0
  9
$UCSORGFRONT
 10
0.0
 20
0.0
 30
0.0
  9
$UCSORGBACK
 10
0.0
 20
0.0
 30
0.0
  9
$PUCSBASE
  2

  9
$PUCSNAME
  2

  9
$PUCSORG
 10
0.0
 20
0.0
 30
0.0
  9
$PUCSXDIR
 10
1.0
 20
0.0
 30
0.0
  9
$PUCSYDIR
 10
0.0
 20
1.0
 30
0.0
  9
$PUCSORTHOREF
  2

  9
$PUCSORTHOVIEW
 70
     0
  9
$PUCSORGTOP
 10
0.0
 20
0.0
 30
0.0
  9
$PUCSORGBOTTOM
 10
0.0
 20
0.0
 30
0.0
  9
$PUCSORGLEFT
 10
0.0
 20
0.0
 30
0.0
  9
$PUCSORGRIGHT
 10
0.0
 20
0.0
 30
0.0
  9
$PUCSORGFRONT
 10
0.0
 20
0.0
 30
0.0
  9
$PUCSORGBACK
 10
0.0
 20
0.0
 30
0.0
  9
$USERI1
 70
     0
  9
$USERI2
 70
     0
  9
$USERI3
 70
     0
  9
$USERI4
 70
     0
  9
$USERI5
 70
     0
  9
$USERR1
 40
0.0
  9
$USERR2
 40
0.0
  9
$USERR3
 40
0.0
  9
$USERR4
 40
0.0
  9
$USERR5
 40
0.0
  9
$WORLDVIEW
 70
     1
  9
$SHADEDGE
 70
     3
  9
$SHADEDIF
 70
    70
  9
$TILEMODE
 70
     1
  9
$MAXACTVP
 70
    16
  9
$PINSBASE
 10
0.0
 20
0.0
 30
0.0
  9
$PLIMCHECK
 70
     0
  9
$PEXTMIN
 10
1.000000000000000E+20
 20
1.000000000000000E+20
 30
1.000000000000000E+20
  9
$PEXTMAX
 10
-1.000000000000000E+20
 20
-1.000000000000000E+20
 30
-1.000000000000000E+20
  9
$PLIMMIN
 10
0.0
 20
0.0
  9
$PLIMMAX
 10
420.0
 20
297.0
  9
$UNITMODE
 70
     0
  9
$VISRETAIN
 70
     0
  9
$PLINEGEN
 70
     0
  9
$PSLTSCALE
 70
     0
  9
$TREEDEPTH
 70
  3020
  9
$CMLSTYLE
  2
STANDARD
  9
$CMLJUST
 70
     0
  9
$CMLSCALE
 40
1.0
  9
$PROXYGRAPHICS
 70
     1
  9
$MEASUREMENT
 70
     1
  9
$CELWEIGHT
370
    -1
  9
$ENDCAPS
280
     0
  9
$JOINSTYLE
280
     0
  9
$LWDISPLAY
290
     0
  9
$INSUNITS
 70
     0
  9
$HYPERLINKBASE
  1

  9
$STYLESHEET
  1

  9
$XEDIT
290
     1
  9
$CEPSNTYPE
380
     0
  9
$PSTYLEMODE
290
     1
  9
$FINGERPRINTGUID
  2
{5EAC461A-2277-4BF8-9AB0-99C43BB394F0}
  9
$VERSIONGUID
  2
{0334A09B-7B2C-40FD-BA97-34E8EFE472CF}
  9
$EXTNAMES
290
     1
  9
$PSVPSCALE
 40
0.0
  9
$OLESTARTUP
290
     0
  0
ENDSEC
  0
SECTION
  2
CLASSES
  0
CLASS
  1
ACDBDICTIONARYWDFLT
  2
AcDbDictionaryWithDefault
  3
ObjectDBX Classes
 90
        0
280
     0
281
     0
  0
CLASS
  1
DICTIONARYVAR
  2
AcDbDictionaryVar
  3
ObjectDBX Classes
 90
        0
280
     0
281
     0
  0
CLASS
  1
ACDBPLACEHOLDER
  2
AcDbPlaceHolder
  3
ObjectDBX Classes
 90
        0
280
     0
281
     0
  0
CLASS
  1
LAYOUT
  2
AcDbLayout
  3
ObjectDBX Classes
 90
        0
280
     0
281
     0
  0
ENDSEC
  0
SECTION
  2
TABLES
  0
TABLE
  2
VPORT
  5
746D
330
0
100
AcDbSymbolTable
 70
     2
  0
VPORT
  5
25D7F
330
746D
100
AcDbSymbolTableRecord
100
AcDbViewportTableRecord
  2
*Active
 70
     0
 10
0.0
 20
0.0
 11
1.0
 21
1.0
 12
8399.999999999998
 22
6532.386439976512
 13
0.0
 23
0.0
 14
10.0
 24
10.0
 15
10.0
 25
10.0
 16
0.0
 26
0.0
 36
1.0
 17
0.0
 27
0.0
 37
0.0
 40
13160.161804458
 41
1.522222222222222
 42
50.0
 43
0.0
 44
0.0
 50
0.0
 51
0.0
 71
     0
 72
     0
 73
     1
 74
     0
 75
     0
 76
     0
 77
     0
 78
     0
281
     0
 65
     1
110
0.0
120
0.0
130
0.0
111
1.0
121
0.0
131
0.0
112
0.0
122
1.0
132
0.0
 79
     0
146
0.0
  0
ENDTAB
  0
TABLE
  2
LTYPE
  5
746A
330
0
100
AcDbSymbolTable
 70
     5
  0
LTYPE
  5
7477
330
746A
100
AcDbSymbolTableRecord
100
AcDbLinetypeTableRecord
  2
BYBLOCK
 70
     0
  3

 72
    65
 73
     0
 40
0.0
  0
LTYPE
  5
7478
330
746A
100
AcDbSymbolTableRecord
100
AcDbLinetypeTableRecord
  2
BYLAYER
 70
     0
  3

 72
    65
 73
     0
 40
0.0
  0
LTYPE
  5
7479
330
746A
100
AcDbSymbolTableRecord
100
AcDbLinetypeTableRecord
  2
CONTINUOUS
 70
     0
  3
Solid line
 72
    65
 73
     0
 40
0.0
  0
LTYPE
  5
7816
330
746A
100
AcDbSymbolTableRecord
100
AcDbLinetypeTableRecord
  2
CENTER
 70
     0
  3
____ _ ____ _ ____ _ ____ _ ____ _ ____ _ ____ 
 72
    65
 73
     4
 40
2.0
 49
1.25
 74
     0
 49
-0.25
 74
     0
 49
0.25
 74
     0
 49
-0.25
 74
     0
  0
LTYPE
  5
781A
330
746A
100
AcDbSymbolTableRecord
100
AcDbLinetypeTableRecord
  2
HIDDEN
 70
     0
  3
__ __ __ __ __ __ __ __ __ __ __ __ __ __ __ __
 72
    65
 73
     2
 40
0.375
 49
0.25
 74
     0
 49
-0.125
 74
     0
  0
LTYPE
  5
781B
330
746A
100
AcDbSymbolTableRecord
100
AcDbLinetypeTableRecord
  2
PHANTOM
 70
     0
  3
______  __  __  ______  __  __  ______  __  __ 
 72
    65
 73
     6
 40
2.5
 49
1.25
 74
     0
 49
-0.25
 74
     0
 49
0.25
 74
     0
 49
-0.25
 74
     0
 49
0.25
 74
     0
 49
-0.25
 74
     0
  0
LTYPE
  5
12CC3
330
746A
100
AcDbSymbolTableRecord
100
AcDbLinetypeTableRecord
  2
HIDDENX2
 70
     0
  3
Hidden (2x) ____ ____ ____ ____ ____ ____ ____
 72
    65
 73
     2
 40
19.05
 49
12.7
 74
     0
 49
-6.349999999999999
 74
     0
  0
ENDTAB
  0
TABLE
  2
LAYER
  5
7467
102
{ACAD_XDICTIONARY
360
1758F
102
}
330
0
100
AcDbSymbolTable
 70
    12
  0
LAYER
  5
7474
330
7467
100
AcDbSymbolTableRecord
100
AcDbLayerTableRecord
  2
0
 70
     0
 62
     7
  6
CONTINUOUS
370
    -3
390
173D0
  0
LAYER
  5
DEB2
330
7467
100
AcDbSymbolTableRecord
100
AcDbLayerTableRecord
  2
センター
 70
     0
 62
     3
  6
CENTER
370
    -3
390
173D0
  0
LAYER
  5
DEB3
330
7467
100
AcDbSymbolTableRecord
100
AcDbLayerTableRecord
  2
寸法
 70
     0
 62
     4
  6
CONTINUOUS
370
    -3
390
173D0
  0
LAYER
  5
DEB4
330
7467
100
AcDbSymbolTableRecord
100
AcDbLayerTableRecord
  2
部品1
 70
     0
 62
     7
  6
CONTINUOUS
370
    -3
390
173D0
  0
LAYER
  5
DEB5
330
7467
100
AcDbSymbolTableRecord
100
AcDbLayerTableRecord
  2
補助
 70
     0
 62
    -1
  6
CONTINUOUS
370
    -3
390
173D0
  0
LAYER
  5
DEB6
330
7467
100
AcDbSymbolTableRecord
100
AcDbLayerTableRecord
  2
文字
 70
     0
 62
     7
  6
CONTINUOUS
370
    -3
390
173D0
  0
LAYER
  5
F255
330
7467
100
AcDbSymbolTableRecord
100
AcDbLayerTableRecord
  2
DEFPOINTS
 70
     0
 62
     7
  6
CONTINUOUS
290
     0
370
    -3
390
173D0
  0
LAYER
  5
10B54
330
7467
100
AcDbSymbolTableRecord
100
AcDbLayerTableRecord
  2
仕様書枠
 70
     0
 62
   230
  6
CONTINUOUS
370
    -3
390
173D0
  0
LAYER
  5
11729
330
7467
100
AcDbSymbolTableRecord
100
AcDbLayerTableRecord
  2
Ｇ．Ｌ
 70
     0
 62
    30
  6
CONTINUOUS
370
    -3
390
173D0
  0
LAYER
  5
1173F
330
7467
100
AcDbSymbolTableRecord
100
AcDbLayerTableRecord
  2
細線
 70
     0
 62
     5
  6
CONTINUOUS
370
    -3
390
173D0
  0
LAYER
  5
12CC4
330
7467
100
AcDbSymbolTableRecord
100
AcDbLayerTableRecord
  2
想像線
 70
     0
 62
     6
  6
PHANTOM
370
    -3
390
173D0
  0
LAYER
  5
142E2
330
7467
100
AcDbSymbolTableRecord
100
AcDbLayerTableRecord
  2
破線
 70
     0
 62
     2
  6
HIDDEN
370
    -3
390
173D0
  0
ENDTAB
  0
TABLE
  2
STYLE
  5
7468
330
0
100
AcDbSymbolTable
 70
     7
  0
STYLE
  5
7475
330
7468
100
AcDbSymbolTableRecord
100
AcDbTextStyleTableRecord
  2
STANDARD
 70
     0
 40
0.0
 41
1.0
 50
0.0
 71
     0
 42
4.0
  3
txt
  4
C:\AutoCAD LT\bigfont.shx
  0
STYLE
  5
763C
330
7468
100
AcDbSymbolTableRecord
100
AcDbTextStyleTableRecord
  2
MSMINCHO
 70
     0
 40
0.0
 41
1.0
 50
0.0
 71
     0
 42
1.199999999999999
  3
C:\AutoCAD LT\msminch2.TTF
  4

  0
STYLE
  5
F706
330
7468
100
AcDbSymbolTableRecord
100
AcDbTextStyleTableRecord
  2
STYLE1
 70
     0
 40
0.0
 41
1.0
 50
0.0
 71
     0
 42
4.0
  3
isocp.shx
  4
bigfont.shx
  0
STYLE
  5
103BF
330
7468
100
AcDbSymbolTableRecord
100
AcDbTextStyleTableRecord
  2
STYLE2
 70
     0
 40
0.0
 41
1.0
 50
0.0
 71
     0
 42
100.0
  3
MS PGothic.ttf
  4

1001
ACAD
1000
MS PGothic
1071
    32818
  0
STYLE
  5
10BAA
330
7468
100
AcDbSymbolTableRecord
100
AcDbTextStyleTableRecord
  2
STYLE3
 70
     0
 40
0.0
 41
1.0
 50
0.0
 71
     0
 42
100.0
  3

  4

1001
ACAD
1000
DFPGothic-EB
1071
    32818
  0
STYLE
  5
11A15
330
7468
100
AcDbSymbolTableRecord
100
AcDbTextStyleTableRecord
  2
MSGOTHIC
 70
     0
 40
0.0
 41
1.0
 50
0.0
 71
     0
 42
3.5
  3
msgothi2.ttf
  4

  0
STYLE
  5
13E96
330
7468
100
AcDbSymbolTableRecord
100
AcDbTextStyleTableRecord
  2
MSPゴシック
 70
     0
 40
0.0
 41
1.0
 50
0.0
 71
     0
 42
4.0
  3
MS PGothic.ttf
  4

1001
ACAD
1000
MS PGothic
1071
    32818
  0
ENDTAB
  0
TABLE
  2
VIEW
  5
746B
330
0
100
AcDbSymbolTable
 70
     0
  0
ENDTAB
  0
TABLE
  2
UCS
  5
746C
330
0
100
AcDbSymbolTable
 70
     0
  0
ENDTAB
  0
TABLE
  2
APPID
  5
746E
330
0
100
AcDbSymbolTable
 70
     6
  0
APPID
  5
7476
330
746E
100
AcDbSymbolTableRecord
100
AcDbRegAppTableRecord
  2
ACAD
 70
     0
  0
APPID
  5
DEA9
330
746E
100
AcDbSymbolTableRecord
100
AcDbRegAppTableRecord
  2
CONTENTBLOCKICON
 70
     0
  0
APPID
  5
DEAA
330
746E
100
AcDbSymbolTableRecord
100
AcDbRegAppTableRecord
  2
CONTENTBLOCKDESCRIPTION
 70
     0
  0
APPID
  5
E71D
330
746E
100
AcDbSymbolTableRecord
100
AcDbRegAppTableRecord
  2
CONTENTTABDATA
 70
     0
  0
APPID
  5
E71E
330
746E
100
AcDbSymbolTableRecord
100
AcDbRegAppTableRecord
  2
CONTENTCURRENTTAB
 70
     0
  0
APPID
  5
F3BA
330
746E
100
AcDbSymbolTableRecord
100
AcDbRegAppTableRecord
  2
DRAWINGVARIABLESXDATA
 70
     0
  0
ENDTAB
  0
TABLE
  2
DIMSTYLE
  5
746F
330
0
100
AcDbSymbolTable
 70
     6
100
AcDbDimStyleTable
 71
     1
340
F71F
  0
DIMSTYLE
105
7484
330
746F
100
AcDbSymbolTableRecord
100
AcDbDimStyleTableRecord
  2
JIS
 70
     0
 41
2.5
 42
1.0
 43
7.0
 44
1.0
 73
     0
 74
     0
 77
     1
 78
     8
140
2.5
141
0.0
143
0.0394
147
0.0
172
     1
174
     1
175
     1
340
7475
  0
DIMSTYLE
105
F236
330
746F
100
AcDbSymbolTableRecord
100
AcDbDimStyleTableRecord
  2
INABA_S40
 70
     0
 40
40.0
 41
2.5
 42
0.5
 43
7.0
 44
1.5
 73
     0
 74
     0
 77
     3
 78
     8
140
3.0
141
0.0
143
0.0394
147
1.0
172
     1
173
     1
174
     1
175
     1
178
     7
289
     0
340
7475
341
DEAC
343
DEAC
344
DEAC
  0
DIMSTYLE
105
F71F
102
{ACAD_REACTORS
330
20DE1
330
20DFB
330
22741
330
2275B
330
25235
330
251DB
330
251D7
330
251BB
330
251AC
330
251AA
330
251A8
330
25156
330
25155
330
25153
330
25150
330
2514D
330
2514C
330
2515D
330
2515B
330
2515A
330
2515F
330
2516E
330
25154
330
2515E
330
25236
330
25C76
330
25CD6
330
25CD9
330
25CE0
330
25CE8
330
25CE9
102
}
330
746F
100
AcDbSymbolTableRecord
100
AcDbDimStyleTableRecord
  2
INABA_S40G
 70
     0
 40
40.0
 41
2.5
 42
0.5
 43
7.0
 44
1.5
 73
     0
 74
     0
 77
     3
 78
     8
140
3.0
141
0.0
143
0.0394
147
1.0
172
     1
173
     1
174
     1
178
     7
271
     1
340
F706
341
F770
343
F770
344
F770
  0
DIMSTYLE
105
142E3
330
746F
100
AcDbSymbolTableRecord
100
AcDbDimStyleTableRecord
  2
INABA_S1
 70
     0
 40
0.0
 41
2.5
 42
0.5
 43
7.0
 44
1.5
 73
     0
 74
     0
 77
     3
 78
     8
140
3.0
141
0.0
143
0.0394
146
0.5
147
0.5
172
     1
173
     1
176
   256
177
   256
178
     7
271
     2
272
     2
284
     8
288
     1
340
7475
341
DEAC
343
DEAC
344
DEAC
  0
DIMSTYLE
105
14463
330
746F
100
AcDbSymbolTableRecord
100
AcDbDimStyleTableRecord
  2
INABA_S30G
 70
     0
 40
30.0
 41
2.5
 42
0.5
 43
7.0
 44
1.5
 73
     0
 74
     0
 77
     3
 78
     8
140
3.0
141
0.0
143
0.0394
147
1.0
172
     1
173
     1
174
     1
175
     1
178
     7
271
     1
340
F706
341
F770
343
F770
344
F770
  0
DIMSTYLE
105
1758E
330
746F
100
AcDbSymbolTableRecord
100
AcDbDimStyleTableRecord
  2
INABA_S50G
 70
     0
 41
125.0
 42
25.0
 43
7.0
 44
75.0
 73
     0
 74
     0
 77
     3
 78
     8
140
150.0
141
0.0
143
0.0394
147
25.0
172
     1
173
     1
174
     1
175
     1
178
     7
271
     1
340
F706
341
F770
343
F770
344
F770
  0
ENDTAB
  0
TABLE
  2
BLOCK_RECORD
  5
7466
330
0
100
AcDbSymbolTable
 70
    60
  0
BLOCK_RECORD
  5
747D
330
7466
100
AcDbSymbolTableRecord
100
AcDbBlockTableRecord
  2
*MODEL_SPACE
340
173D5
  0
BLOCK_RECORD
  5
747A
330
7466
100
AcDbSymbolTableRecord
100
AcDbBlockTableRecord
  2
*PAPER_SPACE
340
173D6
  0
BLOCK_RECORD
  5
DEAC
330
7466
100
AcDbSymbolTableRecord
100
AcDbBlockTableRecord
  2
_OPEN
340
0
  0
BLOCK_RECORD
  5
F770
330
7466
100
AcDbSymbolTableRecord
100
AcDbBlockTableRecord
  2
_DOTSMALL
340
0
102
{BLKREFS
331
18C65
331
18C66
331
18C59
331
18C5A
331
18C4D
331
18C4E
331
18C41
331
18C42
331
18C35
331
18C36
331
18C29
331
18C2A
331
18C1D
331
18C1E
331
18C0F
331
18C10
331
18C03
331
18C04
331
18BF5
331
18BF6
331
18BE7
331
18BE8
331
18BD9
331
18BDA
331
18BCD
331
18BCE
331
21316
331
21317
331
21321
331
21322
331
2132A
331
2132B
331
25710
331
25711
331
2572C
331
2572D
331
25736
331
25737
331
2573F
331
25740
331
25749
331
2574A
331
2576D
331
2576E
331
25776
331
25777
331
25792
331
25793
331
257A4
331
257A5
331
258D0
331
258D1
331
258DB
331
258DC
331
258E6
331
258E7
331
258F1
331
258F2
331
25915
331
25916
331
2591E
331
2591F
331
2593B
331
2593C
331
2594D
331
2594E
331
2595F
331
25960
331
25971
331
25972
331
2597A
331
2597B
331
25983
331
25984
331
2598C
331
2598D
331
25995
331
25996
331
25A0C
331
25A0D
331
25A16
331
25A17
331
25A35
331
25A36
331
25A7E
331
25A7F
331
25A72
331
25A73
331
25A66
331
25A67
331
25A5A
331
25A5B
331
25A4E
331
25A4F
331
25A40
331
25A41
331
25D40
331
25D41
331
25D49
331
25D4A
331
25D52
331
25D53
331
25D5B
331
25D5C
331
25D66
331
25D67
331
25D6F
331
25D70
102
}
  0
BLOCK_RECORD
  5
164B4
330
7466
100
AcDbSymbolTableRecord
100
AcDbBlockTableRecord
  2
_DOT
340
0
102
{BLKREFS
331
18C73
331
18C74
102
}
  0
BLOCK_RECORD
  5
18BC8
330
7466
100
AcDbSymbolTableRecord
100
AcDbBlockTableRecord
  2
*D3
340
0
  0
BLOCK_RECORD
  5
18BD4
330
7466
100
AcDbSymbolTableRecord
100
AcDbBlockTableRecord
  2
*D4
340
0
  0
BLOCK_RECORD
  5
18BE0
330
7466
100
AcDbSymbolTableRecord
100
AcDbBlockTableRecord
  2
*D5
340
0
  0
BLOCK_RECORD
  5
18BEE
330
7466
100
AcDbSymbolTableRecord
100
AcDbBlockTableRecord
  2
*D6
340
0
  0
BLOCK_RECORD
  5
18BFC
330
7466
100
AcDbSymbolTableRecord
100
AcDbBlockTableRecord
  2
*D7
340
0
  0
BLOCK_RECORD
  5
18C0A
330
7466
100
AcDbSymbolTableRecord
100
AcDbBlockTableRecord
  2
*D8
340
0
  0
BLOCK_RECORD
  5
18C16
330
7466
100
AcDbSymbolTableRecord
100
AcDbBlockTableRecord
  2
*D9
340
0
  0
BLOCK_RECORD
  5
18C24
330
7466
100
AcDbSymbolTableRecord
100
AcDbBlockTableRecord
  2
*D10
340
0
  0
BLOCK_RECORD
  5
18C30
330
7466
100
AcDbSymbolTableRecord
100
AcDbBlockTableRecord
  2
*D11
340
0
  0
BLOCK_RECORD
  5
18C3C
330
7466
100
AcDbSymbolTableRecord
100
AcDbBlockTableRecord
  2
*D12
340
0
  0
BLOCK_RECORD
  5
18C48
330
7466
100
AcDbSymbolTableRecord
100
AcDbBlockTableRecord
  2
*D13
340
0
  0
BLOCK_RECORD
  5
18C54
330
7466
100
AcDbSymbolTableRecord
100
AcDbBlockTableRecord
  2
*D14
340
0
  0
BLOCK_RECORD
  5
18C60
330
7466
100
AcDbSymbolTableRecord
100
AcDbBlockTableRecord
  2
*D15
340
0
  0
BLOCK_RECORD
  5
18C6C
330
7466
100
AcDbSymbolTableRecord
100
AcDbBlockTableRecord
  2
*D16
340
0
  0
BLOCK_RECORD
  5
18C7A
330
7466
100
AcDbSymbolTableRecord
100
AcDbBlockTableRecord
  2
A$C3B1A506B
340
0
  0
BLOCK_RECORD
  5
1C4CA
330
7466
100
AcDbSymbolTableRecord
100
AcDbBlockTableRecord
  2
_NONE
340
0
  0
BLOCK_RECORD
  5
20DE2
330
7466
100
AcDbSymbolTableRecord
100
AcDbBlockTableRecord
  2
*D19
340
0
  0
BLOCK_RECORD
  5
20DFC
330
7466
100
AcDbSymbolTableRecord
100
AcDbBlockTableRecord
  2
*D20
340
0
  0
BLOCK_RECORD
  5
22742
330
7466
100
AcDbSymbolTableRecord
100
AcDbBlockTableRecord
  2
*D25
340
0
  0
BLOCK_RECORD
  5
2275C
330
7466
100
AcDbSymbolTableRecord
100
AcDbBlockTableRecord
  2
*D26
340
0
  0
BLOCK_RECORD
  5
25245
330
7466
100
AcDbSymbolTableRecord
100
AcDbBlockTableRecord
  2
*D27
340
0
  0
BLOCK_RECORD
  5
25251
330
7466
100
AcDbSymbolTableRecord
100
AcDbBlockTableRecord
  2
*D28
340
0
  0
BLOCK_RECORD
  5
2525D
330
7466
100
AcDbSymbolTableRecord
100
AcDbBlockTableRecord
  2
*D29
340
0
  0
BLOCK_RECORD
  5
25269
330
7466
100
AcDbSymbolTableRecord
100
AcDbBlockTableRecord
  2
*D30
340
0
  0
BLOCK_RECORD
  5
25274
330
7466
100
AcDbSymbolTableRecord
100
AcDbBlockTableRecord
  2
*D31
340
0
  0
BLOCK_RECORD
  5
25280
330
7466
100
AcDbSymbolTableRecord
100
AcDbBlockTableRecord
  2
*D32
340
0
  0
BLOCK_RECORD
  5
2528C
330
7466
100
AcDbSymbolTableRecord
100
AcDbBlockTableRecord
  2
*D33
340
0
  0
BLOCK_RECORD
  5
25297
330
7466
100
AcDbSymbolTableRecord
100
AcDbBlockTableRecord
  2
*D34
340
0
  0
BLOCK_RECORD
  5
252A3
330
7466
100
AcDbSymbolTableRecord
100
AcDbBlockTableRecord
  2
*D35
340
0
  0
BLOCK_RECORD
  5
252BB
330
7466
100
AcDbSymbolTableRecord
100
AcDbBlockTableRecord
  2
*D36
340
0
  0
BLOCK_RECORD
  5
252C8
330
7466
100
AcDbSymbolTableRecord
100
AcDbBlockTableRecord
  2
*D37
340
0
  0
BLOCK_RECORD
  5
252D5
330
7466
100
AcDbSymbolTableRecord
100
AcDbBlockTableRecord
  2
*D38
340
0
  0
BLOCK_RECORD
  5
252E1
330
7466
100
AcDbSymbolTableRecord
100
AcDbBlockTableRecord
  2
*D39
340
0
  0
BLOCK_RECORD
  5
252ED
330
7466
100
AcDbSymbolTableRecord
100
AcDbBlockTableRecord
  2
*D40
340
0
  0
BLOCK_RECORD
  5
25304
330
7466
100
AcDbSymbolTableRecord
100
AcDbBlockTableRecord
  2
*D41
340
0
  0
BLOCK_RECORD
  5
2531C
330
7466
100
AcDbSymbolTableRecord
100
AcDbBlockTableRecord
  2
*D42
340
0
  0
BLOCK_RECORD
  5
25329
330
7466
100
AcDbSymbolTableRecord
100
AcDbBlockTableRecord
  2
*D43
340
0
  0
BLOCK_RECORD
  5
25336
330
7466
100
AcDbSymbolTableRecord
100
AcDbBlockTableRecord
  2
*D44
340
0
  0
BLOCK_RECORD
  5
25342
330
7466
100
AcDbSymbolTableRecord
100
AcDbBlockTableRecord
  2
*D45
340
0
  0
BLOCK_RECORD
  5
2535B
330
7466
100
AcDbSymbolTableRecord
100
AcDbBlockTableRecord
  2
*D46
340
0
  0
BLOCK_RECORD
  5
25368
330
7466
100
AcDbSymbolTableRecord
100
AcDbBlockTableRecord
  2
*D47
340
0
  0
BLOCK_RECORD
  5
25CF3
330
7466
100
AcDbSymbolTableRecord
100
AcDbBlockTableRecord
  2
*D54
340
0
  0
BLOCK_RECORD
  5
25CFF
330
7466
100
AcDbSymbolTableRecord
100
AcDbBlockTableRecord
  2
*D55
340
0
  0
BLOCK_RECORD
  5
25D0B
330
7466
100
AcDbSymbolTableRecord
100
AcDbBlockTableRecord
  2
*D56
340
0
  0
BLOCK_RECORD
  5
25D17
330
7466
100
AcDbSymbolTableRecord
100
AcDbBlockTableRecord
  2
*D57
340
0
  0
BLOCK_RECORD
  5
25D23
330
7466
100
AcDbSymbolTableRecord
100
AcDbBlockTableRecord
  2
*D58
340
0
  0
BLOCK_RECORD
  5
25D31
330
7466
100
AcDbSymbolTableRecord
100
AcDbBlockTableRecord
  2
*D59
340
0
  0
ENDTAB
  0
ENDSEC
  0
SECTION
  2
BLOCKS
  0
BLOCK
  5
7489
330
747D
100
AcDbEntity
  8
0
100
AcDbBlockBegin
  2
*MODEL_SPACE
 70
     0
 10
0.0
 20
0.0
 30
0.0
  3
*MODEL_SPACE
  1

  0
ENDBLK
  5
748A
330
747D
100
AcDbEntity
  8
0
100
AcDbBlockEnd
  0
BLOCK
  5
7487
330
747A
100
AcDbEntity
 67
     1
  8
0
100
AcDbBlockBegin
  2
*PAPER_SPACE
 70
     0
 10
0.0
 20
0.0
 30
0.0
  3
*PAPER_SPACE
  1

  0
ENDBLK
  5
7488
330
747A
100
AcDbEntity
 67
     1
  8
0
100
AcDbBlockEnd
  0
BLOCK
  5
DEAD
330
DEAC
100
AcDbEntity
  8
0
100
AcDbBlockBegin
  2
_OPEN
 70
     0
 10
0.0
 20
0.0
 30
0.0
  3
_OPEN
  1

  0
LINE
  5
DEAE
330
DEAC
100
AcDbEntity
  8
0
  6
ByBlock
 62
     0
100
AcDbLine
 10
-1.0
 20
0.1666666666666666
 30
0.0
 11
0.0
 21
0.0
 31
0.0
  0
LINE
  5
DEAF
330
DEAC
100
AcDbEntity
  8
0
  6
ByBlock
 62
     0
100
AcDbLine
 10
0.0
 20
0.0
 30
0.0
 11
-1.0
 21
-0.1666666666666666
 31
0.0
  0
LINE
  5
DEB0
330
DEAC
100
AcDbEntity
  8
0
  6
ByBlock
 62
     0
100
AcDbLine
 10
0.0
 20
0.0
 30
0.0
 11
-1.0
 21
0.0
 31
0.0
  0
ENDBLK
  5
DEB1
330
DEAC
100
AcDbEntity
  8
0
100
AcDbBlockEnd
  0
BLOCK
  5
F771
330
F770
100
AcDbEntity
  8
0
 48
50.0
100
AcDbBlockBegin
  2
_DOTSMALL
 70
     0
 10
0.0
 20
0.0
 30
0.0
  3
_DOTSMALL
  1

  0
LWPOLYLINE
  5
F772
330
F770
100
AcDbEntity
  8
0
  6
ByBlock
 62
     0
 48
50.0
100
AcDbPolyline
 90
        2
 70
     1
 43
0.5
 10
-0.0625
 20
0.0
 42
1.0
 10
0.0625
 20
0.0
 42
1.0
  0
ENDBLK
  5
F776
330
F770
100
AcDbEntity
  8
0
 48
50.0
100
AcDbBlockEnd
  0
BLOCK
  5
164BA
330
164B4
100
AcDbEntity
  8
0
 48
50.0
100
AcDbBlockBegin
  2
_DOT
 70
     0
 10
0.0
 20
0.0
 30
0.0
  3
_DOT
  1

  0
LWPOLYLINE
  5
164B5
330
164B4
100
AcDbEntity
  8
0
  6
ByBlock
 62
     0
 48
50.0
100
AcDbPolyline
 90
        2
 70
     1
 43
0.5
 10
-0.25
 20
0.0
 42
1.0
 10
0.25
 20
0.0
 42
1.0
  0
LINE
  5
164B9
330
164B4
100
AcDbEntity
  8
0
  6
ByBlock
 62
     0
 48
50.0
100
AcDbLine
 10
-0.5
 20
0.0
 30
0.0
 11
-1.0
 21
0.0
 31
0.0
  0
ENDBLK
  5
164BB
330
164B4
100
AcDbEntity
  8
0
 48
50.0
100
AcDbBlockEnd
  0
BLOCK
  5
18BC9
330
18BC8
100
AcDbEntity
  8
0
 48
50.0
100
AcDbBlockBegin
  2
*D3
 70
     1
 10
0.0
 20
0.0
 30
0.0
  3
*D3
  1

  0
LINE
  5
18BCA
330
18BC8
100
AcDbEntity
  8
寸法
 62
     0
 48
50.0
370
    -2
100
AcDbLine
 10
7649.896575106999
 20
9636.123139034717
 30
0.0
 11
8702.429862581047
 21
9636.123139034717
 31
0.0
  0
LINE
  5
18BCB
330
18BC8
100
AcDbEntity
  8
寸法
 62
     0
 48
50.0
370
    -2
100
AcDbLine
 10
7649.896575106973
 20
7846.123139034709
 30
0.0
 11
8702.429862581047
 21
7846.123139034709
 31
0.0
  0
LINE
  5
18BCC
330
18BC8
100
AcDbEntity
  8
寸法
 62
     0
 48
50.0
370
    -2
100
AcDbLine
 10
8642.429862581046
 20
9636.123139034717
 30
0.0
 11
8642.429862581046
 21
7846.123139034709
 31
0.0
  0
INSERT
  5
18BCD
330
18BC8
100
AcDbEntity
  8
寸法
 62
     0
 48
50.0
370
    -2
100
AcDbBlockReference
  2
_DOTSMALL
 10
8642.429862581046
 20
9636.123139034717
 30
0.0
 41
100.0
 42
100.0
 43
100.0
 50
90.0
  0
INSERT
  5
18BCE
330
18BC8
100
AcDbEntity
  8
寸法
 62
     0
 48
50.0
370
    -2
100
AcDbBlockReference
  2
_DOTSMALL
 10
8642.429862581046
 20
7846.123139034709
 30
0.0
 41
100.0
 42
100.0
 43
100.0
 50
270.0
  0
MTEXT
  5
18BCF
330
18BC8
100
AcDbEntity
  8
寸法
 62
     7
 48
50.0
100
AcDbMText
 10
8542.429862581045
 20
8741.123139034712
 30
0.0
 40
120.0
 41
0.0
 71
     5
 72
     1
  1
\A1;1790
  7
STYLE1
 11
0.0000000000000001
 21
1.0
 31
0.0
 73
     1
 44
1.0
1001
ACAD
1000
MTEXTBEGIN
1070
    73
1070
     1
1070
    44
1040
1.0
1070
    74
1070
     0
1000
MTEXTEND
  0
POINT
  5
18BD0
330
18BC8
100
AcDbEntity
  8
DEFPOINTS
 62
     0
 48
50.0
100
AcDbPoint
 10
7629.896575106998
 20
9636.123139034717
 30
0.0
  0
POINT
  5
18BD1
330
18BC8
100
AcDbEntity
  8
DEFPOINTS
 62
     0
 48
50.0
100
AcDbPoint
 10
7629.896575106974
 20
7846.123139034709
 30
0.0
  0
POINT
  5
18BD2
330
18BC8
100
AcDbEntity
  8
DEFPOINTS
 62
     0
 48
50.0
100
AcDbPoint
 10
8642.429862581046
 20
7846.123139034709
 30
0.0
  0
ENDBLK
  5
18BD3
330
18BC8
100
AcDbEntity
  8
0
 48
50.0
100
AcDbBlockEnd
  0
BLOCK
  5
18BD5
330
18BD4
100
AcDbEntity
  8
0
 48
50.0
100
AcDbBlockBegin
  2
*D4
 70
     1
 10
0.0
 20
0.0
 30
0.0
  3
*D4
  1

  0
LINE
  5
18BD6
330
18BD4
100
AcDbEntity
  8
寸法
 62
     0
 48
50.0
370
    -2
100
AcDbLine
 10
4214.896575106998
 20
9656.123139034622
 30
0.0
 11
4214.896575106998
 21
10211.93135865972
 31
0.0
  0
LINE
  5
18BD7
330
18BD4
100
AcDbEntity
  8
寸法
 62
     0
 48
50.0
370
    -2
100
AcDbLine
 10
7574.896575106999
 20
9656.123139034718
 30
0.0
 11
7574.896575106999
 21
10211.93135865972
 31
0.0
  0
LINE
  5
18BD8
330
18BD4
100
AcDbEntity
  8
寸法
 62
     0
 48
50.0
370
    -2
100
AcDbLine
 10
4214.896575106998
 20
10151.93135865972
 30
0.0
 11
7574.896575106999
 21
10151.93135865972
 31
0.0
  0
INSERT
  5
18BD9
330
18BD4
100
AcDbEntity
  8
寸法
 62
     0
 48
50.0
370
    -2
100
AcDbBlockReference
  2
_DOTSMALL
 10
4214.896575106998
 20
10151.93135865972
 30
0.0
 41
100.0
 42
100.0
 43
100.0
 50
180.0
  0
INSERT
  5
18BDA
330
18BD4
100
AcDbEntity
  8
寸法
 62
     0
 48
50.0
370
    -2
100
AcDbBlockReference
  2
_DOTSMALL
 10
7574.896575106999
 20
10151.93135865972
 30
0.0
 41
100.0
 42
100.0
 43
100.0
  0
MTEXT
  5
18BDB
330
18BD4
100
AcDbEntity
  8
寸法
 62
     7
 48
50.0
100
AcDbMText
 10
5894.896575106997
 20
10251.94316968334
 30
0.0
 40
120.0
 41
0.0
 71
     5
 72
     1
  1
\A1;8X420=3360
  7
STYLE1
 73
     1
 44
1.0
1001
ACAD
1000
MTEXTBEGIN
1070
    73
1070
     1
1070
    44
1040
1.0
1070
    74
1070
     0
1000
MTEXTEND
  0
POINT
  5
18BDC
330
18BD4
100
AcDbEntity
  8
DEFPOINTS
 62
     0
 48
50.0
100
AcDbPoint
 10
4214.896575106998
 20
9636.123139034623
 30
0.0
  0
POINT
  5
18BDD
330
18BD4
100
AcDbEntity
  8
DEFPOINTS
 62
     0
 48
50.0
100
AcDbPoint
 10
7574.896575106999
 20
9636.123139034717
 30
0.0
  0
POINT
  5
18BDE
330
18BD4
100
AcDbEntity
  8
DEFPOINTS
 62
     0
 48
50.0
100
AcDbPoint
 10
7574.896575106999
 20
10151.93135865972
 30
0.0
  0
ENDBLK
  5
18BDF
330
18BD4
100
AcDbEntity
  8
0
 48
50.0
100
AcDbBlockEnd
  0
BLOCK
  5
18BE1
330
18BE0
100
AcDbEntity
  8
0
 48
50.0
100
AcDbBlockBegin
  2
*D5
 70
     1
 10
0.0
 20
0.0
 30
0.0
  3
*D5
  1

  0
LINE
  5
18BE2
330
18BE0
100
AcDbEntity
  8
寸法
 62
     0
 48
50.0
370
    -2
100
AcDbLine
 10
7574.896575106999
 20
9656.123139034718
 30
0.0
 11
7574.896575106999
 21
10211.9313586597
 31
0.0
  0
LINE
  5
18BE3
330
18BE0
100
AcDbEntity
  8
寸法
 62
     0
 48
50.0
370
    -2
100
AcDbLine
 10
7629.896575106998
 20
9656.123139034718
 30
0.0
 11
7629.896575106998
 21
10211.9313586597
 31
0.0
  0
LINE
  5
18BE4
330
18BE0
100
AcDbEntity
  8
寸法
 62
     0
 48
50.0
370
    -2
100
AcDbLine
 10
7574.896575106999
 20
10151.9313586597
 30
0.0
 11
7474.896575106999
 21
10151.9313586597
 31
0.0
  0
LINE
  5
18BE5
330
18BE0
100
AcDbEntity
  8
寸法
 62
     0
 48
50.0
370
    -2
100
AcDbLine
 10
7629.896575106998
 20
10151.9313586597
 30
0.0
 11
8046.867137855477
 21
10151.9313586597
 31
0.0
  0
LINE
  5
18BE6
330
18BE0
100
AcDbEntity
  8
寸法
 62
     0
 48
50.0
370
    -2
100
AcDbLine
 10
7574.896575106999
 20
10151.9313586597
 30
0.0
 11
7629.896575106998
 21
10151.9313586597
 31
0.0
  0
INSERT
  5
18BE7
330
18BE0
100
AcDbEntity
  8
寸法
 62
     0
 48
50.0
370
    -2
100
AcDbBlockReference
  2
_DOTSMALL
 10
7574.896575106999
 20
10151.9313586597
 30
0.0
 41
100.0
 42
100.0
 43
100.0
  0
INSERT
  5
18BE8
330
18BE0
100
AcDbEntity
  8
寸法
 62
     0
 48
50.0
370
    -2
100
AcDbBlockReference
  2
_DOTSMALL
 10
7629.896575106998
 20
10151.9313586597
 30
0.0
 41
100.0
 42
100.0
 43
100.0
 50
180.0
  0
MTEXT
  5
18BE9
330
18BE0
100
AcDbEntity
  8
寸法
 62
     7
 48
50.0
100
AcDbMText
 10
7938.381856481237
 20
10251.9313586597
 30
0.0
 40
120.0
 41
0.0
 71
     5
 72
     1
  1
\A1;55
  7
STYLE1
 73
     1
 44
1.0
1001
ACAD
1000
MTEXTBEGIN
1070
    73
1070
     1
1070
    44
1040
1.0
1070
    74
1070
     0
1000
MTEXTEND
  0
POINT
  5
18BEA
330
18BE0
100
AcDbEntity
  8
DEFPOINTS
 62
     0
 48
50.0
100
AcDbPoint
 10
7574.896575106999
 20
9636.123139034717
 30
0.0
  0
POINT
  5
18BEB
330
18BE0
100
AcDbEntity
  8
DEFPOINTS
 62
     0
 48
50.0
100
AcDbPoint
 10
7629.896575106998
 20
9636.123139034717
 30
0.0
  0
POINT
  5
18BEC
330
18BE0
100
AcDbEntity
  8
DEFPOINTS
 62
     0
 48
50.0
100
AcDbPoint
 10
7629.896575106998
 20
10151.9313586597
 30
0.0
  0
ENDBLK
  5
18BED
330
18BE0
100
AcDbEntity
  8
0
 48
50.0
100
AcDbBlockEnd
  0
BLOCK
  5
18BEF
330
18BEE
100
AcDbEntity
  8
0
 48
50.0
100
AcDbBlockBegin
  2
*D6
 70
     1
 10
0.0
 20
0.0
 30
0.0
  3
*D6
  1

  0
LINE
  5
18BF0
330
18BEE
100
AcDbEntity
  8
寸法
 62
     0
 48
50.0
370
    -2
100
AcDbLine
 10
7649.896575106999
 20
9636.123139034717
 30
0.0
 11
8337.32292084141
 21
9636.123139034717
 31
0.0
  0
LINE
  5
18BF1
330
18BEE
100
AcDbEntity
  8
寸法
 62
     0
 48
50.0
370
    -2
100
AcDbLine
 10
7649.896575106999
 20
9581.123139034721
 30
0.0
 11
8337.32292084141
 21
9581.123139034721
 31
0.0
  0
LINE
  5
18BF2
330
18BEE
100
AcDbEntity
  8
寸法
 62
     0
 48
50.0
370
    -2
100
AcDbLine
 10
8277.322920841411
 20
9581.123139034721
 30
0.0
 11
8277.322920841411
 21
9481.123139034719
 31
0.0
  0
LINE
  5
18BF3
330
18BEE
100
AcDbEntity
  8
寸法
 62
     0
 48
50.0
370
    -2
100
AcDbLine
 10
8277.322920841411
 20
9636.123139034717
 30
0.0
 11
8277.322920841411
 21
10053.09370178319
 31
0.0
  0
LINE
  5
18BF4
330
18BEE
100
AcDbEntity
  8
寸法
 62
     0
 48
50.0
370
    -2
100
AcDbLine
 10
8277.322920841411
 20
9581.123139034721
 30
0.0
 11
8277.322920841411
 21
9636.123139034717
 31
0.0
  0
INSERT
  5
18BF5
330
18BEE
100
AcDbEntity
  8
寸法
 62
     0
 48
50.0
370
    -2
100
AcDbBlockReference
  2
_DOTSMALL
 10
8277.322920841411
 20
9581.123139034721
 30
0.0
 41
100.0
 42
100.0
 43
100.0
 50
90.0
  0
INSERT
  5
18BF6
330
18BEE
100
AcDbEntity
  8
寸法
 62
     0
 48
50.0
370
    -2
100
AcDbBlockReference
  2
_DOTSMALL
 10
8277.322920841411
 20
9636.123139034717
 30
0.0
 41
100.0
 42
100.0
 43
100.0
 50
270.0
  0
MTEXT
  5
18BF7
330
18BEE
100
AcDbEntity
  8
寸法
 62
     7
 48
50.0
100
AcDbMText
 10
8177.32292084141
 20
9944.608420408957
 30
0.0
 40
120.0
 41
0.0
 71
     5
 72
     1
  1
\A1;55
  7
STYLE1
 11
0.0000000000000001
 21
1.0
 31
0.0
 73
     1
 44
1.0
1001
ACAD
1000
MTEXTBEGIN
1070
    73
1070
     1
1070
    44
1040
1.0
1070
    74
1070
     0
1000
MTEXTEND
  0
POINT
  5
18BF8
330
18BEE
100
AcDbEntity
  8
DEFPOINTS
 62
     0
 48
50.0
100
AcDbPoint
 10
7629.896575106998
 20
9636.123139034717
 30
0.0
  0
POINT
  5
18BF9
330
18BEE
100
AcDbEntity
  8
DEFPOINTS
 62
     0
 48
50.0
100
AcDbPoint
 10
7629.896575106998
 20
9581.123139034721
 30
0.0
  0
POINT
  5
18BFA
330
18BEE
100
AcDbEntity
  8
DEFPOINTS
 62
     0
 48
50.0
100
AcDbPoint
 10
8277.322920841411
 20
9581.123139034721
 30
0.0
  0
ENDBLK
  5
18BFB
330
18BEE
100
AcDbEntity
  8
0
 48
50.0
100
AcDbBlockEnd
  0
BLOCK
  5
18BFD
330
18BFC
100
AcDbEntity
  8
0
 48
50.0
100
AcDbBlockBegin
  2
*D7
 70
     1
 10
0.0
 20
0.0
 30
0.0
  3
*D7
  1

  0
LINE
  5
18BFE
330
18BFC
100
AcDbEntity
  8
寸法
 62
     0
 48
50.0
370
    -2
100
AcDbLine
 10
4159.896575106963
 20
9656.123139034622
 30
0.0
 11
4159.896575106963
 21
10211.9313586596
 31
0.0
  0
LINE
  5
18BFF
330
18BFC
100
AcDbEntity
  8
寸法
 62
     0
 48
50.0
370
    -2
100
AcDbLine
 10
4214.896575106998
 20
9656.123139034622
 30
0.0
 11
4214.896575106998
 21
10211.9313586596
 31
0.0
  0
LINE
  5
18C00
330
18BFC
100
AcDbEntity
  8
寸法
 62
     0
 48
50.0
370
    -2
100
AcDbLine
 10
4214.896575106998
 20
10151.9313586596
 30
0.0
 11
4314.896575106998
 21
10151.9313586596
 31
0.0
  0
LINE
  5
18C01
330
18BFC
100
AcDbEntity
  8
寸法
 62
     0
 48
50.0
370
    -2
100
AcDbLine
 10
4159.896575106963
 20
10151.9313586596
 30
0.0
 11
3742.926012358486
 21
10151.9313586596
 31
0.0
  0
LINE
  5
18C02
330
18BFC
100
AcDbEntity
  8
寸法
 62
     0
 48
50.0
370
    -2
100
AcDbLine
 10
4214.896575106998
 20
10151.9313586596
 30
0.0
 11
4159.896575106963
 21
10151.9313586596
 31
0.0
  0
INSERT
  5
18C03
330
18BFC
100
AcDbEntity
  8
寸法
 62
     0
 48
50.0
370
    -2
100
AcDbBlockReference
  2
_DOTSMALL
 10
4214.896575106998
 20
10151.9313586596
 30
0.0
 41
100.0
 42
100.0
 43
100.0
 50
180.0
  0
INSERT
  5
18C04
330
18BFC
100
AcDbEntity
  8
寸法
 62
     0
 48
50.0
370
    -2
100
AcDbBlockReference
  2
_DOTSMALL
 10
4159.896575106963
 20
10151.9313586596
 30
0.0
 41
100.0
 42
100.0
 43
100.0
  0
MTEXT
  5
18C05
330
18BFC
100
AcDbEntity
  8
寸法
 62
     7
 48
50.0
100
AcDbMText
 10
3851.411293732725
 20
10251.9313586596
 30
0.0
 40
120.0
 41
0.0
 71
     5
 72
     1
  1
\A1;55
  7
STYLE1
 73
     1
 44
1.0
1001
ACAD
1000
MTEXTBEGIN
1070
    73
1070
     1
1070
    44
1040
1.0
1070
    74
1070
     0
1000
MTEXTEND
  0
POINT
  5
18C06
330
18BFC
100
AcDbEntity
  8
DEFPOINTS
 62
     0
 48
50.0
100
AcDbPoint
 10
4159.896575106963
 20
9636.123139034623
 30
0.0
  0
POINT
  5
18C07
330
18BFC
100
AcDbEntity
  8
DEFPOINTS
 62
     0
 48
50.0
100
AcDbPoint
 10
4214.896575106998
 20
9636.123139034623
 30
0.0
  0
POINT
  5
18C08
330
18BFC
100
AcDbEntity
  8
DEFPOINTS
 62
     0
 48
50.0
100
AcDbPoint
 10
4214.896575106998
 20
10151.9313586596
 30
0.0
  0
ENDBLK
  5
18C09
330
18BFC
100
AcDbEntity
  8
0
 48
50.0
100
AcDbBlockEnd
  0
BLOCK
  5
18C0B
330
18C0A
100
AcDbEntity
  8
0
 48
50.0
100
AcDbBlockBegin
  2
*D8
 70
     1
 10
0.0
 20
0.0
 30
0.0
  3
*D8
  1

  0
LINE
  5
18C0C
330
18C0A
100
AcDbEntity
  8
寸法
 62
     0
 48
50.0
370
    -2
100
AcDbLine
 10
4159.896575106992
 20
7826.123139034546
 30
0.0
 11
4159.896575106992
 21
6804.372203245664
 31
0.0
  0
LINE
  5
18C0D
330
18C0A
100
AcDbEntity
  8
寸法
 62
     0
 48
50.0
370
    -2
100
AcDbLine
 10
7629.896575106974
 20
7826.123139034674
 30
0.0
 11
7629.896575106974
 21
6804.372203245664
 31
0.0
  0
LINE
  5
18C0E
330
18C0A
100
AcDbEntity
  8
寸法
 62
     0
 48
50.0
370
    -2
100
AcDbLine
 10
4159.896575106992
 20
6864.372203245665
 30
0.0
 11
7629.896575106974
 21
6864.372203245665
 31
0.0
  0
INSERT
  5
18C0F
330
18C0A
100
AcDbEntity
  8
寸法
 62
     0
 48
50.0
370
    -2
100
AcDbBlockReference
  2
_DOTSMALL
 10
4159.896575106992
 20
6864.372203245665
 30
0.0
 41
100.0
 42
100.0
 43
100.0
 50
180.0
  0
INSERT
  5
18C10
330
18C0A
100
AcDbEntity
  8
寸法
 62
     0
 48
50.0
370
    -2
100
AcDbBlockReference
  2
_DOTSMALL
 10
7629.896575106974
 20
6864.372203245665
 30
0.0
 41
100.0
 42
100.0
 43
100.0
  0
MTEXT
  5
18C11
330
18C0A
100
AcDbEntity
  8
寸法
 62
     7
 48
50.0
100
AcDbMText
 10
5911.12376113973
 20
6964.372203245665
 30
0.0
 40
120.0
 41
0.0
 71
     5
 72
     1
  1
\A1;3470
  7
STYLE1
 73
     1
 44
1.0
1001
ACAD
1000
MTEXTBEGIN
1070
    73
1070
     1
1070
    44
1040
1.0
1070
    74
1070
     0
1000
MTEXTEND
  0
POINT
  5
18C12
330
18C0A
100
AcDbEntity
  8
DEFPOINTS
 62
     0
 48
50.0
100
AcDbPoint
 10
4159.896575106992
 20
7846.123139034546
 30
0.0
  0
POINT
  5
18C13
330
18C0A
100
AcDbEntity
  8
DEFPOINTS
 62
     0
 48
50.0
100
AcDbPoint
 10
7629.896575106974
 20
7846.123139034673
 30
0.0
  0
POINT
  5
18C14
330
18C0A
100
AcDbEntity
  8
DEFPOINTS
 62
     0
 48
50.0
100
AcDbPoint
 10
7629.896575106974
 20
6864.372203245665
 30
0.0
  0
ENDBLK
  5
18C15
330
18C0A
100
AcDbEntity
  8
0
 48
50.0
100
AcDbBlockEnd
  0
BLOCK
  5
18C17
330
18C16
100
AcDbEntity
  8
0
 48
50.0
100
AcDbBlockBegin
  2
*D9
 70
     1
 10
0.0
 20
0.0
 30
0.0
  3
*D9
  1

  0
LINE
  5
18C18
330
18C16
100
AcDbEntity
  8
寸法
 62
     0
 48
50.0
370
    -2
100
AcDbLine
 10
7649.896575106973
 20
7901.123139034706
 30
0.0
 11
8337.322920841385
 21
7901.123139034706
 31
0.0
  0
LINE
  5
18C19
330
18C16
100
AcDbEntity
  8
寸法
 62
     0
 48
50.0
370
    -2
100
AcDbLine
 10
7649.896575106973
 20
7846.123139034709
 30
0.0
 11
8337.322920841385
 21
7846.123139034709
 31
0.0
  0
LINE
  5
18C1A
330
18C16
100
AcDbEntity
  8
寸法
 62
     0
 48
50.0
370
    -2
100
AcDbLine
 10
8277.322920841385
 20
7901.123139034706
 30
0.0
 11
8277.322920841385
 21
8001.123139034707
 31
0.0
  0
LINE
  5
18C1B
330
18C16
100
AcDbEntity
  8
寸法
 62
     0
 48
50.0
370
    -2
100
AcDbLine
 10
8277.322920841385
 20
7846.123139034709
 30
0.0
 11
8277.322920841385
 21
7429.152576286229
 31
0.0
  0
LINE
  5
18C1C
330
18C16
100
AcDbEntity
  8
寸法
 62
     0
 48
50.0
370
    -2
100
AcDbLine
 10
8277.322920841385
 20
7901.123139034706
 30
0.0
 11
8277.322920841385
 21
7846.123139034709
 31
0.0
  0
INSERT
  5
18C1D
330
18C16
100
AcDbEntity
  8
寸法
 62
     0
 48
50.0
370
    -2
100
AcDbBlockReference
  2
_DOTSMALL
 10
8277.322920841385
 20
7901.123139034706
 30
0.0
 41
100.0
 42
100.0
 43
100.0
 50
270.0
  0
INSERT
  5
18C1E
330
18C16
100
AcDbEntity
  8
寸法
 62
     0
 48
50.0
370
    -2
100
AcDbBlockReference
  2
_DOTSMALL
 10
8277.322920841385
 20
7846.123139034709
 30
0.0
 41
100.0
 42
100.0
 43
100.0
 50
90.0
  0
MTEXT
  5
18C1F
330
18C16
100
AcDbEntity
  8
寸法
 62
     7
 48
50.0
100
AcDbMText
 10
8177.322920841383
 20
7537.637857660469
 30
0.0
 40
120.0
 41
0.0
 71
     5
 72
     1
  1
\A1;55
  7
STYLE1
 11
0.0000000000000001
 21
1.0
 31
0.0
 73
     1
 44
1.0
1001
ACAD
1000
MTEXTBEGIN
1070
    73
1070
     1
1070
    44
1040
1.0
1070
    74
1070
     0
1000
MTEXTEND
  0
POINT
  5
18C20
330
18C16
100
AcDbEntity
  8
DEFPOINTS
 62
     0
 48
50.0
100
AcDbPoint
 10
7629.896575106974
 20
7901.123139034706
 30
0.0
  0
POINT
  5
18C21
330
18C16
100
AcDbEntity
  8
DEFPOINTS
 62
     0
 48
50.0
100
AcDbPoint
 10
7629.896575106974
 20
7846.123139034709
 30
0.0
  0
POINT
  5
18C22
330
18C16
100
AcDbEntity
  8
DEFPOINTS
 62
     0
 48
50.0
100
AcDbPoint
 10
8277.322920841385
 20
7846.123139034709
 30
0.0
  0
ENDBLK
  5
18C23
330
18C16
100
AcDbEntity
  8
0
 48
50.0
100
AcDbBlockEnd
  0
BLOCK
  5
18C25
330
18C24
100
AcDbEntity
  8
0
 48
50.0
100
AcDbBlockBegin
  2
*D10
 70
     1
 10
0.0
 20
0.0
 30
0.0
  3
*D10
  1

  0
LINE
  5
18C26
330
18C24
100
AcDbEntity
  8
寸法
 62
     0
 48
50.0
370
    -2
100
AcDbLine
 10
6533.037591258376
 20
9136.123139034728
 30
0.0
 11
6465.083950562664
 21
8882.516699399049
 31
0.0
  0
LINE
  5
18C27
330
18C24
100
AcDbEntity
  8
寸法
 62
     0
 48
50.0
370
    -2
100
AcDbLine
 10
7596.037591258388
 20
9136.123139034721
 30
0.0
 11
7528.083950562677
 21
8882.516699399049
 31
0.0
  0
LINE
  5
18C28
330
18C24
100
AcDbEntity
  8
寸法
 62
     0
 48
50.0
370
    -2
100
AcDbLine
 10
6481.160902108531
 20
8942.51669939905
 30
0.0
 11
7544.160902108544
 21
8942.51669939905
 31
0.0
  0
INSERT
  5
18C29
330
18C24
100
AcDbEntity
  8
寸法
 62
     0
 48
50.0
370
    -2
100
AcDbBlockReference
  2
_DOTSMALL
 10
6481.160902108531
 20
8942.51669939905
 30
0.0
 41
100.0
 42
100.0
 43
100.0
 50
180.0
  0
INSERT
  5
18C2A
330
18C24
100
AcDbEntity
  8
寸法
 62
     0
 48
50.0
370
    -2
100
AcDbBlockReference
  2
_DOTSMALL
 10
7544.160902108544
 20
8942.51669939905
 30
0.0
 41
100.0
 42
100.0
 43
100.0
  0
MTEXT
  5
18C2B
330
18C24
100
AcDbEntity
  8
寸法
 62
     7
 48
50.0
100
AcDbMText
 10
7061.28653022935
 20
9042.516699399049
 30
0.0
 40
120.0
 41
0.0
 71
     5
 72
     1
  1
\A1;1063
  7
STYLE1
 73
     1
 44
1.0
1001
ACAD
1000
MTEXTBEGIN
1070
    73
1070
     1
1070
    44
1040
1.0
1070
    74
1070
     0
1000
MTEXTEND
  0
POINT
  5
18C2C
330
18C24
100
AcDbEntity
  8
DEFPOINTS
 62
     0
 48
50.0
100
AcDbPoint
 10
6538.396575106998
 20
9156.123139034727
 30
0.0
  0
POINT
  5
18C2D
330
18C24
100
AcDbEntity
  8
DEFPOINTS
 62
     0
 48
50.0
100
AcDbPoint
 10
7601.39657510701
 20
9156.12313903472
 30
0.0
  0
POINT
  5
18C2E
330
18C24
100
AcDbEntity
  8
DEFPOINTS
 62
     0
 48
50.0
100
AcDbPoint
 10
7544.160902108544
 20
8942.51669939905
 30
0.0
  0
ENDBLK
  5
18C2F
330
18C24
100
AcDbEntity
  8
0
 48
50.0
100
AcDbBlockEnd
  0
BLOCK
  5
18C31
330
18C30
100
AcDbEntity
  8
0
 48
50.0
100
AcDbBlockBegin
  2
*D11
 70
     1
 10
0.0
 20
0.0
 30
0.0
  3
*D11
  1

  0
LINE
  5
18C32
330
18C30
100
AcDbEntity
  8
寸法
 62
     0
 48
50.0
370
    -2
100
AcDbLine
 10
7621.396575106999
 20
9600.764155186094
 30
0.0
 11
8016.754300969024
 21
9494.828371819961
 31
0.0
  0
LINE
  5
18C33
330
18C30
100
AcDbEntity
  8
寸法
 62
     0
 48
50.0
370
    -2
100
AcDbLine
 10
7621.396575106999
 20
9150.764155186099
 30
0.0
 11
8016.754300969024
 21
9044.828371819964
 31
0.0
  0
LINE
  5
18C34
330
18C30
100
AcDbEntity
  8
寸法
 62
     0
 48
50.0
370
    -2
100
AcDbLine
 10
7956.754300969024
 20
9510.905323365827
 30
0.0
 11
7956.754300969024
 21
9060.90532336583
 31
0.0
  0
INSERT
  5
18C35
330
18C30
100
AcDbEntity
  8
寸法
 62
     0
 48
50.0
370
    -2
100
AcDbBlockReference
  2
_DOTSMALL
 10
7956.754300969024
 20
9510.905323365827
 30
0.0
 41
100.0
 42
100.0
 43
100.0
 50
90.0
  0
INSERT
  5
18C36
330
18C30
100
AcDbEntity
  8
寸法
 62
     0
 48
50.0
370
    -2
100
AcDbBlockReference
  2
_DOTSMALL
 10
7956.754300969024
 20
9060.90532336583
 30
0.0
 41
100.0
 42
100.0
 43
100.0
 50
270.0
  0
MTEXT
  5
18C37
330
18C30
100
AcDbEntity
  8
寸法
 62
     7
 48
50.0
100
AcDbMText
 10
7856.754300969022
 20
9285.905323365829
 30
0.0
 40
120.0
 41
0.0
 71
     5
 72
     1
  1
\A1;450
  7
STYLE1
 11
0.0000000000000001
 21
1.0
 31
0.0
 73
     1
 44
1.0
1001
ACAD
1000
MTEXTBEGIN
1070
    73
1070
     1
1070
    44
1040
1.0
1070
    74
1070
     0
1000
MTEXTEND
  0
POINT
  5
18C38
330
18C30
100
AcDbEntity
  8
DEFPOINTS
 62
     0
 48
50.0
100
AcDbPoint
 10
7601.396575106999
 20
9606.123139034718
 30
0.0
  0
POINT
  5
18C39
330
18C30
100
AcDbEntity
  8
DEFPOINTS
 62
     0
 48
50.0
100
AcDbPoint
 10
7601.396575106999
 20
9156.12313903472
 30
0.0
  0
POINT
  5
18C3A
330
18C30
100
AcDbEntity
  8
DEFPOINTS
 62
     0
 48
50.0
100
AcDbPoint
 10
7956.754300969024
 20
9060.90532336583
 30
0.0
  0
ENDBLK
  5
18C3B
330
18C30
100
AcDbEntity
  8
0
 48
50.0
100
AcDbBlockEnd
  0
BLOCK
  5
18C3D
330
18C3C
100
AcDbEntity
  8
0
 48
50.0
100
AcDbBlockBegin
  2
*D12
 70
     1
 10
0.0
 20
0.0
 30
0.0
  3
*D12
  1

  0
LINE
  5
18C3E
330
18C3C
100
AcDbEntity
  8
寸法
 62
     0
 48
50.0
370
    -2
100
AcDbLine
 10
7649.896575106999
 20
9581.123139034721
 30
0.0
 11
8337.32292084141
 21
9581.123139034721
 31
0.0
  0
LINE
  5
18C3F
330
18C3C
100
AcDbEntity
  8
寸法
 62
     0
 48
50.0
370
    -2
100
AcDbLine
 10
7649.896575106973
 20
7901.123139034706
 30
0.0
 11
8337.32292084141
 21
7901.123139034706
 31
0.0
  0
LINE
  5
18C40
330
18C3C
100
AcDbEntity
  8
寸法
 62
     0
 48
50.0
370
    -2
100
AcDbLine
 10
8277.322920841411
 20
9581.123139034721
 30
0.0
 11
8277.322920841411
 21
7901.123139034706
 31
0.0
  0
INSERT
  5
18C41
330
18C3C
100
AcDbEntity
  8
寸法
 62
     0
 48
50.0
370
    -2
100
AcDbBlockReference
  2
_DOTSMALL
 10
8277.322920841411
 20
9581.123139034721
 30
0.0
 41
100.0
 42
100.0
 43
100.0
 50
90.0
  0
INSERT
  5
18C42
330
18C3C
100
AcDbEntity
  8
寸法
 62
     0
 48
50.0
370
    -2
100
AcDbBlockReference
  2
_DOTSMALL
 10
8277.322920841411
 20
7901.123139034706
 30
0.0
 41
100.0
 42
100.0
 43
100.0
 50
270.0
  0
MTEXT
  5
18C43
330
18C3C
100
AcDbEntity
  8
寸法
 62
     7
 48
50.0
100
AcDbMText
 10
8177.311109817788
 20
8741.123139034712
 30
0.0
 40
120.0
 41
0.0
 71
     5
 72
     1
  1
\A1;4X420=1680
  7
STYLE1
 11
0.0000000000000001
 21
1.0
 31
0.0
 73
     1
 44
1.0
1001
ACAD
1000
MTEXTBEGIN
1070
    73
1070
     1
1070
    44
1040
1.0
1070
    74
1070
     0
1000
MTEXTEND
  0
POINT
  5
18C44
330
18C3C
100
AcDbEntity
  8
DEFPOINTS
 62
     0
 48
50.0
100
AcDbPoint
 10
7629.896575106998
 20
9581.123139034721
 30
0.0
  0
POINT
  5
18C45
330
18C3C
100
AcDbEntity
  8
DEFPOINTS
 62
     0
 48
50.0
100
AcDbPoint
 10
7629.896575106974
 20
7901.123139034706
 30
0.0
  0
POINT
  5
18C46
330
18C3C
100
AcDbEntity
  8
DEFPOINTS
 62
     0
 48
50.0
100
AcDbPoint
 10
8277.322920841411
 20
7901.123139034706
 30
0.0
  0
ENDBLK
  5
18C47
330
18C3C
100
AcDbEntity
  8
0
 48
50.0
100
AcDbBlockEnd
  0
BLOCK
  5
18C49
330
18C48
100
AcDbEntity
  8
0
 48
50.0
100
AcDbBlockBegin
  2
*D13
 70
     1
 10
0.0
 20
0.0
 30
0.0
  3
*D13
  1

  0
LINE
  5
18C4A
330
18C48
100
AcDbEntity
  8
寸法
 62
     0
 48
50.0
370
    -2
100
AcDbLine
 10
4183.037591258377
 20
9136.123139034619
 30
0.0
 11
4115.083950562663
 21
8882.516699398941
 31
0.0
  0
LINE
  5
18C4B
330
18C48
100
AcDbEntity
  8
寸法
 62
     0
 48
50.0
370
    -2
100
AcDbLine
 10
5246.037591258307
 20
9136.123139034671
 30
0.0
 11
5178.08395056258
 21
8882.516699398941
 31
0.0
  0
LINE
  5
18C4C
330
18C48
100
AcDbEntity
  8
寸法
 62
     0
 48
50.0
370
    -2
100
AcDbLine
 10
4131.160902108532
 20
8942.516699398941
 30
0.0
 11
5194.160902108448
 21
8942.516699398941
 31
0.0
  0
INSERT
  5
18C4D
330
18C48
100
AcDbEntity
  8
寸法
 62
     0
 48
50.0
370
    -2
100
AcDbBlockReference
  2
_DOTSMALL
 10
4131.160902108532
 20
8942.516699398941
 30
0.0
 41
100.0
 42
100.0
 43
100.0
 50
180.0
  0
INSERT
  5
18C4E
330
18C48
100
AcDbEntity
  8
寸法
 62
     0
 48
50.0
370
    -2
100
AcDbBlockReference
  2
_DOTSMALL
 10
5194.160902108448
 20
8942.516699398941
 30
0.0
 41
100.0
 42
100.0
 43
100.0
  0
MTEXT
  5
18C4F
330
18C48
100
AcDbEntity
  8
寸法
 62
     7
 48
50.0
100
AcDbMText
 10
4658.986452655306
 20
9042.516699398941
 30
0.0
 40
120.0
 41
0.0
 71
     5
 72
     1
  1
\A1;1063
  7
STYLE1
 73
     1
 44
1.0
1001
ACAD
1000
MTEXTBEGIN
1070
    73
1070
     1
1070
    44
1040
1.0
1070
    74
1070
     0
1000
MTEXTEND
  0
POINT
  5
18C50
330
18C48
100
AcDbEntity
  8
DEFPOINTS
 62
     0
 48
50.0
100
AcDbPoint
 10
4188.396575106999
 20
9156.123139034617
 30
0.0
  0
POINT
  5
18C51
330
18C48
100
AcDbEntity
  8
DEFPOINTS
 62
     0
 48
50.0
100
AcDbPoint
 10
5251.396575106929
 20
9156.123139034672
 30
0.0
  0
POINT
  5
18C52
330
18C48
100
AcDbEntity
  8
DEFPOINTS
 62
     0
 48
50.0
100
AcDbPoint
 10
5194.160902108448
 20
8942.516699398941
 30
0.0
  0
ENDBLK
  5
18C53
330
18C48
100
AcDbEntity
  8
0
 48
50.0
100
AcDbBlockEnd
  0
BLOCK
  5
18C55
330
18C54
100
AcDbEntity
  8
0
 48
50.0
100
AcDbBlockBegin
  2
*D14
 70
     1
 10
0.0
 20
0.0
 30
0.0
  3
*D14
  1

  0
LINE
  5
18C56
330
18C54
100
AcDbEntity
  8
寸法
 62
     0
 48
50.0
370
    -2
100
AcDbLine
 10
5274.037591258307
 20
9136.123139034669
 30
0.0
 11
5206.08395056258
 21
8882.516699398941
 31
0.0
  0
LINE
  5
18C57
330
18C54
100
AcDbEntity
  8
寸法
 62
     0
 48
50.0
370
    -2
100
AcDbLine
 10
6505.037591258377
 20
9136.123139034662
 30
0.0
 11
6437.083950562653
 21
8882.516699398941
 31
0.0
  0
LINE
  5
18C58
330
18C54
100
AcDbEntity
  8
寸法
 62
     0
 48
50.0
370
    -2
100
AcDbLine
 10
5222.160902108448
 20
8942.516699398941
 30
0.0
 11
6453.16090210852
 21
8942.516699398941
 31
0.0
  0
INSERT
  5
18C59
330
18C54
100
AcDbEntity
  8
寸法
 62
     0
 48
50.0
370
    -2
100
AcDbBlockReference
  2
_DOTSMALL
 10
5222.160902108448
 20
8942.516699398941
 30
0.0
 41
100.0
 42
100.0
 43
100.0
 50
180.0
  0
INSERT
  5
18C5A
330
18C54
100
AcDbEntity
  8
寸法
 62
     0
 48
50.0
370
    -2
100
AcDbBlockReference
  2
_DOTSMALL
 10
6453.16090210852
 20
8942.516699398941
 30
0.0
 41
100.0
 42
100.0
 43
100.0
  0
MTEXT
  5
18C5B
330
18C54
100
AcDbEntity
  8
寸法
 62
     7
 48
50.0
100
AcDbMText
 10
6081.244808320626
 20
9042.528510422561
 30
0.0
 40
120.0
 41
0.0
 71
     5
 72
     1
  1
\A1;1231
  7
STYLE1
 73
     1
 44
1.0
1001
ACAD
1000
MTEXTBEGIN
1070
    73
1070
     1
1070
    44
1040
1.0
1070
    74
1070
     0
1000
MTEXTEND
  0
POINT
  5
18C5C
330
18C54
100
AcDbEntity
  8
DEFPOINTS
 62
     0
 48
50.0
100
AcDbPoint
 10
5279.396575106929
 20
9156.123139034669
 30
0.0
  0
POINT
  5
18C5D
330
18C54
100
AcDbEntity
  8
DEFPOINTS
 62
     0
 48
50.0
100
AcDbPoint
 10
6510.396575106999
 20
9156.123139034662
 30
0.0
  0
POINT
  5
18C5E
330
18C54
100
AcDbEntity
  8
DEFPOINTS
 62
     0
 48
50.0
100
AcDbPoint
 10
6453.16090210852
 20
8942.516699398941
 30
0.0
  0
ENDBLK
  5
18C5F
330
18C54
100
AcDbEntity
  8
0
 48
50.0
100
AcDbBlockEnd
  0
BLOCK
  5
18C61
330
18C60
100
AcDbEntity
  8
0
 48
50.0
100
AcDbBlockBegin
  2
*D15
 70
     1
 10
0.0
 20
0.0
 30
0.0
  3
*D15
  1

  0
LINE
  5
18C62
330
18C60
100
AcDbEntity
  8
寸法
 62
     0
 48
50.0
370
    -2
100
AcDbLine
 10
5065.896575106966
 20
7749.123139034579
 30
0.0
 11
5065.896575106966
 21
7099.952920982538
 31
0.0
  0
LINE
  5
18C63
330
18C60
100
AcDbEntity
  8
寸法
 62
     0
 48
50.0
370
    -2
100
AcDbLine
 10
6331.896575106966
 20
7749.123139034579
 30
0.0
 11
6331.896575106966
 21
7099.952920982538
 31
0.0
  0
LINE
  5
18C64
330
18C60
100
AcDbEntity
  8
寸法
 62
     0
 48
50.0
370
    -2
100
AcDbLine
 10
5065.896575106966
 20
7159.952920982537
 30
0.0
 11
6331.896575106966
 21
7159.952920982537
 31
0.0
  0
INSERT
  5
18C65
330
18C60
100
AcDbEntity
  8
寸法
 62
     0
 48
50.0
370
    -2
100
AcDbBlockReference
  2
_DOTSMALL
 10
5065.896575106966
 20
7159.952920982537
 30
0.0
 41
100.0
 42
100.0
 43
100.0
 50
180.0
  0
INSERT
  5
18C66
330
18C60
100
AcDbEntity
  8
寸法
 62
     0
 48
50.0
370
    -2
100
AcDbBlockReference
  2
_DOTSMALL
 10
6331.896575106966
 20
7159.952920982537
 30
0.0
 41
100.0
 42
100.0
 43
100.0
  0
MTEXT
  5
18C67
330
18C60
100
AcDbEntity
  8
寸法
 62
     7
 48
50.0
100
AcDbMText
 10
5711.986008735934
 20
7359.964732006159
 30
0.0
 40
120.0
 41
0.0
 71
     5
 72
     1
  1
\A1;有効開口部間口\P1266
  7
STYLE1
 73
     1
 44
1.0
1001
ACAD
1000
MTEXTBEGIN
1070
    73
1070
     1
1070
    44
1040
1.0
1070
    74
1070
     0
1000
MTEXTEND
  0
POINT
  5
18C68
330
18C60
100
AcDbEntity
  8
DEFPOINTS
 62
     0
 48
50.0
100
AcDbPoint
 10
5065.896575106966
 20
7769.123139034579
 30
0.0
  0
POINT
  5
18C69
330
18C60
100
AcDbEntity
  8
DEFPOINTS
 62
     0
 48
50.0
100
AcDbPoint
 10
6331.896575106966
 20
7769.123139034579
 30
0.0
  0
POINT
  5
18C6A
330
18C60
100
AcDbEntity
  8
DEFPOINTS
 62
     0
 48
50.0
100
AcDbPoint
 10
6331.896575106966
 20
7159.952920982537
 30
0.0
  0
ENDBLK
  5
18C6B
330
18C60
100
AcDbEntity
  8
0
 48
50.0
100
AcDbBlockEnd
  0
BLOCK
  5
18C6D
330
18C6C
100
AcDbEntity
  8
0
 48
50.0
100
AcDbBlockBegin
  2
*D16
 70
     1
 10
0.0
 20
0.0
 30
0.0
  3
*D16
  1

  0
LINE
  5
18C6E
330
18C6C
100
AcDbEntity
  8
寸法
 62
     0
 48
50.0
370
    -2
100
AcDbLine
 10
7200.896575106966
 20
7846.123139034578
 30
0.0
 11
7457.192158500191
 21
7846.123139034578
 31
0.0
  0
LINE
  5
18C6F
330
18C6C
100
AcDbEntity
  8
寸法
 62
     0
 48
50.0
370
    -2
100
AcDbLine
 10
7199.896575106966
 20
7769.123139034579
 30
0.0
 11
7457.192158500191
 21
7769.123139034579
 31
0.0
  0
LINE
  5
18C70
330
18C6C
100
AcDbEntity
  8
寸法
 62
     0
 48
50.0
370
    -2
100
AcDbLine
 10
7417.192158500192
 20
7866.123139034579
 30
0.0
 11
7417.192158500192
 21
7886.123139034578
 31
0.0
  0
LINE
  5
18C71
330
18C6C
100
AcDbEntity
  8
寸法
 62
     0
 48
50.0
370
    -2
100
AcDbLine
 10
7417.192158500192
 20
7749.123139034579
 30
0.0
 11
7417.192158500192
 21
7533.123139034573
 31
0.0
  0
LINE
  5
18C72
330
18C6C
100
AcDbEntity
  8
寸法
 62
     0
 48
50.0
370
    -2
100
AcDbLine
 10
7417.192158500192
 20
7846.123139034578
 30
0.0
 11
7417.192158500192
 21
7769.123139034579
 31
0.0
  0
INSERT
  5
18C73
330
18C6C
100
AcDbEntity
  8
寸法
 62
     0
 48
50.0
370
    -2
100
AcDbBlockReference
  2
_DOT
 10
7417.192158500192
 20
7846.123139034578
 30
0.0
 41
20.0
 42
20.0
 43
20.0
 50
270.0
  0
INSERT
  5
18C74
330
18C6C
100
AcDbEntity
  8
寸法
 62
     0
 48
50.0
370
    -2
100
AcDbBlockReference
  2
_DOT
 10
7417.192158500192
 20
7769.123139034579
 30
0.0
 41
20.0
 42
20.0
 43
20.0
 50
90.0
  0
MTEXT
  5
18C75
330
18C6C
100
AcDbEntity
  8
寸法
 62
     7
 48
50.0
100
AcDbMText
 10
7325.192158500191
 20
7631.123139034575
 30
0.0
 40
120.0
 41
0.0
 71
     5
 72
     1
  1
\A1;77
  7
STYLE1
 11
0.0000000000000001
 21
1.0
 31
0.0
 73
     1
 44
1.0
1001
ACAD
1000
MTEXTBEGIN
1070
    73
1070
     1
1070
    44
1040
1.0
1070
    74
1070
     0
1000
MTEXTEND
  0
POINT
  5
18C76
330
18C6C
100
AcDbEntity
  8
DEFPOINTS
 62
     0
 48
50.0
100
AcDbPoint
 10
7180.896575106967
 20
7846.123139034578
 30
0.0
  0
POINT
  5
18C77
330
18C6C
100
AcDbEntity
  8
DEFPOINTS
 62
     0
 48
50.0
100
AcDbPoint
 10
7179.896575106965
 20
7769.123139034579
 30
0.0
  0
POINT
  5
18C78
330
18C6C
100
AcDbEntity
  8
DEFPOINTS
 62
     0
 48
50.0
100
AcDbPoint
 10
7417.192158500192
 20
7769.123139034579
 30
0.0
  0
ENDBLK
  5
18C79
330
18C6C
100
AcDbEntity
  8
0
 48
50.0
100
AcDbBlockEnd
  0
BLOCK
  5
18DA0
330
18C7A
100
AcDbEntity
  8
0
 48
50.0
100
AcDbBlockBegin
  2
A$C3B1A506B
 70
     0
 10
0.0
 20
0.0
 30
0.0
  3
A$C3B1A506B
  1

  0
MTEXT
  5
18C7B
330
18C7A
100
AcDbEntity
  8
寸法
 62
     7
 48
50.0
100
AcDbMText
 10
3342.250386887194
 20
2778.329429134012
 30
0.0
 40
96.0
 41
0.0
 71
     5
 72
     1
  1
棚 2段
  7
STYLE1
 73
     1
 44
1.0
1001
ACAD
1000
MTEXTBEGIN
1070
    73
1070
     1
1070
    44
1040
1.0
1070
    74
1070
     0
1000
MTEXTEND
  0
MTEXT
  5
18C7C
330
18C7A
100
AcDbEntity
  8
寸法
 62
     7
 48
50.0
100
AcDbMText
 10
2167.25038688716
 20
2778.329429133986
 30
0.0
 40
96.0
 41
0.0
 71
     5
 72
     1
  1
棚 2段
  7
STYLE1
 73
     1
 44
1.0
1001
ACAD
1000
MTEXTBEGIN
1070
    73
1070
     1
1070
    44
1040
1.0
1070
    74
1070
     0
1000
MTEXTEND
  0
MTEXT
  5
18C7D
330
18C7A
100
AcDbEntity
  8
寸法
 62
     7
 48
50.0
100
AcDbMText
 10
992.2503868871608
 20
2778.329429133935
 30
0.0
 40
96.0
 41
0.0
 71
     5
 72
     1
  1
棚 2段
  7
STYLE1
 73
     1
 44
1.0
1001
ACAD
1000
MTEXTBEGIN
1070
    73
1070
     1
1070
    44
1040
1.0
1070
    74
1070
     0
1000
MTEXTEND
  0
LINE
  5
18C7E
330
18C7A
100
AcDbEntity
  8
細線
 48
50.0
100
AcDbLine
 10
2771.970589276527
 20
1368.994384123192
 30
0.0
 11
3398.970589276523
 21
1368.994384123192
 31
0.0
  0
LINE
  5
18C7F
330
18C7A
100
AcDbEntity
  8
細線
 48
50.0
100
AcDbLine
 10
2117.970593930113
 20
1335.285615569113
 30
0.0
 11
3398.970589276523
 21
1335.285615569113
 31
0.0
  0
LINE
  5
18C80
330
18C7A
100
AcDbEntity
  8
細線
 48
50.0
100
AcDbLine
 10
2076.970593930115
 20
1364.690523565368
 30
0.0
 11
1322.970589276523
 21
1364.690523565367
 31
0.0
  0
LINE
  5
18C81
330
18C7A
100
AcDbEntity
  8
細線
100
AcDbLine
 10
3170.720579860066
 20
1388.494284088199
 30
0.0
 11
3173.052119381877
 21
1393.494286728162
 31
0.0
  0
LINE
  5
18C82
330
18C7A
100
AcDbEntity
  8
細線
100
AcDbLine
 10
3240.720589276525
 20
1388.494269174465
 30
0.0
 11
3238.389042800336
 21
1393.494286728144
 31
0.0
  0
LINE
  5
18C83
330
18C7A
100
AcDbEntity
  8
細線
100
AcDbLine
 10
3238.389042800336
 20
1393.494286728144
 30
0.0
 11
3173.052119381862
 21
1393.494286728133
 31
0.0
  0
LINE
  5
18C84
330
18C7A
100
AcDbEntity
  8
細線
100
AcDbLine
 10
3098.389042800336
 20
1393.494286728144
 30
0.0
 11
3033.052119381862
 21
1393.494286728133
 31
0.0
  0
LINE
  5
18C85
330
18C7A
100
AcDbEntity
  8
細線
100
AcDbLine
 10
3100.720589276523
 20
1388.494269174465
 30
0.0
 11
3098.389042800336
 21
1393.494286728144
 31
0.0
  0
LINE
  5
18C86
330
18C7A
100
AcDbEntity
  8
細線
100
AcDbLine
 10
3030.720579860066
 20
1388.494284088199
 30
0.0
 11
3033.052119381875
 21
1393.494286728162
 31
0.0
  0
LINE
  5
18C87
330
18C7A
100
AcDbEntity
  8
細線
100
AcDbLine
 10
2890.720589276525
 20
1388.494269174465
 30
0.0
 11
2893.052128798336
 21
1393.494271814428
 31
0.0
  0
LINE
  5
18C88
330
18C7A
100
AcDbEntity
  8
細線
100
AcDbLine
 10
2960.720598692984
 20
1388.494254260731
 30
0.0
 11
2958.389052216793
 21
1393.49427181441
 31
0.0
  0
LINE
  5
18C89
330
18C7A
100
AcDbEntity
  8
細線
100
AcDbLine
 10
2958.389052216795
 20
1393.49427181441
 30
0.0
 11
2893.052128798321
 21
1393.494271814399
 31
0.0
  0
LINE
  5
18C8A
330
18C7A
100
AcDbEntity
  8
細線
100
AcDbLine
 10
2667.139038146739
 20
1359.494298590735
 30
0.0
 11
2601.802114728263
 21
1359.494298590724
 31
0.0
  0
LINE
  5
18C8B
330
18C7A
100
AcDbEntity
  8
細線
100
AcDbLine
 10
2669.470584622926
 20
1354.494281037055
 30
0.0
 11
2667.139038146737
 21
1359.494298590735
 31
0.0
  0
LINE
  5
18C8C
330
18C7A
100
AcDbEntity
  8
細線
100
AcDbLine
 10
2599.470575206469
 20
1354.49429595079
 30
0.0
 11
2601.802114728278
 21
1359.494298590752
 31
0.0
  0
LINE
  5
18C8D
330
18C7A
100
AcDbEntity
  8
細線
 48
50.0
100
AcDbLine
 10
2440.853968524536
 20
1372.765132327548
 30
0.0
 11
2446.609486107205
 21
1354.494281037057
 31
0.0
  0
LINE
  5
18C8E
330
18C7A
100
AcDbEntity
  8
細線
 48
50.0
100
AcDbLine
 10
2429.925520044106
 20
1372.765132327546
 30
0.0
 11
2440.853968524536
 21
1372.765132327548
 31
0.0
  0
ARC
  5
18C8F
330
18C7A
100
AcDbEntity
  8
細線
 48
50.0
100
AcDbCircle
 10
2424.471163986787
 20
1374.265132327546
 30
0.0
 40
5.0
100
AcDbArc
 50
204.6243183520723
 51
335.3756816479278
  0
ARC
  5
18C90
330
18C7A
100
AcDbEntity
  8
細線
 48
50.0
100
AcDbCircle
 10
2429.925520044106
 20
1371.765132327546
 30
0.0
 40
1.0
100
AcDbArc
 50
90.0
 51
155.3756816479277
  0
ARC
  5
18C91
330
18C7A
100
AcDbEntity
  8
細線
 48
50.0
100
AcDbCircle
 10
2419.016807929469
 20
1371.765132327546
 30
0.0
 40
1.0
100
AcDbArc
 50
24.62431835207225
 51
90.0
  0
LINE
  5
18C92
330
18C7A
100
AcDbEntity
  8
細線
 48
50.0
100
AcDbLine
 10
2408.088359449037
 20
1372.765132327548
 30
0.0
 11
2419.016807929469
 21
1372.765132327546
 31
0.0
  0
LINE
  5
18C93
330
18C7A
100
AcDbEntity
  8
細線
 48
50.0
100
AcDbLine
 10
2402.33284186637
 20
1354.494281037054
 30
0.0
 11
2408.088359449037
 21
1372.765132327548
 31
0.0
  0
LINE
  5
18C94
330
18C7A
100
AcDbEntity
  8
細線
100
AcDbLine
 10
2458.070304175992
 20
1354.494278397076
 30
0.0
 11
2460.401843697802
 21
1359.494281037039
 31
0.0
  0
LINE
  5
18C95
330
18C7A
100
AcDbEntity
  8
細線
100
AcDbLine
 10
2528.070313592451
 20
1354.494263483342
 30
0.0
 11
2525.738767116262
 21
1359.494281037021
 31
0.0
  0
LINE
  5
18C96
330
18C7A
100
AcDbEntity
  8
細線
100
AcDbLine
 10
2525.738767116262
 20
1359.494281037021
 30
0.0
 11
2460.40184369779
 21
1359.49428103701
 31
0.0
  0
LINE
  5
18C97
330
18C7A
100
AcDbEntity
  8
細線
100
AcDbLine
 10
2387.139046332155
 20
1359.494281037021
 30
0.0
 11
2321.80212291368
 21
1359.49428103701
 31
0.0
  0
LINE
  5
18C98
330
18C7A
100
AcDbEntity
  8
細線
100
AcDbLine
 10
2389.470592808342
 20
1354.494263483342
 30
0.0
 11
2387.139046332153
 21
1359.494281037021
 31
0.0
  0
LINE
  5
18C99
330
18C7A
100
AcDbEntity
  8
細線
100
AcDbLine
 10
2319.470584622926
 20
1354.494281037054
 30
0.0
 11
2321.802122913694
 21
1359.494281037039
 31
0.0
  0
LINE
  5
18C9A
330
18C7A
100
AcDbEntity
  8
細線
100
AcDbLine
 10
2179.47061994182
 20
1354.494289224422
 30
0.0
 11
2181.802158232587
 21
1359.494289224407
 31
0.0
  0
LINE
  5
18C9B
330
18C7A
100
AcDbEntity
  8
細線
100
AcDbLine
 10
2249.470628127236
 20
1354.49427167071
 30
0.0
 11
2247.139081651047
 21
1359.494289224389
 31
0.0
  0
LINE
  5
18C9C
330
18C7A
100
AcDbEntity
  8
細線
100
AcDbLine
 10
2247.139081651047
 20
1359.494289224389
 30
0.0
 11
2181.802158232573
 21
1359.494289224378
 31
0.0
  0
LINE
  5
18C9D
330
18C7A
100
AcDbEntity
  8
細線
100
AcDbLine
 10
1807.970585744697
 20
1320.494460905133
 30
0.0
 11
1810.302124035464
 21
1325.494460905118
 31
0.0
  0
LINE
  5
18C9E
330
18C7A
100
AcDbEntity
  8
細線
100
AcDbLine
 10
1877.970593930113
 20
1320.494443351421
 30
0.0
 11
1875.639047453926
 21
1325.4944609051
 31
0.0
  0
LINE
  5
18C9F
330
18C7A
100
AcDbEntity
  8
細線
100
AcDbLine
 10
1875.639047453926
 20
1325.4944609051
 30
0.0
 11
1810.302124035452
 21
1325.494460905089
 31
0.0
  0
LINE
  5
18CA0
330
18C7A
100
AcDbEntity
  8
細線
100
AcDbLine
 10
2015.639047453926
 20
1325.4944609051
 30
0.0
 11
1950.302124035452
 21
1325.494460905089
 31
0.0
  0
LINE
  5
18CA1
330
18C7A
100
AcDbEntity
  8
細線
100
AcDbLine
 10
2017.970593930113
 20
1320.494443351421
 30
0.0
 11
2015.639047453924
 21
1325.4944609051
 31
0.0
  0
LINE
  5
18CA2
330
18C7A
100
AcDbEntity
  8
細線
100
AcDbLine
 10
1947.970585744697
 20
1320.494460905133
 30
0.0
 11
1950.302124035465
 21
1325.494460905118
 31
0.0
  0
LINE
  5
18CA3
330
18C7A
100
AcDbEntity
  8
細線
100
AcDbLine
 10
1735.639047453926
 20
1325.494460905098
 30
0.0
 11
1670.302124035454
 21
1325.494460905087
 31
0.0
  0
LINE
  5
18CA4
330
18C7A
100
AcDbEntity
  8
細線
100
AcDbLine
 10
1737.970593930113
 20
1320.494443351419
 30
0.0
 11
1735.639047453926
 21
1325.494460905098
 31
0.0
  0
LINE
  5
18CA5
330
18C7A
100
AcDbEntity
  8
細線
100
AcDbLine
 10
1667.970585744697
 20
1320.494460905131
 30
0.0
 11
1670.302124035465
 21
1325.494460905116
 31
0.0
  0
LINE
  5
18CA6
330
18C7A
100
AcDbEntity
  8
細線
100
AcDbLine
 10
1527.970593930113
 20
1320.494460905133
 30
0.0
 11
1530.302132220881
 21
1325.494460905118
 31
0.0
  0
LINE
  5
18CA7
330
18C7A
100
AcDbEntity
  8
細線
100
AcDbLine
 10
1597.970602115529
 20
1320.494443351421
 30
0.0
 11
1595.639055639342
 21
1325.4944609051
 31
0.0
  0
LINE
  5
18CA8
330
18C7A
100
AcDbEntity
  8
細線
100
AcDbLine
 10
1595.639055639342
 20
1325.4944609051
 30
0.0
 11
1530.302132220869
 21
1325.494460905089
 31
0.0
  0
ARC
  5
18CA9
330
18C7A
100
AcDbEntity
  8
部品1
 48
0.01
100
AcDbCircle
 10
1483.470482677778
 20
1319.493338720063
 30
0.0
 40
0.5
100
AcDbArc
 50
270.0
 51
0.0
  0
LINE
  5
18CAA
330
18C7A
100
AcDbEntity
  8
部品1
 48
0.01
100
AcDbLine
 10
1483.970482677778
 20
1320.493338720063
 30
0.0
 11
1483.970482677778
 21
1319.493338720063
 31
0.0
  0
LINE
  5
18CAB
330
18C7A
100
AcDbEntity
  8
部品1
 48
0.01
100
AcDbLine
 10
1483.970482677778
 20
1320.493338720063
 30
0.0
 11
1483.970482677778
 21
1319.493338720063
 31
0.0
  0
LINE
  5
18CAC
330
18C7A
100
AcDbEntity
  8
部品1
 48
0.01
100
AcDbLine
 10
1483.470482677778
 20
1318.993338720063
 30
0.0
 11
1476.857977247713
 21
1318.993338720062
 31
0.0
  0
ARC
  5
18CAD
330
18C7A
100
AcDbEntity
  8
部品1
100
AcDbCircle
 10
1476.926326800494
 20
1319.993338720062
 30
0.0
 40
1.0
100
AcDbArc
 50
160.5287793655865
 51
270.0
  0
ARC
  5
18CAE
330
18C7A
100
AcDbEntity
  8
部品1
100
AcDbCircle
 10
1451.470482677778
 20
1328.993338720062
 30
0.0
 40
26.0
100
AcDbArc
 50
340.5287793655865
 51
0.0
  0
LINE
  5
18CAF
330
18C7A
100
AcDbEntity
  8
部品1
100
AcDbLine
 10
1477.470482677778
 20
1328.993338720062
 30
0.0
 11
1477.470482677778
 21
1333.993338720061
 31
0.0
  0
ARC
  5
18CB0
330
18C7A
100
AcDbEntity
  8
部品1
 48
0.01
100
AcDbCircle
 10
1475.470482677778
 20
1333.993338720061
 30
0.0
 40
2.0
100
AcDbArc
 50
0.0
 51
90.0
  0
ARC
  5
18CB1
330
18C7A
100
AcDbEntity
  8
部品1
100
AcDbCircle
 10
1473.862091052968
 20
1332.993338720062
 30
0.0
 40
3.0
100
AcDbArc
 50
90.0
 51
141.6069559808035
  0
LINE
  5
18CB2
330
18C7A
100
AcDbEntity
  8
部品1
 48
0.01
100
AcDbLine
 10
1475.470482677778
 20
1335.993338720062
 30
0.0
 11
1473.862091052968
 21
1335.993338720062
 31
0.0
  0
ARC
  5
18CB3
330
18C7A
100
AcDbEntity
  8
部品1
100
AcDbCircle
 10
1455.399768463507
 20
1332.293338720065
 30
0.0
 40
3.0
100
AcDbArc
 50
254.0576313943215
 51
270.0
  0
ARC
  5
18CB4
330
18C7A
100
AcDbEntity
  8
部品1
100
AcDbCircle
 10
1462.541196892049
 20
1332.293338720065
 30
0.0
 40
3.0
100
AcDbArc
 50
270.0
 51
285.9423686056786
  0
LINE
  5
18CB5
330
18C7A
100
AcDbEntity
  8
部品1
100
AcDbLine
 10
1462.541196892049
 20
1329.293338720064
 30
0.0
 11
1455.399768463507
 21
1329.293338720064
 31
0.0
  0
ARC
  5
18CB6
330
18C7A
100
AcDbEntity
  8
部品1
100
AcDbCircle
 10
1458.970482677778
 20
1344.793338720065
 30
0.0
 40
16.0
100
AcDbArc
 50
285.9423686056786
 51
321.6069559808035
  0
LINE
  5
18CB7
330
18C7A
100
AcDbEntity
  8
部品1
 48
0.01
100
AcDbLine
 10
1442.470482677778
 20
1335.993338720062
 30
0.0
 11
1444.078874302588
 21
1335.993338720062
 31
0.0
  0
ARC
  5
18CB8
330
18C7A
100
AcDbEntity
  8
部品1
100
AcDbCircle
 10
1444.078874302588
 20
1332.993338720062
 30
0.0
 40
3.0
100
AcDbArc
 50
38.39304401919648
 51
90.0
  0
ARC
  5
18CB9
330
18C7A
100
AcDbEntity
  8
部品1
100
AcDbCircle
 10
1458.970482677778
 20
1344.793338720065
 30
0.0
 40
16.0
100
AcDbArc
 50
218.3930440191965
 51
254.0576313943215
  0
LINE
  5
18CBA
330
18C7A
100
AcDbEntity
  8
部品1
100
AcDbLine
 10
1440.470482677778
 20
1328.993338720062
 30
0.0
 11
1440.470482677778
 21
1333.993338720061
 31
0.0
  0
ARC
  5
18CBB
330
18C7A
100
AcDbEntity
  8
部品1
 48
0.01
100
AcDbCircle
 10
1442.470482677778
 20
1333.993338720061
 30
0.0
 40
2.0
100
AcDbArc
 50
90.0
 51
180.0
  0
ARC
  5
18CBC
330
18C7A
100
AcDbEntity
  8
部品1
100
AcDbCircle
 10
1466.470482677778
 20
1328.993338720062
 30
0.0
 40
26.0
100
AcDbArc
 50
180.0
 51
199.4712206344134
  0
ARC
  5
18CBD
330
18C7A
100
AcDbEntity
  8
部品1
 48
0.01
100
AcDbCircle
 10
1434.470482677778
 20
1319.493338720063
 30
0.0
 40
0.5
100
AcDbArc
 50
180.0
 51
270.0
  0
LINE
  5
18CBE
330
18C7A
100
AcDbEntity
  8
部品1
 48
0.01
100
AcDbLine
 10
1434.470482677778
 20
1318.993338720063
 30
0.0
 11
1441.014638555061
 21
1318.993338720062
 31
0.0
  0
LINE
  5
18CBF
330
18C7A
100
AcDbEntity
  8
部品1
 48
0.01
100
AcDbLine
 10
1433.970482677778
 20
1320.493338720063
 30
0.0
 11
1433.970482677778
 21
1319.493338720063
 31
0.0
  0
ARC
  5
18CC0
330
18C7A
100
AcDbEntity
  8
部品1
100
AcDbCircle
 10
1441.014638555061
 20
1319.993338720062
 30
0.0
 40
1.0
100
AcDbArc
 50
270.0
 51
19.47122063441346
  0
LINE
  5
18CC1
330
18C7A
100
AcDbEntity
  8
細線
100
AcDbLine
 10
1479.470482677785
 20
1338.493338720065
 30
0.0
 11
1438.470482677785
 21
1338.493338720058
 31
0.0
  0
LINE
  5
18CC2
330
18C7A
100
AcDbEntity
  8
細線
100
AcDbLine
 10
1438.470482677785
 20
1338.493338720058
 30
0.0
 11
1438.470482677785
 21
1320.49333872004
 31
0.0
  0
LINE
  5
18CC3
330
18C7A
100
AcDbEntity
  8
細線
100
AcDbLine
 10
1479.470482677785
 20
1338.493338720065
 30
0.0
 11
1479.470482677785
 21
1320.49333872004
 31
0.0
  0
LINE
  5
18CC4
330
18C7A
100
AcDbEntity
  8
細線
100
AcDbLine
 10
1322.970589276523
 20
1324.494269174465
 30
0.0
 11
1322.970589276523
 21
1320.494269174513
 31
0.0
  0
LINE
  5
18CC5
330
18C7A
100
AcDbEntity
  8
寸法
 48
50.0
100
AcDbLine
 10
1746.17359555837
 20
1170.531020743327
 30
0.0
 11
1694.767587648266
 21
1170.531020743327
 31
0.0
  0
LINE
  5
18CC6
330
18C7A
100
AcDbEntity
  8
寸法
 48
50.0
100
AcDbLine
 10
1694.767587648266
 20
1170.531020743327
 30
0.0
 11
1694.767587648266
 21
1201.841179395494
 31
0.0
  0
LINE
  5
18CC7
330
18C7A
100
AcDbEntity
  8
寸法
 48
50.0
100
AcDbLine
 10
1694.767587648266
 20
1201.841179395494
 30
0.0
 11
1665.006255656843
 21
1201.841179395494
 31
0.0
  0
LINE
  5
18CC8
330
18C7A
100
AcDbEntity
  8
寸法
 48
50.0
100
AcDbLine
 10
1665.006255656843
 20
1201.841179395494
 30
0.0
 11
1720.470591603318
 21
1239.420630324105
 31
0.0
  0
LINE
  5
18CC9
330
18C7A
100
AcDbEntity
  8
寸法
 48
50.0
100
AcDbLine
 10
1775.934927549793
 20
1201.841179395494
 30
0.0
 11
1720.470591603318
 21
1239.420630324105
 31
0.0
  0
LINE
  5
18CCA
330
18C7A
100
AcDbEntity
  8
寸法
 48
50.0
100
AcDbLine
 10
1746.17359555837
 20
1201.841179395494
 30
0.0
 11
1775.934927549793
 21
1201.841179395494
 31
0.0
  0
LINE
  5
18CCB
330
18C7A
100
AcDbEntity
  8
寸法
 48
50.0
100
AcDbLine
 10
1746.17359555837
 20
1170.531020743327
 30
0.0
 11
1746.17359555837
 21
1201.841179395494
 31
0.0
  0
LINE
  5
18CCC
330
18C7A
100
AcDbEntity
  8
寸法
 48
50.0
100
AcDbLine
 10
1694.767587648266
 20
1170.531020743327
 30
0.0
 11
1746.17359555837
 21
1170.531020743327
 31
0.0
  0
LINE
  5
18CCD
330
18C7A
100
AcDbEntity
  8
寸法
 48
50.0
100
AcDbLine
 10
2025.339129835225
 20
1227.676611498152
 30
0.0
 11
2025.339129835225
 21
1174.01297691636
 31
0.0
  0
LINE
  5
18CCE
330
18C7A
100
AcDbEntity
  8
寸法
 48
50.0
100
AcDbLine
 10
2114.623348430647
 20
1203.752977228664
 30
0.0
 11
2025.339129835225
 21
1227.676611498152
 31
0.0
  0
LINE
  5
18CCF
330
18C7A
100
AcDbEntity
  8
寸法
 48
50.0
100
AcDbLine
 10
1895.471408254923
 20
1203.752977228664
 30
0.0
 11
2114.623348430647
 21
1203.752977228664
 31
0.0
  0
DIMENSION
  5
18CD0
330
18C7A
100
AcDbEntity
  8
寸法
 48
50.0
100
AcDbDimension
  2
*D15
 10
2588.970589276523
 20
706.3240511224249
 30
0.0
 11
1969.060022905491
 21
706.3240511224249
 31
0.0
 12
-3742.925985830444
 22
-6453.628869860112
 32
0.0
 70
   128
  1
有効開口部間口\P<>
 71
     5
 42
1266.0
  3
INABA_S40G
100
AcDbAlignedDimension
 13
1322.970589276523
 23
1315.494269174465
 33
0.0
 14
2588.970589276523
 24
1315.494269174465
 34
0.0
100
AcDbRotatedDimension
1001
ACAD
1000
DSTYLE
1002
{
1070
   341
1005
0
1002
}
  0
LINE
  5
18CD1
330
18C7A
100
AcDbEntity
  8
部品1
100
AcDbLine
 10
3409.970589276524
 20
1392.494269174465
 30
0.0
 11
3437.970589276523
 21
1392.494269174465
 31
0.0
  0
DIMENSION
  5
18CD2
330
18C7A
100
AcDbEntity
  8
寸法
100
AcDbDimension
  2
*D16
 10
3674.266172669749
 20
1315.494269174465
 30
0.0
 11
3674.266172669748
 21
1177.494269174462
 31
0.0
 12
-3742.925985830444
 22
-6453.628869860112
 32
0.0
 70
   128
 71
     5
 42
77.0
  3
INABA_S40
100
AcDbAlignedDimension
 13
3437.970589276523
 23
1392.494269174465
 33
0.0
 14
3436.970589276523
 24
1315.494269174465
 34
0.0
 50
90.0
100
AcDbRotatedDimension
1001
ACAD
1000
DSTYLE
1002
{
1070
    41
1040
0.5
1070
    44
1040
1.0
1070
   147
1040
0.8
1070
   271
1070
     2
1070
   272
1070
     2
1070
   289
1070
     3
1070
   340
1005
F706
1070
   343
1005
164B4
1070
   344
1005
164B4
1002
}
  0
LINE
  5
18CD3
330
18C7A
100
AcDbEntity
  8
部品1
100
AcDbLine
 10
3437.970589276523
 20
1315.494269174465
 30
0.0
 11
3437.970589276523
 21
1392.494269174465
 31
0.0
  0
LINE
  5
18CD4
330
18C7A
100
AcDbEntity
  8
部品1
100
AcDbLine
 10
3398.970589276523
 20
1388.494269174465
 30
0.0
 11
3409.970589276524
 21
1388.494269174465
 31
0.0
  0
LINE
  5
18CD5
330
18C7A
100
AcDbEntity
  8
部品1
100
AcDbLine
 10
3407.970589276523
 20
1324.494269174465
 30
0.0
 11
3407.970589276523
 21
1315.494269174465
 31
0.0
  0
LINE
  5
18CD6
330
18C7A
100
AcDbEntity
  8
部品1
100
AcDbLine
 10
3398.970589276523
 20
1324.494269174465
 30
0.0
 11
3407.970589276523
 21
1324.494269174465
 31
0.0
  0
LINE
  5
18CD7
330
18C7A
100
AcDbEntity
  8
部品1
100
AcDbLine
 10
3398.970589276523
 20
1388.494269174465
 30
0.0
 11
3398.970589276523
 21
1324.494269174465
 31
0.0
  0
LINE
  5
18CD8
330
18C7A
100
AcDbEntity
  8
部品1
100
AcDbLine
 10
3409.970589276524
 20
1419.494269174465
 30
0.0
 11
3409.970589276524
 21
1388.494269174465
 31
0.0
  0
LINE
  5
18CD9
330
18C7A
100
AcDbEntity
  8
部品1
100
AcDbLine
 10
1322.970589276523
 20
1388.494269174465
 30
0.0
 11
1311.970589276523
 21
1388.494269174465
 31
0.0
  0
LINE
  5
18CDA
330
18C7A
100
AcDbEntity
  8
部品1
100
AcDbLine
 10
1283.970589276523
 20
1392.494269174465
 30
0.0
 11
1311.970589276523
 21
1392.494269174465
 31
0.0
  0
LINE
  5
18CDB
330
18C7A
100
AcDbEntity
  8
部品1
100
AcDbLine
 10
1313.970589276523
 20
1324.494269174465
 30
0.0
 11
1313.970589276523
 21
1315.494269174465
 31
0.0
  0
LINE
  5
18CDC
330
18C7A
100
AcDbEntity
  8
部品1
100
AcDbLine
 10
1322.970589276523
 20
1324.494269174465
 30
0.0
 11
1313.970589276523
 21
1324.494269174465
 31
0.0
  0
LINE
  5
18CDD
330
18C7A
100
AcDbEntity
  8
部品1
100
AcDbLine
 10
1313.970589276523
 20
1315.494269174465
 30
0.0
 11
1283.970589276523
 21
1315.494269174465
 31
0.0
  0
LINE
  5
18CDE
330
18C7A
100
AcDbEntity
  8
部品1
100
AcDbLine
 10
1283.970589276523
 20
1315.494269174465
 30
0.0
 11
1283.970589276523
 21
1392.494269174465
 31
0.0
  0
LINE
  5
18CDF
330
18C7A
100
AcDbEntity
  8
部品1
100
AcDbLine
 10
1322.970589276523
 20
1388.494269174465
 30
0.0
 11
1322.970589276523
 21
1324.494269174465
 31
0.0
  0
LINE
  5
18CE0
330
18C7A
100
AcDbEntity
  8
部品1
100
AcDbLine
 10
1311.970589276523
 20
1419.494269174462
 30
0.0
 11
1311.970589276523
 21
1388.494269174465
 31
0.0
  0
LINE
  5
18CE1
330
18C7A
100
AcDbEntity
  8
部品1
100
AcDbLine
 10
1311.970589276523
 20
1419.494269174462
 30
0.0
 11
3409.970589276524
 21
1419.494269174465
 31
0.0
  0
LINE
  5
18CE2
330
18C7A
100
AcDbEntity
  8
部品1
100
AcDbLine
 10
3407.970589276523
 20
1315.494269174465
 30
0.0
 11
3437.970589276523
 21
1315.494269174465
 31
0.0
  0
LINE
  5
18CE3
330
18C7A
100
AcDbEntity
  8
部品1
100
AcDbLine
 10
1313.970589276523
 20
1315.494269174465
 30
0.0
 11
3410.970589276523
 21
1315.494269174465
 31
0.0
  0
LINE
  5
18CE4
330
18C7A
100
AcDbEntity
  8
細線
  6
Continuous
 62
     5
100
AcDbLine
 10
2689.970589276527
 20
1354.494269174462
 30
0.0
 11
2689.970589276527
 21
1354.494269174462
 31
0.0
  0
LINE
  5
18CE5
330
18C7A
100
AcDbEntity
  8
細線
  6
Continuous
 62
     5
100
AcDbLine
 10
2682.470589276527
 20
1354.494269174462
 30
0.0
 11
2682.470589276527
 21
1354.494269174462
 31
0.0
  0
LINE
  5
18CE6
330
18C7A
100
AcDbEntity
  8
細線
  6
Continuous
 62
     5
100
AcDbLine
 10
2676.470589276527
 20
1354.494269174462
 30
0.0
 11
2676.470589276527
 21
1354.494269174462
 31
0.0
  0
LINE
  5
18CE7
330
18C7A
100
AcDbEntity
  8
細線
  6
Continuous
 62
     5
100
AcDbLine
 10
2743.970589276527
 20
1373.494269174462
 30
0.0
 11
2743.970589276527
 21
1373.494269174462
 31
0.0
  0
LINE
  5
18CE8
330
18C7A
100
AcDbEntity
  8
細線
 48
50.0
100
AcDbLine
 10
1336.970593930116
 20
1341.094443351418
 30
0.0
 11
1336.970593930113
 21
1349.490593759059
 31
0.0
  0
LINE
  5
18CE9
330
18C7A
100
AcDbEntity
  8
細線
 48
50.0
100
AcDbLine
 10
1336.970593930113
 20
1349.490593759059
 30
0.0
 11
1322.970589276523
 21
1349.490593759057
 31
0.0
  0
LINE
  5
18CEA
330
18C7A
100
AcDbEntity
  8
細線
 48
50.0
100
AcDbLine
 10
2087.970593930113
 20
1337.644443351419
 30
0.0
 11
2087.970593930113
 21
1342.494443351421
 31
0.0
  0
LINE
  5
18CEB
330
18C7A
100
AcDbEntity
  8
細線
 48
50.0
100
AcDbLine
 10
2087.970593930113
 20
1342.494443351421
 30
0.0
 11
2102.970593930113
 21
1342.494443351421
 31
0.0
  0
LINE
  5
18CEC
330
18C7A
100
AcDbEntity
  8
細線
 48
50.0
100
AcDbLine
 10
2102.970593930113
 20
1342.494443351421
 30
0.0
 11
2102.970593930115
 21
1349.494443351419
 31
0.0
  0
LINE
  5
18CED
330
18C7A
100
AcDbEntity
  8
細線
 48
50.0
100
AcDbLine
 10
2102.970593930115
 20
1349.494443351419
 30
0.0
 11
2117.970593930113
 21
1349.494443351419
 31
0.0
  0
LINE
  5
18CEE
330
18C7A
100
AcDbEntity
  8
細線
 48
50.0
100
AcDbLine
 10
2117.970593930113
 20
1349.494443351419
 30
0.0
 11
2117.970593930113
 21
1320.494443351421
 31
0.0
  0
LINE
  5
18CEF
330
18C7A
100
AcDbEntity
  8
細線
 48
50.0
100
AcDbLine
 10
1313.970589276523
 20
1320.491777694889
 30
0.0
 11
1527.970593930113
 21
1320.494460905133
 31
0.0
  0
LINE
  5
18CF0
330
18C7A
100
AcDbEntity
  8
細線
 48
50.0
100
AcDbLine
 10
2017.970593930113
 20
1320.494443351421
 30
0.0
 11
2117.970593930113
 21
1320.494443351421
 31
0.0
  0
LINE
  5
18CF1
330
18C7A
100
AcDbEntity
  8
細線
 48
50.0
100
AcDbLine
 10
1737.970593930113
 20
1320.494443351419
 30
0.0
 11
1807.970593930113
 21
1320.494443351423
 31
0.0
  0
LINE
  5
18CF2
330
18C7A
100
AcDbEntity
  8
細線
 48
50.0
100
AcDbLine
 10
1750.832558942642
 20
1320.494443351419
 30
0.0
 11
1756.588076525309
 21
1338.765294641913
 31
0.0
  0
LINE
  5
18CF3
330
18C7A
100
AcDbEntity
  8
細線
 48
50.0
100
AcDbLine
 10
1756.588076525309
 20
1338.765294641913
 30
0.0
 11
1767.516525005743
 21
1338.765294641911
 31
0.0
  0
ARC
  5
18CF4
330
18C7A
100
AcDbEntity
  8
細線
 48
50.0
100
AcDbCircle
 10
1767.516525005743
 20
1337.765294641911
 30
0.0
 40
1.0
100
AcDbArc
 50
24.62431835207225
 51
90.0
  0
ARC
  5
18CF5
330
18C7A
100
AcDbEntity
  8
細線
 48
50.0
100
AcDbCircle
 10
1778.425237120377
 20
1337.765294641911
 30
0.0
 40
1.0
100
AcDbArc
 50
90.0
 51
155.3756816479277
  0
ARC
  5
18CF6
330
18C7A
100
AcDbEntity
  8
細線
 48
50.0
100
AcDbCircle
 10
1772.970881063058
 20
1340.265294641911
 30
0.0
 40
5.0
100
AcDbArc
 50
204.6243183520723
 51
335.3756816479278
  0
LINE
  5
18CF7
330
18C7A
100
AcDbEntity
  8
細線
 48
50.0
100
AcDbLine
 10
1778.425237120377
 20
1338.765294641911
 30
0.0
 11
1789.35368560081
 21
1338.765294641913
 31
0.0
  0
LINE
  5
18CF8
330
18C7A
100
AcDbEntity
  8
細線
 48
50.0
100
AcDbLine
 10
1789.35368560081
 20
1338.765294641913
 30
0.0
 11
1795.109203183478
 21
1320.494443351423
 31
0.0
  0
LINE
  5
18CF9
330
18C7A
100
AcDbEntity
  8
細線
 48
50.0
100
AcDbLine
 10
2087.970593930113
 20
1341.094443351419
 30
0.0
 11
1336.970593930116
 21
1341.094443351418
 31
0.0
  0
LINE
  5
18CFA
330
18C7A
100
AcDbEntity
  8
細線
 48
50.0
100
AcDbLine
 10
1947.970593930113
 20
1320.494443351421
 30
0.0
 11
1877.970593930113
 21
1320.494443351421
 31
0.0
  0
LINE
  5
18CFB
330
18C7A
100
AcDbEntity
  8
細線
100
AcDbLine
 10
1667.970593930113
 20
1320.494443351421
 30
0.0
 11
1597.970602115529
 21
1320.494443351421
 31
0.0
  0
LINE
  5
18CFC
330
18C7A
100
AcDbEntity
  8
細線
 48
50.0
100
AcDbLine
 10
2741.970584622936
 20
1375.094487209288
 30
0.0
 11
2106.970593930113
 21
1375.094487209284
 31
0.0
  0
LINE
  5
18CFD
330
18C7A
100
AcDbEntity
  8
細線
 48
50.0
100
AcDbLine
 10
2106.970593930113
 20
1371.990637616925
 30
0.0
 11
2106.970593930113
 21
1376.490637616925
 31
0.0
  0
LINE
  5
18CFE
330
18C7A
100
AcDbEntity
  8
細線
 48
50.0
100
AcDbLine
 10
2106.970593930113
 20
1376.490637616925
 30
0.0
 11
2091.970593930113
 21
1376.490637616925
 31
0.0
  0
LINE
  5
18CFF
330
18C7A
100
AcDbEntity
  8
細線
 48
50.0
100
AcDbLine
 10
2091.970593930113
 20
1376.490637616925
 30
0.0
 11
2091.970593930113
 21
1383.490637616927
 31
0.0
  0
LINE
  5
18D00
330
18C7A
100
AcDbEntity
  8
細線
 48
50.0
100
AcDbLine
 10
2091.970593930113
 20
1383.490637616927
 30
0.0
 11
2076.970593930115
 21
1383.490637616924
 31
0.0
  0
LINE
  5
18D01
330
18C7A
100
AcDbEntity
  8
細線
 48
50.0
100
AcDbLine
 10
2076.970593930115
 20
1383.490637616924
 30
0.0
 11
2076.970593930115
 21
1345.890409513813
 31
0.0
  0
LINE
  5
18D02
330
18C7A
100
AcDbEntity
  8
細線
 48
50.0
100
AcDbLine
 10
2076.970593930115
 20
1345.890409513813
 30
0.0
 11
2096.970601231289
 21
1345.890451063353
 31
0.0
  0
LINE
  5
18D03
330
18C7A
100
AcDbEntity
  8
細線
 48
50.0
100
AcDbLine
 10
2096.970556362348
 20
1354.493912699161
 30
0.0
 11
2096.970601231289
 21
1345.890451063353
 31
0.0
  0
LINE
  5
18D04
330
18C7A
100
AcDbEntity
  8
細線
 48
50.0
100
AcDbLine
 10
2741.970584622936
 20
1371.644487209287
 30
0.0
 11
2741.970584622936
 21
1376.494487209284
 31
0.0
  0
LINE
  5
18D05
330
18C7A
100
AcDbEntity
  8
細線
 48
50.0
100
AcDbLine
 10
2741.970584622936
 20
1376.494487209284
 30
0.0
 11
2756.970584622934
 21
1376.494487209285
 31
0.0
  0
LINE
  5
18D06
330
18C7A
100
AcDbEntity
  8
細線
 48
50.0
100
AcDbLine
 10
2756.970584622934
 20
1376.494487209285
 30
0.0
 11
2756.970596256909
 21
1383.494487209331
 31
0.0
  0
LINE
  5
18D07
330
18C7A
100
AcDbEntity
  8
細線
 48
50.0
100
AcDbLine
 10
2756.970596256909
 20
1383.494487209331
 30
0.0
 11
2771.970594427439
 21
1383.494487209329
 31
0.0
  0
LINE
  5
18D08
330
18C7A
100
AcDbEntity
  8
細線
 48
50.0
100
AcDbLine
 10
2771.970594427439
 20
1383.494487209329
 30
0.0
 11
2771.970584125617
 21
1354.494281037055
 31
0.0
  0
LINE
  5
18D09
330
18C7A
100
AcDbEntity
  8
細線
 48
50.0
100
AcDbLine
 10
2458.070304175992
 20
1354.494278397076
 30
0.0
 11
2389.470863838818
 21
1354.494283787084
 31
0.0
  0
LINE
  5
18D0A
330
18C7A
100
AcDbEntity
  8
細線
 48
50.0
100
AcDbLine
 10
2096.970556362348
 20
1354.493912699161
 30
0.0
 11
2108.203245717057
 21
1354.494095652309
 31
0.0
  0
ARC
  5
18D0B
330
18C7A
100
AcDbEntity
  8
細線
 48
50.0
100
AcDbCircle
 10
2114.785538024393
 20
1353.294259565922
 30
0.0
 40
1.8
100
AcDbArc
 50
270.0006665777295
 51
345.000555481349
  0
LINE
  5
18D0C
330
18C7A
100
AcDbEntity
  8
細線
 48
50.0
100
AcDbLine
 10
2116.771971470473
 20
1353.753100023201
 30
0.0
 11
2116.524209028273
 21
1352.828402141094
 31
0.0
  0
LINE
  5
18D0D
330
18C7A
100
AcDbEntity
  8
細線
 48
50.0
100
AcDbLine
 10
2114.785558965548
 20
1351.494259566043
 30
0.0
 11
2111.155631546781
 21
1351.494217335563
 31
0.0
  0
ARC
  5
18D0E
330
18C7A
100
AcDbEntity
  8
細線
 48
50.0
100
AcDbCircle
 10
2111.155610605627
 20
1353.29421733544
 30
0.0
 40
1.8
100
AcDbArc
 50
195.0010443049965
 51
270.0006665777295
  0
LINE
  5
18D0F
330
18C7A
100
AcDbEntity
  8
細線
 48
50.0
100
AcDbLine
 10
2109.169183113368
 20
1353.752932303007
 30
0.0
 11
2109.416952609882
 21
1352.828311364425
 31
0.0
  0
ARC
  5
18D10
330
18C7A
100
AcDbEntity
  8
細線
 48
50.0
100
AcDbCircle
 10
2108.203262004622
 20
1353.494095652444
 30
0.0
 40
1.0
100
AcDbArc
 50
15.00104430499651
 51
90.00093320877969
  0
LINE
  5
18D11
330
18C7A
100
AcDbEntity
  8
細線
 48
50.0
100
AcDbLine
 10
2117.737892825577
 20
1354.494290342714
 30
0.0
 11
2118.679652976481
 21
1354.494296916564
 31
0.0
  0
ARC
  5
18D12
330
18C7A
100
AcDbEntity
  8
細線
 48
50.0
100
AcDbCircle
 10
2117.737899805961
 20
1353.49429034274
 30
0.0
 40
1.0
100
AcDbArc
 50
90.0003999466794
 51
165.000555481349
  0
LINE
  5
18D13
330
18C7A
100
AcDbEntity
  8
細線
 48
50.0
100
AcDbLine
 10
2669.470584622926
 20
1354.494281037055
 30
0.0
 11
2771.970584125617
 21
1354.494281037055
 31
0.0
  0
LINE
  5
18D14
330
18C7A
100
AcDbEntity
  8
細線
 48
50.0
100
AcDbLine
 10
2179.47061994182
 20
1354.494289224422
 30
0.0
 11
2118.370558714898
 21
1354.494296916564
 31
0.0
  0
LINE
  5
18D15
330
18C7A
100
AcDbEntity
  8
細線
 48
50.0
100
AcDbLine
 10
2599.470584622926
 20
1354.494281037057
 30
0.0
 11
2529.470584622926
 21
1354.494281037055
 31
0.0
  0
LINE
  5
18D16
330
18C7A
100
AcDbEntity
  8
細線
 48
50.0
100
AcDbLine
 10
2319.470584622926
 20
1354.494281037054
 30
0.0
 11
2249.470567335051
 21
1354.494281037057
 31
0.0
  0
ARC
  5
18D17
330
18C7A
100
AcDbEntity
  8
細線
 48
50.0
100
AcDbCircle
 10
2756.170589276533
 20
1387.694269174466
 30
0.0
 40
0.8
100
AcDbArc
 50
359.9997333689499
 51
89.99986668437072
  0
ARC
  5
18D18
330
18C7A
100
AcDbEntity
  8
細線
 48
50.0
100
AcDbCircle
 10
2763.770596101631
 20
1387.694280343081
 30
0.0
 40
0.8
100
AcDbArc
 50
90.00014387753465
 51
179.9997333689498
  0
LINE
  5
18D19
330
18C7A
100
AcDbEntity
  8
細線
 48
50.0
100
AcDbLine
 10
2756.170591137969
 20
1388.494269174465
 30
0.0
 11
2750.970589276525
 21
1388.494269174465
 31
0.0
  0
ARC
  5
18D1A
330
18C7A
100
AcDbEntity
  8
細線
 48
50.0
100
AcDbCircle
 10
2757.670589276524
 20
1386.194269174464
 30
0.0
 40
0.7
100
AcDbArc
 50
180.0
 51
270.0
  0
ARC
  5
18D1B
330
18C7A
100
AcDbEntity
  8
細線
 48
50.0
100
AcDbCircle
 10
2762.270589276524
 20
1386.194269174464
 30
0.0
 40
0.7
100
AcDbArc
 50
270.0
 51
0.0
  0
LINE
  5
18D1C
330
18C7A
100
AcDbEntity
  8
細線
 48
50.0
100
AcDbLine
 10
2762.970589276525
 20
1386.194269174464
 30
0.0
 11
2762.970596101639
 21
1387.694284065954
 31
0.0
  0
LINE
  5
18D1D
330
18C7A
100
AcDbEntity
  8
細線
 48
50.0
100
AcDbLine
 10
2757.670589276524
 20
1385.494269174465
 30
0.0
 11
2762.270589276524
 21
1385.494269174465
 31
0.0
  0
LINE
  5
18D1E
330
18C7A
100
AcDbEntity
  8
細線
 48
50.0
100
AcDbLine
 10
2756.970589276525
 20
1387.694269174466
 30
0.0
 11
2756.970589276525
 21
1386.194269174464
 31
0.0
  0
LINE
  5
18D1F
330
18C7A
100
AcDbEntity
  8
細線
 48
50.0
100
AcDbLine
 10
3382.570589276527
 20
1418.494269174465
 30
0.0
 11
2745.970589276525
 21
1418.494269174463
 31
0.0
  0
LINE
  5
18D20
330
18C7A
100
AcDbEntity
  8
細線
 48
50.0
100
AcDbLine
 10
3408.470589276525
 20
1413.494269174467
 30
0.0
 11
3392.570589276527
 21
1413.494269174465
 31
0.0
  0
LINE
  5
18D21
330
18C7A
100
AcDbEntity
  8
細線
 48
50.0
100
AcDbLine
 10
3392.570589276526
 20
1413.494269174465
 30
0.0
 11
3382.570589276527
 21
1418.494269174465
 31
0.0
  0
LINE
  5
18D22
330
18C7A
100
AcDbEntity
  8
細線
100
AcDbLine
 10
2993.470589276525
 20
1388.494269174465
 30
0.0
 11
2993.470589276525
 21
1417.794269174464
 31
0.0
  0
LINE
  5
18D23
330
18C7A
100
AcDbEntity
  8
細線
100
AcDbLine
 10
2993.470589276525
 20
1417.794269174464
 30
0.0
 11
3013.470589276525
 21
1417.794269174464
 31
0.0
  0
LINE
  5
18D24
330
18C7A
100
AcDbEntity
  8
細線
100
AcDbLine
 10
3013.470589276525
 20
1388.494269174465
 30
0.0
 11
3013.470589276525
 21
1417.794269174464
 31
0.0
  0
LINE
  5
18D25
330
18C7A
100
AcDbEntity
  8
細線
100
AcDbLine
 10
3170.720589276524
 20
1388.494269174465
 30
0.0
 11
3100.720589276523
 21
1388.494269174465
 31
0.0
  0
LINE
  5
18D26
330
18C7A
100
AcDbEntity
  8
細線
 48
50.0
100
AcDbLine
 10
2890.720589276525
 20
1388.494269174465
 30
0.0
 11
2763.766368849365
 21
1388.494269174465
 31
0.0
  0
LINE
  5
18D27
330
18C7A
100
AcDbEntity
  8
細線
100
AcDbLine
 10
3030.720589276525
 20
1388.494269174465
 30
0.0
 11
2960.720589276525
 21
1388.494269174465
 31
0.0
  0
LINE
  5
18D28
330
18C7A
100
AcDbEntity
  8
細線
 48
50.0
100
AcDbLine
 10
2750.970589276525
 20
1380.494269174465
 30
0.0
 11
2750.970589276525
 21
1388.494269174465
 31
0.0
  0
LINE
  5
18D29
330
18C7A
100
AcDbEntity
  8
細線
 48
50.0
100
AcDbLine
 10
2730.970589276524
 20
1380.494269174467
 30
0.0
 11
2750.970589276525
 21
1380.494269174465
 31
0.0
  0
LINE
  5
18D2A
330
18C7A
100
AcDbEntity
  8
細線
 48
50.0
100
AcDbLine
 10
2745.970589276525
 20
1418.494269174465
 30
0.0
 11
2745.970589276525
 21
1413.494269174465
 31
0.0
  0
LINE
  5
18D2B
330
18C7A
100
AcDbEntity
  8
細線
 48
50.0
100
AcDbLine
 10
2730.970589276525
 20
1418.494269174463
 30
0.0
 11
2745.970589276525
 21
1418.494269174465
 31
0.0
  0
LINE
  5
18D2C
330
18C7A
100
AcDbEntity
  8
細線
 48
50.0
100
AcDbLine
 10
2730.970589276524
 20
1380.494269174467
 30
0.0
 11
2730.970589276525
 21
1418.494269174463
 31
0.0
  0
LINE
  5
18D2D
330
18C7A
100
AcDbEntity
  8
細線
100
AcDbLine
 10
3398.970589276523
 20
1388.494269174465
 30
0.0
 11
3240.720589276525
 21
1388.494269174465
 31
0.0
  0
LINE
  5
18D2E
330
18C7A
100
AcDbEntity
  8
細線
 48
50.0
100
AcDbLine
 10
3408.470589276525
 20
1413.494269174467
 30
0.0
 11
3408.470589276524
 21
1388.494269174465
 31
0.0
  0
TEXT
  5
18D2F
330
18C7A
100
AcDbEntity
  8
部品1
100
AcDbText
 10
1860.154865991392
 20
46.99880823813145
 30
0.0
 40
135.0
  1
平面図
  7
STYLE2
100
AcDbText
  0
LWPOLYLINE
  5
18D30
330
18C7A
100
AcDbEntity
  8
部品1
100
AcDbPolyline
 90
        4
 70
     1
 43
0.0
 10
1770.23525616235
 20
239.8923374566548
 10
1770.23525616235
 20
0.0000159111223184
 10
2533.705922390791
 20
0.0000159111223184
 10
2533.705922390791
 20
239.8923374566548
  0
LINE
  5
18D31
330
18C7A
100
AcDbEntity
  8
部品1
100
AcDbLine
 10
1534.470589276487
 20
3154.494269174626
 30
0.0
 11
2769.470589276552
 21
3154.494269174626
 31
0.0
  0
LINE
  5
18D32
330
18C7A
100
AcDbEntity
  8
部品1
 48
50.0
100
AcDbLine
 10
1311.970589276523
 20
1420.494269174462
 30
0.0
 11
3411.970589276523
 21
1420.494269174465
 31
0.0
  0
LINE
  5
18D33
330
18C7A
100
AcDbEntity
  8
部品1
 48
50.0
100
AcDbLine
 10
471.9705892765232
 20
1392.494269174465
 30
0.0
 11
1311.970589276523
 21
1392.494269174465
 31
0.0
  0
DIMENSION
  5
18D34
330
18C7A
100
AcDbEntity
  8
寸法
100
AcDbDimension
  2
*D14
 10
2710.234916278077
 20
2488.887829538828
 30
0.0
 11
2338.318822490183
 21
2488.887829538828
 31
0.0
 12
-3742.925985830444
 22
-6453.628869860112
 32
0.0
 70
   128
 71
     5
 42
1231.00000000007
  3
INABA_S40G
100
AcDbAlignedDimension
 13
1536.470589276486
 23
2702.494269174557
 33
0.0
 14
2767.470589276556
 24
2702.494269174549
 34
0.0
100
AcDbRotatedDimension
1001
ACAD
1000
DSTYLE
1002
{
1002
}
  0
LINE
  5
18D35
330
18C7A
100
AcDbEntity
  8
部品1
100
AcDbLine
 10
1536.470589276487
 20
2702.494269174557
 30
0.0
 11
2767.470589276554
 21
2702.494269174615
 31
0.0
  0
LINE
  5
18D36
330
18C7A
100
AcDbEntity
  8
部品1
100
AcDbLine
 10
1536.470589276487
 20
3152.494269174557
 30
0.0
 11
2767.470589276556
 21
3152.494269174615
 31
0.0
  0
LINE
  5
18D37
330
18C7A
100
AcDbEntity
  8
細線
 48
50.0
100
AcDbLine
 10
1508.470589276487
 20
3152.494269174558
 30
0.0
 11
445.4705892765559
 21
2702.494269174509
 31
0.0
  0
LINE
  5
18D38
330
18C7A
100
AcDbEntity
  8
細線
 48
50.0
100
AcDbLine
 10
1508.470589276487
 20
2702.494269174558
 30
0.0
 11
445.4705892765542
 21
3152.494269174509
 31
0.0
  0
LINE
  5
18D39
330
18C7A
100
AcDbEntity
  8
部品1
100
AcDbLine
 10
1556.970589276487
 20
3172.494269174611
 30
0.0
 11
1556.970589276487
 21
3154.494269174611
 31
0.0
  0
LINE
  5
18D3A
330
18C7A
100
AcDbEntity
  8
部品1
100
AcDbLine
 10
1556.970589276487
 20
3172.494269174611
 30
0.0
 11
1550.970589276487
 21
3172.494269174611
 31
0.0
  0
LINE
  5
18D3B
330
18C7A
100
AcDbEntity
  8
部品1
100
AcDbLine
 10
1534.470589276487
 20
3146.494269174608
 30
0.0
 11
1509.470589276487
 21
3146.494269174611
 31
0.0
  0
LINE
  5
18D3C
330
18C7A
100
AcDbEntity
  8
部品1
100
AcDbLine
 10
1486.970589276487
 20
3172.494269174611
 30
0.0
 11
1486.970589276487
 21
3154.494269174611
 31
0.0
  0
LINE
  5
18D3D
330
18C7A
100
AcDbEntity
  8
部品1
100
AcDbLine
 10
1492.970589276487
 20
3172.494269174611
 30
0.0
 11
1486.970589276487
 21
3172.494269174611
 31
0.0
  0
LINE
  5
18D3E
330
18C7A
100
AcDbEntity
  8
部品1
100
AcDbLine
 10
1534.470589276487
 20
2702.494269174615
 30
0.0
 11
1509.470589276487
 21
2702.494269174615
 31
0.0
  0
LINE
  5
18D3F
330
18C7A
100
AcDbEntity
  8
部品1
 48
50.0
100
AcDbLine
 10
1536.470589276487
 20
3152.494269174611
 30
0.0
 11
1536.470589276487
 21
2702.494269174615
 31
0.0
  0
LINE
  5
18D40
330
18C7A
100
AcDbEntity
  8
部品1
 48
50.0
100
AcDbLine
 10
1508.470589276487
 20
3152.494269174607
 30
0.0
 11
1508.470589276487
 21
2702.494269174615
 31
0.0
  0
LINE
  5
18D41
330
18C7A
100
AcDbEntity
  8
部品1
 48
50.0
100
AcDbLine
 10
1534.470589276487
 20
3154.494269174618
 30
0.0
 11
1534.470589276487
 21
2702.494269174615
 31
0.0
  0
LINE
  5
18D42
330
18C7A
100
AcDbEntity
  8
部品1
 48
50.0
100
AcDbLine
 10
1509.470589276487
 20
3154.494269174615
 30
0.0
 11
1509.470589276487
 21
2702.494269174615
 31
0.0
  0
LINE
  5
18D43
330
18C7A
100
AcDbEntity
  8
部品1
100
AcDbLine
 10
3411.970589276556
 20
1392.494269174582
 30
0.0
 11
3411.970589276556
 21
1420.494269174596
 31
0.0
  0
LINE
  5
18D44
330
18C7A
100
AcDbEntity
  8
部品1
100
AcDbLine
 10
1311.970589276523
 20
1392.494269174596
 30
0.0
 11
1311.970589276523
 21
1420.494269174596
 31
0.0
  0
LINE
  5
18D45
330
18C7A
100
AcDbEntity
  8
部品1
100
AcDbLine
 10
891.9705892765232
 20
1392.494269174596
 30
0.0
 11
891.9705892765232
 21
1420.494269174596
 31
0.0
  0
LINE
  5
18D46
330
18C7A
100
AcDbEntity
  8
部品1
100
AcDbLine
 10
3411.97058927652
 20
3182.494269174477
 30
0.0
 11
3411.970589276523
 21
3154.494269174477
 31
0.0
  0
LINE
  5
18D47
330
18C7A
100
AcDbEntity
  8
部品1
100
AcDbLine
 10
2571.97058927652
 20
3182.494269174477
 30
0.0
 11
2571.970589276523
 21
3154.494269174477
 31
0.0
  0
LINE
  5
18D48
330
18C7A
100
AcDbEntity
  8
部品1
100
AcDbLine
 10
2991.97058927652
 20
3182.494269174477
 30
0.0
 11
2991.970589276523
 21
3154.494269174477
 31
0.0
  0
LINE
  5
18D49
330
18C7A
100
AcDbEntity
  8
部品1
100
AcDbLine
 10
2151.970589276519
 20
3182.494269174477
 30
0.0
 11
2151.970589276523
 21
3154.494269174477
 31
0.0
  0
LINE
  5
18D4A
330
18C7A
100
AcDbEntity
  8
部品1
100
AcDbLine
 10
1731.970589276519
 20
3182.494269174477
 30
0.0
 11
1731.970589276523
 21
3154.494269174477
 31
0.0
  0
LINE
  5
18D4B
330
18C7A
100
AcDbEntity
  8
部品1
100
AcDbLine
 10
1311.970589276519
 20
3182.494269174477
 30
0.0
 11
1311.970589276523
 21
3154.494269174477
 31
0.0
  0
LINE
  5
18D4C
330
18C7A
100
AcDbEntity
  8
部品1
100
AcDbLine
 10
891.9705892765195
 20
3182.494269174477
 30
0.0
 11
891.9705892765232
 21
3154.494269174477
 31
0.0
  0
LINE
  5
18D4D
330
18C7A
100
AcDbEntity
  8
部品1
100
AcDbLine
 10
471.9705892765232
 20
1392.494269174596
 30
0.0
 11
471.9705892765232
 21
1420.494269174596
 31
0.0
  0
LINE
  5
18D4E
330
18C7A
100
AcDbEntity
  8
部品1
100
AcDbLine
 10
444.9705892765305
 20
1420.494269174558
 30
0.0
 11
3858.970589276556
 21
1420.494269174596
 31
0.0
  0
LINE
  5
18D4F
330
18C7A
100
AcDbEntity
  8
部品1
100
AcDbLine
 10
3831.970589276556
 20
1392.494269174596
 30
0.0
 11
3831.970589276556
 21
1420.494269174596
 31
0.0
  0
LINE
  5
18D50
330
18C7A
100
AcDbEntity
  8
部品1
100
AcDbLine
 10
3858.970589276556
 20
1447.494269174593
 30
0.0
 11
3886.970589276556
 21
1447.494269174593
 31
0.0
  0
LINE
  5
18D51
330
18C7A
100
AcDbEntity
  8
部品1
100
AcDbLine
 10
3858.970589276556
 20
1867.494269174607
 30
0.0
 11
3886.970589276556
 21
1867.494269174607
 31
0.0
  0
LINE
  5
18D52
330
18C7A
100
AcDbEntity
  8
部品1
100
AcDbLine
 10
444.9705892765305
 20
1867.49426917448
 30
0.0
 11
416.9705892765305
 21
1867.49426917448
 31
0.0
  0
LINE
  5
18D53
330
18C7A
100
AcDbEntity
  8
部品1
100
AcDbLine
 10
3830.470589276541
 20
1867.49426917458
 30
0.0
 11
473.4705892765396
 21
1867.49426917448
 31
0.0
  0
LINE
  5
18D54
330
18C7A
100
AcDbEntity
  8
部品1
100
AcDbLine
 10
3830.470589276541
 20
2287.49426917458
 30
0.0
 11
473.4705892765396
 21
2287.49426917448
 31
0.0
  0
LINE
  5
18D55
330
18C7A
100
AcDbEntity
  8
部品1
100
AcDbLine
 10
444.9705892765305
 20
2287.49426917448
 30
0.0
 11
416.9705892765305
 21
2287.49426917448
 31
0.0
  0
LINE
  5
18D56
330
18C7A
100
AcDbEntity
  8
部品1
100
AcDbLine
 10
3858.970589276556
 20
2287.494269174608
 30
0.0
 11
3886.970589276556
 21
2287.494269174608
 31
0.0
  0
LINE
  5
18D57
330
18C7A
100
AcDbEntity
  8
部品1
 48
50.0
100
AcDbLine
 10
2151.970589276551
 20
2702.494269174586
 30
0.0
 11
2151.970589276581
 21
1448.994269174494
 31
0.0
  0
LINE
  5
18D58
330
18C7A
100
AcDbEntity
  8
破線
 48
10.0
100
AcDbLine
 10
2959.470589276535
 20
1472.494269174522
 30
0.0
 11
2176.970589276532
 21
1472.494269174505
 31
0.0
  0
LINE
  5
18D59
330
18C7A
100
AcDbEntity
  8
破線
 48
10.0
100
AcDbLine
 10
3009.47058927653
 20
1448.994269174509
 30
0.0
 11
3009.47058927653
 21
2702.494269174615
 31
0.0
  0
LINE
  5
18D5A
330
18C7A
100
AcDbEntity
  8
破線
 48
10.0
100
AcDbLine
 10
2959.470589276535
 20
1448.994269174505
 30
0.0
 11
2959.470589276531
 21
2702.494269174615
 31
0.0
  0
LINE
  5
18D5B
330
18C7A
100
AcDbEntity
  8
破線
 48
10.0
100
AcDbLine
 10
1344.47058927653
 20
1448.994269174509
 30
0.0
 11
1344.47058927653
 21
2702.494269174615
 31
0.0
  0
LINE
  5
18D5C
330
18C7A
100
AcDbEntity
  8
破線
 48
10.0
100
AcDbLine
 10
1294.470589276534
 20
1448.994269174505
 30
0.0
 11
1294.47058927653
 21
2702.494269174615
 31
0.0
  0
DIMENSION
  5
18D5D
330
18C7A
100
AcDbEntity
  8
寸法
100
AcDbDimension
  2
*D13
 10
1451.234916278005
 20
2488.887829538828
 30
0.0
 11
916.0604668248634
 21
2488.887829538828
 31
0.0
 12
-3742.925985830444
 22
-6453.628869860112
 32
0.0
 70
   128
 71
     5
 42
1062.99999999993
  3
INABA_S40G
100
AcDbAlignedDimension
 13
445.4705892765559
 23
2702.494269174505
 33
0.0
 14
1508.470589276486
 24
2702.494269174558
 34
0.0
100
AcDbRotatedDimension
1001
ACAD
1000
DSTYLE
1002
{
1002
}
  0
LINE
  5
18D5E
330
18C7A
100
AcDbEntity
  8
破線
 48
10.0
100
AcDbLine
 10
1294.470589276534
 20
1472.494269174469
 30
0.0
 11
496.9705892765414
 21
1472.494269174476
 31
0.0
  0
LINE
  5
18D5F
330
18C7A
100
AcDbEntity
  8
部品1
100
AcDbLine
 10
3831.970589276556
 20
3182.494269174604
 30
0.0
 11
3831.970589276556
 21
3154.494269174604
 31
0.0
  0
LINE
  5
18D60
330
18C7A
100
AcDbEntity
  8
部品1
100
AcDbLine
 10
3831.970589276556
 20
3182.494269174626
 30
0.0
 11
3831.970589276556
 21
3154.494269174626
 31
0.0
  0
LINE
  5
18D61
330
18C7A
100
AcDbEntity
  8
部品1
100
AcDbLine
 10
3858.970589276556
 20
3127.494269174607
 30
0.0
 11
3886.970589276556
 21
3127.494269174607
 31
0.0
  0
LINE
  5
18D62
330
18C7A
100
AcDbEntity
  8
部品1
100
AcDbLine
 10
3858.970589276556
 20
2707.494269174608
 30
0.0
 11
3886.970589276556
 21
2707.494269174608
 31
0.0
  0
LINE
  5
18D63
330
18C7A
100
AcDbEntity
  8
部品1
100
AcDbLine
 10
3858.470589276556
 20
3152.494269174604
 30
0.0
 11
3858.470589276556
 21
2702.494269174608
 31
0.0
  0
LINE
  5
18D64
330
18C7A
100
AcDbEntity
  8
部品1
100
AcDbLine
 10
3886.970589276533
 20
1447.494269174593
 30
0.0
 11
3886.970589276531
 21
1392.494269174596
 31
0.0
  0
LINE
  5
18D65
330
18C7A
100
AcDbEntity
  8
部品1
 48
50.0
100
AcDbLine
 10
3830.470589276556
 20
1448.994269174596
 30
0.0
 11
3858.970589276554
 21
1420.494269174596
 31
0.0
  0
LINE
  5
18D66
330
18C7A
100
AcDbEntity
  8
部品1
100
AcDbLine
 10
3886.970589276531
 20
1392.494269174596
 30
0.0
 11
3835.970589276531
 21
1392.494269174596
 31
0.0
  0
LINE
  5
18D67
330
18C7A
100
AcDbEntity
  8
部品1
100
AcDbLine
 10
3858.970589276533
 20
1447.494269174593
 30
0.0
 11
3886.970589276531
 21
1447.494269174593
 31
0.0
  0
LINE
  5
18D68
330
18C7A
100
AcDbEntity
  8
部品1
100
AcDbLine
 10
3886.970589276556
 20
3182.494269174604
 30
0.0
 11
3886.970589276531
 21
1392.494269174596
 31
0.0
  0
DIMENSION
  5
18D69
330
18C7A
100
AcDbEntity
  8
寸法
100
AcDbDimension
  2
*D12
 10
4534.396935010967
 20
1447.494269174593
 30
0.0
 11
4534.396935010965
 21
2287.4942691746
 31
0.0
 12
-3742.925985830444
 22
-6453.628869860112
 32
0.0
 70
   128
  1
4X420=<>
 71
     5
 42
1680.000000000014
  3
INABA_S40G
100
AcDbAlignedDimension
 13
3886.970589276556
 23
3127.494269174607
 33
0.0
 14
3886.970589276531
 24
1447.494269174593
 34
0.0
 50
90.0
100
AcDbRotatedDimension
1001
ACAD
1000
DSTYLE
1002
{
1002
}
  0
LINE
  5
18D6A
330
18C7A
100
AcDbEntity
  8
部品1
100
AcDbLine
 10
3858.970589276556
 20
3154.494269174604
 30
0.0
 11
3858.970589276534
 21
1420.494269174596
 31
0.0
  0
DIMENSION
  5
18D6B
330
18C7A
100
AcDbEntity
  8
寸法
100
AcDbDimension
  2
*D11
 10
4213.82831513858
 20
2607.276453505718
 30
0.0
 11
4113.828315138579
 21
2832.276453505718
 31
0.0
 12
-3742.925985830444
 22
-6453.628869860112
 32
0.0
 71
     5
 42
449.9999999999963
  3
INABA_S40G
100
AcDbAlignedDimension
 13
3858.470589276556
 23
3152.494269174604
 33
0.0
 14
3858.470589276556
 24
2702.494269174608
 34
0.0
 50
90.0
100
AcDbRotatedDimension
1001
ACAD
1000
DSTYLE
1002
{
1002
}
  0
LINE
  5
18D6C
330
18C7A
100
AcDbEntity
  8
部品1
100
AcDbLine
 10
3830.470589276547
 20
2702.494269174608
 30
0.0
 11
3830.470589276556
 21
1448.994269174596
 31
0.0
  0
LINE
  5
18D6D
330
18C7A
100
AcDbEntity
  8
破線
 48
10.0
100
AcDbLine
 10
3806.970589276549
 20
2702.494269174608
 30
0.0
 11
3806.970589276558
 21
1472.494269174593
 31
0.0
  0
LINE
  5
18D6E
330
18C7A
100
AcDbEntity
  8
部品1
100
AcDbLine
 10
2769.470589276556
 20
3146.494269174608
 30
0.0
 11
2794.470589276556
 21
3146.494269174611
 31
0.0
  0
LINE
  5
18D6F
330
18C7A
100
AcDbEntity
  8
部品1
100
AcDbLine
 10
2810.970589276556
 20
3172.494269174611
 30
0.0
 11
2816.970589276556
 21
3172.494269174611
 31
0.0
  0
LINE
  5
18D70
330
18C7A
100
AcDbEntity
  8
部品1
100
AcDbLine
 10
2816.970589276556
 20
3172.494269174611
 30
0.0
 11
2816.970589276556
 21
3154.494269174611
 31
0.0
  0
LINE
  5
18D71
330
18C7A
100
AcDbEntity
  8
部品1
100
AcDbLine
 10
2746.970589276556
 20
3172.494269174611
 30
0.0
 11
2752.970589276556
 21
3172.494269174611
 31
0.0
  0
LINE
  5
18D72
330
18C7A
100
AcDbEntity
  8
部品1
100
AcDbLine
 10
2746.970589276556
 20
3172.494269174611
 30
0.0
 11
2746.970589276556
 21
3154.494269174611
 31
0.0
  0
LINE
  5
18D73
330
18C7A
100
AcDbEntity
  8
部品1
100
AcDbLine
 10
2769.470589276556
 20
2702.494269174615
 30
0.0
 11
2794.470589276556
 21
2702.494269174615
 31
0.0
  0
LINE
  5
18D74
330
18C7A
100
AcDbEntity
  8
部品1
 48
50.0
100
AcDbLine
 10
2794.470589276556
 20
3154.494269174615
 30
0.0
 11
2794.470589276556
 21
2702.494269174615
 31
0.0
  0
LINE
  5
18D75
330
18C7A
100
AcDbEntity
  8
部品1
 48
50.0
100
AcDbLine
 10
2769.470589276554
 20
3154.494269174618
 30
0.0
 11
2769.470589276556
 21
2702.494269174615
 31
0.0
  0
LINE
  5
18D76
330
18C7A
100
AcDbEntity
  8
部品1
 48
50.0
100
AcDbLine
 10
2795.470589276556
 20
3152.494269174607
 30
0.0
 11
2795.470589276556
 21
2702.494269174615
 31
0.0
  0
LINE
  5
18D77
330
18C7A
100
AcDbEntity
  8
部品1
 48
50.0
100
AcDbLine
 10
2767.470589276556
 20
3152.494269174611
 30
0.0
 11
2767.470589276556
 21
2702.494269174615
 31
0.0
  0
LINE
  5
18D78
330
18C7A
100
AcDbEntity
  8
破線
 48
10.0
100
AcDbLine
 10
2176.97058927653
 20
1448.994269174509
 30
0.0
 11
2176.97058927653
 21
2702.494269174588
 31
0.0
  0
LINE
  5
18D79
330
18C7A
100
AcDbEntity
  8
破線
 48
10.0
100
AcDbLine
 10
2126.970589276534
 20
1448.994269174505
 30
0.0
 11
2126.970589276531
 21
2702.494269174586
 31
0.0
  0
LINE
  5
18D7A
330
18C7A
100
AcDbEntity
  8
部品1
100
AcDbLine
 10
2794.470589276556
 20
3154.494269174622
 30
0.0
 11
3858.970589276556
 21
3154.494269174604
 31
0.0
  0
LINE
  5
18D7B
330
18C7A
100
AcDbEntity
  8
細線
 48
50.0
100
AcDbLine
 10
3858.470589276556
 20
2702.494269174608
 30
0.0
 11
2795.470589276556
 21
3152.494269174607
 31
0.0
  0
LINE
  5
18D7C
330
18C7A
100
AcDbEntity
  8
部品1
100
AcDbLine
 10
2795.470589276555
 20
2702.494269174615
 30
0.0
 11
3858.470589276556
 21
2702.494269174608
 31
0.0
  0
LINE
  5
18D7D
330
18C7A
100
AcDbEntity
  8
部品1
100
AcDbLine
 10
2795.470589276556
 20
3152.494269174611
 30
0.0
 11
3858.470589276556
 21
3152.494269174604
 31
0.0
  0
LINE
  5
18D7E
330
18C7A
100
AcDbEntity
  8
細線
 48
50.0
100
AcDbLine
 10
3858.470589276556
 20
3152.494269174604
 30
0.0
 11
2795.470589276555
 21
2702.494269174615
 31
0.0
  0
DIMENSION
  5
18D7F
330
18C7A
100
AcDbEntity
  8
寸法
100
AcDbDimension
  2
*D10
 10
3801.234916278101
 20
2488.887829538937
 30
0.0
 11
3318.360544398907
 21
2488.887829538937
 31
0.0
 12
-3742.925985830444
 22
-6453.628869860112
 32
0.0
 70
   128
 71
     5
 42
1063.000000000012
  3
INABA_S40G
100
AcDbAlignedDimension
 13
2795.470589276555
 23
2702.494269174615
 33
0.0
 14
3858.470589276567
 24
2702.494269174608
 34
0.0
100
AcDbRotatedDimension
1001
ACAD
1000
DSTYLE
1002
{
1002
}
  0
LINE
  5
18D80
330
18C7A
100
AcDbEntity
  8
破線
 48
10.0
100
AcDbLine
 10
3806.970589276556
 20
1472.494269174594
 30
0.0
 11
3009.47058927653
 21
1472.494269174523
 31
0.0
  0
DIMENSION
  5
18D81
330
18C7A
100
AcDbEntity
  8
寸法
100
AcDbDimension
  2
*D9
 10
4534.396935010941
 20
1392.494269174596
 30
0.0
 11
4534.39693501094
 21
1084.008987800356
 31
0.0
 12
-3742.925985830444
 22
-6453.628869860112
 32
0.0
 70
   128
 71
     5
 42
54.99999999999636
  3
INABA_S40G
100
AcDbAlignedDimension
 13
3886.970589276531
 23
1447.494269174593
 33
0.0
 14
3886.970589276531
 24
1392.494269174596
 34
0.0
 50
90.0
100
AcDbRotatedDimension
1001
ACAD
1000
DSTYLE
1002
{
1002
}
  0
LINE
  5
18D82
330
18C7A
100
AcDbEntity
  8
部品1
100
AcDbLine
 10
471.9705892765196
 20
3182.494269174477
 30
0.0
 11
471.9705892765232
 21
3154.494269174477
 31
0.0
  0
LINE
  5
18D83
330
18C7A
100
AcDbEntity
  8
部品1
100
AcDbLine
 10
471.9705892765559
 20
3182.494269174509
 30
0.0
 11
471.9705892765559
 21
3154.494269174509
 31
0.0
  0
LINE
  5
18D84
330
18C7A
100
AcDbEntity
  8
部品1
100
AcDbLine
 10
444.9705892765232
 20
3127.49426917448
 30
0.0
 11
416.9705892765232
 21
3127.49426917448
 31
0.0
  0
LINE
  5
18D85
330
18C7A
100
AcDbEntity
  8
部品1
100
AcDbLine
 10
444.9705892765305
 20
2707.49426917448
 30
0.0
 11
416.9705892765305
 21
2707.49426917448
 31
0.0
  0
LINE
  5
18D86
330
18C7A
100
AcDbEntity
  8
部品1
 48
50.0
100
AcDbLine
 10
445.4705892765542
 20
3152.494269174506
 30
0.0
 11
445.4705892765559
 21
2702.494269174505
 31
0.0
  0
LINE
  5
18D87
330
18C7A
100
AcDbEntity
  8
部品1
 48
50.0
100
AcDbLine
 10
473.470589276545
 20
1448.994269174573
 30
0.0
 11
444.970589276545
 21
1420.494269174574
 31
0.0
  0
LINE
  5
18D88
330
18C7A
100
AcDbEntity
  8
部品1
100
AcDbLine
 10
471.9705892765232
 20
1392.494269174465
 30
0.0
 11
416.9705892765486
 21
1392.494269174465
 31
0.0
  0
LINE
  5
18D89
330
18C7A
100
AcDbEntity
  8
部品1
100
AcDbLine
 10
444.9705892765305
 20
1447.494269174429
 30
0.0
 11
416.9705892765469
 21
1447.494269174429
 31
0.0
  0
LINE
  5
18D8A
330
18C7A
100
AcDbEntity
  8
部品1
100
AcDbLine
 10
444.9705892765305
 20
1447.494269174465
 30
0.0
 11
416.9705892765469
 21
1447.494269174465
 31
0.0
  0
LINE
  5
18D8B
330
18C7A
100
AcDbEntity
  8
部品1
100
AcDbLine
 10
444.9705892765469
 20
1447.49426917448
 30
0.0
 11
416.9705892765469
 21
1447.49426917448
 31
0.0
  0
LINE
  5
18D8C
330
18C7A
100
AcDbEntity
  8
部品1
100
AcDbLine
 10
416.9705892765469
 20
1447.494269174429
 30
0.0
 11
416.9705892765486
 21
1392.494269174433
 31
0.0
  0
LINE
  5
18D8D
330
18C7A
100
AcDbEntity
  8
部品1
100
AcDbLine
 10
416.9705892765196
 20
3182.494269174477
 30
0.0
 11
416.9705892765486
 21
1392.494269174465
 31
0.0
  0
LINE
  5
18D8E
330
18C7A
100
AcDbEntity
  8
部品1
100
AcDbLine
 10
444.9705892765305
 20
1420.494269174556
 30
0.0
 11
444.9705892765559
 21
3154.494269174509
 31
0.0
  0
LINE
  5
18D8F
330
18C7A
100
AcDbEntity
  8
部品1
100
AcDbLine
 10
473.4705892765323
 20
2702.494269174608
 30
0.0
 11
473.470589276545
 21
1448.994269174571
 31
0.0
  0
LINE
  5
18D90
330
18C7A
100
AcDbEntity
  8
破線
 48
10.0
100
AcDbLine
 10
496.9705892765305
 20
2702.494269174608
 30
0.0
 11
496.9705892765451
 21
1472.494269174476
 31
0.0
  0
DIMENSION
  5
18D91
330
18C7A
100
AcDbEntity
  8
寸法
100
AcDbDimension
  2
*D8
 10
3886.970589276531
 20
410.7433333855515
 30
0.0
 11
2168.197775309287
 21
410.7433333855515
 31
0.0
 12
-3742.925985830444
 22
-6453.628869860112
 32
0.0
 70
   128
 71
     5
 42
3469.999999999982
  3
INABA_S40G
100
AcDbAlignedDimension
 13
416.9705892765486
 23
1392.494269174433
 33
0.0
 14
3886.970589276531
 24
1392.49426917456
 34
0.0
100
AcDbRotatedDimension
1001
ACAD
1000
DSTYLE
1002
{
1070
   341
1005
0
1002
}
  0
LINE
  5
18D92
330
18C7A
100
AcDbEntity
  8
部品1
100
AcDbLine
 10
444.9705892765559
 20
3154.494269174624
 30
0.0
 11
1509.470589276487
 21
3154.494269174626
 31
0.0
  0
LINE
  5
18D93
330
18C7A
100
AcDbEntity
  8
部品1
100
AcDbLine
 10
3886.970589276531
 20
1392.494269174596
 30
0.0
 11
3411.970589276556
 21
1392.494269174582
 31
0.0
  0
LINE
  5
18D94
330
18C7A
100
AcDbEntity
  8
部品1
100
AcDbLine
 10
416.9705892765559
 20
3182.494269174509
 30
0.0
 11
3886.970589276556
 21
3182.494269174604
 31
0.0
  0
LINE
  5
18D95
330
18C7A
100
AcDbEntity
  8
部品1
100
AcDbLine
 10
445.4705892765559
 20
2702.494269174509
 30
0.0
 11
1508.470589276487
 21
2702.494269174558
 31
0.0
  0
LINE
  5
18D96
330
18C7A
100
AcDbEntity
  8
細線
 48
50.0
100
AcDbLine
 10
2767.470589276556
 20
3152.494269174611
 30
0.0
 11
1536.470589276487
 21
2702.494269174558
 31
0.0
  0
LINE
  5
18D97
330
18C7A
100
AcDbEntity
  8
部品1
100
AcDbLine
 10
445.4705892765542
 20
3152.494269174509
 30
0.0
 11
1508.470589276485
 21
3152.494269174558
 31
0.0
  0
LINE
  5
18D98
330
18C7A
100
AcDbEntity
  8
細線
 48
50.0
100
AcDbLine
 10
2767.470589276554
 20
2702.494269174615
 30
0.0
 11
1536.470589276485
 21
3152.494269174558
 31
0.0
  0
LINE
  5
18D99
330
18C7A
100
AcDbEntity
  8
破線
 48
10.0
100
AcDbLine
 10
2126.970589276534
 20
1472.494269174502
 30
0.0
 11
1344.47058927653
 21
1472.494269174473
 31
0.0
  0
LINE
  5
18D9A
330
18C7A
100
AcDbEntity
  8
部品1
100
AcDbLine
 10
3830.470589276556
 20
1448.994269174596
 30
0.0
 11
473.4705892764487
 21
1448.994269174476
 31
0.0
  0
DIMENSION
  5
18D9B
330
18C7A
100
AcDbEntity
  8
寸法
100
AcDbDimension
  2
*D7
 10
471.970589276555
 20
3698.302488799491
 30
0.0
 11
108.4853079022819
 21
3698.302488799491
 31
0.0
 12
-3742.925985830444
 22
-6453.628869860112
 32
0.0
 70
   128
 71
     5
 42
55.00000000003456
  3
INABA_S40G
100
AcDbAlignedDimension
 13
416.9705892765205
 23
3182.494269174509
 33
0.0
 14
471.970589276555
 24
3182.494269174509
 34
0.0
100
AcDbRotatedDimension
1001
ACAD
1000
DSTYLE
1002
{
1002
}
  0
DIMENSION
  5
18D9C
330
18C7A
100
AcDbEntity
  8
寸法
100
AcDbDimension
  2
*D6
 10
4534.396935010967
 20
3127.494269174607
 30
0.0
 11
4534.396935010965
 21
3490.979550548844
 31
0.0
 12
-3742.925985830444
 22
-6453.628869860112
 32
0.0
 70
   128
 71
     5
 42
54.99999999999636
  3
INABA_S40G
100
AcDbAlignedDimension
 13
3886.970589276556
 23
3182.494269174604
 33
0.0
 14
3886.970589276556
 24
3127.494269174607
 34
0.0
 50
90.0
100
AcDbRotatedDimension
1001
ACAD
1000
DSTYLE
1002
{
1002
}
  0
DIMENSION
  5
18D9D
330
18C7A
100
AcDbEntity
  8
寸法
100
AcDbDimension
  2
*D5
 10
3886.970589276556
 20
3698.302488799589
 30
0.0
 11
4195.455870650794
 21
3698.302488799589
 31
0.0
 12
-3742.925985830444
 22
-6453.628869860112
 32
0.0
 70
   128
 71
     5
 42
55.0
  3
INABA_S40G
100
AcDbAlignedDimension
 13
3831.970589276556
 23
3182.494269174604
 33
0.0
 14
3886.970589276556
 24
3182.494269174604
 34
0.0
100
AcDbRotatedDimension
1001
ACAD
1000
DSTYLE
1002
{
1002
}
  0
DIMENSION
  5
18D9E
330
18C7A
100
AcDbEntity
  8
寸法
100
AcDbDimension
  2
*D4
 10
3831.970589276556
 20
3698.302488799607
 30
0.0
 11
2151.970589276555
 21
3698.302488799607
 31
0.0
 12
-3742.925985830444
 22
-6453.628869860112
 32
0.0
 70
   128
  1
8X420=<>
 71
     5
 42
3360.000000000001
  3
INABA_S40G
100
AcDbAlignedDimension
 13
471.970589276555
 23
3182.494269174509
 33
0.0
 14
3831.970589276556
 24
3182.494269174604
 34
0.0
100
AcDbRotatedDimension
1001
ACAD
1000
DSTYLE
1002
{
1002
}
  0
DIMENSION
  5
18D9F
330
18C7A
100
AcDbEntity
  8
寸法
100
AcDbDimension
  2
*D3
 10
4899.503876750603
 20
1392.494269174596
 30
0.0
 11
4899.503876750601
 21
2287.4942691746
 31
0.0
 12
-3742.925985830444
 22
-6453.628869860112
 32
0.0
 70
   128
 71
     5
 42
1790.000000000007
  3
INABA_S40G
100
AcDbAlignedDimension
 13
3886.970589276556
 23
3182.494269174604
 33
0.0
 14
3886.970589276531
 24
1392.494269174596
 34
0.0
 50
90.0
100
AcDbRotatedDimension
1001
ACAD
1000
DSTYLE
1002
{
1002
}
  0
ENDBLK
  5
18DA1
330
18C7A
100
AcDbEntity
  8
0
 48
50.0
100
AcDbBlockEnd
  0
BLOCK
  5
1C4CB
330
1C4CA
100
AcDbEntity
  8
0
 48
50.0
100
AcDbBlockBegin
  2
_NONE
 70
     0
 10
0.0
 20
0.0
 30
0.0
  3
_NONE
  1

  0
CIRCLE
  5
1C4CC
330
1C4CA
100
AcDbEntity
  8
0
  6
ByBlock
 62
     0
 48
50.0
100
AcDbCircle
 10
0.0
 20
0.0
 30
0.0
 40
0.25
  0
ENDBLK
  5
1C4CD
330
1C4CA
100
AcDbEntity
  8
0
 48
50.0
100
AcDbBlockEnd
  0
BLOCK
  5
20DEE
330
20DE2
100
AcDbEntity
  8
0
 48
50.0
100
AcDbBlockBegin
  2
*D19
 70
     1
 10
0.0
 20
0.0
 30
0.0
  3
*D19
  1

  0
LINE
  5
258CB
330
20DE2
100
AcDbEntity
  8
寸法
 62
     0
 48
50.0
370
    -2
100
AcDbLine
 10
10688.6
 20
7568.337036525244
 30
0.0
 11
10688.6
 21
8566.557358584168
 31
0.0
  0
LINE
  5
258CC
330
20DE2
100
AcDbEntity
  8
寸法
 62
     0
 48
50.0
370
    -2
100
AcDbLine
 10
10733.6
 20
8294.603494619154
 30
0.0
 11
10733.6
 21
8566.557358584168
 31
0.0
  0
LINE
  5
258CD
330
20DE2
100
AcDbEntity
  8
寸法
 62
     0
 48
50.0
370
    -2
100
AcDbLine
 10
10688.6
 20
8506.557358584165
 30
0.0
 11
10588.6
 21
8506.557358584165
 31
0.0
  0
LINE
  5
258CE
330
20DE2
100
AcDbEntity
  8
寸法
 62
     0
 48
50.0
370
    -2
100
AcDbLine
 10
10733.6
 20
8506.557358584165
 30
0.0
 11
11070.94924240492
 21
8506.557358584165
 31
0.0
  0
LINE
  5
258CF
330
20DE2
100
AcDbEntity
  8
寸法
 62
     0
 48
50.0
370
    -2
100
AcDbLine
 10
10688.6
 20
8506.557358584165
 30
0.0
 11
10733.6
 21
8506.557358584165
 31
0.0
  0
INSERT
  5
258D0
330
20DE2
100
AcDbEntity
  8
寸法
 62
     0
 48
50.0
370
    -2
100
AcDbBlockReference
  2
_DOTSMALL
 10
10688.6
 20
8506.557358584165
 30
0.0
 41
100.0
 42
100.0
 43
100.0
  0
INSERT
  5
258D1
330
20DE2
100
AcDbEntity
  8
寸法
 62
     0
 48
50.0
370
    -2
100
AcDbBlockReference
  2
_DOTSMALL
 10
10733.6
 20
8506.557358584165
 30
0.0
 41
100.0
 42
100.0
 43
100.0
 50
180.0
  0
MTEXT
  5
258D2
330
20DE2
100
AcDbEntity
  8
寸法
 62
     7
 48
50.0
100
AcDbMText
 10
11004.77462120246
 20
8606.557358584167
 30
0.0
 40
120.0
 41
0.0
 71
     5
 72
     1
  1
\A1;a
  7
STYLE1
 73
     1
 44
1.0
1001
ACAD
1000
MTEXTBEGIN
1070
    73
1070
     1
1070
    44
1040
1.0
1070
    74
1070
     0
1000
MTEXTEND
  0
POINT
  5
258D3
330
20DE2
100
AcDbEntity
  8
DEFPOINTS
 62
     0
 48
50.0
100
AcDbPoint
 10
10688.6
 20
7548.337036525244
 30
0.0
  0
POINT
  5
258D4
330
20DE2
100
AcDbEntity
  8
DEFPOINTS
 62
     0
 48
50.0
100
AcDbPoint
 10
10733.6
 20
8274.603494619155
 30
0.0
  0
POINT
  5
258D5
330
20DE2
100
AcDbEntity
  8
DEFPOINTS
 62
     0
 48
50.0
100
AcDbPoint
 10
10733.6
 20
8506.557358584165
 30
0.0
  0
ENDBLK
  5
20DEF
330
20DE2
100
AcDbEntity
  8
0
 48
50.0
100
AcDbBlockEnd
  0
BLOCK
  5
20E08
330
20DFC
100
AcDbEntity
  8
0
 48
50.0
100
AcDbBlockBegin
  2
*D20
 70
     1
 10
0.0
 20
0.0
 30
0.0
  3
*D20
  1

  0
LINE
  5
258D6
330
20DFC
100
AcDbEntity
  8
寸法
 62
     0
 48
50.0
370
    -2
100
AcDbLine
 10
5713.600000000004
 20
8294.603494619158
 30
0.0
 11
5713.600000000004
 21
8566.557358584168
 31
0.0
  0
LINE
  5
258D7
330
20DFC
100
AcDbEntity
  8
寸法
 62
     0
 48
50.0
370
    -2
100
AcDbLine
 10
5758.600000000004
 20
7568.337036525246
 30
0.0
 11
5758.600000000004
 21
8566.557358584168
 31
0.0
  0
LINE
  5
258D8
330
20DFC
100
AcDbEntity
  8
寸法
 62
     0
 48
50.0
370
    -2
100
AcDbLine
 10
5758.600000000004
 20
8506.557358584165
 30
0.0
 11
5858.600000000004
 21
8506.557358584165
 31
0.0
  0
LINE
  5
258D9
330
20DFC
100
AcDbEntity
  8
寸法
 62
     0
 48
50.0
370
    -2
100
AcDbLine
 10
5713.600000000004
 20
8506.557358584165
 30
0.0
 11
5376.250757595087
 21
8506.557358584165
 31
0.0
  0
LINE
  5
258DA
330
20DFC
100
AcDbEntity
  8
寸法
 62
     0
 48
50.0
370
    -2
100
AcDbLine
 10
5758.600000000004
 20
8506.557358584165
 30
0.0
 11
5713.600000000004
 21
8506.557358584165
 31
0.0
  0
INSERT
  5
258DB
330
20DFC
100
AcDbEntity
  8
寸法
 62
     0
 48
50.0
370
    -2
100
AcDbBlockReference
  2
_DOTSMALL
 10
5758.600000000004
 20
8506.557358584165
 30
0.0
 41
100.0
 42
100.0
 43
100.0
 50
180.0
  0
INSERT
  5
258DC
330
20DFC
100
AcDbEntity
  8
寸法
 62
     0
 48
50.0
370
    -2
100
AcDbBlockReference
  2
_DOTSMALL
 10
5713.600000000004
 20
8506.557358584165
 30
0.0
 41
100.0
 42
100.0
 43
100.0
  0
MTEXT
  5
258DD
330
20DFC
100
AcDbEntity
  8
寸法
 62
     7
 48
50.0
100
AcDbMText
 10
5442.425378797545
 20
8606.557358584167
 30
0.0
 40
120.0
 41
0.0
 71
     5
 72
     1
  1
\A1;a
  7
STYLE1
 73
     1
 44
1.0
1001
ACAD
1000
MTEXTBEGIN
1070
    73
1070
     1
1070
    44
1040
1.0
1070
    74
1070
     0
1000
MTEXTEND
  0
POINT
  5
258DE
330
20DFC
100
AcDbEntity
  8
DEFPOINTS
 62
     0
 48
50.0
100
AcDbPoint
 10
5713.600000000004
 20
8274.603494619157
 30
0.0
  0
POINT
  5
258DF
330
20DFC
100
AcDbEntity
  8
DEFPOINTS
 62
     0
 48
50.0
100
AcDbPoint
 10
5758.600000000004
 20
7548.337036525246
 30
0.0
  0
POINT
  5
258E0
330
20DFC
100
AcDbEntity
  8
DEFPOINTS
 62
     0
 48
50.0
100
AcDbPoint
 10
5758.600000000004
 20
8506.557358584165
 30
0.0
  0
ENDBLK
  5
20E09
330
20DFC
100
AcDbEntity
  8
0
 48
50.0
100
AcDbBlockEnd
  0
BLOCK
  5
2274E
330
22742
100
AcDbEntity
  8
0
 48
50.0
100
AcDbBlockBegin
  2
*D25
 70
     1
 10
0.0
 20
0.0
 30
0.0
  3
*D25
  1

  0
LINE
  5
258E1
330
22742
100
AcDbEntity
  8
寸法
 62
     0
 48
50.0
370
    -2
100
AcDbLine
 10
5115.665006330072
 20
7623.337036525253
 30
0.0
 11
4823.721909610676
 21
7623.337036525253
 31
0.0
  0
LINE
  5
258E2
330
22742
100
AcDbEntity
  8
寸法
 62
     0
 48
50.0
370
    -2
100
AcDbLine
 10
5738.600000000004
 20
7548.337036525246
 30
0.0
 11
4823.721909610676
 21
7548.337036525246
 31
0.0
  0
LINE
  5
258E3
330
22742
100
AcDbEntity
  8
寸法
 62
     0
 48
50.0
370
    -2
100
AcDbLine
 10
4883.721909610676
 20
7623.337036525253
 30
0.0
 11
4883.721909610676
 21
7723.337036525252
 31
0.0
  0
LINE
  5
258E4
330
22742
100
AcDbEntity
  8
寸法
 62
     0
 48
50.0
370
    -2
100
AcDbLine
 10
4883.721909610676
 20
7548.337036525246
 30
0.0
 11
4883.721909610676
 21
7448.337036525245
 31
0.0
  0
LINE
  5
258E5
330
22742
100
AcDbEntity
  8
寸法
 62
     0
 48
50.0
370
    -2
100
AcDbLine
 10
4883.721909610676
 20
7623.337036525253
 30
0.0
 11
4883.721909610676
 21
7548.337036525246
 31
0.0
  0
INSERT
  5
258E6
330
22742
100
AcDbEntity
  8
寸法
 62
     0
 48
50.0
370
    -2
100
AcDbBlockReference
  2
_DOTSMALL
 10
4883.721909610676
 20
7623.337036525253
 30
0.0
 41
100.0
 42
100.0
 43
100.0
 50
270.0
  0
INSERT
  5
258E7
330
22742
100
AcDbEntity
  8
寸法
 62
     0
 48
50.0
370
    -2
100
AcDbBlockReference
  2
_DOTSMALL
 10
4883.721909610676
 20
7548.337036525246
 30
0.0
 41
100.0
 42
100.0
 43
100.0
 50
90.0
  0
MTEXT
  5
258E8
330
22742
100
AcDbEntity
  8
寸法
 62
     7
 48
50.0
100
AcDbMText
 10
4783.721909610675
 20
7585.837036525251
 30
0.0
 40
120.0
 41
0.0
 71
     5
 72
     1
  1
\A1;c
  7
STYLE1
 11
0.0000000000000001
 21
1.0
 31
0.0
 73
     1
 44
1.0
1001
ACAD
1000
MTEXTBEGIN
1070
    73
1070
     1
1070
    44
1040
1.0
1070
    74
1070
     0
1000
MTEXTEND
  0
POINT
  5
258E9
330
22742
100
AcDbEntity
  8
DEFPOINTS
 62
     0
 48
50.0
100
AcDbPoint
 10
5135.665006330071
 20
7623.337036525253
 30
0.0
  0
POINT
  5
258EA
330
22742
100
AcDbEntity
  8
DEFPOINTS
 62
     0
 48
50.0
100
AcDbPoint
 10
5758.600000000004
 20
7548.337036525246
 30
0.0
  0
POINT
  5
258EB
330
22742
100
AcDbEntity
  8
DEFPOINTS
 62
     0
 48
50.0
100
AcDbPoint
 10
4883.721909610676
 20
7548.337036525246
 30
0.0
  0
ENDBLK
  5
2274F
330
22742
100
AcDbEntity
  8
0
 48
50.0
100
AcDbBlockEnd
  0
BLOCK
  5
22768
330
2275C
100
AcDbEntity
  8
0
 48
50.0
100
AcDbBlockBegin
  2
*D26
 70
     1
 10
0.0
 20
0.0
 30
0.0
  3
*D26
  1

  0
LINE
  5
258EC
330
2275C
100
AcDbEntity
  8
寸法
 62
     0
 48
50.0
370
    -2
100
AcDbLine
 10
5738.600000000004
 20
6008.337036525245
 30
0.0
 11
4823.721909610676
 21
6008.337036525245
 31
0.0
  0
LINE
  5
258ED
330
2275C
100
AcDbEntity
  8
寸法
 62
     0
 48
50.0
370
    -2
100
AcDbLine
 10
5115.665006330075
 20
5953.337036525271
 30
0.0
 11
4823.721909610676
 21
5953.337036525271
 31
0.0
  0
LINE
  5
258EE
330
2275C
100
AcDbEntity
  8
寸法
 62
     0
 48
50.0
370
    -2
100
AcDbLine
 10
4883.721909610676
 20
6008.337036525245
 30
0.0
 11
4883.721909610676
 21
6108.337036525245
 31
0.0
  0
LINE
  5
258EF
330
2275C
100
AcDbEntity
  8
寸法
 62
     0
 48
50.0
370
    -2
100
AcDbLine
 10
4883.721909610676
 20
5953.337036525271
 30
0.0
 11
4883.721909610676
 21
5853.337036525271
 31
0.0
  0
LINE
  5
258F0
330
2275C
100
AcDbEntity
  8
寸法
 62
     0
 48
50.0
370
    -2
100
AcDbLine
 10
4883.721909610676
 20
6008.337036525245
 30
0.0
 11
4883.721909610676
 21
5953.337036525271
 31
0.0
  0
INSERT
  5
258F1
330
2275C
100
AcDbEntity
  8
寸法
 62
     0
 48
50.0
370
    -2
100
AcDbBlockReference
  2
_DOTSMALL
 10
4883.721909610676
 20
6008.337036525245
 30
0.0
 41
100.0
 42
100.0
 43
100.0
 50
270.0
  0
INSERT
  5
258F2
330
2275C
100
AcDbEntity
  8
寸法
 62
     0
 48
50.0
370
    -2
100
AcDbBlockReference
  2
_DOTSMALL
 10
4883.721909610676
 20
5953.337036525271
 30
0.0
 41
100.0
 42
100.0
 43
100.0
 50
90.0
  0
MTEXT
  5
258F3
330
2275C
100
AcDbEntity
  8
寸法
 62
     7
 48
50.0
100
AcDbMText
 10
4783.721909610675
 20
5980.837036525258
 30
0.0
 40
120.0
 41
0.0
 71
     5
 72
     1
  1
\A1;b
  7
STYLE1
 11
0.0000000000000001
 21
1.0
 31
0.0
 73
     1
 44
1.0
1001
ACAD
1000
MTEXTBEGIN
1070
    73
1070
     1
1070
    44
1040
1.0
1070
    74
1070
     0
1000
MTEXTEND
  0
POINT
  5
258F4
330
2275C
100
AcDbEntity
  8
DEFPOINTS
 62
     0
 48
50.0
100
AcDbPoint
 10
5758.600000000004
 20
6008.337036525245
 30
0.0
  0
POINT
  5
258F5
330
2275C
100
AcDbEntity
  8
DEFPOINTS
 62
     0
 48
50.0
100
AcDbPoint
 10
5135.665006330075
 20
5953.337036525271
 30
0.0
  0
POINT
  5
258F6
330
2275C
100
AcDbEntity
  8
DEFPOINTS
 62
     0
 48
50.0
100
AcDbPoint
 10
4883.721909610676
 20
5953.337036525271
 30
0.0
  0
ENDBLK
  5
22769
330
2275C
100
AcDbEntity
  8
0
 48
50.0
100
AcDbBlockEnd
  0
BLOCK
  5
2524F
330
25245
100
AcDbEntity
  8
0
 48
50.0
100
AcDbBlockBegin
  2
*D27
 70
     1
 10
0.0
 20
0.0
 30
0.0
  3
*D27
  1

  0
LINE
  5
2595C
330
25245
100
AcDbEntity
  8
寸法
 62
     0
 48
50.0
370
    -2
100
AcDbLine
 10
9043.60000000001
 20
6888.337036525249
 30
0.0
 11
9043.60000000001
 21
8090.945853195497
 31
0.0
  0
LINE
  5
2595D
330
25245
100
AcDbEntity
  8
寸法
 62
     0
 48
50.0
370
    -2
100
AcDbLine
 10
8223.60000000001
 20
6885.337036525249
 30
0.0
 11
8223.60000000001
 21
8090.945853195497
 31
0.0
  0
LINE
  5
2595E
330
25245
100
AcDbEntity
  8
寸法
 62
     0
 48
50.0
370
    -2
100
AcDbLine
 10
9043.60000000001
 20
8030.945853195497
 30
0.0
 11
8223.60000000001
 21
8030.945853195497
 31
0.0
  0
INSERT
  5
2595F
330
25245
100
AcDbEntity
  8
寸法
 62
     0
 48
50.0
370
    -2
100
AcDbBlockReference
  2
_DOTSMALL
 10
9043.60000000001
 20
8030.945853195497
 30
0.0
 41
100.0
 42
100.0
 43
100.0
  0
INSERT
  5
25960
330
25245
100
AcDbEntity
  8
寸法
 62
     0
 48
50.0
370
    -2
100
AcDbBlockReference
  2
_DOTSMALL
 10
8223.60000000001
 20
8030.945853195497
 30
0.0
 41
100.0
 42
100.0
 43
100.0
 50
180.0
  0
MTEXT
  5
25961
330
25245
100
AcDbEntity
  8
寸法
 62
     7
 48
50.0
100
AcDbMText
 10
8633.60000000001
 20
8130.957664219119
 30
0.0
 40
120.0
 41
0.0
 71
     5
 72
     1
  1
\A1;820
  7
STYLE1
 73
     1
 44
1.0
1001
ACAD
1000
MTEXTBEGIN
1070
    73
1070
     1
1070
    44
1040
1.0
1070
    74
1070
     0
1000
MTEXTEND
  0
POINT
  5
25962
330
25245
100
AcDbEntity
  8
DEFPOINTS
 62
     0
 48
50.0
100
AcDbPoint
 10
9043.60000000001
 20
6868.337036525248
 30
0.0
  0
POINT
  5
25963
330
25245
100
AcDbEntity
  8
DEFPOINTS
 62
     0
 48
50.0
100
AcDbPoint
 10
8223.60000000001
 20
6865.337036525248
 30
0.0
  0
POINT
  5
25964
330
25245
100
AcDbEntity
  8
DEFPOINTS
 62
     0
 48
50.0
100
AcDbPoint
 10
8223.60000000001
 20
8030.945853195497
 30
0.0
  0
ENDBLK
  5
25250
330
25245
100
AcDbEntity
  8
0
 48
50.0
100
AcDbBlockEnd
  0
BLOCK
  5
2525B
330
25251
100
AcDbEntity
  8
0
 48
50.0
100
AcDbBlockBegin
  2
*D28
 70
     1
 10
0.0
 20
0.0
 30
0.0
  3
*D28
  1

  0
LINE
  5
25773
330
25251
100
AcDbEntity
  8
寸法
 62
     0
 48
50.0
370
    -2
100
AcDbLine
 10
5758.600000000001
 20
7568.337036525249
 30
0.0
 11
5758.600000000001
 21
8566.557358584168
 31
0.0
  0
LINE
  5
25774
330
25251
100
AcDbEntity
  8
寸法
 62
     0
 48
50.0
370
    -2
100
AcDbLine
 10
10688.6
 20
7568.337036525249
 30
0.0
 11
10688.6
 21
8566.557358584168
 31
0.0
  0
LINE
  5
25775
330
25251
100
AcDbEntity
  8
寸法
 62
     0
 48
50.0
370
    -2
100
AcDbLine
 10
5758.600000000001
 20
8506.557358584165
 30
0.0
 11
10688.6
 21
8506.557358584165
 31
0.0
  0
INSERT
  5
25776
330
25251
100
AcDbEntity
  8
寸法
 62
     0
 48
50.0
370
    -2
100
AcDbBlockReference
  2
_DOTSMALL
 10
5758.600000000001
 20
8506.557358584165
 30
0.0
 41
100.0
 42
100.0
 43
100.0
 50
180.0
  0
INSERT
  5
25777
330
25251
100
AcDbEntity
  8
寸法
 62
     0
 48
50.0
370
    -2
100
AcDbBlockReference
  2
_DOTSMALL
 10
10688.6
 20
8506.557358584165
 30
0.0
 41
100.0
 42
100.0
 43
100.0
  0
MTEXT
  5
25778
330
25251
100
AcDbEntity
  8
寸法
 62
     7
 48
50.0
100
AcDbMText
 10
8223.600000000002
 20
8606.557358584167
 30
0.0
 40
120.0
 41
0.0
 71
     5
 72
     1
  1
\A1;4930
  7
STYLE1
 73
     1
 44
1.0
1001
ACAD
1000
MTEXTBEGIN
1070
    73
1070
     1
1070
    44
1040
1.0
1070
    74
1070
     0
1000
MTEXTEND
  0
POINT
  5
25779
330
25251
100
AcDbEntity
  8
DEFPOINTS
 62
     0
 48
50.0
100
AcDbPoint
 10
5758.600000000001
 20
7548.337036525248
 30
0.0
  0
POINT
  5
2577A
330
25251
100
AcDbEntity
  8
DEFPOINTS
 62
     0
 48
50.0
100
AcDbPoint
 10
10688.6
 20
7548.337036525248
 30
0.0
  0
POINT
  5
2577B
330
25251
100
AcDbEntity
  8
DEFPOINTS
 62
     0
 48
50.0
100
AcDbPoint
 10
10688.6
 20
8506.557358584165
 30
0.0
  0
ENDBLK
  5
2525C
330
25251
100
AcDbEntity
  8
0
 48
50.0
100
AcDbBlockEnd
  0
BLOCK
  5
25267
330
2525D
100
AcDbEntity
  8
0
 48
50.0
100
AcDbBlockBegin
  2
*D29
 70
     1
 10
0.0
 20
0.0
 30
0.0
  3
*D29
  1

  0
LINE
  5
2576A
330
2525D
100
AcDbEntity
  8
寸法
 62
     0
 48
50.0
370
    -2
100
AcDbLine
 10
10565.6
 20
7495.337036525248
 30
0.0
 11
10565.6
 21
8334.603494619159
 31
0.0
  0
LINE
  5
2576B
330
2525D
100
AcDbEntity
  8
寸法
 62
     0
 48
50.0
370
    -2
100
AcDbLine
 10
8105.600000000002
 20
7495.337036525248
 30
0.0
 11
8105.600000000002
 21
8334.603494619159
 31
0.0
  0
LINE
  5
2576C
330
2525D
100
AcDbEntity
  8
寸法
 62
     0
 48
50.0
370
    -2
100
AcDbLine
 10
10565.6
 20
8274.60349461916
 30
0.0
 11
8105.600000000002
 21
8274.60349461916
 31
0.0
  0
INSERT
  5
2576D
330
2525D
100
AcDbEntity
  8
寸法
 62
     0
 48
50.0
370
    -2
100
AcDbBlockReference
  2
_DOTSMALL
 10
10565.6
 20
8274.60349461916
 30
0.0
 41
100.0
 42
100.0
 43
100.0
  0
INSERT
  5
2576E
330
2525D
100
AcDbEntity
  8
寸法
 62
     0
 48
50.0
370
    -2
100
AcDbBlockReference
  2
_DOTSMALL
 10
8105.600000000002
 20
8274.60349461916
 30
0.0
 41
100.0
 42
100.0
 43
100.0
 50
180.0
  0
MTEXT
  5
2576F
330
2525D
100
AcDbEntity
  8
寸法
 62
     7
 48
50.0
100
AcDbMText
 10
9335.600000000003
 20
8374.615305642782
 30
0.0
 40
120.0
 41
0.0
 71
     5
 72
     1
  1
\A1;2460
  7
STYLE1
 73
     1
 44
1.0
1001
ACAD
1000
MTEXTBEGIN
1070
    73
1070
     1
1070
    44
1040
1.0
1070
    74
1070
     0
1000
MTEXTEND
  0
POINT
  5
25770
330
2525D
100
AcDbEntity
  8
DEFPOINTS
 62
     0
 48
50.0
100
AcDbPoint
 10
10565.6
 20
7475.33703652525
 30
0.0
  0
POINT
  5
25771
330
2525D
100
AcDbEntity
  8
DEFPOINTS
 62
     0
 48
50.0
100
AcDbPoint
 10
8105.600000000002
 20
7475.33703652525
 30
0.0
  0
POINT
  5
25772
330
2525D
100
AcDbEntity
  8
DEFPOINTS
 62
     0
 48
50.0
100
AcDbPoint
 10
8105.600000000002
 20
8274.60349461916
 30
0.0
  0
ENDBLK
  5
25268
330
2525D
100
AcDbEntity
  8
0
 48
50.0
100
AcDbBlockEnd
  0
BLOCK
  5
25272
330
25269
100
AcDbEntity
  8
0
 48
50.0
100
AcDbBlockBegin
  2
*D30
 70
     1
 10
0.0
 20
0.0
 30
0.0
  3
*D30
  1

  0
LINE
  5
25980
330
25269
100
AcDbEntity
  8
寸法
 62
     0
 48
50.0
370
    -2
100
AcDbLine
 10
7403.60000000001
 20
6888.337036525249
 30
0.0
 11
7403.60000000001
 21
8090.945853195497
 31
0.0
  0
LINE
  5
25981
330
25269
100
AcDbEntity
  8
寸法
 62
     0
 48
50.0
370
    -2
100
AcDbLine
 10
6583.600000000008
 20
6885.337036525249
 30
0.0
 11
6583.600000000008
 21
8090.945853195497
 31
0.0
  0
LINE
  5
25982
330
25269
100
AcDbEntity
  8
寸法
 62
     0
 48
50.0
370
    -2
100
AcDbLine
 10
7403.60000000001
 20
8030.945853195497
 30
0.0
 11
6583.600000000008
 21
8030.945853195497
 31
0.0
  0
INSERT
  5
25983
330
25269
100
AcDbEntity
  8
寸法
 62
     0
 48
50.0
370
    -2
100
AcDbBlockReference
  2
_DOTSMALL
 10
7403.60000000001
 20
8030.945853195497
 30
0.0
 41
100.0
 42
100.0
 43
100.0
  0
INSERT
  5
25984
330
25269
100
AcDbEntity
  8
寸法
 62
     0
 48
50.0
370
    -2
100
AcDbBlockReference
  2
_DOTSMALL
 10
6583.600000000008
 20
8030.945853195497
 30
0.0
 41
100.0
 42
100.0
 43
100.0
 50
180.0
  0
MTEXT
  5
25985
330
25269
100
AcDbEntity
  8
寸法
 62
     7
 48
50.0
100
AcDbMText
 10
6993.600000000009
 20
8130.957664219119
 30
0.0
 40
120.0
 41
0.0
 71
     5
 72
     1
  1
\A1;820
  7
STYLE1
 73
     1
 44
1.0
1001
ACAD
1000
MTEXTBEGIN
1070
    73
1070
     1
1070
    44
1040
1.0
1070
    74
1070
     0
1000
MTEXTEND
  0
POINT
  5
25986
330
25269
100
AcDbEntity
  8
DEFPOINTS
 62
     0
 48
50.0
100
AcDbPoint
 10
7403.60000000001
 20
6868.337036525248
 30
0.0
  0
POINT
  5
25987
330
25269
100
AcDbEntity
  8
DEFPOINTS
 62
     0
 48
50.0
100
AcDbPoint
 10
6583.600000000008
 20
6865.337036525248
 30
0.0
  0
POINT
  5
25988
330
25269
100
AcDbEntity
  8
DEFPOINTS
 62
     0
 48
50.0
100
AcDbPoint
 10
6583.600000000008
 20
8030.945853195497
 30
0.0
  0
ENDBLK
  5
25273
330
25269
100
AcDbEntity
  8
0
 48
50.0
100
AcDbBlockEnd
  0
BLOCK
  5
2527E
330
25274
100
AcDbEntity
  8
0
 48
50.0
100
AcDbBlockBegin
  2
*D31
 70
     1
 10
0.0
 20
0.0
 30
0.0
  3
*D31
  1

  0
LINE
  5
25992
330
25274
100
AcDbEntity
  8
寸法
 62
     0
 48
50.0
370
    -2
100
AcDbLine
 10
6513.600000000008
 20
6815.337036525249
 30
0.0
 11
6181.285990614302
 21
6815.337036525249
 31
0.0
  0
LINE
  5
25993
330
25274
100
AcDbEntity
  8
寸法
 62
     0
 48
50.0
370
    -2
100
AcDbLine
 10
6312.765475140901
 20
7548.337036525248
 30
0.0
 11
6181.285990614302
 21
7548.337036525248
 31
0.0
  0
LINE
  5
25994
330
25274
100
AcDbEntity
  8
寸法
 62
     0
 48
50.0
370
    -2
100
AcDbLine
 10
6241.285990614302
 20
6815.337036525249
 30
0.0
 11
6241.285990614302
 21
7548.337036525248
 31
0.0
  0
INSERT
  5
25995
330
25274
100
AcDbEntity
  8
寸法
 62
     0
 48
50.0
370
    -2
100
AcDbBlockReference
  2
_DOTSMALL
 10
6241.285990614302
 20
6815.337036525249
 30
0.0
 41
100.0
 42
100.0
 43
100.0
 50
270.0
  0
INSERT
  5
25996
330
25274
100
AcDbEntity
  8
寸法
 62
     0
 48
50.0
370
    -2
100
AcDbBlockReference
  2
_DOTSMALL
 10
6241.285990614302
 20
7548.337036525248
 30
0.0
 41
100.0
 42
100.0
 43
100.0
 50
90.0
  0
MTEXT
  5
25997
330
25274
100
AcDbEntity
  8
寸法
 62
     7
 48
50.0
100
AcDbMText
 10
6141.2859906143
 20
7107.931827219426
 30
0.0
 40
120.0
 41
0.0
 71
     5
 72
     1
  1
\A1;733
  7
STYLE1
 11
0.0000000000000001
 21
1.0
 31
0.0
 73
     1
 44
1.0
1001
ACAD
1000
MTEXTBEGIN
1070
    73
1070
     1
1070
    44
1040
1.0
1070
    74
1070
     0
1000
MTEXTEND
  0
POINT
  5
25998
330
25274
100
AcDbEntity
  8
DEFPOINTS
 62
     0
 48
50.0
100
AcDbPoint
 10
6533.600000000008
 20
6815.337036525249
 30
0.0
  0
POINT
  5
25999
330
25274
100
AcDbEntity
  8
DEFPOINTS
 62
     0
 48
50.0
100
AcDbPoint
 10
6332.765475140901
 20
7548.337036525248
 30
0.0
  0
POINT
  5
2599A
330
25274
100
AcDbEntity
  8
DEFPOINTS
 62
     0
 48
50.0
100
AcDbPoint
 10
6241.285990614302
 20
7548.337036525248
 30
0.0
  0
ENDBLK
  5
2527F
330
25274
100
AcDbEntity
  8
0
 48
50.0
100
AcDbBlockEnd
  0
BLOCK
  5
2528A
330
25280
100
AcDbEntity
  8
0
 48
50.0
100
AcDbBlockBegin
  2
*D32
 70
     1
 10
0.0
 20
0.0
 30
0.0
  3
*D32
  1

  0
LINE
  5
25977
330
25280
100
AcDbEntity
  8
寸法
 62
     0
 48
50.0
370
    -2
100
AcDbLine
 10
6583.600000000008
 20
6885.337036525249
 30
0.0
 11
6583.600000000008
 21
8090.945853195497
 31
0.0
  0
LINE
  5
25978
330
25280
100
AcDbEntity
  8
寸法
 62
     0
 48
50.0
370
    -2
100
AcDbLine
 10
5758.600000000001
 20
7568.337036525249
 30
0.0
 11
5758.600000000001
 21
8090.945853195497
 31
0.0
  0
LINE
  5
25979
330
25280
100
AcDbEntity
  8
寸法
 62
     0
 48
50.0
370
    -2
100
AcDbLine
 10
6583.600000000008
 20
8030.945853195497
 30
0.0
 11
5758.600000000001
 21
8030.945853195497
 31
0.0
  0
INSERT
  5
2597A
330
25280
100
AcDbEntity
  8
寸法
 62
     0
 48
50.0
370
    -2
100
AcDbBlockReference
  2
_DOTSMALL
 10
6583.600000000008
 20
8030.945853195497
 30
0.0
 41
100.0
 42
100.0
 43
100.0
  0
INSERT
  5
2597B
330
25280
100
AcDbEntity
  8
寸法
 62
     0
 48
50.0
370
    -2
100
AcDbBlockReference
  2
_DOTSMALL
 10
5758.600000000001
 20
8030.945853195497
 30
0.0
 41
100.0
 42
100.0
 43
100.0
 50
180.0
  0
MTEXT
  5
2597C
330
25280
100
AcDbEntity
  8
寸法
 62
     7
 48
50.0
100
AcDbMText
 10
6171.100000000004
 20
8130.957664219119
 30
0.0
 40
120.0
 41
0.0
 71
     5
 72
     1
  1
\A1;825
  7
STYLE1
 73
     1
 44
1.0
1001
ACAD
1000
MTEXTBEGIN
1070
    73
1070
     1
1070
    44
1040
1.0
1070
    74
1070
     0
1000
MTEXTEND
  0
POINT
  5
2597D
330
25280
100
AcDbEntity
  8
DEFPOINTS
 62
     0
 48
50.0
100
AcDbPoint
 10
6583.600000000008
 20
6865.337036525248
 30
0.0
  0
POINT
  5
2597E
330
25280
100
AcDbEntity
  8
DEFPOINTS
 62
     0
 48
50.0
100
AcDbPoint
 10
5758.600000000001
 20
7548.337036525248
 30
0.0
  0
POINT
  5
2597F
330
25280
100
AcDbEntity
  8
DEFPOINTS
 62
     0
 48
50.0
100
AcDbPoint
 10
5758.600000000001
 20
8030.945853195497
 30
0.0
  0
ENDBLK
  5
2528B
330
25280
100
AcDbEntity
  8
0
 48
50.0
100
AcDbBlockEnd
  0
BLOCK
  5
25295
330
2528C
100
AcDbEntity
  8
0
 48
50.0
100
AcDbBlockBegin
  2
*D33
 70
     1
 10
0.0
 20
0.0
 30
0.0
  3
*D33
  1

  0
LINE
  5
2596E
330
2528C
100
AcDbEntity
  8
寸法
 62
     0
 48
50.0
370
    -2
100
AcDbLine
 10
8223.60000000001
 20
6885.337036525249
 30
0.0
 11
8223.60000000001
 21
8090.945853195497
 31
0.0
  0
LINE
  5
2596F
330
2528C
100
AcDbEntity
  8
寸法
 62
     0
 48
50.0
370
    -2
100
AcDbLine
 10
7403.600000000007
 20
6888.337036525249
 30
0.0
 11
7403.600000000007
 21
8090.945853195497
 31
0.0
  0
LINE
  5
25970
330
2528C
100
AcDbEntity
  8
寸法
 62
     0
 48
50.0
370
    -2
100
AcDbLine
 10
8223.60000000001
 20
8030.945853195497
 30
0.0
 11
7403.600000000007
 21
8030.945853195497
 31
0.0
  0
INSERT
  5
25971
330
2528C
100
AcDbEntity
  8
寸法
 62
     0
 48
50.0
370
    -2
100
AcDbBlockReference
  2
_DOTSMALL
 10
8223.60000000001
 20
8030.945853195497
 30
0.0
 41
100.0
 42
100.0
 43
100.0
  0
INSERT
  5
25972
330
2528C
100
AcDbEntity
  8
寸法
 62
     0
 48
50.0
370
    -2
100
AcDbBlockReference
  2
_DOTSMALL
 10
7403.600000000007
 20
8030.945853195497
 30
0.0
 41
100.0
 42
100.0
 43
100.0
 50
180.0
  0
MTEXT
  5
25973
330
2528C
100
AcDbEntity
  8
寸法
 62
     7
 48
50.0
100
AcDbMText
 10
7813.600000000008
 20
8130.957664219119
 30
0.0
 40
120.0
 41
0.0
 71
     5
 72
     1
  1
\A1;820
  7
STYLE1
 73
     1
 44
1.0
1001
ACAD
1000
MTEXTBEGIN
1070
    73
1070
     1
1070
    44
1040
1.0
1070
    74
1070
     0
1000
MTEXTEND
  0
POINT
  5
25974
330
2528C
100
AcDbEntity
  8
DEFPOINTS
 62
     0
 48
50.0
100
AcDbPoint
 10
8223.60000000001
 20
6865.337036525248
 30
0.0
  0
POINT
  5
25975
330
2528C
100
AcDbEntity
  8
DEFPOINTS
 62
     0
 48
50.0
100
AcDbPoint
 10
7403.600000000007
 20
6868.337036525248
 30
0.0
  0
POINT
  5
25976
330
2528C
100
AcDbEntity
  8
DEFPOINTS
 62
     0
 48
50.0
100
AcDbPoint
 10
7403.600000000007
 20
8030.945853195497
 30
0.0
  0
ENDBLK
  5
25296
330
2528C
100
AcDbEntity
  8
0
 48
50.0
100
AcDbBlockEnd
  0
BLOCK
  5
252A1
330
25297
100
AcDbEntity
  8
0
 48
50.0
100
AcDbBlockBegin
  2
*D34
 70
     1
 10
0.0
 20
0.0
 30
0.0
  3
*D34
  1

  0
LINE
  5
2591B
330
25297
100
AcDbEntity
  8
寸法
 62
     0
 48
50.0
370
    -2
100
AcDbLine
 10
5811.600000000001
 20
7425.337036525249
 30
0.0
 11
5075.665006330073
 21
7425.337036525249
 31
0.0
  0
LINE
  5
2591C
330
25297
100
AcDbEntity
  8
寸法
 62
     0
 48
50.0
370
    -2
100
AcDbLine
 10
5811.600000000008
 20
6206.337036525252
 30
0.0
 11
5075.665006330073
 21
6206.337036525252
 31
0.0
  0
LINE
  5
2591D
330
25297
100
AcDbEntity
  8
寸法
 62
     0
 48
50.0
370
    -2
100
AcDbLine
 10
5135.665006330073
 20
7425.337036525249
 30
0.0
 11
5135.665006330073
 21
6206.337036525252
 31
0.0
  0
INSERT
  5
2591E
330
25297
100
AcDbEntity
  8
寸法
 62
     0
 48
50.0
370
    -2
100
AcDbBlockReference
  2
_DOTSMALL
 10
5135.665006330073
 20
7425.337036525249
 30
0.0
 41
100.0
 42
100.0
 43
100.0
 50
90.0
  0
INSERT
  5
2591F
330
25297
100
AcDbEntity
  8
寸法
 62
     0
 48
50.0
370
    -2
100
AcDbBlockReference
  2
_DOTSMALL
 10
5135.665006330073
 20
6206.337036525252
 30
0.0
 41
100.0
 42
100.0
 43
100.0
 50
270.0
  0
MTEXT
  5
25920
330
25297
100
AcDbEntity
  8
寸法
 62
     7
 48
50.0
100
AcDbMText
 10
5035.65319530645
 20
6815.837036525248
 30
0.0
 40
120.0
 41
0.0
 71
     5
 72
     1
  1
\A1;1219
  7
STYLE1
 11
0.0000000000000001
 21
1.0
 31
0.0
 73
     1
 44
1.0
1001
ACAD
1000
MTEXTBEGIN
1070
    73
1070
     1
1070
    44
1040
1.0
1070
    74
1070
     0
1000
MTEXTEND
  0
POINT
  5
25921
330
25297
100
AcDbEntity
  8
DEFPOINTS
 62
     0
 48
50.0
100
AcDbPoint
 10
5831.6
 20
7425.337036525249
 30
0.0
  0
POINT
  5
25922
330
25297
100
AcDbEntity
  8
DEFPOINTS
 62
     0
 48
50.0
100
AcDbPoint
 10
5831.600000000008
 20
6206.337036525252
 30
0.0
  0
POINT
  5
25923
330
25297
100
AcDbEntity
  8
DEFPOINTS
 62
     0
 48
50.0
100
AcDbPoint
 10
5135.665006330073
 20
6206.337036525252
 30
0.0
  0
ENDBLK
  5
252A2
330
25297
100
AcDbEntity
  8
0
 48
50.0
100
AcDbBlockEnd
  0
BLOCK
  5
252AD
330
252A3
100
AcDbEntity
  8
0
 48
50.0
100
AcDbBlockBegin
  2
*D35
 70
     1
 10
0.0
 20
0.0
 30
0.0
  3
*D35
  1

  0
LINE
  5
2578F
330
252A3
100
AcDbEntity
  8
寸法
 62
     0
 48
50.0
370
    -2
100
AcDbLine
 10
5738.6
 20
7548.337036525248
 30
0.0
 11
4823.721909610675
 21
7548.337036525248
 31
0.0
  0
LINE
  5
25790
330
252A3
100
AcDbEntity
  8
寸法
 62
     0
 48
50.0
370
    -2
100
AcDbLine
 10
5738.6
 20
6008.337036525248
 30
0.0
 11
4823.721909610674
 21
6008.337036525248
 31
0.0
  0
LINE
  5
25791
330
252A3
100
AcDbEntity
  8
寸法
 62
     0
 48
50.0
370
    -2
100
AcDbLine
 10
4883.721909610675
 20
7548.337036525248
 30
0.0
 11
4883.721909610674
 21
6008.337036525248
 31
0.0
  0
INSERT
  5
25792
330
252A3
100
AcDbEntity
  8
寸法
 62
     0
 48
50.0
370
    -2
100
AcDbBlockReference
  2
_DOTSMALL
 10
4883.721909610675
 20
7548.337036525248
 30
0.0
 41
100.0
 42
100.0
 43
100.0
 50
90.0
  0
INSERT
  5
25793
330
252A3
100
AcDbEntity
  8
寸法
 62
     0
 48
50.0
370
    -2
100
AcDbBlockReference
  2
_DOTSMALL
 10
4883.721909610674
 20
6008.337036525248
 30
0.0
 41
100.0
 42
100.0
 43
100.0
 50
270.0
  0
MTEXT
  5
25794
330
252A3
100
AcDbEntity
  8
寸法
 62
     7
 48
50.0
100
AcDbMText
 10
4783.721909610672
 20
6815.837036525248
 30
0.0
 40
120.0
 41
0.0
 71
     5
 72
     1
  1
\A1;1540
  7
STYLE1
 11
0.0000000000000001
 21
1.0
 31
0.0
 73
     1
 44
1.0
1001
ACAD
1000
MTEXTBEGIN
1070
    73
1070
     1
1070
    44
1040
1.0
1070
    74
1070
     0
1000
MTEXTEND
  0
POINT
  5
25795
330
252A3
100
AcDbEntity
  8
DEFPOINTS
 62
     0
 48
50.0
100
AcDbPoint
 10
5758.600000000001
 20
7548.337036525248
 30
0.0
  0
POINT
  5
25796
330
252A3
100
AcDbEntity
  8
DEFPOINTS
 62
     0
 48
50.0
100
AcDbPoint
 10
5758.600000000001
 20
6008.337036525248
 30
0.0
  0
POINT
  5
25797
330
252A3
100
AcDbEntity
  8
DEFPOINTS
 62
     0
 48
50.0
100
AcDbPoint
 10
4883.721909610674
 20
6008.337036525248
 30
0.0
  0
ENDBLK
  5
252AE
330
252A3
100
AcDbEntity
  8
0
 48
50.0
100
AcDbBlockEnd
  0
BLOCK
  5
252C6
330
252BB
100
AcDbEntity
  8
0
 48
50.0
100
AcDbBlockBegin
  2
*D36
 70
     1
 10
0.0
 20
0.0
 30
0.0
  3
*D36
  1

  0
LINE
  5
25911
330
252BB
100
AcDbEntity
  8
寸法
 62
     0
 48
50.0
370
    -2
100
AcDbLine
 10
5811.600000000008
 20
6206.337036525252
 30
0.0
 11
5075.665006330073
 21
6206.337036525252
 31
0.0
  0
LINE
  5
25912
330
252BB
100
AcDbEntity
  8
寸法
 62
     0
 48
50.0
370
    -2
100
AcDbLine
 10
5738.6
 20
6008.337036525248
 30
0.0
 11
5075.665006330073
 21
6008.337036525248
 31
0.0
  0
LINE
  5
25913
330
252BB
100
AcDbEntity
  8
寸法
 62
     0
 48
50.0
370
    -2
100
AcDbLine
 10
5135.665006330073
 20
6206.337036525252
 30
0.0
 11
5135.665006330071
 21
6008.337036525248
 31
0.0
  0
LINE
  5
25914
330
252BB
100
AcDbEntity
  8
寸法
 62
     0
 48
50.0
370
    -2
100
AcDbLine
 10
5135.665006330071
 20
6008.337036525248
 30
0.0
 11
5135.665006330071
 21
5536.596427852999
 31
0.0
  0
INSERT
  5
25915
330
252BB
100
AcDbEntity
  8
寸法
 62
     0
 48
50.0
370
    -2
100
AcDbBlockReference
  2
_DOTSMALL
 10
5135.665006330073
 20
6206.337036525252
 30
0.0
 41
100.0
 42
100.0
 43
100.0
 50
90.0
  0
INSERT
  5
25916
330
252BB
100
AcDbEntity
  8
寸法
 62
     0
 48
50.0
370
    -2
100
AcDbBlockReference
  2
_DOTSMALL
 10
5135.665006330071
 20
6008.337036525248
 30
0.0
 41
100.0
 42
100.0
 43
100.0
 50
270.0
  0
MTEXT
  5
25917
330
252BB
100
AcDbEntity
  8
寸法
 62
     7
 48
50.0
100
AcDbMText
 10
5035.665006330071
 20
5672.806087682657
 30
0.0
 40
120.0
 41
0.0
 71
     5
 72
     1
  1
\A1;198
  7
STYLE1
 11
0.0000000000000001
 21
1.0
 31
0.0
 73
     1
 44
1.0
1001
ACAD
1000
MTEXTBEGIN
1070
    73
1070
     1
1070
    44
1040
1.0
1070
    74
1070
     0
1000
MTEXTEND
  0
POINT
  5
25918
330
252BB
100
AcDbEntity
  8
DEFPOINTS
 62
     0
 48
50.0
100
AcDbPoint
 10
5831.600000000008
 20
6206.337036525252
 30
0.0
  0
POINT
  5
25919
330
252BB
100
AcDbEntity
  8
DEFPOINTS
 62
     0
 48
50.0
100
AcDbPoint
 10
5758.600000000001
 20
6008.337036525248
 30
0.0
  0
POINT
  5
2591A
330
252BB
100
AcDbEntity
  8
DEFPOINTS
 62
     0
 48
50.0
100
AcDbPoint
 10
5135.665006330071
 20
6008.337036525248
 30
0.0
  0
ENDBLK
  5
252C7
330
252BB
100
AcDbEntity
  8
0
 48
50.0
100
AcDbBlockEnd
  0
BLOCK
  5
252D3
330
252C8
100
AcDbEntity
  8
0
 48
50.0
100
AcDbBlockBegin
  2
*D37
 70
     1
 10
0.0
 20
0.0
 30
0.0
  3
*D37
  1

  0
LINE
  5
25A08
330
252C8
100
AcDbEntity
  8
寸法
 62
     0
 48
50.0
370
    -2
100
AcDbLine
 10
7893.600000000019
 20
6288.337036525254
 30
0.0
 11
7716.819725318592
 21
6288.337036525254
 31
0.0
  0
LINE
  5
25A09
330
252C8
100
AcDbEntity
  8
寸法
 62
     0
 48
50.0
370
    -2
100
AcDbLine
 10
7893.600000000022
 20
6008.337036525254
 30
0.0
 11
7716.819725318591
 21
6008.337036525254
 31
0.0
  0
LINE
  5
25A0A
330
252C8
100
AcDbEntity
  8
寸法
 62
     0
 48
50.0
370
    -2
100
AcDbLine
 10
7776.819725318592
 20
6288.337036525254
 30
0.0
 11
7776.81972531859
 21
6008.337036525254
 31
0.0
  0
LINE
  5
25A0B
330
252C8
100
AcDbEntity
  8
寸法
 62
     0
 48
50.0
370
    -2
100
AcDbLine
 10
7776.81972531859
 20
6008.337036525254
 30
0.0
 11
7776.81972531859
 21
5571.802587706339
 31
0.0
  0
INSERT
  5
25A0C
330
252C8
100
AcDbEntity
  8
寸法
 62
     0
 48
50.0
370
    -2
100
AcDbBlockReference
  2
_DOTSMALL
 10
7776.819725318592
 20
6288.337036525254
 30
0.0
 41
100.0
 42
100.0
 43
100.0
 50
90.0
  0
INSERT
  5
25A0D
330
252C8
100
AcDbEntity
  8
寸法
 62
     0
 48
50.0
370
    -2
100
AcDbBlockReference
  2
_DOTSMALL
 10
7776.81972531859
 20
6008.337036525254
 30
0.0
 41
100.0
 42
100.0
 43
100.0
 50
270.0
  0
MTEXT
  5
25A0E
330
252C8
100
AcDbEntity
  8
寸法
 62
     7
 48
50.0
100
AcDbMText
 10
7676.807914294968
 20
5721.373453848073
 30
0.0
 40
120.0
 41
0.0
 71
     5
 72
     1
  1
\A1;280
  7
STYLE1
 11
0.0000000000000001
 21
1.0
 31
0.0
 73
     1
 44
1.0
1001
ACAD
1000
MTEXTBEGIN
1070
    73
1070
     1
1070
    44
1040
1.0
1070
    74
1070
     0
1000
MTEXTEND
  0
POINT
  5
25A0F
330
252C8
100
AcDbEntity
  8
DEFPOINTS
 62
     0
 48
50.0
100
AcDbPoint
 10
7913.600000000018
 20
6288.337036525254
 30
0.0
  0
POINT
  5
25A10
330
252C8
100
AcDbEntity
  8
DEFPOINTS
 62
     0
 48
50.0
100
AcDbPoint
 10
7913.600000000022
 20
6008.337036525254
 30
0.0
  0
POINT
  5
25A11
330
252C8
100
AcDbEntity
  8
DEFPOINTS
 62
     0
 48
50.0
100
AcDbPoint
 10
7776.81972531859
 20
6008.337036525254
 30
0.0
  0
ENDBLK
  5
252D4
330
252C8
100
AcDbEntity
  8
0
 48
50.0
100
AcDbBlockEnd
  0
BLOCK
  5
252DF
330
252D5
100
AcDbEntity
  8
0
 48
50.0
100
AcDbBlockBegin
  2
*D38
 70
     1
 10
0.0
 20
0.0
 30
0.0
  3
*D38
  1

  0
LINE
  5
257A1
330
252D5
100
AcDbEntity
  8
寸法
 62
     0
 48
50.0
370
    -2
100
AcDbLine
 10
5738.600000000004
 20
6008.337036525245
 30
0.0
 11
5585.512673767881
 21
6008.337036525245
 31
0.0
  0
LINE
  5
257A2
330
252D5
100
AcDbEntity
  8
寸法
 62
     0
 48
50.0
370
    -2
100
AcDbLine
 10
6094.325326928809
 20
5288.337036525245
 30
0.0
 11
5585.512673767881
 21
5288.337036525245
 31
0.0
  0
LINE
  5
257A3
330
252D5
100
AcDbEntity
  8
寸法
 62
     0
 48
50.0
370
    -2
100
AcDbLine
 10
5645.512673767881
 20
6008.337036525245
 30
0.0
 11
5645.512673767881
 21
5288.337036525245
 31
0.0
  0
INSERT
  5
257A4
330
252D5
100
AcDbEntity
  8
寸法
 62
     0
 48
50.0
370
    -2
100
AcDbBlockReference
  2
_DOTSMALL
 10
5645.512673767881
 20
6008.337036525245
 30
0.0
 41
100.0
 42
100.0
 43
100.0
 50
90.0
  0
INSERT
  5
257A5
330
252D5
100
AcDbEntity
  8
寸法
 62
     0
 48
50.0
370
    -2
100
AcDbBlockReference
  2
_DOTSMALL
 10
5645.512673767881
 20
5288.337036525245
 30
0.0
 41
100.0
 42
100.0
 43
100.0
 50
270.0
  0
MTEXT
  5
257A6
330
252D5
100
AcDbEntity
  8
寸法
 62
     7
 48
50.0
100
AcDbMText
 10
5545.500862744258
 20
5648.337036525246
 30
0.0
 40
120.0
 41
0.0
 71
     5
 72
     1
  1
\A1;扉の出720
  7
STYLE1
 11
0.0000000000000001
 21
1.0
 31
0.0
 73
     1
 44
1.0
1001
ACAD
1000
MTEXTBEGIN
1070
    73
1070
     1
1070
    44
1040
1.0
1070
    74
1070
     0
1000
MTEXTEND
  0
POINT
  5
257A7
330
252D5
100
AcDbEntity
  8
DEFPOINTS
 62
     0
 48
50.0
100
AcDbPoint
 10
5758.600000000004
 20
6008.337036525245
 30
0.0
  0
POINT
  5
257A8
330
252D5
100
AcDbEntity
  8
DEFPOINTS
 62
     0
 48
50.0
100
AcDbPoint
 10
6114.325326928809
 20
5288.337036525245
 30
0.0
  0
POINT
  5
257A9
330
252D5
100
AcDbEntity
  8
DEFPOINTS
 62
     0
 48
50.0
100
AcDbPoint
 10
5645.512673767881
 20
5288.337036525245
 30
0.0
  0
ENDBLK
  5
252E0
330
252D5
100
AcDbEntity
  8
0
 48
50.0
100
AcDbBlockEnd
  0
BLOCK
  5
252EB
330
252E1
100
AcDbEntity
  8
0
 48
50.0
100
AcDbBlockBegin
  2
*D39
 70
     1
 10
0.0
 20
0.0
 30
0.0
  3
*D39
  1

  0
LINE
  5
25989
330
252E1
100
AcDbEntity
  8
寸法
 62
     0
 48
50.0
370
    -2
100
AcDbLine
 10
6312.765475140901
 20
6008.33703652526
 30
0.0
 11
6181.285990614301
 21
6008.33703652526
 31
0.0
  0
LINE
  5
2598A
330
252E1
100
AcDbEntity
  8
寸法
 62
     0
 48
50.0
370
    -2
100
AcDbLine
 10
6513.600000000008
 20
6815.337036525249
 30
0.0
 11
6181.285990614302
 21
6815.337036525249
 31
0.0
  0
LINE
  5
2598B
330
252E1
100
AcDbEntity
  8
寸法
 62
     0
 48
50.0
370
    -2
100
AcDbLine
 10
6241.285990614301
 20
6008.33703652526
 30
0.0
 11
6241.285990614302
 21
6815.337036525249
 31
0.0
  0
INSERT
  5
2598C
330
252E1
100
AcDbEntity
  8
寸法
 62
     0
 48
50.0
370
    -2
100
AcDbBlockReference
  2
_DOTSMALL
 10
6241.285990614301
 20
6008.33703652526
 30
0.0
 41
100.0
 42
100.0
 43
100.0
 50
270.0
  0
INSERT
  5
2598D
330
252E1
100
AcDbEntity
  8
寸法
 62
     0
 48
50.0
370
    -2
100
AcDbBlockReference
  2
_DOTSMALL
 10
6241.285990614302
 20
6815.337036525249
 30
0.0
 41
100.0
 42
100.0
 43
100.0
 50
90.0
  0
MTEXT
  5
2598E
330
252E1
100
AcDbEntity
  8
寸法
 62
     7
 48
50.0
100
AcDbMText
 10
6141.2859906143
 20
6493.337036525248
 30
0.0
 40
120.0
 41
0.0
 71
     5
 72
     1
  1
\A1;807
  7
STYLE1
 11
0.0000000000000001
 21
1.0
 31
0.0
 73
     1
 44
1.0
1001
ACAD
1000
MTEXTBEGIN
1070
    73
1070
     1
1070
    44
1040
1.0
1070
    74
1070
     0
1000
MTEXTEND
  0
POINT
  5
2598F
330
252E1
100
AcDbEntity
  8
DEFPOINTS
 62
     0
 48
50.0
100
AcDbPoint
 10
6332.765475140901
 20
6008.33703652526
 30
0.0
  0
POINT
  5
25990
330
252E1
100
AcDbEntity
  8
DEFPOINTS
 62
     0
 48
50.0
100
AcDbPoint
 10
6533.600000000008
 20
6815.337036525249
 30
0.0
  0
POINT
  5
25991
330
252E1
100
AcDbEntity
  8
DEFPOINTS
 62
     0
 48
50.0
100
AcDbPoint
 10
6241.285990614302
 20
6815.337036525249
 30
0.0
  0
ENDBLK
  5
252EC
330
252E1
100
AcDbEntity
  8
0
 48
50.0
100
AcDbBlockEnd
  0
BLOCK
  5
252F8
330
252ED
100
AcDbEntity
  8
0
 48
50.0
100
AcDbBlockBegin
  2
*D40
 70
     1
 10
0.0
 20
0.0
 30
0.0
  3
*D40
  1

  0
LINE
  5
25745
330
252ED
100
AcDbEntity
  8
寸法
 62
     0
 48
50.0
370
    -2
100
AcDbLine
 10
5738.6
 20
7548.337036525248
 30
0.0
 11
5075.665006330073
 21
7548.337036525248
 31
0.0
  0
LINE
  5
25746
330
252ED
100
AcDbEntity
  8
寸法
 62
     0
 48
50.0
370
    -2
100
AcDbLine
 10
5811.600000000001
 20
7425.337036525249
 30
0.0
 11
5075.665006330073
 21
7425.337036525249
 31
0.0
  0
LINE
  5
25747
330
252ED
100
AcDbEntity
  8
寸法
 62
     0
 48
50.0
370
    -2
100
AcDbLine
 10
5135.665006330071
 20
7425.337036525249
 30
0.0
 11
5135.665006330071
 21
7548.337036525248
 31
0.0
  0
LINE
  5
25748
330
252ED
100
AcDbEntity
  8
寸法
 62
     0
 48
50.0
370
    -2
100
AcDbLine
 10
5135.665006330071
 20
7548.337036525248
 30
0.0
 11
5135.665006330071
 21
7959.928919617287
 31
0.0
  0
INSERT
  5
25749
330
252ED
100
AcDbEntity
  8
寸法
 62
     0
 48
50.0
370
    -2
100
AcDbBlockReference
  2
_DOTSMALL
 10
5135.665006330071
 20
7425.337036525249
 30
0.0
 41
100.0
 42
100.0
 43
100.0
 50
270.0
  0
INSERT
  5
2574A
330
252ED
100
AcDbEntity
  8
寸法
 62
     0
 48
50.0
370
    -2
100
AcDbBlockReference
  2
_DOTSMALL
 10
5135.665006330071
 20
7548.337036525248
 30
0.0
 41
100.0
 42
100.0
 43
100.0
 50
90.0
  0
MTEXT
  5
2574B
330
252ED
100
AcDbEntity
  8
寸法
 62
     7
 48
50.0
100
AcDbMText
 10
5035.65319530645
 20
7821.443638243049
 30
0.0
 40
120.0
 41
0.0
 71
     5
 72
     1
  1
\A1;123
  7
STYLE1
 11
0.0000000000000001
 21
1.0
 31
0.0
 73
     1
 44
1.0
1001
ACAD
1000
MTEXTBEGIN
1070
    73
1070
     1
1070
    44
1040
1.0
1070
    74
1070
     0
1000
MTEXTEND
  0
POINT
  5
2574C
330
252ED
100
AcDbEntity
  8
DEFPOINTS
 62
     0
 48
50.0
100
AcDbPoint
 10
5758.600000000001
 20
7548.337036525248
 30
0.0
  0
POINT
  5
2574D
330
252ED
100
AcDbEntity
  8
DEFPOINTS
 62
     0
 48
50.0
100
AcDbPoint
 10
5831.6
 20
7425.337036525249
 30
0.0
  0
POINT
  5
2574E
330
252ED
100
AcDbEntity
  8
DEFPOINTS
 62
     0
 48
50.0
100
AcDbPoint
 10
5135.665006330071
 20
7425.337036525249
 30
0.0
  0
ENDBLK
  5
252F9
330
252ED
100
AcDbEntity
  8
0
 48
50.0
100
AcDbBlockEnd
  0
BLOCK
  5
2530D
330
25304
100
AcDbEntity
  8
0
 48
50.0
100
AcDbBlockBegin
  2
*D41
 70
     1
 10
0.0
 20
0.0
 30
0.0
  3
*D41
  1

  0
LINE
  5
2573C
330
25304
100
AcDbEntity
  8
寸法
 62
     0
 48
50.0
370
    -2
100
AcDbLine
 10
8105.600000000002
 20
7495.337036525248
 30
0.0
 11
8105.600000000002
 21
8334.603494619159
 31
0.0
  0
LINE
  5
2573D
330
25304
100
AcDbEntity
  8
寸法
 62
     0
 48
50.0
370
    -2
100
AcDbLine
 10
5881.6
 20
7495.337036525248
 30
0.0
 11
5881.6
 21
8334.603494619159
 31
0.0
  0
LINE
  5
2573E
330
25304
100
AcDbEntity
  8
寸法
 62
     0
 48
50.0
370
    -2
100
AcDbLine
 10
8105.600000000002
 20
8274.60349461916
 30
0.0
 11
5881.6
 21
8274.60349461916
 31
0.0
  0
INSERT
  5
2573F
330
25304
100
AcDbEntity
  8
寸法
 62
     0
 48
50.0
370
    -2
100
AcDbBlockReference
  2
_DOTSMALL
 10
8105.600000000002
 20
8274.60349461916
 30
0.0
 41
100.0
 42
100.0
 43
100.0
  0
INSERT
  5
25740
330
25304
100
AcDbEntity
  8
寸法
 62
     0
 48
50.0
370
    -2
100
AcDbBlockReference
  2
_DOTSMALL
 10
5881.6
 20
8274.60349461916
 30
0.0
 41
100.0
 42
100.0
 43
100.0
 50
180.0
  0
MTEXT
  5
25741
330
25304
100
AcDbEntity
  8
寸法
 62
     7
 48
50.0
100
AcDbMText
 10
6993.600000000002
 20
8374.615305642782
 30
0.0
 40
120.0
 41
0.0
 71
     5
 72
     1
  1
\A1;2224
  7
STYLE1
 73
     1
 44
1.0
1001
ACAD
1000
MTEXTBEGIN
1070
    73
1070
     1
1070
    44
1040
1.0
1070
    74
1070
     0
1000
MTEXTEND
  0
POINT
  5
25742
330
25304
100
AcDbEntity
  8
DEFPOINTS
 62
     0
 48
50.0
100
AcDbPoint
 10
8105.600000000002
 20
7475.33703652525
 30
0.0
  0
POINT
  5
25743
330
25304
100
AcDbEntity
  8
DEFPOINTS
 62
     0
 48
50.0
100
AcDbPoint
 10
5881.6
 20
7475.33703652525
 30
0.0
  0
POINT
  5
25744
330
25304
100
AcDbEntity
  8
DEFPOINTS
 62
     0
 48
50.0
100
AcDbPoint
 10
5881.6
 20
8274.60349461916
 30
0.0
  0
ENDBLK
  5
2530E
330
25304
100
AcDbEntity
  8
0
 48
50.0
100
AcDbBlockEnd
  0
BLOCK
  5
25327
330
2531C
100
AcDbEntity
  8
0
 48
50.0
100
AcDbBlockBegin
  2
*D42
 70
     1
 10
0.0
 20
0.0
 30
0.0
  3
*D42
  1

  0
LINE
  5
25732
330
2531C
100
AcDbEntity
  8
寸法
 62
     0
 48
50.0
370
    -2
100
AcDbLine
 10
5881.6
 20
7495.337036525248
 30
0.0
 11
5881.6
 21
8334.603494619159
 31
0.0
  0
LINE
  5
25733
330
2531C
100
AcDbEntity
  8
寸法
 62
     0
 48
50.0
370
    -2
100
AcDbLine
 10
5758.600000000001
 20
7568.337036525249
 30
0.0
 11
5758.600000000001
 21
8334.603494619159
 31
0.0
  0
LINE
  5
25734
330
2531C
100
AcDbEntity
  8
寸法
 62
     0
 48
50.0
370
    -2
100
AcDbLine
 10
5881.6
 20
8274.60349461916
 30
0.0
 11
5758.600000000001
 21
8274.60349461916
 31
0.0
  0
LINE
  5
25735
330
2531C
100
AcDbEntity
  8
寸法
 62
     0
 48
50.0
370
    -2
100
AcDbLine
 10
5758.600000000001
 20
8274.60349461916
 30
0.0
 11
5347.008116907963
 21
8274.60349461916
 31
0.0
  0
INSERT
  5
25736
330
2531C
100
AcDbEntity
  8
寸法
 62
     0
 48
50.0
370
    -2
100
AcDbBlockReference
  2
_DOTSMALL
 10
5881.6
 20
8274.60349461916
 30
0.0
 41
100.0
 42
100.0
 43
100.0
  0
INSERT
  5
25737
330
2531C
100
AcDbEntity
  8
寸法
 62
     0
 48
50.0
370
    -2
100
AcDbBlockReference
  2
_DOTSMALL
 10
5758.600000000001
 20
8274.60349461916
 30
0.0
 41
100.0
 42
100.0
 43
100.0
 50
180.0
  0
MTEXT
  5
25738
330
2531C
100
AcDbEntity
  8
寸法
 62
     7
 48
50.0
100
AcDbMText
 10
5485.493398282202
 20
8374.615305642782
 30
0.0
 40
120.0
 41
0.0
 71
     5
 72
     1
  1
\A1;123
  7
STYLE1
 73
     1
 44
1.0
1001
ACAD
1000
MTEXTBEGIN
1070
    73
1070
     1
1070
    44
1040
1.0
1070
    74
1070
     0
1000
MTEXTEND
  0
POINT
  5
25739
330
2531C
100
AcDbEntity
  8
DEFPOINTS
 62
     0
 48
50.0
100
AcDbPoint
 10
5881.6
 20
7475.33703652525
 30
0.0
  0
POINT
  5
2573A
330
2531C
100
AcDbEntity
  8
DEFPOINTS
 62
     0
 48
50.0
100
AcDbPoint
 10
5758.600000000001
 20
7548.337036525248
 30
0.0
  0
POINT
  5
2573B
330
2531C
100
AcDbEntity
  8
DEFPOINTS
 62
     0
 48
50.0
100
AcDbPoint
 10
5758.600000000001
 20
8274.60349461916
 30
0.0
  0
ENDBLK
  5
25328
330
2531C
100
AcDbEntity
  8
0
 48
50.0
100
AcDbBlockEnd
  0
BLOCK
  5
25334
330
25329
100
AcDbEntity
  8
0
 48
50.0
100
AcDbBlockBegin
  2
*D43
 70
     1
 10
0.0
 20
0.0
 30
0.0
  3
*D43
  1

  0
LINE
  5
25728
330
25329
100
AcDbEntity
  8
寸法
 62
     0
 48
50.0
370
    -2
100
AcDbLine
 10
7770.854682011649
 20
7548.337036525218
 30
0.0
 11
7836.819725318591
 21
7548.337036525218
 31
0.0
  0
LINE
  5
25729
330
25329
100
AcDbEntity
  8
寸法
 62
     0
 48
50.0
370
    -2
100
AcDbLine
 10
7770.854682011649
 20
7348.337036525219
 30
0.0
 11
7836.819725318591
 21
7348.337036525219
 31
0.0
  0
LINE
  5
2572A
330
25329
100
AcDbEntity
  8
寸法
 62
     0
 48
50.0
370
    -2
100
AcDbLine
 10
7776.81972531859
 20
7348.337036525219
 30
0.0
 11
7776.81972531859
 21
7548.337036525218
 31
0.0
  0
LINE
  5
2572B
330
25329
100
AcDbEntity
  8
寸法
 62
     0
 48
50.0
370
    -2
100
AcDbLine
 10
7776.81972531859
 20
7548.337036525218
 30
0.0
 11
7776.81972531859
 21
7984.871485344118
 31
0.0
  0
INSERT
  5
2572C
330
25329
100
AcDbEntity
  8
寸法
 62
     0
 48
50.0
370
    -2
100
AcDbBlockReference
  2
_DOTSMALL
 10
7776.81972531859
 20
7348.337036525219
 30
0.0
 41
100.0
 42
100.0
 43
100.0
 50
270.0
  0
INSERT
  5
2572D
330
25329
100
AcDbEntity
  8
寸法
 62
     0
 48
50.0
370
    -2
100
AcDbBlockReference
  2
_DOTSMALL
 10
7776.81972531859
 20
7548.337036525218
 30
0.0
 41
100.0
 42
100.0
 43
100.0
 50
90.0
  0
MTEXT
  5
2572E
330
25329
100
AcDbEntity
  8
寸法
 62
     7
 48
50.0
100
AcDbMText
 10
7676.807914294968
 20
7835.300619202385
 30
0.0
 40
120.0
 41
0.0
 71
     5
 72
     1
  1
\A1;200
  7
STYLE1
 11
0.0000000000000001
 21
1.0
 31
0.0
 73
     1
 44
1.0
1001
ACAD
1000
MTEXTBEGIN
1070
    73
1070
     1
1070
    44
1040
1.0
1070
    74
1070
     0
1000
MTEXTEND
  0
POINT
  5
2572F
330
25329
100
AcDbEntity
  8
DEFPOINTS
 62
     0
 48
50.0
100
AcDbPoint
 10
7750.854682011651
 20
7548.337036525218
 30
0.0
  0
POINT
  5
25730
330
25329
100
AcDbEntity
  8
DEFPOINTS
 62
     0
 48
50.0
100
AcDbPoint
 10
7750.854682011651
 20
7348.337036525219
 30
0.0
  0
POINT
  5
25731
330
25329
100
AcDbEntity
  8
DEFPOINTS
 62
     0
 48
50.0
100
AcDbPoint
 10
7776.81972531859
 20
7348.337036525219
 30
0.0
  0
ENDBLK
  5
25335
330
25329
100
AcDbEntity
  8
0
 48
50.0
100
AcDbBlockEnd
  0
BLOCK
  5
25340
330
25336
100
AcDbEntity
  8
0
 48
50.0
100
AcDbBlockBegin
  2
*D44
 70
     1
 10
0.0
 20
0.0
 30
0.0
  3
*D44
  1

  0
LINE
  5
25938
330
25336
100
AcDbEntity
  8
寸法
 62
     0
 48
50.0
370
    -2
100
AcDbLine
 10
10688.6
 20
7568.337036525249
 30
0.0
 11
10688.6
 21
8090.945853195497
 31
0.0
  0
LINE
  5
25939
330
25336
100
AcDbEntity
  8
寸法
 62
     0
 48
50.0
370
    -2
100
AcDbLine
 10
9863.60000000001
 20
6885.337036525249
 30
0.0
 11
9863.60000000001
 21
8090.945853195497
 31
0.0
  0
LINE
  5
2593A
330
25336
100
AcDbEntity
  8
寸法
 62
     0
 48
50.0
370
    -2
100
AcDbLine
 10
10688.6
 20
8030.945853195497
 30
0.0
 11
9863.60000000001
 21
8030.945853195497
 31
0.0
  0
INSERT
  5
2593B
330
25336
100
AcDbEntity
  8
寸法
 62
     0
 48
50.0
370
    -2
100
AcDbBlockReference
  2
_DOTSMALL
 10
10688.6
 20
8030.945853195497
 30
0.0
 41
100.0
 42
100.0
 43
100.0
  0
INSERT
  5
2593C
330
25336
100
AcDbEntity
  8
寸法
 62
     0
 48
50.0
370
    -2
100
AcDbBlockReference
  2
_DOTSMALL
 10
9863.60000000001
 20
8030.945853195497
 30
0.0
 41
100.0
 42
100.0
 43
100.0
 50
180.0
  0
MTEXT
  5
2593D
330
25336
100
AcDbEntity
  8
寸法
 62
     7
 48
50.0
100
AcDbMText
 10
10276.1
 20
8130.957664219119
 30
0.0
 40
120.0
 41
0.0
 71
     5
 72
     1
  1
\A1;825
  7
STYLE1
 73
     1
 44
1.0
1001
ACAD
1000
MTEXTBEGIN
1070
    73
1070
     1
1070
    44
1040
1.0
1070
    74
1070
     0
1000
MTEXTEND
  0
POINT
  5
2593E
330
25336
100
AcDbEntity
  8
DEFPOINTS
 62
     0
 48
50.0
100
AcDbPoint
 10
10688.6
 20
7548.337036525248
 30
0.0
  0
POINT
  5
2593F
330
25336
100
AcDbEntity
  8
DEFPOINTS
 62
     0
 48
50.0
100
AcDbPoint
 10
9863.60000000001
 20
6865.337036525248
 30
0.0
  0
POINT
  5
25940
330
25336
100
AcDbEntity
  8
DEFPOINTS
 62
     0
 48
50.0
100
AcDbPoint
 10
9863.60000000001
 20
8030.945853195497
 30
0.0
  0
ENDBLK
  5
25341
330
25336
100
AcDbEntity
  8
0
 48
50.0
100
AcDbBlockEnd
  0
BLOCK
  5
2534C
330
25342
100
AcDbEntity
  8
0
 48
50.0
100
AcDbBlockBegin
  2
*D45
 70
     1
 10
0.0
 20
0.0
 30
0.0
  3
*D45
  1

  0
LINE
  5
2594A
330
25342
100
AcDbEntity
  8
寸法
 62
     0
 48
50.0
370
    -2
100
AcDbLine
 10
9863.60000000001
 20
6885.337036525249
 30
0.0
 11
9863.60000000001
 21
8090.945853195497
 31
0.0
  0
LINE
  5
2594B
330
25342
100
AcDbEntity
  8
寸法
 62
     0
 48
50.0
370
    -2
100
AcDbLine
 10
9043.60000000001
 20
6888.337036525249
 30
0.0
 11
9043.60000000001
 21
8090.945853195497
 31
0.0
  0
LINE
  5
2594C
330
25342
100
AcDbEntity
  8
寸法
 62
     0
 48
50.0
370
    -2
100
AcDbLine
 10
9863.60000000001
 20
8030.945853195497
 30
0.0
 11
9043.60000000001
 21
8030.945853195497
 31
0.0
  0
INSERT
  5
2594D
330
25342
100
AcDbEntity
  8
寸法
 62
     0
 48
50.0
370
    -2
100
AcDbBlockReference
  2
_DOTSMALL
 10
9863.60000000001
 20
8030.945853195497
 30
0.0
 41
100.0
 42
100.0
 43
100.0
  0
INSERT
  5
2594E
330
25342
100
AcDbEntity
  8
寸法
 62
     0
 48
50.0
370
    -2
100
AcDbBlockReference
  2
_DOTSMALL
 10
9043.60000000001
 20
8030.945853195497
 30
0.0
 41
100.0
 42
100.0
 43
100.0
 50
180.0
  0
MTEXT
  5
2594F
330
25342
100
AcDbEntity
  8
寸法
 62
     7
 48
50.0
100
AcDbMText
 10
9453.60000000001
 20
8130.957664219119
 30
0.0
 40
120.0
 41
0.0
 71
     5
 72
     1
  1
\A1;820
  7
STYLE1
 73
     1
 44
1.0
1001
ACAD
1000
MTEXTBEGIN
1070
    73
1070
     1
1070
    44
1040
1.0
1070
    74
1070
     0
1000
MTEXTEND
  0
POINT
  5
25950
330
25342
100
AcDbEntity
  8
DEFPOINTS
 62
     0
 48
50.0
100
AcDbPoint
 10
9863.60000000001
 20
6865.337036525248
 30
0.0
  0
POINT
  5
25951
330
25342
100
AcDbEntity
  8
DEFPOINTS
 62
     0
 48
50.0
100
AcDbPoint
 10
9043.60000000001
 20
6868.337036525248
 30
0.0
  0
POINT
  5
25952
330
25342
100
AcDbEntity
  8
DEFPOINTS
 62
     0
 48
50.0
100
AcDbPoint
 10
9043.60000000001
 20
8030.945853195497
 30
0.0
  0
ENDBLK
  5
2534D
330
25342
100
AcDbEntity
  8
0
 48
50.0
100
AcDbBlockEnd
  0
BLOCK
  5
25366
330
2535B
100
AcDbEntity
  8
0
 48
50.0
100
AcDbBlockBegin
  2
*D46
 70
     1
 10
0.0
 20
0.0
 30
0.0
  3
*D46
  1

  0
LINE
  5
2570C
330
2535B
100
AcDbEntity
  8
寸法
 62
     0
 48
50.0
370
    -2
100
AcDbLine
 10
10688.6
 20
7568.337036525249
 30
0.0
 11
10688.6
 21
8334.603494619159
 31
0.0
  0
LINE
  5
2570D
330
2535B
100
AcDbEntity
  8
寸法
 62
     0
 48
50.0
370
    -2
100
AcDbLine
 10
10565.6
 20
7495.337036525248
 30
0.0
 11
10565.6
 21
8334.603494619159
 31
0.0
  0
LINE
  5
2570E
330
2535B
100
AcDbEntity
  8
寸法
 62
     0
 48
50.0
370
    -2
100
AcDbLine
 10
10565.6
 20
8274.60349461916
 30
0.0
 11
10688.6
 21
8274.60349461916
 31
0.0
  0
LINE
  5
2570F
330
2535B
100
AcDbEntity
  8
寸法
 62
     0
 48
50.0
370
    -2
100
AcDbLine
 10
10688.6
 20
8274.60349461916
 30
0.0
 11
11100.19188309204
 21
8274.60349461916
 31
0.0
  0
INSERT
  5
25710
330
2535B
100
AcDbEntity
  8
寸法
 62
     0
 48
50.0
370
    -2
100
AcDbBlockReference
  2
_DOTSMALL
 10
10565.6
 20
8274.60349461916
 30
0.0
 41
100.0
 42
100.0
 43
100.0
 50
180.0
  0
INSERT
  5
25711
330
2535B
100
AcDbEntity
  8
寸法
 62
     0
 48
50.0
370
    -2
100
AcDbBlockReference
  2
_DOTSMALL
 10
10688.6
 20
8274.60349461916
 30
0.0
 41
100.0
 42
100.0
 43
100.0
  0
MTEXT
  5
25712
330
2535B
100
AcDbEntity
  8
寸法
 62
     7
 48
50.0
100
AcDbMText
 10
10961.7066017178
 20
8374.615305642782
 30
0.0
 40
120.0
 41
0.0
 71
     5
 72
     1
  1
\A1;123
  7
STYLE1
 73
     1
 44
1.0
1001
ACAD
1000
MTEXTBEGIN
1070
    73
1070
     1
1070
    44
1040
1.0
1070
    74
1070
     0
1000
MTEXTEND
  0
POINT
  5
25713
330
2535B
100
AcDbEntity
  8
DEFPOINTS
 62
     0
 48
50.0
100
AcDbPoint
 10
10688.6
 20
7548.337036525248
 30
0.0
  0
POINT
  5
25714
330
2535B
100
AcDbEntity
  8
DEFPOINTS
 62
     0
 48
50.0
100
AcDbPoint
 10
10565.6
 20
7475.33703652525
 30
0.0
  0
POINT
  5
25715
330
2535B
100
AcDbEntity
  8
DEFPOINTS
 62
     0
 48
50.0
100
AcDbPoint
 10
10565.6
 20
8274.60349461916
 30
0.0
  0
ENDBLK
  5
25367
330
2535B
100
AcDbEntity
  8
0
 48
50.0
100
AcDbBlockEnd
  0
BLOCK
  5
25373
330
25368
100
AcDbEntity
  8
0
 48
50.0
100
AcDbBlockBegin
  2
*D47
 70
     1
 10
0.0
 20
0.0
 30
0.0
  3
*D47
  1

  0
LINE
  5
25A31
330
25368
100
AcDbEntity
  8
寸法
 62
     0
 48
50.0
370
    -2
100
AcDbLine
 10
10688.6
 20
7049.703093594825
 30
0.0
 11
10688.6
 21
6992.709829555991
 31
0.0
  0
LINE
  5
25A32
330
25368
100
AcDbEntity
  8
寸法
 62
     0
 48
50.0
370
    -2
100
AcDbLine
 10
10568.6
 20
7072.709829555991
 30
0.0
 11
10568.6
 21
7112.709829555992
 31
0.0
  0
LINE
  5
25A33
330
25368
100
AcDbEntity
  8
寸法
 62
     0
 48
50.0
370
    -2
100
AcDbLine
 10
10568.6
 20
7052.709829555992
 30
0.0
 11
10688.6
 21
7052.709829555992
 31
0.0
  0
LINE
  5
25A34
330
25368
100
AcDbEntity
  8
寸法
 62
     0
 48
50.0
370
    -2
100
AcDbLine
 10
10688.6
 20
7052.709829555992
 30
0.0
 11
11094.7062992126
 21
7052.709829555992
 31
0.0
  0
INSERT
  5
25A35
330
25368
100
AcDbEntity
  8
寸法
 62
     0
 48
50.0
370
    -2
100
AcDbBlockReference
  2
_DOTSMALL
 10
10568.6
 20
7052.709829555992
 30
0.0
 41
100.0
 42
100.0
 43
100.0
 50
180.0
  0
INSERT
  5
25A36
330
25368
100
AcDbEntity
  8
寸法
 62
     0
 48
50.0
370
    -2
100
AcDbBlockReference
  2
_DOTSMALL
 10
10688.6
 20
7052.709829555992
 30
0.0
 41
100.0
 42
100.0
 43
100.0
  0
MTEXT
  5
25A37
330
25368
100
AcDbEntity
  8
寸法
 62
     7
 48
50.0
100
AcDbMText
 10
10958.65905511811
 20
7152.721640579613
 30
0.0
 40
120.0
 41
0.0
 71
     5
 72
     1
  1
\A1;120
  7
STYLE1
 73
     1
 44
1.0
1001
ACAD
1000
MTEXTBEGIN
1070
    73
1070
     1
1070
    44
1040
1.0
1070
    74
1070
     0
1000
MTEXTEND
  0
POINT
  5
25A38
330
25368
100
AcDbEntity
  8
DEFPOINTS
 62
     0
 48
50.0
100
AcDbPoint
 10
10688.6
 20
7069.703093594824
 30
0.0
  0
POINT
  5
25A39
330
25368
100
AcDbEntity
  8
DEFPOINTS
 62
     0
 48
50.0
100
AcDbPoint
 10
10568.6
 20
7052.709829555992
 30
0.0
  0
POINT
  5
25A3A
330
25368
100
AcDbEntity
  8
DEFPOINTS
 62
     0
 48
50.0
100
AcDbPoint
 10
10568.6
 20
7052.709829555992
 30
0.0
  0
ENDBLK
  5
25374
330
25368
100
AcDbEntity
  8
0
 48
50.0
100
AcDbBlockEnd
  0
BLOCK
  5
25CFD
330
25CF3
100
AcDbEntity
  8
0
 48
50.0
100
AcDbBlockBegin
  2
*D54
 70
     1
 10
0.0
 20
0.0
 30
0.0
  3
*D54
  1

  0
LINE
  5
25D3D
330
25CF3
100
AcDbEntity
  8
寸法
 62
     0
 48
50.0
370
    -2
100
AcDbLine
 10
6818.48086207094
 20
2053.304733744351
 30
0.0
 11
6818.48086207094
 21
2512.972541660732
 31
0.0
  0
LINE
  5
25D3E
330
25CF3
100
AcDbEntity
  8
寸法
 62
     0
 48
50.0
370
    -2
100
AcDbLine
 10
6626.48086207094
 20
2053.304733744351
 30
0.0
 11
6626.48086207094
 21
2512.972541660732
 31
0.0
  0
LINE
  5
25D3F
330
25CF3
100
AcDbEntity
  8
寸法
 62
     0
 48
50.0
370
    -2
100
AcDbLine
 10
6818.48086207094
 20
2452.972541660732
 30
0.0
 11
6626.48086207094
 21
2452.972541660732
 31
0.0
  0
INSERT
  5
25D40
330
25CF3
100
AcDbEntity
  8
寸法
 62
     0
 48
50.0
370
    -2
100
AcDbBlockReference
  2
_DOTSMALL
 10
6818.48086207094
 20
2452.972541660732
 30
0.0
 41
100.0
 42
100.0
 43
100.0
  0
INSERT
  5
25D41
330
25CF3
100
AcDbEntity
  8
寸法
 62
     0
 48
50.0
370
    -2
100
AcDbBlockReference
  2
_DOTSMALL
 10
6626.48086207094
 20
2452.972541660732
 30
0.0
 41
100.0
 42
100.0
 43
100.0
 50
180.0
  0
MTEXT
  5
25D42
330
25CF3
100
AcDbEntity
  8
寸法
 62
     7
 48
50.0
100
AcDbMText
 10
6722.480862070939
 20
2753.007974731598
 30
0.0
 40
120.0
 41
0.0
 71
     5
 72
     1
  1
\A1;120\P200\P280
  7
STYLE1
 73
     1
 44
1.0
1001
ACAD
1000
MTEXTBEGIN
1070
    73
1070
     1
1070
    44
1040
1.0
1070
    74
1070
     0
1000
MTEXTEND
  0
POINT
  5
25D43
330
25CF3
100
AcDbEntity
  8
DEFPOINTS
 62
     0
 48
50.0
100
AcDbPoint
 10
6818.48086207094
 20
2033.304733744351
 30
0.0
  0
POINT
  5
25D44
330
25CF3
100
AcDbEntity
  8
DEFPOINTS
 62
     0
 48
50.0
100
AcDbPoint
 10
6626.48086207094
 20
2033.304733744351
 30
0.0
  0
POINT
  5
25D45
330
25CF3
100
AcDbEntity
  8
DEFPOINTS
 62
     0
 48
50.0
100
AcDbPoint
 10
6626.48086207094
 20
2452.972541660732
 30
0.0
  0
ENDBLK
  5
25CFE
330
25CF3
100
AcDbEntity
  8
0
 48
50.0
100
AcDbBlockEnd
  0
BLOCK
  5
25D09
330
25CFF
100
AcDbEntity
  8
0
 48
50.0
100
AcDbBlockBegin
  2
*D55
 70
     1
 10
0.0
 20
0.0
 30
0.0
  3
*D55
  1

  0
LINE
  5
25D46
330
25CFF
100
AcDbEntity
  8
寸法
 62
     0
 48
50.0
370
    -2
100
AcDbLine
 10
6498.48086207094
 20
1101.304733744351
 30
0.0
 11
6498.48086207094
 21
650.8750957391912
 31
0.0
  0
LINE
  5
25D47
330
25CFF
100
AcDbEntity
  8
寸法
 62
     0
 48
50.0
370
    -2
100
AcDbLine
 10
6946.480862070941
 20
1101.304733744351
 30
0.0
 11
6946.480862070941
 21
650.8750957391912
 31
0.0
  0
LINE
  5
25D48
330
25CFF
100
AcDbEntity
  8
寸法
 62
     0
 48
50.0
370
    -2
100
AcDbLine
 10
6498.48086207094
 20
710.8750957391912
 30
0.0
 11
6946.480862070941
 21
710.8750957391912
 31
0.0
  0
INSERT
  5
25D49
330
25CFF
100
AcDbEntity
  8
寸法
 62
     0
 48
50.0
370
    -2
100
AcDbBlockReference
  2
_DOTSMALL
 10
6498.48086207094
 20
710.8750957391912
 30
0.0
 41
100.0
 42
100.0
 43
100.0
 50
180.0
  0
INSERT
  5
25D4A
330
25CFF
100
AcDbEntity
  8
寸法
 62
     0
 48
50.0
370
    -2
100
AcDbBlockReference
  2
_DOTSMALL
 10
6946.480862070941
 20
710.8750957391912
 30
0.0
 41
100.0
 42
100.0
 43
100.0
  0
MTEXT
  5
25D4B
330
25CFF
100
AcDbEntity
  8
寸法
 62
     7
 48
50.0
100
AcDbMText
 10
6702.384103392716
 20
810.8750957391912
 30
0.0
 40
120.0
 41
0.0
 71
     5
 72
     1
  1
\A1;300
  7
STYLE1
 73
     1
 44
1.0
1001
ACAD
1000
MTEXTBEGIN
1070
    73
1070
     1
1070
    44
1040
1.0
1070
    74
1070
     0
1000
MTEXTEND
  0
POINT
  5
25D4C
330
25CFF
100
AcDbEntity
  8
DEFPOINTS
 62
     0
 48
50.0
100
AcDbPoint
 10
6498.48086207094
 20
1121.304733744351
 30
0.0
  0
POINT
  5
25D4D
330
25CFF
100
AcDbEntity
  8
DEFPOINTS
 62
     0
 48
50.0
100
AcDbPoint
 10
6946.480862070941
 20
1121.304733744351
 30
0.0
  0
POINT
  5
25D4E
330
25CFF
100
AcDbEntity
  8
DEFPOINTS
 62
     0
 48
50.0
100
AcDbPoint
 10
6946.480862070941
 20
710.8750957391912
 30
0.0
  0
ENDBLK
  5
25D0A
330
25CFF
100
AcDbEntity
  8
0
 48
50.0
100
AcDbBlockEnd
  0
BLOCK
  5
25D15
330
25D0B
100
AcDbEntity
  8
0
 48
50.0
100
AcDbBlockBegin
  2
*D56
 70
     1
 10
0.0
 20
0.0
 30
0.0
  3
*D56
  1

  0
LINE
  5
25D4F
330
25D0B
100
AcDbEntity
  8
寸法
 62
     0
 48
50.0
370
    -2
100
AcDbLine
 10
6606.48086207094
 20
2033.304733744351
 30
0.0
 11
5831.443623509199
 21
2033.304733744351
 31
0.0
  0
LINE
  5
25D50
330
25D0B
100
AcDbEntity
  8
寸法
 62
     0
 48
50.0
370
    -2
100
AcDbLine
 10
6398.480862070943
 20
1249.304733744351
 30
0.0
 11
5831.443623509199
 21
1249.304733744351
 31
0.0
  0
LINE
  5
25D51
330
25D0B
100
AcDbEntity
  8
寸法
 62
     0
 48
50.0
370
    -2
100
AcDbLine
 10
5891.4436235092
 20
2033.304733744351
 30
0.0
 11
5891.4436235092
 21
1249.304733744351
 31
0.0
  0
INSERT
  5
25D52
330
25D0B
100
AcDbEntity
  8
寸法
 62
     0
 48
50.0
370
    -2
100
AcDbBlockReference
  2
_DOTSMALL
 10
5891.4436235092
 20
2033.304733744351
 30
0.0
 41
100.0
 42
100.0
 43
100.0
 50
90.0
  0
INSERT
  5
25D53
330
25D0B
100
AcDbEntity
  8
寸法
 62
     0
 48
50.0
370
    -2
100
AcDbBlockReference
  2
_DOTSMALL
 10
5891.4436235092
 20
1249.304733744351
 30
0.0
 41
100.0
 42
100.0
 43
100.0
 50
270.0
  0
MTEXT
  5
25D54
330
25D0B
100
AcDbEntity
  8
寸法
 62
     7
 48
50.0
100
AcDbMText
 10
5791.443623509199
 20
1620.844883400352
 30
0.0
 40
120.0
 41
0.0
 71
     5
 72
     1
  1
\A1;540
  7
STYLE1
 11
0.0000000000000001
 21
1.0
 31
0.0
 73
     1
 44
1.0
1001
ACAD
1000
MTEXTBEGIN
1070
    73
1070
     1
1070
    44
1040
1.0
1070
    74
1070
     0
1000
MTEXTEND
  0
POINT
  5
25D55
330
25D0B
100
AcDbEntity
  8
DEFPOINTS
 62
     0
 48
50.0
100
AcDbPoint
 10
6626.48086207094
 20
2033.304733744351
 30
0.0
  0
POINT
  5
25D56
330
25D0B
100
AcDbEntity
  8
DEFPOINTS
 62
     0
 48
50.0
100
AcDbPoint
 10
6418.480862070943
 20
1249.304733744351
 30
0.0
  0
POINT
  5
25D57
330
25D0B
100
AcDbEntity
  8
DEFPOINTS
 62
     0
 48
50.0
100
AcDbPoint
 10
5891.4436235092
 20
1249.304733744351
 30
0.0
  0
ENDBLK
  5
25D16
330
25D0B
100
AcDbEntity
  8
0
 48
50.0
100
AcDbBlockEnd
  0
BLOCK
  5
25D21
330
25D17
100
AcDbEntity
  8
0
 48
50.0
100
AcDbBlockBegin
  2
*D57
 70
     1
 10
0.0
 20
0.0
 30
0.0
  3
*D57
  1

  0
LINE
  5
25D58
330
25D17
100
AcDbEntity
  8
寸法
 62
     0
 48
50.0
370
    -2
100
AcDbLine
 10
6478.48086207094
 20
1489.304733744351
 30
0.0
 11
6296.060548338481
 21
1489.304733744351
 31
0.0
  0
LINE
  5
25D59
330
25D17
100
AcDbEntity
  8
寸法
 62
     0
 48
50.0
370
    -2
100
AcDbLine
 10
6398.480862070943
 20
1249.304733744351
 30
0.0
 11
6296.060548338481
 21
1249.304733744351
 31
0.0
  0
LINE
  5
25D5A
330
25D17
100
AcDbEntity
  8
寸法
 62
     0
 48
50.0
370
    -2
100
AcDbLine
 10
6356.06054833848
 20
1489.304733744351
 30
0.0
 11
6356.06054833848
 21
1249.304733744351
 31
0.0
  0
INSERT
  5
25D5B
330
25D17
100
AcDbEntity
  8
寸法
 62
     0
 48
50.0
370
    -2
100
AcDbBlockReference
  2
_DOTSMALL
 10
6356.06054833848
 20
1489.304733744351
 30
0.0
 41
100.0
 42
100.0
 43
100.0
 50
90.0
  0
INSERT
  5
25D5C
330
25D17
100
AcDbEntity
  8
寸法
 62
     0
 48
50.0
370
    -2
100
AcDbBlockReference
  2
_DOTSMALL
 10
6356.06054833848
 20
1249.304733744351
 30
0.0
 41
100.0
 42
100.0
 43
100.0
 50
270.0
  0
MTEXT
  5
25D5D
330
25D17
100
AcDbEntity
  8
寸法
 62
     7
 48
50.0
100
AcDbMText
 10
6256.060548338481
 20
1369.304733744352
 30
0.0
 40
120.0
 41
0.0
 71
     5
 72
     1
  1
\A1;150
  7
STYLE1
 11
0.0000000000000001
 21
1.0
 31
0.0
 73
     1
 44
1.0
1001
ACAD
1000
MTEXTBEGIN
1070
    73
1070
     1
1070
    44
1040
1.0
1070
    74
1070
     0
1000
MTEXTEND
  0
POINT
  5
25D5E
330
25D17
100
AcDbEntity
  8
DEFPOINTS
 62
     0
 48
50.0
100
AcDbPoint
 10
6498.48086207094
 20
1489.304733744351
 30
0.0
  0
POINT
  5
25D5F
330
25D17
100
AcDbEntity
  8
DEFPOINTS
 62
     0
 48
50.0
100
AcDbPoint
 10
6418.480862070943
 20
1249.304733744351
 30
0.0
  0
POINT
  5
25D60
330
25D17
100
AcDbEntity
  8
DEFPOINTS
 62
     0
 48
50.0
100
AcDbPoint
 10
6356.06054833848
 20
1249.304733744351
 30
0.0
  0
ENDBLK
  5
25D22
330
25D17
100
AcDbEntity
  8
0
 48
50.0
100
AcDbBlockEnd
  0
BLOCK
  5
25D2F
330
25D23
100
AcDbEntity
  8
0
 48
50.0
100
AcDbBlockBegin
  2
*D58
 70
     1
 10
0.0
 20
0.0
 30
0.0
  3
*D58
  1

  0
LINE
  5
25D61
330
25D23
100
AcDbEntity
  8
寸法
 62
     0
 48
50.0
370
    -2
100
AcDbLine
 10
8573.320175248134
 20
2086.064733744352
 30
0.0
 11
9578.443441136005
 21
2086.064733744352
 31
0.0
  0
LINE
  5
25D62
330
25D23
100
AcDbEntity
  8
寸法
 62
     0
 48
50.0
370
    -2
100
AcDbLine
 10
8760.520175248133
 20
2033.304733744351
 30
0.0
 11
9578.443441136005
 21
2033.304733744351
 31
0.0
  0
LINE
  5
25D63
330
25D23
100
AcDbEntity
  8
寸法
 62
     0
 48
50.0
370
    -2
100
AcDbLine
 10
9518.443441136005
 20
2086.064733744352
 30
0.0
 11
9518.443441136005
 21
2186.064733744352
 31
0.0
  0
LINE
  5
25D64
330
25D23
100
AcDbEntity
  8
寸法
 62
     0
 48
50.0
370
    -2
100
AcDbLine
 10
9518.443441136005
 20
2033.304733744351
 30
0.0
 11
9518.443441136005
 21
1301.286926901385
 31
0.0
  0
LINE
  5
25D65
330
25D23
100
AcDbEntity
  8
寸法
 62
     0
 48
50.0
370
    -2
100
AcDbLine
 10
9518.443441136005
 20
2086.064733744352
 30
0.0
 11
9518.443441136005
 21
2033.304733744351
 31
0.0
  0
INSERT
  5
25D66
330
25D23
100
AcDbEntity
  8
寸法
 62
     0
 48
50.0
370
    -2
100
AcDbBlockReference
  2
_DOTSMALL
 10
9518.443441136005
 20
2086.064733744352
 30
0.0
 41
100.0
 42
100.0
 43
100.0
 50
270.0
  0
INSERT
  5
25D67
330
25D23
100
AcDbEntity
  8
寸法
 62
     0
 48
50.0
370
    -2
100
AcDbBlockReference
  2
_DOTSMALL
 10
9518.443441136005
 20
2033.304733744351
 30
0.0
 41
100.0
 42
100.0
 43
100.0
 50
90.0
  0
MTEXT
  5
25D68
330
25D23
100
AcDbEntity
  8
寸法
 62
     7
 48
50.0
100
AcDbMText
 10
9418.431630112385
 20
1567.295830322868
 30
0.0
 40
120.0
 41
0.0
 71
     5
 72
     1
  1
\A1;20～25
  7
STYLE1
 11
0.0000000000000001
 21
1.0
 31
0.0
 73
     1
 44
1.0
1001
ACAD
1000
MTEXTBEGIN
1070
    73
1070
     1
1070
    44
1040
1.0
1070
    74
1070
     0
1000
MTEXTEND
  0
POINT
  5
25D69
330
25D23
100
AcDbEntity
  8
DEFPOINTS
 62
     0
 48
50.0
100
AcDbPoint
 10
8553.320175248135
 20
2086.064733744352
 30
0.0
  0
POINT
  5
25D6A
330
25D23
100
AcDbEntity
  8
DEFPOINTS
 62
     0
 48
50.0
100
AcDbPoint
 10
8740.520175248134
 20
2033.304733744351
 30
0.0
  0
POINT
  5
25D6B
330
25D23
100
AcDbEntity
  8
DEFPOINTS
 62
     0
 48
50.0
100
AcDbPoint
 10
9518.443441136005
 20
2033.304733744351
 30
0.0
  0
ENDBLK
  5
25D30
330
25D23
100
AcDbEntity
  8
0
 48
50.0
100
AcDbBlockEnd
  0
BLOCK
  5
25D3B
330
25D31
100
AcDbEntity
  8
0
 48
50.0
100
AcDbBlockBegin
  2
*D59
 70
     1
 10
0.0
 20
0.0
 30
0.0
  3
*D59
  1

  0
LINE
  5
25D6C
330
25D31
100
AcDbEntity
  8
寸法
 62
     0
 48
50.0
370
    -2
100
AcDbLine
 10
8760.520175248133
 20
2033.304733744351
 30
0.0
 11
9302.388775016977
 21
2033.304733744351
 31
0.0
  0
LINE
  5
25D6D
330
25D31
100
AcDbEntity
  8
寸法
 62
     0
 48
50.0
370
    -2
100
AcDbLine
 10
8760.520175248133
 20
1709.30473374435
 30
0.0
 11
9302.388775016977
 21
1709.30473374435
 31
0.0
  0
LINE
  5
25D6E
330
25D31
100
AcDbEntity
  8
寸法
 62
     0
 48
50.0
370
    -2
100
AcDbLine
 10
9242.388775016978
 20
2033.304733744351
 30
0.0
 11
9242.388775016978
 21
1709.30473374435
 31
0.0
  0
INSERT
  5
25D6F
330
25D31
100
AcDbEntity
  8
寸法
 62
     0
 48
50.0
370
    -2
100
AcDbBlockReference
  2
_DOTSMALL
 10
9242.388775016978
 20
2033.304733744351
 30
0.0
 41
100.0
 42
100.0
 43
100.0
 50
90.0
  0
INSERT
  5
25D70
330
25D31
100
AcDbEntity
  8
寸法
 62
     0
 48
50.0
370
    -2
100
AcDbBlockReference
  2
_DOTSMALL
 10
9242.388775016978
 20
1709.30473374435
 30
0.0
 41
100.0
 42
100.0
 43
100.0
 50
270.0
  0
MTEXT
  5
25D71
330
25D31
100
AcDbEntity
  8
寸法
 62
     7
 48
50.0
100
AcDbMText
 10
9142.388775016978
 20
1871.304733744352
 30
0.0
 40
120.0
 41
0.0
 71
     5
 72
     1
  1
\A1;180
  7
STYLE1
 11
0.0000000000000001
 21
1.0
 31
0.0
 73
     1
 44
1.0
1001
ACAD
1000
MTEXTBEGIN
1070
    73
1070
     1
1070
    44
1040
1.0
1070
    74
1070
     0
1000
MTEXTEND
  0
POINT
  5
25D72
330
25D31
100
AcDbEntity
  8
DEFPOINTS
 62
     0
 48
50.0
100
AcDbPoint
 10
8740.520175248134
 20
2033.304733744351
 30
0.0
  0
POINT
  5
25D73
330
25D31
100
AcDbEntity
  8
DEFPOINTS
 62
     0
 48
50.0
100
AcDbPoint
 10
8740.520175248134
 20
1709.30473374435
 30
0.0
  0
POINT
  5
25D74
330
25D31
100
AcDbEntity
  8
DEFPOINTS
 62
     0
 48
50.0
100
AcDbPoint
 10
9242.388775016978
 20
1709.30473374435
 30
0.0
  0
ENDBLK
  5
25D3C
330
25D31
100
AcDbEntity
  8
0
 48
50.0
100
AcDbBlockEnd
  0
ENDSEC
  0
SECTION
  2
ENTITIES
  0
MTEXT
  5
763F
330
747D
100
AcDbEntity
  8
0
100
AcDbMText
 10
302.846345836809
 20
280.1983726409901
 30
0.0
 40
3.5
 41
5.323721266742722
 71
     1
 72
     5
  1

  7
MSMINCHO
 73
     1
 44
1.0
1001
ACAD
1000
MTEXTBEGIN
1070
    73
1070
     1
1070
    44
1040
1.0
1070
    74
1070
     0
1000
MTEXTEND
  0
LINE
  5
10B57
330
747D
100
AcDbEntity
  8
補助
  6
PHANTOM
 62
   230
 48
50.0
100
AcDbLine
 10
139.9999999999995
 20
11409.6
 30
0.0
 11
16307.2
 21
11409.6
 31
0.0
  0
LINE
  5
10B59
330
747D
100
AcDbEntity
  8
仕様書枠
  6
Continuous
 48
50.0
100
AcDbLine
 10
13107.2
 20
1200.0
 30
0.0
 11
13107.2
 21
-0.0000000000000729
 31
0.0
  0
LINE
  5
10B5D
330
747D
100
AcDbEntity
  8
仕様書枠
 48
50.0
100
AcDbLine
 10
140.0
 20
0.0
 30
0.0
 11
16307.2
 21
-0.0000000000000909
 31
0.0
  0
LINE
  5
10B5E
330
747D
100
AcDbEntity
  8
補助
  6
PHANTOM
 62
   230
 48
50.0
100
AcDbLine
 10
16307.2
 20
11409.6
 30
0.0
 11
16307.2
 21
1200.0
 31
0.0
  0
LINE
  5
10B6C
330
747D
100
AcDbEntity
  8
仕様書枠
 48
50.0
100
AcDbLine
 10
13107.2
 20
1200.0
 30
0.0
 11
16307.2
 21
1200.0
 31
0.0
  0
TEXT
  5
10B73
330
747D
100
AcDbEntity
  8
文字
 62
     7
 48
50.0
100
AcDbText
 10
13162.9790565769
 20
895.0906074299405
 30
0.0
 40
200.0
  1
基 礎 図
  7
STYLE2
100
AcDbText
  0
LINE
  5
10B7B
330
747D
100
AcDbEntity
  8
仕様書枠
 48
50.0
100
AcDbLine
 10
13107.2
 20
800.0
 30
0.0
 11
14251.2
 21
800.0
 31
0.0
  0
LINE
  5
10B88
330
747D
100
AcDbEntity
  8
仕様書枠
  6
Continuous
 48
50.0
100
AcDbLine
 10
14251.2
 20
1200.0
 30
0.0
 11
14251.2
 21
800.0
 31
0.0
  0
LINE
  5
16462
330
747D
100
AcDbEntity
  8
仕様書枠
 48
50.0
100
AcDbLine
 10
16307.2
 20
1200.0
 30
0.0
 11
16307.2
 21
-0.0000000000000909
 31
0.0
  0
LINE
  5
1903B
330
747D
100
AcDbEntity
  8
補助
  6
PHANTOM
 62
   230
 48
50.0
100
AcDbLine
 10
140.0
 20
0.0
 30
0.0
 11
139.9999999999995
 21
11409.6
 31
0.0
  0
LEADER
  5
1AC27
330
747D
100
AcDbEntity
  8
寸法
 48
50.0
100
AcDbLeader
  3
INABA_S50G
 73
     0
 74
     0
 75
     1
 40
120.0
 41
720.0000000000001
 76
     3
 10
10688.69549961499
 20
6809.067806585058
 30
0.0
 10
10845.46907400128
 20
6548.053893017225
 30
0.0
 10
10970.46907400128
 20
6548.053893017225
 30
0.0
340
1AC28
1001
ACAD
1000
DSTYLE
1002
{
1070
   341
1005
0
1070
    40
1040
1.0
1070
   343
1005
0
1070
   344
1005
0
1002
}
  0
MTEXT
  5
1AC28
102
{ACAD_REACTORS
330
1AC27
102
}
330
747D
100
AcDbEntity
  8
部品1
 62
     7
 48
50.0
100
AcDbMText
 10
11715.46907400128
 20
6633.053893017225
 30
0.0
 40
120.0
 41
0.0
 71
     6
 72
     1
  1
\A1;床下換気口
  7
STYLE1
 73
     1
 44
1.0
1001
ACAD
1000
MTEXTBEGIN
1070
    73
1070
     1
1070
    44
1040
1.0
1070
    74
1070
     0
1000
MTEXTEND
  0
TEXT
  5
1AC29
330
747D
100
AcDbEntity
  8
部品1
 48
50.0
100
AcDbText
 10
11037.43013846118
 20
5798.230429338278
 30
0.0
 40
80.0
  1
(a=45,b=55,c=75)
  7
STYLE1
100
AcDbText
  0
TEXT
  5
1AC2A
330
747D
100
AcDbEntity
  8
部品1
 48
50.0
100
AcDbText
 10
10878.85112970688
 20
5905.075650207033
 30
0.0
 40
80.0
  1
※a,b,cは屋根の出幅です。
  7
STYLE1
100
AcDbText
  0
MTEXT
  5
1AC2B
102
{ACAD_REACTORS
330
1AC2C
102
}
330
747D
100
AcDbEntity
  8
部品1
 62
     7
 48
50.0
100
AcDbMText
 10
11676.63832569548
 20
6084.386337140108
 30
0.0
 40
120.0
 41
0.0
 71
     6
 72
     1
  1
\A1;屋根の外寸
  7
STYLE1
 73
     1
 44
1.0
1001
ACAD
1000
MTEXTBEGIN
1070
    73
1070
     1
1070
    44
1040
1.0
1070
    74
1070
     0
1000
MTEXTEND
  0
LEADER
  5
1AC2C
330
747D
100
AcDbEntity
  8
寸法
 48
50.0
100
AcDbLeader
  3
INABA_S50G
 73
     0
 74
     0
 75
     1
 40
120.0
 41
672.0
 76
     3
 10
10738.69831350344
 20
6258.275680603683
 30
0.0
 10
10854.63832569548
 20
5999.386337140108
 30
0.0
 10
10979.63832569548
 20
5999.386337140108
 30
0.0
340
1AC2B
1001
ACAD
1000
DSTYLE
1002
{
1070
   341
1005
0
1070
    40
1040
1.0
1070
   343
1005
0
1070
   344
1005
0
1002
}
  0
TEXT
  5
1C7A1
330
747D
100
AcDbEntity
  8
文字
 62
     7
 48
50.0
100
AcDbText
 10
13188.16259899338
 20
79.80631269190417
 30
0.0
 40
80.0
  1
※布基礎には換気口を設けてください。
  7
STYLE2
100
AcDbText
  0
TEXT
  5
1C7E7
330
747D
100
AcDbEntity
  8
文字
 62
     7
 48
50.0
100
AcDbText
 10
13188.16259899338
 20
246.7109242801889
 30
0.0
 40
80.0
  1
※寒冷地等は地域の実情に合わせた基礎にして下さい。
  7
STYLE2
100
AcDbText
  0
TEXT
  5
1C7E8
330
747D
100
AcDbEntity
  8
文字
 62
     7
 48
50.0
100
AcDbText
 10
14325.79230300687
 20
499.5983841039506
 30
0.0
 40
160.0
  1
ＮＸＮ－１２ＤＬ－６
  7
STYLE2
100
AcDbText
  0
TEXT
  5
1C7EC
330
747D
100
AcDbEntity
  8
文字
 62
     7
 48
50.0
100
AcDbText
 10
14524.131837222
 20
1031.557706291229
 30
0.0
 40
100.0
  1
<縮尺> S=1/40
  7
STYLE2
100
AcDbText
  0
TEXT
  5
1C7ED
330
747D
100
AcDbEntity
  8
文字
 62
     7
 48
50.0
100
AcDbText
 10
13201.43669998441
 20
477.2740661031257
 30
0.0
 40
160.0
  1
機種名
  7
STYLE2
100
AcDbText
  0
LINE
  5
1C7EF
330
747D
100
AcDbEntity
  8
文字
 62
     7
 48
50.0
100
AcDbLine
 10
13187.2
 20
400.0
 30
0.0
 11
16227.2
 21
400.0
 31
0.0
  0
MTEXT
  5
1D2D5
102
{ACAD_REACTORS
330
1D2D6
102
}
330
747D
100
AcDbEntity
  8
部品1
 62
     7
 48
50.0
100
AcDbMText
 10
11883.99523070988
 20
7863.949780767756
 30
0.0
 40
120.0
 41
0.0
 71
     6
 72
     1
  1
アンカーボルト
  7
STYLE1
 73
     1
 44
1.0
1001
ACAD
1000
MTEXTBEGIN
1070
    73
1070
     1
1070
    44
1040
1.0
1070
    74
1070
     0
1000
MTEXTEND
  0
LEADER
  5
1D2D6
330
747D
100
AcDbEntity
  8
寸法
 48
50.0
100
AcDbLeader
  3
INABA_S50G
 73
     0
 74
     0
 75
     1
 40
120.0
 41
994.3492424049171
 76
     3
 10
10565.680085757
 20
7425.544880883959
 30
0.0
 10
10739.64598830496
 20
7778.949780767757
 30
0.0
 10
10864.64598830496
 20
7778.949780767757
 30
0.0
340
1D2D5
1001
ACAD
1000
DSTYLE
1002
{
1070
   341
1005
0
1070
    40
1040
1.0
1070
   343
1005
0
1070
   344
1005
0
1002
}
  0
MTEXT
  5
1D332
102
{ACAD_REACTORS
330
1D333
102
}
330
747D
100
AcDbEntity
  8
部品1
 62
     7
 48
50.0
100
AcDbMText
 10
10378.82869701569
 20
6669.972740037559
 30
0.0
 40
120.0
 41
0.0
 71
     6
 72
     1
  1
CB
  7
STYLE1
 73
     1
 44
1.0
1001
ACAD
1000
MTEXTBEGIN
1070
    73
1070
     1
1070
    44
1040
1.0
1070
    74
1070
     0
1000
MTEXTEND
  0
LEADER
  5
1D333
330
747D
100
AcDbEntity
  8
寸法
 48
50.0
100
AcDbLeader
  3
INABA_S50G
 73
     0
 74
     0
 75
     1
 40
120.0
 41
149.591883092037
 76
     3
 10
9951.954011061014
 20
6807.691053592384
 30
0.0
 10
10079.23681392366
 20
6584.972740037558
 30
0.0
 10
10204.23681392366
 20
6584.972740037558
 30
0.0
340
1D332
1001
ACAD
1000
DSTYLE
1002
{
1070
   341
1005
0
1070
    40
1040
1.0
1070
   343
1005
0
1070
   344
1005
0
1002
}
  0
DIMENSION
  5
20DE1
330
747D
100
AcDbEntity
  8
寸法
 48
50.0
100
AcDbDimension
  2
*D19
 10
10733.6
 20
8506.557358584165
 30
0.0
 11
11004.77462120246
 21
8506.557358584165
 31
0.0
 70
   160
  1
a
 71
     5
 42
45.0
  3
INABA_S40G
100
AcDbAlignedDimension
 13
10688.6
 23
7548.337036525244
 33
0.0
 14
10733.6
 24
8274.603494619155
 34
0.0
100
AcDbRotatedDimension
1001
ACAD
1000
DSTYLE
1002
{
1070
   341
1005
0
1002
}
  0
DIMENSION
  5
20DFB
330
747D
100
AcDbEntity
  8
寸法
 48
50.0
100
AcDbDimension
  2
*D20
 10
5758.600000000004
 20
8506.557358584165
 30
0.0
 11
5442.425378797545
 21
8506.557358584165
 31
0.0
 70
   160
  1
a
 71
     5
 42
45.0
  3
INABA_S40G
100
AcDbAlignedDimension
 13
5713.600000000004
 23
8274.603494619157
 33
0.0
 14
5758.600000000004
 24
7548.337036525246
 34
0.0
100
AcDbRotatedDimension
1001
ACAD
1000
DSTYLE
1002
{
1070
   341
1005
0
1002
}
  0
LINE
  5
22711
330
747D
100
AcDbEntity
  8
想像線
 48
10.0
100
AcDbLine
 10
10733.6
 20
7623.337036525251
 30
0.0
 11
5713.600000000003
 21
7623.337036525261
 31
0.0
  0
LINE
  5
22712
330
747D
100
AcDbEntity
  8
想像線
 48
10.0
100
AcDbLine
 10
5713.6
 20
5953.337036525262
 30
0.0
 11
5713.600000000004
 21
7623.337036525253
 31
0.0
  0
LINE
  5
22713
330
747D
100
AcDbEntity
  8
想像線
 48
10.0
100
AcDbLine
 10
10733.6
 20
5953.337036525265
 30
0.0
 11
10733.6
 21
7623.337036525251
 31
0.0
  0
LINE
  5
22714
330
747D
100
AcDbEntity
  8
想像線
 48
10.0
100
AcDbLine
 10
10733.6
 20
5953.337036525265
 30
0.0
 11
5713.6
 21
5953.337036525255
 31
0.0
  0
DIMENSION
  5
22741
330
747D
100
AcDbEntity
  8
寸法
 48
50.0
100
AcDbDimension
  2
*D25
 10
4883.721909610676
 20
7548.337036525246
 30
0.0
 11
4783.721909610675
 21
7585.837036525251
 31
0.0
 70
    32
  1
c
 71
     5
 42
75.00000000000636
  3
INABA_S40G
100
AcDbAlignedDimension
 13
5135.665006330071
 23
7623.337036525253
 33
0.0
 14
5758.600000000004
 24
7548.337036525246
 34
0.0
 50
90.0
100
AcDbRotatedDimension
1001
ACAD
1000
DSTYLE
1002
{
1070
   341
1005
0
1002
}
  0
DIMENSION
  5
2275B
330
747D
100
AcDbEntity
  8
寸法
 48
50.0
100
AcDbDimension
  2
*D26
 10
4883.721909610676
 20
5953.337036525271
 30
0.0
 11
4783.721909610675
 21
5980.837036525258
 31
0.0
 70
    32
  1
b
 71
     5
 42
54.99999999997453
  3
INABA_S40G
100
AcDbAlignedDimension
 13
5758.600000000004
 23
6008.337036525245
 33
0.0
 14
5135.665006330075
 24
5953.337036525271
 34
0.0
 50
90.0
100
AcDbRotatedDimension
1001
ACAD
1000
DSTYLE
1002
{
1070
   341
1005
0
1002
}
  0
LINE
  5
2514A
330
747D
100
AcDbEntity
  8
部品1
 48
50.0
100
AcDbLine
 10
10568.59999999999
 20
7348.33703652525
 30
0.0
 11
5878.599999999998
 21
7348.337036525248
 31
0.0
  0
TEXT
  5
2514B
330
747D
100
AcDbEntity
  8
寸法
 48
50.0
100
AcDbText
 10
8225.710704343907
 20
6027.018327317986
 30
0.0
 40
120.0
  1
扉面
  7
STYLE1
100
AcDbText
  0
DIMENSION
  5
2514C
330
747D
100
AcDbEntity
  8
寸法
 48
50.0
100
AcDbDimension
  2
*D27
 10
8223.60000000001
 20
8030.945853195497
 30
0.0
 11
8633.60000000001
 21
8130.957664219119
 31
0.0
 70
    32
 71
     5
 42
820.0
  3
INABA_S40G
100
AcDbAlignedDimension
 13
9043.60000000001
 23
6868.337036525248
 33
0.0
 14
8223.60000000001
 24
6865.337036525248
 34
0.0
100
AcDbRotatedDimension
1001
ACAD
1000
DSTYLE
1002
{
1070
   341
1005
0
1002
}
  0
DIMENSION
  5
2514D
330
747D
100
AcDbEntity
  8
寸法
 48
50.0
100
AcDbDimension
  2
*D28
 10
10688.6
 20
8506.557358584165
 30
0.0
 11
8223.600000000002
 21
8606.557358584167
 31
0.0
 70
    32
 71
     5
 42
4930.000000000002
  3
INABA_S40G
100
AcDbAlignedDimension
 13
5758.600000000001
 23
7548.337036525248
 33
0.0
 14
10688.6
 24
7548.337036525248
 34
0.0
100
AcDbRotatedDimension
1001
ACAD
1000
DSTYLE
1002
{
1070
   341
1005
0
1002
}
  0
LINE
  5
2514E
330
747D
100
AcDbEntity
  8
部品1
 48
50.0
100
AcDbLine
 10
10688.6
 20
7548.337036525248
 30
0.0
 11
5758.600000000001
 21
7548.337036525248
 31
0.0
  0
DIMENSION
  5
25150
330
747D
100
AcDbEntity
  8
寸法
 48
50.0
100
AcDbDimension
  2
*D29
 10
8105.600000000002
 20
8274.60349461916
 30
0.0
 11
9335.600000000003
 21
8374.615305642782
 31
0.0
 70
    32
 71
     5
 42
2460.0
  3
INABA_S40G
100
AcDbAlignedDimension
 13
10565.6
 23
7475.33703652525
 33
0.0
 14
8105.600000000002
 24
7475.33703652525
 34
0.0
100
AcDbRotatedDimension
1001
ACAD
1000
DSTYLE
1002
{
1070
   341
1005
0
1002
}
  0
LINE
  5
25151
330
747D
100
AcDbEntity
  8
部品1
 48
50.0
100
AcDbLine
 10
10688.6
 20
6008.337036525267
 30
0.0
 11
5758.599999999997
 21
6008.337036525245
 31
0.0
  0
DIMENSION
  5
25153
330
747D
100
AcDbEntity
  8
寸法
 48
50.0
100
AcDbDimension
  2
*D30
 10
6583.600000000008
 20
8030.945853195497
 30
0.0
 11
6993.600000000009
 21
8130.957664219119
 31
0.0
 70
    32
 71
     5
 42
820.0000000000018
  3
INABA_S40G
100
AcDbAlignedDimension
 13
7403.60000000001
 23
6868.337036525248
 33
0.0
 14
6583.600000000008
 24
6865.337036525248
 34
0.0
100
AcDbRotatedDimension
1001
ACAD
1000
DSTYLE
1002
{
1070
   341
1005
0
1002
}
  0
DIMENSION
  5
25154
330
747D
100
AcDbEntity
  8
寸法
 48
50.0
100
AcDbDimension
  2
*D31
 10
6241.285990614302
 20
7548.337036525248
 30
0.0
 11
6241.285990614301
 21
7107.931827219426
 31
0.0
 70
   160
 71
     5
 42
733.0
  3
INABA_S40G
100
AcDbAlignedDimension
 13
6533.600000000008
 23
6815.337036525249
 33
0.0
 14
6332.765475140901
 24
7548.337036525248
 34
0.0
 50
90.0
100
AcDbRotatedDimension
1001
ACAD
1000
DSTYLE
1002
{
1070
   341
1005
0
1002
}
  0
DIMENSION
  5
25155
330
747D
100
AcDbEntity
  8
寸法
 48
50.0
100
AcDbDimension
  2
*D32
 10
5758.600000000001
 20
8030.945853195497
 30
0.0
 11
6171.100000000004
 21
8130.957664219119
 31
0.0
 70
    32
 71
     5
 42
825.0000000000072
  3
INABA_S40G
100
AcDbAlignedDimension
 13
6583.600000000008
 23
6865.337036525248
 33
0.0
 14
5758.600000000001
 24
7548.337036525248
 34
0.0
100
AcDbRotatedDimension
1001
ACAD
1000
DSTYLE
1002
{
1070
   341
1005
0
1002
}
  0
DIMENSION
  5
25156
330
747D
100
AcDbEntity
  8
寸法
 48
50.0
100
AcDbDimension
  2
*D33
 10
7403.600000000007
 20
8030.945853195497
 30
0.0
 11
7813.600000000008
 21
8130.957664219119
 31
0.0
 70
    32
 71
     5
 42
820.0000000000018
  3
INABA_S40G
100
AcDbAlignedDimension
 13
8223.60000000001
 23
6865.337036525248
 33
0.0
 14
7403.600000000007
 24
6868.337036525248
 34
0.0
100
AcDbRotatedDimension
1001
ACAD
1000
DSTYLE
1002
{
1070
   341
1005
0
1002
}
  0
LINE
  5
25157
330
747D
100
AcDbEntity
  8
部品1
 48
50.0
100
AcDbLine
 10
5758.600000000001
 20
6008.337036525248
 30
0.0
 11
5758.600000000001
 21
7548.337036525248
 31
0.0
  0
DIMENSION
  5
2515A
330
747D
100
AcDbEntity
  8
寸法
 48
50.0
100
AcDbDimension
  2
*D34
 10
5135.665006330073
 20
6206.337036525252
 30
0.0
 11
5135.665006330071
 21
6815.837036525248
 31
0.0
 70
   160
 71
     5
 42
1218.999999999996
  3
INABA_S40G
100
AcDbAlignedDimension
 13
5831.6
 23
7425.337036525249
 33
0.0
 14
5831.600000000008
 24
6206.337036525252
 34
0.0
 50
90.0
100
AcDbRotatedDimension
1001
ACAD
1000
DSTYLE
1002
{
1070
   341
1005
0
1002
}
  0
DIMENSION
  5
2515B
330
747D
100
AcDbEntity
  8
寸法
 48
50.0
100
AcDbDimension
  2
*D35
 10
4883.721909610674
 20
6008.337036525248
 30
0.0
 11
4883.721909610673
 21
6815.837036525248
 31
0.0
 70
   160
 71
     5
 42
1540.0
  3
INABA_S40G
100
AcDbAlignedDimension
 13
5758.600000000001
 23
7548.337036525248
 33
0.0
 14
5758.600000000001
 24
6008.337036525248
 34
0.0
 50
90.0
100
AcDbRotatedDimension
1001
ACAD
1000
DSTYLE
1002
{
1070
   341
1005
0
1002
}
  0
DIMENSION
  5
2515D
330
747D
100
AcDbEntity
  8
寸法
 48
50.0
100
AcDbDimension
  2
*D36
 10
5135.665006330071
 20
6008.337036525248
 30
0.0
 11
5135.665006330071
 21
5672.806087682657
 31
0.0
 70
   160
 71
     5
 42
198.0000000000036
  3
INABA_S40G
100
AcDbAlignedDimension
 13
5831.600000000008
 23
6206.337036525252
 33
0.0
 14
5758.600000000001
 24
6008.337036525248
 34
0.0
 50
90.0
100
AcDbRotatedDimension
1001
ACAD
1000
DSTYLE
1002
{
1070
   341
1005
0
1002
}
  0
DIMENSION
  5
2515E
330
747D
100
AcDbEntity
  8
寸法
 48
50.0
100
AcDbDimension
  2
*D37
 10
7776.81972531859
 20
6008.337036525254
 30
0.0
 11
7776.81972531859
 21
5721.373453848073
 31
0.0
 70
   160
 71
     5
 42
280.0
  3
INABA_S40G
100
AcDbAlignedDimension
 13
7913.600000000018
 23
6288.337036525254
 33
0.0
 14
7913.600000000022
 24
6008.337036525254
 34
0.0
 50
90.0
100
AcDbRotatedDimension
1001
ACAD
1000
DSTYLE
1002
{
1070
   341
1005
0
1002
}
  0
DIMENSION
  5
2515F
330
747D
100
AcDbEntity
  8
寸法
 48
50.0
100
AcDbDimension
  2
*D38
 10
5645.512673767881
 20
5288.337036525245
 30
0.0
 11
5645.51267376788
 21
5648.337036525246
 31
0.0
 70
   160
  1
扉の出<>
 71
     5
 42
720.0
  3
INABA_S40G
100
AcDbAlignedDimension
 13
5758.600000000004
 23
6008.337036525245
 33
0.0
 14
6114.325326928809
 24
5288.337036525245
 34
0.0
 50
90.0
100
AcDbRotatedDimension
1001
ACAD
1000
DSTYLE
1002
{
1070
   341
1005
0
1002
}
  0
ARC
  5
25160
330
747D
100
AcDbEntity
  8
想像線
 48
5.0
100
AcDbCircle
 10
6528.600000000004
 20
6008.337036525252
 30
0.0
 40
720.0
100
AcDbArc
 50
180.0
 51
270.0
  0
LINE
  5
25161
330
747D
100
AcDbEntity
  8
想像線
 48
5.0
100
AcDbLine
 10
6528.600000000004
 20
6008.337036525263
 30
0.0
 11
6528.600000000004
 21
5288.337036525252
 31
0.0
  0
CIRCLE
  5
25162
330
747D
100
AcDbEntity
  8
部品1
 48
50.0
100
AcDbCircle
 10
5881.599999999993
 20
6206.337036525252
 30
0.0
 40
35.0
  0
LINE
  5
25163
330
747D
100
AcDbEntity
  8
センター
 48
2.0
100
AcDbLine
 10
5831.600000000008
 20
6206.337036525252
 30
0.0
 11
5931.600000000008
 21
6206.337036525252
 31
0.0
  0
LINE
  5
25164
330
747D
100
AcDbEntity
  8
センター
 48
2.0
100
AcDbLine
 10
5881.600000000008
 20
6256.337036525252
 30
0.0
 11
5881.600000000008
 21
6156.337036525252
 31
0.0
  0
LINE
  5
25165
330
747D
100
AcDbEntity
  8
細線
 48
50.0
100
AcDbLine
 10
5761.280033447562
 20
6703.337036525304
 30
0.0
 11
5878.6
 21
6820.657003077743
 31
0.0
  0
LINE
  5
25166
330
747D
100
AcDbEntity
  8
細線
 48
50.0
100
AcDbLine
 10
5758.600000000001
 20
6745.558283683088
 30
0.0
 11
5878.599999999998
 21
6865.558283683089
 31
0.0
  0
LINE
  5
25167
330
747D
100
AcDbEntity
  8
細線
 48
50.0
100
AcDbLine
 10
5758.600000000001
 20
6790.459564288436
 30
0.0
 11
5871.477472236872
 21
6903.337036525306
 31
0.0
  0
LINE
  5
25168
330
747D
100
AcDbEntity
  8
細線
 48
50.0
100
AcDbLine
 10
5758.600000000002
 20
6835.360844893782
 30
0.0
 11
5826.576191631524
 21
6903.337036525306
 31
0.0
  0
LINE
  5
25169
330
747D
100
AcDbEntity
  8
細線
 48
50.0
100
AcDbLine
 10
5758.600000000001
 20
6880.262125499126
 30
0.0
 11
5781.674911026181
 21
6903.337036525306
 31
0.0
  0
LINE
  5
2516A
330
747D
100
AcDbEntity
  8
部品1
 48
50.0
100
AcDbLine
 10
5878.599999999999
 20
6903.337036525306
 30
0.0
 11
5758.600000000001
 21
6903.337036525306
 31
0.0
  0
LINE
  5
2516B
330
747D
100
AcDbEntity
  8
部品1
 48
50.0
100
AcDbLine
 10
5878.599999999999
 20
6703.337036525304
 30
0.0
 11
5758.600000000001
 21
6703.337036525306
 31
0.0
  0
LINE
  5
2516C
330
747D
100
AcDbEntity
  8
細線
 48
50.0
100
AcDbLine
 10
5851.082594658252
 20
6703.337036525303
 30
0.0
 11
5878.599999999999
 21
6730.854441867051
 31
0.0
  0
LINE
  5
2516D
330
747D
100
AcDbEntity
  8
細線
 48
50.0
100
AcDbLine
 10
5806.181314052908
 20
6703.337036525306
 30
0.0
 11
5878.599999999999
 21
6775.755722472396
 31
0.0
  0
DIMENSION
  5
2516E
330
747D
100
AcDbEntity
  8
寸法
 48
50.0
100
AcDbDimension
  2
*D39
 10
6241.285990614302
 20
6815.337036525249
 30
0.0
 11
6241.285990614301
 21
6493.337036525248
 31
0.0
 70
   160
 71
     5
 42
806.999999999989
  3
INABA_S40G
100
AcDbAlignedDimension
 13
6332.765475140901
 23
6008.33703652526
 33
0.0
 14
6533.600000000008
 24
6815.337036525249
 34
0.0
 50
90.0
100
AcDbRotatedDimension
1001
ACAD
1000
DSTYLE
1002
{
1070
   341
1005
0
1002
}
  0
LINE
  5
2516F
330
747D
100
AcDbEntity
  8
細線
 48
50.0
100
AcDbLine
 10
6209.404364949137
 20
6008.337036525263
 30
0.0
 11
6273.600000000024
 21
6072.532671576151
 31
0.0
  0
LINE
  5
25170
330
747D
100
AcDbEntity
  8
細線
 48
50.0
100
AcDbLine
 10
6164.503084343789
 20
6008.337036525261
 30
0.0
 11
6273.600000000023
 21
6117.433952181494
 31
0.0
  0
LINE
  5
25171
330
747D
100
AcDbEntity
  8
部品1
 48
50.0
100
AcDbLine
 10
6273.600000000019
 20
6288.337036525247
 30
0.0
 11
6273.600000000024
 21
6008.337036525263
 31
0.0
  0
LINE
  5
25172
330
747D
100
AcDbEntity
  8
細線
 48
50.0
100
AcDbLine
 10
6119.601803738442
 20
6008.337036525261
 30
0.0
 11
6273.600000000023
 21
6162.335232786843
 31
0.0
  0
LINE
  5
25173
330
747D
100
AcDbEntity
  8
部品1
 48
50.0
100
AcDbLine
 10
6073.60000000002
 20
6288.337036525247
 30
0.0
 11
6073.600000000023
 21
6008.33703652526
 31
0.0
  0
LINE
  5
25174
330
747D
100
AcDbEntity
  8
細線
 48
50.0
100
AcDbLine
 10
6074.700523133096
 20
6008.33703652526
 30
0.0
 11
6273.60000000002
 21
6207.236513392187
 31
0.0
  0
LINE
  5
25175
330
747D
100
AcDbEntity
  8
細線
 48
50.0
100
AcDbLine
 10
6073.600000000023
 20
6052.137793997534
 30
0.0
 11
6273.600000000019
 21
6252.137793997526
 31
0.0
  0
LINE
  5
25176
330
747D
100
AcDbEntity
  8
細線
 48
50.0
100
AcDbLine
 10
6254.305645554483
 20
6008.337036525265
 30
0.0
 11
6273.600000000026
 21
6027.631390970806
 31
0.0
  0
LINE
  5
25177
330
747D
100
AcDbEntity
  8
細線
 48
50.0
100
AcDbLine
 10
6073.600000000022
 20
6097.039074602879
 30
0.0
 11
6264.897961922393
 21
6288.337036525248
 31
0.0
  0
LINE
  5
25178
330
747D
100
AcDbEntity
  8
細線
 48
50.0
100
AcDbLine
 10
6073.600000000022
 20
6141.940355208222
 30
0.0
 11
6219.996681317027
 21
6288.337036525247
 31
0.0
  0
LINE
  5
25179
330
747D
100
AcDbEntity
  8
細線
 48
50.0
100
AcDbLine
 10
6073.60000000002
 20
6186.841635813577
 30
0.0
 11
6175.095400711696
 21
6288.337036525247
 31
0.0
  0
LINE
  5
2517A
330
747D
100
AcDbEntity
  8
細線
 48
50.0
100
AcDbLine
 10
6073.60000000002
 20
6231.742916418923
 30
0.0
 11
6130.194120106331
 21
6288.337036525246
 31
0.0
  0
LINE
  5
2517B
330
747D
100
AcDbEntity
  8
センター
 48
2.0
100
AcDbLine
 10
6533.600000000008
 20
6815.337036525249
 30
0.0
 11
6633.600000000008
 21
6815.337036525249
 31
0.0
  0
LINE
  5
2517C
330
747D
100
AcDbEntity
  8
部品1
 48
50.0
100
AcDbLine
 10
6683.600000000009
 20
6715.337036525248
 30
0.0
 11
6483.600000000008
 21
6715.337036525248
 31
0.0
  0
LINE
  5
2517D
330
747D
100
AcDbEntity
  8
部品1
 48
50.0
100
AcDbLine
 10
6683.600000000009
 20
6915.337036525248
 30
0.0
 11
6483.600000000008
 21
6915.337036525248
 31
0.0
  0
LINE
  5
2517E
330
747D
100
AcDbEntity
  8
センター
 48
2.0
100
AcDbLine
 10
6583.600000000008
 20
6865.337036525248
 30
0.0
 11
6583.600000000008
 21
6765.337036525249
 31
0.0
  0
LINE
  5
2517F
330
747D
100
AcDbEntity
  8
部品1
 48
50.0
100
AcDbLine
 10
6483.600000000008
 20
6715.337036525248
 30
0.0
 11
6483.600000000008
 21
6915.337036525248
 31
0.0
  0
LINE
  5
25180
330
747D
100
AcDbEntity
  8
部品1
 48
50.0
100
AcDbLine
 10
6683.600000000009
 20
6715.337036525248
 30
0.0
 11
6683.600000000009
 21
6915.337036525248
 31
0.0
  0
LINE
  5
2518D
330
747D
100
AcDbEntity
  8
部品1
 48
50.0
100
AcDbLine
 10
7503.600000000007
 20
6915.337036525248
 30
0.0
 11
7303.600000000007
 21
6915.337036525248
 31
0.0
  0
LINE
  5
2518E
330
747D
100
AcDbEntity
  8
部品1
 48
50.0
100
AcDbLine
 10
7503.600000000007
 20
6715.337036525248
 30
0.0
 11
7303.600000000007
 21
6715.337036525248
 31
0.0
  0
LINE
  5
2518F
330
747D
100
AcDbEntity
  8
センター
 48
2.0
100
AcDbLine
 10
7353.600000000007
 20
6815.337036525249
 30
0.0
 11
7453.600000000007
 21
6815.337036525249
 31
0.0
  0
LINE
  5
25190
330
747D
100
AcDbEntity
  8
部品1
 48
50.0
100
AcDbLine
 10
7303.600000000007
 20
6715.337036525248
 30
0.0
 11
7303.600000000007
 21
6915.337036525248
 31
0.0
  0
LINE
  5
25191
330
747D
100
AcDbEntity
  8
センター
 48
2.0
100
AcDbLine
 10
7403.600000000007
 20
6865.337036525248
 30
0.0
 11
7403.600000000007
 21
6765.337036525249
 31
0.0
  0
LINE
  5
25192
330
747D
100
AcDbEntity
  8
部品1
 48
50.0
100
AcDbLine
 10
7503.600000000007
 20
6715.337036525248
 30
0.0
 11
7503.600000000007
 21
6915.337036525248
 31
0.0
  0
CIRCLE
  5
2519F
330
747D
100
AcDbEntity
  8
部品1
 48
50.0
100
AcDbCircle
 10
8105.600000000009
 20
6206.337036525252
 30
0.0
 40
35.0
  0
LINE
  5
251A0
330
747D
100
AcDbEntity
  8
センター
 48
2.0
100
AcDbLine
 10
8055.60000000001
 20
6206.337036525252
 30
0.0
 11
8155.60000000001
 21
6206.337036525252
 31
0.0
  0
LINE
  5
251A1
330
747D
100
AcDbEntity
  8
センター
 48
2.0
100
AcDbLine
 10
8105.600000000009
 20
6256.337036525252
 30
0.0
 11
8105.600000000009
 21
6156.337036525252
 31
0.0
  0
LINE
  5
251A2
330
747D
100
AcDbEntity
  8
センター
 48
2.0
100
AcDbLine
 10
8173.600000000009
 20
6815.337036525249
 30
0.0
 11
8273.600000000008
 21
6815.337036525249
 31
0.0
  0
LINE
  5
251A3
330
747D
100
AcDbEntity
  8
部品1
 48
50.0
100
AcDbLine
 10
8323.600000000009
 20
6715.337036525248
 30
0.0
 11
8123.600000000008
 21
6715.337036525248
 31
0.0
  0
LINE
  5
251A4
330
747D
100
AcDbEntity
  8
部品1
 48
50.0
100
AcDbLine
 10
8323.600000000009
 20
6915.337036525248
 30
0.0
 11
8123.600000000008
 21
6915.337036525248
 31
0.0
  0
LINE
  5
251A5
330
747D
100
AcDbEntity
  8
センター
 48
2.0
100
AcDbLine
 10
8223.60000000001
 20
6865.337036525248
 30
0.0
 11
8223.60000000001
 21
6765.337036525249
 31
0.0
  0
LINE
  5
251A6
330
747D
100
AcDbEntity
  8
部品1
 48
50.0
100
AcDbLine
 10
8123.600000000008
 20
6715.337036525248
 30
0.0
 11
8123.600000000008
 21
6915.337036525248
 31
0.0
  0
LINE
  5
251A7
330
747D
100
AcDbEntity
  8
部品1
 48
50.0
100
AcDbLine
 10
8323.600000000009
 20
6715.337036525248
 30
0.0
 11
8323.600000000009
 21
6915.337036525248
 31
0.0
  0
DIMENSION
  5
251A8
330
747D
100
AcDbEntity
  8
寸法
 48
50.0
100
AcDbDimension
  2
*D40
 10
5135.665006330071
 20
7425.337036525249
 30
0.0
 11
5135.665006330071
 21
7821.443638243049
 31
0.0
 70
   160
 71
     5
 42
123.0
  3
INABA_S40G
100
AcDbAlignedDimension
 13
5758.600000000001
 23
7548.337036525248
 33
0.0
 14
5831.6
 24
7425.337036525249
 34
0.0
 50
90.0
100
AcDbRotatedDimension
1001
ACAD
1000
DSTYLE
1002
{
1070
   341
1005
0
1002
}
  0
DIMENSION
  5
251AA
330
747D
100
AcDbEntity
  8
寸法
 48
50.0
100
AcDbDimension
  2
*D41
 10
5881.6
 20
8274.60349461916
 30
0.0
 11
6993.600000000002
 21
8374.615305642782
 31
0.0
 70
    32
 71
     5
 42
2224.000000000002
  3
INABA_S40G
100
AcDbAlignedDimension
 13
8105.600000000002
 23
7475.33703652525
 33
0.0
 14
5881.6
 24
7475.33703652525
 34
0.0
100
AcDbRotatedDimension
1001
ACAD
1000
DSTYLE
1002
{
1070
   341
1005
0
1002
}
  0
DIMENSION
  5
251AC
330
747D
100
AcDbEntity
  8
寸法
 48
50.0
100
AcDbDimension
  2
*D42
 10
5758.600000000001
 20
8274.60349461916
 30
0.0
 11
5485.493398282202
 21
8274.60349461916
 31
0.0
 70
   160
 71
     5
 42
123.0
  3
INABA_S40G
100
AcDbAlignedDimension
 13
5881.6
 23
7475.33703652525
 33
0.0
 14
5758.600000000001
 24
7548.337036525248
 34
0.0
100
AcDbRotatedDimension
1001
ACAD
1000
DSTYLE
1002
{
1070
   341
1005
0
1002
}
  0
LINE
  5
251AD
330
747D
100
AcDbEntity
  8
センター
 48
2.0
100
AcDbLine
 10
5831.6
 20
7425.337036525249
 30
0.0
 11
5931.6
 21
7425.337036525249
 31
0.0
  0
CIRCLE
  5
251AE
330
747D
100
AcDbEntity
  8
部品1
 48
50.0
100
AcDbCircle
 10
5881.6
 20
7425.337036525249
 30
0.0
 40
35.0
  0
LINE
  5
251AF
330
747D
100
AcDbEntity
  8
センター
 48
2.0
100
AcDbLine
 10
5881.6
 20
7475.33703652525
 30
0.0
 11
5881.6
 21
7375.337036525249
 31
0.0
  0
LINE
  5
251B0
330
747D
100
AcDbEntity
  8
部品1
 48
50.0
100
AcDbLine
 10
6273.600000000006
 20
7548.337036525248
 30
0.0
 11
6273.600000000009
 21
7348.337036525252
 31
0.0
  0
LINE
  5
251B1
330
747D
100
AcDbEntity
  8
部品1
 48
50.0
100
AcDbLine
 10
6073.600000000006
 20
7548.337036525248
 30
0.0
 11
6073.600000000009
 21
7348.337036525254
 31
0.0
  0
LINE
  5
251B2
330
747D
100
AcDbEntity
  8
細線
 48
50.0
100
AcDbLine
 10
6073.600000000009
 20
7350.558283683056
 30
0.0
 11
6271.378752842204
 21
7548.337036525248
 31
0.0
  0
LINE
  5
251B3
330
747D
100
AcDbEntity
  8
細線
 48
50.0
100
AcDbLine
 10
6073.600000000007
 20
7440.360844893743
 30
0.0
 11
6181.576191631512
 21
7548.337036525248
 31
0.0
  0
LINE
  5
251B4
330
747D
100
AcDbEntity
  8
細線
 48
50.0
100
AcDbLine
 10
6073.600000000006
 20
7485.26212549909
 30
0.0
 11
6136.674911026166
 21
7548.337036525251
 31
0.0
  0
LINE
  5
251B5
330
747D
100
AcDbEntity
  8
細線
 48
50.0
100
AcDbLine
 10
6073.600000000009
 20
7395.459564288406
 30
0.0
 11
6226.477472236856
 21
7548.337036525248
 31
0.0
  0
LINE
  5
251B6
330
747D
100
AcDbEntity
  8
細線
 48
50.0
100
AcDbLine
 10
6116.280033447547
 20
7348.337036525254
 30
0.0
 11
6273.600000000006
 21
7505.657003077705
 31
0.0
  0
LINE
  5
251B7
330
747D
100
AcDbEntity
  8
細線
 48
50.0
100
AcDbLine
 10
6161.181314052912
 20
7348.337036525251
 30
0.0
 11
6273.600000000006
 21
7460.75572247236
 31
0.0
  0
LINE
  5
251B8
330
747D
100
AcDbEntity
  8
細線
 48
50.0
100
AcDbLine
 10
6206.08259465825
 20
7348.337036525252
 30
0.0
 11
6273.600000000009
 21
7415.85444186701
 31
0.0
  0
LINE
  5
251B9
330
747D
100
AcDbEntity
  8
細線
 48
50.0
100
AcDbLine
 10
6250.983875263607
 20
7348.337036525252
 30
0.0
 11
6273.600000000009
 21
7370.953161261656
 31
0.0
  0
LINE
  5
251BA
330
747D
100
AcDbEntity
  8
細線
 48
50.0
100
AcDbLine
 10
6073.600000000006
 20
7530.163406104435
 30
0.0
 11
6091.773630420821
 21
7548.337036525248
 31
0.0
  0
DIMENSION
  5
251BB
330
747D
100
AcDbEntity
  8
寸法
 48
50.0
100
AcDbDimension
  2
*D43
 10
7776.81972531859
 20
7348.337036525219
 30
0.0
 11
7776.81972531859
 21
7835.300619202385
 31
0.0
 70
   160
 71
     5
 42
200.0
  3
INABA_S40G
100
AcDbAlignedDimension
 13
7750.854682011651
 23
7548.337036525218
 33
0.0
 14
7750.854682011651
 24
7348.337036525219
 34
0.0
 50
90.0
100
AcDbRotatedDimension
1001
ACAD
1000
DSTYLE
1002
{
1070
   341
1005
0
1002
}
  0
LINE
  5
251BC
330
747D
100
AcDbEntity
  8
部品1
 48
50.0
100
AcDbLine
 10
7093.600000000008
 20
7548.337036525248
 30
0.0
 11
7093.600000000008
 21
7348.337036525252
 31
0.0
  0
LINE
  5
251BD
330
747D
100
AcDbEntity
  8
部品1
 48
50.0
100
AcDbLine
 10
6893.600000000008
 20
7548.337036525248
 30
0.0
 11
6893.600000000008
 21
7348.337036525254
 31
0.0
  0
LINE
  5
251BE
330
747D
100
AcDbEntity
  8
細線
 48
50.0
100
AcDbLine
 10
6893.600000000008
 20
7350.558283683056
 30
0.0
 11
7091.378752842205
 21
7548.337036525248
 31
0.0
  0
LINE
  5
251BF
330
747D
100
AcDbEntity
  8
細線
 48
50.0
100
AcDbLine
 10
6893.600000000008
 20
7485.26212549909
 30
0.0
 11
6956.674911026168
 21
7548.337036525251
 31
0.0
  0
LINE
  5
251C0
330
747D
100
AcDbEntity
  8
細線
 48
50.0
100
AcDbLine
 10
6893.600000000008
 20
7440.360844893743
 30
0.0
 11
7001.576191631511
 21
7548.337036525248
 31
0.0
  0
LINE
  5
251C1
330
747D
100
AcDbEntity
  8
細線
 48
50.0
100
AcDbLine
 10
6893.600000000008
 20
7395.459564288406
 30
0.0
 11
7046.477472236855
 21
7548.337036525248
 31
0.0
  0
LINE
  5
251C2
330
747D
100
AcDbEntity
  8
細線
 48
50.0
100
AcDbLine
 10
6981.181314052914
 20
7348.337036525251
 30
0.0
 11
7093.600000000008
 21
7460.75572247236
 31
0.0
  0
LINE
  5
251C3
330
747D
100
AcDbEntity
  8
細線
 48
50.0
100
AcDbLine
 10
6936.280033447549
 20
7348.337036525254
 30
0.0
 11
7093.600000000008
 21
7505.657003077705
 31
0.0
  0
LINE
  5
251C4
330
747D
100
AcDbEntity
  8
細線
 48
50.0
100
AcDbLine
 10
7070.983875263607
 20
7348.337036525252
 30
0.0
 11
7093.600000000008
 21
7370.953161261656
 31
0.0
  0
LINE
  5
251C5
330
747D
100
AcDbEntity
  8
細線
 48
50.0
100
AcDbLine
 10
7026.08259465825
 20
7348.337036525252
 30
0.0
 11
7093.600000000008
 21
7415.85444186701
 31
0.0
  0
LINE
  5
251C6
330
747D
100
AcDbEntity
  8
細線
 48
50.0
100
AcDbLine
 10
6893.600000000008
 20
7530.163406104435
 30
0.0
 11
6911.773630420821
 21
7548.337036525248
 31
0.0
  0
LINE
  5
251C7
330
747D
100
AcDbEntity
  8
部品1
 48
50.0
100
AcDbLine
 10
7913.600000000008
 20
7548.337036525248
 30
0.0
 11
7913.600000000008
 21
7348.337036525252
 31
0.0
  0
LINE
  5
251C8
330
747D
100
AcDbEntity
  8
部品1
 48
50.0
100
AcDbLine
 10
7713.600000000008
 20
7548.337036525248
 30
0.0
 11
7713.600000000008
 21
7348.337036525254
 31
0.0
  0
LINE
  5
251C9
330
747D
100
AcDbEntity
  8
細線
 48
50.0
100
AcDbLine
 10
7713.600000000008
 20
7350.558283683056
 30
0.0
 11
7911.378752842205
 21
7548.337036525248
 31
0.0
  0
LINE
  5
251CA
330
747D
100
AcDbEntity
  8
細線
 48
50.0
100
AcDbLine
 10
7713.600000000008
 20
7440.360844893743
 30
0.0
 11
7821.576191631511
 21
7548.337036525248
 31
0.0
  0
LINE
  5
251CB
330
747D
100
AcDbEntity
  8
細線
 48
50.0
100
AcDbLine
 10
7713.600000000008
 20
7485.26212549909
 30
0.0
 11
7776.674911026169
 21
7548.337036525251
 31
0.0
  0
LINE
  5
251CC
330
747D
100
AcDbEntity
  8
細線
 48
50.0
100
AcDbLine
 10
7713.600000000008
 20
7395.459564288406
 30
0.0
 11
7866.477472236855
 21
7548.337036525248
 31
0.0
  0
LINE
  5
251CD
330
747D
100
AcDbEntity
  8
細線
 48
50.0
100
AcDbLine
 10
7756.280033447549
 20
7348.337036525254
 30
0.0
 11
7913.600000000008
 21
7505.657003077705
 31
0.0
  0
LINE
  5
251CE
330
747D
100
AcDbEntity
  8
細線
 48
50.0
100
AcDbLine
 10
7801.181314052914
 20
7348.337036525251
 30
0.0
 11
7913.600000000008
 21
7460.75572247236
 31
0.0
  0
LINE
  5
251CF
330
747D
100
AcDbEntity
  8
細線
 48
50.0
100
AcDbLine
 10
7846.08259465825
 20
7348.337036525252
 30
0.0
 11
7913.600000000008
 21
7415.85444186701
 31
0.0
  0
LINE
  5
251D0
330
747D
100
AcDbEntity
  8
細線
 48
50.0
100
AcDbLine
 10
7890.983875263607
 20
7348.337036525252
 30
0.0
 11
7913.600000000008
 21
7370.953161261656
 31
0.0
  0
LINE
  5
251D1
330
747D
100
AcDbEntity
  8
センター
 48
2.0
100
AcDbLine
 10
8055.600000000003
 20
7425.337036525249
 30
0.0
 11
8155.600000000003
 21
7425.337036525249
 31
0.0
  0
CIRCLE
  5
251D2
330
747D
100
AcDbEntity
  8
部品1
 48
50.0
100
AcDbCircle
 10
8105.600000000002
 20
7425.337036525249
 30
0.0
 40
35.0
  0
LINE
  5
251D3
330
747D
100
AcDbEntity
  8
センター
 48
2.0
100
AcDbLine
 10
8105.600000000002
 20
7475.33703652525
 30
0.0
 11
8105.600000000002
 21
7375.337036525249
 31
0.0
  0
LINE
  5
251D4
330
747D
100
AcDbEntity
  8
細線
 48
50.0
100
AcDbLine
 10
7713.600000000008
 20
7530.163406104435
 30
0.0
 11
7731.773630420821
 21
7548.337036525248
 31
0.0
  0
DIMENSION
  5
251D7
330
747D
100
AcDbEntity
  8
寸法
 48
50.0
100
AcDbDimension
  2
*D44
 10
9863.60000000001
 20
8030.945853195497
 30
0.0
 11
10276.1
 21
8130.957664219119
 31
0.0
 70
    32
 71
     5
 42
824.9999999999927
  3
INABA_S40G
100
AcDbAlignedDimension
 13
10688.6
 23
7548.337036525248
 33
0.0
 14
9863.60000000001
 24
6865.337036525248
 34
0.0
100
AcDbRotatedDimension
1001
ACAD
1000
DSTYLE
1002
{
1070
   341
1005
0
1002
}
  0
LINE
  5
251DA
330
747D
100
AcDbEntity
  8
部品1
 48
50.0
100
AcDbLine
 10
10688.6
 20
6008.337036525267
 30
0.0
 11
10688.6
 21
7548.337036525248
 31
0.0
  0
DIMENSION
  5
251DB
330
747D
100
AcDbEntity
  8
寸法
 48
50.0
100
AcDbDimension
  2
*D45
 10
9043.60000000001
 20
8030.945853195497
 30
0.0
 11
9453.60000000001
 21
8130.957664219119
 31
0.0
 70
    32
 71
     5
 42
820.0
  3
INABA_S40G
100
AcDbAlignedDimension
 13
9863.60000000001
 23
6865.337036525248
 33
0.0
 14
9043.60000000001
 24
6868.337036525248
 34
0.0
100
AcDbRotatedDimension
1001
ACAD
1000
DSTYLE
1002
{
1070
   341
1005
0
1002
}
  0
LINE
  5
251EC
330
747D
100
AcDbEntity
  8
部品1
 48
50.0
100
AcDbLine
 10
9143.600000000009
 20
6915.337036525248
 30
0.0
 11
8943.600000000008
 21
6915.337036525248
 31
0.0
  0
LINE
  5
251ED
330
747D
100
AcDbEntity
  8
部品1
 48
50.0
100
AcDbLine
 10
9143.600000000009
 20
6715.337036525248
 30
0.0
 11
8943.600000000008
 21
6715.337036525248
 31
0.0
  0
LINE
  5
251EE
330
747D
100
AcDbEntity
  8
センター
 48
2.0
100
AcDbLine
 10
8993.600000000009
 20
6815.337036525249
 30
0.0
 11
9093.600000000009
 21
6815.337036525249
 31
0.0
  0
LINE
  5
251EF
330
747D
100
AcDbEntity
  8
部品1
 48
50.0
100
AcDbLine
 10
8943.600000000008
 20
6715.337036525248
 30
0.0
 11
8943.600000000008
 21
6915.337036525248
 31
0.0
  0
LINE
  5
251F0
330
747D
100
AcDbEntity
  8
センター
 48
2.0
100
AcDbLine
 10
9043.60000000001
 20
6865.337036525248
 30
0.0
 11
9043.60000000001
 21
6765.337036525249
 31
0.0
  0
LINE
  5
251F1
330
747D
100
AcDbEntity
  8
部品1
 48
50.0
100
AcDbLine
 10
9143.600000000009
 20
6715.337036525248
 30
0.0
 11
9143.600000000009
 21
6915.337036525248
 31
0.0
  0
LINE
  5
251FE
330
747D
100
AcDbEntity
  8
センター
 48
2.0
100
AcDbLine
 10
9813.600000000009
 20
6815.337036525249
 30
0.0
 11
9913.600000000009
 21
6815.337036525249
 31
0.0
  0
LINE
  5
251FF
330
747D
100
AcDbEntity
  8
部品1
 48
50.0
100
AcDbLine
 10
9963.60000000001
 20
6715.337036525248
 30
0.0
 11
9763.60000000001
 21
6715.337036525248
 31
0.0
  0
LINE
  5
25200
330
747D
100
AcDbEntity
  8
部品1
 48
50.0
100
AcDbLine
 10
9963.60000000001
 20
6915.337036525248
 30
0.0
 11
9763.60000000001
 21
6915.337036525248
 31
0.0
  0
LINE
  5
25201
330
747D
100
AcDbEntity
  8
センター
 48
2.0
100
AcDbLine
 10
9863.60000000001
 20
6865.337036525248
 30
0.0
 11
9863.60000000001
 21
6765.337036525249
 31
0.0
  0
LINE
  5
25202
330
747D
100
AcDbEntity
  8
部品1
 48
50.0
100
AcDbLine
 10
9763.60000000001
 20
6715.337036525248
 30
0.0
 11
9763.60000000001
 21
6915.337036525248
 31
0.0
  0
LINE
  5
25203
330
747D
100
AcDbEntity
  8
部品1
 48
50.0
100
AcDbLine
 10
9963.60000000001
 20
6715.337036525248
 30
0.0
 11
9963.60000000001
 21
6915.337036525248
 31
0.0
  0
LINE
  5
25212
330
747D
100
AcDbEntity
  8
センター
 48
2.0
100
AcDbLine
 10
10515.60000000001
 20
6206.337036525252
 30
0.0
 11
10615.60000000001
 21
6206.337036525252
 31
0.0
  0
CIRCLE
  5
25213
330
747D
100
AcDbEntity
  8
部品1
 48
50.0
100
AcDbCircle
 10
10565.60000000001
 20
6206.337036525252
 30
0.0
 40
35.0
  0
LINE
  5
25214
330
747D
100
AcDbEntity
  8
センター
 48
2.0
100
AcDbLine
 10
10565.60000000001
 20
6256.337036525252
 30
0.0
 11
10565.60000000001
 21
6156.337036525252
 31
0.0
  0
LINE
  5
25215
330
747D
100
AcDbEntity
  8
細線
 48
50.0
100
AcDbLine
 10
10681.08259465824
 20
6703.337036525309
 30
0.0
 11
10688.6
 21
6710.85444186706
 31
0.0
  0
LINE
  5
25216
330
747D
100
AcDbEntity
  8
細線
 48
50.0
100
AcDbLine
 10
10636.1813140529
 20
6703.337036525311
 30
0.0
 11
10688.6
 21
6755.755722472406
 31
0.0
  0
LINE
  5
25217
330
747D
100
AcDbEntity
  8
細線
 48
50.0
100
AcDbLine
 10
10591.28003344756
 20
6703.337036525311
 30
0.0
 11
10688.6
 21
6800.657003077751
 31
0.0
  0
LINE
  5
25218
330
747D
100
AcDbEntity
  8
細線
 48
50.0
100
AcDbLine
 10
10568.6
 20
6725.558283683099
 30
0.0
 11
10688.6
 21
6845.558283683097
 31
0.0
  0
LINE
  5
25219
330
747D
100
AcDbEntity
  8
細線
 48
50.0
100
AcDbLine
 10
10568.6
 20
6770.459564288441
 30
0.0
 11
10688.6
 21
6890.459564288443
 31
0.0
  0
LINE
  5
2521A
330
747D
100
AcDbEntity
  8
細線
 48
50.0
100
AcDbLine
 10
10568.6
 20
6815.360844893787
 30
0.0
 11
10656.57619163152
 21
6903.337036525312
 31
0.0
  0
LINE
  5
2521B
330
747D
100
AcDbEntity
  8
細線
 48
50.0
100
AcDbLine
 10
10568.6
 20
6860.262125499136
 30
0.0
 11
10611.67491102617
 21
6903.337036525312
 31
0.0
  0
LINE
  5
2521C
330
747D
100
AcDbEntity
  8
部品1
 48
50.0
100
AcDbLine
 10
10688.6
 20
6703.337036525311
 30
0.0
 11
10568.6
 21
6703.337036525311
 31
0.0
  0
LINE
  5
2521D
330
747D
100
AcDbEntity
  8
部品1
 48
50.0
100
AcDbLine
 10
10688.6
 20
6903.337036525312
 30
0.0
 11
10568.6
 21
6903.337036525312
 31
0.0
  0
LINE
  5
2521E
330
747D
100
AcDbEntity
  8
部品1
 48
50.0
100
AcDbLine
 10
8733.600000000008
 20
7548.337036525248
 30
0.0
 11
8733.600000000008
 21
7348.337036525252
 31
0.0
  0
LINE
  5
2521F
330
747D
100
AcDbEntity
  8
部品1
 48
50.0
100
AcDbLine
 10
8533.600000000008
 20
7548.337036525248
 30
0.0
 11
8533.600000000008
 21
7348.337036525254
 31
0.0
  0
LINE
  5
25220
330
747D
100
AcDbEntity
  8
細線
 48
50.0
100
AcDbLine
 10
8533.600000000008
 20
7350.558283683056
 30
0.0
 11
8731.378752842205
 21
7548.337036525248
 31
0.0
  0
LINE
  5
25221
330
747D
100
AcDbEntity
  8
細線
 48
50.0
100
AcDbLine
 10
8533.600000000008
 20
7395.459564288406
 30
0.0
 11
8686.477472236855
 21
7548.337036525248
 31
0.0
  0
LINE
  5
25222
330
747D
100
AcDbEntity
  8
細線
 48
50.0
100
AcDbLine
 10
8533.600000000008
 20
7485.26212549909
 30
0.0
 11
8596.674911026168
 21
7548.337036525251
 31
0.0
  0
LINE
  5
25223
330
747D
100
AcDbEntity
  8
細線
 48
50.0
100
AcDbLine
 10
8533.600000000008
 20
7440.360844893743
 30
0.0
 11
8641.576191631513
 21
7548.337036525248
 31
0.0
  0
LINE
  5
25224
330
747D
100
AcDbEntity
  8
細線
 48
50.0
100
AcDbLine
 10
8621.181314052915
 20
7348.337036525251
 30
0.0
 11
8733.600000000008
 21
7460.75572247236
 31
0.0
  0
LINE
  5
25225
330
747D
100
AcDbEntity
  8
細線
 48
50.0
100
AcDbLine
 10
8576.280033447549
 20
7348.337036525254
 30
0.0
 11
8733.600000000008
 21
7505.657003077705
 31
0.0
  0
LINE
  5
25226
330
747D
100
AcDbEntity
  8
細線
 48
50.0
100
AcDbLine
 10
8710.983875263607
 20
7348.337036525252
 30
0.0
 11
8733.600000000008
 21
7370.953161261656
 31
0.0
  0
LINE
  5
25227
330
747D
100
AcDbEntity
  8
細線
 48
50.0
100
AcDbLine
 10
8666.08259465825
 20
7348.337036525252
 30
0.0
 11
8733.600000000008
 21
7415.85444186701
 31
0.0
  0
LINE
  5
25228
330
747D
100
AcDbEntity
  8
細線
 48
50.0
100
AcDbLine
 10
8533.600000000008
 20
7530.163406104435
 30
0.0
 11
8551.773630420822
 21
7548.337036525248
 31
0.0
  0
LINE
  5
25229
330
747D
100
AcDbEntity
  8
部品1
 48
50.0
100
AcDbLine
 10
9553.600000000008
 20
7548.337036525248
 30
0.0
 11
9553.600000000008
 21
7348.337036525252
 31
0.0
  0
LINE
  5
2522A
330
747D
100
AcDbEntity
  8
部品1
 48
50.0
100
AcDbLine
 10
9353.600000000007
 20
7548.337036525248
 30
0.0
 11
9353.600000000007
 21
7348.337036525254
 31
0.0
  0
LINE
  5
2522B
330
747D
100
AcDbEntity
  8
細線
 48
50.0
100
AcDbLine
 10
9353.600000000007
 20
7440.360844893743
 30
0.0
 11
9461.576191631513
 21
7548.337036525248
 31
0.0
  0
LINE
  5
2522C
330
747D
100
AcDbEntity
  8
細線
 48
50.0
100
AcDbLine
 10
9353.600000000007
 20
7485.26212549909
 30
0.0
 11
9416.674911026168
 21
7548.337036525251
 31
0.0
  0
LINE
  5
2522D
330
747D
100
AcDbEntity
  8
細線
 48
50.0
100
AcDbLine
 10
9353.600000000007
 20
7395.459564288406
 30
0.0
 11
9506.477472236856
 21
7548.337036525248
 31
0.0
  0
LINE
  5
2522E
330
747D
100
AcDbEntity
  8
細線
 48
50.0
100
AcDbLine
 10
9353.600000000007
 20
7350.558283683056
 30
0.0
 11
9551.378752842206
 21
7548.337036525248
 31
0.0
  0
LINE
  5
2522F
330
747D
100
AcDbEntity
  8
細線
 48
50.0
100
AcDbLine
 10
9396.280033447549
 20
7348.337036525254
 30
0.0
 11
9553.600000000008
 21
7505.657003077705
 31
0.0
  0
LINE
  5
25230
330
747D
100
AcDbEntity
  8
細線
 48
50.0
100
AcDbLine
 10
9441.181314052913
 20
7348.337036525251
 30
0.0
 11
9553.600000000008
 21
7460.75572247236
 31
0.0
  0
LINE
  5
25231
330
747D
100
AcDbEntity
  8
細線
 48
50.0
100
AcDbLine
 10
9486.082594658249
 20
7348.337036525252
 30
0.0
 11
9553.600000000008
 21
7415.85444186701
 31
0.0
  0
LINE
  5
25232
330
747D
100
AcDbEntity
  8
細線
 48
50.0
100
AcDbLine
 10
9530.983875263608
 20
7348.337036525252
 30
0.0
 11
9553.600000000008
 21
7370.953161261656
 31
0.0
  0
LINE
  5
25233
330
747D
100
AcDbEntity
  8
細線
 48
50.0
100
AcDbLine
 10
9353.600000000007
 20
7530.163406104435
 30
0.0
 11
9371.773630420822
 21
7548.337036525248
 31
0.0
  0
DIMENSION
  5
25235
330
747D
100
AcDbEntity
  8
寸法
 48
50.0
100
AcDbDimension
  2
*D46
 10
10565.6
 20
8274.60349461916
 30
0.0
 11
10961.7066017178
 21
8274.60349461916
 31
0.0
 70
   160
 71
     5
 42
123.0
  3
INABA_S40G
100
AcDbAlignedDimension
 13
10688.6
 23
7548.337036525248
 33
0.0
 14
10565.6
 24
7475.33703652525
 34
0.0
100
AcDbRotatedDimension
1001
ACAD
1000
DSTYLE
1002
{
1070
   341
1005
0
1002
}
  0
DIMENSION
  5
25236
330
747D
100
AcDbEntity
  8
寸法
 48
50.0
100
AcDbDimension
  2
*D47
 10
10568.6
 20
7052.709829555992
 30
0.0
 11
10958.65905511811
 21
7052.709829555992
 31
0.0
 70
   160
 71
     5
 42
120.0000000000036
  3
INABA_S40G
100
AcDbAlignedDimension
 13
10688.6
 23
7069.703093594824
 33
0.0
 14
10568.6
 24
7052.709829555992
 34
0.0
100
AcDbRotatedDimension
1001
ACAD
1000
DSTYLE
1002
{
1070
   341
1005
0
1002
}
  0
LINE
  5
25237
330
747D
100
AcDbEntity
  8
部品1
 48
50.0
100
AcDbLine
 10
10373.6
 20
7548.337036525248
 30
0.0
 11
10373.6
 21
7348.337036525252
 31
0.0
  0
LINE
  5
25238
330
747D
100
AcDbEntity
  8
部品1
 48
50.0
100
AcDbLine
 10
10173.6
 20
7548.337036525248
 30
0.0
 11
10173.6
 21
7348.337036525254
 31
0.0
  0
LINE
  5
25239
330
747D
100
AcDbEntity
  8
細線
 48
50.0
100
AcDbLine
 10
10173.6
 20
7350.558283683056
 30
0.0
 11
10371.3787528422
 21
7548.337036525248
 31
0.0
  0
LINE
  5
2523A
330
747D
100
AcDbEntity
  8
細線
 48
50.0
100
AcDbLine
 10
10173.6
 20
7395.459564288406
 30
0.0
 11
10326.47747223685
 21
7548.337036525248
 31
0.0
  0
LINE
  5
2523B
330
747D
100
AcDbEntity
  8
細線
 48
50.0
100
AcDbLine
 10
10173.6
 20
7485.26212549909
 30
0.0
 11
10236.67491102617
 21
7548.337036525251
 31
0.0
  0
LINE
  5
2523C
330
747D
100
AcDbEntity
  8
細線
 48
50.0
100
AcDbLine
 10
10173.6
 20
7440.360844893743
 30
0.0
 11
10281.57619163151
 21
7548.337036525248
 31
0.0
  0
LINE
  5
2523D
330
747D
100
AcDbEntity
  8
細線
 48
50.0
100
AcDbLine
 10
10261.18131405291
 20
7348.337036525251
 30
0.0
 11
10373.6
 21
7460.75572247236
 31
0.0
  0
LINE
  5
2523E
330
747D
100
AcDbEntity
  8
細線
 48
50.0
100
AcDbLine
 10
10216.28003344755
 20
7348.337036525254
 30
0.0
 11
10373.6
 21
7505.657003077705
 31
0.0
  0
LINE
  5
2523F
330
747D
100
AcDbEntity
  8
細線
 48
50.0
100
AcDbLine
 10
10350.98387526361
 20
7348.337036525252
 30
0.0
 11
10373.6
 21
7370.953161261656
 31
0.0
  0
LINE
  5
25240
330
747D
100
AcDbEntity
  8
細線
 48
50.0
100
AcDbLine
 10
10306.08259465825
 20
7348.337036525252
 30
0.0
 11
10373.6
 21
7415.85444186701
 31
0.0
  0
CIRCLE
  5
25241
330
747D
100
AcDbEntity
  8
部品1
 48
50.0
100
AcDbCircle
 10
10565.6
 20
7425.337036525249
 30
0.0
 40
35.0
  0
LINE
  5
25242
330
747D
100
AcDbEntity
  8
センター
 48
2.0
100
AcDbLine
 10
10515.6
 20
7425.337036525249
 30
0.0
 11
10615.6
 21
7425.337036525249
 31
0.0
  0
LINE
  5
25243
330
747D
100
AcDbEntity
  8
センター
 48
2.0
100
AcDbLine
 10
10565.6
 20
7475.33703652525
 30
0.0
 11
10565.6
 21
7375.337036525249
 31
0.0
  0
LINE
  5
25244
330
747D
100
AcDbEntity
  8
細線
 48
50.0
100
AcDbLine
 10
10173.6
 20
7530.163406104435
 30
0.0
 11
10191.77363042082
 21
7548.337036525248
 31
0.0
  0
TEXT
  5
259AB
330
747D
100
AcDbEntity
  8
文字
 62
     7
 48
50.0
100
AcDbText
 10
14251.2
 20
838.2527270729188
 30
0.0
 40
100.0
  1
～一般型・多雪地型・豪雪地型～
  7
STYLE2
100
AcDbText
  0
LINE
  5
259CB
330
747D
100
AcDbEntity
  8
部品1
 48
50.0
100
AcDbLine
 10
10568.6
 20
6288.337036525266
 30
0.0
 11
5878.600000000002
 21
6288.337036525245
 31
0.0
  0
LINE
  5
259CC
330
747D
100
AcDbEntity
  8
細線
 48
50.0
100
AcDbLine
 10
6893.60000000002
 20
6231.742916418923
 30
0.0
 11
6950.194120106331
 21
6288.337036525246
 31
0.0
  0
LINE
  5
259CD
330
747D
100
AcDbEntity
  8
細線
 48
50.0
100
AcDbLine
 10
6893.60000000002
 20
6186.841635813577
 30
0.0
 11
6995.095400711696
 21
6288.337036525247
 31
0.0
  0
LINE
  5
259CE
330
747D
100
AcDbEntity
  8
細線
 48
50.0
100
AcDbLine
 10
6893.600000000022
 20
6141.940355208222
 30
0.0
 11
7039.996681317028
 21
6288.337036525247
 31
0.0
  0
LINE
  5
259CF
330
747D
100
AcDbEntity
  8
細線
 48
50.0
100
AcDbLine
 10
6893.600000000022
 20
6097.039074602879
 30
0.0
 11
7084.897961922393
 21
6288.337036525248
 31
0.0
  0
LINE
  5
259D0
330
747D
100
AcDbEntity
  8
細線
 48
50.0
100
AcDbLine
 10
7074.305645554483
 20
6008.337036525265
 30
0.0
 11
7093.600000000026
 21
6027.631390970806
 31
0.0
  0
LINE
  5
259D1
330
747D
100
AcDbEntity
  8
細線
 48
50.0
100
AcDbLine
 10
6893.600000000025
 20
6052.137793997534
 30
0.0
 11
7093.600000000019
 21
6252.137793997526
 31
0.0
  0
LINE
  5
259D2
330
747D
100
AcDbEntity
  8
細線
 48
50.0
100
AcDbLine
 10
6894.700523133098
 20
6008.33703652526
 30
0.0
 11
7093.60000000002
 21
6207.236513392187
 31
0.0
  0
LINE
  5
259D3
330
747D
100
AcDbEntity
  8
部品1
 48
50.0
100
AcDbLine
 10
6893.600000000019
 20
6288.337036525247
 30
0.0
 11
6893.600000000025
 21
6008.33703652526
 31
0.0
  0
LINE
  5
259D4
330
747D
100
AcDbEntity
  8
細線
 48
50.0
100
AcDbLine
 10
6939.601803738442
 20
6008.337036525261
 30
0.0
 11
7093.600000000022
 21
6162.335232786843
 31
0.0
  0
LINE
  5
259D5
330
747D
100
AcDbEntity
  8
部品1
 48
50.0
100
AcDbLine
 10
7093.600000000019
 20
6288.337036525247
 30
0.0
 11
7093.600000000025
 21
6008.337036525263
 31
0.0
  0
LINE
  5
259D6
330
747D
100
AcDbEntity
  8
細線
 48
50.0
100
AcDbLine
 10
6984.503084343789
 20
6008.337036525261
 30
0.0
 11
7093.600000000022
 21
6117.433952181494
 31
0.0
  0
LINE
  5
259D7
330
747D
100
AcDbEntity
  8
細線
 48
50.0
100
AcDbLine
 10
7029.404364949138
 20
6008.337036525263
 30
0.0
 11
7093.600000000025
 21
6072.532671576151
 31
0.0
  0
LINE
  5
259D8
330
747D
100
AcDbEntity
  8
細線
 48
50.0
100
AcDbLine
 10
7713.60000000002
 20
6231.742916418923
 30
0.0
 11
7770.194120106331
 21
6288.337036525246
 31
0.0
  0
LINE
  5
259D9
330
747D
100
AcDbEntity
  8
細線
 48
50.0
100
AcDbLine
 10
7713.60000000002
 20
6186.841635813577
 30
0.0
 11
7815.095400711697
 21
6288.337036525247
 31
0.0
  0
LINE
  5
259DA
330
747D
100
AcDbEntity
  8
細線
 48
50.0
100
AcDbLine
 10
7713.600000000022
 20
6141.940355208222
 30
0.0
 11
7859.996681317028
 21
6288.337036525247
 31
0.0
  0
LINE
  5
259DB
330
747D
100
AcDbEntity
  8
細線
 48
50.0
100
AcDbLine
 10
7713.600000000022
 20
6097.039074602879
 30
0.0
 11
7904.897961922393
 21
6288.337036525248
 31
0.0
  0
LINE
  5
259DC
330
747D
100
AcDbEntity
  8
細線
 48
50.0
100
AcDbLine
 10
7894.305645554483
 20
6008.337036525265
 30
0.0
 11
7913.600000000027
 21
6027.631390970806
 31
0.0
  0
LINE
  5
259DD
330
747D
100
AcDbEntity
  8
細線
 48
50.0
100
AcDbLine
 10
7713.600000000024
 20
6052.137793997534
 30
0.0
 11
7913.600000000018
 21
6252.137793997526
 31
0.0
  0
LINE
  5
259DE
330
747D
100
AcDbEntity
  8
細線
 48
50.0
100
AcDbLine
 10
7714.700523133096
 20
6008.33703652526
 30
0.0
 11
7913.600000000021
 21
6207.236513392187
 31
0.0
  0
LINE
  5
259DF
330
747D
100
AcDbEntity
  8
部品1
 48
50.0
100
AcDbLine
 10
7713.600000000019
 20
6288.337036525247
 30
0.0
 11
7713.600000000024
 21
6008.33703652526
 31
0.0
  0
LINE
  5
259E0
330
747D
100
AcDbEntity
  8
細線
 48
50.0
100
AcDbLine
 10
7759.601803738442
 20
6008.337036525261
 30
0.0
 11
7913.600000000022
 21
6162.335232786843
 31
0.0
  0
LINE
  5
259E1
330
747D
100
AcDbEntity
  8
部品1
 48
50.0
100
AcDbLine
 10
7913.600000000018
 20
6288.337036525247
 30
0.0
 11
7913.600000000023
 21
6008.337036525263
 31
0.0
  0
LINE
  5
259E2
330
747D
100
AcDbEntity
  8
細線
 48
50.0
100
AcDbLine
 10
7804.503084343789
 20
6008.337036525261
 30
0.0
 11
7913.600000000022
 21
6117.433952181494
 31
0.0
  0
LINE
  5
259E3
330
747D
100
AcDbEntity
  8
細線
 48
50.0
100
AcDbLine
 10
7849.404364949137
 20
6008.337036525263
 30
0.0
 11
7913.600000000023
 21
6072.532671576151
 31
0.0
  0
LINE
  5
259E4
330
747D
100
AcDbEntity
  8
細線
 48
50.0
100
AcDbLine
 10
8533.600000000021
 20
6231.742916418923
 30
0.0
 11
8590.19412010633
 21
6288.337036525246
 31
0.0
  0
LINE
  5
259E5
330
747D
100
AcDbEntity
  8
細線
 48
50.0
100
AcDbLine
 10
8533.600000000021
 20
6186.841635813577
 30
0.0
 11
8635.095400711696
 21
6288.337036525247
 31
0.0
  0
LINE
  5
259E6
330
747D
100
AcDbEntity
  8
細線
 48
50.0
100
AcDbLine
 10
8533.600000000022
 20
6141.940355208222
 30
0.0
 11
8679.996681317028
 21
6288.337036525247
 31
0.0
  0
LINE
  5
259E7
330
747D
100
AcDbEntity
  8
細線
 48
50.0
100
AcDbLine
 10
8533.600000000022
 20
6097.039074602879
 30
0.0
 11
8724.897961922394
 21
6288.337036525248
 31
0.0
  0
LINE
  5
259E8
330
747D
100
AcDbEntity
  8
細線
 48
50.0
100
AcDbLine
 10
8714.305645554484
 20
6008.337036525265
 30
0.0
 11
8733.600000000025
 21
6027.631390970806
 31
0.0
  0
LINE
  5
259E9
330
747D
100
AcDbEntity
  8
細線
 48
50.0
100
AcDbLine
 10
8533.600000000024
 20
6052.137793997534
 30
0.0
 11
8733.600000000018
 21
6252.137793997526
 31
0.0
  0
LINE
  5
259EA
330
747D
100
AcDbEntity
  8
細線
 48
50.0
100
AcDbLine
 10
8534.700523133096
 20
6008.33703652526
 30
0.0
 11
8733.600000000022
 21
6207.236513392187
 31
0.0
  0
LINE
  5
259EB
330
747D
100
AcDbEntity
  8
部品1
 48
50.0
100
AcDbLine
 10
8533.600000000021
 20
6288.337036525247
 30
0.0
 11
8533.600000000024
 21
6008.33703652526
 31
0.0
  0
LINE
  5
259EC
330
747D
100
AcDbEntity
  8
細線
 48
50.0
100
AcDbLine
 10
8579.601803738443
 20
6008.337036525261
 30
0.0
 11
8733.600000000022
 21
6162.335232786843
 31
0.0
  0
LINE
  5
259ED
330
747D
100
AcDbEntity
  8
部品1
 48
50.0
100
AcDbLine
 10
8733.600000000018
 20
6288.337036525247
 30
0.0
 11
8733.600000000024
 21
6008.337036525263
 31
0.0
  0
LINE
  5
259EE
330
747D
100
AcDbEntity
  8
細線
 48
50.0
100
AcDbLine
 10
8624.503084343789
 20
6008.337036525261
 30
0.0
 11
8733.600000000022
 21
6117.433952181494
 31
0.0
  0
LINE
  5
259EF
330
747D
100
AcDbEntity
  8
細線
 48
50.0
100
AcDbLine
 10
8669.404364949137
 20
6008.337036525263
 30
0.0
 11
8733.600000000024
 21
6072.532671576151
 31
0.0
  0
LINE
  5
259F0
330
747D
100
AcDbEntity
  8
細線
 48
50.0
100
AcDbLine
 10
9353.600000000019
 20
6231.742916418923
 30
0.0
 11
9410.19412010633
 21
6288.337036525246
 31
0.0
  0
LINE
  5
259F1
330
747D
100
AcDbEntity
  8
細線
 48
50.0
100
AcDbLine
 10
9353.600000000019
 20
6186.841635813577
 30
0.0
 11
9455.095400711696
 21
6288.337036525247
 31
0.0
  0
LINE
  5
259F2
330
747D
100
AcDbEntity
  8
細線
 48
50.0
100
AcDbLine
 10
9353.600000000023
 20
6141.940355208222
 30
0.0
 11
9499.996681317028
 21
6288.337036525247
 31
0.0
  0
LINE
  5
259F3
330
747D
100
AcDbEntity
  8
細線
 48
50.0
100
AcDbLine
 10
9353.600000000023
 20
6097.039074602879
 30
0.0
 11
9544.897961922393
 21
6288.337036525248
 31
0.0
  0
LINE
  5
259F4
330
747D
100
AcDbEntity
  8
細線
 48
50.0
100
AcDbLine
 10
9534.305645554482
 20
6008.337036525265
 30
0.0
 11
9553.600000000026
 21
6027.631390970806
 31
0.0
  0
LINE
  5
259F5
330
747D
100
AcDbEntity
  8
細線
 48
50.0
100
AcDbLine
 10
9353.600000000025
 20
6052.137793997534
 30
0.0
 11
9553.600000000018
 21
6252.137793997526
 31
0.0
  0
LINE
  5
259F6
330
747D
100
AcDbEntity
  8
細線
 48
50.0
100
AcDbLine
 10
9354.700523133097
 20
6008.33703652526
 30
0.0
 11
9553.60000000002
 21
6207.236513392187
 31
0.0
  0
LINE
  5
259F7
330
747D
100
AcDbEntity
  8
部品1
 48
50.0
100
AcDbLine
 10
9353.600000000019
 20
6288.337036525247
 30
0.0
 11
9353.600000000025
 21
6008.33703652526
 31
0.0
  0
LINE
  5
259F8
330
747D
100
AcDbEntity
  8
細線
 48
50.0
100
AcDbLine
 10
9399.601803738441
 20
6008.337036525261
 30
0.0
 11
9553.600000000022
 21
6162.335232786843
 31
0.0
  0
LINE
  5
259F9
330
747D
100
AcDbEntity
  8
部品1
 48
50.0
100
AcDbLine
 10
9553.600000000018
 20
6288.337036525247
 30
0.0
 11
9553.600000000024
 21
6008.337036525263
 31
0.0
  0
LINE
  5
259FA
330
747D
100
AcDbEntity
  8
細線
 48
50.0
100
AcDbLine
 10
9444.503084343789
 20
6008.337036525261
 30
0.0
 11
9553.600000000022
 21
6117.433952181494
 31
0.0
  0
LINE
  5
259FB
330
747D
100
AcDbEntity
  8
細線
 48
50.0
100
AcDbLine
 10
9489.404364949137
 20
6008.337036525263
 30
0.0
 11
9553.600000000024
 21
6072.532671576151
 31
0.0
  0
LINE
  5
259FC
330
747D
100
AcDbEntity
  8
細線
 48
50.0
100
AcDbLine
 10
10173.60000000002
 20
6231.742916418923
 30
0.0
 11
10230.19412010633
 21
6288.337036525246
 31
0.0
  0
LINE
  5
259FD
330
747D
100
AcDbEntity
  8
細線
 48
50.0
100
AcDbLine
 10
10173.60000000002
 20
6186.841635813577
 30
0.0
 11
10275.09540071169
 21
6288.337036525247
 31
0.0
  0
LINE
  5
259FE
330
747D
100
AcDbEntity
  8
細線
 48
50.0
100
AcDbLine
 10
10173.60000000002
 20
6141.940355208222
 30
0.0
 11
10319.99668131703
 21
6288.337036525247
 31
0.0
  0
LINE
  5
259FF
330
747D
100
AcDbEntity
  8
細線
 48
50.0
100
AcDbLine
 10
10173.60000000002
 20
6097.039074602879
 30
0.0
 11
10364.89796192239
 21
6288.337036525248
 31
0.0
  0
LINE
  5
25A00
330
747D
100
AcDbEntity
  8
細線
 48
50.0
100
AcDbLine
 10
10354.30564555448
 20
6008.337036525265
 30
0.0
 11
10373.60000000002
 21
6027.631390970806
 31
0.0
  0
LINE
  5
25A01
330
747D
100
AcDbEntity
  8
細線
 48
50.0
100
AcDbLine
 10
10173.60000000002
 20
6052.137793997534
 30
0.0
 11
10373.60000000002
 21
6252.137793997526
 31
0.0
  0
LINE
  5
25A02
330
747D
100
AcDbEntity
  8
細線
 48
50.0
100
AcDbLine
 10
10174.7005231331
 20
6008.33703652526
 30
0.0
 11
10373.60000000002
 21
6207.236513392187
 31
0.0
  0
LINE
  5
25A03
330
747D
100
AcDbEntity
  8
部品1
 48
50.0
100
AcDbLine
 10
10173.60000000002
 20
6288.337036525247
 30
0.0
 11
10173.60000000002
 21
6008.33703652526
 31
0.0
  0
LINE
  5
25A04
330
747D
100
AcDbEntity
  8
細線
 48
50.0
100
AcDbLine
 10
10219.60180373844
 20
6008.337036525261
 30
0.0
 11
10373.60000000002
 21
6162.335232786843
 31
0.0
  0
LINE
  5
25A05
330
747D
100
AcDbEntity
  8
部品1
 48
50.0
100
AcDbLine
 10
10373.60000000002
 20
6288.337036525247
 30
0.0
 11
10373.60000000002
 21
6008.337036525263
 31
0.0
  0
LINE
  5
25A06
330
747D
100
AcDbEntity
  8
細線
 48
50.0
100
AcDbLine
 10
10264.50308434379
 20
6008.337036525261
 30
0.0
 11
10373.60000000002
 21
6117.433952181494
 31
0.0
  0
LINE
  5
25A07
330
747D
100
AcDbEntity
  8
細線
 48
50.0
100
AcDbLine
 10
10309.40436494913
 20
6008.337036525263
 30
0.0
 11
10373.60000000002
 21
6072.532671576151
 31
0.0
  0
LINE
  5
25A25
330
747D
100
AcDbEntity
  8
部品1
 48
50.0
100
AcDbLine
 10
10568.6
 20
6288.337036525266
 30
0.0
 11
10568.6
 21
7348.337036525248
 31
0.0
  0
LINE
  5
25A26
330
747D
100
AcDbEntity
  8
部品1
 48
50.0
100
AcDbLine
 10
5878.600000000002
 20
6288.337036525246
 30
0.0
 11
5878.599999999996
 21
7348.337036525248
 31
0.0
  0
MTEXT
  5
25BBE
102
{ACAD_REACTORS
330
25BBF
102
}
330
747D
100
AcDbEntity
  8
寸法
 62
     7
 48
50.0
100
AcDbMText
 10
11033.91872580046
 20
2290.451054425489
 30
0.0
 40
120.0
 41
0.8
 71
     4
 72
     1
  1
\A1;C.B
  7
STYLE1
 73
     1
 44
1.0
1001
ACAD
1000
MTEXTBEGIN
1070
    73
1070
     1
1070
    44
1040
1.0
1070
    74
1070
     0
1000
MTEXTEND
  0
LEADER
  5
25BBF
330
747D
100
AcDbEntity
  8
寸法
 48
50.0
100
AcDbLeader
  3
INABA_S50G
 73
     0
 74
     0
 75
     1
 40
120.0
 41
185.591883092037
 76
     3
 10
10850.78051916681
 20
2033.304733744351
 30
0.0
 10
10883.91872580046
 20
2205.451054425489
 30
0.0
 10
11008.91872580046
 20
2205.451054425489
 30
0.0
340
25BBE
1001
ACAD
1000
DSTYLE
1002
{
1070
    40
1040
1.0
1002
}
  0
LINE
  5
25BC0
330
747D
100
AcDbEntity
  8
細線
 48
50.0
100
AcDbLine
 10
10996.43393274322
 20
1677.605818091
 30
0.0
 11
10990.00315212488
 21
1701.605818091
 31
0.0
  0
LINE
  5
25BC1
330
747D
100
AcDbEntity
  8
細線
 48
50.0
100
AcDbLine
 10
10974.99799734873
 20
1597.605818091
 30
0.0
 11
10981.42877796708
 21
1573.605818091
 31
0.0
  0
LINE
  5
25BC2
330
747D
100
AcDbEntity
  8
部品1
100
AcDbLine
 10
11040.05610755089
 20
1793.304733744351
 30
0.0
 11
11040.05610755089
 21
1573.605818091001
 31
0.0
  0
LINE
  5
25BC3
330
747D
100
AcDbEntity
  8
細線
 48
50.0
100
AcDbLine
 10
10968.56721673038
 20
1573.605818091
 30
0.0
 11
11002.86471336157
 21
1701.605818090999
 31
0.0
  0
LINE
  5
25BC4
330
747D
100
AcDbEntity
  8
細線
 48
50.0
100
AcDbLine
 10
10917.54588779598
 20
1677.605818091
 30
0.0
 11
10911.11510717763
 21
1701.605818091
 31
0.0
  0
LINE
  5
25BC5
330
747D
100
AcDbEntity
  8
細線
100
AcDbLine
 10
10793.09250205022
 20
1701.605818091003
 30
0.0
 11
10884.79141770357
 21
1793.304733744351
 31
0.0
  0
LINE
  5
25BC6
330
747D
100
AcDbEntity
  8
細線
 48
50.0
100
AcDbLine
 10
10838.65784284872
 20
1677.605818091001
 30
0.0
 11
10832.22706223037
 21
1701.605818091001
 31
0.0
  0
LINE
  5
25BC7
330
747D
100
AcDbEntity
  8
細線
100
AcDbLine
 10
10827.03362754718
 20
1701.605818091003
 30
0.0
 11
10918.73254320052
 21
1793.304733744351
 31
0.0
  0
LINE
  5
25BC8
330
747D
100
AcDbEntity
  8
細線
 48
50.0
100
AcDbLine
 10
10601.99370800699
 20
1677.605818091001
 30
0.0
 11
10595.56292738864
 21
1701.605818091001
 31
0.0
  0
LINE
  5
25BC9
330
747D
100
AcDbEntity
  8
細線
 48
50.0
100
AcDbLine
 10
10680.88175295424
 20
1677.605818091001
 30
0.0
 11
10674.45097233589
 21
1701.605818091001
 31
0.0
  0
LINE
  5
25BCA
330
747D
100
AcDbEntity
  8
細線
 48
50.0
100
AcDbLine
 10
10759.76979790148
 20
1677.605818091001
 30
0.0
 11
10753.33901728313
 21
1701.605818091001
 31
0.0
  0
LINE
  5
25BCB
330
747D
100
AcDbEntity
  8
細線
 48
50.0
100
AcDbLine
 10
10896.10995240149
 20
1597.605818091
 30
0.0
 11
10902.54073301983
 21
1573.605818091
 31
0.0
  0
LINE
  5
25BCC
330
747D
100
AcDbEntity
  8
細線
 48
50.0
100
AcDbLine
 10
10817.22190745424
 20
1597.605818091001
 30
0.0
 11
10823.6526880726
 21
1573.605818091001
 31
0.0
  0
LINE
  5
25BCD
330
747D
100
AcDbEntity
  8
細線
 48
50.0
100
AcDbLine
 10
10659.44581755975
 20
1597.605818091001
 30
0.0
 11
10665.87659817809
 21
1573.605818091001
 31
0.0
  0
LINE
  5
25BCE
330
747D
100
AcDbEntity
  8
細線
 48
50.0
100
AcDbLine
 10
10738.33386250699
 20
1597.605818091001
 30
0.0
 11
10744.76464312534
 21
1573.605818091001
 31
0.0
  0
LINE
  5
25BCF
330
747D
100
AcDbEntity
  8
細線
 48
50.0
100
AcDbLine
 10
10731.90308188864
 20
1573.605818091001
 30
0.0
 11
10766.20057851982
 21
1701.605818091
 31
0.0
  0
LINE
  5
25BD0
330
747D
100
AcDbEntity
  8
細線
 48
50.0
100
AcDbLine
 10
10653.0150369414
 20
1573.605818091
 30
0.0
 11
10687.31253357258
 21
1701.605818091
 31
0.0
  0
LINE
  5
25BD1
330
747D
100
AcDbEntity
  8
細線
 48
50.0
100
AcDbLine
 10
10810.79112683589
 20
1573.605818091
 30
0.0
 11
10845.08862346706
 21
1701.605818091001
 31
0.0
  0
LINE
  5
25BD2
330
747D
100
AcDbEntity
  8
細線
100
AcDbLine
 10
10860.97475304413
 20
1701.605818091003
 30
0.0
 11
10952.67366869748
 21
1793.304733744351
 31
0.0
  0
LINE
  5
25BD3
330
747D
100
AcDbEntity
  8
細線
 48
50.0
100
AcDbLine
 10
10889.67917178314
 20
1573.605818090998
 30
0.0
 11
10923.97666841432
 21
1701.605818090999
 31
0.0
  0
LINE
  5
25BD4
330
747D
100
AcDbEntity
  8
部品1
100
AcDbLine
 10
10920.05610755089
 20
2033.304733744351
 30
0.0
 11
10920.05610755089
 21
1793.304733744351
 31
0.0
  0
LINE
  5
25BD5
330
747D
100
AcDbEntity
  8
細線
100
AcDbLine
 10
10906.21844520331
 20
1793.304733744353
 30
0.0
 11
10666.21844520331
 21
2033.304733744351
 31
0.0
  0
LINE
  5
25BD6
330
747D
100
AcDbEntity
  8
細線
100
AcDbLine
 10
10855.30675695788
 20
1793.304733744351
 30
0.0
 11
10615.30675695788
 21
2033.304733744351
 31
0.0
  0
LINE
  5
25BD7
330
747D
100
AcDbEntity
  8
細線
100
AcDbLine
 10
10467.03362754717
 20
1701.605818091001
 30
0.0
 11
10558.73254320052
 21
1793.304733744351
 31
0.0
  0
LINE
  5
25BD8
330
747D
100
AcDbEntity
  8
細線
100
AcDbLine
 10
10433.09250205022
 20
1701.605818091001
 30
0.0
 11
10524.79141770357
 21
1793.304733744351
 31
0.0
  0
LINE
  5
25BD9
330
747D
100
AcDbEntity
  8
細線
 48
50.0
100
AcDbLine
 10
10444.21761811249
 20
1677.605818091001
 30
0.0
 11
10437.78683749414
 21
1701.605818091001
 31
0.0
  0
LINE
  5
25BDA
330
747D
100
AcDbEntity
  8
細線
 48
50.0
100
AcDbLine
 10
10523.10566305974
 20
1677.605818091001
 30
0.0
 11
10516.6748824414
 21
1701.605818091001
 31
0.0
  0
LINE
  5
25BDB
330
747D
100
AcDbEntity
  8
細線
 48
50.0
100
AcDbLine
 10
10365.32957316524
 20
1677.605818091001
 30
0.0
 11
10358.89879254689
 21
1701.605818091001
 31
0.0
  0
LINE
  5
25BDC
330
747D
100
AcDbEntity
  8
細線
 48
50.0
100
AcDbLine
 10
10580.5577726125
 20
1597.605818091001
 30
0.0
 11
10586.98855323085
 21
1573.605818091001
 31
0.0
  0
LINE
  5
25BDD
330
747D
100
AcDbEntity
  8
細線
 48
50.0
100
AcDbLine
 10
10501.66972766525
 20
1597.605818091001
 30
0.0
 11
10508.1005082836
 21
1573.605818091001
 31
0.0
  0
LINE
  5
25BDE
330
747D
100
AcDbEntity
  8
細線
 48
50.0
100
AcDbLine
 10
10343.89363777075
 20
1597.605818091001
 30
0.0
 11
10350.3244183891
 21
1573.605818091001
 31
0.0
  0
LINE
  5
25BDF
330
747D
100
AcDbEntity
  8
細線
 48
50.0
100
AcDbLine
 10
10422.781682718
 20
1597.605818091001
 30
0.0
 11
10429.21246333635
 21
1573.605818091001
 31
0.0
  0
LINE
  5
25BE0
330
747D
100
AcDbEntity
  8
部品1
100
AcDbLine
 10
10320.05610755089
 20
1573.605818090998
 30
0.0
 11
10320.05610755089
 21
1793.304733744351
 31
0.0
  0
LINE
  5
25BE1
330
747D
100
AcDbEntity
  8
細線
 48
50.0
100
AcDbLine
 10
10337.4628571524
 20
1573.605818091001
 30
0.0
 11
10371.76035378359
 21
1701.605818091001
 31
0.0
  0
LINE
  5
25BE2
330
747D
100
AcDbEntity
  8
細線
 48
50.0
100
AcDbLine
 10
10495.2389470469
 20
1573.605818091001
 30
0.0
 11
10529.53644367808
 21
1701.605818091001
 31
0.0
  0
LINE
  5
25BE3
330
747D
100
AcDbEntity
  8
細線
 48
50.0
100
AcDbLine
 10
10416.35090209965
 20
1573.605818091
 30
0.0
 11
10450.64839873083
 21
1701.605818091
 31
0.0
  0
LINE
  5
25BE4
330
747D
100
AcDbEntity
  8
部品1
100
AcDbLine
 10
10440.05610755089
 20
1793.304733744351
 30
0.0
 11
10440.05610755089
 21
2033.304733744351
 31
0.0
  0
TEXT
  5
25BE5
330
747D
100
AcDbEntity
  8
部品1
 48
50.0
100
AcDbText
 10
9675.93802079239
 20
1526.504993107042
 30
0.0
 40
80.0
  1
ボルトの出
 50
90.0
  7
STYLE2
100
AcDbText
  0
LINE
  5
25BE6
330
747D
100
AcDbEntity
  8
細線
100
AcDbLine
 10
10583.77775298224
 20
1793.304733744351
 30
0.0
 11
10440.05610755089
 21
1937.026379175704
 31
0.0
  0
LWPOLYLINE
  5
25BE7
330
747D
100
AcDbEntity
  8
部品1
 48
50.0
100
AcDbPolyline
 90
        2
 70
     0
 43
12.0
 10
10055.4448454505
 20
1793.304733744351
 10
11256.53714858213
 20
1793.304733744351
  0
LINE
  5
25BE8
330
747D
100
AcDbEntity
  8
細線
100
AcDbLine
 10
10500.97475304413
 20
1701.605818091001
 30
0.0
 11
10592.67366869748
 21
1793.304733744351
 31
0.0
  0
LINE
  5
25BE9
330
747D
100
AcDbEntity
  8
部品1
100
AcDbLine
 10
10320.05610755089
 20
1701.605818091001
 30
0.0
 11
11040.05610755089
 21
1701.605818091004
 31
0.0
  0
LINE
  5
25BEA
330
747D
100
AcDbEntity
  8
部品1
100
AcDbLine
 10
10320.05610755089
 20
1573.605818090998
 30
0.0
 11
11040.05610755089
 21
1573.605818091001
 31
0.0
  0
LINE
  5
25BEB
330
747D
100
AcDbEntity
  8
細線
 48
50.0
100
AcDbLine
 10
10574.12699199415
 20
1573.605818091001
 30
0.0
 11
10608.42448862533
 21
1701.605818091
 31
0.0
  0
LINE
  5
25BEC
330
747D
100
AcDbEntity
  8
部品1
100
AcDbLine
 10
10440.05610755089
 20
2033.304733744351
 30
0.0
 11
10920.05610755089
 21
2033.304733744351
 31
0.0
  0
LINE
  5
25BED
330
747D
100
AcDbEntity
  8
細線
100
AcDbLine
 10
10634.68944122767
 20
1793.304733744351
 30
0.0
 11
10440.05610755089
 21
1987.938067421134
 31
0.0
  0
LINE
  5
25BEE
330
747D
100
AcDbEntity
  8
部品1
100
AcDbLine
 10
11626.79760864792
 20
468.3364313602896
 30
0.0
 11
11626.79760864793
 21
3432.643400944936
 31
0.0
  0
TEXT
  5
25BEF
330
747D
100
AcDbEntity
  8
部品1
100
AcDbText
 10
8248.692424440065
 20
3253.091468993509
 30
0.0
 40
120.0
  1
基礎詳細
  7
STYLE2
100
AcDbText
  0
LINE
  5
25BF0
330
747D
100
AcDbEntity
  8
部品1
 48
50.0
100
AcDbLine
 10
8563.920175248135
 20
2432.180014853494
 30
0.0
 11
8579.920175248135
 21
2424.180014853494
 31
0.0
  0
LINE
  5
25BF1
330
747D
100
AcDbEntity
  8
細線
 48
50.0
100
AcDbLine
 10
8531.920175248135
 20
2384.180014853494
 30
0.0
 11
8531.920175248135
 21
2416.180014853494
 31
0.0
  0
LINE
  5
25BF2
330
747D
100
AcDbEntity
  8
部品1
 48
50.0
100
AcDbLine
 10
8579.920175248135
 20
2392.180014853494
 30
0.0
 11
8579.920175248135
 21
2424.180014853494
 31
0.0
  0
LINE
  5
25BF3
330
747D
100
AcDbEntity
  8
細線
 48
50.0
100
AcDbLine
 10
8563.920175248135
 20
2384.180014853494
 30
0.0
 11
8563.920175248135
 21
2416.180014853494
 31
0.0
  0
LINE
  5
25BF4
330
747D
100
AcDbEntity
  8
部品1
 48
50.0
100
AcDbLine
 10
8563.920175248135
 20
2416.180014853494
 30
0.0
 11
8579.920175248135
 21
2424.180014853494
 31
0.0
  0
LINE
  5
25BF5
330
747D
100
AcDbEntity
  8
部品1
 48
50.0
100
AcDbLine
 10
8531.920175248135
 20
2416.180014853494
 30
0.0
 11
8563.920175248135
 21
2416.180014853494
 31
0.0
  0
LINE
  5
25BF6
330
747D
100
AcDbEntity
  8
部品1
 48
50.0
100
AcDbLine
 10
8563.920175248135
 20
2384.180014853494
 30
0.0
 11
8579.920175248135
 21
2392.180014853494
 31
0.0
  0
LINE
  5
25BF7
330
747D
100
AcDbEntity
  8
部品1
 48
50.0
100
AcDbLine
 10
8531.920175248135
 20
2384.180014853494
 30
0.0
 11
8563.920175248135
 21
2384.180014853494
 31
0.0
  0
ELLIPSE
  5
25BF8
330
747D
100
AcDbEntity
  8
細線
 48
50.0
100
AcDbEllipse
 10
8547.920175248135
 20
2424.180014853494
 30
0.0
 11
14.76670786606846
 21
0.0
 31
0.0
210
0.0
220
0.0
230
1.0
 40
0.2071254069489396
 41
0.0
 42
6.283185307179586
  0
LINE
  5
25BF9
330
747D
100
AcDbEntity
  8
部品1
 48
50.0
100
AcDbLine
 10
8531.920175248135
 20
2432.180014853494
 30
0.0
 11
8563.920175248135
 21
2432.180014853494
 31
0.0
  0
LINE
  5
25BFA
330
747D
100
AcDbEntity
  8
部品1
 48
50.0
100
AcDbLine
 10
8515.920175248135
 20
2392.180014853494
 30
0.0
 11
8515.920175248135
 21
2424.180014853494
 31
0.0
  0
LINE
  5
25BFB
330
747D
100
AcDbEntity
  8
部品1
 48
50.0
100
AcDbLine
 10
8515.920175248135
 20
2424.180014853494
 30
0.0
 11
8531.920175248135
 21
2432.180014853494
 31
0.0
  0
LINE
  5
25BFC
330
747D
100
AcDbEntity
  8
部品1
 48
50.0
100
AcDbLine
 10
8515.920175248135
 20
2392.180014853494
 30
0.0
 11
8531.920175248135
 21
2384.180014853494
 31
0.0
  0
LINE
  5
25BFD
330
747D
100
AcDbEntity
  8
部品1
 48
50.0
100
AcDbLine
 10
8515.920175248135
 20
2424.180014853494
 30
0.0
 11
8531.920175248135
 21
2416.180014853494
 31
0.0
  0
LINE
  5
25BFE
330
747D
100
AcDbEntity
  8
部品1
 48
50.0
100
AcDbLine
 10
8587.920175248134
 20
2292.828022188624
 30
0.0
 11
8587.920175248134
 21
2302.428022188624
 31
0.0
  0
ELLIPSE
  5
25BFF
330
747D
100
AcDbEntity
  8
部品1
 48
50.0
100
AcDbEllipse
 10
8547.920175248135
 20
2302.428022188624
 30
0.0
 11
18.4
 21
0.0
 31
0.0
210
0.0
220
0.0
230
1.0
 40
0.3478260869565217
 41
0.0
 42
6.283185307179586
  0
ARC
  5
25C00
330
747D
100
AcDbEntity
  8
部品1
100
AcDbCircle
 10
8386.820175248134
 20
2131.404733744352
 30
0.0
 40
2.7
100
AcDbArc
 50
90.0
 51
180.0
  0
LINE
  5
25C01
330
747D
100
AcDbEntity
  8
部品1
100
AcDbLine
 10
8389.520175248135
 20
2144.904733744352
 30
0.0
 11
8431.820175248134
 21
2144.904733744348
 31
0.0
  0
LINE
  5
25C02
330
747D
100
AcDbEntity
  8
部品1
100
AcDbLine
 10
8386.820175248134
 20
2134.104733744352
 30
0.0
 11
8386.820175248134
 21
2142.204733744351
 31
0.0
  0
LINE
  5
25C03
330
747D
100
AcDbEntity
  8
部品1
100
AcDbLine
 10
8386.820175248134
 20
2134.104733744352
 30
0.0
 11
8386.820175248134
 21
2134.104733744352
 31
0.0
  0
ARC
  5
25C04
330
747D
100
AcDbEntity
  8
部品1
100
AcDbCircle
 10
8389.520175248135
 20
2142.204733744351
 30
0.0
 40
2.7
100
AcDbArc
 50
90.0
 51
180.0
  0
ARC
  5
25C05
330
747D
100
AcDbEntity
  8
部品1
100
AcDbCircle
 10
8431.820175248134
 20
2142.204733744348
 30
0.0
 40
2.7
100
AcDbArc
 50
0.0
 51
90.0
  0
LINE
  5
25C06
330
747D
100
AcDbEntity
  8
部品1
 48
50.0
100
AcDbLine
 10
8507.920175248136
 20
2302.428022188624
 30
0.0
 11
8507.920175248136
 21
2292.828022188624
 31
0.0
  0
ELLIPSE
  5
25C07
330
747D
100
AcDbEntity
  8
部品1
 48
50.0
100
AcDbEllipse
 10
8547.920175248135
 20
2292.828022188624
 30
0.0
 11
40.0
 21
0.0
 31
0.0
210
0.0
220
0.0
230
1.0
 40
0.4
 41
3.141592653589793
 42
6.283185307179586
  0
ELLIPSE
  5
25C08
330
747D
100
AcDbEntity
  8
部品1
 48
50.0
100
AcDbEllipse
 10
8547.920175248135
 20
2302.428022188624
 30
0.0
 11
40.0
 21
0.0
 31
0.0
210
0.0
220
0.0
230
1.0
 40
0.4
 41
0.0
 42
6.283185307179586
  0
LINE
  5
25C09
330
747D
100
AcDbEntity
  8
部品1
100
AcDbLine
 10
8542.520175248133
 20
2086.064733744352
 30
0.0
 11
8553.320175248135
 21
2086.064733744352
 31
0.0
  0
LINE
  5
25C0A
330
747D
100
AcDbEntity
  8
部品1
100
AcDbLine
 10
8538.920175248135
 20
2082.464733744352
 30
0.0
 11
8556.920175248135
 21
2082.464733744352
 31
0.0
  0
LINE
  5
25C0B
330
747D
100
AcDbEntity
  8
細線
100
AcDbLine
 10
8542.520175248137
 20
2042.864733744352
 30
0.0
 11
8542.520175248133
 21
2086.064733744352
 31
0.0
  0
LINE
  5
25C0C
330
747D
100
AcDbEntity
  8
細線
100
AcDbLine
 10
8553.320175248135
 20
2042.864733744352
 30
0.0
 11
8553.320175248135
 21
2086.064733744352
 31
0.0
  0
LINE
  5
25C0D
330
747D
100
AcDbEntity
  8
部品1
100
AcDbLine
 10
8455.220175248134
 20
2100.164733744352
 30
0.0
 11
8455.220175248134
 21
2083.064733744352
 31
0.0
  0
LINE
  5
25C0E
330
747D
100
AcDbEntity
  8
部品1
100
AcDbLine
 10
8488.780175248136
 20
2100.164733744352
 30
0.0
 11
8488.780175248132
 21
2045.564733744352
 31
0.0
  0
ARC
  5
25C0F
330
747D
100
AcDbEntity
  8
部品1
100
AcDbCircle
 10
8474.120175248136
 20
2088.204733744351
 30
0.0
 40
2.7
100
AcDbArc
 50
0.0
 51
90.0
  0
LINE
  5
25C10
330
747D
100
AcDbEntity
  8
部品1
100
AcDbLine
 10
8434.520175248133
 20
2090.904733744352
 30
0.0
 11
8474.120175248136
 21
2090.904733744352
 31
0.0
  0
ARC
  5
25C11
330
747D
100
AcDbEntity
  8
部品1
100
AcDbCircle
 10
8474.120175248136
 20
2045.564733744352
 30
0.0
 40
2.7
100
AcDbArc
 50
270.0
 51
0.0
  0
ARC
  5
25C12
330
747D
100
AcDbEntity
  8
部品1
100
AcDbCircle
 10
8491.480175248129
 20
2045.564733744352
 30
0.0
 40
2.7
100
AcDbArc
 50
180.0
 51
270.0
  0
LINE
  5
25C13
330
747D
100
AcDbEntity
  8
部品1
100
AcDbLine
 10
8462.420175248135
 20
2042.864733744352
 30
0.0
 11
8474.120175248136
 21
2042.864733744352
 31
0.0
  0
LINE
  5
25C14
330
747D
100
AcDbEntity
  8
部品1
100
AcDbLine
 10
8476.820175248134
 20
2088.204733744351
 30
0.0
 11
8476.820175248134
 21
2045.564733744352
 31
0.0
  0
ARC
  5
25C15
330
747D
100
AcDbEntity
  8
部品1
100
AcDbCircle
 10
8486.080175248135
 20
2100.164733744352
 30
0.0
 40
2.7
100
AcDbArc
 50
0.0
 51
90.0
  0
ARC
  5
25C16
330
747D
100
AcDbEntity
  8
部品1
100
AcDbCircle
 10
8457.920175248135
 20
2100.164733744352
 30
0.0
 40
2.7
100
AcDbArc
 50
90.0
 51
180.0
  0
LINE
  5
25C17
330
747D
100
AcDbEntity
  8
部品1
100
AcDbLine
 10
8457.920175248135
 20
2102.864733744352
 30
0.0
 11
8486.080175248135
 21
2102.864733744352
 31
0.0
  0
LINE
  5
25C18
330
747D
100
AcDbEntity
  8
部品1
100
AcDbLine
 10
8434.520175248133
 20
2142.204733744348
 30
0.0
 11
8434.520175248133
 21
2090.904733744352
 31
0.0
  0
LINE
  5
25C19
330
747D
100
AcDbEntity
  8
部品1
100
AcDbLine
 10
8384.120175248135
 20
2123.304733744351
 30
0.0
 11
8384.120175248135
 21
2131.404733744352
 31
0.0
  0
LINE
  5
25C1A
330
747D
100
AcDbEntity
  8
部品1
100
AcDbLine
 10
8491.480175248129
 20
2042.864733744352
 30
0.0
 11
8692.820175248128
 21
2042.864733744352
 31
0.0
  0
LINE
  5
25C1B
330
747D
100
AcDbEntity
  8
部品1
100
AcDbLine
 10
8332.820175248135
 20
2045.564733744352
 30
0.0
 11
8332.820175248135
 21
2107.696637447059
 31
0.0
  0
LINE
  5
25C1C
330
747D
100
AcDbEntity
  8
部品1
100
AcDbLine
 10
8335.520175248133
 20
2042.864733744352
 30
0.0
 11
8347.220175248128
 21
2042.864733744352
 31
0.0
  0
LINE
  5
25C1D
330
747D
100
AcDbEntity
  8
細線
 48
50.0
100
AcDbLine
 10
8326.520175248132
 20
2021.085310044256
 30
0.0
 11
8338.739598948228
 21
2033.304733744351
 31
0.0
  0
ARC
  5
25C1E
330
747D
100
AcDbEntity
  8
部品1
100
AcDbCircle
 10
8335.520175248133
 20
2045.564733744352
 30
0.0
 40
2.7
100
AcDbArc
 50
180.0
 51
270.0
  0
LINE
  5
25C1F
330
747D
100
AcDbEntity
  8
部品1
100
AcDbLine
 10
8334.865329060537
 20
2110.316022197451
 30
0.0
 11
8343.620175248135
 21
2112.504733744351
 31
0.0
  0
ARC
  5
25C20
330
747D
100
AcDbEntity
  8
部品1
100
AcDbCircle
 10
8335.520175248133
 20
2107.696637447059
 30
0.0
 40
2.7
100
AcDbArc
 50
104.0362434679067
 51
180.0
  0
ARC
  5
25C21
330
747D
100
AcDbEntity
  8
部品1
100
AcDbCircle
 10
8346.320175248136
 20
2120.604733744352
 30
0.0
 40
2.7
100
AcDbArc
 50
90.0
 51
180.0
  0
LINE
  5
25C22
330
747D
100
AcDbEntity
  8
部品1
100
AcDbLine
 10
8343.620175248135
 20
2112.504733744351
 30
0.0
 11
8343.620175248135
 21
2120.604733744352
 31
0.0
  0
LINE
  5
25C23
330
747D
100
AcDbEntity
  8
部品1
 48
50.0
100
AcDbLine
 10
8326.520175248132
 20
2033.304733744351
 30
0.0
 11
8740.520175248137
 21
2033.304733744351
 31
0.0
  0
LINE
  5
25C24
330
747D
100
AcDbEntity
  8
細線
 48
50.0
100
AcDbLine
 10
8326.520175248132
 20
1967.203773317841
 30
0.0
 11
8392.621135674644
 21
2033.304733744351
 31
0.0
  0
LINE
  5
25C25
330
747D
100
AcDbEntity
  8
細線
 48
50.0
100
AcDbLine
 10
8326.520175248132
 20
1994.144541681049
 30
0.0
 11
8365.680367311441
 21
2033.304733744351
 31
0.0
  0
LINE
  5
25C26
330
747D
100
AcDbEntity
  8
部品1
100
AcDbLine
 10
8346.320175248136
 20
2123.304733744351
 30
0.0
 11
8384.120175248135
 21
2123.304733744351
 31
0.0
  0
LINE
  5
25C27
330
747D
100
AcDbEntity
  8
部品1
 48
50.0
100
AcDbLine
 10
8740.520175248134
 20
1489.304733744351
 30
0.0
 11
8868.520175248134
 21
1489.304733744351
 31
0.0
  0
LINE
  5
25C28
330
747D
100
AcDbEntity
  8
部品1
100
AcDbLine
 10
8556.920175248135
 20
1808.304733744351
 30
0.0
 11
8592.920175248135
 21
1808.304733744351
 31
0.0
  0
LINE
  5
25C29
330
747D
100
AcDbEntity
  8
部品1
100
AcDbLine
 10
8556.920175248135
 20
1790.304733744351
 30
0.0
 11
8592.920175248135
 21
1790.304733744351
 31
0.0
  0
ARC
  5
25C2A
330
747D
100
AcDbEntity
  8
部品1
100
AcDbCircle
 10
8556.920175248135
 20
1808.304733744351
 30
0.0
 40
18.0
100
AcDbArc
 50
180.0
 51
270.0
  0
LINE
  5
25C2B
330
747D
100
AcDbEntity
  8
部品1
100
AcDbLine
 10
8592.920175248135
 20
1790.304733744351
 30
0.0
 11
8592.920175248135
 21
1808.304733744351
 31
0.0
  0
LINE
  5
25C2C
330
747D
100
AcDbEntity
  8
部品1
100
AcDbLine
 10
8610.920175248136
 20
1709.304733744349
 30
0.0
 11
8484.920175248127
 21
1709.304733744349
 31
0.0
  0
LINE
  5
25C2D
330
747D
100
AcDbEntity
  8
細線
 48
50.0
100
AcDbLine
 10
8904.89800044047
 20
1225.304733744349
 30
0.0
 11
8898.467219822123
 21
1249.304733744349
 31
0.0
  0
LINE
  5
25C2E
330
747D
100
AcDbEntity
  8
細線
 48
50.0
100
AcDbLine
 10
8826.009955493224
 20
1225.304733744349
 30
0.0
 11
8819.579174874878
 21
1249.304733744349
 31
0.0
  0
LINE
  5
25C2F
330
747D
100
AcDbEntity
  8
細線
 48
50.0
100
AcDbLine
 10
8747.121910545969
 20
1225.304733744351
 30
0.0
 11
8740.69112992762
 21
1249.304733744351
 31
0.0
  0
LINE
  5
25C30
330
747D
100
AcDbEntity
  8
細線
 48
50.0
100
AcDbLine
 10
8883.46206504598
 20
1145.304733744349
 30
0.0
 11
8889.892845664327
 21
1121.304733744349
 31
0.0
  0
LINE
  5
25C31
330
747D
100
AcDbEntity
  8
細線
 48
50.0
100
AcDbLine
 10
8804.574020098735
 20
1145.304733744349
 30
0.0
 11
8811.00480071708
 21
1121.304733744349
 31
0.0
  0
LINE
  5
25C32
330
747D
100
AcDbEntity
  8
細線
 48
50.0
100
AcDbLine
 10
8725.685975151485
 20
1145.304733744351
 30
0.0
 11
8732.116755769842
 21
1121.304733744351
 31
0.0
  0
LINE
  5
25C33
330
747D
100
AcDbEntity
  8
細線
 48
50.0
100
AcDbLine
 10
8798.143239480385
 20
1121.304733744348
 30
0.0
 11
8832.440736111569
 21
1249.304733744348
 31
0.0
  0
LINE
  5
25C34
330
747D
100
AcDbEntity
  8
細線
 48
50.0
100
AcDbLine
 10
8719.255194533136
 20
1121.304733744349
 30
0.0
 11
8753.55269116431
 21
1249.304733744351
 31
0.0
  0
LINE
  5
25C35
330
747D
100
AcDbEntity
  8
細線
 48
50.0
100
AcDbLine
 10
8877.031284427628
 20
1121.304733744349
 30
0.0
 11
8911.328781058816
 21
1249.304733744348
 31
0.0
  0
LINE
  5
25C36
330
747D
100
AcDbEntity
  8
部品1
 48
50.0
100
AcDbLine
 10
8948.520175248138
 20
1249.304733744351
 30
0.0
 11
8948.520175248138
 21
1121.304733744351
 31
0.0
  0
LINE
  5
25C37
330
747D
100
AcDbEntity
  8
細線
 48
50.0
100
AcDbLine
 10
8668.233865598729
 20
1225.304733744351
 30
0.0
 11
8661.803084980384
 21
1249.304733744351
 31
0.0
  0
LINE
  5
25C38
330
747D
100
AcDbEntity
  8
細線
 48
50.0
100
AcDbLine
 10
8589.345820651486
 20
1225.304733744351
 30
0.0
 11
8582.915040033137
 21
1249.304733744351
 31
0.0
  0
LINE
  5
25C39
330
747D
100
AcDbEntity
  8
細線
 48
50.0
100
AcDbLine
 10
8431.56973075699
 20
1225.304733744351
 30
0.0
 11
8425.138950138643
 21
1249.304733744351
 31
0.0
  0
LINE
  5
25C3A
330
747D
100
AcDbEntity
  8
細線
 48
50.0
100
AcDbLine
 10
8510.457775704237
 20
1225.304733744351
 30
0.0
 11
8504.02699508589
 21
1249.304733744351
 31
0.0
  0
LINE
  5
25C3B
330
747D
100
AcDbEntity
  8
細線
 48
50.0
100
AcDbLine
 10
8567.909885256995
 20
1145.304733744351
 30
0.0
 11
8574.340665875341
 21
1121.304733744351
 31
0.0
  0
LINE
  5
25C3C
330
747D
100
AcDbEntity
  8
細線
 48
50.0
100
AcDbLine
 10
8646.797930204241
 20
1145.304733744351
 30
0.0
 11
8653.228710822586
 21
1121.304733744351
 31
0.0
  0
LINE
  5
25C3D
330
747D
100
AcDbEntity
  8
細線
 48
50.0
100
AcDbLine
 10
8410.133795362501
 20
1145.304733744351
 30
0.0
 11
8416.564575980848
 21
1121.304733744351
 31
0.0
  0
LINE
  5
25C3E
330
747D
100
AcDbEntity
  8
細線
 48
50.0
100
AcDbLine
 10
8489.021840309748
 20
1145.304733744351
 30
0.0
 11
8495.452620928096
 21
1121.304733744351
 31
0.0
  0
LINE
  5
25C3F
330
747D
100
AcDbEntity
  8
細線
 48
50.0
100
AcDbLine
 10
8640.367149585888
 20
1121.304733744351
 30
0.0
 11
8674.664646217072
 21
1249.304733744349
 31
0.0
  0
LINE
  5
25C40
330
747D
100
AcDbEntity
  8
細線
 48
50.0
100
AcDbLine
 10
8482.591059691397
 20
1121.304733744351
 30
0.0
 11
8516.888556322582
 21
1249.304733744349
 31
0.0
  0
LINE
  5
25C41
330
747D
100
AcDbEntity
  8
細線
 48
50.0
100
AcDbLine
 10
8403.70301474415
 20
1121.304733744351
 30
0.0
 11
8438.000511375333
 21
1249.304733744351
 31
0.0
  0
LINE
  5
25C42
330
747D
100
AcDbEntity
  8
細線
 48
50.0
100
AcDbLine
 10
8561.479104638646
 20
1121.304733744349
 30
0.0
 11
8595.776601269827
 21
1249.304733744349
 31
0.0
  0
LINE
  5
25C43
330
747D
100
AcDbEntity
  8
細線
 48
50.0
100
AcDbLine
 10
8686.251870202942
 20
1249.304733744351
 30
0.0
 11
8868.520175248134
 21
1431.573038789547
 31
0.0
  0
LINE
  5
25C44
330
747D
100
AcDbEntity
  8
部品1
 48
50.0
100
AcDbLine
 10
8868.520175248134
 20
1489.304733744351
 30
0.0
 11
8868.520175248134
 21
1249.304733744351
 31
0.0
  0
LINE
  5
25C45
330
747D
100
AcDbEntity
  8
細線
 48
50.0
100
AcDbLine
 10
8659.311101839739
 20
1249.304733744351
 30
0.0
 11
8868.520175248134
 21
1458.513807152744
 31
0.0
  0
LINE
  5
25C46
330
747D
100
AcDbEntity
  8
細線
 48
50.0
100
AcDbLine
 10
8632.370333476528
 20
1249.304733744351
 30
0.0
 11
8868.520175248134
 21
1485.45457551596
 31
0.0
  0
LINE
  5
25C47
330
747D
100
AcDbEntity
  8
細線
 48
50.0
100
AcDbLine
 10
8416.844186570868
 20
1249.304733744351
 30
0.0
 11
8740.520175248134
 21
1572.980722421617
 31
0.0
  0
LINE
  5
25C48
330
747D
100
AcDbEntity
  8
細線
 48
50.0
100
AcDbLine
 10
8470.725723297285
 20
1249.304733744351
 30
0.0
 11
8740.520175248134
 21
1519.099185695209
 31
0.0
  0
LINE
  5
25C49
330
747D
100
AcDbEntity
  8
細線
 48
50.0
100
AcDbLine
 10
8443.784954934079
 20
1249.304733744351
 30
0.0
 11
8740.520175248134
 21
1546.039954058404
 31
0.0
  0
LINE
  5
25C4A
330
747D
100
AcDbEntity
  8
細線
 48
50.0
100
AcDbLine
 10
8198.52017524813
 20
1462.033016232937
 30
0.0
 11
8225.79189275955
 21
1489.304733744351
 31
0.0
  0
LINE
  5
25C4B
330
747D
100
AcDbEntity
  8
部品1
 48
50.0
100
AcDbLine
 10
8198.520175248132
 20
1489.304733744351
 30
0.0
 11
8326.520175248132
 21
1489.304733744351
 31
0.0
  0
LINE
  5
25C4C
330
747D
100
AcDbEntity
  8
細線
 48
50.0
100
AcDbLine
 10
8198.52017524813
 20
1435.092247869727
 30
0.0
 11
8252.732661122758
 21
1489.304733744351
 31
0.0
  0
LWPOLYLINE
  5
25C4D
330
747D
100
AcDbEntity
  8
部品1
 48
50.0
100
AcDbPolyline
 90
        2
 70
     0
 43
8.0
 10
7912.380273415178
 20
1793.304733744352
 10
8326.520175248132
 20
1793.304733744352
  0
LINE
  5
25C4E
330
747D
100
AcDbEntity
  8
細線
 48
50.0
100
AcDbLine
 10
8273.793640862489
 20
1225.304733744351
 30
0.0
 11
8267.362860244141
 21
1249.304733744351
 31
0.0
  0
LINE
  5
25C4F
330
747D
100
AcDbEntity
  8
細線
 48
50.0
100
AcDbLine
 10
8352.68168580974
 20
1225.304733744351
 30
0.0
 11
8346.250905191391
 21
1249.304733744351
 31
0.0
  0
LINE
  5
25C50
330
747D
100
AcDbEntity
  8
細線
 48
50.0
100
AcDbLine
 10
8194.905595915235
 20
1225.304733744351
 30
0.0
 11
8188.47481529689
 21
1249.304733744351
 31
0.0
  0
LINE
  5
25C51
330
747D
100
AcDbEntity
  8
細線
 48
50.0
100
AcDbLine
 10
8118.520175248134
 20
1234.644654710131
 30
0.0
 11
8122.44833158633
 21
1249.304733744351
 31
0.0
  0
LINE
  5
25C52
330
747D
100
AcDbEntity
  8
細線
 48
50.0
100
AcDbLine
 10
8252.357705467998
 20
1145.304733744351
 30
0.0
 11
8258.788486086345
 21
1121.304733744351
 31
0.0
  0
LINE
  5
25C53
330
747D
100
AcDbEntity
  8
細線
 48
50.0
100
AcDbLine
 10
8331.24575041525
 20
1145.304733744351
 30
0.0
 11
8337.676531033599
 21
1121.304733744351
 31
0.0
  0
LINE
  5
25C54
330
747D
100
AcDbEntity
  8
細線
 48
50.0
100
AcDbLine
 10
8173.469660520746
 20
1145.304733744351
 30
0.0
 11
8179.900441139093
 21
1121.304733744351
 31
0.0
  0
LINE
  5
25C55
330
747D
100
AcDbEntity
  8
細線
 48
50.0
100
AcDbLine
 10
8324.814969796898
 20
1121.304733744349
 30
0.0
 11
8359.112466428079
 21
1249.304733744349
 31
0.0
  0
LINE
  5
25C56
330
747D
100
AcDbEntity
  8
細線
 48
50.0
100
AcDbLine
 10
8167.038879902394
 20
1121.304733744349
 30
0.0
 11
8201.336376533577
 21
1249.304733744349
 31
0.0
  0
LINE
  5
25C57
330
747D
100
AcDbEntity
  8
部品1
 48
50.0
100
AcDbLine
 10
8118.520175248137
 20
1121.304733744351
 30
0.0
 11
8118.520175248137
 21
1249.304733744351
 31
0.0
  0
LINE
  5
25C58
330
747D
100
AcDbEntity
  8
細線
 48
50.0
100
AcDbLine
 10
8245.926924849651
 20
1121.304733744351
 30
0.0
 11
8280.224421480834
 21
1249.304733744351
 31
0.0
  0
LINE
  5
25C59
330
747D
100
AcDbEntity
  8
部品1
 48
50.0
100
AcDbLine
 10
8198.520175248132
 20
1249.304733744351
 30
0.0
 11
8198.520175248132
 21
1489.304733744351
 31
0.0
  0
LINE
  5
25C5A
330
747D
100
AcDbEntity
  8
細線
 48
50.0
100
AcDbLine
 10
8198.52017524813
 20
1408.151479506522
 30
0.0
 11
8279.673429485963
 21
1489.304733744351
 31
0.0
  0
LINE
  5
25C5B
330
747D
100
AcDbEntity
  8
部品1
 48
50.0
100
AcDbLine
 10
8948.520175248138
 20
1121.304733744351
 30
0.0
 11
8118.520175248137
 21
1121.304733744351
 31
0.0
  0
LINE
  5
25C5C
330
747D
100
AcDbEntity
  8
部品1
 48
50.0
100
AcDbLine
 10
8948.520175248138
 20
1249.304733744351
 30
0.0
 11
8118.520175248137
 21
1249.304733744351
 31
0.0
  0
LINE
  5
25C5D
330
747D
100
AcDbEntity
  8
細線
 48
50.0
100
AcDbLine
 10
8201.31803966521
 20
1249.304733744351
 30
0.0
 11
8740.520175248134
 21
1788.506869327277
 31
0.0
  0
LINE
  5
25C5E
330
747D
100
AcDbEntity
  8
細線
 48
50.0
100
AcDbLine
 10
8228.258808028419
 20
1249.304733744351
 30
0.0
 11
8740.520175248137
 21
1761.566100964065
 31
0.0
  0
LINE
  5
25C5F
330
747D
100
AcDbEntity
  8
細線
 48
50.0
100
AcDbLine
 10
8255.199576391623
 20
1249.304733744351
 30
0.0
 11
8740.520175248134
 21
1734.625332600859
 31
0.0
  0
LINE
  5
25C60
330
747D
100
AcDbEntity
  8
細線
 48
50.0
100
AcDbLine
 10
8326.520175248132
 20
1590.033016232937
 30
0.0
 11
8484.920175248127
 21
1748.433016232932
 31
0.0
  0
LINE
  5
25C61
330
747D
100
AcDbEntity
  8
細線
 48
50.0
100
AcDbLine
 10
8326.520175248132
 20
1536.151479506522
 30
0.0
 11
8499.673429485971
 21
1709.304733744349
 31
0.0
  0
LINE
  5
25C62
330
747D
100
AcDbEntity
  8
細線
 48
50.0
100
AcDbLine
 10
8326.520175248132
 20
1563.092247869729
 30
0.0
 11
8484.920175248127
 21
1721.492247869718
 31
0.0
  0
LINE
  5
25C63
330
747D
100
AcDbEntity
  8
部品1
100
AcDbLine
 10
8484.920175248127
 20
1709.304733744351
 30
0.0
 11
8484.920175248134
 21
2033.304733744351
 31
0.0
  0
LINE
  5
25C64
330
747D
100
AcDbEntity
  8
部品1
100
AcDbLine
 10
8610.920175248136
 20
1709.304733744351
 30
0.0
 11
8610.920175248136
 21
2033.304733744351
 31
0.0
  0
LINE
  5
25C65
330
747D
100
AcDbEntity
  8
細線
 48
50.0
100
AcDbLine
 10
8610.920175248136
 20
1847.492247869723
 30
0.0
 11
8740.520175248134
 21
1977.092247869719
 31
0.0
  0
LINE
  5
25C66
330
747D
100
AcDbEntity
  8
細線
 48
50.0
100
AcDbLine
 10
8610.920175248136
 20
1820.55147950651
 30
0.0
 11
8740.520175248134
 21
1950.151479506501
 31
0.0
  0
LINE
  5
25C67
330
747D
100
AcDbEntity
  8
部品1
100
AcDbLine
 10
8538.920175248135
 20
1808.304733744351
 30
0.0
 11
8538.920175248131
 21
2082.464733744352
 31
0.0
  0
LINE
  5
25C68
330
747D
100
AcDbEntity
  8
部品1
100
AcDbLine
 10
8556.920175248135
 20
1808.304733744351
 30
0.0
 11
8556.920175248132
 21
2082.464733744352
 31
0.0
  0
TEXT
  5
25C69
330
747D
100
AcDbEntity
  8
部品1
 48
50.0
100
AcDbText
 10
7912.380273415178
 20
1804.543726027606
 30
0.0
 40
80.0
  1
▽G.L
  7
STYLE2
100
AcDbText
  0
LINE
  5
25C6A
330
747D
100
AcDbEntity
  8
細線
 48
50.0
100
AcDbLine
 10
8326.520175248132
 20
1751.677626412182
 30
0.0
 11
8484.920175248133
 21
1910.077626412174
 31
0.0
  0
LINE
  5
25C6B
330
747D
100
AcDbEntity
  8
細線
 48
50.0
100
AcDbLine
 10
8326.520175248132
 20
1778.618394775389
 30
0.0
 11
8484.920175248133
 21
1937.018394775387
 31
0.0
  0
LINE
  5
25C6C
330
747D
100
AcDbEntity
  8
細線
 48
50.0
100
AcDbLine
 10
8326.520175248132
 20
1805.559163138597
 30
0.0
 11
8484.920175248133
 21
1963.959163138594
 31
0.0
  0
LINE
  5
25C6D
330
747D
100
AcDbEntity
  8
部品1
 48
50.0
100
AcDbLine
 10
8326.520175248132
 20
1489.304733744351
 30
0.0
 11
8326.520175248132
 21
2033.304733744351
 31
0.0
  0
LINE
  5
25C6E
330
747D
100
AcDbEntity
  8
部品1
100
AcDbLine
 10
8740.520175248134
 20
1489.304733744351
 30
0.0
 11
8740.520175248134
 21
2033.304733744351
 31
0.0
  0
LINE
  5
25C6F
330
747D
100
AcDbEntity
  8
細線
 48
50.0
100
AcDbLine
 10
8610.920175248136
 20
1874.43301623294
 30
0.0
 11
8740.520175248134
 21
2004.033016232938
 31
0.0
  0
LINE
  5
25C70
330
747D
100
AcDbEntity
  8
細線
 48
50.0
100
AcDbLine
 10
6734.973284573411
 20
1914.051585641067
 30
0.0
 11
6818.48086207094
 21
1997.559163138597
 31
0.0
  0
LINE
  5
25C71
330
747D
100
AcDbEntity
  8
細線
 48
50.0
100
AcDbLine
 10
6746.033569336927
 20
1898.171102041373
 30
0.0
 11
6818.48086207094
 21
1970.618394775389
 31
0.0
  0
LINE
  5
25C72
330
747D
100
AcDbEntity
  8
細線
 48
50.0
100
AcDbLine
 10
6626.480862070941
 20
2021.085310044256
 30
0.0
 11
6638.700285771036
 21
2033.304733744351
 31
0.0
  0
LINE
  5
25C73
330
747D
100
AcDbEntity
  8
細線
 48
50.0
100
AcDbLine
 10
6626.480862070941
 20
1967.203773317841
 30
0.0
 11
6692.581822497451
 21
2033.304733744351
 31
0.0
  0
LINE
  5
25C74
330
747D
100
AcDbEntity
  8
細線
 48
50.0
100
AcDbLine
 10
6626.480862070941
 20
1994.144541681049
 30
0.0
 11
6665.641054134245
 21
2033.304733744351
 31
0.0
  0
LINE
  5
25C75
330
747D
100
AcDbEntity
  8
部品1
 48
50.0
100
AcDbLine
 10
6626.480862070941
 20
2033.304733744351
 30
0.0
 11
6818.48086207094
 21
2033.304733744351
 31
0.0
  0
DIMENSION
  5
25C76
330
747D
100
AcDbEntity
  8
寸法
 48
50.0
100
AcDbDimension
  2
*D54
 10
6626.48086207094
 20
2452.972541660732
 30
0.0
 11
6722.480862070939
 21
2452.972541660732
 31
0.0
 70
   160
  1
120\P200\P280
 71
     5
 42
192.0
  3
INABA_S40G
100
AcDbAlignedDimension
 13
6818.48086207094
 23
2033.304733744351
 33
0.0
 14
6626.48086207094
 24
2033.304733744351
 34
0.0
100
AcDbRotatedDimension
1001
ACAD
1000
DSTYLE
1002
{
1070
   341
1005
0
1002
}
  0
MTEXT
  5
25C77
102
{ACAD_REACTORS
330
25CCC
102
}
330
747D
100
AcDbEntity
  8
寸法
 62
     7
 48
50.0
100
AcDbMText
 10
7060.219317932191
 20
1071.955648012198
 30
0.0
 40
80.0
 41
0.8
 71
     4
 72
     1
  1
\A1;D10@300
  7
STYLE2
 73
     1
 44
1.0
1001
ACAD
1000
MTEXTBEGIN
1070
    73
1070
     1
1070
    44
1040
1.0
1070
    74
1070
     0
1000
MTEXTEND
  0
LINE
  5
25C78
330
747D
100
AcDbEntity
  8
細線
 48
50.0
100
AcDbLine
 10
6746.480862070946
 20
1683.092247869732
 30
0.0
 11
6818.480862070933
 21
1755.092247869727
 31
0.0
  0
LINE
  5
25C79
330
747D
100
AcDbEntity
  8
細線
 48
50.0
100
AcDbLine
 10
6746.48086207094
 20
1710.033016232937
 30
0.0
 11
6818.48086207094
 21
1782.033016232937
 31
0.0
  0
LINE
  5
25C7A
330
747D
100
AcDbEntity
  8
細線
 48
50.0
100
AcDbLine
 10
6746.480862070946
 20
1440.625332600863
 30
0.0
 11
6818.480862070933
 21
1512.625332600863
 31
0.0
  0
LINE
  5
25C7B
330
747D
100
AcDbEntity
  8
細線
 48
50.0
100
AcDbLine
 10
6746.480862070946
 20
1494.50686932728
 30
0.0
 11
6818.480862070933
 21
1566.506869327277
 31
0.0
  0
LINE
  5
25C7C
330
747D
100
AcDbEntity
  8
細線
 48
50.0
100
AcDbLine
 10
6746.480862070946
 20
1467.566100964072
 30
0.0
 11
6818.480862070933
 21
1539.566100964067
 31
0.0
  0
LINE
  5
25C7D
330
747D
100
AcDbEntity
  8
部品1
 48
50.0
100
AcDbLine
 10
6818.48086207094
 20
1489.304733744351
 30
0.0
 11
6946.480862070941
 21
1489.304733744351
 31
0.0
  0
LINE
  5
25C7E
330
747D
100
AcDbEntity
  8
細線
 48
50.0
100
AcDbLine
 10
6746.480862070946
 20
1656.151479506522
 30
0.0
 11
6818.480862070933
 21
1728.151479506522
 31
0.0
  0
LINE
  5
25C7F
330
747D
100
AcDbEntity
  8
部品1
 48
50.0
100
AcDbLine
 10
6714.480862070941
 20
1835.431948441474
 30
0.0
 11
6714.480862070941
 21
1893.559163138597
 31
0.0
  0
LINE
  5
25C80
330
747D
100
AcDbEntity
  8
細線
 48
50.0
100
AcDbLine
 10
6626.480862070941
 20
1805.559163138597
 30
0.0
 11
6698.480862070941
 21
1877.559163138597
 31
0.0
  0
LINE
  5
25C81
330
747D
100
AcDbEntity
  8
部品1
 48
50.0
100
AcDbLine
 10
6698.480862070941
 20
1835.431948441477
 30
0.0
 11
6698.480862070941
 21
1893.559163138597
 31
0.0
  0
LINE
  5
25C82
330
747D
100
AcDbEntity
  8
細線
 48
50.0
100
AcDbLine
 10
6626.480862070941
 20
1778.618394775389
 30
0.0
 11
6698.480862070941
 21
1850.618394775389
 31
0.0
  0
LINE
  5
25C83
330
747D
100
AcDbEntity
  8
細線
 48
50.0
100
AcDbLine
 10
6626.480862070941
 20
1751.677626412182
 30
0.0
 11
6710.235184100234
 21
1835.431948441474
 31
0.0
  0
LINE
  5
25C84
330
747D
100
AcDbEntity
  8
部品1
 48
50.0
100
AcDbLine
 10
6714.480862070941
 20
1835.431948441474
 30
0.0
 11
6698.480862070941
 21
1835.431948441477
 31
0.0
  0
LINE
  5
25C85
330
747D
100
AcDbEntity
  8
細線
 48
50.0
100
AcDbLine
 10
6498.480862070934
 20
1462.033016232937
 30
0.0
 11
6525.752579582356
 21
1489.304733744351
 31
0.0
  0
LINE
  5
25C86
330
747D
100
AcDbEntity
  8
細線
 48
50.0
100
AcDbLine
 10
6498.480862070934
 20
1435.092247869727
 30
0.0
 11
6552.693347945567
 21
1489.304733744351
 31
0.0
  0
LINE
  5
25C87
330
747D
100
AcDbEntity
  8
部品1
 48
50.0
100
AcDbLine
 10
6498.480862070941
 20
1489.304733744351
 30
0.0
 11
6626.480862070941
 21
1489.304733744351
 31
0.0
  0
LINE
  5
25C88
330
747D
100
AcDbEntity
  8
細線
 48
50.0
100
AcDbLine
 10
6714.480862070941
 20
1866.618394775389
 30
0.0
 11
6730.48086207094
 21
1882.618394775389
 31
0.0
  0
LINE
  5
25C89
330
747D
100
AcDbEntity
  8
細線
 48
50.0
100
AcDbLine
 10
6714.480862070941
 20
1839.677626412182
 30
0.0
 11
6730.48086207094
 21
1855.677626412182
 31
0.0
  0
LINE
  5
25C8A
330
747D
100
AcDbEntity
  8
細線
 48
50.0
100
AcDbLine
 10
6626.480862070941
 20
1536.151479506522
 30
0.0
 11
6730.480862070947
 21
1640.151479506522
 31
0.0
  0
LINE
  5
25C8B
330
747D
100
AcDbEntity
  8
細線
 48
50.0
100
AcDbLine
 10
6626.480862070941
 20
1590.033016232937
 30
0.0
 11
6730.48086207094
 21
1694.033016232937
 31
0.0
  0
LINE
  5
25C8C
330
747D
100
AcDbEntity
  8
細線
 48
50.0
100
AcDbLine
 10
6626.480862070941
 20
1563.092247869729
 30
0.0
 11
6730.480862070947
 21
1667.092247869732
 31
0.0
  0
LINE
  5
25C8D
330
747D
100
AcDbEntity
  8
細線
 48
50.0
100
AcDbLine
 10
6889.306507474287
 20
1225.304733744351
 30
0.0
 11
6882.875726855942
 21
1249.304733744351
 31
0.0
  0
LINE
  5
25C8E
330
747D
100
AcDbEntity
  8
細線
 48
50.0
100
AcDbLine
 10
6932.331020299334
 20
1249.304733744351
 30
0.0
 11
6946.480862070941
 21
1263.454575515958
 31
0.0
  0
LINE
  5
25C8F
330
747D
100
AcDbEntity
  8
細線
 48
50.0
100
AcDbLine
 10
6968.194552421535
 20
1225.304733744351
 30
0.0
 11
6961.763771803187
 21
1249.304733744351
 31
0.0
  0
LINE
  5
25C90
330
747D
100
AcDbEntity
  8
部品1
 48
50.0
100
AcDbLine
 10
6890.480862070941
 20
1361.304733744351
 30
0.0
 11
6890.480862070941
 21
1345.304733744351
 31
0.0
  0
LINE
  5
25C91
330
747D
100
AcDbEntity
  8
細線
 48
50.0
100
AcDbLine
 10
6770.686410120088
 20
1249.304733744351
 30
0.0
 11
6866.687297965225
 21
1345.30562158949
 31
0.0
  0
LINE
  5
25C92
330
747D
100
AcDbEntity
  8
細線
 48
50.0
100
AcDbLine
 10
6743.745641756885
 20
1249.304733744351
 30
0.0
 11
6839.745641756884
 21
1345.304733744351
 31
0.0
  0
LINE
  5
25C93
330
747D
100
AcDbEntity
  8
細線
 48
50.0
100
AcDbLine
 10
6810.418462527043
 20
1225.304733744351
 30
0.0
 11
6803.987681908697
 21
1249.304733744351
 31
0.0
  0
LINE
  5
25C94
330
747D
100
AcDbEntity
  8
細線
 48
50.0
100
AcDbLine
 10
6731.530417579797
 20
1225.304733744351
 30
0.0
 11
6725.099636961449
 21
1249.304733744351
 31
0.0
  0
ARC
  5
25C95
330
747D
100
AcDbEntity
  8
部品1
 48
50.0
100
AcDbCircle
 10
6722.480862070941
 20
1369.304733744351
 30
0.0
 40
24.0
100
AcDbArc
 50
340.5287793655256
 51
0.0
  0
CIRCLE
  5
25C96
330
747D
100
AcDbEntity
  8
部品1
 48
50.0
100
AcDbCircle
 10
6850.480862070941
 20
1369.304733744351
 30
0.0
 40
8.0
  0
LINE
  5
25C97
330
747D
100
AcDbEntity
  8
細線
 48
50.0
100
AcDbLine
 10
6882.686410120088
 20
1361.304733744351
 30
0.0
 11
6946.480862070941
 21
1425.099185695202
 31
0.0
  0
LINE
  5
25C98
330
747D
100
AcDbEntity
  8
細線
 48
50.0
100
AcDbLine
 10
7019.215881355943
 20
1121.304733744349
 30
0.0
 11
7026.480862070942
 21
1148.418010888739
 31
0.0
  0
LINE
  5
25C99
330
747D
100
AcDbEntity
  8
細線
 48
50.0
100
AcDbLine
 10
7025.646661974294
 20
1145.304733744351
 30
0.0
 11
7026.480862070942
 21
1142.191456599987
 31
0.0
  0
LINE
  5
25C9A
330
747D
100
AcDbEntity
  8
細線
 48
50.0
100
AcDbLine
 10
6946.758617027047
 20
1145.304733744351
 30
0.0
 11
6953.189397645394
 21
1121.304733744351
 31
0.0
  0
LINE
  5
25C9B
330
747D
100
AcDbEntity
  8
細線
 48
50.0
100
AcDbLine
 10
6788.982527132553
 20
1145.304733744351
 30
0.0
 11
6795.4133077509
 21
1121.304733744351
 31
0.0
  0
LINE
  5
25C9C
330
747D
100
AcDbEntity
  8
細線
 48
50.0
100
AcDbLine
 10
6867.870572079799
 20
1145.304733744351
 30
0.0
 11
6874.301352698147
 21
1121.304733744351
 31
0.0
  0
LINE
  5
25C9D
330
747D
100
AcDbEntity
  8
細線
 48
50.0
100
AcDbLine
 10
6861.439791461449
 20
1121.304733744349
 30
0.0
 11
6895.737288092634
 21
1249.304733744349
 31
0.0
  0
LINE
  5
25C9E
330
747D
100
AcDbEntity
  8
細線
 48
50.0
100
AcDbLine
 10
6782.5517465142
 20
1121.304733744351
 30
0.0
 11
6816.849243145387
 21
1249.304733744349
 31
0.0
  0
LINE
  5
25C9F
330
747D
100
AcDbEntity
  8
細線
 48
50.0
100
AcDbLine
 10
6940.327836408695
 20
1121.304733744351
 30
0.0
 11
6974.62533303988
 21
1249.304733744349
 31
0.0
  0
LINE
  5
25CA0
330
747D
100
AcDbEntity
  8
部品1
 48
50.0
100
AcDbLine
 10
7026.480862070944
 20
1249.304733744351
 30
0.0
 11
7026.480862070944
 21
1121.304733744351
 31
0.0
  0
LINE
  5
25CA1
330
747D
100
AcDbEntity
  8
部品1
 48
50.0
100
AcDbLine
 10
6714.480862070941
 20
1427.431948441473
 30
0.0
 11
6714.480862070941
 21
1369.304733744351
 31
0.0
  0
LINE
  5
25CA2
330
747D
100
AcDbEntity
  8
細線
 48
50.0
100
AcDbLine
 10
6640.219494851224
 20
1361.304733744351
 30
0.0
 11
6698.480862070941
 21
1419.56610096407
 31
0.0
  0
LINE
  5
25CA3
330
747D
100
AcDbEntity
  8
部品1
 48
50.0
100
AcDbLine
 10
6698.480862070941
 20
1427.431948441473
 30
0.0
 11
6698.480862070941
 21
1369.304733744351
 31
0.0
  0
LINE
  5
25CA4
330
747D
100
AcDbEntity
  8
細線
 48
50.0
100
AcDbLine
 10
6555.160263214429
 20
1249.304733744351
 30
0.0
 11
6651.16026321443
 21
1345.304733744351
 31
0.0
  0
LINE
  5
25CA5
330
747D
100
AcDbEntity
  8
細線
 48
50.0
100
AcDbLine
 10
6652.642372632545
 20
1225.304733744351
 30
0.0
 11
6646.211592014198
 21
1249.304733744351
 31
0.0
  0
LINE
  5
25CA6
330
747D
100
AcDbEntity
  8
細線
 48
50.0
100
AcDbLine
 10
6573.754327685292
 20
1225.304733744351
 30
0.0
 11
6567.323547066947
 21
1249.304733744351
 31
0.0
  0
ARC
  5
25CA7
330
747D
100
AcDbEntity
  8
部品1
 48
50.0
100
AcDbCircle
 10
6722.480862070941
 20
1369.304733744351
 30
0.0
 40
24.0
100
AcDbArc
 50
180.0
 51
199.4712206344743
  0
LINE
  5
25CA8
330
747D
100
AcDbEntity
  8
細線
 48
50.0
100
AcDbLine
 10
6667.16026321443
 20
1361.304733744351
 30
0.0
 11
6698.480862070941
 21
1392.625332600863
 31
0.0
  0
CIRCLE
  5
25CA9
330
747D
100
AcDbEntity
  8
部品1
 48
50.0
100
AcDbCircle
 10
6594.480862070941
 20
1369.304733744351
 30
0.0
 40
8.0
  0
LINE
  5
25CAA
330
747D
100
AcDbEntity
  8
部品1
 48
50.0
100
AcDbLine
 10
6714.480862070941
 20
1427.431948441473
 30
0.0
 11
6698.480862070941
 21
1427.431948441473
 31
0.0
  0
LINE
  5
25CAB
330
747D
100
AcDbEntity
  8
細線
 48
50.0
100
AcDbLine
 10
6418.48086207094
 20
1234.644654710131
 30
0.0
 11
6422.409018409137
 21
1249.304733744351
 31
0.0
  0
LINE
  5
25CAC
330
747D
100
AcDbEntity
  8
細線
 48
50.0
100
AcDbLine
 10
6494.866282738041
 20
1225.304733744351
 30
0.0
 11
6488.435502119694
 21
1249.304733744351
 31
0.0
  0
LINE
  5
25CAD
330
747D
100
AcDbEntity
  8
部品1
 48
50.0
100
AcDbLine
 10
6554.48086207094
 20
1361.304733744351
 30
0.0
 11
6554.48086207094
 21
1345.304733744351
 31
0.0
  0
LINE
  5
25CAE
330
747D
100
AcDbEntity
  8
細線
 48
50.0
100
AcDbLine
 10
6501.278726488013
 20
1249.304733744351
 30
0.0
 11
6597.278726488013
 21
1345.304733744351
 31
0.0
  0
LINE
  5
25CAF
330
747D
100
AcDbEntity
  8
細線
 48
50.0
100
AcDbLine
 10
6528.219494851224
 20
1249.304733744351
 30
0.0
 11
6624.219494851224
 21
1345.304733744351
 31
0.0
  0
LINE
  5
25CB0
330
747D
100
AcDbEntity
  8
細線
 48
50.0
100
AcDbLine
 10
6631.206437238056
 20
1145.304733744351
 30
0.0
 11
6637.637217856401
 21
1121.304733744351
 31
0.0
  0
LINE
  5
25CB1
330
747D
100
AcDbEntity
  8
細線
 48
50.0
100
AcDbLine
 10
6710.094482185308
 20
1145.304733744351
 30
0.0
 11
6716.525262803654
 21
1121.304733744351
 31
0.0
  0
LINE
  5
25CB2
330
747D
100
AcDbEntity
  8
細線
 48
50.0
100
AcDbLine
 10
6473.430347343551
 20
1145.304733744351
 30
0.0
 11
6479.861127961898
 21
1121.304733744351
 31
0.0
  0
LINE
  5
25CB3
330
747D
100
AcDbEntity
  8
細線
 48
50.0
100
AcDbLine
 10
6552.318392290803
 20
1145.304733744351
 30
0.0
 11
6558.749172909151
 21
1121.304733744351
 31
0.0
  0
LINE
  5
25CB4
330
747D
100
AcDbEntity
  8
部品1
 48
50.0
100
AcDbLine
 10
6418.480862070943
 20
1121.304733744351
 30
0.0
 11
6418.480862070943
 21
1249.304733744351
 31
0.0
  0
LINE
  5
25CB5
330
747D
100
AcDbEntity
  8
細線
 48
50.0
100
AcDbLine
 10
6466.999566725198
 20
1121.304733744349
 30
0.0
 11
6501.297063356382
 21
1249.304733744349
 31
0.0
  0
LINE
  5
25CB6
330
747D
100
AcDbEntity
  8
細線
 48
50.0
100
AcDbLine
 10
6624.775656619703
 20
1121.304733744349
 30
0.0
 11
6659.073153250886
 21
1249.304733744349
 31
0.0
  0
LINE
  5
25CB7
330
747D
100
AcDbEntity
  8
細線
 48
50.0
100
AcDbLine
 10
6545.887611672457
 20
1121.304733744351
 30
0.0
 11
6580.18510830364
 21
1249.304733744351
 31
0.0
  0
LINE
  5
25CB8
330
747D
100
AcDbEntity
  8
細線
 48
50.0
100
AcDbLine
 10
6716.804873393674
 20
1249.304733744351
 30
0.0
 11
6812.804873393673
 21
1345.304733744351
 31
0.0
  0
CIRCLE
  5
25CB9
330
747D
100
AcDbEntity
  8
部品1
 48
50.0
100
AcDbCircle
 10
6722.480862070941
 20
1369.304733744351
 30
0.0
 40
8.0
  0
LINE
  5
25CBA
330
747D
100
AcDbEntity
  8
部品1
 48
50.0
100
AcDbLine
 10
7026.480862070944
 20
1249.304733744351
 30
0.0
 11
6418.480862070943
 21
1249.304733744351
 31
0.0
  0
LINE
  5
25CBB
330
747D
100
AcDbEntity
  8
部品1
 48
50.0
100
AcDbLine
 10
6554.48086207094
 20
1361.304733744351
 30
0.0
 11
6890.480862070941
 21
1361.304733744351
 31
0.0
  0
LINE
  5
25CBC
330
747D
100
AcDbEntity
  8
部品1
 48
50.0
100
AcDbLine
 10
6554.48086207094
 20
1345.304733744351
 30
0.0
 11
6890.480862070941
 21
1345.304733744351
 31
0.0
  0
LINE
  5
25CBD
330
747D
100
AcDbEntity
  8
部品1
 48
50.0
100
AcDbLine
 10
7026.480862070944
 20
1121.304733744351
 30
0.0
 11
6418.480862070943
 21
1121.304733744351
 31
0.0
  0
LINE
  5
25CBE
330
747D
100
AcDbEntity
  8
細線
 48
50.0
100
AcDbLine
 10
6703.663701566956
 20
1121.304733744351
 30
0.0
 11
6737.961198198139
 21
1249.304733744351
 31
0.0
  0
LINE
  5
25CBF
330
747D
100
AcDbEntity
  8
細線
 48
50.0
100
AcDbLine
 10
6714.480862070941
 20
1408.625332600863
 30
0.0
 11
6730.480862070947
 21
1424.625332600863
 31
0.0
  0
LINE
  5
25CC0
330
747D
100
AcDbEntity
  8
部品1
 48
50.0
100
AcDbLine
 10
6730.480862070947
 20
1369.304733744351
 30
0.0
 11
6730.480862070933
 21
1893.559163138597
 31
0.0
  0
LINE
  5
25CC1
330
747D
100
AcDbEntity
  8
部品1
 48
50.0
100
AcDbLine
 10
6746.480862070946
 20
1369.304733744351
 30
0.0
 11
6746.48086207094
 21
1893.559163138597
 31
0.0
  0
LINE
  5
25CC2
330
747D
100
AcDbEntity
  8
部品1
 48
50.0
100
AcDbLine
 10
6946.480862070941
 20
1489.304733744351
 30
0.0
 11
6946.480862070941
 21
1249.304733744351
 31
0.0
  0
LINE
  5
25CC3
330
747D
100
AcDbEntity
  8
細線
 48
50.0
100
AcDbLine
 10
6828.804873393669
 20
1361.304733744351
 30
0.0
 11
6946.480862070941
 21
1478.980722421617
 31
0.0
  0
LINE
  5
25CC4
330
747D
100
AcDbEntity
  8
細線
 48
50.0
100
AcDbLine
 10
6855.745641756884
 20
1361.304733744351
 30
0.0
 11
6946.480862070941
 21
1452.03995405841
 31
0.0
  0
LINE
  5
25CC5
330
747D
100
AcDbEntity
  8
部品1
 48
50.0
100
AcDbLine
 10
6498.480862070941
 20
1249.304733744351
 30
0.0
 11
6498.480862070941
 21
1489.304733744351
 31
0.0
  0
LINE
  5
25CC6
330
747D
100
AcDbEntity
  8
細線
 48
50.0
100
AcDbLine
 10
6613.278726488013
 20
1361.304733744351
 30
0.0
 11
6730.48086207094
 21
1478.506869327277
 31
0.0
  0
LINE
  5
25CC7
330
747D
100
AcDbEntity
  8
細線
 48
50.0
100
AcDbLine
 10
6706.346709548345
 20
1427.431948441473
 30
0.0
 11
6730.480862070947
 21
1451.566100964072
 31
0.0
  0
LINE
  5
25CC8
330
747D
100
AcDbEntity
  8
細線
 48
50.0
100
AcDbLine
 10
6498.480862070934
 20
1408.151479506522
 30
0.0
 11
6579.634116308769
 21
1489.304733744351
 31
0.0
  0
LEADER
  5
25CC9
330
747D
100
AcDbEntity
  8
寸法
 48
50.0
100
AcDbLeader
  3
INABA_S50G
 71
     0
 73
     0
 74
     0
 75
     1
 40
100.0
 41
222.7272727272727
 76
     3
 10
6722.480862070939
 20
1893.559163138597
 30
0.0
 10
6776.366799098335
 20
1992.79473599177
 30
0.0
 10
6901.366799098335
 20
1992.79473599177
 30
0.0
1001
ACAD
1000
DSTYLE
1002
{
1070
    40
1040
1.0
1070
   272
1070
     1
1070
   279
1070
     1
1070
   341
1005
0
1002
}
  0
LWPOLYLINE
  5
25CCA
330
747D
100
AcDbEntity
  8
部品1
 48
50.0
100
AcDbPolyline
 90
        2
 70
     0
 43
8.0
 10
6818.48086207094
 20
1793.304733744352
 10
7232.620763903899
 20
1793.304733744352
  0
MTEXT
  5
25CCB
102
{ACAD_REACTORS
330
25CCD
102
}
330
747D
100
AcDbEntity
  8
寸法
 62
     7
 48
50.0
100
AcDbMText
 10
7049.808521877626
 20
1333.907664801379
 30
0.0
 40
80.0
 41
0.8
 71
     4
 72
     1
  1
D10
  7
STYLE2
 73
     1
 44
1.0
1001
ACAD
1000
MTEXTBEGIN
1070
    73
1070
     1
1070
    44
1040
1.0
1070
    74
1070
     0
1000
MTEXTEND
  0
LEADER
  5
25CCC
330
747D
100
AcDbEntity
  8
寸法
 48
50.0
100
AcDbLeader
  3
INABA_S50G
 71
     0
 73
     0
 74
     0
 75
     1
 40
100.0
 41
540.3409090909091
 76
     3
 10
6796.426031084114
 20
1352.564203330826
 30
0.0
 10
6915.219317932191
 20
1010.933385335928
 30
0.0
 10
7040.219317932191
 20
1010.933385335928
 30
0.0
213
0.0
223
-1.022262676269383
233
0.0
1001
ACAD
1000
DSTYLE
1002
{
1070
    40
1040
1.0
1070
   272
1070
     1
1070
   279
1070
     1
1070
   341
1005
0
1002
}
  0
LEADER
  5
25CCD
330
747D
100
AcDbEntity
  8
寸法
 48
50.0
100
AcDbLeader
  3
INABA_S50G
 71
     0
 73
     0
 74
     0
 75
     1
 40
100.0
 41
225.0
 76
     3
 10
6850.383814423082
 20
1369.304733744351
 30
0.0
 10
6904.808521877625
 20
1273.907664801379
 30
0.0
 10
7029.808521877625
 20
1273.907664801379
 30
0.0
1001
ACAD
1000
DSTYLE
1002
{
1070
    40
1040
1.0
1070
   272
1070
     1
1070
   279
1070
     1
1070
   341
1005
0
1002
}
  0
MTEXT
  5
25CCE
102
{ACAD_REACTORS
330
25CC9
102
}
330
747D
100
AcDbEntity
  8
寸法
 62
     7
 48
50.0
100
AcDbMText
 10
6901.366799098335
 20
2055.860633037162
 30
0.0
 40
80.0
 41
0.8
 71
     4
 72
     1
  1
D13
  7
STYLE2
 73
     1
 44
1.0
1001
ACAD
1000
MTEXTBEGIN
1070
    73
1070
     1
1070
    44
1040
1.0
1070
    74
1070
     0
1000
MTEXTEND
  0
LINE
  5
25CCF
330
747D
100
AcDbEntity
  8
部品1
 48
50.0
100
AcDbLine
 10
6818.48086207094
 20
2033.304733744351
 30
0.0
 11
6818.48086207094
 21
1489.304733744351
 31
0.0
  0
LINE
  5
25CD0
330
747D
100
AcDbEntity
  8
部品1
 48
50.0
100
AcDbLine
 10
6626.480862070941
 20
1489.304733744351
 30
0.0
 11
6626.480862070941
 21
2033.304733744351
 31
0.0
  0
CIRCLE
  5
25CD1
330
747D
100
AcDbEntity
  8
部品1
 48
50.0
100
AcDbCircle
 10
6722.480862070941
 20
1893.559163138597
 30
0.0
 40
8.0
  0
ARC
  5
25CD2
330
747D
100
AcDbEntity
  8
部品1
 48
50.0
100
AcDbCircle
 10
6722.480862070941
 20
1893.559163138597
 30
0.0
 40
24.0
100
AcDbArc
 50
0.0
 51
180.0
  0
LINE
  5
25CD3
330
747D
100
AcDbEntity
  8
細線
 48
50.0
100
AcDbLine
 10
6746.48086207094
 20
1871.677626412182
 30
0.0
 11
6818.48086207094
 21
1943.677626412181
 31
0.0
  0
LEADER
  5
25CD4
330
747D
100
AcDbEntity
  8
寸法
 48
50.0
100
AcDbLeader
  3
INABA_S50G
 73
     0
 75
     1
 40
106.3636363636363
 41
893.1818181818181
 76
     3
 10
8457.920175248135
 20
2102.864733744353
 30
0.0
 10
8409.496102903196
 20
2476.924308460685
 30
0.0
 10
8284.496102903196
 20
2476.924308460685
 30
0.0
340
25CD5
1001
ACAD
1000
DSTYLE
1002
{
1070
   341
1005
0
1070
    40
1040
1.0
1070
   343
1005
0
1070
   344
1005
0
1002
}
  0
MTEXT
  5
25CD5
102
{ACAD_REACTORS
330
25CD4
102
}
330
747D
100
AcDbEntity
  8
寸法
 62
     7
 48
50.0
100
AcDbMText
 10
8259.496102903195
 20
2555.106126642503
 30
0.0
 40
80.0
 41
0.8
 71
     6
 72
     1
  1
\A1;アンカープレート L
  7
STYLE2
 73
     1
 44
1.0
1001
ACAD
1000
MTEXTBEGIN
1070
    73
1070
     1
1070
    44
1040
1.0
1070
    74
1070
     0
1000
MTEXTEND
  0
DIMENSION
  5
25CD6
330
747D
100
AcDbEntity
  8
寸法
 48
50.0
100
AcDbDimension
  2
*D55
 10
6946.480862070941
 20
710.8750957391912
 30
0.0
 11
6702.384103392716
 21
710.8750957391912
 31
0.0
 70
   160
  1
300
 71
     5
 42
448.0
  3
INABA_S40G
100
AcDbAlignedDimension
 13
6498.48086207094
 23
1121.304733744351
 33
0.0
 14
6946.480862070941
 24
1121.304733744351
 34
0.0
100
AcDbRotatedDimension
1001
ACAD
1000
DSTYLE
1002
{
1070
   341
1005
0
1002
}
  0
MTEXT
  5
25CD7
102
{ACAD_REACTORS
330
25CDF
102
}
330
747D
100
AcDbEntity
  8
寸法
 62
     7
 48
50.0
100
AcDbMText
 10
6327.545835875746
 20
1165.782040125915
 30
0.0
 40
80.0
 41
0.8
 71
     6
 72
     1
  1
D10
  7
STYLE2
 73
     1
 44
1.0
1001
ACAD
1000
MTEXTBEGIN
1070
    73
1070
     1
1070
    44
1040
1.0
1070
    74
1070
     0
1000
MTEXTEND
  0
MTEXT
  5
25CD8
102
{ACAD_REACTORS
330
25CDE
102
}
330
747D
100
AcDbEntity
  8
寸法
 62
     7
 48
50.0
100
AcDbMText
 10
6355.66856343318
 20
985.4658875864716
 30
0.0
 40
80.0
 41
0.8
 71
     6
 72
     1
  1
D13
  7
STYLE2
 73
     1
 44
1.0
1001
ACAD
1000
MTEXTBEGIN
1070
    73
1070
     1
1070
    44
1040
1.0
1070
    74
1070
     0
1000
MTEXTEND
  0
DIMENSION
  5
25CD9
330
747D
100
AcDbEntity
  8
寸法
 48
50.0
100
AcDbDimension
  2
*D56
 10
5891.4436235092
 20
1249.304733744351
 30
0.0
 11
5891.4436235092
 21
1620.844883400352
 31
0.0
 70
   160
  1
540
 71
     5
 42
784.0
  3
INABA_S40G
100
AcDbAlignedDimension
 13
6626.48086207094
 23
2033.304733744351
 33
0.0
 14
6418.480862070943
 24
1249.304733744351
 34
0.0
 50
90.0
100
AcDbRotatedDimension
1001
ACAD
1000
DSTYLE
1002
{
1070
   341
1005
0
1002
}
  0
MTEXT
  5
25CDA
102
{ACAD_REACTORS
330
25CDB
102
}
330
747D
100
AcDbEntity
  8
寸法
 62
     7
 48
50.0
100
AcDbMText
 10
6406.382382587667
 20
2245.820953746394
 30
0.0
 40
80.0
 41
0.8
 71
     6
 72
     1
  1
\A1;金コテ押エ
  7
STYLE2
 73
     1
 44
1.0
1001
ACAD
1000
MTEXTBEGIN
1070
    73
1070
     1
1070
    44
1040
1.0
1070
    74
1070
     0
1000
MTEXTEND
  0
LEADER
  5
25CDB
330
747D
100
AcDbEntity
  8
寸法
 48
50.0
100
AcDbLeader
  3
INABA_S50G
 71
     0
 73
     0
 75
     1
 40
130.1136363636363
 41
651.1363636363636
 76
     3
 10
6706.480862070939
 20
2033.304733744351
 30
0.0
 10
6594.056281906924
 20
2173.77549920094
 30
0.0
 10
6469.056281906924
 20
2173.77549920094
 30
0.0
1001
ACAD
1000
DSTYLE
1002
{
1070
    40
1040
1.0
1070
   272
1070
     1
1070
   279
1070
     1
1070
   341
1005
0
1002
}
  0
LEADER
  5
25CDC
330
747D
100
AcDbEntity
  8
寸法
 48
50.0
100
AcDbLeader
  3
INABA_S50G
 71
     0
 73
     0
 75
     1
 40
100.0
 41
540.3409090909091
 76
     3
 10
6730.480862070939
 20
1791.431948441475
 30
0.0
 10
6672.498625542242
 20
1569.961619900669
 30
0.0
 10
6547.498625542242
 20
1569.961619900669
 30
0.0
213
-9.732182305893367
223
-4.643716661138569
233
0.0
1001
ACAD
1000
DSTYLE
1002
{
1070
    40
1040
1.0
1070
   272
1070
     1
1070
   279
1070
     1
1070
   341
1005
0
1002
}
  0
MTEXT
  5
25CDD
102
{ACAD_REACTORS
330
25CDC
102
}
330
747D
100
AcDbEntity
  8
寸法
 62
     7
 48
50.0
100
AcDbMText
 10
6537.230807848136
 20
1634.605336561808
 30
0.0
 40
80.0
 41
0.8
 71
     6
 72
     1
  1
\A1;D10@300
  7
STYLE2
 73
     1
 44
1.0
1001
ACAD
1000
MTEXTBEGIN
1070
    73
1070
     1
1070
    44
1040
1.0
1070
    74
1070
     0
1000
MTEXTEND
  0
LEADER
  5
25CDE
330
747D
100
AcDbEntity
  8
寸法
 48
50.0
100
AcDbLeader
  3
INABA_S50G
 71
     0
 73
     0
 75
     1
 40
100.0
 41
222.7272727272727
 76
     3
 10
6722.480862070939
 20
1369.304733744351
 30
0.0
 10
6500.66856343318
 20
925.4658875864716
 30
0.0
 10
6375.668563433181
 20
925.4658875864716
 30
0.0
1001
ACAD
1000
DSTYLE
1002
{
1070
    40
1040
1.0
1070
   272
1070
     1
1070
   279
1070
     1
1070
   341
1005
0
1002
}
  0
LEADER
  5
25CDF
330
747D
100
AcDbEntity
  8
寸法
 48
50.0
100
AcDbLeader
  3
INABA_S50G
 71
     0
 73
     0
 75
     1
 40
100.0
 41
225.0
 76
     3
 10
6594.383814423084
 20
1369.304733744351
 30
0.0
 10
6472.545835875746
 20
1105.782040125915
 30
0.0
 10
6347.545835875746
 20
1105.782040125915
 30
0.0
1001
ACAD
1000
DSTYLE
1002
{
1070
    40
1040
1.0
1070
   272
1070
     1
1070
   279
1070
     1
1070
   341
1005
0
1002
}
  0
DIMENSION
  5
25CE0
330
747D
100
AcDbEntity
  8
寸法
 48
50.0
100
AcDbDimension
  2
*D57
 10
6356.06054833848
 20
1249.304733744351
 30
0.0
 11
6356.06054833848
 21
1369.304733744352
 31
0.0
 70
   160
  1
150
 71
     5
 42
240.0
  3
INABA_S40G
100
AcDbAlignedDimension
 13
6498.48086207094
 23
1489.304733744351
 33
0.0
 14
6418.480862070943
 24
1249.304733744351
 34
0.0
 50
90.0
100
AcDbRotatedDimension
1001
ACAD
1000
DSTYLE
1002
{
1070
   341
1005
0
1002
}
  0
TEXT
  5
25CE1
330
747D
100
AcDbEntity
  8
部品1
 48
50.0
100
AcDbText
 10
6212.340960237984
 20
1804.543726027606
 30
0.0
 40
80.0
  1
▽G.L
  7
STYLE2
100
AcDbText
  0
LWPOLYLINE
  5
25CE2
330
747D
100
AcDbEntity
  8
部品1
 48
50.0
100
AcDbPolyline
 90
        2
 70
     0
 43
8.0
 10
6212.340960237984
 20
1793.304733744352
 10
6626.48086207094
 20
1793.304733744352
  0
MTEXT
  5
25CE3
102
{ACAD_REACTORS
330
25CE4
102
}
330
747D
100
AcDbEntity
  8
寸法
 62
     7
 48
50.0
100
AcDbMText
 10
8232.853096694837
 20
2915.790398550017
 30
0.0
 40
80.0
 41
0.8
 71
     6
 72
     1
  1
\A1;φ70スリーブ
  7
STYLE2
 73
     1
 44
1.0
1001
ACAD
1000
MTEXTBEGIN
1070
    73
1070
     1
1070
    44
1040
1.0
1070
    74
1070
     0
1000
MTEXTEND
  0
LEADER
  5
25CE4
330
747D
100
AcDbEntity
  8
寸法
 48
50.0
100
AcDbLeader
  3
INABA_S50G
 73
     0
 75
     1
 40
113.1818181818182
 41
608.6363636363635
 76
     3
 10
8516.656925386184
 20
1982.82040710263
 30
0.0
 10
8382.853096694836
 20
2834.199489459108
 30
0.0
 10
8257.853096694836
 20
2834.199489459108
 30
0.0
340
25CE3
1001
ACAD
1000
DSTYLE
1002
{
1070
   341
1005
0
1070
    40
1040
1.0
1070
   343
1005
0
1070
   344
1005
0
1002
}
  0
LINE
  5
25CE5
330
747D
100
AcDbEntity
  8
部品1
100
AcDbLine
 10
5555.812423261677
 20
3432.643400944936
 30
0.0
 11
5555.812423261679
 21
468.3364313602896
 31
0.0
  0
LEADER
  5
25CE6
330
747D
100
AcDbEntity
  8
寸法
 48
50.0
100
AcDbLeader
  3
INABA_S50G
 73
     0
 74
     0
 75
     1
 40
80.0
 41
435.0
 76
     3
 10
8556.920175248135
 20
2082.464733744352
 30
0.0
 10
8599.464637667454
 20
2232.688059897581
 30
0.0
 10
8724.464637667454
 20
2232.688059897581
 30
0.0
340
25CE7
1001
ACAD
1000
DSTYLE
1002
{
1070
   341
1005
0
1070
    40
1040
1.0
1070
   343
1005
0
1070
   344
1005
0
1002
}
  0
MTEXT
  5
25CE7
102
{ACAD_REACTORS
330
25CE6
102
}
330
747D
100
AcDbEntity
  8
部品1
 62
     7
 48
50.0
100
AcDbMText
 10
8749.464637667454
 20
2297.688059897581
 30
0.0
 40
80.0
 41
0.8
 71
     4
 72
     1
  1
M10X160
  7
STYLE2
 73
     1
 44
1.0
1001
ACAD
1000
MTEXTBEGIN
1070
    73
1070
     1
1070
    44
1040
1.0
1070
    74
1070
     0
1000
MTEXTEND
  0
DIMENSION
  5
25CE8
330
747D
100
AcDbEntity
  8
寸法
 48
50.0
100
AcDbDimension
  2
*D58
 10
9518.443441136005
 20
2033.304733744351
 30
0.0
 11
9518.443441136005
 21
1567.295830322868
 31
0.0
 70
   160
  1
20～25
 71
     5
 42
52.7600000000009
  3
INABA_S40G
100
AcDbAlignedDimension
 13
8553.320175248135
 23
2086.064733744352
 33
0.0
 14
8740.520175248134
 24
2033.304733744351
 34
0.0
 50
90.0
100
AcDbRotatedDimension
1001
ACAD
1000
DSTYLE
1002
{
1070
   341
1005
0
1002
}
  0
DIMENSION
  5
25CE9
330
747D
100
AcDbEntity
  8
寸法
 48
50.0
100
AcDbDimension
  2
*D59
 10
9242.388775016978
 20
1709.30473374435
 30
0.0
 11
9142.388775016978
 21
1871.304733744352
 31
0.0
 70
    32
  1
180
 71
     5
 42
324.0000000000009
  3
INABA_S40G
100
AcDbAlignedDimension
 13
8740.520175248134
 23
2033.304733744351
 33
0.0
 14
8740.520175248134
 24
1709.30473374435
 34
0.0
 50
90.0
100
AcDbRotatedDimension
1001
ACAD
1000
DSTYLE
1002
{
1070
   341
1005
0
1002
}
  0
TEXT
  5
25CEA
330
747D
100
AcDbEntity
  8
部品1
 48
50.0
100
AcDbText
 10
8744.873759532563
 20
2389.183414506551
 30
0.0
 40
80.0
  1
基礎ボルト(市販品)
  7
STYLE2
100
AcDbText
  0
LWPOLYLINE
  5
25CEB
330
747D
100
AcDbEntity
  8
部品1
 48
50.0
100
AcDbPolyline
 90
        2
 70
     0
 43
8.0
 10
8740.520175248134
 20
1793.304733744352
 10
9034.222638647518
 20
1793.304733744352
  0
MTEXT
  5
25CEC
102
{ACAD_REACTORS
330
25CED
102
}
330
747D
100
AcDbEntity
  8
部品1
 62
     7
 48
50.0
100
AcDbMText
 10
8779.791765616975
 20
2733.800106831612
 30
0.0
 40
80.0
 41
0.8
 71
     4
 72
     1
  1
\A1;ワッシャー(市販品)
  7
STYLE2
 73
     1
 44
1.0
1001
ACAD
1000
MTEXTBEGIN
1070
    73
1070
     1
1070
    44
1040
1.0
1070
    74
1070
     0
1000
MTEXTEND
  0
LEADER
  5
25CED
330
747D
100
AcDbEntity
  8
寸法
 48
50.0
100
AcDbLeader
  3
INABA_S50G
 73
     0
 74
     0
 75
     1
 40
102.2727272727273
 41
906.8181818181818
 76
     3
 10
8587.920175248134
 20
2302.428022188631
 30
0.0
 10
8629.791765616975
 20
2657.663743195248
 30
0.0
 10
8754.791765616975
 20
2657.663743195248
 30
0.0
340
25CEC
1001
ACAD
1000
DSTYLE
1002
{
1070
   341
1005
0
1070
    40
1040
1.0
1070
   343
1005
0
1070
   344
1005
0
1002
}
  0
MTEXT
  5
25CEE
102
{ACAD_REACTORS
330
25CEF
102
}
330
747D
100
AcDbEntity
  8
部品1
 62
     7
 48
50.0
100
AcDbMText
 10
8748.274146361492
 20
2918.769189596399
 30
0.0
 40
80.0
 41
0.8
 71
     4
 72
     1
  1
\A1;ナット(市販品)
  7
STYLE2
 73
     1
 44
1.0
1001
ACAD
1000
MTEXTBEGIN
1070
    73
1070
     1
1070
    44
1040
1.0
1070
    74
1070
     0
1000
MTEXTEND
  0
LEADER
  5
25CEF
330
747D
100
AcDbEntity
  8
寸法
 48
50.0
100
AcDbLeader
  3
INABA_S50G
 73
     0
 74
     0
 75
     1
 40
102.2727272727273
 41
680.0000000000001
 76
     3
 10
8563.920175248135
 20
2432.180014853494
 30
0.0
 10
8598.274146361491
 20
2842.632825960035
 30
0.0
 10
8723.274146361491
 20
2842.632825960035
 30
0.0
340
25CEE
1001
ACAD
1000
DSTYLE
1002
{
1070
   341
1005
0
1070
    40
1040
1.0
1070
   343
1005
0
1070
   344
1005
0
1002
}
  0
LINE
  5
25CF0
330
747D
100
AcDbEntity
  8
部品1
100
AcDbLine
 10
5555.812423261681
 20
468.3364313602896
 30
0.0
 11
11626.79760864792
 21
468.3364313602896
 31
0.0
  0
LINE
  5
25CF1
330
747D
100
AcDbEntity
  8
部品1
100
AcDbLine
 10
11626.79760864792
 20
3192.643400944935
 30
0.0
 11
5555.812423261679
 21
3192.643400944935
 31
0.0
  0
LINE
  5
25CF2
330
747D
100
AcDbEntity
  8
部品1
100
AcDbLine
 10
11626.79760864793
 20
3432.643400944936
 30
0.0
 11
5555.812423261675
 21
3432.643400944936
 31
0.0
  0
ENDSEC
  0
SECTION
  2
OBJECTS
  0
DICTIONARY
  5
7471
330
0
100
AcDbDictionary
281
     1
  3
ACAD_COLOR
350
173D2
  3
ACAD_GROUP
350
7472
  3
ACAD_LAYOUT
350
173D3
  3
ACAD_MATERIAL
350
173D1
  3
ACAD_MLINESTYLE
350
7473
  3
ACAD_PLOTSETTINGS
350
173D4
  3
ACAD_PLOTSTYLENAME
350
173CF
  3
ACDBHEADERROUNDTRIPXREC
350
25D80
  3
AcDbVariableDictionary
350
25905
  3
CONTENTDICTIONARY
350
E71C
  3
DRAWINGVARIABLESDICT
350
F3B9
  0
DICTIONARY
  5
1758F
330
7467
100
AcDbDictionary
280
     1
281
     1
  3
ACAD_LAYERSTATES
360
17590
  0
DICTIONARY
  5
173D2
102
{ACAD_REACTORS
330
7471
102
}
330
7471
100
AcDbDictionary
281
     1
  0
DICTIONARY
  5
7472
102
{ACAD_REACTORS
330
7471
102
}
330
7471
100
AcDbDictionary
281
     1
  3
*A1
350
1D2A9
  0
DICTIONARY
  5
173D3
102
{ACAD_REACTORS
330
7471
102
}
330
7471
100
AcDbDictionary
281
     1
  3
Model
350
173D5
  3
レイアウト1
350
173D6
  0
DICTIONARY
  5
173D1
102
{ACAD_REACTORS
330
7471
102
}
330
7471
100
AcDbDictionary
281
     1
  0
DICTIONARY
  5
7473
102
{ACAD_REACTORS
330
7471
102
}
330
7471
100
AcDbDictionary
281
     1
  3
STANDARD
350
7480
  0
DICTIONARY
  5
173D4
102
{ACAD_REACTORS
330
7471
102
}
330
7471
100
AcDbDictionary
281
     1
  0
ACDBDICTIONARYWDFLT
  5
173CF
102
{ACAD_REACTORS
330
7471
102
}
330
7471
100
AcDbDictionary
281
     1
  3
Normal
350
173D0
100
AcDbDictionaryWithDefault
340
173D0
  0
DICTIONARY
  5
25D80
102
{ACAD_REACTORS
330
7471
102
}
330
7471
100
AcDbDictionary
281
     1
  3
COLORDICT
350
25D82
  3
MATERIALDICT
350
25D81
  0
DICTIONARY
  5
25905
102
{ACAD_REACTORS
330
7471
102
}
330
7471
100
AcDbDictionary
281
     1
  3
DIMASSOC
350
25906
  3
PROJECTNAME
350
25907
  0
DICTIONARY
  5
E71C
102
{ACAD_REACTORS
330
7471
102
}
330
7471
100
AcDbDictionary
281
     1
  0
DICTIONARY
  5
F3B9
102
{ACAD_REACTORS
330
7471
102
}
330
7471
100
AcDbDictionary
281
     1
1001
DRAWINGVARIABLESXDATA
1000
POLARMODE
1000
1
  0
DICTIONARY
  5
17590
102
{ACAD_REACTORS
330
1758F
102
}
330
1758F
100
AcDbDictionary
281
     1
  0
GROUP
  5
1D2A9
102
{ACAD_REACTORS
330
7472
102
}
330
7472
100
AcDbGroup
300

 70
     1
 71
     1
  0
LAYOUT
  5
173D5
102
{ACAD_XDICTIONARY
360
25D83
102
}
102
{ACAD_REACTORS
330
173D3
102
}
330
173D3
100
AcDbPlotSettings
  1

  2
Microsoft Office Document Image Writer
  4

  6

 40
0.0
 41
0.0
 42
0.0
 43
0.0
 44
0.0
 45
0.0
 46
0.0
 47
0.0
 48
0.0
 49
0.0
140
0.0
141
0.0
142
1.0
143
1.0
 70
  1712
 72
     0
 73
     0
 74
     0
  7

 75
     0
147
1.0
148
0.0
149
0.0
100
AcDbLayout
  1
Model
 70
     1
 71
     0
 10
0.0
 20
0.0
 11
12.0
 21
9.0
 12
0.0
 22
0.0
 32
0.0
 14
0.0
 24
0.0
 34
0.0
 15
0.0
 25
0.0
 35
0.0
146
0.0
 13
0.0
 23
0.0
 33
0.0
 16
1.0
 26
0.0
 36
0.0
 17
0.0
 27
1.0
 37
0.0
 76
     0
330
747D
  0
LAYOUT
  5
173D6
102
{ACAD_XDICTIONARY
360
25D85
102
}
102
{ACAD_REACTORS
330
173D3
102
}
330
173D3
100
AcDbPlotSettings
  1

  2
Microsoft Office Document Image Writer
  4

  6

 40
0.0
 41
0.0
 42
0.0
 43
0.0
 44
0.0
 45
0.0
 46
0.0
 47
0.0
 48
0.0
 49
0.0
140
0.0
141
0.0
142
1.0
143
1.0
 70
   688
 72
     0
 73
     0
 74
     5
  7

 75
    16
147
1.0
148
0.0
149
0.0
100
AcDbLayout
  1
レイアウト1
 70
     0
 71
     1
 10
0.0
 20
0.0
 11
420.0
 21
297.0
 12
0.0
 22
0.0
 32
0.0
 14
1.000000000000000E+20
 24
1.000000000000000E+20
 34
1.000000000000000E+20
 15
-1.000000000000000E+20
 25
-1.000000000000000E+20
 35
-1.000000000000000E+20
146
0.0
 13
0.0
 23
0.0
 33
0.0
 16
1.0
 26
0.0
 36
0.0
 17
0.0
 27
1.0
 37
0.0
 76
     0
330
747A
  0
MLINESTYLE
  5
7480
102
{ACAD_REACTORS
330
7473
102
}
330
7473
100
AcDbMlineStyle
  2
STANDARD
 70
     0
  3

 62
     0
 51
90.0
 52
90.0
 71
     2
 49
0.5
 62
   256
  6
BYLAYER
 49
-0.5
 62
   256
  6
BYLAYER
  0
ACDBPLACEHOLDER
  5
173D0
102
{ACAD_REACTORS
330
173CF
102
}
330
173CF
  0
XRECORD
  5
25D82
102
{ACAD_REACTORS
330
25D80
102
}
330
25D80
100
AcDbXrecord
280
     1
340
173D2
  0
XRECORD
  5
25D81
102
{ACAD_REACTORS
330
25D80
102
}
330
25D80
100
AcDbXrecord
280
     1
340
173D1
  0
DICTIONARYVAR
  5
25906
102
{ACAD_REACTORS
330
25905
102
}
330
25905
100
DictionaryVariables
280
     0
  1
1
  0
DICTIONARYVAR
  5
25907
102
{ACAD_REACTORS
330
25905
102
}
330
25905
100
DictionaryVariables
280
     0
  1

  0
DICTIONARY
  5
25D83
330
173D5
100
AcDbDictionary
280
     1
281
     1
  3
ACAD_XREC_ROUNDTRIP
360
25D84
  0
DICTIONARY
  5
25D85
330
173D6
100
AcDbDictionary
280
     1
281
     1
  3
ACAD_XREC_ROUNDTRIP
360
25D86
  0
XRECORD
  5
25D84
102
{ACAD_REACTORS
330
25D83
102
}
330
25D83
100
AcDbXrecord
280
     1
102
SHADEPLOT
 70
     0
102
SHADEPLOTRESLEVEL
 70
     2
102
SHADEPLOTCUSTOMDPI
 70
   300
  0
XRECORD
  5
25D86
102
{ACAD_REACTORS
330
25D85
102
}
330
25D85
100
AcDbXrecord
280
     1
102
SHADEPLOT
 70
     0
102
SHADEPLOTRESLEVEL
 70
     2
102
SHADEPLOTCUSTOMDPI
 70
   300
  0
ENDSEC
  0
EOF
