  0
SECTION
  2
HEADER
  9
$ACADVER
  1
AC1015
  9
$ACADMAINTVER
 70
    20
  9
$DWGCODEPAGE
  3
ANSI_932
  9
$INSBASE
 10
0.0
 20
0.0
 30
0.0
  9
$EXTMIN
 10
139.9999999999995
 20
-0.0000000000000909
 30
0.0
  9
$EXTMAX
 10
16307.2
 20
11409.6
 30
0.0
  9
$LIMMIN
 10
0.0
 20
0.0
  9
$LIMMAX
 10
16800.0
 20
11880.0
  9
$ORTHOMODE
 70
     0
  9
$REGENMODE
 70
     1
  9
$FILLMODE
 70
     1
  9
$QTEXTMODE
 70
     0
  9
$MIRRTEXT
 70
     1
  9
$LTSCALE
 40
20.0
  9
$ATTMODE
 70
     1
  9
$TEXTSIZE
 40
4.0
  9
$TRACEWID
 40
1.0
  9
$TEXTSTYLE
  7
STYLE1
  9
$CLAYER
  8
寸法
  9
$CELTYPE
  6
BYLAYER
  9
$CECOLOR
 62
   256
  9
$CELTSCALE
 40
50.0
  9
$DISPSILH
 70
     0
  9
$DIMSCALE
 40
40.0
  9
$DIMASZ
 40
2.5
  9
$DIMEXO
 40
0.5
  9
$DIMDLI
 40
7.0
  9
$DIMRND
 40
0.0
  9
$DIMDLE
 40
0.0
  9
$DIMEXE
 40
1.5
  9
$DIMTP
 40
0.0
  9
$DIMTM
 40
0.0
  9
$DIMTXT
 40
3.0
  9
$DIMCEN
 40
0.0
  9
$DIMTSZ
 40
0.0
  9
$DIMTOL
 70
     0
  9
$DIMLIM
 70
     0
  9
$DIMTIH
 70
     0
  9
$DIMTOH
 70
     0
  9
$DIMSE1
 70
     0
  9
$DIMSE2
 70
     0
  9
$DIMTAD
 70
     3
  9
$DIMZIN
 70
     8
  9
$DIMBLK
  1

  9
$DIMASO
 70
     1
  9
$DIMSHO
 70
     1
  9
$DIMPOST
  1

  9
$DIMAPOST
  1

  9
$DIMALT
 70
     0
  9
$DIMALTD
 70
     2
  9
$DIMALTF
 40
0.0394
  9
$DIMLFAC
 40
1.0
  9
$DIMTOFL
 70
     1
  9
$DIMTVP
 40
0.0
  9
$DIMTIX
 70
     1
  9
$DIMSOXD
 70
     0
  9
$DIMSAH
 70
     1
  9
$DIMBLK1
  1
DOTSMALL
  9
$DIMBLK2
  1
DOTSMALL
  9
$DIMSTYLE
  2
INABA_S40G
  9
$DIMCLRD
 70
     0
  9
$DIMCLRE
 70
     0
  9
$DIMCLRT
 70
     7
  9
$DIMTFAC
 40
1.0
  9
$DIMGAP
 40
1.0
  9
$DIMJUST
 70
     0
  9
$DIMSD1
 70
     0
  9
$DIMSD2
 70
     0
  9
$DIMTOLJ
 70
     1
  9
$DIMTZIN
 70
     0
  9
$DIMALTZ
 70
     0
  9
$DIMALTTZ
 70
     0
  9
$DIMUPT
 70
     0
  9
$DIMDEC
 70
     1
  9
$DIMTDEC
 70
     4
  9
$DIMALTU
 70
     2
  9
$DIMALTTD
 70
     2
  9
$DIMTXSTY
  7
STYLE1
  9
$DIMAUNIT
 70
     0
  9
$DIMADEC
 70
     0
  9
$DIMALTRND
 40
0.0
  9
$DIMAZIN
 70
     0
  9
$DIMDSEP
 70
    46
  9
$DIMATFIT
 70
     3
  9
$DIMFRAC
 70
     0
  9
$DIMLDRBLK
  1

  9
$DIMLUNIT
 70
     2
  9
$DIMLWD
 70
    -2
  9
$DIMLWE
 70
    -2
  9
$DIMTMOVE
 70
     0
  9
$LUNITS
 70
     2
  9
$LUPREC
 70
     1
  9
$SKETCHINC
 40
1.0
  9
$FILLETRAD
 40
3.0
  9
$AUNITS
 70
     0
  9
$AUPREC
 70
     0
  9
$MENU
  1
acad
  9
$ELEVATION
 40
0.0
  9
$PELEVATION
 40
0.0
  9
$THICKNESS
 40
0.0
  9
$LIMCHECK
 70
     0
  9
$CHAMFERA
 40
0.0
  9
$CHAMFERB
 40
0.0
  9
$CHAMFERC
 40
0.0
  9
$CHAMFERD
 40
0.0
  9
$SKPOLY
 70
     0
  9
$TDCREATE
 40
2451368.612993866
  9
$TDUCREATE
 40
2451368.237993866
  9
$TDUPDATE
 40
2455826.606359769
  9
$TDUUPDATE
 40
2455826.231359769
  9
$TDINDWG
 40
0.7726552894
  9
$TDUSRTIMER
 40
0.7726552894
  9
$USRTIMER
 70
     1
  9
$ANGBASE
 50
0.0
  9
$ANGDIR
 70
     0
  9
$PDMODE
 70
     3
  9
$PDSIZE
 40
2.0
  9
$PLINEWID
 40
0.0
  9
$SPLFRAME
 70
     0
  9
$SPLINETYPE
 70
     6
  9
$SPLINESEGS
 70
     8
  9
$HANDSEED
  5
2538E
  9
$SURFTAB1
 70
     6
  9
$SURFTAB2
 70
     6
  9
$SURFTYPE
 70
     6
  9
$SURFU
 70
     6
  9
$SURFV
 70
     6
  9
$UCSBASE
  2

  9
$UCSNAME
  2

  9
$UCSORG
 10
0.0
 20
0.0
 30
0.0
  9
$UCSXDIR
 10
1.0
 20
0.0
 30
0.0
  9
$UCSYDIR
 10
0.0
 20
1.0
 30
0.0
  9
$UCSORTHOREF
  2

  9
$UCSORTHOVIEW
 70
     0
  9
$UCSORGTOP
 10
0.0
 20
0.0
 30
0.0
  9
$UCSORGBOTTOM
 10
0.0
 20
0.0
 30
0.0
  9
$UCSORGLEFT
 10
0.0
 20
0.0
 30
0.0
  9
$UCSORGRIGHT
 10
0.0
 20
0.0
 30
0.0
  9
$UCSORGFRONT
 10
0.0
 20
0.0
 30
0.0
  9
$UCSORGBACK
 10
0.0
 20
0.0
 30
0.0
  9
$PUCSBASE
  2

  9
$PUCSNAME
  2

  9
$PUCSORG
 10
0.0
 20
0.0
 30
0.0
  9
$PUCSXDIR
 10
1.0
 20
0.0
 30
0.0
  9
$PUCSYDIR
 10
0.0
 20
1.0
 30
0.0
  9
$PUCSORTHOREF
  2

  9
$PUCSORTHOVIEW
 70
     0
  9
$PUCSORGTOP
 10
0.0
 20
0.0
 30
0.0
  9
$PUCSORGBOTTOM
 10
0.0
 20
0.0
 30
0.0
  9
$PUCSORGLEFT
 10
0.0
 20
0.0
 30
0.0
  9
$PUCSORGRIGHT
 10
0.0
 20
0.0
 30
0.0
  9
$PUCSORGFRONT
 10
0.0
 20
0.0
 30
0.0
  9
$PUCSORGBACK
 10
0.0
 20
0.0
 30
0.0
  9
$USERI1
 70
     0
  9
$USERI2
 70
     0
  9
$USERI3
 70
     0
  9
$USERI4
 70
     0
  9
$USERI5
 70
     0
  9
$USERR1
 40
0.0
  9
$USERR2
 40
0.0
  9
$USERR3
 40
0.0
  9
$USERR4
 40
0.0
  9
$USERR5
 40
0.0
  9
$WORLDVIEW
 70
     1
  9
$SHADEDGE
 70
     3
  9
$SHADEDIF
 70
    70
  9
$TILEMODE
 70
     1
  9
$MAXACTVP
 70
    16
  9
$PINSBASE
 10
0.0
 20
0.0
 30
0.0
  9
$PLIMCHECK
 70
     0
  9
$PEXTMIN
 10
1.000000000000000E+20
 20
1.000000000000000E+20
 30
1.000000000000000E+20
  9
$PEXTMAX
 10
-1.000000000000000E+20
 20
-1.000000000000000E+20
 30
-1.000000000000000E+20
  9
$PLIMMIN
 10
0.0
 20
0.0
  9
$PLIMMAX
 10
420.0
 20
297.0
  9
$UNITMODE
 70
     0
  9
$VISRETAIN
 70
     0
  9
$PLINEGEN
 70
     0
  9
$PSLTSCALE
 70
     0
  9
$TREEDEPTH
 70
  3020
  9
$CMLSTYLE
  2
STANDARD
  9
$CMLJUST
 70
     0
  9
$CMLSCALE
 40
1.0
  9
$PROXYGRAPHICS
 70
     1
  9
$MEASUREMENT
 70
     1
  9
$CELWEIGHT
370
    -1
  9
$ENDCAPS
280
     0
  9
$JOINSTYLE
280
     0
  9
$LWDISPLAY
290
     0
  9
$INSUNITS
 70
     0
  9
$HYPERLINKBASE
  1

  9
$STYLESHEET
  1

  9
$XEDIT
290
     1
  9
$CEPSNTYPE
380
     0
  9
$PSTYLEMODE
290
     1
  9
$FINGERPRINTGUID
  2
{5EAC461A-2277-4BF8-9AB0-99C43BB394F0}
  9
$VERSIONGUID
  2
{D4469819-0E28-4919-BF7A-72E8B0E39973}
  9
$EXTNAMES
290
     1
  9
$PSVPSCALE
 40
0.0
  9
$OLESTARTUP
290
     0
  0
ENDSEC
  0
SECTION
  2
CLASSES
  0
CLASS
  1
ACDBDICTIONARYWDFLT
  2
AcDbDictionaryWithDefault
  3
ObjectDBX Classes
 90
        0
280
     0
281
     0
  0
CLASS
  1
DICTIONARYVAR
  2
AcDbDictionaryVar
  3
ObjectDBX Classes
 90
        0
280
     0
281
     0
  0
CLASS
  1
ACDBPLACEHOLDER
  2
AcDbPlaceHolder
  3
ObjectDBX Classes
 90
        0
280
     0
281
     0
  0
CLASS
  1
LAYOUT
  2
AcDbLayout
  3
ObjectDBX Classes
 90
        0
280
     0
281
     0
  0
ENDSEC
  0
SECTION
  2
TABLES
  0
TABLE
  2
VPORT
  5
746D
330
0
100
AcDbSymbolTable
 70
     2
  0
VPORT
  5
25386
330
746D
100
AcDbSymbolTableRecord
100
AcDbViewportTableRecord
  2
*Active
 70
     0
 10
0.0
 20
0.0
 11
1.0
 21
1.0
 12
8400.0
 22
6532.223175279203
 13
0.0
 23
0.0
 14
10.0
 24
10.0
 15
10.0
 25
10.0
 16
0.0
 26
0.0
 36
1.0
 17
0.0
 27
0.0
 37
0.0
 40
13160.56358925593
 41
1.522222222222222
 42
50.0
 43
0.0
 44
0.0
 50
0.0
 51
0.0
 71
     0
 72
     0
 73
     1
 74
     0
 75
     0
 76
     0
 77
     0
 78
     0
281
     0
 65
     1
110
0.0
120
0.0
130
0.0
111
1.0
121
0.0
131
0.0
112
0.0
122
1.0
132
0.0
 79
     0
146
0.0
  0
ENDTAB
  0
TABLE
  2
LTYPE
  5
746A
330
0
100
AcDbSymbolTable
 70
     5
  0
LTYPE
  5
7477
330
746A
100
AcDbSymbolTableRecord
100
AcDbLinetypeTableRecord
  2
BYBLOCK
 70
     0
  3

 72
    65
 73
     0
 40
0.0
  0
LTYPE
  5
7478
330
746A
100
AcDbSymbolTableRecord
100
AcDbLinetypeTableRecord
  2
BYLAYER
 70
     0
  3

 72
    65
 73
     0
 40
0.0
  0
LTYPE
  5
7479
330
746A
100
AcDbSymbolTableRecord
100
AcDbLinetypeTableRecord
  2
CONTINUOUS
 70
     0
  3
Solid line
 72
    65
 73
     0
 40
0.0
  0
LTYPE
  5
7816
330
746A
100
AcDbSymbolTableRecord
100
AcDbLinetypeTableRecord
  2
CENTER
 70
     0
  3
____ _ ____ _ ____ _ ____ _ ____ _ ____ _ ____ 
 72
    65
 73
     4
 40
2.0
 49
1.25
 74
     0
 49
-0.25
 74
     0
 49
0.25
 74
     0
 49
-0.25
 74
     0
  0
LTYPE
  5
781A
330
746A
100
AcDbSymbolTableRecord
100
AcDbLinetypeTableRecord
  2
HIDDEN
 70
     0
  3
__ __ __ __ __ __ __ __ __ __ __ __ __ __ __ __
 72
    65
 73
     2
 40
0.375
 49
0.25
 74
     0
 49
-0.125
 74
     0
  0
LTYPE
  5
781B
330
746A
100
AcDbSymbolTableRecord
100
AcDbLinetypeTableRecord
  2
PHANTOM
 70
     0
  3
______  __  __  ______  __  __  ______  __  __ 
 72
    65
 73
     6
 40
2.5
 49
1.25
 74
     0
 49
-0.25
 74
     0
 49
0.25
 74
     0
 49
-0.25
 74
     0
 49
0.25
 74
     0
 49
-0.25
 74
     0
  0
LTYPE
  5
12CC3
330
746A
100
AcDbSymbolTableRecord
100
AcDbLinetypeTableRecord
  2
HIDDENX2
 70
     0
  3
Hidden (2x) ____ ____ ____ ____ ____ ____ ____
 72
    65
 73
     2
 40
19.05
 49
12.7
 74
     0
 49
-6.349999999999999
 74
     0
  0
ENDTAB
  0
TABLE
  2
LAYER
  5
7467
102
{ACAD_XDICTIONARY
360
1758F
102
}
330
0
100
AcDbSymbolTable
 70
    12
  0
LAYER
  5
7474
330
7467
100
AcDbSymbolTableRecord
100
AcDbLayerTableRecord
  2
0
 70
     0
 62
     7
  6
CONTINUOUS
370
    -3
390
173D0
  0
LAYER
  5
DEB2
330
7467
100
AcDbSymbolTableRecord
100
AcDbLayerTableRecord
  2
センター
 70
     0
 62
     3
  6
CENTER
370
    -3
390
173D0
  0
LAYER
  5
DEB3
330
7467
100
AcDbSymbolTableRecord
100
AcDbLayerTableRecord
  2
寸法
 70
     0
 62
     4
  6
CONTINUOUS
370
    -3
390
173D0
  0
LAYER
  5
DEB4
330
7467
100
AcDbSymbolTableRecord
100
AcDbLayerTableRecord
  2
部品1
 70
     0
 62
     7
  6
CONTINUOUS
370
    -3
390
173D0
  0
LAYER
  5
DEB5
330
7467
100
AcDbSymbolTableRecord
100
AcDbLayerTableRecord
  2
補助
 70
     0
 62
    -1
  6
CONTINUOUS
370
    -3
390
173D0
  0
LAYER
  5
DEB6
330
7467
100
AcDbSymbolTableRecord
100
AcDbLayerTableRecord
  2
文字
 70
     0
 62
     7
  6
CONTINUOUS
370
    -3
390
173D0
  0
LAYER
  5
F255
330
7467
100
AcDbSymbolTableRecord
100
AcDbLayerTableRecord
  2
DEFPOINTS
 70
     0
 62
     7
  6
CONTINUOUS
290
     0
370
    -3
390
173D0
  0
LAYER
  5
10B54
330
7467
100
AcDbSymbolTableRecord
100
AcDbLayerTableRecord
  2
仕様書枠
 70
     0
 62
   230
  6
CONTINUOUS
370
    -3
390
173D0
  0
LAYER
  5
11729
330
7467
100
AcDbSymbolTableRecord
100
AcDbLayerTableRecord
  2
Ｇ．Ｌ
 70
     0
 62
    30
  6
CONTINUOUS
370
    -3
390
173D0
  0
LAYER
  5
1173F
330
7467
100
AcDbSymbolTableRecord
100
AcDbLayerTableRecord
  2
細線
 70
     0
 62
     5
  6
CONTINUOUS
370
    -3
390
173D0
  0
LAYER
  5
12CC4
330
7467
100
AcDbSymbolTableRecord
100
AcDbLayerTableRecord
  2
想像線
 70
     0
 62
     6
  6
PHANTOM
370
    -3
390
173D0
  0
LAYER
  5
142E2
330
7467
100
AcDbSymbolTableRecord
100
AcDbLayerTableRecord
  2
破線
 70
     0
 62
     2
  6
HIDDEN
370
    -3
390
173D0
  0
ENDTAB
  0
TABLE
  2
STYLE
  5
7468
330
0
100
AcDbSymbolTable
 70
     7
  0
STYLE
  5
7475
330
7468
100
AcDbSymbolTableRecord
100
AcDbTextStyleTableRecord
  2
STANDARD
 70
     0
 40
0.0
 41
1.0
 50
0.0
 71
     0
 42
4.0
  3
txt
  4
C:\AutoCAD LT\bigfont.shx
  0
STYLE
  5
763C
330
7468
100
AcDbSymbolTableRecord
100
AcDbTextStyleTableRecord
  2
MSMINCHO
 70
     0
 40
0.0
 41
1.0
 50
0.0
 71
     0
 42
1.199999999999999
  3
C:\AutoCAD LT\msminch2.TTF
  4

  0
STYLE
  5
F706
330
7468
100
AcDbSymbolTableRecord
100
AcDbTextStyleTableRecord
  2
STYLE1
 70
     0
 40
0.0
 41
1.0
 50
0.0
 71
     0
 42
4.0
  3
isocp.shx
  4
bigfont.shx
  0
STYLE
  5
103BF
330
7468
100
AcDbSymbolTableRecord
100
AcDbTextStyleTableRecord
  2
STYLE2
 70
     0
 40
0.0
 41
1.0
 50
0.0
 71
     0
 42
100.0
  3
MS PGothic.ttf
  4

1001
ACAD
1000
MS PGothic
1071
    32818
  0
STYLE
  5
10BAA
330
7468
100
AcDbSymbolTableRecord
100
AcDbTextStyleTableRecord
  2
STYLE3
 70
     0
 40
0.0
 41
1.0
 50
0.0
 71
     0
 42
100.0
  3

  4

1001
ACAD
1000
DFPGothic-EB
1071
    32818
  0
STYLE
  5
11A15
330
7468
100
AcDbSymbolTableRecord
100
AcDbTextStyleTableRecord
  2
MSGOTHIC
 70
     0
 40
0.0
 41
1.0
 50
0.0
 71
     0
 42
3.5
  3
msgothi2.ttf
  4

  0
STYLE
  5
13E96
330
7468
100
AcDbSymbolTableRecord
100
AcDbTextStyleTableRecord
  2
MSPゴシック
 70
     0
 40
0.0
 41
1.0
 50
0.0
 71
     0
 42
4.0
  3
MS PGothic.ttf
  4

1001
ACAD
1000
MS PGothic
1071
    32818
  0
ENDTAB
  0
TABLE
  2
VIEW
  5
746B
330
0
100
AcDbSymbolTable
 70
     0
  0
ENDTAB
  0
TABLE
  2
UCS
  5
746C
330
0
100
AcDbSymbolTable
 70
     0
  0
ENDTAB
  0
TABLE
  2
APPID
  5
746E
330
0
100
AcDbSymbolTable
 70
     6
  0
APPID
  5
7476
330
746E
100
AcDbSymbolTableRecord
100
AcDbRegAppTableRecord
  2
ACAD
 70
     0
  0
APPID
  5
DEA9
330
746E
100
AcDbSymbolTableRecord
100
AcDbRegAppTableRecord
  2
CONTENTBLOCKICON
 70
     0
  0
APPID
  5
DEAA
330
746E
100
AcDbSymbolTableRecord
100
AcDbRegAppTableRecord
  2
CONTENTBLOCKDESCRIPTION
 70
     0
  0
APPID
  5
E71D
330
746E
100
AcDbSymbolTableRecord
100
AcDbRegAppTableRecord
  2
CONTENTTABDATA
 70
     0
  0
APPID
  5
E71E
330
746E
100
AcDbSymbolTableRecord
100
AcDbRegAppTableRecord
  2
CONTENTCURRENTTAB
 70
     0
  0
APPID
  5
F3BA
330
746E
100
AcDbSymbolTableRecord
100
AcDbRegAppTableRecord
  2
DRAWINGVARIABLESXDATA
 70
     0
  0
ENDTAB
  0
TABLE
  2
DIMSTYLE
  5
746F
330
0
100
AcDbSymbolTable
 70
     6
100
AcDbDimStyleTable
 71
     1
340
F71F
  0
DIMSTYLE
105
7484
330
746F
100
AcDbSymbolTableRecord
100
AcDbDimStyleTableRecord
  2
JIS
 70
     0
 41
2.5
 42
1.0
 43
7.0
 44
1.0
 73
     0
 74
     0
 77
     1
 78
     8
140
2.5
141
0.0
143
0.0394
147
0.0
172
     1
174
     1
175
     1
340
7475
  0
DIMSTYLE
105
F236
330
746F
100
AcDbSymbolTableRecord
100
AcDbDimStyleTableRecord
  2
INABA_S40
 70
     0
 40
40.0
 41
2.5
 42
0.5
 43
7.0
 44
1.5
 73
     0
 74
     0
 77
     3
 78
     8
140
3.0
141
0.0
143
0.0394
147
1.0
172
     1
173
     1
174
     1
175
     1
178
     7
289
     0
340
7475
341
DEAC
343
DEAC
344
DEAC
  0
DIMSTYLE
105
F71F
102
{ACAD_REACTORS
330
20DE1
330
20DFB
330
22741
330
2275B
330
2489A
330
24849
330
24848
330
24834
330
2481C
330
2481B
330
247CE
330
247CC
330
247CB
330
247C8
330
247C5
330
247D7
330
2481F
330
247D8
330
247D2
330
247D1
330
247F2
330
2489B
330
247D6
330
247CD
330
2527D
330
252DD
330
252E0
330
252E7
330
252EF
330
252F0
102
}
330
746F
100
AcDbSymbolTableRecord
100
AcDbDimStyleTableRecord
  2
INABA_S40G
 70
     0
 40
40.0
 41
2.5
 42
0.5
 43
7.0
 44
1.5
 73
     0
 74
     0
 77
     3
 78
     8
140
3.0
141
0.0
143
0.0394
147
1.0
172
     1
173
     1
174
     1
178
     7
271
     1
340
F706
341
F770
343
F770
344
F770
  0
DIMSTYLE
105
142E3
330
746F
100
AcDbSymbolTableRecord
100
AcDbDimStyleTableRecord
  2
INABA_S1
 70
     0
 40
0.0
 41
2.5
 42
0.5
 43
7.0
 44
1.5
 73
     0
 74
     0
 77
     3
 78
     8
140
3.0
141
0.0
143
0.0394
146
0.5
147
0.5
172
     1
173
     1
176
   256
177
   256
178
     7
271
     2
272
     2
284
     8
288
     1
340
7475
341
DEAC
343
DEAC
344
DEAC
  0
DIMSTYLE
105
14463
330
746F
100
AcDbSymbolTableRecord
100
AcDbDimStyleTableRecord
  2
INABA_S30G
 70
     0
 40
30.0
 41
2.5
 42
0.5
 43
7.0
 44
1.5
 73
     0
 74
     0
 77
     3
 78
     8
140
3.0
141
0.0
143
0.0394
147
1.0
172
     1
173
     1
174
     1
175
     1
178
     7
271
     1
340
F706
341
F770
343
F770
344
F770
  0
DIMSTYLE
105
1758E
330
746F
100
AcDbSymbolTableRecord
100
AcDbDimStyleTableRecord
  2
INABA_S50G
 70
     0
 41
125.0
 42
25.0
 43
7.0
 44
75.0
 73
     0
 74
     0
 77
     3
 78
     8
140
150.0
141
0.0
143
0.0394
147
25.0
172
     1
173
     1
174
     1
175
     1
178
     7
271
     1
340
F706
341
F770
343
F770
344
F770
  0
ENDTAB
  0
TABLE
  2
BLOCK_RECORD
  5
7466
330
0
100
AcDbSymbolTable
 70
    59
  0
BLOCK_RECORD
  5
747D
330
7466
100
AcDbSymbolTableRecord
100
AcDbBlockTableRecord
  2
*MODEL_SPACE
340
173D5
  0
BLOCK_RECORD
  5
747A
330
7466
100
AcDbSymbolTableRecord
100
AcDbBlockTableRecord
  2
*PAPER_SPACE
340
173D6
  0
BLOCK_RECORD
  5
DEAC
330
7466
100
AcDbSymbolTableRecord
100
AcDbBlockTableRecord
  2
_OPEN
340
0
  0
BLOCK_RECORD
  5
F770
330
7466
100
AcDbSymbolTableRecord
100
AcDbBlockTableRecord
  2
_DOTSMALL
340
0
102
{BLKREFS
331
18C65
331
18C66
331
18C59
331
18C5A
331
18C4D
331
18C4E
331
18C41
331
18C42
331
18C35
331
18C36
331
18C29
331
18C2A
331
18C1D
331
18C1E
331
18C0F
331
18C10
331
18C03
331
18C04
331
18BF5
331
18BF6
331
18BE7
331
18BE8
331
18BD9
331
18BDA
331
18BCD
331
18BCE
331
21316
331
21317
331
21321
331
21322
331
2132A
331
2132B
331
24E30
331
24E31
331
24E4C
331
24E4D
331
24E56
331
24E57
331
24E60
331
24E61
331
24E69
331
24E6A
331
24E86
331
24E87
331
24EA1
331
24EA2
331
24ECE
331
24ECF
331
24ED7
331
24ED8
331
24EE2
331
24EE3
331
24EED
331
24EEE
331
24EF8
331
24EF9
331
24F03
331
24F04
331
24F28
331
24F29
331
24F31
331
24F32
331
24F57
331
24F58
331
24F72
331
24F73
331
24F84
331
24F85
331
24F8D
331
24F8E
331
24F96
331
24F97
331
24F9F
331
24FA0
331
24FA8
331
24FA9
331
25013
331
25014
331
2501D
331
2501E
331
2503C
331
2503D
331
25085
331
25086
331
25079
331
2507A
331
2506D
331
2506E
331
25061
331
25062
331
25055
331
25056
331
25047
331
25048
331
25347
331
25348
331
25350
331
25351
331
25359
331
2535A
331
25362
331
25363
331
2536D
331
2536E
331
25376
331
25377
102
}
  0
BLOCK_RECORD
  5
164B4
330
7466
100
AcDbSymbolTableRecord
100
AcDbBlockTableRecord
  2
_DOT
340
0
102
{BLKREFS
331
18C73
331
18C74
102
}
  0
BLOCK_RECORD
  5
18BC8
330
7466
100
AcDbSymbolTableRecord
100
AcDbBlockTableRecord
  2
*D3
340
0
  0
BLOCK_RECORD
  5
18BD4
330
7466
100
AcDbSymbolTableRecord
100
AcDbBlockTableRecord
  2
*D4
340
0
  0
BLOCK_RECORD
  5
18BE0
330
7466
100
AcDbSymbolTableRecord
100
AcDbBlockTableRecord
  2
*D5
340
0
  0
BLOCK_RECORD
  5
18BEE
330
7466
100
AcDbSymbolTableRecord
100
AcDbBlockTableRecord
  2
*D6
340
0
  0
BLOCK_RECORD
  5
18BFC
330
7466
100
AcDbSymbolTableRecord
100
AcDbBlockTableRecord
  2
*D7
340
0
  0
BLOCK_RECORD
  5
18C0A
330
7466
100
AcDbSymbolTableRecord
100
AcDbBlockTableRecord
  2
*D8
340
0
  0
BLOCK_RECORD
  5
18C16
330
7466
100
AcDbSymbolTableRecord
100
AcDbBlockTableRecord
  2
*D9
340
0
  0
BLOCK_RECORD
  5
18C24
330
7466
100
AcDbSymbolTableRecord
100
AcDbBlockTableRecord
  2
*D10
340
0
  0
BLOCK_RECORD
  5
18C30
330
7466
100
AcDbSymbolTableRecord
100
AcDbBlockTableRecord
  2
*D11
340
0
  0
BLOCK_RECORD
  5
18C3C
330
7466
100
AcDbSymbolTableRecord
100
AcDbBlockTableRecord
  2
*D12
340
0
  0
BLOCK_RECORD
  5
18C48
330
7466
100
AcDbSymbolTableRecord
100
AcDbBlockTableRecord
  2
*D13
340
0
  0
BLOCK_RECORD
  5
18C54
330
7466
100
AcDbSymbolTableRecord
100
AcDbBlockTableRecord
  2
*D14
340
0
  0
BLOCK_RECORD
  5
18C60
330
7466
100
AcDbSymbolTableRecord
100
AcDbBlockTableRecord
  2
*D15
340
0
  0
BLOCK_RECORD
  5
18C6C
330
7466
100
AcDbSymbolTableRecord
100
AcDbBlockTableRecord
  2
*D16
340
0
  0
BLOCK_RECORD
  5
18C7A
330
7466
100
AcDbSymbolTableRecord
100
AcDbBlockTableRecord
  2
A$C3B1A506B
340
0
  0
BLOCK_RECORD
  5
1C4CA
330
7466
100
AcDbSymbolTableRecord
100
AcDbBlockTableRecord
  2
_NONE
340
0
  0
BLOCK_RECORD
  5
20DE2
330
7466
100
AcDbSymbolTableRecord
100
AcDbBlockTableRecord
  2
*D19
340
0
  0
BLOCK_RECORD
  5
20DFC
330
7466
100
AcDbSymbolTableRecord
100
AcDbBlockTableRecord
  2
*D20
340
0
  0
BLOCK_RECORD
  5
22742
330
7466
100
AcDbSymbolTableRecord
100
AcDbBlockTableRecord
  2
*D25
340
0
  0
BLOCK_RECORD
  5
2275C
330
7466
100
AcDbSymbolTableRecord
100
AcDbBlockTableRecord
  2
*D26
340
0
  0
BLOCK_RECORD
  5
2489F
330
7466
100
AcDbSymbolTableRecord
100
AcDbBlockTableRecord
  2
*D27
340
0
  0
BLOCK_RECORD
  5
248AB
330
7466
100
AcDbSymbolTableRecord
100
AcDbBlockTableRecord
  2
*D28
340
0
  0
BLOCK_RECORD
  5
248B7
330
7466
100
AcDbSymbolTableRecord
100
AcDbBlockTableRecord
  2
*D29
340
0
  0
BLOCK_RECORD
  5
248C3
330
7466
100
AcDbSymbolTableRecord
100
AcDbBlockTableRecord
  2
*D30
340
0
  0
BLOCK_RECORD
  5
248CE
330
7466
100
AcDbSymbolTableRecord
100
AcDbBlockTableRecord
  2
*D31
340
0
  0
BLOCK_RECORD
  5
248DA
330
7466
100
AcDbSymbolTableRecord
100
AcDbBlockTableRecord
  2
*D32
340
0
  0
BLOCK_RECORD
  5
248E6
330
7466
100
AcDbSymbolTableRecord
100
AcDbBlockTableRecord
  2
*D33
340
0
  0
BLOCK_RECORD
  5
248F2
330
7466
100
AcDbSymbolTableRecord
100
AcDbBlockTableRecord
  2
*D34
340
0
  0
BLOCK_RECORD
  5
2490A
330
7466
100
AcDbSymbolTableRecord
100
AcDbBlockTableRecord
  2
*D35
340
0
  0
BLOCK_RECORD
  5
24916
330
7466
100
AcDbSymbolTableRecord
100
AcDbBlockTableRecord
  2
*D36
340
0
  0
BLOCK_RECORD
  5
24922
330
7466
100
AcDbSymbolTableRecord
100
AcDbBlockTableRecord
  2
*D37
340
0
  0
BLOCK_RECORD
  5
2492F
330
7466
100
AcDbSymbolTableRecord
100
AcDbBlockTableRecord
  2
*D38
340
0
  0
BLOCK_RECORD
  5
2493C
330
7466
100
AcDbSymbolTableRecord
100
AcDbBlockTableRecord
  2
*D39
340
0
  0
BLOCK_RECORD
  5
24947
330
7466
100
AcDbSymbolTableRecord
100
AcDbBlockTableRecord
  2
*D40
340
0
  0
BLOCK_RECORD
  5
2496B
330
7466
100
AcDbSymbolTableRecord
100
AcDbBlockTableRecord
  2
*D41
340
0
  0
BLOCK_RECORD
  5
24978
330
7466
100
AcDbSymbolTableRecord
100
AcDbBlockTableRecord
  2
*D42
340
0
  0
BLOCK_RECORD
  5
24985
330
7466
100
AcDbSymbolTableRecord
100
AcDbBlockTableRecord
  2
*D43
340
0
  0
BLOCK_RECORD
  5
24991
330
7466
100
AcDbSymbolTableRecord
100
AcDbBlockTableRecord
  2
*D44
340
0
  0
BLOCK_RECORD
  5
249AA
330
7466
100
AcDbSymbolTableRecord
100
AcDbBlockTableRecord
  2
*D45
340
0
  0
BLOCK_RECORD
  5
249B7
330
7466
100
AcDbSymbolTableRecord
100
AcDbBlockTableRecord
  2
*D46
340
0
  0
BLOCK_RECORD
  5
252FA
330
7466
100
AcDbSymbolTableRecord
100
AcDbBlockTableRecord
  2
*D53
340
0
  0
BLOCK_RECORD
  5
25306
330
7466
100
AcDbSymbolTableRecord
100
AcDbBlockTableRecord
  2
*D54
340
0
  0
BLOCK_RECORD
  5
25312
330
7466
100
AcDbSymbolTableRecord
100
AcDbBlockTableRecord
  2
*D55
340
0
  0
BLOCK_RECORD
  5
2531E
330
7466
100
AcDbSymbolTableRecord
100
AcDbBlockTableRecord
  2
*D56
340
0
  0
BLOCK_RECORD
  5
2532A
330
7466
100
AcDbSymbolTableRecord
100
AcDbBlockTableRecord
  2
*D57
340
0
  0
BLOCK_RECORD
  5
25338
330
7466
100
AcDbSymbolTableRecord
100
AcDbBlockTableRecord
  2
*D58
340
0
  0
ENDTAB
  0
ENDSEC
  0
SECTION
  2
BLOCKS
  0
BLOCK
  5
7489
330
747D
100
AcDbEntity
  8
0
100
AcDbBlockBegin
  2
*MODEL_SPACE
 70
     0
 10
0.0
 20
0.0
 30
0.0
  3
*MODEL_SPACE
  1

  0
ENDBLK
  5
748A
330
747D
100
AcDbEntity
  8
0
100
AcDbBlockEnd
  0
BLOCK
  5
7487
330
747A
100
AcDbEntity
 67
     1
  8
0
100
AcDbBlockBegin
  2
*PAPER_SPACE
 70
     0
 10
0.0
 20
0.0
 30
0.0
  3
*PAPER_SPACE
  1

  0
ENDBLK
  5
7488
330
747A
100
AcDbEntity
 67
     1
  8
0
100
AcDbBlockEnd
  0
BLOCK
  5
DEAD
330
DEAC
100
AcDbEntity
  8
0
100
AcDbBlockBegin
  2
_OPEN
 70
     0
 10
0.0
 20
0.0
 30
0.0
  3
_OPEN
  1

  0
LINE
  5
DEAE
330
DEAC
100
AcDbEntity
  8
0
  6
ByBlock
 62
     0
100
AcDbLine
 10
-1.0
 20
0.1666666666666666
 30
0.0
 11
0.0
 21
0.0
 31
0.0
  0
LINE
  5
DEAF
330
DEAC
100
AcDbEntity
  8
0
  6
ByBlock
 62
     0
100
AcDbLine
 10
0.0
 20
0.0
 30
0.0
 11
-1.0
 21
-0.1666666666666666
 31
0.0
  0
LINE
  5
DEB0
330
DEAC
100
AcDbEntity
  8
0
  6
ByBlock
 62
     0
100
AcDbLine
 10
0.0
 20
0.0
 30
0.0
 11
-1.0
 21
0.0
 31
0.0
  0
ENDBLK
  5
DEB1
330
DEAC
100
AcDbEntity
  8
0
100
AcDbBlockEnd
  0
BLOCK
  5
F771
330
F770
100
AcDbEntity
  8
0
 48
50.0
100
AcDbBlockBegin
  2
_DOTSMALL
 70
     0
 10
0.0
 20
0.0
 30
0.0
  3
_DOTSMALL
  1

  0
LWPOLYLINE
  5
F772
330
F770
100
AcDbEntity
  8
0
  6
ByBlock
 62
     0
 48
50.0
100
AcDbPolyline
 90
        2
 70
     1
 43
0.5
 10
-0.0625
 20
0.0
 42
1.0
 10
0.0625
 20
0.0
 42
1.0
  0
ENDBLK
  5
F776
330
F770
100
AcDbEntity
  8
0
 48
50.0
100
AcDbBlockEnd
  0
BLOCK
  5
164BA
330
164B4
100
AcDbEntity
  8
0
 48
50.0
100
AcDbBlockBegin
  2
_DOT
 70
     0
 10
0.0
 20
0.0
 30
0.0
  3
_DOT
  1

  0
LWPOLYLINE
  5
164B5
330
164B4
100
AcDbEntity
  8
0
  6
ByBlock
 62
     0
 48
50.0
100
AcDbPolyline
 90
        2
 70
     1
 43
0.5
 10
-0.25
 20
0.0
 42
1.0
 10
0.25
 20
0.0
 42
1.0
  0
LINE
  5
164B9
330
164B4
100
AcDbEntity
  8
0
  6
ByBlock
 62
     0
 48
50.0
100
AcDbLine
 10
-0.5
 20
0.0
 30
0.0
 11
-1.0
 21
0.0
 31
0.0
  0
ENDBLK
  5
164BB
330
164B4
100
AcDbEntity
  8
0
 48
50.0
100
AcDbBlockEnd
  0
BLOCK
  5
18BC9
330
18BC8
100
AcDbEntity
  8
0
 48
50.0
100
AcDbBlockBegin
  2
*D3
 70
     1
 10
0.0
 20
0.0
 30
0.0
  3
*D3
  1

  0
LINE
  5
18BCA
330
18BC8
100
AcDbEntity
  8
寸法
 62
     0
 48
50.0
370
    -2
100
AcDbLine
 10
7649.896575106999
 20
9636.123139034717
 30
0.0
 11
8702.429862581047
 21
9636.123139034717
 31
0.0
  0
LINE
  5
18BCB
330
18BC8
100
AcDbEntity
  8
寸法
 62
     0
 48
50.0
370
    -2
100
AcDbLine
 10
7649.896575106973
 20
7846.123139034709
 30
0.0
 11
8702.429862581047
 21
7846.123139034709
 31
0.0
  0
LINE
  5
18BCC
330
18BC8
100
AcDbEntity
  8
寸法
 62
     0
 48
50.0
370
    -2
100
AcDbLine
 10
8642.429862581046
 20
9636.123139034717
 30
0.0
 11
8642.429862581046
 21
7846.123139034709
 31
0.0
  0
INSERT
  5
18BCD
330
18BC8
100
AcDbEntity
  8
寸法
 62
     0
 48
50.0
370
    -2
100
AcDbBlockReference
  2
_DOTSMALL
 10
8642.429862581046
 20
9636.123139034717
 30
0.0
 41
100.0
 42
100.0
 43
100.0
 50
90.0
  0
INSERT
  5
18BCE
330
18BC8
100
AcDbEntity
  8
寸法
 62
     0
 48
50.0
370
    -2
100
AcDbBlockReference
  2
_DOTSMALL
 10
8642.429862581046
 20
7846.123139034709
 30
0.0
 41
100.0
 42
100.0
 43
100.0
 50
270.0
  0
MTEXT
  5
18BCF
330
18BC8
100
AcDbEntity
  8
寸法
 62
     7
 48
50.0
100
AcDbMText
 10
8542.429862581045
 20
8741.123139034712
 30
0.0
 40
120.0
 41
0.0
 71
     5
 72
     1
  1
\A1;1790
  7
STYLE1
 11
0.0000000000000001
 21
1.0
 31
0.0
 73
     1
 44
1.0
1001
ACAD
1000
MTEXTBEGIN
1070
    73
1070
     1
1070
    44
1040
1.0
1070
    74
1070
     0
1000
MTEXTEND
  0
POINT
  5
18BD0
330
18BC8
100
AcDbEntity
  8
DEFPOINTS
 62
     0
 48
50.0
100
AcDbPoint
 10
7629.896575106998
 20
9636.123139034717
 30
0.0
  0
POINT
  5
18BD1
330
18BC8
100
AcDbEntity
  8
DEFPOINTS
 62
     0
 48
50.0
100
AcDbPoint
 10
7629.896575106974
 20
7846.123139034709
 30
0.0
  0
POINT
  5
18BD2
330
18BC8
100
AcDbEntity
  8
DEFPOINTS
 62
     0
 48
50.0
100
AcDbPoint
 10
8642.429862581046
 20
7846.123139034709
 30
0.0
  0
ENDBLK
  5
18BD3
330
18BC8
100
AcDbEntity
  8
0
 48
50.0
100
AcDbBlockEnd
  0
BLOCK
  5
18BD5
330
18BD4
100
AcDbEntity
  8
0
 48
50.0
100
AcDbBlockBegin
  2
*D4
 70
     1
 10
0.0
 20
0.0
 30
0.0
  3
*D4
  1

  0
LINE
  5
18BD6
330
18BD4
100
AcDbEntity
  8
寸法
 62
     0
 48
50.0
370
    -2
100
AcDbLine
 10
4214.896575106998
 20
9656.123139034622
 30
0.0
 11
4214.896575106998
 21
10211.93135865972
 31
0.0
  0
LINE
  5
18BD7
330
18BD4
100
AcDbEntity
  8
寸法
 62
     0
 48
50.0
370
    -2
100
AcDbLine
 10
7574.896575106999
 20
9656.123139034718
 30
0.0
 11
7574.896575106999
 21
10211.93135865972
 31
0.0
  0
LINE
  5
18BD8
330
18BD4
100
AcDbEntity
  8
寸法
 62
     0
 48
50.0
370
    -2
100
AcDbLine
 10
4214.896575106998
 20
10151.93135865972
 30
0.0
 11
7574.896575106999
 21
10151.93135865972
 31
0.0
  0
INSERT
  5
18BD9
330
18BD4
100
AcDbEntity
  8
寸法
 62
     0
 48
50.0
370
    -2
100
AcDbBlockReference
  2
_DOTSMALL
 10
4214.896575106998
 20
10151.93135865972
 30
0.0
 41
100.0
 42
100.0
 43
100.0
 50
180.0
  0
INSERT
  5
18BDA
330
18BD4
100
AcDbEntity
  8
寸法
 62
     0
 48
50.0
370
    -2
100
AcDbBlockReference
  2
_DOTSMALL
 10
7574.896575106999
 20
10151.93135865972
 30
0.0
 41
100.0
 42
100.0
 43
100.0
  0
MTEXT
  5
18BDB
330
18BD4
100
AcDbEntity
  8
寸法
 62
     7
 48
50.0
100
AcDbMText
 10
5894.896575106997
 20
10251.94316968334
 30
0.0
 40
120.0
 41
0.0
 71
     5
 72
     1
  1
\A1;8X420=3360
  7
STYLE1
 73
     1
 44
1.0
1001
ACAD
1000
MTEXTBEGIN
1070
    73
1070
     1
1070
    44
1040
1.0
1070
    74
1070
     0
1000
MTEXTEND
  0
POINT
  5
18BDC
330
18BD4
100
AcDbEntity
  8
DEFPOINTS
 62
     0
 48
50.0
100
AcDbPoint
 10
4214.896575106998
 20
9636.123139034623
 30
0.0
  0
POINT
  5
18BDD
330
18BD4
100
AcDbEntity
  8
DEFPOINTS
 62
     0
 48
50.0
100
AcDbPoint
 10
7574.896575106999
 20
9636.123139034717
 30
0.0
  0
POINT
  5
18BDE
330
18BD4
100
AcDbEntity
  8
DEFPOINTS
 62
     0
 48
50.0
100
AcDbPoint
 10
7574.896575106999
 20
10151.93135865972
 30
0.0
  0
ENDBLK
  5
18BDF
330
18BD4
100
AcDbEntity
  8
0
 48
50.0
100
AcDbBlockEnd
  0
BLOCK
  5
18BE1
330
18BE0
100
AcDbEntity
  8
0
 48
50.0
100
AcDbBlockBegin
  2
*D5
 70
     1
 10
0.0
 20
0.0
 30
0.0
  3
*D5
  1

  0
LINE
  5
18BE2
330
18BE0
100
AcDbEntity
  8
寸法
 62
     0
 48
50.0
370
    -2
100
AcDbLine
 10
7574.896575106999
 20
9656.123139034718
 30
0.0
 11
7574.896575106999
 21
10211.9313586597
 31
0.0
  0
LINE
  5
18BE3
330
18BE0
100
AcDbEntity
  8
寸法
 62
     0
 48
50.0
370
    -2
100
AcDbLine
 10
7629.896575106998
 20
9656.123139034718
 30
0.0
 11
7629.896575106998
 21
10211.9313586597
 31
0.0
  0
LINE
  5
18BE4
330
18BE0
100
AcDbEntity
  8
寸法
 62
     0
 48
50.0
370
    -2
100
AcDbLine
 10
7574.896575106999
 20
10151.9313586597
 30
0.0
 11
7474.896575106999
 21
10151.9313586597
 31
0.0
  0
LINE
  5
18BE5
330
18BE0
100
AcDbEntity
  8
寸法
 62
     0
 48
50.0
370
    -2
100
AcDbLine
 10
7629.896575106998
 20
10151.9313586597
 30
0.0
 11
8046.867137855477
 21
10151.9313586597
 31
0.0
  0
LINE
  5
18BE6
330
18BE0
100
AcDbEntity
  8
寸法
 62
     0
 48
50.0
370
    -2
100
AcDbLine
 10
7574.896575106999
 20
10151.9313586597
 30
0.0
 11
7629.896575106998
 21
10151.9313586597
 31
0.0
  0
INSERT
  5
18BE7
330
18BE0
100
AcDbEntity
  8
寸法
 62
     0
 48
50.0
370
    -2
100
AcDbBlockReference
  2
_DOTSMALL
 10
7574.896575106999
 20
10151.9313586597
 30
0.0
 41
100.0
 42
100.0
 43
100.0
  0
INSERT
  5
18BE8
330
18BE0
100
AcDbEntity
  8
寸法
 62
     0
 48
50.0
370
    -2
100
AcDbBlockReference
  2
_DOTSMALL
 10
7629.896575106998
 20
10151.9313586597
 30
0.0
 41
100.0
 42
100.0
 43
100.0
 50
180.0
  0
MTEXT
  5
18BE9
330
18BE0
100
AcDbEntity
  8
寸法
 62
     7
 48
50.0
100
AcDbMText
 10
7938.381856481237
 20
10251.9313586597
 30
0.0
 40
120.0
 41
0.0
 71
     5
 72
     1
  1
\A1;55
  7
STYLE1
 73
     1
 44
1.0
1001
ACAD
1000
MTEXTBEGIN
1070
    73
1070
     1
1070
    44
1040
1.0
1070
    74
1070
     0
1000
MTEXTEND
  0
POINT
  5
18BEA
330
18BE0
100
AcDbEntity
  8
DEFPOINTS
 62
     0
 48
50.0
100
AcDbPoint
 10
7574.896575106999
 20
9636.123139034717
 30
0.0
  0
POINT
  5
18BEB
330
18BE0
100
AcDbEntity
  8
DEFPOINTS
 62
     0
 48
50.0
100
AcDbPoint
 10
7629.896575106998
 20
9636.123139034717
 30
0.0
  0
POINT
  5
18BEC
330
18BE0
100
AcDbEntity
  8
DEFPOINTS
 62
     0
 48
50.0
100
AcDbPoint
 10
7629.896575106998
 20
10151.9313586597
 30
0.0
  0
ENDBLK
  5
18BED
330
18BE0
100
AcDbEntity
  8
0
 48
50.0
100
AcDbBlockEnd
  0
BLOCK
  5
18BEF
330
18BEE
100
AcDbEntity
  8
0
 48
50.0
100
AcDbBlockBegin
  2
*D6
 70
     1
 10
0.0
 20
0.0
 30
0.0
  3
*D6
  1

  0
LINE
  5
18BF0
330
18BEE
100
AcDbEntity
  8
寸法
 62
     0
 48
50.0
370
    -2
100
AcDbLine
 10
7649.896575106999
 20
9636.123139034717
 30
0.0
 11
8337.32292084141
 21
9636.123139034717
 31
0.0
  0
LINE
  5
18BF1
330
18BEE
100
AcDbEntity
  8
寸法
 62
     0
 48
50.0
370
    -2
100
AcDbLine
 10
7649.896575106999
 20
9581.123139034721
 30
0.0
 11
8337.32292084141
 21
9581.123139034721
 31
0.0
  0
LINE
  5
18BF2
330
18BEE
100
AcDbEntity
  8
寸法
 62
     0
 48
50.0
370
    -2
100
AcDbLine
 10
8277.322920841411
 20
9581.123139034721
 30
0.0
 11
8277.322920841411
 21
9481.123139034719
 31
0.0
  0
LINE
  5
18BF3
330
18BEE
100
AcDbEntity
  8
寸法
 62
     0
 48
50.0
370
    -2
100
AcDbLine
 10
8277.322920841411
 20
9636.123139034717
 30
0.0
 11
8277.322920841411
 21
10053.09370178319
 31
0.0
  0
LINE
  5
18BF4
330
18BEE
100
AcDbEntity
  8
寸法
 62
     0
 48
50.0
370
    -2
100
AcDbLine
 10
8277.322920841411
 20
9581.123139034721
 30
0.0
 11
8277.322920841411
 21
9636.123139034717
 31
0.0
  0
INSERT
  5
18BF5
330
18BEE
100
AcDbEntity
  8
寸法
 62
     0
 48
50.0
370
    -2
100
AcDbBlockReference
  2
_DOTSMALL
 10
8277.322920841411
 20
9581.123139034721
 30
0.0
 41
100.0
 42
100.0
 43
100.0
 50
90.0
  0
INSERT
  5
18BF6
330
18BEE
100
AcDbEntity
  8
寸法
 62
     0
 48
50.0
370
    -2
100
AcDbBlockReference
  2
_DOTSMALL
 10
8277.322920841411
 20
9636.123139034717
 30
0.0
 41
100.0
 42
100.0
 43
100.0
 50
270.0
  0
MTEXT
  5
18BF7
330
18BEE
100
AcDbEntity
  8
寸法
 62
     7
 48
50.0
100
AcDbMText
 10
8177.32292084141
 20
9944.608420408957
 30
0.0
 40
120.0
 41
0.0
 71
     5
 72
     1
  1
\A1;55
  7
STYLE1
 11
0.0000000000000001
 21
1.0
 31
0.0
 73
     1
 44
1.0
1001
ACAD
1000
MTEXTBEGIN
1070
    73
1070
     1
1070
    44
1040
1.0
1070
    74
1070
     0
1000
MTEXTEND
  0
POINT
  5
18BF8
330
18BEE
100
AcDbEntity
  8
DEFPOINTS
 62
     0
 48
50.0
100
AcDbPoint
 10
7629.896575106998
 20
9636.123139034717
 30
0.0
  0
POINT
  5
18BF9
330
18BEE
100
AcDbEntity
  8
DEFPOINTS
 62
     0
 48
50.0
100
AcDbPoint
 10
7629.896575106998
 20
9581.123139034721
 30
0.0
  0
POINT
  5
18BFA
330
18BEE
100
AcDbEntity
  8
DEFPOINTS
 62
     0
 48
50.0
100
AcDbPoint
 10
8277.322920841411
 20
9581.123139034721
 30
0.0
  0
ENDBLK
  5
18BFB
330
18BEE
100
AcDbEntity
  8
0
 48
50.0
100
AcDbBlockEnd
  0
BLOCK
  5
18BFD
330
18BFC
100
AcDbEntity
  8
0
 48
50.0
100
AcDbBlockBegin
  2
*D7
 70
     1
 10
0.0
 20
0.0
 30
0.0
  3
*D7
  1

  0
LINE
  5
18BFE
330
18BFC
100
AcDbEntity
  8
寸法
 62
     0
 48
50.0
370
    -2
100
AcDbLine
 10
4159.896575106963
 20
9656.123139034622
 30
0.0
 11
4159.896575106963
 21
10211.9313586596
 31
0.0
  0
LINE
  5
18BFF
330
18BFC
100
AcDbEntity
  8
寸法
 62
     0
 48
50.0
370
    -2
100
AcDbLine
 10
4214.896575106998
 20
9656.123139034622
 30
0.0
 11
4214.896575106998
 21
10211.9313586596
 31
0.0
  0
LINE
  5
18C00
330
18BFC
100
AcDbEntity
  8
寸法
 62
     0
 48
50.0
370
    -2
100
AcDbLine
 10
4214.896575106998
 20
10151.9313586596
 30
0.0
 11
4314.896575106998
 21
10151.9313586596
 31
0.0
  0
LINE
  5
18C01
330
18BFC
100
AcDbEntity
  8
寸法
 62
     0
 48
50.0
370
    -2
100
AcDbLine
 10
4159.896575106963
 20
10151.9313586596
 30
0.0
 11
3742.926012358486
 21
10151.9313586596
 31
0.0
  0
LINE
  5
18C02
330
18BFC
100
AcDbEntity
  8
寸法
 62
     0
 48
50.0
370
    -2
100
AcDbLine
 10
4214.896575106998
 20
10151.9313586596
 30
0.0
 11
4159.896575106963
 21
10151.9313586596
 31
0.0
  0
INSERT
  5
18C03
330
18BFC
100
AcDbEntity
  8
寸法
 62
     0
 48
50.0
370
    -2
100
AcDbBlockReference
  2
_DOTSMALL
 10
4214.896575106998
 20
10151.9313586596
 30
0.0
 41
100.0
 42
100.0
 43
100.0
 50
180.0
  0
INSERT
  5
18C04
330
18BFC
100
AcDbEntity
  8
寸法
 62
     0
 48
50.0
370
    -2
100
AcDbBlockReference
  2
_DOTSMALL
 10
4159.896575106963
 20
10151.9313586596
 30
0.0
 41
100.0
 42
100.0
 43
100.0
  0
MTEXT
  5
18C05
330
18BFC
100
AcDbEntity
  8
寸法
 62
     7
 48
50.0
100
AcDbMText
 10
3851.411293732725
 20
10251.9313586596
 30
0.0
 40
120.0
 41
0.0
 71
     5
 72
     1
  1
\A1;55
  7
STYLE1
 73
     1
 44
1.0
1001
ACAD
1000
MTEXTBEGIN
1070
    73
1070
     1
1070
    44
1040
1.0
1070
    74
1070
     0
1000
MTEXTEND
  0
POINT
  5
18C06
330
18BFC
100
AcDbEntity
  8
DEFPOINTS
 62
     0
 48
50.0
100
AcDbPoint
 10
4159.896575106963
 20
9636.123139034623
 30
0.0
  0
POINT
  5
18C07
330
18BFC
100
AcDbEntity
  8
DEFPOINTS
 62
     0
 48
50.0
100
AcDbPoint
 10
4214.896575106998
 20
9636.123139034623
 30
0.0
  0
POINT
  5
18C08
330
18BFC
100
AcDbEntity
  8
DEFPOINTS
 62
     0
 48
50.0
100
AcDbPoint
 10
4214.896575106998
 20
10151.9313586596
 30
0.0
  0
ENDBLK
  5
18C09
330
18BFC
100
AcDbEntity
  8
0
 48
50.0
100
AcDbBlockEnd
  0
BLOCK
  5
18C0B
330
18C0A
100
AcDbEntity
  8
0
 48
50.0
100
AcDbBlockBegin
  2
*D8
 70
     1
 10
0.0
 20
0.0
 30
0.0
  3
*D8
  1

  0
LINE
  5
18C0C
330
18C0A
100
AcDbEntity
  8
寸法
 62
     0
 48
50.0
370
    -2
100
AcDbLine
 10
4159.896575106992
 20
7826.123139034546
 30
0.0
 11
4159.896575106992
 21
6804.372203245664
 31
0.0
  0
LINE
  5
18C0D
330
18C0A
100
AcDbEntity
  8
寸法
 62
     0
 48
50.0
370
    -2
100
AcDbLine
 10
7629.896575106974
 20
7826.123139034674
 30
0.0
 11
7629.896575106974
 21
6804.372203245664
 31
0.0
  0
LINE
  5
18C0E
330
18C0A
100
AcDbEntity
  8
寸法
 62
     0
 48
50.0
370
    -2
100
AcDbLine
 10
4159.896575106992
 20
6864.372203245665
 30
0.0
 11
7629.896575106974
 21
6864.372203245665
 31
0.0
  0
INSERT
  5
18C0F
330
18C0A
100
AcDbEntity
  8
寸法
 62
     0
 48
50.0
370
    -2
100
AcDbBlockReference
  2
_DOTSMALL
 10
4159.896575106992
 20
6864.372203245665
 30
0.0
 41
100.0
 42
100.0
 43
100.0
 50
180.0
  0
INSERT
  5
18C10
330
18C0A
100
AcDbEntity
  8
寸法
 62
     0
 48
50.0
370
    -2
100
AcDbBlockReference
  2
_DOTSMALL
 10
7629.896575106974
 20
6864.372203245665
 30
0.0
 41
100.0
 42
100.0
 43
100.0
  0
MTEXT
  5
18C11
330
18C0A
100
AcDbEntity
  8
寸法
 62
     7
 48
50.0
100
AcDbMText
 10
5911.12376113973
 20
6964.372203245665
 30
0.0
 40
120.0
 41
0.0
 71
     5
 72
     1
  1
\A1;3470
  7
STYLE1
 73
     1
 44
1.0
1001
ACAD
1000
MTEXTBEGIN
1070
    73
1070
     1
1070
    44
1040
1.0
1070
    74
1070
     0
1000
MTEXTEND
  0
POINT
  5
18C12
330
18C0A
100
AcDbEntity
  8
DEFPOINTS
 62
     0
 48
50.0
100
AcDbPoint
 10
4159.896575106992
 20
7846.123139034546
 30
0.0
  0
POINT
  5
18C13
330
18C0A
100
AcDbEntity
  8
DEFPOINTS
 62
     0
 48
50.0
100
AcDbPoint
 10
7629.896575106974
 20
7846.123139034673
 30
0.0
  0
POINT
  5
18C14
330
18C0A
100
AcDbEntity
  8
DEFPOINTS
 62
     0
 48
50.0
100
AcDbPoint
 10
7629.896575106974
 20
6864.372203245665
 30
0.0
  0
ENDBLK
  5
18C15
330
18C0A
100
AcDbEntity
  8
0
 48
50.0
100
AcDbBlockEnd
  0
BLOCK
  5
18C17
330
18C16
100
AcDbEntity
  8
0
 48
50.0
100
AcDbBlockBegin
  2
*D9
 70
     1
 10
0.0
 20
0.0
 30
0.0
  3
*D9
  1

  0
LINE
  5
18C18
330
18C16
100
AcDbEntity
  8
寸法
 62
     0
 48
50.0
370
    -2
100
AcDbLine
 10
7649.896575106973
 20
7901.123139034706
 30
0.0
 11
8337.322920841385
 21
7901.123139034706
 31
0.0
  0
LINE
  5
18C19
330
18C16
100
AcDbEntity
  8
寸法
 62
     0
 48
50.0
370
    -2
100
AcDbLine
 10
7649.896575106973
 20
7846.123139034709
 30
0.0
 11
8337.322920841385
 21
7846.123139034709
 31
0.0
  0
LINE
  5
18C1A
330
18C16
100
AcDbEntity
  8
寸法
 62
     0
 48
50.0
370
    -2
100
AcDbLine
 10
8277.322920841385
 20
7901.123139034706
 30
0.0
 11
8277.322920841385
 21
8001.123139034707
 31
0.0
  0
LINE
  5
18C1B
330
18C16
100
AcDbEntity
  8
寸法
 62
     0
 48
50.0
370
    -2
100
AcDbLine
 10
8277.322920841385
 20
7846.123139034709
 30
0.0
 11
8277.322920841385
 21
7429.152576286229
 31
0.0
  0
LINE
  5
18C1C
330
18C16
100
AcDbEntity
  8
寸法
 62
     0
 48
50.0
370
    -2
100
AcDbLine
 10
8277.322920841385
 20
7901.123139034706
 30
0.0
 11
8277.322920841385
 21
7846.123139034709
 31
0.0
  0
INSERT
  5
18C1D
330
18C16
100
AcDbEntity
  8
寸法
 62
     0
 48
50.0
370
    -2
100
AcDbBlockReference
  2
_DOTSMALL
 10
8277.322920841385
 20
7901.123139034706
 30
0.0
 41
100.0
 42
100.0
 43
100.0
 50
270.0
  0
INSERT
  5
18C1E
330
18C16
100
AcDbEntity
  8
寸法
 62
     0
 48
50.0
370
    -2
100
AcDbBlockReference
  2
_DOTSMALL
 10
8277.322920841385
 20
7846.123139034709
 30
0.0
 41
100.0
 42
100.0
 43
100.0
 50
90.0
  0
MTEXT
  5
18C1F
330
18C16
100
AcDbEntity
  8
寸法
 62
     7
 48
50.0
100
AcDbMText
 10
8177.322920841383
 20
7537.637857660469
 30
0.0
 40
120.0
 41
0.0
 71
     5
 72
     1
  1
\A1;55
  7
STYLE1
 11
0.0000000000000001
 21
1.0
 31
0.0
 73
     1
 44
1.0
1001
ACAD
1000
MTEXTBEGIN
1070
    73
1070
     1
1070
    44
1040
1.0
1070
    74
1070
     0
1000
MTEXTEND
  0
POINT
  5
18C20
330
18C16
100
AcDbEntity
  8
DEFPOINTS
 62
     0
 48
50.0
100
AcDbPoint
 10
7629.896575106974
 20
7901.123139034706
 30
0.0
  0
POINT
  5
18C21
330
18C16
100
AcDbEntity
  8
DEFPOINTS
 62
     0
 48
50.0
100
AcDbPoint
 10
7629.896575106974
 20
7846.123139034709
 30
0.0
  0
POINT
  5
18C22
330
18C16
100
AcDbEntity
  8
DEFPOINTS
 62
     0
 48
50.0
100
AcDbPoint
 10
8277.322920841385
 20
7846.123139034709
 30
0.0
  0
ENDBLK
  5
18C23
330
18C16
100
AcDbEntity
  8
0
 48
50.0
100
AcDbBlockEnd
  0
BLOCK
  5
18C25
330
18C24
100
AcDbEntity
  8
0
 48
50.0
100
AcDbBlockBegin
  2
*D10
 70
     1
 10
0.0
 20
0.0
 30
0.0
  3
*D10
  1

  0
LINE
  5
18C26
330
18C24
100
AcDbEntity
  8
寸法
 62
     0
 48
50.0
370
    -2
100
AcDbLine
 10
6533.037591258376
 20
9136.123139034728
 30
0.0
 11
6465.083950562664
 21
8882.516699399049
 31
0.0
  0
LINE
  5
18C27
330
18C24
100
AcDbEntity
  8
寸法
 62
     0
 48
50.0
370
    -2
100
AcDbLine
 10
7596.037591258388
 20
9136.123139034721
 30
0.0
 11
7528.083950562677
 21
8882.516699399049
 31
0.0
  0
LINE
  5
18C28
330
18C24
100
AcDbEntity
  8
寸法
 62
     0
 48
50.0
370
    -2
100
AcDbLine
 10
6481.160902108531
 20
8942.51669939905
 30
0.0
 11
7544.160902108544
 21
8942.51669939905
 31
0.0
  0
INSERT
  5
18C29
330
18C24
100
AcDbEntity
  8
寸法
 62
     0
 48
50.0
370
    -2
100
AcDbBlockReference
  2
_DOTSMALL
 10
6481.160902108531
 20
8942.51669939905
 30
0.0
 41
100.0
 42
100.0
 43
100.0
 50
180.0
  0
INSERT
  5
18C2A
330
18C24
100
AcDbEntity
  8
寸法
 62
     0
 48
50.0
370
    -2
100
AcDbBlockReference
  2
_DOTSMALL
 10
7544.160902108544
 20
8942.51669939905
 30
0.0
 41
100.0
 42
100.0
 43
100.0
  0
MTEXT
  5
18C2B
330
18C24
100
AcDbEntity
  8
寸法
 62
     7
 48
50.0
100
AcDbMText
 10
7061.28653022935
 20
9042.516699399049
 30
0.0
 40
120.0
 41
0.0
 71
     5
 72
     1
  1
\A1;1063
  7
STYLE1
 73
     1
 44
1.0
1001
ACAD
1000
MTEXTBEGIN
1070
    73
1070
     1
1070
    44
1040
1.0
1070
    74
1070
     0
1000
MTEXTEND
  0
POINT
  5
18C2C
330
18C24
100
AcDbEntity
  8
DEFPOINTS
 62
     0
 48
50.0
100
AcDbPoint
 10
6538.396575106998
 20
9156.123139034727
 30
0.0
  0
POINT
  5
18C2D
330
18C24
100
AcDbEntity
  8
DEFPOINTS
 62
     0
 48
50.0
100
AcDbPoint
 10
7601.39657510701
 20
9156.12313903472
 30
0.0
  0
POINT
  5
18C2E
330
18C24
100
AcDbEntity
  8
DEFPOINTS
 62
     0
 48
50.0
100
AcDbPoint
 10
7544.160902108544
 20
8942.51669939905
 30
0.0
  0
ENDBLK
  5
18C2F
330
18C24
100
AcDbEntity
  8
0
 48
50.0
100
AcDbBlockEnd
  0
BLOCK
  5
18C31
330
18C30
100
AcDbEntity
  8
0
 48
50.0
100
AcDbBlockBegin
  2
*D11
 70
     1
 10
0.0
 20
0.0
 30
0.0
  3
*D11
  1

  0
LINE
  5
18C32
330
18C30
100
AcDbEntity
  8
寸法
 62
     0
 48
50.0
370
    -2
100
AcDbLine
 10
7621.396575106999
 20
9600.764155186094
 30
0.0
 11
8016.754300969024
 21
9494.828371819961
 31
0.0
  0
LINE
  5
18C33
330
18C30
100
AcDbEntity
  8
寸法
 62
     0
 48
50.0
370
    -2
100
AcDbLine
 10
7621.396575106999
 20
9150.764155186099
 30
0.0
 11
8016.754300969024
 21
9044.828371819964
 31
0.0
  0
LINE
  5
18C34
330
18C30
100
AcDbEntity
  8
寸法
 62
     0
 48
50.0
370
    -2
100
AcDbLine
 10
7956.754300969024
 20
9510.905323365827
 30
0.0
 11
7956.754300969024
 21
9060.90532336583
 31
0.0
  0
INSERT
  5
18C35
330
18C30
100
AcDbEntity
  8
寸法
 62
     0
 48
50.0
370
    -2
100
AcDbBlockReference
  2
_DOTSMALL
 10
7956.754300969024
 20
9510.905323365827
 30
0.0
 41
100.0
 42
100.0
 43
100.0
 50
90.0
  0
INSERT
  5
18C36
330
18C30
100
AcDbEntity
  8
寸法
 62
     0
 48
50.0
370
    -2
100
AcDbBlockReference
  2
_DOTSMALL
 10
7956.754300969024
 20
9060.90532336583
 30
0.0
 41
100.0
 42
100.0
 43
100.0
 50
270.0
  0
MTEXT
  5
18C37
330
18C30
100
AcDbEntity
  8
寸法
 62
     7
 48
50.0
100
AcDbMText
 10
7856.754300969022
 20
9285.905323365829
 30
0.0
 40
120.0
 41
0.0
 71
     5
 72
     1
  1
\A1;450
  7
STYLE1
 11
0.0000000000000001
 21
1.0
 31
0.0
 73
     1
 44
1.0
1001
ACAD
1000
MTEXTBEGIN
1070
    73
1070
     1
1070
    44
1040
1.0
1070
    74
1070
     0
1000
MTEXTEND
  0
POINT
  5
18C38
330
18C30
100
AcDbEntity
  8
DEFPOINTS
 62
     0
 48
50.0
100
AcDbPoint
 10
7601.396575106999
 20
9606.123139034718
 30
0.0
  0
POINT
  5
18C39
330
18C30
100
AcDbEntity
  8
DEFPOINTS
 62
     0
 48
50.0
100
AcDbPoint
 10
7601.396575106999
 20
9156.12313903472
 30
0.0
  0
POINT
  5
18C3A
330
18C30
100
AcDbEntity
  8
DEFPOINTS
 62
     0
 48
50.0
100
AcDbPoint
 10
7956.754300969024
 20
9060.90532336583
 30
0.0
  0
ENDBLK
  5
18C3B
330
18C30
100
AcDbEntity
  8
0
 48
50.0
100
AcDbBlockEnd
  0
BLOCK
  5
18C3D
330
18C3C
100
AcDbEntity
  8
0
 48
50.0
100
AcDbBlockBegin
  2
*D12
 70
     1
 10
0.0
 20
0.0
 30
0.0
  3
*D12
  1

  0
LINE
  5
18C3E
330
18C3C
100
AcDbEntity
  8
寸法
 62
     0
 48
50.0
370
    -2
100
AcDbLine
 10
7649.896575106999
 20
9581.123139034721
 30
0.0
 11
8337.32292084141
 21
9581.123139034721
 31
0.0
  0
LINE
  5
18C3F
330
18C3C
100
AcDbEntity
  8
寸法
 62
     0
 48
50.0
370
    -2
100
AcDbLine
 10
7649.896575106973
 20
7901.123139034706
 30
0.0
 11
8337.32292084141
 21
7901.123139034706
 31
0.0
  0
LINE
  5
18C40
330
18C3C
100
AcDbEntity
  8
寸法
 62
     0
 48
50.0
370
    -2
100
AcDbLine
 10
8277.322920841411
 20
9581.123139034721
 30
0.0
 11
8277.322920841411
 21
7901.123139034706
 31
0.0
  0
INSERT
  5
18C41
330
18C3C
100
AcDbEntity
  8
寸法
 62
     0
 48
50.0
370
    -2
100
AcDbBlockReference
  2
_DOTSMALL
 10
8277.322920841411
 20
9581.123139034721
 30
0.0
 41
100.0
 42
100.0
 43
100.0
 50
90.0
  0
INSERT
  5
18C42
330
18C3C
100
AcDbEntity
  8
寸法
 62
     0
 48
50.0
370
    -2
100
AcDbBlockReference
  2
_DOTSMALL
 10
8277.322920841411
 20
7901.123139034706
 30
0.0
 41
100.0
 42
100.0
 43
100.0
 50
270.0
  0
MTEXT
  5
18C43
330
18C3C
100
AcDbEntity
  8
寸法
 62
     7
 48
50.0
100
AcDbMText
 10
8177.311109817788
 20
8741.123139034712
 30
0.0
 40
120.0
 41
0.0
 71
     5
 72
     1
  1
\A1;4X420=1680
  7
STYLE1
 11
0.0000000000000001
 21
1.0
 31
0.0
 73
     1
 44
1.0
1001
ACAD
1000
MTEXTBEGIN
1070
    73
1070
     1
1070
    44
1040
1.0
1070
    74
1070
     0
1000
MTEXTEND
  0
POINT
  5
18C44
330
18C3C
100
AcDbEntity
  8
DEFPOINTS
 62
     0
 48
50.0
100
AcDbPoint
 10
7629.896575106998
 20
9581.123139034721
 30
0.0
  0
POINT
  5
18C45
330
18C3C
100
AcDbEntity
  8
DEFPOINTS
 62
     0
 48
50.0
100
AcDbPoint
 10
7629.896575106974
 20
7901.123139034706
 30
0.0
  0
POINT
  5
18C46
330
18C3C
100
AcDbEntity
  8
DEFPOINTS
 62
     0
 48
50.0
100
AcDbPoint
 10
8277.322920841411
 20
7901.123139034706
 30
0.0
  0
ENDBLK
  5
18C47
330
18C3C
100
AcDbEntity
  8
0
 48
50.0
100
AcDbBlockEnd
  0
BLOCK
  5
18C49
330
18C48
100
AcDbEntity
  8
0
 48
50.0
100
AcDbBlockBegin
  2
*D13
 70
     1
 10
0.0
 20
0.0
 30
0.0
  3
*D13
  1

  0
LINE
  5
18C4A
330
18C48
100
AcDbEntity
  8
寸法
 62
     0
 48
50.0
370
    -2
100
AcDbLine
 10
4183.037591258377
 20
9136.123139034619
 30
0.0
 11
4115.083950562663
 21
8882.516699398941
 31
0.0
  0
LINE
  5
18C4B
330
18C48
100
AcDbEntity
  8
寸法
 62
     0
 48
50.0
370
    -2
100
AcDbLine
 10
5246.037591258307
 20
9136.123139034671
 30
0.0
 11
5178.08395056258
 21
8882.516699398941
 31
0.0
  0
LINE
  5
18C4C
330
18C48
100
AcDbEntity
  8
寸法
 62
     0
 48
50.0
370
    -2
100
AcDbLine
 10
4131.160902108532
 20
8942.516699398941
 30
0.0
 11
5194.160902108448
 21
8942.516699398941
 31
0.0
  0
INSERT
  5
18C4D
330
18C48
100
AcDbEntity
  8
寸法
 62
     0
 48
50.0
370
    -2
100
AcDbBlockReference
  2
_DOTSMALL
 10
4131.160902108532
 20
8942.516699398941
 30
0.0
 41
100.0
 42
100.0
 43
100.0
 50
180.0
  0
INSERT
  5
18C4E
330
18C48
100
AcDbEntity
  8
寸法
 62
     0
 48
50.0
370
    -2
100
AcDbBlockReference
  2
_DOTSMALL
 10
5194.160902108448
 20
8942.516699398941
 30
0.0
 41
100.0
 42
100.0
 43
100.0
  0
MTEXT
  5
18C4F
330
18C48
100
AcDbEntity
  8
寸法
 62
     7
 48
50.0
100
AcDbMText
 10
4658.986452655306
 20
9042.516699398941
 30
0.0
 40
120.0
 41
0.0
 71
     5
 72
     1
  1
\A1;1063
  7
STYLE1
 73
     1
 44
1.0
1001
ACAD
1000
MTEXTBEGIN
1070
    73
1070
     1
1070
    44
1040
1.0
1070
    74
1070
     0
1000
MTEXTEND
  0
POINT
  5
18C50
330
18C48
100
AcDbEntity
  8
DEFPOINTS
 62
     0
 48
50.0
100
AcDbPoint
 10
4188.396575106999
 20
9156.123139034617
 30
0.0
  0
POINT
  5
18C51
330
18C48
100
AcDbEntity
  8
DEFPOINTS
 62
     0
 48
50.0
100
AcDbPoint
 10
5251.396575106929
 20
9156.123139034672
 30
0.0
  0
POINT
  5
18C52
330
18C48
100
AcDbEntity
  8
DEFPOINTS
 62
     0
 48
50.0
100
AcDbPoint
 10
5194.160902108448
 20
8942.516699398941
 30
0.0
  0
ENDBLK
  5
18C53
330
18C48
100
AcDbEntity
  8
0
 48
50.0
100
AcDbBlockEnd
  0
BLOCK
  5
18C55
330
18C54
100
AcDbEntity
  8
0
 48
50.0
100
AcDbBlockBegin
  2
*D14
 70
     1
 10
0.0
 20
0.0
 30
0.0
  3
*D14
  1

  0
LINE
  5
18C56
330
18C54
100
AcDbEntity
  8
寸法
 62
     0
 48
50.0
370
    -2
100
AcDbLine
 10
5274.037591258307
 20
9136.123139034669
 30
0.0
 11
5206.08395056258
 21
8882.516699398941
 31
0.0
  0
LINE
  5
18C57
330
18C54
100
AcDbEntity
  8
寸法
 62
     0
 48
50.0
370
    -2
100
AcDbLine
 10
6505.037591258377
 20
9136.123139034662
 30
0.0
 11
6437.083950562653
 21
8882.516699398941
 31
0.0
  0
LINE
  5
18C58
330
18C54
100
AcDbEntity
  8
寸法
 62
     0
 48
50.0
370
    -2
100
AcDbLine
 10
5222.160902108448
 20
8942.516699398941
 30
0.0
 11
6453.16090210852
 21
8942.516699398941
 31
0.0
  0
INSERT
  5
18C59
330
18C54
100
AcDbEntity
  8
寸法
 62
     0
 48
50.0
370
    -2
100
AcDbBlockReference
  2
_DOTSMALL
 10
5222.160902108448
 20
8942.516699398941
 30
0.0
 41
100.0
 42
100.0
 43
100.0
 50
180.0
  0
INSERT
  5
18C5A
330
18C54
100
AcDbEntity
  8
寸法
 62
     0
 48
50.0
370
    -2
100
AcDbBlockReference
  2
_DOTSMALL
 10
6453.16090210852
 20
8942.516699398941
 30
0.0
 41
100.0
 42
100.0
 43
100.0
  0
MTEXT
  5
18C5B
330
18C54
100
AcDbEntity
  8
寸法
 62
     7
 48
50.0
100
AcDbMText
 10
6081.244808320626
 20
9042.528510422561
 30
0.0
 40
120.0
 41
0.0
 71
     5
 72
     1
  1
\A1;1231
  7
STYLE1
 73
     1
 44
1.0
1001
ACAD
1000
MTEXTBEGIN
1070
    73
1070
     1
1070
    44
1040
1.0
1070
    74
1070
     0
1000
MTEXTEND
  0
POINT
  5
18C5C
330
18C54
100
AcDbEntity
  8
DEFPOINTS
 62
     0
 48
50.0
100
AcDbPoint
 10
5279.396575106929
 20
9156.123139034669
 30
0.0
  0
POINT
  5
18C5D
330
18C54
100
AcDbEntity
  8
DEFPOINTS
 62
     0
 48
50.0
100
AcDbPoint
 10
6510.396575106999
 20
9156.123139034662
 30
0.0
  0
POINT
  5
18C5E
330
18C54
100
AcDbEntity
  8
DEFPOINTS
 62
     0
 48
50.0
100
AcDbPoint
 10
6453.16090210852
 20
8942.516699398941
 30
0.0
  0
ENDBLK
  5
18C5F
330
18C54
100
AcDbEntity
  8
0
 48
50.0
100
AcDbBlockEnd
  0
BLOCK
  5
18C61
330
18C60
100
AcDbEntity
  8
0
 48
50.0
100
AcDbBlockBegin
  2
*D15
 70
     1
 10
0.0
 20
0.0
 30
0.0
  3
*D15
  1

  0
LINE
  5
18C62
330
18C60
100
AcDbEntity
  8
寸法
 62
     0
 48
50.0
370
    -2
100
AcDbLine
 10
5065.896575106966
 20
7749.123139034579
 30
0.0
 11
5065.896575106966
 21
7099.952920982538
 31
0.0
  0
LINE
  5
18C63
330
18C60
100
AcDbEntity
  8
寸法
 62
     0
 48
50.0
370
    -2
100
AcDbLine
 10
6331.896575106966
 20
7749.123139034579
 30
0.0
 11
6331.896575106966
 21
7099.952920982538
 31
0.0
  0
LINE
  5
18C64
330
18C60
100
AcDbEntity
  8
寸法
 62
     0
 48
50.0
370
    -2
100
AcDbLine
 10
5065.896575106966
 20
7159.952920982537
 30
0.0
 11
6331.896575106966
 21
7159.952920982537
 31
0.0
  0
INSERT
  5
18C65
330
18C60
100
AcDbEntity
  8
寸法
 62
     0
 48
50.0
370
    -2
100
AcDbBlockReference
  2
_DOTSMALL
 10
5065.896575106966
 20
7159.952920982537
 30
0.0
 41
100.0
 42
100.0
 43
100.0
 50
180.0
  0
INSERT
  5
18C66
330
18C60
100
AcDbEntity
  8
寸法
 62
     0
 48
50.0
370
    -2
100
AcDbBlockReference
  2
_DOTSMALL
 10
6331.896575106966
 20
7159.952920982537
 30
0.0
 41
100.0
 42
100.0
 43
100.0
  0
MTEXT
  5
18C67
330
18C60
100
AcDbEntity
  8
寸法
 62
     7
 48
50.0
100
AcDbMText
 10
5711.986008735934
 20
7359.964732006159
 30
0.0
 40
120.0
 41
0.0
 71
     5
 72
     1
  1
\A1;有効開口部間口\P1266
  7
STYLE1
 73
     1
 44
1.0
1001
ACAD
1000
MTEXTBEGIN
1070
    73
1070
     1
1070
    44
1040
1.0
1070
    74
1070
     0
1000
MTEXTEND
  0
POINT
  5
18C68
330
18C60
100
AcDbEntity
  8
DEFPOINTS
 62
     0
 48
50.0
100
AcDbPoint
 10
5065.896575106966
 20
7769.123139034579
 30
0.0
  0
POINT
  5
18C69
330
18C60
100
AcDbEntity
  8
DEFPOINTS
 62
     0
 48
50.0
100
AcDbPoint
 10
6331.896575106966
 20
7769.123139034579
 30
0.0
  0
POINT
  5
18C6A
330
18C60
100
AcDbEntity
  8
DEFPOINTS
 62
     0
 48
50.0
100
AcDbPoint
 10
6331.896575106966
 20
7159.952920982537
 30
0.0
  0
ENDBLK
  5
18C6B
330
18C60
100
AcDbEntity
  8
0
 48
50.0
100
AcDbBlockEnd
  0
BLOCK
  5
18C6D
330
18C6C
100
AcDbEntity
  8
0
 48
50.0
100
AcDbBlockBegin
  2
*D16
 70
     1
 10
0.0
 20
0.0
 30
0.0
  3
*D16
  1

  0
LINE
  5
18C6E
330
18C6C
100
AcDbEntity
  8
寸法
 62
     0
 48
50.0
370
    -2
100
AcDbLine
 10
7200.896575106966
 20
7846.123139034578
 30
0.0
 11
7457.192158500191
 21
7846.123139034578
 31
0.0
  0
LINE
  5
18C6F
330
18C6C
100
AcDbEntity
  8
寸法
 62
     0
 48
50.0
370
    -2
100
AcDbLine
 10
7199.896575106966
 20
7769.123139034579
 30
0.0
 11
7457.192158500191
 21
7769.123139034579
 31
0.0
  0
LINE
  5
18C70
330
18C6C
100
AcDbEntity
  8
寸法
 62
     0
 48
50.0
370
    -2
100
AcDbLine
 10
7417.192158500192
 20
7866.123139034579
 30
0.0
 11
7417.192158500192
 21
7886.123139034578
 31
0.0
  0
LINE
  5
18C71
330
18C6C
100
AcDbEntity
  8
寸法
 62
     0
 48
50.0
370
    -2
100
AcDbLine
 10
7417.192158500192
 20
7749.123139034579
 30
0.0
 11
7417.192158500192
 21
7533.123139034573
 31
0.0
  0
LINE
  5
18C72
330
18C6C
100
AcDbEntity
  8
寸法
 62
     0
 48
50.0
370
    -2
100
AcDbLine
 10
7417.192158500192
 20
7846.123139034578
 30
0.0
 11
7417.192158500192
 21
7769.123139034579
 31
0.0
  0
INSERT
  5
18C73
330
18C6C
100
AcDbEntity
  8
寸法
 62
     0
 48
50.0
370
    -2
100
AcDbBlockReference
  2
_DOT
 10
7417.192158500192
 20
7846.123139034578
 30
0.0
 41
20.0
 42
20.0
 43
20.0
 50
270.0
  0
INSERT
  5
18C74
330
18C6C
100
AcDbEntity
  8
寸法
 62
     0
 48
50.0
370
    -2
100
AcDbBlockReference
  2
_DOT
 10
7417.192158500192
 20
7769.123139034579
 30
0.0
 41
20.0
 42
20.0
 43
20.0
 50
90.0
  0
MTEXT
  5
18C75
330
18C6C
100
AcDbEntity
  8
寸法
 62
     7
 48
50.0
100
AcDbMText
 10
7325.192158500191
 20
7631.123139034575
 30
0.0
 40
120.0
 41
0.0
 71
     5
 72
     1
  1
\A1;77
  7
STYLE1
 11
0.0000000000000001
 21
1.0
 31
0.0
 73
     1
 44
1.0
1001
ACAD
1000
MTEXTBEGIN
1070
    73
1070
     1
1070
    44
1040
1.0
1070
    74
1070
     0
1000
MTEXTEND
  0
POINT
  5
18C76
330
18C6C
100
AcDbEntity
  8
DEFPOINTS
 62
     0
 48
50.0
100
AcDbPoint
 10
7180.896575106967
 20
7846.123139034578
 30
0.0
  0
POINT
  5
18C77
330
18C6C
100
AcDbEntity
  8
DEFPOINTS
 62
     0
 48
50.0
100
AcDbPoint
 10
7179.896575106965
 20
7769.123139034579
 30
0.0
  0
POINT
  5
18C78
330
18C6C
100
AcDbEntity
  8
DEFPOINTS
 62
     0
 48
50.0
100
AcDbPoint
 10
7417.192158500192
 20
7769.123139034579
 30
0.0
  0
ENDBLK
  5
18C79
330
18C6C
100
AcDbEntity
  8
0
 48
50.0
100
AcDbBlockEnd
  0
BLOCK
  5
18DA0
330
18C7A
100
AcDbEntity
  8
0
 48
50.0
100
AcDbBlockBegin
  2
A$C3B1A506B
 70
     0
 10
0.0
 20
0.0
 30
0.0
  3
A$C3B1A506B
  1

  0
MTEXT
  5
18C7B
330
18C7A
100
AcDbEntity
  8
寸法
 62
     7
 48
50.0
100
AcDbMText
 10
3342.250386887194
 20
2778.329429134012
 30
0.0
 40
96.0
 41
0.0
 71
     5
 72
     1
  1
棚 2段
  7
STYLE1
 73
     1
 44
1.0
1001
ACAD
1000
MTEXTBEGIN
1070
    73
1070
     1
1070
    44
1040
1.0
1070
    74
1070
     0
1000
MTEXTEND
  0
MTEXT
  5
18C7C
330
18C7A
100
AcDbEntity
  8
寸法
 62
     7
 48
50.0
100
AcDbMText
 10
2167.25038688716
 20
2778.329429133986
 30
0.0
 40
96.0
 41
0.0
 71
     5
 72
     1
  1
棚 2段
  7
STYLE1
 73
     1
 44
1.0
1001
ACAD
1000
MTEXTBEGIN
1070
    73
1070
     1
1070
    44
1040
1.0
1070
    74
1070
     0
1000
MTEXTEND
  0
MTEXT
  5
18C7D
330
18C7A
100
AcDbEntity
  8
寸法
 62
     7
 48
50.0
100
AcDbMText
 10
992.2503868871608
 20
2778.329429133935
 30
0.0
 40
96.0
 41
0.0
 71
     5
 72
     1
  1
棚 2段
  7
STYLE1
 73
     1
 44
1.0
1001
ACAD
1000
MTEXTBEGIN
1070
    73
1070
     1
1070
    44
1040
1.0
1070
    74
1070
     0
1000
MTEXTEND
  0
LINE
  5
18C7E
330
18C7A
100
AcDbEntity
  8
細線
 48
50.0
100
AcDbLine
 10
2771.970589276527
 20
1368.994384123192
 30
0.0
 11
3398.970589276523
 21
1368.994384123192
 31
0.0
  0
LINE
  5
18C7F
330
18C7A
100
AcDbEntity
  8
細線
 48
50.0
100
AcDbLine
 10
2117.970593930113
 20
1335.285615569113
 30
0.0
 11
3398.970589276523
 21
1335.285615569113
 31
0.0
  0
LINE
  5
18C80
330
18C7A
100
AcDbEntity
  8
細線
 48
50.0
100
AcDbLine
 10
2076.970593930115
 20
1364.690523565368
 30
0.0
 11
1322.970589276523
 21
1364.690523565367
 31
0.0
  0
LINE
  5
18C81
330
18C7A
100
AcDbEntity
  8
細線
100
AcDbLine
 10
3170.720579860066
 20
1388.494284088199
 30
0.0
 11
3173.052119381877
 21
1393.494286728162
 31
0.0
  0
LINE
  5
18C82
330
18C7A
100
AcDbEntity
  8
細線
100
AcDbLine
 10
3240.720589276525
 20
1388.494269174465
 30
0.0
 11
3238.389042800336
 21
1393.494286728144
 31
0.0
  0
LINE
  5
18C83
330
18C7A
100
AcDbEntity
  8
細線
100
AcDbLine
 10
3238.389042800336
 20
1393.494286728144
 30
0.0
 11
3173.052119381862
 21
1393.494286728133
 31
0.0
  0
LINE
  5
18C84
330
18C7A
100
AcDbEntity
  8
細線
100
AcDbLine
 10
3098.389042800336
 20
1393.494286728144
 30
0.0
 11
3033.052119381862
 21
1393.494286728133
 31
0.0
  0
LINE
  5
18C85
330
18C7A
100
AcDbEntity
  8
細線
100
AcDbLine
 10
3100.720589276523
 20
1388.494269174465
 30
0.0
 11
3098.389042800336
 21
1393.494286728144
 31
0.0
  0
LINE
  5
18C86
330
18C7A
100
AcDbEntity
  8
細線
100
AcDbLine
 10
3030.720579860066
 20
1388.494284088199
 30
0.0
 11
3033.052119381875
 21
1393.494286728162
 31
0.0
  0
LINE
  5
18C87
330
18C7A
100
AcDbEntity
  8
細線
100
AcDbLine
 10
2890.720589276525
 20
1388.494269174465
 30
0.0
 11
2893.052128798336
 21
1393.494271814428
 31
0.0
  0
LINE
  5
18C88
330
18C7A
100
AcDbEntity
  8
細線
100
AcDbLine
 10
2960.720598692984
 20
1388.494254260731
 30
0.0
 11
2958.389052216793
 21
1393.49427181441
 31
0.0
  0
LINE
  5
18C89
330
18C7A
100
AcDbEntity
  8
細線
100
AcDbLine
 10
2958.389052216795
 20
1393.49427181441
 30
0.0
 11
2893.052128798321
 21
1393.494271814399
 31
0.0
  0
LINE
  5
18C8A
330
18C7A
100
AcDbEntity
  8
細線
100
AcDbLine
 10
2667.139038146739
 20
1359.494298590735
 30
0.0
 11
2601.802114728263
 21
1359.494298590724
 31
0.0
  0
LINE
  5
18C8B
330
18C7A
100
AcDbEntity
  8
細線
100
AcDbLine
 10
2669.470584622926
 20
1354.494281037055
 30
0.0
 11
2667.139038146737
 21
1359.494298590735
 31
0.0
  0
LINE
  5
18C8C
330
18C7A
100
AcDbEntity
  8
細線
100
AcDbLine
 10
2599.470575206469
 20
1354.49429595079
 30
0.0
 11
2601.802114728278
 21
1359.494298590752
 31
0.0
  0
LINE
  5
18C8D
330
18C7A
100
AcDbEntity
  8
細線
 48
50.0
100
AcDbLine
 10
2440.853968524536
 20
1372.765132327548
 30
0.0
 11
2446.609486107205
 21
1354.494281037057
 31
0.0
  0
LINE
  5
18C8E
330
18C7A
100
AcDbEntity
  8
細線
 48
50.0
100
AcDbLine
 10
2429.925520044106
 20
1372.765132327546
 30
0.0
 11
2440.853968524536
 21
1372.765132327548
 31
0.0
  0
ARC
  5
18C8F
330
18C7A
100
AcDbEntity
  8
細線
 48
50.0
100
AcDbCircle
 10
2424.471163986787
 20
1374.265132327546
 30
0.0
 40
5.0
100
AcDbArc
 50
204.6243183520723
 51
335.3756816479278
  0
ARC
  5
18C90
330
18C7A
100
AcDbEntity
  8
細線
 48
50.0
100
AcDbCircle
 10
2429.925520044106
 20
1371.765132327546
 30
0.0
 40
1.0
100
AcDbArc
 50
90.0
 51
155.3756816479277
  0
ARC
  5
18C91
330
18C7A
100
AcDbEntity
  8
細線
 48
50.0
100
AcDbCircle
 10
2419.016807929469
 20
1371.765132327546
 30
0.0
 40
1.0
100
AcDbArc
 50
24.62431835207225
 51
90.0
  0
LINE
  5
18C92
330
18C7A
100
AcDbEntity
  8
細線
 48
50.0
100
AcDbLine
 10
2408.088359449037
 20
1372.765132327548
 30
0.0
 11
2419.016807929469
 21
1372.765132327546
 31
0.0
  0
LINE
  5
18C93
330
18C7A
100
AcDbEntity
  8
細線
 48
50.0
100
AcDbLine
 10
2402.33284186637
 20
1354.494281037054
 30
0.0
 11
2408.088359449037
 21
1372.765132327548
 31
0.0
  0
LINE
  5
18C94
330
18C7A
100
AcDbEntity
  8
細線
100
AcDbLine
 10
2458.070304175992
 20
1354.494278397076
 30
0.0
 11
2460.401843697802
 21
1359.494281037039
 31
0.0
  0
LINE
  5
18C95
330
18C7A
100
AcDbEntity
  8
細線
100
AcDbLine
 10
2528.070313592451
 20
1354.494263483342
 30
0.0
 11
2525.738767116262
 21
1359.494281037021
 31
0.0
  0
LINE
  5
18C96
330
18C7A
100
AcDbEntity
  8
細線
100
AcDbLine
 10
2525.738767116262
 20
1359.494281037021
 30
0.0
 11
2460.40184369779
 21
1359.49428103701
 31
0.0
  0
LINE
  5
18C97
330
18C7A
100
AcDbEntity
  8
細線
100
AcDbLine
 10
2387.139046332155
 20
1359.494281037021
 30
0.0
 11
2321.80212291368
 21
1359.49428103701
 31
0.0
  0
LINE
  5
18C98
330
18C7A
100
AcDbEntity
  8
細線
100
AcDbLine
 10
2389.470592808342
 20
1354.494263483342
 30
0.0
 11
2387.139046332153
 21
1359.494281037021
 31
0.0
  0
LINE
  5
18C99
330
18C7A
100
AcDbEntity
  8
細線
100
AcDbLine
 10
2319.470584622926
 20
1354.494281037054
 30
0.0
 11
2321.802122913694
 21
1359.494281037039
 31
0.0
  0
LINE
  5
18C9A
330
18C7A
100
AcDbEntity
  8
細線
100
AcDbLine
 10
2179.47061994182
 20
1354.494289224422
 30
0.0
 11
2181.802158232587
 21
1359.494289224407
 31
0.0
  0
LINE
  5
18C9B
330
18C7A
100
AcDbEntity
  8
細線
100
AcDbLine
 10
2249.470628127236
 20
1354.49427167071
 30
0.0
 11
2247.139081651047
 21
1359.494289224389
 31
0.0
  0
LINE
  5
18C9C
330
18C7A
100
AcDbEntity
  8
細線
100
AcDbLine
 10
2247.139081651047
 20
1359.494289224389
 30
0.0
 11
2181.802158232573
 21
1359.494289224378
 31
0.0
  0
LINE
  5
18C9D
330
18C7A
100
AcDbEntity
  8
細線
100
AcDbLine
 10
1807.970585744697
 20
1320.494460905133
 30
0.0
 11
1810.302124035464
 21
1325.494460905118
 31
0.0
  0
LINE
  5
18C9E
330
18C7A
100
AcDbEntity
  8
細線
100
AcDbLine
 10
1877.970593930113
 20
1320.494443351421
 30
0.0
 11
1875.639047453926
 21
1325.4944609051
 31
0.0
  0
LINE
  5
18C9F
330
18C7A
100
AcDbEntity
  8
細線
100
AcDbLine
 10
1875.639047453926
 20
1325.4944609051
 30
0.0
 11
1810.302124035452
 21
1325.494460905089
 31
0.0
  0
LINE
  5
18CA0
330
18C7A
100
AcDbEntity
  8
細線
100
AcDbLine
 10
2015.639047453926
 20
1325.4944609051
 30
0.0
 11
1950.302124035452
 21
1325.494460905089
 31
0.0
  0
LINE
  5
18CA1
330
18C7A
100
AcDbEntity
  8
細線
100
AcDbLine
 10
2017.970593930113
 20
1320.494443351421
 30
0.0
 11
2015.639047453924
 21
1325.4944609051
 31
0.0
  0
LINE
  5
18CA2
330
18C7A
100
AcDbEntity
  8
細線
100
AcDbLine
 10
1947.970585744697
 20
1320.494460905133
 30
0.0
 11
1950.302124035465
 21
1325.494460905118
 31
0.0
  0
LINE
  5
18CA3
330
18C7A
100
AcDbEntity
  8
細線
100
AcDbLine
 10
1735.639047453926
 20
1325.494460905098
 30
0.0
 11
1670.302124035454
 21
1325.494460905087
 31
0.0
  0
LINE
  5
18CA4
330
18C7A
100
AcDbEntity
  8
細線
100
AcDbLine
 10
1737.970593930113
 20
1320.494443351419
 30
0.0
 11
1735.639047453926
 21
1325.494460905098
 31
0.0
  0
LINE
  5
18CA5
330
18C7A
100
AcDbEntity
  8
細線
100
AcDbLine
 10
1667.970585744697
 20
1320.494460905131
 30
0.0
 11
1670.302124035465
 21
1325.494460905116
 31
0.0
  0
LINE
  5
18CA6
330
18C7A
100
AcDbEntity
  8
細線
100
AcDbLine
 10
1527.970593930113
 20
1320.494460905133
 30
0.0
 11
1530.302132220881
 21
1325.494460905118
 31
0.0
  0
LINE
  5
18CA7
330
18C7A
100
AcDbEntity
  8
細線
100
AcDbLine
 10
1597.970602115529
 20
1320.494443351421
 30
0.0
 11
1595.639055639342
 21
1325.4944609051
 31
0.0
  0
LINE
  5
18CA8
330
18C7A
100
AcDbEntity
  8
細線
100
AcDbLine
 10
1595.639055639342
 20
1325.4944609051
 30
0.0
 11
1530.302132220869
 21
1325.494460905089
 31
0.0
  0
ARC
  5
18CA9
330
18C7A
100
AcDbEntity
  8
部品1
 48
0.01
100
AcDbCircle
 10
1483.470482677778
 20
1319.493338720063
 30
0.0
 40
0.5
100
AcDbArc
 50
270.0
 51
0.0
  0
LINE
  5
18CAA
330
18C7A
100
AcDbEntity
  8
部品1
 48
0.01
100
AcDbLine
 10
1483.970482677778
 20
1320.493338720063
 30
0.0
 11
1483.970482677778
 21
1319.493338720063
 31
0.0
  0
LINE
  5
18CAB
330
18C7A
100
AcDbEntity
  8
部品1
 48
0.01
100
AcDbLine
 10
1483.970482677778
 20
1320.493338720063
 30
0.0
 11
1483.970482677778
 21
1319.493338720063
 31
0.0
  0
LINE
  5
18CAC
330
18C7A
100
AcDbEntity
  8
部品1
 48
0.01
100
AcDbLine
 10
1483.470482677778
 20
1318.993338720063
 30
0.0
 11
1476.857977247713
 21
1318.993338720062
 31
0.0
  0
ARC
  5
18CAD
330
18C7A
100
AcDbEntity
  8
部品1
100
AcDbCircle
 10
1476.926326800494
 20
1319.993338720062
 30
0.0
 40
1.0
100
AcDbArc
 50
160.5287793655865
 51
270.0
  0
ARC
  5
18CAE
330
18C7A
100
AcDbEntity
  8
部品1
100
AcDbCircle
 10
1451.470482677778
 20
1328.993338720062
 30
0.0
 40
26.0
100
AcDbArc
 50
340.5287793655865
 51
0.0
  0
LINE
  5
18CAF
330
18C7A
100
AcDbEntity
  8
部品1
100
AcDbLine
 10
1477.470482677778
 20
1328.993338720062
 30
0.0
 11
1477.470482677778
 21
1333.993338720061
 31
0.0
  0
ARC
  5
18CB0
330
18C7A
100
AcDbEntity
  8
部品1
 48
0.01
100
AcDbCircle
 10
1475.470482677778
 20
1333.993338720061
 30
0.0
 40
2.0
100
AcDbArc
 50
0.0
 51
90.0
  0
ARC
  5
18CB1
330
18C7A
100
AcDbEntity
  8
部品1
100
AcDbCircle
 10
1473.862091052968
 20
1332.993338720062
 30
0.0
 40
3.0
100
AcDbArc
 50
90.0
 51
141.6069559808035
  0
LINE
  5
18CB2
330
18C7A
100
AcDbEntity
  8
部品1
 48
0.01
100
AcDbLine
 10
1475.470482677778
 20
1335.993338720062
 30
0.0
 11
1473.862091052968
 21
1335.993338720062
 31
0.0
  0
ARC
  5
18CB3
330
18C7A
100
AcDbEntity
  8
部品1
100
AcDbCircle
 10
1455.399768463507
 20
1332.293338720065
 30
0.0
 40
3.0
100
AcDbArc
 50
254.0576313943215
 51
270.0
  0
ARC
  5
18CB4
330
18C7A
100
AcDbEntity
  8
部品1
100
AcDbCircle
 10
1462.541196892049
 20
1332.293338720065
 30
0.0
 40
3.0
100
AcDbArc
 50
270.0
 51
285.9423686056786
  0
LINE
  5
18CB5
330
18C7A
100
AcDbEntity
  8
部品1
100
AcDbLine
 10
1462.541196892049
 20
1329.293338720064
 30
0.0
 11
1455.399768463507
 21
1329.293338720064
 31
0.0
  0
ARC
  5
18CB6
330
18C7A
100
AcDbEntity
  8
部品1
100
AcDbCircle
 10
1458.970482677778
 20
1344.793338720065
 30
0.0
 40
16.0
100
AcDbArc
 50
285.9423686056786
 51
321.6069559808035
  0
LINE
  5
18CB7
330
18C7A
100
AcDbEntity
  8
部品1
 48
0.01
100
AcDbLine
 10
1442.470482677778
 20
1335.993338720062
 30
0.0
 11
1444.078874302588
 21
1335.993338720062
 31
0.0
  0
ARC
  5
18CB8
330
18C7A
100
AcDbEntity
  8
部品1
100
AcDbCircle
 10
1444.078874302588
 20
1332.993338720062
 30
0.0
 40
3.0
100
AcDbArc
 50
38.39304401919648
 51
90.0
  0
ARC
  5
18CB9
330
18C7A
100
AcDbEntity
  8
部品1
100
AcDbCircle
 10
1458.970482677778
 20
1344.793338720065
 30
0.0
 40
16.0
100
AcDbArc
 50
218.3930440191965
 51
254.0576313943215
  0
LINE
  5
18CBA
330
18C7A
100
AcDbEntity
  8
部品1
100
AcDbLine
 10
1440.470482677778
 20
1328.993338720062
 30
0.0
 11
1440.470482677778
 21
1333.993338720061
 31
0.0
  0
ARC
  5
18CBB
330
18C7A
100
AcDbEntity
  8
部品1
 48
0.01
100
AcDbCircle
 10
1442.470482677778
 20
1333.993338720061
 30
0.0
 40
2.0
100
AcDbArc
 50
90.0
 51
180.0
  0
ARC
  5
18CBC
330
18C7A
100
AcDbEntity
  8
部品1
100
AcDbCircle
 10
1466.470482677778
 20
1328.993338720062
 30
0.0
 40
26.0
100
AcDbArc
 50
180.0
 51
199.4712206344134
  0
ARC
  5
18CBD
330
18C7A
100
AcDbEntity
  8
部品1
 48
0.01
100
AcDbCircle
 10
1434.470482677778
 20
1319.493338720063
 30
0.0
 40
0.5
100
AcDbArc
 50
180.0
 51
270.0
  0
LINE
  5
18CBE
330
18C7A
100
AcDbEntity
  8
部品1
 48
0.01
100
AcDbLine
 10
1434.470482677778
 20
1318.993338720063
 30
0.0
 11
1441.014638555061
 21
1318.993338720062
 31
0.0
  0
LINE
  5
18CBF
330
18C7A
100
AcDbEntity
  8
部品1
 48
0.01
100
AcDbLine
 10
1433.970482677778
 20
1320.493338720063
 30
0.0
 11
1433.970482677778
 21
1319.493338720063
 31
0.0
  0
ARC
  5
18CC0
330
18C7A
100
AcDbEntity
  8
部品1
100
AcDbCircle
 10
1441.014638555061
 20
1319.993338720062
 30
0.0
 40
1.0
100
AcDbArc
 50
270.0
 51
19.47122063441346
  0
LINE
  5
18CC1
330
18C7A
100
AcDbEntity
  8
細線
100
AcDbLine
 10
1479.470482677785
 20
1338.493338720065
 30
0.0
 11
1438.470482677785
 21
1338.493338720058
 31
0.0
  0
LINE
  5
18CC2
330
18C7A
100
AcDbEntity
  8
細線
100
AcDbLine
 10
1438.470482677785
 20
1338.493338720058
 30
0.0
 11
1438.470482677785
 21
1320.49333872004
 31
0.0
  0
LINE
  5
18CC3
330
18C7A
100
AcDbEntity
  8
細線
100
AcDbLine
 10
1479.470482677785
 20
1338.493338720065
 30
0.0
 11
1479.470482677785
 21
1320.49333872004
 31
0.0
  0
LINE
  5
18CC4
330
18C7A
100
AcDbEntity
  8
細線
100
AcDbLine
 10
1322.970589276523
 20
1324.494269174465
 30
0.0
 11
1322.970589276523
 21
1320.494269174513
 31
0.0
  0
LINE
  5
18CC5
330
18C7A
100
AcDbEntity
  8
寸法
 48
50.0
100
AcDbLine
 10
1746.17359555837
 20
1170.531020743327
 30
0.0
 11
1694.767587648266
 21
1170.531020743327
 31
0.0
  0
LINE
  5
18CC6
330
18C7A
100
AcDbEntity
  8
寸法
 48
50.0
100
AcDbLine
 10
1694.767587648266
 20
1170.531020743327
 30
0.0
 11
1694.767587648266
 21
1201.841179395494
 31
0.0
  0
LINE
  5
18CC7
330
18C7A
100
AcDbEntity
  8
寸法
 48
50.0
100
AcDbLine
 10
1694.767587648266
 20
1201.841179395494
 30
0.0
 11
1665.006255656843
 21
1201.841179395494
 31
0.0
  0
LINE
  5
18CC8
330
18C7A
100
AcDbEntity
  8
寸法
 48
50.0
100
AcDbLine
 10
1665.006255656843
 20
1201.841179395494
 30
0.0
 11
1720.470591603318
 21
1239.420630324105
 31
0.0
  0
LINE
  5
18CC9
330
18C7A
100
AcDbEntity
  8
寸法
 48
50.0
100
AcDbLine
 10
1775.934927549793
 20
1201.841179395494
 30
0.0
 11
1720.470591603318
 21
1239.420630324105
 31
0.0
  0
LINE
  5
18CCA
330
18C7A
100
AcDbEntity
  8
寸法
 48
50.0
100
AcDbLine
 10
1746.17359555837
 20
1201.841179395494
 30
0.0
 11
1775.934927549793
 21
1201.841179395494
 31
0.0
  0
LINE
  5
18CCB
330
18C7A
100
AcDbEntity
  8
寸法
 48
50.0
100
AcDbLine
 10
1746.17359555837
 20
1170.531020743327
 30
0.0
 11
1746.17359555837
 21
1201.841179395494
 31
0.0
  0
LINE
  5
18CCC
330
18C7A
100
AcDbEntity
  8
寸法
 48
50.0
100
AcDbLine
 10
1694.767587648266
 20
1170.531020743327
 30
0.0
 11
1746.17359555837
 21
1170.531020743327
 31
0.0
  0
LINE
  5
18CCD
330
18C7A
100
AcDbEntity
  8
寸法
 48
50.0
100
AcDbLine
 10
2025.339129835225
 20
1227.676611498152
 30
0.0
 11
2025.339129835225
 21
1174.01297691636
 31
0.0
  0
LINE
  5
18CCE
330
18C7A
100
AcDbEntity
  8
寸法
 48
50.0
100
AcDbLine
 10
2114.623348430647
 20
1203.752977228664
 30
0.0
 11
2025.339129835225
 21
1227.676611498152
 31
0.0
  0
LINE
  5
18CCF
330
18C7A
100
AcDbEntity
  8
寸法
 48
50.0
100
AcDbLine
 10
1895.471408254923
 20
1203.752977228664
 30
0.0
 11
2114.623348430647
 21
1203.752977228664
 31
0.0
  0
DIMENSION
  5
18CD0
330
18C7A
100
AcDbEntity
  8
寸法
 48
50.0
100
AcDbDimension
  2
*D15
 10
2588.970589276523
 20
706.3240511224249
 30
0.0
 11
1969.060022905491
 21
706.3240511224249
 31
0.0
 12
-3742.925985830444
 22
-6453.628869860112
 32
0.0
 70
   128
  1
有効開口部間口\P<>
 71
     5
 42
1266.0
  3
INABA_S40G
100
AcDbAlignedDimension
 13
1322.970589276523
 23
1315.494269174465
 33
0.0
 14
2588.970589276523
 24
1315.494269174465
 34
0.0
100
AcDbRotatedDimension
1001
ACAD
1000
DSTYLE
1002
{
1070
   341
1005
0
1002
}
  0
LINE
  5
18CD1
330
18C7A
100
AcDbEntity
  8
部品1
100
AcDbLine
 10
3409.970589276524
 20
1392.494269174465
 30
0.0
 11
3437.970589276523
 21
1392.494269174465
 31
0.0
  0
DIMENSION
  5
18CD2
330
18C7A
100
AcDbEntity
  8
寸法
100
AcDbDimension
  2
*D16
 10
3674.266172669749
 20
1315.494269174465
 30
0.0
 11
3674.266172669748
 21
1177.494269174462
 31
0.0
 12
-3742.925985830444
 22
-6453.628869860112
 32
0.0
 70
   128
 71
     5
 42
77.0
  3
INABA_S40
100
AcDbAlignedDimension
 13
3437.970589276523
 23
1392.494269174465
 33
0.0
 14
3436.970589276523
 24
1315.494269174465
 34
0.0
 50
90.0
100
AcDbRotatedDimension
1001
ACAD
1000
DSTYLE
1002
{
1070
    41
1040
0.5
1070
    44
1040
1.0
1070
   147
1040
0.8
1070
   271
1070
     2
1070
   272
1070
     2
1070
   289
1070
     3
1070
   340
1005
F706
1070
   343
1005
164B4
1070
   344
1005
164B4
1002
}
  0
LINE
  5
18CD3
330
18C7A
100
AcDbEntity
  8
部品1
100
AcDbLine
 10
3437.970589276523
 20
1315.494269174465
 30
0.0
 11
3437.970589276523
 21
1392.494269174465
 31
0.0
  0
LINE
  5
18CD4
330
18C7A
100
AcDbEntity
  8
部品1
100
AcDbLine
 10
3398.970589276523
 20
1388.494269174465
 30
0.0
 11
3409.970589276524
 21
1388.494269174465
 31
0.0
  0
LINE
  5
18CD5
330
18C7A
100
AcDbEntity
  8
部品1
100
AcDbLine
 10
3407.970589276523
 20
1324.494269174465
 30
0.0
 11
3407.970589276523
 21
1315.494269174465
 31
0.0
  0
LINE
  5
18CD6
330
18C7A
100
AcDbEntity
  8
部品1
100
AcDbLine
 10
3398.970589276523
 20
1324.494269174465
 30
0.0
 11
3407.970589276523
 21
1324.494269174465
 31
0.0
  0
LINE
  5
18CD7
330
18C7A
100
AcDbEntity
  8
部品1
100
AcDbLine
 10
3398.970589276523
 20
1388.494269174465
 30
0.0
 11
3398.970589276523
 21
1324.494269174465
 31
0.0
  0
LINE
  5
18CD8
330
18C7A
100
AcDbEntity
  8
部品1
100
AcDbLine
 10
3409.970589276524
 20
1419.494269174465
 30
0.0
 11
3409.970589276524
 21
1388.494269174465
 31
0.0
  0
LINE
  5
18CD9
330
18C7A
100
AcDbEntity
  8
部品1
100
AcDbLine
 10
1322.970589276523
 20
1388.494269174465
 30
0.0
 11
1311.970589276523
 21
1388.494269174465
 31
0.0
  0
LINE
  5
18CDA
330
18C7A
100
AcDbEntity
  8
部品1
100
AcDbLine
 10
1283.970589276523
 20
1392.494269174465
 30
0.0
 11
1311.970589276523
 21
1392.494269174465
 31
0.0
  0
LINE
  5
18CDB
330
18C7A
100
AcDbEntity
  8
部品1
100
AcDbLine
 10
1313.970589276523
 20
1324.494269174465
 30
0.0
 11
1313.970589276523
 21
1315.494269174465
 31
0.0
  0
LINE
  5
18CDC
330
18C7A
100
AcDbEntity
  8
部品1
100
AcDbLine
 10
1322.970589276523
 20
1324.494269174465
 30
0.0
 11
1313.970589276523
 21
1324.494269174465
 31
0.0
  0
LINE
  5
18CDD
330
18C7A
100
AcDbEntity
  8
部品1
100
AcDbLine
 10
1313.970589276523
 20
1315.494269174465
 30
0.0
 11
1283.970589276523
 21
1315.494269174465
 31
0.0
  0
LINE
  5
18CDE
330
18C7A
100
AcDbEntity
  8
部品1
100
AcDbLine
 10
1283.970589276523
 20
1315.494269174465
 30
0.0
 11
1283.970589276523
 21
1392.494269174465
 31
0.0
  0
LINE
  5
18CDF
330
18C7A
100
AcDbEntity
  8
部品1
100
AcDbLine
 10
1322.970589276523
 20
1388.494269174465
 30
0.0
 11
1322.970589276523
 21
1324.494269174465
 31
0.0
  0
LINE
  5
18CE0
330
18C7A
100
AcDbEntity
  8
部品1
100
AcDbLine
 10
1311.970589276523
 20
1419.494269174462
 30
0.0
 11
1311.970589276523
 21
1388.494269174465
 31
0.0
  0
LINE
  5
18CE1
330
18C7A
100
AcDbEntity
  8
部品1
100
AcDbLine
 10
1311.970589276523
 20
1419.494269174462
 30
0.0
 11
3409.970589276524
 21
1419.494269174465
 31
0.0
  0
LINE
  5
18CE2
330
18C7A
100
AcDbEntity
  8
部品1
100
AcDbLine
 10
3407.970589276523
 20
1315.494269174465
 30
0.0
 11
3437.970589276523
 21
1315.494269174465
 31
0.0
  0
LINE
  5
18CE3
330
18C7A
100
AcDbEntity
  8
部品1
100
AcDbLine
 10
1313.970589276523
 20
1315.494269174465
 30
0.0
 11
3410.970589276523
 21
1315.494269174465
 31
0.0
  0
LINE
  5
18CE4
330
18C7A
100
AcDbEntity
  8
細線
  6
Continuous
 62
     5
100
AcDbLine
 10
2689.970589276527
 20
1354.494269174462
 30
0.0
 11
2689.970589276527
 21
1354.494269174462
 31
0.0
  0
LINE
  5
18CE5
330
18C7A
100
AcDbEntity
  8
細線
  6
Continuous
 62
     5
100
AcDbLine
 10
2682.470589276527
 20
1354.494269174462
 30
0.0
 11
2682.470589276527
 21
1354.494269174462
 31
0.0
  0
LINE
  5
18CE6
330
18C7A
100
AcDbEntity
  8
細線
  6
Continuous
 62
     5
100
AcDbLine
 10
2676.470589276527
 20
1354.494269174462
 30
0.0
 11
2676.470589276527
 21
1354.494269174462
 31
0.0
  0
LINE
  5
18CE7
330
18C7A
100
AcDbEntity
  8
細線
  6
Continuous
 62
     5
100
AcDbLine
 10
2743.970589276527
 20
1373.494269174462
 30
0.0
 11
2743.970589276527
 21
1373.494269174462
 31
0.0
  0
LINE
  5
18CE8
330
18C7A
100
AcDbEntity
  8
細線
 48
50.0
100
AcDbLine
 10
1336.970593930116
 20
1341.094443351418
 30
0.0
 11
1336.970593930113
 21
1349.490593759059
 31
0.0
  0
LINE
  5
18CE9
330
18C7A
100
AcDbEntity
  8
細線
 48
50.0
100
AcDbLine
 10
1336.970593930113
 20
1349.490593759059
 30
0.0
 11
1322.970589276523
 21
1349.490593759057
 31
0.0
  0
LINE
  5
18CEA
330
18C7A
100
AcDbEntity
  8
細線
 48
50.0
100
AcDbLine
 10
2087.970593930113
 20
1337.644443351419
 30
0.0
 11
2087.970593930113
 21
1342.494443351421
 31
0.0
  0
LINE
  5
18CEB
330
18C7A
100
AcDbEntity
  8
細線
 48
50.0
100
AcDbLine
 10
2087.970593930113
 20
1342.494443351421
 30
0.0
 11
2102.970593930113
 21
1342.494443351421
 31
0.0
  0
LINE
  5
18CEC
330
18C7A
100
AcDbEntity
  8
細線
 48
50.0
100
AcDbLine
 10
2102.970593930113
 20
1342.494443351421
 30
0.0
 11
2102.970593930115
 21
1349.494443351419
 31
0.0
  0
LINE
  5
18CED
330
18C7A
100
AcDbEntity
  8
細線
 48
50.0
100
AcDbLine
 10
2102.970593930115
 20
1349.494443351419
 30
0.0
 11
2117.970593930113
 21
1349.494443351419
 31
0.0
  0
LINE
  5
18CEE
330
18C7A
100
AcDbEntity
  8
細線
 48
50.0
100
AcDbLine
 10
2117.970593930113
 20
1349.494443351419
 30
0.0
 11
2117.970593930113
 21
1320.494443351421
 31
0.0
  0
LINE
  5
18CEF
330
18C7A
100
AcDbEntity
  8
細線
 48
50.0
100
AcDbLine
 10
1313.970589276523
 20
1320.491777694889
 30
0.0
 11
1527.970593930113
 21
1320.494460905133
 31
0.0
  0
LINE
  5
18CF0
330
18C7A
100
AcDbEntity
  8
細線
 48
50.0
100
AcDbLine
 10
2017.970593930113
 20
1320.494443351421
 30
0.0
 11
2117.970593930113
 21
1320.494443351421
 31
0.0
  0
LINE
  5
18CF1
330
18C7A
100
AcDbEntity
  8
細線
 48
50.0
100
AcDbLine
 10
1737.970593930113
 20
1320.494443351419
 30
0.0
 11
1807.970593930113
 21
1320.494443351423
 31
0.0
  0
LINE
  5
18CF2
330
18C7A
100
AcDbEntity
  8
細線
 48
50.0
100
AcDbLine
 10
1750.832558942642
 20
1320.494443351419
 30
0.0
 11
1756.588076525309
 21
1338.765294641913
 31
0.0
  0
LINE
  5
18CF3
330
18C7A
100
AcDbEntity
  8
細線
 48
50.0
100
AcDbLine
 10
1756.588076525309
 20
1338.765294641913
 30
0.0
 11
1767.516525005743
 21
1338.765294641911
 31
0.0
  0
ARC
  5
18CF4
330
18C7A
100
AcDbEntity
  8
細線
 48
50.0
100
AcDbCircle
 10
1767.516525005743
 20
1337.765294641911
 30
0.0
 40
1.0
100
AcDbArc
 50
24.62431835207225
 51
90.0
  0
ARC
  5
18CF5
330
18C7A
100
AcDbEntity
  8
細線
 48
50.0
100
AcDbCircle
 10
1778.425237120377
 20
1337.765294641911
 30
0.0
 40
1.0
100
AcDbArc
 50
90.0
 51
155.3756816479277
  0
ARC
  5
18CF6
330
18C7A
100
AcDbEntity
  8
細線
 48
50.0
100
AcDbCircle
 10
1772.970881063058
 20
1340.265294641911
 30
0.0
 40
5.0
100
AcDbArc
 50
204.6243183520723
 51
335.3756816479278
  0
LINE
  5
18CF7
330
18C7A
100
AcDbEntity
  8
細線
 48
50.0
100
AcDbLine
 10
1778.425237120377
 20
1338.765294641911
 30
0.0
 11
1789.35368560081
 21
1338.765294641913
 31
0.0
  0
LINE
  5
18CF8
330
18C7A
100
AcDbEntity
  8
細線
 48
50.0
100
AcDbLine
 10
1789.35368560081
 20
1338.765294641913
 30
0.0
 11
1795.109203183478
 21
1320.494443351423
 31
0.0
  0
LINE
  5
18CF9
330
18C7A
100
AcDbEntity
  8
細線
 48
50.0
100
AcDbLine
 10
2087.970593930113
 20
1341.094443351419
 30
0.0
 11
1336.970593930116
 21
1341.094443351418
 31
0.0
  0
LINE
  5
18CFA
330
18C7A
100
AcDbEntity
  8
細線
 48
50.0
100
AcDbLine
 10
1947.970593930113
 20
1320.494443351421
 30
0.0
 11
1877.970593930113
 21
1320.494443351421
 31
0.0
  0
LINE
  5
18CFB
330
18C7A
100
AcDbEntity
  8
細線
100
AcDbLine
 10
1667.970593930113
 20
1320.494443351421
 30
0.0
 11
1597.970602115529
 21
1320.494443351421
 31
0.0
  0
LINE
  5
18CFC
330
18C7A
100
AcDbEntity
  8
細線
 48
50.0
100
AcDbLine
 10
2741.970584622936
 20
1375.094487209288
 30
0.0
 11
2106.970593930113
 21
1375.094487209284
 31
0.0
  0
LINE
  5
18CFD
330
18C7A
100
AcDbEntity
  8
細線
 48
50.0
100
AcDbLine
 10
2106.970593930113
 20
1371.990637616925
 30
0.0
 11
2106.970593930113
 21
1376.490637616925
 31
0.0
  0
LINE
  5
18CFE
330
18C7A
100
AcDbEntity
  8
細線
 48
50.0
100
AcDbLine
 10
2106.970593930113
 20
1376.490637616925
 30
0.0
 11
2091.970593930113
 21
1376.490637616925
 31
0.0
  0
LINE
  5
18CFF
330
18C7A
100
AcDbEntity
  8
細線
 48
50.0
100
AcDbLine
 10
2091.970593930113
 20
1376.490637616925
 30
0.0
 11
2091.970593930113
 21
1383.490637616927
 31
0.0
  0
LINE
  5
18D00
330
18C7A
100
AcDbEntity
  8
細線
 48
50.0
100
AcDbLine
 10
2091.970593930113
 20
1383.490637616927
 30
0.0
 11
2076.970593930115
 21
1383.490637616924
 31
0.0
  0
LINE
  5
18D01
330
18C7A
100
AcDbEntity
  8
細線
 48
50.0
100
AcDbLine
 10
2076.970593930115
 20
1383.490637616924
 30
0.0
 11
2076.970593930115
 21
1345.890409513813
 31
0.0
  0
LINE
  5
18D02
330
18C7A
100
AcDbEntity
  8
細線
 48
50.0
100
AcDbLine
 10
2076.970593930115
 20
1345.890409513813
 30
0.0
 11
2096.970601231289
 21
1345.890451063353
 31
0.0
  0
LINE
  5
18D03
330
18C7A
100
AcDbEntity
  8
細線
 48
50.0
100
AcDbLine
 10
2096.970556362348
 20
1354.493912699161
 30
0.0
 11
2096.970601231289
 21
1345.890451063353
 31
0.0
  0
LINE
  5
18D04
330
18C7A
100
AcDbEntity
  8
細線
 48
50.0
100
AcDbLine
 10
2741.970584622936
 20
1371.644487209287
 30
0.0
 11
2741.970584622936
 21
1376.494487209284
 31
0.0
  0
LINE
  5
18D05
330
18C7A
100
AcDbEntity
  8
細線
 48
50.0
100
AcDbLine
 10
2741.970584622936
 20
1376.494487209284
 30
0.0
 11
2756.970584622934
 21
1376.494487209285
 31
0.0
  0
LINE
  5
18D06
330
18C7A
100
AcDbEntity
  8
細線
 48
50.0
100
AcDbLine
 10
2756.970584622934
 20
1376.494487209285
 30
0.0
 11
2756.970596256909
 21
1383.494487209331
 31
0.0
  0
LINE
  5
18D07
330
18C7A
100
AcDbEntity
  8
細線
 48
50.0
100
AcDbLine
 10
2756.970596256909
 20
1383.494487209331
 30
0.0
 11
2771.970594427439
 21
1383.494487209329
 31
0.0
  0
LINE
  5
18D08
330
18C7A
100
AcDbEntity
  8
細線
 48
50.0
100
AcDbLine
 10
2771.970594427439
 20
1383.494487209329
 30
0.0
 11
2771.970584125617
 21
1354.494281037055
 31
0.0
  0
LINE
  5
18D09
330
18C7A
100
AcDbEntity
  8
細線
 48
50.0
100
AcDbLine
 10
2458.070304175992
 20
1354.494278397076
 30
0.0
 11
2389.470863838818
 21
1354.494283787084
 31
0.0
  0
LINE
  5
18D0A
330
18C7A
100
AcDbEntity
  8
細線
 48
50.0
100
AcDbLine
 10
2096.970556362348
 20
1354.493912699161
 30
0.0
 11
2108.203245717057
 21
1354.494095652309
 31
0.0
  0
ARC
  5
18D0B
330
18C7A
100
AcDbEntity
  8
細線
 48
50.0
100
AcDbCircle
 10
2114.785538024393
 20
1353.294259565922
 30
0.0
 40
1.8
100
AcDbArc
 50
270.0006665777295
 51
345.000555481349
  0
LINE
  5
18D0C
330
18C7A
100
AcDbEntity
  8
細線
 48
50.0
100
AcDbLine
 10
2116.771971470473
 20
1353.753100023201
 30
0.0
 11
2116.524209028273
 21
1352.828402141094
 31
0.0
  0
LINE
  5
18D0D
330
18C7A
100
AcDbEntity
  8
細線
 48
50.0
100
AcDbLine
 10
2114.785558965548
 20
1351.494259566043
 30
0.0
 11
2111.155631546781
 21
1351.494217335563
 31
0.0
  0
ARC
  5
18D0E
330
18C7A
100
AcDbEntity
  8
細線
 48
50.0
100
AcDbCircle
 10
2111.155610605627
 20
1353.29421733544
 30
0.0
 40
1.8
100
AcDbArc
 50
195.0010443049965
 51
270.0006665777295
  0
LINE
  5
18D0F
330
18C7A
100
AcDbEntity
  8
細線
 48
50.0
100
AcDbLine
 10
2109.169183113368
 20
1353.752932303007
 30
0.0
 11
2109.416952609882
 21
1352.828311364425
 31
0.0
  0
ARC
  5
18D10
330
18C7A
100
AcDbEntity
  8
細線
 48
50.0
100
AcDbCircle
 10
2108.203262004622
 20
1353.494095652444
 30
0.0
 40
1.0
100
AcDbArc
 50
15.00104430499651
 51
90.00093320877969
  0
LINE
  5
18D11
330
18C7A
100
AcDbEntity
  8
細線
 48
50.0
100
AcDbLine
 10
2117.737892825577
 20
1354.494290342714
 30
0.0
 11
2118.679652976481
 21
1354.494296916564
 31
0.0
  0
ARC
  5
18D12
330
18C7A
100
AcDbEntity
  8
細線
 48
50.0
100
AcDbCircle
 10
2117.737899805961
 20
1353.49429034274
 30
0.0
 40
1.0
100
AcDbArc
 50
90.0003999466794
 51
165.000555481349
  0
LINE
  5
18D13
330
18C7A
100
AcDbEntity
  8
細線
 48
50.0
100
AcDbLine
 10
2669.470584622926
 20
1354.494281037055
 30
0.0
 11
2771.970584125617
 21
1354.494281037055
 31
0.0
  0
LINE
  5
18D14
330
18C7A
100
AcDbEntity
  8
細線
 48
50.0
100
AcDbLine
 10
2179.47061994182
 20
1354.494289224422
 30
0.0
 11
2118.370558714898
 21
1354.494296916564
 31
0.0
  0
LINE
  5
18D15
330
18C7A
100
AcDbEntity
  8
細線
 48
50.0
100
AcDbLine
 10
2599.470584622926
 20
1354.494281037057
 30
0.0
 11
2529.470584622926
 21
1354.494281037055
 31
0.0
  0
LINE
  5
18D16
330
18C7A
100
AcDbEntity
  8
細線
 48
50.0
100
AcDbLine
 10
2319.470584622926
 20
1354.494281037054
 30
0.0
 11
2249.470567335051
 21
1354.494281037057
 31
0.0
  0
ARC
  5
18D17
330
18C7A
100
AcDbEntity
  8
細線
 48
50.0
100
AcDbCircle
 10
2756.170589276533
 20
1387.694269174466
 30
0.0
 40
0.8
100
AcDbArc
 50
359.9997333689499
 51
89.99986668437072
  0
ARC
  5
18D18
330
18C7A
100
AcDbEntity
  8
細線
 48
50.0
100
AcDbCircle
 10
2763.770596101631
 20
1387.694280343081
 30
0.0
 40
0.8
100
AcDbArc
 50
90.00014387753465
 51
179.9997333689498
  0
LINE
  5
18D19
330
18C7A
100
AcDbEntity
  8
細線
 48
50.0
100
AcDbLine
 10
2756.170591137969
 20
1388.494269174465
 30
0.0
 11
2750.970589276525
 21
1388.494269174465
 31
0.0
  0
ARC
  5
18D1A
330
18C7A
100
AcDbEntity
  8
細線
 48
50.0
100
AcDbCircle
 10
2757.670589276524
 20
1386.194269174464
 30
0.0
 40
0.7
100
AcDbArc
 50
180.0
 51
270.0
  0
ARC
  5
18D1B
330
18C7A
100
AcDbEntity
  8
細線
 48
50.0
100
AcDbCircle
 10
2762.270589276524
 20
1386.194269174464
 30
0.0
 40
0.7
100
AcDbArc
 50
270.0
 51
0.0
  0
LINE
  5
18D1C
330
18C7A
100
AcDbEntity
  8
細線
 48
50.0
100
AcDbLine
 10
2762.970589276525
 20
1386.194269174464
 30
0.0
 11
2762.970596101639
 21
1387.694284065954
 31
0.0
  0
LINE
  5
18D1D
330
18C7A
100
AcDbEntity
  8
細線
 48
50.0
100
AcDbLine
 10
2757.670589276524
 20
1385.494269174465
 30
0.0
 11
2762.270589276524
 21
1385.494269174465
 31
0.0
  0
LINE
  5
18D1E
330
18C7A
100
AcDbEntity
  8
細線
 48
50.0
100
AcDbLine
 10
2756.970589276525
 20
1387.694269174466
 30
0.0
 11
2756.970589276525
 21
1386.194269174464
 31
0.0
  0
LINE
  5
18D1F
330
18C7A
100
AcDbEntity
  8
細線
 48
50.0
100
AcDbLine
 10
3382.570589276527
 20
1418.494269174465
 30
0.0
 11
2745.970589276525
 21
1418.494269174463
 31
0.0
  0
LINE
  5
18D20
330
18C7A
100
AcDbEntity
  8
細線
 48
50.0
100
AcDbLine
 10
3408.470589276525
 20
1413.494269174467
 30
0.0
 11
3392.570589276527
 21
1413.494269174465
 31
0.0
  0
LINE
  5
18D21
330
18C7A
100
AcDbEntity
  8
細線
 48
50.0
100
AcDbLine
 10
3392.570589276526
 20
1413.494269174465
 30
0.0
 11
3382.570589276527
 21
1418.494269174465
 31
0.0
  0
LINE
  5
18D22
330
18C7A
100
AcDbEntity
  8
細線
100
AcDbLine
 10
2993.470589276525
 20
1388.494269174465
 30
0.0
 11
2993.470589276525
 21
1417.794269174464
 31
0.0
  0
LINE
  5
18D23
330
18C7A
100
AcDbEntity
  8
細線
100
AcDbLine
 10
2993.470589276525
 20
1417.794269174464
 30
0.0
 11
3013.470589276525
 21
1417.794269174464
 31
0.0
  0
LINE
  5
18D24
330
18C7A
100
AcDbEntity
  8
細線
100
AcDbLine
 10
3013.470589276525
 20
1388.494269174465
 30
0.0
 11
3013.470589276525
 21
1417.794269174464
 31
0.0
  0
LINE
  5
18D25
330
18C7A
100
AcDbEntity
  8
細線
100
AcDbLine
 10
3170.720589276524
 20
1388.494269174465
 30
0.0
 11
3100.720589276523
 21
1388.494269174465
 31
0.0
  0
LINE
  5
18D26
330
18C7A
100
AcDbEntity
  8
細線
 48
50.0
100
AcDbLine
 10
2890.720589276525
 20
1388.494269174465
 30
0.0
 11
2763.766368849365
 21
1388.494269174465
 31
0.0
  0
LINE
  5
18D27
330
18C7A
100
AcDbEntity
  8
細線
100
AcDbLine
 10
3030.720589276525
 20
1388.494269174465
 30
0.0
 11
2960.720589276525
 21
1388.494269174465
 31
0.0
  0
LINE
  5
18D28
330
18C7A
100
AcDbEntity
  8
細線
 48
50.0
100
AcDbLine
 10
2750.970589276525
 20
1380.494269174465
 30
0.0
 11
2750.970589276525
 21
1388.494269174465
 31
0.0
  0
LINE
  5
18D29
330
18C7A
100
AcDbEntity
  8
細線
 48
50.0
100
AcDbLine
 10
2730.970589276524
 20
1380.494269174467
 30
0.0
 11
2750.970589276525
 21
1380.494269174465
 31
0.0
  0
LINE
  5
18D2A
330
18C7A
100
AcDbEntity
  8
細線
 48
50.0
100
AcDbLine
 10
2745.970589276525
 20
1418.494269174465
 30
0.0
 11
2745.970589276525
 21
1413.494269174465
 31
0.0
  0
LINE
  5
18D2B
330
18C7A
100
AcDbEntity
  8
細線
 48
50.0
100
AcDbLine
 10
2730.970589276525
 20
1418.494269174463
 30
0.0
 11
2745.970589276525
 21
1418.494269174465
 31
0.0
  0
LINE
  5
18D2C
330
18C7A
100
AcDbEntity
  8
細線
 48
50.0
100
AcDbLine
 10
2730.970589276524
 20
1380.494269174467
 30
0.0
 11
2730.970589276525
 21
1418.494269174463
 31
0.0
  0
LINE
  5
18D2D
330
18C7A
100
AcDbEntity
  8
細線
100
AcDbLine
 10
3398.970589276523
 20
1388.494269174465
 30
0.0
 11
3240.720589276525
 21
1388.494269174465
 31
0.0
  0
LINE
  5
18D2E
330
18C7A
100
AcDbEntity
  8
細線
 48
50.0
100
AcDbLine
 10
3408.470589276525
 20
1413.494269174467
 30
0.0
 11
3408.470589276524
 21
1388.494269174465
 31
0.0
  0
TEXT
  5
18D2F
330
18C7A
100
AcDbEntity
  8
部品1
100
AcDbText
 10
1860.154865991392
 20
46.99880823813145
 30
0.0
 40
135.0
  1
平面図
  7
STYLE2
100
AcDbText
  0
LWPOLYLINE
  5
18D30
330
18C7A
100
AcDbEntity
  8
部品1
100
AcDbPolyline
 90
        4
 70
     1
 43
0.0
 10
1770.23525616235
 20
239.8923374566548
 10
1770.23525616235
 20
0.0000159111223184
 10
2533.705922390791
 20
0.0000159111223184
 10
2533.705922390791
 20
239.8923374566548
  0
LINE
  5
18D31
330
18C7A
100
AcDbEntity
  8
部品1
100
AcDbLine
 10
1534.470589276487
 20
3154.494269174626
 30
0.0
 11
2769.470589276552
 21
3154.494269174626
 31
0.0
  0
LINE
  5
18D32
330
18C7A
100
AcDbEntity
  8
部品1
 48
50.0
100
AcDbLine
 10
1311.970589276523
 20
1420.494269174462
 30
0.0
 11
3411.970589276523
 21
1420.494269174465
 31
0.0
  0
LINE
  5
18D33
330
18C7A
100
AcDbEntity
  8
部品1
 48
50.0
100
AcDbLine
 10
471.9705892765232
 20
1392.494269174465
 30
0.0
 11
1311.970589276523
 21
1392.494269174465
 31
0.0
  0
DIMENSION
  5
18D34
330
18C7A
100
AcDbEntity
  8
寸法
100
AcDbDimension
  2
*D14
 10
2710.234916278077
 20
2488.887829538828
 30
0.0
 11
2338.318822490183
 21
2488.887829538828
 31
0.0
 12
-3742.925985830444
 22
-6453.628869860112
 32
0.0
 70
   128
 71
     5
 42
1231.00000000007
  3
INABA_S40G
100
AcDbAlignedDimension
 13
1536.470589276486
 23
2702.494269174557
 33
0.0
 14
2767.470589276556
 24
2702.494269174549
 34
0.0
100
AcDbRotatedDimension
1001
ACAD
1000
DSTYLE
1002
{
1002
}
  0
LINE
  5
18D35
330
18C7A
100
AcDbEntity
  8
部品1
100
AcDbLine
 10
1536.470589276487
 20
2702.494269174557
 30
0.0
 11
2767.470589276554
 21
2702.494269174615
 31
0.0
  0
LINE
  5
18D36
330
18C7A
100
AcDbEntity
  8
部品1
100
AcDbLine
 10
1536.470589276487
 20
3152.494269174557
 30
0.0
 11
2767.470589276556
 21
3152.494269174615
 31
0.0
  0
LINE
  5
18D37
330
18C7A
100
AcDbEntity
  8
細線
 48
50.0
100
AcDbLine
 10
1508.470589276487
 20
3152.494269174558
 30
0.0
 11
445.4705892765559
 21
2702.494269174509
 31
0.0
  0
LINE
  5
18D38
330
18C7A
100
AcDbEntity
  8
細線
 48
50.0
100
AcDbLine
 10
1508.470589276487
 20
2702.494269174558
 30
0.0
 11
445.4705892765542
 21
3152.494269174509
 31
0.0
  0
LINE
  5
18D39
330
18C7A
100
AcDbEntity
  8
部品1
100
AcDbLine
 10
1556.970589276487
 20
3172.494269174611
 30
0.0
 11
1556.970589276487
 21
3154.494269174611
 31
0.0
  0
LINE
  5
18D3A
330
18C7A
100
AcDbEntity
  8
部品1
100
AcDbLine
 10
1556.970589276487
 20
3172.494269174611
 30
0.0
 11
1550.970589276487
 21
3172.494269174611
 31
0.0
  0
LINE
  5
18D3B
330
18C7A
100
AcDbEntity
  8
部品1
100
AcDbLine
 10
1534.470589276487
 20
3146.494269174608
 30
0.0
 11
1509.470589276487
 21
3146.494269174611
 31
0.0
  0
LINE
  5
18D3C
330
18C7A
100
AcDbEntity
  8
部品1
100
AcDbLine
 10
1486.970589276487
 20
3172.494269174611
 30
0.0
 11
1486.970589276487
 21
3154.494269174611
 31
0.0
  0
LINE
  5
18D3D
330
18C7A
100
AcDbEntity
  8
部品1
100
AcDbLine
 10
1492.970589276487
 20
3172.494269174611
 30
0.0
 11
1486.970589276487
 21
3172.494269174611
 31
0.0
  0
LINE
  5
18D3E
330
18C7A
100
AcDbEntity
  8
部品1
100
AcDbLine
 10
1534.470589276487
 20
2702.494269174615
 30
0.0
 11
1509.470589276487
 21
2702.494269174615
 31
0.0
  0
LINE
  5
18D3F
330
18C7A
100
AcDbEntity
  8
部品1
 48
50.0
100
AcDbLine
 10
1536.470589276487
 20
3152.494269174611
 30
0.0
 11
1536.470589276487
 21
2702.494269174615
 31
0.0
  0
LINE
  5
18D40
330
18C7A
100
AcDbEntity
  8
部品1
 48
50.0
100
AcDbLine
 10
1508.470589276487
 20
3152.494269174607
 30
0.0
 11
1508.470589276487
 21
2702.494269174615
 31
0.0
  0
LINE
  5
18D41
330
18C7A
100
AcDbEntity
  8
部品1
 48
50.0
100
AcDbLine
 10
1534.470589276487
 20
3154.494269174618
 30
0.0
 11
1534.470589276487
 21
2702.494269174615
 31
0.0
  0
LINE
  5
18D42
330
18C7A
100
AcDbEntity
  8
部品1
 48
50.0
100
AcDbLine
 10
1509.470589276487
 20
3154.494269174615
 30
0.0
 11
1509.470589276487
 21
2702.494269174615
 31
0.0
  0
LINE
  5
18D43
330
18C7A
100
AcDbEntity
  8
部品1
100
AcDbLine
 10
3411.970589276556
 20
1392.494269174582
 30
0.0
 11
3411.970589276556
 21
1420.494269174596
 31
0.0
  0
LINE
  5
18D44
330
18C7A
100
AcDbEntity
  8
部品1
100
AcDbLine
 10
1311.970589276523
 20
1392.494269174596
 30
0.0
 11
1311.970589276523
 21
1420.494269174596
 31
0.0
  0
LINE
  5
18D45
330
18C7A
100
AcDbEntity
  8
部品1
100
AcDbLine
 10
891.9705892765232
 20
1392.494269174596
 30
0.0
 11
891.9705892765232
 21
1420.494269174596
 31
0.0
  0
LINE
  5
18D46
330
18C7A
100
AcDbEntity
  8
部品1
100
AcDbLine
 10
3411.97058927652
 20
3182.494269174477
 30
0.0
 11
3411.970589276523
 21
3154.494269174477
 31
0.0
  0
LINE
  5
18D47
330
18C7A
100
AcDbEntity
  8
部品1
100
AcDbLine
 10
2571.97058927652
 20
3182.494269174477
 30
0.0
 11
2571.970589276523
 21
3154.494269174477
 31
0.0
  0
LINE
  5
18D48
330
18C7A
100
AcDbEntity
  8
部品1
100
AcDbLine
 10
2991.97058927652
 20
3182.494269174477
 30
0.0
 11
2991.970589276523
 21
3154.494269174477
 31
0.0
  0
LINE
  5
18D49
330
18C7A
100
AcDbEntity
  8
部品1
100
AcDbLine
 10
2151.970589276519
 20
3182.494269174477
 30
0.0
 11
2151.970589276523
 21
3154.494269174477
 31
0.0
  0
LINE
  5
18D4A
330
18C7A
100
AcDbEntity
  8
部品1
100
AcDbLine
 10
1731.970589276519
 20
3182.494269174477
 30
0.0
 11
1731.970589276523
 21
3154.494269174477
 31
0.0
  0
LINE
  5
18D4B
330
18C7A
100
AcDbEntity
  8
部品1
100
AcDbLine
 10
1311.970589276519
 20
3182.494269174477
 30
0.0
 11
1311.970589276523
 21
3154.494269174477
 31
0.0
  0
LINE
  5
18D4C
330
18C7A
100
AcDbEntity
  8
部品1
100
AcDbLine
 10
891.9705892765195
 20
3182.494269174477
 30
0.0
 11
891.9705892765232
 21
3154.494269174477
 31
0.0
  0
LINE
  5
18D4D
330
18C7A
100
AcDbEntity
  8
部品1
100
AcDbLine
 10
471.9705892765232
 20
1392.494269174596
 30
0.0
 11
471.9705892765232
 21
1420.494269174596
 31
0.0
  0
LINE
  5
18D4E
330
18C7A
100
AcDbEntity
  8
部品1
100
AcDbLine
 10
444.9705892765305
 20
1420.494269174558
 30
0.0
 11
3858.970589276556
 21
1420.494269174596
 31
0.0
  0
LINE
  5
18D4F
330
18C7A
100
AcDbEntity
  8
部品1
100
AcDbLine
 10
3831.970589276556
 20
1392.494269174596
 30
0.0
 11
3831.970589276556
 21
1420.494269174596
 31
0.0
  0
LINE
  5
18D50
330
18C7A
100
AcDbEntity
  8
部品1
100
AcDbLine
 10
3858.970589276556
 20
1447.494269174593
 30
0.0
 11
3886.970589276556
 21
1447.494269174593
 31
0.0
  0
LINE
  5
18D51
330
18C7A
100
AcDbEntity
  8
部品1
100
AcDbLine
 10
3858.970589276556
 20
1867.494269174607
 30
0.0
 11
3886.970589276556
 21
1867.494269174607
 31
0.0
  0
LINE
  5
18D52
330
18C7A
100
AcDbEntity
  8
部品1
100
AcDbLine
 10
444.9705892765305
 20
1867.49426917448
 30
0.0
 11
416.9705892765305
 21
1867.49426917448
 31
0.0
  0
LINE
  5
18D53
330
18C7A
100
AcDbEntity
  8
部品1
100
AcDbLine
 10
3830.470589276541
 20
1867.49426917458
 30
0.0
 11
473.4705892765396
 21
1867.49426917448
 31
0.0
  0
LINE
  5
18D54
330
18C7A
100
AcDbEntity
  8
部品1
100
AcDbLine
 10
3830.470589276541
 20
2287.49426917458
 30
0.0
 11
473.4705892765396
 21
2287.49426917448
 31
0.0
  0
LINE
  5
18D55
330
18C7A
100
AcDbEntity
  8
部品1
100
AcDbLine
 10
444.9705892765305
 20
2287.49426917448
 30
0.0
 11
416.9705892765305
 21
2287.49426917448
 31
0.0
  0
LINE
  5
18D56
330
18C7A
100
AcDbEntity
  8
部品1
100
AcDbLine
 10
3858.970589276556
 20
2287.494269174608
 30
0.0
 11
3886.970589276556
 21
2287.494269174608
 31
0.0
  0
LINE
  5
18D57
330
18C7A
100
AcDbEntity
  8
部品1
 48
50.0
100
AcDbLine
 10
2151.970589276551
 20
2702.494269174586
 30
0.0
 11
2151.970589276581
 21
1448.994269174494
 31
0.0
  0
LINE
  5
18D58
330
18C7A
100
AcDbEntity
  8
破線
 48
10.0
100
AcDbLine
 10
2959.470589276535
 20
1472.494269174522
 30
0.0
 11
2176.970589276532
 21
1472.494269174505
 31
0.0
  0
LINE
  5
18D59
330
18C7A
100
AcDbEntity
  8
破線
 48
10.0
100
AcDbLine
 10
3009.47058927653
 20
1448.994269174509
 30
0.0
 11
3009.47058927653
 21
2702.494269174615
 31
0.0
  0
LINE
  5
18D5A
330
18C7A
100
AcDbEntity
  8
破線
 48
10.0
100
AcDbLine
 10
2959.470589276535
 20
1448.994269174505
 30
0.0
 11
2959.470589276531
 21
2702.494269174615
 31
0.0
  0
LINE
  5
18D5B
330
18C7A
100
AcDbEntity
  8
破線
 48
10.0
100
AcDbLine
 10
1344.47058927653
 20
1448.994269174509
 30
0.0
 11
1344.47058927653
 21
2702.494269174615
 31
0.0
  0
LINE
  5
18D5C
330
18C7A
100
AcDbEntity
  8
破線
 48
10.0
100
AcDbLine
 10
1294.470589276534
 20
1448.994269174505
 30
0.0
 11
1294.47058927653
 21
2702.494269174615
 31
0.0
  0
DIMENSION
  5
18D5D
330
18C7A
100
AcDbEntity
  8
寸法
100
AcDbDimension
  2
*D13
 10
1451.234916278005
 20
2488.887829538828
 30
0.0
 11
916.0604668248634
 21
2488.887829538828
 31
0.0
 12
-3742.925985830444
 22
-6453.628869860112
 32
0.0
 70
   128
 71
     5
 42
1062.99999999993
  3
INABA_S40G
100
AcDbAlignedDimension
 13
445.4705892765559
 23
2702.494269174505
 33
0.0
 14
1508.470589276486
 24
2702.494269174558
 34
0.0
100
AcDbRotatedDimension
1001
ACAD
1000
DSTYLE
1002
{
1002
}
  0
LINE
  5
18D5E
330
18C7A
100
AcDbEntity
  8
破線
 48
10.0
100
AcDbLine
 10
1294.470589276534
 20
1472.494269174469
 30
0.0
 11
496.9705892765414
 21
1472.494269174476
 31
0.0
  0
LINE
  5
18D5F
330
18C7A
100
AcDbEntity
  8
部品1
100
AcDbLine
 10
3831.970589276556
 20
3182.494269174604
 30
0.0
 11
3831.970589276556
 21
3154.494269174604
 31
0.0
  0
LINE
  5
18D60
330
18C7A
100
AcDbEntity
  8
部品1
100
AcDbLine
 10
3831.970589276556
 20
3182.494269174626
 30
0.0
 11
3831.970589276556
 21
3154.494269174626
 31
0.0
  0
LINE
  5
18D61
330
18C7A
100
AcDbEntity
  8
部品1
100
AcDbLine
 10
3858.970589276556
 20
3127.494269174607
 30
0.0
 11
3886.970589276556
 21
3127.494269174607
 31
0.0
  0
LINE
  5
18D62
330
18C7A
100
AcDbEntity
  8
部品1
100
AcDbLine
 10
3858.970589276556
 20
2707.494269174608
 30
0.0
 11
3886.970589276556
 21
2707.494269174608
 31
0.0
  0
LINE
  5
18D63
330
18C7A
100
AcDbEntity
  8
部品1
100
AcDbLine
 10
3858.470589276556
 20
3152.494269174604
 30
0.0
 11
3858.470589276556
 21
2702.494269174608
 31
0.0
  0
LINE
  5
18D64
330
18C7A
100
AcDbEntity
  8
部品1
100
AcDbLine
 10
3886.970589276533
 20
1447.494269174593
 30
0.0
 11
3886.970589276531
 21
1392.494269174596
 31
0.0
  0
LINE
  5
18D65
330
18C7A
100
AcDbEntity
  8
部品1
 48
50.0
100
AcDbLine
 10
3830.470589276556
 20
1448.994269174596
 30
0.0
 11
3858.970589276554
 21
1420.494269174596
 31
0.0
  0
LINE
  5
18D66
330
18C7A
100
AcDbEntity
  8
部品1
100
AcDbLine
 10
3886.970589276531
 20
1392.494269174596
 30
0.0
 11
3835.970589276531
 21
1392.494269174596
 31
0.0
  0
LINE
  5
18D67
330
18C7A
100
AcDbEntity
  8
部品1
100
AcDbLine
 10
3858.970589276533
 20
1447.494269174593
 30
0.0
 11
3886.970589276531
 21
1447.494269174593
 31
0.0
  0
LINE
  5
18D68
330
18C7A
100
AcDbEntity
  8
部品1
100
AcDbLine
 10
3886.970589276556
 20
3182.494269174604
 30
0.0
 11
3886.970589276531
 21
1392.494269174596
 31
0.0
  0
DIMENSION
  5
18D69
330
18C7A
100
AcDbEntity
  8
寸法
100
AcDbDimension
  2
*D12
 10
4534.396935010967
 20
1447.494269174593
 30
0.0
 11
4534.396935010965
 21
2287.4942691746
 31
0.0
 12
-3742.925985830444
 22
-6453.628869860112
 32
0.0
 70
   128
  1
4X420=<>
 71
     5
 42
1680.000000000014
  3
INABA_S40G
100
AcDbAlignedDimension
 13
3886.970589276556
 23
3127.494269174607
 33
0.0
 14
3886.970589276531
 24
1447.494269174593
 34
0.0
 50
90.0
100
AcDbRotatedDimension
1001
ACAD
1000
DSTYLE
1002
{
1002
}
  0
LINE
  5
18D6A
330
18C7A
100
AcDbEntity
  8
部品1
100
AcDbLine
 10
3858.970589276556
 20
3154.494269174604
 30
0.0
 11
3858.970589276534
 21
1420.494269174596
 31
0.0
  0
DIMENSION
  5
18D6B
330
18C7A
100
AcDbEntity
  8
寸法
100
AcDbDimension
  2
*D11
 10
4213.82831513858
 20
2607.276453505718
 30
0.0
 11
4113.828315138579
 21
2832.276453505718
 31
0.0
 12
-3742.925985830444
 22
-6453.628869860112
 32
0.0
 71
     5
 42
449.9999999999963
  3
INABA_S40G
100
AcDbAlignedDimension
 13
3858.470589276556
 23
3152.494269174604
 33
0.0
 14
3858.470589276556
 24
2702.494269174608
 34
0.0
 50
90.0
100
AcDbRotatedDimension
1001
ACAD
1000
DSTYLE
1002
{
1002
}
  0
LINE
  5
18D6C
330
18C7A
100
AcDbEntity
  8
部品1
100
AcDbLine
 10
3830.470589276547
 20
2702.494269174608
 30
0.0
 11
3830.470589276556
 21
1448.994269174596
 31
0.0
  0
LINE
  5
18D6D
330
18C7A
100
AcDbEntity
  8
破線
 48
10.0
100
AcDbLine
 10
3806.970589276549
 20
2702.494269174608
 30
0.0
 11
3806.970589276558
 21
1472.494269174593
 31
0.0
  0
LINE
  5
18D6E
330
18C7A
100
AcDbEntity
  8
部品1
100
AcDbLine
 10
2769.470589276556
 20
3146.494269174608
 30
0.0
 11
2794.470589276556
 21
3146.494269174611
 31
0.0
  0
LINE
  5
18D6F
330
18C7A
100
AcDbEntity
  8
部品1
100
AcDbLine
 10
2810.970589276556
 20
3172.494269174611
 30
0.0
 11
2816.970589276556
 21
3172.494269174611
 31
0.0
  0
LINE
  5
18D70
330
18C7A
100
AcDbEntity
  8
部品1
100
AcDbLine
 10
2816.970589276556
 20
3172.494269174611
 30
0.0
 11
2816.970589276556
 21
3154.494269174611
 31
0.0
  0
LINE
  5
18D71
330
18C7A
100
AcDbEntity
  8
部品1
100
AcDbLine
 10
2746.970589276556
 20
3172.494269174611
 30
0.0
 11
2752.970589276556
 21
3172.494269174611
 31
0.0
  0
LINE
  5
18D72
330
18C7A
100
AcDbEntity
  8
部品1
100
AcDbLine
 10
2746.970589276556
 20
3172.494269174611
 30
0.0
 11
2746.970589276556
 21
3154.494269174611
 31
0.0
  0
LINE
  5
18D73
330
18C7A
100
AcDbEntity
  8
部品1
100
AcDbLine
 10
2769.470589276556
 20
2702.494269174615
 30
0.0
 11
2794.470589276556
 21
2702.494269174615
 31
0.0
  0
LINE
  5
18D74
330
18C7A
100
AcDbEntity
  8
部品1
 48
50.0
100
AcDbLine
 10
2794.470589276556
 20
3154.494269174615
 30
0.0
 11
2794.470589276556
 21
2702.494269174615
 31
0.0
  0
LINE
  5
18D75
330
18C7A
100
AcDbEntity
  8
部品1
 48
50.0
100
AcDbLine
 10
2769.470589276554
 20
3154.494269174618
 30
0.0
 11
2769.470589276556
 21
2702.494269174615
 31
0.0
  0
LINE
  5
18D76
330
18C7A
100
AcDbEntity
  8
部品1
 48
50.0
100
AcDbLine
 10
2795.470589276556
 20
3152.494269174607
 30
0.0
 11
2795.470589276556
 21
2702.494269174615
 31
0.0
  0
LINE
  5
18D77
330
18C7A
100
AcDbEntity
  8
部品1
 48
50.0
100
AcDbLine
 10
2767.470589276556
 20
3152.494269174611
 30
0.0
 11
2767.470589276556
 21
2702.494269174615
 31
0.0
  0
LINE
  5
18D78
330
18C7A
100
AcDbEntity
  8
破線
 48
10.0
100
AcDbLine
 10
2176.97058927653
 20
1448.994269174509
 30
0.0
 11
2176.97058927653
 21
2702.494269174588
 31
0.0
  0
LINE
  5
18D79
330
18C7A
100
AcDbEntity
  8
破線
 48
10.0
100
AcDbLine
 10
2126.970589276534
 20
1448.994269174505
 30
0.0
 11
2126.970589276531
 21
2702.494269174586
 31
0.0
  0
LINE
  5
18D7A
330
18C7A
100
AcDbEntity
  8
部品1
100
AcDbLine
 10
2794.470589276556
 20
3154.494269174622
 30
0.0
 11
3858.970589276556
 21
3154.494269174604
 31
0.0
  0
LINE
  5
18D7B
330
18C7A
100
AcDbEntity
  8
細線
 48
50.0
100
AcDbLine
 10
3858.470589276556
 20
2702.494269174608
 30
0.0
 11
2795.470589276556
 21
3152.494269174607
 31
0.0
  0
LINE
  5
18D7C
330
18C7A
100
AcDbEntity
  8
部品1
100
AcDbLine
 10
2795.470589276555
 20
2702.494269174615
 30
0.0
 11
3858.470589276556
 21
2702.494269174608
 31
0.0
  0
LINE
  5
18D7D
330
18C7A
100
AcDbEntity
  8
部品1
100
AcDbLine
 10
2795.470589276556
 20
3152.494269174611
 30
0.0
 11
3858.470589276556
 21
3152.494269174604
 31
0.0
  0
LINE
  5
18D7E
330
18C7A
100
AcDbEntity
  8
細線
 48
50.0
100
AcDbLine
 10
3858.470589276556
 20
3152.494269174604
 30
0.0
 11
2795.470589276555
 21
2702.494269174615
 31
0.0
  0
DIMENSION
  5
18D7F
330
18C7A
100
AcDbEntity
  8
寸法
100
AcDbDimension
  2
*D10
 10
3801.234916278101
 20
2488.887829538937
 30
0.0
 11
3318.360544398907
 21
2488.887829538937
 31
0.0
 12
-3742.925985830444
 22
-6453.628869860112
 32
0.0
 70
   128
 71
     5
 42
1063.000000000012
  3
INABA_S40G
100
AcDbAlignedDimension
 13
2795.470589276555
 23
2702.494269174615
 33
0.0
 14
3858.470589276567
 24
2702.494269174608
 34
0.0
100
AcDbRotatedDimension
1001
ACAD
1000
DSTYLE
1002
{
1002
}
  0
LINE
  5
18D80
330
18C7A
100
AcDbEntity
  8
破線
 48
10.0
100
AcDbLine
 10
3806.970589276556
 20
1472.494269174594
 30
0.0
 11
3009.47058927653
 21
1472.494269174523
 31
0.0
  0
DIMENSION
  5
18D81
330
18C7A
100
AcDbEntity
  8
寸法
100
AcDbDimension
  2
*D9
 10
4534.396935010941
 20
1392.494269174596
 30
0.0
 11
4534.39693501094
 21
1084.008987800356
 31
0.0
 12
-3742.925985830444
 22
-6453.628869860112
 32
0.0
 70
   128
 71
     5
 42
54.99999999999636
  3
INABA_S40G
100
AcDbAlignedDimension
 13
3886.970589276531
 23
1447.494269174593
 33
0.0
 14
3886.970589276531
 24
1392.494269174596
 34
0.0
 50
90.0
100
AcDbRotatedDimension
1001
ACAD
1000
DSTYLE
1002
{
1002
}
  0
LINE
  5
18D82
330
18C7A
100
AcDbEntity
  8
部品1
100
AcDbLine
 10
471.9705892765196
 20
3182.494269174477
 30
0.0
 11
471.9705892765232
 21
3154.494269174477
 31
0.0
  0
LINE
  5
18D83
330
18C7A
100
AcDbEntity
  8
部品1
100
AcDbLine
 10
471.9705892765559
 20
3182.494269174509
 30
0.0
 11
471.9705892765559
 21
3154.494269174509
 31
0.0
  0
LINE
  5
18D84
330
18C7A
100
AcDbEntity
  8
部品1
100
AcDbLine
 10
444.9705892765232
 20
3127.49426917448
 30
0.0
 11
416.9705892765232
 21
3127.49426917448
 31
0.0
  0
LINE
  5
18D85
330
18C7A
100
AcDbEntity
  8
部品1
100
AcDbLine
 10
444.9705892765305
 20
2707.49426917448
 30
0.0
 11
416.9705892765305
 21
2707.49426917448
 31
0.0
  0
LINE
  5
18D86
330
18C7A
100
AcDbEntity
  8
部品1
 48
50.0
100
AcDbLine
 10
445.4705892765542
 20
3152.494269174506
 30
0.0
 11
445.4705892765559
 21
2702.494269174505
 31
0.0
  0
LINE
  5
18D87
330
18C7A
100
AcDbEntity
  8
部品1
 48
50.0
100
AcDbLine
 10
473.470589276545
 20
1448.994269174573
 30
0.0
 11
444.970589276545
 21
1420.494269174574
 31
0.0
  0
LINE
  5
18D88
330
18C7A
100
AcDbEntity
  8
部品1
100
AcDbLine
 10
471.9705892765232
 20
1392.494269174465
 30
0.0
 11
416.9705892765486
 21
1392.494269174465
 31
0.0
  0
LINE
  5
18D89
330
18C7A
100
AcDbEntity
  8
部品1
100
AcDbLine
 10
444.9705892765305
 20
1447.494269174429
 30
0.0
 11
416.9705892765469
 21
1447.494269174429
 31
0.0
  0
LINE
  5
18D8A
330
18C7A
100
AcDbEntity
  8
部品1
100
AcDbLine
 10
444.9705892765305
 20
1447.494269174465
 30
0.0
 11
416.9705892765469
 21
1447.494269174465
 31
0.0
  0
LINE
  5
18D8B
330
18C7A
100
AcDbEntity
  8
部品1
100
AcDbLine
 10
444.9705892765469
 20
1447.49426917448
 30
0.0
 11
416.9705892765469
 21
1447.49426917448
 31
0.0
  0
LINE
  5
18D8C
330
18C7A
100
AcDbEntity
  8
部品1
100
AcDbLine
 10
416.9705892765469
 20
1447.494269174429
 30
0.0
 11
416.9705892765486
 21
1392.494269174433
 31
0.0
  0
LINE
  5
18D8D
330
18C7A
100
AcDbEntity
  8
部品1
100
AcDbLine
 10
416.9705892765196
 20
3182.494269174477
 30
0.0
 11
416.9705892765486
 21
1392.494269174465
 31
0.0
  0
LINE
  5
18D8E
330
18C7A
100
AcDbEntity
  8
部品1
100
AcDbLine
 10
444.9705892765305
 20
1420.494269174556
 30
0.0
 11
444.9705892765559
 21
3154.494269174509
 31
0.0
  0
LINE
  5
18D8F
330
18C7A
100
AcDbEntity
  8
部品1
100
AcDbLine
 10
473.4705892765323
 20
2702.494269174608
 30
0.0
 11
473.470589276545
 21
1448.994269174571
 31
0.0
  0
LINE
  5
18D90
330
18C7A
100
AcDbEntity
  8
破線
 48
10.0
100
AcDbLine
 10
496.9705892765305
 20
2702.494269174608
 30
0.0
 11
496.9705892765451
 21
1472.494269174476
 31
0.0
  0
DIMENSION
  5
18D91
330
18C7A
100
AcDbEntity
  8
寸法
100
AcDbDimension
  2
*D8
 10
3886.970589276531
 20
410.7433333855515
 30
0.0
 11
2168.197775309287
 21
410.7433333855515
 31
0.0
 12
-3742.925985830444
 22
-6453.628869860112
 32
0.0
 70
   128
 71
     5
 42
3469.999999999982
  3
INABA_S40G
100
AcDbAlignedDimension
 13
416.9705892765486
 23
1392.494269174433
 33
0.0
 14
3886.970589276531
 24
1392.49426917456
 34
0.0
100
AcDbRotatedDimension
1001
ACAD
1000
DSTYLE
1002
{
1070
   341
1005
0
1002
}
  0
LINE
  5
18D92
330
18C7A
100
AcDbEntity
  8
部品1
100
AcDbLine
 10
444.9705892765559
 20
3154.494269174624
 30
0.0
 11
1509.470589276487
 21
3154.494269174626
 31
0.0
  0
LINE
  5
18D93
330
18C7A
100
AcDbEntity
  8
部品1
100
AcDbLine
 10
3886.970589276531
 20
1392.494269174596
 30
0.0
 11
3411.970589276556
 21
1392.494269174582
 31
0.0
  0
LINE
  5
18D94
330
18C7A
100
AcDbEntity
  8
部品1
100
AcDbLine
 10
416.9705892765559
 20
3182.494269174509
 30
0.0
 11
3886.970589276556
 21
3182.494269174604
 31
0.0
  0
LINE
  5
18D95
330
18C7A
100
AcDbEntity
  8
部品1
100
AcDbLine
 10
445.4705892765559
 20
2702.494269174509
 30
0.0
 11
1508.470589276487
 21
2702.494269174558
 31
0.0
  0
LINE
  5
18D96
330
18C7A
100
AcDbEntity
  8
細線
 48
50.0
100
AcDbLine
 10
2767.470589276556
 20
3152.494269174611
 30
0.0
 11
1536.470589276487
 21
2702.494269174558
 31
0.0
  0
LINE
  5
18D97
330
18C7A
100
AcDbEntity
  8
部品1
100
AcDbLine
 10
445.4705892765542
 20
3152.494269174509
 30
0.0
 11
1508.470589276485
 21
3152.494269174558
 31
0.0
  0
LINE
  5
18D98
330
18C7A
100
AcDbEntity
  8
細線
 48
50.0
100
AcDbLine
 10
2767.470589276554
 20
2702.494269174615
 30
0.0
 11
1536.470589276485
 21
3152.494269174558
 31
0.0
  0
LINE
  5
18D99
330
18C7A
100
AcDbEntity
  8
破線
 48
10.0
100
AcDbLine
 10
2126.970589276534
 20
1472.494269174502
 30
0.0
 11
1344.47058927653
 21
1472.494269174473
 31
0.0
  0
LINE
  5
18D9A
330
18C7A
100
AcDbEntity
  8
部品1
100
AcDbLine
 10
3830.470589276556
 20
1448.994269174596
 30
0.0
 11
473.4705892764487
 21
1448.994269174476
 31
0.0
  0
DIMENSION
  5
18D9B
330
18C7A
100
AcDbEntity
  8
寸法
100
AcDbDimension
  2
*D7
 10
471.970589276555
 20
3698.302488799491
 30
0.0
 11
108.4853079022819
 21
3698.302488799491
 31
0.0
 12
-3742.925985830444
 22
-6453.628869860112
 32
0.0
 70
   128
 71
     5
 42
55.00000000003456
  3
INABA_S40G
100
AcDbAlignedDimension
 13
416.9705892765205
 23
3182.494269174509
 33
0.0
 14
471.970589276555
 24
3182.494269174509
 34
0.0
100
AcDbRotatedDimension
1001
ACAD
1000
DSTYLE
1002
{
1002
}
  0
DIMENSION
  5
18D9C
330
18C7A
100
AcDbEntity
  8
寸法
100
AcDbDimension
  2
*D6
 10
4534.396935010967
 20
3127.494269174607
 30
0.0
 11
4534.396935010965
 21
3490.979550548844
 31
0.0
 12
-3742.925985830444
 22
-6453.628869860112
 32
0.0
 70
   128
 71
     5
 42
54.99999999999636
  3
INABA_S40G
100
AcDbAlignedDimension
 13
3886.970589276556
 23
3182.494269174604
 33
0.0
 14
3886.970589276556
 24
3127.494269174607
 34
0.0
 50
90.0
100
AcDbRotatedDimension
1001
ACAD
1000
DSTYLE
1002
{
1002
}
  0
DIMENSION
  5
18D9D
330
18C7A
100
AcDbEntity
  8
寸法
100
AcDbDimension
  2
*D5
 10
3886.970589276556
 20
3698.302488799589
 30
0.0
 11
4195.455870650794
 21
3698.302488799589
 31
0.0
 12
-3742.925985830444
 22
-6453.628869860112
 32
0.0
 70
   128
 71
     5
 42
55.0
  3
INABA_S40G
100
AcDbAlignedDimension
 13
3831.970589276556
 23
3182.494269174604
 33
0.0
 14
3886.970589276556
 24
3182.494269174604
 34
0.0
100
AcDbRotatedDimension
1001
ACAD
1000
DSTYLE
1002
{
1002
}
  0
DIMENSION
  5
18D9E
330
18C7A
100
AcDbEntity
  8
寸法
100
AcDbDimension
  2
*D4
 10
3831.970589276556
 20
3698.302488799607
 30
0.0
 11
2151.970589276555
 21
3698.302488799607
 31
0.0
 12
-3742.925985830444
 22
-6453.628869860112
 32
0.0
 70
   128
  1
8X420=<>
 71
     5
 42
3360.000000000001
  3
INABA_S40G
100
AcDbAlignedDimension
 13
471.970589276555
 23
3182.494269174509
 33
0.0
 14
3831.970589276556
 24
3182.494269174604
 34
0.0
100
AcDbRotatedDimension
1001
ACAD
1000
DSTYLE
1002
{
1002
}
  0
DIMENSION
  5
18D9F
330
18C7A
100
AcDbEntity
  8
寸法
100
AcDbDimension
  2
*D3
 10
4899.503876750603
 20
1392.494269174596
 30
0.0
 11
4899.503876750601
 21
2287.4942691746
 31
0.0
 12
-3742.925985830444
 22
-6453.628869860112
 32
0.0
 70
   128
 71
     5
 42
1790.000000000007
  3
INABA_S40G
100
AcDbAlignedDimension
 13
3886.970589276556
 23
3182.494269174604
 33
0.0
 14
3886.970589276531
 24
1392.494269174596
 34
0.0
 50
90.0
100
AcDbRotatedDimension
1001
ACAD
1000
DSTYLE
1002
{
1002
}
  0
ENDBLK
  5
18DA1
330
18C7A
100
AcDbEntity
  8
0
 48
50.0
100
AcDbBlockEnd
  0
BLOCK
  5
1C4CB
330
1C4CA
100
AcDbEntity
  8
0
 48
50.0
100
AcDbBlockBegin
  2
_NONE
 70
     0
 10
0.0
 20
0.0
 30
0.0
  3
_NONE
  1

  0
CIRCLE
  5
1C4CC
330
1C4CA
100
AcDbEntity
  8
0
  6
ByBlock
 62
     0
 48
50.0
100
AcDbCircle
 10
0.0
 20
0.0
 30
0.0
 40
0.25
  0
ENDBLK
  5
1C4CD
330
1C4CA
100
AcDbEntity
  8
0
 48
50.0
100
AcDbBlockEnd
  0
BLOCK
  5
20DEE
330
20DE2
100
AcDbEntity
  8
0
 48
50.0
100
AcDbBlockBegin
  2
*D19
 70
     1
 10
0.0
 20
0.0
 30
0.0
  3
*D19
  1

  0
LINE
  5
24EFE
330
20DE2
100
AcDbEntity
  8
寸法
 62
     0
 48
50.0
370
    -2
100
AcDbLine
 10
10278.6
 20
7614.167509583943
 30
0.0
 11
10278.6
 21
8612.387831642866
 31
0.0
  0
LINE
  5
24EFF
330
20DE2
100
AcDbEntity
  8
寸法
 62
     0
 48
50.0
370
    -2
100
AcDbLine
 10
10323.6
 20
8340.433967677853
 30
0.0
 11
10323.6
 21
8612.387831642866
 31
0.0
  0
LINE
  5
24F00
330
20DE2
100
AcDbEntity
  8
寸法
 62
     0
 48
50.0
370
    -2
100
AcDbLine
 10
10278.6
 20
8552.387831642866
 30
0.0
 11
10178.6
 21
8552.387831642866
 31
0.0
  0
LINE
  5
24F01
330
20DE2
100
AcDbEntity
  8
寸法
 62
     0
 48
50.0
370
    -2
100
AcDbLine
 10
10323.6
 20
8552.387831642866
 30
0.0
 11
10660.94924240492
 21
8552.387831642866
 31
0.0
  0
LINE
  5
24F02
330
20DE2
100
AcDbEntity
  8
寸法
 62
     0
 48
50.0
370
    -2
100
AcDbLine
 10
10278.6
 20
8552.387831642866
 30
0.0
 11
10323.6
 21
8552.387831642866
 31
0.0
  0
INSERT
  5
24F03
330
20DE2
100
AcDbEntity
  8
寸法
 62
     0
 48
50.0
370
    -2
100
AcDbBlockReference
  2
_DOTSMALL
 10
10278.6
 20
8552.387831642866
 30
0.0
 41
100.0
 42
100.0
 43
100.0
  0
INSERT
  5
24F04
330
20DE2
100
AcDbEntity
  8
寸法
 62
     0
 48
50.0
370
    -2
100
AcDbBlockReference
  2
_DOTSMALL
 10
10323.6
 20
8552.387831642866
 30
0.0
 41
100.0
 42
100.0
 43
100.0
 50
180.0
  0
MTEXT
  5
24F05
330
20DE2
100
AcDbEntity
  8
寸法
 62
     7
 48
50.0
100
AcDbMText
 10
10594.77462120246
 20
8652.387831642865
 30
0.0
 40
120.0
 41
0.0
 71
     5
 72
     1
  1
\A1;a
  7
STYLE1
 73
     1
 44
1.0
1001
ACAD
1000
MTEXTBEGIN
1070
    73
1070
     1
1070
    44
1040
1.0
1070
    74
1070
     0
1000
MTEXTEND
  0
POINT
  5
24F06
330
20DE2
100
AcDbEntity
  8
DEFPOINTS
 62
     0
 48
50.0
100
AcDbPoint
 10
10278.6
 20
7594.167509583943
 30
0.0
  0
POINT
  5
24F07
330
20DE2
100
AcDbEntity
  8
DEFPOINTS
 62
     0
 48
50.0
100
AcDbPoint
 10
10323.6
 20
8320.433967677853
 30
0.0
  0
POINT
  5
24F08
330
20DE2
100
AcDbEntity
  8
DEFPOINTS
 62
     0
 48
50.0
100
AcDbPoint
 10
10323.6
 20
8552.387831642866
 30
0.0
  0
ENDBLK
  5
20DEF
330
20DE2
100
AcDbEntity
  8
0
 48
50.0
100
AcDbBlockEnd
  0
BLOCK
  5
20E08
330
20DFC
100
AcDbEntity
  8
0
 48
50.0
100
AcDbBlockBegin
  2
*D20
 70
     1
 10
0.0
 20
0.0
 30
0.0
  3
*D20
  1

  0
LINE
  5
24EF3
330
20DFC
100
AcDbEntity
  8
寸法
 62
     0
 48
50.0
370
    -2
100
AcDbLine
 10
6123.599999999991
 20
8340.433967677856
 30
0.0
 11
6123.599999999991
 21
8612.387831642866
 31
0.0
  0
LINE
  5
24EF4
330
20DFC
100
AcDbEntity
  8
寸法
 62
     0
 48
50.0
370
    -2
100
AcDbLine
 10
6168.599999999991
 20
7614.167509583944
 30
0.0
 11
6168.599999999991
 21
8612.387831642866
 31
0.0
  0
LINE
  5
24EF5
330
20DFC
100
AcDbEntity
  8
寸法
 62
     0
 48
50.0
370
    -2
100
AcDbLine
 10
6168.599999999991
 20
8552.387831642866
 30
0.0
 11
6268.599999999992
 21
8552.387831642866
 31
0.0
  0
LINE
  5
24EF6
330
20DFC
100
AcDbEntity
  8
寸法
 62
     0
 48
50.0
370
    -2
100
AcDbLine
 10
6123.599999999991
 20
8552.387831642866
 30
0.0
 11
5786.250757595074
 21
8552.387831642866
 31
0.0
  0
LINE
  5
24EF7
330
20DFC
100
AcDbEntity
  8
寸法
 62
     0
 48
50.0
370
    -2
100
AcDbLine
 10
6168.599999999991
 20
8552.387831642866
 30
0.0
 11
6123.599999999991
 21
8552.387831642866
 31
0.0
  0
INSERT
  5
24EF8
330
20DFC
100
AcDbEntity
  8
寸法
 62
     0
 48
50.0
370
    -2
100
AcDbBlockReference
  2
_DOTSMALL
 10
6168.599999999991
 20
8552.387831642866
 30
0.0
 41
100.0
 42
100.0
 43
100.0
 50
180.0
  0
INSERT
  5
24EF9
330
20DFC
100
AcDbEntity
  8
寸法
 62
     0
 48
50.0
370
    -2
100
AcDbBlockReference
  2
_DOTSMALL
 10
6123.599999999991
 20
8552.387831642866
 30
0.0
 41
100.0
 42
100.0
 43
100.0
  0
MTEXT
  5
24EFA
330
20DFC
100
AcDbEntity
  8
寸法
 62
     7
 48
50.0
100
AcDbMText
 10
5852.425378797533
 20
8652.387831642865
 30
0.0
 40
120.0
 41
0.0
 71
     5
 72
     1
  1
\A1;a
  7
STYLE1
 73
     1
 44
1.0
1001
ACAD
1000
MTEXTBEGIN
1070
    73
1070
     1
1070
    44
1040
1.0
1070
    74
1070
     0
1000
MTEXTEND
  0
POINT
  5
24EFB
330
20DFC
100
AcDbEntity
  8
DEFPOINTS
 62
     0
 48
50.0
100
AcDbPoint
 10
6123.599999999991
 20
8320.433967677855
 30
0.0
  0
POINT
  5
24EFC
330
20DFC
100
AcDbEntity
  8
DEFPOINTS
 62
     0
 48
50.0
100
AcDbPoint
 10
6168.599999999991
 20
7594.167509583944
 30
0.0
  0
POINT
  5
24EFD
330
20DFC
100
AcDbEntity
  8
DEFPOINTS
 62
     0
 48
50.0
100
AcDbPoint
 10
6168.599999999991
 20
8552.387831642866
 30
0.0
  0
ENDBLK
  5
20E09
330
20DFC
100
AcDbEntity
  8
0
 48
50.0
100
AcDbBlockEnd
  0
BLOCK
  5
2274E
330
22742
100
AcDbEntity
  8
0
 48
50.0
100
AcDbBlockBegin
  2
*D25
 70
     1
 10
0.0
 20
0.0
 30
0.0
  3
*D25
  1

  0
LINE
  5
24EE8
330
22742
100
AcDbEntity
  8
寸法
 62
     0
 48
50.0
370
    -2
100
AcDbLine
 10
5525.665006330058
 20
7669.167509583951
 30
0.0
 11
5233.721909610664
 21
7669.167509583951
 31
0.0
  0
LINE
  5
24EE9
330
22742
100
AcDbEntity
  8
寸法
 62
     0
 48
50.0
370
    -2
100
AcDbLine
 10
6148.599999999991
 20
7594.167509583944
 30
0.0
 11
5233.721909610664
 21
7594.167509583946
 31
0.0
  0
LINE
  5
24EEA
330
22742
100
AcDbEntity
  8
寸法
 62
     0
 48
50.0
370
    -2
100
AcDbLine
 10
5293.721909610663
 20
7669.167509583951
 30
0.0
 11
5293.721909610663
 21
7769.167509583951
 31
0.0
  0
LINE
  5
24EEB
330
22742
100
AcDbEntity
  8
寸法
 62
     0
 48
50.0
370
    -2
100
AcDbLine
 10
5293.721909610663
 20
7594.167509583946
 30
0.0
 11
5293.721909610663
 21
7494.167509583945
 31
0.0
  0
LINE
  5
24EEC
330
22742
100
AcDbEntity
  8
寸法
 62
     0
 48
50.0
370
    -2
100
AcDbLine
 10
5293.721909610663
 20
7669.167509583951
 30
0.0
 11
5293.721909610663
 21
7594.167509583946
 31
0.0
  0
INSERT
  5
24EED
330
22742
100
AcDbEntity
  8
寸法
 62
     0
 48
50.0
370
    -2
100
AcDbBlockReference
  2
_DOTSMALL
 10
5293.721909610663
 20
7669.167509583951
 30
0.0
 41
100.0
 42
100.0
 43
100.0
 50
270.0
  0
INSERT
  5
24EEE
330
22742
100
AcDbEntity
  8
寸法
 62
     0
 48
50.0
370
    -2
100
AcDbBlockReference
  2
_DOTSMALL
 10
5293.721909610663
 20
7594.167509583946
 30
0.0
 41
100.0
 42
100.0
 43
100.0
 50
90.0
  0
MTEXT
  5
24EEF
330
22742
100
AcDbEntity
  8
寸法
 62
     7
 48
50.0
100
AcDbMText
 10
5193.721909610663
 20
7631.66750958395
 30
0.0
 40
120.0
 41
0.0
 71
     5
 72
     1
  1
\A1;c
  7
STYLE1
 11
0.0000000000000001
 21
1.0
 31
0.0
 73
     1
 44
1.0
1001
ACAD
1000
MTEXTBEGIN
1070
    73
1070
     1
1070
    44
1040
1.0
1070
    74
1070
     0
1000
MTEXTEND
  0
POINT
  5
24EF0
330
22742
100
AcDbEntity
  8
DEFPOINTS
 62
     0
 48
50.0
100
AcDbPoint
 10
5545.665006330058
 20
7669.167509583951
 30
0.0
  0
POINT
  5
24EF1
330
22742
100
AcDbEntity
  8
DEFPOINTS
 62
     0
 48
50.0
100
AcDbPoint
 10
6168.599999999991
 20
7594.167509583944
 30
0.0
  0
POINT
  5
24EF2
330
22742
100
AcDbEntity
  8
DEFPOINTS
 62
     0
 48
50.0
100
AcDbPoint
 10
5293.721909610663
 20
7594.167509583946
 30
0.0
  0
ENDBLK
  5
2274F
330
22742
100
AcDbEntity
  8
0
 48
50.0
100
AcDbBlockEnd
  0
BLOCK
  5
22768
330
2275C
100
AcDbEntity
  8
0
 48
50.0
100
AcDbBlockBegin
  2
*D26
 70
     1
 10
0.0
 20
0.0
 30
0.0
  3
*D26
  1

  0
LINE
  5
24EDD
330
2275C
100
AcDbEntity
  8
寸法
 62
     0
 48
50.0
370
    -2
100
AcDbLine
 10
6148.599999999991
 20
6054.167509583944
 30
0.0
 11
5233.721909610664
 21
6054.167509583944
 31
0.0
  0
LINE
  5
24EDE
330
2275C
100
AcDbEntity
  8
寸法
 62
     0
 48
50.0
370
    -2
100
AcDbLine
 10
5525.665006330062
 20
5999.167509583969
 30
0.0
 11
5233.721909610664
 21
5999.167509583969
 31
0.0
  0
LINE
  5
24EDF
330
2275C
100
AcDbEntity
  8
寸法
 62
     0
 48
50.0
370
    -2
100
AcDbLine
 10
5293.721909610663
 20
6054.167509583944
 30
0.0
 11
5293.721909610664
 21
6154.167509583944
 31
0.0
  0
LINE
  5
24EE0
330
2275C
100
AcDbEntity
  8
寸法
 62
     0
 48
50.0
370
    -2
100
AcDbLine
 10
5293.721909610663
 20
5999.167509583969
 30
0.0
 11
5293.721909610663
 21
5899.167509583969
 31
0.0
  0
LINE
  5
24EE1
330
2275C
100
AcDbEntity
  8
寸法
 62
     0
 48
50.0
370
    -2
100
AcDbLine
 10
5293.721909610663
 20
6054.167509583944
 30
0.0
 11
5293.721909610663
 21
5999.167509583969
 31
0.0
  0
INSERT
  5
24EE2
330
2275C
100
AcDbEntity
  8
寸法
 62
     0
 48
50.0
370
    -2
100
AcDbBlockReference
  2
_DOTSMALL
 10
5293.721909610663
 20
6054.167509583944
 30
0.0
 41
100.0
 42
100.0
 43
100.0
 50
270.0
  0
INSERT
  5
24EE3
330
2275C
100
AcDbEntity
  8
寸法
 62
     0
 48
50.0
370
    -2
100
AcDbBlockReference
  2
_DOTSMALL
 10
5293.721909610663
 20
5999.167509583969
 30
0.0
 41
100.0
 42
100.0
 43
100.0
 50
90.0
  0
MTEXT
  5
24EE4
330
2275C
100
AcDbEntity
  8
寸法
 62
     7
 48
50.0
100
AcDbMText
 10
5193.721909610663
 20
6026.667509583958
 30
0.0
 40
120.0
 41
0.0
 71
     5
 72
     1
  1
\A1;b
  7
STYLE1
 11
0.0000000000000001
 21
1.0
 31
0.0
 73
     1
 44
1.0
1001
ACAD
1000
MTEXTBEGIN
1070
    73
1070
     1
1070
    44
1040
1.0
1070
    74
1070
     0
1000
MTEXTEND
  0
POINT
  5
24EE5
330
2275C
100
AcDbEntity
  8
DEFPOINTS
 62
     0
 48
50.0
100
AcDbPoint
 10
6168.599999999991
 20
6054.167509583944
 30
0.0
  0
POINT
  5
24EE6
330
2275C
100
AcDbEntity
  8
DEFPOINTS
 62
     0
 48
50.0
100
AcDbPoint
 10
5545.665006330062
 20
5999.167509583969
 30
0.0
  0
POINT
  5
24EE7
330
2275C
100
AcDbEntity
  8
DEFPOINTS
 62
     0
 48
50.0
100
AcDbPoint
 10
5293.721909610663
 20
5999.167509583969
 30
0.0
  0
ENDBLK
  5
22769
330
2275C
100
AcDbEntity
  8
0
 48
50.0
100
AcDbBlockEnd
  0
BLOCK
  5
248A9
330
2489F
100
AcDbEntity
  8
0
 48
50.0
100
AcDbBlockBegin
  2
*D27
 70
     1
 10
0.0
 20
0.0
 30
0.0
  3
*D27
  1

  0
LINE
  5
24ED4
330
2489F
100
AcDbEntity
  8
寸法
 62
     0
 48
50.0
370
    -2
100
AcDbLine
 10
6168.600000000002
 20
7614.167509583947
 30
0.0
 11
6168.600000000002
 21
8612.387831642866
 31
0.0
  0
LINE
  5
24ED5
330
2489F
100
AcDbEntity
  8
寸法
 62
     0
 48
50.0
370
    -2
100
AcDbLine
 10
10278.6
 20
7614.167509583947
 30
0.0
 11
10278.6
 21
8612.387831642866
 31
0.0
  0
LINE
  5
24ED6
330
2489F
100
AcDbEntity
  8
寸法
 62
     0
 48
50.0
370
    -2
100
AcDbLine
 10
6168.600000000002
 20
8552.387831642866
 30
0.0
 11
10278.6
 21
8552.387831642866
 31
0.0
  0
INSERT
  5
24ED7
330
2489F
100
AcDbEntity
  8
寸法
 62
     0
 48
50.0
370
    -2
100
AcDbBlockReference
  2
_DOTSMALL
 10
6168.600000000002
 20
8552.387831642866
 30
0.0
 41
100.0
 42
100.0
 43
100.0
 50
180.0
  0
INSERT
  5
24ED8
330
2489F
100
AcDbEntity
  8
寸法
 62
     0
 48
50.0
370
    -2
100
AcDbBlockReference
  2
_DOTSMALL
 10
10278.6
 20
8552.387831642866
 30
0.0
 41
100.0
 42
100.0
 43
100.0
  0
MTEXT
  5
24ED9
330
2489F
100
AcDbEntity
  8
寸法
 62
     7
 48
50.0
100
AcDbMText
 10
8223.600000000002
 20
8652.387831642865
 30
0.0
 40
120.0
 41
0.0
 71
     5
 72
     1
  1
\A1;4110
  7
STYLE1
 73
     1
 44
1.0
1001
ACAD
1000
MTEXTBEGIN
1070
    73
1070
     1
1070
    44
1040
1.0
1070
    74
1070
     0
1000
MTEXTEND
  0
POINT
  5
24EDA
330
2489F
100
AcDbEntity
  8
DEFPOINTS
 62
     0
 48
50.0
100
AcDbPoint
 10
6168.600000000002
 20
7594.167509583947
 30
0.0
  0
POINT
  5
24EDB
330
2489F
100
AcDbEntity
  8
DEFPOINTS
 62
     0
 48
50.0
100
AcDbPoint
 10
10278.6
 20
7594.167509583947
 30
0.0
  0
POINT
  5
24EDC
330
2489F
100
AcDbEntity
  8
DEFPOINTS
 62
     0
 48
50.0
100
AcDbPoint
 10
10278.6
 20
8552.387831642866
 30
0.0
  0
ENDBLK
  5
248AA
330
2489F
100
AcDbEntity
  8
0
 48
50.0
100
AcDbBlockEnd
  0
BLOCK
  5
248B5
330
248AB
100
AcDbEntity
  8
0
 48
50.0
100
AcDbBlockBegin
  2
*D28
 70
     1
 10
0.0
 20
0.0
 30
0.0
  3
*D28
  1

  0
LINE
  5
24ECB
330
248AB
100
AcDbEntity
  8
寸法
 62
     0
 48
50.0
370
    -2
100
AcDbLine
 10
10155.6
 20
7541.167509583947
 30
0.0
 11
10155.6
 21
8380.433967677857
 31
0.0
  0
LINE
  5
24ECC
330
248AB
100
AcDbEntity
  8
寸法
 62
     0
 48
50.0
370
    -2
100
AcDbLine
 10
7695.600000000002
 20
7541.167509583947
 30
0.0
 11
7695.600000000002
 21
8380.433967677857
 31
0.0
  0
LINE
  5
24ECD
330
248AB
100
AcDbEntity
  8
寸法
 62
     0
 48
50.0
370
    -2
100
AcDbLine
 10
10155.6
 20
8320.433967677859
 30
0.0
 11
7695.600000000002
 21
8320.433967677859
 31
0.0
  0
INSERT
  5
24ECE
330
248AB
100
AcDbEntity
  8
寸法
 62
     0
 48
50.0
370
    -2
100
AcDbBlockReference
  2
_DOTSMALL
 10
10155.6
 20
8320.433967677859
 30
0.0
 41
100.0
 42
100.0
 43
100.0
  0
INSERT
  5
24ECF
330
248AB
100
AcDbEntity
  8
寸法
 62
     0
 48
50.0
370
    -2
100
AcDbBlockReference
  2
_DOTSMALL
 10
7695.600000000002
 20
8320.433967677859
 30
0.0
 41
100.0
 42
100.0
 43
100.0
 50
180.0
  0
MTEXT
  5
24ED0
330
248AB
100
AcDbEntity
  8
寸法
 62
     7
 48
50.0
100
AcDbMText
 10
8925.600000000002
 20
8420.445778701481
 30
0.0
 40
120.0
 41
0.0
 71
     5
 72
     1
  1
\A1;2460
  7
STYLE1
 73
     1
 44
1.0
1001
ACAD
1000
MTEXTBEGIN
1070
    73
1070
     1
1070
    44
1040
1.0
1070
    74
1070
     0
1000
MTEXTEND
  0
POINT
  5
24ED1
330
248AB
100
AcDbEntity
  8
DEFPOINTS
 62
     0
 48
50.0
100
AcDbPoint
 10
10155.6
 20
7521.167509583948
 30
0.0
  0
POINT
  5
24ED2
330
248AB
100
AcDbEntity
  8
DEFPOINTS
 62
     0
 48
50.0
100
AcDbPoint
 10
7695.600000000002
 20
7521.167509583948
 30
0.0
  0
POINT
  5
24ED3
330
248AB
100
AcDbEntity
  8
DEFPOINTS
 62
     0
 48
50.0
100
AcDbPoint
 10
7695.600000000002
 20
8320.433967677859
 30
0.0
  0
ENDBLK
  5
248B6
330
248AB
100
AcDbEntity
  8
0
 48
50.0
100
AcDbBlockEnd
  0
BLOCK
  5
248C1
330
248B7
100
AcDbEntity
  8
0
 48
50.0
100
AcDbBlockBegin
  2
*D29
 70
     1
 10
0.0
 20
0.0
 30
0.0
  3
*D29
  1

  0
LINE
  5
24F81
330
248B7
100
AcDbEntity
  8
寸法
 62
     0
 48
50.0
370
    -2
100
AcDbLine
 10
8633.60000000001
 20
6931.167509583947
 30
0.0
 11
8633.60000000001
 21
8136.776326254196
 31
0.0
  0
LINE
  5
24F82
330
248B7
100
AcDbEntity
  8
寸法
 62
     0
 48
50.0
370
    -2
100
AcDbLine
 10
7813.600000000009
 20
6931.167509583947
 30
0.0
 11
7813.600000000009
 21
8136.776326254196
 31
0.0
  0
LINE
  5
24F83
330
248B7
100
AcDbEntity
  8
寸法
 62
     0
 48
50.0
370
    -2
100
AcDbLine
 10
8633.60000000001
 20
8076.776326254195
 30
0.0
 11
7813.600000000009
 21
8076.776326254195
 31
0.0
  0
INSERT
  5
24F84
330
248B7
100
AcDbEntity
  8
寸法
 62
     0
 48
50.0
370
    -2
100
AcDbBlockReference
  2
_DOTSMALL
 10
8633.60000000001
 20
8076.776326254195
 30
0.0
 41
100.0
 42
100.0
 43
100.0
  0
INSERT
  5
24F85
330
248B7
100
AcDbEntity
  8
寸法
 62
     0
 48
50.0
370
    -2
100
AcDbBlockReference
  2
_DOTSMALL
 10
7813.600000000009
 20
8076.776326254195
 30
0.0
 41
100.0
 42
100.0
 43
100.0
 50
180.0
  0
MTEXT
  5
24F86
330
248B7
100
AcDbEntity
  8
寸法
 62
     7
 48
50.0
100
AcDbMText
 10
8223.60000000001
 20
8176.788137277817
 30
0.0
 40
120.0
 41
0.0
 71
     5
 72
     1
  1
\A1;820
  7
STYLE1
 73
     1
 44
1.0
1001
ACAD
1000
MTEXTBEGIN
1070
    73
1070
     1
1070
    44
1040
1.0
1070
    74
1070
     0
1000
MTEXTEND
  0
POINT
  5
24F87
330
248B7
100
AcDbEntity
  8
DEFPOINTS
 62
     0
 48
50.0
100
AcDbPoint
 10
8633.60000000001
 20
6911.167509583947
 30
0.0
  0
POINT
  5
24F88
330
248B7
100
AcDbEntity
  8
DEFPOINTS
 62
     0
 48
50.0
100
AcDbPoint
 10
7813.600000000009
 20
6911.167509583947
 30
0.0
  0
POINT
  5
24F89
330
248B7
100
AcDbEntity
  8
DEFPOINTS
 62
     0
 48
50.0
100
AcDbPoint
 10
7813.600000000009
 20
8076.776326254195
 30
0.0
  0
ENDBLK
  5
248C2
330
248B7
100
AcDbEntity
  8
0
 48
50.0
100
AcDbBlockEnd
  0
BLOCK
  5
248CC
330
248C3
100
AcDbEntity
  8
0
 48
50.0
100
AcDbBlockBegin
  2
*D30
 70
     1
 10
0.0
 20
0.0
 30
0.0
  3
*D30
  1

  0
LINE
  5
24F93
330
248C3
100
AcDbEntity
  8
寸法
 62
     0
 48
50.0
370
    -2
100
AcDbLine
 10
7813.600000000009
 20
6931.167509583947
 30
0.0
 11
7813.600000000009
 21
8136.776326254196
 31
0.0
  0
LINE
  5
24F94
330
248C3
100
AcDbEntity
  8
寸法
 62
     0
 48
50.0
370
    -2
100
AcDbLine
 10
6993.600000000009
 20
6931.167509583947
 30
0.0
 11
6993.600000000009
 21
8136.776326254196
 31
0.0
  0
LINE
  5
24F95
330
248C3
100
AcDbEntity
  8
寸法
 62
     0
 48
50.0
370
    -2
100
AcDbLine
 10
7813.600000000009
 20
8076.776326254195
 30
0.0
 11
6993.600000000009
 21
8076.776326254195
 31
0.0
  0
INSERT
  5
24F96
330
248C3
100
AcDbEntity
  8
寸法
 62
     0
 48
50.0
370
    -2
100
AcDbBlockReference
  2
_DOTSMALL
 10
7813.600000000009
 20
8076.776326254195
 30
0.0
 41
100.0
 42
100.0
 43
100.0
  0
INSERT
  5
24F97
330
248C3
100
AcDbEntity
  8
寸法
 62
     0
 48
50.0
370
    -2
100
AcDbBlockReference
  2
_DOTSMALL
 10
6993.600000000009
 20
8076.776326254195
 30
0.0
 41
100.0
 42
100.0
 43
100.0
 50
180.0
  0
MTEXT
  5
24F98
330
248C3
100
AcDbEntity
  8
寸法
 62
     7
 48
50.0
100
AcDbMText
 10
7403.60000000001
 20
8176.788137277817
 30
0.0
 40
120.0
 41
0.0
 71
     5
 72
     1
  1
\A1;820
  7
STYLE1
 73
     1
 44
1.0
1001
ACAD
1000
MTEXTBEGIN
1070
    73
1070
     1
1070
    44
1040
1.0
1070
    74
1070
     0
1000
MTEXTEND
  0
POINT
  5
24F99
330
248C3
100
AcDbEntity
  8
DEFPOINTS
 62
     0
 48
50.0
100
AcDbPoint
 10
7813.600000000009
 20
6911.167509583947
 30
0.0
  0
POINT
  5
24F9A
330
248C3
100
AcDbEntity
  8
DEFPOINTS
 62
     0
 48
50.0
100
AcDbPoint
 10
6993.600000000009
 20
6911.167509583947
 30
0.0
  0
POINT
  5
24F9B
330
248C3
100
AcDbEntity
  8
DEFPOINTS
 62
     0
 48
50.0
100
AcDbPoint
 10
6993.600000000009
 20
8076.776326254195
 30
0.0
  0
ENDBLK
  5
248CD
330
248C3
100
AcDbEntity
  8
0
 48
50.0
100
AcDbBlockEnd
  0
BLOCK
  5
248D8
330
248CE
100
AcDbEntity
  8
0
 48
50.0
100
AcDbBlockBegin
  2
*D31
 70
     1
 10
0.0
 20
0.0
 30
0.0
  3
*D31
  1

  0
LINE
  5
24FA5
330
248CE
100
AcDbEntity
  8
寸法
 62
     0
 48
50.0
370
    -2
100
AcDbLine
 10
6923.600000000009
 20
6861.167509583947
 30
0.0
 11
6591.285990614304
 21
6861.167509583947
 31
0.0
  0
LINE
  5
24FA6
330
248CE
100
AcDbEntity
  8
寸法
 62
     0
 48
50.0
370
    -2
100
AcDbLine
 10
6722.765475140903
 20
7594.167509583947
 30
0.0
 11
6591.285990614304
 21
7594.167509583947
 31
0.0
  0
LINE
  5
24FA7
330
248CE
100
AcDbEntity
  8
寸法
 62
     0
 48
50.0
370
    -2
100
AcDbLine
 10
6651.285990614304
 20
6861.167509583947
 30
0.0
 11
6651.285990614304
 21
7594.167509583947
 31
0.0
  0
INSERT
  5
24FA8
330
248CE
100
AcDbEntity
  8
寸法
 62
     0
 48
50.0
370
    -2
100
AcDbBlockReference
  2
_DOTSMALL
 10
6651.285990614304
 20
6861.167509583947
 30
0.0
 41
100.0
 42
100.0
 43
100.0
 50
270.0
  0
INSERT
  5
24FA9
330
248CE
100
AcDbEntity
  8
寸法
 62
     0
 48
50.0
370
    -2
100
AcDbBlockReference
  2
_DOTSMALL
 10
6651.285990614304
 20
7594.167509583947
 30
0.0
 41
100.0
 42
100.0
 43
100.0
 50
90.0
  0
MTEXT
  5
24FAA
330
248CE
100
AcDbEntity
  8
寸法
 62
     7
 48
50.0
100
AcDbMText
 10
6551.285990614302
 20
7153.762300278124
 30
0.0
 40
120.0
 41
0.0
 71
     5
 72
     1
  1
\A1;733
  7
STYLE1
 11
0.0000000000000001
 21
1.0
 31
0.0
 73
     1
 44
1.0
1001
ACAD
1000
MTEXTBEGIN
1070
    73
1070
     1
1070
    44
1040
1.0
1070
    74
1070
     0
1000
MTEXTEND
  0
POINT
  5
24FAB
330
248CE
100
AcDbEntity
  8
DEFPOINTS
 62
     0
 48
50.0
100
AcDbPoint
 10
6943.600000000009
 20
6861.167509583947
 30
0.0
  0
POINT
  5
24FAC
330
248CE
100
AcDbEntity
  8
DEFPOINTS
 62
     0
 48
50.0
100
AcDbPoint
 10
6742.765475140902
 20
7594.167509583947
 30
0.0
  0
POINT
  5
24FAD
330
248CE
100
AcDbEntity
  8
DEFPOINTS
 62
     0
 48
50.0
100
AcDbPoint
 10
6651.285990614304
 20
7594.167509583947
 30
0.0
  0
ENDBLK
  5
248D9
330
248CE
100
AcDbEntity
  8
0
 48
50.0
100
AcDbBlockEnd
  0
BLOCK
  5
248E4
330
248DA
100
AcDbEntity
  8
0
 48
50.0
100
AcDbBlockBegin
  2
*D32
 70
     1
 10
0.0
 20
0.0
 30
0.0
  3
*D32
  1

  0
LINE
  5
24F8A
330
248DA
100
AcDbEntity
  8
寸法
 62
     0
 48
50.0
370
    -2
100
AcDbLine
 10
6993.600000000009
 20
6931.167509583947
 30
0.0
 11
6993.600000000009
 21
8136.776326254196
 31
0.0
  0
LINE
  5
24F8B
330
248DA
100
AcDbEntity
  8
寸法
 62
     0
 48
50.0
370
    -2
100
AcDbLine
 10
6168.600000000002
 20
7614.167509583947
 30
0.0
 11
6168.600000000002
 21
8136.776326254196
 31
0.0
  0
LINE
  5
24F8C
330
248DA
100
AcDbEntity
  8
寸法
 62
     0
 48
50.0
370
    -2
100
AcDbLine
 10
6993.600000000009
 20
8076.776326254195
 30
0.0
 11
6168.600000000002
 21
8076.776326254195
 31
0.0
  0
INSERT
  5
24F8D
330
248DA
100
AcDbEntity
  8
寸法
 62
     0
 48
50.0
370
    -2
100
AcDbBlockReference
  2
_DOTSMALL
 10
6993.600000000009
 20
8076.776326254195
 30
0.0
 41
100.0
 42
100.0
 43
100.0
  0
INSERT
  5
24F8E
330
248DA
100
AcDbEntity
  8
寸法
 62
     0
 48
50.0
370
    -2
100
AcDbBlockReference
  2
_DOTSMALL
 10
6168.600000000002
 20
8076.776326254195
 30
0.0
 41
100.0
 42
100.0
 43
100.0
 50
180.0
  0
MTEXT
  5
24F8F
330
248DA
100
AcDbEntity
  8
寸法
 62
     7
 48
50.0
100
AcDbMText
 10
6581.100000000006
 20
8176.788137277817
 30
0.0
 40
120.0
 41
0.0
 71
     5
 72
     1
  1
\A1;825
  7
STYLE1
 73
     1
 44
1.0
1001
ACAD
1000
MTEXTBEGIN
1070
    73
1070
     1
1070
    44
1040
1.0
1070
    74
1070
     0
1000
MTEXTEND
  0
POINT
  5
24F90
330
248DA
100
AcDbEntity
  8
DEFPOINTS
 62
     0
 48
50.0
100
AcDbPoint
 10
6993.600000000009
 20
6911.167509583947
 30
0.0
  0
POINT
  5
24F91
330
248DA
100
AcDbEntity
  8
DEFPOINTS
 62
     0
 48
50.0
100
AcDbPoint
 10
6168.600000000002
 20
7594.167509583947
 30
0.0
  0
POINT
  5
24F92
330
248DA
100
AcDbEntity
  8
DEFPOINTS
 62
     0
 48
50.0
100
AcDbPoint
 10
6168.600000000002
 20
8076.776326254195
 30
0.0
  0
ENDBLK
  5
248E5
330
248DA
100
AcDbEntity
  8
0
 48
50.0
100
AcDbBlockEnd
  0
BLOCK
  5
248F0
330
248E6
100
AcDbEntity
  8
0
 48
50.0
100
AcDbBlockBegin
  2
*D33
 70
     1
 10
0.0
 20
0.0
 30
0.0
  3
*D33
  1

  0
LINE
  5
24E9E
330
248E6
100
AcDbEntity
  8
寸法
 62
     0
 48
50.0
370
    -2
100
AcDbLine
 10
6148.600000000002
 20
7594.167509583947
 30
0.0
 11
5233.721909610676
 21
7594.167509583948
 31
0.0
  0
LINE
  5
24E9F
330
248E6
100
AcDbEntity
  8
寸法
 62
     0
 48
50.0
370
    -2
100
AcDbLine
 10
6148.600000000002
 20
6054.167509583948
 30
0.0
 11
5233.721909610675
 21
6054.167509583948
 31
0.0
  0
LINE
  5
24EA0
330
248E6
100
AcDbEntity
  8
寸法
 62
     0
 48
50.0
370
    -2
100
AcDbLine
 10
5293.721909610677
 20
7594.167509583948
 30
0.0
 11
5293.721909610676
 21
6054.167509583948
 31
0.0
  0
INSERT
  5
24EA1
330
248E6
100
AcDbEntity
  8
寸法
 62
     0
 48
50.0
370
    -2
100
AcDbBlockReference
  2
_DOTSMALL
 10
5293.721909610677
 20
7594.167509583948
 30
0.0
 41
100.0
 42
100.0
 43
100.0
 50
90.0
  0
INSERT
  5
24EA2
330
248E6
100
AcDbEntity
  8
寸法
 62
     0
 48
50.0
370
    -2
100
AcDbBlockReference
  2
_DOTSMALL
 10
5293.721909610676
 20
6054.167509583948
 30
0.0
 41
100.0
 42
100.0
 43
100.0
 50
270.0
  0
MTEXT
  5
24EA3
330
248E6
100
AcDbEntity
  8
寸法
 62
     7
 48
50.0
100
AcDbMText
 10
5193.721909610674
 20
6861.667509583947
 30
0.0
 40
120.0
 41
0.0
 71
     5
 72
     1
  1
\A1;1540
  7
STYLE1
 11
0.0000000000000001
 21
1.0
 31
0.0
 73
     1
 44
1.0
1001
ACAD
1000
MTEXTBEGIN
1070
    73
1070
     1
1070
    44
1040
1.0
1070
    74
1070
     0
1000
MTEXTEND
  0
POINT
  5
24EA4
330
248E6
100
AcDbEntity
  8
DEFPOINTS
 62
     0
 48
50.0
100
AcDbPoint
 10
6168.600000000002
 20
7594.167509583947
 30
0.0
  0
POINT
  5
24EA5
330
248E6
100
AcDbEntity
  8
DEFPOINTS
 62
     0
 48
50.0
100
AcDbPoint
 10
6168.600000000002
 20
6054.167509583948
 30
0.0
  0
POINT
  5
24EA6
330
248E6
100
AcDbEntity
  8
DEFPOINTS
 62
     0
 48
50.0
100
AcDbPoint
 10
5293.721909610676
 20
6054.167509583948
 30
0.0
  0
ENDBLK
  5
248F1
330
248E6
100
AcDbEntity
  8
0
 48
50.0
100
AcDbBlockEnd
  0
BLOCK
  5
248FC
330
248F2
100
AcDbEntity
  8
0
 48
50.0
100
AcDbBlockBegin
  2
*D34
 70
     1
 10
0.0
 20
0.0
 30
0.0
  3
*D34
  1

  0
LINE
  5
24F2E
330
248F2
100
AcDbEntity
  8
寸法
 62
     0
 48
50.0
370
    -2
100
AcDbLine
 10
6221.600000000002
 20
7471.167509583948
 30
0.0
 11
5485.665006330075
 21
7471.167509583948
 31
0.0
  0
LINE
  5
24F2F
330
248F2
100
AcDbEntity
  8
寸法
 62
     0
 48
50.0
370
    -2
100
AcDbLine
 10
6221.600000000009
 20
6252.167509583951
 30
0.0
 11
5485.665006330075
 21
6252.167509583951
 31
0.0
  0
LINE
  5
24F30
330
248F2
100
AcDbEntity
  8
寸法
 62
     0
 48
50.0
370
    -2
100
AcDbLine
 10
5545.665006330075
 20
7471.167509583948
 30
0.0
 11
5545.665006330075
 21
6252.167509583951
 31
0.0
  0
INSERT
  5
24F31
330
248F2
100
AcDbEntity
  8
寸法
 62
     0
 48
50.0
370
    -2
100
AcDbBlockReference
  2
_DOTSMALL
 10
5545.665006330075
 20
7471.167509583948
 30
0.0
 41
100.0
 42
100.0
 43
100.0
 50
90.0
  0
INSERT
  5
24F32
330
248F2
100
AcDbEntity
  8
寸法
 62
     0
 48
50.0
370
    -2
100
AcDbBlockReference
  2
_DOTSMALL
 10
5545.665006330075
 20
6252.167509583951
 30
0.0
 41
100.0
 42
100.0
 43
100.0
 50
270.0
  0
MTEXT
  5
24F33
330
248F2
100
AcDbEntity
  8
寸法
 62
     7
 48
50.0
100
AcDbMText
 10
5445.653195306451
 20
6861.667509583947
 30
0.0
 40
120.0
 41
0.0
 71
     5
 72
     1
  1
\A1;1219
  7
STYLE1
 11
0.0000000000000001
 21
1.0
 31
0.0
 73
     1
 44
1.0
1001
ACAD
1000
MTEXTBEGIN
1070
    73
1070
     1
1070
    44
1040
1.0
1070
    74
1070
     0
1000
MTEXTEND
  0
POINT
  5
24F34
330
248F2
100
AcDbEntity
  8
DEFPOINTS
 62
     0
 48
50.0
100
AcDbPoint
 10
6241.600000000002
 20
7471.167509583948
 30
0.0
  0
POINT
  5
24F35
330
248F2
100
AcDbEntity
  8
DEFPOINTS
 62
     0
 48
50.0
100
AcDbPoint
 10
6241.600000000009
 20
6252.167509583951
 30
0.0
  0
POINT
  5
24F36
330
248F2
100
AcDbEntity
  8
DEFPOINTS
 62
     0
 48
50.0
100
AcDbPoint
 10
5545.665006330075
 20
6252.167509583951
 30
0.0
  0
ENDBLK
  5
248FD
330
248F2
100
AcDbEntity
  8
0
 48
50.0
100
AcDbBlockEnd
  0
BLOCK
  5
24914
330
2490A
100
AcDbEntity
  8
0
 48
50.0
100
AcDbBlockBegin
  2
*D35
 70
     1
 10
0.0
 20
0.0
 30
0.0
  3
*D35
  1

  0
LINE
  5
24F9C
330
2490A
100
AcDbEntity
  8
寸法
 62
     0
 48
50.0
370
    -2
100
AcDbLine
 10
6722.765475140903
 20
6054.167509583958
 30
0.0
 11
6591.285990614302
 21
6054.167509583958
 31
0.0
  0
LINE
  5
24F9D
330
2490A
100
AcDbEntity
  8
寸法
 62
     0
 48
50.0
370
    -2
100
AcDbLine
 10
6923.600000000009
 20
6861.167509583947
 30
0.0
 11
6591.285990614304
 21
6861.167509583947
 31
0.0
  0
LINE
  5
24F9E
330
2490A
100
AcDbEntity
  8
寸法
 62
     0
 48
50.0
370
    -2
100
AcDbLine
 10
6651.285990614304
 20
6054.167509583958
 30
0.0
 11
6651.285990614304
 21
6861.167509583947
 31
0.0
  0
INSERT
  5
24F9F
330
2490A
100
AcDbEntity
  8
寸法
 62
     0
 48
50.0
370
    -2
100
AcDbBlockReference
  2
_DOTSMALL
 10
6651.285990614304
 20
6054.167509583958
 30
0.0
 41
100.0
 42
100.0
 43
100.0
 50
270.0
  0
INSERT
  5
24FA0
330
2490A
100
AcDbEntity
  8
寸法
 62
     0
 48
50.0
370
    -2
100
AcDbBlockReference
  2
_DOTSMALL
 10
6651.285990614304
 20
6861.167509583947
 30
0.0
 41
100.0
 42
100.0
 43
100.0
 50
90.0
  0
MTEXT
  5
24FA1
330
2490A
100
AcDbEntity
  8
寸法
 62
     7
 48
50.0
100
AcDbMText
 10
6551.285990614302
 20
6539.167509583947
 30
0.0
 40
120.0
 41
0.0
 71
     5
 72
     1
  1
\A1;807
  7
STYLE1
 11
0.0000000000000001
 21
1.0
 31
0.0
 73
     1
 44
1.0
1001
ACAD
1000
MTEXTBEGIN
1070
    73
1070
     1
1070
    44
1040
1.0
1070
    74
1070
     0
1000
MTEXTEND
  0
POINT
  5
24FA2
330
2490A
100
AcDbEntity
  8
DEFPOINTS
 62
     0
 48
50.0
100
AcDbPoint
 10
6742.765475140902
 20
6054.167509583958
 30
0.0
  0
POINT
  5
24FA3
330
2490A
100
AcDbEntity
  8
DEFPOINTS
 62
     0
 48
50.0
100
AcDbPoint
 10
6943.600000000009
 20
6861.167509583947
 30
0.0
  0
POINT
  5
24FA4
330
2490A
100
AcDbEntity
  8
DEFPOINTS
 62
     0
 48
50.0
100
AcDbPoint
 10
6651.285990614304
 20
6861.167509583947
 30
0.0
  0
ENDBLK
  5
24915
330
2490A
100
AcDbEntity
  8
0
 48
50.0
100
AcDbBlockEnd
  0
BLOCK
  5
24920
330
24916
100
AcDbEntity
  8
0
 48
50.0
100
AcDbBlockBegin
  2
*D36
 70
     1
 10
0.0
 20
0.0
 30
0.0
  3
*D36
  1

  0
LINE
  5
24E83
330
24916
100
AcDbEntity
  8
寸法
 62
     0
 48
50.0
370
    -2
100
AcDbLine
 10
6148.600000000006
 20
6054.167509583944
 30
0.0
 11
5995.512673767883
 21
6054.167509583944
 31
0.0
  0
LINE
  5
24E84
330
24916
100
AcDbEntity
  8
寸法
 62
     0
 48
50.0
370
    -2
100
AcDbLine
 10
6504.32532692881
 20
5334.167509583943
 30
0.0
 11
5995.512673767883
 21
5334.167509583945
 31
0.0
  0
LINE
  5
24E85
330
24916
100
AcDbEntity
  8
寸法
 62
     0
 48
50.0
370
    -2
100
AcDbLine
 10
6055.512673767883
 20
6054.167509583944
 30
0.0
 11
6055.512673767883
 21
5334.167509583945
 31
0.0
  0
INSERT
  5
24E86
330
24916
100
AcDbEntity
  8
寸法
 62
     0
 48
50.0
370
    -2
100
AcDbBlockReference
  2
_DOTSMALL
 10
6055.512673767883
 20
6054.167509583944
 30
0.0
 41
100.0
 42
100.0
 43
100.0
 50
90.0
  0
INSERT
  5
24E87
330
24916
100
AcDbEntity
  8
寸法
 62
     0
 48
50.0
370
    -2
100
AcDbBlockReference
  2
_DOTSMALL
 10
6055.512673767883
 20
5334.167509583945
 30
0.0
 41
100.0
 42
100.0
 43
100.0
 50
270.0
  0
MTEXT
  5
24E88
330
24916
100
AcDbEntity
  8
寸法
 62
     7
 48
50.0
100
AcDbMText
 10
5955.50086274426
 20
5694.167509583945
 30
0.0
 40
120.0
 41
0.0
 71
     5
 72
     1
  1
\A1;扉の出720
  7
STYLE1
 11
0.0000000000000001
 21
1.0
 31
0.0
 73
     1
 44
1.0
1001
ACAD
1000
MTEXTBEGIN
1070
    73
1070
     1
1070
    44
1040
1.0
1070
    74
1070
     0
1000
MTEXTEND
  0
POINT
  5
24E89
330
24916
100
AcDbEntity
  8
DEFPOINTS
 62
     0
 48
50.0
100
AcDbPoint
 10
6168.600000000005
 20
6054.167509583944
 30
0.0
  0
POINT
  5
24E8A
330
24916
100
AcDbEntity
  8
DEFPOINTS
 62
     0
 48
50.0
100
AcDbPoint
 10
6524.32532692881
 20
5334.167509583943
 30
0.0
  0
POINT
  5
24E8B
330
24916
100
AcDbEntity
  8
DEFPOINTS
 62
     0
 48
50.0
100
AcDbPoint
 10
6055.512673767883
 20
5334.167509583945
 30
0.0
  0
ENDBLK
  5
24921
330
24916
100
AcDbEntity
  8
0
 48
50.0
100
AcDbBlockEnd
  0
BLOCK
  5
2492D
330
24922
100
AcDbEntity
  8
0
 48
50.0
100
AcDbBlockBegin
  2
*D37
 70
     1
 10
0.0
 20
0.0
 30
0.0
  3
*D37
  1

  0
LINE
  5
24F24
330
24922
100
AcDbEntity
  8
寸法
 62
     0
 48
50.0
370
    -2
100
AcDbLine
 10
6221.600000000009
 20
6252.167509583951
 30
0.0
 11
5485.665006330075
 21
6252.167509583951
 31
0.0
  0
LINE
  5
24F25
330
24922
100
AcDbEntity
  8
寸法
 62
     0
 48
50.0
370
    -2
100
AcDbLine
 10
6148.600000000002
 20
6054.167509583948
 30
0.0
 11
5485.665006330074
 21
6054.167509583948
 31
0.0
  0
LINE
  5
24F26
330
24922
100
AcDbEntity
  8
寸法
 62
     0
 48
50.0
370
    -2
100
AcDbLine
 10
5545.665006330075
 20
6252.167509583951
 30
0.0
 11
5545.665006330074
 21
6054.167509583948
 31
0.0
  0
LINE
  5
24F27
330
24922
100
AcDbEntity
  8
寸法
 62
     0
 48
50.0
370
    -2
100
AcDbLine
 10
5545.665006330074
 20
6054.167509583948
 30
0.0
 11
5545.665006330074
 21
5582.426900911698
 31
0.0
  0
INSERT
  5
24F28
330
24922
100
AcDbEntity
  8
寸法
 62
     0
 48
50.0
370
    -2
100
AcDbBlockReference
  2
_DOTSMALL
 10
5545.665006330075
 20
6252.167509583951
 30
0.0
 41
100.0
 42
100.0
 43
100.0
 50
90.0
  0
INSERT
  5
24F29
330
24922
100
AcDbEntity
  8
寸法
 62
     0
 48
50.0
370
    -2
100
AcDbBlockReference
  2
_DOTSMALL
 10
5545.665006330074
 20
6054.167509583948
 30
0.0
 41
100.0
 42
100.0
 43
100.0
 50
270.0
  0
MTEXT
  5
24F2A
330
24922
100
AcDbEntity
  8
寸法
 62
     7
 48
50.0
100
AcDbMText
 10
5445.665006330074
 20
5718.636560741355
 30
0.0
 40
120.0
 41
0.0
 71
     5
 72
     1
  1
\A1;198
  7
STYLE1
 11
0.0000000000000001
 21
1.0
 31
0.0
 73
     1
 44
1.0
1001
ACAD
1000
MTEXTBEGIN
1070
    73
1070
     1
1070
    44
1040
1.0
1070
    74
1070
     0
1000
MTEXTEND
  0
POINT
  5
24F2B
330
24922
100
AcDbEntity
  8
DEFPOINTS
 62
     0
 48
50.0
100
AcDbPoint
 10
6241.600000000009
 20
6252.167509583951
 30
0.0
  0
POINT
  5
24F2C
330
24922
100
AcDbEntity
  8
DEFPOINTS
 62
     0
 48
50.0
100
AcDbPoint
 10
6168.600000000002
 20
6054.167509583948
 30
0.0
  0
POINT
  5
24F2D
330
24922
100
AcDbEntity
  8
DEFPOINTS
 62
     0
 48
50.0
100
AcDbPoint
 10
5545.665006330074
 20
6054.167509583948
 30
0.0
  0
ENDBLK
  5
2492E
330
24922
100
AcDbEntity
  8
0
 48
50.0
100
AcDbBlockEnd
  0
BLOCK
  5
2493A
330
2492F
100
AcDbEntity
  8
0
 48
50.0
100
AcDbBlockBegin
  2
*D38
 70
     1
 10
0.0
 20
0.0
 30
0.0
  3
*D38
  1

  0
LINE
  5
2500F
330
2492F
100
AcDbEntity
  8
寸法
 62
     0
 48
50.0
370
    -2
100
AcDbLine
 10
7385.095400711702
 20
6334.16750958395
 30
0.0
 11
7306.819725318591
 21
6334.16750958395
 31
0.0
  0
LINE
  5
25010
330
2492F
100
AcDbEntity
  8
寸法
 62
     0
 48
50.0
370
    -2
100
AcDbLine
 10
7058.419106515964
 20
6054.167509583938
 30
0.0
 11
7426.819725318591
 21
6054.167509583938
 31
0.0
  0
LINE
  5
25011
330
2492F
100
AcDbEntity
  8
寸法
 62
     0
 48
50.0
370
    -2
100
AcDbLine
 10
7366.819725318592
 20
6334.16750958395
 30
0.0
 11
7366.819725318591
 21
6054.167509583938
 31
0.0
  0
LINE
  5
25012
330
2492F
100
AcDbEntity
  8
寸法
 62
     0
 48
50.0
370
    -2
100
AcDbLine
 10
7366.819725318591
 20
6054.167509583938
 30
0.0
 11
7366.819725318591
 21
5617.633060765037
 31
0.0
  0
INSERT
  5
25013
330
2492F
100
AcDbEntity
  8
寸法
 62
     0
 48
50.0
370
    -2
100
AcDbBlockReference
  2
_DOTSMALL
 10
7366.819725318592
 20
6334.16750958395
 30
0.0
 41
100.0
 42
100.0
 43
100.0
 50
90.0
  0
INSERT
  5
25014
330
2492F
100
AcDbEntity
  8
寸法
 62
     0
 48
50.0
370
    -2
100
AcDbBlockReference
  2
_DOTSMALL
 10
7366.819725318591
 20
6054.167509583938
 30
0.0
 41
100.0
 42
100.0
 43
100.0
 50
270.0
  0
MTEXT
  5
25015
330
2492F
100
AcDbEntity
  8
寸法
 62
     7
 48
50.0
100
AcDbMText
 10
7266.807914294968
 20
5767.203926906772
 30
0.0
 40
120.0
 41
0.0
 71
     5
 72
     1
  1
\A1;280
  7
STYLE1
 11
0.0000000000000001
 21
1.0
 31
0.0
 73
     1
 44
1.0
1001
ACAD
1000
MTEXTBEGIN
1070
    73
1070
     1
1070
    44
1040
1.0
1070
    74
1070
     0
1000
MTEXTEND
  0
POINT
  5
25016
330
2492F
100
AcDbEntity
  8
DEFPOINTS
 62
     0
 48
50.0
100
AcDbPoint
 10
7405.095400711703
 20
6334.16750958395
 30
0.0
  0
POINT
  5
25017
330
2492F
100
AcDbEntity
  8
DEFPOINTS
 62
     0
 48
50.0
100
AcDbPoint
 10
7038.419106515966
 20
6054.167509583938
 30
0.0
  0
POINT
  5
25018
330
2492F
100
AcDbEntity
  8
DEFPOINTS
 62
     0
 48
50.0
100
AcDbPoint
 10
7366.819725318591
 20
6054.167509583938
 30
0.0
  0
ENDBLK
  5
2493B
330
2492F
100
AcDbEntity
  8
0
 48
50.0
100
AcDbBlockEnd
  0
BLOCK
  5
24945
330
2493C
100
AcDbEntity
  8
0
 48
50.0
100
AcDbBlockBegin
  2
*D39
 70
     1
 10
0.0
 20
0.0
 30
0.0
  3
*D39
  1

  0
LINE
  5
24E66
330
2493C
100
AcDbEntity
  8
寸法
 62
     0
 48
50.0
370
    -2
100
AcDbLine
 10
7695.600000000002
 20
7541.167509583947
 30
0.0
 11
7695.600000000002
 21
8380.433967677857
 31
0.0
  0
LINE
  5
24E67
330
2493C
100
AcDbEntity
  8
寸法
 62
     0
 48
50.0
370
    -2
100
AcDbLine
 10
6291.600000000002
 20
7541.167509583947
 30
0.0
 11
6291.600000000002
 21
8380.433967677857
 31
0.0
  0
LINE
  5
24E68
330
2493C
100
AcDbEntity
  8
寸法
 62
     0
 48
50.0
370
    -2
100
AcDbLine
 10
7695.600000000002
 20
8320.433967677859
 30
0.0
 11
6291.600000000002
 21
8320.433967677859
 31
0.0
  0
INSERT
  5
24E69
330
2493C
100
AcDbEntity
  8
寸法
 62
     0
 48
50.0
370
    -2
100
AcDbBlockReference
  2
_DOTSMALL
 10
7695.600000000002
 20
8320.433967677859
 30
0.0
 41
100.0
 42
100.0
 43
100.0
  0
INSERT
  5
24E6A
330
2493C
100
AcDbEntity
  8
寸法
 62
     0
 48
50.0
370
    -2
100
AcDbBlockReference
  2
_DOTSMALL
 10
6291.600000000002
 20
8320.433967677859
 30
0.0
 41
100.0
 42
100.0
 43
100.0
 50
180.0
  0
MTEXT
  5
24E6B
330
2493C
100
AcDbEntity
  8
寸法
 62
     7
 48
50.0
100
AcDbMText
 10
6993.600000000002
 20
8420.433967677858
 30
0.0
 40
120.0
 41
0.0
 71
     5
 72
     1
  1
\A1;1404
  7
STYLE1
 73
     1
 44
1.0
1001
ACAD
1000
MTEXTBEGIN
1070
    73
1070
     1
1070
    44
1040
1.0
1070
    74
1070
     0
1000
MTEXTEND
  0
POINT
  5
24E6C
330
2493C
100
AcDbEntity
  8
DEFPOINTS
 62
     0
 48
50.0
100
AcDbPoint
 10
7695.600000000002
 20
7521.167509583948
 30
0.0
  0
POINT
  5
24E6D
330
2493C
100
AcDbEntity
  8
DEFPOINTS
 62
     0
 48
50.0
100
AcDbPoint
 10
6291.600000000002
 20
7521.167509583948
 30
0.0
  0
POINT
  5
24E6E
330
2493C
100
AcDbEntity
  8
DEFPOINTS
 62
     0
 48
50.0
100
AcDbPoint
 10
6291.600000000002
 20
8320.433967677859
 30
0.0
  0
ENDBLK
  5
24946
330
2493C
100
AcDbEntity
  8
0
 48
50.0
100
AcDbBlockEnd
  0
BLOCK
  5
24952
330
24947
100
AcDbEntity
  8
0
 48
50.0
100
AcDbBlockBegin
  2
*D40
 70
     1
 10
0.0
 20
0.0
 30
0.0
  3
*D40
  1

  0
LINE
  5
24E5C
330
24947
100
AcDbEntity
  8
寸法
 62
     0
 48
50.0
370
    -2
100
AcDbLine
 10
6291.600000000002
 20
7541.167509583947
 30
0.0
 11
6291.600000000002
 21
8380.433967677857
 31
0.0
  0
LINE
  5
24E5D
330
24947
100
AcDbEntity
  8
寸法
 62
     0
 48
50.0
370
    -2
100
AcDbLine
 10
6168.600000000002
 20
7614.167509583947
 30
0.0
 11
6168.600000000002
 21
8380.433967677857
 31
0.0
  0
LINE
  5
24E5E
330
24947
100
AcDbEntity
  8
寸法
 62
     0
 48
50.0
370
    -2
100
AcDbLine
 10
6291.600000000002
 20
8320.433967677859
 30
0.0
 11
6168.600000000002
 21
8320.433967677859
 31
0.0
  0
LINE
  5
24E5F
330
24947
100
AcDbEntity
  8
寸法
 62
     0
 48
50.0
370
    -2
100
AcDbLine
 10
6168.600000000002
 20
8320.433967677859
 30
0.0
 11
5757.008116907964
 21
8320.433967677859
 31
0.0
  0
INSERT
  5
24E60
330
24947
100
AcDbEntity
  8
寸法
 62
     0
 48
50.0
370
    -2
100
AcDbBlockReference
  2
_DOTSMALL
 10
6291.600000000002
 20
8320.433967677859
 30
0.0
 41
100.0
 42
100.0
 43
100.0
  0
INSERT
  5
24E61
330
24947
100
AcDbEntity
  8
寸法
 62
     0
 48
50.0
370
    -2
100
AcDbBlockReference
  2
_DOTSMALL
 10
6168.600000000002
 20
8320.433967677859
 30
0.0
 41
100.0
 42
100.0
 43
100.0
 50
180.0
  0
MTEXT
  5
24E62
330
24947
100
AcDbEntity
  8
寸法
 62
     7
 48
50.0
100
AcDbMText
 10
5895.493398282204
 20
8420.445778701481
 30
0.0
 40
120.0
 41
0.0
 71
     5
 72
     1
  1
\A1;123
  7
STYLE1
 73
     1
 44
1.0
1001
ACAD
1000
MTEXTBEGIN
1070
    73
1070
     1
1070
    44
1040
1.0
1070
    74
1070
     0
1000
MTEXTEND
  0
POINT
  5
24E63
330
24947
100
AcDbEntity
  8
DEFPOINTS
 62
     0
 48
50.0
100
AcDbPoint
 10
6291.600000000002
 20
7521.167509583948
 30
0.0
  0
POINT
  5
24E64
330
24947
100
AcDbEntity
  8
DEFPOINTS
 62
     0
 48
50.0
100
AcDbPoint
 10
6168.600000000002
 20
7594.167509583947
 30
0.0
  0
POINT
  5
24E65
330
24947
100
AcDbEntity
  8
DEFPOINTS
 62
     0
 48
50.0
100
AcDbPoint
 10
6168.600000000002
 20
8320.433967677859
 30
0.0
  0
ENDBLK
  5
24953
330
24947
100
AcDbEntity
  8
0
 48
50.0
100
AcDbBlockEnd
  0
BLOCK
  5
24976
330
2496B
100
AcDbEntity
  8
0
 48
50.0
100
AcDbBlockBegin
  2
*D41
 70
     1
 10
0.0
 20
0.0
 30
0.0
  3
*D41
  1

  0
LINE
  5
24E52
330
2496B
100
AcDbEntity
  8
寸法
 62
     0
 48
50.0
370
    -2
100
AcDbLine
 10
6148.600000000002
 20
7594.167509583947
 30
0.0
 11
5485.665006330074
 21
7594.167509583948
 31
0.0
  0
LINE
  5
24E53
330
2496B
100
AcDbEntity
  8
寸法
 62
     0
 48
50.0
370
    -2
100
AcDbLine
 10
6221.600000000002
 20
7471.167509583948
 30
0.0
 11
5485.665006330074
 21
7471.167509583948
 31
0.0
  0
LINE
  5
24E54
330
2496B
100
AcDbEntity
  8
寸法
 62
     0
 48
50.0
370
    -2
100
AcDbLine
 10
5545.665006330074
 20
7471.167509583948
 30
0.0
 11
5545.665006330074
 21
7594.167509583948
 31
0.0
  0
LINE
  5
24E55
330
2496B
100
AcDbEntity
  8
寸法
 62
     0
 48
50.0
370
    -2
100
AcDbLine
 10
5545.665006330074
 20
7594.167509583948
 30
0.0
 11
5545.665006330074
 21
8005.759392675985
 31
0.0
  0
INSERT
  5
24E56
330
2496B
100
AcDbEntity
  8
寸法
 62
     0
 48
50.0
370
    -2
100
AcDbBlockReference
  2
_DOTSMALL
 10
5545.665006330074
 20
7471.167509583948
 30
0.0
 41
100.0
 42
100.0
 43
100.0
 50
270.0
  0
INSERT
  5
24E57
330
2496B
100
AcDbEntity
  8
寸法
 62
     0
 48
50.0
370
    -2
100
AcDbBlockReference
  2
_DOTSMALL
 10
5545.665006330074
 20
7594.167509583948
 30
0.0
 41
100.0
 42
100.0
 43
100.0
 50
90.0
  0
MTEXT
  5
24E58
330
2496B
100
AcDbEntity
  8
寸法
 62
     7
 48
50.0
100
AcDbMText
 10
5445.653195306451
 20
7867.274111301748
 30
0.0
 40
120.0
 41
0.0
 71
     5
 72
     1
  1
\A1;123
  7
STYLE1
 11
0.0000000000000001
 21
1.0
 31
0.0
 73
     1
 44
1.0
1001
ACAD
1000
MTEXTBEGIN
1070
    73
1070
     1
1070
    44
1040
1.0
1070
    74
1070
     0
1000
MTEXTEND
  0
POINT
  5
24E59
330
2496B
100
AcDbEntity
  8
DEFPOINTS
 62
     0
 48
50.0
100
AcDbPoint
 10
6168.600000000002
 20
7594.167509583947
 30
0.0
  0
POINT
  5
24E5A
330
2496B
100
AcDbEntity
  8
DEFPOINTS
 62
     0
 48
50.0
100
AcDbPoint
 10
6241.600000000002
 20
7471.167509583948
 30
0.0
  0
POINT
  5
24E5B
330
2496B
100
AcDbEntity
  8
DEFPOINTS
 62
     0
 48
50.0
100
AcDbPoint
 10
5545.665006330074
 20
7471.167509583948
 30
0.0
  0
ENDBLK
  5
24977
330
2496B
100
AcDbEntity
  8
0
 48
50.0
100
AcDbBlockEnd
  0
BLOCK
  5
24983
330
24978
100
AcDbEntity
  8
0
 48
50.0
100
AcDbBlockBegin
  2
*D42
 70
     1
 10
0.0
 20
0.0
 30
0.0
  3
*D42
  1

  0
LINE
  5
24E48
330
24978
100
AcDbEntity
  8
寸法
 62
     0
 48
50.0
370
    -2
100
AcDbLine
 10
7360.85468201165
 20
7594.167509583916
 30
0.0
 11
7426.819725318591
 21
7594.167509583916
 31
0.0
  0
LINE
  5
24E49
330
24978
100
AcDbEntity
  8
寸法
 62
     0
 48
50.0
370
    -2
100
AcDbLine
 10
7360.85468201165
 20
7394.167509583915
 30
0.0
 11
7426.819725318591
 21
7394.167509583915
 31
0.0
  0
LINE
  5
24E4A
330
24978
100
AcDbEntity
  8
寸法
 62
     0
 48
50.0
370
    -2
100
AcDbLine
 10
7366.819725318591
 20
7394.167509583915
 30
0.0
 11
7366.819725318591
 21
7594.167509583916
 31
0.0
  0
LINE
  5
24E4B
330
24978
100
AcDbEntity
  8
寸法
 62
     0
 48
50.0
370
    -2
100
AcDbLine
 10
7366.819725318591
 20
7594.167509583916
 30
0.0
 11
7366.819725318591
 21
8030.701958402813
 31
0.0
  0
INSERT
  5
24E4C
330
24978
100
AcDbEntity
  8
寸法
 62
     0
 48
50.0
370
    -2
100
AcDbBlockReference
  2
_DOTSMALL
 10
7366.819725318591
 20
7394.167509583915
 30
0.0
 41
100.0
 42
100.0
 43
100.0
 50
270.0
  0
INSERT
  5
24E4D
330
24978
100
AcDbEntity
  8
寸法
 62
     0
 48
50.0
370
    -2
100
AcDbBlockReference
  2
_DOTSMALL
 10
7366.819725318591
 20
7594.167509583916
 30
0.0
 41
100.0
 42
100.0
 43
100.0
 50
90.0
  0
MTEXT
  5
24E4E
330
24978
100
AcDbEntity
  8
寸法
 62
     7
 48
50.0
100
AcDbMText
 10
7266.807914294968
 20
7881.131092261083
 30
0.0
 40
120.0
 41
0.0
 71
     5
 72
     1
  1
\A1;200
  7
STYLE1
 11
0.0000000000000001
 21
1.0
 31
0.0
 73
     1
 44
1.0
1001
ACAD
1000
MTEXTBEGIN
1070
    73
1070
     1
1070
    44
1040
1.0
1070
    74
1070
     0
1000
MTEXTEND
  0
POINT
  5
24E4F
330
24978
100
AcDbEntity
  8
DEFPOINTS
 62
     0
 48
50.0
100
AcDbPoint
 10
7340.85468201165
 20
7594.167509583916
 30
0.0
  0
POINT
  5
24E50
330
24978
100
AcDbEntity
  8
DEFPOINTS
 62
     0
 48
50.0
100
AcDbPoint
 10
7340.85468201165
 20
7394.167509583915
 30
0.0
  0
POINT
  5
24E51
330
24978
100
AcDbEntity
  8
DEFPOINTS
 62
     0
 48
50.0
100
AcDbPoint
 10
7366.819725318591
 20
7394.167509583915
 30
0.0
  0
ENDBLK
  5
24984
330
24978
100
AcDbEntity
  8
0
 48
50.0
100
AcDbBlockEnd
  0
BLOCK
  5
2498F
330
24985
100
AcDbEntity
  8
0
 48
50.0
100
AcDbBlockBegin
  2
*D43
 70
     1
 10
0.0
 20
0.0
 30
0.0
  3
*D43
  1

  0
LINE
  5
24F6F
330
24985
100
AcDbEntity
  8
寸法
 62
     0
 48
50.0
370
    -2
100
AcDbLine
 10
9453.60000000001
 20
6931.167509583947
 30
0.0
 11
9453.60000000001
 21
8136.776326254196
 31
0.0
  0
LINE
  5
24F70
330
24985
100
AcDbEntity
  8
寸法
 62
     0
 48
50.0
370
    -2
100
AcDbLine
 10
8633.60000000001
 20
6931.167509583947
 30
0.0
 11
8633.60000000001
 21
8136.776326254196
 31
0.0
  0
LINE
  5
24F71
330
24985
100
AcDbEntity
  8
寸法
 62
     0
 48
50.0
370
    -2
100
AcDbLine
 10
9453.60000000001
 20
8076.776326254195
 30
0.0
 11
8633.60000000001
 21
8076.776326254195
 31
0.0
  0
INSERT
  5
24F72
330
24985
100
AcDbEntity
  8
寸法
 62
     0
 48
50.0
370
    -2
100
AcDbBlockReference
  2
_DOTSMALL
 10
9453.60000000001
 20
8076.776326254195
 30
0.0
 41
100.0
 42
100.0
 43
100.0
  0
INSERT
  5
24F73
330
24985
100
AcDbEntity
  8
寸法
 62
     0
 48
50.0
370
    -2
100
AcDbBlockReference
  2
_DOTSMALL
 10
8633.60000000001
 20
8076.776326254195
 30
0.0
 41
100.0
 42
100.0
 43
100.0
 50
180.0
  0
MTEXT
  5
24F74
330
24985
100
AcDbEntity
  8
寸法
 62
     7
 48
50.0
100
AcDbMText
 10
9043.60000000001
 20
8176.788137277817
 30
0.0
 40
120.0
 41
0.0
 71
     5
 72
     1
  1
\A1;820
  7
STYLE1
 73
     1
 44
1.0
1001
ACAD
1000
MTEXTBEGIN
1070
    73
1070
     1
1070
    44
1040
1.0
1070
    74
1070
     0
1000
MTEXTEND
  0
POINT
  5
24F75
330
24985
100
AcDbEntity
  8
DEFPOINTS
 62
     0
 48
50.0
100
AcDbPoint
 10
9453.60000000001
 20
6911.167509583947
 30
0.0
  0
POINT
  5
24F76
330
24985
100
AcDbEntity
  8
DEFPOINTS
 62
     0
 48
50.0
100
AcDbPoint
 10
8633.60000000001
 20
6911.167509583947
 30
0.0
  0
POINT
  5
24F77
330
24985
100
AcDbEntity
  8
DEFPOINTS
 62
     0
 48
50.0
100
AcDbPoint
 10
8633.60000000001
 20
8076.776326254195
 30
0.0
  0
ENDBLK
  5
24990
330
24985
100
AcDbEntity
  8
0
 48
50.0
100
AcDbBlockEnd
  0
BLOCK
  5
2499B
330
24991
100
AcDbEntity
  8
0
 48
50.0
100
AcDbBlockBegin
  2
*D44
 70
     1
 10
0.0
 20
0.0
 30
0.0
  3
*D44
  1

  0
LINE
  5
24F54
330
24991
100
AcDbEntity
  8
寸法
 62
     0
 48
50.0
370
    -2
100
AcDbLine
 10
10278.6
 20
7614.167509583947
 30
0.0
 11
10278.6
 21
8136.776326254196
 31
0.0
  0
LINE
  5
24F55
330
24991
100
AcDbEntity
  8
寸法
 62
     0
 48
50.0
370
    -2
100
AcDbLine
 10
9453.60000000001
 20
6931.167509583947
 30
0.0
 11
9453.60000000001
 21
8136.776326254196
 31
0.0
  0
LINE
  5
24F56
330
24991
100
AcDbEntity
  8
寸法
 62
     0
 48
50.0
370
    -2
100
AcDbLine
 10
10278.6
 20
8076.776326254195
 30
0.0
 11
9453.60000000001
 21
8076.776326254195
 31
0.0
  0
INSERT
  5
24F57
330
24991
100
AcDbEntity
  8
寸法
 62
     0
 48
50.0
370
    -2
100
AcDbBlockReference
  2
_DOTSMALL
 10
10278.6
 20
8076.776326254195
 30
0.0
 41
100.0
 42
100.0
 43
100.0
  0
INSERT
  5
24F58
330
24991
100
AcDbEntity
  8
寸法
 62
     0
 48
50.0
370
    -2
100
AcDbBlockReference
  2
_DOTSMALL
 10
9453.60000000001
 20
8076.776326254195
 30
0.0
 41
100.0
 42
100.0
 43
100.0
 50
180.0
  0
MTEXT
  5
24F59
330
24991
100
AcDbEntity
  8
寸法
 62
     7
 48
50.0
100
AcDbMText
 10
9866.100000000006
 20
8176.788137277817
 30
0.0
 40
120.0
 41
0.0
 71
     5
 72
     1
  1
\A1;825
  7
STYLE1
 73
     1
 44
1.0
1001
ACAD
1000
MTEXTBEGIN
1070
    73
1070
     1
1070
    44
1040
1.0
1070
    74
1070
     0
1000
MTEXTEND
  0
POINT
  5
24F5A
330
24991
100
AcDbEntity
  8
DEFPOINTS
 62
     0
 48
50.0
100
AcDbPoint
 10
10278.6
 20
7594.167509583947
 30
0.0
  0
POINT
  5
24F5B
330
24991
100
AcDbEntity
  8
DEFPOINTS
 62
     0
 48
50.0
100
AcDbPoint
 10
9453.60000000001
 20
6911.167509583947
 30
0.0
  0
POINT
  5
24F5C
330
24991
100
AcDbEntity
  8
DEFPOINTS
 62
     0
 48
50.0
100
AcDbPoint
 10
9453.60000000001
 20
8076.776326254195
 30
0.0
  0
ENDBLK
  5
2499C
330
24991
100
AcDbEntity
  8
0
 48
50.0
100
AcDbBlockEnd
  0
BLOCK
  5
249B5
330
249AA
100
AcDbEntity
  8
0
 48
50.0
100
AcDbBlockBegin
  2
*D45
 70
     1
 10
0.0
 20
0.0
 30
0.0
  3
*D45
  1

  0
LINE
  5
24E2C
330
249AA
100
AcDbEntity
  8
寸法
 62
     0
 48
50.0
370
    -2
100
AcDbLine
 10
10278.6
 20
7614.167509583947
 30
0.0
 11
10278.6
 21
8380.433967677857
 31
0.0
  0
LINE
  5
24E2D
330
249AA
100
AcDbEntity
  8
寸法
 62
     0
 48
50.0
370
    -2
100
AcDbLine
 10
10155.6
 20
7541.167509583947
 30
0.0
 11
10155.6
 21
8380.433967677857
 31
0.0
  0
LINE
  5
24E2E
330
249AA
100
AcDbEntity
  8
寸法
 62
     0
 48
50.0
370
    -2
100
AcDbLine
 10
10155.6
 20
8320.433967677859
 30
0.0
 11
10278.6
 21
8320.433967677859
 31
0.0
  0
LINE
  5
24E2F
330
249AA
100
AcDbEntity
  8
寸法
 62
     0
 48
50.0
370
    -2
100
AcDbLine
 10
10278.6
 20
8320.433967677859
 30
0.0
 11
10690.19188309204
 21
8320.433967677859
 31
0.0
  0
INSERT
  5
24E30
330
249AA
100
AcDbEntity
  8
寸法
 62
     0
 48
50.0
370
    -2
100
AcDbBlockReference
  2
_DOTSMALL
 10
10155.6
 20
8320.433967677859
 30
0.0
 41
100.0
 42
100.0
 43
100.0
 50
180.0
  0
INSERT
  5
24E31
330
249AA
100
AcDbEntity
  8
寸法
 62
     0
 48
50.0
370
    -2
100
AcDbBlockReference
  2
_DOTSMALL
 10
10278.6
 20
8320.433967677859
 30
0.0
 41
100.0
 42
100.0
 43
100.0
  0
MTEXT
  5
24E32
330
249AA
100
AcDbEntity
  8
寸法
 62
     7
 48
50.0
100
AcDbMText
 10
10551.7066017178
 20
8420.445778701481
 30
0.0
 40
120.0
 41
0.0
 71
     5
 72
     1
  1
\A1;123
  7
STYLE1
 73
     1
 44
1.0
1001
ACAD
1000
MTEXTBEGIN
1070
    73
1070
     1
1070
    44
1040
1.0
1070
    74
1070
     0
1000
MTEXTEND
  0
POINT
  5
24E33
330
249AA
100
AcDbEntity
  8
DEFPOINTS
 62
     0
 48
50.0
100
AcDbPoint
 10
10278.6
 20
7594.167509583947
 30
0.0
  0
POINT
  5
24E34
330
249AA
100
AcDbEntity
  8
DEFPOINTS
 62
     0
 48
50.0
100
AcDbPoint
 10
10155.6
 20
7521.167509583948
 30
0.0
  0
POINT
  5
24E35
330
249AA
100
AcDbEntity
  8
DEFPOINTS
 62
     0
 48
50.0
100
AcDbPoint
 10
10155.6
 20
8320.433967677859
 30
0.0
  0
ENDBLK
  5
249B6
330
249AA
100
AcDbEntity
  8
0
 48
50.0
100
AcDbBlockEnd
  0
BLOCK
  5
249C2
330
249B7
100
AcDbEntity
  8
0
 48
50.0
100
AcDbBlockBegin
  2
*D46
 70
     1
 10
0.0
 20
0.0
 30
0.0
  3
*D46
  1

  0
LINE
  5
25038
330
249B7
100
AcDbEntity
  8
寸法
 62
     0
 48
50.0
370
    -2
100
AcDbLine
 10
10278.6
 20
7095.533566653523
 30
0.0
 11
10278.6
 21
7038.54030261469
 31
0.0
  0
LINE
  5
25039
330
249B7
100
AcDbEntity
  8
寸法
 62
     0
 48
50.0
370
    -2
100
AcDbLine
 10
10158.6
 20
7118.54030261469
 30
0.0
 11
10158.6
 21
7158.54030261469
 31
0.0
  0
LINE
  5
2503A
330
249B7
100
AcDbEntity
  8
寸法
 62
     0
 48
50.0
370
    -2
100
AcDbLine
 10
10158.6
 20
7098.540302614691
 30
0.0
 11
10278.6
 21
7098.540302614691
 31
0.0
  0
LINE
  5
2503B
330
249B7
100
AcDbEntity
  8
寸法
 62
     0
 48
50.0
370
    -2
100
AcDbLine
 10
10278.6
 20
7098.540302614691
 30
0.0
 11
10684.7062992126
 21
7098.540302614691
 31
0.0
  0
INSERT
  5
2503C
330
249B7
100
AcDbEntity
  8
寸法
 62
     0
 48
50.0
370
    -2
100
AcDbBlockReference
  2
_DOTSMALL
 10
10158.6
 20
7098.540302614691
 30
0.0
 41
100.0
 42
100.0
 43
100.0
 50
180.0
  0
INSERT
  5
2503D
330
249B7
100
AcDbEntity
  8
寸法
 62
     0
 48
50.0
370
    -2
100
AcDbBlockReference
  2
_DOTSMALL
 10
10278.6
 20
7098.540302614691
 30
0.0
 41
100.0
 42
100.0
 43
100.0
  0
MTEXT
  5
2503E
330
249B7
100
AcDbEntity
  8
寸法
 62
     7
 48
50.0
100
AcDbMText
 10
10548.65905511811
 20
7198.552113638313
 30
0.0
 40
120.0
 41
0.0
 71
     5
 72
     1
  1
\A1;120
  7
STYLE1
 73
     1
 44
1.0
1001
ACAD
1000
MTEXTBEGIN
1070
    73
1070
     1
1070
    44
1040
1.0
1070
    74
1070
     0
1000
MTEXTEND
  0
POINT
  5
2503F
330
249B7
100
AcDbEntity
  8
DEFPOINTS
 62
     0
 48
50.0
100
AcDbPoint
 10
10278.6
 20
7115.533566653524
 30
0.0
  0
POINT
  5
25040
330
249B7
100
AcDbEntity
  8
DEFPOINTS
 62
     0
 48
50.0
100
AcDbPoint
 10
10158.6
 20
7098.540302614691
 30
0.0
  0
POINT
  5
25041
330
249B7
100
AcDbEntity
  8
DEFPOINTS
 62
     0
 48
50.0
100
AcDbPoint
 10
10158.6
 20
7098.540302614691
 30
0.0
  0
ENDBLK
  5
249C3
330
249B7
100
AcDbEntity
  8
0
 48
50.0
100
AcDbBlockEnd
  0
BLOCK
  5
25304
330
252FA
100
AcDbEntity
  8
0
 48
50.0
100
AcDbBlockBegin
  2
*D53
 70
     1
 10
0.0
 20
0.0
 30
0.0
  3
*D53
  1

  0
LINE
  5
25344
330
252FA
100
AcDbEntity
  8
寸法
 62
     0
 48
50.0
370
    -2
100
AcDbLine
 10
6557.824109400211
 20
2014.099846061437
 30
0.0
 11
6557.824109400211
 21
2473.767653977818
 31
0.0
  0
LINE
  5
25345
330
252FA
100
AcDbEntity
  8
寸法
 62
     0
 48
50.0
370
    -2
100
AcDbLine
 10
6365.824109400211
 20
2014.099846061437
 30
0.0
 11
6365.824109400211
 21
2473.767653977818
 31
0.0
  0
LINE
  5
25346
330
252FA
100
AcDbEntity
  8
寸法
 62
     0
 48
50.0
370
    -2
100
AcDbLine
 10
6557.824109400211
 20
2413.767653977818
 30
0.0
 11
6365.824109400211
 21
2413.767653977818
 31
0.0
  0
INSERT
  5
25347
330
252FA
100
AcDbEntity
  8
寸法
 62
     0
 48
50.0
370
    -2
100
AcDbBlockReference
  2
_DOTSMALL
 10
6557.824109400211
 20
2413.767653977818
 30
0.0
 41
100.0
 42
100.0
 43
100.0
  0
INSERT
  5
25348
330
252FA
100
AcDbEntity
  8
寸法
 62
     0
 48
50.0
370
    -2
100
AcDbBlockReference
  2
_DOTSMALL
 10
6365.824109400211
 20
2413.767653977818
 30
0.0
 41
100.0
 42
100.0
 43
100.0
 50
180.0
  0
MTEXT
  5
25349
330
252FA
100
AcDbEntity
  8
寸法
 62
     7
 48
50.0
100
AcDbMText
 10
6461.82410940021
 20
2713.803087048684
 30
0.0
 40
120.0
 41
0.0
 71
     5
 72
     1
  1
\A1;120\P200\P280
  7
STYLE1
 73
     1
 44
1.0
1001
ACAD
1000
MTEXTBEGIN
1070
    73
1070
     1
1070
    44
1040
1.0
1070
    74
1070
     0
1000
MTEXTEND
  0
POINT
  5
2534A
330
252FA
100
AcDbEntity
  8
DEFPOINTS
 62
     0
 48
50.0
100
AcDbPoint
 10
6557.824109400211
 20
1994.099846061437
 30
0.0
  0
POINT
  5
2534B
330
252FA
100
AcDbEntity
  8
DEFPOINTS
 62
     0
 48
50.0
100
AcDbPoint
 10
6365.824109400211
 20
1994.099846061437
 30
0.0
  0
POINT
  5
2534C
330
252FA
100
AcDbEntity
  8
DEFPOINTS
 62
     0
 48
50.0
100
AcDbPoint
 10
6365.824109400211
 20
2413.767653977818
 30
0.0
  0
ENDBLK
  5
25305
330
252FA
100
AcDbEntity
  8
0
 48
50.0
100
AcDbBlockEnd
  0
BLOCK
  5
25310
330
25306
100
AcDbEntity
  8
0
 48
50.0
100
AcDbBlockBegin
  2
*D54
 70
     1
 10
0.0
 20
0.0
 30
0.0
  3
*D54
  1

  0
LINE
  5
2534D
330
25306
100
AcDbEntity
  8
寸法
 62
     0
 48
50.0
370
    -2
100
AcDbLine
 10
6237.824109400211
 20
1062.099846061437
 30
0.0
 11
6237.824109400211
 21
611.6702080562772
 31
0.0
  0
LINE
  5
2534E
330
25306
100
AcDbEntity
  8
寸法
 62
     0
 48
50.0
370
    -2
100
AcDbLine
 10
6685.824109400211
 20
1062.099846061437
 30
0.0
 11
6685.824109400211
 21
611.6702080562772
 31
0.0
  0
LINE
  5
2534F
330
25306
100
AcDbEntity
  8
寸法
 62
     0
 48
50.0
370
    -2
100
AcDbLine
 10
6237.824109400211
 20
671.6702080562773
 30
0.0
 11
6685.824109400211
 21
671.6702080562773
 31
0.0
  0
INSERT
  5
25350
330
25306
100
AcDbEntity
  8
寸法
 62
     0
 48
50.0
370
    -2
100
AcDbBlockReference
  2
_DOTSMALL
 10
6237.824109400211
 20
671.6702080562773
 30
0.0
 41
100.0
 42
100.0
 43
100.0
 50
180.0
  0
INSERT
  5
25351
330
25306
100
AcDbEntity
  8
寸法
 62
     0
 48
50.0
370
    -2
100
AcDbBlockReference
  2
_DOTSMALL
 10
6685.824109400211
 20
671.6702080562773
 30
0.0
 41
100.0
 42
100.0
 43
100.0
  0
MTEXT
  5
25352
330
25306
100
AcDbEntity
  8
寸法
 62
     7
 48
50.0
100
AcDbMText
 10
6441.727350721987
 20
771.6702080562773
 30
0.0
 40
120.0
 41
0.0
 71
     5
 72
     1
  1
\A1;300
  7
STYLE1
 73
     1
 44
1.0
1001
ACAD
1000
MTEXTBEGIN
1070
    73
1070
     1
1070
    44
1040
1.0
1070
    74
1070
     0
1000
MTEXTEND
  0
POINT
  5
25353
330
25306
100
AcDbEntity
  8
DEFPOINTS
 62
     0
 48
50.0
100
AcDbPoint
 10
6237.824109400211
 20
1082.099846061437
 30
0.0
  0
POINT
  5
25354
330
25306
100
AcDbEntity
  8
DEFPOINTS
 62
     0
 48
50.0
100
AcDbPoint
 10
6685.824109400211
 20
1082.099846061437
 30
0.0
  0
POINT
  5
25355
330
25306
100
AcDbEntity
  8
DEFPOINTS
 62
     0
 48
50.0
100
AcDbPoint
 10
6685.824109400211
 20
671.6702080562773
 30
0.0
  0
ENDBLK
  5
25311
330
25306
100
AcDbEntity
  8
0
 48
50.0
100
AcDbBlockEnd
  0
BLOCK
  5
2531C
330
25312
100
AcDbEntity
  8
0
 48
50.0
100
AcDbBlockBegin
  2
*D55
 70
     1
 10
0.0
 20
0.0
 30
0.0
  3
*D55
  1

  0
LINE
  5
25356
330
25312
100
AcDbEntity
  8
寸法
 62
     0
 48
50.0
370
    -2
100
AcDbLine
 10
6345.824109400211
 20
1994.099846061437
 30
0.0
 11
5570.78687083847
 21
1994.099846061438
 31
0.0
  0
LINE
  5
25357
330
25312
100
AcDbEntity
  8
寸法
 62
     0
 48
50.0
370
    -2
100
AcDbLine
 10
6137.824109400214
 20
1210.099846061437
 30
0.0
 11
5570.78687083847
 21
1210.099846061437
 31
0.0
  0
LINE
  5
25358
330
25312
100
AcDbEntity
  8
寸法
 62
     0
 48
50.0
370
    -2
100
AcDbLine
 10
5630.78687083847
 20
1994.099846061438
 30
0.0
 11
5630.78687083847
 21
1210.099846061437
 31
0.0
  0
INSERT
  5
25359
330
25312
100
AcDbEntity
  8
寸法
 62
     0
 48
50.0
370
    -2
100
AcDbBlockReference
  2
_DOTSMALL
 10
5630.78687083847
 20
1994.099846061438
 30
0.0
 41
100.0
 42
100.0
 43
100.0
 50
90.0
  0
INSERT
  5
2535A
330
25312
100
AcDbEntity
  8
寸法
 62
     0
 48
50.0
370
    -2
100
AcDbBlockReference
  2
_DOTSMALL
 10
5630.78687083847
 20
1210.099846061437
 30
0.0
 41
100.0
 42
100.0
 43
100.0
 50
270.0
  0
MTEXT
  5
2535B
330
25312
100
AcDbEntity
  8
寸法
 62
     7
 48
50.0
100
AcDbMText
 10
5530.78687083847
 20
1581.639995717438
 30
0.0
 40
120.0
 41
0.0
 71
     5
 72
     1
  1
\A1;540
  7
STYLE1
 11
0.0000000000000001
 21
1.0
 31
0.0
 73
     1
 44
1.0
1001
ACAD
1000
MTEXTBEGIN
1070
    73
1070
     1
1070
    44
1040
1.0
1070
    74
1070
     0
1000
MTEXTEND
  0
POINT
  5
2535C
330
25312
100
AcDbEntity
  8
DEFPOINTS
 62
     0
 48
50.0
100
AcDbPoint
 10
6365.824109400211
 20
1994.099846061437
 30
0.0
  0
POINT
  5
2535D
330
25312
100
AcDbEntity
  8
DEFPOINTS
 62
     0
 48
50.0
100
AcDbPoint
 10
6157.824109400214
 20
1210.099846061437
 30
0.0
  0
POINT
  5
2535E
330
25312
100
AcDbEntity
  8
DEFPOINTS
 62
     0
 48
50.0
100
AcDbPoint
 10
5630.78687083847
 20
1210.099846061437
 30
0.0
  0
ENDBLK
  5
2531D
330
25312
100
AcDbEntity
  8
0
 48
50.0
100
AcDbBlockEnd
  0
BLOCK
  5
25328
330
2531E
100
AcDbEntity
  8
0
 48
50.0
100
AcDbBlockBegin
  2
*D56
 70
     1
 10
0.0
 20
0.0
 30
0.0
  3
*D56
  1

  0
LINE
  5
2535F
330
2531E
100
AcDbEntity
  8
寸法
 62
     0
 48
50.0
370
    -2
100
AcDbLine
 10
6217.82410940021
 20
1450.099846061437
 30
0.0
 11
6035.403795667751
 21
1450.099846061437
 31
0.0
  0
LINE
  5
25360
330
2531E
100
AcDbEntity
  8
寸法
 62
     0
 48
50.0
370
    -2
100
AcDbLine
 10
6137.824109400214
 20
1210.099846061437
 30
0.0
 11
6035.403795667751
 21
1210.099846061437
 31
0.0
  0
LINE
  5
25361
330
2531E
100
AcDbEntity
  8
寸法
 62
     0
 48
50.0
370
    -2
100
AcDbLine
 10
6095.403795667751
 20
1450.099846061437
 30
0.0
 11
6095.403795667751
 21
1210.099846061437
 31
0.0
  0
INSERT
  5
25362
330
2531E
100
AcDbEntity
  8
寸法
 62
     0
 48
50.0
370
    -2
100
AcDbBlockReference
  2
_DOTSMALL
 10
6095.403795667751
 20
1450.099846061437
 30
0.0
 41
100.0
 42
100.0
 43
100.0
 50
90.0
  0
INSERT
  5
25363
330
2531E
100
AcDbEntity
  8
寸法
 62
     0
 48
50.0
370
    -2
100
AcDbBlockReference
  2
_DOTSMALL
 10
6095.403795667751
 20
1210.099846061437
 30
0.0
 41
100.0
 42
100.0
 43
100.0
 50
270.0
  0
MTEXT
  5
25364
330
2531E
100
AcDbEntity
  8
寸法
 62
     7
 48
50.0
100
AcDbMText
 10
5995.403795667751
 20
1330.099846061438
 30
0.0
 40
120.0
 41
0.0
 71
     5
 72
     1
  1
\A1;150
  7
STYLE1
 11
0.0000000000000001
 21
1.0
 31
0.0
 73
     1
 44
1.0
1001
ACAD
1000
MTEXTBEGIN
1070
    73
1070
     1
1070
    44
1040
1.0
1070
    74
1070
     0
1000
MTEXTEND
  0
POINT
  5
25365
330
2531E
100
AcDbEntity
  8
DEFPOINTS
 62
     0
 48
50.0
100
AcDbPoint
 10
6237.824109400211
 20
1450.099846061437
 30
0.0
  0
POINT
  5
25366
330
2531E
100
AcDbEntity
  8
DEFPOINTS
 62
     0
 48
50.0
100
AcDbPoint
 10
6157.824109400214
 20
1210.099846061437
 30
0.0
  0
POINT
  5
25367
330
2531E
100
AcDbEntity
  8
DEFPOINTS
 62
     0
 48
50.0
100
AcDbPoint
 10
6095.403795667751
 20
1210.099846061437
 30
0.0
  0
ENDBLK
  5
25329
330
2531E
100
AcDbEntity
  8
0
 48
50.0
100
AcDbBlockEnd
  0
BLOCK
  5
25336
330
2532A
100
AcDbEntity
  8
0
 48
50.0
100
AcDbBlockBegin
  2
*D57
 70
     1
 10
0.0
 20
0.0
 30
0.0
  3
*D57
  1

  0
LINE
  5
25368
330
2532A
100
AcDbEntity
  8
寸法
 62
     0
 48
50.0
370
    -2
100
AcDbLine
 10
8312.663422577406
 20
2046.859846061439
 30
0.0
 11
9317.786688465275
 21
2046.859846061439
 31
0.0
  0
LINE
  5
25369
330
2532A
100
AcDbEntity
  8
寸法
 62
     0
 48
50.0
370
    -2
100
AcDbLine
 10
8499.863422577403
 20
1994.099846061437
 30
0.0
 11
9317.786688465275
 21
1994.099846061437
 31
0.0
  0
LINE
  5
2536A
330
2532A
100
AcDbEntity
  8
寸法
 62
     0
 48
50.0
370
    -2
100
AcDbLine
 10
9257.786688465277
 20
2046.859846061439
 30
0.0
 11
9257.786688465277
 21
2146.859846061438
 31
0.0
  0
LINE
  5
2536B
330
2532A
100
AcDbEntity
  8
寸法
 62
     0
 48
50.0
370
    -2
100
AcDbLine
 10
9257.786688465277
 20
1994.099846061437
 30
0.0
 11
9257.786688465277
 21
1262.082039218471
 31
0.0
  0
LINE
  5
2536C
330
2532A
100
AcDbEntity
  8
寸法
 62
     0
 48
50.0
370
    -2
100
AcDbLine
 10
9257.786688465277
 20
2046.859846061439
 30
0.0
 11
9257.786688465277
 21
1994.099846061437
 31
0.0
  0
INSERT
  5
2536D
330
2532A
100
AcDbEntity
  8
寸法
 62
     0
 48
50.0
370
    -2
100
AcDbBlockReference
  2
_DOTSMALL
 10
9257.786688465277
 20
2046.859846061439
 30
0.0
 41
100.0
 42
100.0
 43
100.0
 50
270.0
  0
INSERT
  5
2536E
330
2532A
100
AcDbEntity
  8
寸法
 62
     0
 48
50.0
370
    -2
100
AcDbBlockReference
  2
_DOTSMALL
 10
9257.786688465277
 20
1994.099846061437
 30
0.0
 41
100.0
 42
100.0
 43
100.0
 50
90.0
  0
MTEXT
  5
2536F
330
2532A
100
AcDbEntity
  8
寸法
 62
     7
 48
50.0
100
AcDbMText
 10
9157.774877441655
 20
1528.090942639955
 30
0.0
 40
120.0
 41
0.0
 71
     5
 72
     1
  1
\A1;20～25
  7
STYLE1
 11
0.0000000000000001
 21
1.0
 31
0.0
 73
     1
 44
1.0
1001
ACAD
1000
MTEXTBEGIN
1070
    73
1070
     1
1070
    44
1040
1.0
1070
    74
1070
     0
1000
MTEXTEND
  0
POINT
  5
25370
330
2532A
100
AcDbEntity
  8
DEFPOINTS
 62
     0
 48
50.0
100
AcDbPoint
 10
8292.663422577405
 20
2046.859846061439
 30
0.0
  0
POINT
  5
25371
330
2532A
100
AcDbEntity
  8
DEFPOINTS
 62
     0
 48
50.0
100
AcDbPoint
 10
8479.863422577404
 20
1994.099846061437
 30
0.0
  0
POINT
  5
25372
330
2532A
100
AcDbEntity
  8
DEFPOINTS
 62
     0
 48
50.0
100
AcDbPoint
 10
9257.786688465277
 20
1994.099846061437
 30
0.0
  0
ENDBLK
  5
25337
330
2532A
100
AcDbEntity
  8
0
 48
50.0
100
AcDbBlockEnd
  0
BLOCK
  5
25342
330
25338
100
AcDbEntity
  8
0
 48
50.0
100
AcDbBlockBegin
  2
*D58
 70
     1
 10
0.0
 20
0.0
 30
0.0
  3
*D58
  1

  0
LINE
  5
25373
330
25338
100
AcDbEntity
  8
寸法
 62
     0
 48
50.0
370
    -2
100
AcDbLine
 10
8499.863422577403
 20
1994.099846061437
 30
0.0
 11
9041.732022346248
 21
1994.099846061437
 31
0.0
  0
LINE
  5
25374
330
25338
100
AcDbEntity
  8
寸法
 62
     0
 48
50.0
370
    -2
100
AcDbLine
 10
8499.863422577403
 20
1670.099846061436
 30
0.0
 11
9041.732022346248
 21
1670.099846061436
 31
0.0
  0
LINE
  5
25375
330
25338
100
AcDbEntity
  8
寸法
 62
     0
 48
50.0
370
    -2
100
AcDbLine
 10
8981.732022346248
 20
1994.099846061437
 30
0.0
 11
8981.732022346248
 21
1670.099846061436
 31
0.0
  0
INSERT
  5
25376
330
25338
100
AcDbEntity
  8
寸法
 62
     0
 48
50.0
370
    -2
100
AcDbBlockReference
  2
_DOTSMALL
 10
8981.732022346248
 20
1994.099846061437
 30
0.0
 41
100.0
 42
100.0
 43
100.0
 50
90.0
  0
INSERT
  5
25377
330
25338
100
AcDbEntity
  8
寸法
 62
     0
 48
50.0
370
    -2
100
AcDbBlockReference
  2
_DOTSMALL
 10
8981.732022346248
 20
1670.099846061436
 30
0.0
 41
100.0
 42
100.0
 43
100.0
 50
270.0
  0
MTEXT
  5
25378
330
25338
100
AcDbEntity
  8
寸法
 62
     7
 48
50.0
100
AcDbMText
 10
8881.732022346248
 20
1832.099846061438
 30
0.0
 40
120.0
 41
0.0
 71
     5
 72
     1
  1
\A1;180
  7
STYLE1
 11
0.0000000000000001
 21
1.0
 31
0.0
 73
     1
 44
1.0
1001
ACAD
1000
MTEXTBEGIN
1070
    73
1070
     1
1070
    44
1040
1.0
1070
    74
1070
     0
1000
MTEXTEND
  0
POINT
  5
25379
330
25338
100
AcDbEntity
  8
DEFPOINTS
 62
     0
 48
50.0
100
AcDbPoint
 10
8479.863422577404
 20
1994.099846061437
 30
0.0
  0
POINT
  5
2537A
330
25338
100
AcDbEntity
  8
DEFPOINTS
 62
     0
 48
50.0
100
AcDbPoint
 10
8479.863422577404
 20
1670.099846061436
 30
0.0
  0
POINT
  5
2537B
330
25338
100
AcDbEntity
  8
DEFPOINTS
 62
     0
 48
50.0
100
AcDbPoint
 10
8981.732022346248
 20
1670.099846061436
 30
0.0
  0
ENDBLK
  5
25343
330
25338
100
AcDbEntity
  8
0
 48
50.0
100
AcDbBlockEnd
  0
ENDSEC
  0
SECTION
  2
ENTITIES
  0
MTEXT
  5
763F
330
747D
100
AcDbEntity
  8
0
100
AcDbMText
 10
302.846345836809
 20
280.1983726409901
 30
0.0
 40
3.5
 41
5.323721266742722
 71
     1
 72
     5
  1

  7
MSMINCHO
 73
     1
 44
1.0
1001
ACAD
1000
MTEXTBEGIN
1070
    73
1070
     1
1070
    44
1040
1.0
1070
    74
1070
     0
1000
MTEXTEND
  0
LINE
  5
10B57
330
747D
100
AcDbEntity
  8
補助
  6
PHANTOM
 62
   230
 48
50.0
100
AcDbLine
 10
139.9999999999995
 20
11409.6
 30
0.0
 11
16307.2
 21
11409.6
 31
0.0
  0
LINE
  5
10B59
330
747D
100
AcDbEntity
  8
仕様書枠
  6
Continuous
 48
50.0
100
AcDbLine
 10
13107.2
 20
1200.0
 30
0.0
 11
13107.2
 21
-0.0000000000000729
 31
0.0
  0
LINE
  5
10B5D
330
747D
100
AcDbEntity
  8
仕様書枠
 48
50.0
100
AcDbLine
 10
140.0
 20
0.0
 30
0.0
 11
16307.2
 21
-0.0000000000000909
 31
0.0
  0
LINE
  5
10B5E
330
747D
100
AcDbEntity
  8
補助
  6
PHANTOM
 62
   230
 48
50.0
100
AcDbLine
 10
16307.2
 20
11409.6
 30
0.0
 11
16307.2
 21
1200.0
 31
0.0
  0
LINE
  5
10B6C
330
747D
100
AcDbEntity
  8
仕様書枠
 48
50.0
100
AcDbLine
 10
13107.2
 20
1200.0
 30
0.0
 11
16307.2
 21
1200.0
 31
0.0
  0
TEXT
  5
10B73
330
747D
100
AcDbEntity
  8
文字
 62
     7
 48
50.0
100
AcDbText
 10
13162.9790565769
 20
895.0906074299405
 30
0.0
 40
200.0
  1
基 礎 図
  7
STYLE2
100
AcDbText
  0
LINE
  5
10B7B
330
747D
100
AcDbEntity
  8
仕様書枠
 48
50.0
100
AcDbLine
 10
13107.2
 20
800.0
 30
0.0
 11
14251.2
 21
800.0
 31
0.0
  0
LINE
  5
10B88
330
747D
100
AcDbEntity
  8
仕様書枠
  6
Continuous
 48
50.0
100
AcDbLine
 10
14251.2
 20
1200.0
 30
0.0
 11
14251.2
 21
800.0
 31
0.0
  0
LINE
  5
16462
330
747D
100
AcDbEntity
  8
仕様書枠
 48
50.0
100
AcDbLine
 10
16307.2
 20
1200.0
 30
0.0
 11
16307.2
 21
-0.0000000000000909
 31
0.0
  0
LINE
  5
1903B
330
747D
100
AcDbEntity
  8
補助
  6
PHANTOM
 62
   230
 48
50.0
100
AcDbLine
 10
140.0
 20
0.0
 30
0.0
 11
139.9999999999995
 21
11409.6
 31
0.0
  0
LEADER
  5
1AC27
330
747D
100
AcDbEntity
  8
寸法
 48
50.0
100
AcDbLeader
  3
INABA_S50G
 73
     0
 74
     0
 75
     1
 40
120.0
 41
720.0000000000001
 76
     3
 10
10278.695499615
 20
6854.898279643757
 30
0.0
 10
10435.46907400128
 20
6593.884366075925
 30
0.0
 10
10560.46907400128
 20
6593.884366075925
 30
0.0
340
1AC28
1001
ACAD
1000
DSTYLE
1002
{
1070
   341
1005
0
1070
    40
1040
1.0
1070
   343
1005
0
1070
   344
1005
0
1002
}
  0
MTEXT
  5
1AC28
102
{ACAD_REACTORS
330
1AC27
102
}
330
747D
100
AcDbEntity
  8
部品1
 62
     7
 48
50.0
100
AcDbMText
 10
11305.46907400128
 20
6678.884366075924
 30
0.0
 40
120.0
 41
0.0
 71
     6
 72
     1
  1
\A1;床下換気口
  7
STYLE1
 73
     1
 44
1.0
1001
ACAD
1000
MTEXTBEGIN
1070
    73
1070
     1
1070
    44
1040
1.0
1070
    74
1070
     0
1000
MTEXTEND
  0
TEXT
  5
1AC29
330
747D
100
AcDbEntity
  8
部品1
 48
50.0
100
AcDbText
 10
10627.43013846118
 20
5844.060902396978
 30
0.0
 40
80.0
  1
(a=45,b=55,c=75)
  7
STYLE1
100
AcDbText
  0
TEXT
  5
1AC2A
330
747D
100
AcDbEntity
  8
部品1
 48
50.0
100
AcDbText
 10
10468.85112970688
 20
5950.906123265731
 30
0.0
 40
80.0
  1
※a,b,cは屋根の出幅です。
  7
STYLE1
100
AcDbText
  0
MTEXT
  5
1AC2B
102
{ACAD_REACTORS
330
1AC2C
102
}
330
747D
100
AcDbEntity
  8
部品1
 62
     7
 48
50.0
100
AcDbMText
 10
11266.63832569548
 20
6130.216810198806
 30
0.0
 40
120.0
 41
0.0
 71
     6
 72
     1
  1
\A1;屋根の外寸
  7
STYLE1
 73
     1
 44
1.0
1001
ACAD
1000
MTEXTBEGIN
1070
    73
1070
     1
1070
    44
1040
1.0
1070
    74
1070
     0
1000
MTEXTEND
  0
LEADER
  5
1AC2C
330
747D
100
AcDbEntity
  8
寸法
 48
50.0
100
AcDbLeader
  3
INABA_S50G
 73
     0
 74
     0
 75
     1
 40
120.0
 41
672.0
 76
     3
 10
10328.69831350344
 20
6304.106153662382
 30
0.0
 10
10444.63832569548
 20
6045.216810198806
 30
0.0
 10
10569.63832569548
 20
6045.216810198806
 30
0.0
340
1AC2B
1001
ACAD
1000
DSTYLE
1002
{
1070
   341
1005
0
1070
    40
1040
1.0
1070
   343
1005
0
1070
   344
1005
0
1002
}
  0
TEXT
  5
1C7A1
330
747D
100
AcDbEntity
  8
文字
 62
     7
 48
50.0
100
AcDbText
 10
13188.16259899338
 20
79.80631269190417
 30
0.0
 40
80.0
  1
※布基礎には換気口を設けてください。
  7
STYLE2
100
AcDbText
  0
TEXT
  5
1C7E7
330
747D
100
AcDbEntity
  8
文字
 62
     7
 48
50.0
100
AcDbText
 10
13188.16259899338
 20
246.7109242801889
 30
0.0
 40
80.0
  1
※寒冷地等は地域の実情に合わせた基礎にして下さい。
  7
STYLE2
100
AcDbText
  0
TEXT
  5
1C7E8
330
747D
100
AcDbEntity
  8
文字
 62
     7
 48
50.0
100
AcDbText
 10
14325.79230300687
 20
499.5983841039506
 30
0.0
 40
160.0
  1
ＮＸＮ－１２ＤＬ－５
  7
STYLE2
100
AcDbText
  0
TEXT
  5
1C7EC
330
747D
100
AcDbEntity
  8
文字
 62
     7
 48
50.0
100
AcDbText
 10
14524.131837222
 20
1031.557706291229
 30
0.0
 40
100.0
  1
<縮尺> S=1/40
  7
STYLE2
100
AcDbText
  0
TEXT
  5
1C7ED
330
747D
100
AcDbEntity
  8
文字
 62
     7
 48
50.0
100
AcDbText
 10
13201.43669998441
 20
477.2740661031257
 30
0.0
 40
160.0
  1
機種名
  7
STYLE2
100
AcDbText
  0
LINE
  5
1C7EF
330
747D
100
AcDbEntity
  8
文字
 62
     7
 48
50.0
100
AcDbLine
 10
13187.2
 20
400.0
 30
0.0
 11
16227.2
 21
400.0
 31
0.0
  0
MTEXT
  5
1D2D5
102
{ACAD_REACTORS
330
1D2D6
102
}
330
747D
100
AcDbEntity
  8
部品1
 62
     7
 48
50.0
100
AcDbMText
 10
11473.99523070988
 20
7909.780253826454
 30
0.0
 40
120.0
 41
0.0
 71
     6
 72
     1
  1
アンカーボルト
  7
STYLE1
 73
     1
 44
1.0
1001
ACAD
1000
MTEXTBEGIN
1070
    73
1070
     1
1070
    44
1040
1.0
1070
    74
1070
     0
1000
MTEXTEND
  0
LEADER
  5
1D2D6
330
747D
100
AcDbEntity
  8
寸法
 48
50.0
100
AcDbLeader
  3
INABA_S50G
 73
     0
 74
     0
 75
     1
 40
120.0
 41
994.3492424049171
 76
     3
 10
10155.680085757
 20
7471.375353942658
 30
0.0
 10
10329.64598830496
 20
7824.780253826455
 30
0.0
 10
10454.64598830496
 20
7824.780253826455
 30
0.0
340
1D2D5
1001
ACAD
1000
DSTYLE
1002
{
1070
   341
1005
0
1070
    40
1040
1.0
1070
   343
1005
0
1070
   344
1005
0
1002
}
  0
MTEXT
  5
1D332
102
{ACAD_REACTORS
330
1D333
102
}
330
747D
100
AcDbEntity
  8
部品1
 62
     7
 48
50.0
100
AcDbMText
 10
9968.828697015695
 20
6715.803213096258
 30
0.0
 40
120.0
 41
0.0
 71
     6
 72
     1
  1
CB
  7
STYLE1
 73
     1
 44
1.0
1001
ACAD
1000
MTEXTBEGIN
1070
    73
1070
     1
1070
    44
1040
1.0
1070
    74
1070
     0
1000
MTEXTEND
  0
LEADER
  5
1D333
330
747D
100
AcDbEntity
  8
寸法
 48
50.0
100
AcDbLeader
  3
INABA_S50G
 73
     0
 74
     0
 75
     1
 40
120.0
 41
149.591883092037
 76
     3
 10
9541.954011061013
 20
6853.521526651083
 30
0.0
 10
9669.23681392366
 20
6630.803213096257
 30
0.0
 10
9794.23681392366
 20
6630.803213096257
 30
0.0
340
1D332
1001
ACAD
1000
DSTYLE
1002
{
1070
   341
1005
0
1070
    40
1040
1.0
1070
   343
1005
0
1070
   344
1005
0
1002
}
  0
DIMENSION
  5
20DE1
330
747D
100
AcDbEntity
  8
寸法
 48
50.0
100
AcDbDimension
  2
*D19
 10
10323.6
 20
8552.387831642866
 30
0.0
 11
10594.77462120246
 21
8552.387831642866
 31
0.0
 70
   160
  1
a
 71
     5
 42
45.0
  3
INABA_S40G
100
AcDbAlignedDimension
 13
10278.6
 23
7594.167509583943
 33
0.0
 14
10323.6
 24
8320.433967677853
 34
0.0
100
AcDbRotatedDimension
1001
ACAD
1000
DSTYLE
1002
{
1070
   341
1005
0
1002
}
  0
DIMENSION
  5
20DFB
330
747D
100
AcDbEntity
  8
寸法
 48
50.0
100
AcDbDimension
  2
*D20
 10
6168.599999999991
 20
8552.387831642866
 30
0.0
 11
5852.425378797533
 21
8552.387831642866
 31
0.0
 70
   160
  1
a
 71
     5
 42
45.0
  3
INABA_S40G
100
AcDbAlignedDimension
 13
6123.599999999991
 23
8320.433967677855
 33
0.0
 14
6168.599999999991
 24
7594.167509583944
 34
0.0
100
AcDbRotatedDimension
1001
ACAD
1000
DSTYLE
1002
{
1070
   341
1005
0
1002
}
  0
LINE
  5
22711
330
747D
100
AcDbEntity
  8
想像線
 48
10.0
100
AcDbLine
 10
10323.6
 20
7669.167509583949
 30
0.0
 11
6123.599999999991
 21
7669.167509583958
 31
0.0
  0
LINE
  5
22712
330
747D
100
AcDbEntity
  8
想像線
 48
10.0
100
AcDbLine
 10
6123.599999999988
 20
5999.16750958396
 30
0.0
 11
6123.599999999991
 21
7669.167509583951
 31
0.0
  0
LINE
  5
22713
330
747D
100
AcDbEntity
  8
想像線
 48
10.0
100
AcDbLine
 10
10323.6
 20
5999.167509583964
 30
0.0
 11
10323.6
 21
7669.167509583949
 31
0.0
  0
LINE
  5
22714
330
747D
100
AcDbEntity
  8
想像線
 48
10.0
100
AcDbLine
 10
10323.6
 20
5999.167509583964
 30
0.0
 11
6123.599999999988
 21
5999.167509583955
 31
0.0
  0
DIMENSION
  5
22741
330
747D
100
AcDbEntity
  8
寸法
 48
50.0
100
AcDbDimension
  2
*D25
 10
5293.721909610663
 20
7594.167509583946
 30
0.0
 11
5193.721909610663
 21
7631.66750958395
 31
0.0
 70
    32
  1
c
 71
     5
 42
75.00000000000546
  3
INABA_S40G
100
AcDbAlignedDimension
 13
5545.665006330058
 23
7669.167509583951
 33
0.0
 14
6168.599999999991
 24
7594.167509583944
 34
0.0
 50
90.0
100
AcDbRotatedDimension
1001
ACAD
1000
DSTYLE
1002
{
1070
   341
1005
0
1002
}
  0
DIMENSION
  5
2275B
330
747D
100
AcDbEntity
  8
寸法
 48
50.0
100
AcDbDimension
  2
*D26
 10
5293.721909610663
 20
5999.167509583969
 30
0.0
 11
5193.721909610663
 21
6026.667509583958
 31
0.0
 70
    32
  1
b
 71
     5
 42
54.99999999997545
  3
INABA_S40G
100
AcDbAlignedDimension
 13
6168.599999999991
 23
6054.167509583944
 33
0.0
 14
5545.665006330062
 24
5999.167509583969
 34
0.0
 50
90.0
100
AcDbRotatedDimension
1001
ACAD
1000
DSTYLE
1002
{
1070
   341
1005
0
1002
}
  0
LINE
  5
247C2
330
747D
100
AcDbEntity
  8
部品1
 48
50.0
100
AcDbLine
 10
10158.6
 20
7394.167509583946
 30
0.0
 11
6288.599999999998
 21
7394.167509583947
 31
0.0
  0
DIMENSION
  5
247C5
330
747D
100
AcDbEntity
  8
寸法
 48
50.0
100
AcDbDimension
  2
*D27
 10
10278.6
 20
8552.387831642866
 30
0.0
 11
8223.600000000002
 21
8652.387831642865
 31
0.0
 70
    32
 71
     5
 42
4110.0
  3
INABA_S40G
100
AcDbAlignedDimension
 13
6168.600000000002
 23
7594.167509583947
 33
0.0
 14
10278.6
 24
7594.167509583947
 34
0.0
100
AcDbRotatedDimension
1001
ACAD
1000
DSTYLE
1002
{
1070
   341
1005
0
1002
}
  0
LINE
  5
247C6
330
747D
100
AcDbEntity
  8
部品1
 48
50.0
100
AcDbLine
 10
10278.6
 20
7594.167509583947
 30
0.0
 11
6168.600000000002
 21
7594.167509583947
 31
0.0
  0
DIMENSION
  5
247C8
330
747D
100
AcDbEntity
  8
寸法
 48
50.0
100
AcDbDimension
  2
*D28
 10
7695.600000000002
 20
8320.433967677859
 30
0.0
 11
8925.600000000002
 21
8420.445778701481
 31
0.0
 70
    32
 71
     5
 42
2460.0
  3
INABA_S40G
100
AcDbAlignedDimension
 13
10155.6
 23
7521.167509583948
 33
0.0
 14
7695.600000000002
 24
7521.167509583948
 34
0.0
100
AcDbRotatedDimension
1001
ACAD
1000
DSTYLE
1002
{
1070
   341
1005
0
1002
}
  0
LINE
  5
247C9
330
747D
100
AcDbEntity
  8
部品1
 48
50.0
100
AcDbLine
 10
10278.6
 20
6054.167509583965
 30
0.0
 11
6168.599999999998
 21
6054.167509583944
 31
0.0
  0
DIMENSION
  5
247CB
330
747D
100
AcDbEntity
  8
寸法
 48
50.0
100
AcDbDimension
  2
*D29
 10
7813.600000000009
 20
8076.776326254195
 30
0.0
 11
8223.60000000001
 21
8176.788137277817
 31
0.0
 70
    32
 71
     5
 42
820.0
  3
INABA_S40G
100
AcDbAlignedDimension
 13
8633.60000000001
 23
6911.167509583947
 33
0.0
 14
7813.600000000009
 24
6911.167509583947
 34
0.0
100
AcDbRotatedDimension
1001
ACAD
1000
DSTYLE
1002
{
1070
   341
1005
0
1002
}
  0
DIMENSION
  5
247CC
330
747D
100
AcDbEntity
  8
寸法
 48
50.0
100
AcDbDimension
  2
*D30
 10
6993.600000000009
 20
8076.776326254195
 30
0.0
 11
7403.60000000001
 21
8176.788137277817
 31
0.0
 70
    32
 71
     5
 42
820.0
  3
INABA_S40G
100
AcDbAlignedDimension
 13
7813.600000000009
 23
6911.167509583947
 33
0.0
 14
6993.600000000009
 24
6911.167509583947
 34
0.0
100
AcDbRotatedDimension
1001
ACAD
1000
DSTYLE
1002
{
1070
   341
1005
0
1002
}
  0
DIMENSION
  5
247CD
330
747D
100
AcDbEntity
  8
寸法
 48
50.0
100
AcDbDimension
  2
*D31
 10
6651.285990614304
 20
7594.167509583947
 30
0.0
 11
6651.285990614302
 21
7153.762300278124
 31
0.0
 70
   160
 71
     5
 42
733.0
  3
INABA_S40G
100
AcDbAlignedDimension
 13
6943.600000000009
 23
6861.167509583947
 33
0.0
 14
6742.765475140902
 24
7594.167509583947
 34
0.0
 50
90.0
100
AcDbRotatedDimension
1001
ACAD
1000
DSTYLE
1002
{
1070
   341
1005
0
1002
}
  0
DIMENSION
  5
247CE
330
747D
100
AcDbEntity
  8
寸法
 48
50.0
100
AcDbDimension
  2
*D32
 10
6168.600000000002
 20
8076.776326254195
 30
0.0
 11
6581.100000000006
 21
8176.788137277817
 31
0.0
 70
    32
 71
     5
 42
825.0000000000072
  3
INABA_S40G
100
AcDbAlignedDimension
 13
6993.600000000009
 23
6911.167509583947
 33
0.0
 14
6168.600000000002
 24
7594.167509583947
 34
0.0
100
AcDbRotatedDimension
1001
ACAD
1000
DSTYLE
1002
{
1070
   341
1005
0
1002
}
  0
DIMENSION
  5
247D1
330
747D
100
AcDbEntity
  8
寸法
 48
50.0
100
AcDbDimension
  2
*D33
 10
5293.721909610676
 20
6054.167509583948
 30
0.0
 11
5293.721909610674
 21
6861.667509583947
 31
0.0
 70
   160
 71
     5
 42
1540.0
  3
INABA_S40G
100
AcDbAlignedDimension
 13
6168.600000000002
 23
7594.167509583947
 33
0.0
 14
6168.600000000002
 24
6054.167509583948
 34
0.0
 50
90.0
100
AcDbRotatedDimension
1001
ACAD
1000
DSTYLE
1002
{
1070
   341
1005
0
1002
}
  0
DIMENSION
  5
247D2
330
747D
100
AcDbEntity
  8
寸法
 48
50.0
100
AcDbDimension
  2
*D34
 10
5545.665006330075
 20
6252.167509583951
 30
0.0
 11
5545.665006330073
 21
6861.667509583947
 31
0.0
 70
   160
 71
     5
 42
1218.999999999996
  3
INABA_S40G
100
AcDbAlignedDimension
 13
6241.600000000002
 23
7471.167509583948
 33
0.0
 14
6241.600000000009
 24
6252.167509583951
 34
0.0
 50
90.0
100
AcDbRotatedDimension
1001
ACAD
1000
DSTYLE
1002
{
1070
   341
1005
0
1002
}
  0
LINE
  5
247D3
330
747D
100
AcDbEntity
  8
部品1
 48
50.0
100
AcDbLine
 10
6168.600000000002
 20
6054.167509583948
 30
0.0
 11
6168.600000000002
 21
7594.167509583947
 31
0.0
  0
ARC
  5
247D5
330
747D
100
AcDbEntity
  8
想像線
 48
5.0
100
AcDbCircle
 10
6938.600000000007
 20
6054.167509583951
 30
0.0
 40
720.0
100
AcDbArc
 50
180.0
 51
270.0
  0
DIMENSION
  5
247D6
330
747D
100
AcDbEntity
  8
寸法
 48
50.0
100
AcDbDimension
  2
*D35
 10
6651.285990614304
 20
6861.167509583947
 30
0.0
 11
6651.285990614302
 21
6539.167509583947
 31
0.0
 70
   160
 71
     5
 42
806.999999999989
  3
INABA_S40G
100
AcDbAlignedDimension
 13
6742.765475140902
 23
6054.167509583958
 33
0.0
 14
6943.600000000009
 24
6861.167509583947
 34
0.0
 50
90.0
100
AcDbRotatedDimension
1001
ACAD
1000
DSTYLE
1002
{
1070
   341
1005
0
1002
}
  0
DIMENSION
  5
247D7
330
747D
100
AcDbEntity
  8
寸法
 48
50.0
100
AcDbDimension
  2
*D36
 10
6055.512673767883
 20
5334.167509583945
 30
0.0
 11
6055.512673767882
 21
5694.167509583945
 31
0.0
 70
   160
  1
扉の出<>
 71
     5
 42
720.0
  3
INABA_S40G
100
AcDbAlignedDimension
 13
6168.600000000005
 23
6054.167509583944
 33
0.0
 14
6524.32532692881
 24
5334.167509583943
 34
0.0
 50
90.0
100
AcDbRotatedDimension
1001
ACAD
1000
DSTYLE
1002
{
1070
   341
1005
0
1002
}
  0
DIMENSION
  5
247D8
330
747D
100
AcDbEntity
  8
寸法
 48
50.0
100
AcDbDimension
  2
*D37
 10
5545.665006330074
 20
6054.167509583948
 30
0.0
 11
5545.665006330073
 21
5718.636560741355
 31
0.0
 70
   160
 71
     5
 42
198.0000000000036
  3
INABA_S40G
100
AcDbAlignedDimension
 13
6241.600000000009
 23
6252.167509583951
 33
0.0
 14
6168.600000000002
 24
6054.167509583948
 34
0.0
 50
90.0
100
AcDbRotatedDimension
1001
ACAD
1000
DSTYLE
1002
{
1070
   341
1005
0
1002
}
  0
LINE
  5
247D9
330
747D
100
AcDbEntity
  8
センター
 48
2.0
100
AcDbLine
 10
6291.600000000009
 20
6302.167509583951
 30
0.0
 11
6291.600000000009
 21
6202.167509583951
 31
0.0
  0
LINE
  5
247DA
330
747D
100
AcDbEntity
  8
センター
 48
2.0
100
AcDbLine
 10
6241.600000000009
 20
6252.167509583951
 30
0.0
 11
6341.60000000001
 21
6252.167509583951
 31
0.0
  0
CIRCLE
  5
247DB
330
747D
100
AcDbEntity
  8
部品1
 48
50.0
100
AcDbCircle
 10
6291.599999999995
 20
6252.167509583951
 30
0.0
 40
35.0
  0
LINE
  5
247DC
330
747D
100
AcDbEntity
  8
細線
 48
50.0
100
AcDbLine
 10
6574.50308434379
 20
6054.16750958396
 30
0.0
 11
6683.600000000024
 21
6163.264425240193
 31
0.0
  0
LINE
  5
247DD
330
747D
100
AcDbEntity
  8
細線
 48
50.0
100
AcDbLine
 10
6529.601803738444
 20
6054.16750958396
 30
0.0
 11
6683.600000000024
 21
6208.165705845542
 31
0.0
  0
LINE
  5
247DE
330
747D
100
AcDbEntity
  8
細線
 48
50.0
100
AcDbLine
 10
6619.404364949139
 20
6054.167509583962
 30
0.0
 11
6683.600000000025
 21
6118.36314463485
 31
0.0
  0
LINE
  5
247DF
330
747D
100
AcDbEntity
  8
部品1
 48
50.0
100
AcDbLine
 10
6483.600000000021
 20
6334.167509583945
 30
0.0
 11
6483.600000000025
 21
6054.167509583958
 31
0.0
  0
LINE
  5
247E0
330
747D
100
AcDbEntity
  8
部品1
 48
50.0
100
AcDbLine
 10
6683.600000000021
 20
6334.167509583948
 30
0.0
 11
6683.600000000025
 21
6054.167509583962
 31
0.0
  0
LINE
  5
247E1
330
747D
100
AcDbEntity
  8
細線
 48
50.0
100
AcDbLine
 10
6483.600000000025
 20
6097.968267056232
 30
0.0
 11
6683.600000000021
 21
6297.968267056226
 31
0.0
  0
LINE
  5
247E2
330
747D
100
AcDbEntity
  8
細線
 48
50.0
100
AcDbLine
 10
6484.700523133098
 20
6054.167509583958
 30
0.0
 11
6683.600000000023
 21
6253.066986450885
 31
0.0
  0
LINE
  5
247E3
330
747D
100
AcDbEntity
  8
細線
 48
50.0
100
AcDbLine
 10
6664.305645554485
 20
6054.167509583963
 30
0.0
 11
6683.600000000028
 21
6073.461864029504
 31
0.0
  0
LINE
  5
247E4
330
747D
100
AcDbEntity
  8
細線
 48
50.0
100
AcDbLine
 10
6483.600000000024
 20
6187.770828266921
 30
0.0
 11
6629.99668131703
 21
6334.167509583945
 31
0.0
  0
LINE
  5
247E5
330
747D
100
AcDbEntity
  8
細線
 48
50.0
100
AcDbLine
 10
6483.600000000024
 20
6142.869547661578
 30
0.0
 11
6674.897961922394
 21
6334.167509583946
 31
0.0
  0
LINE
  5
247E6
330
747D
100
AcDbEntity
  8
細線
 48
50.0
100
AcDbLine
 10
6483.600000000023
 20
6277.573389477622
 30
0.0
 11
6540.194120106334
 21
6334.167509583946
 31
0.0
  0
LINE
  5
247E7
330
747D
100
AcDbEntity
  8
細線
 48
50.0
100
AcDbLine
 10
6483.600000000023
 20
6232.672108872275
 30
0.0
 11
6585.0954007117
 21
6334.167509583948
 31
0.0
  0
LINE
  5
247E8
330
747D
100
AcDbEntity
  8
細線
 48
50.0
100
AcDbLine
 10
6171.280033447565
 20
6749.167509583975
 30
0.0
 11
6288.6
 21
6866.487476136412
 31
0.0
  0
LINE
  5
247E9
330
747D
100
AcDbEntity
  8
細線
 48
50.0
100
AcDbLine
 10
6168.600000000002
 20
6791.388756741757
 30
0.0
 11
6288.6
 21
6911.388756741756
 31
0.0
  0
LINE
  5
247EA
330
747D
100
AcDbEntity
  8
細線
 48
50.0
100
AcDbLine
 10
6168.600000000002
 20
6836.290037347104
 30
0.0
 11
6281.477472236876
 21
6949.167509583978
 31
0.0
  0
LINE
  5
247EB
330
747D
100
AcDbEntity
  8
細線
 48
50.0
100
AcDbLine
 10
6168.600000000002
 20
6881.191317952451
 30
0.0
 11
6236.576191631526
 21
6949.167509583972
 31
0.0
  0
LINE
  5
247EC
330
747D
100
AcDbEntity
  8
細線
 48
50.0
100
AcDbLine
 10
6168.600000000002
 20
6926.092598557795
 30
0.0
 11
6191.674911026181
 21
6949.167509583975
 31
0.0
  0
LINE
  5
247ED
330
747D
100
AcDbEntity
  8
部品1
 48
50.0
100
AcDbLine
 10
6288.600000000002
 20
6949.167509583976
 30
0.0
 11
6168.600000000002
 21
6949.167509583975
 31
0.0
  0
LINE
  5
247EE
330
747D
100
AcDbEntity
  8
部品1
 48
50.0
100
AcDbLine
 10
6288.600000000002
 20
6749.167509583976
 30
0.0
 11
6168.600000000002
 21
6749.167509583975
 31
0.0
  0
LINE
  5
247EF
330
747D
100
AcDbEntity
  8
細線
 48
50.0
100
AcDbLine
 10
6261.082594658256
 20
6749.167509583973
 30
0.0
 11
6288.600000000002
 21
6776.684914925723
 31
0.0
  0
LINE
  5
247F0
330
747D
100
AcDbEntity
  8
細線
 48
50.0
100
AcDbLine
 10
6216.18131405291
 20
6749.167509583975
 30
0.0
 11
6288.600000000002
 21
6821.586195531065
 31
0.0
  0
LINE
  5
247F1
330
747D
100
AcDbEntity
  8
想像線
 48
5.0
100
AcDbLine
 10
6938.600000000007
 20
6054.167509583962
 30
0.0
 11
6938.600000000007
 21
5334.167509583951
 31
0.0
  0
DIMENSION
  5
247F2
330
747D
100
AcDbEntity
  8
寸法
 48
50.0
100
AcDbDimension
  2
*D38
 10
7366.819725318591
 20
6054.167509583938
 30
0.0
 11
7366.819725318589
 21
5767.203926906772
 31
0.0
 70
   160
 71
     5
 42
280.0000000000118
  3
INABA_S40G
100
AcDbAlignedDimension
 13
7405.095400711703
 23
6334.16750958395
 33
0.0
 14
7038.419106515966
 24
6054.167509583938
 34
0.0
 50
90.0
100
AcDbRotatedDimension
1001
ACAD
1000
DSTYLE
1002
{
1070
   341
1005
0
1002
}
  0
LINE
  5
247FF
330
747D
100
AcDbEntity
  8
センター
 48
2.0
100
AcDbLine
 10
6943.600000000009
 20
6861.167509583947
 30
0.0
 11
7043.600000000009
 21
6861.167509583947
 31
0.0
  0
LINE
  5
24800
330
747D
100
AcDbEntity
  8
部品1
 48
50.0
100
AcDbLine
 10
7093.600000000009
 20
6961.167509583948
 30
0.0
 11
6893.600000000009
 21
6961.167509583948
 31
0.0
  0
LINE
  5
24801
330
747D
100
AcDbEntity
  8
部品1
 48
50.0
100
AcDbLine
 10
7093.600000000009
 20
6761.167509583947
 30
0.0
 11
6893.600000000009
 21
6761.167509583947
 31
0.0
  0
LINE
  5
24802
330
747D
100
AcDbEntity
  8
部品1
 48
50.0
100
AcDbLine
 10
6893.600000000009
 20
6761.167509583947
 30
0.0
 11
6893.600000000009
 21
6961.167509583948
 31
0.0
  0
LINE
  5
24803
330
747D
100
AcDbEntity
  8
センター
 48
2.0
100
AcDbLine
 10
6993.600000000009
 20
6911.167509583947
 30
0.0
 11
6993.600000000009
 21
6811.167509583947
 31
0.0
  0
LINE
  5
24804
330
747D
100
AcDbEntity
  8
部品1
 48
50.0
100
AcDbLine
 10
7093.600000000009
 20
6761.167509583947
 30
0.0
 11
7093.600000000009
 21
6961.167509583948
 31
0.0
  0
TEXT
  5
24805
330
747D
100
AcDbEntity
  8
寸法
 48
50.0
100
AcDbText
 10
7804.425528075637
 20
6072.848800376686
 30
0.0
 40
120.0
  1
扉面
  7
STYLE1
100
AcDbText
  0
LINE
  5
24806
330
747D
100
AcDbEntity
  8
センター
 48
2.0
100
AcDbLine
 10
7695.60000000001
 20
6302.167509583951
 30
0.0
 11
7695.60000000001
 21
6202.167509583951
 31
0.0
  0
LINE
  5
24807
330
747D
100
AcDbEntity
  8
センター
 48
2.0
100
AcDbLine
 10
7645.60000000001
 20
6252.167509583951
 30
0.0
 11
7745.60000000001
 21
6252.167509583951
 31
0.0
  0
CIRCLE
  5
24808
330
747D
100
AcDbEntity
  8
部品1
 48
50.0
100
AcDbCircle
 10
7695.60000000001
 20
6252.167509583951
 30
0.0
 40
35.0
  0
LINE
  5
24815
330
747D
100
AcDbEntity
  8
センター
 48
2.0
100
AcDbLine
 10
7763.60000000001
 20
6861.167509583947
 30
0.0
 11
7863.600000000009
 21
6861.167509583947
 31
0.0
  0
LINE
  5
24816
330
747D
100
AcDbEntity
  8
部品1
 48
50.0
100
AcDbLine
 10
7913.600000000009
 20
6961.167509583948
 30
0.0
 11
7713.60000000001
 21
6961.167509583948
 31
0.0
  0
LINE
  5
24817
330
747D
100
AcDbEntity
  8
部品1
 48
50.0
100
AcDbLine
 10
7913.600000000009
 20
6761.167509583947
 30
0.0
 11
7713.60000000001
 21
6761.167509583947
 31
0.0
  0
LINE
  5
24818
330
747D
100
AcDbEntity
  8
部品1
 48
50.0
100
AcDbLine
 10
7713.60000000001
 20
6761.167509583947
 30
0.0
 11
7713.60000000001
 21
6961.167509583948
 31
0.0
  0
LINE
  5
24819
330
747D
100
AcDbEntity
  8
センター
 48
2.0
100
AcDbLine
 10
7813.600000000009
 20
6911.167509583947
 30
0.0
 11
7813.600000000009
 21
6811.167509583947
 31
0.0
  0
LINE
  5
2481A
330
747D
100
AcDbEntity
  8
部品1
 48
50.0
100
AcDbLine
 10
7913.600000000009
 20
6761.167509583947
 30
0.0
 11
7913.600000000009
 21
6961.167509583948
 31
0.0
  0
DIMENSION
  5
2481B
330
747D
100
AcDbEntity
  8
寸法
 48
50.0
100
AcDbDimension
  2
*D39
 10
6291.600000000002
 20
8320.433967677859
 30
0.0
 11
6993.600000000002
 21
8420.433967677858
 31
0.0
 70
    32
 71
     5
 42
1404.0
  3
INABA_S40G
100
AcDbAlignedDimension
 13
7695.600000000002
 23
7521.167509583948
 33
0.0
 14
6291.600000000002
 24
7521.167509583948
 34
0.0
100
AcDbRotatedDimension
1001
ACAD
1000
DSTYLE
1002
{
1070
   341
1005
0
1002
}
  0
DIMENSION
  5
2481C
330
747D
100
AcDbEntity
  8
寸法
 48
50.0
100
AcDbDimension
  2
*D40
 10
6168.600000000002
 20
8320.433967677859
 30
0.0
 11
5895.493398282204
 21
8320.433967677859
 31
0.0
 70
   160
 71
     5
 42
123.0
  3
INABA_S40G
100
AcDbAlignedDimension
 13
6291.600000000002
 23
7521.167509583948
 33
0.0
 14
6168.600000000002
 24
7594.167509583947
 34
0.0
100
AcDbRotatedDimension
1001
ACAD
1000
DSTYLE
1002
{
1070
   341
1005
0
1002
}
  0
DIMENSION
  5
2481F
330
747D
100
AcDbEntity
  8
寸法
 48
50.0
100
AcDbDimension
  2
*D41
 10
5545.665006330074
 20
7471.167509583948
 30
0.0
 11
5545.665006330073
 21
7867.274111301748
 31
0.0
 70
   160
 71
     5
 42
123.0
  3
INABA_S40G
100
AcDbAlignedDimension
 13
6168.600000000002
 23
7594.167509583947
 33
0.0
 14
6241.600000000002
 24
7471.167509583948
 34
0.0
 50
90.0
100
AcDbRotatedDimension
1001
ACAD
1000
DSTYLE
1002
{
1070
   341
1005
0
1002
}
  0
LINE
  5
24820
330
747D
100
AcDbEntity
  8
部品1
 48
50.0
100
AcDbLine
 10
6683.600000000009
 20
7594.167509583947
 30
0.0
 11
6683.600000000011
 21
7394.167509583951
 31
0.0
  0
LINE
  5
24821
330
747D
100
AcDbEntity
  8
細線
 48
50.0
100
AcDbLine
 10
6483.600000000011
 20
7441.290037347105
 30
0.0
 11
6636.477472236858
 21
7594.167509583947
 31
0.0
  0
LINE
  5
24822
330
747D
100
AcDbEntity
  8
部品1
 48
50.0
100
AcDbLine
 10
6483.600000000008
 20
7594.167509583947
 30
0.0
 11
6483.600000000011
 21
7394.167509583953
 31
0.0
  0
LINE
  5
24823
330
747D
100
AcDbEntity
  8
細線
 48
50.0
100
AcDbLine
 10
6483.600000000008
 20
7531.09259855779
 30
0.0
 11
6546.674911026169
 21
7594.16750958395
 31
0.0
  0
LINE
  5
24824
330
747D
100
AcDbEntity
  8
細線
 48
50.0
100
AcDbLine
 10
6483.600000000009
 20
7486.191317952442
 30
0.0
 11
6591.576191631514
 21
7594.167509583947
 31
0.0
  0
LINE
  5
24825
330
747D
100
AcDbEntity
  8
細線
 48
50.0
100
AcDbLine
 10
6483.600000000011
 20
7396.388756741756
 30
0.0
 11
6681.378752842205
 21
7594.167509583947
 31
0.0
  0
LINE
  5
24826
330
747D
100
AcDbEntity
  8
センター
 48
2.0
100
AcDbLine
 10
6291.600000000002
 20
7521.167509583948
 30
0.0
 11
6291.600000000002
 21
7421.167509583948
 31
0.0
  0
CIRCLE
  5
24827
330
747D
100
AcDbEntity
  8
部品1
 48
50.0
100
AcDbCircle
 10
6291.600000000002
 20
7471.167509583948
 30
0.0
 40
35.0
  0
LINE
  5
24828
330
747D
100
AcDbEntity
  8
センター
 48
2.0
100
AcDbLine
 10
6241.600000000002
 20
7471.167509583948
 30
0.0
 11
6341.600000000003
 21
7471.167509583948
 31
0.0
  0
LINE
  5
24829
330
747D
100
AcDbEntity
  8
細線
 48
50.0
100
AcDbLine
 10
6571.181314052914
 20
7394.16750958395
 30
0.0
 11
6683.600000000009
 21
7506.58619553106
 31
0.0
  0
LINE
  5
2482A
330
747D
100
AcDbEntity
  8
細線
 48
50.0
100
AcDbLine
 10
6526.280033447548
 20
7394.167509583953
 30
0.0
 11
6683.600000000009
 21
7551.487476136404
 31
0.0
  0
LINE
  5
2482B
330
747D
100
AcDbEntity
  8
細線
 48
50.0
100
AcDbLine
 10
6660.983875263609
 20
7394.167509583951
 30
0.0
 11
6683.600000000011
 21
7416.783634320355
 31
0.0
  0
LINE
  5
2482C
330
747D
100
AcDbEntity
  8
細線
 48
50.0
100
AcDbLine
 10
6616.082594658251
 20
7394.167509583951
 30
0.0
 11
6683.600000000011
 21
7461.684914925709
 31
0.0
  0
LINE
  5
2482D
330
747D
100
AcDbEntity
  8
細線
 48
50.0
100
AcDbLine
 10
6483.600000000008
 20
7575.993879163134
 30
0.0
 11
6501.773630420823
 21
7594.167509583947
 31
0.0
  0
LINE
  5
2482E
330
747D
100
AcDbEntity
  8
部品1
 48
50.0
100
AcDbLine
 10
7503.60000000001
 20
7594.167509583947
 30
0.0
 11
7503.60000000001
 21
7394.167509583951
 31
0.0
  0
LINE
  5
2482F
330
747D
100
AcDbEntity
  8
細線
 48
50.0
100
AcDbLine
 10
7303.60000000001
 20
7441.290037347105
 30
0.0
 11
7456.477472236857
 21
7594.167509583947
 31
0.0
  0
LINE
  5
24830
330
747D
100
AcDbEntity
  8
部品1
 48
50.0
100
AcDbLine
 10
7303.60000000001
 20
7594.167509583947
 30
0.0
 11
7303.60000000001
 21
7394.167509583953
 31
0.0
  0
LINE
  5
24831
330
747D
100
AcDbEntity
  8
細線
 48
50.0
100
AcDbLine
 10
7303.60000000001
 20
7486.191317952442
 30
0.0
 11
7411.576191631514
 21
7594.167509583947
 31
0.0
  0
LINE
  5
24832
330
747D
100
AcDbEntity
  8
細線
 48
50.0
100
AcDbLine
 10
7303.60000000001
 20
7531.09259855779
 30
0.0
 11
7366.67491102617
 21
7594.16750958395
 31
0.0
  0
LINE
  5
24833
330
747D
100
AcDbEntity
  8
細線
 48
50.0
100
AcDbLine
 10
7303.60000000001
 20
7396.388756741756
 30
0.0
 11
7501.378752842207
 21
7594.167509583947
 31
0.0
  0
DIMENSION
  5
24834
330
747D
100
AcDbEntity
  8
寸法
 48
50.0
100
AcDbDimension
  2
*D42
 10
7366.819725318591
 20
7394.167509583915
 30
0.0
 11
7366.819725318589
 21
7881.131092261083
 31
0.0
 70
   160
 71
     5
 42
200.0
  3
INABA_S40G
100
AcDbAlignedDimension
 13
7340.85468201165
 23
7594.167509583916
 33
0.0
 14
7340.85468201165
 24
7394.167509583915
 34
0.0
 50
90.0
100
AcDbRotatedDimension
1001
ACAD
1000
DSTYLE
1002
{
1070
   341
1005
0
1002
}
  0
LINE
  5
24835
330
747D
100
AcDbEntity
  8
細線
 48
50.0
100
AcDbLine
 10
7346.28003344755
 20
7394.167509583953
 30
0.0
 11
7503.60000000001
 21
7551.487476136404
 31
0.0
  0
LINE
  5
24836
330
747D
100
AcDbEntity
  8
細線
 48
50.0
100
AcDbLine
 10
7391.181314052916
 20
7394.16750958395
 30
0.0
 11
7503.60000000001
 21
7506.58619553106
 31
0.0
  0
LINE
  5
24837
330
747D
100
AcDbEntity
  8
細線
 48
50.0
100
AcDbLine
 10
7436.082594658252
 20
7394.167509583951
 30
0.0
 11
7503.60000000001
 21
7461.684914925709
 31
0.0
  0
LINE
  5
24838
330
747D
100
AcDbEntity
  8
細線
 48
50.0
100
AcDbLine
 10
7480.98387526361
 20
7394.167509583951
 30
0.0
 11
7503.60000000001
 21
7416.783634320355
 31
0.0
  0
LINE
  5
24839
330
747D
100
AcDbEntity
  8
細線
 48
50.0
100
AcDbLine
 10
7303.60000000001
 20
7575.993879163134
 30
0.0
 11
7321.773630420823
 21
7594.167509583947
 31
0.0
  0
LINE
  5
2483A
330
747D
100
AcDbEntity
  8
部品1
 48
50.0
100
AcDbLine
 10
8323.600000000009
 20
7594.167509583947
 30
0.0
 11
8323.600000000009
 21
7394.167509583951
 31
0.0
  0
LINE
  5
2483B
330
747D
100
AcDbEntity
  8
細線
 48
50.0
100
AcDbLine
 10
8123.600000000008
 20
7441.290037347105
 30
0.0
 11
8276.477472236857
 21
7594.167509583947
 31
0.0
  0
LINE
  5
2483C
330
747D
100
AcDbEntity
  8
細線
 48
50.0
100
AcDbLine
 10
8123.600000000008
 20
7531.09259855779
 30
0.0
 11
8186.67491102617
 21
7594.16750958395
 31
0.0
  0
LINE
  5
2483D
330
747D
100
AcDbEntity
  8
細線
 48
50.0
100
AcDbLine
 10
8123.600000000008
 20
7486.191317952442
 30
0.0
 11
8231.576191631514
 21
7594.167509583947
 31
0.0
  0
LINE
  5
2483E
330
747D
100
AcDbEntity
  8
部品1
 48
50.0
100
AcDbLine
 10
8123.600000000008
 20
7594.167509583947
 30
0.0
 11
8123.600000000008
 21
7394.167509583953
 31
0.0
  0
LINE
  5
2483F
330
747D
100
AcDbEntity
  8
細線
 48
50.0
100
AcDbLine
 10
8123.600000000008
 20
7396.388756741756
 30
0.0
 11
8321.378752842207
 21
7594.167509583947
 31
0.0
  0
LINE
  5
24840
330
747D
100
AcDbEntity
  8
センター
 48
2.0
100
AcDbLine
 10
7695.600000000002
 20
7521.167509583948
 30
0.0
 11
7695.600000000002
 21
7421.167509583948
 31
0.0
  0
CIRCLE
  5
24841
330
747D
100
AcDbEntity
  8
部品1
 48
50.0
100
AcDbCircle
 10
7695.600000000002
 20
7471.167509583948
 30
0.0
 40
35.0
  0
LINE
  5
24842
330
747D
100
AcDbEntity
  8
センター
 48
2.0
100
AcDbLine
 10
7645.600000000001
 20
7471.167509583948
 30
0.0
 11
7745.600000000002
 21
7471.167509583948
 31
0.0
  0
LINE
  5
24843
330
747D
100
AcDbEntity
  8
細線
 48
50.0
100
AcDbLine
 10
8211.181314052916
 20
7394.16750958395
 30
0.0
 11
8323.600000000009
 21
7506.58619553106
 31
0.0
  0
LINE
  5
24844
330
747D
100
AcDbEntity
  8
細線
 48
50.0
100
AcDbLine
 10
8166.28003344755
 20
7394.167509583953
 30
0.0
 11
8323.600000000009
 21
7551.487476136404
 31
0.0
  0
LINE
  5
24845
330
747D
100
AcDbEntity
  8
細線
 48
50.0
100
AcDbLine
 10
8300.983875263609
 20
7394.167509583951
 30
0.0
 11
8323.600000000009
 21
7416.783634320355
 31
0.0
  0
LINE
  5
24846
330
747D
100
AcDbEntity
  8
細線
 48
50.0
100
AcDbLine
 10
8256.082594658252
 20
7394.167509583951
 30
0.0
 11
8323.600000000009
 21
7461.684914925709
 31
0.0
  0
LINE
  5
24847
330
747D
100
AcDbEntity
  8
細線
 48
50.0
100
AcDbLine
 10
8123.600000000008
 20
7575.993879163134
 30
0.0
 11
8141.773630420823
 21
7594.167509583947
 31
0.0
  0
DIMENSION
  5
24848
330
747D
100
AcDbEntity
  8
寸法
 48
50.0
100
AcDbDimension
  2
*D43
 10
8633.60000000001
 20
8076.776326254195
 30
0.0
 11
9043.60000000001
 21
8176.788137277817
 31
0.0
 70
    32
 71
     5
 42
820.0
  3
INABA_S40G
100
AcDbAlignedDimension
 13
9453.60000000001
 23
6911.167509583947
 33
0.0
 14
8633.60000000001
 24
6911.167509583947
 34
0.0
100
AcDbRotatedDimension
1001
ACAD
1000
DSTYLE
1002
{
1070
   341
1005
0
1002
}
  0
DIMENSION
  5
24849
330
747D
100
AcDbEntity
  8
寸法
 48
50.0
100
AcDbDimension
  2
*D44
 10
9453.60000000001
 20
8076.776326254195
 30
0.0
 11
9866.100000000006
 21
8176.788137277817
 31
0.0
 70
    32
 71
     5
 42
824.9999999999927
  3
INABA_S40G
100
AcDbAlignedDimension
 13
10278.6
 23
7594.167509583947
 33
0.0
 14
9453.60000000001
 24
6911.167509583947
 34
0.0
100
AcDbRotatedDimension
1001
ACAD
1000
DSTYLE
1002
{
1070
   341
1005
0
1002
}
  0
LINE
  5
2484C
330
747D
100
AcDbEntity
  8
部品1
 48
50.0
100
AcDbLine
 10
10278.6
 20
6054.167509583965
 30
0.0
 11
10278.6
 21
7594.167509583947
 31
0.0
  0
LINE
  5
24859
330
747D
100
AcDbEntity
  8
センター
 48
2.0
100
AcDbLine
 10
8583.600000000009
 20
6861.167509583947
 30
0.0
 11
8683.60000000001
 21
6861.167509583947
 31
0.0
  0
LINE
  5
2485A
330
747D
100
AcDbEntity
  8
部品1
 48
50.0
100
AcDbLine
 10
8733.600000000009
 20
6761.167509583947
 30
0.0
 11
8533.60000000001
 21
6761.167509583947
 31
0.0
  0
LINE
  5
2485B
330
747D
100
AcDbEntity
  8
部品1
 48
50.0
100
AcDbLine
 10
8733.600000000009
 20
6961.167509583948
 30
0.0
 11
8533.60000000001
 21
6961.167509583948
 31
0.0
  0
LINE
  5
2485C
330
747D
100
AcDbEntity
  8
センター
 48
2.0
100
AcDbLine
 10
8633.60000000001
 20
6911.167509583947
 30
0.0
 11
8633.60000000001
 21
6811.167509583947
 31
0.0
  0
LINE
  5
2485D
330
747D
100
AcDbEntity
  8
部品1
 48
50.0
100
AcDbLine
 10
8533.60000000001
 20
6761.167509583947
 30
0.0
 11
8533.60000000001
 21
6961.167509583948
 31
0.0
  0
LINE
  5
2485E
330
747D
100
AcDbEntity
  8
部品1
 48
50.0
100
AcDbLine
 10
8733.600000000009
 20
6761.167509583947
 30
0.0
 11
8733.600000000009
 21
6961.167509583948
 31
0.0
  0
LINE
  5
2486B
330
747D
100
AcDbEntity
  8
部品1
 48
50.0
100
AcDbLine
 10
9553.60000000001
 20
6961.167509583948
 30
0.0
 11
9353.60000000001
 21
6961.167509583948
 31
0.0
  0
LINE
  5
2486C
330
747D
100
AcDbEntity
  8
部品1
 48
50.0
100
AcDbLine
 10
9553.60000000001
 20
6761.167509583947
 30
0.0
 11
9353.60000000001
 21
6761.167509583947
 31
0.0
  0
LINE
  5
2486D
330
747D
100
AcDbEntity
  8
センター
 48
2.0
100
AcDbLine
 10
9403.600000000009
 20
6861.167509583947
 30
0.0
 11
9503.600000000011
 21
6861.167509583947
 31
0.0
  0
LINE
  5
2486E
330
747D
100
AcDbEntity
  8
部品1
 48
50.0
100
AcDbLine
 10
9353.60000000001
 20
6761.167509583947
 30
0.0
 11
9353.60000000001
 21
6961.167509583948
 31
0.0
  0
LINE
  5
2486F
330
747D
100
AcDbEntity
  8
センター
 48
2.0
100
AcDbLine
 10
9453.60000000001
 20
6911.167509583947
 30
0.0
 11
9453.60000000001
 21
6811.167509583947
 31
0.0
  0
LINE
  5
24870
330
747D
100
AcDbEntity
  8
部品1
 48
50.0
100
AcDbLine
 10
9553.60000000001
 20
6761.167509583947
 30
0.0
 11
9553.60000000001
 21
6961.167509583948
 31
0.0
  0
LINE
  5
24877
330
747D
100
AcDbEntity
  8
センター
 48
2.0
100
AcDbLine
 10
10105.60000000001
 20
6252.167509583951
 30
0.0
 11
10205.60000000001
 21
6252.167509583951
 31
0.0
  0
CIRCLE
  5
24878
330
747D
100
AcDbEntity
  8
部品1
 48
50.0
100
AcDbCircle
 10
10155.60000000001
 20
6252.167509583951
 30
0.0
 40
35.0
  0
LINE
  5
24879
330
747D
100
AcDbEntity
  8
センター
 48
2.0
100
AcDbLine
 10
10155.60000000001
 20
6302.167509583951
 30
0.0
 11
10155.60000000001
 21
6202.167509583951
 31
0.0
  0
LINE
  5
2487A
330
747D
100
AcDbEntity
  8
細線
 48
50.0
100
AcDbLine
 10
10271.08259465825
 20
6749.167509583978
 30
0.0
 11
10278.6
 21
6756.684914925729
 31
0.0
  0
LINE
  5
2487B
330
747D
100
AcDbEntity
  8
細線
 48
50.0
100
AcDbLine
 10
10226.1813140529
 20
6749.16750958398
 30
0.0
 11
10278.6
 21
6801.586195531076
 31
0.0
  0
LINE
  5
2487C
330
747D
100
AcDbEntity
  8
細線
 48
50.0
100
AcDbLine
 10
10181.28003344755
 20
6749.16750958398
 30
0.0
 11
10278.6
 21
6846.487476136421
 31
0.0
  0
LINE
  5
2487D
330
747D
100
AcDbEntity
  8
細線
 48
50.0
100
AcDbLine
 10
10158.6
 20
6771.38875674177
 30
0.0
 11
10278.6
 21
6891.388756741766
 31
0.0
  0
LINE
  5
2487E
330
747D
100
AcDbEntity
  8
細線
 48
50.0
100
AcDbLine
 10
10158.6
 20
6816.290037347115
 30
0.0
 11
10278.6
 21
6936.290037347112
 31
0.0
  0
LINE
  5
2487F
330
747D
100
AcDbEntity
  8
細線
 48
50.0
100
AcDbLine
 10
10158.6
 20
6861.191317952462
 30
0.0
 11
10246.57619163152
 21
6949.167509583979
 31
0.0
  0
LINE
  5
24880
330
747D
100
AcDbEntity
  8
細線
 48
50.0
100
AcDbLine
 10
10158.6
 20
6906.092598557806
 30
0.0
 11
10201.67491102617
 21
6949.167509583979
 31
0.0
  0
LINE
  5
24881
330
747D
100
AcDbEntity
  8
部品1
 48
50.0
100
AcDbLine
 10
10278.6
 20
6949.167509583979
 30
0.0
 11
10158.6
 21
6949.167509583981
 31
0.0
  0
LINE
  5
24882
330
747D
100
AcDbEntity
  8
部品1
 48
50.0
100
AcDbLine
 10
10278.6
 20
6749.16750958398
 30
0.0
 11
10158.6
 21
6749.167509583981
 31
0.0
  0
LINE
  5
24883
330
747D
100
AcDbEntity
  8
部品1
 48
50.0
100
AcDbLine
 10
9143.600000000009
 20
7594.167509583947
 30
0.0
 11
9143.600000000009
 21
7394.167509583951
 31
0.0
  0
LINE
  5
24884
330
747D
100
AcDbEntity
  8
部品1
 48
50.0
100
AcDbLine
 10
8943.600000000008
 20
7594.167509583947
 30
0.0
 11
8943.600000000008
 21
7394.167509583953
 31
0.0
  0
LINE
  5
24885
330
747D
100
AcDbEntity
  8
細線
 48
50.0
100
AcDbLine
 10
8943.600000000008
 20
7486.191317952442
 30
0.0
 11
9051.576191631513
 21
7594.167509583947
 31
0.0
  0
LINE
  5
24886
330
747D
100
AcDbEntity
  8
細線
 48
50.0
100
AcDbLine
 10
8943.600000000008
 20
7531.09259855779
 30
0.0
 11
9006.67491102617
 21
7594.16750958395
 31
0.0
  0
LINE
  5
24887
330
747D
100
AcDbEntity
  8
細線
 48
50.0
100
AcDbLine
 10
8943.600000000008
 20
7441.290037347105
 30
0.0
 11
9096.477472236857
 21
7594.167509583947
 31
0.0
  0
LINE
  5
24888
330
747D
100
AcDbEntity
  8
細線
 48
50.0
100
AcDbLine
 10
8943.600000000008
 20
7396.388756741756
 30
0.0
 11
9141.378752842207
 21
7594.167509583947
 31
0.0
  0
LINE
  5
24889
330
747D
100
AcDbEntity
  8
細線
 48
50.0
100
AcDbLine
 10
8986.280033447551
 20
7394.167509583953
 30
0.0
 11
9143.600000000009
 21
7551.487476136404
 31
0.0
  0
LINE
  5
2488A
330
747D
100
AcDbEntity
  8
細線
 48
50.0
100
AcDbLine
 10
9031.181314052915
 20
7394.16750958395
 30
0.0
 11
9143.600000000009
 21
7506.58619553106
 31
0.0
  0
LINE
  5
2488B
330
747D
100
AcDbEntity
  8
細線
 48
50.0
100
AcDbLine
 10
9076.082594658251
 20
7394.167509583951
 30
0.0
 11
9143.600000000009
 21
7461.684914925709
 31
0.0
  0
LINE
  5
2488C
330
747D
100
AcDbEntity
  8
細線
 48
50.0
100
AcDbLine
 10
9120.983875263609
 20
7394.167509583951
 30
0.0
 11
9143.600000000009
 21
7416.783634320355
 31
0.0
  0
LINE
  5
2488D
330
747D
100
AcDbEntity
  8
細線
 48
50.0
100
AcDbLine
 10
8943.600000000008
 20
7575.993879163134
 30
0.0
 11
8961.773630420823
 21
7594.167509583947
 31
0.0
  0
LINE
  5
2488E
330
747D
100
AcDbEntity
  8
部品1
 48
50.0
100
AcDbLine
 10
9963.60000000001
 20
7594.167509583947
 30
0.0
 11
9963.60000000001
 21
7394.167509583951
 31
0.0
  0
LINE
  5
2488F
330
747D
100
AcDbEntity
  8
部品1
 48
50.0
100
AcDbLine
 10
9763.60000000001
 20
7594.167509583947
 30
0.0
 11
9763.60000000001
 21
7394.167509583953
 31
0.0
  0
LINE
  5
24890
330
747D
100
AcDbEntity
  8
細線
 48
50.0
100
AcDbLine
 10
9763.60000000001
 20
7396.388756741756
 30
0.0
 11
9961.378752842207
 21
7594.167509583947
 31
0.0
  0
LINE
  5
24891
330
747D
100
AcDbEntity
  8
細線
 48
50.0
100
AcDbLine
 10
9763.60000000001
 20
7441.290037347105
 30
0.0
 11
9916.477472236856
 21
7594.167509583947
 31
0.0
  0
LINE
  5
24892
330
747D
100
AcDbEntity
  8
細線
 48
50.0
100
AcDbLine
 10
9763.60000000001
 20
7531.09259855779
 30
0.0
 11
9826.67491102617
 21
7594.16750958395
 31
0.0
  0
LINE
  5
24893
330
747D
100
AcDbEntity
  8
細線
 48
50.0
100
AcDbLine
 10
9763.60000000001
 20
7486.191317952442
 30
0.0
 11
9871.576191631513
 21
7594.167509583947
 31
0.0
  0
LINE
  5
24894
330
747D
100
AcDbEntity
  8
細線
 48
50.0
100
AcDbLine
 10
9851.181314052915
 20
7394.16750958395
 30
0.0
 11
9963.60000000001
 21
7506.58619553106
 31
0.0
  0
LINE
  5
24895
330
747D
100
AcDbEntity
  8
細線
 48
50.0
100
AcDbLine
 10
9806.280033447551
 20
7394.167509583953
 30
0.0
 11
9963.60000000001
 21
7551.487476136404
 31
0.0
  0
LINE
  5
24896
330
747D
100
AcDbEntity
  8
細線
 48
50.0
100
AcDbLine
 10
9940.983875263611
 20
7394.167509583951
 30
0.0
 11
9963.60000000001
 21
7416.783634320355
 31
0.0
  0
LINE
  5
24897
330
747D
100
AcDbEntity
  8
細線
 48
50.0
100
AcDbLine
 10
9896.082594658253
 20
7394.167509583951
 30
0.0
 11
9963.60000000001
 21
7461.684914925709
 31
0.0
  0
LINE
  5
24898
330
747D
100
AcDbEntity
  8
細線
 48
50.0
100
AcDbLine
 10
9763.60000000001
 20
7575.993879163134
 30
0.0
 11
9781.773630420822
 21
7594.167509583947
 31
0.0
  0
DIMENSION
  5
2489A
330
747D
100
AcDbEntity
  8
寸法
 48
50.0
100
AcDbDimension
  2
*D45
 10
10155.6
 20
8320.433967677859
 30
0.0
 11
10551.7066017178
 21
8320.433967677859
 31
0.0
 70
   160
 71
     5
 42
123.0
  3
INABA_S40G
100
AcDbAlignedDimension
 13
10278.6
 23
7594.167509583947
 33
0.0
 14
10155.6
 24
7521.167509583948
 34
0.0
100
AcDbRotatedDimension
1001
ACAD
1000
DSTYLE
1002
{
1070
   341
1005
0
1002
}
  0
DIMENSION
  5
2489B
330
747D
100
AcDbEntity
  8
寸法
 48
50.0
100
AcDbDimension
  2
*D46
 10
10158.6
 20
7098.540302614691
 30
0.0
 11
10548.65905511811
 21
7098.540302614691
 31
0.0
 70
   160
 71
     5
 42
120.0
  3
INABA_S40G
100
AcDbAlignedDimension
 13
10278.6
 23
7115.533566653524
 33
0.0
 14
10158.6
 24
7098.540302614691
 34
0.0
100
AcDbRotatedDimension
1001
ACAD
1000
DSTYLE
1002
{
1070
   341
1005
0
1002
}
  0
CIRCLE
  5
2489C
330
747D
100
AcDbEntity
  8
部品1
 48
50.0
100
AcDbCircle
 10
10155.6
 20
7471.167509583948
 30
0.0
 40
35.0
  0
LINE
  5
2489D
330
747D
100
AcDbEntity
  8
センター
 48
2.0
100
AcDbLine
 10
10155.6
 20
7521.167509583948
 30
0.0
 11
10155.6
 21
7421.167509583948
 31
0.0
  0
LINE
  5
2489E
330
747D
100
AcDbEntity
  8
センター
 48
2.0
100
AcDbLine
 10
10105.6
 20
7471.167509583948
 30
0.0
 11
10205.6
 21
7471.167509583948
 31
0.0
  0
TEXT
  5
24FBE
330
747D
100
AcDbEntity
  8
文字
 62
     7
 48
50.0
100
AcDbText
 10
14251.2
 20
838.2527270729188
 30
0.0
 40
100.0
  1
～一般型・多雪地型・豪雪地型～
  7
STYLE2
100
AcDbText
  0
LINE
  5
24FDE
330
747D
100
AcDbEntity
  8
部品1
 48
50.0
100
AcDbLine
 10
10158.6
 20
6334.167509583965
 30
0.0
 11
6288.600000000003
 21
6334.167509583945
 31
0.0
  0
LINE
  5
24FDF
330
747D
100
AcDbEntity
  8
細線
 48
50.0
100
AcDbLine
 10
7303.600000000023
 20
6232.672108872275
 30
0.0
 11
7405.0954007117
 21
6334.167509583948
 31
0.0
  0
LINE
  5
24FE0
330
747D
100
AcDbEntity
  8
細線
 48
50.0
100
AcDbLine
 10
7303.600000000023
 20
6277.573389477622
 30
0.0
 11
7360.194120106334
 21
6334.167509583946
 31
0.0
  0
LINE
  5
24FE1
330
747D
100
AcDbEntity
  8
細線
 48
50.0
100
AcDbLine
 10
7303.600000000024
 20
6142.869547661578
 30
0.0
 11
7494.897961922394
 21
6334.167509583946
 31
0.0
  0
LINE
  5
24FE2
330
747D
100
AcDbEntity
  8
細線
 48
50.0
100
AcDbLine
 10
7303.600000000024
 20
6187.770828266921
 30
0.0
 11
7449.99668131703
 21
6334.167509583945
 31
0.0
  0
LINE
  5
24FE3
330
747D
100
AcDbEntity
  8
細線
 48
50.0
100
AcDbLine
 10
7484.305645554485
 20
6054.167509583963
 30
0.0
 11
7503.600000000027
 21
6073.461864029504
 31
0.0
  0
LINE
  5
24FE4
330
747D
100
AcDbEntity
  8
細線
 48
50.0
100
AcDbLine
 10
7304.700523133099
 20
6054.167509583958
 30
0.0
 11
7503.600000000023
 21
6253.066986450885
 31
0.0
  0
LINE
  5
24FE5
330
747D
100
AcDbEntity
  8
細線
 48
50.0
100
AcDbLine
 10
7303.600000000026
 20
6097.968267056232
 30
0.0
 11
7503.60000000002
 21
6297.968267056226
 31
0.0
  0
LINE
  5
24FE6
330
747D
100
AcDbEntity
  8
部品1
 48
50.0
100
AcDbLine
 10
7503.60000000002
 20
6334.167509583948
 30
0.0
 11
7503.600000000026
 21
6054.167509583962
 31
0.0
  0
LINE
  5
24FE7
330
747D
100
AcDbEntity
  8
部品1
 48
50.0
100
AcDbLine
 10
7303.60000000002
 20
6334.167509583945
 30
0.0
 11
7303.600000000026
 21
6054.167509583958
 31
0.0
  0
LINE
  5
24FE8
330
747D
100
AcDbEntity
  8
細線
 48
50.0
100
AcDbLine
 10
7439.404364949139
 20
6054.167509583962
 30
0.0
 11
7503.600000000026
 21
6118.36314463485
 31
0.0
  0
LINE
  5
24FE9
330
747D
100
AcDbEntity
  8
細線
 48
50.0
100
AcDbLine
 10
7349.601803738444
 20
6054.16750958396
 30
0.0
 11
7503.600000000024
 21
6208.165705845542
 31
0.0
  0
LINE
  5
24FEA
330
747D
100
AcDbEntity
  8
細線
 48
50.0
100
AcDbLine
 10
7394.50308434379
 20
6054.16750958396
 30
0.0
 11
7503.600000000024
 21
6163.264425240193
 31
0.0
  0
LINE
  5
24FEB
330
747D
100
AcDbEntity
  8
細線
 48
50.0
100
AcDbLine
 10
8123.600000000022
 20
6232.672108872275
 30
0.0
 11
8225.095400711699
 21
6334.167509583948
 31
0.0
  0
LINE
  5
24FEC
330
747D
100
AcDbEntity
  8
細線
 48
50.0
100
AcDbLine
 10
8123.600000000022
 20
6277.573389477622
 30
0.0
 11
8180.194120106333
 21
6334.167509583946
 31
0.0
  0
LINE
  5
24FED
330
747D
100
AcDbEntity
  8
細線
 48
50.0
100
AcDbLine
 10
8123.600000000024
 20
6142.869547661578
 30
0.0
 11
8314.897961922394
 21
6334.167509583946
 31
0.0
  0
LINE
  5
24FEE
330
747D
100
AcDbEntity
  8
細線
 48
50.0
100
AcDbLine
 10
8123.600000000024
 20
6187.770828266921
 30
0.0
 11
8269.99668131703
 21
6334.167509583945
 31
0.0
  0
LINE
  5
24FEF
330
747D
100
AcDbEntity
  8
細線
 48
50.0
100
AcDbLine
 10
8304.305645554483
 20
6054.167509583963
 30
0.0
 11
8323.600000000027
 21
6073.461864029504
 31
0.0
  0
LINE
  5
24FF0
330
747D
100
AcDbEntity
  8
細線
 48
50.0
100
AcDbLine
 10
8124.700523133098
 20
6054.167509583958
 30
0.0
 11
8323.600000000022
 21
6253.066986450885
 31
0.0
  0
LINE
  5
24FF1
330
747D
100
AcDbEntity
  8
細線
 48
50.0
100
AcDbLine
 10
8123.600000000026
 20
6097.968267056232
 30
0.0
 11
8323.60000000002
 21
6297.968267056226
 31
0.0
  0
LINE
  5
24FF2
330
747D
100
AcDbEntity
  8
部品1
 48
50.0
100
AcDbLine
 10
8323.60000000002
 20
6334.167509583948
 30
0.0
 11
8323.600000000025
 21
6054.167509583962
 31
0.0
  0
LINE
  5
24FF3
330
747D
100
AcDbEntity
  8
部品1
 48
50.0
100
AcDbLine
 10
8123.600000000021
 20
6334.167509583945
 30
0.0
 11
8123.600000000026
 21
6054.167509583958
 31
0.0
  0
LINE
  5
24FF4
330
747D
100
AcDbEntity
  8
細線
 48
50.0
100
AcDbLine
 10
8259.404364949139
 20
6054.167509583962
 30
0.0
 11
8323.600000000025
 21
6118.36314463485
 31
0.0
  0
LINE
  5
24FF5
330
747D
100
AcDbEntity
  8
細線
 48
50.0
100
AcDbLine
 10
8169.601803738443
 20
6054.16750958396
 30
0.0
 11
8323.600000000025
 21
6208.165705845542
 31
0.0
  0
LINE
  5
24FF6
330
747D
100
AcDbEntity
  8
細線
 48
50.0
100
AcDbLine
 10
8214.503084343791
 20
6054.16750958396
 30
0.0
 11
8323.600000000025
 21
6163.264425240193
 31
0.0
  0
LINE
  5
24FF7
330
747D
100
AcDbEntity
  8
細線
 48
50.0
100
AcDbLine
 10
8943.600000000023
 20
6232.672108872275
 30
0.0
 11
9045.0954007117
 21
6334.167509583948
 31
0.0
  0
LINE
  5
24FF8
330
747D
100
AcDbEntity
  8
細線
 48
50.0
100
AcDbLine
 10
8943.600000000023
 20
6277.573389477622
 30
0.0
 11
9000.194120106334
 21
6334.167509583946
 31
0.0
  0
LINE
  5
24FF9
330
747D
100
AcDbEntity
  8
細線
 48
50.0
100
AcDbLine
 10
8943.600000000024
 20
6142.869547661578
 30
0.0
 11
9134.897961922394
 21
6334.167509583946
 31
0.0
  0
LINE
  5
24FFA
330
747D
100
AcDbEntity
  8
細線
 48
50.0
100
AcDbLine
 10
8943.600000000024
 20
6187.770828266921
 30
0.0
 11
9089.996681317028
 21
6334.167509583945
 31
0.0
  0
LINE
  5
24FFB
330
747D
100
AcDbEntity
  8
細線
 48
50.0
100
AcDbLine
 10
9124.305645554484
 20
6054.167509583963
 30
0.0
 11
9143.600000000027
 21
6073.461864029504
 31
0.0
  0
LINE
  5
24FFC
330
747D
100
AcDbEntity
  8
細線
 48
50.0
100
AcDbLine
 10
8944.700523133098
 20
6054.167509583958
 30
0.0
 11
9143.600000000022
 21
6253.066986450885
 31
0.0
  0
LINE
  5
24FFD
330
747D
100
AcDbEntity
  8
細線
 48
50.0
100
AcDbLine
 10
8943.600000000026
 20
6097.968267056232
 30
0.0
 11
9143.60000000002
 21
6297.968267056226
 31
0.0
  0
LINE
  5
24FFE
330
747D
100
AcDbEntity
  8
部品1
 48
50.0
100
AcDbLine
 10
9143.60000000002
 20
6334.167509583948
 30
0.0
 11
9143.600000000025
 21
6054.167509583962
 31
0.0
  0
LINE
  5
24FFF
330
747D
100
AcDbEntity
  8
部品1
 48
50.0
100
AcDbLine
 10
8943.600000000021
 20
6334.167509583945
 30
0.0
 11
8943.600000000026
 21
6054.167509583958
 31
0.0
  0
LINE
  5
25000
330
747D
100
AcDbEntity
  8
細線
 48
50.0
100
AcDbLine
 10
9079.404364949139
 20
6054.167509583962
 30
0.0
 11
9143.600000000025
 21
6118.36314463485
 31
0.0
  0
LINE
  5
25001
330
747D
100
AcDbEntity
  8
細線
 48
50.0
100
AcDbLine
 10
8989.601803738443
 20
6054.16750958396
 30
0.0
 11
9143.600000000025
 21
6208.165705845542
 31
0.0
  0
LINE
  5
25002
330
747D
100
AcDbEntity
  8
細線
 48
50.0
100
AcDbLine
 10
9034.503084343791
 20
6054.16750958396
 30
0.0
 11
9143.600000000025
 21
6163.264425240193
 31
0.0
  0
LINE
  5
25003
330
747D
100
AcDbEntity
  8
細線
 48
50.0
100
AcDbLine
 10
9763.600000000023
 20
6232.672108872275
 30
0.0
 11
9865.0954007117
 21
6334.167509583948
 31
0.0
  0
LINE
  5
25004
330
747D
100
AcDbEntity
  8
細線
 48
50.0
100
AcDbLine
 10
9763.600000000023
 20
6277.573389477622
 30
0.0
 11
9820.194120106336
 21
6334.167509583946
 31
0.0
  0
LINE
  5
25005
330
747D
100
AcDbEntity
  8
細線
 48
50.0
100
AcDbLine
 10
9763.600000000025
 20
6142.869547661578
 30
0.0
 11
9954.897961922394
 21
6334.167509583946
 31
0.0
  0
LINE
  5
25006
330
747D
100
AcDbEntity
  8
細線
 48
50.0
100
AcDbLine
 10
9763.600000000025
 20
6187.770828266921
 30
0.0
 11
9909.996681317029
 21
6334.167509583945
 31
0.0
  0
LINE
  5
25007
330
747D
100
AcDbEntity
  8
細線
 48
50.0
100
AcDbLine
 10
9944.305645554486
 20
6054.167509583963
 30
0.0
 11
9963.600000000027
 21
6073.461864029504
 31
0.0
  0
LINE
  5
25008
330
747D
100
AcDbEntity
  8
細線
 48
50.0
100
AcDbLine
 10
9764.7005231331
 20
6054.167509583958
 30
0.0
 11
9963.600000000022
 21
6253.066986450885
 31
0.0
  0
LINE
  5
25009
330
747D
100
AcDbEntity
  8
細線
 48
50.0
100
AcDbLine
 10
9763.600000000026
 20
6097.968267056232
 30
0.0
 11
9963.60000000002
 21
6297.968267056226
 31
0.0
  0
LINE
  5
2500A
330
747D
100
AcDbEntity
  8
部品1
 48
50.0
100
AcDbLine
 10
9963.60000000002
 20
6334.167509583948
 30
0.0
 11
9963.600000000027
 21
6054.167509583962
 31
0.0
  0
LINE
  5
2500B
330
747D
100
AcDbEntity
  8
部品1
 48
50.0
100
AcDbLine
 10
9763.600000000021
 20
6334.167509583945
 30
0.0
 11
9763.600000000026
 21
6054.167509583958
 31
0.0
  0
LINE
  5
2500C
330
747D
100
AcDbEntity
  8
細線
 48
50.0
100
AcDbLine
 10
9899.404364949141
 20
6054.167509583962
 30
0.0
 11
9963.600000000027
 21
6118.36314463485
 31
0.0
  0
LINE
  5
2500D
330
747D
100
AcDbEntity
  8
細線
 48
50.0
100
AcDbLine
 10
9809.601803738445
 20
6054.16750958396
 30
0.0
 11
9963.600000000024
 21
6208.165705845542
 31
0.0
  0
LINE
  5
2500E
330
747D
100
AcDbEntity
  8
細線
 48
50.0
100
AcDbLine
 10
9854.503084343791
 20
6054.16750958396
 30
0.0
 11
9963.600000000024
 21
6163.264425240193
 31
0.0
  0
LINE
  5
2502C
330
747D
100
AcDbEntity
  8
部品1
 48
50.0
100
AcDbLine
 10
10158.6
 20
6334.167509583964
 30
0.0
 11
10158.6
 21
7394.167509583947
 31
0.0
  0
LINE
  5
2502D
330
747D
100
AcDbEntity
  8
部品1
 48
50.0
100
AcDbLine
 10
6288.600000000002
 20
6334.167509583945
 30
0.0
 11
6288.599999999998
 21
7394.167509583947
 31
0.0
  0
MTEXT
  5
251C5
102
{ACAD_REACTORS
330
251C6
102
}
330
747D
100
AcDbEntity
  8
寸法
 62
     7
 48
50.0
100
AcDbMText
 10
10773.26197312973
 20
2251.246166742575
 30
0.0
 40
120.0
 41
0.8
 71
     4
 72
     1
  1
\A1;C.B
  7
STYLE1
 73
     1
 44
1.0
1001
ACAD
1000
MTEXTBEGIN
1070
    73
1070
     1
1070
    44
1040
1.0
1070
    74
1070
     0
1000
MTEXTEND
  0
LEADER
  5
251C6
330
747D
100
AcDbEntity
  8
寸法
 48
50.0
100
AcDbLeader
  3
INABA_S50G
 73
     0
 74
     0
 75
     1
 40
120.0
 41
185.591883092037
 76
     3
 10
10590.12376649608
 20
1994.099846061437
 30
0.0
 10
10623.26197312973
 20
2166.246166742575
 30
0.0
 10
10748.26197312973
 20
2166.246166742575
 30
0.0
340
251C5
1001
ACAD
1000
DSTYLE
1002
{
1070
    40
1040
1.0
1002
}
  0
LINE
  5
251C7
330
747D
100
AcDbEntity
  8
細線
 48
50.0
100
AcDbLine
 10
10735.77718007249
 20
1638.400930408086
 30
0.0
 11
10729.34639945415
 21
1662.400930408086
 31
0.0
  0
LINE
  5
251C8
330
747D
100
AcDbEntity
  8
細線
 48
50.0
100
AcDbLine
 10
10714.341244678
 20
1558.400930408086
 30
0.0
 11
10720.77202529635
 21
1534.400930408086
 31
0.0
  0
LINE
  5
251C9
330
747D
100
AcDbEntity
  8
部品1
100
AcDbLine
 10
10779.39935488016
 20
1754.099846061437
 30
0.0
 11
10779.39935488016
 21
1534.400930408087
 31
0.0
  0
LINE
  5
251CA
330
747D
100
AcDbEntity
  8
細線
 48
50.0
100
AcDbLine
 10
10707.91046405965
 20
1534.400930408086
 30
0.0
 11
10742.20796069084
 21
1662.400930408084
 31
0.0
  0
LINE
  5
251CB
330
747D
100
AcDbEntity
  8
細線
 48
50.0
100
AcDbLine
 10
10656.88913512525
 20
1638.400930408086
 30
0.0
 11
10650.4583545069
 21
1662.400930408086
 31
0.0
  0
LINE
  5
251CC
330
747D
100
AcDbEntity
  8
細線
100
AcDbLine
 10
10532.43574937949
 20
1662.400930408089
 30
0.0
 11
10624.13466503284
 21
1754.099846061437
 31
0.0
  0
LINE
  5
251CD
330
747D
100
AcDbEntity
  8
細線
 48
50.0
100
AcDbLine
 10
10578.00109017799
 20
1638.400930408087
 30
0.0
 11
10571.57030955964
 21
1662.400930408087
 31
0.0
  0
LINE
  5
251CE
330
747D
100
AcDbEntity
  8
細線
100
AcDbLine
 10
10566.37687487645
 20
1662.400930408089
 30
0.0
 11
10658.07579052979
 21
1754.099846061437
 31
0.0
  0
LINE
  5
251CF
330
747D
100
AcDbEntity
  8
細線
 48
50.0
100
AcDbLine
 10
10341.33695533626
 20
1638.400930408087
 30
0.0
 11
10334.90617471791
 21
1662.400930408087
 31
0.0
  0
LINE
  5
251D0
330
747D
100
AcDbEntity
  8
細線
 48
50.0
100
AcDbLine
 10
10420.22500028351
 20
1638.400930408087
 30
0.0
 11
10413.79421966516
 21
1662.400930408087
 31
0.0
  0
LINE
  5
251D1
330
747D
100
AcDbEntity
  8
細線
 48
50.0
100
AcDbLine
 10
10499.11304523075
 20
1638.400930408087
 30
0.0
 11
10492.6822646124
 21
1662.400930408087
 31
0.0
  0
LINE
  5
251D2
330
747D
100
AcDbEntity
  8
細線
 48
50.0
100
AcDbLine
 10
10635.45319973076
 20
1558.400930408086
 30
0.0
 11
10641.8839803491
 21
1534.400930408086
 31
0.0
  0
LINE
  5
251D3
330
747D
100
AcDbEntity
  8
細線
 48
50.0
100
AcDbLine
 10
10556.56515478351
 20
1558.400930408087
 30
0.0
 11
10562.99593540187
 21
1534.400930408087
 31
0.0
  0
LINE
  5
251D4
330
747D
100
AcDbEntity
  8
細線
 48
50.0
100
AcDbLine
 10
10398.78906488902
 20
1558.400930408087
 30
0.0
 11
10405.21984550736
 21
1534.400930408087
 31
0.0
  0
LINE
  5
251D5
330
747D
100
AcDbEntity
  8
細線
 48
50.0
100
AcDbLine
 10
10477.67710983626
 20
1558.400930408087
 30
0.0
 11
10484.10789045461
 21
1534.400930408087
 31
0.0
  0
LINE
  5
251D6
330
747D
100
AcDbEntity
  8
細線
 48
50.0
100
AcDbLine
 10
10471.24632921791
 20
1534.400930408087
 30
0.0
 11
10505.54382584909
 21
1662.400930408086
 31
0.0
  0
LINE
  5
251D7
330
747D
100
AcDbEntity
  8
細線
 48
50.0
100
AcDbLine
 10
10392.35828427067
 20
1534.400930408086
 30
0.0
 11
10426.65578090185
 21
1662.400930408086
 31
0.0
  0
LINE
  5
251D8
330
747D
100
AcDbEntity
  8
細線
 48
50.0
100
AcDbLine
 10
10550.13437416516
 20
1534.400930408086
 30
0.0
 11
10584.43187079633
 21
1662.400930408087
 31
0.0
  0
LINE
  5
251D9
330
747D
100
AcDbEntity
  8
細線
100
AcDbLine
 10
10600.3180003734
 20
1662.400930408089
 30
0.0
 11
10692.01691602675
 21
1754.099846061437
 31
0.0
  0
LINE
  5
251DA
330
747D
100
AcDbEntity
  8
細線
 48
50.0
100
AcDbLine
 10
10629.02241911241
 20
1534.400930408084
 30
0.0
 11
10663.31991574359
 21
1662.400930408084
 31
0.0
  0
LINE
  5
251DB
330
747D
100
AcDbEntity
  8
部品1
100
AcDbLine
 10
10659.39935488016
 20
1994.099846061437
 30
0.0
 11
10659.39935488016
 21
1754.099846061437
 31
0.0
  0
LINE
  5
251DC
330
747D
100
AcDbEntity
  8
細線
100
AcDbLine
 10
10645.56169253258
 20
1754.099846061439
 30
0.0
 11
10405.56169253258
 21
1994.099846061437
 31
0.0
  0
LINE
  5
251DD
330
747D
100
AcDbEntity
  8
細線
100
AcDbLine
 10
10594.65000428715
 20
1754.099846061437
 30
0.0
 11
10354.65000428715
 21
1994.099846061437
 31
0.0
  0
LINE
  5
251DE
330
747D
100
AcDbEntity
  8
細線
100
AcDbLine
 10
10206.37687487645
 20
1662.400930408087
 30
0.0
 11
10298.07579052979
 21
1754.099846061437
 31
0.0
  0
LINE
  5
251DF
330
747D
100
AcDbEntity
  8
細線
100
AcDbLine
 10
10172.43574937949
 20
1662.400930408087
 30
0.0
 11
10264.13466503284
 21
1754.099846061437
 31
0.0
  0
LINE
  5
251E0
330
747D
100
AcDbEntity
  8
細線
 48
50.0
100
AcDbLine
 10
10183.56086544176
 20
1638.400930408087
 30
0.0
 11
10177.13008482342
 21
1662.400930408087
 31
0.0
  0
LINE
  5
251E1
330
747D
100
AcDbEntity
  8
細線
 48
50.0
100
AcDbLine
 10
10262.44891038901
 20
1638.400930408087
 30
0.0
 11
10256.01812977067
 21
1662.400930408087
 31
0.0
  0
LINE
  5
251E2
330
747D
100
AcDbEntity
  8
細線
 48
50.0
100
AcDbLine
 10
10104.67282049451
 20
1638.400930408087
 30
0.0
 11
10098.24203987616
 21
1662.400930408087
 31
0.0
  0
LINE
  5
251E3
330
747D
100
AcDbEntity
  8
細線
 48
50.0
100
AcDbLine
 10
10319.90101994177
 20
1558.400930408087
 30
0.0
 11
10326.33180056012
 21
1534.400930408087
 31
0.0
  0
LINE
  5
251E4
330
747D
100
AcDbEntity
  8
細線
 48
50.0
100
AcDbLine
 10
10241.01297499453
 20
1558.400930408087
 30
0.0
 11
10247.44375561287
 21
1534.400930408087
 31
0.0
  0
LINE
  5
251E5
330
747D
100
AcDbEntity
  8
細線
 48
50.0
100
AcDbLine
 10
10083.23688510002
 20
1558.400930408087
 30
0.0
 11
10089.66766571837
 21
1534.400930408087
 31
0.0
  0
LINE
  5
251E6
330
747D
100
AcDbEntity
  8
細線
 48
50.0
100
AcDbLine
 10
10162.12493004727
 20
1558.400930408087
 30
0.0
 11
10168.55571066562
 21
1534.400930408087
 31
0.0
  0
LINE
  5
251E7
330
747D
100
AcDbEntity
  8
部品1
100
AcDbLine
 10
10059.39935488016
 20
1534.400930408083
 30
0.0
 11
10059.39935488016
 21
1754.099846061437
 31
0.0
  0
LINE
  5
251E8
330
747D
100
AcDbEntity
  8
細線
 48
50.0
100
AcDbLine
 10
10076.80610448167
 20
1534.400930408087
 30
0.0
 11
10111.10360111286
 21
1662.400930408087
 31
0.0
  0
LINE
  5
251E9
330
747D
100
AcDbEntity
  8
細線
 48
50.0
100
AcDbLine
 10
10234.58219437617
 20
1534.400930408087
 30
0.0
 11
10268.87969100735
 21
1662.400930408087
 31
0.0
  0
LINE
  5
251EA
330
747D
100
AcDbEntity
  8
細線
 48
50.0
100
AcDbLine
 10
10155.69414942892
 20
1534.400930408086
 30
0.0
 11
10189.9916460601
 21
1662.400930408086
 31
0.0
  0
LINE
  5
251EB
330
747D
100
AcDbEntity
  8
部品1
100
AcDbLine
 10
10179.39935488016
 20
1754.099846061437
 30
0.0
 11
10179.39935488016
 21
1994.099846061437
 31
0.0
  0
TEXT
  5
251EC
330
747D
100
AcDbEntity
  8
部品1
 48
50.0
100
AcDbText
 10
9415.28126812166
 20
1487.300105424128
 30
0.0
 40
80.0
  1
ボルトの出
 50
90.0
  7
STYLE2
100
AcDbText
  0
LINE
  5
251ED
330
747D
100
AcDbEntity
  8
細線
100
AcDbLine
 10
10323.12100031151
 20
1754.099846061437
 30
0.0
 11
10179.39935488016
 21
1897.82149149279
 31
0.0
  0
LWPOLYLINE
  5
251EE
330
747D
100
AcDbEntity
  8
部品1
 48
50.0
100
AcDbPolyline
 90
        2
 70
     0
 43
12.0
 10
9794.788092779775
 20
1754.099846061437
 10
10995.8803959114
 20
1754.099846061437
  0
LINE
  5
251EF
330
747D
100
AcDbEntity
  8
細線
100
AcDbLine
 10
10240.3180003734
 20
1662.400930408087
 30
0.0
 11
10332.01691602675
 21
1754.099846061437
 31
0.0
  0
LINE
  5
251F0
330
747D
100
AcDbEntity
  8
部品1
100
AcDbLine
 10
10059.39935488016
 20
1662.400930408087
 30
0.0
 11
10779.39935488016
 21
1662.40093040809
 31
0.0
  0
LINE
  5
251F1
330
747D
100
AcDbEntity
  8
部品1
100
AcDbLine
 10
10059.39935488016
 20
1534.400930408083
 30
0.0
 11
10779.39935488016
 21
1534.400930408087
 31
0.0
  0
LINE
  5
251F2
330
747D
100
AcDbEntity
  8
細線
 48
50.0
100
AcDbLine
 10
10313.47023932342
 20
1534.400930408087
 30
0.0
 11
10347.7677359546
 21
1662.400930408086
 31
0.0
  0
LINE
  5
251F3
330
747D
100
AcDbEntity
  8
部品1
100
AcDbLine
 10
10179.39935488016
 20
1994.099846061437
 30
0.0
 11
10659.39935488016
 21
1994.099846061437
 31
0.0
  0
LINE
  5
251F4
330
747D
100
AcDbEntity
  8
細線
100
AcDbLine
 10
10374.03268855694
 20
1754.099846061437
 30
0.0
 11
10179.39935488016
 21
1948.73317973822
 31
0.0
  0
LINE
  5
251F5
330
747D
100
AcDbEntity
  8
部品1
100
AcDbLine
 10
11366.14085597719
 20
429.1315436773756
 30
0.0
 11
11366.1408559772
 21
3393.438513262023
 31
0.0
  0
TEXT
  5
251F6
330
747D
100
AcDbEntity
  8
部品1
100
AcDbText
 10
7988.035671769336
 20
3213.886581310595
 30
0.0
 40
120.0
  1
基礎詳細
  7
STYLE2
100
AcDbText
  0
LINE
  5
251F7
330
747D
100
AcDbEntity
  8
部品1
 48
50.0
100
AcDbLine
 10
8303.263422577407
 20
2392.97512717058
 30
0.0
 11
8319.263422577405
 21
2384.97512717058
 31
0.0
  0
LINE
  5
251F8
330
747D
100
AcDbEntity
  8
細線
 48
50.0
100
AcDbLine
 10
8271.263422577405
 20
2344.97512717058
 30
0.0
 11
8271.263422577405
 21
2376.97512717058
 31
0.0
  0
LINE
  5
251F9
330
747D
100
AcDbEntity
  8
部品1
 48
50.0
100
AcDbLine
 10
8319.263422577405
 20
2352.97512717058
 30
0.0
 11
8319.263422577405
 21
2384.97512717058
 31
0.0
  0
LINE
  5
251FA
330
747D
100
AcDbEntity
  8
細線
 48
50.0
100
AcDbLine
 10
8303.263422577407
 20
2344.97512717058
 30
0.0
 11
8303.263422577407
 21
2376.97512717058
 31
0.0
  0
LINE
  5
251FB
330
747D
100
AcDbEntity
  8
部品1
 48
50.0
100
AcDbLine
 10
8303.263422577407
 20
2376.97512717058
 30
0.0
 11
8319.263422577405
 21
2384.97512717058
 31
0.0
  0
LINE
  5
251FC
330
747D
100
AcDbEntity
  8
部品1
 48
50.0
100
AcDbLine
 10
8271.263422577405
 20
2376.97512717058
 30
0.0
 11
8303.263422577407
 21
2376.97512717058
 31
0.0
  0
LINE
  5
251FD
330
747D
100
AcDbEntity
  8
部品1
 48
50.0
100
AcDbLine
 10
8303.263422577407
 20
2344.97512717058
 30
0.0
 11
8319.263422577405
 21
2352.97512717058
 31
0.0
  0
LINE
  5
251FE
330
747D
100
AcDbEntity
  8
部品1
 48
50.0
100
AcDbLine
 10
8271.263422577405
 20
2344.97512717058
 30
0.0
 11
8303.263422577407
 21
2344.97512717058
 31
0.0
  0
ELLIPSE
  5
251FF
330
747D
100
AcDbEntity
  8
細線
 48
50.0
100
AcDbEllipse
 10
8287.263422577405
 20
2384.97512717058
 30
0.0
 11
14.76670786606846
 21
0.0
 31
0.0
210
0.0
220
0.0
230
1.0
 40
0.2071254069489396
 41
0.0
 42
6.283185307179586
  0
LINE
  5
25200
330
747D
100
AcDbEntity
  8
部品1
 48
50.0
100
AcDbLine
 10
8271.263422577405
 20
2392.97512717058
 30
0.0
 11
8303.263422577407
 21
2392.97512717058
 31
0.0
  0
LINE
  5
25201
330
747D
100
AcDbEntity
  8
部品1
 48
50.0
100
AcDbLine
 10
8255.263422577405
 20
2352.97512717058
 30
0.0
 11
8255.263422577405
 21
2384.97512717058
 31
0.0
  0
LINE
  5
25202
330
747D
100
AcDbEntity
  8
部品1
 48
50.0
100
AcDbLine
 10
8255.263422577405
 20
2384.97512717058
 30
0.0
 11
8271.263422577405
 21
2392.97512717058
 31
0.0
  0
LINE
  5
25203
330
747D
100
AcDbEntity
  8
部品1
 48
50.0
100
AcDbLine
 10
8255.263422577405
 20
2352.97512717058
 30
0.0
 11
8271.263422577405
 21
2344.97512717058
 31
0.0
  0
LINE
  5
25204
330
747D
100
AcDbEntity
  8
部品1
 48
50.0
100
AcDbLine
 10
8255.263422577405
 20
2384.97512717058
 30
0.0
 11
8271.263422577405
 21
2376.97512717058
 31
0.0
  0
LINE
  5
25205
330
747D
100
AcDbEntity
  8
部品1
 48
50.0
100
AcDbLine
 10
8327.263422577406
 20
2253.62313450571
 30
0.0
 11
8327.263422577406
 21
2263.22313450571
 31
0.0
  0
ELLIPSE
  5
25206
330
747D
100
AcDbEntity
  8
部品1
 48
50.0
100
AcDbEllipse
 10
8287.263422577405
 20
2263.22313450571
 30
0.0
 11
18.4
 21
0.0
 31
0.0
210
0.0
220
0.0
230
1.0
 40
0.3478260869565217
 41
0.0
 42
6.283185307179586
  0
ARC
  5
25207
330
747D
100
AcDbEntity
  8
部品1
100
AcDbCircle
 10
8126.163422577404
 20
2092.199846061438
 30
0.0
 40
2.7
100
AcDbArc
 50
90.0
 51
180.0
  0
LINE
  5
25208
330
747D
100
AcDbEntity
  8
部品1
100
AcDbLine
 10
8128.863422577405
 20
2105.699846061438
 30
0.0
 11
8171.163422577405
 21
2105.699846061434
 31
0.0
  0
LINE
  5
25209
330
747D
100
AcDbEntity
  8
部品1
100
AcDbLine
 10
8126.163422577404
 20
2094.899846061438
 30
0.0
 11
8126.163422577404
 21
2102.999846061437
 31
0.0
  0
LINE
  5
2520A
330
747D
100
AcDbEntity
  8
部品1
100
AcDbLine
 10
8126.163422577404
 20
2094.899846061438
 30
0.0
 11
8126.163422577404
 21
2094.899846061438
 31
0.0
  0
ARC
  5
2520B
330
747D
100
AcDbEntity
  8
部品1
100
AcDbCircle
 10
8128.863422577405
 20
2102.999846061437
 30
0.0
 40
2.7
100
AcDbArc
 50
90.0
 51
180.0
  0
ARC
  5
2520C
330
747D
100
AcDbEntity
  8
部品1
100
AcDbCircle
 10
8171.163422577405
 20
2102.999846061434
 30
0.0
 40
2.7
100
AcDbArc
 50
0.0
 51
90.0
  0
LINE
  5
2520D
330
747D
100
AcDbEntity
  8
部品1
 48
50.0
100
AcDbLine
 10
8247.263422577406
 20
2263.22313450571
 30
0.0
 11
8247.263422577406
 21
2253.62313450571
 31
0.0
  0
ELLIPSE
  5
2520E
330
747D
100
AcDbEntity
  8
部品1
 48
50.0
100
AcDbEllipse
 10
8287.263422577405
 20
2253.62313450571
 30
0.0
 11
40.0
 21
0.0
 31
0.0
210
0.0
220
0.0
230
1.0
 40
0.4
 41
3.141592653589793
 42
6.283185307179586
  0
ELLIPSE
  5
2520F
330
747D
100
AcDbEntity
  8
部品1
 48
50.0
100
AcDbEllipse
 10
8287.263422577405
 20
2263.22313450571
 30
0.0
 11
40.0
 21
0.0
 31
0.0
210
0.0
220
0.0
230
1.0
 40
0.4
 41
0.0
 42
6.283185307179586
  0
LINE
  5
25210
330
747D
100
AcDbEntity
  8
部品1
100
AcDbLine
 10
8281.863422577405
 20
2046.859846061438
 30
0.0
 11
8292.663422577405
 21
2046.859846061438
 31
0.0
  0
LINE
  5
25211
330
747D
100
AcDbEntity
  8
部品1
100
AcDbLine
 10
8278.263422577406
 20
2043.259846061438
 30
0.0
 11
8296.263422577405
 21
2043.259846061438
 31
0.0
  0
LINE
  5
25212
330
747D
100
AcDbEntity
  8
細線
100
AcDbLine
 10
8281.863422577407
 20
2003.659846061438
 30
0.0
 11
8281.863422577405
 21
2046.859846061438
 31
0.0
  0
LINE
  5
25213
330
747D
100
AcDbEntity
  8
細線
100
AcDbLine
 10
8292.663422577405
 20
2003.659846061438
 30
0.0
 11
8292.663422577405
 21
2046.859846061438
 31
0.0
  0
LINE
  5
25214
330
747D
100
AcDbEntity
  8
部品1
100
AcDbLine
 10
8194.563422577404
 20
2060.959846061438
 30
0.0
 11
8194.563422577404
 21
2043.859846061438
 31
0.0
  0
LINE
  5
25215
330
747D
100
AcDbEntity
  8
部品1
100
AcDbLine
 10
8228.123422577406
 20
2060.959846061438
 30
0.0
 11
8228.123422577402
 21
2006.359846061438
 31
0.0
  0
ARC
  5
25216
330
747D
100
AcDbEntity
  8
部品1
100
AcDbCircle
 10
8213.463422577406
 20
2048.999846061437
 30
0.0
 40
2.7
100
AcDbArc
 50
0.0
 51
90.0
  0
LINE
  5
25217
330
747D
100
AcDbEntity
  8
部品1
100
AcDbLine
 10
8173.863422577403
 20
2051.699846061438
 30
0.0
 11
8213.463422577406
 21
2051.699846061438
 31
0.0
  0
ARC
  5
25218
330
747D
100
AcDbEntity
  8
部品1
100
AcDbCircle
 10
8213.463422577406
 20
2006.359846061438
 30
0.0
 40
2.7
100
AcDbArc
 50
270.0
 51
0.0
  0
ARC
  5
25219
330
747D
100
AcDbEntity
  8
部品1
100
AcDbCircle
 10
8230.823422577399
 20
2006.359846061438
 30
0.0
 40
2.7
100
AcDbArc
 50
180.0
 51
270.0
  0
LINE
  5
2521A
330
747D
100
AcDbEntity
  8
部品1
100
AcDbLine
 10
8201.763422577405
 20
2003.659846061438
 30
0.0
 11
8213.463422577406
 21
2003.659846061438
 31
0.0
  0
LINE
  5
2521B
330
747D
100
AcDbEntity
  8
部品1
100
AcDbLine
 10
8216.163422577405
 20
2048.999846061437
 30
0.0
 11
8216.163422577405
 21
2006.359846061438
 31
0.0
  0
ARC
  5
2521C
330
747D
100
AcDbEntity
  8
部品1
100
AcDbCircle
 10
8225.423422577405
 20
2060.959846061438
 30
0.0
 40
2.7
100
AcDbArc
 50
0.0
 51
90.0
  0
ARC
  5
2521D
330
747D
100
AcDbEntity
  8
部品1
100
AcDbCircle
 10
8197.263422577405
 20
2060.959846061438
 30
0.0
 40
2.7
100
AcDbArc
 50
90.0
 51
180.0
  0
LINE
  5
2521E
330
747D
100
AcDbEntity
  8
部品1
100
AcDbLine
 10
8197.263422577405
 20
2063.659846061438
 30
0.0
 11
8225.423422577405
 21
2063.659846061438
 31
0.0
  0
LINE
  5
2521F
330
747D
100
AcDbEntity
  8
部品1
100
AcDbLine
 10
8173.863422577403
 20
2102.999846061434
 30
0.0
 11
8173.863422577403
 21
2051.699846061438
 31
0.0
  0
LINE
  5
25220
330
747D
100
AcDbEntity
  8
部品1
100
AcDbLine
 10
8123.463422577406
 20
2084.099846061437
 30
0.0
 11
8123.463422577406
 21
2092.199846061438
 31
0.0
  0
LINE
  5
25221
330
747D
100
AcDbEntity
  8
部品1
100
AcDbLine
 10
8230.823422577399
 20
2003.659846061438
 30
0.0
 11
8432.163422577399
 21
2003.659846061438
 31
0.0
  0
LINE
  5
25222
330
747D
100
AcDbEntity
  8
部品1
100
AcDbLine
 10
8072.163422577405
 20
2006.359846061438
 30
0.0
 11
8072.163422577405
 21
2068.491749764145
 31
0.0
  0
LINE
  5
25223
330
747D
100
AcDbEntity
  8
部品1
100
AcDbLine
 10
8074.863422577404
 20
2003.659846061438
 30
0.0
 11
8086.563422577398
 21
2003.659846061438
 31
0.0
  0
LINE
  5
25224
330
747D
100
AcDbEntity
  8
細線
 48
50.0
100
AcDbLine
 10
8065.863422577404
 20
1981.880422361342
 30
0.0
 11
8078.082846277499
 21
1994.099846061437
 31
0.0
  0
ARC
  5
25225
330
747D
100
AcDbEntity
  8
部品1
100
AcDbCircle
 10
8074.863422577404
 20
2006.359846061438
 30
0.0
 40
2.7
100
AcDbArc
 50
180.0
 51
270.0
  0
LINE
  5
25226
330
747D
100
AcDbEntity
  8
部品1
100
AcDbLine
 10
8074.208576389807
 20
2071.111134514537
 30
0.0
 11
8082.963422577405
 21
2073.299846061437
 31
0.0
  0
ARC
  5
25227
330
747D
100
AcDbEntity
  8
部品1
100
AcDbCircle
 10
8074.863422577404
 20
2068.491749764145
 30
0.0
 40
2.7
100
AcDbArc
 50
104.0362434679067
 51
180.0
  0
ARC
  5
25228
330
747D
100
AcDbEntity
  8
部品1
100
AcDbCircle
 10
8085.663422577406
 20
2081.399846061438
 30
0.0
 40
2.7
100
AcDbArc
 50
90.0
 51
180.0
  0
LINE
  5
25229
330
747D
100
AcDbEntity
  8
部品1
100
AcDbLine
 10
8082.963422577405
 20
2073.299846061437
 30
0.0
 11
8082.963422577405
 21
2081.399846061438
 31
0.0
  0
LINE
  5
2522A
330
747D
100
AcDbEntity
  8
部品1
 48
50.0
100
AcDbLine
 10
8065.863422577404
 20
1994.099846061437
 30
0.0
 11
8479.863422577407
 21
1994.099846061437
 31
0.0
  0
LINE
  5
2522B
330
747D
100
AcDbEntity
  8
細線
 48
50.0
100
AcDbLine
 10
8065.863422577404
 20
1927.998885634927
 30
0.0
 11
8131.964383003916
 21
1994.099846061437
 31
0.0
  0
LINE
  5
2522C
330
747D
100
AcDbEntity
  8
細線
 48
50.0
100
AcDbLine
 10
8065.863422577404
 20
1954.939653998135
 30
0.0
 11
8105.023614640712
 21
1994.099846061437
 31
0.0
  0
LINE
  5
2522D
330
747D
100
AcDbEntity
  8
部品1
100
AcDbLine
 10
8085.663422577406
 20
2084.099846061437
 30
0.0
 11
8123.463422577406
 21
2084.099846061437
 31
0.0
  0
LINE
  5
2522E
330
747D
100
AcDbEntity
  8
部品1
 48
50.0
100
AcDbLine
 10
8479.863422577404
 20
1450.099846061437
 30
0.0
 11
8607.863422577404
 21
1450.099846061437
 31
0.0
  0
LINE
  5
2522F
330
747D
100
AcDbEntity
  8
部品1
100
AcDbLine
 10
8296.263422577405
 20
1769.099846061437
 30
0.0
 11
8332.263422577405
 21
1769.099846061437
 31
0.0
  0
LINE
  5
25230
330
747D
100
AcDbEntity
  8
部品1
100
AcDbLine
 10
8296.263422577405
 20
1751.099846061437
 30
0.0
 11
8332.263422577405
 21
1751.099846061437
 31
0.0
  0
ARC
  5
25231
330
747D
100
AcDbEntity
  8
部品1
100
AcDbCircle
 10
8296.263422577405
 20
1769.099846061437
 30
0.0
 40
18.0
100
AcDbArc
 50
180.0
 51
270.0
  0
LINE
  5
25232
330
747D
100
AcDbEntity
  8
部品1
100
AcDbLine
 10
8332.263422577405
 20
1751.099846061437
 30
0.0
 11
8332.263422577405
 21
1769.099846061437
 31
0.0
  0
LINE
  5
25233
330
747D
100
AcDbEntity
  8
部品1
100
AcDbLine
 10
8350.263422577405
 20
1670.099846061435
 30
0.0
 11
8224.263422577399
 21
1670.099846061435
 31
0.0
  0
LINE
  5
25234
330
747D
100
AcDbEntity
  8
細線
 48
50.0
100
AcDbLine
 10
8644.241247769739
 20
1186.099846061435
 30
0.0
 11
8637.810467151394
 21
1210.099846061435
 31
0.0
  0
LINE
  5
25235
330
747D
100
AcDbEntity
  8
細線
 48
50.0
100
AcDbLine
 10
8565.353202822494
 20
1186.099846061435
 30
0.0
 11
8558.922422204148
 21
1210.099846061435
 31
0.0
  0
LINE
  5
25236
330
747D
100
AcDbEntity
  8
細線
 48
50.0
100
AcDbLine
 10
8486.465157875239
 20
1186.099846061437
 30
0.0
 11
8480.03437725689
 21
1210.099846061437
 31
0.0
  0
LINE
  5
25237
330
747D
100
AcDbEntity
  8
細線
 48
50.0
100
AcDbLine
 10
8622.80531237525
 20
1106.099846061435
 30
0.0
 11
8629.236092993599
 21
1082.099846061435
 31
0.0
  0
LINE
  5
25238
330
747D
100
AcDbEntity
  8
細線
 48
50.0
100
AcDbLine
 10
8543.917267428005
 20
1106.099846061435
 30
0.0
 11
8550.34804804635
 21
1082.099846061435
 31
0.0
  0
LINE
  5
25239
330
747D
100
AcDbEntity
  8
細線
 48
50.0
100
AcDbLine
 10
8465.029222480756
 20
1106.099846061437
 30
0.0
 11
8471.460003099114
 21
1082.099846061437
 31
0.0
  0
LINE
  5
2523A
330
747D
100
AcDbEntity
  8
細線
 48
50.0
100
AcDbLine
 10
8537.486486809655
 20
1082.099846061434
 30
0.0
 11
8571.783983440839
 21
1210.099846061434
 31
0.0
  0
LINE
  5
2523B
330
747D
100
AcDbEntity
  8
細線
 48
50.0
100
AcDbLine
 10
8458.598441862406
 20
1082.099846061435
 30
0.0
 11
8492.89593849358
 21
1210.099846061437
 31
0.0
  0
LINE
  5
2523C
330
747D
100
AcDbEntity
  8
細線
 48
50.0
100
AcDbLine
 10
8616.3745317569
 20
1082.099846061435
 30
0.0
 11
8650.672028388086
 21
1210.099846061434
 31
0.0
  0
LINE
  5
2523D
330
747D
100
AcDbEntity
  8
部品1
 48
50.0
100
AcDbLine
 10
8687.863422577407
 20
1210.099846061437
 30
0.0
 11
8687.863422577407
 21
1082.099846061437
 31
0.0
  0
LINE
  5
2523E
330
747D
100
AcDbEntity
  8
細線
 48
50.0
100
AcDbLine
 10
8407.577112928001
 20
1186.099846061437
 30
0.0
 11
8401.146332309656
 21
1210.099846061437
 31
0.0
  0
LINE
  5
2523F
330
747D
100
AcDbEntity
  8
細線
 48
50.0
100
AcDbLine
 10
8328.689067980755
 20
1186.099846061437
 30
0.0
 11
8322.258287362407
 21
1210.099846061437
 31
0.0
  0
LINE
  5
25240
330
747D
100
AcDbEntity
  8
細線
 48
50.0
100
AcDbLine
 10
8170.912978086262
 20
1186.099846061437
 30
0.0
 11
8164.482197467915
 21
1210.099846061437
 31
0.0
  0
LINE
  5
25241
330
747D
100
AcDbEntity
  8
細線
 48
50.0
100
AcDbLine
 10
8249.801023033509
 20
1186.099846061437
 30
0.0
 11
8243.37024241516
 21
1210.099846061437
 31
0.0
  0
LINE
  5
25242
330
747D
100
AcDbEntity
  8
細線
 48
50.0
100
AcDbLine
 10
8307.253132586266
 20
1106.099846061437
 30
0.0
 11
8313.683913204611
 21
1082.099846061437
 31
0.0
  0
LINE
  5
25243
330
747D
100
AcDbEntity
  8
細線
 48
50.0
100
AcDbLine
 10
8386.141177533511
 20
1106.099846061437
 30
0.0
 11
8392.571958151858
 21
1082.099846061437
 31
0.0
  0
LINE
  5
25244
330
747D
100
AcDbEntity
  8
細線
 48
50.0
100
AcDbLine
 10
8149.477042691771
 20
1106.099846061437
 30
0.0
 11
8155.907823310119
 21
1082.099846061437
 31
0.0
  0
LINE
  5
25245
330
747D
100
AcDbEntity
  8
細線
 48
50.0
100
AcDbLine
 10
8228.365087639017
 20
1106.099846061437
 30
0.0
 11
8234.795868257366
 21
1082.099846061437
 31
0.0
  0
LINE
  5
25246
330
747D
100
AcDbEntity
  8
細線
 48
50.0
100
AcDbLine
 10
8379.710396915157
 20
1082.099846061437
 30
0.0
 11
8414.007893546342
 21
1210.099846061435
 31
0.0
  0
LINE
  5
25247
330
747D
100
AcDbEntity
  8
細線
 48
50.0
100
AcDbLine
 10
8221.934307020667
 20
1082.099846061437
 30
0.0
 11
8256.231803651852
 21
1210.099846061435
 31
0.0
  0
LINE
  5
25248
330
747D
100
AcDbEntity
  8
細線
 48
50.0
100
AcDbLine
 10
8143.04626207342
 20
1082.099846061437
 30
0.0
 11
8177.343758704603
 21
1210.099846061437
 31
0.0
  0
LINE
  5
25249
330
747D
100
AcDbEntity
  8
細線
 48
50.0
100
AcDbLine
 10
8300.822351967916
 20
1082.099846061435
 30
0.0
 11
8335.119848599097
 21
1210.099846061435
 31
0.0
  0
LINE
  5
2524A
330
747D
100
AcDbEntity
  8
細線
 48
50.0
100
AcDbLine
 10
8425.595117532214
 20
1210.099846061437
 30
0.0
 11
8607.863422577404
 21
1392.368151106633
 31
0.0
  0
LINE
  5
2524B
330
747D
100
AcDbEntity
  8
部品1
 48
50.0
100
AcDbLine
 10
8607.863422577404
 20
1450.099846061437
 30
0.0
 11
8607.863422577404
 21
1210.099846061437
 31
0.0
  0
LINE
  5
2524C
330
747D
100
AcDbEntity
  8
細線
 48
50.0
100
AcDbLine
 10
8398.65434916901
 20
1210.099846061437
 30
0.0
 11
8607.863422577404
 21
1419.30891946983
 31
0.0
  0
LINE
  5
2524D
330
747D
100
AcDbEntity
  8
細線
 48
50.0
100
AcDbLine
 10
8371.713580805797
 20
1210.099846061437
 30
0.0
 11
8607.863422577404
 21
1446.249687833045
 31
0.0
  0
LINE
  5
2524E
330
747D
100
AcDbEntity
  8
細線
 48
50.0
100
AcDbLine
 10
8156.187433900139
 20
1210.099846061437
 30
0.0
 11
8479.863422577404
 21
1533.775834738703
 31
0.0
  0
LINE
  5
2524F
330
747D
100
AcDbEntity
  8
細線
 48
50.0
100
AcDbLine
 10
8210.068970626556
 20
1210.099846061437
 30
0.0
 11
8479.863422577404
 21
1479.894298012294
 31
0.0
  0
LINE
  5
25250
330
747D
100
AcDbEntity
  8
細線
 48
50.0
100
AcDbLine
 10
8183.12820226335
 20
1210.099846061437
 30
0.0
 11
8479.863422577404
 21
1506.83506637549
 31
0.0
  0
LINE
  5
25251
330
747D
100
AcDbEntity
  8
細線
 48
50.0
100
AcDbLine
 10
7937.8634225774
 20
1422.828128550023
 30
0.0
 11
7965.13514008882
 21
1450.099846061437
 31
0.0
  0
LINE
  5
25252
330
747D
100
AcDbEntity
  8
部品1
 48
50.0
100
AcDbLine
 10
7937.863422577404
 20
1450.099846061437
 30
0.0
 11
8065.863422577404
 21
1450.099846061437
 31
0.0
  0
LINE
  5
25253
330
747D
100
AcDbEntity
  8
細線
 48
50.0
100
AcDbLine
 10
7937.8634225774
 20
1395.887360186813
 30
0.0
 11
7992.075908452028
 21
1450.099846061437
 31
0.0
  0
LWPOLYLINE
  5
25254
330
747D
100
AcDbEntity
  8
部品1
 48
50.0
100
AcDbPolyline
 90
        2
 70
     0
 43
8.0
 10
7651.723520744448
 20
1754.099846061438
 10
8065.863422577404
 20
1754.099846061438
  0
LINE
  5
25255
330
747D
100
AcDbEntity
  8
細線
 48
50.0
100
AcDbLine
 10
8013.136888191759
 20
1186.099846061437
 30
0.0
 11
8006.706107573412
 21
1210.099846061437
 31
0.0
  0
LINE
  5
25256
330
747D
100
AcDbEntity
  8
細線
 48
50.0
100
AcDbLine
 10
8092.024933139009
 20
1186.099846061437
 30
0.0
 11
8085.594152520661
 21
1210.099846061437
 31
0.0
  0
LINE
  5
25257
330
747D
100
AcDbEntity
  8
細線
 48
50.0
100
AcDbLine
 10
7934.248843244507
 20
1186.099846061437
 30
0.0
 11
7927.81806262616
 21
1210.099846061437
 31
0.0
  0
LINE
  5
25258
330
747D
100
AcDbEntity
  8
細線
 48
50.0
100
AcDbLine
 10
7857.863422577404
 20
1195.439767027217
 30
0.0
 11
7861.7915789156
 21
1210.099846061437
 31
0.0
  0
LINE
  5
25259
330
747D
100
AcDbEntity
  8
細線
 48
50.0
100
AcDbLine
 10
7991.70095279727
 20
1106.099846061437
 30
0.0
 11
7998.131733415616
 21
1082.099846061437
 31
0.0
  0
LINE
  5
2525A
330
747D
100
AcDbEntity
  8
細線
 48
50.0
100
AcDbLine
 10
8070.58899774452
 20
1106.099846061437
 30
0.0
 11
8077.019778362869
 21
1082.099846061437
 31
0.0
  0
LINE
  5
2525B
330
747D
100
AcDbEntity
  8
細線
 48
50.0
100
AcDbLine
 10
7912.812907850017
 20
1106.099846061437
 30
0.0
 11
7919.243688468363
 21
1082.099846061437
 31
0.0
  0
LINE
  5
2525C
330
747D
100
AcDbEntity
  8
細線
 48
50.0
100
AcDbLine
 10
8064.158217126168
 20
1082.099846061435
 30
0.0
 11
8098.455713757351
 21
1210.099846061435
 31
0.0
  0
LINE
  5
2525D
330
747D
100
AcDbEntity
  8
細線
 48
50.0
100
AcDbLine
 10
7906.382127231665
 20
1082.099846061435
 30
0.0
 11
7940.679623862847
 21
1210.099846061435
 31
0.0
  0
LINE
  5
2525E
330
747D
100
AcDbEntity
  8
部品1
 48
50.0
100
AcDbLine
 10
7857.863422577408
 20
1082.099846061437
 30
0.0
 11
7857.863422577408
 21
1210.099846061437
 31
0.0
  0
LINE
  5
2525F
330
747D
100
AcDbEntity
  8
細線
 48
50.0
100
AcDbLine
 10
7985.270172178921
 20
1082.099846061437
 30
0.0
 11
8019.567668810104
 21
1210.099846061437
 31
0.0
  0
LINE
  5
25260
330
747D
100
AcDbEntity
  8
部品1
 48
50.0
100
AcDbLine
 10
7937.863422577404
 20
1210.099846061437
 30
0.0
 11
7937.863422577404
 21
1450.099846061437
 31
0.0
  0
LINE
  5
25261
330
747D
100
AcDbEntity
  8
細線
 48
50.0
100
AcDbLine
 10
7937.8634225774
 20
1368.946591823608
 30
0.0
 11
8019.016676815233
 21
1450.099846061437
 31
0.0
  0
LINE
  5
25262
330
747D
100
AcDbEntity
  8
部品1
 48
50.0
100
AcDbLine
 10
8687.863422577407
 20
1082.099846061437
 30
0.0
 11
7857.863422577408
 21
1082.099846061437
 31
0.0
  0
LINE
  5
25263
330
747D
100
AcDbEntity
  8
部品1
 48
50.0
100
AcDbLine
 10
8687.863422577407
 20
1210.099846061437
 30
0.0
 11
7857.863422577408
 21
1210.099846061437
 31
0.0
  0
LINE
  5
25264
330
747D
100
AcDbEntity
  8
細線
 48
50.0
100
AcDbLine
 10
7940.661286994481
 20
1210.099846061437
 30
0.0
 11
8479.863422577404
 21
1749.301981644363
 31
0.0
  0
LINE
  5
25265
330
747D
100
AcDbEntity
  8
細線
 48
50.0
100
AcDbLine
 10
7967.602055357689
 20
1210.099846061437
 30
0.0
 11
8479.863422577407
 21
1722.361213281151
 31
0.0
  0
LINE
  5
25266
330
747D
100
AcDbEntity
  8
細線
 48
50.0
100
AcDbLine
 10
7994.542823720895
 20
1210.099846061437
 30
0.0
 11
8479.863422577404
 21
1695.420444917945
 31
0.0
  0
LINE
  5
25267
330
747D
100
AcDbEntity
  8
細線
 48
50.0
100
AcDbLine
 10
8065.863422577404
 20
1550.828128550023
 30
0.0
 11
8224.263422577399
 21
1709.228128550018
 31
0.0
  0
LINE
  5
25268
330
747D
100
AcDbEntity
  8
細線
 48
50.0
100
AcDbLine
 10
8065.863422577404
 20
1496.946591823608
 30
0.0
 11
8239.016676815241
 21
1670.099846061435
 31
0.0
  0
LINE
  5
25269
330
747D
100
AcDbEntity
  8
細線
 48
50.0
100
AcDbLine
 10
8065.863422577404
 20
1523.887360186815
 30
0.0
 11
8224.263422577399
 21
1682.287360186804
 31
0.0
  0
LINE
  5
2526A
330
747D
100
AcDbEntity
  8
部品1
100
AcDbLine
 10
8224.263422577399
 20
1670.099846061437
 30
0.0
 11
8224.263422577406
 21
1994.099846061437
 31
0.0
  0
LINE
  5
2526B
330
747D
100
AcDbEntity
  8
部品1
100
AcDbLine
 10
8350.263422577405
 20
1670.099846061437
 30
0.0
 11
8350.263422577405
 21
1994.099846061437
 31
0.0
  0
LINE
  5
2526C
330
747D
100
AcDbEntity
  8
細線
 48
50.0
100
AcDbLine
 10
8350.263422577405
 20
1808.287360186809
 30
0.0
 11
8479.863422577404
 21
1937.887360186805
 31
0.0
  0
LINE
  5
2526D
330
747D
100
AcDbEntity
  8
細線
 48
50.0
100
AcDbLine
 10
8350.263422577405
 20
1781.346591823596
 30
0.0
 11
8479.863422577404
 21
1910.946591823587
 31
0.0
  0
LINE
  5
2526E
330
747D
100
AcDbEntity
  8
部品1
100
AcDbLine
 10
8278.263422577406
 20
1769.099846061437
 30
0.0
 11
8278.263422577401
 21
2043.259846061438
 31
0.0
  0
LINE
  5
2526F
330
747D
100
AcDbEntity
  8
部品1
100
AcDbLine
 10
8296.263422577405
 20
1769.099846061437
 30
0.0
 11
8296.263422577402
 21
2043.259846061438
 31
0.0
  0
TEXT
  5
25270
330
747D
100
AcDbEntity
  8
部品1
 48
50.0
100
AcDbText
 10
7651.723520744448
 20
1765.338838344693
 30
0.0
 40
80.0
  1
▽G.L
  7
STYLE2
100
AcDbText
  0
LINE
  5
25271
330
747D
100
AcDbEntity
  8
細線
 48
50.0
100
AcDbLine
 10
8065.863422577404
 20
1712.472738729268
 30
0.0
 11
8224.263422577402
 21
1870.87273872926
 31
0.0
  0
LINE
  5
25272
330
747D
100
AcDbEntity
  8
細線
 48
50.0
100
AcDbLine
 10
8065.863422577404
 20
1739.413507092475
 30
0.0
 11
8224.263422577404
 21
1897.813507092473
 31
0.0
  0
LINE
  5
25273
330
747D
100
AcDbEntity
  8
細線
 48
50.0
100
AcDbLine
 10
8065.863422577404
 20
1766.354275455683
 30
0.0
 11
8224.263422577404
 21
1924.75427545568
 31
0.0
  0
LINE
  5
25274
330
747D
100
AcDbEntity
  8
部品1
 48
50.0
100
AcDbLine
 10
8065.863422577404
 20
1450.099846061437
 30
0.0
 11
8065.863422577404
 21
1994.099846061437
 31
0.0
  0
LINE
  5
25275
330
747D
100
AcDbEntity
  8
部品1
100
AcDbLine
 10
8479.863422577404
 20
1450.099846061437
 30
0.0
 11
8479.863422577404
 21
1994.099846061437
 31
0.0
  0
LINE
  5
25276
330
747D
100
AcDbEntity
  8
細線
 48
50.0
100
AcDbLine
 10
8350.263422577405
 20
1835.228128550026
 30
0.0
 11
8479.863422577404
 21
1964.828128550024
 31
0.0
  0
LINE
  5
25277
330
747D
100
AcDbEntity
  8
細線
 48
50.0
100
AcDbLine
 10
6474.316531902681
 20
1874.846697958153
 30
0.0
 11
6557.824109400211
 21
1958.354275455683
 31
0.0
  0
LINE
  5
25278
330
747D
100
AcDbEntity
  8
細線
 48
50.0
100
AcDbLine
 10
6485.376816666198
 20
1858.966214358459
 30
0.0
 11
6557.824109400211
 21
1931.413507092475
 31
0.0
  0
LINE
  5
25279
330
747D
100
AcDbEntity
  8
細線
 48
50.0
100
AcDbLine
 10
6365.824109400211
 20
1981.880422361342
 30
0.0
 11
6378.043533100306
 21
1994.099846061437
 31
0.0
  0
LINE
  5
2527A
330
747D
100
AcDbEntity
  8
細線
 48
50.0
100
AcDbLine
 10
6365.824109400211
 20
1927.998885634927
 30
0.0
 11
6431.925069826721
 21
1994.099846061437
 31
0.0
  0
LINE
  5
2527B
330
747D
100
AcDbEntity
  8
細線
 48
50.0
100
AcDbLine
 10
6365.824109400211
 20
1954.939653998135
 30
0.0
 11
6404.984301463516
 21
1994.099846061437
 31
0.0
  0
LINE
  5
2527C
330
747D
100
AcDbEntity
  8
部品1
 48
50.0
100
AcDbLine
 10
6365.824109400211
 20
1994.099846061437
 30
0.0
 11
6557.824109400211
 21
1994.099846061437
 31
0.0
  0
DIMENSION
  5
2527D
330
747D
100
AcDbEntity
  8
寸法
 48
50.0
100
AcDbDimension
  2
*D53
 10
6365.824109400211
 20
2413.767653977818
 30
0.0
 11
6461.82410940021
 21
2413.767653977818
 31
0.0
 70
   160
  1
120\P200\P280
 71
     5
 42
192.0
  3
INABA_S40G
100
AcDbAlignedDimension
 13
6557.824109400211
 23
1994.099846061437
 33
0.0
 14
6365.824109400211
 24
1994.099846061437
 34
0.0
100
AcDbRotatedDimension
1001
ACAD
1000
DSTYLE
1002
{
1070
   341
1005
0
1002
}
  0
MTEXT
  5
2527E
102
{ACAD_REACTORS
330
252D3
102
}
330
747D
100
AcDbEntity
  8
寸法
 62
     7
 48
50.0
100
AcDbMText
 10
6799.562565261462
 20
1032.750760329284
 30
0.0
 40
80.0
 41
0.8
 71
     4
 72
     1
  1
\A1;D10@300
  7
STYLE2
 73
     1
 44
1.0
1001
ACAD
1000
MTEXTBEGIN
1070
    73
1070
     1
1070
    44
1040
1.0
1070
    74
1070
     0
1000
MTEXTEND
  0
LINE
  5
2527F
330
747D
100
AcDbEntity
  8
細線
 48
50.0
100
AcDbLine
 10
6485.824109400216
 20
1643.887360186818
 30
0.0
 11
6557.824109400204
 21
1715.887360186813
 31
0.0
  0
LINE
  5
25280
330
747D
100
AcDbEntity
  8
細線
 48
50.0
100
AcDbLine
 10
6485.824109400211
 20
1670.828128550023
 30
0.0
 11
6557.824109400211
 21
1742.828128550023
 31
0.0
  0
LINE
  5
25281
330
747D
100
AcDbEntity
  8
細線
 48
50.0
100
AcDbLine
 10
6485.824109400216
 20
1401.420444917949
 30
0.0
 11
6557.824109400204
 21
1473.420444917949
 31
0.0
  0
LINE
  5
25282
330
747D
100
AcDbEntity
  8
細線
 48
50.0
100
AcDbLine
 10
6485.824109400216
 20
1455.301981644366
 30
0.0
 11
6557.824109400204
 21
1527.301981644363
 31
0.0
  0
LINE
  5
25283
330
747D
100
AcDbEntity
  8
細線
 48
50.0
100
AcDbLine
 10
6485.824109400216
 20
1428.361213281158
 30
0.0
 11
6557.824109400204
 21
1500.361213281153
 31
0.0
  0
LINE
  5
25284
330
747D
100
AcDbEntity
  8
部品1
 48
50.0
100
AcDbLine
 10
6557.824109400211
 20
1450.099846061437
 30
0.0
 11
6685.824109400211
 21
1450.099846061437
 31
0.0
  0
LINE
  5
25285
330
747D
100
AcDbEntity
  8
細線
 48
50.0
100
AcDbLine
 10
6485.824109400216
 20
1616.946591823608
 30
0.0
 11
6557.824109400204
 21
1688.946591823608
 31
0.0
  0
LINE
  5
25286
330
747D
100
AcDbEntity
  8
部品1
 48
50.0
100
AcDbLine
 10
6453.824109400212
 20
1796.22706075856
 30
0.0
 11
6453.824109400212
 21
1854.354275455683
 31
0.0
  0
LINE
  5
25287
330
747D
100
AcDbEntity
  8
細線
 48
50.0
100
AcDbLine
 10
6365.824109400211
 20
1766.354275455683
 30
0.0
 11
6437.824109400212
 21
1838.354275455683
 31
0.0
  0
LINE
  5
25288
330
747D
100
AcDbEntity
  8
部品1
 48
50.0
100
AcDbLine
 10
6437.824109400212
 20
1796.227060758563
 30
0.0
 11
6437.824109400212
 21
1854.354275455683
 31
0.0
  0
LINE
  5
25289
330
747D
100
AcDbEntity
  8
細線
 48
50.0
100
AcDbLine
 10
6365.824109400211
 20
1739.413507092475
 30
0.0
 11
6437.824109400212
 21
1811.413507092475
 31
0.0
  0
LINE
  5
2528A
330
747D
100
AcDbEntity
  8
細線
 48
50.0
100
AcDbLine
 10
6365.824109400211
 20
1712.472738729268
 30
0.0
 11
6449.578431429505
 21
1796.22706075856
 31
0.0
  0
LINE
  5
2528B
330
747D
100
AcDbEntity
  8
部品1
 48
50.0
100
AcDbLine
 10
6453.824109400212
 20
1796.22706075856
 30
0.0
 11
6437.824109400212
 21
1796.227060758563
 31
0.0
  0
LINE
  5
2528C
330
747D
100
AcDbEntity
  8
細線
 48
50.0
100
AcDbLine
 10
6237.824109400204
 20
1422.828128550023
 30
0.0
 11
6265.095826911625
 21
1450.099846061437
 31
0.0
  0
LINE
  5
2528D
330
747D
100
AcDbEntity
  8
細線
 48
50.0
100
AcDbLine
 10
6237.824109400204
 20
1395.887360186813
 30
0.0
 11
6292.036595274836
 21
1450.099846061437
 31
0.0
  0
LINE
  5
2528E
330
747D
100
AcDbEntity
  8
部品1
 48
50.0
100
AcDbLine
 10
6237.824109400211
 20
1450.099846061437
 30
0.0
 11
6365.824109400211
 21
1450.099846061437
 31
0.0
  0
LINE
  5
2528F
330
747D
100
AcDbEntity
  8
細線
 48
50.0
100
AcDbLine
 10
6453.824109400212
 20
1827.413507092475
 30
0.0
 11
6469.824109400211
 21
1843.413507092475
 31
0.0
  0
LINE
  5
25290
330
747D
100
AcDbEntity
  8
細線
 48
50.0
100
AcDbLine
 10
6453.824109400212
 20
1800.472738729268
 30
0.0
 11
6469.824109400211
 21
1816.472738729268
 31
0.0
  0
LINE
  5
25291
330
747D
100
AcDbEntity
  8
細線
 48
50.0
100
AcDbLine
 10
6365.824109400211
 20
1496.946591823608
 30
0.0
 11
6469.824109400217
 21
1600.946591823608
 31
0.0
  0
LINE
  5
25292
330
747D
100
AcDbEntity
  8
細線
 48
50.0
100
AcDbLine
 10
6365.824109400211
 20
1550.828128550023
 30
0.0
 11
6469.824109400211
 21
1654.828128550023
 31
0.0
  0
LINE
  5
25293
330
747D
100
AcDbEntity
  8
細線
 48
50.0
100
AcDbLine
 10
6365.824109400211
 20
1523.887360186815
 30
0.0
 11
6469.824109400217
 21
1627.887360186818
 31
0.0
  0
LINE
  5
25294
330
747D
100
AcDbEntity
  8
細線
 48
50.0
100
AcDbLine
 10
6628.649754803558
 20
1186.099846061437
 30
0.0
 11
6622.218974185213
 21
1210.099846061437
 31
0.0
  0
LINE
  5
25295
330
747D
100
AcDbEntity
  8
細線
 48
50.0
100
AcDbLine
 10
6671.674267628604
 20
1210.099846061437
 30
0.0
 11
6685.824109400211
 21
1224.249687833044
 31
0.0
  0
LINE
  5
25296
330
747D
100
AcDbEntity
  8
細線
 48
50.0
100
AcDbLine
 10
6707.537799750806
 20
1186.099846061437
 30
0.0
 11
6701.107019132457
 21
1210.099846061437
 31
0.0
  0
LINE
  5
25297
330
747D
100
AcDbEntity
  8
部品1
 48
50.0
100
AcDbLine
 10
6629.824109400212
 20
1322.099846061437
 30
0.0
 11
6629.824109400212
 21
1306.099846061437
 31
0.0
  0
LINE
  5
25298
330
747D
100
AcDbEntity
  8
細線
 48
50.0
100
AcDbLine
 10
6510.029657449358
 20
1210.099846061437
 30
0.0
 11
6606.030545294496
 21
1306.100733906576
 31
0.0
  0
LINE
  5
25299
330
747D
100
AcDbEntity
  8
細線
 48
50.0
100
AcDbLine
 10
6483.088889086156
 20
1210.099846061437
 30
0.0
 11
6579.088889086155
 21
1306.099846061437
 31
0.0
  0
LINE
  5
2529A
330
747D
100
AcDbEntity
  8
細線
 48
50.0
100
AcDbLine
 10
6549.761709856314
 20
1186.099846061437
 30
0.0
 11
6543.330929237967
 21
1210.099846061437
 31
0.0
  0
LINE
  5
2529B
330
747D
100
AcDbEntity
  8
細線
 48
50.0
100
AcDbLine
 10
6470.873664909068
 20
1186.099846061437
 30
0.0
 11
6464.44288429072
 21
1210.099846061437
 31
0.0
  0
ARC
  5
2529C
330
747D
100
AcDbEntity
  8
部品1
 48
50.0
100
AcDbCircle
 10
6461.824109400211
 20
1330.099846061437
 30
0.0
 40
24.0
100
AcDbArc
 50
340.5287793655256
 51
0.0
  0
CIRCLE
  5
2529D
330
747D
100
AcDbEntity
  8
部品1
 48
50.0
100
AcDbCircle
 10
6589.824109400211
 20
1330.099846061437
 30
0.0
 40
8.0
  0
LINE
  5
2529E
330
747D
100
AcDbEntity
  8
細線
 48
50.0
100
AcDbLine
 10
6622.029657449359
 20
1322.099846061437
 30
0.0
 11
6685.824109400211
 21
1385.894298012288
 31
0.0
  0
LINE
  5
2529F
330
747D
100
AcDbEntity
  8
細線
 48
50.0
100
AcDbLine
 10
6758.559128685213
 20
1082.099846061435
 30
0.0
 11
6765.824109400212
 21
1109.213123205825
 31
0.0
  0
LINE
  5
252A0
330
747D
100
AcDbEntity
  8
細線
 48
50.0
100
AcDbLine
 10
6764.989909303564
 20
1106.099846061437
 30
0.0
 11
6765.824109400212
 21
1102.986568917073
 31
0.0
  0
LINE
  5
252A1
330
747D
100
AcDbEntity
  8
細線
 48
50.0
100
AcDbLine
 10
6686.101864356317
 20
1106.099846061437
 30
0.0
 11
6692.532644974665
 21
1082.099846061437
 31
0.0
  0
LINE
  5
252A2
330
747D
100
AcDbEntity
  8
細線
 48
50.0
100
AcDbLine
 10
6528.325774461824
 20
1106.099846061437
 30
0.0
 11
6534.75655508017
 21
1082.099846061437
 31
0.0
  0
LINE
  5
252A3
330
747D
100
AcDbEntity
  8
細線
 48
50.0
100
AcDbLine
 10
6607.21381940907
 20
1106.099846061437
 30
0.0
 11
6613.644600027417
 21
1082.099846061437
 31
0.0
  0
LINE
  5
252A4
330
747D
100
AcDbEntity
  8
細線
 48
50.0
100
AcDbLine
 10
6600.78303879072
 20
1082.099846061435
 30
0.0
 11
6635.080535421905
 21
1210.099846061435
 31
0.0
  0
LINE
  5
252A5
330
747D
100
AcDbEntity
  8
細線
 48
50.0
100
AcDbLine
 10
6521.894993843471
 20
1082.099846061437
 30
0.0
 11
6556.192490474657
 21
1210.099846061435
 31
0.0
  0
LINE
  5
252A6
330
747D
100
AcDbEntity
  8
細線
 48
50.0
100
AcDbLine
 10
6679.671083737964
 20
1082.099846061437
 30
0.0
 11
6713.968580369151
 21
1210.099846061435
 31
0.0
  0
LINE
  5
252A7
330
747D
100
AcDbEntity
  8
部品1
 48
50.0
100
AcDbLine
 10
6765.824109400215
 20
1210.099846061437
 30
0.0
 11
6765.824109400215
 21
1082.099846061437
 31
0.0
  0
LINE
  5
252A8
330
747D
100
AcDbEntity
  8
部品1
 48
50.0
100
AcDbLine
 10
6453.824109400212
 20
1388.227060758559
 30
0.0
 11
6453.824109400212
 21
1330.099846061437
 31
0.0
  0
LINE
  5
252A9
330
747D
100
AcDbEntity
  8
細線
 48
50.0
100
AcDbLine
 10
6379.562742180495
 20
1322.099846061437
 30
0.0
 11
6437.824109400212
 21
1380.361213281156
 31
0.0
  0
LINE
  5
252AA
330
747D
100
AcDbEntity
  8
部品1
 48
50.0
100
AcDbLine
 10
6437.824109400212
 20
1388.227060758559
 30
0.0
 11
6437.824109400212
 21
1330.099846061437
 31
0.0
  0
LINE
  5
252AB
330
747D
100
AcDbEntity
  8
細線
 48
50.0
100
AcDbLine
 10
6294.5035105437
 20
1210.099846061437
 30
0.0
 11
6390.5035105437
 21
1306.099846061437
 31
0.0
  0
LINE
  5
252AC
330
747D
100
AcDbEntity
  8
細線
 48
50.0
100
AcDbLine
 10
6391.985619961815
 20
1186.099846061437
 30
0.0
 11
6385.55483934347
 21
1210.099846061437
 31
0.0
  0
LINE
  5
252AD
330
747D
100
AcDbEntity
  8
細線
 48
50.0
100
AcDbLine
 10
6313.097575014563
 20
1186.099846061437
 30
0.0
 11
6306.666794396217
 21
1210.099846061437
 31
0.0
  0
ARC
  5
252AE
330
747D
100
AcDbEntity
  8
部品1
 48
50.0
100
AcDbCircle
 10
6461.824109400211
 20
1330.099846061437
 30
0.0
 40
24.0
100
AcDbArc
 50
180.0
 51
199.4712206344743
  0
LINE
  5
252AF
330
747D
100
AcDbEntity
  8
細線
 48
50.0
100
AcDbLine
 10
6406.5035105437
 20
1322.099846061437
 30
0.0
 11
6437.824109400212
 21
1353.420444917948
 31
0.0
  0
CIRCLE
  5
252B0
330
747D
100
AcDbEntity
  8
部品1
 48
50.0
100
AcDbCircle
 10
6333.824109400211
 20
1330.099846061437
 30
0.0
 40
8.0
  0
LINE
  5
252B1
330
747D
100
AcDbEntity
  8
部品1
 48
50.0
100
AcDbLine
 10
6453.824109400212
 20
1388.227060758559
 30
0.0
 11
6437.824109400212
 21
1388.227060758559
 31
0.0
  0
LINE
  5
252B2
330
747D
100
AcDbEntity
  8
細線
 48
50.0
100
AcDbLine
 10
6157.824109400212
 20
1195.439767027217
 30
0.0
 11
6161.752265738407
 21
1210.099846061437
 31
0.0
  0
LINE
  5
252B3
330
747D
100
AcDbEntity
  8
細線
 48
50.0
100
AcDbLine
 10
6234.209530067312
 20
1186.099846061437
 30
0.0
 11
6227.778749448964
 21
1210.099846061437
 31
0.0
  0
LINE
  5
252B4
330
747D
100
AcDbEntity
  8
部品1
 48
50.0
100
AcDbLine
 10
6293.824109400212
 20
1322.099846061437
 30
0.0
 11
6293.824109400212
 21
1306.099846061437
 31
0.0
  0
LINE
  5
252B5
330
747D
100
AcDbEntity
  8
細線
 48
50.0
100
AcDbLine
 10
6240.621973817284
 20
1210.099846061437
 30
0.0
 11
6336.621973817284
 21
1306.099846061437
 31
0.0
  0
LINE
  5
252B6
330
747D
100
AcDbEntity
  8
細線
 48
50.0
100
AcDbLine
 10
6267.562742180494
 20
1210.099846061437
 30
0.0
 11
6363.562742180494
 21
1306.099846061437
 31
0.0
  0
LINE
  5
252B7
330
747D
100
AcDbEntity
  8
細線
 48
50.0
100
AcDbLine
 10
6370.549684567325
 20
1106.099846061437
 30
0.0
 11
6376.980465185672
 21
1082.099846061437
 31
0.0
  0
LINE
  5
252B8
330
747D
100
AcDbEntity
  8
細線
 48
50.0
100
AcDbLine
 10
6449.437729514578
 20
1106.099846061437
 30
0.0
 11
6455.868510132924
 21
1082.099846061437
 31
0.0
  0
LINE
  5
252B9
330
747D
100
AcDbEntity
  8
細線
 48
50.0
100
AcDbLine
 10
6212.773594672823
 20
1106.099846061437
 30
0.0
 11
6219.204375291169
 21
1082.099846061437
 31
0.0
  0
LINE
  5
252BA
330
747D
100
AcDbEntity
  8
細線
 48
50.0
100
AcDbLine
 10
6291.661639620073
 20
1106.099846061437
 30
0.0
 11
6298.092420238422
 21
1082.099846061437
 31
0.0
  0
LINE
  5
252BB
330
747D
100
AcDbEntity
  8
部品1
 48
50.0
100
AcDbLine
 10
6157.824109400213
 20
1082.099846061437
 30
0.0
 11
6157.824109400213
 21
1210.099846061437
 31
0.0
  0
LINE
  5
252BC
330
747D
100
AcDbEntity
  8
細線
 48
50.0
100
AcDbLine
 10
6206.342814054469
 20
1082.099846061435
 30
0.0
 11
6240.640310685652
 21
1210.099846061435
 31
0.0
  0
LINE
  5
252BD
330
747D
100
AcDbEntity
  8
細線
 48
50.0
100
AcDbLine
 10
6364.118903948973
 20
1082.099846061435
 30
0.0
 11
6398.416400580156
 21
1210.099846061435
 31
0.0
  0
LINE
  5
252BE
330
747D
100
AcDbEntity
  8
細線
 48
50.0
100
AcDbLine
 10
6285.230859001727
 20
1082.099846061437
 30
0.0
 11
6319.528355632911
 21
1210.099846061437
 31
0.0
  0
LINE
  5
252BF
330
747D
100
AcDbEntity
  8
細線
 48
50.0
100
AcDbLine
 10
6456.148120722945
 20
1210.099846061437
 30
0.0
 11
6552.148120722944
 21
1306.099846061437
 31
0.0
  0
CIRCLE
  5
252C0
330
747D
100
AcDbEntity
  8
部品1
 48
50.0
100
AcDbCircle
 10
6461.824109400211
 20
1330.099846061437
 30
0.0
 40
8.0
  0
LINE
  5
252C1
330
747D
100
AcDbEntity
  8
部品1
 48
50.0
100
AcDbLine
 10
6765.824109400215
 20
1210.099846061437
 30
0.0
 11
6157.824109400213
 21
1210.099846061437
 31
0.0
  0
LINE
  5
252C2
330
747D
100
AcDbEntity
  8
部品1
 48
50.0
100
AcDbLine
 10
6293.824109400212
 20
1322.099846061437
 30
0.0
 11
6629.824109400212
 21
1322.099846061437
 31
0.0
  0
LINE
  5
252C3
330
747D
100
AcDbEntity
  8
部品1
 48
50.0
100
AcDbLine
 10
6293.824109400212
 20
1306.099846061437
 30
0.0
 11
6629.824109400212
 21
1306.099846061437
 31
0.0
  0
LINE
  5
252C4
330
747D
100
AcDbEntity
  8
部品1
 48
50.0
100
AcDbLine
 10
6765.824109400215
 20
1082.099846061437
 30
0.0
 11
6157.824109400213
 21
1082.099846061437
 31
0.0
  0
LINE
  5
252C5
330
747D
100
AcDbEntity
  8
細線
 48
50.0
100
AcDbLine
 10
6443.006948896226
 20
1082.099846061437
 30
0.0
 11
6477.304445527408
 21
1210.099846061437
 31
0.0
  0
LINE
  5
252C6
330
747D
100
AcDbEntity
  8
細線
 48
50.0
100
AcDbLine
 10
6453.824109400212
 20
1369.420444917949
 30
0.0
 11
6469.824109400217
 21
1385.420444917949
 31
0.0
  0
LINE
  5
252C7
330
747D
100
AcDbEntity
  8
部品1
 48
50.0
100
AcDbLine
 10
6469.824109400217
 20
1330.099846061437
 30
0.0
 11
6469.824109400204
 21
1854.354275455683
 31
0.0
  0
LINE
  5
252C8
330
747D
100
AcDbEntity
  8
部品1
 48
50.0
100
AcDbLine
 10
6485.824109400216
 20
1330.099846061437
 30
0.0
 11
6485.824109400211
 21
1854.354275455683
 31
0.0
  0
LINE
  5
252C9
330
747D
100
AcDbEntity
  8
部品1
 48
50.0
100
AcDbLine
 10
6685.824109400211
 20
1450.099846061437
 30
0.0
 11
6685.824109400211
 21
1210.099846061437
 31
0.0
  0
LINE
  5
252CA
330
747D
100
AcDbEntity
  8
細線
 48
50.0
100
AcDbLine
 10
6568.148120722939
 20
1322.099846061437
 30
0.0
 11
6685.824109400211
 21
1439.775834738703
 31
0.0
  0
LINE
  5
252CB
330
747D
100
AcDbEntity
  8
細線
 48
50.0
100
AcDbLine
 10
6595.088889086155
 20
1322.099846061437
 30
0.0
 11
6685.824109400211
 21
1412.835066375496
 31
0.0
  0
LINE
  5
252CC
330
747D
100
AcDbEntity
  8
部品1
 48
50.0
100
AcDbLine
 10
6237.824109400211
 20
1210.099846061437
 30
0.0
 11
6237.824109400211
 21
1450.099846061437
 31
0.0
  0
LINE
  5
252CD
330
747D
100
AcDbEntity
  8
細線
 48
50.0
100
AcDbLine
 10
6352.621973817284
 20
1322.099846061437
 30
0.0
 11
6469.824109400211
 21
1439.301981644363
 31
0.0
  0
LINE
  5
252CE
330
747D
100
AcDbEntity
  8
細線
 48
50.0
100
AcDbLine
 10
6445.689956877615
 20
1388.227060758559
 30
0.0
 11
6469.824109400217
 21
1412.361213281158
 31
0.0
  0
LINE
  5
252CF
330
747D
100
AcDbEntity
  8
細線
 48
50.0
100
AcDbLine
 10
6237.824109400204
 20
1368.946591823608
 30
0.0
 11
6318.977363638039
 21
1450.099846061437
 31
0.0
  0
LEADER
  5
252D0
330
747D
100
AcDbEntity
  8
寸法
 48
50.0
100
AcDbLeader
  3
INABA_S50G
 71
     0
 73
     0
 74
     0
 75
     1
 40
100.0
 41
222.7272727272727
 76
     3
 10
6461.82410940021
 20
1854.354275455683
 30
0.0
 10
6515.710046427606
 20
1953.589848308857
 30
0.0
 10
6640.710046427606
 20
1953.589848308857
 30
0.0
1001
ACAD
1000
DSTYLE
1002
{
1070
    40
1040
1.0
1070
   272
1070
     1
1070
   279
1070
     1
1070
   341
1005
0
1002
}
  0
LWPOLYLINE
  5
252D1
330
747D
100
AcDbEntity
  8
部品1
 48
50.0
100
AcDbPolyline
 90
        2
 70
     0
 43
8.0
 10
6557.824109400211
 20
1754.099846061438
 10
6971.964011233168
 20
1754.099846061438
  0
MTEXT
  5
252D2
102
{ACAD_REACTORS
330
252D4
102
}
330
747D
100
AcDbEntity
  8
寸法
 62
     7
 48
50.0
100
AcDbMText
 10
6789.151769206895
 20
1294.702777118465
 30
0.0
 40
80.0
 41
0.8
 71
     4
 72
     1
  1
D10
  7
STYLE2
 73
     1
 44
1.0
1001
ACAD
1000
MTEXTBEGIN
1070
    73
1070
     1
1070
    44
1040
1.0
1070
    74
1070
     0
1000
MTEXTEND
  0
LEADER
  5
252D3
330
747D
100
AcDbEntity
  8
寸法
 48
50.0
100
AcDbLeader
  3
INABA_S50G
 71
     0
 73
     0
 74
     0
 75
     1
 40
100.0
 41
540.3409090909091
 76
     3
 10
6535.769278413384
 20
1313.359315647912
 30
0.0
 10
6654.562565261461
 20
971.7284976530145
 30
0.0
 10
6779.562565261461
 20
971.7284976530145
 30
0.0
213
0.0
223
-1.022262676269383
233
0.0
1001
ACAD
1000
DSTYLE
1002
{
1070
    40
1040
1.0
1070
   272
1070
     1
1070
   279
1070
     1
1070
   341
1005
0
1002
}
  0
LEADER
  5
252D4
330
747D
100
AcDbEntity
  8
寸法
 48
50.0
100
AcDbLeader
  3
INABA_S50G
 71
     0
 73
     0
 74
     0
 75
     1
 40
100.0
 41
225.0
 76
     3
 10
6589.727061752353
 20
1330.099846061437
 30
0.0
 10
6644.151769206896
 20
1234.702777118465
 30
0.0
 10
6769.151769206896
 20
1234.702777118465
 30
0.0
1001
ACAD
1000
DSTYLE
1002
{
1070
    40
1040
1.0
1070
   272
1070
     1
1070
   279
1070
     1
1070
   341
1005
0
1002
}
  0
MTEXT
  5
252D5
102
{ACAD_REACTORS
330
252D0
102
}
330
747D
100
AcDbEntity
  8
寸法
 62
     7
 48
50.0
100
AcDbMText
 10
6640.710046427606
 20
2016.655745354248
 30
0.0
 40
80.0
 41
0.8
 71
     4
 72
     1
  1
D13
  7
STYLE2
 73
     1
 44
1.0
1001
ACAD
1000
MTEXTBEGIN
1070
    73
1070
     1
1070
    44
1040
1.0
1070
    74
1070
     0
1000
MTEXTEND
  0
LINE
  5
252D6
330
747D
100
AcDbEntity
  8
部品1
 48
50.0
100
AcDbLine
 10
6557.824109400211
 20
1994.099846061437
 30
0.0
 11
6557.824109400211
 21
1450.099846061437
 31
0.0
  0
LINE
  5
252D7
330
747D
100
AcDbEntity
  8
部品1
 48
50.0
100
AcDbLine
 10
6365.824109400211
 20
1450.099846061437
 30
0.0
 11
6365.824109400211
 21
1994.099846061437
 31
0.0
  0
CIRCLE
  5
252D8
330
747D
100
AcDbEntity
  8
部品1
 48
50.0
100
AcDbCircle
 10
6461.824109400211
 20
1854.354275455683
 30
0.0
 40
8.0
  0
ARC
  5
252D9
330
747D
100
AcDbEntity
  8
部品1
 48
50.0
100
AcDbCircle
 10
6461.824109400211
 20
1854.354275455683
 30
0.0
 40
24.0
100
AcDbArc
 50
0.0
 51
180.0
  0
LINE
  5
252DA
330
747D
100
AcDbEntity
  8
細線
 48
50.0
100
AcDbLine
 10
6485.824109400211
 20
1832.472738729268
 30
0.0
 11
6557.824109400211
 21
1904.472738729268
 31
0.0
  0
LEADER
  5
252DB
330
747D
100
AcDbEntity
  8
寸法
 48
50.0
100
AcDbLeader
  3
INABA_S50G
 73
     0
 75
     1
 40
106.3636363636363
 41
893.1818181818181
 76
     3
 10
8197.263422577405
 20
2063.659846061439
 30
0.0
 10
8148.839350232465
 20
2437.719420777771
 30
0.0
 10
8023.839350232465
 20
2437.719420777771
 30
0.0
340
252DC
1001
ACAD
1000
DSTYLE
1002
{
1070
   341
1005
0
1070
    40
1040
1.0
1070
   343
1005
0
1070
   344
1005
0
1002
}
  0
MTEXT
  5
252DC
102
{ACAD_REACTORS
330
252DB
102
}
330
747D
100
AcDbEntity
  8
寸法
 62
     7
 48
50.0
100
AcDbMText
 10
7998.839350232465
 20
2515.901238959589
 30
0.0
 40
80.0
 41
0.8
 71
     6
 72
     1
  1
\A1;アンカープレート L
  7
STYLE2
 73
     1
 44
1.0
1001
ACAD
1000
MTEXTBEGIN
1070
    73
1070
     1
1070
    44
1040
1.0
1070
    74
1070
     0
1000
MTEXTEND
  0
DIMENSION
  5
252DD
330
747D
100
AcDbEntity
  8
寸法
 48
50.0
100
AcDbDimension
  2
*D54
 10
6685.824109400211
 20
671.6702080562773
 30
0.0
 11
6441.727350721987
 21
671.6702080562773
 31
0.0
 70
   160
  1
300
 71
     5
 42
448.0
  3
INABA_S40G
100
AcDbAlignedDimension
 13
6237.824109400211
 23
1082.099846061437
 33
0.0
 14
6685.824109400211
 24
1082.099846061437
 34
0.0
100
AcDbRotatedDimension
1001
ACAD
1000
DSTYLE
1002
{
1070
   341
1005
0
1002
}
  0
MTEXT
  5
252DE
102
{ACAD_REACTORS
330
252E6
102
}
330
747D
100
AcDbEntity
  8
寸法
 62
     7
 48
50.0
100
AcDbMText
 10
6066.889083205016
 20
1126.577152443001
 30
0.0
 40
80.0
 41
0.8
 71
     6
 72
     1
  1
D10
  7
STYLE2
 73
     1
 44
1.0
1001
ACAD
1000
MTEXTBEGIN
1070
    73
1070
     1
1070
    44
1040
1.0
1070
    74
1070
     0
1000
MTEXTEND
  0
MTEXT
  5
252DF
102
{ACAD_REACTORS
330
252E5
102
}
330
747D
100
AcDbEntity
  8
寸法
 62
     7
 48
50.0
100
AcDbMText
 10
6095.011810762451
 20
946.2609999035576
 30
0.0
 40
80.0
 41
0.8
 71
     6
 72
     1
  1
D13
  7
STYLE2
 73
     1
 44
1.0
1001
ACAD
1000
MTEXTBEGIN
1070
    73
1070
     1
1070
    44
1040
1.0
1070
    74
1070
     0
1000
MTEXTEND
  0
DIMENSION
  5
252E0
330
747D
100
AcDbEntity
  8
寸法
 48
50.0
100
AcDbDimension
  2
*D55
 10
5630.78687083847
 20
1210.099846061437
 30
0.0
 11
5630.78687083847
 21
1581.639995717438
 31
0.0
 70
   160
  1
540
 71
     5
 42
784.0
  3
INABA_S40G
100
AcDbAlignedDimension
 13
6365.824109400211
 23
1994.099846061437
 33
0.0
 14
6157.824109400214
 24
1210.099846061437
 34
0.0
 50
90.0
100
AcDbRotatedDimension
1001
ACAD
1000
DSTYLE
1002
{
1070
   341
1005
0
1002
}
  0
MTEXT
  5
252E1
102
{ACAD_REACTORS
330
252E2
102
}
330
747D
100
AcDbEntity
  8
寸法
 62
     7
 48
50.0
100
AcDbMText
 10
6145.725629916938
 20
2206.61606606348
 30
0.0
 40
80.0
 41
0.8
 71
     6
 72
     1
  1
\A1;金コテ押エ
  7
STYLE2
 73
     1
 44
1.0
1001
ACAD
1000
MTEXTBEGIN
1070
    73
1070
     1
1070
    44
1040
1.0
1070
    74
1070
     0
1000
MTEXTEND
  0
LEADER
  5
252E2
330
747D
100
AcDbEntity
  8
寸法
 48
50.0
100
AcDbLeader
  3
INABA_S50G
 71
     0
 73
     0
 75
     1
 40
130.1136363636363
 41
651.1363636363636
 76
     3
 10
6445.82410940021
 20
1994.099846061437
 30
0.0
 10
6333.399529236194
 20
2134.570611518026
 30
0.0
 10
6208.399529236194
 20
2134.570611518026
 30
0.0
1001
ACAD
1000
DSTYLE
1002
{
1070
    40
1040
1.0
1070
   272
1070
     1
1070
   279
1070
     1
1070
   341
1005
0
1002
}
  0
LEADER
  5
252E3
330
747D
100
AcDbEntity
  8
寸法
 48
50.0
100
AcDbLeader
  3
INABA_S50G
 71
     0
 73
     0
 75
     1
 40
100.0
 41
540.3409090909091
 76
     3
 10
6469.82410940021
 20
1752.227060758561
 30
0.0
 10
6411.841872871512
 20
1530.756732217755
 30
0.0
 10
6286.841872871512
 20
1530.756732217755
 30
0.0
213
-9.732182305893367
223
-4.643716661138569
233
0.0
1001
ACAD
1000
DSTYLE
1002
{
1070
    40
1040
1.0
1070
   272
1070
     1
1070
   279
1070
     1
1070
   341
1005
0
1002
}
  0
MTEXT
  5
252E4
102
{ACAD_REACTORS
330
252E3
102
}
330
747D
100
AcDbEntity
  8
寸法
 62
     7
 48
50.0
100
AcDbMText
 10
6276.574055177406
 20
1595.400448878894
 30
0.0
 40
80.0
 41
0.8
 71
     6
 72
     1
  1
\A1;D10@300
  7
STYLE2
 73
     1
 44
1.0
1001
ACAD
1000
MTEXTBEGIN
1070
    73
1070
     1
1070
    44
1040
1.0
1070
    74
1070
     0
1000
MTEXTEND
  0
LEADER
  5
252E5
330
747D
100
AcDbEntity
  8
寸法
 48
50.0
100
AcDbLeader
  3
INABA_S50G
 71
     0
 73
     0
 75
     1
 40
100.0
 41
222.7272727272727
 76
     3
 10
6461.82410940021
 20
1330.099846061437
 30
0.0
 10
6240.011810762451
 20
886.2609999035576
 30
0.0
 10
6115.011810762451
 20
886.2609999035576
 30
0.0
1001
ACAD
1000
DSTYLE
1002
{
1070
    40
1040
1.0
1070
   272
1070
     1
1070
   279
1070
     1
1070
   341
1005
0
1002
}
  0
LEADER
  5
252E6
330
747D
100
AcDbEntity
  8
寸法
 48
50.0
100
AcDbLeader
  3
INABA_S50G
 71
     0
 73
     0
 75
     1
 40
100.0
 41
225.0
 76
     3
 10
6333.727061752354
 20
1330.099846061437
 30
0.0
 10
6211.889083205017
 20
1066.577152443001
 30
0.0
 10
6086.889083205017
 20
1066.577152443001
 30
0.0
1001
ACAD
1000
DSTYLE
1002
{
1070
    40
1040
1.0
1070
   272
1070
     1
1070
   279
1070
     1
1070
   341
1005
0
1002
}
  0
DIMENSION
  5
252E7
330
747D
100
AcDbEntity
  8
寸法
 48
50.0
100
AcDbDimension
  2
*D56
 10
6095.403795667751
 20
1210.099846061437
 30
0.0
 11
6095.403795667751
 21
1330.099846061438
 31
0.0
 70
   160
  1
150
 71
     5
 42
240.0
  3
INABA_S40G
100
AcDbAlignedDimension
 13
6237.824109400211
 23
1450.099846061437
 33
0.0
 14
6157.824109400214
 24
1210.099846061437
 34
0.0
 50
90.0
100
AcDbRotatedDimension
1001
ACAD
1000
DSTYLE
1002
{
1070
   341
1005
0
1002
}
  0
TEXT
  5
252E8
330
747D
100
AcDbEntity
  8
部品1
 48
50.0
100
AcDbText
 10
5951.684207567254
 20
1765.338838344693
 30
0.0
 40
80.0
  1
▽G.L
  7
STYLE2
100
AcDbText
  0
LWPOLYLINE
  5
252E9
330
747D
100
AcDbEntity
  8
部品1
 48
50.0
100
AcDbPolyline
 90
        2
 70
     0
 43
8.0
 10
5951.684207567254
 20
1754.099846061438
 10
6365.824109400211
 20
1754.099846061438
  0
MTEXT
  5
252EA
102
{ACAD_REACTORS
330
252EB
102
}
330
747D
100
AcDbEntity
  8
寸法
 62
     7
 48
50.0
100
AcDbMText
 10
7972.196344024107
 20
2876.585510867103
 30
0.0
 40
80.0
 41
0.8
 71
     6
 72
     1
  1
\A1;φ70スリーブ
  7
STYLE2
 73
     1
 44
1.0
1001
ACAD
1000
MTEXTBEGIN
1070
    73
1070
     1
1070
    44
1040
1.0
1070
    74
1070
     0
1000
MTEXTEND
  0
LEADER
  5
252EB
330
747D
100
AcDbEntity
  8
寸法
 48
50.0
100
AcDbLeader
  3
INABA_S50G
 73
     0
 75
     1
 40
113.1818181818182
 41
608.6363636363635
 76
     3
 10
8256.000172715456
 20
1943.615519419716
 30
0.0
 10
8122.196344024107
 20
2794.994601776194
 30
0.0
 10
7997.196344024107
 20
2794.994601776194
 30
0.0
340
252EA
1001
ACAD
1000
DSTYLE
1002
{
1070
   341
1005
0
1070
    40
1040
1.0
1070
   343
1005
0
1070
   344
1005
0
1002
}
  0
LINE
  5
252EC
330
747D
100
AcDbEntity
  8
部品1
100
AcDbLine
 10
5295.155670590948
 20
3393.438513262023
 30
0.0
 11
5295.15567059095
 21
429.1315436773756
 31
0.0
  0
LEADER
  5
252ED
330
747D
100
AcDbEntity
  8
寸法
 48
50.0
100
AcDbLeader
  3
INABA_S50G
 73
     0
 74
     0
 75
     1
 40
80.0
 41
435.0
 76
     3
 10
8296.263422577405
 20
2043.259846061438
 30
0.0
 10
8338.807884996723
 20
2193.483172214667
 30
0.0
 10
8463.807884996723
 20
2193.483172214667
 30
0.0
340
252EE
1001
ACAD
1000
DSTYLE
1002
{
1070
   341
1005
0
1070
    40
1040
1.0
1070
   343
1005
0
1070
   344
1005
0
1002
}
  0
MTEXT
  5
252EE
102
{ACAD_REACTORS
330
252ED
102
}
330
747D
100
AcDbEntity
  8
部品1
 62
     7
 48
50.0
100
AcDbMText
 10
8488.807884996724
 20
2258.483172214667
 30
0.0
 40
80.0
 41
0.8
 71
     4
 72
     1
  1
M10X160
  7
STYLE2
 73
     1
 44
1.0
1001
ACAD
1000
MTEXTBEGIN
1070
    73
1070
     1
1070
    44
1040
1.0
1070
    74
1070
     0
1000
MTEXTEND
  0
DIMENSION
  5
252EF
330
747D
100
AcDbEntity
  8
寸法
 48
50.0
100
AcDbDimension
  2
*D57
 10
9257.786688465277
 20
1994.099846061437
 30
0.0
 11
9257.786688465277
 21
1528.090942639955
 31
0.0
 70
   160
  1
20～25
 71
     5
 42
52.76000000000113
  3
INABA_S40G
100
AcDbAlignedDimension
 13
8292.663422577405
 23
2046.859846061439
 33
0.0
 14
8479.863422577404
 24
1994.099846061437
 34
0.0
 50
90.0
100
AcDbRotatedDimension
1001
ACAD
1000
DSTYLE
1002
{
1070
   341
1005
0
1002
}
  0
DIMENSION
  5
252F0
330
747D
100
AcDbEntity
  8
寸法
 48
50.0
100
AcDbDimension
  2
*D58
 10
8981.732022346248
 20
1670.099846061436
 30
0.0
 11
8881.732022346248
 21
1832.099846061438
 31
0.0
 70
    32
  1
180
 71
     5
 42
324.0000000000009
  3
INABA_S40G
100
AcDbAlignedDimension
 13
8479.863422577404
 23
1994.099846061437
 33
0.0
 14
8479.863422577404
 24
1670.099846061436
 34
0.0
 50
90.0
100
AcDbRotatedDimension
1001
ACAD
1000
DSTYLE
1002
{
1070
   341
1005
0
1002
}
  0
TEXT
  5
252F1
330
747D
100
AcDbEntity
  8
部品1
 48
50.0
100
AcDbText
 10
8484.217006861832
 20
2349.978526823637
 30
0.0
 40
80.0
  1
基礎ボルト(市販品)
  7
STYLE2
100
AcDbText
  0
LWPOLYLINE
  5
252F2
330
747D
100
AcDbEntity
  8
部品1
 48
50.0
100
AcDbPolyline
 90
        2
 70
     0
 43
8.0
 10
8479.863422577404
 20
1754.099846061438
 10
8773.565885976788
 20
1754.099846061438
  0
MTEXT
  5
252F3
102
{ACAD_REACTORS
330
252F4
102
}
330
747D
100
AcDbEntity
  8
部品1
 62
     7
 48
50.0
100
AcDbMText
 10
8519.135012946245
 20
2694.595219148698
 30
0.0
 40
80.0
 41
0.8
 71
     4
 72
     1
  1
\A1;ワッシャー(市販品)
  7
STYLE2
 73
     1
 44
1.0
1001
ACAD
1000
MTEXTBEGIN
1070
    73
1070
     1
1070
    44
1040
1.0
1070
    74
1070
     0
1000
MTEXTEND
  0
LEADER
  5
252F4
330
747D
100
AcDbEntity
  8
寸法
 48
50.0
100
AcDbLeader
  3
INABA_S50G
 73
     0
 74
     0
 75
     1
 40
102.2727272727273
 41
906.8181818181818
 76
     3
 10
8327.263422577406
 20
2263.223134505717
 30
0.0
 10
8369.135012946244
 20
2618.458855512334
 30
0.0
 10
8494.135012946244
 20
2618.458855512334
 30
0.0
340
252F3
1001
ACAD
1000
DSTYLE
1002
{
1070
   341
1005
0
1070
    40
1040
1.0
1070
   343
1005
0
1070
   344
1005
0
1002
}
  0
MTEXT
  5
252F5
102
{ACAD_REACTORS
330
252F6
102
}
330
747D
100
AcDbEntity
  8
部品1
 62
     7
 48
50.0
100
AcDbMText
 10
8487.617393690761
 20
2879.564301913485
 30
0.0
 40
80.0
 41
0.8
 71
     4
 72
     1
  1
\A1;ナット(市販品)
  7
STYLE2
 73
     1
 44
1.0
1001
ACAD
1000
MTEXTBEGIN
1070
    73
1070
     1
1070
    44
1040
1.0
1070
    74
1070
     0
1000
MTEXTEND
  0
LEADER
  5
252F6
330
747D
100
AcDbEntity
  8
寸法
 48
50.0
100
AcDbLeader
  3
INABA_S50G
 73
     0
 74
     0
 75
     1
 40
102.2727272727273
 41
680.0000000000001
 76
     3
 10
8303.263422577407
 20
2392.97512717058
 30
0.0
 10
8337.617393690761
 20
2803.427938277121
 30
0.0
 10
8462.617393690761
 20
2803.427938277121
 30
0.0
340
252F5
1001
ACAD
1000
DSTYLE
1002
{
1070
   341
1005
0
1070
    40
1040
1.0
1070
   343
1005
0
1070
   344
1005
0
1002
}
  0
LINE
  5
252F7
330
747D
100
AcDbEntity
  8
部品1
100
AcDbLine
 10
5295.155670590951
 20
429.1315436773756
 30
0.0
 11
11366.1408559772
 21
429.1315436773756
 31
0.0
  0
LINE
  5
252F8
330
747D
100
AcDbEntity
  8
部品1
100
AcDbLine
 10
11366.1408559772
 20
3153.438513262021
 30
0.0
 11
5295.15567059095
 21
3153.438513262021
 31
0.0
  0
LINE
  5
252F9
330
747D
100
AcDbEntity
  8
部品1
100
AcDbLine
 10
11366.1408559772
 20
3393.438513262023
 30
0.0
 11
5295.155670590946
 21
3393.438513262023
 31
0.0
  0
ENDSEC
  0
SECTION
  2
OBJECTS
  0
DICTIONARY
  5
7471
330
0
100
AcDbDictionary
281
     1
  3
ACAD_COLOR
350
173D2
  3
ACAD_GROUP
350
7472
  3
ACAD_LAYOUT
350
173D3
  3
ACAD_MATERIAL
350
173D1
  3
ACAD_MLINESTYLE
350
7473
  3
ACAD_PLOTSETTINGS
350
173D4
  3
ACAD_PLOTSTYLENAME
350
173CF
  3
ACDBHEADERROUNDTRIPXREC
350
25387
  3
AcDbVariableDictionary
350
24F18
  3
CONTENTDICTIONARY
350
E71C
  3
DRAWINGVARIABLESDICT
350
F3B9
  0
DICTIONARY
  5
1758F
330
7467
100
AcDbDictionary
280
     1
281
     1
  3
ACAD_LAYERSTATES
360
17590
  0
DICTIONARY
  5
173D2
102
{ACAD_REACTORS
330
7471
102
}
330
7471
100
AcDbDictionary
281
     1
  0
DICTIONARY
  5
7472
102
{ACAD_REACTORS
330
7471
102
}
330
7471
100
AcDbDictionary
281
     1
  3
*A1
350
1D2A9
  0
DICTIONARY
  5
173D3
102
{ACAD_REACTORS
330
7471
102
}
330
7471
100
AcDbDictionary
281
     1
  3
Model
350
173D5
  3
レイアウト1
350
173D6
  0
DICTIONARY
  5
173D1
102
{ACAD_REACTORS
330
7471
102
}
330
7471
100
AcDbDictionary
281
     1
  0
DICTIONARY
  5
7473
102
{ACAD_REACTORS
330
7471
102
}
330
7471
100
AcDbDictionary
281
     1
  3
STANDARD
350
7480
  0
DICTIONARY
  5
173D4
102
{ACAD_REACTORS
330
7471
102
}
330
7471
100
AcDbDictionary
281
     1
  0
ACDBDICTIONARYWDFLT
  5
173CF
102
{ACAD_REACTORS
330
7471
102
}
330
7471
100
AcDbDictionary
281
     1
  3
Normal
350
173D0
100
AcDbDictionaryWithDefault
340
173D0
  0
DICTIONARY
  5
25387
102
{ACAD_REACTORS
330
7471
102
}
330
7471
100
AcDbDictionary
281
     1
  3
COLORDICT
350
25389
  3
MATERIALDICT
350
25388
  0
DICTIONARY
  5
24F18
102
{ACAD_REACTORS
330
7471
102
}
330
7471
100
AcDbDictionary
281
     1
  3
DIMASSOC
350
24F19
  3
PROJECTNAME
350
24F1A
  0
DICTIONARY
  5
E71C
102
{ACAD_REACTORS
330
7471
102
}
330
7471
100
AcDbDictionary
281
     1
  0
DICTIONARY
  5
F3B9
102
{ACAD_REACTORS
330
7471
102
}
330
7471
100
AcDbDictionary
281
     1
1001
DRAWINGVARIABLESXDATA
1000
POLARMODE
1000
1
  0
DICTIONARY
  5
17590
102
{ACAD_REACTORS
330
1758F
102
}
330
1758F
100
AcDbDictionary
281
     1
  0
GROUP
  5
1D2A9
102
{ACAD_REACTORS
330
7472
102
}
330
7472
100
AcDbGroup
300

 70
     1
 71
     1
  0
LAYOUT
  5
173D5
102
{ACAD_XDICTIONARY
360
2538A
102
}
102
{ACAD_REACTORS
330
173D3
102
}
330
173D3
100
AcDbPlotSettings
  1

  2
Microsoft Office Document Image Writer
  4

  6

 40
0.0
 41
0.0
 42
0.0
 43
0.0
 44
0.0
 45
0.0
 46
0.0
 47
0.0
 48
0.0
 49
0.0
140
0.0
141
0.0
142
1.0
143
1.0
 70
  1712
 72
     0
 73
     0
 74
     0
  7

 75
     0
147
1.0
148
0.0
149
0.0
100
AcDbLayout
  1
Model
 70
     1
 71
     0
 10
0.0
 20
0.0
 11
12.0
 21
9.0
 12
0.0
 22
0.0
 32
0.0
 14
0.0
 24
0.0
 34
0.0
 15
0.0
 25
0.0
 35
0.0
146
0.0
 13
0.0
 23
0.0
 33
0.0
 16
1.0
 26
0.0
 36
0.0
 17
0.0
 27
1.0
 37
0.0
 76
     0
330
747D
  0
LAYOUT
  5
173D6
102
{ACAD_XDICTIONARY
360
2538C
102
}
102
{ACAD_REACTORS
330
173D3
102
}
330
173D3
100
AcDbPlotSettings
  1

  2
Microsoft Office Document Image Writer
  4

  6

 40
0.0
 41
0.0
 42
0.0
 43
0.0
 44
0.0
 45
0.0
 46
0.0
 47
0.0
 48
0.0
 49
0.0
140
0.0
141
0.0
142
1.0
143
1.0
 70
   688
 72
     0
 73
     0
 74
     5
  7

 75
    16
147
1.0
148
0.0
149
0.0
100
AcDbLayout
  1
レイアウト1
 70
     0
 71
     1
 10
0.0
 20
0.0
 11
420.0
 21
297.0
 12
0.0
 22
0.0
 32
0.0
 14
1.000000000000000E+20
 24
1.000000000000000E+20
 34
1.000000000000000E+20
 15
-1.000000000000000E+20
 25
-1.000000000000000E+20
 35
-1.000000000000000E+20
146
0.0
 13
0.0
 23
0.0
 33
0.0
 16
1.0
 26
0.0
 36
0.0
 17
0.0
 27
1.0
 37
0.0
 76
     0
330
747A
  0
MLINESTYLE
  5
7480
102
{ACAD_REACTORS
330
7473
102
}
330
7473
100
AcDbMlineStyle
  2
STANDARD
 70
     0
  3

 62
     0
 51
90.0
 52
90.0
 71
     2
 49
0.5
 62
   256
  6
BYLAYER
 49
-0.5
 62
   256
  6
BYLAYER
  0
ACDBPLACEHOLDER
  5
173D0
102
{ACAD_REACTORS
330
173CF
102
}
330
173CF
  0
XRECORD
  5
25389
102
{ACAD_REACTORS
330
25387
102
}
330
25387
100
AcDbXrecord
280
     1
340
173D2
  0
XRECORD
  5
25388
102
{ACAD_REACTORS
330
25387
102
}
330
25387
100
AcDbXrecord
280
     1
340
173D1
  0
DICTIONARYVAR
  5
24F19
102
{ACAD_REACTORS
330
24F18
102
}
330
24F18
100
DictionaryVariables
280
     0
  1
1
  0
DICTIONARYVAR
  5
24F1A
102
{ACAD_REACTORS
330
24F18
102
}
330
24F18
100
DictionaryVariables
280
     0
  1

  0
DICTIONARY
  5
2538A
330
173D5
100
AcDbDictionary
280
     1
281
     1
  3
ACAD_XREC_ROUNDTRIP
360
2538B
  0
DICTIONARY
  5
2538C
330
173D6
100
AcDbDictionary
280
     1
281
     1
  3
ACAD_XREC_ROUNDTRIP
360
2538D
  0
XRECORD
  5
2538B
102
{ACAD_REACTORS
330
2538A
102
}
330
2538A
100
AcDbXrecord
280
     1
102
SHADEPLOT
 70
     0
102
SHADEPLOTRESLEVEL
 70
     2
102
SHADEPLOTCUSTOMDPI
 70
   300
  0
XRECORD
  5
2538D
102
{ACAD_REACTORS
330
2538C
102
}
330
2538C
100
AcDbXrecord
280
     1
102
SHADEPLOT
 70
     0
102
SHADEPLOTRESLEVEL
 70
     2
102
SHADEPLOTCUSTOMDPI
 70
   300
  0
ENDSEC
  0
EOF
