  0
SECTION
  2
HEADER
  9
$ACADVER
  1
AC1015
  9
$ACADMAINTVER
 70
    20
  9
$DWGCODEPAGE
  3
ANSI_932
  9
$INSBASE
 10
0.0
 20
0.0
 30
0.0
  9
$EXTMIN
 10
139.9999999999995
 20
-0.0000000000000909
 30
0.0
  9
$EXTMAX
 10
16307.2
 20
11409.6
 30
0.0
  9
$LIMMIN
 10
0.0
 20
0.0
  9
$LIMMAX
 10
16800.0
 20
11880.0
  9
$ORTHOMODE
 70
     0
  9
$REGENMODE
 70
     1
  9
$FILLMODE
 70
     1
  9
$QTEXTMODE
 70
     0
  9
$MIRRTEXT
 70
     1
  9
$LTSCALE
 40
20.0
  9
$ATTMODE
 70
     1
  9
$TEXTSIZE
 40
4.0
  9
$TRACEWID
 40
1.0
  9
$TEXTSTYLE
  7
STYLE1
  9
$CLAYER
  8
寸法
  9
$CELTYPE
  6
BYLAYER
  9
$CECOLOR
 62
   256
  9
$CELTSCALE
 40
50.0
  9
$DISPSILH
 70
     0
  9
$DIMSCALE
 40
40.0
  9
$DIMASZ
 40
2.5
  9
$DIMEXO
 40
0.5
  9
$DIMDLI
 40
7.0
  9
$DIMRND
 40
0.0
  9
$DIMDLE
 40
0.0
  9
$DIMEXE
 40
1.5
  9
$DIMTP
 40
0.0
  9
$DIMTM
 40
0.0
  9
$DIMTXT
 40
3.0
  9
$DIMCEN
 40
0.0
  9
$DIMTSZ
 40
0.0
  9
$DIMTOL
 70
     0
  9
$DIMLIM
 70
     0
  9
$DIMTIH
 70
     0
  9
$DIMTOH
 70
     0
  9
$DIMSE1
 70
     0
  9
$DIMSE2
 70
     0
  9
$DIMTAD
 70
     3
  9
$DIMZIN
 70
     8
  9
$DIMBLK
  1

  9
$DIMASO
 70
     1
  9
$DIMSHO
 70
     1
  9
$DIMPOST
  1

  9
$DIMAPOST
  1

  9
$DIMALT
 70
     0
  9
$DIMALTD
 70
     2
  9
$DIMALTF
 40
0.0394
  9
$DIMLFAC
 40
1.0
  9
$DIMTOFL
 70
     1
  9
$DIMTVP
 40
0.0
  9
$DIMTIX
 70
     1
  9
$DIMSOXD
 70
     0
  9
$DIMSAH
 70
     1
  9
$DIMBLK1
  1
DOTSMALL
  9
$DIMBLK2
  1
DOTSMALL
  9
$DIMSTYLE
  2
INABA_S40G
  9
$DIMCLRD
 70
     0
  9
$DIMCLRE
 70
     0
  9
$DIMCLRT
 70
     7
  9
$DIMTFAC
 40
1.0
  9
$DIMGAP
 40
1.0
  9
$DIMJUST
 70
     0
  9
$DIMSD1
 70
     0
  9
$DIMSD2
 70
     0
  9
$DIMTOLJ
 70
     1
  9
$DIMTZIN
 70
     0
  9
$DIMALTZ
 70
     0
  9
$DIMALTTZ
 70
     0
  9
$DIMUPT
 70
     0
  9
$DIMDEC
 70
     1
  9
$DIMTDEC
 70
     4
  9
$DIMALTU
 70
     2
  9
$DIMALTTD
 70
     2
  9
$DIMTXSTY
  7
STYLE1
  9
$DIMAUNIT
 70
     0
  9
$DIMADEC
 70
     0
  9
$DIMALTRND
 40
0.0
  9
$DIMAZIN
 70
     0
  9
$DIMDSEP
 70
    46
  9
$DIMATFIT
 70
     3
  9
$DIMFRAC
 70
     0
  9
$DIMLDRBLK
  1

  9
$DIMLUNIT
 70
     2
  9
$DIMLWD
 70
    -2
  9
$DIMLWE
 70
    -2
  9
$DIMTMOVE
 70
     0
  9
$LUNITS
 70
     2
  9
$LUPREC
 70
     1
  9
$SKETCHINC
 40
1.0
  9
$FILLETRAD
 40
3.0
  9
$AUNITS
 70
     0
  9
$AUPREC
 70
     0
  9
$MENU
  1
acad
  9
$ELEVATION
 40
0.0
  9
$PELEVATION
 40
0.0
  9
$THICKNESS
 40
0.0
  9
$LIMCHECK
 70
     0
  9
$CHAMFERA
 40
0.0
  9
$CHAMFERB
 40
0.0
  9
$CHAMFERC
 40
0.0
  9
$CHAMFERD
 40
0.0
  9
$SKPOLY
 70
     0
  9
$TDCREATE
 40
2451368.612993866
  9
$TDUCREATE
 40
2451368.237993866
  9
$TDUPDATE
 40
2455826.606328843
  9
$TDUUPDATE
 40
2455826.231328843
  9
$TDINDWG
 40
0.7706099653
  9
$TDUSRTIMER
 40
0.7706099653
  9
$USRTIMER
 70
     1
  9
$ANGBASE
 50
0.0
  9
$ANGDIR
 70
     0
  9
$PDMODE
 70
     3
  9
$PDSIZE
 40
2.0
  9
$PLINEWID
 40
0.0
  9
$SPLFRAME
 70
     0
  9
$SPLINETYPE
 70
     6
  9
$SPLINESEGS
 70
     8
  9
$HANDSEED
  5
24A2C
  9
$SURFTAB1
 70
     6
  9
$SURFTAB2
 70
     6
  9
$SURFTYPE
 70
     6
  9
$SURFU
 70
     6
  9
$SURFV
 70
     6
  9
$UCSBASE
  2

  9
$UCSNAME
  2

  9
$UCSORG
 10
0.0
 20
0.0
 30
0.0
  9
$UCSXDIR
 10
1.0
 20
0.0
 30
0.0
  9
$UCSYDIR
 10
0.0
 20
1.0
 30
0.0
  9
$UCSORTHOREF
  2

  9
$UCSORTHOVIEW
 70
     0
  9
$UCSORGTOP
 10
0.0
 20
0.0
 30
0.0
  9
$UCSORGBOTTOM
 10
0.0
 20
0.0
 30
0.0
  9
$UCSORGLEFT
 10
0.0
 20
0.0
 30
0.0
  9
$UCSORGRIGHT
 10
0.0
 20
0.0
 30
0.0
  9
$UCSORGFRONT
 10
0.0
 20
0.0
 30
0.0
  9
$UCSORGBACK
 10
0.0
 20
0.0
 30
0.0
  9
$PUCSBASE
  2

  9
$PUCSNAME
  2

  9
$PUCSORG
 10
0.0
 20
0.0
 30
0.0
  9
$PUCSXDIR
 10
1.0
 20
0.0
 30
0.0
  9
$PUCSYDIR
 10
0.0
 20
1.0
 30
0.0
  9
$PUCSORTHOREF
  2

  9
$PUCSORTHOVIEW
 70
     0
  9
$PUCSORGTOP
 10
0.0
 20
0.0
 30
0.0
  9
$PUCSORGBOTTOM
 10
0.0
 20
0.0
 30
0.0
  9
$PUCSORGLEFT
 10
0.0
 20
0.0
 30
0.0
  9
$PUCSORGRIGHT
 10
0.0
 20
0.0
 30
0.0
  9
$PUCSORGFRONT
 10
0.0
 20
0.0
 30
0.0
  9
$PUCSORGBACK
 10
0.0
 20
0.0
 30
0.0
  9
$USERI1
 70
     0
  9
$USERI2
 70
     0
  9
$USERI3
 70
     0
  9
$USERI4
 70
     0
  9
$USERI5
 70
     0
  9
$USERR1
 40
0.0
  9
$USERR2
 40
0.0
  9
$USERR3
 40
0.0
  9
$USERR4
 40
0.0
  9
$USERR5
 40
0.0
  9
$WORLDVIEW
 70
     1
  9
$SHADEDGE
 70
     3
  9
$SHADEDIF
 70
    70
  9
$TILEMODE
 70
     1
  9
$MAXACTVP
 70
    16
  9
$PINSBASE
 10
0.0
 20
0.0
 30
0.0
  9
$PLIMCHECK
 70
     0
  9
$PEXTMIN
 10
1.000000000000000E+20
 20
1.000000000000000E+20
 30
1.000000000000000E+20
  9
$PEXTMAX
 10
-1.000000000000000E+20
 20
-1.000000000000000E+20
 30
-1.000000000000000E+20
  9
$PLIMMIN
 10
0.0
 20
0.0
  9
$PLIMMAX
 10
420.0
 20
297.0
  9
$UNITMODE
 70
     0
  9
$VISRETAIN
 70
     0
  9
$PLINEGEN
 70
     0
  9
$PSLTSCALE
 70
     0
  9
$TREEDEPTH
 70
  3020
  9
$CMLSTYLE
  2
STANDARD
  9
$CMLJUST
 70
     0
  9
$CMLSCALE
 40
1.0
  9
$PROXYGRAPHICS
 70
     1
  9
$MEASUREMENT
 70
     1
  9
$CELWEIGHT
370
    -1
  9
$ENDCAPS
280
     0
  9
$JOINSTYLE
280
     0
  9
$LWDISPLAY
290
     0
  9
$INSUNITS
 70
     0
  9
$HYPERLINKBASE
  1

  9
$STYLESHEET
  1
ACA3.ctb
  9
$XEDIT
290
     1
  9
$CEPSNTYPE
380
     0
  9
$PSTYLEMODE
290
     1
  9
$FINGERPRINTGUID
  2
{5EAC461A-2277-4BF8-9AB0-99C43BB394F0}
  9
$VERSIONGUID
  2
{05073DF9-DFAC-490B-B994-ED7FEAF2DC43}
  9
$EXTNAMES
290
     1
  9
$PSVPSCALE
 40
0.0
  9
$OLESTARTUP
290
     0
  0
ENDSEC
  0
SECTION
  2
CLASSES
  0
CLASS
  1
ACDBDICTIONARYWDFLT
  2
AcDbDictionaryWithDefault
  3
ObjectDBX Classes
 90
        0
280
     0
281
     0
  0
CLASS
  1
DICTIONARYVAR
  2
AcDbDictionaryVar
  3
ObjectDBX Classes
 90
        0
280
     0
281
     0
  0
CLASS
  1
ACDBPLACEHOLDER
  2
AcDbPlaceHolder
  3
ObjectDBX Classes
 90
        0
280
     0
281
     0
  0
CLASS
  1
LAYOUT
  2
AcDbLayout
  3
ObjectDBX Classes
 90
        0
280
     0
281
     0
  0
ENDSEC
  0
SECTION
  2
TABLES
  0
TABLE
  2
VPORT
  5
746D
330
0
100
AcDbSymbolTable
 70
     2
  0
VPORT
  5
24A24
330
746D
100
AcDbSymbolTableRecord
100
AcDbViewportTableRecord
  2
*Active
 70
     0
 10
0.0
 20
0.0
 11
1.0
 21
1.0
 12
8399.999999999998
 22
6550.027448464383
 13
0.0
 23
0.0
 14
10.0
 24
10.0
 15
10.0
 25
10.0
 16
0.0
 26
0.0
 36
1.0
 17
0.0
 27
0.0
 37
0.0
 40
13195.33213169604
 41
1.522222222222222
 42
50.0
 43
0.0
 44
0.0
 50
0.0
 51
0.0
 71
     0
 72
     0
 73
     1
 74
     0
 75
     0
 76
     0
 77
     0
 78
     0
281
     0
 65
     1
110
0.0
120
0.0
130
0.0
111
1.0
121
0.0
131
0.0
112
0.0
122
1.0
132
0.0
 79
     0
146
0.0
  0
ENDTAB
  0
TABLE
  2
LTYPE
  5
746A
330
0
100
AcDbSymbolTable
 70
     5
  0
LTYPE
  5
7477
330
746A
100
AcDbSymbolTableRecord
100
AcDbLinetypeTableRecord
  2
BYBLOCK
 70
     0
  3

 72
    65
 73
     0
 40
0.0
  0
LTYPE
  5
7478
330
746A
100
AcDbSymbolTableRecord
100
AcDbLinetypeTableRecord
  2
BYLAYER
 70
     0
  3

 72
    65
 73
     0
 40
0.0
  0
LTYPE
  5
7479
330
746A
100
AcDbSymbolTableRecord
100
AcDbLinetypeTableRecord
  2
CONTINUOUS
 70
     0
  3
Solid line
 72
    65
 73
     0
 40
0.0
  0
LTYPE
  5
7816
330
746A
100
AcDbSymbolTableRecord
100
AcDbLinetypeTableRecord
  2
CENTER
 70
     0
  3
____ _ ____ _ ____ _ ____ _ ____ _ ____ _ ____ 
 72
    65
 73
     4
 40
2.0
 49
1.25
 74
     0
 49
-0.25
 74
     0
 49
0.25
 74
     0
 49
-0.25
 74
     0
  0
LTYPE
  5
781A
330
746A
100
AcDbSymbolTableRecord
100
AcDbLinetypeTableRecord
  2
HIDDEN
 70
     0
  3
__ __ __ __ __ __ __ __ __ __ __ __ __ __ __ __
 72
    65
 73
     2
 40
0.375
 49
0.25
 74
     0
 49
-0.125
 74
     0
  0
LTYPE
  5
781B
330
746A
100
AcDbSymbolTableRecord
100
AcDbLinetypeTableRecord
  2
PHANTOM
 70
     0
  3
______  __  __  ______  __  __  ______  __  __ 
 72
    65
 73
     6
 40
2.5
 49
1.25
 74
     0
 49
-0.25
 74
     0
 49
0.25
 74
     0
 49
-0.25
 74
     0
 49
0.25
 74
     0
 49
-0.25
 74
     0
  0
LTYPE
  5
12CC3
330
746A
100
AcDbSymbolTableRecord
100
AcDbLinetypeTableRecord
  2
HIDDENX2
 70
     0
  3
Hidden (2x) ____ ____ ____ ____ ____ ____ ____
 72
    65
 73
     2
 40
19.05
 49
12.7
 74
     0
 49
-6.349999999999999
 74
     0
  0
ENDTAB
  0
TABLE
  2
LAYER
  5
7467
102
{ACAD_XDICTIONARY
360
1758F
102
}
330
0
100
AcDbSymbolTable
 70
    12
  0
LAYER
  5
7474
330
7467
100
AcDbSymbolTableRecord
100
AcDbLayerTableRecord
  2
0
 70
     0
 62
     7
  6
CONTINUOUS
370
    -3
390
173D0
  0
LAYER
  5
DEB2
330
7467
100
AcDbSymbolTableRecord
100
AcDbLayerTableRecord
  2
センター
 70
     0
 62
     3
  6
CENTER
370
    -3
390
173D0
  0
LAYER
  5
DEB3
330
7467
100
AcDbSymbolTableRecord
100
AcDbLayerTableRecord
  2
寸法
 70
     0
 62
     4
  6
CONTINUOUS
370
    -3
390
173D0
  0
LAYER
  5
DEB4
330
7467
100
AcDbSymbolTableRecord
100
AcDbLayerTableRecord
  2
部品1
 70
     0
 62
     7
  6
CONTINUOUS
370
    -3
390
173D0
  0
LAYER
  5
DEB5
330
7467
100
AcDbSymbolTableRecord
100
AcDbLayerTableRecord
  2
補助
 70
     0
 62
    -1
  6
CONTINUOUS
370
    -3
390
173D0
  0
LAYER
  5
DEB6
330
7467
100
AcDbSymbolTableRecord
100
AcDbLayerTableRecord
  2
文字
 70
     0
 62
     7
  6
CONTINUOUS
370
    -3
390
173D0
  0
LAYER
  5
F255
330
7467
100
AcDbSymbolTableRecord
100
AcDbLayerTableRecord
  2
DEFPOINTS
 70
     0
 62
     7
  6
CONTINUOUS
290
     0
370
    -3
390
173D0
  0
LAYER
  5
10B54
330
7467
100
AcDbSymbolTableRecord
100
AcDbLayerTableRecord
  2
仕様書枠
 70
     0
 62
   230
  6
CONTINUOUS
370
    -3
390
173D0
  0
LAYER
  5
11729
330
7467
100
AcDbSymbolTableRecord
100
AcDbLayerTableRecord
  2
Ｇ．Ｌ
 70
     0
 62
    30
  6
CONTINUOUS
370
    -3
390
173D0
  0
LAYER
  5
1173F
330
7467
100
AcDbSymbolTableRecord
100
AcDbLayerTableRecord
  2
細線
 70
     0
 62
     5
  6
CONTINUOUS
370
    -3
390
173D0
  0
LAYER
  5
12CC4
330
7467
100
AcDbSymbolTableRecord
100
AcDbLayerTableRecord
  2
想像線
 70
     0
 62
     6
  6
PHANTOM
370
    -3
390
173D0
  0
LAYER
  5
142E2
330
7467
100
AcDbSymbolTableRecord
100
AcDbLayerTableRecord
  2
破線
 70
     0
 62
     2
  6
HIDDEN
370
    -3
390
173D0
  0
ENDTAB
  0
TABLE
  2
STYLE
  5
7468
330
0
100
AcDbSymbolTable
 70
     7
  0
STYLE
  5
7475
330
7468
100
AcDbSymbolTableRecord
100
AcDbTextStyleTableRecord
  2
STANDARD
 70
     0
 40
0.0
 41
1.0
 50
0.0
 71
     0
 42
4.0
  3
txt
  4
C:\AutoCAD LT\bigfont.shx
  0
STYLE
  5
763C
330
7468
100
AcDbSymbolTableRecord
100
AcDbTextStyleTableRecord
  2
MSMINCHO
 70
     0
 40
0.0
 41
1.0
 50
0.0
 71
     0
 42
1.199999999999999
  3
C:\AutoCAD LT\msminch2.TTF
  4

  0
STYLE
  5
F706
330
7468
100
AcDbSymbolTableRecord
100
AcDbTextStyleTableRecord
  2
STYLE1
 70
     0
 40
0.0
 41
1.0
 50
0.0
 71
     0
 42
4.0
  3
isocp.shx
  4
bigfont.shx
  0
STYLE
  5
103BF
330
7468
100
AcDbSymbolTableRecord
100
AcDbTextStyleTableRecord
  2
STYLE2
 70
     0
 40
0.0
 41
1.0
 50
0.0
 71
     0
 42
100.0
  3
MS PGothic.ttf
  4

1001
ACAD
1000
MS PGothic
1071
    32818
  0
STYLE
  5
10BAA
330
7468
100
AcDbSymbolTableRecord
100
AcDbTextStyleTableRecord
  2
STYLE3
 70
     0
 40
0.0
 41
1.0
 50
0.0
 71
     0
 42
100.0
  3

  4

1001
ACAD
1000
DFPGothic-EB
1071
    32818
  0
STYLE
  5
11A15
330
7468
100
AcDbSymbolTableRecord
100
AcDbTextStyleTableRecord
  2
MSGOTHIC
 70
     0
 40
0.0
 41
1.0
 50
0.0
 71
     0
 42
3.5
  3
msgothi2.ttf
  4

  0
STYLE
  5
13E96
330
7468
100
AcDbSymbolTableRecord
100
AcDbTextStyleTableRecord
  2
MSPゴシック
 70
     0
 40
0.0
 41
1.0
 50
0.0
 71
     0
 42
4.0
  3
MS PGothic.ttf
  4

1001
ACAD
1000
MS PGothic
1071
    32818
  0
ENDTAB
  0
TABLE
  2
VIEW
  5
746B
330
0
100
AcDbSymbolTable
 70
     0
  0
ENDTAB
  0
TABLE
  2
UCS
  5
746C
330
0
100
AcDbSymbolTable
 70
     0
  0
ENDTAB
  0
TABLE
  2
APPID
  5
746E
330
0
100
AcDbSymbolTable
 70
     6
  0
APPID
  5
7476
330
746E
100
AcDbSymbolTableRecord
100
AcDbRegAppTableRecord
  2
ACAD
 70
     0
  0
APPID
  5
DEA9
330
746E
100
AcDbSymbolTableRecord
100
AcDbRegAppTableRecord
  2
CONTENTBLOCKICON
 70
     0
  0
APPID
  5
DEAA
330
746E
100
AcDbSymbolTableRecord
100
AcDbRegAppTableRecord
  2
CONTENTBLOCKDESCRIPTION
 70
     0
  0
APPID
  5
E71D
330
746E
100
AcDbSymbolTableRecord
100
AcDbRegAppTableRecord
  2
CONTENTTABDATA
 70
     0
  0
APPID
  5
E71E
330
746E
100
AcDbSymbolTableRecord
100
AcDbRegAppTableRecord
  2
CONTENTCURRENTTAB
 70
     0
  0
APPID
  5
F3BA
330
746E
100
AcDbSymbolTableRecord
100
AcDbRegAppTableRecord
  2
DRAWINGVARIABLESXDATA
 70
     0
  0
ENDTAB
  0
TABLE
  2
DIMSTYLE
  5
746F
330
0
100
AcDbSymbolTable
 70
     6
100
AcDbDimStyleTable
 71
     1
340
F71F
  0
DIMSTYLE
105
7484
330
746F
100
AcDbSymbolTableRecord
100
AcDbDimStyleTableRecord
  2
JIS
 70
     0
 41
2.5
 42
1.0
 43
7.0
 44
1.0
 73
     0
 74
     0
 77
     1
 78
     8
140
2.5
141
0.0
143
0.0394
147
0.0
172
     1
174
     1
175
     1
340
7475
  0
DIMSTYLE
105
F236
330
746F
100
AcDbSymbolTableRecord
100
AcDbDimStyleTableRecord
  2
INABA_S40
 70
     0
 40
40.0
 41
2.5
 42
0.5
 43
7.0
 44
1.5
 73
     0
 74
     0
 77
     3
 78
     8
140
3.0
141
0.0
143
0.0394
147
1.0
172
     1
173
     1
174
     1
175
     1
178
     7
289
     0
340
7475
341
DEAC
343
DEAC
344
DEAC
  0
DIMSTYLE
105
F71F
102
{ACAD_REACTORS
330
20DE1
330
20DFB
330
22741
330
2275B
330
24045
330
24013
330
23FF4
330
23FEE
330
23FEC
330
23FB1
330
23FB0
330
23FA9
330
23FA5
330
23FA2
330
23FF0
330
23FB4
330
23FAC
330
23FAB
330
23FB2
330
23FC4
330
23FAF
330
24044
330
23FC3
330
24972
330
24975
330
2497C
330
24984
330
24985
330
24912
102
}
330
746F
100
AcDbSymbolTableRecord
100
AcDbDimStyleTableRecord
  2
INABA_S40G
 70
     0
 40
40.0
 41
2.5
 42
0.5
 43
7.0
 44
1.5
 73
     0
 74
     0
 77
     3
 78
     8
140
3.0
141
0.0
143
0.0394
147
1.0
172
     1
173
     1
174
     1
178
     7
271
     1
340
F706
341
F770
343
F770
344
F770
  0
DIMSTYLE
105
142E3
330
746F
100
AcDbSymbolTableRecord
100
AcDbDimStyleTableRecord
  2
INABA_S1
 70
     0
 40
0.0
 41
2.5
 42
0.5
 43
7.0
 44
1.5
 73
     0
 74
     0
 77
     3
 78
     8
140
3.0
141
0.0
143
0.0394
146
0.5
147
0.5
172
     1
173
     1
176
   256
177
   256
178
     7
271
     2
272
     2
284
     8
288
     1
340
7475
341
DEAC
343
DEAC
344
DEAC
  0
DIMSTYLE
105
14463
330
746F
100
AcDbSymbolTableRecord
100
AcDbDimStyleTableRecord
  2
INABA_S30G
 70
     0
 40
30.0
 41
2.5
 42
0.5
 43
7.0
 44
1.5
 73
     0
 74
     0
 77
     3
 78
     8
140
3.0
141
0.0
143
0.0394
147
1.0
172
     1
173
     1
174
     1
175
     1
178
     7
271
     1
340
F706
341
F770
343
F770
344
F770
  0
DIMSTYLE
105
1758E
330
746F
100
AcDbSymbolTableRecord
100
AcDbDimStyleTableRecord
  2
INABA_S50G
 70
     0
 41
125.0
 42
25.0
 43
7.0
 44
75.0
 73
     0
 74
     0
 77
     3
 78
     8
140
150.0
141
0.0
143
0.0394
147
25.0
172
     1
173
     1
174
     1
175
     1
178
     7
271
     1
340
F706
341
F770
343
F770
344
F770
  0
ENDTAB
  0
TABLE
  2
BLOCK_RECORD
  5
7466
330
0
100
AcDbSymbolTable
 70
    48
  0
BLOCK_RECORD
  5
747D
330
7466
100
AcDbSymbolTableRecord
100
AcDbBlockTableRecord
  2
*MODEL_SPACE
340
173D5
  0
BLOCK_RECORD
  5
747A
330
7466
100
AcDbSymbolTableRecord
100
AcDbBlockTableRecord
  2
*PAPER_SPACE
340
173D6
  0
BLOCK_RECORD
  5
DEAC
330
7466
100
AcDbSymbolTableRecord
100
AcDbBlockTableRecord
  2
_OPEN
340
0
  0
BLOCK_RECORD
  5
F770
330
7466
100
AcDbSymbolTableRecord
100
AcDbBlockTableRecord
  2
_DOTSMALL
340
0
102
{BLKREFS
331
18C65
331
18C66
331
18C59
331
18C5A
331
18C4D
331
18C4E
331
18C41
331
18C42
331
18C35
331
18C36
331
18C29
331
18C2A
331
18C1D
331
18C1E
331
18C0F
331
18C10
331
18C03
331
18C04
331
18BF5
331
18BF6
331
18BE7
331
18BE8
331
18BD9
331
18BDA
331
18BCD
331
18BCE
331
244D0
331
244D1
331
244ED
331
244EE
331
244F7
331
244F8
331
24501
331
24502
331
2450A
331
2450B
331
24530
331
24531
331
24554
331
24555
331
2456F
331
24570
331
24578
331
24579
331
24583
331
24584
331
2458E
331
2458F
331
24599
331
2459A
331
245A4
331
245A5
331
245C9
331
245CA
331
245D2
331
245D3
331
2461C
331
2461D
331
24625
331
24626
331
2462E
331
2462F
331
24637
331
24638
331
24640
331
24641
331
24649
331
2464A
331
246A8
331
246A9
331
246D1
331
246D2
331
249DC
331
249DD
331
249E5
331
249E6
331
249EE
331
249EF
331
249F9
331
249FA
331
24A02
331
24A03
331
24A0B
331
24A0C
102
}
  0
BLOCK_RECORD
  5
164B4
330
7466
100
AcDbSymbolTableRecord
100
AcDbBlockTableRecord
  2
_DOT
340
0
102
{BLKREFS
331
18C73
331
18C74
102
}
  0
BLOCK_RECORD
  5
18BC8
330
7466
100
AcDbSymbolTableRecord
100
AcDbBlockTableRecord
  2
*D3
340
0
  0
BLOCK_RECORD
  5
18BD4
330
7466
100
AcDbSymbolTableRecord
100
AcDbBlockTableRecord
  2
*D4
340
0
  0
BLOCK_RECORD
  5
18BE0
330
7466
100
AcDbSymbolTableRecord
100
AcDbBlockTableRecord
  2
*D5
340
0
  0
BLOCK_RECORD
  5
18BEE
330
7466
100
AcDbSymbolTableRecord
100
AcDbBlockTableRecord
  2
*D6
340
0
  0
BLOCK_RECORD
  5
18BFC
330
7466
100
AcDbSymbolTableRecord
100
AcDbBlockTableRecord
  2
*D7
340
0
  0
BLOCK_RECORD
  5
18C0A
330
7466
100
AcDbSymbolTableRecord
100
AcDbBlockTableRecord
  2
*D8
340
0
  0
BLOCK_RECORD
  5
18C16
330
7466
100
AcDbSymbolTableRecord
100
AcDbBlockTableRecord
  2
*D9
340
0
  0
BLOCK_RECORD
  5
18C24
330
7466
100
AcDbSymbolTableRecord
100
AcDbBlockTableRecord
  2
*D10
340
0
  0
BLOCK_RECORD
  5
18C30
330
7466
100
AcDbSymbolTableRecord
100
AcDbBlockTableRecord
  2
*D11
340
0
  0
BLOCK_RECORD
  5
18C3C
330
7466
100
AcDbSymbolTableRecord
100
AcDbBlockTableRecord
  2
*D12
340
0
  0
BLOCK_RECORD
  5
18C48
330
7466
100
AcDbSymbolTableRecord
100
AcDbBlockTableRecord
  2
*D13
340
0
  0
BLOCK_RECORD
  5
18C54
330
7466
100
AcDbSymbolTableRecord
100
AcDbBlockTableRecord
  2
*D14
340
0
  0
BLOCK_RECORD
  5
18C60
330
7466
100
AcDbSymbolTableRecord
100
AcDbBlockTableRecord
  2
*D15
340
0
  0
BLOCK_RECORD
  5
18C6C
330
7466
100
AcDbSymbolTableRecord
100
AcDbBlockTableRecord
  2
*D16
340
0
  0
BLOCK_RECORD
  5
18C7A
330
7466
100
AcDbSymbolTableRecord
100
AcDbBlockTableRecord
  2
A$C3B1A506B
340
0
  0
BLOCK_RECORD
  5
1C4CA
330
7466
100
AcDbSymbolTableRecord
100
AcDbBlockTableRecord
  2
_NONE
340
0
  0
BLOCK_RECORD
  5
20DE2
330
7466
100
AcDbSymbolTableRecord
100
AcDbBlockTableRecord
  2
*D19
340
0
  0
BLOCK_RECORD
  5
20DFC
330
7466
100
AcDbSymbolTableRecord
100
AcDbBlockTableRecord
  2
*D20
340
0
  0
BLOCK_RECORD
  5
22742
330
7466
100
AcDbSymbolTableRecord
100
AcDbBlockTableRecord
  2
*D21
340
0
  0
BLOCK_RECORD
  5
2275C
330
7466
100
AcDbSymbolTableRecord
100
AcDbBlockTableRecord
  2
*D22
340
0
  0
BLOCK_RECORD
  5
24060
330
7466
100
AcDbSymbolTableRecord
100
AcDbBlockTableRecord
  2
*D23
340
0
  0
BLOCK_RECORD
  5
2406C
330
7466
100
AcDbSymbolTableRecord
100
AcDbBlockTableRecord
  2
*D24
340
0
  0
BLOCK_RECORD
  5
24078
330
7466
100
AcDbSymbolTableRecord
100
AcDbBlockTableRecord
  2
*D25
340
0
  0
BLOCK_RECORD
  5
24084
330
7466
100
AcDbSymbolTableRecord
100
AcDbBlockTableRecord
  2
*D26
340
0
  0
BLOCK_RECORD
  5
24090
330
7466
100
AcDbSymbolTableRecord
100
AcDbBlockTableRecord
  2
*D27
340
0
  0
BLOCK_RECORD
  5
2409C
330
7466
100
AcDbSymbolTableRecord
100
AcDbBlockTableRecord
  2
*D28
340
0
  0
BLOCK_RECORD
  5
240A8
330
7466
100
AcDbSymbolTableRecord
100
AcDbBlockTableRecord
  2
*D29
340
0
  0
BLOCK_RECORD
  5
240B3
330
7466
100
AcDbSymbolTableRecord
100
AcDbBlockTableRecord
  2
*D30
340
0
  0
BLOCK_RECORD
  5
240BF
330
7466
100
AcDbSymbolTableRecord
100
AcDbBlockTableRecord
  2
*D31
340
0
  0
BLOCK_RECORD
  5
240CB
330
7466
100
AcDbSymbolTableRecord
100
AcDbBlockTableRecord
  2
*D32
340
0
  0
BLOCK_RECORD
  5
240E4
330
7466
100
AcDbSymbolTableRecord
100
AcDbBlockTableRecord
  2
*D33
340
0
  0
BLOCK_RECORD
  5
240F1
330
7466
100
AcDbSymbolTableRecord
100
AcDbBlockTableRecord
  2
*D34
340
0
  0
BLOCK_RECORD
  5
240FD
330
7466
100
AcDbSymbolTableRecord
100
AcDbBlockTableRecord
  2
*D35
340
0
  0
BLOCK_RECORD
  5
24115
330
7466
100
AcDbSymbolTableRecord
100
AcDbBlockTableRecord
  2
*D36
340
0
  0
BLOCK_RECORD
  5
2412C
330
7466
100
AcDbSymbolTableRecord
100
AcDbBlockTableRecord
  2
*D37
340
0
  0
BLOCK_RECORD
  5
24139
330
7466
100
AcDbSymbolTableRecord
100
AcDbBlockTableRecord
  2
*D38
340
0
  0
BLOCK_RECORD
  5
24146
330
7466
100
AcDbSymbolTableRecord
100
AcDbBlockTableRecord
  2
*D39
340
0
  0
BLOCK_RECORD
  5
24152
330
7466
100
AcDbSymbolTableRecord
100
AcDbBlockTableRecord
  2
*D40
340
0
  0
BLOCK_RECORD
  5
2415F
330
7466
100
AcDbSymbolTableRecord
100
AcDbBlockTableRecord
  2
*D41
340
0
  0
BLOCK_RECORD
  5
2498F
330
7466
100
AcDbSymbolTableRecord
100
AcDbBlockTableRecord
  2
*D42
340
0
  0
BLOCK_RECORD
  5
2499B
330
7466
100
AcDbSymbolTableRecord
100
AcDbBlockTableRecord
  2
*D43
340
0
  0
BLOCK_RECORD
  5
249A7
330
7466
100
AcDbSymbolTableRecord
100
AcDbBlockTableRecord
  2
*D44
340
0
  0
BLOCK_RECORD
  5
249B3
330
7466
100
AcDbSymbolTableRecord
100
AcDbBlockTableRecord
  2
*D45
340
0
  0
BLOCK_RECORD
  5
249C1
330
7466
100
AcDbSymbolTableRecord
100
AcDbBlockTableRecord
  2
*D46
340
0
  0
BLOCK_RECORD
  5
249CD
330
7466
100
AcDbSymbolTableRecord
100
AcDbBlockTableRecord
  2
*D47
340
0
  0
ENDTAB
  0
ENDSEC
  0
SECTION
  2
BLOCKS
  0
BLOCK
  5
7489
330
747D
100
AcDbEntity
  8
0
100
AcDbBlockBegin
  2
*MODEL_SPACE
 70
     0
 10
0.0
 20
0.0
 30
0.0
  3
*MODEL_SPACE
  1

  0
ENDBLK
  5
748A
330
747D
100
AcDbEntity
  8
0
100
AcDbBlockEnd
  0
BLOCK
  5
7487
330
747A
100
AcDbEntity
 67
     1
  8
0
100
AcDbBlockBegin
  2
*PAPER_SPACE
 70
     0
 10
0.0
 20
0.0
 30
0.0
  3
*PAPER_SPACE
  1

  0
ENDBLK
  5
7488
330
747A
100
AcDbEntity
 67
     1
  8
0
100
AcDbBlockEnd
  0
BLOCK
  5
DEAD
330
DEAC
100
AcDbEntity
  8
0
100
AcDbBlockBegin
  2
_OPEN
 70
     0
 10
0.0
 20
0.0
 30
0.0
  3
_OPEN
  1

  0
LINE
  5
DEAE
330
DEAC
100
AcDbEntity
  8
0
  6
ByBlock
 62
     0
100
AcDbLine
 10
-1.0
 20
0.1666666666666666
 30
0.0
 11
0.0
 21
0.0
 31
0.0
  0
LINE
  5
DEAF
330
DEAC
100
AcDbEntity
  8
0
  6
ByBlock
 62
     0
100
AcDbLine
 10
0.0
 20
0.0
 30
0.0
 11
-1.0
 21
-0.1666666666666666
 31
0.0
  0
LINE
  5
DEB0
330
DEAC
100
AcDbEntity
  8
0
  6
ByBlock
 62
     0
100
AcDbLine
 10
0.0
 20
0.0
 30
0.0
 11
-1.0
 21
0.0
 31
0.0
  0
ENDBLK
  5
DEB1
330
DEAC
100
AcDbEntity
  8
0
100
AcDbBlockEnd
  0
BLOCK
  5
F771
330
F770
100
AcDbEntity
  8
0
 48
50.0
100
AcDbBlockBegin
  2
_DOTSMALL
 70
     0
 10
0.0
 20
0.0
 30
0.0
  3
_DOTSMALL
  1

  0
LWPOLYLINE
  5
F772
330
F770
100
AcDbEntity
  8
0
  6
ByBlock
 62
     0
 48
50.0
100
AcDbPolyline
 90
        2
 70
     1
 43
0.5
 10
-0.0625
 20
0.0
 42
1.0
 10
0.0625
 20
0.0
 42
1.0
  0
ENDBLK
  5
F776
330
F770
100
AcDbEntity
  8
0
 48
50.0
100
AcDbBlockEnd
  0
BLOCK
  5
164BA
330
164B4
100
AcDbEntity
  8
0
 48
50.0
100
AcDbBlockBegin
  2
_DOT
 70
     0
 10
0.0
 20
0.0
 30
0.0
  3
_DOT
  1

  0
LWPOLYLINE
  5
164B5
330
164B4
100
AcDbEntity
  8
0
  6
ByBlock
 62
     0
 48
50.0
100
AcDbPolyline
 90
        2
 70
     1
 43
0.5
 10
-0.25
 20
0.0
 42
1.0
 10
0.25
 20
0.0
 42
1.0
  0
LINE
  5
164B9
330
164B4
100
AcDbEntity
  8
0
  6
ByBlock
 62
     0
 48
50.0
100
AcDbLine
 10
-0.5
 20
0.0
 30
0.0
 11
-1.0
 21
0.0
 31
0.0
  0
ENDBLK
  5
164BB
330
164B4
100
AcDbEntity
  8
0
 48
50.0
100
AcDbBlockEnd
  0
BLOCK
  5
18BC9
330
18BC8
100
AcDbEntity
  8
0
 48
50.0
100
AcDbBlockBegin
  2
*D3
 70
     1
 10
0.0
 20
0.0
 30
0.0
  3
*D3
  1

  0
LINE
  5
18BCA
330
18BC8
100
AcDbEntity
  8
寸法
 62
     0
 48
50.0
370
    -2
100
AcDbLine
 10
7649.896575106999
 20
9636.123139034717
 30
0.0
 11
8702.429862581047
 21
9636.123139034717
 31
0.0
  0
LINE
  5
18BCB
330
18BC8
100
AcDbEntity
  8
寸法
 62
     0
 48
50.0
370
    -2
100
AcDbLine
 10
7649.896575106973
 20
7846.123139034709
 30
0.0
 11
8702.429862581047
 21
7846.123139034709
 31
0.0
  0
LINE
  5
18BCC
330
18BC8
100
AcDbEntity
  8
寸法
 62
     0
 48
50.0
370
    -2
100
AcDbLine
 10
8642.429862581046
 20
9636.123139034717
 30
0.0
 11
8642.429862581046
 21
7846.123139034709
 31
0.0
  0
INSERT
  5
18BCD
330
18BC8
100
AcDbEntity
  8
寸法
 62
     0
 48
50.0
370
    -2
100
AcDbBlockReference
  2
_DOTSMALL
 10
8642.429862581046
 20
9636.123139034717
 30
0.0
 41
100.0
 42
100.0
 43
100.0
 50
90.0
  0
INSERT
  5
18BCE
330
18BC8
100
AcDbEntity
  8
寸法
 62
     0
 48
50.0
370
    -2
100
AcDbBlockReference
  2
_DOTSMALL
 10
8642.429862581046
 20
7846.123139034709
 30
0.0
 41
100.0
 42
100.0
 43
100.0
 50
270.0
  0
MTEXT
  5
18BCF
330
18BC8
100
AcDbEntity
  8
寸法
 62
     7
 48
50.0
100
AcDbMText
 10
8542.429862581045
 20
8741.123139034712
 30
0.0
 40
120.0
 41
0.0
 71
     5
 72
     1
  1
\A1;1790
  7
STYLE1
 11
0.0000000000000001
 21
1.0
 31
0.0
 73
     1
 44
1.0
1001
ACAD
1000
MTEXTBEGIN
1070
    73
1070
     1
1070
    44
1040
1.0
1070
    74
1070
     0
1000
MTEXTEND
  0
POINT
  5
18BD0
330
18BC8
100
AcDbEntity
  8
DEFPOINTS
 62
     0
 48
50.0
100
AcDbPoint
 10
7629.896575106998
 20
9636.123139034717
 30
0.0
  0
POINT
  5
18BD1
330
18BC8
100
AcDbEntity
  8
DEFPOINTS
 62
     0
 48
50.0
100
AcDbPoint
 10
7629.896575106974
 20
7846.123139034709
 30
0.0
  0
POINT
  5
18BD2
330
18BC8
100
AcDbEntity
  8
DEFPOINTS
 62
     0
 48
50.0
100
AcDbPoint
 10
8642.429862581046
 20
7846.123139034709
 30
0.0
  0
ENDBLK
  5
18BD3
330
18BC8
100
AcDbEntity
  8
0
 48
50.0
100
AcDbBlockEnd
  0
BLOCK
  5
18BD5
330
18BD4
100
AcDbEntity
  8
0
 48
50.0
100
AcDbBlockBegin
  2
*D4
 70
     1
 10
0.0
 20
0.0
 30
0.0
  3
*D4
  1

  0
LINE
  5
18BD6
330
18BD4
100
AcDbEntity
  8
寸法
 62
     0
 48
50.0
370
    -2
100
AcDbLine
 10
4214.896575106998
 20
9656.123139034622
 30
0.0
 11
4214.896575106998
 21
10211.93135865972
 31
0.0
  0
LINE
  5
18BD7
330
18BD4
100
AcDbEntity
  8
寸法
 62
     0
 48
50.0
370
    -2
100
AcDbLine
 10
7574.896575106999
 20
9656.123139034718
 30
0.0
 11
7574.896575106999
 21
10211.93135865972
 31
0.0
  0
LINE
  5
18BD8
330
18BD4
100
AcDbEntity
  8
寸法
 62
     0
 48
50.0
370
    -2
100
AcDbLine
 10
4214.896575106998
 20
10151.93135865972
 30
0.0
 11
7574.896575106999
 21
10151.93135865972
 31
0.0
  0
INSERT
  5
18BD9
330
18BD4
100
AcDbEntity
  8
寸法
 62
     0
 48
50.0
370
    -2
100
AcDbBlockReference
  2
_DOTSMALL
 10
4214.896575106998
 20
10151.93135865972
 30
0.0
 41
100.0
 42
100.0
 43
100.0
 50
180.0
  0
INSERT
  5
18BDA
330
18BD4
100
AcDbEntity
  8
寸法
 62
     0
 48
50.0
370
    -2
100
AcDbBlockReference
  2
_DOTSMALL
 10
7574.896575106999
 20
10151.93135865972
 30
0.0
 41
100.0
 42
100.0
 43
100.0
  0
MTEXT
  5
18BDB
330
18BD4
100
AcDbEntity
  8
寸法
 62
     7
 48
50.0
100
AcDbMText
 10
5894.896575106997
 20
10251.94316968334
 30
0.0
 40
120.0
 41
0.0
 71
     5
 72
     1
  1
\A1;8X420=3360
  7
STYLE1
 73
     1
 44
1.0
1001
ACAD
1000
MTEXTBEGIN
1070
    73
1070
     1
1070
    44
1040
1.0
1070
    74
1070
     0
1000
MTEXTEND
  0
POINT
  5
18BDC
330
18BD4
100
AcDbEntity
  8
DEFPOINTS
 62
     0
 48
50.0
100
AcDbPoint
 10
4214.896575106998
 20
9636.123139034623
 30
0.0
  0
POINT
  5
18BDD
330
18BD4
100
AcDbEntity
  8
DEFPOINTS
 62
     0
 48
50.0
100
AcDbPoint
 10
7574.896575106999
 20
9636.123139034717
 30
0.0
  0
POINT
  5
18BDE
330
18BD4
100
AcDbEntity
  8
DEFPOINTS
 62
     0
 48
50.0
100
AcDbPoint
 10
7574.896575106999
 20
10151.93135865972
 30
0.0
  0
ENDBLK
  5
18BDF
330
18BD4
100
AcDbEntity
  8
0
 48
50.0
100
AcDbBlockEnd
  0
BLOCK
  5
18BE1
330
18BE0
100
AcDbEntity
  8
0
 48
50.0
100
AcDbBlockBegin
  2
*D5
 70
     1
 10
0.0
 20
0.0
 30
0.0
  3
*D5
  1

  0
LINE
  5
18BE2
330
18BE0
100
AcDbEntity
  8
寸法
 62
     0
 48
50.0
370
    -2
100
AcDbLine
 10
7574.896575106999
 20
9656.123139034718
 30
0.0
 11
7574.896575106999
 21
10211.9313586597
 31
0.0
  0
LINE
  5
18BE3
330
18BE0
100
AcDbEntity
  8
寸法
 62
     0
 48
50.0
370
    -2
100
AcDbLine
 10
7629.896575106998
 20
9656.123139034718
 30
0.0
 11
7629.896575106998
 21
10211.9313586597
 31
0.0
  0
LINE
  5
18BE4
330
18BE0
100
AcDbEntity
  8
寸法
 62
     0
 48
50.0
370
    -2
100
AcDbLine
 10
7574.896575106999
 20
10151.9313586597
 30
0.0
 11
7474.896575106999
 21
10151.9313586597
 31
0.0
  0
LINE
  5
18BE5
330
18BE0
100
AcDbEntity
  8
寸法
 62
     0
 48
50.0
370
    -2
100
AcDbLine
 10
7629.896575106998
 20
10151.9313586597
 30
0.0
 11
8046.867137855477
 21
10151.9313586597
 31
0.0
  0
LINE
  5
18BE6
330
18BE0
100
AcDbEntity
  8
寸法
 62
     0
 48
50.0
370
    -2
100
AcDbLine
 10
7574.896575106999
 20
10151.9313586597
 30
0.0
 11
7629.896575106998
 21
10151.9313586597
 31
0.0
  0
INSERT
  5
18BE7
330
18BE0
100
AcDbEntity
  8
寸法
 62
     0
 48
50.0
370
    -2
100
AcDbBlockReference
  2
_DOTSMALL
 10
7574.896575106999
 20
10151.9313586597
 30
0.0
 41
100.0
 42
100.0
 43
100.0
  0
INSERT
  5
18BE8
330
18BE0
100
AcDbEntity
  8
寸法
 62
     0
 48
50.0
370
    -2
100
AcDbBlockReference
  2
_DOTSMALL
 10
7629.896575106998
 20
10151.9313586597
 30
0.0
 41
100.0
 42
100.0
 43
100.0
 50
180.0
  0
MTEXT
  5
18BE9
330
18BE0
100
AcDbEntity
  8
寸法
 62
     7
 48
50.0
100
AcDbMText
 10
7938.381856481237
 20
10251.9313586597
 30
0.0
 40
120.0
 41
0.0
 71
     5
 72
     1
  1
\A1;55
  7
STYLE1
 73
     1
 44
1.0
1001
ACAD
1000
MTEXTBEGIN
1070
    73
1070
     1
1070
    44
1040
1.0
1070
    74
1070
     0
1000
MTEXTEND
  0
POINT
  5
18BEA
330
18BE0
100
AcDbEntity
  8
DEFPOINTS
 62
     0
 48
50.0
100
AcDbPoint
 10
7574.896575106999
 20
9636.123139034717
 30
0.0
  0
POINT
  5
18BEB
330
18BE0
100
AcDbEntity
  8
DEFPOINTS
 62
     0
 48
50.0
100
AcDbPoint
 10
7629.896575106998
 20
9636.123139034717
 30
0.0
  0
POINT
  5
18BEC
330
18BE0
100
AcDbEntity
  8
DEFPOINTS
 62
     0
 48
50.0
100
AcDbPoint
 10
7629.896575106998
 20
10151.9313586597
 30
0.0
  0
ENDBLK
  5
18BED
330
18BE0
100
AcDbEntity
  8
0
 48
50.0
100
AcDbBlockEnd
  0
BLOCK
  5
18BEF
330
18BEE
100
AcDbEntity
  8
0
 48
50.0
100
AcDbBlockBegin
  2
*D6
 70
     1
 10
0.0
 20
0.0
 30
0.0
  3
*D6
  1

  0
LINE
  5
18BF0
330
18BEE
100
AcDbEntity
  8
寸法
 62
     0
 48
50.0
370
    -2
100
AcDbLine
 10
7649.896575106999
 20
9636.123139034717
 30
0.0
 11
8337.32292084141
 21
9636.123139034717
 31
0.0
  0
LINE
  5
18BF1
330
18BEE
100
AcDbEntity
  8
寸法
 62
     0
 48
50.0
370
    -2
100
AcDbLine
 10
7649.896575106999
 20
9581.123139034721
 30
0.0
 11
8337.32292084141
 21
9581.123139034721
 31
0.0
  0
LINE
  5
18BF2
330
18BEE
100
AcDbEntity
  8
寸法
 62
     0
 48
50.0
370
    -2
100
AcDbLine
 10
8277.322920841411
 20
9581.123139034721
 30
0.0
 11
8277.322920841411
 21
9481.123139034719
 31
0.0
  0
LINE
  5
18BF3
330
18BEE
100
AcDbEntity
  8
寸法
 62
     0
 48
50.0
370
    -2
100
AcDbLine
 10
8277.322920841411
 20
9636.123139034717
 30
0.0
 11
8277.322920841411
 21
10053.09370178319
 31
0.0
  0
LINE
  5
18BF4
330
18BEE
100
AcDbEntity
  8
寸法
 62
     0
 48
50.0
370
    -2
100
AcDbLine
 10
8277.322920841411
 20
9581.123139034721
 30
0.0
 11
8277.322920841411
 21
9636.123139034717
 31
0.0
  0
INSERT
  5
18BF5
330
18BEE
100
AcDbEntity
  8
寸法
 62
     0
 48
50.0
370
    -2
100
AcDbBlockReference
  2
_DOTSMALL
 10
8277.322920841411
 20
9581.123139034721
 30
0.0
 41
100.0
 42
100.0
 43
100.0
 50
90.0
  0
INSERT
  5
18BF6
330
18BEE
100
AcDbEntity
  8
寸法
 62
     0
 48
50.0
370
    -2
100
AcDbBlockReference
  2
_DOTSMALL
 10
8277.322920841411
 20
9636.123139034717
 30
0.0
 41
100.0
 42
100.0
 43
100.0
 50
270.0
  0
MTEXT
  5
18BF7
330
18BEE
100
AcDbEntity
  8
寸法
 62
     7
 48
50.0
100
AcDbMText
 10
8177.32292084141
 20
9944.608420408957
 30
0.0
 40
120.0
 41
0.0
 71
     5
 72
     1
  1
\A1;55
  7
STYLE1
 11
0.0000000000000001
 21
1.0
 31
0.0
 73
     1
 44
1.0
1001
ACAD
1000
MTEXTBEGIN
1070
    73
1070
     1
1070
    44
1040
1.0
1070
    74
1070
     0
1000
MTEXTEND
  0
POINT
  5
18BF8
330
18BEE
100
AcDbEntity
  8
DEFPOINTS
 62
     0
 48
50.0
100
AcDbPoint
 10
7629.896575106998
 20
9636.123139034717
 30
0.0
  0
POINT
  5
18BF9
330
18BEE
100
AcDbEntity
  8
DEFPOINTS
 62
     0
 48
50.0
100
AcDbPoint
 10
7629.896575106998
 20
9581.123139034721
 30
0.0
  0
POINT
  5
18BFA
330
18BEE
100
AcDbEntity
  8
DEFPOINTS
 62
     0
 48
50.0
100
AcDbPoint
 10
8277.322920841411
 20
9581.123139034721
 30
0.0
  0
ENDBLK
  5
18BFB
330
18BEE
100
AcDbEntity
  8
0
 48
50.0
100
AcDbBlockEnd
  0
BLOCK
  5
18BFD
330
18BFC
100
AcDbEntity
  8
0
 48
50.0
100
AcDbBlockBegin
  2
*D7
 70
     1
 10
0.0
 20
0.0
 30
0.0
  3
*D7
  1

  0
LINE
  5
18BFE
330
18BFC
100
AcDbEntity
  8
寸法
 62
     0
 48
50.0
370
    -2
100
AcDbLine
 10
4159.896575106963
 20
9656.123139034622
 30
0.0
 11
4159.896575106963
 21
10211.9313586596
 31
0.0
  0
LINE
  5
18BFF
330
18BFC
100
AcDbEntity
  8
寸法
 62
     0
 48
50.0
370
    -2
100
AcDbLine
 10
4214.896575106998
 20
9656.123139034622
 30
0.0
 11
4214.896575106998
 21
10211.9313586596
 31
0.0
  0
LINE
  5
18C00
330
18BFC
100
AcDbEntity
  8
寸法
 62
     0
 48
50.0
370
    -2
100
AcDbLine
 10
4214.896575106998
 20
10151.9313586596
 30
0.0
 11
4314.896575106998
 21
10151.9313586596
 31
0.0
  0
LINE
  5
18C01
330
18BFC
100
AcDbEntity
  8
寸法
 62
     0
 48
50.0
370
    -2
100
AcDbLine
 10
4159.896575106963
 20
10151.9313586596
 30
0.0
 11
3742.926012358486
 21
10151.9313586596
 31
0.0
  0
LINE
  5
18C02
330
18BFC
100
AcDbEntity
  8
寸法
 62
     0
 48
50.0
370
    -2
100
AcDbLine
 10
4214.896575106998
 20
10151.9313586596
 30
0.0
 11
4159.896575106963
 21
10151.9313586596
 31
0.0
  0
INSERT
  5
18C03
330
18BFC
100
AcDbEntity
  8
寸法
 62
     0
 48
50.0
370
    -2
100
AcDbBlockReference
  2
_DOTSMALL
 10
4214.896575106998
 20
10151.9313586596
 30
0.0
 41
100.0
 42
100.0
 43
100.0
 50
180.0
  0
INSERT
  5
18C04
330
18BFC
100
AcDbEntity
  8
寸法
 62
     0
 48
50.0
370
    -2
100
AcDbBlockReference
  2
_DOTSMALL
 10
4159.896575106963
 20
10151.9313586596
 30
0.0
 41
100.0
 42
100.0
 43
100.0
  0
MTEXT
  5
18C05
330
18BFC
100
AcDbEntity
  8
寸法
 62
     7
 48
50.0
100
AcDbMText
 10
3851.411293732725
 20
10251.9313586596
 30
0.0
 40
120.0
 41
0.0
 71
     5
 72
     1
  1
\A1;55
  7
STYLE1
 73
     1
 44
1.0
1001
ACAD
1000
MTEXTBEGIN
1070
    73
1070
     1
1070
    44
1040
1.0
1070
    74
1070
     0
1000
MTEXTEND
  0
POINT
  5
18C06
330
18BFC
100
AcDbEntity
  8
DEFPOINTS
 62
     0
 48
50.0
100
AcDbPoint
 10
4159.896575106963
 20
9636.123139034623
 30
0.0
  0
POINT
  5
18C07
330
18BFC
100
AcDbEntity
  8
DEFPOINTS
 62
     0
 48
50.0
100
AcDbPoint
 10
4214.896575106998
 20
9636.123139034623
 30
0.0
  0
POINT
  5
18C08
330
18BFC
100
AcDbEntity
  8
DEFPOINTS
 62
     0
 48
50.0
100
AcDbPoint
 10
4214.896575106998
 20
10151.9313586596
 30
0.0
  0
ENDBLK
  5
18C09
330
18BFC
100
AcDbEntity
  8
0
 48
50.0
100
AcDbBlockEnd
  0
BLOCK
  5
18C0B
330
18C0A
100
AcDbEntity
  8
0
 48
50.0
100
AcDbBlockBegin
  2
*D8
 70
     1
 10
0.0
 20
0.0
 30
0.0
  3
*D8
  1

  0
LINE
  5
18C0C
330
18C0A
100
AcDbEntity
  8
寸法
 62
     0
 48
50.0
370
    -2
100
AcDbLine
 10
4159.896575106992
 20
7826.123139034546
 30
0.0
 11
4159.896575106992
 21
6804.372203245664
 31
0.0
  0
LINE
  5
18C0D
330
18C0A
100
AcDbEntity
  8
寸法
 62
     0
 48
50.0
370
    -2
100
AcDbLine
 10
7629.896575106974
 20
7826.123139034674
 30
0.0
 11
7629.896575106974
 21
6804.372203245664
 31
0.0
  0
LINE
  5
18C0E
330
18C0A
100
AcDbEntity
  8
寸法
 62
     0
 48
50.0
370
    -2
100
AcDbLine
 10
4159.896575106992
 20
6864.372203245665
 30
0.0
 11
7629.896575106974
 21
6864.372203245665
 31
0.0
  0
INSERT
  5
18C0F
330
18C0A
100
AcDbEntity
  8
寸法
 62
     0
 48
50.0
370
    -2
100
AcDbBlockReference
  2
_DOTSMALL
 10
4159.896575106992
 20
6864.372203245665
 30
0.0
 41
100.0
 42
100.0
 43
100.0
 50
180.0
  0
INSERT
  5
18C10
330
18C0A
100
AcDbEntity
  8
寸法
 62
     0
 48
50.0
370
    -2
100
AcDbBlockReference
  2
_DOTSMALL
 10
7629.896575106974
 20
6864.372203245665
 30
0.0
 41
100.0
 42
100.0
 43
100.0
  0
MTEXT
  5
18C11
330
18C0A
100
AcDbEntity
  8
寸法
 62
     7
 48
50.0
100
AcDbMText
 10
5911.12376113973
 20
6964.372203245665
 30
0.0
 40
120.0
 41
0.0
 71
     5
 72
     1
  1
\A1;3470
  7
STYLE1
 73
     1
 44
1.0
1001
ACAD
1000
MTEXTBEGIN
1070
    73
1070
     1
1070
    44
1040
1.0
1070
    74
1070
     0
1000
MTEXTEND
  0
POINT
  5
18C12
330
18C0A
100
AcDbEntity
  8
DEFPOINTS
 62
     0
 48
50.0
100
AcDbPoint
 10
4159.896575106992
 20
7846.123139034546
 30
0.0
  0
POINT
  5
18C13
330
18C0A
100
AcDbEntity
  8
DEFPOINTS
 62
     0
 48
50.0
100
AcDbPoint
 10
7629.896575106974
 20
7846.123139034673
 30
0.0
  0
POINT
  5
18C14
330
18C0A
100
AcDbEntity
  8
DEFPOINTS
 62
     0
 48
50.0
100
AcDbPoint
 10
7629.896575106974
 20
6864.372203245665
 30
0.0
  0
ENDBLK
  5
18C15
330
18C0A
100
AcDbEntity
  8
0
 48
50.0
100
AcDbBlockEnd
  0
BLOCK
  5
18C17
330
18C16
100
AcDbEntity
  8
0
 48
50.0
100
AcDbBlockBegin
  2
*D9
 70
     1
 10
0.0
 20
0.0
 30
0.0
  3
*D9
  1

  0
LINE
  5
18C18
330
18C16
100
AcDbEntity
  8
寸法
 62
     0
 48
50.0
370
    -2
100
AcDbLine
 10
7649.896575106973
 20
7901.123139034706
 30
0.0
 11
8337.322920841385
 21
7901.123139034706
 31
0.0
  0
LINE
  5
18C19
330
18C16
100
AcDbEntity
  8
寸法
 62
     0
 48
50.0
370
    -2
100
AcDbLine
 10
7649.896575106973
 20
7846.123139034709
 30
0.0
 11
8337.322920841385
 21
7846.123139034709
 31
0.0
  0
LINE
  5
18C1A
330
18C16
100
AcDbEntity
  8
寸法
 62
     0
 48
50.0
370
    -2
100
AcDbLine
 10
8277.322920841385
 20
7901.123139034706
 30
0.0
 11
8277.322920841385
 21
8001.123139034707
 31
0.0
  0
LINE
  5
18C1B
330
18C16
100
AcDbEntity
  8
寸法
 62
     0
 48
50.0
370
    -2
100
AcDbLine
 10
8277.322920841385
 20
7846.123139034709
 30
0.0
 11
8277.322920841385
 21
7429.152576286229
 31
0.0
  0
LINE
  5
18C1C
330
18C16
100
AcDbEntity
  8
寸法
 62
     0
 48
50.0
370
    -2
100
AcDbLine
 10
8277.322920841385
 20
7901.123139034706
 30
0.0
 11
8277.322920841385
 21
7846.123139034709
 31
0.0
  0
INSERT
  5
18C1D
330
18C16
100
AcDbEntity
  8
寸法
 62
     0
 48
50.0
370
    -2
100
AcDbBlockReference
  2
_DOTSMALL
 10
8277.322920841385
 20
7901.123139034706
 30
0.0
 41
100.0
 42
100.0
 43
100.0
 50
270.0
  0
INSERT
  5
18C1E
330
18C16
100
AcDbEntity
  8
寸法
 62
     0
 48
50.0
370
    -2
100
AcDbBlockReference
  2
_DOTSMALL
 10
8277.322920841385
 20
7846.123139034709
 30
0.0
 41
100.0
 42
100.0
 43
100.0
 50
90.0
  0
MTEXT
  5
18C1F
330
18C16
100
AcDbEntity
  8
寸法
 62
     7
 48
50.0
100
AcDbMText
 10
8177.322920841383
 20
7537.637857660469
 30
0.0
 40
120.0
 41
0.0
 71
     5
 72
     1
  1
\A1;55
  7
STYLE1
 11
0.0000000000000001
 21
1.0
 31
0.0
 73
     1
 44
1.0
1001
ACAD
1000
MTEXTBEGIN
1070
    73
1070
     1
1070
    44
1040
1.0
1070
    74
1070
     0
1000
MTEXTEND
  0
POINT
  5
18C20
330
18C16
100
AcDbEntity
  8
DEFPOINTS
 62
     0
 48
50.0
100
AcDbPoint
 10
7629.896575106974
 20
7901.123139034706
 30
0.0
  0
POINT
  5
18C21
330
18C16
100
AcDbEntity
  8
DEFPOINTS
 62
     0
 48
50.0
100
AcDbPoint
 10
7629.896575106974
 20
7846.123139034709
 30
0.0
  0
POINT
  5
18C22
330
18C16
100
AcDbEntity
  8
DEFPOINTS
 62
     0
 48
50.0
100
AcDbPoint
 10
8277.322920841385
 20
7846.123139034709
 30
0.0
  0
ENDBLK
  5
18C23
330
18C16
100
AcDbEntity
  8
0
 48
50.0
100
AcDbBlockEnd
  0
BLOCK
  5
18C25
330
18C24
100
AcDbEntity
  8
0
 48
50.0
100
AcDbBlockBegin
  2
*D10
 70
     1
 10
0.0
 20
0.0
 30
0.0
  3
*D10
  1

  0
LINE
  5
18C26
330
18C24
100
AcDbEntity
  8
寸法
 62
     0
 48
50.0
370
    -2
100
AcDbLine
 10
6533.037591258376
 20
9136.123139034728
 30
0.0
 11
6465.083950562664
 21
8882.516699399049
 31
0.0
  0
LINE
  5
18C27
330
18C24
100
AcDbEntity
  8
寸法
 62
     0
 48
50.0
370
    -2
100
AcDbLine
 10
7596.037591258388
 20
9136.123139034721
 30
0.0
 11
7528.083950562677
 21
8882.516699399049
 31
0.0
  0
LINE
  5
18C28
330
18C24
100
AcDbEntity
  8
寸法
 62
     0
 48
50.0
370
    -2
100
AcDbLine
 10
6481.160902108531
 20
8942.51669939905
 30
0.0
 11
7544.160902108544
 21
8942.51669939905
 31
0.0
  0
INSERT
  5
18C29
330
18C24
100
AcDbEntity
  8
寸法
 62
     0
 48
50.0
370
    -2
100
AcDbBlockReference
  2
_DOTSMALL
 10
6481.160902108531
 20
8942.51669939905
 30
0.0
 41
100.0
 42
100.0
 43
100.0
 50
180.0
  0
INSERT
  5
18C2A
330
18C24
100
AcDbEntity
  8
寸法
 62
     0
 48
50.0
370
    -2
100
AcDbBlockReference
  2
_DOTSMALL
 10
7544.160902108544
 20
8942.51669939905
 30
0.0
 41
100.0
 42
100.0
 43
100.0
  0
MTEXT
  5
18C2B
330
18C24
100
AcDbEntity
  8
寸法
 62
     7
 48
50.0
100
AcDbMText
 10
7061.28653022935
 20
9042.516699399049
 30
0.0
 40
120.0
 41
0.0
 71
     5
 72
     1
  1
\A1;1063
  7
STYLE1
 73
     1
 44
1.0
1001
ACAD
1000
MTEXTBEGIN
1070
    73
1070
     1
1070
    44
1040
1.0
1070
    74
1070
     0
1000
MTEXTEND
  0
POINT
  5
18C2C
330
18C24
100
AcDbEntity
  8
DEFPOINTS
 62
     0
 48
50.0
100
AcDbPoint
 10
6538.396575106998
 20
9156.123139034727
 30
0.0
  0
POINT
  5
18C2D
330
18C24
100
AcDbEntity
  8
DEFPOINTS
 62
     0
 48
50.0
100
AcDbPoint
 10
7601.39657510701
 20
9156.12313903472
 30
0.0
  0
POINT
  5
18C2E
330
18C24
100
AcDbEntity
  8
DEFPOINTS
 62
     0
 48
50.0
100
AcDbPoint
 10
7544.160902108544
 20
8942.51669939905
 30
0.0
  0
ENDBLK
  5
18C2F
330
18C24
100
AcDbEntity
  8
0
 48
50.0
100
AcDbBlockEnd
  0
BLOCK
  5
18C31
330
18C30
100
AcDbEntity
  8
0
 48
50.0
100
AcDbBlockBegin
  2
*D11
 70
     1
 10
0.0
 20
0.0
 30
0.0
  3
*D11
  1

  0
LINE
  5
18C32
330
18C30
100
AcDbEntity
  8
寸法
 62
     0
 48
50.0
370
    -2
100
AcDbLine
 10
7621.396575106999
 20
9600.764155186094
 30
0.0
 11
8016.754300969024
 21
9494.828371819961
 31
0.0
  0
LINE
  5
18C33
330
18C30
100
AcDbEntity
  8
寸法
 62
     0
 48
50.0
370
    -2
100
AcDbLine
 10
7621.396575106999
 20
9150.764155186099
 30
0.0
 11
8016.754300969024
 21
9044.828371819964
 31
0.0
  0
LINE
  5
18C34
330
18C30
100
AcDbEntity
  8
寸法
 62
     0
 48
50.0
370
    -2
100
AcDbLine
 10
7956.754300969024
 20
9510.905323365827
 30
0.0
 11
7956.754300969024
 21
9060.90532336583
 31
0.0
  0
INSERT
  5
18C35
330
18C30
100
AcDbEntity
  8
寸法
 62
     0
 48
50.0
370
    -2
100
AcDbBlockReference
  2
_DOTSMALL
 10
7956.754300969024
 20
9510.905323365827
 30
0.0
 41
100.0
 42
100.0
 43
100.0
 50
90.0
  0
INSERT
  5
18C36
330
18C30
100
AcDbEntity
  8
寸法
 62
     0
 48
50.0
370
    -2
100
AcDbBlockReference
  2
_DOTSMALL
 10
7956.754300969024
 20
9060.90532336583
 30
0.0
 41
100.0
 42
100.0
 43
100.0
 50
270.0
  0
MTEXT
  5
18C37
330
18C30
100
AcDbEntity
  8
寸法
 62
     7
 48
50.0
100
AcDbMText
 10
7856.754300969022
 20
9285.905323365829
 30
0.0
 40
120.0
 41
0.0
 71
     5
 72
     1
  1
\A1;450
  7
STYLE1
 11
0.0000000000000001
 21
1.0
 31
0.0
 73
     1
 44
1.0
1001
ACAD
1000
MTEXTBEGIN
1070
    73
1070
     1
1070
    44
1040
1.0
1070
    74
1070
     0
1000
MTEXTEND
  0
POINT
  5
18C38
330
18C30
100
AcDbEntity
  8
DEFPOINTS
 62
     0
 48
50.0
100
AcDbPoint
 10
7601.396575106999
 20
9606.123139034718
 30
0.0
  0
POINT
  5
18C39
330
18C30
100
AcDbEntity
  8
DEFPOINTS
 62
     0
 48
50.0
100
AcDbPoint
 10
7601.396575106999
 20
9156.12313903472
 30
0.0
  0
POINT
  5
18C3A
330
18C30
100
AcDbEntity
  8
DEFPOINTS
 62
     0
 48
50.0
100
AcDbPoint
 10
7956.754300969024
 20
9060.90532336583
 30
0.0
  0
ENDBLK
  5
18C3B
330
18C30
100
AcDbEntity
  8
0
 48
50.0
100
AcDbBlockEnd
  0
BLOCK
  5
18C3D
330
18C3C
100
AcDbEntity
  8
0
 48
50.0
100
AcDbBlockBegin
  2
*D12
 70
     1
 10
0.0
 20
0.0
 30
0.0
  3
*D12
  1

  0
LINE
  5
18C3E
330
18C3C
100
AcDbEntity
  8
寸法
 62
     0
 48
50.0
370
    -2
100
AcDbLine
 10
7649.896575106999
 20
9581.123139034721
 30
0.0
 11
8337.32292084141
 21
9581.123139034721
 31
0.0
  0
LINE
  5
18C3F
330
18C3C
100
AcDbEntity
  8
寸法
 62
     0
 48
50.0
370
    -2
100
AcDbLine
 10
7649.896575106973
 20
7901.123139034706
 30
0.0
 11
8337.32292084141
 21
7901.123139034706
 31
0.0
  0
LINE
  5
18C40
330
18C3C
100
AcDbEntity
  8
寸法
 62
     0
 48
50.0
370
    -2
100
AcDbLine
 10
8277.322920841411
 20
9581.123139034721
 30
0.0
 11
8277.322920841411
 21
7901.123139034706
 31
0.0
  0
INSERT
  5
18C41
330
18C3C
100
AcDbEntity
  8
寸法
 62
     0
 48
50.0
370
    -2
100
AcDbBlockReference
  2
_DOTSMALL
 10
8277.322920841411
 20
9581.123139034721
 30
0.0
 41
100.0
 42
100.0
 43
100.0
 50
90.0
  0
INSERT
  5
18C42
330
18C3C
100
AcDbEntity
  8
寸法
 62
     0
 48
50.0
370
    -2
100
AcDbBlockReference
  2
_DOTSMALL
 10
8277.322920841411
 20
7901.123139034706
 30
0.0
 41
100.0
 42
100.0
 43
100.0
 50
270.0
  0
MTEXT
  5
18C43
330
18C3C
100
AcDbEntity
  8
寸法
 62
     7
 48
50.0
100
AcDbMText
 10
8177.311109817788
 20
8741.123139034712
 30
0.0
 40
120.0
 41
0.0
 71
     5
 72
     1
  1
\A1;4X420=1680
  7
STYLE1
 11
0.0000000000000001
 21
1.0
 31
0.0
 73
     1
 44
1.0
1001
ACAD
1000
MTEXTBEGIN
1070
    73
1070
     1
1070
    44
1040
1.0
1070
    74
1070
     0
1000
MTEXTEND
  0
POINT
  5
18C44
330
18C3C
100
AcDbEntity
  8
DEFPOINTS
 62
     0
 48
50.0
100
AcDbPoint
 10
7629.896575106998
 20
9581.123139034721
 30
0.0
  0
POINT
  5
18C45
330
18C3C
100
AcDbEntity
  8
DEFPOINTS
 62
     0
 48
50.0
100
AcDbPoint
 10
7629.896575106974
 20
7901.123139034706
 30
0.0
  0
POINT
  5
18C46
330
18C3C
100
AcDbEntity
  8
DEFPOINTS
 62
     0
 48
50.0
100
AcDbPoint
 10
8277.322920841411
 20
7901.123139034706
 30
0.0
  0
ENDBLK
  5
18C47
330
18C3C
100
AcDbEntity
  8
0
 48
50.0
100
AcDbBlockEnd
  0
BLOCK
  5
18C49
330
18C48
100
AcDbEntity
  8
0
 48
50.0
100
AcDbBlockBegin
  2
*D13
 70
     1
 10
0.0
 20
0.0
 30
0.0
  3
*D13
  1

  0
LINE
  5
18C4A
330
18C48
100
AcDbEntity
  8
寸法
 62
     0
 48
50.0
370
    -2
100
AcDbLine
 10
4183.037591258377
 20
9136.123139034619
 30
0.0
 11
4115.083950562663
 21
8882.516699398941
 31
0.0
  0
LINE
  5
18C4B
330
18C48
100
AcDbEntity
  8
寸法
 62
     0
 48
50.0
370
    -2
100
AcDbLine
 10
5246.037591258307
 20
9136.123139034671
 30
0.0
 11
5178.08395056258
 21
8882.516699398941
 31
0.0
  0
LINE
  5
18C4C
330
18C48
100
AcDbEntity
  8
寸法
 62
     0
 48
50.0
370
    -2
100
AcDbLine
 10
4131.160902108532
 20
8942.516699398941
 30
0.0
 11
5194.160902108448
 21
8942.516699398941
 31
0.0
  0
INSERT
  5
18C4D
330
18C48
100
AcDbEntity
  8
寸法
 62
     0
 48
50.0
370
    -2
100
AcDbBlockReference
  2
_DOTSMALL
 10
4131.160902108532
 20
8942.516699398941
 30
0.0
 41
100.0
 42
100.0
 43
100.0
 50
180.0
  0
INSERT
  5
18C4E
330
18C48
100
AcDbEntity
  8
寸法
 62
     0
 48
50.0
370
    -2
100
AcDbBlockReference
  2
_DOTSMALL
 10
5194.160902108448
 20
8942.516699398941
 30
0.0
 41
100.0
 42
100.0
 43
100.0
  0
MTEXT
  5
18C4F
330
18C48
100
AcDbEntity
  8
寸法
 62
     7
 48
50.0
100
AcDbMText
 10
4658.986452655306
 20
9042.516699398941
 30
0.0
 40
120.0
 41
0.0
 71
     5
 72
     1
  1
\A1;1063
  7
STYLE1
 73
     1
 44
1.0
1001
ACAD
1000
MTEXTBEGIN
1070
    73
1070
     1
1070
    44
1040
1.0
1070
    74
1070
     0
1000
MTEXTEND
  0
POINT
  5
18C50
330
18C48
100
AcDbEntity
  8
DEFPOINTS
 62
     0
 48
50.0
100
AcDbPoint
 10
4188.396575106999
 20
9156.123139034617
 30
0.0
  0
POINT
  5
18C51
330
18C48
100
AcDbEntity
  8
DEFPOINTS
 62
     0
 48
50.0
100
AcDbPoint
 10
5251.396575106929
 20
9156.123139034672
 30
0.0
  0
POINT
  5
18C52
330
18C48
100
AcDbEntity
  8
DEFPOINTS
 62
     0
 48
50.0
100
AcDbPoint
 10
5194.160902108448
 20
8942.516699398941
 30
0.0
  0
ENDBLK
  5
18C53
330
18C48
100
AcDbEntity
  8
0
 48
50.0
100
AcDbBlockEnd
  0
BLOCK
  5
18C55
330
18C54
100
AcDbEntity
  8
0
 48
50.0
100
AcDbBlockBegin
  2
*D14
 70
     1
 10
0.0
 20
0.0
 30
0.0
  3
*D14
  1

  0
LINE
  5
18C56
330
18C54
100
AcDbEntity
  8
寸法
 62
     0
 48
50.0
370
    -2
100
AcDbLine
 10
5274.037591258307
 20
9136.123139034669
 30
0.0
 11
5206.08395056258
 21
8882.516699398941
 31
0.0
  0
LINE
  5
18C57
330
18C54
100
AcDbEntity
  8
寸法
 62
     0
 48
50.0
370
    -2
100
AcDbLine
 10
6505.037591258377
 20
9136.123139034662
 30
0.0
 11
6437.083950562653
 21
8882.516699398941
 31
0.0
  0
LINE
  5
18C58
330
18C54
100
AcDbEntity
  8
寸法
 62
     0
 48
50.0
370
    -2
100
AcDbLine
 10
5222.160902108448
 20
8942.516699398941
 30
0.0
 11
6453.16090210852
 21
8942.516699398941
 31
0.0
  0
INSERT
  5
18C59
330
18C54
100
AcDbEntity
  8
寸法
 62
     0
 48
50.0
370
    -2
100
AcDbBlockReference
  2
_DOTSMALL
 10
5222.160902108448
 20
8942.516699398941
 30
0.0
 41
100.0
 42
100.0
 43
100.0
 50
180.0
  0
INSERT
  5
18C5A
330
18C54
100
AcDbEntity
  8
寸法
 62
     0
 48
50.0
370
    -2
100
AcDbBlockReference
  2
_DOTSMALL
 10
6453.16090210852
 20
8942.516699398941
 30
0.0
 41
100.0
 42
100.0
 43
100.0
  0
MTEXT
  5
18C5B
330
18C54
100
AcDbEntity
  8
寸法
 62
     7
 48
50.0
100
AcDbMText
 10
6081.244808320626
 20
9042.528510422561
 30
0.0
 40
120.0
 41
0.0
 71
     5
 72
     1
  1
\A1;1231
  7
STYLE1
 73
     1
 44
1.0
1001
ACAD
1000
MTEXTBEGIN
1070
    73
1070
     1
1070
    44
1040
1.0
1070
    74
1070
     0
1000
MTEXTEND
  0
POINT
  5
18C5C
330
18C54
100
AcDbEntity
  8
DEFPOINTS
 62
     0
 48
50.0
100
AcDbPoint
 10
5279.396575106929
 20
9156.123139034669
 30
0.0
  0
POINT
  5
18C5D
330
18C54
100
AcDbEntity
  8
DEFPOINTS
 62
     0
 48
50.0
100
AcDbPoint
 10
6510.396575106999
 20
9156.123139034662
 30
0.0
  0
POINT
  5
18C5E
330
18C54
100
AcDbEntity
  8
DEFPOINTS
 62
     0
 48
50.0
100
AcDbPoint
 10
6453.16090210852
 20
8942.516699398941
 30
0.0
  0
ENDBLK
  5
18C5F
330
18C54
100
AcDbEntity
  8
0
 48
50.0
100
AcDbBlockEnd
  0
BLOCK
  5
18C61
330
18C60
100
AcDbEntity
  8
0
 48
50.0
100
AcDbBlockBegin
  2
*D15
 70
     1
 10
0.0
 20
0.0
 30
0.0
  3
*D15
  1

  0
LINE
  5
18C62
330
18C60
100
AcDbEntity
  8
寸法
 62
     0
 48
50.0
370
    -2
100
AcDbLine
 10
5065.896575106966
 20
7749.123139034579
 30
0.0
 11
5065.896575106966
 21
7099.952920982538
 31
0.0
  0
LINE
  5
18C63
330
18C60
100
AcDbEntity
  8
寸法
 62
     0
 48
50.0
370
    -2
100
AcDbLine
 10
6331.896575106966
 20
7749.123139034579
 30
0.0
 11
6331.896575106966
 21
7099.952920982538
 31
0.0
  0
LINE
  5
18C64
330
18C60
100
AcDbEntity
  8
寸法
 62
     0
 48
50.0
370
    -2
100
AcDbLine
 10
5065.896575106966
 20
7159.952920982537
 30
0.0
 11
6331.896575106966
 21
7159.952920982537
 31
0.0
  0
INSERT
  5
18C65
330
18C60
100
AcDbEntity
  8
寸法
 62
     0
 48
50.0
370
    -2
100
AcDbBlockReference
  2
_DOTSMALL
 10
5065.896575106966
 20
7159.952920982537
 30
0.0
 41
100.0
 42
100.0
 43
100.0
 50
180.0
  0
INSERT
  5
18C66
330
18C60
100
AcDbEntity
  8
寸法
 62
     0
 48
50.0
370
    -2
100
AcDbBlockReference
  2
_DOTSMALL
 10
6331.896575106966
 20
7159.952920982537
 30
0.0
 41
100.0
 42
100.0
 43
100.0
  0
MTEXT
  5
18C67
330
18C60
100
AcDbEntity
  8
寸法
 62
     7
 48
50.0
100
AcDbMText
 10
5711.986008735934
 20
7359.964732006159
 30
0.0
 40
120.0
 41
0.0
 71
     5
 72
     1
  1
\A1;有効開口部間口\P1266
  7
STYLE1
 73
     1
 44
1.0
1001
ACAD
1000
MTEXTBEGIN
1070
    73
1070
     1
1070
    44
1040
1.0
1070
    74
1070
     0
1000
MTEXTEND
  0
POINT
  5
18C68
330
18C60
100
AcDbEntity
  8
DEFPOINTS
 62
     0
 48
50.0
100
AcDbPoint
 10
5065.896575106966
 20
7769.123139034579
 30
0.0
  0
POINT
  5
18C69
330
18C60
100
AcDbEntity
  8
DEFPOINTS
 62
     0
 48
50.0
100
AcDbPoint
 10
6331.896575106966
 20
7769.123139034579
 30
0.0
  0
POINT
  5
18C6A
330
18C60
100
AcDbEntity
  8
DEFPOINTS
 62
     0
 48
50.0
100
AcDbPoint
 10
6331.896575106966
 20
7159.952920982537
 30
0.0
  0
ENDBLK
  5
18C6B
330
18C60
100
AcDbEntity
  8
0
 48
50.0
100
AcDbBlockEnd
  0
BLOCK
  5
18C6D
330
18C6C
100
AcDbEntity
  8
0
 48
50.0
100
AcDbBlockBegin
  2
*D16
 70
     1
 10
0.0
 20
0.0
 30
0.0
  3
*D16
  1

  0
LINE
  5
18C6E
330
18C6C
100
AcDbEntity
  8
寸法
 62
     0
 48
50.0
370
    -2
100
AcDbLine
 10
7200.896575106966
 20
7846.123139034578
 30
0.0
 11
7457.192158500191
 21
7846.123139034578
 31
0.0
  0
LINE
  5
18C6F
330
18C6C
100
AcDbEntity
  8
寸法
 62
     0
 48
50.0
370
    -2
100
AcDbLine
 10
7199.896575106966
 20
7769.123139034579
 30
0.0
 11
7457.192158500191
 21
7769.123139034579
 31
0.0
  0
LINE
  5
18C70
330
18C6C
100
AcDbEntity
  8
寸法
 62
     0
 48
50.0
370
    -2
100
AcDbLine
 10
7417.192158500192
 20
7866.123139034579
 30
0.0
 11
7417.192158500192
 21
7886.123139034578
 31
0.0
  0
LINE
  5
18C71
330
18C6C
100
AcDbEntity
  8
寸法
 62
     0
 48
50.0
370
    -2
100
AcDbLine
 10
7417.192158500192
 20
7749.123139034579
 30
0.0
 11
7417.192158500192
 21
7533.123139034573
 31
0.0
  0
LINE
  5
18C72
330
18C6C
100
AcDbEntity
  8
寸法
 62
     0
 48
50.0
370
    -2
100
AcDbLine
 10
7417.192158500192
 20
7846.123139034578
 30
0.0
 11
7417.192158500192
 21
7769.123139034579
 31
0.0
  0
INSERT
  5
18C73
330
18C6C
100
AcDbEntity
  8
寸法
 62
     0
 48
50.0
370
    -2
100
AcDbBlockReference
  2
_DOT
 10
7417.192158500192
 20
7846.123139034578
 30
0.0
 41
20.0
 42
20.0
 43
20.0
 50
270.0
  0
INSERT
  5
18C74
330
18C6C
100
AcDbEntity
  8
寸法
 62
     0
 48
50.0
370
    -2
100
AcDbBlockReference
  2
_DOT
 10
7417.192158500192
 20
7769.123139034579
 30
0.0
 41
20.0
 42
20.0
 43
20.0
 50
90.0
  0
MTEXT
  5
18C75
330
18C6C
100
AcDbEntity
  8
寸法
 62
     7
 48
50.0
100
AcDbMText
 10
7325.192158500191
 20
7631.123139034575
 30
0.0
 40
120.0
 41
0.0
 71
     5
 72
     1
  1
\A1;77
  7
STYLE1
 11
0.0000000000000001
 21
1.0
 31
0.0
 73
     1
 44
1.0
1001
ACAD
1000
MTEXTBEGIN
1070
    73
1070
     1
1070
    44
1040
1.0
1070
    74
1070
     0
1000
MTEXTEND
  0
POINT
  5
18C76
330
18C6C
100
AcDbEntity
  8
DEFPOINTS
 62
     0
 48
50.0
100
AcDbPoint
 10
7180.896575106967
 20
7846.123139034578
 30
0.0
  0
POINT
  5
18C77
330
18C6C
100
AcDbEntity
  8
DEFPOINTS
 62
     0
 48
50.0
100
AcDbPoint
 10
7179.896575106965
 20
7769.123139034579
 30
0.0
  0
POINT
  5
18C78
330
18C6C
100
AcDbEntity
  8
DEFPOINTS
 62
     0
 48
50.0
100
AcDbPoint
 10
7417.192158500192
 20
7769.123139034579
 30
0.0
  0
ENDBLK
  5
18C79
330
18C6C
100
AcDbEntity
  8
0
 48
50.0
100
AcDbBlockEnd
  0
BLOCK
  5
18DA0
330
18C7A
100
AcDbEntity
  8
0
 48
50.0
100
AcDbBlockBegin
  2
A$C3B1A506B
 70
     0
 10
0.0
 20
0.0
 30
0.0
  3
A$C3B1A506B
  1

  0
MTEXT
  5
18C7B
330
18C7A
100
AcDbEntity
  8
寸法
 62
     7
 48
50.0
100
AcDbMText
 10
3342.250386887194
 20
2778.329429134012
 30
0.0
 40
96.0
 41
0.0
 71
     5
 72
     1
  1
棚 2段
  7
STYLE1
 73
     1
 44
1.0
1001
ACAD
1000
MTEXTBEGIN
1070
    73
1070
     1
1070
    44
1040
1.0
1070
    74
1070
     0
1000
MTEXTEND
  0
MTEXT
  5
18C7C
330
18C7A
100
AcDbEntity
  8
寸法
 62
     7
 48
50.0
100
AcDbMText
 10
2167.25038688716
 20
2778.329429133986
 30
0.0
 40
96.0
 41
0.0
 71
     5
 72
     1
  1
棚 2段
  7
STYLE1
 73
     1
 44
1.0
1001
ACAD
1000
MTEXTBEGIN
1070
    73
1070
     1
1070
    44
1040
1.0
1070
    74
1070
     0
1000
MTEXTEND
  0
MTEXT
  5
18C7D
330
18C7A
100
AcDbEntity
  8
寸法
 62
     7
 48
50.0
100
AcDbMText
 10
992.2503868871608
 20
2778.329429133935
 30
0.0
 40
96.0
 41
0.0
 71
     5
 72
     1
  1
棚 2段
  7
STYLE1
 73
     1
 44
1.0
1001
ACAD
1000
MTEXTBEGIN
1070
    73
1070
     1
1070
    44
1040
1.0
1070
    74
1070
     0
1000
MTEXTEND
  0
LINE
  5
18C7E
330
18C7A
100
AcDbEntity
  8
細線
 48
50.0
100
AcDbLine
 10
2771.970589276527
 20
1368.994384123192
 30
0.0
 11
3398.970589276523
 21
1368.994384123192
 31
0.0
  0
LINE
  5
18C7F
330
18C7A
100
AcDbEntity
  8
細線
 48
50.0
100
AcDbLine
 10
2117.970593930113
 20
1335.285615569113
 30
0.0
 11
3398.970589276523
 21
1335.285615569113
 31
0.0
  0
LINE
  5
18C80
330
18C7A
100
AcDbEntity
  8
細線
 48
50.0
100
AcDbLine
 10
2076.970593930115
 20
1364.690523565368
 30
0.0
 11
1322.970589276523
 21
1364.690523565367
 31
0.0
  0
LINE
  5
18C81
330
18C7A
100
AcDbEntity
  8
細線
100
AcDbLine
 10
3170.720579860066
 20
1388.494284088199
 30
0.0
 11
3173.052119381877
 21
1393.494286728162
 31
0.0
  0
LINE
  5
18C82
330
18C7A
100
AcDbEntity
  8
細線
100
AcDbLine
 10
3240.720589276525
 20
1388.494269174465
 30
0.0
 11
3238.389042800336
 21
1393.494286728144
 31
0.0
  0
LINE
  5
18C83
330
18C7A
100
AcDbEntity
  8
細線
100
AcDbLine
 10
3238.389042800336
 20
1393.494286728144
 30
0.0
 11
3173.052119381862
 21
1393.494286728133
 31
0.0
  0
LINE
  5
18C84
330
18C7A
100
AcDbEntity
  8
細線
100
AcDbLine
 10
3098.389042800336
 20
1393.494286728144
 30
0.0
 11
3033.052119381862
 21
1393.494286728133
 31
0.0
  0
LINE
  5
18C85
330
18C7A
100
AcDbEntity
  8
細線
100
AcDbLine
 10
3100.720589276523
 20
1388.494269174465
 30
0.0
 11
3098.389042800336
 21
1393.494286728144
 31
0.0
  0
LINE
  5
18C86
330
18C7A
100
AcDbEntity
  8
細線
100
AcDbLine
 10
3030.720579860066
 20
1388.494284088199
 30
0.0
 11
3033.052119381875
 21
1393.494286728162
 31
0.0
  0
LINE
  5
18C87
330
18C7A
100
AcDbEntity
  8
細線
100
AcDbLine
 10
2890.720589276525
 20
1388.494269174465
 30
0.0
 11
2893.052128798336
 21
1393.494271814428
 31
0.0
  0
LINE
  5
18C88
330
18C7A
100
AcDbEntity
  8
細線
100
AcDbLine
 10
2960.720598692984
 20
1388.494254260731
 30
0.0
 11
2958.389052216793
 21
1393.49427181441
 31
0.0
  0
LINE
  5
18C89
330
18C7A
100
AcDbEntity
  8
細線
100
AcDbLine
 10
2958.389052216795
 20
1393.49427181441
 30
0.0
 11
2893.052128798321
 21
1393.494271814399
 31
0.0
  0
LINE
  5
18C8A
330
18C7A
100
AcDbEntity
  8
細線
100
AcDbLine
 10
2667.139038146739
 20
1359.494298590735
 30
0.0
 11
2601.802114728263
 21
1359.494298590724
 31
0.0
  0
LINE
  5
18C8B
330
18C7A
100
AcDbEntity
  8
細線
100
AcDbLine
 10
2669.470584622926
 20
1354.494281037055
 30
0.0
 11
2667.139038146737
 21
1359.494298590735
 31
0.0
  0
LINE
  5
18C8C
330
18C7A
100
AcDbEntity
  8
細線
100
AcDbLine
 10
2599.470575206469
 20
1354.49429595079
 30
0.0
 11
2601.802114728278
 21
1359.494298590752
 31
0.0
  0
LINE
  5
18C8D
330
18C7A
100
AcDbEntity
  8
細線
 48
50.0
100
AcDbLine
 10
2440.853968524536
 20
1372.765132327548
 30
0.0
 11
2446.609486107205
 21
1354.494281037057
 31
0.0
  0
LINE
  5
18C8E
330
18C7A
100
AcDbEntity
  8
細線
 48
50.0
100
AcDbLine
 10
2429.925520044106
 20
1372.765132327546
 30
0.0
 11
2440.853968524536
 21
1372.765132327548
 31
0.0
  0
ARC
  5
18C8F
330
18C7A
100
AcDbEntity
  8
細線
 48
50.0
100
AcDbCircle
 10
2424.471163986787
 20
1374.265132327546
 30
0.0
 40
5.0
100
AcDbArc
 50
204.6243183520723
 51
335.3756816479278
  0
ARC
  5
18C90
330
18C7A
100
AcDbEntity
  8
細線
 48
50.0
100
AcDbCircle
 10
2429.925520044106
 20
1371.765132327546
 30
0.0
 40
1.0
100
AcDbArc
 50
90.0
 51
155.3756816479277
  0
ARC
  5
18C91
330
18C7A
100
AcDbEntity
  8
細線
 48
50.0
100
AcDbCircle
 10
2419.016807929469
 20
1371.765132327546
 30
0.0
 40
1.0
100
AcDbArc
 50
24.62431835207225
 51
90.0
  0
LINE
  5
18C92
330
18C7A
100
AcDbEntity
  8
細線
 48
50.0
100
AcDbLine
 10
2408.088359449037
 20
1372.765132327548
 30
0.0
 11
2419.016807929469
 21
1372.765132327546
 31
0.0
  0
LINE
  5
18C93
330
18C7A
100
AcDbEntity
  8
細線
 48
50.0
100
AcDbLine
 10
2402.33284186637
 20
1354.494281037054
 30
0.0
 11
2408.088359449037
 21
1372.765132327548
 31
0.0
  0
LINE
  5
18C94
330
18C7A
100
AcDbEntity
  8
細線
100
AcDbLine
 10
2458.070304175992
 20
1354.494278397076
 30
0.0
 11
2460.401843697802
 21
1359.494281037039
 31
0.0
  0
LINE
  5
18C95
330
18C7A
100
AcDbEntity
  8
細線
100
AcDbLine
 10
2528.070313592451
 20
1354.494263483342
 30
0.0
 11
2525.738767116262
 21
1359.494281037021
 31
0.0
  0
LINE
  5
18C96
330
18C7A
100
AcDbEntity
  8
細線
100
AcDbLine
 10
2525.738767116262
 20
1359.494281037021
 30
0.0
 11
2460.40184369779
 21
1359.49428103701
 31
0.0
  0
LINE
  5
18C97
330
18C7A
100
AcDbEntity
  8
細線
100
AcDbLine
 10
2387.139046332155
 20
1359.494281037021
 30
0.0
 11
2321.80212291368
 21
1359.49428103701
 31
0.0
  0
LINE
  5
18C98
330
18C7A
100
AcDbEntity
  8
細線
100
AcDbLine
 10
2389.470592808342
 20
1354.494263483342
 30
0.0
 11
2387.139046332153
 21
1359.494281037021
 31
0.0
  0
LINE
  5
18C99
330
18C7A
100
AcDbEntity
  8
細線
100
AcDbLine
 10
2319.470584622926
 20
1354.494281037054
 30
0.0
 11
2321.802122913694
 21
1359.494281037039
 31
0.0
  0
LINE
  5
18C9A
330
18C7A
100
AcDbEntity
  8
細線
100
AcDbLine
 10
2179.47061994182
 20
1354.494289224422
 30
0.0
 11
2181.802158232587
 21
1359.494289224407
 31
0.0
  0
LINE
  5
18C9B
330
18C7A
100
AcDbEntity
  8
細線
100
AcDbLine
 10
2249.470628127236
 20
1354.49427167071
 30
0.0
 11
2247.139081651047
 21
1359.494289224389
 31
0.0
  0
LINE
  5
18C9C
330
18C7A
100
AcDbEntity
  8
細線
100
AcDbLine
 10
2247.139081651047
 20
1359.494289224389
 30
0.0
 11
2181.802158232573
 21
1359.494289224378
 31
0.0
  0
LINE
  5
18C9D
330
18C7A
100
AcDbEntity
  8
細線
100
AcDbLine
 10
1807.970585744697
 20
1320.494460905133
 30
0.0
 11
1810.302124035464
 21
1325.494460905118
 31
0.0
  0
LINE
  5
18C9E
330
18C7A
100
AcDbEntity
  8
細線
100
AcDbLine
 10
1877.970593930113
 20
1320.494443351421
 30
0.0
 11
1875.639047453926
 21
1325.4944609051
 31
0.0
  0
LINE
  5
18C9F
330
18C7A
100
AcDbEntity
  8
細線
100
AcDbLine
 10
1875.639047453926
 20
1325.4944609051
 30
0.0
 11
1810.302124035452
 21
1325.494460905089
 31
0.0
  0
LINE
  5
18CA0
330
18C7A
100
AcDbEntity
  8
細線
100
AcDbLine
 10
2015.639047453926
 20
1325.4944609051
 30
0.0
 11
1950.302124035452
 21
1325.494460905089
 31
0.0
  0
LINE
  5
18CA1
330
18C7A
100
AcDbEntity
  8
細線
100
AcDbLine
 10
2017.970593930113
 20
1320.494443351421
 30
0.0
 11
2015.639047453924
 21
1325.4944609051
 31
0.0
  0
LINE
  5
18CA2
330
18C7A
100
AcDbEntity
  8
細線
100
AcDbLine
 10
1947.970585744697
 20
1320.494460905133
 30
0.0
 11
1950.302124035465
 21
1325.494460905118
 31
0.0
  0
LINE
  5
18CA3
330
18C7A
100
AcDbEntity
  8
細線
100
AcDbLine
 10
1735.639047453926
 20
1325.494460905098
 30
0.0
 11
1670.302124035454
 21
1325.494460905087
 31
0.0
  0
LINE
  5
18CA4
330
18C7A
100
AcDbEntity
  8
細線
100
AcDbLine
 10
1737.970593930113
 20
1320.494443351419
 30
0.0
 11
1735.639047453926
 21
1325.494460905098
 31
0.0
  0
LINE
  5
18CA5
330
18C7A
100
AcDbEntity
  8
細線
100
AcDbLine
 10
1667.970585744697
 20
1320.494460905131
 30
0.0
 11
1670.302124035465
 21
1325.494460905116
 31
0.0
  0
LINE
  5
18CA6
330
18C7A
100
AcDbEntity
  8
細線
100
AcDbLine
 10
1527.970593930113
 20
1320.494460905133
 30
0.0
 11
1530.302132220881
 21
1325.494460905118
 31
0.0
  0
LINE
  5
18CA7
330
18C7A
100
AcDbEntity
  8
細線
100
AcDbLine
 10
1597.970602115529
 20
1320.494443351421
 30
0.0
 11
1595.639055639342
 21
1325.4944609051
 31
0.0
  0
LINE
  5
18CA8
330
18C7A
100
AcDbEntity
  8
細線
100
AcDbLine
 10
1595.639055639342
 20
1325.4944609051
 30
0.0
 11
1530.302132220869
 21
1325.494460905089
 31
0.0
  0
ARC
  5
18CA9
330
18C7A
100
AcDbEntity
  8
部品1
 48
0.01
100
AcDbCircle
 10
1483.470482677778
 20
1319.493338720063
 30
0.0
 40
0.5
100
AcDbArc
 50
270.0
 51
0.0
  0
LINE
  5
18CAA
330
18C7A
100
AcDbEntity
  8
部品1
 48
0.01
100
AcDbLine
 10
1483.970482677778
 20
1320.493338720063
 30
0.0
 11
1483.970482677778
 21
1319.493338720063
 31
0.0
  0
LINE
  5
18CAB
330
18C7A
100
AcDbEntity
  8
部品1
 48
0.01
100
AcDbLine
 10
1483.970482677778
 20
1320.493338720063
 30
0.0
 11
1483.970482677778
 21
1319.493338720063
 31
0.0
  0
LINE
  5
18CAC
330
18C7A
100
AcDbEntity
  8
部品1
 48
0.01
100
AcDbLine
 10
1483.470482677778
 20
1318.993338720063
 30
0.0
 11
1476.857977247713
 21
1318.993338720062
 31
0.0
  0
ARC
  5
18CAD
330
18C7A
100
AcDbEntity
  8
部品1
100
AcDbCircle
 10
1476.926326800494
 20
1319.993338720062
 30
0.0
 40
1.0
100
AcDbArc
 50
160.5287793655865
 51
270.0
  0
ARC
  5
18CAE
330
18C7A
100
AcDbEntity
  8
部品1
100
AcDbCircle
 10
1451.470482677778
 20
1328.993338720062
 30
0.0
 40
26.0
100
AcDbArc
 50
340.5287793655865
 51
0.0
  0
LINE
  5
18CAF
330
18C7A
100
AcDbEntity
  8
部品1
100
AcDbLine
 10
1477.470482677778
 20
1328.993338720062
 30
0.0
 11
1477.470482677778
 21
1333.993338720061
 31
0.0
  0
ARC
  5
18CB0
330
18C7A
100
AcDbEntity
  8
部品1
 48
0.01
100
AcDbCircle
 10
1475.470482677778
 20
1333.993338720061
 30
0.0
 40
2.0
100
AcDbArc
 50
0.0
 51
90.0
  0
ARC
  5
18CB1
330
18C7A
100
AcDbEntity
  8
部品1
100
AcDbCircle
 10
1473.862091052968
 20
1332.993338720062
 30
0.0
 40
3.0
100
AcDbArc
 50
90.0
 51
141.6069559808035
  0
LINE
  5
18CB2
330
18C7A
100
AcDbEntity
  8
部品1
 48
0.01
100
AcDbLine
 10
1475.470482677778
 20
1335.993338720062
 30
0.0
 11
1473.862091052968
 21
1335.993338720062
 31
0.0
  0
ARC
  5
18CB3
330
18C7A
100
AcDbEntity
  8
部品1
100
AcDbCircle
 10
1455.399768463507
 20
1332.293338720065
 30
0.0
 40
3.0
100
AcDbArc
 50
254.0576313943215
 51
270.0
  0
ARC
  5
18CB4
330
18C7A
100
AcDbEntity
  8
部品1
100
AcDbCircle
 10
1462.541196892049
 20
1332.293338720065
 30
0.0
 40
3.0
100
AcDbArc
 50
270.0
 51
285.9423686056786
  0
LINE
  5
18CB5
330
18C7A
100
AcDbEntity
  8
部品1
100
AcDbLine
 10
1462.541196892049
 20
1329.293338720064
 30
0.0
 11
1455.399768463507
 21
1329.293338720064
 31
0.0
  0
ARC
  5
18CB6
330
18C7A
100
AcDbEntity
  8
部品1
100
AcDbCircle
 10
1458.970482677778
 20
1344.793338720065
 30
0.0
 40
16.0
100
AcDbArc
 50
285.9423686056786
 51
321.6069559808035
  0
LINE
  5
18CB7
330
18C7A
100
AcDbEntity
  8
部品1
 48
0.01
100
AcDbLine
 10
1442.470482677778
 20
1335.993338720062
 30
0.0
 11
1444.078874302588
 21
1335.993338720062
 31
0.0
  0
ARC
  5
18CB8
330
18C7A
100
AcDbEntity
  8
部品1
100
AcDbCircle
 10
1444.078874302588
 20
1332.993338720062
 30
0.0
 40
3.0
100
AcDbArc
 50
38.39304401919648
 51
90.0
  0
ARC
  5
18CB9
330
18C7A
100
AcDbEntity
  8
部品1
100
AcDbCircle
 10
1458.970482677778
 20
1344.793338720065
 30
0.0
 40
16.0
100
AcDbArc
 50
218.3930440191965
 51
254.0576313943215
  0
LINE
  5
18CBA
330
18C7A
100
AcDbEntity
  8
部品1
100
AcDbLine
 10
1440.470482677778
 20
1328.993338720062
 30
0.0
 11
1440.470482677778
 21
1333.993338720061
 31
0.0
  0
ARC
  5
18CBB
330
18C7A
100
AcDbEntity
  8
部品1
 48
0.01
100
AcDbCircle
 10
1442.470482677778
 20
1333.993338720061
 30
0.0
 40
2.0
100
AcDbArc
 50
90.0
 51
180.0
  0
ARC
  5
18CBC
330
18C7A
100
AcDbEntity
  8
部品1
100
AcDbCircle
 10
1466.470482677778
 20
1328.993338720062
 30
0.0
 40
26.0
100
AcDbArc
 50
180.0
 51
199.4712206344134
  0
ARC
  5
18CBD
330
18C7A
100
AcDbEntity
  8
部品1
 48
0.01
100
AcDbCircle
 10
1434.470482677778
 20
1319.493338720063
 30
0.0
 40
0.5
100
AcDbArc
 50
180.0
 51
270.0
  0
LINE
  5
18CBE
330
18C7A
100
AcDbEntity
  8
部品1
 48
0.01
100
AcDbLine
 10
1434.470482677778
 20
1318.993338720063
 30
0.0
 11
1441.014638555061
 21
1318.993338720062
 31
0.0
  0
LINE
  5
18CBF
330
18C7A
100
AcDbEntity
  8
部品1
 48
0.01
100
AcDbLine
 10
1433.970482677778
 20
1320.493338720063
 30
0.0
 11
1433.970482677778
 21
1319.493338720063
 31
0.0
  0
ARC
  5
18CC0
330
18C7A
100
AcDbEntity
  8
部品1
100
AcDbCircle
 10
1441.014638555061
 20
1319.993338720062
 30
0.0
 40
1.0
100
AcDbArc
 50
270.0
 51
19.47122063441346
  0
LINE
  5
18CC1
330
18C7A
100
AcDbEntity
  8
細線
100
AcDbLine
 10
1479.470482677785
 20
1338.493338720065
 30
0.0
 11
1438.470482677785
 21
1338.493338720058
 31
0.0
  0
LINE
  5
18CC2
330
18C7A
100
AcDbEntity
  8
細線
100
AcDbLine
 10
1438.470482677785
 20
1338.493338720058
 30
0.0
 11
1438.470482677785
 21
1320.49333872004
 31
0.0
  0
LINE
  5
18CC3
330
18C7A
100
AcDbEntity
  8
細線
100
AcDbLine
 10
1479.470482677785
 20
1338.493338720065
 30
0.0
 11
1479.470482677785
 21
1320.49333872004
 31
0.0
  0
LINE
  5
18CC4
330
18C7A
100
AcDbEntity
  8
細線
100
AcDbLine
 10
1322.970589276523
 20
1324.494269174465
 30
0.0
 11
1322.970589276523
 21
1320.494269174513
 31
0.0
  0
LINE
  5
18CC5
330
18C7A
100
AcDbEntity
  8
寸法
 48
50.0
100
AcDbLine
 10
1746.17359555837
 20
1170.531020743327
 30
0.0
 11
1694.767587648266
 21
1170.531020743327
 31
0.0
  0
LINE
  5
18CC6
330
18C7A
100
AcDbEntity
  8
寸法
 48
50.0
100
AcDbLine
 10
1694.767587648266
 20
1170.531020743327
 30
0.0
 11
1694.767587648266
 21
1201.841179395494
 31
0.0
  0
LINE
  5
18CC7
330
18C7A
100
AcDbEntity
  8
寸法
 48
50.0
100
AcDbLine
 10
1694.767587648266
 20
1201.841179395494
 30
0.0
 11
1665.006255656843
 21
1201.841179395494
 31
0.0
  0
LINE
  5
18CC8
330
18C7A
100
AcDbEntity
  8
寸法
 48
50.0
100
AcDbLine
 10
1665.006255656843
 20
1201.841179395494
 30
0.0
 11
1720.470591603318
 21
1239.420630324105
 31
0.0
  0
LINE
  5
18CC9
330
18C7A
100
AcDbEntity
  8
寸法
 48
50.0
100
AcDbLine
 10
1775.934927549793
 20
1201.841179395494
 30
0.0
 11
1720.470591603318
 21
1239.420630324105
 31
0.0
  0
LINE
  5
18CCA
330
18C7A
100
AcDbEntity
  8
寸法
 48
50.0
100
AcDbLine
 10
1746.17359555837
 20
1201.841179395494
 30
0.0
 11
1775.934927549793
 21
1201.841179395494
 31
0.0
  0
LINE
  5
18CCB
330
18C7A
100
AcDbEntity
  8
寸法
 48
50.0
100
AcDbLine
 10
1746.17359555837
 20
1170.531020743327
 30
0.0
 11
1746.17359555837
 21
1201.841179395494
 31
0.0
  0
LINE
  5
18CCC
330
18C7A
100
AcDbEntity
  8
寸法
 48
50.0
100
AcDbLine
 10
1694.767587648266
 20
1170.531020743327
 30
0.0
 11
1746.17359555837
 21
1170.531020743327
 31
0.0
  0
LINE
  5
18CCD
330
18C7A
100
AcDbEntity
  8
寸法
 48
50.0
100
AcDbLine
 10
2025.339129835225
 20
1227.676611498152
 30
0.0
 11
2025.339129835225
 21
1174.01297691636
 31
0.0
  0
LINE
  5
18CCE
330
18C7A
100
AcDbEntity
  8
寸法
 48
50.0
100
AcDbLine
 10
2114.623348430647
 20
1203.752977228664
 30
0.0
 11
2025.339129835225
 21
1227.676611498152
 31
0.0
  0
LINE
  5
18CCF
330
18C7A
100
AcDbEntity
  8
寸法
 48
50.0
100
AcDbLine
 10
1895.471408254923
 20
1203.752977228664
 30
0.0
 11
2114.623348430647
 21
1203.752977228664
 31
0.0
  0
DIMENSION
  5
18CD0
330
18C7A
100
AcDbEntity
  8
寸法
 48
50.0
100
AcDbDimension
  2
*D15
 10
2588.970589276523
 20
706.3240511224249
 30
0.0
 11
1969.060022905491
 21
706.3240511224249
 31
0.0
 12
-3742.925985830444
 22
-6453.628869860112
 32
0.0
 70
   128
  1
有効開口部間口\P<>
 71
     5
 42
1266.0
  3
INABA_S40G
100
AcDbAlignedDimension
 13
1322.970589276523
 23
1315.494269174465
 33
0.0
 14
2588.970589276523
 24
1315.494269174465
 34
0.0
100
AcDbRotatedDimension
1001
ACAD
1000
DSTYLE
1002
{
1070
   341
1005
0
1002
}
  0
LINE
  5
18CD1
330
18C7A
100
AcDbEntity
  8
部品1
100
AcDbLine
 10
3409.970589276524
 20
1392.494269174465
 30
0.0
 11
3437.970589276523
 21
1392.494269174465
 31
0.0
  0
DIMENSION
  5
18CD2
330
18C7A
100
AcDbEntity
  8
寸法
100
AcDbDimension
  2
*D16
 10
3674.266172669749
 20
1315.494269174465
 30
0.0
 11
3674.266172669748
 21
1177.494269174462
 31
0.0
 12
-3742.925985830444
 22
-6453.628869860112
 32
0.0
 70
   128
 71
     5
 42
77.0
  3
INABA_S40
100
AcDbAlignedDimension
 13
3437.970589276523
 23
1392.494269174465
 33
0.0
 14
3436.970589276523
 24
1315.494269174465
 34
0.0
 50
90.0
100
AcDbRotatedDimension
1001
ACAD
1000
DSTYLE
1002
{
1070
    41
1040
0.5
1070
    44
1040
1.0
1070
   147
1040
0.8
1070
   271
1070
     2
1070
   272
1070
     2
1070
   289
1070
     3
1070
   340
1005
F706
1070
   343
1005
164B4
1070
   344
1005
164B4
1002
}
  0
LINE
  5
18CD3
330
18C7A
100
AcDbEntity
  8
部品1
100
AcDbLine
 10
3437.970589276523
 20
1315.494269174465
 30
0.0
 11
3437.970589276523
 21
1392.494269174465
 31
0.0
  0
LINE
  5
18CD4
330
18C7A
100
AcDbEntity
  8
部品1
100
AcDbLine
 10
3398.970589276523
 20
1388.494269174465
 30
0.0
 11
3409.970589276524
 21
1388.494269174465
 31
0.0
  0
LINE
  5
18CD5
330
18C7A
100
AcDbEntity
  8
部品1
100
AcDbLine
 10
3407.970589276523
 20
1324.494269174465
 30
0.0
 11
3407.970589276523
 21
1315.494269174465
 31
0.0
  0
LINE
  5
18CD6
330
18C7A
100
AcDbEntity
  8
部品1
100
AcDbLine
 10
3398.970589276523
 20
1324.494269174465
 30
0.0
 11
3407.970589276523
 21
1324.494269174465
 31
0.0
  0
LINE
  5
18CD7
330
18C7A
100
AcDbEntity
  8
部品1
100
AcDbLine
 10
3398.970589276523
 20
1388.494269174465
 30
0.0
 11
3398.970589276523
 21
1324.494269174465
 31
0.0
  0
LINE
  5
18CD8
330
18C7A
100
AcDbEntity
  8
部品1
100
AcDbLine
 10
3409.970589276524
 20
1419.494269174465
 30
0.0
 11
3409.970589276524
 21
1388.494269174465
 31
0.0
  0
LINE
  5
18CD9
330
18C7A
100
AcDbEntity
  8
部品1
100
AcDbLine
 10
1322.970589276523
 20
1388.494269174465
 30
0.0
 11
1311.970589276523
 21
1388.494269174465
 31
0.0
  0
LINE
  5
18CDA
330
18C7A
100
AcDbEntity
  8
部品1
100
AcDbLine
 10
1283.970589276523
 20
1392.494269174465
 30
0.0
 11
1311.970589276523
 21
1392.494269174465
 31
0.0
  0
LINE
  5
18CDB
330
18C7A
100
AcDbEntity
  8
部品1
100
AcDbLine
 10
1313.970589276523
 20
1324.494269174465
 30
0.0
 11
1313.970589276523
 21
1315.494269174465
 31
0.0
  0
LINE
  5
18CDC
330
18C7A
100
AcDbEntity
  8
部品1
100
AcDbLine
 10
1322.970589276523
 20
1324.494269174465
 30
0.0
 11
1313.970589276523
 21
1324.494269174465
 31
0.0
  0
LINE
  5
18CDD
330
18C7A
100
AcDbEntity
  8
部品1
100
AcDbLine
 10
1313.970589276523
 20
1315.494269174465
 30
0.0
 11
1283.970589276523
 21
1315.494269174465
 31
0.0
  0
LINE
  5
18CDE
330
18C7A
100
AcDbEntity
  8
部品1
100
AcDbLine
 10
1283.970589276523
 20
1315.494269174465
 30
0.0
 11
1283.970589276523
 21
1392.494269174465
 31
0.0
  0
LINE
  5
18CDF
330
18C7A
100
AcDbEntity
  8
部品1
100
AcDbLine
 10
1322.970589276523
 20
1388.494269174465
 30
0.0
 11
1322.970589276523
 21
1324.494269174465
 31
0.0
  0
LINE
  5
18CE0
330
18C7A
100
AcDbEntity
  8
部品1
100
AcDbLine
 10
1311.970589276523
 20
1419.494269174462
 30
0.0
 11
1311.970589276523
 21
1388.494269174465
 31
0.0
  0
LINE
  5
18CE1
330
18C7A
100
AcDbEntity
  8
部品1
100
AcDbLine
 10
1311.970589276523
 20
1419.494269174462
 30
0.0
 11
3409.970589276524
 21
1419.494269174465
 31
0.0
  0
LINE
  5
18CE2
330
18C7A
100
AcDbEntity
  8
部品1
100
AcDbLine
 10
3407.970589276523
 20
1315.494269174465
 30
0.0
 11
3437.970589276523
 21
1315.494269174465
 31
0.0
  0
LINE
  5
18CE3
330
18C7A
100
AcDbEntity
  8
部品1
100
AcDbLine
 10
1313.970589276523
 20
1315.494269174465
 30
0.0
 11
3410.970589276523
 21
1315.494269174465
 31
0.0
  0
LINE
  5
18CE4
330
18C7A
100
AcDbEntity
  8
細線
  6
Continuous
 62
     5
100
AcDbLine
 10
2689.970589276527
 20
1354.494269174462
 30
0.0
 11
2689.970589276527
 21
1354.494269174462
 31
0.0
  0
LINE
  5
18CE5
330
18C7A
100
AcDbEntity
  8
細線
  6
Continuous
 62
     5
100
AcDbLine
 10
2682.470589276527
 20
1354.494269174462
 30
0.0
 11
2682.470589276527
 21
1354.494269174462
 31
0.0
  0
LINE
  5
18CE6
330
18C7A
100
AcDbEntity
  8
細線
  6
Continuous
 62
     5
100
AcDbLine
 10
2676.470589276527
 20
1354.494269174462
 30
0.0
 11
2676.470589276527
 21
1354.494269174462
 31
0.0
  0
LINE
  5
18CE7
330
18C7A
100
AcDbEntity
  8
細線
  6
Continuous
 62
     5
100
AcDbLine
 10
2743.970589276527
 20
1373.494269174462
 30
0.0
 11
2743.970589276527
 21
1373.494269174462
 31
0.0
  0
LINE
  5
18CE8
330
18C7A
100
AcDbEntity
  8
細線
 48
50.0
100
AcDbLine
 10
1336.970593930116
 20
1341.094443351418
 30
0.0
 11
1336.970593930113
 21
1349.490593759059
 31
0.0
  0
LINE
  5
18CE9
330
18C7A
100
AcDbEntity
  8
細線
 48
50.0
100
AcDbLine
 10
1336.970593930113
 20
1349.490593759059
 30
0.0
 11
1322.970589276523
 21
1349.490593759057
 31
0.0
  0
LINE
  5
18CEA
330
18C7A
100
AcDbEntity
  8
細線
 48
50.0
100
AcDbLine
 10
2087.970593930113
 20
1337.644443351419
 30
0.0
 11
2087.970593930113
 21
1342.494443351421
 31
0.0
  0
LINE
  5
18CEB
330
18C7A
100
AcDbEntity
  8
細線
 48
50.0
100
AcDbLine
 10
2087.970593930113
 20
1342.494443351421
 30
0.0
 11
2102.970593930113
 21
1342.494443351421
 31
0.0
  0
LINE
  5
18CEC
330
18C7A
100
AcDbEntity
  8
細線
 48
50.0
100
AcDbLine
 10
2102.970593930113
 20
1342.494443351421
 30
0.0
 11
2102.970593930115
 21
1349.494443351419
 31
0.0
  0
LINE
  5
18CED
330
18C7A
100
AcDbEntity
  8
細線
 48
50.0
100
AcDbLine
 10
2102.970593930115
 20
1349.494443351419
 30
0.0
 11
2117.970593930113
 21
1349.494443351419
 31
0.0
  0
LINE
  5
18CEE
330
18C7A
100
AcDbEntity
  8
細線
 48
50.0
100
AcDbLine
 10
2117.970593930113
 20
1349.494443351419
 30
0.0
 11
2117.970593930113
 21
1320.494443351421
 31
0.0
  0
LINE
  5
18CEF
330
18C7A
100
AcDbEntity
  8
細線
 48
50.0
100
AcDbLine
 10
1313.970589276523
 20
1320.491777694889
 30
0.0
 11
1527.970593930113
 21
1320.494460905133
 31
0.0
  0
LINE
  5
18CF0
330
18C7A
100
AcDbEntity
  8
細線
 48
50.0
100
AcDbLine
 10
2017.970593930113
 20
1320.494443351421
 30
0.0
 11
2117.970593930113
 21
1320.494443351421
 31
0.0
  0
LINE
  5
18CF1
330
18C7A
100
AcDbEntity
  8
細線
 48
50.0
100
AcDbLine
 10
1737.970593930113
 20
1320.494443351419
 30
0.0
 11
1807.970593930113
 21
1320.494443351423
 31
0.0
  0
LINE
  5
18CF2
330
18C7A
100
AcDbEntity
  8
細線
 48
50.0
100
AcDbLine
 10
1750.832558942642
 20
1320.494443351419
 30
0.0
 11
1756.588076525309
 21
1338.765294641913
 31
0.0
  0
LINE
  5
18CF3
330
18C7A
100
AcDbEntity
  8
細線
 48
50.0
100
AcDbLine
 10
1756.588076525309
 20
1338.765294641913
 30
0.0
 11
1767.516525005743
 21
1338.765294641911
 31
0.0
  0
ARC
  5
18CF4
330
18C7A
100
AcDbEntity
  8
細線
 48
50.0
100
AcDbCircle
 10
1767.516525005743
 20
1337.765294641911
 30
0.0
 40
1.0
100
AcDbArc
 50
24.62431835207225
 51
90.0
  0
ARC
  5
18CF5
330
18C7A
100
AcDbEntity
  8
細線
 48
50.0
100
AcDbCircle
 10
1778.425237120377
 20
1337.765294641911
 30
0.0
 40
1.0
100
AcDbArc
 50
90.0
 51
155.3756816479277
  0
ARC
  5
18CF6
330
18C7A
100
AcDbEntity
  8
細線
 48
50.0
100
AcDbCircle
 10
1772.970881063058
 20
1340.265294641911
 30
0.0
 40
5.0
100
AcDbArc
 50
204.6243183520723
 51
335.3756816479278
  0
LINE
  5
18CF7
330
18C7A
100
AcDbEntity
  8
細線
 48
50.0
100
AcDbLine
 10
1778.425237120377
 20
1338.765294641911
 30
0.0
 11
1789.35368560081
 21
1338.765294641913
 31
0.0
  0
LINE
  5
18CF8
330
18C7A
100
AcDbEntity
  8
細線
 48
50.0
100
AcDbLine
 10
1789.35368560081
 20
1338.765294641913
 30
0.0
 11
1795.109203183478
 21
1320.494443351423
 31
0.0
  0
LINE
  5
18CF9
330
18C7A
100
AcDbEntity
  8
細線
 48
50.0
100
AcDbLine
 10
2087.970593930113
 20
1341.094443351419
 30
0.0
 11
1336.970593930116
 21
1341.094443351418
 31
0.0
  0
LINE
  5
18CFA
330
18C7A
100
AcDbEntity
  8
細線
 48
50.0
100
AcDbLine
 10
1947.970593930113
 20
1320.494443351421
 30
0.0
 11
1877.970593930113
 21
1320.494443351421
 31
0.0
  0
LINE
  5
18CFB
330
18C7A
100
AcDbEntity
  8
細線
100
AcDbLine
 10
1667.970593930113
 20
1320.494443351421
 30
0.0
 11
1597.970602115529
 21
1320.494443351421
 31
0.0
  0
LINE
  5
18CFC
330
18C7A
100
AcDbEntity
  8
細線
 48
50.0
100
AcDbLine
 10
2741.970584622936
 20
1375.094487209288
 30
0.0
 11
2106.970593930113
 21
1375.094487209284
 31
0.0
  0
LINE
  5
18CFD
330
18C7A
100
AcDbEntity
  8
細線
 48
50.0
100
AcDbLine
 10
2106.970593930113
 20
1371.990637616925
 30
0.0
 11
2106.970593930113
 21
1376.490637616925
 31
0.0
  0
LINE
  5
18CFE
330
18C7A
100
AcDbEntity
  8
細線
 48
50.0
100
AcDbLine
 10
2106.970593930113
 20
1376.490637616925
 30
0.0
 11
2091.970593930113
 21
1376.490637616925
 31
0.0
  0
LINE
  5
18CFF
330
18C7A
100
AcDbEntity
  8
細線
 48
50.0
100
AcDbLine
 10
2091.970593930113
 20
1376.490637616925
 30
0.0
 11
2091.970593930113
 21
1383.490637616927
 31
0.0
  0
LINE
  5
18D00
330
18C7A
100
AcDbEntity
  8
細線
 48
50.0
100
AcDbLine
 10
2091.970593930113
 20
1383.490637616927
 30
0.0
 11
2076.970593930115
 21
1383.490637616924
 31
0.0
  0
LINE
  5
18D01
330
18C7A
100
AcDbEntity
  8
細線
 48
50.0
100
AcDbLine
 10
2076.970593930115
 20
1383.490637616924
 30
0.0
 11
2076.970593930115
 21
1345.890409513813
 31
0.0
  0
LINE
  5
18D02
330
18C7A
100
AcDbEntity
  8
細線
 48
50.0
100
AcDbLine
 10
2076.970593930115
 20
1345.890409513813
 30
0.0
 11
2096.970601231289
 21
1345.890451063353
 31
0.0
  0
LINE
  5
18D03
330
18C7A
100
AcDbEntity
  8
細線
 48
50.0
100
AcDbLine
 10
2096.970556362348
 20
1354.493912699161
 30
0.0
 11
2096.970601231289
 21
1345.890451063353
 31
0.0
  0
LINE
  5
18D04
330
18C7A
100
AcDbEntity
  8
細線
 48
50.0
100
AcDbLine
 10
2741.970584622936
 20
1371.644487209287
 30
0.0
 11
2741.970584622936
 21
1376.494487209284
 31
0.0
  0
LINE
  5
18D05
330
18C7A
100
AcDbEntity
  8
細線
 48
50.0
100
AcDbLine
 10
2741.970584622936
 20
1376.494487209284
 30
0.0
 11
2756.970584622934
 21
1376.494487209285
 31
0.0
  0
LINE
  5
18D06
330
18C7A
100
AcDbEntity
  8
細線
 48
50.0
100
AcDbLine
 10
2756.970584622934
 20
1376.494487209285
 30
0.0
 11
2756.970596256909
 21
1383.494487209331
 31
0.0
  0
LINE
  5
18D07
330
18C7A
100
AcDbEntity
  8
細線
 48
50.0
100
AcDbLine
 10
2756.970596256909
 20
1383.494487209331
 30
0.0
 11
2771.970594427439
 21
1383.494487209329
 31
0.0
  0
LINE
  5
18D08
330
18C7A
100
AcDbEntity
  8
細線
 48
50.0
100
AcDbLine
 10
2771.970594427439
 20
1383.494487209329
 30
0.0
 11
2771.970584125617
 21
1354.494281037055
 31
0.0
  0
LINE
  5
18D09
330
18C7A
100
AcDbEntity
  8
細線
 48
50.0
100
AcDbLine
 10
2458.070304175992
 20
1354.494278397076
 30
0.0
 11
2389.470863838818
 21
1354.494283787084
 31
0.0
  0
LINE
  5
18D0A
330
18C7A
100
AcDbEntity
  8
細線
 48
50.0
100
AcDbLine
 10
2096.970556362348
 20
1354.493912699161
 30
0.0
 11
2108.203245717057
 21
1354.494095652309
 31
0.0
  0
ARC
  5
18D0B
330
18C7A
100
AcDbEntity
  8
細線
 48
50.0
100
AcDbCircle
 10
2114.785538024393
 20
1353.294259565922
 30
0.0
 40
1.8
100
AcDbArc
 50
270.0006665777295
 51
345.000555481349
  0
LINE
  5
18D0C
330
18C7A
100
AcDbEntity
  8
細線
 48
50.0
100
AcDbLine
 10
2116.771971470473
 20
1353.753100023201
 30
0.0
 11
2116.524209028273
 21
1352.828402141094
 31
0.0
  0
LINE
  5
18D0D
330
18C7A
100
AcDbEntity
  8
細線
 48
50.0
100
AcDbLine
 10
2114.785558965548
 20
1351.494259566043
 30
0.0
 11
2111.155631546781
 21
1351.494217335563
 31
0.0
  0
ARC
  5
18D0E
330
18C7A
100
AcDbEntity
  8
細線
 48
50.0
100
AcDbCircle
 10
2111.155610605627
 20
1353.29421733544
 30
0.0
 40
1.8
100
AcDbArc
 50
195.0010443049965
 51
270.0006665777295
  0
LINE
  5
18D0F
330
18C7A
100
AcDbEntity
  8
細線
 48
50.0
100
AcDbLine
 10
2109.169183113368
 20
1353.752932303007
 30
0.0
 11
2109.416952609882
 21
1352.828311364425
 31
0.0
  0
ARC
  5
18D10
330
18C7A
100
AcDbEntity
  8
細線
 48
50.0
100
AcDbCircle
 10
2108.203262004622
 20
1353.494095652444
 30
0.0
 40
1.0
100
AcDbArc
 50
15.00104430499651
 51
90.00093320877969
  0
LINE
  5
18D11
330
18C7A
100
AcDbEntity
  8
細線
 48
50.0
100
AcDbLine
 10
2117.737892825577
 20
1354.494290342714
 30
0.0
 11
2118.679652976481
 21
1354.494296916564
 31
0.0
  0
ARC
  5
18D12
330
18C7A
100
AcDbEntity
  8
細線
 48
50.0
100
AcDbCircle
 10
2117.737899805961
 20
1353.49429034274
 30
0.0
 40
1.0
100
AcDbArc
 50
90.0003999466794
 51
165.000555481349
  0
LINE
  5
18D13
330
18C7A
100
AcDbEntity
  8
細線
 48
50.0
100
AcDbLine
 10
2669.470584622926
 20
1354.494281037055
 30
0.0
 11
2771.970584125617
 21
1354.494281037055
 31
0.0
  0
LINE
  5
18D14
330
18C7A
100
AcDbEntity
  8
細線
 48
50.0
100
AcDbLine
 10
2179.47061994182
 20
1354.494289224422
 30
0.0
 11
2118.370558714898
 21
1354.494296916564
 31
0.0
  0
LINE
  5
18D15
330
18C7A
100
AcDbEntity
  8
細線
 48
50.0
100
AcDbLine
 10
2599.470584622926
 20
1354.494281037057
 30
0.0
 11
2529.470584622926
 21
1354.494281037055
 31
0.0
  0
LINE
  5
18D16
330
18C7A
100
AcDbEntity
  8
細線
 48
50.0
100
AcDbLine
 10
2319.470584622926
 20
1354.494281037054
 30
0.0
 11
2249.470567335051
 21
1354.494281037057
 31
0.0
  0
ARC
  5
18D17
330
18C7A
100
AcDbEntity
  8
細線
 48
50.0
100
AcDbCircle
 10
2756.170589276533
 20
1387.694269174466
 30
0.0
 40
0.8
100
AcDbArc
 50
359.9997333689499
 51
89.99986668437072
  0
ARC
  5
18D18
330
18C7A
100
AcDbEntity
  8
細線
 48
50.0
100
AcDbCircle
 10
2763.770596101631
 20
1387.694280343081
 30
0.0
 40
0.8
100
AcDbArc
 50
90.00014387753465
 51
179.9997333689498
  0
LINE
  5
18D19
330
18C7A
100
AcDbEntity
  8
細線
 48
50.0
100
AcDbLine
 10
2756.170591137969
 20
1388.494269174465
 30
0.0
 11
2750.970589276525
 21
1388.494269174465
 31
0.0
  0
ARC
  5
18D1A
330
18C7A
100
AcDbEntity
  8
細線
 48
50.0
100
AcDbCircle
 10
2757.670589276524
 20
1386.194269174464
 30
0.0
 40
0.7
100
AcDbArc
 50
180.0
 51
270.0
  0
ARC
  5
18D1B
330
18C7A
100
AcDbEntity
  8
細線
 48
50.0
100
AcDbCircle
 10
2762.270589276524
 20
1386.194269174464
 30
0.0
 40
0.7
100
AcDbArc
 50
270.0
 51
0.0
  0
LINE
  5
18D1C
330
18C7A
100
AcDbEntity
  8
細線
 48
50.0
100
AcDbLine
 10
2762.970589276525
 20
1386.194269174464
 30
0.0
 11
2762.970596101639
 21
1387.694284065954
 31
0.0
  0
LINE
  5
18D1D
330
18C7A
100
AcDbEntity
  8
細線
 48
50.0
100
AcDbLine
 10
2757.670589276524
 20
1385.494269174465
 30
0.0
 11
2762.270589276524
 21
1385.494269174465
 31
0.0
  0
LINE
  5
18D1E
330
18C7A
100
AcDbEntity
  8
細線
 48
50.0
100
AcDbLine
 10
2756.970589276525
 20
1387.694269174466
 30
0.0
 11
2756.970589276525
 21
1386.194269174464
 31
0.0
  0
LINE
  5
18D1F
330
18C7A
100
AcDbEntity
  8
細線
 48
50.0
100
AcDbLine
 10
3382.570589276527
 20
1418.494269174465
 30
0.0
 11
2745.970589276525
 21
1418.494269174463
 31
0.0
  0
LINE
  5
18D20
330
18C7A
100
AcDbEntity
  8
細線
 48
50.0
100
AcDbLine
 10
3408.470589276525
 20
1413.494269174467
 30
0.0
 11
3392.570589276527
 21
1413.494269174465
 31
0.0
  0
LINE
  5
18D21
330
18C7A
100
AcDbEntity
  8
細線
 48
50.0
100
AcDbLine
 10
3392.570589276526
 20
1413.494269174465
 30
0.0
 11
3382.570589276527
 21
1418.494269174465
 31
0.0
  0
LINE
  5
18D22
330
18C7A
100
AcDbEntity
  8
細線
100
AcDbLine
 10
2993.470589276525
 20
1388.494269174465
 30
0.0
 11
2993.470589276525
 21
1417.794269174464
 31
0.0
  0
LINE
  5
18D23
330
18C7A
100
AcDbEntity
  8
細線
100
AcDbLine
 10
2993.470589276525
 20
1417.794269174464
 30
0.0
 11
3013.470589276525
 21
1417.794269174464
 31
0.0
  0
LINE
  5
18D24
330
18C7A
100
AcDbEntity
  8
細線
100
AcDbLine
 10
3013.470589276525
 20
1388.494269174465
 30
0.0
 11
3013.470589276525
 21
1417.794269174464
 31
0.0
  0
LINE
  5
18D25
330
18C7A
100
AcDbEntity
  8
細線
100
AcDbLine
 10
3170.720589276524
 20
1388.494269174465
 30
0.0
 11
3100.720589276523
 21
1388.494269174465
 31
0.0
  0
LINE
  5
18D26
330
18C7A
100
AcDbEntity
  8
細線
 48
50.0
100
AcDbLine
 10
2890.720589276525
 20
1388.494269174465
 30
0.0
 11
2763.766368849365
 21
1388.494269174465
 31
0.0
  0
LINE
  5
18D27
330
18C7A
100
AcDbEntity
  8
細線
100
AcDbLine
 10
3030.720589276525
 20
1388.494269174465
 30
0.0
 11
2960.720589276525
 21
1388.494269174465
 31
0.0
  0
LINE
  5
18D28
330
18C7A
100
AcDbEntity
  8
細線
 48
50.0
100
AcDbLine
 10
2750.970589276525
 20
1380.494269174465
 30
0.0
 11
2750.970589276525
 21
1388.494269174465
 31
0.0
  0
LINE
  5
18D29
330
18C7A
100
AcDbEntity
  8
細線
 48
50.0
100
AcDbLine
 10
2730.970589276524
 20
1380.494269174467
 30
0.0
 11
2750.970589276525
 21
1380.494269174465
 31
0.0
  0
LINE
  5
18D2A
330
18C7A
100
AcDbEntity
  8
細線
 48
50.0
100
AcDbLine
 10
2745.970589276525
 20
1418.494269174465
 30
0.0
 11
2745.970589276525
 21
1413.494269174465
 31
0.0
  0
LINE
  5
18D2B
330
18C7A
100
AcDbEntity
  8
細線
 48
50.0
100
AcDbLine
 10
2730.970589276525
 20
1418.494269174463
 30
0.0
 11
2745.970589276525
 21
1418.494269174465
 31
0.0
  0
LINE
  5
18D2C
330
18C7A
100
AcDbEntity
  8
細線
 48
50.0
100
AcDbLine
 10
2730.970589276524
 20
1380.494269174467
 30
0.0
 11
2730.970589276525
 21
1418.494269174463
 31
0.0
  0
LINE
  5
18D2D
330
18C7A
100
AcDbEntity
  8
細線
100
AcDbLine
 10
3398.970589276523
 20
1388.494269174465
 30
0.0
 11
3240.720589276525
 21
1388.494269174465
 31
0.0
  0
LINE
  5
18D2E
330
18C7A
100
AcDbEntity
  8
細線
 48
50.0
100
AcDbLine
 10
3408.470589276525
 20
1413.494269174467
 30
0.0
 11
3408.470589276524
 21
1388.494269174465
 31
0.0
  0
TEXT
  5
18D2F
330
18C7A
100
AcDbEntity
  8
部品1
100
AcDbText
 10
1860.154865991392
 20
46.99880823813145
 30
0.0
 40
135.0
  1
平面図
  7
STYLE2
100
AcDbText
  0
LWPOLYLINE
  5
18D30
330
18C7A
100
AcDbEntity
  8
部品1
100
AcDbPolyline
 90
        4
 70
     1
 43
0.0
 10
1770.23525616235
 20
239.8923374566548
 10
1770.23525616235
 20
0.0000159111223184
 10
2533.705922390791
 20
0.0000159111223184
 10
2533.705922390791
 20
239.8923374566548
  0
LINE
  5
18D31
330
18C7A
100
AcDbEntity
  8
部品1
100
AcDbLine
 10
1534.470589276487
 20
3154.494269174626
 30
0.0
 11
2769.470589276552
 21
3154.494269174626
 31
0.0
  0
LINE
  5
18D32
330
18C7A
100
AcDbEntity
  8
部品1
 48
50.0
100
AcDbLine
 10
1311.970589276523
 20
1420.494269174462
 30
0.0
 11
3411.970589276523
 21
1420.494269174465
 31
0.0
  0
LINE
  5
18D33
330
18C7A
100
AcDbEntity
  8
部品1
 48
50.0
100
AcDbLine
 10
471.9705892765232
 20
1392.494269174465
 30
0.0
 11
1311.970589276523
 21
1392.494269174465
 31
0.0
  0
DIMENSION
  5
18D34
330
18C7A
100
AcDbEntity
  8
寸法
100
AcDbDimension
  2
*D14
 10
2710.234916278077
 20
2488.887829538828
 30
0.0
 11
2338.318822490183
 21
2488.887829538828
 31
0.0
 12
-3742.925985830444
 22
-6453.628869860112
 32
0.0
 70
   128
 71
     5
 42
1231.00000000007
  3
INABA_S40G
100
AcDbAlignedDimension
 13
1536.470589276486
 23
2702.494269174557
 33
0.0
 14
2767.470589276556
 24
2702.494269174549
 34
0.0
100
AcDbRotatedDimension
1001
ACAD
1000
DSTYLE
1002
{
1002
}
  0
LINE
  5
18D35
330
18C7A
100
AcDbEntity
  8
部品1
100
AcDbLine
 10
1536.470589276487
 20
2702.494269174557
 30
0.0
 11
2767.470589276554
 21
2702.494269174615
 31
0.0
  0
LINE
  5
18D36
330
18C7A
100
AcDbEntity
  8
部品1
100
AcDbLine
 10
1536.470589276487
 20
3152.494269174557
 30
0.0
 11
2767.470589276556
 21
3152.494269174615
 31
0.0
  0
LINE
  5
18D37
330
18C7A
100
AcDbEntity
  8
細線
 48
50.0
100
AcDbLine
 10
1508.470589276487
 20
3152.494269174558
 30
0.0
 11
445.4705892765559
 21
2702.494269174509
 31
0.0
  0
LINE
  5
18D38
330
18C7A
100
AcDbEntity
  8
細線
 48
50.0
100
AcDbLine
 10
1508.470589276487
 20
2702.494269174558
 30
0.0
 11
445.4705892765542
 21
3152.494269174509
 31
0.0
  0
LINE
  5
18D39
330
18C7A
100
AcDbEntity
  8
部品1
100
AcDbLine
 10
1556.970589276487
 20
3172.494269174611
 30
0.0
 11
1556.970589276487
 21
3154.494269174611
 31
0.0
  0
LINE
  5
18D3A
330
18C7A
100
AcDbEntity
  8
部品1
100
AcDbLine
 10
1556.970589276487
 20
3172.494269174611
 30
0.0
 11
1550.970589276487
 21
3172.494269174611
 31
0.0
  0
LINE
  5
18D3B
330
18C7A
100
AcDbEntity
  8
部品1
100
AcDbLine
 10
1534.470589276487
 20
3146.494269174608
 30
0.0
 11
1509.470589276487
 21
3146.494269174611
 31
0.0
  0
LINE
  5
18D3C
330
18C7A
100
AcDbEntity
  8
部品1
100
AcDbLine
 10
1486.970589276487
 20
3172.494269174611
 30
0.0
 11
1486.970589276487
 21
3154.494269174611
 31
0.0
  0
LINE
  5
18D3D
330
18C7A
100
AcDbEntity
  8
部品1
100
AcDbLine
 10
1492.970589276487
 20
3172.494269174611
 30
0.0
 11
1486.970589276487
 21
3172.494269174611
 31
0.0
  0
LINE
  5
18D3E
330
18C7A
100
AcDbEntity
  8
部品1
100
AcDbLine
 10
1534.470589276487
 20
2702.494269174615
 30
0.0
 11
1509.470589276487
 21
2702.494269174615
 31
0.0
  0
LINE
  5
18D3F
330
18C7A
100
AcDbEntity
  8
部品1
 48
50.0
100
AcDbLine
 10
1536.470589276487
 20
3152.494269174611
 30
0.0
 11
1536.470589276487
 21
2702.494269174615
 31
0.0
  0
LINE
  5
18D40
330
18C7A
100
AcDbEntity
  8
部品1
 48
50.0
100
AcDbLine
 10
1508.470589276487
 20
3152.494269174607
 30
0.0
 11
1508.470589276487
 21
2702.494269174615
 31
0.0
  0
LINE
  5
18D41
330
18C7A
100
AcDbEntity
  8
部品1
 48
50.0
100
AcDbLine
 10
1534.470589276487
 20
3154.494269174618
 30
0.0
 11
1534.470589276487
 21
2702.494269174615
 31
0.0
  0
LINE
  5
18D42
330
18C7A
100
AcDbEntity
  8
部品1
 48
50.0
100
AcDbLine
 10
1509.470589276487
 20
3154.494269174615
 30
0.0
 11
1509.470589276487
 21
2702.494269174615
 31
0.0
  0
LINE
  5
18D43
330
18C7A
100
AcDbEntity
  8
部品1
100
AcDbLine
 10
3411.970589276556
 20
1392.494269174582
 30
0.0
 11
3411.970589276556
 21
1420.494269174596
 31
0.0
  0
LINE
  5
18D44
330
18C7A
100
AcDbEntity
  8
部品1
100
AcDbLine
 10
1311.970589276523
 20
1392.494269174596
 30
0.0
 11
1311.970589276523
 21
1420.494269174596
 31
0.0
  0
LINE
  5
18D45
330
18C7A
100
AcDbEntity
  8
部品1
100
AcDbLine
 10
891.9705892765232
 20
1392.494269174596
 30
0.0
 11
891.9705892765232
 21
1420.494269174596
 31
0.0
  0
LINE
  5
18D46
330
18C7A
100
AcDbEntity
  8
部品1
100
AcDbLine
 10
3411.97058927652
 20
3182.494269174477
 30
0.0
 11
3411.970589276523
 21
3154.494269174477
 31
0.0
  0
LINE
  5
18D47
330
18C7A
100
AcDbEntity
  8
部品1
100
AcDbLine
 10
2571.97058927652
 20
3182.494269174477
 30
0.0
 11
2571.970589276523
 21
3154.494269174477
 31
0.0
  0
LINE
  5
18D48
330
18C7A
100
AcDbEntity
  8
部品1
100
AcDbLine
 10
2991.97058927652
 20
3182.494269174477
 30
0.0
 11
2991.970589276523
 21
3154.494269174477
 31
0.0
  0
LINE
  5
18D49
330
18C7A
100
AcDbEntity
  8
部品1
100
AcDbLine
 10
2151.970589276519
 20
3182.494269174477
 30
0.0
 11
2151.970589276523
 21
3154.494269174477
 31
0.0
  0
LINE
  5
18D4A
330
18C7A
100
AcDbEntity
  8
部品1
100
AcDbLine
 10
1731.970589276519
 20
3182.494269174477
 30
0.0
 11
1731.970589276523
 21
3154.494269174477
 31
0.0
  0
LINE
  5
18D4B
330
18C7A
100
AcDbEntity
  8
部品1
100
AcDbLine
 10
1311.970589276519
 20
3182.494269174477
 30
0.0
 11
1311.970589276523
 21
3154.494269174477
 31
0.0
  0
LINE
  5
18D4C
330
18C7A
100
AcDbEntity
  8
部品1
100
AcDbLine
 10
891.9705892765195
 20
3182.494269174477
 30
0.0
 11
891.9705892765232
 21
3154.494269174477
 31
0.0
  0
LINE
  5
18D4D
330
18C7A
100
AcDbEntity
  8
部品1
100
AcDbLine
 10
471.9705892765232
 20
1392.494269174596
 30
0.0
 11
471.9705892765232
 21
1420.494269174596
 31
0.0
  0
LINE
  5
18D4E
330
18C7A
100
AcDbEntity
  8
部品1
100
AcDbLine
 10
444.9705892765305
 20
1420.494269174558
 30
0.0
 11
3858.970589276556
 21
1420.494269174596
 31
0.0
  0
LINE
  5
18D4F
330
18C7A
100
AcDbEntity
  8
部品1
100
AcDbLine
 10
3831.970589276556
 20
1392.494269174596
 30
0.0
 11
3831.970589276556
 21
1420.494269174596
 31
0.0
  0
LINE
  5
18D50
330
18C7A
100
AcDbEntity
  8
部品1
100
AcDbLine
 10
3858.970589276556
 20
1447.494269174593
 30
0.0
 11
3886.970589276556
 21
1447.494269174593
 31
0.0
  0
LINE
  5
18D51
330
18C7A
100
AcDbEntity
  8
部品1
100
AcDbLine
 10
3858.970589276556
 20
1867.494269174607
 30
0.0
 11
3886.970589276556
 21
1867.494269174607
 31
0.0
  0
LINE
  5
18D52
330
18C7A
100
AcDbEntity
  8
部品1
100
AcDbLine
 10
444.9705892765305
 20
1867.49426917448
 30
0.0
 11
416.9705892765305
 21
1867.49426917448
 31
0.0
  0
LINE
  5
18D53
330
18C7A
100
AcDbEntity
  8
部品1
100
AcDbLine
 10
3830.470589276541
 20
1867.49426917458
 30
0.0
 11
473.4705892765396
 21
1867.49426917448
 31
0.0
  0
LINE
  5
18D54
330
18C7A
100
AcDbEntity
  8
部品1
100
AcDbLine
 10
3830.470589276541
 20
2287.49426917458
 30
0.0
 11
473.4705892765396
 21
2287.49426917448
 31
0.0
  0
LINE
  5
18D55
330
18C7A
100
AcDbEntity
  8
部品1
100
AcDbLine
 10
444.9705892765305
 20
2287.49426917448
 30
0.0
 11
416.9705892765305
 21
2287.49426917448
 31
0.0
  0
LINE
  5
18D56
330
18C7A
100
AcDbEntity
  8
部品1
100
AcDbLine
 10
3858.970589276556
 20
2287.494269174608
 30
0.0
 11
3886.970589276556
 21
2287.494269174608
 31
0.0
  0
LINE
  5
18D57
330
18C7A
100
AcDbEntity
  8
部品1
 48
50.0
100
AcDbLine
 10
2151.970589276551
 20
2702.494269174586
 30
0.0
 11
2151.970589276581
 21
1448.994269174494
 31
0.0
  0
LINE
  5
18D58
330
18C7A
100
AcDbEntity
  8
破線
 48
10.0
100
AcDbLine
 10
2959.470589276535
 20
1472.494269174522
 30
0.0
 11
2176.970589276532
 21
1472.494269174505
 31
0.0
  0
LINE
  5
18D59
330
18C7A
100
AcDbEntity
  8
破線
 48
10.0
100
AcDbLine
 10
3009.47058927653
 20
1448.994269174509
 30
0.0
 11
3009.47058927653
 21
2702.494269174615
 31
0.0
  0
LINE
  5
18D5A
330
18C7A
100
AcDbEntity
  8
破線
 48
10.0
100
AcDbLine
 10
2959.470589276535
 20
1448.994269174505
 30
0.0
 11
2959.470589276531
 21
2702.494269174615
 31
0.0
  0
LINE
  5
18D5B
330
18C7A
100
AcDbEntity
  8
破線
 48
10.0
100
AcDbLine
 10
1344.47058927653
 20
1448.994269174509
 30
0.0
 11
1344.47058927653
 21
2702.494269174615
 31
0.0
  0
LINE
  5
18D5C
330
18C7A
100
AcDbEntity
  8
破線
 48
10.0
100
AcDbLine
 10
1294.470589276534
 20
1448.994269174505
 30
0.0
 11
1294.47058927653
 21
2702.494269174615
 31
0.0
  0
DIMENSION
  5
18D5D
330
18C7A
100
AcDbEntity
  8
寸法
100
AcDbDimension
  2
*D13
 10
1451.234916278005
 20
2488.887829538828
 30
0.0
 11
916.0604668248634
 21
2488.887829538828
 31
0.0
 12
-3742.925985830444
 22
-6453.628869860112
 32
0.0
 70
   128
 71
     5
 42
1062.99999999993
  3
INABA_S40G
100
AcDbAlignedDimension
 13
445.4705892765559
 23
2702.494269174505
 33
0.0
 14
1508.470589276486
 24
2702.494269174558
 34
0.0
100
AcDbRotatedDimension
1001
ACAD
1000
DSTYLE
1002
{
1002
}
  0
LINE
  5
18D5E
330
18C7A
100
AcDbEntity
  8
破線
 48
10.0
100
AcDbLine
 10
1294.470589276534
 20
1472.494269174469
 30
0.0
 11
496.9705892765414
 21
1472.494269174476
 31
0.0
  0
LINE
  5
18D5F
330
18C7A
100
AcDbEntity
  8
部品1
100
AcDbLine
 10
3831.970589276556
 20
3182.494269174604
 30
0.0
 11
3831.970589276556
 21
3154.494269174604
 31
0.0
  0
LINE
  5
18D60
330
18C7A
100
AcDbEntity
  8
部品1
100
AcDbLine
 10
3831.970589276556
 20
3182.494269174626
 30
0.0
 11
3831.970589276556
 21
3154.494269174626
 31
0.0
  0
LINE
  5
18D61
330
18C7A
100
AcDbEntity
  8
部品1
100
AcDbLine
 10
3858.970589276556
 20
3127.494269174607
 30
0.0
 11
3886.970589276556
 21
3127.494269174607
 31
0.0
  0
LINE
  5
18D62
330
18C7A
100
AcDbEntity
  8
部品1
100
AcDbLine
 10
3858.970589276556
 20
2707.494269174608
 30
0.0
 11
3886.970589276556
 21
2707.494269174608
 31
0.0
  0
LINE
  5
18D63
330
18C7A
100
AcDbEntity
  8
部品1
100
AcDbLine
 10
3858.470589276556
 20
3152.494269174604
 30
0.0
 11
3858.470589276556
 21
2702.494269174608
 31
0.0
  0
LINE
  5
18D64
330
18C7A
100
AcDbEntity
  8
部品1
100
AcDbLine
 10
3886.970589276533
 20
1447.494269174593
 30
0.0
 11
3886.970589276531
 21
1392.494269174596
 31
0.0
  0
LINE
  5
18D65
330
18C7A
100
AcDbEntity
  8
部品1
 48
50.0
100
AcDbLine
 10
3830.470589276556
 20
1448.994269174596
 30
0.0
 11
3858.970589276554
 21
1420.494269174596
 31
0.0
  0
LINE
  5
18D66
330
18C7A
100
AcDbEntity
  8
部品1
100
AcDbLine
 10
3886.970589276531
 20
1392.494269174596
 30
0.0
 11
3835.970589276531
 21
1392.494269174596
 31
0.0
  0
LINE
  5
18D67
330
18C7A
100
AcDbEntity
  8
部品1
100
AcDbLine
 10
3858.970589276533
 20
1447.494269174593
 30
0.0
 11
3886.970589276531
 21
1447.494269174593
 31
0.0
  0
LINE
  5
18D68
330
18C7A
100
AcDbEntity
  8
部品1
100
AcDbLine
 10
3886.970589276556
 20
3182.494269174604
 30
0.0
 11
3886.970589276531
 21
1392.494269174596
 31
0.0
  0
DIMENSION
  5
18D69
330
18C7A
100
AcDbEntity
  8
寸法
100
AcDbDimension
  2
*D12
 10
4534.396935010967
 20
1447.494269174593
 30
0.0
 11
4534.396935010965
 21
2287.4942691746
 31
0.0
 12
-3742.925985830444
 22
-6453.628869860112
 32
0.0
 70
   128
  1
4X420=<>
 71
     5
 42
1680.000000000014
  3
INABA_S40G
100
AcDbAlignedDimension
 13
3886.970589276556
 23
3127.494269174607
 33
0.0
 14
3886.970589276531
 24
1447.494269174593
 34
0.0
 50
90.0
100
AcDbRotatedDimension
1001
ACAD
1000
DSTYLE
1002
{
1002
}
  0
LINE
  5
18D6A
330
18C7A
100
AcDbEntity
  8
部品1
100
AcDbLine
 10
3858.970589276556
 20
3154.494269174604
 30
0.0
 11
3858.970589276534
 21
1420.494269174596
 31
0.0
  0
DIMENSION
  5
18D6B
330
18C7A
100
AcDbEntity
  8
寸法
100
AcDbDimension
  2
*D11
 10
4213.82831513858
 20
2607.276453505718
 30
0.0
 11
4113.828315138579
 21
2832.276453505718
 31
0.0
 12
-3742.925985830444
 22
-6453.628869860112
 32
0.0
 71
     5
 42
449.9999999999963
  3
INABA_S40G
100
AcDbAlignedDimension
 13
3858.470589276556
 23
3152.494269174604
 33
0.0
 14
3858.470589276556
 24
2702.494269174608
 34
0.0
 50
90.0
100
AcDbRotatedDimension
1001
ACAD
1000
DSTYLE
1002
{
1002
}
  0
LINE
  5
18D6C
330
18C7A
100
AcDbEntity
  8
部品1
100
AcDbLine
 10
3830.470589276547
 20
2702.494269174608
 30
0.0
 11
3830.470589276556
 21
1448.994269174596
 31
0.0
  0
LINE
  5
18D6D
330
18C7A
100
AcDbEntity
  8
破線
 48
10.0
100
AcDbLine
 10
3806.970589276549
 20
2702.494269174608
 30
0.0
 11
3806.970589276558
 21
1472.494269174593
 31
0.0
  0
LINE
  5
18D6E
330
18C7A
100
AcDbEntity
  8
部品1
100
AcDbLine
 10
2769.470589276556
 20
3146.494269174608
 30
0.0
 11
2794.470589276556
 21
3146.494269174611
 31
0.0
  0
LINE
  5
18D6F
330
18C7A
100
AcDbEntity
  8
部品1
100
AcDbLine
 10
2810.970589276556
 20
3172.494269174611
 30
0.0
 11
2816.970589276556
 21
3172.494269174611
 31
0.0
  0
LINE
  5
18D70
330
18C7A
100
AcDbEntity
  8
部品1
100
AcDbLine
 10
2816.970589276556
 20
3172.494269174611
 30
0.0
 11
2816.970589276556
 21
3154.494269174611
 31
0.0
  0
LINE
  5
18D71
330
18C7A
100
AcDbEntity
  8
部品1
100
AcDbLine
 10
2746.970589276556
 20
3172.494269174611
 30
0.0
 11
2752.970589276556
 21
3172.494269174611
 31
0.0
  0
LINE
  5
18D72
330
18C7A
100
AcDbEntity
  8
部品1
100
AcDbLine
 10
2746.970589276556
 20
3172.494269174611
 30
0.0
 11
2746.970589276556
 21
3154.494269174611
 31
0.0
  0
LINE
  5
18D73
330
18C7A
100
AcDbEntity
  8
部品1
100
AcDbLine
 10
2769.470589276556
 20
2702.494269174615
 30
0.0
 11
2794.470589276556
 21
2702.494269174615
 31
0.0
  0
LINE
  5
18D74
330
18C7A
100
AcDbEntity
  8
部品1
 48
50.0
100
AcDbLine
 10
2794.470589276556
 20
3154.494269174615
 30
0.0
 11
2794.470589276556
 21
2702.494269174615
 31
0.0
  0
LINE
  5
18D75
330
18C7A
100
AcDbEntity
  8
部品1
 48
50.0
100
AcDbLine
 10
2769.470589276554
 20
3154.494269174618
 30
0.0
 11
2769.470589276556
 21
2702.494269174615
 31
0.0
  0
LINE
  5
18D76
330
18C7A
100
AcDbEntity
  8
部品1
 48
50.0
100
AcDbLine
 10
2795.470589276556
 20
3152.494269174607
 30
0.0
 11
2795.470589276556
 21
2702.494269174615
 31
0.0
  0
LINE
  5
18D77
330
18C7A
100
AcDbEntity
  8
部品1
 48
50.0
100
AcDbLine
 10
2767.470589276556
 20
3152.494269174611
 30
0.0
 11
2767.470589276556
 21
2702.494269174615
 31
0.0
  0
LINE
  5
18D78
330
18C7A
100
AcDbEntity
  8
破線
 48
10.0
100
AcDbLine
 10
2176.97058927653
 20
1448.994269174509
 30
0.0
 11
2176.97058927653
 21
2702.494269174588
 31
0.0
  0
LINE
  5
18D79
330
18C7A
100
AcDbEntity
  8
破線
 48
10.0
100
AcDbLine
 10
2126.970589276534
 20
1448.994269174505
 30
0.0
 11
2126.970589276531
 21
2702.494269174586
 31
0.0
  0
LINE
  5
18D7A
330
18C7A
100
AcDbEntity
  8
部品1
100
AcDbLine
 10
2794.470589276556
 20
3154.494269174622
 30
0.0
 11
3858.970589276556
 21
3154.494269174604
 31
0.0
  0
LINE
  5
18D7B
330
18C7A
100
AcDbEntity
  8
細線
 48
50.0
100
AcDbLine
 10
3858.470589276556
 20
2702.494269174608
 30
0.0
 11
2795.470589276556
 21
3152.494269174607
 31
0.0
  0
LINE
  5
18D7C
330
18C7A
100
AcDbEntity
  8
部品1
100
AcDbLine
 10
2795.470589276555
 20
2702.494269174615
 30
0.0
 11
3858.470589276556
 21
2702.494269174608
 31
0.0
  0
LINE
  5
18D7D
330
18C7A
100
AcDbEntity
  8
部品1
100
AcDbLine
 10
2795.470589276556
 20
3152.494269174611
 30
0.0
 11
3858.470589276556
 21
3152.494269174604
 31
0.0
  0
LINE
  5
18D7E
330
18C7A
100
AcDbEntity
  8
細線
 48
50.0
100
AcDbLine
 10
3858.470589276556
 20
3152.494269174604
 30
0.0
 11
2795.470589276555
 21
2702.494269174615
 31
0.0
  0
DIMENSION
  5
18D7F
330
18C7A
100
AcDbEntity
  8
寸法
100
AcDbDimension
  2
*D10
 10
3801.234916278101
 20
2488.887829538937
 30
0.0
 11
3318.360544398907
 21
2488.887829538937
 31
0.0
 12
-3742.925985830444
 22
-6453.628869860112
 32
0.0
 70
   128
 71
     5
 42
1063.000000000012
  3
INABA_S40G
100
AcDbAlignedDimension
 13
2795.470589276555
 23
2702.494269174615
 33
0.0
 14
3858.470589276567
 24
2702.494269174608
 34
0.0
100
AcDbRotatedDimension
1001
ACAD
1000
DSTYLE
1002
{
1002
}
  0
LINE
  5
18D80
330
18C7A
100
AcDbEntity
  8
破線
 48
10.0
100
AcDbLine
 10
3806.970589276556
 20
1472.494269174594
 30
0.0
 11
3009.47058927653
 21
1472.494269174523
 31
0.0
  0
DIMENSION
  5
18D81
330
18C7A
100
AcDbEntity
  8
寸法
100
AcDbDimension
  2
*D9
 10
4534.396935010941
 20
1392.494269174596
 30
0.0
 11
4534.39693501094
 21
1084.008987800356
 31
0.0
 12
-3742.925985830444
 22
-6453.628869860112
 32
0.0
 70
   128
 71
     5
 42
54.99999999999636
  3
INABA_S40G
100
AcDbAlignedDimension
 13
3886.970589276531
 23
1447.494269174593
 33
0.0
 14
3886.970589276531
 24
1392.494269174596
 34
0.0
 50
90.0
100
AcDbRotatedDimension
1001
ACAD
1000
DSTYLE
1002
{
1002
}
  0
LINE
  5
18D82
330
18C7A
100
AcDbEntity
  8
部品1
100
AcDbLine
 10
471.9705892765196
 20
3182.494269174477
 30
0.0
 11
471.9705892765232
 21
3154.494269174477
 31
0.0
  0
LINE
  5
18D83
330
18C7A
100
AcDbEntity
  8
部品1
100
AcDbLine
 10
471.9705892765559
 20
3182.494269174509
 30
0.0
 11
471.9705892765559
 21
3154.494269174509
 31
0.0
  0
LINE
  5
18D84
330
18C7A
100
AcDbEntity
  8
部品1
100
AcDbLine
 10
444.9705892765232
 20
3127.49426917448
 30
0.0
 11
416.9705892765232
 21
3127.49426917448
 31
0.0
  0
LINE
  5
18D85
330
18C7A
100
AcDbEntity
  8
部品1
100
AcDbLine
 10
444.9705892765305
 20
2707.49426917448
 30
0.0
 11
416.9705892765305
 21
2707.49426917448
 31
0.0
  0
LINE
  5
18D86
330
18C7A
100
AcDbEntity
  8
部品1
 48
50.0
100
AcDbLine
 10
445.4705892765542
 20
3152.494269174506
 30
0.0
 11
445.4705892765559
 21
2702.494269174505
 31
0.0
  0
LINE
  5
18D87
330
18C7A
100
AcDbEntity
  8
部品1
 48
50.0
100
AcDbLine
 10
473.470589276545
 20
1448.994269174573
 30
0.0
 11
444.970589276545
 21
1420.494269174574
 31
0.0
  0
LINE
  5
18D88
330
18C7A
100
AcDbEntity
  8
部品1
100
AcDbLine
 10
471.9705892765232
 20
1392.494269174465
 30
0.0
 11
416.9705892765486
 21
1392.494269174465
 31
0.0
  0
LINE
  5
18D89
330
18C7A
100
AcDbEntity
  8
部品1
100
AcDbLine
 10
444.9705892765305
 20
1447.494269174429
 30
0.0
 11
416.9705892765469
 21
1447.494269174429
 31
0.0
  0
LINE
  5
18D8A
330
18C7A
100
AcDbEntity
  8
部品1
100
AcDbLine
 10
444.9705892765305
 20
1447.494269174465
 30
0.0
 11
416.9705892765469
 21
1447.494269174465
 31
0.0
  0
LINE
  5
18D8B
330
18C7A
100
AcDbEntity
  8
部品1
100
AcDbLine
 10
444.9705892765469
 20
1447.49426917448
 30
0.0
 11
416.9705892765469
 21
1447.49426917448
 31
0.0
  0
LINE
  5
18D8C
330
18C7A
100
AcDbEntity
  8
部品1
100
AcDbLine
 10
416.9705892765469
 20
1447.494269174429
 30
0.0
 11
416.9705892765486
 21
1392.494269174433
 31
0.0
  0
LINE
  5
18D8D
330
18C7A
100
AcDbEntity
  8
部品1
100
AcDbLine
 10
416.9705892765196
 20
3182.494269174477
 30
0.0
 11
416.9705892765486
 21
1392.494269174465
 31
0.0
  0
LINE
  5
18D8E
330
18C7A
100
AcDbEntity
  8
部品1
100
AcDbLine
 10
444.9705892765305
 20
1420.494269174556
 30
0.0
 11
444.9705892765559
 21
3154.494269174509
 31
0.0
  0
LINE
  5
18D8F
330
18C7A
100
AcDbEntity
  8
部品1
100
AcDbLine
 10
473.4705892765323
 20
2702.494269174608
 30
0.0
 11
473.470589276545
 21
1448.994269174571
 31
0.0
  0
LINE
  5
18D90
330
18C7A
100
AcDbEntity
  8
破線
 48
10.0
100
AcDbLine
 10
496.9705892765305
 20
2702.494269174608
 30
0.0
 11
496.9705892765451
 21
1472.494269174476
 31
0.0
  0
DIMENSION
  5
18D91
330
18C7A
100
AcDbEntity
  8
寸法
100
AcDbDimension
  2
*D8
 10
3886.970589276531
 20
410.7433333855515
 30
0.0
 11
2168.197775309287
 21
410.7433333855515
 31
0.0
 12
-3742.925985830444
 22
-6453.628869860112
 32
0.0
 70
   128
 71
     5
 42
3469.999999999982
  3
INABA_S40G
100
AcDbAlignedDimension
 13
416.9705892765486
 23
1392.494269174433
 33
0.0
 14
3886.970589276531
 24
1392.49426917456
 34
0.0
100
AcDbRotatedDimension
1001
ACAD
1000
DSTYLE
1002
{
1070
   341
1005
0
1002
}
  0
LINE
  5
18D92
330
18C7A
100
AcDbEntity
  8
部品1
100
AcDbLine
 10
444.9705892765559
 20
3154.494269174624
 30
0.0
 11
1509.470589276487
 21
3154.494269174626
 31
0.0
  0
LINE
  5
18D93
330
18C7A
100
AcDbEntity
  8
部品1
100
AcDbLine
 10
3886.970589276531
 20
1392.494269174596
 30
0.0
 11
3411.970589276556
 21
1392.494269174582
 31
0.0
  0
LINE
  5
18D94
330
18C7A
100
AcDbEntity
  8
部品1
100
AcDbLine
 10
416.9705892765559
 20
3182.494269174509
 30
0.0
 11
3886.970589276556
 21
3182.494269174604
 31
0.0
  0
LINE
  5
18D95
330
18C7A
100
AcDbEntity
  8
部品1
100
AcDbLine
 10
445.4705892765559
 20
2702.494269174509
 30
0.0
 11
1508.470589276487
 21
2702.494269174558
 31
0.0
  0
LINE
  5
18D96
330
18C7A
100
AcDbEntity
  8
細線
 48
50.0
100
AcDbLine
 10
2767.470589276556
 20
3152.494269174611
 30
0.0
 11
1536.470589276487
 21
2702.494269174558
 31
0.0
  0
LINE
  5
18D97
330
18C7A
100
AcDbEntity
  8
部品1
100
AcDbLine
 10
445.4705892765542
 20
3152.494269174509
 30
0.0
 11
1508.470589276485
 21
3152.494269174558
 31
0.0
  0
LINE
  5
18D98
330
18C7A
100
AcDbEntity
  8
細線
 48
50.0
100
AcDbLine
 10
2767.470589276554
 20
2702.494269174615
 30
0.0
 11
1536.470589276485
 21
3152.494269174558
 31
0.0
  0
LINE
  5
18D99
330
18C7A
100
AcDbEntity
  8
破線
 48
10.0
100
AcDbLine
 10
2126.970589276534
 20
1472.494269174502
 30
0.0
 11
1344.47058927653
 21
1472.494269174473
 31
0.0
  0
LINE
  5
18D9A
330
18C7A
100
AcDbEntity
  8
部品1
100
AcDbLine
 10
3830.470589276556
 20
1448.994269174596
 30
0.0
 11
473.4705892764487
 21
1448.994269174476
 31
0.0
  0
DIMENSION
  5
18D9B
330
18C7A
100
AcDbEntity
  8
寸法
100
AcDbDimension
  2
*D7
 10
471.970589276555
 20
3698.302488799491
 30
0.0
 11
108.4853079022819
 21
3698.302488799491
 31
0.0
 12
-3742.925985830444
 22
-6453.628869860112
 32
0.0
 70
   128
 71
     5
 42
55.00000000003456
  3
INABA_S40G
100
AcDbAlignedDimension
 13
416.9705892765205
 23
3182.494269174509
 33
0.0
 14
471.970589276555
 24
3182.494269174509
 34
0.0
100
AcDbRotatedDimension
1001
ACAD
1000
DSTYLE
1002
{
1002
}
  0
DIMENSION
  5
18D9C
330
18C7A
100
AcDbEntity
  8
寸法
100
AcDbDimension
  2
*D6
 10
4534.396935010967
 20
3127.494269174607
 30
0.0
 11
4534.396935010965
 21
3490.979550548844
 31
0.0
 12
-3742.925985830444
 22
-6453.628869860112
 32
0.0
 70
   128
 71
     5
 42
54.99999999999636
  3
INABA_S40G
100
AcDbAlignedDimension
 13
3886.970589276556
 23
3182.494269174604
 33
0.0
 14
3886.970589276556
 24
3127.494269174607
 34
0.0
 50
90.0
100
AcDbRotatedDimension
1001
ACAD
1000
DSTYLE
1002
{
1002
}
  0
DIMENSION
  5
18D9D
330
18C7A
100
AcDbEntity
  8
寸法
100
AcDbDimension
  2
*D5
 10
3886.970589276556
 20
3698.302488799589
 30
0.0
 11
4195.455870650794
 21
3698.302488799589
 31
0.0
 12
-3742.925985830444
 22
-6453.628869860112
 32
0.0
 70
   128
 71
     5
 42
55.0
  3
INABA_S40G
100
AcDbAlignedDimension
 13
3831.970589276556
 23
3182.494269174604
 33
0.0
 14
3886.970589276556
 24
3182.494269174604
 34
0.0
100
AcDbRotatedDimension
1001
ACAD
1000
DSTYLE
1002
{
1002
}
  0
DIMENSION
  5
18D9E
330
18C7A
100
AcDbEntity
  8
寸法
100
AcDbDimension
  2
*D4
 10
3831.970589276556
 20
3698.302488799607
 30
0.0
 11
2151.970589276555
 21
3698.302488799607
 31
0.0
 12
-3742.925985830444
 22
-6453.628869860112
 32
0.0
 70
   128
  1
8X420=<>
 71
     5
 42
3360.000000000001
  3
INABA_S40G
100
AcDbAlignedDimension
 13
471.970589276555
 23
3182.494269174509
 33
0.0
 14
3831.970589276556
 24
3182.494269174604
 34
0.0
100
AcDbRotatedDimension
1001
ACAD
1000
DSTYLE
1002
{
1002
}
  0
DIMENSION
  5
18D9F
330
18C7A
100
AcDbEntity
  8
寸法
100
AcDbDimension
  2
*D3
 10
4899.503876750603
 20
1392.494269174596
 30
0.0
 11
4899.503876750601
 21
2287.4942691746
 31
0.0
 12
-3742.925985830444
 22
-6453.628869860112
 32
0.0
 70
   128
 71
     5
 42
1790.000000000007
  3
INABA_S40G
100
AcDbAlignedDimension
 13
3886.970589276556
 23
3182.494269174604
 33
0.0
 14
3886.970589276531
 24
1392.494269174596
 34
0.0
 50
90.0
100
AcDbRotatedDimension
1001
ACAD
1000
DSTYLE
1002
{
1002
}
  0
ENDBLK
  5
18DA1
330
18C7A
100
AcDbEntity
  8
0
 48
50.0
100
AcDbBlockEnd
  0
BLOCK
  5
1C4CB
330
1C4CA
100
AcDbEntity
  8
0
 48
50.0
100
AcDbBlockBegin
  2
_NONE
 70
     0
 10
0.0
 20
0.0
 30
0.0
  3
_NONE
  1

  0
CIRCLE
  5
1C4CC
330
1C4CA
100
AcDbEntity
  8
0
  6
ByBlock
 62
     0
 48
50.0
100
AcDbCircle
 10
0.0
 20
0.0
 30
0.0
 40
0.25
  0
ENDBLK
  5
1C4CD
330
1C4CA
100
AcDbEntity
  8
0
 48
50.0
100
AcDbBlockEnd
  0
BLOCK
  5
20DEE
330
20DE2
100
AcDbEntity
  8
0
 48
50.0
100
AcDbBlockBegin
  2
*D19
 70
     1
 10
0.0
 20
0.0
 30
0.0
  3
*D19
  1

  0
LINE
  5
2459F
330
20DE2
100
AcDbEntity
  8
寸法
 62
     0
 48
50.0
370
    -2
100
AcDbLine
 10
9868.6
 20
7665.7350608392
 30
0.0
 11
9868.6
 21
8663.955382898121
 31
0.0
  0
LINE
  5
245A0
330
20DE2
100
AcDbEntity
  8
寸法
 62
     0
 48
50.0
370
    -2
100
AcDbLine
 10
9913.600000000002
 20
8392.00151893311
 30
0.0
 11
9913.600000000002
 21
8663.955382898121
 31
0.0
  0
LINE
  5
245A1
330
20DE2
100
AcDbEntity
  8
寸法
 62
     0
 48
50.0
370
    -2
100
AcDbLine
 10
9868.6
 20
8603.955382898123
 30
0.0
 11
9768.600000000001
 21
8603.955382898123
 31
0.0
  0
LINE
  5
245A2
330
20DE2
100
AcDbEntity
  8
寸法
 62
     0
 48
50.0
370
    -2
100
AcDbLine
 10
9913.600000000002
 20
8603.955382898123
 30
0.0
 11
10250.94924240492
 21
8603.955382898123
 31
0.0
  0
LINE
  5
245A3
330
20DE2
100
AcDbEntity
  8
寸法
 62
     0
 48
50.0
370
    -2
100
AcDbLine
 10
9868.6
 20
8603.955382898123
 30
0.0
 11
9913.600000000002
 21
8603.955382898123
 31
0.0
  0
INSERT
  5
245A4
330
20DE2
100
AcDbEntity
  8
寸法
 62
     0
 48
50.0
370
    -2
100
AcDbBlockReference
  2
_DOTSMALL
 10
9868.6
 20
8603.955382898123
 30
0.0
 41
100.0
 42
100.0
 43
100.0
  0
INSERT
  5
245A5
330
20DE2
100
AcDbEntity
  8
寸法
 62
     0
 48
50.0
370
    -2
100
AcDbBlockReference
  2
_DOTSMALL
 10
9913.600000000002
 20
8603.955382898123
 30
0.0
 41
100.0
 42
100.0
 43
100.0
 50
180.0
  0
MTEXT
  5
245A6
330
20DE2
100
AcDbEntity
  8
寸法
 62
     7
 48
50.0
100
AcDbMText
 10
10184.77462120246
 20
8703.955382898122
 30
0.0
 40
120.0
 41
0.0
 71
     5
 72
     1
  1
\A1;a
  7
STYLE1
 73
     1
 44
1.0
1001
ACAD
1000
MTEXTBEGIN
1070
    73
1070
     1
1070
    44
1040
1.0
1070
    74
1070
     0
1000
MTEXTEND
  0
POINT
  5
245A7
330
20DE2
100
AcDbEntity
  8
DEFPOINTS
 62
     0
 48
50.0
100
AcDbPoint
 10
9868.6
 20
7645.7350608392
 30
0.0
  0
POINT
  5
245A8
330
20DE2
100
AcDbEntity
  8
DEFPOINTS
 62
     0
 48
50.0
100
AcDbPoint
 10
9913.600000000002
 20
8372.001518933108
 30
0.0
  0
POINT
  5
245A9
330
20DE2
100
AcDbEntity
  8
DEFPOINTS
 62
     0
 48
50.0
100
AcDbPoint
 10
9913.600000000002
 20
8603.955382898123
 30
0.0
  0
ENDBLK
  5
20DEF
330
20DE2
100
AcDbEntity
  8
0
 48
50.0
100
AcDbBlockEnd
  0
BLOCK
  5
20E08
330
20DFC
100
AcDbEntity
  8
0
 48
50.0
100
AcDbBlockBegin
  2
*D20
 70
     1
 10
0.0
 20
0.0
 30
0.0
  3
*D20
  1

  0
LINE
  5
24594
330
20DFC
100
AcDbEntity
  8
寸法
 62
     0
 48
50.0
370
    -2
100
AcDbLine
 10
6533.599999999999
 20
8392.001518933113
 30
0.0
 11
6533.599999999999
 21
8663.955382898121
 31
0.0
  0
LINE
  5
24595
330
20DFC
100
AcDbEntity
  8
寸法
 62
     0
 48
50.0
370
    -2
100
AcDbLine
 10
6578.599999999998
 20
7665.735060839202
 30
0.0
 11
6578.599999999998
 21
8663.955382898121
 31
0.0
  0
LINE
  5
24596
330
20DFC
100
AcDbEntity
  8
寸法
 62
     0
 48
50.0
370
    -2
100
AcDbLine
 10
6578.599999999998
 20
8603.955382898123
 30
0.0
 11
6678.599999999997
 21
8603.955382898123
 31
0.0
  0
LINE
  5
24597
330
20DFC
100
AcDbEntity
  8
寸法
 62
     0
 48
50.0
370
    -2
100
AcDbLine
 10
6533.599999999999
 20
8603.955382898123
 30
0.0
 11
6196.25075759508
 21
8603.955382898123
 31
0.0
  0
LINE
  5
24598
330
20DFC
100
AcDbEntity
  8
寸法
 62
     0
 48
50.0
370
    -2
100
AcDbLine
 10
6578.599999999998
 20
8603.955382898123
 30
0.0
 11
6533.599999999999
 21
8603.955382898123
 31
0.0
  0
INSERT
  5
24599
330
20DFC
100
AcDbEntity
  8
寸法
 62
     0
 48
50.0
370
    -2
100
AcDbBlockReference
  2
_DOTSMALL
 10
6578.599999999998
 20
8603.955382898123
 30
0.0
 41
100.0
 42
100.0
 43
100.0
 50
180.0
  0
INSERT
  5
2459A
330
20DFC
100
AcDbEntity
  8
寸法
 62
     0
 48
50.0
370
    -2
100
AcDbBlockReference
  2
_DOTSMALL
 10
6533.599999999999
 20
8603.955382898123
 30
0.0
 41
100.0
 42
100.0
 43
100.0
  0
MTEXT
  5
2459B
330
20DFC
100
AcDbEntity
  8
寸法
 62
     7
 48
50.0
100
AcDbMText
 10
6262.425378797537
 20
8703.955382898122
 30
0.0
 40
120.0
 41
0.0
 71
     5
 72
     1
  1
\A1;a
  7
STYLE1
 73
     1
 44
1.0
1001
ACAD
1000
MTEXTBEGIN
1070
    73
1070
     1
1070
    44
1040
1.0
1070
    74
1070
     0
1000
MTEXTEND
  0
POINT
  5
2459C
330
20DFC
100
AcDbEntity
  8
DEFPOINTS
 62
     0
 48
50.0
100
AcDbPoint
 10
6533.599999999999
 20
8372.001518933114
 30
0.0
  0
POINT
  5
2459D
330
20DFC
100
AcDbEntity
  8
DEFPOINTS
 62
     0
 48
50.0
100
AcDbPoint
 10
6578.599999999998
 20
7645.735060839202
 30
0.0
  0
POINT
  5
2459E
330
20DFC
100
AcDbEntity
  8
DEFPOINTS
 62
     0
 48
50.0
100
AcDbPoint
 10
6578.599999999998
 20
8603.955382898123
 30
0.0
  0
ENDBLK
  5
20E09
330
20DFC
100
AcDbEntity
  8
0
 48
50.0
100
AcDbBlockEnd
  0
BLOCK
  5
2274E
330
22742
100
AcDbEntity
  8
0
 48
50.0
100
AcDbBlockBegin
  2
*D21
 70
     1
 10
0.0
 20
0.0
 30
0.0
  3
*D21
  1

  0
LINE
  5
24589
330
22742
100
AcDbEntity
  8
寸法
 62
     0
 48
50.0
370
    -2
100
AcDbLine
 10
5935.665006330066
 20
7720.735060839207
 30
0.0
 11
5643.721909610671
 21
7720.735060839207
 31
0.0
  0
LINE
  5
2458A
330
22742
100
AcDbEntity
  8
寸法
 62
     0
 48
50.0
370
    -2
100
AcDbLine
 10
6558.599999999997
 20
7645.735060839202
 30
0.0
 11
5643.721909610671
 21
7645.735060839204
 31
0.0
  0
LINE
  5
2458B
330
22742
100
AcDbEntity
  8
寸法
 62
     0
 48
50.0
370
    -2
100
AcDbLine
 10
5703.721909610671
 20
7720.735060839207
 30
0.0
 11
5703.721909610671
 21
7820.735060839208
 31
0.0
  0
LINE
  5
2458C
330
22742
100
AcDbEntity
  8
寸法
 62
     0
 48
50.0
370
    -2
100
AcDbLine
 10
5703.721909610671
 20
7645.735060839204
 30
0.0
 11
5703.721909610671
 21
7545.735060839203
 31
0.0
  0
LINE
  5
2458D
330
22742
100
AcDbEntity
  8
寸法
 62
     0
 48
50.0
370
    -2
100
AcDbLine
 10
5703.721909610671
 20
7720.735060839207
 30
0.0
 11
5703.721909610671
 21
7645.735060839204
 31
0.0
  0
INSERT
  5
2458E
330
22742
100
AcDbEntity
  8
寸法
 62
     0
 48
50.0
370
    -2
100
AcDbBlockReference
  2
_DOTSMALL
 10
5703.721909610671
 20
7720.735060839207
 30
0.0
 41
100.0
 42
100.0
 43
100.0
 50
270.0
  0
INSERT
  5
2458F
330
22742
100
AcDbEntity
  8
寸法
 62
     0
 48
50.0
370
    -2
100
AcDbBlockReference
  2
_DOTSMALL
 10
5703.721909610671
 20
7645.735060839204
 30
0.0
 41
100.0
 42
100.0
 43
100.0
 50
90.0
  0
MTEXT
  5
24590
330
22742
100
AcDbEntity
  8
寸法
 62
     7
 48
50.0
100
AcDbMText
 10
5603.72190961067
 20
7683.235060839206
 30
0.0
 40
120.0
 41
0.0
 71
     5
 72
     1
  1
\A1;c
  7
STYLE1
 11
0.0000000000000001
 21
1.0
 31
0.0
 73
     1
 44
1.0
1001
ACAD
1000
MTEXTBEGIN
1070
    73
1070
     1
1070
    44
1040
1.0
1070
    74
1070
     0
1000
MTEXTEND
  0
POINT
  5
24591
330
22742
100
AcDbEntity
  8
DEFPOINTS
 62
     0
 48
50.0
100
AcDbPoint
 10
5955.665006330066
 20
7720.735060839207
 30
0.0
  0
POINT
  5
24592
330
22742
100
AcDbEntity
  8
DEFPOINTS
 62
     0
 48
50.0
100
AcDbPoint
 10
6578.599999999998
 20
7645.735060839202
 30
0.0
  0
POINT
  5
24593
330
22742
100
AcDbEntity
  8
DEFPOINTS
 62
     0
 48
50.0
100
AcDbPoint
 10
5703.721909610671
 20
7645.735060839204
 30
0.0
  0
ENDBLK
  5
2274F
330
22742
100
AcDbEntity
  8
0
 48
50.0
100
AcDbBlockEnd
  0
BLOCK
  5
22768
330
2275C
100
AcDbEntity
  8
0
 48
50.0
100
AcDbBlockBegin
  2
*D22
 70
     1
 10
0.0
 20
0.0
 30
0.0
  3
*D22
  1

  0
LINE
  5
2457E
330
2275C
100
AcDbEntity
  8
寸法
 62
     0
 48
50.0
370
    -2
100
AcDbLine
 10
6558.599999999997
 20
6105.735060839201
 30
0.0
 11
5643.721909610671
 21
6105.735060839202
 31
0.0
  0
LINE
  5
2457F
330
2275C
100
AcDbEntity
  8
寸法
 62
     0
 48
50.0
370
    -2
100
AcDbLine
 10
5935.665006330069
 20
6050.735060839226
 30
0.0
 11
5643.721909610671
 21
6050.735060839226
 31
0.0
  0
LINE
  5
24580
330
2275C
100
AcDbEntity
  8
寸法
 62
     0
 48
50.0
370
    -2
100
AcDbLine
 10
5703.721909610671
 20
6105.735060839202
 30
0.0
 11
5703.721909610671
 21
6205.735060839202
 31
0.0
  0
LINE
  5
24581
330
2275C
100
AcDbEntity
  8
寸法
 62
     0
 48
50.0
370
    -2
100
AcDbLine
 10
5703.721909610671
 20
6050.735060839226
 30
0.0
 11
5703.721909610671
 21
5950.735060839226
 31
0.0
  0
LINE
  5
24582
330
2275C
100
AcDbEntity
  8
寸法
 62
     0
 48
50.0
370
    -2
100
AcDbLine
 10
5703.721909610671
 20
6105.735060839202
 30
0.0
 11
5703.721909610671
 21
6050.735060839226
 31
0.0
  0
INSERT
  5
24583
330
2275C
100
AcDbEntity
  8
寸法
 62
     0
 48
50.0
370
    -2
100
AcDbBlockReference
  2
_DOTSMALL
 10
5703.721909610671
 20
6105.735060839202
 30
0.0
 41
100.0
 42
100.0
 43
100.0
 50
270.0
  0
INSERT
  5
24584
330
2275C
100
AcDbEntity
  8
寸法
 62
     0
 48
50.0
370
    -2
100
AcDbBlockReference
  2
_DOTSMALL
 10
5703.721909610671
 20
6050.735060839226
 30
0.0
 41
100.0
 42
100.0
 43
100.0
 50
90.0
  0
MTEXT
  5
24585
330
2275C
100
AcDbEntity
  8
寸法
 62
     7
 48
50.0
100
AcDbMText
 10
5603.72190961067
 20
6078.235060839215
 30
0.0
 40
120.0
 41
0.0
 71
     5
 72
     1
  1
\A1;b
  7
STYLE1
 11
0.0000000000000001
 21
1.0
 31
0.0
 73
     1
 44
1.0
1001
ACAD
1000
MTEXTBEGIN
1070
    73
1070
     1
1070
    44
1040
1.0
1070
    74
1070
     0
1000
MTEXTEND
  0
POINT
  5
24586
330
2275C
100
AcDbEntity
  8
DEFPOINTS
 62
     0
 48
50.0
100
AcDbPoint
 10
6578.599999999998
 20
6105.735060839201
 30
0.0
  0
POINT
  5
24587
330
2275C
100
AcDbEntity
  8
DEFPOINTS
 62
     0
 48
50.0
100
AcDbPoint
 10
5955.665006330069
 20
6050.735060839226
 30
0.0
  0
POINT
  5
24588
330
2275C
100
AcDbEntity
  8
DEFPOINTS
 62
     0
 48
50.0
100
AcDbPoint
 10
5703.721909610671
 20
6050.735060839226
 30
0.0
  0
ENDBLK
  5
22769
330
2275C
100
AcDbEntity
  8
0
 48
50.0
100
AcDbBlockEnd
  0
BLOCK
  5
2406A
330
24060
100
AcDbEntity
  8
0
 48
50.0
100
AcDbBlockBegin
  2
*D23
 70
     1
 10
0.0
 20
0.0
 30
0.0
  3
*D23
  1

  0
LINE
  5
24575
330
24060
100
AcDbEntity
  8
寸法
 62
     0
 48
50.0
370
    -2
100
AcDbLine
 10
9745.600000000001
 20
7592.735060839205
 30
0.0
 11
9745.600000000001
 21
8432.001518933116
 31
0.0
  0
LINE
  5
24576
330
24060
100
AcDbEntity
  8
寸法
 62
     0
 48
50.0
370
    -2
100
AcDbLine
 10
8105.6
 20
7592.735060839205
 30
0.0
 11
8105.6
 21
8432.001518933116
 31
0.0
  0
LINE
  5
24577
330
24060
100
AcDbEntity
  8
寸法
 62
     0
 48
50.0
370
    -2
100
AcDbLine
 10
9745.600000000001
 20
8372.001518933116
 30
0.0
 11
8105.6
 21
8372.001518933116
 31
0.0
  0
INSERT
  5
24578
330
24060
100
AcDbEntity
  8
寸法
 62
     0
 48
50.0
370
    -2
100
AcDbBlockReference
  2
_DOTSMALL
 10
9745.600000000001
 20
8372.001518933116
 30
0.0
 41
100.0
 42
100.0
 43
100.0
  0
INSERT
  5
24579
330
24060
100
AcDbEntity
  8
寸法
 62
     0
 48
50.0
370
    -2
100
AcDbBlockReference
  2
_DOTSMALL
 10
8105.6
 20
8372.001518933116
 30
0.0
 41
100.0
 42
100.0
 43
100.0
 50
180.0
  0
MTEXT
  5
2457A
330
24060
100
AcDbEntity
  8
寸法
 62
     7
 48
50.0
100
AcDbMText
 10
8925.600000000001
 20
8472.001518933115
 30
0.0
 40
120.0
 41
0.0
 71
     5
 72
     1
  1
\A1;1640
  7
STYLE1
 73
     1
 44
1.0
1001
ACAD
1000
MTEXTBEGIN
1070
    73
1070
     1
1070
    44
1040
1.0
1070
    74
1070
     0
1000
MTEXTEND
  0
POINT
  5
2457B
330
24060
100
AcDbEntity
  8
DEFPOINTS
 62
     0
 48
50.0
100
AcDbPoint
 10
9745.600000000001
 20
7572.735060839204
 30
0.0
  0
POINT
  5
2457C
330
24060
100
AcDbEntity
  8
DEFPOINTS
 62
     0
 48
50.0
100
AcDbPoint
 10
8105.6
 20
7572.735060839204
 30
0.0
  0
POINT
  5
2457D
330
24060
100
AcDbEntity
  8
DEFPOINTS
 62
     0
 48
50.0
100
AcDbPoint
 10
8105.6
 20
8372.001518933116
 30
0.0
  0
ENDBLK
  5
2406B
330
24060
100
AcDbEntity
  8
0
 48
50.0
100
AcDbBlockEnd
  0
BLOCK
  5
24076
330
2406C
100
AcDbEntity
  8
0
 48
50.0
100
AcDbBlockBegin
  2
*D24
 70
     1
 10
0.0
 20
0.0
 30
0.0
  3
*D24
  1

  0
LINE
  5
2456C
330
2406C
100
AcDbEntity
  8
寸法
 62
     0
 48
50.0
370
    -2
100
AcDbLine
 10
6578.6
 20
7665.735060839205
 30
0.0
 11
6578.6
 21
8663.955382898121
 31
0.0
  0
LINE
  5
2456D
330
2406C
100
AcDbEntity
  8
寸法
 62
     0
 48
50.0
370
    -2
100
AcDbLine
 10
9868.6
 20
7665.735060839205
 30
0.0
 11
9868.6
 21
8663.955382898121
 31
0.0
  0
LINE
  5
2456E
330
2406C
100
AcDbEntity
  8
寸法
 62
     0
 48
50.0
370
    -2
100
AcDbLine
 10
6578.6
 20
8603.955382898123
 30
0.0
 11
9868.6
 21
8603.955382898123
 31
0.0
  0
INSERT
  5
2456F
330
2406C
100
AcDbEntity
  8
寸法
 62
     0
 48
50.0
370
    -2
100
AcDbBlockReference
  2
_DOTSMALL
 10
6578.6
 20
8603.955382898123
 30
0.0
 41
100.0
 42
100.0
 43
100.0
 50
180.0
  0
INSERT
  5
24570
330
2406C
100
AcDbEntity
  8
寸法
 62
     0
 48
50.0
370
    -2
100
AcDbBlockReference
  2
_DOTSMALL
 10
9868.6
 20
8603.955382898123
 30
0.0
 41
100.0
 42
100.0
 43
100.0
  0
MTEXT
  5
24571
330
2406C
100
AcDbEntity
  8
寸法
 62
     7
 48
50.0
100
AcDbMText
 10
8223.600000000001
 20
8703.967193921744
 30
0.0
 40
120.0
 41
0.0
 71
     5
 72
     1
  1
\A1;3290
  7
STYLE1
 73
     1
 44
1.0
1001
ACAD
1000
MTEXTBEGIN
1070
    73
1070
     1
1070
    44
1040
1.0
1070
    74
1070
     0
1000
MTEXTEND
  0
POINT
  5
24572
330
2406C
100
AcDbEntity
  8
DEFPOINTS
 62
     0
 48
50.0
100
AcDbPoint
 10
6578.6
 20
7645.735060839204
 30
0.0
  0
POINT
  5
24573
330
2406C
100
AcDbEntity
  8
DEFPOINTS
 62
     0
 48
50.0
100
AcDbPoint
 10
9868.6
 20
7645.735060839204
 30
0.0
  0
POINT
  5
24574
330
2406C
100
AcDbEntity
  8
DEFPOINTS
 62
     0
 48
50.0
100
AcDbPoint
 10
9868.6
 20
8603.955382898123
 30
0.0
  0
ENDBLK
  5
24077
330
2406C
100
AcDbEntity
  8
0
 48
50.0
100
AcDbBlockEnd
  0
BLOCK
  5
24082
330
24078
100
AcDbEntity
  8
0
 48
50.0
100
AcDbBlockBegin
  2
*D25
 70
     1
 10
0.0
 20
0.0
 30
0.0
  3
*D25
  1

  0
LINE
  5
24622
330
24078
100
AcDbEntity
  8
寸法
 62
     0
 48
50.0
370
    -2
100
AcDbLine
 10
9043.600000000008
 20
6982.735060839205
 30
0.0
 11
9043.600000000008
 21
8188.343877509453
 31
0.0
  0
LINE
  5
24623
330
24078
100
AcDbEntity
  8
寸法
 62
     0
 48
50.0
370
    -2
100
AcDbLine
 10
8223.600000000008
 20
6982.735060839205
 30
0.0
 11
8223.600000000008
 21
8188.343877509453
 31
0.0
  0
LINE
  5
24624
330
24078
100
AcDbEntity
  8
寸法
 62
     0
 48
50.0
370
    -2
100
AcDbLine
 10
9043.600000000008
 20
8128.343877509452
 30
0.0
 11
8223.600000000008
 21
8128.343877509452
 31
0.0
  0
INSERT
  5
24625
330
24078
100
AcDbEntity
  8
寸法
 62
     0
 48
50.0
370
    -2
100
AcDbBlockReference
  2
_DOTSMALL
 10
9043.600000000008
 20
8128.343877509452
 30
0.0
 41
100.0
 42
100.0
 43
100.0
  0
INSERT
  5
24626
330
24078
100
AcDbEntity
  8
寸法
 62
     0
 48
50.0
370
    -2
100
AcDbBlockReference
  2
_DOTSMALL
 10
8223.600000000008
 20
8128.343877509452
 30
0.0
 41
100.0
 42
100.0
 43
100.0
 50
180.0
  0
MTEXT
  5
24627
330
24078
100
AcDbEntity
  8
寸法
 62
     7
 48
50.0
100
AcDbMText
 10
8633.600000000008
 20
8228.355688533076
 30
0.0
 40
120.0
 41
0.0
 71
     5
 72
     1
  1
\A1;820
  7
STYLE1
 73
     1
 44
1.0
1001
ACAD
1000
MTEXTBEGIN
1070
    73
1070
     1
1070
    44
1040
1.0
1070
    74
1070
     0
1000
MTEXTEND
  0
POINT
  5
24628
330
24078
100
AcDbEntity
  8
DEFPOINTS
 62
     0
 48
50.0
100
AcDbPoint
 10
9043.600000000008
 20
6962.735060839205
 30
0.0
  0
POINT
  5
24629
330
24078
100
AcDbEntity
  8
DEFPOINTS
 62
     0
 48
50.0
100
AcDbPoint
 10
8223.600000000008
 20
6962.735060839205
 30
0.0
  0
POINT
  5
2462A
330
24078
100
AcDbEntity
  8
DEFPOINTS
 62
     0
 48
50.0
100
AcDbPoint
 10
8223.600000000008
 20
8128.343877509452
 30
0.0
  0
ENDBLK
  5
24083
330
24078
100
AcDbEntity
  8
0
 48
50.0
100
AcDbBlockEnd
  0
BLOCK
  5
2408E
330
24084
100
AcDbEntity
  8
0
 48
50.0
100
AcDbBlockBegin
  2
*D26
 70
     1
 10
0.0
 20
0.0
 30
0.0
  3
*D26
  1

  0
LINE
  5
245CF
330
24084
100
AcDbEntity
  8
寸法
 62
     0
 48
50.0
370
    -2
100
AcDbLine
 10
6631.6
 20
7522.735060839204
 30
0.0
 11
5895.665006330073
 21
7522.735060839206
 31
0.0
  0
LINE
  5
245D0
330
24084
100
AcDbEntity
  8
寸法
 62
     0
 48
50.0
370
    -2
100
AcDbLine
 10
6631.600000000007
 20
6303.735060839208
 30
0.0
 11
5895.665006330073
 21
6303.735060839208
 31
0.0
  0
LINE
  5
245D1
330
24084
100
AcDbEntity
  8
寸法
 62
     0
 48
50.0
370
    -2
100
AcDbLine
 10
5955.665006330073
 20
7522.735060839206
 30
0.0
 11
5955.665006330073
 21
6303.735060839208
 31
0.0
  0
INSERT
  5
245D2
330
24084
100
AcDbEntity
  8
寸法
 62
     0
 48
50.0
370
    -2
100
AcDbBlockReference
  2
_DOTSMALL
 10
5955.665006330073
 20
7522.735060839206
 30
0.0
 41
100.0
 42
100.0
 43
100.0
 50
90.0
  0
INSERT
  5
245D3
330
24084
100
AcDbEntity
  8
寸法
 62
     0
 48
50.0
370
    -2
100
AcDbBlockReference
  2
_DOTSMALL
 10
5955.665006330073
 20
6303.735060839208
 30
0.0
 41
100.0
 42
100.0
 43
100.0
 50
270.0
  0
MTEXT
  5
245D4
330
24084
100
AcDbEntity
  8
寸法
 62
     7
 48
50.0
100
AcDbMText
 10
5855.65319530645
 20
6913.235060839205
 30
0.0
 40
120.0
 41
0.0
 71
     5
 72
     1
  1
\A1;1219
  7
STYLE1
 11
0.0000000000000001
 21
1.0
 31
0.0
 73
     1
 44
1.0
1001
ACAD
1000
MTEXTBEGIN
1070
    73
1070
     1
1070
    44
1040
1.0
1070
    74
1070
     0
1000
MTEXTEND
  0
POINT
  5
245D5
330
24084
100
AcDbEntity
  8
DEFPOINTS
 62
     0
 48
50.0
100
AcDbPoint
 10
6651.600000000001
 20
7522.735060839204
 30
0.0
  0
POINT
  5
245D6
330
24084
100
AcDbEntity
  8
DEFPOINTS
 62
     0
 48
50.0
100
AcDbPoint
 10
6651.600000000008
 20
6303.735060839208
 30
0.0
  0
POINT
  5
245D7
330
24084
100
AcDbEntity
  8
DEFPOINTS
 62
     0
 48
50.0
100
AcDbPoint
 10
5955.665006330073
 20
6303.735060839208
 30
0.0
  0
ENDBLK
  5
2408F
330
24084
100
AcDbEntity
  8
0
 48
50.0
100
AcDbBlockEnd
  0
BLOCK
  5
2409A
330
24090
100
AcDbEntity
  8
0
 48
50.0
100
AcDbBlockBegin
  2
*D27
 70
     1
 10
0.0
 20
0.0
 30
0.0
  3
*D27
  1

  0
LINE
  5
24551
330
24090
100
AcDbEntity
  8
寸法
 62
     0
 48
50.0
370
    -2
100
AcDbLine
 10
6558.6
 20
7645.735060839204
 30
0.0
 11
5643.721909610674
 21
7645.735060839204
 31
0.0
  0
LINE
  5
24552
330
24090
100
AcDbEntity
  8
寸法
 62
     0
 48
50.0
370
    -2
100
AcDbLine
 10
6558.6
 20
6105.735060839204
 30
0.0
 11
5643.721909610674
 21
6105.735060839205
 31
0.0
  0
LINE
  5
24553
330
24090
100
AcDbEntity
  8
寸法
 62
     0
 48
50.0
370
    -2
100
AcDbLine
 10
5703.721909610674
 20
7645.735060839204
 30
0.0
 11
5703.721909610674
 21
6105.735060839205
 31
0.0
  0
INSERT
  5
24554
330
24090
100
AcDbEntity
  8
寸法
 62
     0
 48
50.0
370
    -2
100
AcDbBlockReference
  2
_DOTSMALL
 10
5703.721909610674
 20
7645.735060839204
 30
0.0
 41
100.0
 42
100.0
 43
100.0
 50
90.0
  0
INSERT
  5
24555
330
24090
100
AcDbEntity
  8
寸法
 62
     0
 48
50.0
370
    -2
100
AcDbBlockReference
  2
_DOTSMALL
 10
5703.721909610674
 20
6105.735060839205
 30
0.0
 41
100.0
 42
100.0
 43
100.0
 50
270.0
  0
MTEXT
  5
24556
330
24090
100
AcDbEntity
  8
寸法
 62
     7
 48
50.0
100
AcDbMText
 10
5603.721909610673
 20
6913.235060839205
 30
0.0
 40
120.0
 41
0.0
 71
     5
 72
     1
  1
\A1;1540
  7
STYLE1
 11
0.0000000000000001
 21
1.0
 31
0.0
 73
     1
 44
1.0
1001
ACAD
1000
MTEXTBEGIN
1070
    73
1070
     1
1070
    44
1040
1.0
1070
    74
1070
     0
1000
MTEXTEND
  0
POINT
  5
24557
330
24090
100
AcDbEntity
  8
DEFPOINTS
 62
     0
 48
50.0
100
AcDbPoint
 10
6578.6
 20
7645.735060839204
 30
0.0
  0
POINT
  5
24558
330
24090
100
AcDbEntity
  8
DEFPOINTS
 62
     0
 48
50.0
100
AcDbPoint
 10
6578.6
 20
6105.735060839204
 30
0.0
  0
POINT
  5
24559
330
24090
100
AcDbEntity
  8
DEFPOINTS
 62
     0
 48
50.0
100
AcDbPoint
 10
5703.721909610674
 20
6105.735060839205
 30
0.0
  0
ENDBLK
  5
2409B
330
24090
100
AcDbEntity
  8
0
 48
50.0
100
AcDbBlockEnd
  0
BLOCK
  5
240A6
330
2409C
100
AcDbEntity
  8
0
 48
50.0
100
AcDbBlockBegin
  2
*D28
 70
     1
 10
0.0
 20
0.0
 30
0.0
  3
*D28
  1

  0
LINE
  5
24646
330
2409C
100
AcDbEntity
  8
寸法
 62
     0
 48
50.0
370
    -2
100
AcDbLine
 10
7333.600000000008
 20
6912.735060839205
 30
0.0
 11
7032.442995307156
 21
6912.735060839205
 31
0.0
  0
LINE
  5
24647
330
2409C
100
AcDbEntity
  8
寸法
 62
     0
 48
50.0
370
    -2
100
AcDbLine
 10
7042.765475140901
 20
7645.735060839204
 30
0.0
 11
7152.442995307156
 21
7645.735060839204
 31
0.0
  0
LINE
  5
24648
330
2409C
100
AcDbEntity
  8
寸法
 62
     0
 48
50.0
370
    -2
100
AcDbLine
 10
7092.442995307156
 20
6912.735060839205
 30
0.0
 11
7092.442995307156
 21
7645.735060839204
 31
0.0
  0
INSERT
  5
24649
330
2409C
100
AcDbEntity
  8
寸法
 62
     0
 48
50.0
370
    -2
100
AcDbBlockReference
  2
_DOTSMALL
 10
7092.442995307156
 20
6912.735060839205
 30
0.0
 41
100.0
 42
100.0
 43
100.0
 50
270.0
  0
INSERT
  5
2464A
330
2409C
100
AcDbEntity
  8
寸法
 62
     0
 48
50.0
370
    -2
100
AcDbBlockReference
  2
_DOTSMALL
 10
7092.442995307156
 20
7645.735060839204
 30
0.0
 41
100.0
 42
100.0
 43
100.0
 50
90.0
  0
MTEXT
  5
2464B
330
2409C
100
AcDbEntity
  8
寸法
 62
     7
 48
50.0
100
AcDbMText
 10
6992.442995307154
 20
7205.329851533381
 30
0.0
 40
120.0
 41
0.0
 71
     5
 72
     1
  1
\A1;733
  7
STYLE1
 11
0.0000000000000001
 21
1.0
 31
0.0
 73
     1
 44
1.0
1001
ACAD
1000
MTEXTBEGIN
1070
    73
1070
     1
1070
    44
1040
1.0
1070
    74
1070
     0
1000
MTEXTEND
  0
POINT
  5
2464C
330
2409C
100
AcDbEntity
  8
DEFPOINTS
 62
     0
 48
50.0
100
AcDbPoint
 10
7353.600000000007
 20
6912.735060839205
 30
0.0
  0
POINT
  5
2464D
330
2409C
100
AcDbEntity
  8
DEFPOINTS
 62
     0
 48
50.0
100
AcDbPoint
 10
7022.7654751409
 20
7645.735060839204
 30
0.0
  0
POINT
  5
2464E
330
2409C
100
AcDbEntity
  8
DEFPOINTS
 62
     0
 48
50.0
100
AcDbPoint
 10
7092.442995307156
 20
7645.735060839204
 30
0.0
  0
ENDBLK
  5
240A7
330
2409C
100
AcDbEntity
  8
0
 48
50.0
100
AcDbBlockEnd
  0
BLOCK
  5
240B1
330
240A8
100
AcDbEntity
  8
0
 48
50.0
100
AcDbBlockBegin
  2
*D29
 70
     1
 10
0.0
 20
0.0
 30
0.0
  3
*D29
  1

  0
LINE
  5
24634
330
240A8
100
AcDbEntity
  8
寸法
 62
     0
 48
50.0
370
    -2
100
AcDbLine
 10
8223.600000000008
 20
6982.735060839205
 30
0.0
 11
8223.600000000008
 21
8188.343877509453
 31
0.0
  0
LINE
  5
24635
330
240A8
100
AcDbEntity
  8
寸法
 62
     0
 48
50.0
370
    -2
100
AcDbLine
 10
7403.600000000007
 20
6982.735060839205
 30
0.0
 11
7403.600000000007
 21
8188.343877509453
 31
0.0
  0
LINE
  5
24636
330
240A8
100
AcDbEntity
  8
寸法
 62
     0
 48
50.0
370
    -2
100
AcDbLine
 10
8223.600000000008
 20
8128.343877509452
 30
0.0
 11
7403.600000000007
 21
8128.343877509452
 31
0.0
  0
INSERT
  5
24637
330
240A8
100
AcDbEntity
  8
寸法
 62
     0
 48
50.0
370
    -2
100
AcDbBlockReference
  2
_DOTSMALL
 10
8223.600000000008
 20
8128.343877509452
 30
0.0
 41
100.0
 42
100.0
 43
100.0
  0
INSERT
  5
24638
330
240A8
100
AcDbEntity
  8
寸法
 62
     0
 48
50.0
370
    -2
100
AcDbBlockReference
  2
_DOTSMALL
 10
7403.600000000007
 20
8128.343877509452
 30
0.0
 41
100.0
 42
100.0
 43
100.0
 50
180.0
  0
MTEXT
  5
24639
330
240A8
100
AcDbEntity
  8
寸法
 62
     7
 48
50.0
100
AcDbMText
 10
7813.600000000008
 20
8228.355688533076
 30
0.0
 40
120.0
 41
0.0
 71
     5
 72
     1
  1
\A1;820
  7
STYLE1
 73
     1
 44
1.0
1001
ACAD
1000
MTEXTBEGIN
1070
    73
1070
     1
1070
    44
1040
1.0
1070
    74
1070
     0
1000
MTEXTEND
  0
POINT
  5
2463A
330
240A8
100
AcDbEntity
  8
DEFPOINTS
 62
     0
 48
50.0
100
AcDbPoint
 10
8223.600000000008
 20
6962.735060839205
 30
0.0
  0
POINT
  5
2463B
330
240A8
100
AcDbEntity
  8
DEFPOINTS
 62
     0
 48
50.0
100
AcDbPoint
 10
7403.600000000007
 20
6962.735060839205
 30
0.0
  0
POINT
  5
2463C
330
240A8
100
AcDbEntity
  8
DEFPOINTS
 62
     0
 48
50.0
100
AcDbPoint
 10
7403.600000000007
 20
8128.343877509452
 30
0.0
  0
ENDBLK
  5
240B2
330
240A8
100
AcDbEntity
  8
0
 48
50.0
100
AcDbBlockEnd
  0
BLOCK
  5
240BD
330
240B3
100
AcDbEntity
  8
0
 48
50.0
100
AcDbBlockBegin
  2
*D30
 70
     1
 10
0.0
 20
0.0
 30
0.0
  3
*D30
  1

  0
LINE
  5
2462B
330
240B3
100
AcDbEntity
  8
寸法
 62
     0
 48
50.0
370
    -2
100
AcDbLine
 10
7403.600000000007
 20
6982.735060839205
 30
0.0
 11
7403.600000000007
 21
8188.343877509453
 31
0.0
  0
LINE
  5
2462C
330
240B3
100
AcDbEntity
  8
寸法
 62
     0
 48
50.0
370
    -2
100
AcDbLine
 10
6578.6
 20
7665.735060839205
 30
0.0
 11
6578.6
 21
8188.343877509453
 31
0.0
  0
LINE
  5
2462D
330
240B3
100
AcDbEntity
  8
寸法
 62
     0
 48
50.0
370
    -2
100
AcDbLine
 10
7403.600000000007
 20
8128.343877509452
 30
0.0
 11
6578.6
 21
8128.343877509452
 31
0.0
  0
INSERT
  5
2462E
330
240B3
100
AcDbEntity
  8
寸法
 62
     0
 48
50.0
370
    -2
100
AcDbBlockReference
  2
_DOTSMALL
 10
7403.600000000007
 20
8128.343877509452
 30
0.0
 41
100.0
 42
100.0
 43
100.0
  0
INSERT
  5
2462F
330
240B3
100
AcDbEntity
  8
寸法
 62
     0
 48
50.0
370
    -2
100
AcDbBlockReference
  2
_DOTSMALL
 10
6578.6
 20
8128.343877509452
 30
0.0
 41
100.0
 42
100.0
 43
100.0
 50
180.0
  0
MTEXT
  5
24630
330
240B3
100
AcDbEntity
  8
寸法
 62
     7
 48
50.0
100
AcDbMText
 10
6991.100000000004
 20
8228.355688533076
 30
0.0
 40
120.0
 41
0.0
 71
     5
 72
     1
  1
\A1;825
  7
STYLE1
 73
     1
 44
1.0
1001
ACAD
1000
MTEXTBEGIN
1070
    73
1070
     1
1070
    44
1040
1.0
1070
    74
1070
     0
1000
MTEXTEND
  0
POINT
  5
24631
330
240B3
100
AcDbEntity
  8
DEFPOINTS
 62
     0
 48
50.0
100
AcDbPoint
 10
7403.600000000007
 20
6962.735060839205
 30
0.0
  0
POINT
  5
24632
330
240B3
100
AcDbEntity
  8
DEFPOINTS
 62
     0
 48
50.0
100
AcDbPoint
 10
6578.6
 20
7645.735060839204
 30
0.0
  0
POINT
  5
24633
330
240B3
100
AcDbEntity
  8
DEFPOINTS
 62
     0
 48
50.0
100
AcDbPoint
 10
6578.6
 20
8128.343877509452
 30
0.0
  0
ENDBLK
  5
240BE
330
240B3
100
AcDbEntity
  8
0
 48
50.0
100
AcDbBlockEnd
  0
BLOCK
  5
240C9
330
240BF
100
AcDbEntity
  8
0
 48
50.0
100
AcDbBlockBegin
  2
*D31
 70
     1
 10
0.0
 20
0.0
 30
0.0
  3
*D31
  1

  0
LINE
  5
2452D
330
240BF
100
AcDbEntity
  8
寸法
 62
     0
 48
50.0
370
    -2
100
AcDbLine
 10
6558.600000000004
 20
6105.735060839201
 30
0.0
 11
6405.512673767879
 21
6105.735060839201
 31
0.0
  0
LINE
  5
2452E
330
240BF
100
AcDbEntity
  8
寸法
 62
     0
 48
50.0
370
    -2
100
AcDbLine
 10
6914.32532692881
 20
5385.735060839201
 30
0.0
 11
6405.512673767879
 21
5385.735060839201
 31
0.0
  0
LINE
  5
2452F
330
240BF
100
AcDbEntity
  8
寸法
 62
     0
 48
50.0
370
    -2
100
AcDbLine
 10
6465.51267376788
 20
6105.735060839201
 30
0.0
 11
6465.51267376788
 21
5385.735060839201
 31
0.0
  0
INSERT
  5
24530
330
240BF
100
AcDbEntity
  8
寸法
 62
     0
 48
50.0
370
    -2
100
AcDbBlockReference
  2
_DOTSMALL
 10
6465.51267376788
 20
6105.735060839201
 30
0.0
 41
100.0
 42
100.0
 43
100.0
 50
90.0
  0
INSERT
  5
24531
330
240BF
100
AcDbEntity
  8
寸法
 62
     0
 48
50.0
370
    -2
100
AcDbBlockReference
  2
_DOTSMALL
 10
6465.51267376788
 20
5385.735060839201
 30
0.0
 41
100.0
 42
100.0
 43
100.0
 50
270.0
  0
MTEXT
  5
24532
330
240BF
100
AcDbEntity
  8
寸法
 62
     7
 48
50.0
100
AcDbMText
 10
6365.500862744257
 20
5745.735060839202
 30
0.0
 40
120.0
 41
0.0
 71
     5
 72
     1
  1
\A1;扉の出720
  7
STYLE1
 11
0.0000000000000001
 21
1.0
 31
0.0
 73
     1
 44
1.0
1001
ACAD
1000
MTEXTBEGIN
1070
    73
1070
     1
1070
    44
1040
1.0
1070
    74
1070
     0
1000
MTEXTEND
  0
POINT
  5
24533
330
240BF
100
AcDbEntity
  8
DEFPOINTS
 62
     0
 48
50.0
100
AcDbPoint
 10
6578.600000000005
 20
6105.735060839201
 30
0.0
  0
POINT
  5
24534
330
240BF
100
AcDbEntity
  8
DEFPOINTS
 62
     0
 48
50.0
100
AcDbPoint
 10
6934.325326928808
 20
5385.735060839201
 30
0.0
  0
POINT
  5
24535
330
240BF
100
AcDbEntity
  8
DEFPOINTS
 62
     0
 48
50.0
100
AcDbPoint
 10
6465.51267376788
 20
5385.735060839201
 30
0.0
  0
ENDBLK
  5
240CA
330
240BF
100
AcDbEntity
  8
0
 48
50.0
100
AcDbBlockEnd
  0
BLOCK
  5
240D6
330
240CB
100
AcDbEntity
  8
0
 48
50.0
100
AcDbBlockBegin
  2
*D32
 70
     1
 10
0.0
 20
0.0
 30
0.0
  3
*D32
  1

  0
LINE
  5
245C5
330
240CB
100
AcDbEntity
  8
寸法
 62
     0
 48
50.0
370
    -2
100
AcDbLine
 10
6631.600000000007
 20
6303.735060839208
 30
0.0
 11
5895.665006330073
 21
6303.735060839208
 31
0.0
  0
LINE
  5
245C6
330
240CB
100
AcDbEntity
  8
寸法
 62
     0
 48
50.0
370
    -2
100
AcDbLine
 10
6558.6
 20
6105.735060839204
 30
0.0
 11
5895.665006330072
 21
6105.735060839205
 31
0.0
  0
LINE
  5
245C7
330
240CB
100
AcDbEntity
  8
寸法
 62
     0
 48
50.0
370
    -2
100
AcDbLine
 10
5955.665006330073
 20
6303.735060839208
 30
0.0
 11
5955.665006330072
 21
6105.735060839205
 31
0.0
  0
LINE
  5
245C8
330
240CB
100
AcDbEntity
  8
寸法
 62
     0
 48
50.0
370
    -2
100
AcDbLine
 10
5955.665006330072
 20
6105.735060839205
 30
0.0
 11
5955.665006330072
 21
5633.994452166955
 31
0.0
  0
INSERT
  5
245C9
330
240CB
100
AcDbEntity
  8
寸法
 62
     0
 48
50.0
370
    -2
100
AcDbBlockReference
  2
_DOTSMALL
 10
5955.665006330073
 20
6303.735060839208
 30
0.0
 41
100.0
 42
100.0
 43
100.0
 50
90.0
  0
INSERT
  5
245CA
330
240CB
100
AcDbEntity
  8
寸法
 62
     0
 48
50.0
370
    -2
100
AcDbBlockReference
  2
_DOTSMALL
 10
5955.665006330072
 20
6105.735060839205
 30
0.0
 41
100.0
 42
100.0
 43
100.0
 50
270.0
  0
MTEXT
  5
245CB
330
240CB
100
AcDbEntity
  8
寸法
 62
     7
 48
50.0
100
AcDbMText
 10
5855.665006330071
 20
5770.204111996612
 30
0.0
 40
120.0
 41
0.0
 71
     5
 72
     1
  1
\A1;198
  7
STYLE1
 11
0.0000000000000001
 21
1.0
 31
0.0
 73
     1
 44
1.0
1001
ACAD
1000
MTEXTBEGIN
1070
    73
1070
     1
1070
    44
1040
1.0
1070
    74
1070
     0
1000
MTEXTEND
  0
POINT
  5
245CC
330
240CB
100
AcDbEntity
  8
DEFPOINTS
 62
     0
 48
50.0
100
AcDbPoint
 10
6651.600000000008
 20
6303.735060839208
 30
0.0
  0
POINT
  5
245CD
330
240CB
100
AcDbEntity
  8
DEFPOINTS
 62
     0
 48
50.0
100
AcDbPoint
 10
6578.6
 20
6105.735060839204
 30
0.0
  0
POINT
  5
245CE
330
240CB
100
AcDbEntity
  8
DEFPOINTS
 62
     0
 48
50.0
100
AcDbPoint
 10
5955.665006330072
 20
6105.735060839205
 30
0.0
  0
ENDBLK
  5
240D7
330
240CB
100
AcDbEntity
  8
0
 48
50.0
100
AcDbBlockEnd
  0
BLOCK
  5
240EF
330
240E4
100
AcDbEntity
  8
0
 48
50.0
100
AcDbBlockBegin
  2
*D33
 70
     1
 10
0.0
 20
0.0
 30
0.0
  3
*D33
  1

  0
LINE
  5
246A4
330
240E4
100
AcDbEntity
  8
寸法
 62
     0
 48
50.0
370
    -2
100
AcDbLine
 10
7795.095400711701
 20
6385.735060839208
 30
0.0
 11
7716.81972531859
 21
6385.735060839208
 31
0.0
  0
LINE
  5
246A5
330
240E4
100
AcDbEntity
  8
寸法
 62
     0
 48
50.0
370
    -2
100
AcDbLine
 10
7598.419106515963
 20
6105.735060839196
 30
0.0
 11
7836.81972531859
 21
6105.735060839196
 31
0.0
  0
LINE
  5
246A6
330
240E4
100
AcDbEntity
  8
寸法
 62
     0
 48
50.0
370
    -2
100
AcDbLine
 10
7776.81972531859
 20
6385.735060839208
 30
0.0
 11
7776.819725318588
 21
6105.735060839196
 31
0.0
  0
LINE
  5
246A7
330
240E4
100
AcDbEntity
  8
寸法
 62
     0
 48
50.0
370
    -2
100
AcDbLine
 10
7776.819725318588
 20
6105.735060839196
 30
0.0
 11
7776.819725318588
 21
5669.200612020297
 31
0.0
  0
INSERT
  5
246A8
330
240E4
100
AcDbEntity
  8
寸法
 62
     0
 48
50.0
370
    -2
100
AcDbBlockReference
  2
_DOTSMALL
 10
7776.81972531859
 20
6385.735060839208
 30
0.0
 41
100.0
 42
100.0
 43
100.0
 50
90.0
  0
INSERT
  5
246A9
330
240E4
100
AcDbEntity
  8
寸法
 62
     0
 48
50.0
370
    -2
100
AcDbBlockReference
  2
_DOTSMALL
 10
7776.819725318588
 20
6105.735060839196
 30
0.0
 41
100.0
 42
100.0
 43
100.0
 50
270.0
  0
MTEXT
  5
246AA
330
240E4
100
AcDbEntity
  8
寸法
 62
     7
 48
50.0
100
AcDbMText
 10
7676.807914294966
 20
5818.77147816203
 30
0.0
 40
120.0
 41
0.0
 71
     5
 72
     1
  1
\A1;280
  7
STYLE1
 11
0.0000000000000001
 21
1.0
 31
0.0
 73
     1
 44
1.0
1001
ACAD
1000
MTEXTBEGIN
1070
    73
1070
     1
1070
    44
1040
1.0
1070
    74
1070
     0
1000
MTEXTEND
  0
POINT
  5
246AB
330
240E4
100
AcDbEntity
  8
DEFPOINTS
 62
     0
 48
50.0
100
AcDbPoint
 10
7815.095400711702
 20
6385.735060839208
 30
0.0
  0
POINT
  5
246AC
330
240E4
100
AcDbEntity
  8
DEFPOINTS
 62
     0
 48
50.0
100
AcDbPoint
 10
7578.419106515963
 20
6105.735060839196
 30
0.0
  0
POINT
  5
246AD
330
240E4
100
AcDbEntity
  8
DEFPOINTS
 62
     0
 48
50.0
100
AcDbPoint
 10
7776.819725318588
 20
6105.735060839196
 30
0.0
  0
ENDBLK
  5
240F0
330
240E4
100
AcDbEntity
  8
0
 48
50.0
100
AcDbBlockEnd
  0
BLOCK
  5
240FB
330
240F1
100
AcDbEntity
  8
0
 48
50.0
100
AcDbBlockBegin
  2
*D34
 70
     1
 10
0.0
 20
0.0
 30
0.0
  3
*D34
  1

  0
LINE
  5
2463D
330
240F1
100
AcDbEntity
  8
寸法
 62
     0
 48
50.0
370
    -2
100
AcDbLine
 10
7042.765475140901
 20
6105.735060839215
 30
0.0
 11
7152.442995307154
 21
6105.735060839215
 31
0.0
  0
LINE
  5
2463E
330
240F1
100
AcDbEntity
  8
寸法
 62
     0
 48
50.0
370
    -2
100
AcDbLine
 10
7333.600000000008
 20
6912.735060839205
 30
0.0
 11
7032.442995307156
 21
6912.735060839205
 31
0.0
  0
LINE
  5
2463F
330
240F1
100
AcDbEntity
  8
寸法
 62
     0
 48
50.0
370
    -2
100
AcDbLine
 10
7092.442995307155
 20
6105.735060839215
 30
0.0
 11
7092.442995307156
 21
6912.735060839205
 31
0.0
  0
INSERT
  5
24640
330
240F1
100
AcDbEntity
  8
寸法
 62
     0
 48
50.0
370
    -2
100
AcDbBlockReference
  2
_DOTSMALL
 10
7092.442995307155
 20
6105.735060839215
 30
0.0
 41
100.0
 42
100.0
 43
100.0
 50
270.0
  0
INSERT
  5
24641
330
240F1
100
AcDbEntity
  8
寸法
 62
     0
 48
50.0
370
    -2
100
AcDbBlockReference
  2
_DOTSMALL
 10
7092.442995307156
 20
6912.735060839205
 30
0.0
 41
100.0
 42
100.0
 43
100.0
 50
90.0
  0
MTEXT
  5
24642
330
240F1
100
AcDbEntity
  8
寸法
 62
     7
 48
50.0
100
AcDbMText
 10
6992.442995307154
 20
6590.735060839205
 30
0.0
 40
120.0
 41
0.0
 71
     5
 72
     1
  1
\A1;807
  7
STYLE1
 11
0.0000000000000001
 21
1.0
 31
0.0
 73
     1
 44
1.0
1001
ACAD
1000
MTEXTBEGIN
1070
    73
1070
     1
1070
    44
1040
1.0
1070
    74
1070
     0
1000
MTEXTEND
  0
POINT
  5
24643
330
240F1
100
AcDbEntity
  8
DEFPOINTS
 62
     0
 48
50.0
100
AcDbPoint
 10
7022.7654751409
 20
6105.735060839215
 30
0.0
  0
POINT
  5
24644
330
240F1
100
AcDbEntity
  8
DEFPOINTS
 62
     0
 48
50.0
100
AcDbPoint
 10
7353.600000000007
 20
6912.735060839205
 30
0.0
  0
POINT
  5
24645
330
240F1
100
AcDbEntity
  8
DEFPOINTS
 62
     0
 48
50.0
100
AcDbPoint
 10
7092.442995307156
 20
6912.735060839205
 30
0.0
  0
ENDBLK
  5
240FC
330
240F1
100
AcDbEntity
  8
0
 48
50.0
100
AcDbBlockEnd
  0
BLOCK
  5
24106
330
240FD
100
AcDbEntity
  8
0
 48
50.0
100
AcDbBlockBegin
  2
*D35
 70
     1
 10
0.0
 20
0.0
 30
0.0
  3
*D35
  1

  0
LINE
  5
24507
330
240FD
100
AcDbEntity
  8
寸法
 62
     0
 48
50.0
370
    -2
100
AcDbLine
 10
8105.6
 20
7592.735060839205
 30
0.0
 11
8105.6
 21
8432.001518933116
 31
0.0
  0
LINE
  5
24508
330
240FD
100
AcDbEntity
  8
寸法
 62
     0
 48
50.0
370
    -2
100
AcDbLine
 10
6701.6
 20
7592.735060839205
 30
0.0
 11
6701.6
 21
8432.001518933116
 31
0.0
  0
LINE
  5
24509
330
240FD
100
AcDbEntity
  8
寸法
 62
     0
 48
50.0
370
    -2
100
AcDbLine
 10
8105.6
 20
8372.001518933116
 30
0.0
 11
6701.6
 21
8372.001518933116
 31
0.0
  0
INSERT
  5
2450A
330
240FD
100
AcDbEntity
  8
寸法
 62
     0
 48
50.0
370
    -2
100
AcDbBlockReference
  2
_DOTSMALL
 10
8105.6
 20
8372.001518933116
 30
0.0
 41
100.0
 42
100.0
 43
100.0
  0
INSERT
  5
2450B
330
240FD
100
AcDbEntity
  8
寸法
 62
     0
 48
50.0
370
    -2
100
AcDbBlockReference
  2
_DOTSMALL
 10
6701.6
 20
8372.001518933116
 30
0.0
 41
100.0
 42
100.0
 43
100.0
 50
180.0
  0
MTEXT
  5
2450C
330
240FD
100
AcDbEntity
  8
寸法
 62
     7
 48
50.0
100
AcDbMText
 10
7403.6
 20
8472.001518933115
 30
0.0
 40
120.0
 41
0.0
 71
     5
 72
     1
  1
\A1;1404
  7
STYLE1
 73
     1
 44
1.0
1001
ACAD
1000
MTEXTBEGIN
1070
    73
1070
     1
1070
    44
1040
1.0
1070
    74
1070
     0
1000
MTEXTEND
  0
POINT
  5
2450D
330
240FD
100
AcDbEntity
  8
DEFPOINTS
 62
     0
 48
50.0
100
AcDbPoint
 10
8105.6
 20
7572.735060839204
 30
0.0
  0
POINT
  5
2450E
330
240FD
100
AcDbEntity
  8
DEFPOINTS
 62
     0
 48
50.0
100
AcDbPoint
 10
6701.6
 20
7572.735060839204
 30
0.0
  0
POINT
  5
2450F
330
240FD
100
AcDbEntity
  8
DEFPOINTS
 62
     0
 48
50.0
100
AcDbPoint
 10
6701.6
 20
8372.001518933116
 30
0.0
  0
ENDBLK
  5
24107
330
240FD
100
AcDbEntity
  8
0
 48
50.0
100
AcDbBlockEnd
  0
BLOCK
  5
24120
330
24115
100
AcDbEntity
  8
0
 48
50.0
100
AcDbBlockBegin
  2
*D36
 70
     1
 10
0.0
 20
0.0
 30
0.0
  3
*D36
  1

  0
LINE
  5
244FD
330
24115
100
AcDbEntity
  8
寸法
 62
     0
 48
50.0
370
    -2
100
AcDbLine
 10
6701.6
 20
7592.735060839205
 30
0.0
 11
6701.6
 21
8432.001518933116
 31
0.0
  0
LINE
  5
244FE
330
24115
100
AcDbEntity
  8
寸法
 62
     0
 48
50.0
370
    -2
100
AcDbLine
 10
6578.6
 20
7665.735060839205
 30
0.0
 11
6578.6
 21
8432.001518933116
 31
0.0
  0
LINE
  5
244FF
330
24115
100
AcDbEntity
  8
寸法
 62
     0
 48
50.0
370
    -2
100
AcDbLine
 10
6701.6
 20
8372.001518933116
 30
0.0
 11
6578.6
 21
8372.001518933116
 31
0.0
  0
LINE
  5
24500
330
24115
100
AcDbEntity
  8
寸法
 62
     0
 48
50.0
370
    -2
100
AcDbLine
 10
6578.6
 20
8372.001518933116
 30
0.0
 11
6167.008116907963
 21
8372.001518933116
 31
0.0
  0
INSERT
  5
24501
330
24115
100
AcDbEntity
  8
寸法
 62
     0
 48
50.0
370
    -2
100
AcDbBlockReference
  2
_DOTSMALL
 10
6701.6
 20
8372.001518933116
 30
0.0
 41
100.0
 42
100.0
 43
100.0
  0
INSERT
  5
24502
330
24115
100
AcDbEntity
  8
寸法
 62
     0
 48
50.0
370
    -2
100
AcDbBlockReference
  2
_DOTSMALL
 10
6578.6
 20
8372.001518933116
 30
0.0
 41
100.0
 42
100.0
 43
100.0
 50
180.0
  0
MTEXT
  5
24503
330
24115
100
AcDbEntity
  8
寸法
 62
     7
 48
50.0
100
AcDbMText
 10
6305.493398282202
 20
8472.013329956736
 30
0.0
 40
120.0
 41
0.0
 71
     5
 72
     1
  1
\A1;123
  7
STYLE1
 73
     1
 44
1.0
1001
ACAD
1000
MTEXTBEGIN
1070
    73
1070
     1
1070
    44
1040
1.0
1070
    74
1070
     0
1000
MTEXTEND
  0
POINT
  5
24504
330
24115
100
AcDbEntity
  8
DEFPOINTS
 62
     0
 48
50.0
100
AcDbPoint
 10
6701.6
 20
7572.735060839204
 30
0.0
  0
POINT
  5
24505
330
24115
100
AcDbEntity
  8
DEFPOINTS
 62
     0
 48
50.0
100
AcDbPoint
 10
6578.6
 20
7645.735060839204
 30
0.0
  0
POINT
  5
24506
330
24115
100
AcDbEntity
  8
DEFPOINTS
 62
     0
 48
50.0
100
AcDbPoint
 10
6578.6
 20
8372.001518933116
 30
0.0
  0
ENDBLK
  5
24121
330
24115
100
AcDbEntity
  8
0
 48
50.0
100
AcDbBlockEnd
  0
BLOCK
  5
24137
330
2412C
100
AcDbEntity
  8
0
 48
50.0
100
AcDbBlockBegin
  2
*D37
 70
     1
 10
0.0
 20
0.0
 30
0.0
  3
*D37
  1

  0
LINE
  5
244F3
330
2412C
100
AcDbEntity
  8
寸法
 62
     0
 48
50.0
370
    -2
100
AcDbLine
 10
6558.6
 20
7645.735060839204
 30
0.0
 11
5895.665006330072
 21
7645.735060839204
 31
0.0
  0
LINE
  5
244F4
330
2412C
100
AcDbEntity
  8
寸法
 62
     0
 48
50.0
370
    -2
100
AcDbLine
 10
6631.6
 20
7522.735060839204
 30
0.0
 11
5895.665006330072
 21
7522.735060839206
 31
0.0
  0
LINE
  5
244F5
330
2412C
100
AcDbEntity
  8
寸法
 62
     0
 48
50.0
370
    -2
100
AcDbLine
 10
5955.665006330072
 20
7522.735060839206
 30
0.0
 11
5955.665006330072
 21
7645.735060839204
 31
0.0
  0
LINE
  5
244F6
330
2412C
100
AcDbEntity
  8
寸法
 62
     0
 48
50.0
370
    -2
100
AcDbLine
 10
5955.665006330072
 20
7645.735060839204
 30
0.0
 11
5955.665006330072
 21
8057.326943931242
 31
0.0
  0
INSERT
  5
244F7
330
2412C
100
AcDbEntity
  8
寸法
 62
     0
 48
50.0
370
    -2
100
AcDbBlockReference
  2
_DOTSMALL
 10
5955.665006330072
 20
7522.735060839206
 30
0.0
 41
100.0
 42
100.0
 43
100.0
 50
270.0
  0
INSERT
  5
244F8
330
2412C
100
AcDbEntity
  8
寸法
 62
     0
 48
50.0
370
    -2
100
AcDbBlockReference
  2
_DOTSMALL
 10
5955.665006330072
 20
7645.735060839204
 30
0.0
 41
100.0
 42
100.0
 43
100.0
 50
90.0
  0
MTEXT
  5
244F9
330
2412C
100
AcDbEntity
  8
寸法
 62
     7
 48
50.0
100
AcDbMText
 10
5855.65319530645
 20
7918.841662557004
 30
0.0
 40
120.0
 41
0.0
 71
     5
 72
     1
  1
\A1;123
  7
STYLE1
 11
0.0000000000000001
 21
1.0
 31
0.0
 73
     1
 44
1.0
1001
ACAD
1000
MTEXTBEGIN
1070
    73
1070
     1
1070
    44
1040
1.0
1070
    74
1070
     0
1000
MTEXTEND
  0
POINT
  5
244FA
330
2412C
100
AcDbEntity
  8
DEFPOINTS
 62
     0
 48
50.0
100
AcDbPoint
 10
6578.6
 20
7645.735060839204
 30
0.0
  0
POINT
  5
244FB
330
2412C
100
AcDbEntity
  8
DEFPOINTS
 62
     0
 48
50.0
100
AcDbPoint
 10
6651.600000000001
 20
7522.735060839204
 30
0.0
  0
POINT
  5
244FC
330
2412C
100
AcDbEntity
  8
DEFPOINTS
 62
     0
 48
50.0
100
AcDbPoint
 10
5955.665006330072
 20
7522.735060839206
 30
0.0
  0
ENDBLK
  5
24138
330
2412C
100
AcDbEntity
  8
0
 48
50.0
100
AcDbBlockEnd
  0
BLOCK
  5
24144
330
24139
100
AcDbEntity
  8
0
 48
50.0
100
AcDbBlockBegin
  2
*D38
 70
     1
 10
0.0
 20
0.0
 30
0.0
  3
*D38
  1

  0
LINE
  5
244E9
330
24139
100
AcDbEntity
  8
寸法
 62
     0
 48
50.0
370
    -2
100
AcDbLine
 10
7770.854682011648
 20
7645.735060839173
 30
0.0
 11
7836.81972531859
 21
7645.735060839173
 31
0.0
  0
LINE
  5
244EA
330
24139
100
AcDbEntity
  8
寸法
 62
     0
 48
50.0
370
    -2
100
AcDbLine
 10
7770.854682011648
 20
7445.735060839173
 30
0.0
 11
7836.81972531859
 21
7445.735060839173
 31
0.0
  0
LINE
  5
244EB
330
24139
100
AcDbEntity
  8
寸法
 62
     0
 48
50.0
370
    -2
100
AcDbLine
 10
7776.819725318588
 20
7445.735060839173
 30
0.0
 11
7776.819725318588
 21
7645.735060839173
 31
0.0
  0
LINE
  5
244EC
330
24139
100
AcDbEntity
  8
寸法
 62
     0
 48
50.0
370
    -2
100
AcDbLine
 10
7776.819725318588
 20
7645.735060839173
 30
0.0
 11
7776.819725318588
 21
8082.269509658072
 31
0.0
  0
INSERT
  5
244ED
330
24139
100
AcDbEntity
  8
寸法
 62
     0
 48
50.0
370
    -2
100
AcDbBlockReference
  2
_DOTSMALL
 10
7776.819725318588
 20
7445.735060839173
 30
0.0
 41
100.0
 42
100.0
 43
100.0
 50
270.0
  0
INSERT
  5
244EE
330
24139
100
AcDbEntity
  8
寸法
 62
     0
 48
50.0
370
    -2
100
AcDbBlockReference
  2
_DOTSMALL
 10
7776.819725318588
 20
7645.735060839173
 30
0.0
 41
100.0
 42
100.0
 43
100.0
 50
90.0
  0
MTEXT
  5
244EF
330
24139
100
AcDbEntity
  8
寸法
 62
     7
 48
50.0
100
AcDbMText
 10
7676.807914294966
 20
7932.69864351634
 30
0.0
 40
120.0
 41
0.0
 71
     5
 72
     1
  1
\A1;200
  7
STYLE1
 11
0.0000000000000001
 21
1.0
 31
0.0
 73
     1
 44
1.0
1001
ACAD
1000
MTEXTBEGIN
1070
    73
1070
     1
1070
    44
1040
1.0
1070
    74
1070
     0
1000
MTEXTEND
  0
POINT
  5
244F0
330
24139
100
AcDbEntity
  8
DEFPOINTS
 62
     0
 48
50.0
100
AcDbPoint
 10
7750.854682011648
 20
7645.735060839173
 30
0.0
  0
POINT
  5
244F1
330
24139
100
AcDbEntity
  8
DEFPOINTS
 62
     0
 48
50.0
100
AcDbPoint
 10
7750.854682011648
 20
7445.735060839173
 30
0.0
  0
POINT
  5
244F2
330
24139
100
AcDbEntity
  8
DEFPOINTS
 62
     0
 48
50.0
100
AcDbPoint
 10
7776.819725318588
 20
7445.735060839173
 30
0.0
  0
ENDBLK
  5
24145
330
24139
100
AcDbEntity
  8
0
 48
50.0
100
AcDbBlockEnd
  0
BLOCK
  5
24150
330
24146
100
AcDbEntity
  8
0
 48
50.0
100
AcDbBlockBegin
  2
*D39
 70
     1
 10
0.0
 20
0.0
 30
0.0
  3
*D39
  1

  0
LINE
  5
24619
330
24146
100
AcDbEntity
  8
寸法
 62
     0
 48
50.0
370
    -2
100
AcDbLine
 10
9868.6
 20
7665.735060839205
 30
0.0
 11
9868.6
 21
8188.343877509453
 31
0.0
  0
LINE
  5
2461A
330
24146
100
AcDbEntity
  8
寸法
 62
     0
 48
50.0
370
    -2
100
AcDbLine
 10
9043.600000000008
 20
6982.735060839205
 30
0.0
 11
9043.600000000008
 21
8188.343877509453
 31
0.0
  0
LINE
  5
2461B
330
24146
100
AcDbEntity
  8
寸法
 62
     0
 48
50.0
370
    -2
100
AcDbLine
 10
9868.6
 20
8128.343877509452
 30
0.0
 11
9043.600000000008
 21
8128.343877509452
 31
0.0
  0
INSERT
  5
2461C
330
24146
100
AcDbEntity
  8
寸法
 62
     0
 48
50.0
370
    -2
100
AcDbBlockReference
  2
_DOTSMALL
 10
9868.6
 20
8128.343877509452
 30
0.0
 41
100.0
 42
100.0
 43
100.0
  0
INSERT
  5
2461D
330
24146
100
AcDbEntity
  8
寸法
 62
     0
 48
50.0
370
    -2
100
AcDbBlockReference
  2
_DOTSMALL
 10
9043.600000000008
 20
8128.343877509452
 30
0.0
 41
100.0
 42
100.0
 43
100.0
 50
180.0
  0
MTEXT
  5
2461E
330
24146
100
AcDbEntity
  8
寸法
 62
     7
 48
50.0
100
AcDbMText
 10
9456.100000000004
 20
8228.355688533076
 30
0.0
 40
120.0
 41
0.0
 71
     5
 72
     1
  1
\A1;825
  7
STYLE1
 73
     1
 44
1.0
1001
ACAD
1000
MTEXTBEGIN
1070
    73
1070
     1
1070
    44
1040
1.0
1070
    74
1070
     0
1000
MTEXTEND
  0
POINT
  5
2461F
330
24146
100
AcDbEntity
  8
DEFPOINTS
 62
     0
 48
50.0
100
AcDbPoint
 10
9868.6
 20
7645.735060839204
 30
0.0
  0
POINT
  5
24620
330
24146
100
AcDbEntity
  8
DEFPOINTS
 62
     0
 48
50.0
100
AcDbPoint
 10
9043.600000000008
 20
6962.735060839205
 30
0.0
  0
POINT
  5
24621
330
24146
100
AcDbEntity
  8
DEFPOINTS
 62
     0
 48
50.0
100
AcDbPoint
 10
9043.600000000008
 20
8128.343877509452
 30
0.0
  0
ENDBLK
  5
24151
330
24146
100
AcDbEntity
  8
0
 48
50.0
100
AcDbBlockEnd
  0
BLOCK
  5
2415D
330
24152
100
AcDbEntity
  8
0
 48
50.0
100
AcDbBlockBegin
  2
*D40
 70
     1
 10
0.0
 20
0.0
 30
0.0
  3
*D40
  1

  0
LINE
  5
246CD
330
24152
100
AcDbEntity
  8
寸法
 62
     0
 48
50.0
370
    -2
100
AcDbLine
 10
9868.6
 20
7147.101117908779
 30
0.0
 11
9868.6
 21
7090.107853869948
 31
0.0
  0
LINE
  5
246CE
330
24152
100
AcDbEntity
  8
寸法
 62
     0
 48
50.0
370
    -2
100
AcDbLine
 10
9748.600000000001
 20
7170.107853869947
 30
0.0
 11
9748.600000000001
 21
7210.107853869948
 31
0.0
  0
LINE
  5
246CF
330
24152
100
AcDbEntity
  8
寸法
 62
     0
 48
50.0
370
    -2
100
AcDbLine
 10
9748.600000000001
 20
7150.107853869947
 30
0.0
 11
9868.6
 21
7150.107853869947
 31
0.0
  0
LINE
  5
246D0
330
24152
100
AcDbEntity
  8
寸法
 62
     0
 48
50.0
370
    -2
100
AcDbLine
 10
9868.6
 20
7150.107853869947
 30
0.0
 11
10274.7062992126
 21
7150.107853869947
 31
0.0
  0
INSERT
  5
246D1
330
24152
100
AcDbEntity
  8
寸法
 62
     0
 48
50.0
370
    -2
100
AcDbBlockReference
  2
_DOTSMALL
 10
9748.600000000001
 20
7150.107853869947
 30
0.0
 41
100.0
 42
100.0
 43
100.0
 50
180.0
  0
INSERT
  5
246D2
330
24152
100
AcDbEntity
  8
寸法
 62
     0
 48
50.0
370
    -2
100
AcDbBlockReference
  2
_DOTSMALL
 10
9868.6
 20
7150.107853869947
 30
0.0
 41
100.0
 42
100.0
 43
100.0
  0
MTEXT
  5
246D3
330
24152
100
AcDbEntity
  8
寸法
 62
     7
 48
50.0
100
AcDbMText
 10
10138.65905511811
 20
7250.119664893569
 30
0.0
 40
120.0
 41
0.0
 71
     5
 72
     1
  1
\A1;120
  7
STYLE1
 73
     1
 44
1.0
1001
ACAD
1000
MTEXTBEGIN
1070
    73
1070
     1
1070
    44
1040
1.0
1070
    74
1070
     0
1000
MTEXTEND
  0
POINT
  5
246D4
330
24152
100
AcDbEntity
  8
DEFPOINTS
 62
     0
 48
50.0
100
AcDbPoint
 10
9868.6
 20
7167.10111790878
 30
0.0
  0
POINT
  5
246D5
330
24152
100
AcDbEntity
  8
DEFPOINTS
 62
     0
 48
50.0
100
AcDbPoint
 10
9748.600000000001
 20
7150.107853869947
 30
0.0
  0
POINT
  5
246D6
330
24152
100
AcDbEntity
  8
DEFPOINTS
 62
     0
 48
50.0
100
AcDbPoint
 10
9748.600000000001
 20
7150.107853869947
 30
0.0
  0
ENDBLK
  5
2415E
330
24152
100
AcDbEntity
  8
0
 48
50.0
100
AcDbBlockEnd
  0
BLOCK
  5
2416A
330
2415F
100
AcDbEntity
  8
0
 48
50.0
100
AcDbBlockBegin
  2
*D41
 70
     1
 10
0.0
 20
0.0
 30
0.0
  3
*D41
  1

  0
LINE
  5
244CC
330
2415F
100
AcDbEntity
  8
寸法
 62
     0
 48
50.0
370
    -2
100
AcDbLine
 10
9868.6
 20
7665.735060839205
 30
0.0
 11
9868.6
 21
8432.001518933116
 31
0.0
  0
LINE
  5
244CD
330
2415F
100
AcDbEntity
  8
寸法
 62
     0
 48
50.0
370
    -2
100
AcDbLine
 10
9745.600000000001
 20
7592.735060839205
 30
0.0
 11
9745.600000000001
 21
8432.001518933116
 31
0.0
  0
LINE
  5
244CE
330
2415F
100
AcDbEntity
  8
寸法
 62
     0
 48
50.0
370
    -2
100
AcDbLine
 10
9745.600000000001
 20
8372.001518933116
 30
0.0
 11
9868.6
 21
8372.001518933116
 31
0.0
  0
LINE
  5
244CF
330
2415F
100
AcDbEntity
  8
寸法
 62
     0
 48
50.0
370
    -2
100
AcDbLine
 10
9868.6
 20
8372.001518933116
 30
0.0
 11
10280.19188309204
 21
8372.001518933116
 31
0.0
  0
INSERT
  5
244D0
330
2415F
100
AcDbEntity
  8
寸法
 62
     0
 48
50.0
370
    -2
100
AcDbBlockReference
  2
_DOTSMALL
 10
9745.600000000001
 20
8372.001518933116
 30
0.0
 41
100.0
 42
100.0
 43
100.0
 50
180.0
  0
INSERT
  5
244D1
330
2415F
100
AcDbEntity
  8
寸法
 62
     0
 48
50.0
370
    -2
100
AcDbBlockReference
  2
_DOTSMALL
 10
9868.6
 20
8372.001518933116
 30
0.0
 41
100.0
 42
100.0
 43
100.0
  0
MTEXT
  5
244D2
330
2415F
100
AcDbEntity
  8
寸法
 62
     7
 48
50.0
100
AcDbMText
 10
10141.7066017178
 20
8472.013329956736
 30
0.0
 40
120.0
 41
0.0
 71
     5
 72
     1
  1
\A1;123
  7
STYLE1
 73
     1
 44
1.0
1001
ACAD
1000
MTEXTBEGIN
1070
    73
1070
     1
1070
    44
1040
1.0
1070
    74
1070
     0
1000
MTEXTEND
  0
POINT
  5
244D3
330
2415F
100
AcDbEntity
  8
DEFPOINTS
 62
     0
 48
50.0
100
AcDbPoint
 10
9868.6
 20
7645.735060839204
 30
0.0
  0
POINT
  5
244D4
330
2415F
100
AcDbEntity
  8
DEFPOINTS
 62
     0
 48
50.0
100
AcDbPoint
 10
9745.600000000001
 20
7572.735060839204
 30
0.0
  0
POINT
  5
244D5
330
2415F
100
AcDbEntity
  8
DEFPOINTS
 62
     0
 48
50.0
100
AcDbPoint
 10
9745.600000000001
 20
8372.001518933116
 30
0.0
  0
ENDBLK
  5
2416B
330
2415F
100
AcDbEntity
  8
0
 48
50.0
100
AcDbBlockEnd
  0
BLOCK
  5
24999
330
2498F
100
AcDbEntity
  8
0
 48
50.0
100
AcDbBlockBegin
  2
*D42
 70
     1
 10
0.0
 20
0.0
 30
0.0
  3
*D42
  1

  0
LINE
  5
249D9
330
2498F
100
AcDbEntity
  8
寸法
 62
     0
 48
50.0
370
    -2
100
AcDbLine
 10
5970.233455797769
 20
1069.68964608725
 30
0.0
 11
5970.233455797769
 21
619.2600080820902
 31
0.0
  0
LINE
  5
249DA
330
2498F
100
AcDbEntity
  8
寸法
 62
     0
 48
50.0
370
    -2
100
AcDbLine
 10
6418.23345579777
 20
1069.68964608725
 30
0.0
 11
6418.23345579777
 21
619.2600080820902
 31
0.0
  0
LINE
  5
249DB
330
2498F
100
AcDbEntity
  8
寸法
 62
     0
 48
50.0
370
    -2
100
AcDbLine
 10
5970.233455797769
 20
679.2600080820903
 30
0.0
 11
6418.23345579777
 21
679.2600080820903
 31
0.0
  0
INSERT
  5
249DC
330
2498F
100
AcDbEntity
  8
寸法
 62
     0
 48
50.0
370
    -2
100
AcDbBlockReference
  2
_DOTSMALL
 10
5970.233455797769
 20
679.2600080820903
 30
0.0
 41
100.0
 42
100.0
 43
100.0
 50
180.0
  0
INSERT
  5
249DD
330
2498F
100
AcDbEntity
  8
寸法
 62
     0
 48
50.0
370
    -2
100
AcDbBlockReference
  2
_DOTSMALL
 10
6418.23345579777
 20
679.2600080820903
 30
0.0
 41
100.0
 42
100.0
 43
100.0
  0
MTEXT
  5
249DE
330
2498F
100
AcDbEntity
  8
寸法
 62
     7
 48
50.0
100
AcDbMText
 10
6174.136697119546
 20
779.2600080820903
 30
0.0
 40
120.0
 41
0.0
 71
     5
 72
     1
  1
\A1;300
  7
STYLE1
 73
     1
 44
1.0
1001
ACAD
1000
MTEXTBEGIN
1070
    73
1070
     1
1070
    44
1040
1.0
1070
    74
1070
     0
1000
MTEXTEND
  0
POINT
  5
249DF
330
2498F
100
AcDbEntity
  8
DEFPOINTS
 62
     0
 48
50.0
100
AcDbPoint
 10
5970.233455797769
 20
1089.68964608725
 30
0.0
  0
POINT
  5
249E0
330
2498F
100
AcDbEntity
  8
DEFPOINTS
 62
     0
 48
50.0
100
AcDbPoint
 10
6418.23345579777
 20
1089.68964608725
 30
0.0
  0
POINT
  5
249E1
330
2498F
100
AcDbEntity
  8
DEFPOINTS
 62
     0
 48
50.0
100
AcDbPoint
 10
6418.23345579777
 20
679.2600080820903
 30
0.0
  0
ENDBLK
  5
2499A
330
2498F
100
AcDbEntity
  8
0
 48
50.0
100
AcDbBlockEnd
  0
BLOCK
  5
249A5
330
2499B
100
AcDbEntity
  8
0
 48
50.0
100
AcDbBlockBegin
  2
*D43
 70
     1
 10
0.0
 20
0.0
 30
0.0
  3
*D43
  1

  0
LINE
  5
249E2
330
2499B
100
AcDbEntity
  8
寸法
 62
     0
 48
50.0
370
    -2
100
AcDbLine
 10
6078.233455797769
 20
2001.689646087251
 30
0.0
 11
5303.196217236029
 21
2001.689646087251
 31
0.0
  0
LINE
  5
249E3
330
2499B
100
AcDbEntity
  8
寸法
 62
     0
 48
50.0
370
    -2
100
AcDbLine
 10
5870.233455797773
 20
1217.68964608725
 30
0.0
 11
5303.196217236029
 21
1217.68964608725
 31
0.0
  0
LINE
  5
249E4
330
2499B
100
AcDbEntity
  8
寸法
 62
     0
 48
50.0
370
    -2
100
AcDbLine
 10
5363.196217236029
 20
2001.689646087251
 30
0.0
 11
5363.196217236029
 21
1217.68964608725
 31
0.0
  0
INSERT
  5
249E5
330
2499B
100
AcDbEntity
  8
寸法
 62
     0
 48
50.0
370
    -2
100
AcDbBlockReference
  2
_DOTSMALL
 10
5363.196217236029
 20
2001.689646087251
 30
0.0
 41
100.0
 42
100.0
 43
100.0
 50
90.0
  0
INSERT
  5
249E6
330
2499B
100
AcDbEntity
  8
寸法
 62
     0
 48
50.0
370
    -2
100
AcDbBlockReference
  2
_DOTSMALL
 10
5363.196217236029
 20
1217.68964608725
 30
0.0
 41
100.0
 42
100.0
 43
100.0
 50
270.0
  0
MTEXT
  5
249E7
330
2499B
100
AcDbEntity
  8
寸法
 62
     7
 48
50.0
100
AcDbMText
 10
5263.196217236028
 20
1589.229795743251
 30
0.0
 40
120.0
 41
0.0
 71
     5
 72
     1
  1
\A1;540
  7
STYLE1
 11
0.0000000000000001
 21
1.0
 31
0.0
 73
     1
 44
1.0
1001
ACAD
1000
MTEXTBEGIN
1070
    73
1070
     1
1070
    44
1040
1.0
1070
    74
1070
     0
1000
MTEXTEND
  0
POINT
  5
249E8
330
2499B
100
AcDbEntity
  8
DEFPOINTS
 62
     0
 48
50.0
100
AcDbPoint
 10
6098.233455797769
 20
2001.689646087251
 30
0.0
  0
POINT
  5
249E9
330
2499B
100
AcDbEntity
  8
DEFPOINTS
 62
     0
 48
50.0
100
AcDbPoint
 10
5890.233455797773
 20
1217.68964608725
 30
0.0
  0
POINT
  5
249EA
330
2499B
100
AcDbEntity
  8
DEFPOINTS
 62
     0
 48
50.0
100
AcDbPoint
 10
5363.196217236029
 20
1217.68964608725
 30
0.0
  0
ENDBLK
  5
249A6
330
2499B
100
AcDbEntity
  8
0
 48
50.0
100
AcDbBlockEnd
  0
BLOCK
  5
249B1
330
249A7
100
AcDbEntity
  8
0
 48
50.0
100
AcDbBlockBegin
  2
*D44
 70
     1
 10
0.0
 20
0.0
 30
0.0
  3
*D44
  1

  0
LINE
  5
249EB
330
249A7
100
AcDbEntity
  8
寸法
 62
     0
 48
50.0
370
    -2
100
AcDbLine
 10
5950.233455797769
 20
1457.68964608725
 30
0.0
 11
5767.81314206531
 21
1457.68964608725
 31
0.0
  0
LINE
  5
249EC
330
249A7
100
AcDbEntity
  8
寸法
 62
     0
 48
50.0
370
    -2
100
AcDbLine
 10
5870.233455797773
 20
1217.68964608725
 30
0.0
 11
5767.81314206531
 21
1217.68964608725
 31
0.0
  0
LINE
  5
249ED
330
249A7
100
AcDbEntity
  8
寸法
 62
     0
 48
50.0
370
    -2
100
AcDbLine
 10
5827.813142065309
 20
1457.68964608725
 30
0.0
 11
5827.813142065309
 21
1217.68964608725
 31
0.0
  0
INSERT
  5
249EE
330
249A7
100
AcDbEntity
  8
寸法
 62
     0
 48
50.0
370
    -2
100
AcDbBlockReference
  2
_DOTSMALL
 10
5827.813142065309
 20
1457.68964608725
 30
0.0
 41
100.0
 42
100.0
 43
100.0
 50
90.0
  0
INSERT
  5
249EF
330
249A7
100
AcDbEntity
  8
寸法
 62
     0
 48
50.0
370
    -2
100
AcDbBlockReference
  2
_DOTSMALL
 10
5827.813142065309
 20
1217.68964608725
 30
0.0
 41
100.0
 42
100.0
 43
100.0
 50
270.0
  0
MTEXT
  5
249F0
330
249A7
100
AcDbEntity
  8
寸法
 62
     7
 48
50.0
100
AcDbMText
 10
5727.81314206531
 20
1337.689646087251
 30
0.0
 40
120.0
 41
0.0
 71
     5
 72
     1
  1
\A1;150
  7
STYLE1
 11
0.0000000000000001
 21
1.0
 31
0.0
 73
     1
 44
1.0
1001
ACAD
1000
MTEXTBEGIN
1070
    73
1070
     1
1070
    44
1040
1.0
1070
    74
1070
     0
1000
MTEXTEND
  0
POINT
  5
249F1
330
249A7
100
AcDbEntity
  8
DEFPOINTS
 62
     0
 48
50.0
100
AcDbPoint
 10
5970.233455797769
 20
1457.68964608725
 30
0.0
  0
POINT
  5
249F2
330
249A7
100
AcDbEntity
  8
DEFPOINTS
 62
     0
 48
50.0
100
AcDbPoint
 10
5890.233455797773
 20
1217.68964608725
 30
0.0
  0
POINT
  5
249F3
330
249A7
100
AcDbEntity
  8
DEFPOINTS
 62
     0
 48
50.0
100
AcDbPoint
 10
5827.813142065309
 20
1217.68964608725
 30
0.0
  0
ENDBLK
  5
249B2
330
249A7
100
AcDbEntity
  8
0
 48
50.0
100
AcDbBlockEnd
  0
BLOCK
  5
249BF
330
249B3
100
AcDbEntity
  8
0
 48
50.0
100
AcDbBlockBegin
  2
*D45
 70
     1
 10
0.0
 20
0.0
 30
0.0
  3
*D45
  1

  0
LINE
  5
249F4
330
249B3
100
AcDbEntity
  8
寸法
 62
     0
 48
50.0
370
    -2
100
AcDbLine
 10
8045.072768974964
 20
2054.449646087252
 30
0.0
 11
9050.196034862834
 21
2054.449646087252
 31
0.0
  0
LINE
  5
249F5
330
249B3
100
AcDbEntity
  8
寸法
 62
     0
 48
50.0
370
    -2
100
AcDbLine
 10
8232.272768974963
 20
2001.689646087251
 30
0.0
 11
9050.196034862834
 21
2001.68964608725
 31
0.0
  0
LINE
  5
249F6
330
249B3
100
AcDbEntity
  8
寸法
 62
     0
 48
50.0
370
    -2
100
AcDbLine
 10
8990.196034862835
 20
2054.449646087252
 30
0.0
 11
8990.196034862835
 21
2154.449646087252
 31
0.0
  0
LINE
  5
249F7
330
249B3
100
AcDbEntity
  8
寸法
 62
     0
 48
50.0
370
    -2
100
AcDbLine
 10
8990.196034862835
 20
2001.68964608725
 30
0.0
 11
8990.196034862835
 21
1269.671839244284
 31
0.0
  0
LINE
  5
249F8
330
249B3
100
AcDbEntity
  8
寸法
 62
     0
 48
50.0
370
    -2
100
AcDbLine
 10
8990.196034862835
 20
2054.449646087252
 30
0.0
 11
8990.196034862835
 21
2001.68964608725
 31
0.0
  0
INSERT
  5
249F9
330
249B3
100
AcDbEntity
  8
寸法
 62
     0
 48
50.0
370
    -2
100
AcDbBlockReference
  2
_DOTSMALL
 10
8990.196034862835
 20
2054.449646087252
 30
0.0
 41
100.0
 42
100.0
 43
100.0
 50
270.0
  0
INSERT
  5
249FA
330
249B3
100
AcDbEntity
  8
寸法
 62
     0
 48
50.0
370
    -2
100
AcDbBlockReference
  2
_DOTSMALL
 10
8990.196034862835
 20
2001.68964608725
 30
0.0
 41
100.0
 42
100.0
 43
100.0
 50
90.0
  0
MTEXT
  5
249FB
330
249B3
100
AcDbEntity
  8
寸法
 62
     7
 48
50.0
100
AcDbMText
 10
8890.184223839213
 20
1535.680742665768
 30
0.0
 40
120.0
 41
0.0
 71
     5
 72
     1
  1
\A1;20～25
  7
STYLE1
 11
0.0000000000000001
 21
1.0
 31
0.0
 73
     1
 44
1.0
1001
ACAD
1000
MTEXTBEGIN
1070
    73
1070
     1
1070
    44
1040
1.0
1070
    74
1070
     0
1000
MTEXTEND
  0
POINT
  5
249FC
330
249B3
100
AcDbEntity
  8
DEFPOINTS
 62
     0
 48
50.0
100
AcDbPoint
 10
8025.072768974963
 20
2054.449646087252
 30
0.0
  0
POINT
  5
249FD
330
249B3
100
AcDbEntity
  8
DEFPOINTS
 62
     0
 48
50.0
100
AcDbPoint
 10
8212.272768974962
 20
2001.689646087251
 30
0.0
  0
POINT
  5
249FE
330
249B3
100
AcDbEntity
  8
DEFPOINTS
 62
     0
 48
50.0
100
AcDbPoint
 10
8990.196034862835
 20
2001.68964608725
 30
0.0
  0
ENDBLK
  5
249C0
330
249B3
100
AcDbEntity
  8
0
 48
50.0
100
AcDbBlockEnd
  0
BLOCK
  5
249CB
330
249C1
100
AcDbEntity
  8
0
 48
50.0
100
AcDbBlockBegin
  2
*D46
 70
     1
 10
0.0
 20
0.0
 30
0.0
  3
*D46
  1

  0
LINE
  5
249FF
330
249C1
100
AcDbEntity
  8
寸法
 62
     0
 48
50.0
370
    -2
100
AcDbLine
 10
8232.272768974963
 20
2001.689646087251
 30
0.0
 11
8774.141368743807
 21
2001.68964608725
 31
0.0
  0
LINE
  5
24A00
330
249C1
100
AcDbEntity
  8
寸法
 62
     0
 48
50.0
370
    -2
100
AcDbLine
 10
8232.272768974963
 20
1677.689646087249
 30
0.0
 11
8774.141368743807
 21
1677.689646087249
 31
0.0
  0
LINE
  5
24A01
330
249C1
100
AcDbEntity
  8
寸法
 62
     0
 48
50.0
370
    -2
100
AcDbLine
 10
8714.141368743808
 20
2001.68964608725
 30
0.0
 11
8714.141368743808
 21
1677.689646087249
 31
0.0
  0
INSERT
  5
24A02
330
249C1
100
AcDbEntity
  8
寸法
 62
     0
 48
50.0
370
    -2
100
AcDbBlockReference
  2
_DOTSMALL
 10
8714.141368743808
 20
2001.68964608725
 30
0.0
 41
100.0
 42
100.0
 43
100.0
 50
90.0
  0
INSERT
  5
24A03
330
249C1
100
AcDbEntity
  8
寸法
 62
     0
 48
50.0
370
    -2
100
AcDbBlockReference
  2
_DOTSMALL
 10
8714.141368743808
 20
1677.689646087249
 30
0.0
 41
100.0
 42
100.0
 43
100.0
 50
270.0
  0
MTEXT
  5
24A04
330
249C1
100
AcDbEntity
  8
寸法
 62
     7
 48
50.0
100
AcDbMText
 10
8614.141368743807
 20
1839.689646087251
 30
0.0
 40
120.0
 41
0.0
 71
     5
 72
     1
  1
\A1;180
  7
STYLE1
 11
0.0000000000000001
 21
1.0
 31
0.0
 73
     1
 44
1.0
1001
ACAD
1000
MTEXTBEGIN
1070
    73
1070
     1
1070
    44
1040
1.0
1070
    74
1070
     0
1000
MTEXTEND
  0
POINT
  5
24A05
330
249C1
100
AcDbEntity
  8
DEFPOINTS
 62
     0
 48
50.0
100
AcDbPoint
 10
8212.272768974962
 20
2001.689646087251
 30
0.0
  0
POINT
  5
24A06
330
249C1
100
AcDbEntity
  8
DEFPOINTS
 62
     0
 48
50.0
100
AcDbPoint
 10
8212.272768974962
 20
1677.689646087249
 30
0.0
  0
POINT
  5
24A07
330
249C1
100
AcDbEntity
  8
DEFPOINTS
 62
     0
 48
50.0
100
AcDbPoint
 10
8714.141368743808
 20
1677.689646087249
 30
0.0
  0
ENDBLK
  5
249CC
330
249C1
100
AcDbEntity
  8
0
 48
50.0
100
AcDbBlockEnd
  0
BLOCK
  5
249D7
330
249CD
100
AcDbEntity
  8
0
 48
50.0
100
AcDbBlockBegin
  2
*D47
 70
     1
 10
0.0
 20
0.0
 30
0.0
  3
*D47
  1

  0
LINE
  5
24A08
330
249CD
100
AcDbEntity
  8
寸法
 62
     0
 48
50.0
370
    -2
100
AcDbLine
 10
6290.233455797769
 20
2021.689646087251
 30
0.0
 11
6290.233455797769
 21
2481.357454003631
 31
0.0
  0
LINE
  5
24A09
330
249CD
100
AcDbEntity
  8
寸法
 62
     0
 48
50.0
370
    -2
100
AcDbLine
 10
6098.233455797769
 20
2021.689646087251
 30
0.0
 11
6098.233455797769
 21
2481.357454003631
 31
0.0
  0
LINE
  5
24A0A
330
249CD
100
AcDbEntity
  8
寸法
 62
     0
 48
50.0
370
    -2
100
AcDbLine
 10
6290.233455797769
 20
2421.357454003631
 30
0.0
 11
6098.233455797769
 21
2421.357454003631
 31
0.0
  0
INSERT
  5
24A0B
330
249CD
100
AcDbEntity
  8
寸法
 62
     0
 48
50.0
370
    -2
100
AcDbBlockReference
  2
_DOTSMALL
 10
6290.233455797769
 20
2421.357454003631
 30
0.0
 41
100.0
 42
100.0
 43
100.0
  0
INSERT
  5
24A0C
330
249CD
100
AcDbEntity
  8
寸法
 62
     0
 48
50.0
370
    -2
100
AcDbBlockReference
  2
_DOTSMALL
 10
6098.233455797769
 20
2421.357454003631
 30
0.0
 41
100.0
 42
100.0
 43
100.0
 50
180.0
  0
MTEXT
  5
24A0D
330
249CD
100
AcDbEntity
  8
寸法
 62
     7
 48
50.0
100
AcDbMText
 10
6194.233455797769
 20
2721.392887074497
 30
0.0
 40
120.0
 41
0.0
 71
     5
 72
     1
  1
\A1;120\P200\P280
  7
STYLE1
 73
     1
 44
1.0
1001
ACAD
1000
MTEXTBEGIN
1070
    73
1070
     1
1070
    44
1040
1.0
1070
    74
1070
     0
1000
MTEXTEND
  0
POINT
  5
24A0E
330
249CD
100
AcDbEntity
  8
DEFPOINTS
 62
     0
 48
50.0
100
AcDbPoint
 10
6290.233455797769
 20
2001.689646087251
 30
0.0
  0
POINT
  5
24A0F
330
249CD
100
AcDbEntity
  8
DEFPOINTS
 62
     0
 48
50.0
100
AcDbPoint
 10
6098.233455797769
 20
2001.689646087251
 30
0.0
  0
POINT
  5
24A10
330
249CD
100
AcDbEntity
  8
DEFPOINTS
 62
     0
 48
50.0
100
AcDbPoint
 10
6098.233455797769
 20
2421.357454003631
 30
0.0
  0
ENDBLK
  5
249D8
330
249CD
100
AcDbEntity
  8
0
 48
50.0
100
AcDbBlockEnd
  0
ENDSEC
  0
SECTION
  2
ENTITIES
  0
MTEXT
  5
763F
330
747D
100
AcDbEntity
  8
0
100
AcDbMText
 10
302.846345836809
 20
280.1983726409901
 30
0.0
 40
3.5
 41
5.323721266742722
 71
     1
 72
     5
  1

  7
MSMINCHO
 73
     1
 44
1.0
1001
ACAD
1000
MTEXTBEGIN
1070
    73
1070
     1
1070
    44
1040
1.0
1070
    74
1070
     0
1000
MTEXTEND
  0
LINE
  5
10B57
330
747D
100
AcDbEntity
  8
補助
  6
PHANTOM
 62
   230
 48
50.0
100
AcDbLine
 10
139.9999999999995
 20
11409.6
 30
0.0
 11
16307.2
 21
11409.6
 31
0.0
  0
LINE
  5
10B59
330
747D
100
AcDbEntity
  8
仕様書枠
  6
Continuous
 48
50.0
100
AcDbLine
 10
13107.2
 20
1200.0
 30
0.0
 11
13107.2
 21
-0.0000000000000729
 31
0.0
  0
LINE
  5
10B5D
330
747D
100
AcDbEntity
  8
仕様書枠
 48
50.0
100
AcDbLine
 10
140.0
 20
0.0
 30
0.0
 11
16307.2
 21
-0.0000000000000909
 31
0.0
  0
LINE
  5
10B5E
330
747D
100
AcDbEntity
  8
補助
  6
PHANTOM
 62
   230
 48
50.0
100
AcDbLine
 10
16307.2
 20
11409.6
 30
0.0
 11
16307.2
 21
1200.0
 31
0.0
  0
LINE
  5
10B6C
330
747D
100
AcDbEntity
  8
仕様書枠
 48
50.0
100
AcDbLine
 10
13107.2
 20
1200.0
 30
0.0
 11
16307.2
 21
1200.0
 31
0.0
  0
TEXT
  5
10B73
330
747D
100
AcDbEntity
  8
文字
 62
     7
 48
50.0
100
AcDbText
 10
13162.9790565769
 20
895.0906074299405
 30
0.0
 40
200.0
  1
基 礎 図
  7
STYLE2
100
AcDbText
  0
LINE
  5
10B7B
330
747D
100
AcDbEntity
  8
仕様書枠
 48
50.0
100
AcDbLine
 10
13107.2
 20
800.0
 30
0.0
 11
14251.2
 21
800.0
 31
0.0
  0
LINE
  5
10B88
330
747D
100
AcDbEntity
  8
仕様書枠
  6
Continuous
 48
50.0
100
AcDbLine
 10
14251.2
 20
1200.0
 30
0.0
 11
14251.2
 21
800.0
 31
0.0
  0
LINE
  5
16462
330
747D
100
AcDbEntity
  8
仕様書枠
 48
50.0
100
AcDbLine
 10
16307.2
 20
1200.0
 30
0.0
 11
16307.2
 21
-0.0000000000000909
 31
0.0
  0
LINE
  5
1903B
330
747D
100
AcDbEntity
  8
補助
  6
PHANTOM
 62
   230
 48
50.0
100
AcDbLine
 10
140.0
 20
0.0
 30
0.0
 11
139.9999999999995
 21
11409.6
 31
0.0
  0
LEADER
  5
1AC27
330
747D
100
AcDbEntity
  8
寸法
 48
50.0
100
AcDbLeader
  3
INABA_S50G
 73
     0
 74
     0
 75
     1
 40
120.0
 41
720.0000000000001
 76
     3
 10
9868.695499614997
 20
6906.465830899013
 30
0.0
 10
10025.46907400128
 20
6645.451917331181
 30
0.0
 10
10150.46907400128
 20
6645.451917331181
 30
0.0
340
1AC28
1001
ACAD
1000
DSTYLE
1002
{
1070
   341
1005
0
1070
    40
1040
1.0
1070
   343
1005
0
1070
   344
1005
0
1002
}
  0
MTEXT
  5
1AC28
102
{ACAD_REACTORS
330
1AC27
102
}
330
747D
100
AcDbEntity
  8
部品1
 62
     7
 48
50.0
100
AcDbMText
 10
10895.46907400128
 20
6730.451917331182
 30
0.0
 40
120.0
 41
0.0
 71
     6
 72
     1
  1
\A1;床下換気口
  7
STYLE1
 73
     1
 44
1.0
1001
ACAD
1000
MTEXTBEGIN
1070
    73
1070
     1
1070
    44
1040
1.0
1070
    74
1070
     0
1000
MTEXTEND
  0
TEXT
  5
1AC29
330
747D
100
AcDbEntity
  8
部品1
 48
50.0
100
AcDbText
 10
10217.43013846118
 20
5895.628453652235
 30
0.0
 40
80.0
  1
(a=45,b=55,c=75)
  7
STYLE1
100
AcDbText
  0
TEXT
  5
1AC2A
330
747D
100
AcDbEntity
  8
部品1
 48
50.0
100
AcDbText
 10
10058.85112970688
 20
6002.473674520988
 30
0.0
 40
80.0
  1
※a,b,cは屋根の出幅です。
  7
STYLE1
100
AcDbText
  0
MTEXT
  5
1AC2B
102
{ACAD_REACTORS
330
1AC2C
102
}
330
747D
100
AcDbEntity
  8
部品1
 62
     7
 48
50.0
100
AcDbMText
 10
10856.63832569548
 20
6181.784361454063
 30
0.0
 40
120.0
 41
0.0
 71
     6
 72
     1
  1
\A1;屋根の外寸
  7
STYLE1
 73
     1
 44
1.0
1001
ACAD
1000
MTEXTBEGIN
1070
    73
1070
     1
1070
    44
1040
1.0
1070
    74
1070
     0
1000
MTEXTEND
  0
LEADER
  5
1AC2C
330
747D
100
AcDbEntity
  8
寸法
 48
50.0
100
AcDbLeader
  3
INABA_S50G
 73
     0
 74
     0
 75
     1
 40
120.0
 41
672.0
 76
     3
 10
9918.69831350344
 20
6355.673704917639
 30
0.0
 10
10034.63832569548
 20
6096.784361454063
 30
0.0
 10
10159.63832569548
 20
6096.784361454063
 30
0.0
340
1AC2B
1001
ACAD
1000
DSTYLE
1002
{
1070
   341
1005
0
1070
    40
1040
1.0
1070
   343
1005
0
1070
   344
1005
0
1002
}
  0
TEXT
  5
1C7A1
330
747D
100
AcDbEntity
  8
文字
 62
     7
 48
50.0
100
AcDbText
 10
13188.16259899338
 20
79.80631269190417
 30
0.0
 40
80.0
  1
※布基礎には換気口を設けてください。
  7
STYLE2
100
AcDbText
  0
TEXT
  5
1C7E7
330
747D
100
AcDbEntity
  8
文字
 62
     7
 48
50.0
100
AcDbText
 10
13188.16259899338
 20
246.7109242801889
 30
0.0
 40
80.0
  1
※寒冷地等は地域の実情に合わせた基礎にして下さい。
  7
STYLE2
100
AcDbText
  0
TEXT
  5
1C7E8
330
747D
100
AcDbEntity
  8
文字
 62
     7
 48
50.0
100
AcDbText
 10
14325.79230300687
 20
499.5983841039506
 30
0.0
 40
160.0
  1
ＮＸＮ－１２ＤＬ－４
  7
STYLE2
100
AcDbText
  0
TEXT
  5
1C7EC
330
747D
100
AcDbEntity
  8
文字
 62
     7
 48
50.0
100
AcDbText
 10
14524.131837222
 20
1031.557706291229
 30
0.0
 40
100.0
  1
<縮尺> S=1/40
  7
STYLE2
100
AcDbText
  0
TEXT
  5
1C7ED
330
747D
100
AcDbEntity
  8
文字
 62
     7
 48
50.0
100
AcDbText
 10
13201.43669998441
 20
477.2740661031257
 30
0.0
 40
160.0
  1
機種名
  7
STYLE2
100
AcDbText
  0
LINE
  5
1C7EF
330
747D
100
AcDbEntity
  8
文字
 62
     7
 48
50.0
100
AcDbLine
 10
13187.2
 20
400.0
 30
0.0
 11
16227.2
 21
400.0
 31
0.0
  0
MTEXT
  5
1D2D5
102
{ACAD_REACTORS
330
1D2D6
102
}
330
747D
100
AcDbEntity
  8
部品1
 62
     7
 48
50.0
100
AcDbMText
 10
11063.99523070988
 20
7961.347805081712
 30
0.0
 40
120.0
 41
0.0
 71
     6
 72
     1
  1
アンカーボルト
  7
STYLE1
 73
     1
 44
1.0
1001
ACAD
1000
MTEXTBEGIN
1070
    73
1070
     1
1070
    44
1040
1.0
1070
    74
1070
     0
1000
MTEXTEND
  0
LEADER
  5
1D2D6
330
747D
100
AcDbEntity
  8
寸法
 48
50.0
100
AcDbLeader
  3
INABA_S50G
 73
     0
 74
     0
 75
     1
 40
120.0
 41
994.3492424049171
 76
     3
 10
9745.680085757001
 20
7522.942905197915
 30
0.0
 10
9919.645988304965
 20
7876.347805081713
 30
0.0
 10
10044.64598830496
 20
7876.347805081713
 30
0.0
340
1D2D5
1001
ACAD
1000
DSTYLE
1002
{
1070
   341
1005
0
1070
    40
1040
1.0
1070
   343
1005
0
1070
   344
1005
0
1002
}
  0
MTEXT
  5
1D332
102
{ACAD_REACTORS
330
1D333
102
}
330
747D
100
AcDbEntity
  8
部品1
 62
     7
 48
50.0
100
AcDbMText
 10
9558.828697015693
 20
6767.370764351515
 30
0.0
 40
120.0
 41
0.0
 71
     6
 72
     1
  1
CB
  7
STYLE1
 73
     1
 44
1.0
1001
ACAD
1000
MTEXTBEGIN
1070
    73
1070
     1
1070
    44
1040
1.0
1070
    74
1070
     0
1000
MTEXTEND
  0
LEADER
  5
1D333
330
747D
100
AcDbEntity
  8
寸法
 48
50.0
100
AcDbLeader
  3
INABA_S50G
 73
     0
 74
     0
 75
     1
 40
120.0
 41
149.591883092037
 76
     3
 10
9131.954011061012
 20
6905.089077906341
 30
0.0
 10
9259.236813923656
 20
6682.370764351515
 30
0.0
 10
9384.236813923656
 20
6682.370764351515
 30
0.0
340
1D332
1001
ACAD
1000
DSTYLE
1002
{
1070
   341
1005
0
1070
    40
1040
1.0
1070
   343
1005
0
1070
   344
1005
0
1002
}
  0
DIMENSION
  5
20DE1
330
747D
100
AcDbEntity
  8
寸法
 48
50.0
100
AcDbDimension
  2
*D19
 10
9913.600000000002
 20
8603.955382898123
 30
0.0
 11
10184.77462120246
 21
8603.955382898123
 31
0.0
 70
   160
  1
a
 71
     5
 42
45.0
  3
INABA_S40G
100
AcDbAlignedDimension
 13
9868.6
 23
7645.7350608392
 33
0.0
 14
9913.600000000002
 24
8372.001518933108
 34
0.0
100
AcDbRotatedDimension
1001
ACAD
1000
DSTYLE
1002
{
1070
   341
1005
0
1002
}
  0
DIMENSION
  5
20DFB
330
747D
100
AcDbEntity
  8
寸法
 48
50.0
100
AcDbDimension
  2
*D20
 10
6578.599999999998
 20
8603.955382898123
 30
0.0
 11
6262.425378797537
 21
8603.955382898123
 31
0.0
 70
   160
  1
a
 71
     5
 42
44.99999999999636
  3
INABA_S40G
100
AcDbAlignedDimension
 13
6533.599999999999
 23
8372.001518933114
 33
0.0
 14
6578.599999999998
 24
7645.735060839202
 34
0.0
100
AcDbRotatedDimension
1001
ACAD
1000
DSTYLE
1002
{
1070
   341
1005
0
1002
}
  0
LINE
  5
22711
330
747D
100
AcDbEntity
  8
想像線
 48
10.0
100
AcDbLine
 10
9913.600000000002
 20
7720.735060839206
 30
0.0
 11
6533.599999999997
 21
7720.735060839214
 31
0.0
  0
LINE
  5
22712
330
747D
100
AcDbEntity
  8
想像線
 48
10.0
100
AcDbLine
 10
6533.599999999996
 20
6050.735060839217
 30
0.0
 11
6533.599999999997
 21
7720.735060839209
 31
0.0
  0
LINE
  5
22713
330
747D
100
AcDbEntity
  8
想像線
 48
10.0
100
AcDbLine
 10
9913.600000000002
 20
6050.735060839221
 30
0.0
 11
9913.600000000002
 21
7720.735060839206
 31
0.0
  0
LINE
  5
22714
330
747D
100
AcDbEntity
  8
想像線
 48
10.0
100
AcDbLine
 10
9913.600000000002
 20
6050.735060839221
 30
0.0
 11
6533.599999999996
 21
6050.735060839214
 31
0.0
  0
DIMENSION
  5
22741
330
747D
100
AcDbEntity
  8
寸法
 48
50.0
100
AcDbDimension
  2
*D21
 10
5703.721909610671
 20
7645.735060839204
 30
0.0
 11
5603.72190961067
 21
7683.235060839206
 31
0.0
 70
    32
  1
c
 71
     5
 42
75.00000000000546
  3
INABA_S40G
100
AcDbAlignedDimension
 13
5955.665006330066
 23
7720.735060839207
 33
0.0
 14
6578.599999999998
 24
7645.735060839202
 34
0.0
 50
90.0
100
AcDbRotatedDimension
1001
ACAD
1000
DSTYLE
1002
{
1070
   341
1005
0
1002
}
  0
DIMENSION
  5
2275B
330
747D
100
AcDbEntity
  8
寸法
 48
50.0
100
AcDbDimension
  2
*D22
 10
5703.721909610671
 20
6050.735060839226
 30
0.0
 11
5603.72190961067
 21
6078.235060839215
 31
0.0
 70
    32
  1
b
 71
     5
 42
54.99999999997545
  3
INABA_S40G
100
AcDbAlignedDimension
 13
6578.599999999998
 23
6105.735060839201
 33
0.0
 14
5955.665006330069
 24
6050.735060839226
 34
0.0
 50
90.0
100
AcDbRotatedDimension
1001
ACAD
1000
DSTYLE
1002
{
1070
   341
1005
0
1002
}
  0
LINE
  5
23FA1
330
747D
100
AcDbEntity
  8
部品1
 48
50.0
100
AcDbLine
 10
9748.600000000005
 20
7445.735060839203
 30
0.0
 11
6698.599999999998
 21
7445.735060839203
 31
0.0
  0
DIMENSION
  5
23FA2
330
747D
100
AcDbEntity
  8
寸法
 48
50.0
100
AcDbDimension
  2
*D23
 10
8105.6
 20
8372.001518933116
 30
0.0
 11
8925.600000000001
 21
8472.001518933115
 31
0.0
 70
    32
 71
     5
 42
1640.0
  3
INABA_S40G
100
AcDbAlignedDimension
 13
9745.600000000001
 23
7572.735060839204
 33
0.0
 14
8105.6
 24
7572.735060839204
 34
0.0
100
AcDbRotatedDimension
1001
ACAD
1000
DSTYLE
1002
{
1070
   341
1005
0
1002
}
  0
LINE
  5
23FA4
330
747D
100
AcDbEntity
  8
部品1
 48
50.0
100
AcDbLine
 10
9868.6
 20
7645.735060839204
 30
0.0
 11
6578.6
 21
7645.735060839204
 31
0.0
  0
DIMENSION
  5
23FA5
330
747D
100
AcDbEntity
  8
寸法
 48
50.0
100
AcDbDimension
  2
*D24
 10
9868.6
 20
8603.955382898123
 30
0.0
 11
8223.600000000001
 21
8703.967193921744
 31
0.0
 70
    32
 71
     5
 42
3290.0
  3
INABA_S40G
100
AcDbAlignedDimension
 13
6578.6
 23
7645.735060839204
 33
0.0
 14
9868.6
 24
7645.735060839204
 34
0.0
100
AcDbRotatedDimension
1001
ACAD
1000
DSTYLE
1002
{
1070
   341
1005
0
1002
}
  0
TEXT
  5
23FA6
330
747D
100
AcDbEntity
  8
寸法
 48
50.0
100
AcDbText
 10
8222.290997350715
 20
6124.416351631943
 30
0.0
 40
120.0
  1
扉面
  7
STYLE1
100
AcDbText
  0
LINE
  5
23FA8
330
747D
100
AcDbEntity
  8
部品1
 48
50.0
100
AcDbLine
 10
9868.6
 20
6105.735060839222
 30
0.0
 11
6578.599999999998
 21
6105.735060839201
 31
0.0
  0
DIMENSION
  5
23FA9
330
747D
100
AcDbEntity
  8
寸法
 48
50.0
100
AcDbDimension
  2
*D25
 10
8223.600000000008
 20
8128.343877509452
 30
0.0
 11
8633.600000000008
 21
8228.355688533076
 31
0.0
 70
    32
 71
     5
 42
820.0
  3
INABA_S40G
100
AcDbAlignedDimension
 13
9043.600000000008
 23
6962.735060839205
 33
0.0
 14
8223.600000000008
 24
6962.735060839205
 34
0.0
100
AcDbRotatedDimension
1001
ACAD
1000
DSTYLE
1002
{
1070
   341
1005
0
1002
}
  0
LINE
  5
23FAA
330
747D
100
AcDbEntity
  8
部品1
 48
50.0
100
AcDbLine
 10
6578.6
 20
6105.735060839204
 30
0.0
 11
6578.6
 21
7645.735060839204
 31
0.0
  0
DIMENSION
  5
23FAB
330
747D
100
AcDbEntity
  8
寸法
 48
50.0
100
AcDbDimension
  2
*D26
 10
5955.665006330073
 20
6303.735060839208
 30
0.0
 11
5955.665006330072
 21
6913.235060839205
 31
0.0
 70
   160
 71
     5
 42
1218.999999999996
  3
INABA_S40G
100
AcDbAlignedDimension
 13
6651.600000000001
 23
7522.735060839204
 33
0.0
 14
6651.600000000008
 24
6303.735060839208
 34
0.0
 50
90.0
100
AcDbRotatedDimension
1001
ACAD
1000
DSTYLE
1002
{
1070
   341
1005
0
1002
}
  0
DIMENSION
  5
23FAC
330
747D
100
AcDbEntity
  8
寸法
 48
50.0
100
AcDbDimension
  2
*D27
 10
5703.721909610674
 20
6105.735060839205
 30
0.0
 11
5703.721909610673
 21
6913.235060839205
 31
0.0
 70
   160
 71
     5
 42
1540.0
  3
INABA_S40G
100
AcDbAlignedDimension
 13
6578.6
 23
7645.735060839204
 33
0.0
 14
6578.6
 24
6105.735060839204
 34
0.0
 50
90.0
100
AcDbRotatedDimension
1001
ACAD
1000
DSTYLE
1002
{
1070
   341
1005
0
1002
}
  0
DIMENSION
  5
23FAF
330
747D
100
AcDbEntity
  8
寸法
 48
50.0
100
AcDbDimension
  2
*D28
 10
7092.442995307156
 20
7645.735060839204
 30
0.0
 11
7092.442995307154
 21
7205.329851533381
 31
0.0
 70
   160
 71
     5
 42
733.0
  3
INABA_S40G
100
AcDbAlignedDimension
 13
7353.600000000007
 23
6912.735060839205
 33
0.0
 14
7022.7654751409
 24
7645.735060839204
 34
0.0
 50
90.0
100
AcDbRotatedDimension
1001
ACAD
1000
DSTYLE
1002
{
1070
   341
1005
0
1002
}
  0
DIMENSION
  5
23FB0
330
747D
100
AcDbEntity
  8
寸法
 48
50.0
100
AcDbDimension
  2
*D29
 10
7403.600000000007
 20
8128.343877509452
 30
0.0
 11
7813.600000000008
 21
8228.355688533076
 31
0.0
 70
    32
 71
     5
 42
820.0
  3
INABA_S40G
100
AcDbAlignedDimension
 13
8223.600000000008
 23
6962.735060839205
 33
0.0
 14
7403.600000000007
 24
6962.735060839205
 34
0.0
100
AcDbRotatedDimension
1001
ACAD
1000
DSTYLE
1002
{
1070
   341
1005
0
1002
}
  0
DIMENSION
  5
23FB1
330
747D
100
AcDbEntity
  8
寸法
 48
50.0
100
AcDbDimension
  2
*D30
 10
6578.6
 20
8128.343877509452
 30
0.0
 11
6991.100000000004
 21
8228.355688533076
 31
0.0
 70
    32
 71
     5
 42
825.0000000000072
  3
INABA_S40G
100
AcDbAlignedDimension
 13
7403.600000000007
 23
6962.735060839205
 33
0.0
 14
6578.6
 24
7645.735060839204
 34
0.0
100
AcDbRotatedDimension
1001
ACAD
1000
DSTYLE
1002
{
1070
   341
1005
0
1002
}
  0
DIMENSION
  5
23FB2
330
747D
100
AcDbEntity
  8
寸法
 48
50.0
100
AcDbDimension
  2
*D31
 10
6465.51267376788
 20
5385.735060839201
 30
0.0
 11
6465.512673767879
 21
5745.735060839202
 31
0.0
 70
   160
  1
扉の出<>
 71
     5
 42
720.0
  3
INABA_S40G
100
AcDbAlignedDimension
 13
6578.600000000005
 23
6105.735060839201
 33
0.0
 14
6934.325326928808
 24
5385.735060839201
 34
0.0
 50
90.0
100
AcDbRotatedDimension
1001
ACAD
1000
DSTYLE
1002
{
1070
   341
1005
0
1002
}
  0
ARC
  5
23FB3
330
747D
100
AcDbEntity
  8
想像線
 48
5.0
100
AcDbCircle
 10
7348.600000000004
 20
6105.735060839208
 30
0.0
 40
720.0
100
AcDbArc
 50
180.0
 51
270.0
  0
DIMENSION
  5
23FB4
330
747D
100
AcDbEntity
  8
寸法
 48
50.0
100
AcDbDimension
  2
*D32
 10
5955.665006330072
 20
6105.735060839205
 30
0.0
 11
5955.665006330072
 21
5770.204111996612
 31
0.0
 70
   160
 71
     5
 42
198.0000000000036
  3
INABA_S40G
100
AcDbAlignedDimension
 13
6651.600000000008
 23
6303.735060839208
 33
0.0
 14
6578.6
 24
6105.735060839204
 34
0.0
 50
90.0
100
AcDbRotatedDimension
1001
ACAD
1000
DSTYLE
1002
{
1070
   341
1005
0
1002
}
  0
LINE
  5
23FB6
330
747D
100
AcDbEntity
  8
センター
 48
2.0
100
AcDbLine
 10
6701.600000000007
 20
6353.735060839208
 30
0.0
 11
6701.600000000007
 21
6253.735060839208
 31
0.0
  0
CIRCLE
  5
23FB7
330
747D
100
AcDbEntity
  8
部品1
 48
50.0
100
AcDbCircle
 10
6701.599999999993
 20
6303.735060839208
 30
0.0
 40
35.0
  0
LINE
  5
23FB8
330
747D
100
AcDbEntity
  8
センター
 48
2.0
100
AcDbLine
 10
6651.600000000008
 20
6303.735060839208
 30
0.0
 11
6751.600000000007
 21
6303.735060839208
 31
0.0
  0
LINE
  5
23FB9
330
747D
100
AcDbEntity
  8
細線
 48
50.0
100
AcDbLine
 10
6581.280033447564
 20
6800.735060839236
 30
0.0
 11
6698.599999999998
 21
6918.055027391672
 31
0.0
  0
LINE
  5
23FBA
330
747D
100
AcDbEntity
  8
細線
 48
50.0
100
AcDbLine
 10
6578.6
 20
6842.956307997019
 30
0.0
 11
6698.599999999998
 21
6962.956307997018
 31
0.0
  0
LINE
  5
23FBB
330
747D
100
AcDbEntity
  8
細線
 48
50.0
100
AcDbLine
 10
6578.6
 20
6887.857588602367
 30
0.0
 11
6691.477472236872
 21
7000.735060839234
 31
0.0
  0
LINE
  5
23FBC
330
747D
100
AcDbEntity
  8
細線
 48
50.0
100
AcDbLine
 10
6578.6
 20
6932.758869207711
 30
0.0
 11
6646.576191631526
 21
7000.735060839236
 31
0.0
  0
LINE
  5
23FBD
330
747D
100
AcDbEntity
  8
細線
 48
50.0
100
AcDbLine
 10
6578.6
 20
6977.660149813058
 30
0.0
 11
6601.674911026181
 21
7000.735060839237
 31
0.0
  0
LINE
  5
23FBE
330
747D
100
AcDbEntity
  8
部品1
 48
50.0
100
AcDbLine
 10
6698.599999999998
 20
7000.735060839234
 30
0.0
 11
6578.6
 21
7000.735060839236
 31
0.0
  0
LINE
  5
23FBF
330
747D
100
AcDbEntity
  8
部品1
 48
50.0
100
AcDbLine
 10
6698.599999999998
 20
6800.735060839234
 30
0.0
 11
6578.6
 21
6800.735060839236
 31
0.0
  0
LINE
  5
23FC0
330
747D
100
AcDbEntity
  8
細線
 48
50.0
100
AcDbLine
 10
6671.08259465825
 20
6800.735060839231
 30
0.0
 11
6698.599999999998
 21
6828.25246618098
 31
0.0
  0
LINE
  5
23FC1
330
747D
100
AcDbEntity
  8
細線
 48
50.0
100
AcDbLine
 10
6626.181314052908
 20
6800.735060839236
 30
0.0
 11
6698.599999999998
 21
6873.153746786326
 31
0.0
  0
LINE
  5
23FC2
330
747D
100
AcDbEntity
  8
想像線
 48
5.0
100
AcDbLine
 10
7348.600000000004
 20
6105.735060839219
 30
0.0
 11
7348.600000000004
 21
5385.735060839208
 31
0.0
  0
DIMENSION
  5
23FC3
330
747D
100
AcDbEntity
  8
寸法
 48
50.0
100
AcDbDimension
  2
*D33
 10
7776.819725318588
 20
6105.735060839196
 30
0.0
 11
7776.819725318588
 21
5818.77147816203
 31
0.0
 70
   160
 71
     5
 42
280.0000000000127
  3
INABA_S40G
100
AcDbAlignedDimension
 13
7815.095400711702
 23
6385.735060839208
 33
0.0
 14
7578.419106515963
 24
6105.735060839196
 34
0.0
 50
90.0
100
AcDbRotatedDimension
1001
ACAD
1000
DSTYLE
1002
{
1070
   341
1005
0
1002
}
  0
DIMENSION
  5
23FC4
330
747D
100
AcDbEntity
  8
寸法
 48
50.0
100
AcDbDimension
  2
*D34
 10
7092.442995307156
 20
6912.735060839205
 30
0.0
 11
7092.442995307154
 21
6590.735060839205
 31
0.0
 70
   160
 71
     5
 42
806.999999999989
  3
INABA_S40G
100
AcDbAlignedDimension
 13
7022.7654751409
 23
6105.735060839215
 33
0.0
 14
7353.600000000007
 24
6912.735060839205
 34
0.0
 50
90.0
100
AcDbRotatedDimension
1001
ACAD
1000
DSTYLE
1002
{
1070
   341
1005
0
1002
}
  0
LINE
  5
23FC5
330
747D
100
AcDbEntity
  8
細線
 48
50.0
100
AcDbLine
 10
7029.404364949138
 20
6105.735060839219
 30
0.0
 11
7093.600000000025
 21
6169.930695890107
 31
0.0
  0
LINE
  5
23FC6
330
747D
100
AcDbEntity
  8
細線
 48
50.0
100
AcDbLine
 10
6939.601803738442
 20
6105.735060839217
 30
0.0
 11
7093.600000000022
 21
6259.733257100799
 31
0.0
  0
LINE
  5
23FC7
330
747D
100
AcDbEntity
  8
細線
 48
50.0
100
AcDbLine
 10
6984.503084343789
 20
6105.735060839217
 30
0.0
 11
7093.600000000022
 21
6214.83197649545
 31
0.0
  0
LINE
  5
23FC8
330
747D
100
AcDbEntity
  8
細線
 48
50.0
100
AcDbLine
 10
6894.700523133098
 20
6105.735060839215
 30
0.0
 11
7093.60000000002
 21
6304.634537706142
 31
0.0
  0
LINE
  5
23FC9
330
747D
100
AcDbEntity
  8
細線
 48
50.0
100
AcDbLine
 10
6893.600000000025
 20
6149.535818311489
 30
0.0
 11
7093.600000000019
 21
6349.535818311482
 31
0.0
  0
LINE
  5
23FCA
330
747D
100
AcDbEntity
  8
部品1
 48
50.0
100
AcDbLine
 10
7093.600000000019
 20
6385.735060839202
 30
0.0
 11
7093.600000000025
 21
6105.735060839219
 31
0.0
  0
LINE
  5
23FCB
330
747D
100
AcDbEntity
  8
部品1
 48
50.0
100
AcDbLine
 10
6893.600000000019
 20
6385.735060839202
 30
0.0
 11
6893.600000000025
 21
6105.735060839215
 31
0.0
  0
LINE
  5
23FCC
330
747D
100
AcDbEntity
  8
細線
 48
50.0
100
AcDbLine
 10
7074.305645554483
 20
6105.73506083922
 30
0.0
 11
7093.600000000026
 21
6125.029415284762
 31
0.0
  0
LINE
  5
23FCD
330
747D
100
AcDbEntity
  8
細線
 48
50.0
100
AcDbLine
 10
6893.600000000022
 20
6194.437098916835
 30
0.0
 11
7084.897961922393
 21
6385.735060839204
 31
0.0
  0
LINE
  5
23FCE
330
747D
100
AcDbEntity
  8
細線
 48
50.0
100
AcDbLine
 10
6893.600000000022
 20
6239.338379522178
 30
0.0
 11
7039.996681317029
 21
6385.735060839202
 31
0.0
  0
LINE
  5
23FCF
330
747D
100
AcDbEntity
  8
細線
 48
50.0
100
AcDbLine
 10
6893.60000000002
 20
6284.239660127532
 30
0.0
 11
6995.095400711696
 21
6385.735060839202
 31
0.0
  0
LINE
  5
23FD0
330
747D
100
AcDbEntity
  8
細線
 48
50.0
100
AcDbLine
 10
6893.60000000002
 20
6329.140940732879
 30
0.0
 11
6950.194120106331
 21
6385.735060839201
 31
0.0
  0
LINE
  5
23FD1
330
747D
100
AcDbEntity
  8
センター
 48
2.0
100
AcDbLine
 10
7353.600000000007
 20
6912.735060839205
 30
0.0
 11
7453.600000000007
 21
6912.735060839205
 31
0.0
  0
LINE
  5
23FD2
330
747D
100
AcDbEntity
  8
部品1
 48
50.0
100
AcDbLine
 10
7503.600000000007
 20
7012.735060839204
 30
0.0
 11
7303.600000000007
 21
7012.735060839204
 31
0.0
  0
LINE
  5
23FD3
330
747D
100
AcDbEntity
  8
部品1
 48
50.0
100
AcDbLine
 10
7503.600000000007
 20
6812.735060839205
 30
0.0
 11
7303.600000000007
 21
6812.735060839205
 31
0.0
  0
LINE
  5
23FD4
330
747D
100
AcDbEntity
  8
部品1
 48
50.0
100
AcDbLine
 10
7303.600000000007
 20
6812.735060839205
 30
0.0
 11
7303.600000000007
 21
7012.735060839204
 31
0.0
  0
LINE
  5
23FD5
330
747D
100
AcDbEntity
  8
センター
 48
2.0
100
AcDbLine
 10
7403.600000000007
 20
6962.735060839205
 30
0.0
 11
7403.600000000007
 21
6862.735060839205
 31
0.0
  0
LINE
  5
23FD6
330
747D
100
AcDbEntity
  8
部品1
 48
50.0
100
AcDbLine
 10
7503.600000000007
 20
6812.735060839205
 30
0.0
 11
7503.600000000007
 21
7012.735060839204
 31
0.0
  0
LINE
  5
23FE3
330
747D
100
AcDbEntity
  8
センター
 48
2.0
100
AcDbLine
 10
8105.600000000007
 20
6353.735060839208
 30
0.0
 11
8105.600000000007
 21
6253.735060839208
 31
0.0
  0
CIRCLE
  5
23FE4
330
747D
100
AcDbEntity
  8
部品1
 48
50.0
100
AcDbCircle
 10
8105.600000000007
 20
6303.735060839208
 30
0.0
 40
35.0
  0
LINE
  5
23FE5
330
747D
100
AcDbEntity
  8
センター
 48
2.0
100
AcDbLine
 10
8055.600000000008
 20
6303.735060839208
 30
0.0
 11
8155.600000000008
 21
6303.735060839208
 31
0.0
  0
LINE
  5
23FE6
330
747D
100
AcDbEntity
  8
センター
 48
2.0
100
AcDbLine
 10
8173.600000000007
 20
6912.735060839205
 30
0.0
 11
8273.600000000007
 21
6912.735060839205
 31
0.0
  0
LINE
  5
23FE7
330
747D
100
AcDbEntity
  8
部品1
 48
50.0
100
AcDbLine
 10
8323.600000000007
 20
7012.735060839204
 30
0.0
 11
8123.600000000008
 21
7012.735060839204
 31
0.0
  0
LINE
  5
23FE8
330
747D
100
AcDbEntity
  8
部品1
 48
50.0
100
AcDbLine
 10
8323.600000000007
 20
6812.735060839205
 30
0.0
 11
8123.600000000008
 21
6812.735060839205
 31
0.0
  0
LINE
  5
23FE9
330
747D
100
AcDbEntity
  8
部品1
 48
50.0
100
AcDbLine
 10
8123.600000000008
 20
6812.735060839205
 30
0.0
 11
8123.600000000008
 21
7012.735060839204
 31
0.0
  0
LINE
  5
23FEA
330
747D
100
AcDbEntity
  8
センター
 48
2.0
100
AcDbLine
 10
8223.600000000008
 20
6962.735060839205
 30
0.0
 11
8223.600000000008
 21
6862.735060839205
 31
0.0
  0
LINE
  5
23FEB
330
747D
100
AcDbEntity
  8
部品1
 48
50.0
100
AcDbLine
 10
8323.600000000007
 20
6812.735060839205
 30
0.0
 11
8323.600000000007
 21
7012.735060839204
 31
0.0
  0
DIMENSION
  5
23FEC
330
747D
100
AcDbEntity
  8
寸法
 48
50.0
100
AcDbDimension
  2
*D35
 10
6701.6
 20
8372.001518933116
 30
0.0
 11
7403.6
 21
8472.001518933115
 31
0.0
 70
    32
 71
     5
 42
1404.0
  3
INABA_S40G
100
AcDbAlignedDimension
 13
8105.6
 23
7572.735060839204
 33
0.0
 14
6701.6
 24
7572.735060839204
 34
0.0
100
AcDbRotatedDimension
1001
ACAD
1000
DSTYLE
1002
{
1070
   341
1005
0
1002
}
  0
DIMENSION
  5
23FEE
330
747D
100
AcDbEntity
  8
寸法
 48
50.0
100
AcDbDimension
  2
*D36
 10
6578.6
 20
8372.001518933116
 30
0.0
 11
6305.493398282202
 21
8372.001518933116
 31
0.0
 70
   160
 71
     5
 42
123.0
  3
INABA_S40G
100
AcDbAlignedDimension
 13
6701.6
 23
7572.735060839204
 33
0.0
 14
6578.6
 24
7645.735060839204
 34
0.0
100
AcDbRotatedDimension
1001
ACAD
1000
DSTYLE
1002
{
1070
   341
1005
0
1002
}
  0
DIMENSION
  5
23FF0
330
747D
100
AcDbEntity
  8
寸法
 48
50.0
100
AcDbDimension
  2
*D37
 10
5955.665006330072
 20
7522.735060839206
 30
0.0
 11
5955.665006330072
 21
7918.841662557004
 31
0.0
 70
   160
 71
     5
 42
123.0
  3
INABA_S40G
100
AcDbAlignedDimension
 13
6578.6
 23
7645.735060839204
 33
0.0
 14
6651.600000000001
 24
7522.735060839204
 34
0.0
 50
90.0
100
AcDbRotatedDimension
1001
ACAD
1000
DSTYLE
1002
{
1070
   341
1005
0
1002
}
  0
LINE
  5
23FF1
330
747D
100
AcDbEntity
  8
センター
 48
2.0
100
AcDbLine
 10
6651.600000000001
 20
7522.735060839204
 30
0.0
 11
6751.6
 21
7522.735060839204
 31
0.0
  0
CIRCLE
  5
23FF2
330
747D
100
AcDbEntity
  8
部品1
 48
50.0
100
AcDbCircle
 10
6701.6
 20
7522.735060839204
 30
0.0
 40
35.0
  0
LINE
  5
23FF3
330
747D
100
AcDbEntity
  8
センター
 48
2.0
100
AcDbLine
 10
6701.6
 20
7572.735060839204
 30
0.0
 11
6701.6
 21
7472.735060839204
 31
0.0
  0
DIMENSION
  5
23FF4
330
747D
100
AcDbEntity
  8
寸法
 48
50.0
100
AcDbDimension
  2
*D38
 10
7776.819725318588
 20
7445.735060839173
 30
0.0
 11
7776.819725318588
 21
7932.69864351634
 31
0.0
 70
   160
 71
     5
 42
200.0
  3
INABA_S40G
100
AcDbAlignedDimension
 13
7750.854682011648
 23
7645.735060839173
 33
0.0
 14
7750.854682011648
 24
7445.735060839173
 34
0.0
 50
90.0
100
AcDbRotatedDimension
1001
ACAD
1000
DSTYLE
1002
{
1070
   341
1005
0
1002
}
  0
LINE
  5
23FF5
330
747D
100
AcDbEntity
  8
部品1
 48
50.0
100
AcDbLine
 10
7093.600000000006
 20
7645.735060839204
 30
0.0
 11
7093.600000000009
 21
7445.735060839208
 31
0.0
  0
LINE
  5
23FF6
330
747D
100
AcDbEntity
  8
細線
 48
50.0
100
AcDbLine
 10
6893.600000000008
 20
7537.758869207698
 30
0.0
 11
7001.576191631511
 21
7645.735060839204
 31
0.0
  0
LINE
  5
23FF7
330
747D
100
AcDbEntity
  8
細線
 48
50.0
100
AcDbLine
 10
6893.600000000006
 20
7582.660149813046
 30
0.0
 11
6956.674911026166
 21
7645.735060839206
 31
0.0
  0
LINE
  5
23FF8
330
747D
100
AcDbEntity
  8
部品1
 48
50.0
100
AcDbLine
 10
6893.600000000006
 20
7645.735060839204
 30
0.0
 11
6893.600000000009
 21
7445.73506083921
 31
0.0
  0
LINE
  5
23FF9
330
747D
100
AcDbEntity
  8
細線
 48
50.0
100
AcDbLine
 10
6893.600000000009
 20
7492.857588602361
 30
0.0
 11
7046.477472236857
 21
7645.735060839204
 31
0.0
  0
LINE
  5
23FFA
330
747D
100
AcDbEntity
  8
細線
 48
50.0
100
AcDbLine
 10
6893.600000000009
 20
7447.956307997012
 30
0.0
 11
7091.378752842203
 21
7645.735060839204
 31
0.0
  0
LINE
  5
23FFB
330
747D
100
AcDbEntity
  8
細線
 48
50.0
100
AcDbLine
 10
6936.280033447546
 20
7445.73506083921
 30
0.0
 11
7093.600000000006
 21
7603.055027391661
 31
0.0
  0
LINE
  5
23FFC
330
747D
100
AcDbEntity
  8
細線
 48
50.0
100
AcDbLine
 10
6981.181314052912
 20
7445.735060839206
 30
0.0
 11
7093.600000000006
 21
7558.153746786317
 31
0.0
  0
LINE
  5
23FFD
330
747D
100
AcDbEntity
  8
細線
 48
50.0
100
AcDbLine
 10
7026.08259465825
 20
7445.735060839208
 30
0.0
 11
7093.600000000009
 21
7513.252466180965
 31
0.0
  0
LINE
  5
23FFE
330
747D
100
AcDbEntity
  8
細線
 48
50.0
100
AcDbLine
 10
7070.983875263607
 20
7445.735060839208
 30
0.0
 11
7093.600000000009
 21
7468.351185575612
 31
0.0
  0
LINE
  5
23FFF
330
747D
100
AcDbEntity
  8
細線
 48
50.0
100
AcDbLine
 10
6893.600000000006
 20
7627.561430418392
 30
0.0
 11
6911.773630420821
 21
7645.735060839204
 31
0.0
  0
LINE
  5
24000
330
747D
100
AcDbEntity
  8
部品1
 48
50.0
100
AcDbLine
 10
7913.600000000008
 20
7645.735060839204
 30
0.0
 11
7913.600000000008
 21
7445.735060839208
 31
0.0
  0
LINE
  5
24001
330
747D
100
AcDbEntity
  8
細線
 48
50.0
100
AcDbLine
 10
7713.600000000008
 20
7582.660149813046
 30
0.0
 11
7776.674911026169
 21
7645.735060839206
 31
0.0
  0
LINE
  5
24002
330
747D
100
AcDbEntity
  8
細線
 48
50.0
100
AcDbLine
 10
7713.600000000008
 20
7537.758869207698
 30
0.0
 11
7821.576191631511
 21
7645.735060839204
 31
0.0
  0
LINE
  5
24003
330
747D
100
AcDbEntity
  8
部品1
 48
50.0
100
AcDbLine
 10
7713.600000000008
 20
7645.735060839204
 30
0.0
 11
7713.600000000008
 21
7445.73506083921
 31
0.0
  0
LINE
  5
24004
330
747D
100
AcDbEntity
  8
細線
 48
50.0
100
AcDbLine
 10
7713.600000000008
 20
7447.956307997012
 30
0.0
 11
7911.378752842205
 21
7645.735060839204
 31
0.0
  0
LINE
  5
24005
330
747D
100
AcDbEntity
  8
細線
 48
50.0
100
AcDbLine
 10
7713.600000000008
 20
7492.857588602361
 30
0.0
 11
7866.477472236855
 21
7645.735060839204
 31
0.0
  0
LINE
  5
24006
330
747D
100
AcDbEntity
  8
細線
 48
50.0
100
AcDbLine
 10
7801.181314052914
 20
7445.735060839206
 30
0.0
 11
7913.600000000008
 21
7558.153746786317
 31
0.0
  0
LINE
  5
24007
330
747D
100
AcDbEntity
  8
細線
 48
50.0
100
AcDbLine
 10
7756.280033447549
 20
7445.73506083921
 30
0.0
 11
7913.600000000008
 21
7603.055027391661
 31
0.0
  0
LINE
  5
24008
330
747D
100
AcDbEntity
  8
細線
 48
50.0
100
AcDbLine
 10
7890.983875263607
 20
7445.735060839208
 30
0.0
 11
7913.600000000008
 21
7468.351185575612
 31
0.0
  0
LINE
  5
24009
330
747D
100
AcDbEntity
  8
細線
 48
50.0
100
AcDbLine
 10
7846.08259465825
 20
7445.735060839208
 30
0.0
 11
7913.600000000008
 21
7513.252466180965
 31
0.0
  0
LINE
  5
2400A
330
747D
100
AcDbEntity
  8
センター
 48
2.0
100
AcDbLine
 10
8055.600000000001
 20
7522.735060839204
 30
0.0
 11
8155.600000000001
 21
7522.735060839204
 31
0.0
  0
CIRCLE
  5
2400B
330
747D
100
AcDbEntity
  8
部品1
 48
50.0
100
AcDbCircle
 10
8105.6
 20
7522.735060839204
 30
0.0
 40
35.0
  0
LINE
  5
2400C
330
747D
100
AcDbEntity
  8
センター
 48
2.0
100
AcDbLine
 10
8105.6
 20
7572.735060839204
 30
0.0
 11
8105.6
 21
7472.735060839204
 31
0.0
  0
LINE
  5
2400D
330
747D
100
AcDbEntity
  8
細線
 48
50.0
100
AcDbLine
 10
7713.600000000008
 20
7627.561430418392
 30
0.0
 11
7731.773630420821
 21
7645.735060839204
 31
0.0
  0
LINE
  5
2400E
330
747D
100
AcDbEntity
  8
部品1
 48
50.0
100
AcDbLine
 10
9868.6
 20
6105.735060839222
 30
0.0
 11
9868.6
 21
7645.735060839204
 31
0.0
  0
DIMENSION
  5
24013
330
747D
100
AcDbEntity
  8
寸法
 48
50.0
100
AcDbDimension
  2
*D39
 10
9043.600000000008
 20
8128.343877509452
 30
0.0
 11
9456.100000000004
 21
8228.355688533076
 31
0.0
 70
    32
 71
     5
 42
824.9999999999927
  3
INABA_S40G
100
AcDbAlignedDimension
 13
9868.6
 23
7645.735060839204
 33
0.0
 14
9043.600000000008
 24
6962.735060839205
 34
0.0
100
AcDbRotatedDimension
1001
ACAD
1000
DSTYLE
1002
{
1070
   341
1005
0
1002
}
  0
LINE
  5
24026
330
747D
100
AcDbEntity
  8
センター
 48
2.0
100
AcDbLine
 10
8993.600000000007
 20
6912.735060839205
 30
0.0
 11
9093.600000000007
 21
6912.735060839205
 31
0.0
  0
LINE
  5
24027
330
747D
100
AcDbEntity
  8
部品1
 48
50.0
100
AcDbLine
 10
9143.600000000008
 20
6812.735060839205
 30
0.0
 11
8943.600000000008
 21
6812.735060839205
 31
0.0
  0
LINE
  5
24028
330
747D
100
AcDbEntity
  8
部品1
 48
50.0
100
AcDbLine
 10
9143.600000000008
 20
7012.735060839204
 30
0.0
 11
8943.600000000008
 21
7012.735060839204
 31
0.0
  0
LINE
  5
24029
330
747D
100
AcDbEntity
  8
センター
 48
2.0
100
AcDbLine
 10
9043.600000000008
 20
6962.735060839205
 30
0.0
 11
9043.600000000008
 21
6862.735060839205
 31
0.0
  0
LINE
  5
2402A
330
747D
100
AcDbEntity
  8
部品1
 48
50.0
100
AcDbLine
 10
8943.600000000008
 20
6812.735060839205
 30
0.0
 11
8943.600000000008
 21
7012.735060839204
 31
0.0
  0
LINE
  5
2402B
330
747D
100
AcDbEntity
  8
部品1
 48
50.0
100
AcDbLine
 10
9143.600000000008
 20
6812.735060839205
 30
0.0
 11
9143.600000000008
 21
7012.735060839204
 31
0.0
  0
LINE
  5
24038
330
747D
100
AcDbEntity
  8
センター
 48
2.0
100
AcDbLine
 10
9745.600000000008
 20
6353.735060839208
 30
0.0
 11
9745.600000000008
 21
6253.735060839208
 31
0.0
  0
CIRCLE
  5
24039
330
747D
100
AcDbEntity
  8
部品1
 48
50.0
100
AcDbCircle
 10
9745.600000000008
 20
6303.735060839208
 30
0.0
 40
35.0
  0
LINE
  5
2403A
330
747D
100
AcDbEntity
  8
センター
 48
2.0
100
AcDbLine
 10
9695.600000000007
 20
6303.735060839208
 30
0.0
 11
9795.600000000007
 21
6303.735060839208
 31
0.0
  0
LINE
  5
2403B
330
747D
100
AcDbEntity
  8
細線
 48
50.0
100
AcDbLine
 10
9861.082594658251
 20
6800.735060839238
 30
0.0
 11
9868.6
 21
6808.25246618099
 31
0.0
  0
LINE
  5
2403C
330
747D
100
AcDbEntity
  8
細線
 48
50.0
100
AcDbLine
 10
9816.181314052906
 20
6800.735060839238
 30
0.0
 11
9868.6
 21
6853.153746786336
 31
0.0
  0
LINE
  5
2403D
330
747D
100
AcDbEntity
  8
細線
 48
50.0
100
AcDbLine
 10
9771.280033447556
 20
6800.735060839237
 30
0.0
 11
9868.6
 21
6898.055027391682
 31
0.0
  0
LINE
  5
2403E
330
747D
100
AcDbEntity
  8
細線
 48
50.0
100
AcDbLine
 10
9748.599999999999
 20
6822.956307997026
 30
0.0
 11
9868.6
 21
6942.956307997026
 31
0.0
  0
LINE
  5
2403F
330
747D
100
AcDbEntity
  8
細線
 48
50.0
100
AcDbLine
 10
9748.599999999999
 20
6867.857588602372
 30
0.0
 11
9868.6
 21
6987.857588602373
 31
0.0
  0
LINE
  5
24040
330
747D
100
AcDbEntity
  8
細線
 48
50.0
100
AcDbLine
 10
9748.600000000001
 20
6912.758869207718
 30
0.0
 11
9836.57619163152
 21
7000.735060839239
 31
0.0
  0
LINE
  5
24041
330
747D
100
AcDbEntity
  8
細線
 48
50.0
100
AcDbLine
 10
9748.599999999999
 20
6957.660149813063
 30
0.0
 11
9791.674911026177
 21
7000.735060839241
 31
0.0
  0
LINE
  5
24042
330
747D
100
AcDbEntity
  8
部品1
 48
50.0
100
AcDbLine
 10
9868.6
 20
7000.735060839241
 30
0.0
 11
9748.600000000001
 21
7000.735060839241
 31
0.0
  0
LINE
  5
24043
330
747D
100
AcDbEntity
  8
部品1
 48
50.0
100
AcDbLine
 10
9868.6
 20
6800.735060839241
 30
0.0
 11
9748.599999999999
 21
6800.735060839241
 31
0.0
  0
DIMENSION
  5
24044
330
747D
100
AcDbEntity
  8
寸法
 48
50.0
100
AcDbDimension
  2
*D40
 10
9748.600000000001
 20
7150.107853869947
 30
0.0
 11
10138.65905511811
 21
7150.107853869947
 31
0.0
 70
   160
 71
     5
 42
120.0
  3
INABA_S40G
100
AcDbAlignedDimension
 13
9868.6
 23
7167.10111790878
 33
0.0
 14
9748.600000000001
 24
7150.107853869947
 34
0.0
100
AcDbRotatedDimension
1001
ACAD
1000
DSTYLE
1002
{
1070
   341
1005
0
1002
}
  0
DIMENSION
  5
24045
330
747D
100
AcDbEntity
  8
寸法
 48
50.0
100
AcDbDimension
  2
*D41
 10
9745.600000000001
 20
8372.001518933116
 30
0.0
 11
10141.7066017178
 21
8372.001518933116
 31
0.0
 70
   160
 71
     5
 42
123.0
  3
INABA_S40G
100
AcDbAlignedDimension
 13
9868.6
 23
7645.735060839204
 33
0.0
 14
9745.600000000001
 24
7572.735060839204
 34
0.0
100
AcDbRotatedDimension
1001
ACAD
1000
DSTYLE
1002
{
1070
   341
1005
0
1002
}
  0
LINE
  5
24047
330
747D
100
AcDbEntity
  8
部品1
 48
50.0
100
AcDbLine
 10
8733.600000000008
 20
7645.735060839204
 30
0.0
 11
8733.600000000008
 21
7445.735060839208
 31
0.0
  0
LINE
  5
24048
330
747D
100
AcDbEntity
  8
部品1
 48
50.0
100
AcDbLine
 10
8533.600000000008
 20
7645.735060839204
 30
0.0
 11
8533.600000000008
 21
7445.73506083921
 31
0.0
  0
LINE
  5
24049
330
747D
100
AcDbEntity
  8
細線
 48
50.0
100
AcDbLine
 10
8533.600000000008
 20
7537.758869207698
 30
0.0
 11
8641.576191631513
 21
7645.735060839204
 31
0.0
  0
LINE
  5
2404A
330
747D
100
AcDbEntity
  8
細線
 48
50.0
100
AcDbLine
 10
8533.600000000008
 20
7582.660149813046
 30
0.0
 11
8596.674911026168
 21
7645.735060839206
 31
0.0
  0
LINE
  5
2404B
330
747D
100
AcDbEntity
  8
細線
 48
50.0
100
AcDbLine
 10
8533.600000000008
 20
7492.857588602361
 30
0.0
 11
8686.477472236855
 21
7645.735060839204
 31
0.0
  0
LINE
  5
2404C
330
747D
100
AcDbEntity
  8
細線
 48
50.0
100
AcDbLine
 10
8533.600000000008
 20
7447.956307997012
 30
0.0
 11
8731.378752842205
 21
7645.735060839204
 31
0.0
  0
LINE
  5
2404D
330
747D
100
AcDbEntity
  8
細線
 48
50.0
100
AcDbLine
 10
8576.280033447549
 20
7445.73506083921
 30
0.0
 11
8733.600000000008
 21
7603.055027391661
 31
0.0
  0
LINE
  5
2404E
330
747D
100
AcDbEntity
  8
細線
 48
50.0
100
AcDbLine
 10
8621.181314052915
 20
7445.735060839206
 30
0.0
 11
8733.600000000008
 21
7558.153746786317
 31
0.0
  0
LINE
  5
2404F
330
747D
100
AcDbEntity
  8
細線
 48
50.0
100
AcDbLine
 10
8666.08259465825
 20
7445.735060839208
 30
0.0
 11
8733.600000000008
 21
7513.252466180965
 31
0.0
  0
LINE
  5
24050
330
747D
100
AcDbEntity
  8
細線
 48
50.0
100
AcDbLine
 10
8710.983875263607
 20
7445.735060839208
 30
0.0
 11
8733.600000000008
 21
7468.351185575612
 31
0.0
  0
LINE
  5
24051
330
747D
100
AcDbEntity
  8
細線
 48
50.0
100
AcDbLine
 10
8533.600000000008
 20
7627.561430418392
 30
0.0
 11
8551.773630420822
 21
7645.735060839204
 31
0.0
  0
LINE
  5
24052
330
747D
100
AcDbEntity
  8
部品1
 48
50.0
100
AcDbLine
 10
9553.600000000008
 20
7645.735060839204
 30
0.0
 11
9553.600000000008
 21
7445.735060839208
 31
0.0
  0
LINE
  5
24053
330
747D
100
AcDbEntity
  8
細線
 48
50.0
100
AcDbLine
 10
9353.600000000007
 20
7492.857588602361
 30
0.0
 11
9506.477472236856
 21
7645.735060839204
 31
0.0
  0
LINE
  5
24054
330
747D
100
AcDbEntity
  8
細線
 48
50.0
100
AcDbLine
 10
9353.600000000007
 20
7582.660149813046
 30
0.0
 11
9416.674911026168
 21
7645.735060839206
 31
0.0
  0
LINE
  5
24055
330
747D
100
AcDbEntity
  8
細線
 48
50.0
100
AcDbLine
 10
9353.600000000007
 20
7537.758869207698
 30
0.0
 11
9461.576191631513
 21
7645.735060839204
 31
0.0
  0
LINE
  5
24056
330
747D
100
AcDbEntity
  8
部品1
 48
50.0
100
AcDbLine
 10
9353.600000000007
 20
7645.735060839204
 30
0.0
 11
9353.600000000007
 21
7445.73506083921
 31
0.0
  0
LINE
  5
24057
330
747D
100
AcDbEntity
  8
細線
 48
50.0
100
AcDbLine
 10
9353.600000000007
 20
7447.956307997012
 30
0.0
 11
9551.378752842206
 21
7645.735060839204
 31
0.0
  0
LINE
  5
24058
330
747D
100
AcDbEntity
  8
細線
 48
50.0
100
AcDbLine
 10
9441.181314052913
 20
7445.735060839206
 30
0.0
 11
9553.600000000008
 21
7558.153746786317
 31
0.0
  0
LINE
  5
24059
330
747D
100
AcDbEntity
  8
細線
 48
50.0
100
AcDbLine
 10
9396.280033447549
 20
7445.73506083921
 30
0.0
 11
9553.600000000008
 21
7603.055027391661
 31
0.0
  0
LINE
  5
2405A
330
747D
100
AcDbEntity
  8
細線
 48
50.0
100
AcDbLine
 10
9530.983875263608
 20
7445.735060839208
 30
0.0
 11
9553.600000000008
 21
7468.351185575612
 31
0.0
  0
LINE
  5
2405B
330
747D
100
AcDbEntity
  8
細線
 48
50.0
100
AcDbLine
 10
9486.082594658249
 20
7445.735060839208
 30
0.0
 11
9553.600000000008
 21
7513.252466180965
 31
0.0
  0
LINE
  5
2405C
330
747D
100
AcDbEntity
  8
センター
 48
2.0
100
AcDbLine
 10
9695.6
 20
7522.735060839204
 30
0.0
 11
9795.6
 21
7522.735060839204
 31
0.0
  0
LINE
  5
2405D
330
747D
100
AcDbEntity
  8
センター
 48
2.0
100
AcDbLine
 10
9745.600000000001
 20
7572.735060839204
 30
0.0
 11
9745.600000000001
 21
7472.735060839204
 31
0.0
  0
CIRCLE
  5
2405E
330
747D
100
AcDbEntity
  8
部品1
 48
50.0
100
AcDbCircle
 10
9745.600000000001
 20
7522.735060839204
 30
0.0
 40
35.0
  0
LINE
  5
2405F
330
747D
100
AcDbEntity
  8
細線
 48
50.0
100
AcDbLine
 10
9353.600000000007
 20
7627.561430418392
 30
0.0
 11
9371.773630420822
 21
7645.735060839204
 31
0.0
  0
TEXT
  5
2465F
330
747D
100
AcDbEntity
  8
文字
 62
     7
 48
50.0
100
AcDbText
 10
14251.2
 20
838.2527270729188
 30
0.0
 40
100.0
  1
～一般型・多雪地型・豪雪地型～
  7
STYLE2
100
AcDbText
  0
LINE
  5
2467F
330
747D
100
AcDbEntity
  8
部品1
 48
50.0
100
AcDbLine
 10
9748.599999999997
 20
6385.735060839224
 30
0.0
 11
6698.599999999996
 21
6385.735060839198
 31
0.0
  0
LINE
  5
24680
330
747D
100
AcDbEntity
  8
細線
 48
50.0
100
AcDbLine
 10
7713.60000000002
 20
6329.140940732879
 30
0.0
 11
7770.194120106331
 21
6385.735060839201
 31
0.0
  0
LINE
  5
24681
330
747D
100
AcDbEntity
  8
細線
 48
50.0
100
AcDbLine
 10
7713.60000000002
 20
6284.239660127532
 30
0.0
 11
7815.095400711697
 21
6385.735060839202
 31
0.0
  0
LINE
  5
24682
330
747D
100
AcDbEntity
  8
細線
 48
50.0
100
AcDbLine
 10
7713.600000000022
 20
6239.338379522178
 30
0.0
 11
7859.99668131703
 21
6385.735060839202
 31
0.0
  0
LINE
  5
24683
330
747D
100
AcDbEntity
  8
細線
 48
50.0
100
AcDbLine
 10
7713.600000000022
 20
6194.437098916835
 30
0.0
 11
7904.897961922393
 21
6385.735060839204
 31
0.0
  0
LINE
  5
24684
330
747D
100
AcDbEntity
  8
細線
 48
50.0
100
AcDbLine
 10
7894.305645554483
 20
6105.73506083922
 30
0.0
 11
7913.600000000027
 21
6125.029415284762
 31
0.0
  0
LINE
  5
24685
330
747D
100
AcDbEntity
  8
部品1
 48
50.0
100
AcDbLine
 10
7713.600000000019
 20
6385.735060839202
 30
0.0
 11
7713.600000000024
 21
6105.735060839215
 31
0.0
  0
LINE
  5
24686
330
747D
100
AcDbEntity
  8
部品1
 48
50.0
100
AcDbLine
 10
7913.600000000018
 20
6385.735060839202
 30
0.0
 11
7913.600000000023
 21
6105.735060839219
 31
0.0
  0
LINE
  5
24687
330
747D
100
AcDbEntity
  8
細線
 48
50.0
100
AcDbLine
 10
7713.600000000024
 20
6149.535818311489
 30
0.0
 11
7913.600000000018
 21
6349.535818311482
 31
0.0
  0
LINE
  5
24688
330
747D
100
AcDbEntity
  8
細線
 48
50.0
100
AcDbLine
 10
7714.700523133096
 20
6105.735060839215
 30
0.0
 11
7913.600000000021
 21
6304.634537706142
 31
0.0
  0
LINE
  5
24689
330
747D
100
AcDbEntity
  8
細線
 48
50.0
100
AcDbLine
 10
7804.503084343789
 20
6105.735060839217
 30
0.0
 11
7913.600000000022
 21
6214.83197649545
 31
0.0
  0
LINE
  5
2468A
330
747D
100
AcDbEntity
  8
細線
 48
50.0
100
AcDbLine
 10
7759.601803738442
 20
6105.735060839217
 30
0.0
 11
7913.600000000022
 21
6259.733257100799
 31
0.0
  0
LINE
  5
2468B
330
747D
100
AcDbEntity
  8
細線
 48
50.0
100
AcDbLine
 10
7849.404364949137
 20
6105.735060839219
 30
0.0
 11
7913.600000000023
 21
6169.930695890107
 31
0.0
  0
LINE
  5
2468C
330
747D
100
AcDbEntity
  8
細線
 48
50.0
100
AcDbLine
 10
8533.600000000021
 20
6329.140940732879
 30
0.0
 11
8590.19412010633
 21
6385.735060839201
 31
0.0
  0
LINE
  5
2468D
330
747D
100
AcDbEntity
  8
細線
 48
50.0
100
AcDbLine
 10
8533.600000000021
 20
6284.239660127532
 30
0.0
 11
8635.095400711696
 21
6385.735060839202
 31
0.0
  0
LINE
  5
2468E
330
747D
100
AcDbEntity
  8
細線
 48
50.0
100
AcDbLine
 10
8533.600000000022
 20
6239.338379522178
 30
0.0
 11
8679.996681317028
 21
6385.735060839202
 31
0.0
  0
LINE
  5
2468F
330
747D
100
AcDbEntity
  8
細線
 48
50.0
100
AcDbLine
 10
8533.600000000022
 20
6194.437098916835
 30
0.0
 11
8724.897961922394
 21
6385.735060839204
 31
0.0
  0
LINE
  5
24690
330
747D
100
AcDbEntity
  8
細線
 48
50.0
100
AcDbLine
 10
8714.305645554484
 20
6105.73506083922
 30
0.0
 11
8733.600000000025
 21
6125.029415284762
 31
0.0
  0
LINE
  5
24691
330
747D
100
AcDbEntity
  8
部品1
 48
50.0
100
AcDbLine
 10
8533.600000000021
 20
6385.735060839202
 30
0.0
 11
8533.600000000024
 21
6105.735060839215
 31
0.0
  0
LINE
  5
24692
330
747D
100
AcDbEntity
  8
部品1
 48
50.0
100
AcDbLine
 10
8733.600000000018
 20
6385.735060839202
 30
0.0
 11
8733.600000000024
 21
6105.735060839219
 31
0.0
  0
LINE
  5
24693
330
747D
100
AcDbEntity
  8
細線
 48
50.0
100
AcDbLine
 10
8533.600000000024
 20
6149.535818311489
 30
0.0
 11
8733.600000000018
 21
6349.535818311482
 31
0.0
  0
LINE
  5
24694
330
747D
100
AcDbEntity
  8
細線
 48
50.0
100
AcDbLine
 10
8534.700523133096
 20
6105.735060839215
 30
0.0
 11
8733.600000000022
 21
6304.634537706142
 31
0.0
  0
LINE
  5
24695
330
747D
100
AcDbEntity
  8
細線
 48
50.0
100
AcDbLine
 10
8624.503084343789
 20
6105.735060839217
 30
0.0
 11
8733.600000000022
 21
6214.83197649545
 31
0.0
  0
LINE
  5
24696
330
747D
100
AcDbEntity
  8
細線
 48
50.0
100
AcDbLine
 10
8579.601803738443
 20
6105.735060839217
 30
0.0
 11
8733.600000000022
 21
6259.733257100799
 31
0.0
  0
LINE
  5
24697
330
747D
100
AcDbEntity
  8
細線
 48
50.0
100
AcDbLine
 10
8669.404364949137
 20
6105.735060839219
 30
0.0
 11
8733.600000000024
 21
6169.930695890107
 31
0.0
  0
LINE
  5
24698
330
747D
100
AcDbEntity
  8
細線
 48
50.0
100
AcDbLine
 10
9353.600000000019
 20
6329.140940732879
 30
0.0
 11
9410.19412010633
 21
6385.735060839201
 31
0.0
  0
LINE
  5
24699
330
747D
100
AcDbEntity
  8
細線
 48
50.0
100
AcDbLine
 10
9353.600000000019
 20
6284.239660127532
 30
0.0
 11
9455.095400711696
 21
6385.735060839202
 31
0.0
  0
LINE
  5
2469A
330
747D
100
AcDbEntity
  8
細線
 48
50.0
100
AcDbLine
 10
9353.600000000023
 20
6239.338379522178
 30
0.0
 11
9499.996681317028
 21
6385.735060839202
 31
0.0
  0
LINE
  5
2469B
330
747D
100
AcDbEntity
  8
細線
 48
50.0
100
AcDbLine
 10
9353.600000000023
 20
6194.437098916835
 30
0.0
 11
9544.897961922393
 21
6385.735060839204
 31
0.0
  0
LINE
  5
2469C
330
747D
100
AcDbEntity
  8
細線
 48
50.0
100
AcDbLine
 10
9534.305645554482
 20
6105.73506083922
 30
0.0
 11
9553.600000000026
 21
6125.029415284762
 31
0.0
  0
LINE
  5
2469D
330
747D
100
AcDbEntity
  8
部品1
 48
50.0
100
AcDbLine
 10
9353.600000000019
 20
6385.735060839202
 30
0.0
 11
9353.600000000025
 21
6105.735060839215
 31
0.0
  0
LINE
  5
2469E
330
747D
100
AcDbEntity
  8
部品1
 48
50.0
100
AcDbLine
 10
9553.600000000018
 20
6385.735060839202
 30
0.0
 11
9553.600000000024
 21
6105.735060839219
 31
0.0
  0
LINE
  5
2469F
330
747D
100
AcDbEntity
  8
細線
 48
50.0
100
AcDbLine
 10
9353.600000000025
 20
6149.535818311489
 30
0.0
 11
9553.600000000018
 21
6349.535818311482
 31
0.0
  0
LINE
  5
246A0
330
747D
100
AcDbEntity
  8
細線
 48
50.0
100
AcDbLine
 10
9354.700523133097
 20
6105.735060839215
 30
0.0
 11
9553.60000000002
 21
6304.634537706142
 31
0.0
  0
LINE
  5
246A1
330
747D
100
AcDbEntity
  8
細線
 48
50.0
100
AcDbLine
 10
9444.503084343789
 20
6105.735060839217
 30
0.0
 11
9553.600000000022
 21
6214.83197649545
 31
0.0
  0
LINE
  5
246A2
330
747D
100
AcDbEntity
  8
細線
 48
50.0
100
AcDbLine
 10
9399.601803738441
 20
6105.735060839217
 30
0.0
 11
9553.600000000022
 21
6259.733257100799
 31
0.0
  0
LINE
  5
246A3
330
747D
100
AcDbEntity
  8
細線
 48
50.0
100
AcDbLine
 10
9489.404364949137
 20
6105.735060839219
 30
0.0
 11
9553.600000000024
 21
6169.930695890107
 31
0.0
  0
LINE
  5
246C1
330
747D
100
AcDbEntity
  8
部品1
 48
50.0
100
AcDbLine
 10
9748.599999999997
 20
6385.735060839224
 30
0.0
 11
9748.600000000005
 21
7445.735060839206
 31
0.0
  0
LINE
  5
246C2
330
747D
100
AcDbEntity
  8
部品1
 48
50.0
100
AcDbLine
 10
6698.599999999996
 20
6385.735060839198
 30
0.0
 11
6698.599999999998
 21
7445.735060839206
 31
0.0
  0
MTEXT
  5
2485A
102
{ACAD_REACTORS
330
2485B
102
}
330
747D
100
AcDbEntity
  8
寸法
 62
     7
 48
50.0
100
AcDbMText
 10
10505.67131952728
 20
2258.835966768388
 30
0.0
 40
120.0
 41
0.8
 71
     4
 72
     1
  1
\A1;C.B
  7
STYLE1
 73
     1
 44
1.0
1001
ACAD
1000
MTEXTBEGIN
1070
    73
1070
     1
1070
    44
1040
1.0
1070
    74
1070
     0
1000
MTEXTEND
  0
LEADER
  5
2485B
330
747D
100
AcDbEntity
  8
寸法
 48
50.0
100
AcDbLeader
  3
INABA_S50G
 73
     0
 74
     0
 75
     1
 40
120.0
 41
185.591883092037
 76
     3
 10
10322.53311289364
 20
2001.689646087251
 30
0.0
 10
10355.67131952729
 20
2173.835966768388
 30
0.0
 10
10480.67131952729
 20
2173.835966768388
 30
0.0
340
2485A
1001
ACAD
1000
DSTYLE
1002
{
1070
    40
1040
1.0
1002
}
  0
LINE
  5
2485C
330
747D
100
AcDbEntity
  8
細線
 48
50.0
100
AcDbLine
 10
10468.18652647005
 20
1645.990730433899
 30
0.0
 11
10461.75574585171
 21
1669.990730433899
 31
0.0
  0
LINE
  5
2485D
330
747D
100
AcDbEntity
  8
細線
 48
50.0
100
AcDbLine
 10
10446.75059107556
 20
1565.990730433899
 30
0.0
 11
10453.18137169391
 21
1541.990730433899
 31
0.0
  0
LINE
  5
2485E
330
747D
100
AcDbEntity
  8
部品1
100
AcDbLine
 10
10511.80870127772
 20
1761.68964608725
 30
0.0
 11
10511.80870127772
 21
1541.9907304339
 31
0.0
  0
LINE
  5
2485F
330
747D
100
AcDbEntity
  8
細線
 48
50.0
100
AcDbLine
 10
10440.31981045721
 20
1541.990730433899
 30
0.0
 11
10474.6173070884
 21
1669.990730433897
 31
0.0
  0
LINE
  5
24860
330
747D
100
AcDbEntity
  8
細線
 48
50.0
100
AcDbLine
 10
10389.29848152281
 20
1645.990730433899
 30
0.0
 11
10382.86770090446
 21
1669.990730433899
 31
0.0
  0
LINE
  5
24861
330
747D
100
AcDbEntity
  8
細線
100
AcDbLine
 10
10264.84509577705
 20
1669.990730433902
 30
0.0
 11
10356.5440114304
 21
1761.68964608725
 31
0.0
  0
LINE
  5
24862
330
747D
100
AcDbEntity
  8
細線
 48
50.0
100
AcDbLine
 10
10310.41043657555
 20
1645.9907304339
 30
0.0
 11
10303.9796559572
 21
1669.9907304339
 31
0.0
  0
LINE
  5
24863
330
747D
100
AcDbEntity
  8
細線
100
AcDbLine
 10
10298.78622127401
 20
1669.990730433902
 30
0.0
 11
10390.48513692735
 21
1761.68964608725
 31
0.0
  0
LINE
  5
24864
330
747D
100
AcDbEntity
  8
細線
 48
50.0
100
AcDbLine
 10
10073.74630173382
 20
1645.9907304339
 30
0.0
 11
10067.31552111547
 21
1669.9907304339
 31
0.0
  0
LINE
  5
24865
330
747D
100
AcDbEntity
  8
細線
 48
50.0
100
AcDbLine
 10
10152.63434668106
 20
1645.9907304339
 30
0.0
 11
10146.20356606272
 21
1669.9907304339
 31
0.0
  0
LINE
  5
24866
330
747D
100
AcDbEntity
  8
細線
 48
50.0
100
AcDbLine
 10
10231.52239162831
 20
1645.9907304339
 30
0.0
 11
10225.09161100996
 21
1669.9907304339
 31
0.0
  0
LINE
  5
24867
330
747D
100
AcDbEntity
  8
細線
 48
50.0
100
AcDbLine
 10
10367.86254612832
 20
1565.990730433899
 30
0.0
 11
10374.29332674666
 21
1541.990730433899
 31
0.0
  0
LINE
  5
24868
330
747D
100
AcDbEntity
  8
細線
 48
50.0
100
AcDbLine
 10
10288.97450118107
 20
1565.9907304339
 30
0.0
 11
10295.40528179943
 21
1541.9907304339
 31
0.0
  0
LINE
  5
24869
330
747D
100
AcDbEntity
  8
細線
 48
50.0
100
AcDbLine
 10
10131.19841128657
 20
1565.9907304339
 30
0.0
 11
10137.62919190492
 21
1541.9907304339
 31
0.0
  0
LINE
  5
2486A
330
747D
100
AcDbEntity
  8
細線
 48
50.0
100
AcDbLine
 10
10210.08645623382
 20
1565.9907304339
 30
0.0
 11
10216.51723685217
 21
1541.9907304339
 31
0.0
  0
LINE
  5
2486B
330
747D
100
AcDbEntity
  8
細線
 48
50.0
100
AcDbLine
 10
10203.65567561547
 20
1541.9907304339
 30
0.0
 11
10237.95317224665
 21
1669.990730433899
 31
0.0
  0
LINE
  5
2486C
330
747D
100
AcDbEntity
  8
細線
 48
50.0
100
AcDbLine
 10
10124.76763066822
 20
1541.990730433899
 30
0.0
 11
10159.06512729941
 21
1669.990730433899
 31
0.0
  0
LINE
  5
2486D
330
747D
100
AcDbEntity
  8
細線
 48
50.0
100
AcDbLine
 10
10282.54372056272
 20
1541.990730433899
 30
0.0
 11
10316.84121719389
 21
1669.9907304339
 31
0.0
  0
LINE
  5
2486E
330
747D
100
AcDbEntity
  8
細線
100
AcDbLine
 10
10332.72734677096
 20
1669.990730433902
 30
0.0
 11
10424.42626242431
 21
1761.68964608725
 31
0.0
  0
LINE
  5
2486F
330
747D
100
AcDbEntity
  8
細線
 48
50.0
100
AcDbLine
 10
10361.43176550997
 20
1541.990730433898
 30
0.0
 11
10395.72926214115
 21
1669.990730433897
 31
0.0
  0
LINE
  5
24870
330
747D
100
AcDbEntity
  8
部品1
100
AcDbLine
 10
10391.80870127772
 20
2001.689646087251
 30
0.0
 11
10391.80870127772
 21
1761.68964608725
 31
0.0
  0
LINE
  5
24871
330
747D
100
AcDbEntity
  8
細線
100
AcDbLine
 10
10377.97103893014
 20
1761.689646087252
 30
0.0
 11
10137.97103893014
 21
2001.689646087251
 31
0.0
  0
LINE
  5
24872
330
747D
100
AcDbEntity
  8
細線
100
AcDbLine
 10
10327.05935068471
 20
1761.68964608725
 30
0.0
 11
10087.05935068471
 21
2001.689646087251
 31
0.0
  0
LINE
  5
24873
330
747D
100
AcDbEntity
  8
細線
100
AcDbLine
 10
9938.786221274007
 20
1669.9907304339
 30
0.0
 11
10030.48513692735
 21
1761.68964608725
 31
0.0
  0
LINE
  5
24874
330
747D
100
AcDbEntity
  8
細線
100
AcDbLine
 10
9904.84509577705
 20
1669.9907304339
 30
0.0
 11
9996.544011430401
 21
1761.68964608725
 31
0.0
  0
LINE
  5
24875
330
747D
100
AcDbEntity
  8
細線
 48
50.0
100
AcDbLine
 10
9915.970211839322
 20
1645.9907304339
 30
0.0
 11
9909.539431220977
 21
1669.9907304339
 31
0.0
  0
LINE
  5
24876
330
747D
100
AcDbEntity
  8
細線
 48
50.0
100
AcDbLine
 10
9994.858256786574
 20
1645.9907304339
 30
0.0
 11
9988.427476168228
 21
1669.9907304339
 31
0.0
  0
LINE
  5
24877
330
747D
100
AcDbEntity
  8
細線
 48
50.0
100
AcDbLine
 10
9837.082166892072
 20
1645.9907304339
 30
0.0
 11
9830.651386273723
 21
1669.9907304339
 31
0.0
  0
LINE
  5
24878
330
747D
100
AcDbEntity
  8
細線
 48
50.0
100
AcDbLine
 10
10052.31036633933
 20
1565.9907304339
 30
0.0
 11
10058.74114695768
 21
1541.9907304339
 31
0.0
  0
LINE
  5
24879
330
747D
100
AcDbEntity
  8
細線
 48
50.0
100
AcDbLine
 10
9973.422321392085
 20
1565.9907304339
 30
0.0
 11
9979.85310201043
 21
1541.9907304339
 31
0.0
  0
LINE
  5
2487A
330
747D
100
AcDbEntity
  8
細線
 48
50.0
100
AcDbLine
 10
9815.646231497581
 20
1565.9907304339
 30
0.0
 11
9822.077012115929
 21
1541.9907304339
 31
0.0
  0
LINE
  5
2487B
330
747D
100
AcDbEntity
  8
細線
 48
50.0
100
AcDbLine
 10
9894.534276444833
 20
1565.9907304339
 30
0.0
 11
9900.965057063181
 21
1541.9907304339
 31
0.0
  0
LINE
  5
2487C
330
747D
100
AcDbEntity
  8
部品1
100
AcDbLine
 10
9791.808701277723
 20
1541.990730433896
 30
0.0
 11
9791.808701277723
 21
1761.68964608725
 31
0.0
  0
LINE
  5
2487D
330
747D
100
AcDbEntity
  8
細線
 48
50.0
100
AcDbLine
 10
9809.215450879234
 20
1541.9907304339
 30
0.0
 11
9843.512947510419
 21
1669.9907304339
 31
0.0
  0
LINE
  5
2487E
330
747D
100
AcDbEntity
  8
細線
 48
50.0
100
AcDbLine
 10
9966.991540773733
 20
1541.9907304339
 30
0.0
 11
10001.28903740491
 21
1669.9907304339
 31
0.0
  0
LINE
  5
2487F
330
747D
100
AcDbEntity
  8
細線
 48
50.0
100
AcDbLine
 10
9888.103495826481
 20
1541.990730433899
 30
0.0
 11
9922.400992457665
 21
1669.990730433899
 31
0.0
  0
LINE
  5
24880
330
747D
100
AcDbEntity
  8
部品1
100
AcDbLine
 10
9911.80870127772
 20
1761.68964608725
 30
0.0
 11
9911.80870127772
 21
2001.689646087251
 31
0.0
  0
TEXT
  5
24881
330
747D
100
AcDbEntity
  8
部品1
 48
50.0
100
AcDbText
 10
9147.690614519218
 20
1494.889905449941
 30
0.0
 40
80.0
  1
ボルトの出
 50
90.0
  7
STYLE2
100
AcDbText
  0
LINE
  5
24882
330
747D
100
AcDbEntity
  8
細線
100
AcDbLine
 10
10055.53034670907
 20
1761.68964608725
 30
0.0
 11
9911.80870127772
 21
1905.411291518603
 31
0.0
  0
LWPOLYLINE
  5
24883
330
747D
100
AcDbEntity
  8
部品1
 48
50.0
100
AcDbPolyline
 90
        2
 70
     0
 43
12.0
 10
9527.197439177333
 20
1761.68964608725
 10
10728.28974230896
 20
1761.68964608725
  0
LINE
  5
24884
330
747D
100
AcDbEntity
  8
細線
100
AcDbLine
 10
9972.727346770964
 20
1669.9907304339
 30
0.0
 11
10064.42626242431
 21
1761.68964608725
 31
0.0
  0
LINE
  5
24885
330
747D
100
AcDbEntity
  8
部品1
100
AcDbLine
 10
9791.808701277723
 20
1669.9907304339
 30
0.0
 11
10511.80870127772
 21
1669.990730433903
 31
0.0
  0
LINE
  5
24886
330
747D
100
AcDbEntity
  8
部品1
100
AcDbLine
 10
9791.808701277723
 20
1541.990730433896
 30
0.0
 11
10511.80870127772
 21
1541.9907304339
 31
0.0
  0
LINE
  5
24887
330
747D
100
AcDbEntity
  8
細線
 48
50.0
100
AcDbLine
 10
10045.87958572098
 20
1541.9907304339
 30
0.0
 11
10080.17708235216
 21
1669.990730433899
 31
0.0
  0
LINE
  5
24888
330
747D
100
AcDbEntity
  8
部品1
100
AcDbLine
 10
9911.80870127772
 20
2001.689646087251
 30
0.0
 11
10391.80870127772
 21
2001.689646087251
 31
0.0
  0
LINE
  5
24889
330
747D
100
AcDbEntity
  8
細線
100
AcDbLine
 10
10106.4420349545
 20
1761.68964608725
 30
0.0
 11
9911.80870127772
 21
1956.322979764033
 31
0.0
  0
LINE
  5
2488A
330
747D
100
AcDbEntity
  8
部品1
100
AcDbLine
 10
11098.55020237475
 20
436.7213437031887
 30
0.0
 11
11098.55020237476
 21
3401.028313287836
 31
0.0
  0
TEXT
  5
2488B
330
747D
100
AcDbEntity
  8
部品1
100
AcDbText
 10
7720.445018166895
 20
3221.476381336408
 30
0.0
 40
120.0
  1
基礎詳細
  7
STYLE2
100
AcDbText
  0
LINE
  5
2488C
330
747D
100
AcDbEntity
  8
部品1
 48
50.0
100
AcDbLine
 10
8035.672768974965
 20
2400.564927196394
 30
0.0
 11
8051.672768974965
 21
2392.564927196393
 31
0.0
  0
LINE
  5
2488D
330
747D
100
AcDbEntity
  8
細線
 48
50.0
100
AcDbLine
 10
8003.672768974963
 20
2352.564927196393
 30
0.0
 11
8003.672768974963
 21
2384.564927196393
 31
0.0
  0
LINE
  5
2488E
330
747D
100
AcDbEntity
  8
部品1
 48
50.0
100
AcDbLine
 10
8051.672768974965
 20
2360.564927196393
 30
0.0
 11
8051.672768974965
 21
2392.564927196393
 31
0.0
  0
LINE
  5
2488F
330
747D
100
AcDbEntity
  8
細線
 48
50.0
100
AcDbLine
 10
8035.672768974965
 20
2352.564927196393
 30
0.0
 11
8035.672768974965
 21
2384.564927196393
 31
0.0
  0
LINE
  5
24890
330
747D
100
AcDbEntity
  8
部品1
 48
50.0
100
AcDbLine
 10
8035.672768974965
 20
2384.564927196393
 30
0.0
 11
8051.672768974965
 21
2392.564927196393
 31
0.0
  0
LINE
  5
24891
330
747D
100
AcDbEntity
  8
部品1
 48
50.0
100
AcDbLine
 10
8003.672768974963
 20
2384.564927196393
 30
0.0
 11
8035.672768974965
 21
2384.564927196393
 31
0.0
  0
LINE
  5
24892
330
747D
100
AcDbEntity
  8
部品1
 48
50.0
100
AcDbLine
 10
8035.672768974965
 20
2352.564927196393
 30
0.0
 11
8051.672768974965
 21
2360.564927196393
 31
0.0
  0
LINE
  5
24893
330
747D
100
AcDbEntity
  8
部品1
 48
50.0
100
AcDbLine
 10
8003.672768974963
 20
2352.564927196393
 30
0.0
 11
8035.672768974965
 21
2352.564927196393
 31
0.0
  0
ELLIPSE
  5
24894
330
747D
100
AcDbEntity
  8
細線
 48
50.0
100
AcDbEllipse
 10
8019.672768974963
 20
2392.564927196393
 30
0.0
 11
14.76670786606846
 21
0.0
 31
0.0
210
0.0
220
0.0
230
1.0
 40
0.2071254069489396
 41
0.0
 42
6.283185307179586
  0
LINE
  5
24895
330
747D
100
AcDbEntity
  8
部品1
 48
50.0
100
AcDbLine
 10
8003.672768974963
 20
2400.564927196394
 30
0.0
 11
8035.672768974965
 21
2400.564927196394
 31
0.0
  0
LINE
  5
24896
330
747D
100
AcDbEntity
  8
部品1
 48
50.0
100
AcDbLine
 10
7987.672768974964
 20
2360.564927196393
 30
0.0
 11
7987.672768974964
 21
2392.564927196393
 31
0.0
  0
LINE
  5
24897
330
747D
100
AcDbEntity
  8
部品1
 48
50.0
100
AcDbLine
 10
7987.672768974964
 20
2392.564927196393
 30
0.0
 11
8003.672768974963
 21
2400.564927196394
 31
0.0
  0
LINE
  5
24898
330
747D
100
AcDbEntity
  8
部品1
 48
50.0
100
AcDbLine
 10
7987.672768974964
 20
2360.564927196393
 30
0.0
 11
8003.672768974963
 21
2352.564927196393
 31
0.0
  0
LINE
  5
24899
330
747D
100
AcDbEntity
  8
部品1
 48
50.0
100
AcDbLine
 10
7987.672768974964
 20
2392.564927196393
 30
0.0
 11
8003.672768974963
 21
2384.564927196393
 31
0.0
  0
LINE
  5
2489A
330
747D
100
AcDbEntity
  8
部品1
 48
50.0
100
AcDbLine
 10
8059.672768974964
 20
2261.212934531522
 30
0.0
 11
8059.672768974964
 21
2270.812934531523
 31
0.0
  0
ELLIPSE
  5
2489B
330
747D
100
AcDbEntity
  8
部品1
 48
50.0
100
AcDbEllipse
 10
8019.672768974963
 20
2270.812934531523
 30
0.0
 11
18.4
 21
0.0
 31
0.0
210
0.0
220
0.0
230
1.0
 40
0.3478260869565217
 41
0.0
 42
6.283185307179586
  0
ARC
  5
2489C
330
747D
100
AcDbEntity
  8
部品1
100
AcDbCircle
 10
7858.572768974965
 20
2099.789646087251
 30
0.0
 40
2.7
100
AcDbArc
 50
90.0
 51
180.0
  0
LINE
  5
2489D
330
747D
100
AcDbEntity
  8
部品1
100
AcDbLine
 10
7861.272768974963
 20
2113.289646087251
 30
0.0
 11
7903.572768974964
 21
2113.289646087247
 31
0.0
  0
LINE
  5
2489E
330
747D
100
AcDbEntity
  8
部品1
100
AcDbLine
 10
7858.572768974965
 20
2102.489646087251
 30
0.0
 11
7858.572768974965
 21
2110.58964608725
 31
0.0
  0
LINE
  5
2489F
330
747D
100
AcDbEntity
  8
部品1
100
AcDbLine
 10
7858.572768974965
 20
2102.489646087251
 30
0.0
 11
7858.572768974965
 21
2102.489646087251
 31
0.0
  0
ARC
  5
248A0
330
747D
100
AcDbEntity
  8
部品1
100
AcDbCircle
 10
7861.272768974963
 20
2110.58964608725
 30
0.0
 40
2.7
100
AcDbArc
 50
90.0
 51
180.0
  0
ARC
  5
248A1
330
747D
100
AcDbEntity
  8
部品1
100
AcDbCircle
 10
7903.572768974964
 20
2110.589646087247
 30
0.0
 40
2.7
100
AcDbArc
 50
0.0
 51
90.0
  0
LINE
  5
248A2
330
747D
100
AcDbEntity
  8
部品1
 48
50.0
100
AcDbLine
 10
7979.672768974964
 20
2270.812934531523
 30
0.0
 11
7979.672768974964
 21
2261.212934531522
 31
0.0
  0
ELLIPSE
  5
248A3
330
747D
100
AcDbEntity
  8
部品1
 48
50.0
100
AcDbEllipse
 10
8019.672768974963
 20
2261.212934531524
 30
0.0
 11
40.0
 21
0.0
 31
0.0
210
0.0
220
0.0
230
1.0
 40
0.4
 41
3.141592653589793
 42
6.283185307179586
  0
ELLIPSE
  5
248A4
330
747D
100
AcDbEntity
  8
部品1
 48
50.0
100
AcDbEllipse
 10
8019.672768974963
 20
2270.812934531523
 30
0.0
 11
40.0
 21
0.0
 31
0.0
210
0.0
220
0.0
230
1.0
 40
0.4
 41
0.0
 42
6.283185307179586
  0
LINE
  5
248A5
330
747D
100
AcDbEntity
  8
部品1
100
AcDbLine
 10
8014.272768974963
 20
2054.449646087251
 30
0.0
 11
8025.072768974963
 21
2054.449646087251
 31
0.0
  0
LINE
  5
248A6
330
747D
100
AcDbEntity
  8
部品1
100
AcDbLine
 10
8010.672768974965
 20
2050.849646087251
 30
0.0
 11
8028.672768974963
 21
2050.849646087251
 31
0.0
  0
LINE
  5
248A7
330
747D
100
AcDbEntity
  8
細線
100
AcDbLine
 10
8014.272768974967
 20
2011.249646087251
 30
0.0
 11
8014.272768974963
 21
2054.449646087251
 31
0.0
  0
LINE
  5
248A8
330
747D
100
AcDbEntity
  8
細線
100
AcDbLine
 10
8025.072768974963
 20
2011.249646087251
 30
0.0
 11
8025.072768974963
 21
2054.449646087251
 31
0.0
  0
LINE
  5
248A9
330
747D
100
AcDbEntity
  8
部品1
100
AcDbLine
 10
7926.972768974962
 20
2068.549646087251
 30
0.0
 11
7926.972768974962
 21
2051.449646087251
 31
0.0
  0
LINE
  5
248AA
330
747D
100
AcDbEntity
  8
部品1
100
AcDbLine
 10
7960.532768974964
 20
2068.549646087251
 30
0.0
 11
7960.532768974961
 21
2013.949646087251
 31
0.0
  0
ARC
  5
248AB
330
747D
100
AcDbEntity
  8
部品1
100
AcDbCircle
 10
7945.872768974965
 20
2056.58964608725
 30
0.0
 40
2.7
100
AcDbArc
 50
0.0
 51
90.0
  0
LINE
  5
248AC
330
747D
100
AcDbEntity
  8
部品1
100
AcDbLine
 10
7906.272768974962
 20
2059.28964608725
 30
0.0
 11
7945.872768974965
 21
2059.28964608725
 31
0.0
  0
ARC
  5
248AD
330
747D
100
AcDbEntity
  8
部品1
100
AcDbCircle
 10
7945.872768974965
 20
2013.949646087251
 30
0.0
 40
2.7
100
AcDbArc
 50
270.0
 51
0.0
  0
ARC
  5
248AE
330
747D
100
AcDbEntity
  8
部品1
100
AcDbCircle
 10
7963.232768974958
 20
2013.949646087251
 30
0.0
 40
2.7
100
AcDbArc
 50
180.0
 51
270.0
  0
LINE
  5
248AF
330
747D
100
AcDbEntity
  8
部品1
100
AcDbLine
 10
7934.172768974964
 20
2011.249646087251
 30
0.0
 11
7945.872768974965
 21
2011.249646087251
 31
0.0
  0
LINE
  5
248B0
330
747D
100
AcDbEntity
  8
部品1
100
AcDbLine
 10
7948.572768974964
 20
2056.58964608725
 30
0.0
 11
7948.572768974964
 21
2013.949646087251
 31
0.0
  0
ARC
  5
248B1
330
747D
100
AcDbEntity
  8
部品1
100
AcDbCircle
 10
7957.832768974964
 20
2068.549646087251
 30
0.0
 40
2.7
100
AcDbArc
 50
0.0
 51
90.0
  0
ARC
  5
248B2
330
747D
100
AcDbEntity
  8
部品1
100
AcDbCircle
 10
7929.672768974964
 20
2068.549646087251
 30
0.0
 40
2.7
100
AcDbArc
 50
90.0
 51
180.0
  0
LINE
  5
248B3
330
747D
100
AcDbEntity
  8
部品1
100
AcDbLine
 10
7929.672768974964
 20
2071.249646087251
 30
0.0
 11
7957.832768974964
 21
2071.249646087251
 31
0.0
  0
LINE
  5
248B4
330
747D
100
AcDbEntity
  8
部品1
100
AcDbLine
 10
7906.272768974962
 20
2110.589646087247
 30
0.0
 11
7906.272768974962
 21
2059.28964608725
 31
0.0
  0
LINE
  5
248B5
330
747D
100
AcDbEntity
  8
部品1
100
AcDbLine
 10
7855.872768974965
 20
2091.68964608725
 30
0.0
 11
7855.872768974965
 21
2099.789646087251
 31
0.0
  0
LINE
  5
248B6
330
747D
100
AcDbEntity
  8
部品1
100
AcDbLine
 10
7963.232768974958
 20
2011.249646087251
 30
0.0
 11
8164.572768974959
 21
2011.249646087251
 31
0.0
  0
LINE
  5
248B7
330
747D
100
AcDbEntity
  8
部品1
100
AcDbLine
 10
7804.572768974963
 20
2013.949646087251
 30
0.0
 11
7804.572768974963
 21
2076.081549789959
 31
0.0
  0
LINE
  5
248B8
330
747D
100
AcDbEntity
  8
部品1
100
AcDbLine
 10
7807.272768974963
 20
2011.249646087251
 30
0.0
 11
7818.972768974957
 21
2011.249646087251
 31
0.0
  0
LINE
  5
248B9
330
747D
100
AcDbEntity
  8
細線
 48
50.0
100
AcDbLine
 10
7798.272768974962
 20
1989.470222387155
 30
0.0
 11
7810.492192675058
 21
2001.689646087251
 31
0.0
  0
ARC
  5
248BA
330
747D
100
AcDbEntity
  8
部品1
100
AcDbCircle
 10
7807.272768974963
 20
2013.949646087251
 30
0.0
 40
2.7
100
AcDbArc
 50
180.0
 51
270.0
  0
LINE
  5
248BB
330
747D
100
AcDbEntity
  8
部品1
100
AcDbLine
 10
7806.617922787366
 20
2078.70093454035
 30
0.0
 11
7815.372768974964
 21
2080.88964608725
 31
0.0
  0
ARC
  5
248BC
330
747D
100
AcDbEntity
  8
部品1
100
AcDbCircle
 10
7807.272768974963
 20
2076.081549789959
 30
0.0
 40
2.7
100
AcDbArc
 50
104.0362434679067
 51
180.0
  0
ARC
  5
248BD
330
747D
100
AcDbEntity
  8
部品1
100
AcDbCircle
 10
7818.072768974964
 20
2088.989646087251
 30
0.0
 40
2.7
100
AcDbArc
 50
90.0
 51
180.0
  0
LINE
  5
248BE
330
747D
100
AcDbEntity
  8
部品1
100
AcDbLine
 10
7815.372768974964
 20
2080.88964608725
 30
0.0
 11
7815.372768974964
 21
2088.989646087251
 31
0.0
  0
LINE
  5
248BF
330
747D
100
AcDbEntity
  8
部品1
 48
50.0
100
AcDbLine
 10
7798.272768974962
 20
2001.689646087251
 30
0.0
 11
8212.272768974967
 21
2001.689646087251
 31
0.0
  0
LINE
  5
248C0
330
747D
100
AcDbEntity
  8
細線
 48
50.0
100
AcDbLine
 10
7798.272768974962
 20
1935.58868566074
 30
0.0
 11
7864.373729401474
 21
2001.689646087251
 31
0.0
  0
LINE
  5
248C1
330
747D
100
AcDbEntity
  8
細線
 48
50.0
100
AcDbLine
 10
7798.272768974962
 20
1962.529454023948
 30
0.0
 11
7837.43296103827
 21
2001.689646087251
 31
0.0
  0
LINE
  5
248C2
330
747D
100
AcDbEntity
  8
部品1
100
AcDbLine
 10
7818.072768974964
 20
2091.68964608725
 30
0.0
 11
7855.872768974965
 21
2091.68964608725
 31
0.0
  0
LINE
  5
248C3
330
747D
100
AcDbEntity
  8
部品1
 48
50.0
100
AcDbLine
 10
8212.272768974962
 20
1457.68964608725
 30
0.0
 11
8340.272768974962
 21
1457.68964608725
 31
0.0
  0
LINE
  5
248C4
330
747D
100
AcDbEntity
  8
部品1
100
AcDbLine
 10
8028.672768974963
 20
1776.68964608725
 30
0.0
 11
8064.672768974963
 21
1776.68964608725
 31
0.0
  0
LINE
  5
248C5
330
747D
100
AcDbEntity
  8
部品1
100
AcDbLine
 10
8028.672768974963
 20
1758.68964608725
 30
0.0
 11
8064.672768974963
 21
1758.68964608725
 31
0.0
  0
ARC
  5
248C6
330
747D
100
AcDbEntity
  8
部品1
100
AcDbCircle
 10
8028.672768974963
 20
1776.68964608725
 30
0.0
 40
18.0
100
AcDbArc
 50
180.0
 51
270.0
  0
LINE
  5
248C7
330
747D
100
AcDbEntity
  8
部品1
100
AcDbLine
 10
8064.672768974963
 20
1758.68964608725
 30
0.0
 11
8064.672768974963
 21
1776.68964608725
 31
0.0
  0
LINE
  5
248C8
330
747D
100
AcDbEntity
  8
部品1
100
AcDbLine
 10
8082.672768974964
 20
1677.689646087248
 30
0.0
 11
7956.672768974957
 21
1677.689646087248
 31
0.0
  0
LINE
  5
248C9
330
747D
100
AcDbEntity
  8
細線
 48
50.0
100
AcDbLine
 10
8376.650594167299
 20
1193.689646087248
 30
0.0
 11
8370.219813548953
 21
1217.689646087248
 31
0.0
  0
LINE
  5
248CA
330
747D
100
AcDbEntity
  8
細線
 48
50.0
100
AcDbLine
 10
8297.762549220053
 20
1193.689646087248
 30
0.0
 11
8291.331768601706
 21
1217.689646087248
 31
0.0
  0
LINE
  5
248CB
330
747D
100
AcDbEntity
  8
細線
 48
50.0
100
AcDbLine
 10
8218.874504272797
 20
1193.68964608725
 30
0.0
 11
8212.44372365445
 21
1217.68964608725
 31
0.0
  0
LINE
  5
248CC
330
747D
100
AcDbEntity
  8
細線
 48
50.0
100
AcDbLine
 10
8355.214658772808
 20
1113.689646087248
 30
0.0
 11
8361.645439391157
 21
1089.689646087248
 31
0.0
  0
LINE
  5
248CD
330
747D
100
AcDbEntity
  8
細線
 48
50.0
100
AcDbLine
 10
8276.326613825565
 20
1113.689646087248
 30
0.0
 11
8282.75739444391
 21
1089.689646087248
 31
0.0
  0
LINE
  5
248CE
330
747D
100
AcDbEntity
  8
細線
 48
50.0
100
AcDbLine
 10
8197.438568878316
 20
1113.68964608725
 30
0.0
 11
8203.869349496672
 21
1089.68964608725
 31
0.0
  0
LINE
  5
248CF
330
747D
100
AcDbEntity
  8
細線
 48
50.0
100
AcDbLine
 10
8269.895833207213
 20
1089.689646087247
 30
0.0
 11
8304.193329838398
 21
1217.689646087247
 31
0.0
  0
LINE
  5
248D0
330
747D
100
AcDbEntity
  8
細線
 48
50.0
100
AcDbLine
 10
8191.007788259964
 20
1089.689646087248
 30
0.0
 11
8225.30528489114
 21
1217.68964608725
 31
0.0
  0
LINE
  5
248D1
330
747D
100
AcDbEntity
  8
細線
 48
50.0
100
AcDbLine
 10
8348.783878154458
 20
1089.689646087248
 30
0.0
 11
8383.081374785644
 21
1217.689646087247
 31
0.0
  0
LINE
  5
248D2
330
747D
100
AcDbEntity
  8
部品1
 48
50.0
100
AcDbLine
 10
8420.272768974966
 20
1217.68964608725
 30
0.0
 11
8420.272768974966
 21
1089.68964608725
 31
0.0
  0
LINE
  5
248D3
330
747D
100
AcDbEntity
  8
細線
 48
50.0
100
AcDbLine
 10
8139.986459325559
 20
1193.68964608725
 30
0.0
 11
8133.555678707214
 21
1217.68964608725
 31
0.0
  0
LINE
  5
248D4
330
747D
100
AcDbEntity
  8
細線
 48
50.0
100
AcDbLine
 10
8061.098414378314
 20
1193.68964608725
 30
0.0
 11
8054.667633759967
 21
1217.68964608725
 31
0.0
  0
LINE
  5
248D5
330
747D
100
AcDbEntity
  8
細線
 48
50.0
100
AcDbLine
 10
7903.32232448382
 20
1193.68964608725
 30
0.0
 11
7896.891543865473
 21
1217.68964608725
 31
0.0
  0
LINE
  5
248D6
330
747D
100
AcDbEntity
  8
細線
 48
50.0
100
AcDbLine
 10
7982.210369431067
 20
1193.68964608725
 30
0.0
 11
7975.779588812719
 21
1217.68964608725
 31
0.0
  0
LINE
  5
248D7
330
747D
100
AcDbEntity
  8
細線
 48
50.0
100
AcDbLine
 10
8039.662478983824
 20
1113.68964608725
 30
0.0
 11
8046.093259602171
 21
1089.68964608725
 31
0.0
  0
LINE
  5
248D8
330
747D
100
AcDbEntity
  8
細線
 48
50.0
100
AcDbLine
 10
8118.55052393107
 20
1113.68964608725
 30
0.0
 11
8124.981304549416
 21
1089.68964608725
 31
0.0
  0
LINE
  5
248D9
330
747D
100
AcDbEntity
  8
細線
 48
50.0
100
AcDbLine
 10
7881.88638908933
 20
1113.68964608725
 30
0.0
 11
7888.317169707677
 21
1089.68964608725
 31
0.0
  0
LINE
  5
248DA
330
747D
100
AcDbEntity
  8
細線
 48
50.0
100
AcDbLine
 10
7960.774434036577
 20
1113.68964608725
 30
0.0
 11
7967.205214654924
 21
1089.68964608725
 31
0.0
  0
LINE
  5
248DB
330
747D
100
AcDbEntity
  8
細線
 48
50.0
100
AcDbLine
 10
8112.119743312716
 20
1089.68964608725
 30
0.0
 11
8146.4172399439
 21
1217.689646087248
 31
0.0
  0
LINE
  5
248DC
330
747D
100
AcDbEntity
  8
細線
 48
50.0
100
AcDbLine
 10
7954.343653418226
 20
1089.68964608725
 30
0.0
 11
7988.64115004941
 21
1217.689646087248
 31
0.0
  0
LINE
  5
248DD
330
747D
100
AcDbEntity
  8
細線
 48
50.0
100
AcDbLine
 10
7875.455608470979
 20
1089.68964608725
 30
0.0
 11
7909.753105102161
 21
1217.68964608725
 31
0.0
  0
LINE
  5
248DE
330
747D
100
AcDbEntity
  8
細線
 48
50.0
100
AcDbLine
 10
8033.231698365474
 20
1089.689646087248
 30
0.0
 11
8067.529194996657
 21
1217.689646087248
 31
0.0
  0
LINE
  5
248DF
330
747D
100
AcDbEntity
  8
細線
 48
50.0
100
AcDbLine
 10
8158.004463929772
 20
1217.68964608725
 30
0.0
 11
8340.272768974962
 21
1399.957951132446
 31
0.0
  0
LINE
  5
248E0
330
747D
100
AcDbEntity
  8
部品1
 48
50.0
100
AcDbLine
 10
8340.272768974962
 20
1457.68964608725
 30
0.0
 11
8340.272768974962
 21
1217.68964608725
 31
0.0
  0
LINE
  5
248E1
330
747D
100
AcDbEntity
  8
細線
 48
50.0
100
AcDbLine
 10
8131.063695566568
 20
1217.68964608725
 30
0.0
 11
8340.272768974962
 21
1426.898719495643
 31
0.0
  0
LINE
  5
248E2
330
747D
100
AcDbEntity
  8
細線
 48
50.0
100
AcDbLine
 10
8104.122927203356
 20
1217.68964608725
 30
0.0
 11
8340.272768974962
 21
1453.839487858859
 31
0.0
  0
LINE
  5
248E3
330
747D
100
AcDbEntity
  8
細線
 48
50.0
100
AcDbLine
 10
7888.596780297698
 20
1217.68964608725
 30
0.0
 11
8212.272768974962
 21
1541.365634764516
 31
0.0
  0
LINE
  5
248E4
330
747D
100
AcDbEntity
  8
細線
 48
50.0
100
AcDbLine
 10
7942.478317024114
 20
1217.68964608725
 30
0.0
 11
8212.272768974962
 21
1487.484098038108
 31
0.0
  0
LINE
  5
248E5
330
747D
100
AcDbEntity
  8
細線
 48
50.0
100
AcDbLine
 10
7915.537548660909
 20
1217.68964608725
 30
0.0
 11
8212.272768974962
 21
1514.424866401303
 31
0.0
  0
LINE
  5
248E6
330
747D
100
AcDbEntity
  8
細線
 48
50.0
100
AcDbLine
 10
7670.272768974959
 20
1430.417928575836
 30
0.0
 11
7697.544486486378
 21
1457.68964608725
 31
0.0
  0
LINE
  5
248E7
330
747D
100
AcDbEntity
  8
部品1
 48
50.0
100
AcDbLine
 10
7670.272768974962
 20
1457.68964608725
 30
0.0
 11
7798.272768974962
 21
1457.68964608725
 31
0.0
  0
LINE
  5
248E8
330
747D
100
AcDbEntity
  8
細線
 48
50.0
100
AcDbLine
 10
7670.272768974959
 20
1403.477160212626
 30
0.0
 11
7724.485254849587
 21
1457.68964608725
 31
0.0
  0
LWPOLYLINE
  5
248E9
330
747D
100
AcDbEntity
  8
部品1
 48
50.0
100
AcDbPolyline
 90
        2
 70
     0
 43
8.0
 10
7384.132867142007
 20
1761.689646087251
 10
7798.272768974962
 20
1761.689646087251
  0
LINE
  5
248EA
330
747D
100
AcDbEntity
  8
細線
 48
50.0
100
AcDbLine
 10
7745.546234589318
 20
1193.68964608725
 30
0.0
 11
7739.115453970971
 21
1217.68964608725
 31
0.0
  0
LINE
  5
248EB
330
747D
100
AcDbEntity
  8
細線
 48
50.0
100
AcDbLine
 10
7824.434279536568
 20
1193.68964608725
 30
0.0
 11
7818.00349891822
 21
1217.68964608725
 31
0.0
  0
LINE
  5
248EC
330
747D
100
AcDbEntity
  8
細線
 48
50.0
100
AcDbLine
 10
7666.658189642065
 20
1193.68964608725
 30
0.0
 11
7660.227409023718
 21
1217.68964608725
 31
0.0
  0
LINE
  5
248ED
330
747D
100
AcDbEntity
  8
細線
 48
50.0
100
AcDbLine
 10
7590.272768974962
 20
1203.02956705303
 30
0.0
 11
7594.200925313159
 21
1217.68964608725
 31
0.0
  0
LINE
  5
248EE
330
747D
100
AcDbEntity
  8
細線
 48
50.0
100
AcDbLine
 10
7724.110299194828
 20
1113.68964608725
 30
0.0
 11
7730.541079813175
 21
1089.68964608725
 31
0.0
  0
LINE
  5
248EF
330
747D
100
AcDbEntity
  8
細線
 48
50.0
100
AcDbLine
 10
7802.998344142079
 20
1113.68964608725
 30
0.0
 11
7809.429124760427
 21
1089.68964608725
 31
0.0
  0
LINE
  5
248F0
330
747D
100
AcDbEntity
  8
細線
 48
50.0
100
AcDbLine
 10
7645.222254247575
 20
1113.68964608725
 30
0.0
 11
7651.653034865922
 21
1089.68964608725
 31
0.0
  0
LINE
  5
248F1
330
747D
100
AcDbEntity
  8
細線
 48
50.0
100
AcDbLine
 10
7796.567563523727
 20
1089.689646087248
 30
0.0
 11
7830.865060154909
 21
1217.689646087248
 31
0.0
  0
LINE
  5
248F2
330
747D
100
AcDbEntity
  8
細線
 48
50.0
100
AcDbLine
 10
7638.791473629223
 20
1089.689646087248
 30
0.0
 11
7673.088970260406
 21
1217.689646087248
 31
0.0
  0
LINE
  5
248F3
330
747D
100
AcDbEntity
  8
部品1
 48
50.0
100
AcDbLine
 10
7590.272768974966
 20
1089.68964608725
 30
0.0
 11
7590.272768974966
 21
1217.68964608725
 31
0.0
  0
LINE
  5
248F4
330
747D
100
AcDbEntity
  8
細線
 48
50.0
100
AcDbLine
 10
7717.67951857648
 20
1089.68964608725
 30
0.0
 11
7751.977015207663
 21
1217.68964608725
 31
0.0
  0
LINE
  5
248F5
330
747D
100
AcDbEntity
  8
部品1
 48
50.0
100
AcDbLine
 10
7670.272768974962
 20
1217.68964608725
 30
0.0
 11
7670.272768974962
 21
1457.68964608725
 31
0.0
  0
LINE
  5
248F6
330
747D
100
AcDbEntity
  8
細線
 48
50.0
100
AcDbLine
 10
7670.272768974959
 20
1376.536391849421
 30
0.0
 11
7751.426023212792
 21
1457.68964608725
 31
0.0
  0
LINE
  5
248F7
330
747D
100
AcDbEntity
  8
部品1
 48
50.0
100
AcDbLine
 10
8420.272768974966
 20
1089.68964608725
 30
0.0
 11
7590.272768974966
 21
1089.68964608725
 31
0.0
  0
LINE
  5
248F8
330
747D
100
AcDbEntity
  8
部品1
 48
50.0
100
AcDbLine
 10
8420.272768974966
 20
1217.68964608725
 30
0.0
 11
7590.272768974966
 21
1217.68964608725
 31
0.0
  0
LINE
  5
248F9
330
747D
100
AcDbEntity
  8
細線
 48
50.0
100
AcDbLine
 10
7673.07063339204
 20
1217.68964608725
 30
0.0
 11
8212.272768974962
 21
1756.891781670176
 31
0.0
  0
LINE
  5
248FA
330
747D
100
AcDbEntity
  8
細線
 48
50.0
100
AcDbLine
 10
7700.011401755247
 20
1217.68964608725
 30
0.0
 11
8212.272768974967
 21
1729.951013306964
 31
0.0
  0
LINE
  5
248FB
330
747D
100
AcDbEntity
  8
細線
 48
50.0
100
AcDbLine
 10
7726.952170118453
 20
1217.68964608725
 30
0.0
 11
8212.272768974962
 21
1703.010244943758
 31
0.0
  0
LINE
  5
248FC
330
747D
100
AcDbEntity
  8
細線
 48
50.0
100
AcDbLine
 10
7798.272768974962
 20
1558.417928575836
 30
0.0
 11
7956.672768974957
 21
1716.817928575832
 31
0.0
  0
LINE
  5
248FD
330
747D
100
AcDbEntity
  8
細線
 48
50.0
100
AcDbLine
 10
7798.272768974962
 20
1504.536391849421
 30
0.0
 11
7971.426023212799
 21
1677.689646087248
 31
0.0
  0
LINE
  5
248FE
330
747D
100
AcDbEntity
  8
細線
 48
50.0
100
AcDbLine
 10
7798.272768974962
 20
1531.477160212628
 30
0.0
 11
7956.672768974957
 21
1689.877160212617
 31
0.0
  0
LINE
  5
248FF
330
747D
100
AcDbEntity
  8
部品1
100
AcDbLine
 10
7956.672768974957
 20
1677.68964608725
 30
0.0
 11
7956.672768974964
 21
2001.689646087251
 31
0.0
  0
LINE
  5
24900
330
747D
100
AcDbEntity
  8
部品1
100
AcDbLine
 10
8082.672768974964
 20
1677.68964608725
 30
0.0
 11
8082.672768974964
 21
2001.689646087251
 31
0.0
  0
LINE
  5
24901
330
747D
100
AcDbEntity
  8
細線
 48
50.0
100
AcDbLine
 10
8082.672768974964
 20
1815.877160212622
 30
0.0
 11
8212.272768974962
 21
1945.477160212618
 31
0.0
  0
LINE
  5
24902
330
747D
100
AcDbEntity
  8
細線
 48
50.0
100
AcDbLine
 10
8082.672768974964
 20
1788.936391849409
 30
0.0
 11
8212.272768974962
 21
1918.5363918494
 31
0.0
  0
LINE
  5
24903
330
747D
100
AcDbEntity
  8
部品1
100
AcDbLine
 10
8010.672768974965
 20
1776.68964608725
 30
0.0
 11
8010.672768974961
 21
2050.849646087251
 31
0.0
  0
LINE
  5
24904
330
747D
100
AcDbEntity
  8
部品1
100
AcDbLine
 10
8028.672768974963
 20
1776.68964608725
 30
0.0
 11
8028.672768974962
 21
2050.849646087251
 31
0.0
  0
TEXT
  5
24905
330
747D
100
AcDbEntity
  8
部品1
 48
50.0
100
AcDbText
 10
7384.132867142007
 20
1772.928638370506
 30
0.0
 40
80.0
  1
▽G.L
  7
STYLE2
100
AcDbText
  0
LINE
  5
24906
330
747D
100
AcDbEntity
  8
細線
 48
50.0
100
AcDbLine
 10
7798.272768974962
 20
1720.062538755081
 30
0.0
 11
7956.672768974961
 21
1878.462538755073
 31
0.0
  0
LINE
  5
24907
330
747D
100
AcDbEntity
  8
細線
 48
50.0
100
AcDbLine
 10
7798.272768974962
 20
1747.003307118288
 30
0.0
 11
7956.672768974963
 21
1905.403307118286
 31
0.0
  0
LINE
  5
24908
330
747D
100
AcDbEntity
  8
細線
 48
50.0
100
AcDbLine
 10
7798.272768974962
 20
1773.944075481496
 30
0.0
 11
7956.672768974963
 21
1932.344075481493
 31
0.0
  0
LINE
  5
24909
330
747D
100
AcDbEntity
  8
部品1
 48
50.0
100
AcDbLine
 10
7798.272768974962
 20
1457.68964608725
 30
0.0
 11
7798.272768974962
 21
2001.689646087251
 31
0.0
  0
LINE
  5
2490A
330
747D
100
AcDbEntity
  8
部品1
100
AcDbLine
 10
8212.272768974962
 20
1457.68964608725
 30
0.0
 11
8212.272768974962
 21
2001.689646087251
 31
0.0
  0
LINE
  5
2490B
330
747D
100
AcDbEntity
  8
細線
 48
50.0
100
AcDbLine
 10
8082.672768974964
 20
1842.817928575839
 30
0.0
 11
8212.272768974962
 21
1972.417928575837
 31
0.0
  0
LINE
  5
2490C
330
747D
100
AcDbEntity
  8
細線
 48
50.0
100
AcDbLine
 10
6206.72587830024
 20
1882.436497983966
 30
0.0
 11
6290.23345579777
 21
1965.944075481496
 31
0.0
  0
LINE
  5
2490D
330
747D
100
AcDbEntity
  8
細線
 48
50.0
100
AcDbLine
 10
6217.786163063756
 20
1866.556014384272
 30
0.0
 11
6290.23345579777
 21
1939.003307118288
 31
0.0
  0
LINE
  5
2490E
330
747D
100
AcDbEntity
  8
細線
 48
50.0
100
AcDbLine
 10
6098.23345579777
 20
1989.470222387155
 30
0.0
 11
6110.452879497865
 21
2001.689646087251
 31
0.0
  0
LINE
  5
2490F
330
747D
100
AcDbEntity
  8
細線
 48
50.0
100
AcDbLine
 10
6098.23345579777
 20
1935.58868566074
 30
0.0
 11
6164.334416224279
 21
2001.689646087251
 31
0.0
  0
LINE
  5
24910
330
747D
100
AcDbEntity
  8
細線
 48
50.0
100
AcDbLine
 10
6098.23345579777
 20
1962.529454023948
 30
0.0
 11
6137.393647861074
 21
2001.689646087251
 31
0.0
  0
LINE
  5
24911
330
747D
100
AcDbEntity
  8
部品1
 48
50.0
100
AcDbLine
 10
6098.23345579777
 20
2001.689646087251
 30
0.0
 11
6290.23345579777
 21
2001.689646087251
 31
0.0
  0
DIMENSION
  5
24912
330
747D
100
AcDbEntity
  8
寸法
 48
50.0
100
AcDbDimension
  2
*D47
 10
6098.233455797769
 20
2421.357454003631
 30
0.0
 11
6194.233455797769
 21
2421.357454003631
 31
0.0
 70
   160
  1
120\P200\P280
 71
     5
 42
192.0
  3
INABA_S40G
100
AcDbAlignedDimension
 13
6290.233455797769
 23
2001.689646087251
 33
0.0
 14
6098.233455797769
 24
2001.689646087251
 34
0.0
100
AcDbRotatedDimension
1001
ACAD
1000
DSTYLE
1002
{
1070
   341
1005
0
1002
}
  0
MTEXT
  5
24913
102
{ACAD_REACTORS
330
24968
102
}
330
747D
100
AcDbEntity
  8
寸法
 62
     7
 48
50.0
100
AcDbMText
 10
6531.97191165902
 20
1040.340560355097
 30
0.0
 40
80.0
 41
0.8
 71
     4
 72
     1
  1
\A1;D10@300
  7
STYLE2
 73
     1
 44
1.0
1001
ACAD
1000
MTEXTBEGIN
1070
    73
1070
     1
1070
    44
1040
1.0
1070
    74
1070
     0
1000
MTEXTEND
  0
LINE
  5
24914
330
747D
100
AcDbEntity
  8
細線
 48
50.0
100
AcDbLine
 10
6218.233455797776
 20
1651.477160212631
 30
0.0
 11
6290.233455797763
 21
1723.477160212626
 31
0.0
  0
LINE
  5
24915
330
747D
100
AcDbEntity
  8
細線
 48
50.0
100
AcDbLine
 10
6218.23345579777
 20
1678.417928575836
 30
0.0
 11
6290.23345579777
 21
1750.417928575836
 31
0.0
  0
LINE
  5
24916
330
747D
100
AcDbEntity
  8
細線
 48
50.0
100
AcDbLine
 10
6218.233455797776
 20
1409.010244943762
 30
0.0
 11
6290.233455797763
 21
1481.010244943762
 31
0.0
  0
LINE
  5
24917
330
747D
100
AcDbEntity
  8
細線
 48
50.0
100
AcDbLine
 10
6218.233455797776
 20
1462.89178167018
 30
0.0
 11
6290.233455797763
 21
1534.891781670176
 31
0.0
  0
LINE
  5
24918
330
747D
100
AcDbEntity
  8
細線
 48
50.0
100
AcDbLine
 10
6218.233455797776
 20
1435.951013306971
 30
0.0
 11
6290.233455797763
 21
1507.951013306966
 31
0.0
  0
LINE
  5
24919
330
747D
100
AcDbEntity
  8
部品1
 48
50.0
100
AcDbLine
 10
6290.23345579777
 20
1457.68964608725
 30
0.0
 11
6418.23345579777
 21
1457.68964608725
 31
0.0
  0
LINE
  5
2491A
330
747D
100
AcDbEntity
  8
細線
 48
50.0
100
AcDbLine
 10
6218.233455797776
 20
1624.536391849421
 30
0.0
 11
6290.233455797763
 21
1696.536391849421
 31
0.0
  0
LINE
  5
2491B
330
747D
100
AcDbEntity
  8
部品1
 48
50.0
100
AcDbLine
 10
6186.23345579777
 20
1803.816860784372
 30
0.0
 11
6186.23345579777
 21
1861.944075481496
 31
0.0
  0
LINE
  5
2491C
330
747D
100
AcDbEntity
  8
細線
 48
50.0
100
AcDbLine
 10
6098.23345579777
 20
1773.944075481496
 30
0.0
 11
6170.23345579777
 21
1845.944075481496
 31
0.0
  0
LINE
  5
2491D
330
747D
100
AcDbEntity
  8
部品1
 48
50.0
100
AcDbLine
 10
6170.23345579777
 20
1803.816860784376
 30
0.0
 11
6170.23345579777
 21
1861.944075481496
 31
0.0
  0
LINE
  5
2491E
330
747D
100
AcDbEntity
  8
細線
 48
50.0
100
AcDbLine
 10
6098.23345579777
 20
1747.003307118288
 30
0.0
 11
6170.23345579777
 21
1819.003307118288
 31
0.0
  0
LINE
  5
2491F
330
747D
100
AcDbEntity
  8
細線
 48
50.0
100
AcDbLine
 10
6098.23345579777
 20
1720.062538755081
 30
0.0
 11
6181.987777827064
 21
1803.816860784372
 31
0.0
  0
LINE
  5
24920
330
747D
100
AcDbEntity
  8
部品1
 48
50.0
100
AcDbLine
 10
6186.23345579777
 20
1803.816860784372
 30
0.0
 11
6170.23345579777
 21
1803.816860784376
 31
0.0
  0
LINE
  5
24921
330
747D
100
AcDbEntity
  8
細線
 48
50.0
100
AcDbLine
 10
5970.233455797763
 20
1430.417928575836
 30
0.0
 11
5997.505173309185
 21
1457.68964608725
 31
0.0
  0
LINE
  5
24922
330
747D
100
AcDbEntity
  8
細線
 48
50.0
100
AcDbLine
 10
5970.233455797763
 20
1403.477160212626
 30
0.0
 11
6024.445941672395
 21
1457.68964608725
 31
0.0
  0
LINE
  5
24923
330
747D
100
AcDbEntity
  8
部品1
 48
50.0
100
AcDbLine
 10
5970.23345579777
 20
1457.68964608725
 30
0.0
 11
6098.23345579777
 21
1457.68964608725
 31
0.0
  0
LINE
  5
24924
330
747D
100
AcDbEntity
  8
細線
 48
50.0
100
AcDbLine
 10
6186.23345579777
 20
1835.003307118288
 30
0.0
 11
6202.23345579777
 21
1851.003307118288
 31
0.0
  0
LINE
  5
24925
330
747D
100
AcDbEntity
  8
細線
 48
50.0
100
AcDbLine
 10
6186.23345579777
 20
1808.062538755081
 30
0.0
 11
6202.23345579777
 21
1824.062538755081
 31
0.0
  0
LINE
  5
24926
330
747D
100
AcDbEntity
  8
細線
 48
50.0
100
AcDbLine
 10
6098.23345579777
 20
1504.536391849421
 30
0.0
 11
6202.233455797776
 21
1608.536391849421
 31
0.0
  0
LINE
  5
24927
330
747D
100
AcDbEntity
  8
細線
 48
50.0
100
AcDbLine
 10
6098.23345579777
 20
1558.417928575836
 30
0.0
 11
6202.23345579777
 21
1662.417928575836
 31
0.0
  0
LINE
  5
24928
330
747D
100
AcDbEntity
  8
細線
 48
50.0
100
AcDbLine
 10
6098.23345579777
 20
1531.477160212628
 30
0.0
 11
6202.233455797776
 21
1635.477160212631
 31
0.0
  0
LINE
  5
24929
330
747D
100
AcDbEntity
  8
細線
 48
50.0
100
AcDbLine
 10
6361.059101201117
 20
1193.68964608725
 30
0.0
 11
6354.628320582771
 21
1217.68964608725
 31
0.0
  0
LINE
  5
2492A
330
747D
100
AcDbEntity
  8
細線
 48
50.0
100
AcDbLine
 10
6404.083614026163
 20
1217.68964608725
 30
0.0
 11
6418.23345579777
 21
1231.839487858857
 31
0.0
  0
LINE
  5
2492B
330
747D
100
AcDbEntity
  8
細線
 48
50.0
100
AcDbLine
 10
6439.947146148364
 20
1193.68964608725
 30
0.0
 11
6433.516365530016
 21
1217.68964608725
 31
0.0
  0
LINE
  5
2492C
330
747D
100
AcDbEntity
  8
部品1
 48
50.0
100
AcDbLine
 10
6362.23345579777
 20
1329.68964608725
 30
0.0
 11
6362.23345579777
 21
1313.68964608725
 31
0.0
  0
LINE
  5
2492D
330
747D
100
AcDbEntity
  8
細線
 48
50.0
100
AcDbLine
 10
6242.439003846918
 20
1217.68964608725
 30
0.0
 11
6338.439891692054
 21
1313.690533932389
 31
0.0
  0
LINE
  5
2492E
330
747D
100
AcDbEntity
  8
細線
 48
50.0
100
AcDbLine
 10
6215.498235483714
 20
1217.68964608725
 30
0.0
 11
6311.498235483714
 21
1313.68964608725
 31
0.0
  0
LINE
  5
2492F
330
747D
100
AcDbEntity
  8
細線
 48
50.0
100
AcDbLine
 10
6282.171056253872
 20
1193.68964608725
 30
0.0
 11
6275.740275635526
 21
1217.68964608725
 31
0.0
  0
LINE
  5
24930
330
747D
100
AcDbEntity
  8
細線
 48
50.0
100
AcDbLine
 10
6203.283011306627
 20
1193.68964608725
 30
0.0
 11
6196.852230688278
 21
1217.68964608725
 31
0.0
  0
ARC
  5
24931
330
747D
100
AcDbEntity
  8
部品1
 48
50.0
100
AcDbCircle
 10
6194.23345579777
 20
1337.68964608725
 30
0.0
 40
24.0
100
AcDbArc
 50
340.5287793655256
 51
0.0
  0
CIRCLE
  5
24932
330
747D
100
AcDbEntity
  8
部品1
 48
50.0
100
AcDbCircle
 10
6322.23345579777
 20
1337.68964608725
 30
0.0
 40
8.0
  0
LINE
  5
24933
330
747D
100
AcDbEntity
  8
細線
 48
50.0
100
AcDbLine
 10
6354.439003846917
 20
1329.68964608725
 30
0.0
 11
6418.23345579777
 21
1393.484098038101
 31
0.0
  0
LINE
  5
24934
330
747D
100
AcDbEntity
  8
細線
 48
50.0
100
AcDbLine
 10
6490.968475082772
 20
1089.689646087248
 30
0.0
 11
6498.233455797771
 21
1116.802923231638
 31
0.0
  0
LINE
  5
24935
330
747D
100
AcDbEntity
  8
細線
 48
50.0
100
AcDbLine
 10
6497.399255701123
 20
1113.68964608725
 30
0.0
 11
6498.233455797771
 21
1110.576368942886
 31
0.0
  0
LINE
  5
24936
330
747D
100
AcDbEntity
  8
細線
 48
50.0
100
AcDbLine
 10
6418.511210753876
 20
1113.68964608725
 30
0.0
 11
6424.941991372223
 21
1089.68964608725
 31
0.0
  0
LINE
  5
24937
330
747D
100
AcDbEntity
  8
細線
 48
50.0
100
AcDbLine
 10
6260.735120859383
 20
1113.68964608725
 30
0.0
 11
6267.165901477729
 21
1089.68964608725
 31
0.0
  0
LINE
  5
24938
330
747D
100
AcDbEntity
  8
細線
 48
50.0
100
AcDbLine
 10
6339.623165806628
 20
1113.68964608725
 30
0.0
 11
6346.053946424976
 21
1089.68964608725
 31
0.0
  0
LINE
  5
24939
330
747D
100
AcDbEntity
  8
細線
 48
50.0
100
AcDbLine
 10
6333.192385188278
 20
1089.689646087248
 30
0.0
 11
6367.489881819463
 21
1217.689646087248
 31
0.0
  0
LINE
  5
2493A
330
747D
100
AcDbEntity
  8
細線
 48
50.0
100
AcDbLine
 10
6254.30434024103
 20
1089.68964608725
 30
0.0
 11
6288.601836872216
 21
1217.689646087248
 31
0.0
  0
LINE
  5
2493B
330
747D
100
AcDbEntity
  8
細線
 48
50.0
100
AcDbLine
 10
6412.080430135524
 20
1089.68964608725
 30
0.0
 11
6446.377926766709
 21
1217.689646087248
 31
0.0
  0
LINE
  5
2493C
330
747D
100
AcDbEntity
  8
部品1
 48
50.0
100
AcDbLine
 10
6498.233455797773
 20
1217.68964608725
 30
0.0
 11
6498.233455797773
 21
1089.68964608725
 31
0.0
  0
LINE
  5
2493D
330
747D
100
AcDbEntity
  8
部品1
 48
50.0
100
AcDbLine
 10
6186.23345579777
 20
1395.816860784373
 30
0.0
 11
6186.23345579777
 21
1337.68964608725
 31
0.0
  0
LINE
  5
2493E
330
747D
100
AcDbEntity
  8
細線
 48
50.0
100
AcDbLine
 10
6111.972088578053
 20
1329.68964608725
 30
0.0
 11
6170.23345579777
 21
1387.951013306969
 31
0.0
  0
LINE
  5
2493F
330
747D
100
AcDbEntity
  8
部品1
 48
50.0
100
AcDbLine
 10
6170.23345579777
 20
1395.816860784373
 30
0.0
 11
6170.23345579777
 21
1337.68964608725
 31
0.0
  0
LINE
  5
24940
330
747D
100
AcDbEntity
  8
細線
 48
50.0
100
AcDbLine
 10
6026.912856941258
 20
1217.68964608725
 30
0.0
 11
6122.912856941258
 21
1313.68964608725
 31
0.0
  0
LINE
  5
24941
330
747D
100
AcDbEntity
  8
細線
 48
50.0
100
AcDbLine
 10
6124.394966359374
 20
1193.68964608725
 30
0.0
 11
6117.964185741028
 21
1217.68964608725
 31
0.0
  0
LINE
  5
24942
330
747D
100
AcDbEntity
  8
細線
 48
50.0
100
AcDbLine
 10
6045.506921412122
 20
1193.68964608725
 30
0.0
 11
6039.076140793775
 21
1217.68964608725
 31
0.0
  0
ARC
  5
24943
330
747D
100
AcDbEntity
  8
部品1
 48
50.0
100
AcDbCircle
 10
6194.23345579777
 20
1337.68964608725
 30
0.0
 40
24.0
100
AcDbArc
 50
180.0
 51
199.4712206344743
  0
LINE
  5
24944
330
747D
100
AcDbEntity
  8
細線
 48
50.0
100
AcDbLine
 10
6138.912856941259
 20
1329.68964608725
 30
0.0
 11
6170.23345579777
 21
1361.010244943762
 31
0.0
  0
CIRCLE
  5
24945
330
747D
100
AcDbEntity
  8
部品1
 48
50.0
100
AcDbCircle
 10
6066.23345579777
 20
1337.68964608725
 30
0.0
 40
8.0
  0
LINE
  5
24946
330
747D
100
AcDbEntity
  8
部品1
 48
50.0
100
AcDbLine
 10
6186.23345579777
 20
1395.816860784373
 30
0.0
 11
6170.23345579777
 21
1395.816860784373
 31
0.0
  0
LINE
  5
24947
330
747D
100
AcDbEntity
  8
細線
 48
50.0
100
AcDbLine
 10
5890.23345579777
 20
1203.02956705303
 30
0.0
 11
5894.161612135966
 21
1217.68964608725
 31
0.0
  0
LINE
  5
24948
330
747D
100
AcDbEntity
  8
細線
 48
50.0
100
AcDbLine
 10
5966.61887646487
 20
1193.68964608725
 30
0.0
 11
5960.188095846523
 21
1217.68964608725
 31
0.0
  0
LINE
  5
24949
330
747D
100
AcDbEntity
  8
部品1
 48
50.0
100
AcDbLine
 10
6026.23345579777
 20
1329.68964608725
 30
0.0
 11
6026.23345579777
 21
1313.68964608725
 31
0.0
  0
LINE
  5
2494A
330
747D
100
AcDbEntity
  8
細線
 48
50.0
100
AcDbLine
 10
5973.031320214843
 20
1217.68964608725
 30
0.0
 11
6069.031320214843
 21
1313.68964608725
 31
0.0
  0
LINE
  5
2494B
330
747D
100
AcDbEntity
  8
細線
 48
50.0
100
AcDbLine
 10
5999.972088578053
 20
1217.68964608725
 30
0.0
 11
6095.972088578053
 21
1313.68964608725
 31
0.0
  0
LINE
  5
2494C
330
747D
100
AcDbEntity
  8
細線
 48
50.0
100
AcDbLine
 10
6102.959030964885
 20
1113.68964608725
 30
0.0
 11
6109.389811583231
 21
1089.68964608725
 31
0.0
  0
LINE
  5
2494D
330
747D
100
AcDbEntity
  8
細線
 48
50.0
100
AcDbLine
 10
6181.847075912138
 20
1113.68964608725
 30
0.0
 11
6188.277856530483
 21
1089.68964608725
 31
0.0
  0
LINE
  5
2494E
330
747D
100
AcDbEntity
  8
細線
 48
50.0
100
AcDbLine
 10
5945.182941070381
 20
1113.68964608725
 30
0.0
 11
5951.613721688727
 21
1089.68964608725
 31
0.0
  0
LINE
  5
2494F
330
747D
100
AcDbEntity
  8
細線
 48
50.0
100
AcDbLine
 10
6024.070986017632
 20
1113.68964608725
 30
0.0
 11
6030.50176663598
 21
1089.68964608725
 31
0.0
  0
LINE
  5
24950
330
747D
100
AcDbEntity
  8
部品1
 48
50.0
100
AcDbLine
 10
5890.233455797773
 20
1089.68964608725
 30
0.0
 11
5890.233455797773
 21
1217.68964608725
 31
0.0
  0
LINE
  5
24951
330
747D
100
AcDbEntity
  8
細線
 48
50.0
100
AcDbLine
 10
5938.752160452028
 20
1089.689646087248
 30
0.0
 11
5973.049657083211
 21
1217.689646087248
 31
0.0
  0
LINE
  5
24952
330
747D
100
AcDbEntity
  8
細線
 48
50.0
100
AcDbLine
 10
6096.528250346532
 20
1089.689646087248
 30
0.0
 11
6130.825746977714
 21
1217.689646087248
 31
0.0
  0
LINE
  5
24953
330
747D
100
AcDbEntity
  8
細線
 48
50.0
100
AcDbLine
 10
6017.640205399286
 20
1089.68964608725
 30
0.0
 11
6051.937702030469
 21
1217.68964608725
 31
0.0
  0
LINE
  5
24954
330
747D
100
AcDbEntity
  8
細線
 48
50.0
100
AcDbLine
 10
6188.557467120503
 20
1217.68964608725
 30
0.0
 11
6284.557467120503
 21
1313.68964608725
 31
0.0
  0
CIRCLE
  5
24955
330
747D
100
AcDbEntity
  8
部品1
 48
50.0
100
AcDbCircle
 10
6194.23345579777
 20
1337.68964608725
 30
0.0
 40
8.0
  0
LINE
  5
24956
330
747D
100
AcDbEntity
  8
部品1
 48
50.0
100
AcDbLine
 10
6498.233455797773
 20
1217.68964608725
 30
0.0
 11
5890.233455797773
 21
1217.68964608725
 31
0.0
  0
LINE
  5
24957
330
747D
100
AcDbEntity
  8
部品1
 48
50.0
100
AcDbLine
 10
6026.23345579777
 20
1329.68964608725
 30
0.0
 11
6362.23345579777
 21
1329.68964608725
 31
0.0
  0
LINE
  5
24958
330
747D
100
AcDbEntity
  8
部品1
 48
50.0
100
AcDbLine
 10
6026.23345579777
 20
1313.68964608725
 30
0.0
 11
6362.23345579777
 21
1313.68964608725
 31
0.0
  0
LINE
  5
24959
330
747D
100
AcDbEntity
  8
部品1
 48
50.0
100
AcDbLine
 10
6498.233455797773
 20
1089.68964608725
 30
0.0
 11
5890.233455797773
 21
1089.68964608725
 31
0.0
  0
LINE
  5
2495A
330
747D
100
AcDbEntity
  8
細線
 48
50.0
100
AcDbLine
 10
6175.416295293784
 20
1089.68964608725
 30
0.0
 11
6209.713791924968
 21
1217.68964608725
 31
0.0
  0
LINE
  5
2495B
330
747D
100
AcDbEntity
  8
細線
 48
50.0
100
AcDbLine
 10
6186.23345579777
 20
1377.010244943762
 30
0.0
 11
6202.233455797776
 21
1393.010244943762
 31
0.0
  0
LINE
  5
2495C
330
747D
100
AcDbEntity
  8
部品1
 48
50.0
100
AcDbLine
 10
6202.233455797776
 20
1337.68964608725
 30
0.0
 11
6202.233455797763
 21
1861.944075481496
 31
0.0
  0
LINE
  5
2495D
330
747D
100
AcDbEntity
  8
部品1
 48
50.0
100
AcDbLine
 10
6218.233455797776
 20
1337.68964608725
 30
0.0
 11
6218.23345579777
 21
1861.944075481496
 31
0.0
  0
LINE
  5
2495E
330
747D
100
AcDbEntity
  8
部品1
 48
50.0
100
AcDbLine
 10
6418.23345579777
 20
1457.68964608725
 30
0.0
 11
6418.23345579777
 21
1217.68964608725
 31
0.0
  0
LINE
  5
2495F
330
747D
100
AcDbEntity
  8
細線
 48
50.0
100
AcDbLine
 10
6300.557467120498
 20
1329.68964608725
 30
0.0
 11
6418.23345579777
 21
1447.365634764516
 31
0.0
  0
LINE
  5
24960
330
747D
100
AcDbEntity
  8
細線
 48
50.0
100
AcDbLine
 10
6327.498235483714
 20
1329.68964608725
 30
0.0
 11
6418.23345579777
 21
1420.424866401309
 31
0.0
  0
LINE
  5
24961
330
747D
100
AcDbEntity
  8
部品1
 48
50.0
100
AcDbLine
 10
5970.23345579777
 20
1217.68964608725
 30
0.0
 11
5970.23345579777
 21
1457.68964608725
 31
0.0
  0
LINE
  5
24962
330
747D
100
AcDbEntity
  8
細線
 48
50.0
100
AcDbLine
 10
6085.031320214842
 20
1329.68964608725
 30
0.0
 11
6202.23345579777
 21
1446.891781670176
 31
0.0
  0
LINE
  5
24963
330
747D
100
AcDbEntity
  8
細線
 48
50.0
100
AcDbLine
 10
6178.099303275174
 20
1395.816860784373
 30
0.0
 11
6202.233455797776
 21
1419.951013306971
 31
0.0
  0
LINE
  5
24964
330
747D
100
AcDbEntity
  8
細線
 48
50.0
100
AcDbLine
 10
5970.233455797763
 20
1376.536391849421
 30
0.0
 11
6051.386710035598
 21
1457.68964608725
 31
0.0
  0
LEADER
  5
24965
330
747D
100
AcDbEntity
  8
寸法
 48
50.0
100
AcDbLeader
  3
INABA_S50G
 71
     0
 73
     0
 74
     0
 75
     1
 40
100.0
 41
222.7272727272727
 76
     3
 10
6194.233455797769
 20
1861.944075481496
 30
0.0
 10
6248.119392825164
 20
1961.17964833467
 30
0.0
 10
6373.119392825164
 20
1961.17964833467
 30
0.0
1001
ACAD
1000
DSTYLE
1002
{
1070
    40
1040
1.0
1070
   272
1070
     1
1070
   279
1070
     1
1070
   341
1005
0
1002
}
  0
LWPOLYLINE
  5
24966
330
747D
100
AcDbEntity
  8
部品1
 48
50.0
100
AcDbPolyline
 90
        2
 70
     0
 43
8.0
 10
6290.233455797769
 20
1761.689646087251
 10
6704.373357630728
 20
1761.689646087251
  0
MTEXT
  5
24967
102
{ACAD_REACTORS
330
24969
102
}
330
747D
100
AcDbEntity
  8
寸法
 62
     7
 48
50.0
100
AcDbMText
 10
6521.561115604455
 20
1302.292577144278
 30
0.0
 40
80.0
 41
0.8
 71
     4
 72
     1
  1
D10
  7
STYLE2
 73
     1
 44
1.0
1001
ACAD
1000
MTEXTBEGIN
1070
    73
1070
     1
1070
    44
1040
1.0
1070
    74
1070
     0
1000
MTEXTEND
  0
LEADER
  5
24968
330
747D
100
AcDbEntity
  8
寸法
 48
50.0
100
AcDbLeader
  3
INABA_S50G
 71
     0
 73
     0
 74
     0
 75
     1
 40
100.0
 41
540.3409090909091
 76
     3
 10
6268.178624810944
 20
1320.949115673725
 30
0.0
 10
6386.971911659021
 20
979.3182976788274
 30
0.0
 10
6511.971911659021
 20
979.3182976788274
 30
0.0
213
0.0
223
-1.022262676269383
233
0.0
1001
ACAD
1000
DSTYLE
1002
{
1070
    40
1040
1.0
1070
   272
1070
     1
1070
   279
1070
     1
1070
   341
1005
0
1002
}
  0
LEADER
  5
24969
330
747D
100
AcDbEntity
  8
寸法
 48
50.0
100
AcDbLeader
  3
INABA_S50G
 71
     0
 73
     0
 74
     0
 75
     1
 40
100.0
 41
225.0
 76
     3
 10
6322.136408149912
 20
1337.68964608725
 30
0.0
 10
6376.561115604454
 20
1242.292577144278
 30
0.0
 10
6501.561115604454
 20
1242.292577144278
 30
0.0
1001
ACAD
1000
DSTYLE
1002
{
1070
    40
1040
1.0
1070
   272
1070
     1
1070
   279
1070
     1
1070
   341
1005
0
1002
}
  0
MTEXT
  5
2496A
102
{ACAD_REACTORS
330
24965
102
}
330
747D
100
AcDbEntity
  8
寸法
 62
     7
 48
50.0
100
AcDbMText
 10
6373.119392825164
 20
2024.245545380061
 30
0.0
 40
80.0
 41
0.8
 71
     4
 72
     1
  1
D13
  7
STYLE2
 73
     1
 44
1.0
1001
ACAD
1000
MTEXTBEGIN
1070
    73
1070
     1
1070
    44
1040
1.0
1070
    74
1070
     0
1000
MTEXTEND
  0
LINE
  5
2496B
330
747D
100
AcDbEntity
  8
部品1
 48
50.0
100
AcDbLine
 10
6290.23345579777
 20
2001.689646087251
 30
0.0
 11
6290.23345579777
 21
1457.68964608725
 31
0.0
  0
LINE
  5
2496C
330
747D
100
AcDbEntity
  8
部品1
 48
50.0
100
AcDbLine
 10
6098.23345579777
 20
1457.68964608725
 30
0.0
 11
6098.23345579777
 21
2001.689646087251
 31
0.0
  0
CIRCLE
  5
2496D
330
747D
100
AcDbEntity
  8
部品1
 48
50.0
100
AcDbCircle
 10
6194.23345579777
 20
1861.944075481496
 30
0.0
 40
8.0
  0
ARC
  5
2496E
330
747D
100
AcDbEntity
  8
部品1
 48
50.0
100
AcDbCircle
 10
6194.23345579777
 20
1861.944075481496
 30
0.0
 40
24.0
100
AcDbArc
 50
0.0
 51
180.0
  0
LINE
  5
2496F
330
747D
100
AcDbEntity
  8
細線
 48
50.0
100
AcDbLine
 10
6218.23345579777
 20
1840.062538755081
 30
0.0
 11
6290.23345579777
 21
1912.062538755081
 31
0.0
  0
LEADER
  5
24970
330
747D
100
AcDbEntity
  8
寸法
 48
50.0
100
AcDbLeader
  3
INABA_S50G
 73
     0
 75
     1
 40
106.3636363636363
 41
893.1818181818181
 76
     3
 10
7929.672768974964
 20
2071.249646087252
 30
0.0
 10
7881.248696630024
 20
2445.309220803584
 30
0.0
 10
7756.248696630024
 20
2445.309220803584
 30
0.0
340
24971
1001
ACAD
1000
DSTYLE
1002
{
1070
   341
1005
0
1070
    40
1040
1.0
1070
   343
1005
0
1070
   344
1005
0
1002
}
  0
MTEXT
  5
24971
102
{ACAD_REACTORS
330
24970
102
}
330
747D
100
AcDbEntity
  8
寸法
 62
     7
 48
50.0
100
AcDbMText
 10
7731.248696630024
 20
2523.491038985402
 30
0.0
 40
80.0
 41
0.8
 71
     6
 72
     1
  1
\A1;アンカープレート L
  7
STYLE2
 73
     1
 44
1.0
1001
ACAD
1000
MTEXTBEGIN
1070
    73
1070
     1
1070
    44
1040
1.0
1070
    74
1070
     0
1000
MTEXTEND
  0
DIMENSION
  5
24972
330
747D
100
AcDbEntity
  8
寸法
 48
50.0
100
AcDbDimension
  2
*D42
 10
6418.23345579777
 20
679.2600080820903
 30
0.0
 11
6174.136697119546
 21
679.2600080820903
 31
0.0
 70
   160
  1
300
 71
     5
 42
448.0
  3
INABA_S40G
100
AcDbAlignedDimension
 13
5970.233455797769
 23
1089.68964608725
 33
0.0
 14
6418.23345579777
 24
1089.68964608725
 34
0.0
100
AcDbRotatedDimension
1001
ACAD
1000
DSTYLE
1002
{
1070
   341
1005
0
1002
}
  0
MTEXT
  5
24973
102
{ACAD_REACTORS
330
2497B
102
}
330
747D
100
AcDbEntity
  8
寸法
 62
     7
 48
50.0
100
AcDbMText
 10
5799.298429602576
 20
1134.166952468814
 30
0.0
 40
80.0
 41
0.8
 71
     6
 72
     1
  1
D10
  7
STYLE2
 73
     1
 44
1.0
1001
ACAD
1000
MTEXTBEGIN
1070
    73
1070
     1
1070
    44
1040
1.0
1070
    74
1070
     0
1000
MTEXTEND
  0
MTEXT
  5
24974
102
{ACAD_REACTORS
330
2497A
102
}
330
747D
100
AcDbEntity
  8
寸法
 62
     7
 48
50.0
100
AcDbMText
 10
5827.42115716001
 20
953.8507999293706
 30
0.0
 40
80.0
 41
0.8
 71
     6
 72
     1
  1
D13
  7
STYLE2
 73
     1
 44
1.0
1001
ACAD
1000
MTEXTBEGIN
1070
    73
1070
     1
1070
    44
1040
1.0
1070
    74
1070
     0
1000
MTEXTEND
  0
DIMENSION
  5
24975
330
747D
100
AcDbEntity
  8
寸法
 48
50.0
100
AcDbDimension
  2
*D43
 10
5363.196217236029
 20
1217.68964608725
 30
0.0
 11
5363.196217236029
 21
1589.229795743251
 31
0.0
 70
   160
  1
540
 71
     5
 42
784.0
  3
INABA_S40G
100
AcDbAlignedDimension
 13
6098.233455797769
 23
2001.689646087251
 33
0.0
 14
5890.233455797773
 24
1217.68964608725
 34
0.0
 50
90.0
100
AcDbRotatedDimension
1001
ACAD
1000
DSTYLE
1002
{
1070
   341
1005
0
1002
}
  0
MTEXT
  5
24976
102
{ACAD_REACTORS
330
24977
102
}
330
747D
100
AcDbEntity
  8
寸法
 62
     7
 48
50.0
100
AcDbMText
 10
5878.134976314496
 20
2214.205866089292
 30
0.0
 40
80.0
 41
0.8
 71
     6
 72
     1
  1
\A1;金コテ押エ
  7
STYLE2
 73
     1
 44
1.0
1001
ACAD
1000
MTEXTBEGIN
1070
    73
1070
     1
1070
    44
1040
1.0
1070
    74
1070
     0
1000
MTEXTEND
  0
LEADER
  5
24977
330
747D
100
AcDbEntity
  8
寸法
 48
50.0
100
AcDbLeader
  3
INABA_S50G
 71
     0
 73
     0
 75
     1
 40
130.1136363636363
 41
651.1363636363636
 76
     3
 10
6178.233455797769
 20
2001.689646087251
 30
0.0
 10
6065.808875633752
 20
2142.160411543839
 30
0.0
 10
5940.808875633752
 20
2142.160411543839
 30
0.0
1001
ACAD
1000
DSTYLE
1002
{
1070
    40
1040
1.0
1070
   272
1070
     1
1070
   279
1070
     1
1070
   341
1005
0
1002
}
  0
LEADER
  5
24978
330
747D
100
AcDbEntity
  8
寸法
 48
50.0
100
AcDbLeader
  3
INABA_S50G
 71
     0
 73
     0
 75
     1
 40
100.0
 41
540.3409090909091
 76
     3
 10
6202.233455797769
 20
1759.816860784373
 30
0.0
 10
6144.251219269071
 20
1538.346532243568
 30
0.0
 10
6019.251219269071
 20
1538.346532243568
 30
0.0
213
-9.732182305893367
223
-4.643716661138569
233
0.0
1001
ACAD
1000
DSTYLE
1002
{
1070
    40
1040
1.0
1070
   272
1070
     1
1070
   279
1070
     1
1070
   341
1005
0
1002
}
  0
MTEXT
  5
24979
102
{ACAD_REACTORS
330
24978
102
}
330
747D
100
AcDbEntity
  8
寸法
 62
     7
 48
50.0
100
AcDbMText
 10
6008.983401574965
 20
1602.990248904707
 30
0.0
 40
80.0
 41
0.8
 71
     6
 72
     1
  1
\A1;D10@300
  7
STYLE2
 73
     1
 44
1.0
1001
ACAD
1000
MTEXTBEGIN
1070
    73
1070
     1
1070
    44
1040
1.0
1070
    74
1070
     0
1000
MTEXTEND
  0
LEADER
  5
2497A
330
747D
100
AcDbEntity
  8
寸法
 48
50.0
100
AcDbLeader
  3
INABA_S50G
 71
     0
 73
     0
 75
     1
 40
100.0
 41
222.7272727272727
 76
     3
 10
6194.233455797769
 20
1337.68964608725
 30
0.0
 10
5972.42115716001
 20
893.8507999293706
 30
0.0
 10
5847.42115716001
 20
893.8507999293706
 30
0.0
1001
ACAD
1000
DSTYLE
1002
{
1070
    40
1040
1.0
1070
   272
1070
     1
1070
   279
1070
     1
1070
   341
1005
0
1002
}
  0
LEADER
  5
2497B
330
747D
100
AcDbEntity
  8
寸法
 48
50.0
100
AcDbLeader
  3
INABA_S50G
 71
     0
 73
     0
 75
     1
 40
100.0
 41
225.0
 76
     3
 10
6066.136408149912
 20
1337.68964608725
 30
0.0
 10
5944.298429602575
 20
1074.166952468814
 30
0.0
 10
5819.298429602575
 20
1074.166952468814
 30
0.0
1001
ACAD
1000
DSTYLE
1002
{
1070
    40
1040
1.0
1070
   272
1070
     1
1070
   279
1070
     1
1070
   341
1005
0
1002
}
  0
DIMENSION
  5
2497C
330
747D
100
AcDbEntity
  8
寸法
 48
50.0
100
AcDbDimension
  2
*D44
 10
5827.813142065309
 20
1217.68964608725
 30
0.0
 11
5827.813142065309
 21
1337.689646087251
 31
0.0
 70
   160
  1
150
 71
     5
 42
240.0
  3
INABA_S40G
100
AcDbAlignedDimension
 13
5970.233455797769
 23
1457.68964608725
 33
0.0
 14
5890.233455797773
 24
1217.68964608725
 34
0.0
 50
90.0
100
AcDbRotatedDimension
1001
ACAD
1000
DSTYLE
1002
{
1070
   341
1005
0
1002
}
  0
TEXT
  5
2497D
330
747D
100
AcDbEntity
  8
部品1
 48
50.0
100
AcDbText
 10
5684.093553964813
 20
1772.928638370506
 30
0.0
 40
80.0
  1
▽G.L
  7
STYLE2
100
AcDbText
  0
LWPOLYLINE
  5
2497E
330
747D
100
AcDbEntity
  8
部品1
 48
50.0
100
AcDbPolyline
 90
        2
 70
     0
 43
8.0
 10
5684.093553964813
 20
1761.689646087251
 10
6098.233455797769
 20
1761.689646087251
  0
MTEXT
  5
2497F
102
{ACAD_REACTORS
330
24980
102
}
330
747D
100
AcDbEntity
  8
寸法
 62
     7
 48
50.0
100
AcDbMText
 10
7704.605690421665
 20
2884.175310892916
 30
0.0
 40
80.0
 41
0.8
 71
     6
 72
     1
  1
\A1;φ70スリーブ
  7
STYLE2
 73
     1
 44
1.0
1001
ACAD
1000
MTEXTBEGIN
1070
    73
1070
     1
1070
    44
1040
1.0
1070
    74
1070
     0
1000
MTEXTEND
  0
LEADER
  5
24980
330
747D
100
AcDbEntity
  8
寸法
 48
50.0
100
AcDbLeader
  3
INABA_S50G
 73
     0
 75
     1
 40
113.1818181818182
 41
608.6363636363635
 76
     3
 10
7988.409519113014
 20
1951.205319445529
 30
0.0
 10
7854.605690421665
 20
2802.584401802007
 30
0.0
 10
7729.605690421665
 20
2802.584401802007
 30
0.0
340
2497F
1001
ACAD
1000
DSTYLE
1002
{
1070
   341
1005
0
1070
    40
1040
1.0
1070
   343
1005
0
1070
   344
1005
0
1002
}
  0
LINE
  5
24981
330
747D
100
AcDbEntity
  8
部品1
100
AcDbLine
 10
5027.565016988507
 20
3401.028313287836
 30
0.0
 11
5027.565016988508
 21
436.7213437031887
 31
0.0
  0
LEADER
  5
24982
330
747D
100
AcDbEntity
  8
寸法
 48
50.0
100
AcDbLeader
  3
INABA_S50G
 73
     0
 74
     0
 75
     1
 40
80.0
 41
435.0
 76
     3
 10
8028.672768974963
 20
2050.849646087251
 30
0.0
 10
8071.217231394284
 20
2201.07297224048
 30
0.0
 10
8196.217231394284
 20
2201.07297224048
 30
0.0
340
24983
1001
ACAD
1000
DSTYLE
1002
{
1070
   341
1005
0
1070
    40
1040
1.0
1070
   343
1005
0
1070
   344
1005
0
1002
}
  0
MTEXT
  5
24983
102
{ACAD_REACTORS
330
24982
102
}
330
747D
100
AcDbEntity
  8
部品1
 62
     7
 48
50.0
100
AcDbMText
 10
8221.217231394282
 20
2266.07297224048
 30
0.0
 40
80.0
 41
0.8
 71
     4
 72
     1
  1
M10X160
  7
STYLE2
 73
     1
 44
1.0
1001
ACAD
1000
MTEXTBEGIN
1070
    73
1070
     1
1070
    44
1040
1.0
1070
    74
1070
     0
1000
MTEXTEND
  0
DIMENSION
  5
24984
330
747D
100
AcDbEntity
  8
寸法
 48
50.0
100
AcDbDimension
  2
*D45
 10
8990.196034862835
 20
2001.68964608725
 30
0.0
 11
8990.196034862835
 21
1535.680742665768
 31
0.0
 70
   160
  1
20～25
 71
     5
 42
52.76000000000113
  3
INABA_S40G
100
AcDbAlignedDimension
 13
8025.072768974963
 23
2054.449646087252
 33
0.0
 14
8212.272768974962
 24
2001.689646087251
 34
0.0
 50
90.0
100
AcDbRotatedDimension
1001
ACAD
1000
DSTYLE
1002
{
1070
   341
1005
0
1002
}
  0
DIMENSION
  5
24985
330
747D
100
AcDbEntity
  8
寸法
 48
50.0
100
AcDbDimension
  2
*D46
 10
8714.141368743808
 20
1677.689646087249
 30
0.0
 11
8614.141368743807
 21
1839.689646087251
 31
0.0
 70
    32
  1
180
 71
     5
 42
324.0000000000009
  3
INABA_S40G
100
AcDbAlignedDimension
 13
8212.272768974962
 23
2001.689646087251
 33
0.0
 14
8212.272768974962
 24
1677.689646087249
 34
0.0
 50
90.0
100
AcDbRotatedDimension
1001
ACAD
1000
DSTYLE
1002
{
1070
   341
1005
0
1002
}
  0
TEXT
  5
24986
330
747D
100
AcDbEntity
  8
部品1
 48
50.0
100
AcDbText
 10
8216.626353259391
 20
2357.568326849451
 30
0.0
 40
80.0
  1
基礎ボルト(市販品)
  7
STYLE2
100
AcDbText
  0
LWPOLYLINE
  5
24987
330
747D
100
AcDbEntity
  8
部品1
 48
50.0
100
AcDbPolyline
 90
        2
 70
     0
 43
8.0
 10
8212.272768974962
 20
1761.689646087251
 10
8505.975232374346
 20
1761.689646087251
  0
MTEXT
  5
24988
102
{ACAD_REACTORS
330
24989
102
}
330
747D
100
AcDbEntity
  8
部品1
 62
     7
 48
50.0
100
AcDbMText
 10
8251.544359343803
 20
2702.185019174511
 30
0.0
 40
80.0
 41
0.8
 71
     4
 72
     1
  1
\A1;ワッシャー(市販品)
  7
STYLE2
 73
     1
 44
1.0
1001
ACAD
1000
MTEXTBEGIN
1070
    73
1070
     1
1070
    44
1040
1.0
1070
    74
1070
     0
1000
MTEXTEND
  0
LEADER
  5
24989
330
747D
100
AcDbEntity
  8
寸法
 48
50.0
100
AcDbLeader
  3
INABA_S50G
 73
     0
 74
     0
 75
     1
 40
102.2727272727273
 41
906.8181818181818
 76
     3
 10
8059.672768974964
 20
2270.81293453153
 30
0.0
 10
8101.544359343803
 20
2626.048655538147
 30
0.0
 10
8226.544359343803
 20
2626.048655538147
 30
0.0
340
24988
1001
ACAD
1000
DSTYLE
1002
{
1070
   341
1005
0
1070
    40
1040
1.0
1070
   343
1005
0
1070
   344
1005
0
1002
}
  0
MTEXT
  5
2498A
102
{ACAD_REACTORS
330
2498B
102
}
330
747D
100
AcDbEntity
  8
部品1
 62
     7
 48
50.0
100
AcDbMText
 10
8220.02674008832
 20
2887.154101939298
 30
0.0
 40
80.0
 41
0.8
 71
     4
 72
     1
  1
\A1;ナット(市販品)
  7
STYLE2
 73
     1
 44
1.0
1001
ACAD
1000
MTEXTBEGIN
1070
    73
1070
     1
1070
    44
1040
1.0
1070
    74
1070
     0
1000
MTEXTEND
  0
LEADER
  5
2498B
330
747D
100
AcDbEntity
  8
寸法
 48
50.0
100
AcDbLeader
  3
INABA_S50G
 73
     0
 74
     0
 75
     1
 40
102.2727272727273
 41
680.0000000000001
 76
     3
 10
8035.672768974965
 20
2400.564927196394
 30
0.0
 10
8070.026740088321
 20
2811.017738302934
 30
0.0
 10
8195.026740088321
 20
2811.017738302934
 30
0.0
340
2498A
1001
ACAD
1000
DSTYLE
1002
{
1070
   341
1005
0
1070
    40
1040
1.0
1070
   343
1005
0
1070
   344
1005
0
1002
}
  0
LINE
  5
2498C
330
747D
100
AcDbEntity
  8
部品1
100
AcDbLine
 10
5027.565016988511
 20
436.7213437031887
 30
0.0
 11
11098.55020237475
 21
436.7213437031887
 31
0.0
  0
LINE
  5
2498D
330
747D
100
AcDbEntity
  8
部品1
100
AcDbLine
 10
11098.55020237475
 20
3161.028313287834
 30
0.0
 11
5027.565016988508
 21
3161.028313287834
 31
0.0
  0
LINE
  5
2498E
330
747D
100
AcDbEntity
  8
部品1
100
AcDbLine
 10
11098.55020237476
 20
3401.028313287836
 30
0.0
 11
5027.565016988504
 21
3401.028313287836
 31
0.0
  0
ENDSEC
  0
SECTION
  2
OBJECTS
  0
DICTIONARY
  5
7471
330
0
100
AcDbDictionary
281
     1
  3
ACAD_COLOR
350
173D2
  3
ACAD_GROUP
350
7472
  3
ACAD_LAYOUT
350
173D3
  3
ACAD_MATERIAL
350
173D1
  3
ACAD_MLINESTYLE
350
7473
  3
ACAD_PLOTSETTINGS
350
173D4
  3
ACAD_PLOTSTYLENAME
350
173CF
  3
ACDBHEADERROUNDTRIPXREC
350
24A25
  3
AcDbVariableDictionary
350
245B9
  3
CONTENTDICTIONARY
350
E71C
  3
DRAWINGVARIABLESDICT
350
F3B9
  0
DICTIONARY
  5
1758F
330
7467
100
AcDbDictionary
280
     1
281
     1
  3
ACAD_LAYERSTATES
360
17590
  0
DICTIONARY
  5
173D2
102
{ACAD_REACTORS
330
7471
102
}
330
7471
100
AcDbDictionary
281
     1
  0
DICTIONARY
  5
7472
102
{ACAD_REACTORS
330
7471
102
}
330
7471
100
AcDbDictionary
281
     1
  3
*A1
350
1D2A9
  0
DICTIONARY
  5
173D3
102
{ACAD_REACTORS
330
7471
102
}
330
7471
100
AcDbDictionary
281
     1
  3
Model
350
173D5
  3
レイアウト1
350
173D6
  0
DICTIONARY
  5
173D1
102
{ACAD_REACTORS
330
7471
102
}
330
7471
100
AcDbDictionary
281
     1
  0
DICTIONARY
  5
7473
102
{ACAD_REACTORS
330
7471
102
}
330
7471
100
AcDbDictionary
281
     1
  3
STANDARD
350
7480
  0
DICTIONARY
  5
173D4
102
{ACAD_REACTORS
330
7471
102
}
330
7471
100
AcDbDictionary
281
     1
  0
ACDBDICTIONARYWDFLT
  5
173CF
102
{ACAD_REACTORS
330
7471
102
}
330
7471
100
AcDbDictionary
281
     1
  3
Normal
350
173D0
100
AcDbDictionaryWithDefault
340
173D0
  0
DICTIONARY
  5
24A25
102
{ACAD_REACTORS
330
7471
102
}
330
7471
100
AcDbDictionary
281
     1
  3
COLORDICT
350
24A27
  3
MATERIALDICT
350
24A26
  0
DICTIONARY
  5
245B9
102
{ACAD_REACTORS
330
7471
102
}
330
7471
100
AcDbDictionary
281
     1
  3
DIMASSOC
350
245BA
  3
PROJECTNAME
350
245BB
  0
DICTIONARY
  5
E71C
102
{ACAD_REACTORS
330
7471
102
}
330
7471
100
AcDbDictionary
281
     1
  0
DICTIONARY
  5
F3B9
102
{ACAD_REACTORS
330
7471
102
}
330
7471
100
AcDbDictionary
281
     1
1001
DRAWINGVARIABLESXDATA
1000
POLARMODE
1000
1
  0
DICTIONARY
  5
17590
102
{ACAD_REACTORS
330
1758F
102
}
330
1758F
100
AcDbDictionary
281
     1
  0
GROUP
  5
1D2A9
102
{ACAD_REACTORS
330
7472
102
}
330
7472
100
AcDbGroup
300

 70
     1
 71
     1
  0
LAYOUT
  5
173D5
102
{ACAD_XDICTIONARY
360
24A28
102
}
102
{ACAD_REACTORS
330
173D3
102
}
330
173D3
100
AcDbPlotSettings
  1

  2
クセロPDFよこ.pc3
  4
A3
  6

 40
3.174999952316284
 41
3.174999952316284
 42
3.17498779296875
 43
3.17498779296875
 44
419.9466552734374
 45
296.9259948730469
 46
0.0
 47
0.0
 48
0.0
 49
0.0
140
0.0
141
0.0
142
1.0
143
40.0
 70
 11952
 72
     1
 73
     0
 74
     2
  7
ACA3.ctb
 75
    24
147
0.025
148
0.0
149
0.0
100
AcDbLayout
  1
Model
 70
     1
 71
     0
 10
0.0
 20
0.0
 11
12.0
 21
9.0
 12
0.0
 22
0.0
 32
0.0
 14
0.0
 24
0.0
 34
0.0
 15
0.0
 25
0.0
 35
0.0
146
0.0
 13
0.0
 23
0.0
 33
0.0
 16
1.0
 26
0.0
 36
0.0
 17
0.0
 27
1.0
 37
0.0
 76
     0
330
747D
  0
LAYOUT
  5
173D6
102
{ACAD_XDICTIONARY
360
24A2A
102
}
102
{ACAD_REACTORS
330
173D3
102
}
330
173D3
100
AcDbPlotSettings
  1

  2
Microsoft Office Document Image Writer
  4

  6

 40
0.0
 41
0.0
 42
0.0
 43
0.0
 44
0.0
 45
0.0
 46
0.0
 47
0.0
 48
0.0
 49
0.0
140
0.0
141
0.0
142
1.0
143
1.0
 70
   688
 72
     0
 73
     0
 74
     5
  7
ACA3.ctb
 75
    16
147
1.0
148
0.0
149
0.0
100
AcDbLayout
  1
レイアウト1
 70
     0
 71
     1
 10
0.0
 20
0.0
 11
420.0
 21
297.0
 12
0.0
 22
0.0
 32
0.0
 14
1.000000000000000E+20
 24
1.000000000000000E+20
 34
1.000000000000000E+20
 15
-1.000000000000000E+20
 25
-1.000000000000000E+20
 35
-1.000000000000000E+20
146
0.0
 13
0.0
 23
0.0
 33
0.0
 16
1.0
 26
0.0
 36
0.0
 17
0.0
 27
1.0
 37
0.0
 76
     0
330
747A
  0
MLINESTYLE
  5
7480
102
{ACAD_REACTORS
330
7473
102
}
330
7473
100
AcDbMlineStyle
  2
STANDARD
 70
     0
  3

 62
     0
 51
90.0
 52
90.0
 71
     2
 49
0.5
 62
   256
  6
BYLAYER
 49
-0.5
 62
   256
  6
BYLAYER
  0
ACDBPLACEHOLDER
  5
173D0
102
{ACAD_REACTORS
330
173CF
102
}
330
173CF
  0
XRECORD
  5
24A27
102
{ACAD_REACTORS
330
24A25
102
}
330
24A25
100
AcDbXrecord
280
     1
340
173D2
  0
XRECORD
  5
24A26
102
{ACAD_REACTORS
330
24A25
102
}
330
24A25
100
AcDbXrecord
280
     1
340
173D1
  0
DICTIONARYVAR
  5
245BA
102
{ACAD_REACTORS
330
245B9
102
}
330
245B9
100
DictionaryVariables
280
     0
  1
1
  0
DICTIONARYVAR
  5
245BB
102
{ACAD_REACTORS
330
245B9
102
}
330
245B9
100
DictionaryVariables
280
     0
  1

  0
DICTIONARY
  5
24A28
330
173D5
100
AcDbDictionary
280
     1
281
     1
  3
ACAD_XREC_ROUNDTRIP
360
24A29
  0
DICTIONARY
  5
24A2A
330
173D6
100
AcDbDictionary
280
     1
281
     1
  3
ACAD_XREC_ROUNDTRIP
360
24A2B
  0
XRECORD
  5
24A29
102
{ACAD_REACTORS
330
24A28
102
}
330
24A28
100
AcDbXrecord
280
     1
102
SHADEPLOT
 70
     0
102
SHADEPLOTRESLEVEL
 70
     2
102
SHADEPLOTCUSTOMDPI
 70
   150
  0
XRECORD
  5
24A2B
102
{ACAD_REACTORS
330
24A2A
102
}
330
24A2A
100
AcDbXrecord
280
     1
102
SHADEPLOT
 70
     0
102
SHADEPLOTRESLEVEL
 70
     2
102
SHADEPLOTCUSTOMDPI
 70
   300
  0
ENDSEC
  0
EOF
