  0
SECTION
  2
HEADER
  9
$ACADVER
  1
AC1015
  9
$ACADMAINTVER
 70
    20
  9
$DWGCODEPAGE
  3
ANSI_932
  9
$INSBASE
 10
0.0
 20
0.0
 30
0.0
  9
$EXTMIN
 10
139.9999999999995
 20
-0.0000000000000909
 30
0.0
  9
$EXTMAX
 10
16307.2
 20
11409.6
 30
0.0
  9
$LIMMIN
 10
0.0
 20
0.0
  9
$LIMMAX
 10
16800.0
 20
11880.0
  9
$ORTHOMODE
 70
     0
  9
$REGENMODE
 70
     1
  9
$FILLMODE
 70
     1
  9
$QTEXTMODE
 70
     0
  9
$MIRRTEXT
 70
     1
  9
$LTSCALE
 40
20.0
  9
$ATTMODE
 70
     1
  9
$TEXTSIZE
 40
4.0
  9
$TRACEWID
 40
1.0
  9
$TEXTSTYLE
  7
STYLE1
  9
$CLAYER
  8
寸法
  9
$CELTYPE
  6
BYLAYER
  9
$CECOLOR
 62
   256
  9
$CELTSCALE
 40
50.0
  9
$DISPSILH
 70
     0
  9
$DIMSCALE
 40
40.0
  9
$DIMASZ
 40
2.5
  9
$DIMEXO
 40
0.5
  9
$DIMDLI
 40
7.0
  9
$DIMRND
 40
0.0
  9
$DIMDLE
 40
0.0
  9
$DIMEXE
 40
1.5
  9
$DIMTP
 40
0.0
  9
$DIMTM
 40
0.0
  9
$DIMTXT
 40
3.0
  9
$DIMCEN
 40
0.0
  9
$DIMTSZ
 40
0.0
  9
$DIMTOL
 70
     0
  9
$DIMLIM
 70
     0
  9
$DIMTIH
 70
     0
  9
$DIMTOH
 70
     0
  9
$DIMSE1
 70
     0
  9
$DIMSE2
 70
     0
  9
$DIMTAD
 70
     3
  9
$DIMZIN
 70
     8
  9
$DIMBLK
  1

  9
$DIMASO
 70
     1
  9
$DIMSHO
 70
     1
  9
$DIMPOST
  1

  9
$DIMAPOST
  1

  9
$DIMALT
 70
     0
  9
$DIMALTD
 70
     2
  9
$DIMALTF
 40
0.0394
  9
$DIMLFAC
 40
1.0
  9
$DIMTOFL
 70
     1
  9
$DIMTVP
 40
0.0
  9
$DIMTIX
 70
     1
  9
$DIMSOXD
 70
     0
  9
$DIMSAH
 70
     1
  9
$DIMBLK1
  1
DOTSMALL
  9
$DIMBLK2
  1
DOTSMALL
  9
$DIMSTYLE
  2
INABA_S40G
  9
$DIMCLRD
 70
     0
  9
$DIMCLRE
 70
     0
  9
$DIMCLRT
 70
     7
  9
$DIMTFAC
 40
1.0
  9
$DIMGAP
 40
1.0
  9
$DIMJUST
 70
     0
  9
$DIMSD1
 70
     0
  9
$DIMSD2
 70
     0
  9
$DIMTOLJ
 70
     1
  9
$DIMTZIN
 70
     0
  9
$DIMALTZ
 70
     0
  9
$DIMALTTZ
 70
     0
  9
$DIMUPT
 70
     0
  9
$DIMDEC
 70
     1
  9
$DIMTDEC
 70
     4
  9
$DIMALTU
 70
     2
  9
$DIMALTTD
 70
     2
  9
$DIMTXSTY
  7
STYLE1
  9
$DIMAUNIT
 70
     0
  9
$DIMADEC
 70
     0
  9
$DIMALTRND
 40
0.0
  9
$DIMAZIN
 70
     0
  9
$DIMDSEP
 70
    46
  9
$DIMATFIT
 70
     3
  9
$DIMFRAC
 70
     0
  9
$DIMLDRBLK
  1

  9
$DIMLUNIT
 70
     2
  9
$DIMLWD
 70
    -2
  9
$DIMLWE
 70
    -2
  9
$DIMTMOVE
 70
     0
  9
$LUNITS
 70
     2
  9
$LUPREC
 70
     1
  9
$SKETCHINC
 40
1.0
  9
$FILLETRAD
 40
3.0
  9
$AUNITS
 70
     0
  9
$AUPREC
 70
     0
  9
$MENU
  1
acad
  9
$ELEVATION
 40
0.0
  9
$PELEVATION
 40
0.0
  9
$THICKNESS
 40
0.0
  9
$LIMCHECK
 70
     0
  9
$CHAMFERA
 40
0.0
  9
$CHAMFERB
 40
0.0
  9
$CHAMFERC
 40
0.0
  9
$CHAMFERD
 40
0.0
  9
$SKPOLY
 70
     0
  9
$TDCREATE
 40
2451368.612993866
  9
$TDUCREATE
 40
2451368.237993866
  9
$TDUPDATE
 40
2455826.606297917
  9
$TDUUPDATE
 40
2455826.231297917
  9
$TDINDWG
 40
0.7670525000
  9
$TDUSRTIMER
 40
0.7670525000
  9
$USRTIMER
 70
     1
  9
$ANGBASE
 50
0.0
  9
$ANGDIR
 70
     0
  9
$PDMODE
 70
     3
  9
$PDSIZE
 40
2.0
  9
$PLINEWID
 40
0.0
  9
$SPLFRAME
 70
     0
  9
$SPLINETYPE
 70
     6
  9
$SPLINESEGS
 70
     8
  9
$HANDSEED
  5
24245
  9
$SURFTAB1
 70
     6
  9
$SURFTAB2
 70
     6
  9
$SURFTYPE
 70
     6
  9
$SURFU
 70
     6
  9
$SURFV
 70
     6
  9
$UCSBASE
  2

  9
$UCSNAME
  2

  9
$UCSORG
 10
0.0
 20
0.0
 30
0.0
  9
$UCSXDIR
 10
1.0
 20
0.0
 30
0.0
  9
$UCSYDIR
 10
0.0
 20
1.0
 30
0.0
  9
$UCSORTHOREF
  2

  9
$UCSORTHOVIEW
 70
     0
  9
$UCSORGTOP
 10
0.0
 20
0.0
 30
0.0
  9
$UCSORGBOTTOM
 10
0.0
 20
0.0
 30
0.0
  9
$UCSORGLEFT
 10
0.0
 20
0.0
 30
0.0
  9
$UCSORGRIGHT
 10
0.0
 20
0.0
 30
0.0
  9
$UCSORGFRONT
 10
0.0
 20
0.0
 30
0.0
  9
$UCSORGBACK
 10
0.0
 20
0.0
 30
0.0
  9
$PUCSBASE
  2

  9
$PUCSNAME
  2

  9
$PUCSORG
 10
0.0
 20
0.0
 30
0.0
  9
$PUCSXDIR
 10
1.0
 20
0.0
 30
0.0
  9
$PUCSYDIR
 10
0.0
 20
1.0
 30
0.0
  9
$PUCSORTHOREF
  2

  9
$PUCSORTHOVIEW
 70
     0
  9
$PUCSORGTOP
 10
0.0
 20
0.0
 30
0.0
  9
$PUCSORGBOTTOM
 10
0.0
 20
0.0
 30
0.0
  9
$PUCSORGLEFT
 10
0.0
 20
0.0
 30
0.0
  9
$PUCSORGRIGHT
 10
0.0
 20
0.0
 30
0.0
  9
$PUCSORGFRONT
 10
0.0
 20
0.0
 30
0.0
  9
$PUCSORGBACK
 10
0.0
 20
0.0
 30
0.0
  9
$USERI1
 70
     0
  9
$USERI2
 70
     0
  9
$USERI3
 70
     0
  9
$USERI4
 70
     0
  9
$USERI5
 70
     0
  9
$USERR1
 40
0.0
  9
$USERR2
 40
0.0
  9
$USERR3
 40
0.0
  9
$USERR4
 40
0.0
  9
$USERR5
 40
0.0
  9
$WORLDVIEW
 70
     1
  9
$SHADEDGE
 70
     3
  9
$SHADEDIF
 70
    70
  9
$TILEMODE
 70
     1
  9
$MAXACTVP
 70
    16
  9
$PINSBASE
 10
0.0
 20
0.0
 30
0.0
  9
$PLIMCHECK
 70
     0
  9
$PEXTMIN
 10
1.000000000000000E+20
 20
1.000000000000000E+20
 30
1.000000000000000E+20
  9
$PEXTMAX
 10
-1.000000000000000E+20
 20
-1.000000000000000E+20
 30
-1.000000000000000E+20
  9
$PLIMMIN
 10
0.0
 20
0.0
  9
$PLIMMAX
 10
420.0
 20
297.0
  9
$UNITMODE
 70
     0
  9
$VISRETAIN
 70
     0
  9
$PLINEGEN
 70
     0
  9
$PSLTSCALE
 70
     0
  9
$TREEDEPTH
 70
  3020
  9
$CMLSTYLE
  2
STANDARD
  9
$CMLJUST
 70
     0
  9
$CMLSCALE
 40
1.0
  9
$PROXYGRAPHICS
 70
     1
  9
$MEASUREMENT
 70
     1
  9
$CELWEIGHT
370
    -1
  9
$ENDCAPS
280
     0
  9
$JOINSTYLE
280
     0
  9
$LWDISPLAY
290
     0
  9
$INSUNITS
 70
     0
  9
$HYPERLINKBASE
  1

  9
$STYLESHEET
  1
ACA3.ctb
  9
$XEDIT
290
     1
  9
$CEPSNTYPE
380
     0
  9
$PSTYLEMODE
290
     1
  9
$FINGERPRINTGUID
  2
{5EAC461A-2277-4BF8-9AB0-99C43BB394F0}
  9
$VERSIONGUID
  2
{0E34CCC9-9EE4-448D-9007-F04EDF35FBA5}
  9
$EXTNAMES
290
     1
  9
$PSVPSCALE
 40
0.0
  9
$OLESTARTUP
290
     0
  0
ENDSEC
  0
SECTION
  2
CLASSES
  0
CLASS
  1
ACDBDICTIONARYWDFLT
  2
AcDbDictionaryWithDefault
  3
ObjectDBX Classes
 90
        0
280
     0
281
     0
  0
CLASS
  1
DICTIONARYVAR
  2
AcDbDictionaryVar
  3
ObjectDBX Classes
 90
        0
280
     0
281
     0
  0
CLASS
  1
ACDBPLACEHOLDER
  2
AcDbPlaceHolder
  3
ObjectDBX Classes
 90
        0
280
     0
281
     0
  0
CLASS
  1
LAYOUT
  2
AcDbLayout
  3
ObjectDBX Classes
 90
        0
280
     0
281
     0
  0
ENDSEC
  0
SECTION
  2
TABLES
  0
TABLE
  2
VPORT
  5
746D
330
0
100
AcDbSymbolTable
 70
     2
  0
VPORT
  5
2423D
330
746D
100
AcDbSymbolTableRecord
100
AcDbViewportTableRecord
  2
*Active
 70
     0
 10
0.0
 20
0.0
 11
1.0
 21
1.0
 12
8399.999999999998
 22
6550.027448464383
 13
0.0
 23
0.0
 14
10.0
 24
10.0
 15
10.0
 25
10.0
 16
0.0
 26
0.0
 36
1.0
 17
0.0
 27
0.0
 37
0.0
 40
13195.33213169604
 41
1.522222222222222
 42
50.0
 43
0.0
 44
0.0
 50
0.0
 51
0.0
 71
     0
 72
     0
 73
     1
 74
     0
 75
     0
 76
     0
 77
     0
 78
     0
281
     0
 65
     1
110
0.0
120
0.0
130
0.0
111
1.0
121
0.0
131
0.0
112
0.0
122
1.0
132
0.0
 79
     0
146
0.0
  0
ENDTAB
  0
TABLE
  2
LTYPE
  5
746A
330
0
100
AcDbSymbolTable
 70
     5
  0
LTYPE
  5
7477
330
746A
100
AcDbSymbolTableRecord
100
AcDbLinetypeTableRecord
  2
BYBLOCK
 70
     0
  3

 72
    65
 73
     0
 40
0.0
  0
LTYPE
  5
7478
330
746A
100
AcDbSymbolTableRecord
100
AcDbLinetypeTableRecord
  2
BYLAYER
 70
     0
  3

 72
    65
 73
     0
 40
0.0
  0
LTYPE
  5
7479
330
746A
100
AcDbSymbolTableRecord
100
AcDbLinetypeTableRecord
  2
CONTINUOUS
 70
     0
  3
Solid line
 72
    65
 73
     0
 40
0.0
  0
LTYPE
  5
7816
330
746A
100
AcDbSymbolTableRecord
100
AcDbLinetypeTableRecord
  2
CENTER
 70
     0
  3
____ _ ____ _ ____ _ ____ _ ____ _ ____ _ ____ 
 72
    65
 73
     4
 40
2.0
 49
1.25
 74
     0
 49
-0.25
 74
     0
 49
0.25
 74
     0
 49
-0.25
 74
     0
  0
LTYPE
  5
781A
330
746A
100
AcDbSymbolTableRecord
100
AcDbLinetypeTableRecord
  2
HIDDEN
 70
     0
  3
__ __ __ __ __ __ __ __ __ __ __ __ __ __ __ __
 72
    65
 73
     2
 40
0.375
 49
0.25
 74
     0
 49
-0.125
 74
     0
  0
LTYPE
  5
781B
330
746A
100
AcDbSymbolTableRecord
100
AcDbLinetypeTableRecord
  2
PHANTOM
 70
     0
  3
______  __  __  ______  __  __  ______  __  __ 
 72
    65
 73
     6
 40
2.5
 49
1.25
 74
     0
 49
-0.25
 74
     0
 49
0.25
 74
     0
 49
-0.25
 74
     0
 49
0.25
 74
     0
 49
-0.25
 74
     0
  0
LTYPE
  5
12CC3
330
746A
100
AcDbSymbolTableRecord
100
AcDbLinetypeTableRecord
  2
HIDDENX2
 70
     0
  3
Hidden (2x) ____ ____ ____ ____ ____ ____ ____
 72
    65
 73
     2
 40
19.05
 49
12.7
 74
     0
 49
-6.349999999999999
 74
     0
  0
ENDTAB
  0
TABLE
  2
LAYER
  5
7467
102
{ACAD_XDICTIONARY
360
1758F
102
}
330
0
100
AcDbSymbolTable
 70
    12
  0
LAYER
  5
7474
330
7467
100
AcDbSymbolTableRecord
100
AcDbLayerTableRecord
  2
0
 70
     0
 62
     7
  6
CONTINUOUS
370
    -3
390
173D0
  0
LAYER
  5
DEB2
330
7467
100
AcDbSymbolTableRecord
100
AcDbLayerTableRecord
  2
センター
 70
     0
 62
     3
  6
CENTER
370
    -3
390
173D0
  0
LAYER
  5
DEB3
330
7467
100
AcDbSymbolTableRecord
100
AcDbLayerTableRecord
  2
寸法
 70
     0
 62
     4
  6
CONTINUOUS
370
    -3
390
173D0
  0
LAYER
  5
DEB4
330
7467
100
AcDbSymbolTableRecord
100
AcDbLayerTableRecord
  2
部品1
 70
     0
 62
     7
  6
CONTINUOUS
370
    -3
390
173D0
  0
LAYER
  5
DEB5
330
7467
100
AcDbSymbolTableRecord
100
AcDbLayerTableRecord
  2
補助
 70
     0
 62
    -1
  6
CONTINUOUS
370
    -3
390
173D0
  0
LAYER
  5
DEB6
330
7467
100
AcDbSymbolTableRecord
100
AcDbLayerTableRecord
  2
文字
 70
     0
 62
     7
  6
CONTINUOUS
370
    -3
390
173D0
  0
LAYER
  5
F255
330
7467
100
AcDbSymbolTableRecord
100
AcDbLayerTableRecord
  2
DEFPOINTS
 70
     0
 62
     7
  6
CONTINUOUS
290
     0
370
    -3
390
173D0
  0
LAYER
  5
10B54
330
7467
100
AcDbSymbolTableRecord
100
AcDbLayerTableRecord
  2
仕様書枠
 70
     0
 62
   230
  6
CONTINUOUS
370
    -3
390
173D0
  0
LAYER
  5
11729
330
7467
100
AcDbSymbolTableRecord
100
AcDbLayerTableRecord
  2
Ｇ．Ｌ
 70
     0
 62
    30
  6
CONTINUOUS
370
    -3
390
173D0
  0
LAYER
  5
1173F
330
7467
100
AcDbSymbolTableRecord
100
AcDbLayerTableRecord
  2
細線
 70
     0
 62
     5
  6
CONTINUOUS
370
    -3
390
173D0
  0
LAYER
  5
12CC4
330
7467
100
AcDbSymbolTableRecord
100
AcDbLayerTableRecord
  2
想像線
 70
     0
 62
     6
  6
PHANTOM
370
    -3
390
173D0
  0
LAYER
  5
142E2
330
7467
100
AcDbSymbolTableRecord
100
AcDbLayerTableRecord
  2
破線
 70
     0
 62
     2
  6
HIDDEN
370
    -3
390
173D0
  0
ENDTAB
  0
TABLE
  2
STYLE
  5
7468
330
0
100
AcDbSymbolTable
 70
     7
  0
STYLE
  5
7475
330
7468
100
AcDbSymbolTableRecord
100
AcDbTextStyleTableRecord
  2
STANDARD
 70
     0
 40
0.0
 41
1.0
 50
0.0
 71
     0
 42
4.0
  3
txt
  4
C:\AutoCAD LT\bigfont.shx
  0
STYLE
  5
763C
330
7468
100
AcDbSymbolTableRecord
100
AcDbTextStyleTableRecord
  2
MSMINCHO
 70
     0
 40
0.0
 41
1.0
 50
0.0
 71
     0
 42
1.199999999999999
  3
C:\AutoCAD LT\msminch2.TTF
  4

  0
STYLE
  5
F706
330
7468
100
AcDbSymbolTableRecord
100
AcDbTextStyleTableRecord
  2
STYLE1
 70
     0
 40
0.0
 41
1.0
 50
0.0
 71
     0
 42
4.0
  3
isocp.shx
  4
bigfont.shx
  0
STYLE
  5
103BF
330
7468
100
AcDbSymbolTableRecord
100
AcDbTextStyleTableRecord
  2
STYLE2
 70
     0
 40
0.0
 41
1.0
 50
0.0
 71
     0
 42
100.0
  3
MS PGothic.ttf
  4

1001
ACAD
1000
MS PGothic
1071
    32818
  0
STYLE
  5
10BAA
330
7468
100
AcDbSymbolTableRecord
100
AcDbTextStyleTableRecord
  2
STYLE3
 70
     0
 40
0.0
 41
1.0
 50
0.0
 71
     0
 42
100.0
  3

  4

1001
ACAD
1000
DFPGothic-EB
1071
    32818
  0
STYLE
  5
11A15
330
7468
100
AcDbSymbolTableRecord
100
AcDbTextStyleTableRecord
  2
MSGOTHIC
 70
     0
 40
0.0
 41
1.0
 50
0.0
 71
     0
 42
3.5
  3
msgothi2.ttf
  4

  0
STYLE
  5
13E96
330
7468
100
AcDbSymbolTableRecord
100
AcDbTextStyleTableRecord
  2
MSPゴシック
 70
     0
 40
0.0
 41
1.0
 50
0.0
 71
     0
 42
4.0
  3
MS PGothic.ttf
  4

1001
ACAD
1000
MS PGothic
1071
    32818
  0
ENDTAB
  0
TABLE
  2
VIEW
  5
746B
330
0
100
AcDbSymbolTable
 70
     0
  0
ENDTAB
  0
TABLE
  2
UCS
  5
746C
330
0
100
AcDbSymbolTable
 70
     0
  0
ENDTAB
  0
TABLE
  2
APPID
  5
746E
330
0
100
AcDbSymbolTable
 70
     6
  0
APPID
  5
7476
330
746E
100
AcDbSymbolTableRecord
100
AcDbRegAppTableRecord
  2
ACAD
 70
     0
  0
APPID
  5
DEA9
330
746E
100
AcDbSymbolTableRecord
100
AcDbRegAppTableRecord
  2
CONTENTBLOCKICON
 70
     0
  0
APPID
  5
DEAA
330
746E
100
AcDbSymbolTableRecord
100
AcDbRegAppTableRecord
  2
CONTENTBLOCKDESCRIPTION
 70
     0
  0
APPID
  5
E71D
330
746E
100
AcDbSymbolTableRecord
100
AcDbRegAppTableRecord
  2
CONTENTTABDATA
 70
     0
  0
APPID
  5
E71E
330
746E
100
AcDbSymbolTableRecord
100
AcDbRegAppTableRecord
  2
CONTENTCURRENTTAB
 70
     0
  0
APPID
  5
F3BA
330
746E
100
AcDbSymbolTableRecord
100
AcDbRegAppTableRecord
  2
DRAWINGVARIABLESXDATA
 70
     0
  0
ENDTAB
  0
TABLE
  2
DIMSTYLE
  5
746F
330
0
100
AcDbSymbolTable
 70
     6
100
AcDbDimStyleTable
 71
     1
340
F71F
  0
DIMSTYLE
105
7484
330
746F
100
AcDbSymbolTableRecord
100
AcDbDimStyleTableRecord
  2
JIS
 70
     0
 41
2.5
 42
1.0
 43
7.0
 44
1.0
 73
     0
 74
     0
 77
     1
 78
     8
140
2.5
141
0.0
143
0.0394
147
0.0
172
     1
174
     1
175
     1
340
7475
  0
DIMSTYLE
105
F236
330
746F
100
AcDbSymbolTableRecord
100
AcDbDimStyleTableRecord
  2
INABA_S40
 70
     0
 40
40.0
 41
2.5
 42
0.5
 43
7.0
 44
1.5
 73
     0
 74
     0
 77
     3
 78
     8
140
3.0
141
0.0
143
0.0394
147
1.0
172
     1
173
     1
174
     1
175
     1
178
     7
289
     0
340
7475
341
DEAC
343
DEAC
344
DEAC
  0
DIMSTYLE
105
F71F
102
{ACAD_REACTORS
330
20DE1
330
20DFB
330
22741
330
2275B
330
23A2F
330
23A28
330
239FE
330
239E3
330
239E1
330
239AA
330
239A5
330
239A4
330
239A3
330
239B2
330
239B0
330
239AF
330
239AE
330
23A08
330
23A35
330
239B5
330
239A9
330
2418B
330
2418E
330
24195
330
2419D
330
2419E
330
2412B
102
}
330
746F
100
AcDbSymbolTableRecord
100
AcDbDimStyleTableRecord
  2
INABA_S40G
 70
     0
 40
40.0
 41
2.5
 42
0.5
 43
7.0
 44
1.5
 73
     0
 74
     0
 77
     3
 78
     8
140
3.0
141
0.0
143
0.0394
147
1.0
172
     1
173
     1
174
     1
178
     7
271
     1
340
F706
341
F770
343
F770
344
F770
  0
DIMSTYLE
105
142E3
330
746F
100
AcDbSymbolTableRecord
100
AcDbDimStyleTableRecord
  2
INABA_S1
 70
     0
 40
0.0
 41
2.5
 42
0.5
 43
7.0
 44
1.5
 73
     0
 74
     0
 77
     3
 78
     8
140
3.0
141
0.0
143
0.0394
146
0.5
147
0.5
172
     1
173
     1
176
   256
177
   256
178
     7
271
     2
272
     2
284
     8
288
     1
340
7475
341
DEAC
343
DEAC
344
DEAC
  0
DIMSTYLE
105
14463
330
746F
100
AcDbSymbolTableRecord
100
AcDbDimStyleTableRecord
  2
INABA_S30G
 70
     0
 40
30.0
 41
2.5
 42
0.5
 43
7.0
 44
1.5
 73
     0
 74
     0
 77
     3
 78
     8
140
3.0
141
0.0
143
0.0394
147
1.0
172
     1
173
     1
174
     1
175
     1
178
     7
271
     1
340
F706
341
F770
343
F770
344
F770
  0
DIMSTYLE
105
1758E
330
746F
100
AcDbSymbolTableRecord
100
AcDbDimStyleTableRecord
  2
INABA_S50G
 70
     0
 41
125.0
 42
25.0
 43
7.0
 44
75.0
 73
     0
 74
     0
 77
     3
 78
     8
140
150.0
141
0.0
143
0.0394
147
25.0
172
     1
173
     1
174
     1
175
     1
178
     7
271
     1
340
F706
341
F770
343
F770
344
F770
  0
ENDTAB
  0
TABLE
  2
BLOCK_RECORD
  5
7466
330
0
100
AcDbSymbolTable
 70
    46
  0
BLOCK_RECORD
  5
747D
330
7466
100
AcDbSymbolTableRecord
100
AcDbBlockTableRecord
  2
*MODEL_SPACE
340
173D5
  0
BLOCK_RECORD
  5
747A
330
7466
100
AcDbSymbolTableRecord
100
AcDbBlockTableRecord
  2
*PAPER_SPACE
340
173D6
  0
BLOCK_RECORD
  5
DEAC
330
7466
100
AcDbSymbolTableRecord
100
AcDbBlockTableRecord
  2
_OPEN
340
0
  0
BLOCK_RECORD
  5
F770
330
7466
100
AcDbSymbolTableRecord
100
AcDbBlockTableRecord
  2
_DOTSMALL
340
0
102
{BLKREFS
331
18C65
331
18C66
331
18C59
331
18C5A
331
18C4D
331
18C4E
331
18C41
331
18C42
331
18C35
331
18C36
331
18C29
331
18C2A
331
18C1D
331
18C1E
331
18C0F
331
18C10
331
18C03
331
18C04
331
18BF5
331
18BF6
331
18BE7
331
18BE8
331
18BD9
331
18BDA
331
18BCD
331
18BCE
331
23CF6
331
23CF7
331
23D00
331
23D01
331
23D1D
331
23D1E
331
23D27
331
23D28
331
23D39
331
23D3A
331
23D55
331
23D56
331
23D70
331
23D71
331
23D79
331
23D7A
331
23D8D
331
23D8E
331
23D98
331
23D99
331
23DA3
331
23DA4
331
23DAE
331
23DAF
331
23DD2
331
23DD3
331
23DDB
331
23DDC
331
23E2E
331
23E2F
331
23E37
331
23E38
331
23E40
331
23E41
331
23E49
331
23E4A
331
23E5B
331
23E5C
331
23EB6
331
23EB7
331
23EEA
331
23EEB
331
241F5
331
241F6
331
241FE
331
241FF
331
24207
331
24208
331
24212
331
24213
331
2421B
331
2421C
331
24224
331
24225
102
}
  0
BLOCK_RECORD
  5
164B4
330
7466
100
AcDbSymbolTableRecord
100
AcDbBlockTableRecord
  2
_DOT
340
0
102
{BLKREFS
331
18C73
331
18C74
102
}
  0
BLOCK_RECORD
  5
18BC8
330
7466
100
AcDbSymbolTableRecord
100
AcDbBlockTableRecord
  2
*D3
340
0
  0
BLOCK_RECORD
  5
18BD4
330
7466
100
AcDbSymbolTableRecord
100
AcDbBlockTableRecord
  2
*D4
340
0
  0
BLOCK_RECORD
  5
18BE0
330
7466
100
AcDbSymbolTableRecord
100
AcDbBlockTableRecord
  2
*D5
340
0
  0
BLOCK_RECORD
  5
18BEE
330
7466
100
AcDbSymbolTableRecord
100
AcDbBlockTableRecord
  2
*D6
340
0
  0
BLOCK_RECORD
  5
18BFC
330
7466
100
AcDbSymbolTableRecord
100
AcDbBlockTableRecord
  2
*D7
340
0
  0
BLOCK_RECORD
  5
18C0A
330
7466
100
AcDbSymbolTableRecord
100
AcDbBlockTableRecord
  2
*D8
340
0
  0
BLOCK_RECORD
  5
18C16
330
7466
100
AcDbSymbolTableRecord
100
AcDbBlockTableRecord
  2
*D9
340
0
  0
BLOCK_RECORD
  5
18C24
330
7466
100
AcDbSymbolTableRecord
100
AcDbBlockTableRecord
  2
*D10
340
0
  0
BLOCK_RECORD
  5
18C30
330
7466
100
AcDbSymbolTableRecord
100
AcDbBlockTableRecord
  2
*D11
340
0
  0
BLOCK_RECORD
  5
18C3C
330
7466
100
AcDbSymbolTableRecord
100
AcDbBlockTableRecord
  2
*D12
340
0
  0
BLOCK_RECORD
  5
18C48
330
7466
100
AcDbSymbolTableRecord
100
AcDbBlockTableRecord
  2
*D13
340
0
  0
BLOCK_RECORD
  5
18C54
330
7466
100
AcDbSymbolTableRecord
100
AcDbBlockTableRecord
  2
*D14
340
0
  0
BLOCK_RECORD
  5
18C60
330
7466
100
AcDbSymbolTableRecord
100
AcDbBlockTableRecord
  2
*D15
340
0
  0
BLOCK_RECORD
  5
18C6C
330
7466
100
AcDbSymbolTableRecord
100
AcDbBlockTableRecord
  2
*D16
340
0
  0
BLOCK_RECORD
  5
18C7A
330
7466
100
AcDbSymbolTableRecord
100
AcDbBlockTableRecord
  2
A$C3B1A506B
340
0
  0
BLOCK_RECORD
  5
1C4CA
330
7466
100
AcDbSymbolTableRecord
100
AcDbBlockTableRecord
  2
_NONE
340
0
  0
BLOCK_RECORD
  5
20DE2
330
7466
100
AcDbSymbolTableRecord
100
AcDbBlockTableRecord
  2
*D19
340
0
  0
BLOCK_RECORD
  5
20DFC
330
7466
100
AcDbSymbolTableRecord
100
AcDbBlockTableRecord
  2
*D20
340
0
  0
BLOCK_RECORD
  5
22742
330
7466
100
AcDbSymbolTableRecord
100
AcDbBlockTableRecord
  2
*D21
340
0
  0
BLOCK_RECORD
  5
2275C
330
7466
100
AcDbSymbolTableRecord
100
AcDbBlockTableRecord
  2
*D22
340
0
  0
BLOCK_RECORD
  5
23A39
330
7466
100
AcDbSymbolTableRecord
100
AcDbBlockTableRecord
  2
*D23
340
0
  0
BLOCK_RECORD
  5
23A45
330
7466
100
AcDbSymbolTableRecord
100
AcDbBlockTableRecord
  2
*D24
340
0
  0
BLOCK_RECORD
  5
23A50
330
7466
100
AcDbSymbolTableRecord
100
AcDbBlockTableRecord
  2
*D25
340
0
  0
BLOCK_RECORD
  5
23A5C
330
7466
100
AcDbSymbolTableRecord
100
AcDbBlockTableRecord
  2
*D26
340
0
  0
BLOCK_RECORD
  5
23A68
330
7466
100
AcDbSymbolTableRecord
100
AcDbBlockTableRecord
  2
*D27
340
0
  0
BLOCK_RECORD
  5
23A74
330
7466
100
AcDbSymbolTableRecord
100
AcDbBlockTableRecord
  2
*D28
340
0
  0
BLOCK_RECORD
  5
23A80
330
7466
100
AcDbSymbolTableRecord
100
AcDbBlockTableRecord
  2
*D29
340
0
  0
BLOCK_RECORD
  5
23A8C
330
7466
100
AcDbSymbolTableRecord
100
AcDbBlockTableRecord
  2
*D30
340
0
  0
BLOCK_RECORD
  5
23AA5
330
7466
100
AcDbSymbolTableRecord
100
AcDbBlockTableRecord
  2
*D31
340
0
  0
BLOCK_RECORD
  5
23AB1
330
7466
100
AcDbSymbolTableRecord
100
AcDbBlockTableRecord
  2
*D32
340
0
  0
BLOCK_RECORD
  5
23ABD
330
7466
100
AcDbSymbolTableRecord
100
AcDbBlockTableRecord
  2
*D33
340
0
  0
BLOCK_RECORD
  5
23AD7
330
7466
100
AcDbSymbolTableRecord
100
AcDbBlockTableRecord
  2
*D34
340
0
  0
BLOCK_RECORD
  5
23AEE
330
7466
100
AcDbSymbolTableRecord
100
AcDbBlockTableRecord
  2
*D35
340
0
  0
BLOCK_RECORD
  5
23AFA
330
7466
100
AcDbSymbolTableRecord
100
AcDbBlockTableRecord
  2
*D36
340
0
  0
BLOCK_RECORD
  5
23B14
330
7466
100
AcDbSymbolTableRecord
100
AcDbBlockTableRecord
  2
*D37
340
0
  0
BLOCK_RECORD
  5
23B21
330
7466
100
AcDbSymbolTableRecord
100
AcDbBlockTableRecord
  2
*D38
340
0
  0
BLOCK_RECORD
  5
23B2E
330
7466
100
AcDbSymbolTableRecord
100
AcDbBlockTableRecord
  2
*D39
340
0
  0
BLOCK_RECORD
  5
241A8
330
7466
100
AcDbSymbolTableRecord
100
AcDbBlockTableRecord
  2
*D40
340
0
  0
BLOCK_RECORD
  5
241B4
330
7466
100
AcDbSymbolTableRecord
100
AcDbBlockTableRecord
  2
*D41
340
0
  0
BLOCK_RECORD
  5
241C0
330
7466
100
AcDbSymbolTableRecord
100
AcDbBlockTableRecord
  2
*D42
340
0
  0
BLOCK_RECORD
  5
241CC
330
7466
100
AcDbSymbolTableRecord
100
AcDbBlockTableRecord
  2
*D43
340
0
  0
BLOCK_RECORD
  5
241DA
330
7466
100
AcDbSymbolTableRecord
100
AcDbBlockTableRecord
  2
*D44
340
0
  0
BLOCK_RECORD
  5
241E6
330
7466
100
AcDbSymbolTableRecord
100
AcDbBlockTableRecord
  2
*D45
340
0
  0
ENDTAB
  0
ENDSEC
  0
SECTION
  2
BLOCKS
  0
BLOCK
  5
7489
330
747D
100
AcDbEntity
  8
0
100
AcDbBlockBegin
  2
*MODEL_SPACE
 70
     0
 10
0.0
 20
0.0
 30
0.0
  3
*MODEL_SPACE
  1

  0
ENDBLK
  5
748A
330
747D
100
AcDbEntity
  8
0
100
AcDbBlockEnd
  0
BLOCK
  5
7487
330
747A
100
AcDbEntity
 67
     1
  8
0
100
AcDbBlockBegin
  2
*PAPER_SPACE
 70
     0
 10
0.0
 20
0.0
 30
0.0
  3
*PAPER_SPACE
  1

  0
ENDBLK
  5
7488
330
747A
100
AcDbEntity
 67
     1
  8
0
100
AcDbBlockEnd
  0
BLOCK
  5
DEAD
330
DEAC
100
AcDbEntity
  8
0
100
AcDbBlockBegin
  2
_OPEN
 70
     0
 10
0.0
 20
0.0
 30
0.0
  3
_OPEN
  1

  0
LINE
  5
DEAE
330
DEAC
100
AcDbEntity
  8
0
  6
ByBlock
 62
     0
100
AcDbLine
 10
-1.0
 20
0.1666666666666666
 30
0.0
 11
0.0
 21
0.0
 31
0.0
  0
LINE
  5
DEAF
330
DEAC
100
AcDbEntity
  8
0
  6
ByBlock
 62
     0
100
AcDbLine
 10
0.0
 20
0.0
 30
0.0
 11
-1.0
 21
-0.1666666666666666
 31
0.0
  0
LINE
  5
DEB0
330
DEAC
100
AcDbEntity
  8
0
  6
ByBlock
 62
     0
100
AcDbLine
 10
0.0
 20
0.0
 30
0.0
 11
-1.0
 21
0.0
 31
0.0
  0
ENDBLK
  5
DEB1
330
DEAC
100
AcDbEntity
  8
0
100
AcDbBlockEnd
  0
BLOCK
  5
F771
330
F770
100
AcDbEntity
  8
0
 48
50.0
100
AcDbBlockBegin
  2
_DOTSMALL
 70
     0
 10
0.0
 20
0.0
 30
0.0
  3
_DOTSMALL
  1

  0
LWPOLYLINE
  5
F772
330
F770
100
AcDbEntity
  8
0
  6
ByBlock
 62
     0
 48
50.0
100
AcDbPolyline
 90
        2
 70
     1
 43
0.5
 10
-0.0625
 20
0.0
 42
1.0
 10
0.0625
 20
0.0
 42
1.0
  0
ENDBLK
  5
F776
330
F770
100
AcDbEntity
  8
0
 48
50.0
100
AcDbBlockEnd
  0
BLOCK
  5
164BA
330
164B4
100
AcDbEntity
  8
0
 48
50.0
100
AcDbBlockBegin
  2
_DOT
 70
     0
 10
0.0
 20
0.0
 30
0.0
  3
_DOT
  1

  0
LWPOLYLINE
  5
164B5
330
164B4
100
AcDbEntity
  8
0
  6
ByBlock
 62
     0
 48
50.0
100
AcDbPolyline
 90
        2
 70
     1
 43
0.5
 10
-0.25
 20
0.0
 42
1.0
 10
0.25
 20
0.0
 42
1.0
  0
LINE
  5
164B9
330
164B4
100
AcDbEntity
  8
0
  6
ByBlock
 62
     0
 48
50.0
100
AcDbLine
 10
-0.5
 20
0.0
 30
0.0
 11
-1.0
 21
0.0
 31
0.0
  0
ENDBLK
  5
164BB
330
164B4
100
AcDbEntity
  8
0
 48
50.0
100
AcDbBlockEnd
  0
BLOCK
  5
18BC9
330
18BC8
100
AcDbEntity
  8
0
 48
50.0
100
AcDbBlockBegin
  2
*D3
 70
     1
 10
0.0
 20
0.0
 30
0.0
  3
*D3
  1

  0
LINE
  5
18BCA
330
18BC8
100
AcDbEntity
  8
寸法
 62
     0
 48
50.0
370
    -2
100
AcDbLine
 10
7649.896575106999
 20
9636.123139034717
 30
0.0
 11
8702.429862581047
 21
9636.123139034717
 31
0.0
  0
LINE
  5
18BCB
330
18BC8
100
AcDbEntity
  8
寸法
 62
     0
 48
50.0
370
    -2
100
AcDbLine
 10
7649.896575106973
 20
7846.123139034709
 30
0.0
 11
8702.429862581047
 21
7846.123139034709
 31
0.0
  0
LINE
  5
18BCC
330
18BC8
100
AcDbEntity
  8
寸法
 62
     0
 48
50.0
370
    -2
100
AcDbLine
 10
8642.429862581046
 20
9636.123139034717
 30
0.0
 11
8642.429862581046
 21
7846.123139034709
 31
0.0
  0
INSERT
  5
18BCD
330
18BC8
100
AcDbEntity
  8
寸法
 62
     0
 48
50.0
370
    -2
100
AcDbBlockReference
  2
_DOTSMALL
 10
8642.429862581046
 20
9636.123139034717
 30
0.0
 41
100.0
 42
100.0
 43
100.0
 50
90.0
  0
INSERT
  5
18BCE
330
18BC8
100
AcDbEntity
  8
寸法
 62
     0
 48
50.0
370
    -2
100
AcDbBlockReference
  2
_DOTSMALL
 10
8642.429862581046
 20
7846.123139034709
 30
0.0
 41
100.0
 42
100.0
 43
100.0
 50
270.0
  0
MTEXT
  5
18BCF
330
18BC8
100
AcDbEntity
  8
寸法
 62
     7
 48
50.0
100
AcDbMText
 10
8542.429862581045
 20
8741.123139034712
 30
0.0
 40
120.0
 41
0.0
 71
     5
 72
     1
  1
\A1;1790
  7
STYLE1
 11
0.0000000000000001
 21
1.0
 31
0.0
 73
     1
 44
1.0
1001
ACAD
1000
MTEXTBEGIN
1070
    73
1070
     1
1070
    44
1040
1.0
1070
    74
1070
     0
1000
MTEXTEND
  0
POINT
  5
18BD0
330
18BC8
100
AcDbEntity
  8
DEFPOINTS
 62
     0
 48
50.0
100
AcDbPoint
 10
7629.896575106998
 20
9636.123139034717
 30
0.0
  0
POINT
  5
18BD1
330
18BC8
100
AcDbEntity
  8
DEFPOINTS
 62
     0
 48
50.0
100
AcDbPoint
 10
7629.896575106974
 20
7846.123139034709
 30
0.0
  0
POINT
  5
18BD2
330
18BC8
100
AcDbEntity
  8
DEFPOINTS
 62
     0
 48
50.0
100
AcDbPoint
 10
8642.429862581046
 20
7846.123139034709
 30
0.0
  0
ENDBLK
  5
18BD3
330
18BC8
100
AcDbEntity
  8
0
 48
50.0
100
AcDbBlockEnd
  0
BLOCK
  5
18BD5
330
18BD4
100
AcDbEntity
  8
0
 48
50.0
100
AcDbBlockBegin
  2
*D4
 70
     1
 10
0.0
 20
0.0
 30
0.0
  3
*D4
  1

  0
LINE
  5
18BD6
330
18BD4
100
AcDbEntity
  8
寸法
 62
     0
 48
50.0
370
    -2
100
AcDbLine
 10
4214.896575106998
 20
9656.123139034622
 30
0.0
 11
4214.896575106998
 21
10211.93135865972
 31
0.0
  0
LINE
  5
18BD7
330
18BD4
100
AcDbEntity
  8
寸法
 62
     0
 48
50.0
370
    -2
100
AcDbLine
 10
7574.896575106999
 20
9656.123139034718
 30
0.0
 11
7574.896575106999
 21
10211.93135865972
 31
0.0
  0
LINE
  5
18BD8
330
18BD4
100
AcDbEntity
  8
寸法
 62
     0
 48
50.0
370
    -2
100
AcDbLine
 10
4214.896575106998
 20
10151.93135865972
 30
0.0
 11
7574.896575106999
 21
10151.93135865972
 31
0.0
  0
INSERT
  5
18BD9
330
18BD4
100
AcDbEntity
  8
寸法
 62
     0
 48
50.0
370
    -2
100
AcDbBlockReference
  2
_DOTSMALL
 10
4214.896575106998
 20
10151.93135865972
 30
0.0
 41
100.0
 42
100.0
 43
100.0
 50
180.0
  0
INSERT
  5
18BDA
330
18BD4
100
AcDbEntity
  8
寸法
 62
     0
 48
50.0
370
    -2
100
AcDbBlockReference
  2
_DOTSMALL
 10
7574.896575106999
 20
10151.93135865972
 30
0.0
 41
100.0
 42
100.0
 43
100.0
  0
MTEXT
  5
18BDB
330
18BD4
100
AcDbEntity
  8
寸法
 62
     7
 48
50.0
100
AcDbMText
 10
5894.896575106997
 20
10251.94316968334
 30
0.0
 40
120.0
 41
0.0
 71
     5
 72
     1
  1
\A1;8X420=3360
  7
STYLE1
 73
     1
 44
1.0
1001
ACAD
1000
MTEXTBEGIN
1070
    73
1070
     1
1070
    44
1040
1.0
1070
    74
1070
     0
1000
MTEXTEND
  0
POINT
  5
18BDC
330
18BD4
100
AcDbEntity
  8
DEFPOINTS
 62
     0
 48
50.0
100
AcDbPoint
 10
4214.896575106998
 20
9636.123139034623
 30
0.0
  0
POINT
  5
18BDD
330
18BD4
100
AcDbEntity
  8
DEFPOINTS
 62
     0
 48
50.0
100
AcDbPoint
 10
7574.896575106999
 20
9636.123139034717
 30
0.0
  0
POINT
  5
18BDE
330
18BD4
100
AcDbEntity
  8
DEFPOINTS
 62
     0
 48
50.0
100
AcDbPoint
 10
7574.896575106999
 20
10151.93135865972
 30
0.0
  0
ENDBLK
  5
18BDF
330
18BD4
100
AcDbEntity
  8
0
 48
50.0
100
AcDbBlockEnd
  0
BLOCK
  5
18BE1
330
18BE0
100
AcDbEntity
  8
0
 48
50.0
100
AcDbBlockBegin
  2
*D5
 70
     1
 10
0.0
 20
0.0
 30
0.0
  3
*D5
  1

  0
LINE
  5
18BE2
330
18BE0
100
AcDbEntity
  8
寸法
 62
     0
 48
50.0
370
    -2
100
AcDbLine
 10
7574.896575106999
 20
9656.123139034718
 30
0.0
 11
7574.896575106999
 21
10211.9313586597
 31
0.0
  0
LINE
  5
18BE3
330
18BE0
100
AcDbEntity
  8
寸法
 62
     0
 48
50.0
370
    -2
100
AcDbLine
 10
7629.896575106998
 20
9656.123139034718
 30
0.0
 11
7629.896575106998
 21
10211.9313586597
 31
0.0
  0
LINE
  5
18BE4
330
18BE0
100
AcDbEntity
  8
寸法
 62
     0
 48
50.0
370
    -2
100
AcDbLine
 10
7574.896575106999
 20
10151.9313586597
 30
0.0
 11
7474.896575106999
 21
10151.9313586597
 31
0.0
  0
LINE
  5
18BE5
330
18BE0
100
AcDbEntity
  8
寸法
 62
     0
 48
50.0
370
    -2
100
AcDbLine
 10
7629.896575106998
 20
10151.9313586597
 30
0.0
 11
8046.867137855477
 21
10151.9313586597
 31
0.0
  0
LINE
  5
18BE6
330
18BE0
100
AcDbEntity
  8
寸法
 62
     0
 48
50.0
370
    -2
100
AcDbLine
 10
7574.896575106999
 20
10151.9313586597
 30
0.0
 11
7629.896575106998
 21
10151.9313586597
 31
0.0
  0
INSERT
  5
18BE7
330
18BE0
100
AcDbEntity
  8
寸法
 62
     0
 48
50.0
370
    -2
100
AcDbBlockReference
  2
_DOTSMALL
 10
7574.896575106999
 20
10151.9313586597
 30
0.0
 41
100.0
 42
100.0
 43
100.0
  0
INSERT
  5
18BE8
330
18BE0
100
AcDbEntity
  8
寸法
 62
     0
 48
50.0
370
    -2
100
AcDbBlockReference
  2
_DOTSMALL
 10
7629.896575106998
 20
10151.9313586597
 30
0.0
 41
100.0
 42
100.0
 43
100.0
 50
180.0
  0
MTEXT
  5
18BE9
330
18BE0
100
AcDbEntity
  8
寸法
 62
     7
 48
50.0
100
AcDbMText
 10
7938.381856481237
 20
10251.9313586597
 30
0.0
 40
120.0
 41
0.0
 71
     5
 72
     1
  1
\A1;55
  7
STYLE1
 73
     1
 44
1.0
1001
ACAD
1000
MTEXTBEGIN
1070
    73
1070
     1
1070
    44
1040
1.0
1070
    74
1070
     0
1000
MTEXTEND
  0
POINT
  5
18BEA
330
18BE0
100
AcDbEntity
  8
DEFPOINTS
 62
     0
 48
50.0
100
AcDbPoint
 10
7574.896575106999
 20
9636.123139034717
 30
0.0
  0
POINT
  5
18BEB
330
18BE0
100
AcDbEntity
  8
DEFPOINTS
 62
     0
 48
50.0
100
AcDbPoint
 10
7629.896575106998
 20
9636.123139034717
 30
0.0
  0
POINT
  5
18BEC
330
18BE0
100
AcDbEntity
  8
DEFPOINTS
 62
     0
 48
50.0
100
AcDbPoint
 10
7629.896575106998
 20
10151.9313586597
 30
0.0
  0
ENDBLK
  5
18BED
330
18BE0
100
AcDbEntity
  8
0
 48
50.0
100
AcDbBlockEnd
  0
BLOCK
  5
18BEF
330
18BEE
100
AcDbEntity
  8
0
 48
50.0
100
AcDbBlockBegin
  2
*D6
 70
     1
 10
0.0
 20
0.0
 30
0.0
  3
*D6
  1

  0
LINE
  5
18BF0
330
18BEE
100
AcDbEntity
  8
寸法
 62
     0
 48
50.0
370
    -2
100
AcDbLine
 10
7649.896575106999
 20
9636.123139034717
 30
0.0
 11
8337.32292084141
 21
9636.123139034717
 31
0.0
  0
LINE
  5
18BF1
330
18BEE
100
AcDbEntity
  8
寸法
 62
     0
 48
50.0
370
    -2
100
AcDbLine
 10
7649.896575106999
 20
9581.123139034721
 30
0.0
 11
8337.32292084141
 21
9581.123139034721
 31
0.0
  0
LINE
  5
18BF2
330
18BEE
100
AcDbEntity
  8
寸法
 62
     0
 48
50.0
370
    -2
100
AcDbLine
 10
8277.322920841411
 20
9581.123139034721
 30
0.0
 11
8277.322920841411
 21
9481.123139034719
 31
0.0
  0
LINE
  5
18BF3
330
18BEE
100
AcDbEntity
  8
寸法
 62
     0
 48
50.0
370
    -2
100
AcDbLine
 10
8277.322920841411
 20
9636.123139034717
 30
0.0
 11
8277.322920841411
 21
10053.09370178319
 31
0.0
  0
LINE
  5
18BF4
330
18BEE
100
AcDbEntity
  8
寸法
 62
     0
 48
50.0
370
    -2
100
AcDbLine
 10
8277.322920841411
 20
9581.123139034721
 30
0.0
 11
8277.322920841411
 21
9636.123139034717
 31
0.0
  0
INSERT
  5
18BF5
330
18BEE
100
AcDbEntity
  8
寸法
 62
     0
 48
50.0
370
    -2
100
AcDbBlockReference
  2
_DOTSMALL
 10
8277.322920841411
 20
9581.123139034721
 30
0.0
 41
100.0
 42
100.0
 43
100.0
 50
90.0
  0
INSERT
  5
18BF6
330
18BEE
100
AcDbEntity
  8
寸法
 62
     0
 48
50.0
370
    -2
100
AcDbBlockReference
  2
_DOTSMALL
 10
8277.322920841411
 20
9636.123139034717
 30
0.0
 41
100.0
 42
100.0
 43
100.0
 50
270.0
  0
MTEXT
  5
18BF7
330
18BEE
100
AcDbEntity
  8
寸法
 62
     7
 48
50.0
100
AcDbMText
 10
8177.32292084141
 20
9944.608420408957
 30
0.0
 40
120.0
 41
0.0
 71
     5
 72
     1
  1
\A1;55
  7
STYLE1
 11
0.0000000000000001
 21
1.0
 31
0.0
 73
     1
 44
1.0
1001
ACAD
1000
MTEXTBEGIN
1070
    73
1070
     1
1070
    44
1040
1.0
1070
    74
1070
     0
1000
MTEXTEND
  0
POINT
  5
18BF8
330
18BEE
100
AcDbEntity
  8
DEFPOINTS
 62
     0
 48
50.0
100
AcDbPoint
 10
7629.896575106998
 20
9636.123139034717
 30
0.0
  0
POINT
  5
18BF9
330
18BEE
100
AcDbEntity
  8
DEFPOINTS
 62
     0
 48
50.0
100
AcDbPoint
 10
7629.896575106998
 20
9581.123139034721
 30
0.0
  0
POINT
  5
18BFA
330
18BEE
100
AcDbEntity
  8
DEFPOINTS
 62
     0
 48
50.0
100
AcDbPoint
 10
8277.322920841411
 20
9581.123139034721
 30
0.0
  0
ENDBLK
  5
18BFB
330
18BEE
100
AcDbEntity
  8
0
 48
50.0
100
AcDbBlockEnd
  0
BLOCK
  5
18BFD
330
18BFC
100
AcDbEntity
  8
0
 48
50.0
100
AcDbBlockBegin
  2
*D7
 70
     1
 10
0.0
 20
0.0
 30
0.0
  3
*D7
  1

  0
LINE
  5
18BFE
330
18BFC
100
AcDbEntity
  8
寸法
 62
     0
 48
50.0
370
    -2
100
AcDbLine
 10
4159.896575106963
 20
9656.123139034622
 30
0.0
 11
4159.896575106963
 21
10211.9313586596
 31
0.0
  0
LINE
  5
18BFF
330
18BFC
100
AcDbEntity
  8
寸法
 62
     0
 48
50.0
370
    -2
100
AcDbLine
 10
4214.896575106998
 20
9656.123139034622
 30
0.0
 11
4214.896575106998
 21
10211.9313586596
 31
0.0
  0
LINE
  5
18C00
330
18BFC
100
AcDbEntity
  8
寸法
 62
     0
 48
50.0
370
    -2
100
AcDbLine
 10
4214.896575106998
 20
10151.9313586596
 30
0.0
 11
4314.896575106998
 21
10151.9313586596
 31
0.0
  0
LINE
  5
18C01
330
18BFC
100
AcDbEntity
  8
寸法
 62
     0
 48
50.0
370
    -2
100
AcDbLine
 10
4159.896575106963
 20
10151.9313586596
 30
0.0
 11
3742.926012358486
 21
10151.9313586596
 31
0.0
  0
LINE
  5
18C02
330
18BFC
100
AcDbEntity
  8
寸法
 62
     0
 48
50.0
370
    -2
100
AcDbLine
 10
4214.896575106998
 20
10151.9313586596
 30
0.0
 11
4159.896575106963
 21
10151.9313586596
 31
0.0
  0
INSERT
  5
18C03
330
18BFC
100
AcDbEntity
  8
寸法
 62
     0
 48
50.0
370
    -2
100
AcDbBlockReference
  2
_DOTSMALL
 10
4214.896575106998
 20
10151.9313586596
 30
0.0
 41
100.0
 42
100.0
 43
100.0
 50
180.0
  0
INSERT
  5
18C04
330
18BFC
100
AcDbEntity
  8
寸法
 62
     0
 48
50.0
370
    -2
100
AcDbBlockReference
  2
_DOTSMALL
 10
4159.896575106963
 20
10151.9313586596
 30
0.0
 41
100.0
 42
100.0
 43
100.0
  0
MTEXT
  5
18C05
330
18BFC
100
AcDbEntity
  8
寸法
 62
     7
 48
50.0
100
AcDbMText
 10
3851.411293732725
 20
10251.9313586596
 30
0.0
 40
120.0
 41
0.0
 71
     5
 72
     1
  1
\A1;55
  7
STYLE1
 73
     1
 44
1.0
1001
ACAD
1000
MTEXTBEGIN
1070
    73
1070
     1
1070
    44
1040
1.0
1070
    74
1070
     0
1000
MTEXTEND
  0
POINT
  5
18C06
330
18BFC
100
AcDbEntity
  8
DEFPOINTS
 62
     0
 48
50.0
100
AcDbPoint
 10
4159.896575106963
 20
9636.123139034623
 30
0.0
  0
POINT
  5
18C07
330
18BFC
100
AcDbEntity
  8
DEFPOINTS
 62
     0
 48
50.0
100
AcDbPoint
 10
4214.896575106998
 20
9636.123139034623
 30
0.0
  0
POINT
  5
18C08
330
18BFC
100
AcDbEntity
  8
DEFPOINTS
 62
     0
 48
50.0
100
AcDbPoint
 10
4214.896575106998
 20
10151.9313586596
 30
0.0
  0
ENDBLK
  5
18C09
330
18BFC
100
AcDbEntity
  8
0
 48
50.0
100
AcDbBlockEnd
  0
BLOCK
  5
18C0B
330
18C0A
100
AcDbEntity
  8
0
 48
50.0
100
AcDbBlockBegin
  2
*D8
 70
     1
 10
0.0
 20
0.0
 30
0.0
  3
*D8
  1

  0
LINE
  5
18C0C
330
18C0A
100
AcDbEntity
  8
寸法
 62
     0
 48
50.0
370
    -2
100
AcDbLine
 10
4159.896575106992
 20
7826.123139034546
 30
0.0
 11
4159.896575106992
 21
6804.372203245664
 31
0.0
  0
LINE
  5
18C0D
330
18C0A
100
AcDbEntity
  8
寸法
 62
     0
 48
50.0
370
    -2
100
AcDbLine
 10
7629.896575106974
 20
7826.123139034674
 30
0.0
 11
7629.896575106974
 21
6804.372203245664
 31
0.0
  0
LINE
  5
18C0E
330
18C0A
100
AcDbEntity
  8
寸法
 62
     0
 48
50.0
370
    -2
100
AcDbLine
 10
4159.896575106992
 20
6864.372203245665
 30
0.0
 11
7629.896575106974
 21
6864.372203245665
 31
0.0
  0
INSERT
  5
18C0F
330
18C0A
100
AcDbEntity
  8
寸法
 62
     0
 48
50.0
370
    -2
100
AcDbBlockReference
  2
_DOTSMALL
 10
4159.896575106992
 20
6864.372203245665
 30
0.0
 41
100.0
 42
100.0
 43
100.0
 50
180.0
  0
INSERT
  5
18C10
330
18C0A
100
AcDbEntity
  8
寸法
 62
     0
 48
50.0
370
    -2
100
AcDbBlockReference
  2
_DOTSMALL
 10
7629.896575106974
 20
6864.372203245665
 30
0.0
 41
100.0
 42
100.0
 43
100.0
  0
MTEXT
  5
18C11
330
18C0A
100
AcDbEntity
  8
寸法
 62
     7
 48
50.0
100
AcDbMText
 10
5911.12376113973
 20
6964.372203245665
 30
0.0
 40
120.0
 41
0.0
 71
     5
 72
     1
  1
\A1;3470
  7
STYLE1
 73
     1
 44
1.0
1001
ACAD
1000
MTEXTBEGIN
1070
    73
1070
     1
1070
    44
1040
1.0
1070
    74
1070
     0
1000
MTEXTEND
  0
POINT
  5
18C12
330
18C0A
100
AcDbEntity
  8
DEFPOINTS
 62
     0
 48
50.0
100
AcDbPoint
 10
4159.896575106992
 20
7846.123139034546
 30
0.0
  0
POINT
  5
18C13
330
18C0A
100
AcDbEntity
  8
DEFPOINTS
 62
     0
 48
50.0
100
AcDbPoint
 10
7629.896575106974
 20
7846.123139034673
 30
0.0
  0
POINT
  5
18C14
330
18C0A
100
AcDbEntity
  8
DEFPOINTS
 62
     0
 48
50.0
100
AcDbPoint
 10
7629.896575106974
 20
6864.372203245665
 30
0.0
  0
ENDBLK
  5
18C15
330
18C0A
100
AcDbEntity
  8
0
 48
50.0
100
AcDbBlockEnd
  0
BLOCK
  5
18C17
330
18C16
100
AcDbEntity
  8
0
 48
50.0
100
AcDbBlockBegin
  2
*D9
 70
     1
 10
0.0
 20
0.0
 30
0.0
  3
*D9
  1

  0
LINE
  5
18C18
330
18C16
100
AcDbEntity
  8
寸法
 62
     0
 48
50.0
370
    -2
100
AcDbLine
 10
7649.896575106973
 20
7901.123139034706
 30
0.0
 11
8337.322920841385
 21
7901.123139034706
 31
0.0
  0
LINE
  5
18C19
330
18C16
100
AcDbEntity
  8
寸法
 62
     0
 48
50.0
370
    -2
100
AcDbLine
 10
7649.896575106973
 20
7846.123139034709
 30
0.0
 11
8337.322920841385
 21
7846.123139034709
 31
0.0
  0
LINE
  5
18C1A
330
18C16
100
AcDbEntity
  8
寸法
 62
     0
 48
50.0
370
    -2
100
AcDbLine
 10
8277.322920841385
 20
7901.123139034706
 30
0.0
 11
8277.322920841385
 21
8001.123139034707
 31
0.0
  0
LINE
  5
18C1B
330
18C16
100
AcDbEntity
  8
寸法
 62
     0
 48
50.0
370
    -2
100
AcDbLine
 10
8277.322920841385
 20
7846.123139034709
 30
0.0
 11
8277.322920841385
 21
7429.152576286229
 31
0.0
  0
LINE
  5
18C1C
330
18C16
100
AcDbEntity
  8
寸法
 62
     0
 48
50.0
370
    -2
100
AcDbLine
 10
8277.322920841385
 20
7901.123139034706
 30
0.0
 11
8277.322920841385
 21
7846.123139034709
 31
0.0
  0
INSERT
  5
18C1D
330
18C16
100
AcDbEntity
  8
寸法
 62
     0
 48
50.0
370
    -2
100
AcDbBlockReference
  2
_DOTSMALL
 10
8277.322920841385
 20
7901.123139034706
 30
0.0
 41
100.0
 42
100.0
 43
100.0
 50
270.0
  0
INSERT
  5
18C1E
330
18C16
100
AcDbEntity
  8
寸法
 62
     0
 48
50.0
370
    -2
100
AcDbBlockReference
  2
_DOTSMALL
 10
8277.322920841385
 20
7846.123139034709
 30
0.0
 41
100.0
 42
100.0
 43
100.0
 50
90.0
  0
MTEXT
  5
18C1F
330
18C16
100
AcDbEntity
  8
寸法
 62
     7
 48
50.0
100
AcDbMText
 10
8177.322920841383
 20
7537.637857660469
 30
0.0
 40
120.0
 41
0.0
 71
     5
 72
     1
  1
\A1;55
  7
STYLE1
 11
0.0000000000000001
 21
1.0
 31
0.0
 73
     1
 44
1.0
1001
ACAD
1000
MTEXTBEGIN
1070
    73
1070
     1
1070
    44
1040
1.0
1070
    74
1070
     0
1000
MTEXTEND
  0
POINT
  5
18C20
330
18C16
100
AcDbEntity
  8
DEFPOINTS
 62
     0
 48
50.0
100
AcDbPoint
 10
7629.896575106974
 20
7901.123139034706
 30
0.0
  0
POINT
  5
18C21
330
18C16
100
AcDbEntity
  8
DEFPOINTS
 62
     0
 48
50.0
100
AcDbPoint
 10
7629.896575106974
 20
7846.123139034709
 30
0.0
  0
POINT
  5
18C22
330
18C16
100
AcDbEntity
  8
DEFPOINTS
 62
     0
 48
50.0
100
AcDbPoint
 10
8277.322920841385
 20
7846.123139034709
 30
0.0
  0
ENDBLK
  5
18C23
330
18C16
100
AcDbEntity
  8
0
 48
50.0
100
AcDbBlockEnd
  0
BLOCK
  5
18C25
330
18C24
100
AcDbEntity
  8
0
 48
50.0
100
AcDbBlockBegin
  2
*D10
 70
     1
 10
0.0
 20
0.0
 30
0.0
  3
*D10
  1

  0
LINE
  5
18C26
330
18C24
100
AcDbEntity
  8
寸法
 62
     0
 48
50.0
370
    -2
100
AcDbLine
 10
6533.037591258376
 20
9136.123139034728
 30
0.0
 11
6465.083950562664
 21
8882.516699399049
 31
0.0
  0
LINE
  5
18C27
330
18C24
100
AcDbEntity
  8
寸法
 62
     0
 48
50.0
370
    -2
100
AcDbLine
 10
7596.037591258388
 20
9136.123139034721
 30
0.0
 11
7528.083950562677
 21
8882.516699399049
 31
0.0
  0
LINE
  5
18C28
330
18C24
100
AcDbEntity
  8
寸法
 62
     0
 48
50.0
370
    -2
100
AcDbLine
 10
6481.160902108531
 20
8942.51669939905
 30
0.0
 11
7544.160902108544
 21
8942.51669939905
 31
0.0
  0
INSERT
  5
18C29
330
18C24
100
AcDbEntity
  8
寸法
 62
     0
 48
50.0
370
    -2
100
AcDbBlockReference
  2
_DOTSMALL
 10
6481.160902108531
 20
8942.51669939905
 30
0.0
 41
100.0
 42
100.0
 43
100.0
 50
180.0
  0
INSERT
  5
18C2A
330
18C24
100
AcDbEntity
  8
寸法
 62
     0
 48
50.0
370
    -2
100
AcDbBlockReference
  2
_DOTSMALL
 10
7544.160902108544
 20
8942.51669939905
 30
0.0
 41
100.0
 42
100.0
 43
100.0
  0
MTEXT
  5
18C2B
330
18C24
100
AcDbEntity
  8
寸法
 62
     7
 48
50.0
100
AcDbMText
 10
7061.28653022935
 20
9042.516699399049
 30
0.0
 40
120.0
 41
0.0
 71
     5
 72
     1
  1
\A1;1063
  7
STYLE1
 73
     1
 44
1.0
1001
ACAD
1000
MTEXTBEGIN
1070
    73
1070
     1
1070
    44
1040
1.0
1070
    74
1070
     0
1000
MTEXTEND
  0
POINT
  5
18C2C
330
18C24
100
AcDbEntity
  8
DEFPOINTS
 62
     0
 48
50.0
100
AcDbPoint
 10
6538.396575106998
 20
9156.123139034727
 30
0.0
  0
POINT
  5
18C2D
330
18C24
100
AcDbEntity
  8
DEFPOINTS
 62
     0
 48
50.0
100
AcDbPoint
 10
7601.39657510701
 20
9156.12313903472
 30
0.0
  0
POINT
  5
18C2E
330
18C24
100
AcDbEntity
  8
DEFPOINTS
 62
     0
 48
50.0
100
AcDbPoint
 10
7544.160902108544
 20
8942.51669939905
 30
0.0
  0
ENDBLK
  5
18C2F
330
18C24
100
AcDbEntity
  8
0
 48
50.0
100
AcDbBlockEnd
  0
BLOCK
  5
18C31
330
18C30
100
AcDbEntity
  8
0
 48
50.0
100
AcDbBlockBegin
  2
*D11
 70
     1
 10
0.0
 20
0.0
 30
0.0
  3
*D11
  1

  0
LINE
  5
18C32
330
18C30
100
AcDbEntity
  8
寸法
 62
     0
 48
50.0
370
    -2
100
AcDbLine
 10
7621.396575106999
 20
9600.764155186094
 30
0.0
 11
8016.754300969024
 21
9494.828371819961
 31
0.0
  0
LINE
  5
18C33
330
18C30
100
AcDbEntity
  8
寸法
 62
     0
 48
50.0
370
    -2
100
AcDbLine
 10
7621.396575106999
 20
9150.764155186099
 30
0.0
 11
8016.754300969024
 21
9044.828371819964
 31
0.0
  0
LINE
  5
18C34
330
18C30
100
AcDbEntity
  8
寸法
 62
     0
 48
50.0
370
    -2
100
AcDbLine
 10
7956.754300969024
 20
9510.905323365827
 30
0.0
 11
7956.754300969024
 21
9060.90532336583
 31
0.0
  0
INSERT
  5
18C35
330
18C30
100
AcDbEntity
  8
寸法
 62
     0
 48
50.0
370
    -2
100
AcDbBlockReference
  2
_DOTSMALL
 10
7956.754300969024
 20
9510.905323365827
 30
0.0
 41
100.0
 42
100.0
 43
100.0
 50
90.0
  0
INSERT
  5
18C36
330
18C30
100
AcDbEntity
  8
寸法
 62
     0
 48
50.0
370
    -2
100
AcDbBlockReference
  2
_DOTSMALL
 10
7956.754300969024
 20
9060.90532336583
 30
0.0
 41
100.0
 42
100.0
 43
100.0
 50
270.0
  0
MTEXT
  5
18C37
330
18C30
100
AcDbEntity
  8
寸法
 62
     7
 48
50.0
100
AcDbMText
 10
7856.754300969022
 20
9285.905323365829
 30
0.0
 40
120.0
 41
0.0
 71
     5
 72
     1
  1
\A1;450
  7
STYLE1
 11
0.0000000000000001
 21
1.0
 31
0.0
 73
     1
 44
1.0
1001
ACAD
1000
MTEXTBEGIN
1070
    73
1070
     1
1070
    44
1040
1.0
1070
    74
1070
     0
1000
MTEXTEND
  0
POINT
  5
18C38
330
18C30
100
AcDbEntity
  8
DEFPOINTS
 62
     0
 48
50.0
100
AcDbPoint
 10
7601.396575106999
 20
9606.123139034718
 30
0.0
  0
POINT
  5
18C39
330
18C30
100
AcDbEntity
  8
DEFPOINTS
 62
     0
 48
50.0
100
AcDbPoint
 10
7601.396575106999
 20
9156.12313903472
 30
0.0
  0
POINT
  5
18C3A
330
18C30
100
AcDbEntity
  8
DEFPOINTS
 62
     0
 48
50.0
100
AcDbPoint
 10
7956.754300969024
 20
9060.90532336583
 30
0.0
  0
ENDBLK
  5
18C3B
330
18C30
100
AcDbEntity
  8
0
 48
50.0
100
AcDbBlockEnd
  0
BLOCK
  5
18C3D
330
18C3C
100
AcDbEntity
  8
0
 48
50.0
100
AcDbBlockBegin
  2
*D12
 70
     1
 10
0.0
 20
0.0
 30
0.0
  3
*D12
  1

  0
LINE
  5
18C3E
330
18C3C
100
AcDbEntity
  8
寸法
 62
     0
 48
50.0
370
    -2
100
AcDbLine
 10
7649.896575106999
 20
9581.123139034721
 30
0.0
 11
8337.32292084141
 21
9581.123139034721
 31
0.0
  0
LINE
  5
18C3F
330
18C3C
100
AcDbEntity
  8
寸法
 62
     0
 48
50.0
370
    -2
100
AcDbLine
 10
7649.896575106973
 20
7901.123139034706
 30
0.0
 11
8337.32292084141
 21
7901.123139034706
 31
0.0
  0
LINE
  5
18C40
330
18C3C
100
AcDbEntity
  8
寸法
 62
     0
 48
50.0
370
    -2
100
AcDbLine
 10
8277.322920841411
 20
9581.123139034721
 30
0.0
 11
8277.322920841411
 21
7901.123139034706
 31
0.0
  0
INSERT
  5
18C41
330
18C3C
100
AcDbEntity
  8
寸法
 62
     0
 48
50.0
370
    -2
100
AcDbBlockReference
  2
_DOTSMALL
 10
8277.322920841411
 20
9581.123139034721
 30
0.0
 41
100.0
 42
100.0
 43
100.0
 50
90.0
  0
INSERT
  5
18C42
330
18C3C
100
AcDbEntity
  8
寸法
 62
     0
 48
50.0
370
    -2
100
AcDbBlockReference
  2
_DOTSMALL
 10
8277.322920841411
 20
7901.123139034706
 30
0.0
 41
100.0
 42
100.0
 43
100.0
 50
270.0
  0
MTEXT
  5
18C43
330
18C3C
100
AcDbEntity
  8
寸法
 62
     7
 48
50.0
100
AcDbMText
 10
8177.311109817788
 20
8741.123139034712
 30
0.0
 40
120.0
 41
0.0
 71
     5
 72
     1
  1
\A1;4X420=1680
  7
STYLE1
 11
0.0000000000000001
 21
1.0
 31
0.0
 73
     1
 44
1.0
1001
ACAD
1000
MTEXTBEGIN
1070
    73
1070
     1
1070
    44
1040
1.0
1070
    74
1070
     0
1000
MTEXTEND
  0
POINT
  5
18C44
330
18C3C
100
AcDbEntity
  8
DEFPOINTS
 62
     0
 48
50.0
100
AcDbPoint
 10
7629.896575106998
 20
9581.123139034721
 30
0.0
  0
POINT
  5
18C45
330
18C3C
100
AcDbEntity
  8
DEFPOINTS
 62
     0
 48
50.0
100
AcDbPoint
 10
7629.896575106974
 20
7901.123139034706
 30
0.0
  0
POINT
  5
18C46
330
18C3C
100
AcDbEntity
  8
DEFPOINTS
 62
     0
 48
50.0
100
AcDbPoint
 10
8277.322920841411
 20
7901.123139034706
 30
0.0
  0
ENDBLK
  5
18C47
330
18C3C
100
AcDbEntity
  8
0
 48
50.0
100
AcDbBlockEnd
  0
BLOCK
  5
18C49
330
18C48
100
AcDbEntity
  8
0
 48
50.0
100
AcDbBlockBegin
  2
*D13
 70
     1
 10
0.0
 20
0.0
 30
0.0
  3
*D13
  1

  0
LINE
  5
18C4A
330
18C48
100
AcDbEntity
  8
寸法
 62
     0
 48
50.0
370
    -2
100
AcDbLine
 10
4183.037591258377
 20
9136.123139034619
 30
0.0
 11
4115.083950562663
 21
8882.516699398941
 31
0.0
  0
LINE
  5
18C4B
330
18C48
100
AcDbEntity
  8
寸法
 62
     0
 48
50.0
370
    -2
100
AcDbLine
 10
5246.037591258307
 20
9136.123139034671
 30
0.0
 11
5178.08395056258
 21
8882.516699398941
 31
0.0
  0
LINE
  5
18C4C
330
18C48
100
AcDbEntity
  8
寸法
 62
     0
 48
50.0
370
    -2
100
AcDbLine
 10
4131.160902108532
 20
8942.516699398941
 30
0.0
 11
5194.160902108448
 21
8942.516699398941
 31
0.0
  0
INSERT
  5
18C4D
330
18C48
100
AcDbEntity
  8
寸法
 62
     0
 48
50.0
370
    -2
100
AcDbBlockReference
  2
_DOTSMALL
 10
4131.160902108532
 20
8942.516699398941
 30
0.0
 41
100.0
 42
100.0
 43
100.0
 50
180.0
  0
INSERT
  5
18C4E
330
18C48
100
AcDbEntity
  8
寸法
 62
     0
 48
50.0
370
    -2
100
AcDbBlockReference
  2
_DOTSMALL
 10
5194.160902108448
 20
8942.516699398941
 30
0.0
 41
100.0
 42
100.0
 43
100.0
  0
MTEXT
  5
18C4F
330
18C48
100
AcDbEntity
  8
寸法
 62
     7
 48
50.0
100
AcDbMText
 10
4658.986452655306
 20
9042.516699398941
 30
0.0
 40
120.0
 41
0.0
 71
     5
 72
     1
  1
\A1;1063
  7
STYLE1
 73
     1
 44
1.0
1001
ACAD
1000
MTEXTBEGIN
1070
    73
1070
     1
1070
    44
1040
1.0
1070
    74
1070
     0
1000
MTEXTEND
  0
POINT
  5
18C50
330
18C48
100
AcDbEntity
  8
DEFPOINTS
 62
     0
 48
50.0
100
AcDbPoint
 10
4188.396575106999
 20
9156.123139034617
 30
0.0
  0
POINT
  5
18C51
330
18C48
100
AcDbEntity
  8
DEFPOINTS
 62
     0
 48
50.0
100
AcDbPoint
 10
5251.396575106929
 20
9156.123139034672
 30
0.0
  0
POINT
  5
18C52
330
18C48
100
AcDbEntity
  8
DEFPOINTS
 62
     0
 48
50.0
100
AcDbPoint
 10
5194.160902108448
 20
8942.516699398941
 30
0.0
  0
ENDBLK
  5
18C53
330
18C48
100
AcDbEntity
  8
0
 48
50.0
100
AcDbBlockEnd
  0
BLOCK
  5
18C55
330
18C54
100
AcDbEntity
  8
0
 48
50.0
100
AcDbBlockBegin
  2
*D14
 70
     1
 10
0.0
 20
0.0
 30
0.0
  3
*D14
  1

  0
LINE
  5
18C56
330
18C54
100
AcDbEntity
  8
寸法
 62
     0
 48
50.0
370
    -2
100
AcDbLine
 10
5274.037591258307
 20
9136.123139034669
 30
0.0
 11
5206.08395056258
 21
8882.516699398941
 31
0.0
  0
LINE
  5
18C57
330
18C54
100
AcDbEntity
  8
寸法
 62
     0
 48
50.0
370
    -2
100
AcDbLine
 10
6505.037591258377
 20
9136.123139034662
 30
0.0
 11
6437.083950562653
 21
8882.516699398941
 31
0.0
  0
LINE
  5
18C58
330
18C54
100
AcDbEntity
  8
寸法
 62
     0
 48
50.0
370
    -2
100
AcDbLine
 10
5222.160902108448
 20
8942.516699398941
 30
0.0
 11
6453.16090210852
 21
8942.516699398941
 31
0.0
  0
INSERT
  5
18C59
330
18C54
100
AcDbEntity
  8
寸法
 62
     0
 48
50.0
370
    -2
100
AcDbBlockReference
  2
_DOTSMALL
 10
5222.160902108448
 20
8942.516699398941
 30
0.0
 41
100.0
 42
100.0
 43
100.0
 50
180.0
  0
INSERT
  5
18C5A
330
18C54
100
AcDbEntity
  8
寸法
 62
     0
 48
50.0
370
    -2
100
AcDbBlockReference
  2
_DOTSMALL
 10
6453.16090210852
 20
8942.516699398941
 30
0.0
 41
100.0
 42
100.0
 43
100.0
  0
MTEXT
  5
18C5B
330
18C54
100
AcDbEntity
  8
寸法
 62
     7
 48
50.0
100
AcDbMText
 10
6081.244808320626
 20
9042.528510422561
 30
0.0
 40
120.0
 41
0.0
 71
     5
 72
     1
  1
\A1;1231
  7
STYLE1
 73
     1
 44
1.0
1001
ACAD
1000
MTEXTBEGIN
1070
    73
1070
     1
1070
    44
1040
1.0
1070
    74
1070
     0
1000
MTEXTEND
  0
POINT
  5
18C5C
330
18C54
100
AcDbEntity
  8
DEFPOINTS
 62
     0
 48
50.0
100
AcDbPoint
 10
5279.396575106929
 20
9156.123139034669
 30
0.0
  0
POINT
  5
18C5D
330
18C54
100
AcDbEntity
  8
DEFPOINTS
 62
     0
 48
50.0
100
AcDbPoint
 10
6510.396575106999
 20
9156.123139034662
 30
0.0
  0
POINT
  5
18C5E
330
18C54
100
AcDbEntity
  8
DEFPOINTS
 62
     0
 48
50.0
100
AcDbPoint
 10
6453.16090210852
 20
8942.516699398941
 30
0.0
  0
ENDBLK
  5
18C5F
330
18C54
100
AcDbEntity
  8
0
 48
50.0
100
AcDbBlockEnd
  0
BLOCK
  5
18C61
330
18C60
100
AcDbEntity
  8
0
 48
50.0
100
AcDbBlockBegin
  2
*D15
 70
     1
 10
0.0
 20
0.0
 30
0.0
  3
*D15
  1

  0
LINE
  5
18C62
330
18C60
100
AcDbEntity
  8
寸法
 62
     0
 48
50.0
370
    -2
100
AcDbLine
 10
5065.896575106966
 20
7749.123139034579
 30
0.0
 11
5065.896575106966
 21
7099.952920982538
 31
0.0
  0
LINE
  5
18C63
330
18C60
100
AcDbEntity
  8
寸法
 62
     0
 48
50.0
370
    -2
100
AcDbLine
 10
6331.896575106966
 20
7749.123139034579
 30
0.0
 11
6331.896575106966
 21
7099.952920982538
 31
0.0
  0
LINE
  5
18C64
330
18C60
100
AcDbEntity
  8
寸法
 62
     0
 48
50.0
370
    -2
100
AcDbLine
 10
5065.896575106966
 20
7159.952920982537
 30
0.0
 11
6331.896575106966
 21
7159.952920982537
 31
0.0
  0
INSERT
  5
18C65
330
18C60
100
AcDbEntity
  8
寸法
 62
     0
 48
50.0
370
    -2
100
AcDbBlockReference
  2
_DOTSMALL
 10
5065.896575106966
 20
7159.952920982537
 30
0.0
 41
100.0
 42
100.0
 43
100.0
 50
180.0
  0
INSERT
  5
18C66
330
18C60
100
AcDbEntity
  8
寸法
 62
     0
 48
50.0
370
    -2
100
AcDbBlockReference
  2
_DOTSMALL
 10
6331.896575106966
 20
7159.952920982537
 30
0.0
 41
100.0
 42
100.0
 43
100.0
  0
MTEXT
  5
18C67
330
18C60
100
AcDbEntity
  8
寸法
 62
     7
 48
50.0
100
AcDbMText
 10
5711.986008735934
 20
7359.964732006159
 30
0.0
 40
120.0
 41
0.0
 71
     5
 72
     1
  1
\A1;有効開口部間口\P1266
  7
STYLE1
 73
     1
 44
1.0
1001
ACAD
1000
MTEXTBEGIN
1070
    73
1070
     1
1070
    44
1040
1.0
1070
    74
1070
     0
1000
MTEXTEND
  0
POINT
  5
18C68
330
18C60
100
AcDbEntity
  8
DEFPOINTS
 62
     0
 48
50.0
100
AcDbPoint
 10
5065.896575106966
 20
7769.123139034579
 30
0.0
  0
POINT
  5
18C69
330
18C60
100
AcDbEntity
  8
DEFPOINTS
 62
     0
 48
50.0
100
AcDbPoint
 10
6331.896575106966
 20
7769.123139034579
 30
0.0
  0
POINT
  5
18C6A
330
18C60
100
AcDbEntity
  8
DEFPOINTS
 62
     0
 48
50.0
100
AcDbPoint
 10
6331.896575106966
 20
7159.952920982537
 30
0.0
  0
ENDBLK
  5
18C6B
330
18C60
100
AcDbEntity
  8
0
 48
50.0
100
AcDbBlockEnd
  0
BLOCK
  5
18C6D
330
18C6C
100
AcDbEntity
  8
0
 48
50.0
100
AcDbBlockBegin
  2
*D16
 70
     1
 10
0.0
 20
0.0
 30
0.0
  3
*D16
  1

  0
LINE
  5
18C6E
330
18C6C
100
AcDbEntity
  8
寸法
 62
     0
 48
50.0
370
    -2
100
AcDbLine
 10
7200.896575106966
 20
7846.123139034578
 30
0.0
 11
7457.192158500191
 21
7846.123139034578
 31
0.0
  0
LINE
  5
18C6F
330
18C6C
100
AcDbEntity
  8
寸法
 62
     0
 48
50.0
370
    -2
100
AcDbLine
 10
7199.896575106966
 20
7769.123139034579
 30
0.0
 11
7457.192158500191
 21
7769.123139034579
 31
0.0
  0
LINE
  5
18C70
330
18C6C
100
AcDbEntity
  8
寸法
 62
     0
 48
50.0
370
    -2
100
AcDbLine
 10
7417.192158500192
 20
7866.123139034579
 30
0.0
 11
7417.192158500192
 21
7886.123139034578
 31
0.0
  0
LINE
  5
18C71
330
18C6C
100
AcDbEntity
  8
寸法
 62
     0
 48
50.0
370
    -2
100
AcDbLine
 10
7417.192158500192
 20
7749.123139034579
 30
0.0
 11
7417.192158500192
 21
7533.123139034573
 31
0.0
  0
LINE
  5
18C72
330
18C6C
100
AcDbEntity
  8
寸法
 62
     0
 48
50.0
370
    -2
100
AcDbLine
 10
7417.192158500192
 20
7846.123139034578
 30
0.0
 11
7417.192158500192
 21
7769.123139034579
 31
0.0
  0
INSERT
  5
18C73
330
18C6C
100
AcDbEntity
  8
寸法
 62
     0
 48
50.0
370
    -2
100
AcDbBlockReference
  2
_DOT
 10
7417.192158500192
 20
7846.123139034578
 30
0.0
 41
20.0
 42
20.0
 43
20.0
 50
270.0
  0
INSERT
  5
18C74
330
18C6C
100
AcDbEntity
  8
寸法
 62
     0
 48
50.0
370
    -2
100
AcDbBlockReference
  2
_DOT
 10
7417.192158500192
 20
7769.123139034579
 30
0.0
 41
20.0
 42
20.0
 43
20.0
 50
90.0
  0
MTEXT
  5
18C75
330
18C6C
100
AcDbEntity
  8
寸法
 62
     7
 48
50.0
100
AcDbMText
 10
7325.192158500191
 20
7631.123139034575
 30
0.0
 40
120.0
 41
0.0
 71
     5
 72
     1
  1
\A1;77
  7
STYLE1
 11
0.0000000000000001
 21
1.0
 31
0.0
 73
     1
 44
1.0
1001
ACAD
1000
MTEXTBEGIN
1070
    73
1070
     1
1070
    44
1040
1.0
1070
    74
1070
     0
1000
MTEXTEND
  0
POINT
  5
18C76
330
18C6C
100
AcDbEntity
  8
DEFPOINTS
 62
     0
 48
50.0
100
AcDbPoint
 10
7180.896575106967
 20
7846.123139034578
 30
0.0
  0
POINT
  5
18C77
330
18C6C
100
AcDbEntity
  8
DEFPOINTS
 62
     0
 48
50.0
100
AcDbPoint
 10
7179.896575106965
 20
7769.123139034579
 30
0.0
  0
POINT
  5
18C78
330
18C6C
100
AcDbEntity
  8
DEFPOINTS
 62
     0
 48
50.0
100
AcDbPoint
 10
7417.192158500192
 20
7769.123139034579
 30
0.0
  0
ENDBLK
  5
18C79
330
18C6C
100
AcDbEntity
  8
0
 48
50.0
100
AcDbBlockEnd
  0
BLOCK
  5
18DA0
330
18C7A
100
AcDbEntity
  8
0
 48
50.0
100
AcDbBlockBegin
  2
A$C3B1A506B
 70
     0
 10
0.0
 20
0.0
 30
0.0
  3
A$C3B1A506B
  1

  0
MTEXT
  5
18C7B
330
18C7A
100
AcDbEntity
  8
寸法
 62
     7
 48
50.0
100
AcDbMText
 10
3342.250386887194
 20
2778.329429134012
 30
0.0
 40
96.0
 41
0.0
 71
     5
 72
     1
  1
棚 2段
  7
STYLE1
 73
     1
 44
1.0
1001
ACAD
1000
MTEXTBEGIN
1070
    73
1070
     1
1070
    44
1040
1.0
1070
    74
1070
     0
1000
MTEXTEND
  0
MTEXT
  5
18C7C
330
18C7A
100
AcDbEntity
  8
寸法
 62
     7
 48
50.0
100
AcDbMText
 10
2167.25038688716
 20
2778.329429133986
 30
0.0
 40
96.0
 41
0.0
 71
     5
 72
     1
  1
棚 2段
  7
STYLE1
 73
     1
 44
1.0
1001
ACAD
1000
MTEXTBEGIN
1070
    73
1070
     1
1070
    44
1040
1.0
1070
    74
1070
     0
1000
MTEXTEND
  0
MTEXT
  5
18C7D
330
18C7A
100
AcDbEntity
  8
寸法
 62
     7
 48
50.0
100
AcDbMText
 10
992.2503868871608
 20
2778.329429133935
 30
0.0
 40
96.0
 41
0.0
 71
     5
 72
     1
  1
棚 2段
  7
STYLE1
 73
     1
 44
1.0
1001
ACAD
1000
MTEXTBEGIN
1070
    73
1070
     1
1070
    44
1040
1.0
1070
    74
1070
     0
1000
MTEXTEND
  0
LINE
  5
18C7E
330
18C7A
100
AcDbEntity
  8
細線
 48
50.0
100
AcDbLine
 10
2771.970589276527
 20
1368.994384123192
 30
0.0
 11
3398.970589276523
 21
1368.994384123192
 31
0.0
  0
LINE
  5
18C7F
330
18C7A
100
AcDbEntity
  8
細線
 48
50.0
100
AcDbLine
 10
2117.970593930113
 20
1335.285615569113
 30
0.0
 11
3398.970589276523
 21
1335.285615569113
 31
0.0
  0
LINE
  5
18C80
330
18C7A
100
AcDbEntity
  8
細線
 48
50.0
100
AcDbLine
 10
2076.970593930115
 20
1364.690523565368
 30
0.0
 11
1322.970589276523
 21
1364.690523565367
 31
0.0
  0
LINE
  5
18C81
330
18C7A
100
AcDbEntity
  8
細線
100
AcDbLine
 10
3170.720579860066
 20
1388.494284088199
 30
0.0
 11
3173.052119381877
 21
1393.494286728162
 31
0.0
  0
LINE
  5
18C82
330
18C7A
100
AcDbEntity
  8
細線
100
AcDbLine
 10
3240.720589276525
 20
1388.494269174465
 30
0.0
 11
3238.389042800336
 21
1393.494286728144
 31
0.0
  0
LINE
  5
18C83
330
18C7A
100
AcDbEntity
  8
細線
100
AcDbLine
 10
3238.389042800336
 20
1393.494286728144
 30
0.0
 11
3173.052119381862
 21
1393.494286728133
 31
0.0
  0
LINE
  5
18C84
330
18C7A
100
AcDbEntity
  8
細線
100
AcDbLine
 10
3098.389042800336
 20
1393.494286728144
 30
0.0
 11
3033.052119381862
 21
1393.494286728133
 31
0.0
  0
LINE
  5
18C85
330
18C7A
100
AcDbEntity
  8
細線
100
AcDbLine
 10
3100.720589276523
 20
1388.494269174465
 30
0.0
 11
3098.389042800336
 21
1393.494286728144
 31
0.0
  0
LINE
  5
18C86
330
18C7A
100
AcDbEntity
  8
細線
100
AcDbLine
 10
3030.720579860066
 20
1388.494284088199
 30
0.0
 11
3033.052119381875
 21
1393.494286728162
 31
0.0
  0
LINE
  5
18C87
330
18C7A
100
AcDbEntity
  8
細線
100
AcDbLine
 10
2890.720589276525
 20
1388.494269174465
 30
0.0
 11
2893.052128798336
 21
1393.494271814428
 31
0.0
  0
LINE
  5
18C88
330
18C7A
100
AcDbEntity
  8
細線
100
AcDbLine
 10
2960.720598692984
 20
1388.494254260731
 30
0.0
 11
2958.389052216793
 21
1393.49427181441
 31
0.0
  0
LINE
  5
18C89
330
18C7A
100
AcDbEntity
  8
細線
100
AcDbLine
 10
2958.389052216795
 20
1393.49427181441
 30
0.0
 11
2893.052128798321
 21
1393.494271814399
 31
0.0
  0
LINE
  5
18C8A
330
18C7A
100
AcDbEntity
  8
細線
100
AcDbLine
 10
2667.139038146739
 20
1359.494298590735
 30
0.0
 11
2601.802114728263
 21
1359.494298590724
 31
0.0
  0
LINE
  5
18C8B
330
18C7A
100
AcDbEntity
  8
細線
100
AcDbLine
 10
2669.470584622926
 20
1354.494281037055
 30
0.0
 11
2667.139038146737
 21
1359.494298590735
 31
0.0
  0
LINE
  5
18C8C
330
18C7A
100
AcDbEntity
  8
細線
100
AcDbLine
 10
2599.470575206469
 20
1354.49429595079
 30
0.0
 11
2601.802114728278
 21
1359.494298590752
 31
0.0
  0
LINE
  5
18C8D
330
18C7A
100
AcDbEntity
  8
細線
 48
50.0
100
AcDbLine
 10
2440.853968524536
 20
1372.765132327548
 30
0.0
 11
2446.609486107205
 21
1354.494281037057
 31
0.0
  0
LINE
  5
18C8E
330
18C7A
100
AcDbEntity
  8
細線
 48
50.0
100
AcDbLine
 10
2429.925520044106
 20
1372.765132327546
 30
0.0
 11
2440.853968524536
 21
1372.765132327548
 31
0.0
  0
ARC
  5
18C8F
330
18C7A
100
AcDbEntity
  8
細線
 48
50.0
100
AcDbCircle
 10
2424.471163986787
 20
1374.265132327546
 30
0.0
 40
5.0
100
AcDbArc
 50
204.6243183520723
 51
335.3756816479278
  0
ARC
  5
18C90
330
18C7A
100
AcDbEntity
  8
細線
 48
50.0
100
AcDbCircle
 10
2429.925520044106
 20
1371.765132327546
 30
0.0
 40
1.0
100
AcDbArc
 50
90.0
 51
155.3756816479277
  0
ARC
  5
18C91
330
18C7A
100
AcDbEntity
  8
細線
 48
50.0
100
AcDbCircle
 10
2419.016807929469
 20
1371.765132327546
 30
0.0
 40
1.0
100
AcDbArc
 50
24.62431835207225
 51
90.0
  0
LINE
  5
18C92
330
18C7A
100
AcDbEntity
  8
細線
 48
50.0
100
AcDbLine
 10
2408.088359449037
 20
1372.765132327548
 30
0.0
 11
2419.016807929469
 21
1372.765132327546
 31
0.0
  0
LINE
  5
18C93
330
18C7A
100
AcDbEntity
  8
細線
 48
50.0
100
AcDbLine
 10
2402.33284186637
 20
1354.494281037054
 30
0.0
 11
2408.088359449037
 21
1372.765132327548
 31
0.0
  0
LINE
  5
18C94
330
18C7A
100
AcDbEntity
  8
細線
100
AcDbLine
 10
2458.070304175992
 20
1354.494278397076
 30
0.0
 11
2460.401843697802
 21
1359.494281037039
 31
0.0
  0
LINE
  5
18C95
330
18C7A
100
AcDbEntity
  8
細線
100
AcDbLine
 10
2528.070313592451
 20
1354.494263483342
 30
0.0
 11
2525.738767116262
 21
1359.494281037021
 31
0.0
  0
LINE
  5
18C96
330
18C7A
100
AcDbEntity
  8
細線
100
AcDbLine
 10
2525.738767116262
 20
1359.494281037021
 30
0.0
 11
2460.40184369779
 21
1359.49428103701
 31
0.0
  0
LINE
  5
18C97
330
18C7A
100
AcDbEntity
  8
細線
100
AcDbLine
 10
2387.139046332155
 20
1359.494281037021
 30
0.0
 11
2321.80212291368
 21
1359.49428103701
 31
0.0
  0
LINE
  5
18C98
330
18C7A
100
AcDbEntity
  8
細線
100
AcDbLine
 10
2389.470592808342
 20
1354.494263483342
 30
0.0
 11
2387.139046332153
 21
1359.494281037021
 31
0.0
  0
LINE
  5
18C99
330
18C7A
100
AcDbEntity
  8
細線
100
AcDbLine
 10
2319.470584622926
 20
1354.494281037054
 30
0.0
 11
2321.802122913694
 21
1359.494281037039
 31
0.0
  0
LINE
  5
18C9A
330
18C7A
100
AcDbEntity
  8
細線
100
AcDbLine
 10
2179.47061994182
 20
1354.494289224422
 30
0.0
 11
2181.802158232587
 21
1359.494289224407
 31
0.0
  0
LINE
  5
18C9B
330
18C7A
100
AcDbEntity
  8
細線
100
AcDbLine
 10
2249.470628127236
 20
1354.49427167071
 30
0.0
 11
2247.139081651047
 21
1359.494289224389
 31
0.0
  0
LINE
  5
18C9C
330
18C7A
100
AcDbEntity
  8
細線
100
AcDbLine
 10
2247.139081651047
 20
1359.494289224389
 30
0.0
 11
2181.802158232573
 21
1359.494289224378
 31
0.0
  0
LINE
  5
18C9D
330
18C7A
100
AcDbEntity
  8
細線
100
AcDbLine
 10
1807.970585744697
 20
1320.494460905133
 30
0.0
 11
1810.302124035464
 21
1325.494460905118
 31
0.0
  0
LINE
  5
18C9E
330
18C7A
100
AcDbEntity
  8
細線
100
AcDbLine
 10
1877.970593930113
 20
1320.494443351421
 30
0.0
 11
1875.639047453926
 21
1325.4944609051
 31
0.0
  0
LINE
  5
18C9F
330
18C7A
100
AcDbEntity
  8
細線
100
AcDbLine
 10
1875.639047453926
 20
1325.4944609051
 30
0.0
 11
1810.302124035452
 21
1325.494460905089
 31
0.0
  0
LINE
  5
18CA0
330
18C7A
100
AcDbEntity
  8
細線
100
AcDbLine
 10
2015.639047453926
 20
1325.4944609051
 30
0.0
 11
1950.302124035452
 21
1325.494460905089
 31
0.0
  0
LINE
  5
18CA1
330
18C7A
100
AcDbEntity
  8
細線
100
AcDbLine
 10
2017.970593930113
 20
1320.494443351421
 30
0.0
 11
2015.639047453924
 21
1325.4944609051
 31
0.0
  0
LINE
  5
18CA2
330
18C7A
100
AcDbEntity
  8
細線
100
AcDbLine
 10
1947.970585744697
 20
1320.494460905133
 30
0.0
 11
1950.302124035465
 21
1325.494460905118
 31
0.0
  0
LINE
  5
18CA3
330
18C7A
100
AcDbEntity
  8
細線
100
AcDbLine
 10
1735.639047453926
 20
1325.494460905098
 30
0.0
 11
1670.302124035454
 21
1325.494460905087
 31
0.0
  0
LINE
  5
18CA4
330
18C7A
100
AcDbEntity
  8
細線
100
AcDbLine
 10
1737.970593930113
 20
1320.494443351419
 30
0.0
 11
1735.639047453926
 21
1325.494460905098
 31
0.0
  0
LINE
  5
18CA5
330
18C7A
100
AcDbEntity
  8
細線
100
AcDbLine
 10
1667.970585744697
 20
1320.494460905131
 30
0.0
 11
1670.302124035465
 21
1325.494460905116
 31
0.0
  0
LINE
  5
18CA6
330
18C7A
100
AcDbEntity
  8
細線
100
AcDbLine
 10
1527.970593930113
 20
1320.494460905133
 30
0.0
 11
1530.302132220881
 21
1325.494460905118
 31
0.0
  0
LINE
  5
18CA7
330
18C7A
100
AcDbEntity
  8
細線
100
AcDbLine
 10
1597.970602115529
 20
1320.494443351421
 30
0.0
 11
1595.639055639342
 21
1325.4944609051
 31
0.0
  0
LINE
  5
18CA8
330
18C7A
100
AcDbEntity
  8
細線
100
AcDbLine
 10
1595.639055639342
 20
1325.4944609051
 30
0.0
 11
1530.302132220869
 21
1325.494460905089
 31
0.0
  0
ARC
  5
18CA9
330
18C7A
100
AcDbEntity
  8
部品1
 48
0.01
100
AcDbCircle
 10
1483.470482677778
 20
1319.493338720063
 30
0.0
 40
0.5
100
AcDbArc
 50
270.0
 51
0.0
  0
LINE
  5
18CAA
330
18C7A
100
AcDbEntity
  8
部品1
 48
0.01
100
AcDbLine
 10
1483.970482677778
 20
1320.493338720063
 30
0.0
 11
1483.970482677778
 21
1319.493338720063
 31
0.0
  0
LINE
  5
18CAB
330
18C7A
100
AcDbEntity
  8
部品1
 48
0.01
100
AcDbLine
 10
1483.970482677778
 20
1320.493338720063
 30
0.0
 11
1483.970482677778
 21
1319.493338720063
 31
0.0
  0
LINE
  5
18CAC
330
18C7A
100
AcDbEntity
  8
部品1
 48
0.01
100
AcDbLine
 10
1483.470482677778
 20
1318.993338720063
 30
0.0
 11
1476.857977247713
 21
1318.993338720062
 31
0.0
  0
ARC
  5
18CAD
330
18C7A
100
AcDbEntity
  8
部品1
100
AcDbCircle
 10
1476.926326800494
 20
1319.993338720062
 30
0.0
 40
1.0
100
AcDbArc
 50
160.5287793655865
 51
270.0
  0
ARC
  5
18CAE
330
18C7A
100
AcDbEntity
  8
部品1
100
AcDbCircle
 10
1451.470482677778
 20
1328.993338720062
 30
0.0
 40
26.0
100
AcDbArc
 50
340.5287793655865
 51
0.0
  0
LINE
  5
18CAF
330
18C7A
100
AcDbEntity
  8
部品1
100
AcDbLine
 10
1477.470482677778
 20
1328.993338720062
 30
0.0
 11
1477.470482677778
 21
1333.993338720061
 31
0.0
  0
ARC
  5
18CB0
330
18C7A
100
AcDbEntity
  8
部品1
 48
0.01
100
AcDbCircle
 10
1475.470482677778
 20
1333.993338720061
 30
0.0
 40
2.0
100
AcDbArc
 50
0.0
 51
90.0
  0
ARC
  5
18CB1
330
18C7A
100
AcDbEntity
  8
部品1
100
AcDbCircle
 10
1473.862091052968
 20
1332.993338720062
 30
0.0
 40
3.0
100
AcDbArc
 50
90.0
 51
141.6069559808035
  0
LINE
  5
18CB2
330
18C7A
100
AcDbEntity
  8
部品1
 48
0.01
100
AcDbLine
 10
1475.470482677778
 20
1335.993338720062
 30
0.0
 11
1473.862091052968
 21
1335.993338720062
 31
0.0
  0
ARC
  5
18CB3
330
18C7A
100
AcDbEntity
  8
部品1
100
AcDbCircle
 10
1455.399768463507
 20
1332.293338720065
 30
0.0
 40
3.0
100
AcDbArc
 50
254.0576313943215
 51
270.0
  0
ARC
  5
18CB4
330
18C7A
100
AcDbEntity
  8
部品1
100
AcDbCircle
 10
1462.541196892049
 20
1332.293338720065
 30
0.0
 40
3.0
100
AcDbArc
 50
270.0
 51
285.9423686056786
  0
LINE
  5
18CB5
330
18C7A
100
AcDbEntity
  8
部品1
100
AcDbLine
 10
1462.541196892049
 20
1329.293338720064
 30
0.0
 11
1455.399768463507
 21
1329.293338720064
 31
0.0
  0
ARC
  5
18CB6
330
18C7A
100
AcDbEntity
  8
部品1
100
AcDbCircle
 10
1458.970482677778
 20
1344.793338720065
 30
0.0
 40
16.0
100
AcDbArc
 50
285.9423686056786
 51
321.6069559808035
  0
LINE
  5
18CB7
330
18C7A
100
AcDbEntity
  8
部品1
 48
0.01
100
AcDbLine
 10
1442.470482677778
 20
1335.993338720062
 30
0.0
 11
1444.078874302588
 21
1335.993338720062
 31
0.0
  0
ARC
  5
18CB8
330
18C7A
100
AcDbEntity
  8
部品1
100
AcDbCircle
 10
1444.078874302588
 20
1332.993338720062
 30
0.0
 40
3.0
100
AcDbArc
 50
38.39304401919648
 51
90.0
  0
ARC
  5
18CB9
330
18C7A
100
AcDbEntity
  8
部品1
100
AcDbCircle
 10
1458.970482677778
 20
1344.793338720065
 30
0.0
 40
16.0
100
AcDbArc
 50
218.3930440191965
 51
254.0576313943215
  0
LINE
  5
18CBA
330
18C7A
100
AcDbEntity
  8
部品1
100
AcDbLine
 10
1440.470482677778
 20
1328.993338720062
 30
0.0
 11
1440.470482677778
 21
1333.993338720061
 31
0.0
  0
ARC
  5
18CBB
330
18C7A
100
AcDbEntity
  8
部品1
 48
0.01
100
AcDbCircle
 10
1442.470482677778
 20
1333.993338720061
 30
0.0
 40
2.0
100
AcDbArc
 50
90.0
 51
180.0
  0
ARC
  5
18CBC
330
18C7A
100
AcDbEntity
  8
部品1
100
AcDbCircle
 10
1466.470482677778
 20
1328.993338720062
 30
0.0
 40
26.0
100
AcDbArc
 50
180.0
 51
199.4712206344134
  0
ARC
  5
18CBD
330
18C7A
100
AcDbEntity
  8
部品1
 48
0.01
100
AcDbCircle
 10
1434.470482677778
 20
1319.493338720063
 30
0.0
 40
0.5
100
AcDbArc
 50
180.0
 51
270.0
  0
LINE
  5
18CBE
330
18C7A
100
AcDbEntity
  8
部品1
 48
0.01
100
AcDbLine
 10
1434.470482677778
 20
1318.993338720063
 30
0.0
 11
1441.014638555061
 21
1318.993338720062
 31
0.0
  0
LINE
  5
18CBF
330
18C7A
100
AcDbEntity
  8
部品1
 48
0.01
100
AcDbLine
 10
1433.970482677778
 20
1320.493338720063
 30
0.0
 11
1433.970482677778
 21
1319.493338720063
 31
0.0
  0
ARC
  5
18CC0
330
18C7A
100
AcDbEntity
  8
部品1
100
AcDbCircle
 10
1441.014638555061
 20
1319.993338720062
 30
0.0
 40
1.0
100
AcDbArc
 50
270.0
 51
19.47122063441346
  0
LINE
  5
18CC1
330
18C7A
100
AcDbEntity
  8
細線
100
AcDbLine
 10
1479.470482677785
 20
1338.493338720065
 30
0.0
 11
1438.470482677785
 21
1338.493338720058
 31
0.0
  0
LINE
  5
18CC2
330
18C7A
100
AcDbEntity
  8
細線
100
AcDbLine
 10
1438.470482677785
 20
1338.493338720058
 30
0.0
 11
1438.470482677785
 21
1320.49333872004
 31
0.0
  0
LINE
  5
18CC3
330
18C7A
100
AcDbEntity
  8
細線
100
AcDbLine
 10
1479.470482677785
 20
1338.493338720065
 30
0.0
 11
1479.470482677785
 21
1320.49333872004
 31
0.0
  0
LINE
  5
18CC4
330
18C7A
100
AcDbEntity
  8
細線
100
AcDbLine
 10
1322.970589276523
 20
1324.494269174465
 30
0.0
 11
1322.970589276523
 21
1320.494269174513
 31
0.0
  0
LINE
  5
18CC5
330
18C7A
100
AcDbEntity
  8
寸法
 48
50.0
100
AcDbLine
 10
1746.17359555837
 20
1170.531020743327
 30
0.0
 11
1694.767587648266
 21
1170.531020743327
 31
0.0
  0
LINE
  5
18CC6
330
18C7A
100
AcDbEntity
  8
寸法
 48
50.0
100
AcDbLine
 10
1694.767587648266
 20
1170.531020743327
 30
0.0
 11
1694.767587648266
 21
1201.841179395494
 31
0.0
  0
LINE
  5
18CC7
330
18C7A
100
AcDbEntity
  8
寸法
 48
50.0
100
AcDbLine
 10
1694.767587648266
 20
1201.841179395494
 30
0.0
 11
1665.006255656843
 21
1201.841179395494
 31
0.0
  0
LINE
  5
18CC8
330
18C7A
100
AcDbEntity
  8
寸法
 48
50.0
100
AcDbLine
 10
1665.006255656843
 20
1201.841179395494
 30
0.0
 11
1720.470591603318
 21
1239.420630324105
 31
0.0
  0
LINE
  5
18CC9
330
18C7A
100
AcDbEntity
  8
寸法
 48
50.0
100
AcDbLine
 10
1775.934927549793
 20
1201.841179395494
 30
0.0
 11
1720.470591603318
 21
1239.420630324105
 31
0.0
  0
LINE
  5
18CCA
330
18C7A
100
AcDbEntity
  8
寸法
 48
50.0
100
AcDbLine
 10
1746.17359555837
 20
1201.841179395494
 30
0.0
 11
1775.934927549793
 21
1201.841179395494
 31
0.0
  0
LINE
  5
18CCB
330
18C7A
100
AcDbEntity
  8
寸法
 48
50.0
100
AcDbLine
 10
1746.17359555837
 20
1170.531020743327
 30
0.0
 11
1746.17359555837
 21
1201.841179395494
 31
0.0
  0
LINE
  5
18CCC
330
18C7A
100
AcDbEntity
  8
寸法
 48
50.0
100
AcDbLine
 10
1694.767587648266
 20
1170.531020743327
 30
0.0
 11
1746.17359555837
 21
1170.531020743327
 31
0.0
  0
LINE
  5
18CCD
330
18C7A
100
AcDbEntity
  8
寸法
 48
50.0
100
AcDbLine
 10
2025.339129835225
 20
1227.676611498152
 30
0.0
 11
2025.339129835225
 21
1174.01297691636
 31
0.0
  0
LINE
  5
18CCE
330
18C7A
100
AcDbEntity
  8
寸法
 48
50.0
100
AcDbLine
 10
2114.623348430647
 20
1203.752977228664
 30
0.0
 11
2025.339129835225
 21
1227.676611498152
 31
0.0
  0
LINE
  5
18CCF
330
18C7A
100
AcDbEntity
  8
寸法
 48
50.0
100
AcDbLine
 10
1895.471408254923
 20
1203.752977228664
 30
0.0
 11
2114.623348430647
 21
1203.752977228664
 31
0.0
  0
DIMENSION
  5
18CD0
330
18C7A
100
AcDbEntity
  8
寸法
 48
50.0
100
AcDbDimension
  2
*D15
 10
2588.970589276523
 20
706.3240511224249
 30
0.0
 11
1969.060022905491
 21
706.3240511224249
 31
0.0
 12
-3742.925985830444
 22
-6453.628869860112
 32
0.0
 70
   128
  1
有効開口部間口\P<>
 71
     5
 42
1266.0
  3
INABA_S40G
100
AcDbAlignedDimension
 13
1322.970589276523
 23
1315.494269174465
 33
0.0
 14
2588.970589276523
 24
1315.494269174465
 34
0.0
100
AcDbRotatedDimension
1001
ACAD
1000
DSTYLE
1002
{
1070
   341
1005
0
1002
}
  0
LINE
  5
18CD1
330
18C7A
100
AcDbEntity
  8
部品1
100
AcDbLine
 10
3409.970589276524
 20
1392.494269174465
 30
0.0
 11
3437.970589276523
 21
1392.494269174465
 31
0.0
  0
DIMENSION
  5
18CD2
330
18C7A
100
AcDbEntity
  8
寸法
100
AcDbDimension
  2
*D16
 10
3674.266172669749
 20
1315.494269174465
 30
0.0
 11
3674.266172669748
 21
1177.494269174462
 31
0.0
 12
-3742.925985830444
 22
-6453.628869860112
 32
0.0
 70
   128
 71
     5
 42
77.0
  3
INABA_S40
100
AcDbAlignedDimension
 13
3437.970589276523
 23
1392.494269174465
 33
0.0
 14
3436.970589276523
 24
1315.494269174465
 34
0.0
 50
90.0
100
AcDbRotatedDimension
1001
ACAD
1000
DSTYLE
1002
{
1070
    41
1040
0.5
1070
    44
1040
1.0
1070
   147
1040
0.8
1070
   271
1070
     2
1070
   272
1070
     2
1070
   289
1070
     3
1070
   340
1005
F706
1070
   343
1005
164B4
1070
   344
1005
164B4
1002
}
  0
LINE
  5
18CD3
330
18C7A
100
AcDbEntity
  8
部品1
100
AcDbLine
 10
3437.970589276523
 20
1315.494269174465
 30
0.0
 11
3437.970589276523
 21
1392.494269174465
 31
0.0
  0
LINE
  5
18CD4
330
18C7A
100
AcDbEntity
  8
部品1
100
AcDbLine
 10
3398.970589276523
 20
1388.494269174465
 30
0.0
 11
3409.970589276524
 21
1388.494269174465
 31
0.0
  0
LINE
  5
18CD5
330
18C7A
100
AcDbEntity
  8
部品1
100
AcDbLine
 10
3407.970589276523
 20
1324.494269174465
 30
0.0
 11
3407.970589276523
 21
1315.494269174465
 31
0.0
  0
LINE
  5
18CD6
330
18C7A
100
AcDbEntity
  8
部品1
100
AcDbLine
 10
3398.970589276523
 20
1324.494269174465
 30
0.0
 11
3407.970589276523
 21
1324.494269174465
 31
0.0
  0
LINE
  5
18CD7
330
18C7A
100
AcDbEntity
  8
部品1
100
AcDbLine
 10
3398.970589276523
 20
1388.494269174465
 30
0.0
 11
3398.970589276523
 21
1324.494269174465
 31
0.0
  0
LINE
  5
18CD8
330
18C7A
100
AcDbEntity
  8
部品1
100
AcDbLine
 10
3409.970589276524
 20
1419.494269174465
 30
0.0
 11
3409.970589276524
 21
1388.494269174465
 31
0.0
  0
LINE
  5
18CD9
330
18C7A
100
AcDbEntity
  8
部品1
100
AcDbLine
 10
1322.970589276523
 20
1388.494269174465
 30
0.0
 11
1311.970589276523
 21
1388.494269174465
 31
0.0
  0
LINE
  5
18CDA
330
18C7A
100
AcDbEntity
  8
部品1
100
AcDbLine
 10
1283.970589276523
 20
1392.494269174465
 30
0.0
 11
1311.970589276523
 21
1392.494269174465
 31
0.0
  0
LINE
  5
18CDB
330
18C7A
100
AcDbEntity
  8
部品1
100
AcDbLine
 10
1313.970589276523
 20
1324.494269174465
 30
0.0
 11
1313.970589276523
 21
1315.494269174465
 31
0.0
  0
LINE
  5
18CDC
330
18C7A
100
AcDbEntity
  8
部品1
100
AcDbLine
 10
1322.970589276523
 20
1324.494269174465
 30
0.0
 11
1313.970589276523
 21
1324.494269174465
 31
0.0
  0
LINE
  5
18CDD
330
18C7A
100
AcDbEntity
  8
部品1
100
AcDbLine
 10
1313.970589276523
 20
1315.494269174465
 30
0.0
 11
1283.970589276523
 21
1315.494269174465
 31
0.0
  0
LINE
  5
18CDE
330
18C7A
100
AcDbEntity
  8
部品1
100
AcDbLine
 10
1283.970589276523
 20
1315.494269174465
 30
0.0
 11
1283.970589276523
 21
1392.494269174465
 31
0.0
  0
LINE
  5
18CDF
330
18C7A
100
AcDbEntity
  8
部品1
100
AcDbLine
 10
1322.970589276523
 20
1388.494269174465
 30
0.0
 11
1322.970589276523
 21
1324.494269174465
 31
0.0
  0
LINE
  5
18CE0
330
18C7A
100
AcDbEntity
  8
部品1
100
AcDbLine
 10
1311.970589276523
 20
1419.494269174462
 30
0.0
 11
1311.970589276523
 21
1388.494269174465
 31
0.0
  0
LINE
  5
18CE1
330
18C7A
100
AcDbEntity
  8
部品1
100
AcDbLine
 10
1311.970589276523
 20
1419.494269174462
 30
0.0
 11
3409.970589276524
 21
1419.494269174465
 31
0.0
  0
LINE
  5
18CE2
330
18C7A
100
AcDbEntity
  8
部品1
100
AcDbLine
 10
3407.970589276523
 20
1315.494269174465
 30
0.0
 11
3437.970589276523
 21
1315.494269174465
 31
0.0
  0
LINE
  5
18CE3
330
18C7A
100
AcDbEntity
  8
部品1
100
AcDbLine
 10
1313.970589276523
 20
1315.494269174465
 30
0.0
 11
3410.970589276523
 21
1315.494269174465
 31
0.0
  0
LINE
  5
18CE4
330
18C7A
100
AcDbEntity
  8
細線
  6
Continuous
 62
     5
100
AcDbLine
 10
2689.970589276527
 20
1354.494269174462
 30
0.0
 11
2689.970589276527
 21
1354.494269174462
 31
0.0
  0
LINE
  5
18CE5
330
18C7A
100
AcDbEntity
  8
細線
  6
Continuous
 62
     5
100
AcDbLine
 10
2682.470589276527
 20
1354.494269174462
 30
0.0
 11
2682.470589276527
 21
1354.494269174462
 31
0.0
  0
LINE
  5
18CE6
330
18C7A
100
AcDbEntity
  8
細線
  6
Continuous
 62
     5
100
AcDbLine
 10
2676.470589276527
 20
1354.494269174462
 30
0.0
 11
2676.470589276527
 21
1354.494269174462
 31
0.0
  0
LINE
  5
18CE7
330
18C7A
100
AcDbEntity
  8
細線
  6
Continuous
 62
     5
100
AcDbLine
 10
2743.970589276527
 20
1373.494269174462
 30
0.0
 11
2743.970589276527
 21
1373.494269174462
 31
0.0
  0
LINE
  5
18CE8
330
18C7A
100
AcDbEntity
  8
細線
 48
50.0
100
AcDbLine
 10
1336.970593930116
 20
1341.094443351418
 30
0.0
 11
1336.970593930113
 21
1349.490593759059
 31
0.0
  0
LINE
  5
18CE9
330
18C7A
100
AcDbEntity
  8
細線
 48
50.0
100
AcDbLine
 10
1336.970593930113
 20
1349.490593759059
 30
0.0
 11
1322.970589276523
 21
1349.490593759057
 31
0.0
  0
LINE
  5
18CEA
330
18C7A
100
AcDbEntity
  8
細線
 48
50.0
100
AcDbLine
 10
2087.970593930113
 20
1337.644443351419
 30
0.0
 11
2087.970593930113
 21
1342.494443351421
 31
0.0
  0
LINE
  5
18CEB
330
18C7A
100
AcDbEntity
  8
細線
 48
50.0
100
AcDbLine
 10
2087.970593930113
 20
1342.494443351421
 30
0.0
 11
2102.970593930113
 21
1342.494443351421
 31
0.0
  0
LINE
  5
18CEC
330
18C7A
100
AcDbEntity
  8
細線
 48
50.0
100
AcDbLine
 10
2102.970593930113
 20
1342.494443351421
 30
0.0
 11
2102.970593930115
 21
1349.494443351419
 31
0.0
  0
LINE
  5
18CED
330
18C7A
100
AcDbEntity
  8
細線
 48
50.0
100
AcDbLine
 10
2102.970593930115
 20
1349.494443351419
 30
0.0
 11
2117.970593930113
 21
1349.494443351419
 31
0.0
  0
LINE
  5
18CEE
330
18C7A
100
AcDbEntity
  8
細線
 48
50.0
100
AcDbLine
 10
2117.970593930113
 20
1349.494443351419
 30
0.0
 11
2117.970593930113
 21
1320.494443351421
 31
0.0
  0
LINE
  5
18CEF
330
18C7A
100
AcDbEntity
  8
細線
 48
50.0
100
AcDbLine
 10
1313.970589276523
 20
1320.491777694889
 30
0.0
 11
1527.970593930113
 21
1320.494460905133
 31
0.0
  0
LINE
  5
18CF0
330
18C7A
100
AcDbEntity
  8
細線
 48
50.0
100
AcDbLine
 10
2017.970593930113
 20
1320.494443351421
 30
0.0
 11
2117.970593930113
 21
1320.494443351421
 31
0.0
  0
LINE
  5
18CF1
330
18C7A
100
AcDbEntity
  8
細線
 48
50.0
100
AcDbLine
 10
1737.970593930113
 20
1320.494443351419
 30
0.0
 11
1807.970593930113
 21
1320.494443351423
 31
0.0
  0
LINE
  5
18CF2
330
18C7A
100
AcDbEntity
  8
細線
 48
50.0
100
AcDbLine
 10
1750.832558942642
 20
1320.494443351419
 30
0.0
 11
1756.588076525309
 21
1338.765294641913
 31
0.0
  0
LINE
  5
18CF3
330
18C7A
100
AcDbEntity
  8
細線
 48
50.0
100
AcDbLine
 10
1756.588076525309
 20
1338.765294641913
 30
0.0
 11
1767.516525005743
 21
1338.765294641911
 31
0.0
  0
ARC
  5
18CF4
330
18C7A
100
AcDbEntity
  8
細線
 48
50.0
100
AcDbCircle
 10
1767.516525005743
 20
1337.765294641911
 30
0.0
 40
1.0
100
AcDbArc
 50
24.62431835207225
 51
90.0
  0
ARC
  5
18CF5
330
18C7A
100
AcDbEntity
  8
細線
 48
50.0
100
AcDbCircle
 10
1778.425237120377
 20
1337.765294641911
 30
0.0
 40
1.0
100
AcDbArc
 50
90.0
 51
155.3756816479277
  0
ARC
  5
18CF6
330
18C7A
100
AcDbEntity
  8
細線
 48
50.0
100
AcDbCircle
 10
1772.970881063058
 20
1340.265294641911
 30
0.0
 40
5.0
100
AcDbArc
 50
204.6243183520723
 51
335.3756816479278
  0
LINE
  5
18CF7
330
18C7A
100
AcDbEntity
  8
細線
 48
50.0
100
AcDbLine
 10
1778.425237120377
 20
1338.765294641911
 30
0.0
 11
1789.35368560081
 21
1338.765294641913
 31
0.0
  0
LINE
  5
18CF8
330
18C7A
100
AcDbEntity
  8
細線
 48
50.0
100
AcDbLine
 10
1789.35368560081
 20
1338.765294641913
 30
0.0
 11
1795.109203183478
 21
1320.494443351423
 31
0.0
  0
LINE
  5
18CF9
330
18C7A
100
AcDbEntity
  8
細線
 48
50.0
100
AcDbLine
 10
2087.970593930113
 20
1341.094443351419
 30
0.0
 11
1336.970593930116
 21
1341.094443351418
 31
0.0
  0
LINE
  5
18CFA
330
18C7A
100
AcDbEntity
  8
細線
 48
50.0
100
AcDbLine
 10
1947.970593930113
 20
1320.494443351421
 30
0.0
 11
1877.970593930113
 21
1320.494443351421
 31
0.0
  0
LINE
  5
18CFB
330
18C7A
100
AcDbEntity
  8
細線
100
AcDbLine
 10
1667.970593930113
 20
1320.494443351421
 30
0.0
 11
1597.970602115529
 21
1320.494443351421
 31
0.0
  0
LINE
  5
18CFC
330
18C7A
100
AcDbEntity
  8
細線
 48
50.0
100
AcDbLine
 10
2741.970584622936
 20
1375.094487209288
 30
0.0
 11
2106.970593930113
 21
1375.094487209284
 31
0.0
  0
LINE
  5
18CFD
330
18C7A
100
AcDbEntity
  8
細線
 48
50.0
100
AcDbLine
 10
2106.970593930113
 20
1371.990637616925
 30
0.0
 11
2106.970593930113
 21
1376.490637616925
 31
0.0
  0
LINE
  5
18CFE
330
18C7A
100
AcDbEntity
  8
細線
 48
50.0
100
AcDbLine
 10
2106.970593930113
 20
1376.490637616925
 30
0.0
 11
2091.970593930113
 21
1376.490637616925
 31
0.0
  0
LINE
  5
18CFF
330
18C7A
100
AcDbEntity
  8
細線
 48
50.0
100
AcDbLine
 10
2091.970593930113
 20
1376.490637616925
 30
0.0
 11
2091.970593930113
 21
1383.490637616927
 31
0.0
  0
LINE
  5
18D00
330
18C7A
100
AcDbEntity
  8
細線
 48
50.0
100
AcDbLine
 10
2091.970593930113
 20
1383.490637616927
 30
0.0
 11
2076.970593930115
 21
1383.490637616924
 31
0.0
  0
LINE
  5
18D01
330
18C7A
100
AcDbEntity
  8
細線
 48
50.0
100
AcDbLine
 10
2076.970593930115
 20
1383.490637616924
 30
0.0
 11
2076.970593930115
 21
1345.890409513813
 31
0.0
  0
LINE
  5
18D02
330
18C7A
100
AcDbEntity
  8
細線
 48
50.0
100
AcDbLine
 10
2076.970593930115
 20
1345.890409513813
 30
0.0
 11
2096.970601231289
 21
1345.890451063353
 31
0.0
  0
LINE
  5
18D03
330
18C7A
100
AcDbEntity
  8
細線
 48
50.0
100
AcDbLine
 10
2096.970556362348
 20
1354.493912699161
 30
0.0
 11
2096.970601231289
 21
1345.890451063353
 31
0.0
  0
LINE
  5
18D04
330
18C7A
100
AcDbEntity
  8
細線
 48
50.0
100
AcDbLine
 10
2741.970584622936
 20
1371.644487209287
 30
0.0
 11
2741.970584622936
 21
1376.494487209284
 31
0.0
  0
LINE
  5
18D05
330
18C7A
100
AcDbEntity
  8
細線
 48
50.0
100
AcDbLine
 10
2741.970584622936
 20
1376.494487209284
 30
0.0
 11
2756.970584622934
 21
1376.494487209285
 31
0.0
  0
LINE
  5
18D06
330
18C7A
100
AcDbEntity
  8
細線
 48
50.0
100
AcDbLine
 10
2756.970584622934
 20
1376.494487209285
 30
0.0
 11
2756.970596256909
 21
1383.494487209331
 31
0.0
  0
LINE
  5
18D07
330
18C7A
100
AcDbEntity
  8
細線
 48
50.0
100
AcDbLine
 10
2756.970596256909
 20
1383.494487209331
 30
0.0
 11
2771.970594427439
 21
1383.494487209329
 31
0.0
  0
LINE
  5
18D08
330
18C7A
100
AcDbEntity
  8
細線
 48
50.0
100
AcDbLine
 10
2771.970594427439
 20
1383.494487209329
 30
0.0
 11
2771.970584125617
 21
1354.494281037055
 31
0.0
  0
LINE
  5
18D09
330
18C7A
100
AcDbEntity
  8
細線
 48
50.0
100
AcDbLine
 10
2458.070304175992
 20
1354.494278397076
 30
0.0
 11
2389.470863838818
 21
1354.494283787084
 31
0.0
  0
LINE
  5
18D0A
330
18C7A
100
AcDbEntity
  8
細線
 48
50.0
100
AcDbLine
 10
2096.970556362348
 20
1354.493912699161
 30
0.0
 11
2108.203245717057
 21
1354.494095652309
 31
0.0
  0
ARC
  5
18D0B
330
18C7A
100
AcDbEntity
  8
細線
 48
50.0
100
AcDbCircle
 10
2114.785538024393
 20
1353.294259565922
 30
0.0
 40
1.8
100
AcDbArc
 50
270.0006665777295
 51
345.000555481349
  0
LINE
  5
18D0C
330
18C7A
100
AcDbEntity
  8
細線
 48
50.0
100
AcDbLine
 10
2116.771971470473
 20
1353.753100023201
 30
0.0
 11
2116.524209028273
 21
1352.828402141094
 31
0.0
  0
LINE
  5
18D0D
330
18C7A
100
AcDbEntity
  8
細線
 48
50.0
100
AcDbLine
 10
2114.785558965548
 20
1351.494259566043
 30
0.0
 11
2111.155631546781
 21
1351.494217335563
 31
0.0
  0
ARC
  5
18D0E
330
18C7A
100
AcDbEntity
  8
細線
 48
50.0
100
AcDbCircle
 10
2111.155610605627
 20
1353.29421733544
 30
0.0
 40
1.8
100
AcDbArc
 50
195.0010443049965
 51
270.0006665777295
  0
LINE
  5
18D0F
330
18C7A
100
AcDbEntity
  8
細線
 48
50.0
100
AcDbLine
 10
2109.169183113368
 20
1353.752932303007
 30
0.0
 11
2109.416952609882
 21
1352.828311364425
 31
0.0
  0
ARC
  5
18D10
330
18C7A
100
AcDbEntity
  8
細線
 48
50.0
100
AcDbCircle
 10
2108.203262004622
 20
1353.494095652444
 30
0.0
 40
1.0
100
AcDbArc
 50
15.00104430499651
 51
90.00093320877969
  0
LINE
  5
18D11
330
18C7A
100
AcDbEntity
  8
細線
 48
50.0
100
AcDbLine
 10
2117.737892825577
 20
1354.494290342714
 30
0.0
 11
2118.679652976481
 21
1354.494296916564
 31
0.0
  0
ARC
  5
18D12
330
18C7A
100
AcDbEntity
  8
細線
 48
50.0
100
AcDbCircle
 10
2117.737899805961
 20
1353.49429034274
 30
0.0
 40
1.0
100
AcDbArc
 50
90.0003999466794
 51
165.000555481349
  0
LINE
  5
18D13
330
18C7A
100
AcDbEntity
  8
細線
 48
50.0
100
AcDbLine
 10
2669.470584622926
 20
1354.494281037055
 30
0.0
 11
2771.970584125617
 21
1354.494281037055
 31
0.0
  0
LINE
  5
18D14
330
18C7A
100
AcDbEntity
  8
細線
 48
50.0
100
AcDbLine
 10
2179.47061994182
 20
1354.494289224422
 30
0.0
 11
2118.370558714898
 21
1354.494296916564
 31
0.0
  0
LINE
  5
18D15
330
18C7A
100
AcDbEntity
  8
細線
 48
50.0
100
AcDbLine
 10
2599.470584622926
 20
1354.494281037057
 30
0.0
 11
2529.470584622926
 21
1354.494281037055
 31
0.0
  0
LINE
  5
18D16
330
18C7A
100
AcDbEntity
  8
細線
 48
50.0
100
AcDbLine
 10
2319.470584622926
 20
1354.494281037054
 30
0.0
 11
2249.470567335051
 21
1354.494281037057
 31
0.0
  0
ARC
  5
18D17
330
18C7A
100
AcDbEntity
  8
細線
 48
50.0
100
AcDbCircle
 10
2756.170589276533
 20
1387.694269174466
 30
0.0
 40
0.8
100
AcDbArc
 50
359.9997333689499
 51
89.99986668437072
  0
ARC
  5
18D18
330
18C7A
100
AcDbEntity
  8
細線
 48
50.0
100
AcDbCircle
 10
2763.770596101631
 20
1387.694280343081
 30
0.0
 40
0.8
100
AcDbArc
 50
90.00014387753465
 51
179.9997333689498
  0
LINE
  5
18D19
330
18C7A
100
AcDbEntity
  8
細線
 48
50.0
100
AcDbLine
 10
2756.170591137969
 20
1388.494269174465
 30
0.0
 11
2750.970589276525
 21
1388.494269174465
 31
0.0
  0
ARC
  5
18D1A
330
18C7A
100
AcDbEntity
  8
細線
 48
50.0
100
AcDbCircle
 10
2757.670589276524
 20
1386.194269174464
 30
0.0
 40
0.7
100
AcDbArc
 50
180.0
 51
270.0
  0
ARC
  5
18D1B
330
18C7A
100
AcDbEntity
  8
細線
 48
50.0
100
AcDbCircle
 10
2762.270589276524
 20
1386.194269174464
 30
0.0
 40
0.7
100
AcDbArc
 50
270.0
 51
0.0
  0
LINE
  5
18D1C
330
18C7A
100
AcDbEntity
  8
細線
 48
50.0
100
AcDbLine
 10
2762.970589276525
 20
1386.194269174464
 30
0.0
 11
2762.970596101639
 21
1387.694284065954
 31
0.0
  0
LINE
  5
18D1D
330
18C7A
100
AcDbEntity
  8
細線
 48
50.0
100
AcDbLine
 10
2757.670589276524
 20
1385.494269174465
 30
0.0
 11
2762.270589276524
 21
1385.494269174465
 31
0.0
  0
LINE
  5
18D1E
330
18C7A
100
AcDbEntity
  8
細線
 48
50.0
100
AcDbLine
 10
2756.970589276525
 20
1387.694269174466
 30
0.0
 11
2756.970589276525
 21
1386.194269174464
 31
0.0
  0
LINE
  5
18D1F
330
18C7A
100
AcDbEntity
  8
細線
 48
50.0
100
AcDbLine
 10
3382.570589276527
 20
1418.494269174465
 30
0.0
 11
2745.970589276525
 21
1418.494269174463
 31
0.0
  0
LINE
  5
18D20
330
18C7A
100
AcDbEntity
  8
細線
 48
50.0
100
AcDbLine
 10
3408.470589276525
 20
1413.494269174467
 30
0.0
 11
3392.570589276527
 21
1413.494269174465
 31
0.0
  0
LINE
  5
18D21
330
18C7A
100
AcDbEntity
  8
細線
 48
50.0
100
AcDbLine
 10
3392.570589276526
 20
1413.494269174465
 30
0.0
 11
3382.570589276527
 21
1418.494269174465
 31
0.0
  0
LINE
  5
18D22
330
18C7A
100
AcDbEntity
  8
細線
100
AcDbLine
 10
2993.470589276525
 20
1388.494269174465
 30
0.0
 11
2993.470589276525
 21
1417.794269174464
 31
0.0
  0
LINE
  5
18D23
330
18C7A
100
AcDbEntity
  8
細線
100
AcDbLine
 10
2993.470589276525
 20
1417.794269174464
 30
0.0
 11
3013.470589276525
 21
1417.794269174464
 31
0.0
  0
LINE
  5
18D24
330
18C7A
100
AcDbEntity
  8
細線
100
AcDbLine
 10
3013.470589276525
 20
1388.494269174465
 30
0.0
 11
3013.470589276525
 21
1417.794269174464
 31
0.0
  0
LINE
  5
18D25
330
18C7A
100
AcDbEntity
  8
細線
100
AcDbLine
 10
3170.720589276524
 20
1388.494269174465
 30
0.0
 11
3100.720589276523
 21
1388.494269174465
 31
0.0
  0
LINE
  5
18D26
330
18C7A
100
AcDbEntity
  8
細線
 48
50.0
100
AcDbLine
 10
2890.720589276525
 20
1388.494269174465
 30
0.0
 11
2763.766368849365
 21
1388.494269174465
 31
0.0
  0
LINE
  5
18D27
330
18C7A
100
AcDbEntity
  8
細線
100
AcDbLine
 10
3030.720589276525
 20
1388.494269174465
 30
0.0
 11
2960.720589276525
 21
1388.494269174465
 31
0.0
  0
LINE
  5
18D28
330
18C7A
100
AcDbEntity
  8
細線
 48
50.0
100
AcDbLine
 10
2750.970589276525
 20
1380.494269174465
 30
0.0
 11
2750.970589276525
 21
1388.494269174465
 31
0.0
  0
LINE
  5
18D29
330
18C7A
100
AcDbEntity
  8
細線
 48
50.0
100
AcDbLine
 10
2730.970589276524
 20
1380.494269174467
 30
0.0
 11
2750.970589276525
 21
1380.494269174465
 31
0.0
  0
LINE
  5
18D2A
330
18C7A
100
AcDbEntity
  8
細線
 48
50.0
100
AcDbLine
 10
2745.970589276525
 20
1418.494269174465
 30
0.0
 11
2745.970589276525
 21
1413.494269174465
 31
0.0
  0
LINE
  5
18D2B
330
18C7A
100
AcDbEntity
  8
細線
 48
50.0
100
AcDbLine
 10
2730.970589276525
 20
1418.494269174463
 30
0.0
 11
2745.970589276525
 21
1418.494269174465
 31
0.0
  0
LINE
  5
18D2C
330
18C7A
100
AcDbEntity
  8
細線
 48
50.0
100
AcDbLine
 10
2730.970589276524
 20
1380.494269174467
 30
0.0
 11
2730.970589276525
 21
1418.494269174463
 31
0.0
  0
LINE
  5
18D2D
330
18C7A
100
AcDbEntity
  8
細線
100
AcDbLine
 10
3398.970589276523
 20
1388.494269174465
 30
0.0
 11
3240.720589276525
 21
1388.494269174465
 31
0.0
  0
LINE
  5
18D2E
330
18C7A
100
AcDbEntity
  8
細線
 48
50.0
100
AcDbLine
 10
3408.470589276525
 20
1413.494269174467
 30
0.0
 11
3408.470589276524
 21
1388.494269174465
 31
0.0
  0
TEXT
  5
18D2F
330
18C7A
100
AcDbEntity
  8
部品1
100
AcDbText
 10
1860.154865991392
 20
46.99880823813145
 30
0.0
 40
135.0
  1
平面図
  7
STYLE2
100
AcDbText
  0
LWPOLYLINE
  5
18D30
330
18C7A
100
AcDbEntity
  8
部品1
100
AcDbPolyline
 90
        4
 70
     1
 43
0.0
 10
1770.23525616235
 20
239.8923374566548
 10
1770.23525616235
 20
0.0000159111223184
 10
2533.705922390791
 20
0.0000159111223184
 10
2533.705922390791
 20
239.8923374566548
  0
LINE
  5
18D31
330
18C7A
100
AcDbEntity
  8
部品1
100
AcDbLine
 10
1534.470589276487
 20
3154.494269174626
 30
0.0
 11
2769.470589276552
 21
3154.494269174626
 31
0.0
  0
LINE
  5
18D32
330
18C7A
100
AcDbEntity
  8
部品1
 48
50.0
100
AcDbLine
 10
1311.970589276523
 20
1420.494269174462
 30
0.0
 11
3411.970589276523
 21
1420.494269174465
 31
0.0
  0
LINE
  5
18D33
330
18C7A
100
AcDbEntity
  8
部品1
 48
50.0
100
AcDbLine
 10
471.9705892765232
 20
1392.494269174465
 30
0.0
 11
1311.970589276523
 21
1392.494269174465
 31
0.0
  0
DIMENSION
  5
18D34
330
18C7A
100
AcDbEntity
  8
寸法
100
AcDbDimension
  2
*D14
 10
2710.234916278077
 20
2488.887829538828
 30
0.0
 11
2338.318822490183
 21
2488.887829538828
 31
0.0
 12
-3742.925985830444
 22
-6453.628869860112
 32
0.0
 70
   128
 71
     5
 42
1231.00000000007
  3
INABA_S40G
100
AcDbAlignedDimension
 13
1536.470589276486
 23
2702.494269174557
 33
0.0
 14
2767.470589276556
 24
2702.494269174549
 34
0.0
100
AcDbRotatedDimension
1001
ACAD
1000
DSTYLE
1002
{
1002
}
  0
LINE
  5
18D35
330
18C7A
100
AcDbEntity
  8
部品1
100
AcDbLine
 10
1536.470589276487
 20
2702.494269174557
 30
0.0
 11
2767.470589276554
 21
2702.494269174615
 31
0.0
  0
LINE
  5
18D36
330
18C7A
100
AcDbEntity
  8
部品1
100
AcDbLine
 10
1536.470589276487
 20
3152.494269174557
 30
0.0
 11
2767.470589276556
 21
3152.494269174615
 31
0.0
  0
LINE
  5
18D37
330
18C7A
100
AcDbEntity
  8
細線
 48
50.0
100
AcDbLine
 10
1508.470589276487
 20
3152.494269174558
 30
0.0
 11
445.4705892765559
 21
2702.494269174509
 31
0.0
  0
LINE
  5
18D38
330
18C7A
100
AcDbEntity
  8
細線
 48
50.0
100
AcDbLine
 10
1508.470589276487
 20
2702.494269174558
 30
0.0
 11
445.4705892765542
 21
3152.494269174509
 31
0.0
  0
LINE
  5
18D39
330
18C7A
100
AcDbEntity
  8
部品1
100
AcDbLine
 10
1556.970589276487
 20
3172.494269174611
 30
0.0
 11
1556.970589276487
 21
3154.494269174611
 31
0.0
  0
LINE
  5
18D3A
330
18C7A
100
AcDbEntity
  8
部品1
100
AcDbLine
 10
1556.970589276487
 20
3172.494269174611
 30
0.0
 11
1550.970589276487
 21
3172.494269174611
 31
0.0
  0
LINE
  5
18D3B
330
18C7A
100
AcDbEntity
  8
部品1
100
AcDbLine
 10
1534.470589276487
 20
3146.494269174608
 30
0.0
 11
1509.470589276487
 21
3146.494269174611
 31
0.0
  0
LINE
  5
18D3C
330
18C7A
100
AcDbEntity
  8
部品1
100
AcDbLine
 10
1486.970589276487
 20
3172.494269174611
 30
0.0
 11
1486.970589276487
 21
3154.494269174611
 31
0.0
  0
LINE
  5
18D3D
330
18C7A
100
AcDbEntity
  8
部品1
100
AcDbLine
 10
1492.970589276487
 20
3172.494269174611
 30
0.0
 11
1486.970589276487
 21
3172.494269174611
 31
0.0
  0
LINE
  5
18D3E
330
18C7A
100
AcDbEntity
  8
部品1
100
AcDbLine
 10
1534.470589276487
 20
2702.494269174615
 30
0.0
 11
1509.470589276487
 21
2702.494269174615
 31
0.0
  0
LINE
  5
18D3F
330
18C7A
100
AcDbEntity
  8
部品1
 48
50.0
100
AcDbLine
 10
1536.470589276487
 20
3152.494269174611
 30
0.0
 11
1536.470589276487
 21
2702.494269174615
 31
0.0
  0
LINE
  5
18D40
330
18C7A
100
AcDbEntity
  8
部品1
 48
50.0
100
AcDbLine
 10
1508.470589276487
 20
3152.494269174607
 30
0.0
 11
1508.470589276487
 21
2702.494269174615
 31
0.0
  0
LINE
  5
18D41
330
18C7A
100
AcDbEntity
  8
部品1
 48
50.0
100
AcDbLine
 10
1534.470589276487
 20
3154.494269174618
 30
0.0
 11
1534.470589276487
 21
2702.494269174615
 31
0.0
  0
LINE
  5
18D42
330
18C7A
100
AcDbEntity
  8
部品1
 48
50.0
100
AcDbLine
 10
1509.470589276487
 20
3154.494269174615
 30
0.0
 11
1509.470589276487
 21
2702.494269174615
 31
0.0
  0
LINE
  5
18D43
330
18C7A
100
AcDbEntity
  8
部品1
100
AcDbLine
 10
3411.970589276556
 20
1392.494269174582
 30
0.0
 11
3411.970589276556
 21
1420.494269174596
 31
0.0
  0
LINE
  5
18D44
330
18C7A
100
AcDbEntity
  8
部品1
100
AcDbLine
 10
1311.970589276523
 20
1392.494269174596
 30
0.0
 11
1311.970589276523
 21
1420.494269174596
 31
0.0
  0
LINE
  5
18D45
330
18C7A
100
AcDbEntity
  8
部品1
100
AcDbLine
 10
891.9705892765232
 20
1392.494269174596
 30
0.0
 11
891.9705892765232
 21
1420.494269174596
 31
0.0
  0
LINE
  5
18D46
330
18C7A
100
AcDbEntity
  8
部品1
100
AcDbLine
 10
3411.97058927652
 20
3182.494269174477
 30
0.0
 11
3411.970589276523
 21
3154.494269174477
 31
0.0
  0
LINE
  5
18D47
330
18C7A
100
AcDbEntity
  8
部品1
100
AcDbLine
 10
2571.97058927652
 20
3182.494269174477
 30
0.0
 11
2571.970589276523
 21
3154.494269174477
 31
0.0
  0
LINE
  5
18D48
330
18C7A
100
AcDbEntity
  8
部品1
100
AcDbLine
 10
2991.97058927652
 20
3182.494269174477
 30
0.0
 11
2991.970589276523
 21
3154.494269174477
 31
0.0
  0
LINE
  5
18D49
330
18C7A
100
AcDbEntity
  8
部品1
100
AcDbLine
 10
2151.970589276519
 20
3182.494269174477
 30
0.0
 11
2151.970589276523
 21
3154.494269174477
 31
0.0
  0
LINE
  5
18D4A
330
18C7A
100
AcDbEntity
  8
部品1
100
AcDbLine
 10
1731.970589276519
 20
3182.494269174477
 30
0.0
 11
1731.970589276523
 21
3154.494269174477
 31
0.0
  0
LINE
  5
18D4B
330
18C7A
100
AcDbEntity
  8
部品1
100
AcDbLine
 10
1311.970589276519
 20
3182.494269174477
 30
0.0
 11
1311.970589276523
 21
3154.494269174477
 31
0.0
  0
LINE
  5
18D4C
330
18C7A
100
AcDbEntity
  8
部品1
100
AcDbLine
 10
891.9705892765195
 20
3182.494269174477
 30
0.0
 11
891.9705892765232
 21
3154.494269174477
 31
0.0
  0
LINE
  5
18D4D
330
18C7A
100
AcDbEntity
  8
部品1
100
AcDbLine
 10
471.9705892765232
 20
1392.494269174596
 30
0.0
 11
471.9705892765232
 21
1420.494269174596
 31
0.0
  0
LINE
  5
18D4E
330
18C7A
100
AcDbEntity
  8
部品1
100
AcDbLine
 10
444.9705892765305
 20
1420.494269174558
 30
0.0
 11
3858.970589276556
 21
1420.494269174596
 31
0.0
  0
LINE
  5
18D4F
330
18C7A
100
AcDbEntity
  8
部品1
100
AcDbLine
 10
3831.970589276556
 20
1392.494269174596
 30
0.0
 11
3831.970589276556
 21
1420.494269174596
 31
0.0
  0
LINE
  5
18D50
330
18C7A
100
AcDbEntity
  8
部品1
100
AcDbLine
 10
3858.970589276556
 20
1447.494269174593
 30
0.0
 11
3886.970589276556
 21
1447.494269174593
 31
0.0
  0
LINE
  5
18D51
330
18C7A
100
AcDbEntity
  8
部品1
100
AcDbLine
 10
3858.970589276556
 20
1867.494269174607
 30
0.0
 11
3886.970589276556
 21
1867.494269174607
 31
0.0
  0
LINE
  5
18D52
330
18C7A
100
AcDbEntity
  8
部品1
100
AcDbLine
 10
444.9705892765305
 20
1867.49426917448
 30
0.0
 11
416.9705892765305
 21
1867.49426917448
 31
0.0
  0
LINE
  5
18D53
330
18C7A
100
AcDbEntity
  8
部品1
100
AcDbLine
 10
3830.470589276541
 20
1867.49426917458
 30
0.0
 11
473.4705892765396
 21
1867.49426917448
 31
0.0
  0
LINE
  5
18D54
330
18C7A
100
AcDbEntity
  8
部品1
100
AcDbLine
 10
3830.470589276541
 20
2287.49426917458
 30
0.0
 11
473.4705892765396
 21
2287.49426917448
 31
0.0
  0
LINE
  5
18D55
330
18C7A
100
AcDbEntity
  8
部品1
100
AcDbLine
 10
444.9705892765305
 20
2287.49426917448
 30
0.0
 11
416.9705892765305
 21
2287.49426917448
 31
0.0
  0
LINE
  5
18D56
330
18C7A
100
AcDbEntity
  8
部品1
100
AcDbLine
 10
3858.970589276556
 20
2287.494269174608
 30
0.0
 11
3886.970589276556
 21
2287.494269174608
 31
0.0
  0
LINE
  5
18D57
330
18C7A
100
AcDbEntity
  8
部品1
 48
50.0
100
AcDbLine
 10
2151.970589276551
 20
2702.494269174586
 30
0.0
 11
2151.970589276581
 21
1448.994269174494
 31
0.0
  0
LINE
  5
18D58
330
18C7A
100
AcDbEntity
  8
破線
 48
10.0
100
AcDbLine
 10
2959.470589276535
 20
1472.494269174522
 30
0.0
 11
2176.970589276532
 21
1472.494269174505
 31
0.0
  0
LINE
  5
18D59
330
18C7A
100
AcDbEntity
  8
破線
 48
10.0
100
AcDbLine
 10
3009.47058927653
 20
1448.994269174509
 30
0.0
 11
3009.47058927653
 21
2702.494269174615
 31
0.0
  0
LINE
  5
18D5A
330
18C7A
100
AcDbEntity
  8
破線
 48
10.0
100
AcDbLine
 10
2959.470589276535
 20
1448.994269174505
 30
0.0
 11
2959.470589276531
 21
2702.494269174615
 31
0.0
  0
LINE
  5
18D5B
330
18C7A
100
AcDbEntity
  8
破線
 48
10.0
100
AcDbLine
 10
1344.47058927653
 20
1448.994269174509
 30
0.0
 11
1344.47058927653
 21
2702.494269174615
 31
0.0
  0
LINE
  5
18D5C
330
18C7A
100
AcDbEntity
  8
破線
 48
10.0
100
AcDbLine
 10
1294.470589276534
 20
1448.994269174505
 30
0.0
 11
1294.47058927653
 21
2702.494269174615
 31
0.0
  0
DIMENSION
  5
18D5D
330
18C7A
100
AcDbEntity
  8
寸法
100
AcDbDimension
  2
*D13
 10
1451.234916278005
 20
2488.887829538828
 30
0.0
 11
916.0604668248634
 21
2488.887829538828
 31
0.0
 12
-3742.925985830444
 22
-6453.628869860112
 32
0.0
 70
   128
 71
     5
 42
1062.99999999993
  3
INABA_S40G
100
AcDbAlignedDimension
 13
445.4705892765559
 23
2702.494269174505
 33
0.0
 14
1508.470589276486
 24
2702.494269174558
 34
0.0
100
AcDbRotatedDimension
1001
ACAD
1000
DSTYLE
1002
{
1002
}
  0
LINE
  5
18D5E
330
18C7A
100
AcDbEntity
  8
破線
 48
10.0
100
AcDbLine
 10
1294.470589276534
 20
1472.494269174469
 30
0.0
 11
496.9705892765414
 21
1472.494269174476
 31
0.0
  0
LINE
  5
18D5F
330
18C7A
100
AcDbEntity
  8
部品1
100
AcDbLine
 10
3831.970589276556
 20
3182.494269174604
 30
0.0
 11
3831.970589276556
 21
3154.494269174604
 31
0.0
  0
LINE
  5
18D60
330
18C7A
100
AcDbEntity
  8
部品1
100
AcDbLine
 10
3831.970589276556
 20
3182.494269174626
 30
0.0
 11
3831.970589276556
 21
3154.494269174626
 31
0.0
  0
LINE
  5
18D61
330
18C7A
100
AcDbEntity
  8
部品1
100
AcDbLine
 10
3858.970589276556
 20
3127.494269174607
 30
0.0
 11
3886.970589276556
 21
3127.494269174607
 31
0.0
  0
LINE
  5
18D62
330
18C7A
100
AcDbEntity
  8
部品1
100
AcDbLine
 10
3858.970589276556
 20
2707.494269174608
 30
0.0
 11
3886.970589276556
 21
2707.494269174608
 31
0.0
  0
LINE
  5
18D63
330
18C7A
100
AcDbEntity
  8
部品1
100
AcDbLine
 10
3858.470589276556
 20
3152.494269174604
 30
0.0
 11
3858.470589276556
 21
2702.494269174608
 31
0.0
  0
LINE
  5
18D64
330
18C7A
100
AcDbEntity
  8
部品1
100
AcDbLine
 10
3886.970589276533
 20
1447.494269174593
 30
0.0
 11
3886.970589276531
 21
1392.494269174596
 31
0.0
  0
LINE
  5
18D65
330
18C7A
100
AcDbEntity
  8
部品1
 48
50.0
100
AcDbLine
 10
3830.470589276556
 20
1448.994269174596
 30
0.0
 11
3858.970589276554
 21
1420.494269174596
 31
0.0
  0
LINE
  5
18D66
330
18C7A
100
AcDbEntity
  8
部品1
100
AcDbLine
 10
3886.970589276531
 20
1392.494269174596
 30
0.0
 11
3835.970589276531
 21
1392.494269174596
 31
0.0
  0
LINE
  5
18D67
330
18C7A
100
AcDbEntity
  8
部品1
100
AcDbLine
 10
3858.970589276533
 20
1447.494269174593
 30
0.0
 11
3886.970589276531
 21
1447.494269174593
 31
0.0
  0
LINE
  5
18D68
330
18C7A
100
AcDbEntity
  8
部品1
100
AcDbLine
 10
3886.970589276556
 20
3182.494269174604
 30
0.0
 11
3886.970589276531
 21
1392.494269174596
 31
0.0
  0
DIMENSION
  5
18D69
330
18C7A
100
AcDbEntity
  8
寸法
100
AcDbDimension
  2
*D12
 10
4534.396935010967
 20
1447.494269174593
 30
0.0
 11
4534.396935010965
 21
2287.4942691746
 31
0.0
 12
-3742.925985830444
 22
-6453.628869860112
 32
0.0
 70
   128
  1
4X420=<>
 71
     5
 42
1680.000000000014
  3
INABA_S40G
100
AcDbAlignedDimension
 13
3886.970589276556
 23
3127.494269174607
 33
0.0
 14
3886.970589276531
 24
1447.494269174593
 34
0.0
 50
90.0
100
AcDbRotatedDimension
1001
ACAD
1000
DSTYLE
1002
{
1002
}
  0
LINE
  5
18D6A
330
18C7A
100
AcDbEntity
  8
部品1
100
AcDbLine
 10
3858.970589276556
 20
3154.494269174604
 30
0.0
 11
3858.970589276534
 21
1420.494269174596
 31
0.0
  0
DIMENSION
  5
18D6B
330
18C7A
100
AcDbEntity
  8
寸法
100
AcDbDimension
  2
*D11
 10
4213.82831513858
 20
2607.276453505718
 30
0.0
 11
4113.828315138579
 21
2832.276453505718
 31
0.0
 12
-3742.925985830444
 22
-6453.628869860112
 32
0.0
 71
     5
 42
449.9999999999963
  3
INABA_S40G
100
AcDbAlignedDimension
 13
3858.470589276556
 23
3152.494269174604
 33
0.0
 14
3858.470589276556
 24
2702.494269174608
 34
0.0
 50
90.0
100
AcDbRotatedDimension
1001
ACAD
1000
DSTYLE
1002
{
1002
}
  0
LINE
  5
18D6C
330
18C7A
100
AcDbEntity
  8
部品1
100
AcDbLine
 10
3830.470589276547
 20
2702.494269174608
 30
0.0
 11
3830.470589276556
 21
1448.994269174596
 31
0.0
  0
LINE
  5
18D6D
330
18C7A
100
AcDbEntity
  8
破線
 48
10.0
100
AcDbLine
 10
3806.970589276549
 20
2702.494269174608
 30
0.0
 11
3806.970589276558
 21
1472.494269174593
 31
0.0
  0
LINE
  5
18D6E
330
18C7A
100
AcDbEntity
  8
部品1
100
AcDbLine
 10
2769.470589276556
 20
3146.494269174608
 30
0.0
 11
2794.470589276556
 21
3146.494269174611
 31
0.0
  0
LINE
  5
18D6F
330
18C7A
100
AcDbEntity
  8
部品1
100
AcDbLine
 10
2810.970589276556
 20
3172.494269174611
 30
0.0
 11
2816.970589276556
 21
3172.494269174611
 31
0.0
  0
LINE
  5
18D70
330
18C7A
100
AcDbEntity
  8
部品1
100
AcDbLine
 10
2816.970589276556
 20
3172.494269174611
 30
0.0
 11
2816.970589276556
 21
3154.494269174611
 31
0.0
  0
LINE
  5
18D71
330
18C7A
100
AcDbEntity
  8
部品1
100
AcDbLine
 10
2746.970589276556
 20
3172.494269174611
 30
0.0
 11
2752.970589276556
 21
3172.494269174611
 31
0.0
  0
LINE
  5
18D72
330
18C7A
100
AcDbEntity
  8
部品1
100
AcDbLine
 10
2746.970589276556
 20
3172.494269174611
 30
0.0
 11
2746.970589276556
 21
3154.494269174611
 31
0.0
  0
LINE
  5
18D73
330
18C7A
100
AcDbEntity
  8
部品1
100
AcDbLine
 10
2769.470589276556
 20
2702.494269174615
 30
0.0
 11
2794.470589276556
 21
2702.494269174615
 31
0.0
  0
LINE
  5
18D74
330
18C7A
100
AcDbEntity
  8
部品1
 48
50.0
100
AcDbLine
 10
2794.470589276556
 20
3154.494269174615
 30
0.0
 11
2794.470589276556
 21
2702.494269174615
 31
0.0
  0
LINE
  5
18D75
330
18C7A
100
AcDbEntity
  8
部品1
 48
50.0
100
AcDbLine
 10
2769.470589276554
 20
3154.494269174618
 30
0.0
 11
2769.470589276556
 21
2702.494269174615
 31
0.0
  0
LINE
  5
18D76
330
18C7A
100
AcDbEntity
  8
部品1
 48
50.0
100
AcDbLine
 10
2795.470589276556
 20
3152.494269174607
 30
0.0
 11
2795.470589276556
 21
2702.494269174615
 31
0.0
  0
LINE
  5
18D77
330
18C7A
100
AcDbEntity
  8
部品1
 48
50.0
100
AcDbLine
 10
2767.470589276556
 20
3152.494269174611
 30
0.0
 11
2767.470589276556
 21
2702.494269174615
 31
0.0
  0
LINE
  5
18D78
330
18C7A
100
AcDbEntity
  8
破線
 48
10.0
100
AcDbLine
 10
2176.97058927653
 20
1448.994269174509
 30
0.0
 11
2176.97058927653
 21
2702.494269174588
 31
0.0
  0
LINE
  5
18D79
330
18C7A
100
AcDbEntity
  8
破線
 48
10.0
100
AcDbLine
 10
2126.970589276534
 20
1448.994269174505
 30
0.0
 11
2126.970589276531
 21
2702.494269174586
 31
0.0
  0
LINE
  5
18D7A
330
18C7A
100
AcDbEntity
  8
部品1
100
AcDbLine
 10
2794.470589276556
 20
3154.494269174622
 30
0.0
 11
3858.970589276556
 21
3154.494269174604
 31
0.0
  0
LINE
  5
18D7B
330
18C7A
100
AcDbEntity
  8
細線
 48
50.0
100
AcDbLine
 10
3858.470589276556
 20
2702.494269174608
 30
0.0
 11
2795.470589276556
 21
3152.494269174607
 31
0.0
  0
LINE
  5
18D7C
330
18C7A
100
AcDbEntity
  8
部品1
100
AcDbLine
 10
2795.470589276555
 20
2702.494269174615
 30
0.0
 11
3858.470589276556
 21
2702.494269174608
 31
0.0
  0
LINE
  5
18D7D
330
18C7A
100
AcDbEntity
  8
部品1
100
AcDbLine
 10
2795.470589276556
 20
3152.494269174611
 30
0.0
 11
3858.470589276556
 21
3152.494269174604
 31
0.0
  0
LINE
  5
18D7E
330
18C7A
100
AcDbEntity
  8
細線
 48
50.0
100
AcDbLine
 10
3858.470589276556
 20
3152.494269174604
 30
0.0
 11
2795.470589276555
 21
2702.494269174615
 31
0.0
  0
DIMENSION
  5
18D7F
330
18C7A
100
AcDbEntity
  8
寸法
100
AcDbDimension
  2
*D10
 10
3801.234916278101
 20
2488.887829538937
 30
0.0
 11
3318.360544398907
 21
2488.887829538937
 31
0.0
 12
-3742.925985830444
 22
-6453.628869860112
 32
0.0
 70
   128
 71
     5
 42
1063.000000000012
  3
INABA_S40G
100
AcDbAlignedDimension
 13
2795.470589276555
 23
2702.494269174615
 33
0.0
 14
3858.470589276567
 24
2702.494269174608
 34
0.0
100
AcDbRotatedDimension
1001
ACAD
1000
DSTYLE
1002
{
1002
}
  0
LINE
  5
18D80
330
18C7A
100
AcDbEntity
  8
破線
 48
10.0
100
AcDbLine
 10
3806.970589276556
 20
1472.494269174594
 30
0.0
 11
3009.47058927653
 21
1472.494269174523
 31
0.0
  0
DIMENSION
  5
18D81
330
18C7A
100
AcDbEntity
  8
寸法
100
AcDbDimension
  2
*D9
 10
4534.396935010941
 20
1392.494269174596
 30
0.0
 11
4534.39693501094
 21
1084.008987800356
 31
0.0
 12
-3742.925985830444
 22
-6453.628869860112
 32
0.0
 70
   128
 71
     5
 42
54.99999999999636
  3
INABA_S40G
100
AcDbAlignedDimension
 13
3886.970589276531
 23
1447.494269174593
 33
0.0
 14
3886.970589276531
 24
1392.494269174596
 34
0.0
 50
90.0
100
AcDbRotatedDimension
1001
ACAD
1000
DSTYLE
1002
{
1002
}
  0
LINE
  5
18D82
330
18C7A
100
AcDbEntity
  8
部品1
100
AcDbLine
 10
471.9705892765196
 20
3182.494269174477
 30
0.0
 11
471.9705892765232
 21
3154.494269174477
 31
0.0
  0
LINE
  5
18D83
330
18C7A
100
AcDbEntity
  8
部品1
100
AcDbLine
 10
471.9705892765559
 20
3182.494269174509
 30
0.0
 11
471.9705892765559
 21
3154.494269174509
 31
0.0
  0
LINE
  5
18D84
330
18C7A
100
AcDbEntity
  8
部品1
100
AcDbLine
 10
444.9705892765232
 20
3127.49426917448
 30
0.0
 11
416.9705892765232
 21
3127.49426917448
 31
0.0
  0
LINE
  5
18D85
330
18C7A
100
AcDbEntity
  8
部品1
100
AcDbLine
 10
444.9705892765305
 20
2707.49426917448
 30
0.0
 11
416.9705892765305
 21
2707.49426917448
 31
0.0
  0
LINE
  5
18D86
330
18C7A
100
AcDbEntity
  8
部品1
 48
50.0
100
AcDbLine
 10
445.4705892765542
 20
3152.494269174506
 30
0.0
 11
445.4705892765559
 21
2702.494269174505
 31
0.0
  0
LINE
  5
18D87
330
18C7A
100
AcDbEntity
  8
部品1
 48
50.0
100
AcDbLine
 10
473.470589276545
 20
1448.994269174573
 30
0.0
 11
444.970589276545
 21
1420.494269174574
 31
0.0
  0
LINE
  5
18D88
330
18C7A
100
AcDbEntity
  8
部品1
100
AcDbLine
 10
471.9705892765232
 20
1392.494269174465
 30
0.0
 11
416.9705892765486
 21
1392.494269174465
 31
0.0
  0
LINE
  5
18D89
330
18C7A
100
AcDbEntity
  8
部品1
100
AcDbLine
 10
444.9705892765305
 20
1447.494269174429
 30
0.0
 11
416.9705892765469
 21
1447.494269174429
 31
0.0
  0
LINE
  5
18D8A
330
18C7A
100
AcDbEntity
  8
部品1
100
AcDbLine
 10
444.9705892765305
 20
1447.494269174465
 30
0.0
 11
416.9705892765469
 21
1447.494269174465
 31
0.0
  0
LINE
  5
18D8B
330
18C7A
100
AcDbEntity
  8
部品1
100
AcDbLine
 10
444.9705892765469
 20
1447.49426917448
 30
0.0
 11
416.9705892765469
 21
1447.49426917448
 31
0.0
  0
LINE
  5
18D8C
330
18C7A
100
AcDbEntity
  8
部品1
100
AcDbLine
 10
416.9705892765469
 20
1447.494269174429
 30
0.0
 11
416.9705892765486
 21
1392.494269174433
 31
0.0
  0
LINE
  5
18D8D
330
18C7A
100
AcDbEntity
  8
部品1
100
AcDbLine
 10
416.9705892765196
 20
3182.494269174477
 30
0.0
 11
416.9705892765486
 21
1392.494269174465
 31
0.0
  0
LINE
  5
18D8E
330
18C7A
100
AcDbEntity
  8
部品1
100
AcDbLine
 10
444.9705892765305
 20
1420.494269174556
 30
0.0
 11
444.9705892765559
 21
3154.494269174509
 31
0.0
  0
LINE
  5
18D8F
330
18C7A
100
AcDbEntity
  8
部品1
100
AcDbLine
 10
473.4705892765323
 20
2702.494269174608
 30
0.0
 11
473.470589276545
 21
1448.994269174571
 31
0.0
  0
LINE
  5
18D90
330
18C7A
100
AcDbEntity
  8
破線
 48
10.0
100
AcDbLine
 10
496.9705892765305
 20
2702.494269174608
 30
0.0
 11
496.9705892765451
 21
1472.494269174476
 31
0.0
  0
DIMENSION
  5
18D91
330
18C7A
100
AcDbEntity
  8
寸法
100
AcDbDimension
  2
*D8
 10
3886.970589276531
 20
410.7433333855515
 30
0.0
 11
2168.197775309287
 21
410.7433333855515
 31
0.0
 12
-3742.925985830444
 22
-6453.628869860112
 32
0.0
 70
   128
 71
     5
 42
3469.999999999982
  3
INABA_S40G
100
AcDbAlignedDimension
 13
416.9705892765486
 23
1392.494269174433
 33
0.0
 14
3886.970589276531
 24
1392.49426917456
 34
0.0
100
AcDbRotatedDimension
1001
ACAD
1000
DSTYLE
1002
{
1070
   341
1005
0
1002
}
  0
LINE
  5
18D92
330
18C7A
100
AcDbEntity
  8
部品1
100
AcDbLine
 10
444.9705892765559
 20
3154.494269174624
 30
0.0
 11
1509.470589276487
 21
3154.494269174626
 31
0.0
  0
LINE
  5
18D93
330
18C7A
100
AcDbEntity
  8
部品1
100
AcDbLine
 10
3886.970589276531
 20
1392.494269174596
 30
0.0
 11
3411.970589276556
 21
1392.494269174582
 31
0.0
  0
LINE
  5
18D94
330
18C7A
100
AcDbEntity
  8
部品1
100
AcDbLine
 10
416.9705892765559
 20
3182.494269174509
 30
0.0
 11
3886.970589276556
 21
3182.494269174604
 31
0.0
  0
LINE
  5
18D95
330
18C7A
100
AcDbEntity
  8
部品1
100
AcDbLine
 10
445.4705892765559
 20
2702.494269174509
 30
0.0
 11
1508.470589276487
 21
2702.494269174558
 31
0.0
  0
LINE
  5
18D96
330
18C7A
100
AcDbEntity
  8
細線
 48
50.0
100
AcDbLine
 10
2767.470589276556
 20
3152.494269174611
 30
0.0
 11
1536.470589276487
 21
2702.494269174558
 31
0.0
  0
LINE
  5
18D97
330
18C7A
100
AcDbEntity
  8
部品1
100
AcDbLine
 10
445.4705892765542
 20
3152.494269174509
 30
0.0
 11
1508.470589276485
 21
3152.494269174558
 31
0.0
  0
LINE
  5
18D98
330
18C7A
100
AcDbEntity
  8
細線
 48
50.0
100
AcDbLine
 10
2767.470589276554
 20
2702.494269174615
 30
0.0
 11
1536.470589276485
 21
3152.494269174558
 31
0.0
  0
LINE
  5
18D99
330
18C7A
100
AcDbEntity
  8
破線
 48
10.0
100
AcDbLine
 10
2126.970589276534
 20
1472.494269174502
 30
0.0
 11
1344.47058927653
 21
1472.494269174473
 31
0.0
  0
LINE
  5
18D9A
330
18C7A
100
AcDbEntity
  8
部品1
100
AcDbLine
 10
3830.470589276556
 20
1448.994269174596
 30
0.0
 11
473.4705892764487
 21
1448.994269174476
 31
0.0
  0
DIMENSION
  5
18D9B
330
18C7A
100
AcDbEntity
  8
寸法
100
AcDbDimension
  2
*D7
 10
471.970589276555
 20
3698.302488799491
 30
0.0
 11
108.4853079022819
 21
3698.302488799491
 31
0.0
 12
-3742.925985830444
 22
-6453.628869860112
 32
0.0
 70
   128
 71
     5
 42
55.00000000003456
  3
INABA_S40G
100
AcDbAlignedDimension
 13
416.9705892765205
 23
3182.494269174509
 33
0.0
 14
471.970589276555
 24
3182.494269174509
 34
0.0
100
AcDbRotatedDimension
1001
ACAD
1000
DSTYLE
1002
{
1002
}
  0
DIMENSION
  5
18D9C
330
18C7A
100
AcDbEntity
  8
寸法
100
AcDbDimension
  2
*D6
 10
4534.396935010967
 20
3127.494269174607
 30
0.0
 11
4534.396935010965
 21
3490.979550548844
 31
0.0
 12
-3742.925985830444
 22
-6453.628869860112
 32
0.0
 70
   128
 71
     5
 42
54.99999999999636
  3
INABA_S40G
100
AcDbAlignedDimension
 13
3886.970589276556
 23
3182.494269174604
 33
0.0
 14
3886.970589276556
 24
3127.494269174607
 34
0.0
 50
90.0
100
AcDbRotatedDimension
1001
ACAD
1000
DSTYLE
1002
{
1002
}
  0
DIMENSION
  5
18D9D
330
18C7A
100
AcDbEntity
  8
寸法
100
AcDbDimension
  2
*D5
 10
3886.970589276556
 20
3698.302488799589
 30
0.0
 11
4195.455870650794
 21
3698.302488799589
 31
0.0
 12
-3742.925985830444
 22
-6453.628869860112
 32
0.0
 70
   128
 71
     5
 42
55.0
  3
INABA_S40G
100
AcDbAlignedDimension
 13
3831.970589276556
 23
3182.494269174604
 33
0.0
 14
3886.970589276556
 24
3182.494269174604
 34
0.0
100
AcDbRotatedDimension
1001
ACAD
1000
DSTYLE
1002
{
1002
}
  0
DIMENSION
  5
18D9E
330
18C7A
100
AcDbEntity
  8
寸法
100
AcDbDimension
  2
*D4
 10
3831.970589276556
 20
3698.302488799607
 30
0.0
 11
2151.970589276555
 21
3698.302488799607
 31
0.0
 12
-3742.925985830444
 22
-6453.628869860112
 32
0.0
 70
   128
  1
8X420=<>
 71
     5
 42
3360.000000000001
  3
INABA_S40G
100
AcDbAlignedDimension
 13
471.970589276555
 23
3182.494269174509
 33
0.0
 14
3831.970589276556
 24
3182.494269174604
 34
0.0
100
AcDbRotatedDimension
1001
ACAD
1000
DSTYLE
1002
{
1002
}
  0
DIMENSION
  5
18D9F
330
18C7A
100
AcDbEntity
  8
寸法
100
AcDbDimension
  2
*D3
 10
4899.503876750603
 20
1392.494269174596
 30
0.0
 11
4899.503876750601
 21
2287.4942691746
 31
0.0
 12
-3742.925985830444
 22
-6453.628869860112
 32
0.0
 70
   128
 71
     5
 42
1790.000000000007
  3
INABA_S40G
100
AcDbAlignedDimension
 13
3886.970589276556
 23
3182.494269174604
 33
0.0
 14
3886.970589276531
 24
1392.494269174596
 34
0.0
 50
90.0
100
AcDbRotatedDimension
1001
ACAD
1000
DSTYLE
1002
{
1002
}
  0
ENDBLK
  5
18DA1
330
18C7A
100
AcDbEntity
  8
0
 48
50.0
100
AcDbBlockEnd
  0
BLOCK
  5
1C4CB
330
1C4CA
100
AcDbEntity
  8
0
 48
50.0
100
AcDbBlockBegin
  2
_NONE
 70
     0
 10
0.0
 20
0.0
 30
0.0
  3
_NONE
  1

  0
CIRCLE
  5
1C4CC
330
1C4CA
100
AcDbEntity
  8
0
  6
ByBlock
 62
     0
 48
50.0
100
AcDbCircle
 10
0.0
 20
0.0
 30
0.0
 40
0.25
  0
ENDBLK
  5
1C4CD
330
1C4CA
100
AcDbEntity
  8
0
 48
50.0
100
AcDbBlockEnd
  0
BLOCK
  5
20DEE
330
20DE2
100
AcDbEntity
  8
0
 48
50.0
100
AcDbBlockBegin
  2
*D19
 70
     1
 10
0.0
 20
0.0
 30
0.0
  3
*D19
  1

  0
LINE
  5
23DA9
330
20DE2
100
AcDbEntity
  8
寸法
 62
     0
 48
50.0
370
    -2
100
AcDbLine
 10
9458.6
 20
7538.895840434935
 30
0.0
 11
9458.6
 21
8537.116162493857
 31
0.0
  0
LINE
  5
23DAA
330
20DE2
100
AcDbEntity
  8
寸法
 62
     0
 48
50.0
370
    -2
100
AcDbLine
 10
9503.6
 20
8265.162298528846
 30
0.0
 11
9503.6
 21
8537.116162493857
 31
0.0
  0
LINE
  5
23DAB
330
20DE2
100
AcDbEntity
  8
寸法
 62
     0
 48
50.0
370
    -2
100
AcDbLine
 10
9458.6
 20
8477.116162493858
 30
0.0
 11
9358.6
 21
8477.116162493858
 31
0.0
  0
LINE
  5
23DAC
330
20DE2
100
AcDbEntity
  8
寸法
 62
     0
 48
50.0
370
    -2
100
AcDbLine
 10
9503.6
 20
8477.116162493858
 30
0.0
 11
9840.949242404919
 21
8477.116162493858
 31
0.0
  0
LINE
  5
23DAD
330
20DE2
100
AcDbEntity
  8
寸法
 62
     0
 48
50.0
370
    -2
100
AcDbLine
 10
9458.6
 20
8477.116162493858
 30
0.0
 11
9503.6
 21
8477.116162493858
 31
0.0
  0
INSERT
  5
23DAE
330
20DE2
100
AcDbEntity
  8
寸法
 62
     0
 48
50.0
370
    -2
100
AcDbBlockReference
  2
_DOTSMALL
 10
9458.6
 20
8477.116162493858
 30
0.0
 41
100.0
 42
100.0
 43
100.0
  0
INSERT
  5
23DAF
330
20DE2
100
AcDbEntity
  8
寸法
 62
     0
 48
50.0
370
    -2
100
AcDbBlockReference
  2
_DOTSMALL
 10
9503.6
 20
8477.116162493858
 30
0.0
 41
100.0
 42
100.0
 43
100.0
 50
180.0
  0
MTEXT
  5
23DB0
330
20DE2
100
AcDbEntity
  8
寸法
 62
     7
 48
50.0
100
AcDbMText
 10
9774.77462120246
 20
8577.116162493858
 30
0.0
 40
120.0
 41
0.0
 71
     5
 72
     1
  1
\A1;a
  7
STYLE1
 73
     1
 44
1.0
1001
ACAD
1000
MTEXTBEGIN
1070
    73
1070
     1
1070
    44
1040
1.0
1070
    74
1070
     0
1000
MTEXTEND
  0
POINT
  5
23DB1
330
20DE2
100
AcDbEntity
  8
DEFPOINTS
 62
     0
 48
50.0
100
AcDbPoint
 10
9458.6
 20
7518.895840434935
 30
0.0
  0
POINT
  5
23DB2
330
20DE2
100
AcDbEntity
  8
DEFPOINTS
 62
     0
 48
50.0
100
AcDbPoint
 10
9503.6
 20
8245.162298528844
 30
0.0
  0
POINT
  5
23DB3
330
20DE2
100
AcDbEntity
  8
DEFPOINTS
 62
     0
 48
50.0
100
AcDbPoint
 10
9503.6
 20
8477.116162493858
 30
0.0
  0
ENDBLK
  5
20DEF
330
20DE2
100
AcDbEntity
  8
0
 48
50.0
100
AcDbBlockEnd
  0
BLOCK
  5
20E08
330
20DFC
100
AcDbEntity
  8
0
 48
50.0
100
AcDbBlockBegin
  2
*D20
 70
     1
 10
0.0
 20
0.0
 30
0.0
  3
*D20
  1

  0
LINE
  5
23D9E
330
20DFC
100
AcDbEntity
  8
寸法
 62
     0
 48
50.0
370
    -2
100
AcDbLine
 10
6943.6
 20
8265.162298528847
 30
0.0
 11
6943.6
 21
8537.116162493857
 31
0.0
  0
LINE
  5
23D9F
330
20DFC
100
AcDbEntity
  8
寸法
 62
     0
 48
50.0
370
    -2
100
AcDbLine
 10
6988.599999999997
 20
7538.895840434936
 30
0.0
 11
6988.599999999997
 21
8537.116162493857
 31
0.0
  0
LINE
  5
23DA0
330
20DFC
100
AcDbEntity
  8
寸法
 62
     0
 48
50.0
370
    -2
100
AcDbLine
 10
6988.599999999997
 20
8477.116162493858
 30
0.0
 11
7088.599999999996
 21
8477.116162493858
 31
0.0
  0
LINE
  5
23DA1
330
20DFC
100
AcDbEntity
  8
寸法
 62
     0
 48
50.0
370
    -2
100
AcDbLine
 10
6943.6
 20
8477.116162493858
 30
0.0
 11
6606.250757595079
 21
8477.116162493858
 31
0.0
  0
LINE
  5
23DA2
330
20DFC
100
AcDbEntity
  8
寸法
 62
     0
 48
50.0
370
    -2
100
AcDbLine
 10
6988.599999999997
 20
8477.116162493858
 30
0.0
 11
6943.6
 21
8477.116162493858
 31
0.0
  0
INSERT
  5
23DA3
330
20DFC
100
AcDbEntity
  8
寸法
 62
     0
 48
50.0
370
    -2
100
AcDbBlockReference
  2
_DOTSMALL
 10
6988.599999999997
 20
8477.116162493858
 30
0.0
 41
100.0
 42
100.0
 43
100.0
 50
180.0
  0
INSERT
  5
23DA4
330
20DFC
100
AcDbEntity
  8
寸法
 62
     0
 48
50.0
370
    -2
100
AcDbBlockReference
  2
_DOTSMALL
 10
6943.6
 20
8477.116162493858
 30
0.0
 41
100.0
 42
100.0
 43
100.0
  0
MTEXT
  5
23DA5
330
20DFC
100
AcDbEntity
  8
寸法
 62
     7
 48
50.0
100
AcDbMText
 10
6672.425378797537
 20
8577.116162493858
 30
0.0
 40
120.0
 41
0.0
 71
     5
 72
     1
  1
\A1;a
  7
STYLE1
 73
     1
 44
1.0
1001
ACAD
1000
MTEXTBEGIN
1070
    73
1070
     1
1070
    44
1040
1.0
1070
    74
1070
     0
1000
MTEXTEND
  0
POINT
  5
23DA6
330
20DFC
100
AcDbEntity
  8
DEFPOINTS
 62
     0
 48
50.0
100
AcDbPoint
 10
6943.6
 20
8245.16229852885
 30
0.0
  0
POINT
  5
23DA7
330
20DFC
100
AcDbEntity
  8
DEFPOINTS
 62
     0
 48
50.0
100
AcDbPoint
 10
6988.599999999997
 20
7518.895840434936
 30
0.0
  0
POINT
  5
23DA8
330
20DFC
100
AcDbEntity
  8
DEFPOINTS
 62
     0
 48
50.0
100
AcDbPoint
 10
6988.599999999997
 20
8477.116162493858
 30
0.0
  0
ENDBLK
  5
20E09
330
20DFC
100
AcDbEntity
  8
0
 48
50.0
100
AcDbBlockEnd
  0
BLOCK
  5
2274E
330
22742
100
AcDbEntity
  8
0
 48
50.0
100
AcDbBlockBegin
  2
*D21
 70
     1
 10
0.0
 20
0.0
 30
0.0
  3
*D21
  1

  0
LINE
  5
23D93
330
22742
100
AcDbEntity
  8
寸法
 62
     0
 48
50.0
370
    -2
100
AcDbLine
 10
6345.665006330067
 20
7593.895840434943
 30
0.0
 11
6053.72190961067
 21
7593.895840434945
 31
0.0
  0
LINE
  5
23D94
330
22742
100
AcDbEntity
  8
寸法
 62
     0
 48
50.0
370
    -2
100
AcDbLine
 10
6968.599999999996
 20
7518.895840434936
 30
0.0
 11
6053.72190961067
 21
7518.895840434938
 31
0.0
  0
LINE
  5
23D95
330
22742
100
AcDbEntity
  8
寸法
 62
     0
 48
50.0
370
    -2
100
AcDbLine
 10
6113.721909610671
 20
7593.895840434945
 30
0.0
 11
6113.721909610671
 21
7693.895840434945
 31
0.0
  0
LINE
  5
23D96
330
22742
100
AcDbEntity
  8
寸法
 62
     0
 48
50.0
370
    -2
100
AcDbLine
 10
6113.721909610671
 20
7518.895840434938
 30
0.0
 11
6113.721909610671
 21
7418.895840434938
 31
0.0
  0
LINE
  5
23D97
330
22742
100
AcDbEntity
  8
寸法
 62
     0
 48
50.0
370
    -2
100
AcDbLine
 10
6113.721909610671
 20
7593.895840434945
 30
0.0
 11
6113.721909610671
 21
7518.895840434938
 31
0.0
  0
INSERT
  5
23D98
330
22742
100
AcDbEntity
  8
寸法
 62
     0
 48
50.0
370
    -2
100
AcDbBlockReference
  2
_DOTSMALL
 10
6113.721909610671
 20
7593.895840434945
 30
0.0
 41
100.0
 42
100.0
 43
100.0
 50
270.0
  0
INSERT
  5
23D99
330
22742
100
AcDbEntity
  8
寸法
 62
     0
 48
50.0
370
    -2
100
AcDbBlockReference
  2
_DOTSMALL
 10
6113.721909610671
 20
7518.895840434938
 30
0.0
 41
100.0
 42
100.0
 43
100.0
 50
90.0
  0
MTEXT
  5
23D9A
330
22742
100
AcDbEntity
  8
寸法
 62
     7
 48
50.0
100
AcDbMText
 10
6013.721909610669
 20
7556.395840434942
 30
0.0
 40
120.0
 41
0.0
 71
     5
 72
     1
  1
\A1;c
  7
STYLE1
 11
0.0000000000000001
 21
1.0
 31
0.0
 73
     1
 44
1.0
1001
ACAD
1000
MTEXTBEGIN
1070
    73
1070
     1
1070
    44
1040
1.0
1070
    74
1070
     0
1000
MTEXTEND
  0
POINT
  5
23D9B
330
22742
100
AcDbEntity
  8
DEFPOINTS
 62
     0
 48
50.0
100
AcDbPoint
 10
6365.665006330067
 20
7593.895840434943
 30
0.0
  0
POINT
  5
23D9C
330
22742
100
AcDbEntity
  8
DEFPOINTS
 62
     0
 48
50.0
100
AcDbPoint
 10
6988.599999999997
 20
7518.895840434936
 30
0.0
  0
POINT
  5
23D9D
330
22742
100
AcDbEntity
  8
DEFPOINTS
 62
     0
 48
50.0
100
AcDbPoint
 10
6113.721909610671
 20
7518.895840434938
 30
0.0
  0
ENDBLK
  5
2274F
330
22742
100
AcDbEntity
  8
0
 48
50.0
100
AcDbBlockEnd
  0
BLOCK
  5
22768
330
2275C
100
AcDbEntity
  8
0
 48
50.0
100
AcDbBlockBegin
  2
*D22
 70
     1
 10
0.0
 20
0.0
 30
0.0
  3
*D22
  1

  0
LINE
  5
23D88
330
2275C
100
AcDbEntity
  8
寸法
 62
     0
 48
50.0
370
    -2
100
AcDbLine
 10
6968.599999999996
 20
5978.895840434936
 30
0.0
 11
6053.72190961067
 21
5978.895840434937
 31
0.0
  0
LINE
  5
23D89
330
2275C
100
AcDbEntity
  8
寸法
 62
     0
 48
50.0
370
    -2
100
AcDbLine
 10
6345.665006330069
 20
5923.895840434962
 30
0.0
 11
6053.72190961067
 21
5923.895840434962
 31
0.0
  0
LINE
  5
23D8A
330
2275C
100
AcDbEntity
  8
寸法
 62
     0
 48
50.0
370
    -2
100
AcDbLine
 10
6113.721909610671
 20
5978.895840434937
 30
0.0
 11
6113.721909610671
 21
6078.895840434937
 31
0.0
  0
LINE
  5
23D8B
330
2275C
100
AcDbEntity
  8
寸法
 62
     0
 48
50.0
370
    -2
100
AcDbLine
 10
6113.721909610671
 20
5923.895840434962
 30
0.0
 11
6113.721909610671
 21
5823.895840434962
 31
0.0
  0
LINE
  5
23D8C
330
2275C
100
AcDbEntity
  8
寸法
 62
     0
 48
50.0
370
    -2
100
AcDbLine
 10
6113.721909610671
 20
5978.895840434937
 30
0.0
 11
6113.721909610671
 21
5923.895840434962
 31
0.0
  0
INSERT
  5
23D8D
330
2275C
100
AcDbEntity
  8
寸法
 62
     0
 48
50.0
370
    -2
100
AcDbBlockReference
  2
_DOTSMALL
 10
6113.721909610671
 20
5978.895840434937
 30
0.0
 41
100.0
 42
100.0
 43
100.0
 50
270.0
  0
INSERT
  5
23D8E
330
2275C
100
AcDbEntity
  8
寸法
 62
     0
 48
50.0
370
    -2
100
AcDbBlockReference
  2
_DOTSMALL
 10
6113.721909610671
 20
5923.895840434962
 30
0.0
 41
100.0
 42
100.0
 43
100.0
 50
90.0
  0
MTEXT
  5
23D8F
330
2275C
100
AcDbEntity
  8
寸法
 62
     7
 48
50.0
100
AcDbMText
 10
6013.721909610669
 20
5951.395840434951
 30
0.0
 40
120.0
 41
0.0
 71
     5
 72
     1
  1
\A1;b
  7
STYLE1
 11
0.0000000000000001
 21
1.0
 31
0.0
 73
     1
 44
1.0
1001
ACAD
1000
MTEXTBEGIN
1070
    73
1070
     1
1070
    44
1040
1.0
1070
    74
1070
     0
1000
MTEXTEND
  0
POINT
  5
23D90
330
2275C
100
AcDbEntity
  8
DEFPOINTS
 62
     0
 48
50.0
100
AcDbPoint
 10
6988.599999999997
 20
5978.895840434936
 30
0.0
  0
POINT
  5
23D91
330
2275C
100
AcDbEntity
  8
DEFPOINTS
 62
     0
 48
50.0
100
AcDbPoint
 10
6365.665006330068
 20
5923.895840434962
 30
0.0
  0
POINT
  5
23D92
330
2275C
100
AcDbEntity
  8
DEFPOINTS
 62
     0
 48
50.0
100
AcDbPoint
 10
6113.721909610671
 20
5923.895840434962
 30
0.0
  0
ENDBLK
  5
22769
330
2275C
100
AcDbEntity
  8
0
 48
50.0
100
AcDbBlockEnd
  0
BLOCK
  5
23A43
330
23A39
100
AcDbEntity
  8
0
 48
50.0
100
AcDbBlockBegin
  2
*D23
 70
     1
 10
0.0
 20
0.0
 30
0.0
  3
*D23
  1

  0
LINE
  5
23E46
330
23A39
100
AcDbEntity
  8
寸法
 62
     0
 48
50.0
370
    -2
100
AcDbLine
 10
7813.600000000008
 20
6905.89584043494
 30
0.0
 11
7813.600000000008
 21
8061.504657105187
 31
0.0
  0
LINE
  5
23E47
330
23A39
100
AcDbEntity
  8
寸法
 62
     0
 48
50.0
370
    -2
100
AcDbLine
 10
8633.600000000008
 20
6855.895840434939
 30
0.0
 11
8633.600000000008
 21
8061.504657105187
 31
0.0
  0
LINE
  5
23E48
330
23A39
100
AcDbEntity
  8
寸法
 62
     0
 48
50.0
370
    -2
100
AcDbLine
 10
7813.600000000008
 20
8001.504657105188
 30
0.0
 11
8633.600000000008
 21
8001.504657105188
 31
0.0
  0
INSERT
  5
23E49
330
23A39
100
AcDbEntity
  8
寸法
 62
     0
 48
50.0
370
    -2
100
AcDbBlockReference
  2
_DOTSMALL
 10
7813.600000000008
 20
8001.504657105188
 30
0.0
 41
100.0
 42
100.0
 43
100.0
 50
180.0
  0
INSERT
  5
23E4A
330
23A39
100
AcDbEntity
  8
寸法
 62
     0
 48
50.0
370
    -2
100
AcDbBlockReference
  2
_DOTSMALL
 10
8633.600000000008
 20
8001.504657105188
 30
0.0
 41
100.0
 42
100.0
 43
100.0
  0
MTEXT
  5
23E4B
330
23A39
100
AcDbEntity
  8
寸法
 62
     7
 48
50.0
100
AcDbMText
 10
8223.600000000008
 20
8101.51646812881
 30
0.0
 40
120.0
 41
0.0
 71
     5
 72
     1
  1
\A1;820
  7
STYLE1
 73
     1
 44
1.0
1001
ACAD
1000
MTEXTBEGIN
1070
    73
1070
     1
1070
    44
1040
1.0
1070
    74
1070
     0
1000
MTEXTEND
  0
POINT
  5
23E4C
330
23A39
100
AcDbEntity
  8
DEFPOINTS
 62
     0
 48
50.0
100
AcDbPoint
 10
7813.600000000008
 20
6885.895840434939
 30
0.0
  0
POINT
  5
23E4D
330
23A39
100
AcDbEntity
  8
DEFPOINTS
 62
     0
 48
50.0
100
AcDbPoint
 10
8633.600000000008
 20
6835.89584043494
 30
0.0
  0
POINT
  5
23E4E
330
23A39
100
AcDbEntity
  8
DEFPOINTS
 62
     0
 48
50.0
100
AcDbPoint
 10
8633.600000000008
 20
8001.504657105188
 30
0.0
  0
ENDBLK
  5
23A44
330
23A39
100
AcDbEntity
  8
0
 48
50.0
100
AcDbBlockEnd
  0
BLOCK
  5
23A4E
330
23A45
100
AcDbEntity
  8
0
 48
50.0
100
AcDbBlockBegin
  2
*D24
 70
     1
 10
0.0
 20
0.0
 30
0.0
  3
*D24
  1

  0
LINE
  5
23D76
330
23A45
100
AcDbEntity
  8
寸法
 62
     0
 48
50.0
370
    -2
100
AcDbLine
 10
9335.600000000001
 20
7465.895840434939
 30
0.0
 11
9335.600000000001
 21
8305.16229852885
 31
0.0
  0
LINE
  5
23D77
330
23A45
100
AcDbEntity
  8
寸法
 62
     0
 48
50.0
370
    -2
100
AcDbLine
 10
7111.6
 20
7465.895840434939
 30
0.0
 11
7111.6
 21
8305.16229852885
 31
0.0
  0
LINE
  5
23D78
330
23A45
100
AcDbEntity
  8
寸法
 62
     0
 48
50.0
370
    -2
100
AcDbLine
 10
9335.600000000001
 20
8245.162298528851
 30
0.0
 11
7111.6
 21
8245.162298528851
 31
0.0
  0
INSERT
  5
23D79
330
23A45
100
AcDbEntity
  8
寸法
 62
     0
 48
50.0
370
    -2
100
AcDbBlockReference
  2
_DOTSMALL
 10
9335.600000000001
 20
8245.162298528851
 30
0.0
 41
100.0
 42
100.0
 43
100.0
  0
INSERT
  5
23D7A
330
23A45
100
AcDbEntity
  8
寸法
 62
     0
 48
50.0
370
    -2
100
AcDbBlockReference
  2
_DOTSMALL
 10
7111.6
 20
8245.162298528851
 30
0.0
 41
100.0
 42
100.0
 43
100.0
 50
180.0
  0
MTEXT
  5
23D7B
330
23A45
100
AcDbEntity
  8
寸法
 62
     7
 48
50.0
100
AcDbMText
 10
8223.600000000001
 20
8345.174109552472
 30
0.0
 40
120.0
 41
0.0
 71
     5
 72
     1
  1
\A1;2224
  7
STYLE1
 73
     1
 44
1.0
1001
ACAD
1000
MTEXTBEGIN
1070
    73
1070
     1
1070
    44
1040
1.0
1070
    74
1070
     0
1000
MTEXTEND
  0
POINT
  5
23D7C
330
23A45
100
AcDbEntity
  8
DEFPOINTS
 62
     0
 48
50.0
100
AcDbPoint
 10
9335.600000000001
 20
7445.89584043494
 30
0.0
  0
POINT
  5
23D7D
330
23A45
100
AcDbEntity
  8
DEFPOINTS
 62
     0
 48
50.0
100
AcDbPoint
 10
7111.6
 20
7445.89584043494
 30
0.0
  0
POINT
  5
23D7E
330
23A45
100
AcDbEntity
  8
DEFPOINTS
 62
     0
 48
50.0
100
AcDbPoint
 10
7111.6
 20
8245.162298528851
 30
0.0
  0
ENDBLK
  5
23A4F
330
23A45
100
AcDbEntity
  8
0
 48
50.0
100
AcDbBlockEnd
  0
BLOCK
  5
23A5A
330
23A50
100
AcDbEntity
  8
0
 48
50.0
100
AcDbBlockBegin
  2
*D25
 70
     1
 10
0.0
 20
0.0
 30
0.0
  3
*D25
  1

  0
LINE
  5
23D6D
330
23A50
100
AcDbEntity
  8
寸法
 62
     0
 48
50.0
370
    -2
100
AcDbLine
 10
6988.600000000001
 20
7538.895840434939
 30
0.0
 11
6988.600000000001
 21
8537.116162493857
 31
0.0
  0
LINE
  5
23D6E
330
23A50
100
AcDbEntity
  8
寸法
 62
     0
 48
50.0
370
    -2
100
AcDbLine
 10
9458.6
 20
7538.895840434939
 30
0.0
 11
9458.6
 21
8537.116162493857
 31
0.0
  0
LINE
  5
23D6F
330
23A50
100
AcDbEntity
  8
寸法
 62
     0
 48
50.0
370
    -2
100
AcDbLine
 10
6988.600000000001
 20
8477.116162493858
 30
0.0
 11
9458.6
 21
8477.116162493858
 31
0.0
  0
INSERT
  5
23D70
330
23A50
100
AcDbEntity
  8
寸法
 62
     0
 48
50.0
370
    -2
100
AcDbBlockReference
  2
_DOTSMALL
 10
6988.600000000001
 20
8477.116162493858
 30
0.0
 41
100.0
 42
100.0
 43
100.0
 50
180.0
  0
INSERT
  5
23D71
330
23A50
100
AcDbEntity
  8
寸法
 62
     0
 48
50.0
370
    -2
100
AcDbBlockReference
  2
_DOTSMALL
 10
9458.6
 20
8477.116162493858
 30
0.0
 41
100.0
 42
100.0
 43
100.0
  0
MTEXT
  5
23D72
330
23A50
100
AcDbEntity
  8
寸法
 62
     7
 48
50.0
100
AcDbMText
 10
8223.600000000001
 20
8577.12797351748
 30
0.0
 40
120.0
 41
0.0
 71
     5
 72
     1
  1
\A1;2470
  7
STYLE1
 73
     1
 44
1.0
1001
ACAD
1000
MTEXTBEGIN
1070
    73
1070
     1
1070
    44
1040
1.0
1070
    74
1070
     0
1000
MTEXTEND
  0
POINT
  5
23D73
330
23A50
100
AcDbEntity
  8
DEFPOINTS
 62
     0
 48
50.0
100
AcDbPoint
 10
6988.600000000001
 20
7518.895840434939
 30
0.0
  0
POINT
  5
23D74
330
23A50
100
AcDbEntity
  8
DEFPOINTS
 62
     0
 48
50.0
100
AcDbPoint
 10
9458.6
 20
7518.895840434939
 30
0.0
  0
POINT
  5
23D75
330
23A50
100
AcDbEntity
  8
DEFPOINTS
 62
     0
 48
50.0
100
AcDbPoint
 10
9458.6
 20
8477.116162493858
 30
0.0
  0
ENDBLK
  5
23A5B
330
23A50
100
AcDbEntity
  8
0
 48
50.0
100
AcDbBlockEnd
  0
BLOCK
  5
23A66
330
23A5C
100
AcDbEntity
  8
0
 48
50.0
100
AcDbBlockBegin
  2
*D26
 70
     1
 10
0.0
 20
0.0
 30
0.0
  3
*D26
  1

  0
LINE
  5
23E34
330
23A5C
100
AcDbEntity
  8
寸法
 62
     0
 48
50.0
370
    -2
100
AcDbLine
 10
7693.600000000007
 20
6785.895840434939
 30
0.0
 11
7411.285990614302
 21
6785.895840434939
 31
0.0
  0
LINE
  5
23E35
330
23A5C
100
AcDbEntity
  8
寸法
 62
     0
 48
50.0
370
    -2
100
AcDbLine
 10
7542.765475140901
 20
7518.895840434939
 30
0.0
 11
7411.285990614302
 21
7518.895840434939
 31
0.0
  0
LINE
  5
23E36
330
23A5C
100
AcDbEntity
  8
寸法
 62
     0
 48
50.0
370
    -2
100
AcDbLine
 10
7471.285990614302
 20
6785.895840434939
 30
0.0
 11
7471.285990614302
 21
7518.895840434939
 31
0.0
  0
INSERT
  5
23E37
330
23A5C
100
AcDbEntity
  8
寸法
 62
     0
 48
50.0
370
    -2
100
AcDbBlockReference
  2
_DOTSMALL
 10
7471.285990614302
 20
6785.895840434939
 30
0.0
 41
100.0
 42
100.0
 43
100.0
 50
270.0
  0
INSERT
  5
23E38
330
23A5C
100
AcDbEntity
  8
寸法
 62
     0
 48
50.0
370
    -2
100
AcDbBlockReference
  2
_DOTSMALL
 10
7471.285990614302
 20
7518.895840434939
 30
0.0
 41
100.0
 42
100.0
 43
100.0
 50
90.0
  0
MTEXT
  5
23E39
330
23A5C
100
AcDbEntity
  8
寸法
 62
     7
 48
50.0
100
AcDbMText
 10
7371.285990614301
 20
7078.490631129117
 30
0.0
 40
120.0
 41
0.0
 71
     5
 72
     1
  1
\A1;733
  7
STYLE1
 11
0.0000000000000001
 21
1.0
 31
0.0
 73
     1
 44
1.0
1001
ACAD
1000
MTEXTBEGIN
1070
    73
1070
     1
1070
    44
1040
1.0
1070
    74
1070
     0
1000
MTEXTEND
  0
POINT
  5
23E3A
330
23A5C
100
AcDbEntity
  8
DEFPOINTS
 62
     0
 48
50.0
100
AcDbPoint
 10
7713.600000000008
 20
6785.895840434939
 30
0.0
  0
POINT
  5
23E3B
330
23A5C
100
AcDbEntity
  8
DEFPOINTS
 62
     0
 48
50.0
100
AcDbPoint
 10
7562.765475140901
 20
7518.895840434939
 30
0.0
  0
POINT
  5
23E3C
330
23A5C
100
AcDbEntity
  8
DEFPOINTS
 62
     0
 48
50.0
100
AcDbPoint
 10
7471.285990614302
 20
7518.895840434939
 30
0.0
  0
ENDBLK
  5
23A67
330
23A5C
100
AcDbEntity
  8
0
 48
50.0
100
AcDbBlockEnd
  0
BLOCK
  5
23A72
330
23A68
100
AcDbEntity
  8
0
 48
50.0
100
AcDbBlockBegin
  2
*D27
 70
     1
 10
0.0
 20
0.0
 30
0.0
  3
*D27
  1

  0
LINE
  5
23E3D
330
23A68
100
AcDbEntity
  8
寸法
 62
     0
 48
50.0
370
    -2
100
AcDbLine
 10
7813.600000000008
 20
6905.89584043494
 30
0.0
 11
7813.600000000008
 21
8061.504657105187
 31
0.0
  0
LINE
  5
23E3E
330
23A68
100
AcDbEntity
  8
寸法
 62
     0
 48
50.0
370
    -2
100
AcDbLine
 10
6988.600000000001
 20
7538.895840434939
 30
0.0
 11
6988.600000000001
 21
8061.504657105187
 31
0.0
  0
LINE
  5
23E3F
330
23A68
100
AcDbEntity
  8
寸法
 62
     0
 48
50.0
370
    -2
100
AcDbLine
 10
7813.600000000008
 20
8001.504657105188
 30
0.0
 11
6988.600000000001
 21
8001.504657105188
 31
0.0
  0
INSERT
  5
23E40
330
23A68
100
AcDbEntity
  8
寸法
 62
     0
 48
50.0
370
    -2
100
AcDbBlockReference
  2
_DOTSMALL
 10
7813.600000000008
 20
8001.504657105188
 30
0.0
 41
100.0
 42
100.0
 43
100.0
  0
INSERT
  5
23E41
330
23A68
100
AcDbEntity
  8
寸法
 62
     0
 48
50.0
370
    -2
100
AcDbBlockReference
  2
_DOTSMALL
 10
6988.600000000001
 20
8001.504657105188
 30
0.0
 41
100.0
 42
100.0
 43
100.0
 50
180.0
  0
MTEXT
  5
23E42
330
23A68
100
AcDbEntity
  8
寸法
 62
     7
 48
50.0
100
AcDbMText
 10
7401.100000000004
 20
8101.51646812881
 30
0.0
 40
120.0
 41
0.0
 71
     5
 72
     1
  1
\A1;825
  7
STYLE1
 73
     1
 44
1.0
1001
ACAD
1000
MTEXTBEGIN
1070
    73
1070
     1
1070
    44
1040
1.0
1070
    74
1070
     0
1000
MTEXTEND
  0
POINT
  5
23E43
330
23A68
100
AcDbEntity
  8
DEFPOINTS
 62
     0
 48
50.0
100
AcDbPoint
 10
7813.600000000008
 20
6885.895840434939
 30
0.0
  0
POINT
  5
23E44
330
23A68
100
AcDbEntity
  8
DEFPOINTS
 62
     0
 48
50.0
100
AcDbPoint
 10
6988.600000000001
 20
7518.895840434939
 30
0.0
  0
POINT
  5
23E45
330
23A68
100
AcDbEntity
  8
DEFPOINTS
 62
     0
 48
50.0
100
AcDbPoint
 10
6988.600000000001
 20
8001.504657105188
 30
0.0
  0
ENDBLK
  5
23A73
330
23A68
100
AcDbEntity
  8
0
 48
50.0
100
AcDbBlockEnd
  0
BLOCK
  5
23A7E
330
23A74
100
AcDbEntity
  8
0
 48
50.0
100
AcDbBlockBegin
  2
*D28
 70
     1
 10
0.0
 20
0.0
 30
0.0
  3
*D28
  1

  0
LINE
  5
23D52
330
23A74
100
AcDbEntity
  8
寸法
 62
     0
 48
50.0
370
    -2
100
AcDbLine
 10
6968.600000000001
 20
7518.895840434939
 30
0.0
 11
6053.721909610675
 21
7518.89584043494
 31
0.0
  0
LINE
  5
23D53
330
23A74
100
AcDbEntity
  8
寸法
 62
     0
 48
50.0
370
    -2
100
AcDbLine
 10
6968.600000000001
 20
5978.895840434939
 30
0.0
 11
6053.721909610674
 21
5978.89584043494
 31
0.0
  0
LINE
  5
23D54
330
23A74
100
AcDbEntity
  8
寸法
 62
     0
 48
50.0
370
    -2
100
AcDbLine
 10
6113.721909610674
 20
7518.89584043494
 30
0.0
 11
6113.721909610674
 21
5978.89584043494
 31
0.0
  0
INSERT
  5
23D55
330
23A74
100
AcDbEntity
  8
寸法
 62
     0
 48
50.0
370
    -2
100
AcDbBlockReference
  2
_DOTSMALL
 10
6113.721909610674
 20
7518.89584043494
 30
0.0
 41
100.0
 42
100.0
 43
100.0
 50
90.0
  0
INSERT
  5
23D56
330
23A74
100
AcDbEntity
  8
寸法
 62
     0
 48
50.0
370
    -2
100
AcDbBlockReference
  2
_DOTSMALL
 10
6113.721909610674
 20
5978.89584043494
 30
0.0
 41
100.0
 42
100.0
 43
100.0
 50
270.0
  0
MTEXT
  5
23D57
330
23A74
100
AcDbEntity
  8
寸法
 62
     7
 48
50.0
100
AcDbMText
 10
6013.721909610673
 20
6786.39584043494
 30
0.0
 40
120.0
 41
0.0
 71
     5
 72
     1
  1
\A1;1540
  7
STYLE1
 11
0.0000000000000001
 21
1.0
 31
0.0
 73
     1
 44
1.0
1001
ACAD
1000
MTEXTBEGIN
1070
    73
1070
     1
1070
    44
1040
1.0
1070
    74
1070
     0
1000
MTEXTEND
  0
POINT
  5
23D58
330
23A74
100
AcDbEntity
  8
DEFPOINTS
 62
     0
 48
50.0
100
AcDbPoint
 10
6988.600000000001
 20
7518.895840434939
 30
0.0
  0
POINT
  5
23D59
330
23A74
100
AcDbEntity
  8
DEFPOINTS
 62
     0
 48
50.0
100
AcDbPoint
 10
6988.600000000001
 20
5978.895840434939
 30
0.0
  0
POINT
  5
23D5A
330
23A74
100
AcDbEntity
  8
DEFPOINTS
 62
     0
 48
50.0
100
AcDbPoint
 10
6113.721909610674
 20
5978.89584043494
 30
0.0
  0
ENDBLK
  5
23A7F
330
23A74
100
AcDbEntity
  8
0
 48
50.0
100
AcDbBlockEnd
  0
BLOCK
  5
23A8A
330
23A80
100
AcDbEntity
  8
0
 48
50.0
100
AcDbBlockBegin
  2
*D29
 70
     1
 10
0.0
 20
0.0
 30
0.0
  3
*D29
  1

  0
LINE
  5
23DD8
330
23A80
100
AcDbEntity
  8
寸法
 62
     0
 48
50.0
370
    -2
100
AcDbLine
 10
7041.600000000001
 20
7395.89584043494
 30
0.0
 11
6305.665006330073
 21
7395.89584043494
 31
0.0
  0
LINE
  5
23DD9
330
23A80
100
AcDbEntity
  8
寸法
 62
     0
 48
50.0
370
    -2
100
AcDbLine
 10
7041.600000000008
 20
6176.895840434943
 30
0.0
 11
6305.665006330073
 21
6176.895840434943
 31
0.0
  0
LINE
  5
23DDA
330
23A80
100
AcDbEntity
  8
寸法
 62
     0
 48
50.0
370
    -2
100
AcDbLine
 10
6365.665006330073
 20
7395.89584043494
 30
0.0
 11
6365.665006330073
 21
6176.895840434943
 31
0.0
  0
INSERT
  5
23DDB
330
23A80
100
AcDbEntity
  8
寸法
 62
     0
 48
50.0
370
    -2
100
AcDbBlockReference
  2
_DOTSMALL
 10
6365.665006330073
 20
7395.89584043494
 30
0.0
 41
100.0
 42
100.0
 43
100.0
 50
90.0
  0
INSERT
  5
23DDC
330
23A80
100
AcDbEntity
  8
寸法
 62
     0
 48
50.0
370
    -2
100
AcDbBlockReference
  2
_DOTSMALL
 10
6365.665006330073
 20
6176.895840434943
 30
0.0
 41
100.0
 42
100.0
 43
100.0
 50
270.0
  0
MTEXT
  5
23DDD
330
23A80
100
AcDbEntity
  8
寸法
 62
     7
 48
50.0
100
AcDbMText
 10
6265.653195306449
 20
6786.39584043494
 30
0.0
 40
120.0
 41
0.0
 71
     5
 72
     1
  1
\A1;1219
  7
STYLE1
 11
0.0000000000000001
 21
1.0
 31
0.0
 73
     1
 44
1.0
1001
ACAD
1000
MTEXTBEGIN
1070
    73
1070
     1
1070
    44
1040
1.0
1070
    74
1070
     0
1000
MTEXTEND
  0
POINT
  5
23DDE
330
23A80
100
AcDbEntity
  8
DEFPOINTS
 62
     0
 48
50.0
100
AcDbPoint
 10
7061.6
 20
7395.89584043494
 30
0.0
  0
POINT
  5
23DDF
330
23A80
100
AcDbEntity
  8
DEFPOINTS
 62
     0
 48
50.0
100
AcDbPoint
 10
7061.600000000009
 20
6176.895840434943
 30
0.0
  0
POINT
  5
23DE0
330
23A80
100
AcDbEntity
  8
DEFPOINTS
 62
     0
 48
50.0
100
AcDbPoint
 10
6365.665006330073
 20
6176.895840434943
 30
0.0
  0
ENDBLK
  5
23A8B
330
23A80
100
AcDbEntity
  8
0
 48
50.0
100
AcDbBlockEnd
  0
BLOCK
  5
23A97
330
23A8C
100
AcDbEntity
  8
0
 48
50.0
100
AcDbBlockBegin
  2
*D30
 70
     1
 10
0.0
 20
0.0
 30
0.0
  3
*D30
  1

  0
LINE
  5
23DCE
330
23A8C
100
AcDbEntity
  8
寸法
 62
     0
 48
50.0
370
    -2
100
AcDbLine
 10
7041.600000000008
 20
6176.895840434943
 30
0.0
 11
6305.665006330073
 21
6176.895840434943
 31
0.0
  0
LINE
  5
23DCF
330
23A8C
100
AcDbEntity
  8
寸法
 62
     0
 48
50.0
370
    -2
100
AcDbLine
 10
6968.600000000001
 20
5978.895840434939
 30
0.0
 11
6305.665006330072
 21
5978.895840434939
 31
0.0
  0
LINE
  5
23DD0
330
23A8C
100
AcDbEntity
  8
寸法
 62
     0
 48
50.0
370
    -2
100
AcDbLine
 10
6365.665006330073
 20
6176.895840434943
 30
0.0
 11
6365.665006330072
 21
5978.895840434939
 31
0.0
  0
LINE
  5
23DD1
330
23A8C
100
AcDbEntity
  8
寸法
 62
     0
 48
50.0
370
    -2
100
AcDbLine
 10
6365.665006330072
 20
5978.895840434939
 30
0.0
 11
6365.665006330072
 21
5507.155231762689
 31
0.0
  0
INSERT
  5
23DD2
330
23A8C
100
AcDbEntity
  8
寸法
 62
     0
 48
50.0
370
    -2
100
AcDbBlockReference
  2
_DOTSMALL
 10
6365.665006330073
 20
6176.895840434943
 30
0.0
 41
100.0
 42
100.0
 43
100.0
 50
90.0
  0
INSERT
  5
23DD3
330
23A8C
100
AcDbEntity
  8
寸法
 62
     0
 48
50.0
370
    -2
100
AcDbBlockReference
  2
_DOTSMALL
 10
6365.665006330072
 20
5978.895840434939
 30
0.0
 41
100.0
 42
100.0
 43
100.0
 50
270.0
  0
MTEXT
  5
23DD4
330
23A8C
100
AcDbEntity
  8
寸法
 62
     7
 48
50.0
100
AcDbMText
 10
6265.665006330071
 20
5643.364891592348
 30
0.0
 40
120.0
 41
0.0
 71
     5
 72
     1
  1
\A1;198
  7
STYLE1
 11
0.0000000000000001
 21
1.0
 31
0.0
 73
     1
 44
1.0
1001
ACAD
1000
MTEXTBEGIN
1070
    73
1070
     1
1070
    44
1040
1.0
1070
    74
1070
     0
1000
MTEXTEND
  0
POINT
  5
23DD5
330
23A8C
100
AcDbEntity
  8
DEFPOINTS
 62
     0
 48
50.0
100
AcDbPoint
 10
7061.600000000009
 20
6176.895840434943
 30
0.0
  0
POINT
  5
23DD6
330
23A8C
100
AcDbEntity
  8
DEFPOINTS
 62
     0
 48
50.0
100
AcDbPoint
 10
6988.600000000001
 20
5978.895840434939
 30
0.0
  0
POINT
  5
23DD7
330
23A8C
100
AcDbEntity
  8
DEFPOINTS
 62
     0
 48
50.0
100
AcDbPoint
 10
6365.665006330072
 20
5978.895840434939
 30
0.0
  0
ENDBLK
  5
23A98
330
23A8C
100
AcDbEntity
  8
0
 48
50.0
100
AcDbBlockEnd
  0
BLOCK
  5
23AAF
330
23AA5
100
AcDbEntity
  8
0
 48
50.0
100
AcDbBlockBegin
  2
*D31
 70
     1
 10
0.0
 20
0.0
 30
0.0
  3
*D31
  1

  0
LINE
  5
23D36
330
23AA5
100
AcDbEntity
  8
寸法
 62
     0
 48
50.0
370
    -2
100
AcDbLine
 10
6968.600000000001
 20
5978.895840434936
 30
0.0
 11
6815.512673767877
 21
5978.895840434936
 31
0.0
  0
LINE
  5
23D37
330
23AA5
100
AcDbEntity
  8
寸法
 62
     0
 48
50.0
370
    -2
100
AcDbLine
 10
7324.325326928804
 20
5258.895840434936
 30
0.0
 11
6815.512673767877
 21
5258.895840434936
 31
0.0
  0
LINE
  5
23D38
330
23AA5
100
AcDbEntity
  8
寸法
 62
     0
 48
50.0
370
    -2
100
AcDbLine
 10
6875.512673767878
 20
5978.895840434936
 30
0.0
 11
6875.512673767878
 21
5258.895840434936
 31
0.0
  0
INSERT
  5
23D39
330
23AA5
100
AcDbEntity
  8
寸法
 62
     0
 48
50.0
370
    -2
100
AcDbBlockReference
  2
_DOTSMALL
 10
6875.512673767878
 20
5978.895840434936
 30
0.0
 41
100.0
 42
100.0
 43
100.0
 50
90.0
  0
INSERT
  5
23D3A
330
23AA5
100
AcDbEntity
  8
寸法
 62
     0
 48
50.0
370
    -2
100
AcDbBlockReference
  2
_DOTSMALL
 10
6875.512673767878
 20
5258.895840434936
 30
0.0
 41
100.0
 42
100.0
 43
100.0
 50
270.0
  0
MTEXT
  5
23D3B
330
23AA5
100
AcDbEntity
  8
寸法
 62
     7
 48
50.0
100
AcDbMText
 10
6775.500862744255
 20
5618.895840434937
 30
0.0
 40
120.0
 41
0.0
 71
     5
 72
     1
  1
\A1;扉の出720
  7
STYLE1
 11
0.0000000000000001
 21
1.0
 31
0.0
 73
     1
 44
1.0
1001
ACAD
1000
MTEXTBEGIN
1070
    73
1070
     1
1070
    44
1040
1.0
1070
    74
1070
     0
1000
MTEXTEND
  0
POINT
  5
23D3C
330
23AA5
100
AcDbEntity
  8
DEFPOINTS
 62
     0
 48
50.0
100
AcDbPoint
 10
6988.600000000001
 20
5978.895840434936
 30
0.0
  0
POINT
  5
23D3D
330
23AA5
100
AcDbEntity
  8
DEFPOINTS
 62
     0
 48
50.0
100
AcDbPoint
 10
7344.325326928805
 20
5258.895840434936
 30
0.0
  0
POINT
  5
23D3E
330
23AA5
100
AcDbEntity
  8
DEFPOINTS
 62
     0
 48
50.0
100
AcDbPoint
 10
6875.512673767878
 20
5258.895840434936
 30
0.0
  0
ENDBLK
  5
23AB0
330
23AA5
100
AcDbEntity
  8
0
 48
50.0
100
AcDbBlockEnd
  0
BLOCK
  5
23ABB
330
23AB1
100
AcDbEntity
  8
0
 48
50.0
100
AcDbBlockBegin
  2
*D32
 70
     1
 10
0.0
 20
0.0
 30
0.0
  3
*D32
  1

  0
LINE
  5
23E2B
330
23AB1
100
AcDbEntity
  8
寸法
 62
     0
 48
50.0
370
    -2
100
AcDbLine
 10
7542.765475140901
 20
5978.895840434951
 30
0.0
 11
7411.285990614302
 21
5978.895840434951
 31
0.0
  0
LINE
  5
23E2C
330
23AB1
100
AcDbEntity
  8
寸法
 62
     0
 48
50.0
370
    -2
100
AcDbLine
 10
7693.600000000007
 20
6785.895840434939
 30
0.0
 11
7411.285990614302
 21
6785.895840434939
 31
0.0
  0
LINE
  5
23E2D
330
23AB1
100
AcDbEntity
  8
寸法
 62
     0
 48
50.0
370
    -2
100
AcDbLine
 10
7471.285990614301
 20
5978.895840434951
 30
0.0
 11
7471.285990614302
 21
6785.895840434939
 31
0.0
  0
INSERT
  5
23E2E
330
23AB1
100
AcDbEntity
  8
寸法
 62
     0
 48
50.0
370
    -2
100
AcDbBlockReference
  2
_DOTSMALL
 10
7471.285990614301
 20
5978.895840434951
 30
0.0
 41
100.0
 42
100.0
 43
100.0
 50
270.0
  0
INSERT
  5
23E2F
330
23AB1
100
AcDbEntity
  8
寸法
 62
     0
 48
50.0
370
    -2
100
AcDbBlockReference
  2
_DOTSMALL
 10
7471.285990614302
 20
6785.895840434939
 30
0.0
 41
100.0
 42
100.0
 43
100.0
 50
90.0
  0
MTEXT
  5
23E30
330
23AB1
100
AcDbEntity
  8
寸法
 62
     7
 48
50.0
100
AcDbMText
 10
7371.285990614301
 20
6463.895840434941
 30
0.0
 40
120.0
 41
0.0
 71
     5
 72
     1
  1
\A1;807
  7
STYLE1
 11
0.0000000000000001
 21
1.0
 31
0.0
 73
     1
 44
1.0
1001
ACAD
1000
MTEXTBEGIN
1070
    73
1070
     1
1070
    44
1040
1.0
1070
    74
1070
     0
1000
MTEXTEND
  0
POINT
  5
23E31
330
23AB1
100
AcDbEntity
  8
DEFPOINTS
 62
     0
 48
50.0
100
AcDbPoint
 10
7562.765475140901
 20
5978.895840434951
 30
0.0
  0
POINT
  5
23E32
330
23AB1
100
AcDbEntity
  8
DEFPOINTS
 62
     0
 48
50.0
100
AcDbPoint
 10
7713.600000000008
 20
6785.895840434939
 30
0.0
  0
POINT
  5
23E33
330
23AB1
100
AcDbEntity
  8
DEFPOINTS
 62
     0
 48
50.0
100
AcDbPoint
 10
7471.285990614302
 20
6785.895840434939
 30
0.0
  0
ENDBLK
  5
23ABC
330
23AB1
100
AcDbEntity
  8
0
 48
50.0
100
AcDbBlockEnd
  0
BLOCK
  5
23AC8
330
23ABD
100
AcDbEntity
  8
0
 48
50.0
100
AcDbBlockBegin
  2
*D33
 70
     1
 10
0.0
 20
0.0
 30
0.0
  3
*D33
  1

  0
LINE
  5
23D23
330
23ABD
100
AcDbEntity
  8
寸法
 62
     0
 48
50.0
370
    -2
100
AcDbLine
 10
6968.600000000001
 20
7518.895840434939
 30
0.0
 11
6305.665006330072
 21
7518.895840434939
 31
0.0
  0
LINE
  5
23D24
330
23ABD
100
AcDbEntity
  8
寸法
 62
     0
 48
50.0
370
    -2
100
AcDbLine
 10
7041.600000000001
 20
7395.89584043494
 30
0.0
 11
6305.665006330072
 21
7395.89584043494
 31
0.0
  0
LINE
  5
23D25
330
23ABD
100
AcDbEntity
  8
寸法
 62
     0
 48
50.0
370
    -2
100
AcDbLine
 10
6365.665006330072
 20
7395.89584043494
 30
0.0
 11
6365.665006330072
 21
7518.895840434939
 31
0.0
  0
LINE
  5
23D26
330
23ABD
100
AcDbEntity
  8
寸法
 62
     0
 48
50.0
370
    -2
100
AcDbLine
 10
6365.665006330072
 20
7518.895840434939
 30
0.0
 11
6365.665006330072
 21
7930.487723526977
 31
0.0
  0
INSERT
  5
23D27
330
23ABD
100
AcDbEntity
  8
寸法
 62
     0
 48
50.0
370
    -2
100
AcDbBlockReference
  2
_DOTSMALL
 10
6365.665006330072
 20
7395.89584043494
 30
0.0
 41
100.0
 42
100.0
 43
100.0
 50
270.0
  0
INSERT
  5
23D28
330
23ABD
100
AcDbEntity
  8
寸法
 62
     0
 48
50.0
370
    -2
100
AcDbBlockReference
  2
_DOTSMALL
 10
6365.665006330072
 20
7518.895840434939
 30
0.0
 41
100.0
 42
100.0
 43
100.0
 50
90.0
  0
MTEXT
  5
23D29
330
23ABD
100
AcDbEntity
  8
寸法
 62
     7
 48
50.0
100
AcDbMText
 10
6265.653195306449
 20
7792.00244215274
 30
0.0
 40
120.0
 41
0.0
 71
     5
 72
     1
  1
\A1;123
  7
STYLE1
 11
0.0000000000000001
 21
1.0
 31
0.0
 73
     1
 44
1.0
1001
ACAD
1000
MTEXTBEGIN
1070
    73
1070
     1
1070
    44
1040
1.0
1070
    74
1070
     0
1000
MTEXTEND
  0
POINT
  5
23D2A
330
23ABD
100
AcDbEntity
  8
DEFPOINTS
 62
     0
 48
50.0
100
AcDbPoint
 10
6988.600000000001
 20
7518.895840434939
 30
0.0
  0
POINT
  5
23D2B
330
23ABD
100
AcDbEntity
  8
DEFPOINTS
 62
     0
 48
50.0
100
AcDbPoint
 10
7061.6
 20
7395.89584043494
 30
0.0
  0
POINT
  5
23D2C
330
23ABD
100
AcDbEntity
  8
DEFPOINTS
 62
     0
 48
50.0
100
AcDbPoint
 10
6365.665006330072
 20
7395.89584043494
 30
0.0
  0
ENDBLK
  5
23AC9
330
23ABD
100
AcDbEntity
  8
0
 48
50.0
100
AcDbBlockEnd
  0
BLOCK
  5
23AE2
330
23AD7
100
AcDbEntity
  8
0
 48
50.0
100
AcDbBlockBegin
  2
*D34
 70
     1
 10
0.0
 20
0.0
 30
0.0
  3
*D34
  1

  0
LINE
  5
23D19
330
23AD7
100
AcDbEntity
  8
寸法
 62
     0
 48
50.0
370
    -2
100
AcDbLine
 10
7111.6
 20
7465.895840434939
 30
0.0
 11
7111.6
 21
8305.16229852885
 31
0.0
  0
LINE
  5
23D1A
330
23AD7
100
AcDbEntity
  8
寸法
 62
     0
 48
50.0
370
    -2
100
AcDbLine
 10
6988.600000000001
 20
7538.895840434939
 30
0.0
 11
6988.600000000001
 21
8305.16229852885
 31
0.0
  0
LINE
  5
23D1B
330
23AD7
100
AcDbEntity
  8
寸法
 62
     0
 48
50.0
370
    -2
100
AcDbLine
 10
7111.6
 20
8245.162298528851
 30
0.0
 11
6988.600000000001
 21
8245.162298528851
 31
0.0
  0
LINE
  5
23D1C
330
23AD7
100
AcDbEntity
  8
寸法
 62
     0
 48
50.0
370
    -2
100
AcDbLine
 10
6988.600000000001
 20
8245.162298528851
 30
0.0
 11
6577.008116907961
 21
8245.162298528851
 31
0.0
  0
INSERT
  5
23D1D
330
23AD7
100
AcDbEntity
  8
寸法
 62
     0
 48
50.0
370
    -2
100
AcDbBlockReference
  2
_DOTSMALL
 10
7111.6
 20
8245.162298528851
 30
0.0
 41
100.0
 42
100.0
 43
100.0
  0
INSERT
  5
23D1E
330
23AD7
100
AcDbEntity
  8
寸法
 62
     0
 48
50.0
370
    -2
100
AcDbBlockReference
  2
_DOTSMALL
 10
6988.600000000001
 20
8245.162298528851
 30
0.0
 41
100.0
 42
100.0
 43
100.0
 50
180.0
  0
MTEXT
  5
23D1F
330
23AD7
100
AcDbEntity
  8
寸法
 62
     7
 48
50.0
100
AcDbMText
 10
6715.4933982822
 20
8345.174109552472
 30
0.0
 40
120.0
 41
0.0
 71
     5
 72
     1
  1
\A1;123
  7
STYLE1
 73
     1
 44
1.0
1001
ACAD
1000
MTEXTBEGIN
1070
    73
1070
     1
1070
    44
1040
1.0
1070
    74
1070
     0
1000
MTEXTEND
  0
POINT
  5
23D20
330
23AD7
100
AcDbEntity
  8
DEFPOINTS
 62
     0
 48
50.0
100
AcDbPoint
 10
7111.6
 20
7445.89584043494
 30
0.0
  0
POINT
  5
23D21
330
23AD7
100
AcDbEntity
  8
DEFPOINTS
 62
     0
 48
50.0
100
AcDbPoint
 10
6988.600000000001
 20
7518.895840434939
 30
0.0
  0
POINT
  5
23D22
330
23AD7
100
AcDbEntity
  8
DEFPOINTS
 62
     0
 48
50.0
100
AcDbPoint
 10
6988.600000000001
 20
8245.162298528851
 30
0.0
  0
ENDBLK
  5
23AE3
330
23AD7
100
AcDbEntity
  8
0
 48
50.0
100
AcDbBlockEnd
  0
BLOCK
  5
23AF8
330
23AEE
100
AcDbEntity
  8
0
 48
50.0
100
AcDbBlockBegin
  2
*D35
 70
     1
 10
0.0
 20
0.0
 30
0.0
  3
*D35
  1

  0
LINE
  5
23E58
330
23AEE
100
AcDbEntity
  8
寸法
 62
     0
 48
50.0
370
    -2
100
AcDbLine
 10
9458.6
 20
7538.895840434939
 30
0.0
 11
9458.6
 21
8061.504657105187
 31
0.0
  0
LINE
  5
23E59
330
23AEE
100
AcDbEntity
  8
寸法
 62
     0
 48
50.0
370
    -2
100
AcDbLine
 10
8633.600000000008
 20
6855.895840434939
 30
0.0
 11
8633.600000000008
 21
8061.504657105187
 31
0.0
  0
LINE
  5
23E5A
330
23AEE
100
AcDbEntity
  8
寸法
 62
     0
 48
50.0
370
    -2
100
AcDbLine
 10
9458.6
 20
8001.504657105188
 30
0.0
 11
8633.600000000008
 21
8001.504657105188
 31
0.0
  0
INSERT
  5
23E5B
330
23AEE
100
AcDbEntity
  8
寸法
 62
     0
 48
50.0
370
    -2
100
AcDbBlockReference
  2
_DOTSMALL
 10
9458.6
 20
8001.504657105188
 30
0.0
 41
100.0
 42
100.0
 43
100.0
  0
INSERT
  5
23E5C
330
23AEE
100
AcDbEntity
  8
寸法
 62
     0
 48
50.0
370
    -2
100
AcDbBlockReference
  2
_DOTSMALL
 10
8633.600000000008
 20
8001.504657105188
 30
0.0
 41
100.0
 42
100.0
 43
100.0
 50
180.0
  0
MTEXT
  5
23E5D
330
23AEE
100
AcDbEntity
  8
寸法
 62
     7
 48
50.0
100
AcDbMText
 10
9046.100000000004
 20
8101.51646812881
 30
0.0
 40
120.0
 41
0.0
 71
     5
 72
     1
  1
\A1;825
  7
STYLE1
 73
     1
 44
1.0
1001
ACAD
1000
MTEXTBEGIN
1070
    73
1070
     1
1070
    44
1040
1.0
1070
    74
1070
     0
1000
MTEXTEND
  0
POINT
  5
23E5E
330
23AEE
100
AcDbEntity
  8
DEFPOINTS
 62
     0
 48
50.0
100
AcDbPoint
 10
9458.6
 20
7518.895840434939
 30
0.0
  0
POINT
  5
23E5F
330
23AEE
100
AcDbEntity
  8
DEFPOINTS
 62
     0
 48
50.0
100
AcDbPoint
 10
8633.600000000008
 20
6835.89584043494
 30
0.0
  0
POINT
  5
23E60
330
23AEE
100
AcDbEntity
  8
DEFPOINTS
 62
     0
 48
50.0
100
AcDbPoint
 10
8633.600000000008
 20
8001.504657105188
 30
0.0
  0
ENDBLK
  5
23AF9
330
23AEE
100
AcDbEntity
  8
0
 48
50.0
100
AcDbBlockEnd
  0
BLOCK
  5
23B05
330
23AFA
100
AcDbEntity
  8
0
 48
50.0
100
AcDbBlockBegin
  2
*D36
 70
     1
 10
0.0
 20
0.0
 30
0.0
  3
*D36
  1

  0
LINE
  5
23EB2
330
23AFA
100
AcDbEntity
  8
寸法
 62
     0
 48
50.0
370
    -2
100
AcDbLine
 10
9069.996681317045
 20
6258.895840434954
 30
0.0
 11
8949.819725318581
 21
6258.895840434954
 31
0.0
  0
LINE
  5
23EB3
330
23AFA
100
AcDbEntity
  8
寸法
 62
     0
 48
50.0
370
    -2
100
AcDbLine
 10
8851.419106515956
 20
5978.895840434951
 30
0.0
 11
9069.819725318582
 21
5978.895840434951
 31
0.0
  0
LINE
  5
23EB4
330
23AFA
100
AcDbEntity
  8
寸法
 62
     0
 48
50.0
370
    -2
100
AcDbLine
 10
9009.819725318584
 20
6258.895840434954
 30
0.0
 11
9009.819725318584
 21
5978.895840434951
 31
0.0
  0
LINE
  5
23EB5
330
23AFA
100
AcDbEntity
  8
寸法
 62
     0
 48
50.0
370
    -2
100
AcDbLine
 10
9009.819725318584
 20
5978.895840434951
 30
0.0
 11
9009.819725318584
 21
5542.361391616052
 31
0.0
  0
INSERT
  5
23EB6
330
23AFA
100
AcDbEntity
  8
寸法
 62
     0
 48
50.0
370
    -2
100
AcDbBlockReference
  2
_DOTSMALL
 10
9009.819725318584
 20
6258.895840434954
 30
0.0
 41
100.0
 42
100.0
 43
100.0
 50
90.0
  0
INSERT
  5
23EB7
330
23AFA
100
AcDbEntity
  8
寸法
 62
     0
 48
50.0
370
    -2
100
AcDbBlockReference
  2
_DOTSMALL
 10
9009.819725318584
 20
5978.895840434951
 30
0.0
 41
100.0
 42
100.0
 43
100.0
 50
270.0
  0
MTEXT
  5
23EB8
330
23AFA
100
AcDbEntity
  8
寸法
 62
     7
 48
50.0
100
AcDbMText
 10
8909.807914294958
 20
5691.932257757786
 30
0.0
 40
120.0
 41
0.0
 71
     5
 72
     1
  1
\A1;280
  7
STYLE1
 11
0.0000000000000001
 21
1.0
 31
0.0
 73
     1
 44
1.0
1001
ACAD
1000
MTEXTBEGIN
1070
    73
1070
     1
1070
    44
1040
1.0
1070
    74
1070
     0
1000
MTEXTEND
  0
POINT
  5
23EB9
330
23AFA
100
AcDbEntity
  8
DEFPOINTS
 62
     0
 48
50.0
100
AcDbPoint
 10
9089.996681317044
 20
6258.895840434954
 30
0.0
  0
POINT
  5
23EBA
330
23AFA
100
AcDbEntity
  8
DEFPOINTS
 62
     0
 48
50.0
100
AcDbPoint
 10
8831.419106515957
 20
5978.895840434951
 30
0.0
  0
POINT
  5
23EBB
330
23AFA
100
AcDbEntity
  8
DEFPOINTS
 62
     0
 48
50.0
100
AcDbPoint
 10
9009.819725318584
 20
5978.895840434951
 30
0.0
  0
ENDBLK
  5
23B06
330
23AFA
100
AcDbEntity
  8
0
 48
50.0
100
AcDbBlockEnd
  0
BLOCK
  5
23B1F
330
23B14
100
AcDbEntity
  8
0
 48
50.0
100
AcDbBlockBegin
  2
*D37
 70
     1
 10
0.0
 20
0.0
 30
0.0
  3
*D37
  1

  0
LINE
  5
23CFC
330
23B14
100
AcDbEntity
  8
寸法
 62
     0
 48
50.0
370
    -2
100
AcDbLine
 10
9458.6
 20
7538.895840434939
 30
0.0
 11
9458.6
 21
8305.16229852885
 31
0.0
  0
LINE
  5
23CFD
330
23B14
100
AcDbEntity
  8
寸法
 62
     0
 48
50.0
370
    -2
100
AcDbLine
 10
9335.600000000001
 20
7465.895840434939
 30
0.0
 11
9335.600000000001
 21
8305.16229852885
 31
0.0
  0
LINE
  5
23CFE
330
23B14
100
AcDbEntity
  8
寸法
 62
     0
 48
50.0
370
    -2
100
AcDbLine
 10
9335.600000000001
 20
8245.162298528851
 30
0.0
 11
9458.6
 21
8245.162298528851
 31
0.0
  0
LINE
  5
23CFF
330
23B14
100
AcDbEntity
  8
寸法
 62
     0
 48
50.0
370
    -2
100
AcDbLine
 10
9458.6
 20
8245.162298528851
 30
0.0
 11
9870.191883092036
 21
8245.162298528851
 31
0.0
  0
INSERT
  5
23D00
330
23B14
100
AcDbEntity
  8
寸法
 62
     0
 48
50.0
370
    -2
100
AcDbBlockReference
  2
_DOTSMALL
 10
9335.600000000001
 20
8245.162298528851
 30
0.0
 41
100.0
 42
100.0
 43
100.0
 50
180.0
  0
INSERT
  5
23D01
330
23B14
100
AcDbEntity
  8
寸法
 62
     0
 48
50.0
370
    -2
100
AcDbBlockReference
  2
_DOTSMALL
 10
9458.6
 20
8245.162298528851
 30
0.0
 41
100.0
 42
100.0
 43
100.0
  0
MTEXT
  5
23D02
330
23B14
100
AcDbEntity
  8
寸法
 62
     7
 48
50.0
100
AcDbMText
 10
9731.706601717799
 20
8345.174109552472
 30
0.0
 40
120.0
 41
0.0
 71
     5
 72
     1
  1
\A1;123
  7
STYLE1
 73
     1
 44
1.0
1001
ACAD
1000
MTEXTBEGIN
1070
    73
1070
     1
1070
    44
1040
1.0
1070
    74
1070
     0
1000
MTEXTEND
  0
POINT
  5
23D03
330
23B14
100
AcDbEntity
  8
DEFPOINTS
 62
     0
 48
50.0
100
AcDbPoint
 10
9458.6
 20
7518.895840434939
 30
0.0
  0
POINT
  5
23D04
330
23B14
100
AcDbEntity
  8
DEFPOINTS
 62
     0
 48
50.0
100
AcDbPoint
 10
9335.600000000001
 20
7445.89584043494
 30
0.0
  0
POINT
  5
23D05
330
23B14
100
AcDbEntity
  8
DEFPOINTS
 62
     0
 48
50.0
100
AcDbPoint
 10
9335.600000000001
 20
8245.162298528851
 30
0.0
  0
ENDBLK
  5
23B20
330
23B14
100
AcDbEntity
  8
0
 48
50.0
100
AcDbBlockEnd
  0
BLOCK
  5
23B2C
330
23B21
100
AcDbEntity
  8
0
 48
50.0
100
AcDbBlockBegin
  2
*D38
 70
     1
 10
0.0
 20
0.0
 30
0.0
  3
*D38
  1

  0
LINE
  5
23CF2
330
23B21
100
AcDbEntity
  8
寸法
 62
     0
 48
50.0
370
    -2
100
AcDbLine
 10
9113.854682011639
 20
7518.895840434929
 30
0.0
 11
8949.819725318581
 21
7518.895840434929
 31
0.0
  0
LINE
  5
23CF3
330
23B21
100
AcDbEntity
  8
寸法
 62
     0
 48
50.0
370
    -2
100
AcDbLine
 10
9113.854682011639
 20
7318.89584043493
 30
0.0
 11
8949.819725318581
 21
7318.89584043493
 31
0.0
  0
LINE
  5
23CF4
330
23B21
100
AcDbEntity
  8
寸法
 62
     0
 48
50.0
370
    -2
100
AcDbLine
 10
9009.819725318584
 20
7318.89584043493
 30
0.0
 11
9009.819725318584
 21
7518.895840434929
 31
0.0
  0
LINE
  5
23CF5
330
23B21
100
AcDbEntity
  8
寸法
 62
     0
 48
50.0
370
    -2
100
AcDbLine
 10
9009.819725318584
 20
7518.895840434929
 30
0.0
 11
9009.819725318584
 21
7955.430289253829
 31
0.0
  0
INSERT
  5
23CF6
330
23B21
100
AcDbEntity
  8
寸法
 62
     0
 48
50.0
370
    -2
100
AcDbBlockReference
  2
_DOTSMALL
 10
9009.819725318584
 20
7318.89584043493
 30
0.0
 41
100.0
 42
100.0
 43
100.0
 50
270.0
  0
INSERT
  5
23CF7
330
23B21
100
AcDbEntity
  8
寸法
 62
     0
 48
50.0
370
    -2
100
AcDbBlockReference
  2
_DOTSMALL
 10
9009.819725318584
 20
7518.895840434929
 30
0.0
 41
100.0
 42
100.0
 43
100.0
 50
90.0
  0
MTEXT
  5
23CF8
330
23B21
100
AcDbEntity
  8
寸法
 62
     7
 48
50.0
100
AcDbMText
 10
8909.807914294958
 20
7805.859423112098
 30
0.0
 40
120.0
 41
0.0
 71
     5
 72
     1
  1
\A1;200
  7
STYLE1
 11
0.0000000000000001
 21
1.0
 31
0.0
 73
     1
 44
1.0
1001
ACAD
1000
MTEXTBEGIN
1070
    73
1070
     1
1070
    44
1040
1.0
1070
    74
1070
     0
1000
MTEXTEND
  0
POINT
  5
23CF9
330
23B21
100
AcDbEntity
  8
DEFPOINTS
 62
     0
 48
50.0
100
AcDbPoint
 10
9133.854682011641
 20
7518.895840434929
 30
0.0
  0
POINT
  5
23CFA
330
23B21
100
AcDbEntity
  8
DEFPOINTS
 62
     0
 48
50.0
100
AcDbPoint
 10
9133.854682011641
 20
7318.89584043493
 30
0.0
  0
POINT
  5
23CFB
330
23B21
100
AcDbEntity
  8
DEFPOINTS
 62
     0
 48
50.0
100
AcDbPoint
 10
9009.819725318584
 20
7318.89584043493
 30
0.0
  0
ENDBLK
  5
23B2D
330
23B21
100
AcDbEntity
  8
0
 48
50.0
100
AcDbBlockEnd
  0
BLOCK
  5
23B39
330
23B2E
100
AcDbEntity
  8
0
 48
50.0
100
AcDbBlockBegin
  2
*D39
 70
     1
 10
0.0
 20
0.0
 30
0.0
  3
*D39
  1

  0
LINE
  5
23EE6
330
23B2E
100
AcDbEntity
  8
寸法
 62
     0
 48
50.0
370
    -2
100
AcDbLine
 10
9458.6
 20
7020.261897504515
 30
0.0
 11
9458.6
 21
6963.268633465682
 31
0.0
  0
LINE
  5
23EE7
330
23B2E
100
AcDbEntity
  8
寸法
 62
     0
 48
50.0
370
    -2
100
AcDbLine
 10
9338.600000000001
 20
7043.268633465683
 30
0.0
 11
9338.600000000001
 21
7083.268633465682
 31
0.0
  0
LINE
  5
23EE8
330
23B2E
100
AcDbEntity
  8
寸法
 62
     0
 48
50.0
370
    -2
100
AcDbLine
 10
9338.600000000001
 20
7023.268633465683
 30
0.0
 11
9458.6
 21
7023.268633465683
 31
0.0
  0
LINE
  5
23EE9
330
23B2E
100
AcDbEntity
  8
寸法
 62
     0
 48
50.0
370
    -2
100
AcDbLine
 10
9458.6
 20
7023.268633465683
 30
0.0
 11
9893.132525468729
 21
7023.268633465683
 31
0.0
  0
INSERT
  5
23EEA
330
23B2E
100
AcDbEntity
  8
寸法
 62
     0
 48
50.0
370
    -2
100
AcDbBlockReference
  2
_DOTSMALL
 10
9338.600000000001
 20
7023.268633465683
 30
0.0
 41
100.0
 42
100.0
 43
100.0
 50
180.0
  0
INSERT
  5
23EEB
330
23B2E
100
AcDbEntity
  8
寸法
 62
     0
 48
50.0
370
    -2
100
AcDbBlockReference
  2
_DOTSMALL
 10
9458.6
 20
7023.268633465683
 30
0.0
 41
100.0
 42
100.0
 43
100.0
  0
MTEXT
  5
23EEC
330
23B2E
100
AcDbEntity
  8
寸法
 62
     7
 48
50.0
100
AcDbMText
 10
9757.085281374239
 20
7123.280444489305
 30
0.0
 40
120.0
 41
0.0
 71
     5
 72
     1
  1
\A1;120
  7
STYLE1
 73
     1
 44
1.0
1001
ACAD
1000
MTEXTBEGIN
1070
    73
1070
     1
1070
    44
1040
1.0
1070
    74
1070
     0
1000
MTEXTEND
  0
POINT
  5
23EED
330
23B2E
100
AcDbEntity
  8
DEFPOINTS
 62
     0
 48
50.0
100
AcDbPoint
 10
9458.6
 20
7040.261897504516
 30
0.0
  0
POINT
  5
23EEE
330
23B2E
100
AcDbEntity
  8
DEFPOINTS
 62
     0
 48
50.0
100
AcDbPoint
 10
9338.600000000001
 20
7023.268633465683
 30
0.0
  0
POINT
  5
23EEF
330
23B2E
100
AcDbEntity
  8
DEFPOINTS
 62
     0
 48
50.0
100
AcDbPoint
 10
9338.600000000001
 20
7023.268633465683
 30
0.0
  0
ENDBLK
  5
23B3A
330
23B2E
100
AcDbEntity
  8
0
 48
50.0
100
AcDbBlockEnd
  0
BLOCK
  5
241B2
330
241A8
100
AcDbEntity
  8
0
 48
50.0
100
AcDbBlockBegin
  2
*D40
 70
     1
 10
0.0
 20
0.0
 30
0.0
  3
*D40
  1

  0
LINE
  5
241F2
330
241A8
100
AcDbEntity
  8
寸法
 62
     0
 48
50.0
370
    -2
100
AcDbLine
 10
6338.437319446627
 20
1032.196729098972
 30
0.0
 11
6338.437319446627
 21
581.7670910938122
 31
0.0
  0
LINE
  5
241F3
330
241A8
100
AcDbEntity
  8
寸法
 62
     0
 48
50.0
370
    -2
100
AcDbLine
 10
6786.437319446626
 20
1032.196729098972
 30
0.0
 11
6786.437319446626
 21
581.7670910938122
 31
0.0
  0
LINE
  5
241F4
330
241A8
100
AcDbEntity
  8
寸法
 62
     0
 48
50.0
370
    -2
100
AcDbLine
 10
6338.437319446627
 20
641.7670910938122
 30
0.0
 11
6786.437319446626
 21
641.7670910938122
 31
0.0
  0
INSERT
  5
241F5
330
241A8
100
AcDbEntity
  8
寸法
 62
     0
 48
50.0
370
    -2
100
AcDbBlockReference
  2
_DOTSMALL
 10
6338.437319446627
 20
641.7670910938122
 30
0.0
 41
100.0
 42
100.0
 43
100.0
 50
180.0
  0
INSERT
  5
241F6
330
241A8
100
AcDbEntity
  8
寸法
 62
     0
 48
50.0
370
    -2
100
AcDbBlockReference
  2
_DOTSMALL
 10
6786.437319446626
 20
641.7670910938122
 30
0.0
 41
100.0
 42
100.0
 43
100.0
  0
MTEXT
  5
241F7
330
241A8
100
AcDbEntity
  8
寸法
 62
     7
 48
50.0
100
AcDbMText
 10
6542.340560768403
 20
741.7670910938122
 30
0.0
 40
120.0
 41
0.0
 71
     5
 72
     1
  1
\A1;300
  7
STYLE1
 73
     1
 44
1.0
1001
ACAD
1000
MTEXTBEGIN
1070
    73
1070
     1
1070
    44
1040
1.0
1070
    74
1070
     0
1000
MTEXTEND
  0
POINT
  5
241F8
330
241A8
100
AcDbEntity
  8
DEFPOINTS
 62
     0
 48
50.0
100
AcDbPoint
 10
6338.437319446627
 20
1052.196729098972
 30
0.0
  0
POINT
  5
241F9
330
241A8
100
AcDbEntity
  8
DEFPOINTS
 62
     0
 48
50.0
100
AcDbPoint
 10
6786.437319446626
 20
1052.196729098972
 30
0.0
  0
POINT
  5
241FA
330
241A8
100
AcDbEntity
  8
DEFPOINTS
 62
     0
 48
50.0
100
AcDbPoint
 10
6786.437319446626
 20
641.7670910938122
 30
0.0
  0
ENDBLK
  5
241B3
330
241A8
100
AcDbEntity
  8
0
 48
50.0
100
AcDbBlockEnd
  0
BLOCK
  5
241BE
330
241B4
100
AcDbEntity
  8
0
 48
50.0
100
AcDbBlockBegin
  2
*D41
 70
     1
 10
0.0
 20
0.0
 30
0.0
  3
*D41
  1

  0
LINE
  5
241FB
330
241B4
100
AcDbEntity
  8
寸法
 62
     0
 48
50.0
370
    -2
100
AcDbLine
 10
6446.437319446627
 20
1964.196729098972
 30
0.0
 11
5671.400080884887
 21
1964.196729098972
 31
0.0
  0
LINE
  5
241FC
330
241B4
100
AcDbEntity
  8
寸法
 62
     0
 48
50.0
370
    -2
100
AcDbLine
 10
6238.437319446631
 20
1180.196729098972
 30
0.0
 11
5671.400080884887
 21
1180.196729098972
 31
0.0
  0
LINE
  5
241FD
330
241B4
100
AcDbEntity
  8
寸法
 62
     0
 48
50.0
370
    -2
100
AcDbLine
 10
5731.400080884887
 20
1964.196729098972
 30
0.0
 11
5731.400080884887
 21
1180.196729098972
 31
0.0
  0
INSERT
  5
241FE
330
241B4
100
AcDbEntity
  8
寸法
 62
     0
 48
50.0
370
    -2
100
AcDbBlockReference
  2
_DOTSMALL
 10
5731.400080884887
 20
1964.196729098972
 30
0.0
 41
100.0
 42
100.0
 43
100.0
 50
90.0
  0
INSERT
  5
241FF
330
241B4
100
AcDbEntity
  8
寸法
 62
     0
 48
50.0
370
    -2
100
AcDbBlockReference
  2
_DOTSMALL
 10
5731.400080884887
 20
1180.196729098972
 30
0.0
 41
100.0
 42
100.0
 43
100.0
 50
270.0
  0
MTEXT
  5
24200
330
241B4
100
AcDbEntity
  8
寸法
 62
     7
 48
50.0
100
AcDbMText
 10
5631.400080884887
 20
1551.736878754973
 30
0.0
 40
120.0
 41
0.0
 71
     5
 72
     1
  1
\A1;540
  7
STYLE1
 11
0.0000000000000001
 21
1.0
 31
0.0
 73
     1
 44
1.0
1001
ACAD
1000
MTEXTBEGIN
1070
    73
1070
     1
1070
    44
1040
1.0
1070
    74
1070
     0
1000
MTEXTEND
  0
POINT
  5
24201
330
241B4
100
AcDbEntity
  8
DEFPOINTS
 62
     0
 48
50.0
100
AcDbPoint
 10
6466.437319446626
 20
1964.196729098972
 30
0.0
  0
POINT
  5
24202
330
241B4
100
AcDbEntity
  8
DEFPOINTS
 62
     0
 48
50.0
100
AcDbPoint
 10
6258.437319446631
 20
1180.196729098972
 30
0.0
  0
POINT
  5
24203
330
241B4
100
AcDbEntity
  8
DEFPOINTS
 62
     0
 48
50.0
100
AcDbPoint
 10
5731.400080884887
 20
1180.196729098972
 30
0.0
  0
ENDBLK
  5
241BF
330
241B4
100
AcDbEntity
  8
0
 48
50.0
100
AcDbBlockEnd
  0
BLOCK
  5
241CA
330
241C0
100
AcDbEntity
  8
0
 48
50.0
100
AcDbBlockBegin
  2
*D42
 70
     1
 10
0.0
 20
0.0
 30
0.0
  3
*D42
  1

  0
LINE
  5
24204
330
241C0
100
AcDbEntity
  8
寸法
 62
     0
 48
50.0
370
    -2
100
AcDbLine
 10
6318.437319446627
 20
1420.196729098972
 30
0.0
 11
6136.017005714168
 21
1420.196729098972
 31
0.0
  0
LINE
  5
24205
330
241C0
100
AcDbEntity
  8
寸法
 62
     0
 48
50.0
370
    -2
100
AcDbLine
 10
6238.437319446631
 20
1180.196729098972
 30
0.0
 11
6136.017005714168
 21
1180.196729098972
 31
0.0
  0
LINE
  5
24206
330
241C0
100
AcDbEntity
  8
寸法
 62
     0
 48
50.0
370
    -2
100
AcDbLine
 10
6196.017005714168
 20
1420.196729098972
 30
0.0
 11
6196.017005714168
 21
1180.196729098972
 31
0.0
  0
INSERT
  5
24207
330
241C0
100
AcDbEntity
  8
寸法
 62
     0
 48
50.0
370
    -2
100
AcDbBlockReference
  2
_DOTSMALL
 10
6196.017005714168
 20
1420.196729098972
 30
0.0
 41
100.0
 42
100.0
 43
100.0
 50
90.0
  0
INSERT
  5
24208
330
241C0
100
AcDbEntity
  8
寸法
 62
     0
 48
50.0
370
    -2
100
AcDbBlockReference
  2
_DOTSMALL
 10
6196.017005714168
 20
1180.196729098972
 30
0.0
 41
100.0
 42
100.0
 43
100.0
 50
270.0
  0
MTEXT
  5
24209
330
241C0
100
AcDbEntity
  8
寸法
 62
     7
 48
50.0
100
AcDbMText
 10
6096.017005714168
 20
1300.196729098973
 30
0.0
 40
120.0
 41
0.0
 71
     5
 72
     1
  1
\A1;150
  7
STYLE1
 11
0.0000000000000001
 21
1.0
 31
0.0
 73
     1
 44
1.0
1001
ACAD
1000
MTEXTBEGIN
1070
    73
1070
     1
1070
    44
1040
1.0
1070
    74
1070
     0
1000
MTEXTEND
  0
POINT
  5
2420A
330
241C0
100
AcDbEntity
  8
DEFPOINTS
 62
     0
 48
50.0
100
AcDbPoint
 10
6338.437319446627
 20
1420.196729098972
 30
0.0
  0
POINT
  5
2420B
330
241C0
100
AcDbEntity
  8
DEFPOINTS
 62
     0
 48
50.0
100
AcDbPoint
 10
6258.437319446631
 20
1180.196729098972
 30
0.0
  0
POINT
  5
2420C
330
241C0
100
AcDbEntity
  8
DEFPOINTS
 62
     0
 48
50.0
100
AcDbPoint
 10
6196.017005714168
 20
1180.196729098972
 30
0.0
  0
ENDBLK
  5
241CB
330
241C0
100
AcDbEntity
  8
0
 48
50.0
100
AcDbBlockEnd
  0
BLOCK
  5
241D8
330
241CC
100
AcDbEntity
  8
0
 48
50.0
100
AcDbBlockBegin
  2
*D43
 70
     1
 10
0.0
 20
0.0
 30
0.0
  3
*D43
  1

  0
LINE
  5
2420D
330
241CC
100
AcDbEntity
  8
寸法
 62
     0
 48
50.0
370
    -2
100
AcDbLine
 10
8413.276632623821
 20
2016.956729098974
 30
0.0
 11
9418.399898511692
 21
2016.956729098973
 31
0.0
  0
LINE
  5
2420E
330
241CC
100
AcDbEntity
  8
寸法
 62
     0
 48
50.0
370
    -2
100
AcDbLine
 10
8600.476632623822
 20
1964.196729098972
 30
0.0
 11
9418.399898511692
 21
1964.196729098972
 31
0.0
  0
LINE
  5
2420F
330
241CC
100
AcDbEntity
  8
寸法
 62
     0
 48
50.0
370
    -2
100
AcDbLine
 10
9358.399898511692
 20
2016.956729098973
 30
0.0
 11
9358.399898511692
 21
2116.956729098973
 31
0.0
  0
LINE
  5
24210
330
241CC
100
AcDbEntity
  8
寸法
 62
     0
 48
50.0
370
    -2
100
AcDbLine
 10
9358.399898511692
 20
1964.196729098972
 30
0.0
 11
9358.399898511692
 21
1232.178922256006
 31
0.0
  0
LINE
  5
24211
330
241CC
100
AcDbEntity
  8
寸法
 62
     0
 48
50.0
370
    -2
100
AcDbLine
 10
9358.399898511692
 20
2016.956729098973
 30
0.0
 11
9358.399898511692
 21
1964.196729098972
 31
0.0
  0
INSERT
  5
24212
330
241CC
100
AcDbEntity
  8
寸法
 62
     0
 48
50.0
370
    -2
100
AcDbBlockReference
  2
_DOTSMALL
 10
9358.399898511692
 20
2016.956729098973
 30
0.0
 41
100.0
 42
100.0
 43
100.0
 50
270.0
  0
INSERT
  5
24213
330
241CC
100
AcDbEntity
  8
寸法
 62
     0
 48
50.0
370
    -2
100
AcDbBlockReference
  2
_DOTSMALL
 10
9358.399898511692
 20
1964.196729098972
 30
0.0
 41
100.0
 42
100.0
 43
100.0
 50
90.0
  0
MTEXT
  5
24214
330
241CC
100
AcDbEntity
  8
寸法
 62
     7
 48
50.0
100
AcDbMText
 10
9258.38808748807
 20
1498.18782567749
 30
0.0
 40
120.0
 41
0.0
 71
     5
 72
     1
  1
\A1;20～25
  7
STYLE1
 11
0.0000000000000001
 21
1.0
 31
0.0
 73
     1
 44
1.0
1001
ACAD
1000
MTEXTBEGIN
1070
    73
1070
     1
1070
    44
1040
1.0
1070
    74
1070
     0
1000
MTEXTEND
  0
POINT
  5
24215
330
241CC
100
AcDbEntity
  8
DEFPOINTS
 62
     0
 48
50.0
100
AcDbPoint
 10
8393.276632623821
 20
2016.956729098974
 30
0.0
  0
POINT
  5
24216
330
241CC
100
AcDbEntity
  8
DEFPOINTS
 62
     0
 48
50.0
100
AcDbPoint
 10
8580.47663262382
 20
1964.196729098972
 30
0.0
  0
POINT
  5
24217
330
241CC
100
AcDbEntity
  8
DEFPOINTS
 62
     0
 48
50.0
100
AcDbPoint
 10
9358.399898511692
 20
1964.196729098972
 30
0.0
  0
ENDBLK
  5
241D9
330
241CC
100
AcDbEntity
  8
0
 48
50.0
100
AcDbBlockEnd
  0
BLOCK
  5
241E4
330
241DA
100
AcDbEntity
  8
0
 48
50.0
100
AcDbBlockBegin
  2
*D44
 70
     1
 10
0.0
 20
0.0
 30
0.0
  3
*D44
  1

  0
LINE
  5
24218
330
241DA
100
AcDbEntity
  8
寸法
 62
     0
 48
50.0
370
    -2
100
AcDbLine
 10
8600.476632623822
 20
1964.196729098972
 30
0.0
 11
9142.345232392665
 21
1964.196729098972
 31
0.0
  0
LINE
  5
24219
330
241DA
100
AcDbEntity
  8
寸法
 62
     0
 48
50.0
370
    -2
100
AcDbLine
 10
8600.476632623822
 20
1640.196729098971
 30
0.0
 11
9142.345232392665
 21
1640.196729098971
 31
0.0
  0
LINE
  5
2421A
330
241DA
100
AcDbEntity
  8
寸法
 62
     0
 48
50.0
370
    -2
100
AcDbLine
 10
9082.345232392665
 20
1964.196729098972
 30
0.0
 11
9082.345232392665
 21
1640.196729098971
 31
0.0
  0
INSERT
  5
2421B
330
241DA
100
AcDbEntity
  8
寸法
 62
     0
 48
50.0
370
    -2
100
AcDbBlockReference
  2
_DOTSMALL
 10
9082.345232392665
 20
1964.196729098972
 30
0.0
 41
100.0
 42
100.0
 43
100.0
 50
90.0
  0
INSERT
  5
2421C
330
241DA
100
AcDbEntity
  8
寸法
 62
     0
 48
50.0
370
    -2
100
AcDbBlockReference
  2
_DOTSMALL
 10
9082.345232392665
 20
1640.196729098971
 30
0.0
 41
100.0
 42
100.0
 43
100.0
 50
270.0
  0
MTEXT
  5
2421D
330
241DA
100
AcDbEntity
  8
寸法
 62
     7
 48
50.0
100
AcDbMText
 10
8982.345232392665
 20
1802.196729098973
 30
0.0
 40
120.0
 41
0.0
 71
     5
 72
     1
  1
\A1;180
  7
STYLE1
 11
0.0000000000000001
 21
1.0
 31
0.0
 73
     1
 44
1.0
1001
ACAD
1000
MTEXTBEGIN
1070
    73
1070
     1
1070
    44
1040
1.0
1070
    74
1070
     0
1000
MTEXTEND
  0
POINT
  5
2421E
330
241DA
100
AcDbEntity
  8
DEFPOINTS
 62
     0
 48
50.0
100
AcDbPoint
 10
8580.47663262382
 20
1964.196729098972
 30
0.0
  0
POINT
  5
2421F
330
241DA
100
AcDbEntity
  8
DEFPOINTS
 62
     0
 48
50.0
100
AcDbPoint
 10
8580.47663262382
 20
1640.196729098971
 30
0.0
  0
POINT
  5
24220
330
241DA
100
AcDbEntity
  8
DEFPOINTS
 62
     0
 48
50.0
100
AcDbPoint
 10
9082.345232392665
 20
1640.196729098971
 30
0.0
  0
ENDBLK
  5
241E5
330
241DA
100
AcDbEntity
  8
0
 48
50.0
100
AcDbBlockEnd
  0
BLOCK
  5
241F0
330
241E6
100
AcDbEntity
  8
0
 48
50.0
100
AcDbBlockBegin
  2
*D45
 70
     1
 10
0.0
 20
0.0
 30
0.0
  3
*D45
  1

  0
LINE
  5
24221
330
241E6
100
AcDbEntity
  8
寸法
 62
     0
 48
50.0
370
    -2
100
AcDbLine
 10
6658.437319446626
 20
1984.196729098972
 30
0.0
 11
6658.437319446626
 21
2443.864537015353
 31
0.0
  0
LINE
  5
24222
330
241E6
100
AcDbEntity
  8
寸法
 62
     0
 48
50.0
370
    -2
100
AcDbLine
 10
6466.437319446626
 20
1984.196729098972
 30
0.0
 11
6466.437319446626
 21
2443.864537015353
 31
0.0
  0
LINE
  5
24223
330
241E6
100
AcDbEntity
  8
寸法
 62
     0
 48
50.0
370
    -2
100
AcDbLine
 10
6658.437319446626
 20
2383.864537015353
 30
0.0
 11
6466.437319446626
 21
2383.864537015353
 31
0.0
  0
INSERT
  5
24224
330
241E6
100
AcDbEntity
  8
寸法
 62
     0
 48
50.0
370
    -2
100
AcDbBlockReference
  2
_DOTSMALL
 10
6658.437319446626
 20
2383.864537015353
 30
0.0
 41
100.0
 42
100.0
 43
100.0
  0
INSERT
  5
24225
330
241E6
100
AcDbEntity
  8
寸法
 62
     0
 48
50.0
370
    -2
100
AcDbBlockReference
  2
_DOTSMALL
 10
6466.437319446626
 20
2383.864537015353
 30
0.0
 41
100.0
 42
100.0
 43
100.0
 50
180.0
  0
MTEXT
  5
24226
330
241E6
100
AcDbEntity
  8
寸法
 62
     7
 48
50.0
100
AcDbMText
 10
6562.437319446627
 20
2683.899970086219
 30
0.0
 40
120.0
 41
0.0
 71
     5
 72
     1
  1
\A1;120\P200\P280
  7
STYLE1
 73
     1
 44
1.0
1001
ACAD
1000
MTEXTBEGIN
1070
    73
1070
     1
1070
    44
1040
1.0
1070
    74
1070
     0
1000
MTEXTEND
  0
POINT
  5
24227
330
241E6
100
AcDbEntity
  8
DEFPOINTS
 62
     0
 48
50.0
100
AcDbPoint
 10
6658.437319446626
 20
1964.196729098972
 30
0.0
  0
POINT
  5
24228
330
241E6
100
AcDbEntity
  8
DEFPOINTS
 62
     0
 48
50.0
100
AcDbPoint
 10
6466.437319446626
 20
1964.196729098972
 30
0.0
  0
POINT
  5
24229
330
241E6
100
AcDbEntity
  8
DEFPOINTS
 62
     0
 48
50.0
100
AcDbPoint
 10
6466.437319446626
 20
2383.864537015353
 30
0.0
  0
ENDBLK
  5
241F1
330
241E6
100
AcDbEntity
  8
0
 48
50.0
100
AcDbBlockEnd
  0
ENDSEC
  0
SECTION
  2
ENTITIES
  0
MTEXT
  5
763F
330
747D
100
AcDbEntity
  8
0
100
AcDbMText
 10
302.846345836809
 20
280.1983726409901
 30
0.0
 40
3.5
 41
5.323721266742722
 71
     1
 72
     5
  1

  7
MSMINCHO
 73
     1
 44
1.0
1001
ACAD
1000
MTEXTBEGIN
1070
    73
1070
     1
1070
    44
1040
1.0
1070
    74
1070
     0
1000
MTEXTEND
  0
LINE
  5
10B57
330
747D
100
AcDbEntity
  8
補助
  6
PHANTOM
 62
   230
 48
50.0
100
AcDbLine
 10
139.9999999999995
 20
11409.6
 30
0.0
 11
16307.2
 21
11409.6
 31
0.0
  0
LINE
  5
10B59
330
747D
100
AcDbEntity
  8
仕様書枠
  6
Continuous
 48
50.0
100
AcDbLine
 10
13107.2
 20
1200.0
 30
0.0
 11
13107.2
 21
-0.0000000000000729
 31
0.0
  0
LINE
  5
10B5D
330
747D
100
AcDbEntity
  8
仕様書枠
 48
50.0
100
AcDbLine
 10
140.0
 20
0.0
 30
0.0
 11
16307.2
 21
-0.0000000000000909
 31
0.0
  0
LINE
  5
10B5E
330
747D
100
AcDbEntity
  8
補助
  6
PHANTOM
 62
   230
 48
50.0
100
AcDbLine
 10
16307.2
 20
11409.6
 30
0.0
 11
16307.2
 21
1200.0
 31
0.0
  0
LINE
  5
10B6C
330
747D
100
AcDbEntity
  8
仕様書枠
 48
50.0
100
AcDbLine
 10
13107.2
 20
1200.0
 30
0.0
 11
16307.2
 21
1200.0
 31
0.0
  0
TEXT
  5
10B73
330
747D
100
AcDbEntity
  8
文字
 62
     7
 48
50.0
100
AcDbText
 10
13162.9790565769
 20
895.0906074299405
 30
0.0
 40
200.0
  1
基 礎 図
  7
STYLE2
100
AcDbText
  0
LINE
  5
10B7B
330
747D
100
AcDbEntity
  8
仕様書枠
 48
50.0
100
AcDbLine
 10
13107.2
 20
800.0
 30
0.0
 11
14251.2
 21
800.0
 31
0.0
  0
LINE
  5
10B88
330
747D
100
AcDbEntity
  8
仕様書枠
  6
Continuous
 48
50.0
100
AcDbLine
 10
14251.2
 20
1200.0
 30
0.0
 11
14251.2
 21
800.0
 31
0.0
  0
LINE
  5
16462
330
747D
100
AcDbEntity
  8
仕様書枠
 48
50.0
100
AcDbLine
 10
16307.2
 20
1200.0
 30
0.0
 11
16307.2
 21
-0.0000000000000909
 31
0.0
  0
LINE
  5
1903B
330
747D
100
AcDbEntity
  8
補助
  6
PHANTOM
 62
   230
 48
50.0
100
AcDbLine
 10
140.0
 20
0.0
 30
0.0
 11
139.9999999999995
 21
11409.6
 31
0.0
  0
LEADER
  5
1AC27
330
747D
100
AcDbEntity
  8
寸法
 48
50.0
100
AcDbLeader
  3
INABA_S50G
 73
     0
 74
     0
 75
     1
 40
120.0
 41
720.0000000000001
 76
     3
 10
9458.695499614997
 20
6779.626610494749
 30
0.0
 10
9615.469074001282
 20
6518.612696926917
 30
0.0
 10
9740.469074001282
 20
6518.612696926917
 30
0.0
340
1AC28
1001
ACAD
1000
DSTYLE
1002
{
1070
   341
1005
0
1070
    40
1040
1.0
1070
   343
1005
0
1070
   344
1005
0
1002
}
  0
MTEXT
  5
1AC28
102
{ACAD_REACTORS
330
1AC27
102
}
330
747D
100
AcDbEntity
  8
部品1
 62
     7
 48
50.0
100
AcDbMText
 10
10485.46907400128
 20
6603.612696926916
 30
0.0
 40
120.0
 41
0.0
 71
     6
 72
     1
  1
\A1;床下換気口
  7
STYLE1
 73
     1
 44
1.0
1001
ACAD
1000
MTEXTBEGIN
1070
    73
1070
     1
1070
    44
1040
1.0
1070
    74
1070
     0
1000
MTEXTEND
  0
TEXT
  5
1AC29
330
747D
100
AcDbEntity
  8
部品1
 48
50.0
100
AcDbText
 10
9807.430138461178
 20
5768.78923324797
 30
0.0
 40
80.0
  1
(a=45,b=55,c=75)
  7
STYLE1
100
AcDbText
  0
TEXT
  5
1AC2A
330
747D
100
AcDbEntity
  8
部品1
 48
50.0
100
AcDbText
 10
9648.851129706878
 20
5875.634454116724
 30
0.0
 40
80.0
  1
※a,b,cは屋根の出幅です。
  7
STYLE1
100
AcDbText
  0
MTEXT
  5
1AC2B
102
{ACAD_REACTORS
330
1AC2C
102
}
330
747D
100
AcDbEntity
  8
部品1
 62
     7
 48
50.0
100
AcDbMText
 10
10446.63832569548
 20
6054.945141049799
 30
0.0
 40
120.0
 41
0.0
 71
     6
 72
     1
  1
\A1;屋根の外寸
  7
STYLE1
 73
     1
 44
1.0
1001
ACAD
1000
MTEXTBEGIN
1070
    73
1070
     1
1070
    44
1040
1.0
1070
    74
1070
     0
1000
MTEXTEND
  0
LEADER
  5
1AC2C
330
747D
100
AcDbEntity
  8
寸法
 48
50.0
100
AcDbLeader
  3
INABA_S50G
 73
     0
 74
     0
 75
     1
 40
120.0
 41
672.0
 76
     3
 10
9508.69831350344
 20
6228.834484513374
 30
0.0
 10
9624.638325695482
 20
5969.945141049798
 30
0.0
 10
9749.638325695482
 20
5969.945141049798
 30
0.0
340
1AC2B
1001
ACAD
1000
DSTYLE
1002
{
1070
   341
1005
0
1070
    40
1040
1.0
1070
   343
1005
0
1070
   344
1005
0
1002
}
  0
TEXT
  5
1C7A1
330
747D
100
AcDbEntity
  8
文字
 62
     7
 48
50.0
100
AcDbText
 10
13188.16259899338
 20
79.80631269190417
 30
0.0
 40
80.0
  1
※布基礎には換気口を設けてください。
  7
STYLE2
100
AcDbText
  0
TEXT
  5
1C7E7
330
747D
100
AcDbEntity
  8
文字
 62
     7
 48
50.0
100
AcDbText
 10
13188.16259899338
 20
246.7109242801889
 30
0.0
 40
80.0
  1
※寒冷地等は地域の実情に合わせた基礎にして下さい。
  7
STYLE2
100
AcDbText
  0
TEXT
  5
1C7E8
330
747D
100
AcDbEntity
  8
文字
 62
     7
 48
50.0
100
AcDbText
 10
14325.79230300687
 20
499.5983841039506
 30
0.0
 40
160.0
  1
ＮＸＮ－１２ＤＬ－３
  7
STYLE2
100
AcDbText
  0
TEXT
  5
1C7EC
330
747D
100
AcDbEntity
  8
文字
 62
     7
 48
50.0
100
AcDbText
 10
14524.131837222
 20
1031.557706291229
 30
0.0
 40
100.0
  1
<縮尺> S=1/40
  7
STYLE2
100
AcDbText
  0
TEXT
  5
1C7ED
330
747D
100
AcDbEntity
  8
文字
 62
     7
 48
50.0
100
AcDbText
 10
13201.43669998441
 20
477.2740661031257
 30
0.0
 40
160.0
  1
機種名
  7
STYLE2
100
AcDbText
  0
LINE
  5
1C7EF
330
747D
100
AcDbEntity
  8
文字
 62
     7
 48
50.0
100
AcDbLine
 10
13187.2
 20
400.0
 30
0.0
 11
16227.2
 21
400.0
 31
0.0
  0
MTEXT
  5
1D2D5
102
{ACAD_REACTORS
330
1D2D6
102
}
330
747D
100
AcDbEntity
  8
部品1
 62
     7
 48
50.0
100
AcDbMText
 10
10653.99523070988
 20
7834.508584677448
 30
0.0
 40
120.0
 41
0.0
 71
     6
 72
     1
  1
アンカーボルト
  7
STYLE1
 73
     1
 44
1.0
1001
ACAD
1000
MTEXTBEGIN
1070
    73
1070
     1
1070
    44
1040
1.0
1070
    74
1070
     0
1000
MTEXTEND
  0
LEADER
  5
1D2D6
330
747D
100
AcDbEntity
  8
寸法
 48
50.0
100
AcDbLeader
  3
INABA_S50G
 73
     0
 74
     0
 75
     1
 40
120.0
 41
994.3492424049171
 76
     3
 10
9335.680085756999
 20
7396.10368479365
 30
0.0
 10
9509.645988304965
 20
7749.508584677447
 30
0.0
 10
9634.645988304965
 20
7749.508584677447
 30
0.0
340
1D2D5
1001
ACAD
1000
DSTYLE
1002
{
1070
   341
1005
0
1070
    40
1040
1.0
1070
   343
1005
0
1070
   344
1005
0
1002
}
  0
MTEXT
  5
1D332
102
{ACAD_REACTORS
330
1D333
102
}
330
747D
100
AcDbEntity
  8
部品1
 62
     7
 48
50.0
100
AcDbMText
 10
9148.828697015693
 20
6640.53154394725
 30
0.0
 40
120.0
 41
0.0
 71
     6
 72
     1
  1
CB
  7
STYLE1
 73
     1
 44
1.0
1001
ACAD
1000
MTEXTBEGIN
1070
    73
1070
     1
1070
    44
1040
1.0
1070
    74
1070
     0
1000
MTEXTEND
  0
LEADER
  5
1D333
330
747D
100
AcDbEntity
  8
寸法
 48
50.0
100
AcDbLeader
  3
INABA_S50G
 73
     0
 74
     0
 75
     1
 40
120.0
 41
149.591883092037
 76
     3
 10
8721.954011061013
 20
6778.249857502075
 30
0.0
 10
8849.236813923658
 20
6555.53154394725
 30
0.0
 10
8974.236813923658
 20
6555.53154394725
 30
0.0
340
1D332
1001
ACAD
1000
DSTYLE
1002
{
1070
   341
1005
0
1070
    40
1040
1.0
1070
   343
1005
0
1070
   344
1005
0
1002
}
  0
DIMENSION
  5
20DE1
330
747D
100
AcDbEntity
  8
寸法
 48
50.0
100
AcDbDimension
  2
*D19
 10
9503.6
 20
8477.116162493858
 30
0.0
 11
9774.77462120246
 21
8477.116162493858
 31
0.0
 70
   160
  1
a
 71
     5
 42
45.0
  3
INABA_S40G
100
AcDbAlignedDimension
 13
9458.6
 23
7518.895840434935
 33
0.0
 14
9503.6
 24
8245.162298528844
 34
0.0
100
AcDbRotatedDimension
1001
ACAD
1000
DSTYLE
1002
{
1070
   341
1005
0
1002
}
  0
DIMENSION
  5
20DFB
330
747D
100
AcDbEntity
  8
寸法
 48
50.0
100
AcDbDimension
  2
*D20
 10
6988.599999999997
 20
8477.116162493858
 30
0.0
 11
6672.425378797537
 21
8477.116162493858
 31
0.0
 70
   160
  1
a
 71
     5
 42
44.99999999999636
  3
INABA_S40G
100
AcDbAlignedDimension
 13
6943.6
 23
8245.16229852885
 33
0.0
 14
6988.599999999997
 24
7518.895840434936
 34
0.0
100
AcDbRotatedDimension
1001
ACAD
1000
DSTYLE
1002
{
1070
   341
1005
0
1002
}
  0
LINE
  5
22711
330
747D
100
AcDbEntity
  8
想像線
 48
10.0
100
AcDbLine
 10
9503.6
 20
7593.895840434942
 30
0.0
 11
6943.599999999996
 21
7593.895840434946
 31
0.0
  0
LINE
  5
22712
330
747D
100
AcDbEntity
  8
想像線
 48
10.0
100
AcDbLine
 10
6943.599999999993
 20
5923.895840434952
 30
0.0
 11
6943.599999999996
 21
7593.895840434945
 31
0.0
  0
LINE
  5
22713
330
747D
100
AcDbEntity
  8
想像線
 48
10.0
100
AcDbLine
 10
9503.6
 20
5923.895840434956
 30
0.0
 11
9503.6
 21
7593.895840434942
 31
0.0
  0
LINE
  5
22714
330
747D
100
AcDbEntity
  8
想像線
 48
10.0
100
AcDbLine
 10
9503.6
 20
5923.895840434956
 30
0.0
 11
6943.599999999993
 21
5923.89584043495
 31
0.0
  0
DIMENSION
  5
22741
330
747D
100
AcDbEntity
  8
寸法
 48
50.0
100
AcDbDimension
  2
*D21
 10
6113.721909610671
 20
7518.895840434938
 30
0.0
 11
6013.721909610669
 21
7556.395840434942
 31
0.0
 70
    32
  1
c
 71
     5
 42
75.00000000000636
  3
INABA_S40G
100
AcDbAlignedDimension
 13
6365.665006330067
 23
7593.895840434943
 33
0.0
 14
6988.599999999997
 24
7518.895840434936
 34
0.0
 50
90.0
100
AcDbRotatedDimension
1001
ACAD
1000
DSTYLE
1002
{
1070
   341
1005
0
1002
}
  0
DIMENSION
  5
2275B
330
747D
100
AcDbEntity
  8
寸法
 48
50.0
100
AcDbDimension
  2
*D22
 10
6113.721909610671
 20
5923.895840434962
 30
0.0
 11
6013.721909610669
 21
5951.395840434951
 31
0.0
 70
    32
  1
b
 71
     5
 42
54.99999999997453
  3
INABA_S40G
100
AcDbAlignedDimension
 13
6988.599999999997
 23
5978.895840434936
 33
0.0
 14
6365.665006330068
 24
5923.895840434962
 34
0.0
 50
90.0
100
AcDbRotatedDimension
1001
ACAD
1000
DSTYLE
1002
{
1070
   341
1005
0
1002
}
  0
LINE
  5
2399F
330
747D
100
AcDbEntity
  8
部品1
 48
50.0
100
AcDbLine
 10
9338.600000000001
 20
7318.895840434939
 30
0.0
 11
7108.599999999999
 21
7318.895840434939
 31
0.0
  0
LINE
  5
239A2
330
747D
100
AcDbEntity
  8
部品1
 48
50.0
100
AcDbLine
 10
9458.6
 20
7518.895840434939
 30
0.0
 11
6988.600000000001
 21
7518.895840434939
 31
0.0
  0
DIMENSION
  5
239A3
330
747D
100
AcDbEntity
  8
寸法
 48
50.0
100
AcDbDimension
  2
*D23
 10
8633.600000000008
 20
8001.504657105188
 30
0.0
 11
8223.600000000008
 21
8101.51646812881
 31
0.0
 70
    32
 71
     5
 42
820.0
  3
INABA_S40G
100
AcDbAlignedDimension
 13
7813.600000000008
 23
6885.895840434939
 33
0.0
 14
8633.600000000008
 24
6835.89584043494
 34
0.0
100
AcDbRotatedDimension
1001
ACAD
1000
DSTYLE
1002
{
1070
   341
1005
0
1002
}
  0
DIMENSION
  5
239A4
330
747D
100
AcDbEntity
  8
寸法
 48
50.0
100
AcDbDimension
  2
*D24
 10
7111.6
 20
8245.162298528851
 30
0.0
 11
8223.600000000001
 21
8345.174109552472
 31
0.0
 70
    32
 71
     5
 42
2224.0
  3
INABA_S40G
100
AcDbAlignedDimension
 13
9335.600000000001
 23
7445.89584043494
 33
0.0
 14
7111.6
 24
7445.89584043494
 34
0.0
100
AcDbRotatedDimension
1001
ACAD
1000
DSTYLE
1002
{
1070
   341
1005
0
1002
}
  0
DIMENSION
  5
239A5
330
747D
100
AcDbEntity
  8
寸法
 48
50.0
100
AcDbDimension
  2
*D25
 10
9458.6
 20
8477.116162493858
 30
0.0
 11
8223.600000000001
 21
8577.12797351748
 31
0.0
 70
    32
 71
     5
 42
2470.0
  3
INABA_S40G
100
AcDbAlignedDimension
 13
6988.600000000001
 23
7518.895840434939
 33
0.0
 14
9458.6
 24
7518.895840434939
 34
0.0
100
AcDbRotatedDimension
1001
ACAD
1000
DSTYLE
1002
{
1070
   341
1005
0
1002
}
  0
LINE
  5
239A7
330
747D
100
AcDbEntity
  8
部品1
 48
50.0
100
AcDbLine
 10
9458.6
 20
5978.895840434958
 30
0.0
 11
6988.599999999997
 21
5978.895840434936
 31
0.0
  0
DIMENSION
  5
239A9
330
747D
100
AcDbEntity
  8
寸法
 48
50.0
100
AcDbDimension
  2
*D26
 10
7471.285990614302
 20
7518.895840434939
 30
0.0
 11
7471.285990614301
 21
7078.490631129117
 31
0.0
 70
   160
 71
     5
 42
733.0
  3
INABA_S40G
100
AcDbAlignedDimension
 13
7713.600000000008
 23
6785.895840434939
 33
0.0
 14
7562.765475140901
 24
7518.895840434939
 34
0.0
 50
90.0
100
AcDbRotatedDimension
1001
ACAD
1000
DSTYLE
1002
{
1070
   341
1005
0
1002
}
  0
DIMENSION
  5
239AA
330
747D
100
AcDbEntity
  8
寸法
 48
50.0
100
AcDbDimension
  2
*D27
 10
6988.600000000001
 20
8001.504657105188
 30
0.0
 11
7401.100000000004
 21
8101.51646812881
 31
0.0
 70
    32
 71
     5
 42
825.0000000000072
  3
INABA_S40G
100
AcDbAlignedDimension
 13
7813.600000000008
 23
6885.895840434939
 33
0.0
 14
6988.600000000001
 24
7518.895840434939
 34
0.0
100
AcDbRotatedDimension
1001
ACAD
1000
DSTYLE
1002
{
1070
   341
1005
0
1002
}
  0
LINE
  5
239AC
330
747D
100
AcDbEntity
  8
部品1
 48
50.0
100
AcDbLine
 10
6988.600000000001
 20
5978.895840434939
 30
0.0
 11
6988.600000000001
 21
7518.895840434939
 31
0.0
  0
DIMENSION
  5
239AE
330
747D
100
AcDbEntity
  8
寸法
 48
50.0
100
AcDbDimension
  2
*D28
 10
6113.721909610674
 20
5978.89584043494
 30
0.0
 11
6113.721909610672
 21
6786.39584043494
 31
0.0
 70
   160
 71
     5
 42
1540.0
  3
INABA_S40G
100
AcDbAlignedDimension
 13
6988.600000000001
 23
7518.895840434939
 33
0.0
 14
6988.600000000001
 24
5978.895840434939
 34
0.0
 50
90.0
100
AcDbRotatedDimension
1001
ACAD
1000
DSTYLE
1002
{
1070
   341
1005
0
1002
}
  0
DIMENSION
  5
239AF
330
747D
100
AcDbEntity
  8
寸法
 48
50.0
100
AcDbDimension
  2
*D29
 10
6365.665006330073
 20
6176.895840434943
 30
0.0
 11
6365.665006330072
 21
6786.39584043494
 31
0.0
 70
   160
 71
     5
 42
1218.999999999996
  3
INABA_S40G
100
AcDbAlignedDimension
 13
7061.6
 23
7395.89584043494
 33
0.0
 14
7061.600000000009
 24
6176.895840434943
 34
0.0
 50
90.0
100
AcDbRotatedDimension
1001
ACAD
1000
DSTYLE
1002
{
1070
   341
1005
0
1002
}
  0
DIMENSION
  5
239B0
330
747D
100
AcDbEntity
  8
寸法
 48
50.0
100
AcDbDimension
  2
*D30
 10
6365.665006330072
 20
5978.895840434939
 30
0.0
 11
6365.665006330072
 21
5643.364891592348
 31
0.0
 70
   160
 71
     5
 42
198.0000000000036
  3
INABA_S40G
100
AcDbAlignedDimension
 13
7061.600000000009
 23
6176.895840434943
 33
0.0
 14
6988.600000000001
 24
5978.895840434939
 34
0.0
 50
90.0
100
AcDbRotatedDimension
1001
ACAD
1000
DSTYLE
1002
{
1070
   341
1005
0
1002
}
  0
DIMENSION
  5
239B2
330
747D
100
AcDbEntity
  8
寸法
 48
50.0
100
AcDbDimension
  2
*D31
 10
6875.512673767878
 20
5258.895840434936
 30
0.0
 11
6875.512673767876
 21
5618.895840434937
 31
0.0
 70
   160
  1
扉の出<>
 71
     5
 42
720.0
  3
INABA_S40G
100
AcDbAlignedDimension
 13
6988.600000000001
 23
5978.895840434936
 33
0.0
 14
7344.325326928805
 24
5258.895840434936
 34
0.0
 50
90.0
100
AcDbRotatedDimension
1001
ACAD
1000
DSTYLE
1002
{
1070
   341
1005
0
1002
}
  0
ARC
  5
239B3
330
747D
100
AcDbEntity
  8
想像線
 48
5.0
100
AcDbCircle
 10
7758.6
 20
5978.895840434925
 30
0.0
 40
720.0
100
AcDbArc
 50
180.0
 51
270.0
  0
LINE
  5
239B4
330
747D
100
AcDbEntity
  8
想像線
 48
5.0
100
AcDbLine
 10
7758.6
 20
5978.895840434936
 30
0.0
 11
7758.6
 21
5258.895840434925
 31
0.0
  0
DIMENSION
  5
239B5
330
747D
100
AcDbEntity
  8
寸法
 48
50.0
100
AcDbDimension
  2
*D32
 10
7471.285990614302
 20
6785.895840434939
 30
0.0
 11
7471.285990614301
 21
6463.89584043494
 31
0.0
 70
   160
 71
     5
 42
806.999999999989
  3
INABA_S40G
100
AcDbAlignedDimension
 13
7562.765475140901
 23
5978.895840434951
 33
0.0
 14
7713.600000000008
 24
6785.895840434939
 34
0.0
 50
90.0
100
AcDbRotatedDimension
1001
ACAD
1000
DSTYLE
1002
{
1070
   341
1005
0
1002
}
  0
CIRCLE
  5
239B6
330
747D
100
AcDbEntity
  8
部品1
 48
50.0
100
AcDbCircle
 10
7111.599999999993
 20
6176.895840434943
 30
0.0
 40
35.0
  0
LINE
  5
239B7
330
747D
100
AcDbEntity
  8
センター
 48
2.0
100
AcDbLine
 10
7111.600000000009
 20
6226.895840434943
 30
0.0
 11
7111.600000000009
 21
6126.895840434944
 31
0.0
  0
LINE
  5
239B8
330
747D
100
AcDbEntity
  8
センター
 48
2.0
100
AcDbLine
 10
7061.600000000009
 20
6176.895840434943
 30
0.0
 11
7161.600000000008
 21
6176.895840434943
 31
0.0
  0
LINE
  5
239B9
330
747D
100
AcDbEntity
  8
細線
 48
50.0
100
AcDbLine
 10
7394.503084343789
 20
5978.895840434952
 30
0.0
 11
7503.600000000023
 21
6087.992756091185
 31
0.0
  0
LINE
  5
239BA
330
747D
100
AcDbEntity
  8
細線
 48
50.0
100
AcDbLine
 10
7439.404364949138
 20
5978.895840434955
 30
0.0
 11
7503.600000000024
 21
6043.091475485842
 31
0.0
  0
LINE
  5
239BB
330
747D
100
AcDbEntity
  8
細線
 48
50.0
100
AcDbLine
 10
7349.601803738441
 20
5978.895840434952
 30
0.0
 11
7503.600000000023
 21
6132.894036696534
 31
0.0
  0
LINE
  5
239BC
330
747D
100
AcDbEntity
  8
部品1
 48
50.0
100
AcDbLine
 10
7303.600000000017
 20
6258.895840434939
 30
0.0
 11
7303.600000000024
 21
5978.895840434951
 31
0.0
  0
LINE
  5
239BD
330
747D
100
AcDbEntity
  8
部品1
 48
50.0
100
AcDbLine
 10
7503.600000000017
 20
6258.895840434942
 30
0.0
 11
7503.600000000024
 21
5978.895840434955
 31
0.0
  0
LINE
  5
239BE
330
747D
100
AcDbEntity
  8
細線
 48
50.0
100
AcDbLine
 10
7303.600000000024
 20
6022.696597907224
 30
0.0
 11
7503.600000000019
 21
6222.696597907217
 31
0.0
  0
LINE
  5
239BF
330
747D
100
AcDbEntity
  8
細線
 48
50.0
100
AcDbLine
 10
7304.700523133097
 20
5978.895840434951
 30
0.0
 11
7503.60000000002
 21
6177.795317301878
 31
0.0
  0
LINE
  5
239C0
330
747D
100
AcDbEntity
  8
細線
 48
50.0
100
AcDbLine
 10
7484.305645554482
 20
5978.895840434955
 30
0.0
 11
7503.600000000026
 21
5998.190194880497
 31
0.0
  0
LINE
  5
239C1
330
747D
100
AcDbEntity
  8
細線
 48
50.0
100
AcDbLine
 10
7303.600000000023
 20
6112.499159117913
 30
0.0
 11
7449.996681317031
 21
6258.895840434941
 31
0.0
  0
LINE
  5
239C2
330
747D
100
AcDbEntity
  8
細線
 48
50.0
100
AcDbLine
 10
7303.600000000023
 20
6067.59787851257
 30
0.0
 11
7494.897961922396
 21
6258.89584043494
 31
0.0
  0
LINE
  5
239C3
330
747D
100
AcDbEntity
  8
細線
 48
50.0
100
AcDbLine
 10
7303.60000000002
 20
6202.301720328614
 30
0.0
 11
7360.194120106334
 21
6258.89584043494
 31
0.0
  0
LINE
  5
239C4
330
747D
100
AcDbEntity
  8
細線
 48
50.0
100
AcDbLine
 10
7303.60000000002
 20
6157.400439723268
 30
0.0
 11
7405.0954007117
 21
6258.895840434941
 31
0.0
  0
LINE
  5
239C5
330
747D
100
AcDbEntity
  8
細線
 48
50.0
100
AcDbLine
 10
6991.280033447562
 20
6673.895840434957
 30
0.0
 11
7108.6
 21
6791.215806987392
 31
0.0
  0
LINE
  5
239C6
330
747D
100
AcDbEntity
  8
細線
 48
50.0
100
AcDbLine
 10
6988.600000000001
 20
6716.117087592742
 30
0.0
 11
7108.599999999999
 21
6836.117087592739
 31
0.0
  0
LINE
  5
239C7
330
747D
100
AcDbEntity
  8
細線
 48
50.0
100
AcDbLine
 10
6988.600000000001
 20
6761.018368198087
 30
0.0
 11
7101.477472236872
 21
6873.895840434958
 31
0.0
  0
LINE
  5
239C8
330
747D
100
AcDbEntity
  8
細線
 48
50.0
100
AcDbLine
 10
6988.600000000002
 20
6805.919648803435
 30
0.0
 11
7056.576191631524
 21
6873.895840434956
 31
0.0
  0
LINE
  5
239C9
330
747D
100
AcDbEntity
  8
細線
 48
50.0
100
AcDbLine
 10
6988.600000000001
 20
6850.820929408779
 30
0.0
 11
7011.67491102618
 21
6873.895840434958
 31
0.0
  0
LINE
  5
239CA
330
747D
100
AcDbEntity
  8
部品1
 48
50.0
100
AcDbLine
 10
7108.6
 20
6873.895840434959
 30
0.0
 11
6988.600000000001
 21
6873.895840434958
 31
0.0
  0
LINE
  5
239CB
330
747D
100
AcDbEntity
  8
部品1
 48
50.0
100
AcDbLine
 10
7108.6
 20
6673.89584043496
 30
0.0
 11
6988.600000000001
 21
6673.895840434957
 31
0.0
  0
LINE
  5
239CC
330
747D
100
AcDbEntity
  8
細線
 48
50.0
100
AcDbLine
 10
7081.082594658252
 20
6673.895840434955
 30
0.0
 11
7108.599999999999
 21
6701.4132457767
 31
0.0
  0
LINE
  5
239CD
330
747D
100
AcDbEntity
  8
細線
 48
50.0
100
AcDbLine
 10
7036.181314052908
 20
6673.895840434957
 30
0.0
 11
7108.599999999999
 21
6746.314526382048
 31
0.0
  0
TEXT
  5
239CE
330
747D
100
AcDbEntity
  8
寸法
 48
50.0
100
AcDbText
 10
7792.42086271499
 20
5997.577131227678
 30
0.0
 40
120.0
  1
扉面
  7
STYLE1
100
AcDbText
  0
LINE
  5
239DB
330
747D
100
AcDbEntity
  8
部品1
 48
50.0
100
AcDbLine
 10
7913.600000000008
 20
6685.895840434939
 30
0.0
 11
7713.600000000008
 21
6685.895840434939
 31
0.0
  0
LINE
  5
239DC
330
747D
100
AcDbEntity
  8
センター
 48
2.0
100
AcDbLine
 10
7763.600000000008
 20
6785.895840434939
 30
0.0
 11
7863.600000000008
 21
6785.895840434939
 31
0.0
  0
LINE
  5
239DD
330
747D
100
AcDbEntity
  8
部品1
 48
50.0
100
AcDbLine
 10
7913.600000000008
 20
6885.895840434939
 30
0.0
 11
7713.600000000008
 21
6885.895840434939
 31
0.0
  0
LINE
  5
239DE
330
747D
100
AcDbEntity
  8
センター
 48
2.0
100
AcDbLine
 10
7813.600000000008
 20
6835.89584043494
 30
0.0
 11
7813.600000000008
 21
6735.895840434939
 31
0.0
  0
LINE
  5
239DF
330
747D
100
AcDbEntity
  8
部品1
 48
50.0
100
AcDbLine
 10
7713.600000000008
 20
6685.895840434939
 30
0.0
 11
7713.600000000008
 21
6885.895840434939
 31
0.0
  0
LINE
  5
239E0
330
747D
100
AcDbEntity
  8
部品1
 48
50.0
100
AcDbLine
 10
7913.600000000008
 20
6685.895840434939
 30
0.0
 11
7913.600000000008
 21
6885.895840434939
 31
0.0
  0
DIMENSION
  5
239E1
330
747D
100
AcDbEntity
  8
寸法
 48
50.0
100
AcDbDimension
  2
*D33
 10
6365.665006330072
 20
7395.89584043494
 30
0.0
 11
6365.665006330072
 21
7792.00244215274
 31
0.0
 70
   160
 71
     5
 42
123.0
  3
INABA_S40G
100
AcDbAlignedDimension
 13
6988.600000000001
 23
7518.895840434939
 33
0.0
 14
7061.6
 24
7395.89584043494
 34
0.0
 50
90.0
100
AcDbRotatedDimension
1001
ACAD
1000
DSTYLE
1002
{
1070
   341
1005
0
1002
}
  0
DIMENSION
  5
239E3
330
747D
100
AcDbEntity
  8
寸法
 48
50.0
100
AcDbDimension
  2
*D34
 10
6988.600000000001
 20
8245.162298528851
 30
0.0
 11
6715.4933982822
 21
8245.162298528851
 31
0.0
 70
   160
 71
     5
 42
123.0
  3
INABA_S40G
100
AcDbAlignedDimension
 13
7111.6
 23
7445.89584043494
 33
0.0
 14
6988.600000000001
 24
7518.895840434939
 34
0.0
100
AcDbRotatedDimension
1001
ACAD
1000
DSTYLE
1002
{
1070
   341
1005
0
1002
}
  0
LINE
  5
239E5
330
747D
100
AcDbEntity
  8
部品1
 48
50.0
100
AcDbLine
 10
7503.600000000005
 20
7518.895840434939
 30
0.0
 11
7503.60000000001
 21
7318.895840434944
 31
0.0
  0
LINE
  5
239E6
330
747D
100
AcDbEntity
  8
部品1
 48
50.0
100
AcDbLine
 10
7303.600000000006
 20
7518.895840434939
 30
0.0
 11
7303.60000000001
 21
7318.895840434945
 31
0.0
  0
LINE
  5
239E7
330
747D
100
AcDbEntity
  8
細線
 48
50.0
100
AcDbLine
 10
7303.600000000006
 20
7455.820929408782
 30
0.0
 11
7366.674911026166
 21
7518.895840434942
 31
0.0
  0
LINE
  5
239E8
330
747D
100
AcDbEntity
  8
細線
 48
50.0
100
AcDbLine
 10
7303.60000000001
 20
7321.117087592748
 30
0.0
 11
7501.378752842204
 21
7518.895840434939
 31
0.0
  0
LINE
  5
239E9
330
747D
100
AcDbEntity
  8
細線
 48
50.0
100
AcDbLine
 10
7303.60000000001
 20
7366.018368198097
 30
0.0
 11
7456.477472236857
 21
7518.895840434939
 31
0.0
  0
LINE
  5
239EA
330
747D
100
AcDbEntity
  8
細線
 48
50.0
100
AcDbLine
 10
7303.600000000007
 20
7410.919648803434
 30
0.0
 11
7411.576191631512
 21
7518.895840434939
 31
0.0
  0
CIRCLE
  5
239EB
330
747D
100
AcDbEntity
  8
部品1
 48
50.0
100
AcDbCircle
 10
7111.6
 20
7395.89584043494
 30
0.0
 40
35.0
  0
LINE
  5
239EC
330
747D
100
AcDbEntity
  8
センター
 48
2.0
100
AcDbLine
 10
7111.6
 20
7445.89584043494
 30
0.0
 11
7111.6
 21
7345.89584043494
 31
0.0
  0
LINE
  5
239ED
330
747D
100
AcDbEntity
  8
センター
 48
2.0
100
AcDbLine
 10
7061.6
 20
7395.89584043494
 30
0.0
 11
7161.599999999999
 21
7395.89584043494
 31
0.0
  0
LINE
  5
239EE
330
747D
100
AcDbEntity
  8
細線
 48
50.0
100
AcDbLine
 10
7391.181314052912
 20
7318.895840434942
 30
0.0
 11
7503.600000000005
 21
7431.314526382052
 31
0.0
  0
LINE
  5
239EF
330
747D
100
AcDbEntity
  8
細線
 48
50.0
100
AcDbLine
 10
7346.280033447547
 20
7318.895840434945
 30
0.0
 11
7503.600000000005
 21
7476.215806987396
 31
0.0
  0
LINE
  5
239F0
330
747D
100
AcDbEntity
  8
細線
 48
50.0
100
AcDbLine
 10
7480.983875263608
 20
7318.895840434944
 30
0.0
 11
7503.60000000001
 21
7341.511965171346
 31
0.0
  0
LINE
  5
239F1
330
747D
100
AcDbEntity
  8
細線
 48
50.0
100
AcDbLine
 10
7436.082594658249
 20
7318.895840434944
 30
0.0
 11
7503.60000000001
 21
7386.413245776701
 31
0.0
  0
LINE
  5
239F2
330
747D
100
AcDbEntity
  8
細線
 48
50.0
100
AcDbLine
 10
7303.600000000006
 20
7500.722210014126
 30
0.0
 11
7321.773630420821
 21
7518.895840434939
 31
0.0
  0
LINE
  5
239F3
330
747D
100
AcDbEntity
  8
部品1
 48
50.0
100
AcDbLine
 10
8323.600000000006
 20
7518.895840434939
 30
0.0
 11
8323.600000000009
 21
7318.895840434944
 31
0.0
  0
LINE
  5
239F4
330
747D
100
AcDbEntity
  8
部品1
 48
50.0
100
AcDbLine
 10
8123.600000000006
 20
7518.895840434939
 30
0.0
 11
8123.600000000008
 21
7318.895840434945
 31
0.0
  0
LINE
  5
239F5
330
747D
100
AcDbEntity
  8
細線
 48
50.0
100
AcDbLine
 10
8123.600000000008
 20
7410.919648803434
 30
0.0
 11
8231.576191631511
 21
7518.895840434939
 31
0.0
  0
LINE
  5
239F6
330
747D
100
AcDbEntity
  8
細線
 48
50.0
100
AcDbLine
 10
8123.600000000008
 20
7366.018368198097
 30
0.0
 11
8276.477472236857
 21
7518.895840434939
 31
0.0
  0
LINE
  5
239F7
330
747D
100
AcDbEntity
  8
細線
 48
50.0
100
AcDbLine
 10
8123.600000000008
 20
7321.117087592748
 30
0.0
 11
8321.378752842203
 21
7518.895840434939
 31
0.0
  0
LINE
  5
239F8
330
747D
100
AcDbEntity
  8
細線
 48
50.0
100
AcDbLine
 10
8123.600000000006
 20
7455.820929408782
 30
0.0
 11
8186.674911026166
 21
7518.895840434942
 31
0.0
  0
LINE
  5
239F9
330
747D
100
AcDbEntity
  8
細線
 48
50.0
100
AcDbLine
 10
8166.280033447547
 20
7318.895840434945
 30
0.0
 11
8323.600000000006
 21
7476.215806987396
 31
0.0
  0
LINE
  5
239FA
330
747D
100
AcDbEntity
  8
細線
 48
50.0
100
AcDbLine
 10
8211.181314052913
 20
7318.895840434942
 30
0.0
 11
8323.600000000006
 21
7431.314526382052
 31
0.0
  0
LINE
  5
239FB
330
747D
100
AcDbEntity
  8
細線
 48
50.0
100
AcDbLine
 10
8256.08259465825
 20
7318.895840434944
 30
0.0
 11
8323.600000000009
 21
7386.413245776701
 31
0.0
  0
LINE
  5
239FC
330
747D
100
AcDbEntity
  8
細線
 48
50.0
100
AcDbLine
 10
8300.983875263609
 20
7318.895840434944
 30
0.0
 11
8323.600000000009
 21
7341.511965171346
 31
0.0
  0
LINE
  5
239FD
330
747D
100
AcDbEntity
  8
細線
 48
50.0
100
AcDbLine
 10
8123.600000000006
 20
7500.722210014126
 30
0.0
 11
8141.773630420821
 21
7518.895840434939
 31
0.0
  0
DIMENSION
  5
239FE
330
747D
100
AcDbEntity
  8
寸法
 48
50.0
100
AcDbDimension
  2
*D35
 10
8633.600000000008
 20
8001.504657105188
 30
0.0
 11
9046.100000000004
 21
8101.51646812881
 31
0.0
 70
    32
 71
     5
 42
824.9999999999927
  3
INABA_S40G
100
AcDbAlignedDimension
 13
9458.6
 23
7518.895840434939
 33
0.0
 14
8633.600000000008
 24
6835.89584043494
 34
0.0
100
AcDbRotatedDimension
1001
ACAD
1000
DSTYLE
1002
{
1070
   341
1005
0
1002
}
  0
LINE
  5
23A00
330
747D
100
AcDbEntity
  8
部品1
 48
50.0
100
AcDbLine
 10
9458.6
 20
5978.895840434958
 30
0.0
 11
9458.6
 21
7518.895840434939
 31
0.0
  0
DIMENSION
  5
23A08
330
747D
100
AcDbEntity
  8
寸法
 48
50.0
100
AcDbDimension
  2
*D36
 10
9009.819725318584
 20
5978.895840434951
 30
0.0
 11
9009.819725318582
 21
5691.932257757786
 31
0.0
 70
   160
 71
     5
 42
280.0000000000036
  3
INABA_S40G
100
AcDbAlignedDimension
 13
9089.996681317044
 23
6258.895840434954
 33
0.0
 14
8831.419106515957
 24
5978.895840434951
 34
0.0
 50
90.0
100
AcDbRotatedDimension
1001
ACAD
1000
DSTYLE
1002
{
1070
   341
1005
0
1002
}
  0
LINE
  5
23A15
330
747D
100
AcDbEntity
  8
部品1
 48
50.0
100
AcDbLine
 10
8733.600000000008
 20
6685.895840434939
 30
0.0
 11
8533.600000000008
 21
6685.895840434939
 31
0.0
  0
LINE
  5
23A16
330
747D
100
AcDbEntity
  8
部品1
 48
50.0
100
AcDbLine
 10
8733.600000000008
 20
6885.895840434939
 30
0.0
 11
8533.600000000008
 21
6885.895840434939
 31
0.0
  0
LINE
  5
23A17
330
747D
100
AcDbEntity
  8
センター
 48
2.0
100
AcDbLine
 10
8583.600000000009
 20
6785.895840434939
 30
0.0
 11
8683.600000000009
 21
6785.895840434939
 31
0.0
  0
LINE
  5
23A18
330
747D
100
AcDbEntity
  8
センター
 48
2.0
100
AcDbLine
 10
8633.600000000008
 20
6835.89584043494
 30
0.0
 11
8633.600000000008
 21
6735.895840434939
 31
0.0
  0
LINE
  5
23A19
330
747D
100
AcDbEntity
  8
部品1
 48
50.0
100
AcDbLine
 10
8533.600000000008
 20
6685.895840434939
 30
0.0
 11
8533.600000000008
 21
6885.895840434939
 31
0.0
  0
LINE
  5
23A1A
330
747D
100
AcDbEntity
  8
部品1
 48
50.0
100
AcDbLine
 10
8733.600000000008
 20
6685.895840434939
 30
0.0
 11
8733.600000000008
 21
6885.895840434939
 31
0.0
  0
LINE
  5
23A1B
330
747D
100
AcDbEntity
  8
センター
 48
2.0
100
AcDbLine
 10
9335.600000000008
 20
6226.895840434943
 30
0.0
 11
9335.600000000008
 21
6126.895840434944
 31
0.0
  0
LINE
  5
23A1C
330
747D
100
AcDbEntity
  8
センター
 48
2.0
100
AcDbLine
 10
9285.600000000007
 20
6176.895840434943
 30
0.0
 11
9385.600000000009
 21
6176.895840434943
 31
0.0
  0
CIRCLE
  5
23A1D
330
747D
100
AcDbEntity
  8
部品1
 48
50.0
100
AcDbCircle
 10
9335.600000000008
 20
6176.895840434943
 30
0.0
 40
35.0
  0
LINE
  5
23A1E
330
747D
100
AcDbEntity
  8
細線
 48
50.0
100
AcDbLine
 10
9451.082594658251
 20
6673.895840434962
 30
0.0
 11
9458.599999999998
 21
6681.413245776709
 31
0.0
  0
LINE
  5
23A1F
330
747D
100
AcDbEntity
  8
細線
 48
50.0
100
AcDbLine
 10
9406.181314052906
 20
6673.895840434963
 30
0.0
 11
9458.599999999997
 21
6726.314526382053
 31
0.0
  0
LINE
  5
23A20
330
747D
100
AcDbEntity
  8
細線
 48
50.0
100
AcDbLine
 10
9361.280033447561
 20
6673.895840434963
 30
0.0
 11
9458.599999999997
 21
6771.215806987401
 31
0.0
  0
LINE
  5
23A21
330
747D
100
AcDbEntity
  8
細線
 48
50.0
100
AcDbLine
 10
9338.599999999997
 20
6696.117087592748
 30
0.0
 11
9458.599999999998
 21
6816.117087592745
 31
0.0
  0
LINE
  5
23A22
330
747D
100
AcDbEntity
  8
細線
 48
50.0
100
AcDbLine
 10
9338.600000000001
 20
6741.018368198094
 30
0.0
 11
9458.599999999997
 21
6861.018368198092
 31
0.0
  0
LINE
  5
23A23
330
747D
100
AcDbEntity
  8
細線
 48
50.0
100
AcDbLine
 10
9338.600000000001
 20
6785.91964880344
 30
0.0
 11
9426.576191631523
 21
6873.895840434963
 31
0.0
  0
LINE
  5
23A24
330
747D
100
AcDbEntity
  8
細線
 48
50.0
100
AcDbLine
 10
9338.600000000001
 20
6830.820929408782
 30
0.0
 11
9381.674911026179
 21
6873.895840434965
 31
0.0
  0
LINE
  5
23A25
330
747D
100
AcDbEntity
  8
部品1
 48
50.0
100
AcDbLine
 10
9458.599999999998
 20
6873.895840434963
 30
0.0
 11
9338.599999999997
 21
6873.895840434963
 31
0.0
  0
LINE
  5
23A26
330
747D
100
AcDbEntity
  8
部品1
 48
50.0
100
AcDbLine
 10
9458.599999999998
 20
6673.895840434963
 30
0.0
 11
9338.599999999997
 21
6673.895840434962
 31
0.0
  0
DIMENSION
  5
23A28
330
747D
100
AcDbEntity
  8
寸法
 48
50.0
100
AcDbDimension
  2
*D37
 10
9335.600000000001
 20
8245.162298528851
 30
0.0
 11
9731.706601717799
 21
8245.162298528851
 31
0.0
 70
   160
 71
     5
 42
123.0
  3
INABA_S40G
100
AcDbAlignedDimension
 13
9458.6
 23
7518.895840434939
 33
0.0
 14
9335.600000000001
 24
7445.89584043494
 34
0.0
100
AcDbRotatedDimension
1001
ACAD
1000
DSTYLE
1002
{
1070
   341
1005
0
1002
}
  0
LINE
  5
23A29
330
747D
100
AcDbEntity
  8
部品1
 48
50.0
100
AcDbLine
 10
9143.600000000006
 20
7518.895840434939
 30
0.0
 11
9143.600000000009
 21
7318.895840434944
 31
0.0
  0
LINE
  5
23A2A
330
747D
100
AcDbEntity
  8
細線
 48
50.0
100
AcDbLine
 10
8943.600000000007
 20
7455.820929408782
 30
0.0
 11
9006.674911026166
 21
7518.895840434942
 31
0.0
  0
LINE
  5
23A2B
330
747D
100
AcDbEntity
  8
細線
 48
50.0
100
AcDbLine
 10
8943.600000000008
 20
7410.919648803434
 30
0.0
 11
9051.576191631511
 21
7518.895840434939
 31
0.0
  0
LINE
  5
23A2C
330
747D
100
AcDbEntity
  8
部品1
 48
50.0
100
AcDbLine
 10
8943.600000000007
 20
7518.895840434939
 30
0.0
 11
8943.600000000008
 21
7318.895840434945
 31
0.0
  0
LINE
  5
23A2D
330
747D
100
AcDbEntity
  8
細線
 48
50.0
100
AcDbLine
 10
8943.600000000008
 20
7321.117087592748
 30
0.0
 11
9141.378752842204
 21
7518.895840434939
 31
0.0
  0
LINE
  5
23A2E
330
747D
100
AcDbEntity
  8
細線
 48
50.0
100
AcDbLine
 10
8943.600000000008
 20
7366.018368198097
 30
0.0
 11
9096.477472236857
 21
7518.895840434939
 31
0.0
  0
DIMENSION
  5
23A2F
330
747D
100
AcDbEntity
  8
寸法
 48
50.0
100
AcDbDimension
  2
*D38
 10
9009.819725318584
 20
7318.89584043493
 30
0.0
 11
9009.819725318582
 21
7805.859423112098
 31
0.0
 70
   160
 71
     5
 42
200.0
  3
INABA_S40G
100
AcDbAlignedDimension
 13
9133.854682011641
 23
7518.895840434929
 33
0.0
 14
9133.854682011641
 24
7318.89584043493
 34
0.0
 50
90.0
100
AcDbRotatedDimension
1001
ACAD
1000
DSTYLE
1002
{
1070
   341
1005
0
1002
}
  0
LINE
  5
23A30
330
747D
100
AcDbEntity
  8
細線
 48
50.0
100
AcDbLine
 10
9031.181314052913
 20
7318.895840434942
 30
0.0
 11
9143.600000000006
 21
7431.314526382052
 31
0.0
  0
LINE
  5
23A31
330
747D
100
AcDbEntity
  8
細線
 48
50.0
100
AcDbLine
 10
8986.280033447547
 20
7318.895840434945
 30
0.0
 11
9143.600000000006
 21
7476.215806987396
 31
0.0
  0
LINE
  5
23A32
330
747D
100
AcDbEntity
  8
細線
 48
50.0
100
AcDbLine
 10
9120.983875263608
 20
7318.895840434944
 30
0.0
 11
9143.600000000009
 21
7341.511965171346
 31
0.0
  0
LINE
  5
23A33
330
747D
100
AcDbEntity
  8
細線
 48
50.0
100
AcDbLine
 10
9076.082594658251
 20
7318.895840434944
 30
0.0
 11
9143.600000000009
 21
7386.413245776701
 31
0.0
  0
LINE
  5
23A34
330
747D
100
AcDbEntity
  8
細線
 48
50.0
100
AcDbLine
 10
8943.600000000007
 20
7500.722210014126
 30
0.0
 11
8961.77363042082
 21
7518.895840434939
 31
0.0
  0
DIMENSION
  5
23A35
330
747D
100
AcDbEntity
  8
寸法
 48
50.0
100
AcDbDimension
  2
*D39
 10
9338.600000000001
 20
7023.268633465683
 30
0.0
 11
9757.085281374239
 21
7023.268633465683
 31
0.0
 70
   160
 71
     5
 42
120.0
  3
INABA_S40G
100
AcDbAlignedDimension
 13
9458.6
 23
7040.261897504516
 33
0.0
 14
9338.600000000001
 24
7023.268633465683
 34
0.0
100
AcDbRotatedDimension
1001
ACAD
1000
DSTYLE
1002
{
1070
   341
1005
0
1002
}
  0
CIRCLE
  5
23A36
330
747D
100
AcDbEntity
  8
部品1
 48
50.0
100
AcDbCircle
 10
9335.600000000001
 20
7395.89584043494
 30
0.0
 40
35.0
  0
LINE
  5
23A37
330
747D
100
AcDbEntity
  8
センター
 48
2.0
100
AcDbLine
 10
9285.6
 20
7395.89584043494
 30
0.0
 11
9385.600000000001
 21
7395.89584043494
 31
0.0
  0
LINE
  5
23A38
330
747D
100
AcDbEntity
  8
センター
 48
2.0
100
AcDbLine
 10
9335.600000000001
 20
7445.89584043494
 30
0.0
 11
9335.600000000001
 21
7345.89584043494
 31
0.0
  0
TEXT
  5
23E79
330
747D
100
AcDbEntity
  8
文字
 62
     7
 48
50.0
100
AcDbText
 10
14251.2
 20
838.2527270729188
 30
0.0
 40
100.0
  1
～一般型・多雪地型・豪雪地型～
  7
STYLE2
100
AcDbText
  0
LINE
  5
23E99
330
747D
100
AcDbEntity
  8
部品1
 48
50.0
100
AcDbLine
 10
9338.600000000001
 20
6258.895840434956
 30
0.0
 11
7108.599999999999
 21
6258.895840434938
 31
0.0
  0
LINE
  5
23E9A
330
747D
100
AcDbEntity
  8
細線
 48
50.0
100
AcDbLine
 10
8123.600000000021
 20
6157.400439723268
 30
0.0
 11
8225.095400711699
 21
6258.895840434941
 31
0.0
  0
LINE
  5
23E9B
330
747D
100
AcDbEntity
  8
細線
 48
50.0
100
AcDbLine
 10
8123.600000000021
 20
6202.301720328614
 30
0.0
 11
8180.194120106333
 21
6258.89584043494
 31
0.0
  0
LINE
  5
23E9C
330
747D
100
AcDbEntity
  8
細線
 48
50.0
100
AcDbLine
 10
8123.600000000022
 20
6067.59787851257
 30
0.0
 11
8314.897961922396
 21
6258.89584043494
 31
0.0
  0
LINE
  5
23E9D
330
747D
100
AcDbEntity
  8
細線
 48
50.0
100
AcDbLine
 10
8123.600000000022
 20
6112.499159117913
 30
0.0
 11
8269.996681317032
 21
6258.895840434941
 31
0.0
  0
LINE
  5
23E9E
330
747D
100
AcDbEntity
  8
細線
 48
50.0
100
AcDbLine
 10
8304.305645554483
 20
5978.895840434955
 30
0.0
 11
8323.600000000025
 21
5998.190194880497
 31
0.0
  0
LINE
  5
23E9F
330
747D
100
AcDbEntity
  8
細線
 48
50.0
100
AcDbLine
 10
8124.700523133098
 20
5978.895840434951
 30
0.0
 11
8323.60000000002
 21
6177.795317301878
 31
0.0
  0
LINE
  5
23EA0
330
747D
100
AcDbEntity
  8
細線
 48
50.0
100
AcDbLine
 10
8123.600000000024
 20
6022.696597907224
 30
0.0
 11
8323.600000000018
 21
6222.696597907217
 31
0.0
  0
LINE
  5
23EA1
330
747D
100
AcDbEntity
  8
部品1
 48
50.0
100
AcDbLine
 10
8323.600000000018
 20
6258.895840434942
 30
0.0
 11
8323.600000000025
 21
5978.895840434955
 31
0.0
  0
LINE
  5
23EA2
330
747D
100
AcDbEntity
  8
部品1
 48
50.0
100
AcDbLine
 10
8123.600000000017
 20
6258.895840434939
 30
0.0
 11
8123.600000000024
 21
5978.895840434951
 31
0.0
  0
LINE
  5
23EA3
330
747D
100
AcDbEntity
  8
細線
 48
50.0
100
AcDbLine
 10
8169.601803738443
 20
5978.895840434952
 30
0.0
 11
8323.600000000022
 21
6132.894036696534
 31
0.0
  0
LINE
  5
23EA4
330
747D
100
AcDbEntity
  8
細線
 48
50.0
100
AcDbLine
 10
8259.404364949139
 20
5978.895840434955
 30
0.0
 11
8323.600000000025
 21
6043.091475485842
 31
0.0
  0
LINE
  5
23EA5
330
747D
100
AcDbEntity
  8
細線
 48
50.0
100
AcDbLine
 10
8214.503084343789
 20
5978.895840434952
 30
0.0
 11
8323.600000000022
 21
6087.992756091185
 31
0.0
  0
LINE
  5
23EA6
330
747D
100
AcDbEntity
  8
細線
 48
50.0
100
AcDbLine
 10
8943.600000000021
 20
6157.400439723268
 30
0.0
 11
9045.0954007117
 21
6258.895840434941
 31
0.0
  0
LINE
  5
23EA7
330
747D
100
AcDbEntity
  8
細線
 48
50.0
100
AcDbLine
 10
8943.600000000021
 20
6202.301720328614
 30
0.0
 11
9000.194120106334
 21
6258.89584043494
 31
0.0
  0
LINE
  5
23EA8
330
747D
100
AcDbEntity
  8
細線
 48
50.0
100
AcDbLine
 10
8943.600000000023
 20
6067.59787851257
 30
0.0
 11
9134.897961922396
 21
6258.89584043494
 31
0.0
  0
LINE
  5
23EA9
330
747D
100
AcDbEntity
  8
細線
 48
50.0
100
AcDbLine
 10
8943.600000000023
 20
6112.499159117913
 30
0.0
 11
9089.996681317032
 21
6258.895840434941
 31
0.0
  0
LINE
  5
23EAA
330
747D
100
AcDbEntity
  8
細線
 48
50.0
100
AcDbLine
 10
9124.305645554484
 20
5978.895840434955
 30
0.0
 11
9143.600000000025
 21
5998.190194880497
 31
0.0
  0
LINE
  5
23EAB
330
747D
100
AcDbEntity
  8
細線
 48
50.0
100
AcDbLine
 10
8944.700523133098
 20
5978.895840434951
 30
0.0
 11
9143.60000000002
 21
6177.795317301878
 31
0.0
  0
LINE
  5
23EAC
330
747D
100
AcDbEntity
  8
細線
 48
50.0
100
AcDbLine
 10
8943.600000000024
 20
6022.696597907224
 30
0.0
 11
9143.600000000018
 21
6222.696597907217
 31
0.0
  0
LINE
  5
23EAD
330
747D
100
AcDbEntity
  8
部品1
 48
50.0
100
AcDbLine
 10
9143.600000000017
 20
6258.895840434942
 30
0.0
 11
9143.600000000025
 21
5978.895840434955
 31
0.0
  0
LINE
  5
23EAE
330
747D
100
AcDbEntity
  8
部品1
 48
50.0
100
AcDbLine
 10
8943.600000000015
 20
6258.895840434939
 30
0.0
 11
8943.600000000024
 21
5978.895840434951
 31
0.0
  0
LINE
  5
23EAF
330
747D
100
AcDbEntity
  8
細線
 48
50.0
100
AcDbLine
 10
8989.601803738443
 20
5978.895840434952
 30
0.0
 11
9143.600000000022
 21
6132.894036696534
 31
0.0
  0
LINE
  5
23EB0
330
747D
100
AcDbEntity
  8
細線
 48
50.0
100
AcDbLine
 10
9079.404364949139
 20
5978.895840434955
 30
0.0
 11
9143.600000000025
 21
6043.091475485842
 31
0.0
  0
LINE
  5
23EB1
330
747D
100
AcDbEntity
  8
細線
 48
50.0
100
AcDbLine
 10
9034.503084343789
 20
5978.895840434952
 30
0.0
 11
9143.600000000022
 21
6087.992756091185
 31
0.0
  0
LINE
  5
23ED0
330
747D
100
AcDbEntity
  8
部品1
 48
50.0
100
AcDbLine
 10
9338.600000000001
 20
6258.895840434956
 30
0.0
 11
9338.600000000001
 21
7318.895840434939
 31
0.0
  0
LINE
  5
23ED1
330
747D
100
AcDbEntity
  8
部品1
 48
50.0
100
AcDbLine
 10
7108.6
 20
6258.895840434938
 30
0.0
 11
7108.599999999999
 21
7318.895840434939
 31
0.0
  0
MTEXT
  5
24073
102
{ACAD_REACTORS
330
24074
102
}
330
747D
100
AcDbEntity
  8
寸法
 62
     7
 48
50.0
100
AcDbMText
 10
10873.87518317614
 20
2221.34304978011
 30
0.0
 40
120.0
 41
0.8
 71
     4
 72
     1
  1
\A1;C.B
  7
STYLE1
 73
     1
 44
1.0
1001
ACAD
1000
MTEXTBEGIN
1070
    73
1070
     1
1070
    44
1040
1.0
1070
    74
1070
     0
1000
MTEXTEND
  0
LEADER
  5
24074
330
747D
100
AcDbEntity
  8
寸法
 48
50.0
100
AcDbLeader
  3
INABA_S50G
 73
     0
 74
     0
 75
     1
 40
120.0
 41
185.591883092037
 76
     3
 10
10690.7369765425
 20
1964.196729098972
 30
0.0
 10
10723.87518317614
 20
2136.34304978011
 30
0.0
 10
10848.87518317614
 20
2136.34304978011
 30
0.0
340
24073
1001
ACAD
1000
DSTYLE
1002
{
1070
    40
1040
1.0
1002
}
  0
LINE
  5
24075
330
747D
100
AcDbEntity
  8
細線
 48
50.0
100
AcDbLine
 10
10836.39039011891
 20
1608.497813445621
 30
0.0
 11
10829.95960950056
 21
1632.497813445621
 31
0.0
  0
LINE
  5
24076
330
747D
100
AcDbEntity
  8
細線
 48
50.0
100
AcDbLine
 10
10814.95445472442
 20
1528.497813445621
 30
0.0
 11
10821.38523534277
 21
1504.497813445621
 31
0.0
  0
LINE
  5
24077
330
747D
100
AcDbEntity
  8
部品1
100
AcDbLine
 10
10880.01256492658
 20
1724.196729098972
 30
0.0
 11
10880.01256492658
 21
1504.497813445622
 31
0.0
  0
LINE
  5
24078
330
747D
100
AcDbEntity
  8
細線
 48
50.0
100
AcDbLine
 10
10808.52367410607
 20
1504.497813445621
 30
0.0
 11
10842.82117073725
 21
1632.497813445619
 31
0.0
  0
LINE
  5
24079
330
747D
100
AcDbEntity
  8
細線
 48
50.0
100
AcDbLine
 10
10757.50234517166
 20
1608.497813445621
 30
0.0
 11
10751.07156455332
 21
1632.497813445621
 31
0.0
  0
LINE
  5
2407A
330
747D
100
AcDbEntity
  8
細線
100
AcDbLine
 10
10633.04895942591
 20
1632.497813445624
 30
0.0
 11
10724.74787507925
 21
1724.196729098972
 31
0.0
  0
LINE
  5
2407B
330
747D
100
AcDbEntity
  8
細線
 48
50.0
100
AcDbLine
 10
10678.61430022441
 20
1608.497813445622
 30
0.0
 11
10672.18351960606
 21
1632.497813445622
 31
0.0
  0
LINE
  5
2407C
330
747D
100
AcDbEntity
  8
細線
100
AcDbLine
 10
10666.99008492287
 20
1632.497813445624
 30
0.0
 11
10758.68900057621
 21
1724.196729098972
 31
0.0
  0
LINE
  5
2407D
330
747D
100
AcDbEntity
  8
細線
 48
50.0
100
AcDbLine
 10
10441.95016538268
 20
1608.497813445622
 30
0.0
 11
10435.51938476433
 21
1632.497813445622
 31
0.0
  0
LINE
  5
2407E
330
747D
100
AcDbEntity
  8
細線
 48
50.0
100
AcDbLine
 10
10520.83821032992
 20
1608.497813445622
 30
0.0
 11
10514.40742971158
 21
1632.497813445622
 31
0.0
  0
LINE
  5
2407F
330
747D
100
AcDbEntity
  8
細線
 48
50.0
100
AcDbLine
 10
10599.72625527717
 20
1608.497813445622
 30
0.0
 11
10593.29547465882
 21
1632.497813445622
 31
0.0
  0
LINE
  5
24080
330
747D
100
AcDbEntity
  8
細線
 48
50.0
100
AcDbLine
 10
10736.06640977717
 20
1528.497813445621
 30
0.0
 11
10742.49719039552
 21
1504.497813445621
 31
0.0
  0
LINE
  5
24081
330
747D
100
AcDbEntity
  8
細線
 48
50.0
100
AcDbLine
 10
10657.17836482993
 20
1528.497813445622
 30
0.0
 11
10663.60914544828
 21
1504.497813445622
 31
0.0
  0
LINE
  5
24082
330
747D
100
AcDbEntity
  8
細線
 48
50.0
100
AcDbLine
 10
10499.40227493543
 20
1528.497813445622
 30
0.0
 11
10505.83305555378
 21
1504.497813445622
 31
0.0
  0
LINE
  5
24083
330
747D
100
AcDbEntity
  8
細線
 48
50.0
100
AcDbLine
 10
10578.29031988268
 20
1528.497813445622
 30
0.0
 11
10584.72110050103
 21
1504.497813445622
 31
0.0
  0
LINE
  5
24084
330
747D
100
AcDbEntity
  8
細線
 48
50.0
100
AcDbLine
 10
10571.85953926433
 20
1504.497813445622
 30
0.0
 11
10606.15703589551
 21
1632.497813445621
 31
0.0
  0
LINE
  5
24085
330
747D
100
AcDbEntity
  8
細線
 48
50.0
100
AcDbLine
 10
10492.97149431708
 20
1504.497813445621
 30
0.0
 11
10527.26899094827
 21
1632.497813445621
 31
0.0
  0
LINE
  5
24086
330
747D
100
AcDbEntity
  8
細線
 48
50.0
100
AcDbLine
 10
10650.74758421158
 20
1504.497813445621
 30
0.0
 11
10685.04508084275
 21
1632.497813445622
 31
0.0
  0
LINE
  5
24087
330
747D
100
AcDbEntity
  8
細線
100
AcDbLine
 10
10700.93121041982
 20
1632.497813445624
 30
0.0
 11
10792.63012607316
 21
1724.196729098972
 31
0.0
  0
LINE
  5
24088
330
747D
100
AcDbEntity
  8
細線
 48
50.0
100
AcDbLine
 10
10729.63562915882
 20
1504.497813445619
 30
0.0
 11
10763.93312579001
 21
1632.497813445619
 31
0.0
  0
LINE
  5
24089
330
747D
100
AcDbEntity
  8
部品1
100
AcDbLine
 10
10760.01256492658
 20
1964.196729098972
 30
0.0
 11
10760.01256492658
 21
1724.196729098972
 31
0.0
  0
LINE
  5
2408A
330
747D
100
AcDbEntity
  8
細線
100
AcDbLine
 10
10746.17490257899
 20
1724.196729098974
 30
0.0
 11
10506.174902579
 21
1964.196729098972
 31
0.0
  0
LINE
  5
2408B
330
747D
100
AcDbEntity
  8
細線
100
AcDbLine
 10
10695.26321433357
 20
1724.196729098972
 30
0.0
 11
10455.26321433357
 21
1964.196729098972
 31
0.0
  0
LINE
  5
2408C
330
747D
100
AcDbEntity
  8
細線
100
AcDbLine
 10
10306.99008492286
 20
1632.497813445622
 30
0.0
 11
10398.68900057621
 21
1724.196729098972
 31
0.0
  0
LINE
  5
2408D
330
747D
100
AcDbEntity
  8
細線
100
AcDbLine
 10
10273.04895942591
 20
1632.497813445622
 30
0.0
 11
10364.74787507926
 21
1724.196729098972
 31
0.0
  0
LINE
  5
2408E
330
747D
100
AcDbEntity
  8
細線
 48
50.0
100
AcDbLine
 10
10284.17407548818
 20
1608.497813445622
 30
0.0
 11
10277.74329486983
 21
1632.497813445622
 31
0.0
  0
LINE
  5
2408F
330
747D
100
AcDbEntity
  8
細線
 48
50.0
100
AcDbLine
 10
10363.06212043543
 20
1608.497813445622
 30
0.0
 11
10356.63133981708
 21
1632.497813445622
 31
0.0
  0
LINE
  5
24090
330
747D
100
AcDbEntity
  8
細線
 48
50.0
100
AcDbLine
 10
10205.28603054093
 20
1608.497813445622
 30
0.0
 11
10198.85524992258
 21
1632.497813445622
 31
0.0
  0
LINE
  5
24091
330
747D
100
AcDbEntity
  8
細線
 48
50.0
100
AcDbLine
 10
10420.51422998819
 20
1528.497813445622
 30
0.0
 11
10426.94501060653
 21
1504.497813445622
 31
0.0
  0
LINE
  5
24092
330
747D
100
AcDbEntity
  8
細線
 48
50.0
100
AcDbLine
 10
10341.62618504094
 20
1528.497813445622
 30
0.0
 11
10348.05696565929
 21
1504.497813445622
 31
0.0
  0
LINE
  5
24093
330
747D
100
AcDbEntity
  8
細線
 48
50.0
100
AcDbLine
 10
10183.85009514644
 20
1528.497813445622
 30
0.0
 11
10190.28087576479
 21
1504.497813445622
 31
0.0
  0
LINE
  5
24094
330
747D
100
AcDbEntity
  8
細線
 48
50.0
100
AcDbLine
 10
10262.73814009369
 20
1528.497813445622
 30
0.0
 11
10269.16892071204
 21
1504.497813445622
 31
0.0
  0
LINE
  5
24095
330
747D
100
AcDbEntity
  8
部品1
100
AcDbLine
 10
10160.01256492658
 20
1504.497813445619
 30
0.0
 11
10160.01256492658
 21
1724.196729098972
 31
0.0
  0
LINE
  5
24096
330
747D
100
AcDbEntity
  8
細線
 48
50.0
100
AcDbLine
 10
10177.41931452809
 20
1504.497813445622
 30
0.0
 11
10211.71681115927
 21
1632.497813445622
 31
0.0
  0
LINE
  5
24097
330
747D
100
AcDbEntity
  8
細線
 48
50.0
100
AcDbLine
 10
10335.19540442259
 20
1504.497813445622
 30
0.0
 11
10369.49290105377
 21
1632.497813445622
 31
0.0
  0
LINE
  5
24098
330
747D
100
AcDbEntity
  8
細線
 48
50.0
100
AcDbLine
 10
10256.30735947534
 20
1504.497813445621
 30
0.0
 11
10290.60485610652
 21
1632.497813445621
 31
0.0
  0
LINE
  5
24099
330
747D
100
AcDbEntity
  8
部品1
100
AcDbLine
 10
10280.01256492658
 20
1724.196729098972
 30
0.0
 11
10280.01256492658
 21
1964.196729098972
 31
0.0
  0
TEXT
  5
2409A
330
747D
100
AcDbEntity
  8
部品1
 48
50.0
100
AcDbText
 10
9515.894478168076
 20
1457.396988461663
 30
0.0
 40
80.0
  1
ボルトの出
 50
90.0
  7
STYLE2
100
AcDbText
  0
LINE
  5
2409B
330
747D
100
AcDbEntity
  8
細線
100
AcDbLine
 10
10423.73421035793
 20
1724.196729098972
 30
0.0
 11
10280.01256492658
 21
1867.918374530325
 31
0.0
  0
LWPOLYLINE
  5
2409C
330
747D
100
AcDbEntity
  8
部品1
 48
50.0
100
AcDbPolyline
 90
        2
 70
     0
 43
12.0
 10
9895.401302826192
 20
1724.196729098972
 10
11096.49360595781
 20
1724.196729098972
  0
LINE
  5
2409D
330
747D
100
AcDbEntity
  8
細線
100
AcDbLine
 10
10340.93121041982
 20
1632.497813445622
 30
0.0
 11
10432.63012607317
 21
1724.196729098972
 31
0.0
  0
LINE
  5
2409E
330
747D
100
AcDbEntity
  8
部品1
100
AcDbLine
 10
10160.01256492658
 20
1632.497813445622
 30
0.0
 11
10880.01256492658
 21
1632.497813445625
 31
0.0
  0
LINE
  5
2409F
330
747D
100
AcDbEntity
  8
部品1
100
AcDbLine
 10
10160.01256492658
 20
1504.497813445619
 30
0.0
 11
10880.01256492658
 21
1504.497813445622
 31
0.0
  0
LINE
  5
240A0
330
747D
100
AcDbEntity
  8
細線
 48
50.0
100
AcDbLine
 10
10414.08344936983
 20
1504.497813445622
 30
0.0
 11
10448.38094600102
 21
1632.497813445621
 31
0.0
  0
LINE
  5
240A1
330
747D
100
AcDbEntity
  8
部品1
100
AcDbLine
 10
10280.01256492658
 20
1964.196729098972
 30
0.0
 11
10760.01256492658
 21
1964.196729098972
 31
0.0
  0
LINE
  5
240A2
330
747D
100
AcDbEntity
  8
細線
100
AcDbLine
 10
10474.64589860336
 20
1724.196729098972
 30
0.0
 11
10280.01256492658
 21
1918.830062775755
 31
0.0
  0
LINE
  5
240A3
330
747D
100
AcDbEntity
  8
部品1
100
AcDbLine
 10
11466.75406602361
 20
399.2284267149107
 30
0.0
 11
11466.75406602362
 21
3363.535396299558
 31
0.0
  0
TEXT
  5
240A4
330
747D
100
AcDbEntity
  8
部品1
100
AcDbText
 10
8088.648881815753
 20
3183.98346434813
 30
0.0
 40
120.0
  1
基礎詳細
  7
STYLE2
100
AcDbText
  0
LINE
  5
240A5
330
747D
100
AcDbEntity
  8
部品1
 48
50.0
100
AcDbLine
 10
8403.876632623822
 20
2363.072010208115
 30
0.0
 11
8419.876632623822
 21
2355.072010208115
 31
0.0
  0
LINE
  5
240A6
330
747D
100
AcDbEntity
  8
細線
 48
50.0
100
AcDbLine
 10
8371.876632623822
 20
2315.072010208115
 30
0.0
 11
8371.876632623822
 21
2347.072010208115
 31
0.0
  0
LINE
  5
240A7
330
747D
100
AcDbEntity
  8
部品1
 48
50.0
100
AcDbLine
 10
8419.876632623822
 20
2323.072010208115
 30
0.0
 11
8419.876632623822
 21
2355.072010208115
 31
0.0
  0
LINE
  5
240A8
330
747D
100
AcDbEntity
  8
細線
 48
50.0
100
AcDbLine
 10
8403.876632623822
 20
2315.072010208115
 30
0.0
 11
8403.876632623822
 21
2347.072010208115
 31
0.0
  0
LINE
  5
240A9
330
747D
100
AcDbEntity
  8
部品1
 48
50.0
100
AcDbLine
 10
8403.876632623822
 20
2347.072010208115
 30
0.0
 11
8419.876632623822
 21
2355.072010208115
 31
0.0
  0
LINE
  5
240AA
330
747D
100
AcDbEntity
  8
部品1
 48
50.0
100
AcDbLine
 10
8371.876632623822
 20
2347.072010208115
 30
0.0
 11
8403.876632623822
 21
2347.072010208115
 31
0.0
  0
LINE
  5
240AB
330
747D
100
AcDbEntity
  8
部品1
 48
50.0
100
AcDbLine
 10
8403.876632623822
 20
2315.072010208115
 30
0.0
 11
8419.876632623822
 21
2323.072010208115
 31
0.0
  0
LINE
  5
240AC
330
747D
100
AcDbEntity
  8
部品1
 48
50.0
100
AcDbLine
 10
8371.876632623822
 20
2315.072010208115
 30
0.0
 11
8403.876632623822
 21
2315.072010208115
 31
0.0
  0
ELLIPSE
  5
240AD
330
747D
100
AcDbEntity
  8
細線
 48
50.0
100
AcDbEllipse
 10
8387.876632623822
 20
2355.072010208115
 30
0.0
 11
14.76670786606846
 21
0.0
 31
0.0
210
0.0
220
0.0
230
1.0
 40
0.2071254069489396
 41
0.0
 42
6.283185307179586
  0
LINE
  5
240AE
330
747D
100
AcDbEntity
  8
部品1
 48
50.0
100
AcDbLine
 10
8371.876632623822
 20
2363.072010208115
 30
0.0
 11
8403.876632623822
 21
2363.072010208115
 31
0.0
  0
LINE
  5
240AF
330
747D
100
AcDbEntity
  8
部品1
 48
50.0
100
AcDbLine
 10
8355.876632623823
 20
2323.072010208115
 30
0.0
 11
8355.876632623823
 21
2355.072010208115
 31
0.0
  0
LINE
  5
240B0
330
747D
100
AcDbEntity
  8
部品1
 48
50.0
100
AcDbLine
 10
8355.876632623823
 20
2355.072010208115
 30
0.0
 11
8371.876632623822
 21
2363.072010208115
 31
0.0
  0
LINE
  5
240B1
330
747D
100
AcDbEntity
  8
部品1
 48
50.0
100
AcDbLine
 10
8355.876632623823
 20
2323.072010208115
 30
0.0
 11
8371.876632623822
 21
2315.072010208115
 31
0.0
  0
LINE
  5
240B2
330
747D
100
AcDbEntity
  8
部品1
 48
50.0
100
AcDbLine
 10
8355.876632623823
 20
2355.072010208115
 30
0.0
 11
8371.876632623822
 21
2347.072010208115
 31
0.0
  0
LINE
  5
240B3
330
747D
100
AcDbEntity
  8
部品1
 48
50.0
100
AcDbLine
 10
8427.876632623823
 20
2223.720017543245
 30
0.0
 11
8427.876632623823
 21
2233.320017543245
 31
0.0
  0
ELLIPSE
  5
240B4
330
747D
100
AcDbEntity
  8
部品1
 48
50.0
100
AcDbEllipse
 10
8387.876632623822
 20
2233.320017543245
 30
0.0
 11
18.4
 21
0.0
 31
0.0
210
0.0
220
0.0
230
1.0
 40
0.3478260869565217
 41
0.0
 42
6.283185307179586
  0
ARC
  5
240B5
330
747D
100
AcDbEntity
  8
部品1
100
AcDbCircle
 10
8226.776632623822
 20
2062.296729098973
 30
0.0
 40
2.7
100
AcDbArc
 50
90.0
 51
180.0
  0
LINE
  5
240B6
330
747D
100
AcDbEntity
  8
部品1
100
AcDbLine
 10
8229.47663262382
 20
2075.796729098973
 30
0.0
 11
8271.776632623822
 21
2075.796729098969
 31
0.0
  0
LINE
  5
240B7
330
747D
100
AcDbEntity
  8
部品1
100
AcDbLine
 10
8226.776632623822
 20
2064.996729098973
 30
0.0
 11
8226.776632623822
 21
2073.096729098972
 31
0.0
  0
LINE
  5
240B8
330
747D
100
AcDbEntity
  8
部品1
100
AcDbLine
 10
8226.776632623822
 20
2064.996729098973
 30
0.0
 11
8226.776632623822
 21
2064.996729098973
 31
0.0
  0
ARC
  5
240B9
330
747D
100
AcDbEntity
  8
部品1
100
AcDbCircle
 10
8229.47663262382
 20
2073.096729098972
 30
0.0
 40
2.7
100
AcDbArc
 50
90.0
 51
180.0
  0
ARC
  5
240BA
330
747D
100
AcDbEntity
  8
部品1
100
AcDbCircle
 10
8271.776632623822
 20
2073.096729098969
 30
0.0
 40
2.7
100
AcDbArc
 50
0.0
 51
90.0
  0
LINE
  5
240BB
330
747D
100
AcDbEntity
  8
部品1
 48
50.0
100
AcDbLine
 10
8347.876632623821
 20
2233.320017543245
 30
0.0
 11
8347.876632623821
 21
2223.720017543245
 31
0.0
  0
ELLIPSE
  5
240BC
330
747D
100
AcDbEntity
  8
部品1
 48
50.0
100
AcDbEllipse
 10
8387.876632623822
 20
2223.720017543246
 30
0.0
 11
40.0
 21
0.0
 31
0.0
210
0.0
220
0.0
230
1.0
 40
0.4
 41
3.141592653589793
 42
6.283185307179586
  0
ELLIPSE
  5
240BD
330
747D
100
AcDbEntity
  8
部品1
 48
50.0
100
AcDbEllipse
 10
8387.876632623822
 20
2233.320017543245
 30
0.0
 11
40.0
 21
0.0
 31
0.0
210
0.0
220
0.0
230
1.0
 40
0.4
 41
0.0
 42
6.283185307179586
  0
LINE
  5
240BE
330
747D
100
AcDbEntity
  8
部品1
100
AcDbLine
 10
8382.47663262382
 20
2016.956729098973
 30
0.0
 11
8393.276632623821
 21
2016.956729098973
 31
0.0
  0
LINE
  5
240BF
330
747D
100
AcDbEntity
  8
部品1
100
AcDbLine
 10
8378.876632623821
 20
2013.356729098973
 30
0.0
 11
8396.876632623822
 21
2013.356729098973
 31
0.0
  0
LINE
  5
240C0
330
747D
100
AcDbEntity
  8
細線
100
AcDbLine
 10
8382.476632623825
 20
1973.756729098973
 30
0.0
 11
8382.47663262382
 21
2016.956729098973
 31
0.0
  0
LINE
  5
240C1
330
747D
100
AcDbEntity
  8
細線
100
AcDbLine
 10
8393.276632623821
 20
1973.756729098973
 30
0.0
 11
8393.276632623821
 21
2016.956729098973
 31
0.0
  0
LINE
  5
240C2
330
747D
100
AcDbEntity
  8
部品1
100
AcDbLine
 10
8295.176632623821
 20
2031.056729098973
 30
0.0
 11
8295.176632623821
 21
2013.956729098973
 31
0.0
  0
LINE
  5
240C3
330
747D
100
AcDbEntity
  8
部品1
100
AcDbLine
 10
8328.736632623822
 20
2031.056729098973
 30
0.0
 11
8328.736632623819
 21
1976.456729098973
 31
0.0
  0
ARC
  5
240C4
330
747D
100
AcDbEntity
  8
部品1
100
AcDbCircle
 10
8314.076632623821
 20
2019.096729098972
 30
0.0
 40
2.7
100
AcDbArc
 50
0.0
 51
90.0
  0
LINE
  5
240C5
330
747D
100
AcDbEntity
  8
部品1
100
AcDbLine
 10
8274.476632623821
 20
2021.796729098973
 30
0.0
 11
8314.076632623821
 21
2021.796729098973
 31
0.0
  0
ARC
  5
240C6
330
747D
100
AcDbEntity
  8
部品1
100
AcDbCircle
 10
8314.076632623821
 20
1976.456729098973
 30
0.0
 40
2.7
100
AcDbArc
 50
270.0
 51
0.0
  0
ARC
  5
240C7
330
747D
100
AcDbEntity
  8
部品1
100
AcDbCircle
 10
8331.436632623816
 20
1976.456729098973
 30
0.0
 40
2.7
100
AcDbArc
 50
180.0
 51
270.0
  0
LINE
  5
240C8
330
747D
100
AcDbEntity
  8
部品1
100
AcDbLine
 10
8302.376632623822
 20
1973.756729098973
 30
0.0
 11
8314.076632623821
 21
1973.756729098973
 31
0.0
  0
LINE
  5
240C9
330
747D
100
AcDbEntity
  8
部品1
100
AcDbLine
 10
8316.776632623822
 20
2019.096729098972
 30
0.0
 11
8316.776632623822
 21
1976.456729098973
 31
0.0
  0
ARC
  5
240CA
330
747D
100
AcDbEntity
  8
部品1
100
AcDbCircle
 10
8326.036632623821
 20
2031.056729098973
 30
0.0
 40
2.7
100
AcDbArc
 50
0.0
 51
90.0
  0
ARC
  5
240CB
330
747D
100
AcDbEntity
  8
部品1
100
AcDbCircle
 10
8297.876632623822
 20
2031.056729098973
 30
0.0
 40
2.7
100
AcDbArc
 50
90.0
 51
180.0
  0
LINE
  5
240CC
330
747D
100
AcDbEntity
  8
部品1
100
AcDbLine
 10
8297.876632623822
 20
2033.756729098973
 30
0.0
 11
8326.036632623821
 21
2033.756729098973
 31
0.0
  0
LINE
  5
240CD
330
747D
100
AcDbEntity
  8
部品1
100
AcDbLine
 10
8274.476632623821
 20
2073.096729098969
 30
0.0
 11
8274.476632623821
 21
2021.796729098973
 31
0.0
  0
LINE
  5
240CE
330
747D
100
AcDbEntity
  8
部品1
100
AcDbLine
 10
8224.076632623823
 20
2054.196729098972
 30
0.0
 11
8224.076632623823
 21
2062.296729098973
 31
0.0
  0
LINE
  5
240CF
330
747D
100
AcDbEntity
  8
部品1
100
AcDbLine
 10
8331.436632623816
 20
1973.756729098973
 30
0.0
 11
8532.776632623816
 21
1973.756729098973
 31
0.0
  0
LINE
  5
240D0
330
747D
100
AcDbEntity
  8
部品1
100
AcDbLine
 10
8172.77663262382
 20
1976.456729098973
 30
0.0
 11
8172.77663262382
 21
2038.588632801681
 31
0.0
  0
LINE
  5
240D1
330
747D
100
AcDbEntity
  8
部品1
100
AcDbLine
 10
8175.476632623821
 20
1973.756729098973
 30
0.0
 11
8187.176632623815
 21
1973.756729098973
 31
0.0
  0
LINE
  5
240D2
330
747D
100
AcDbEntity
  8
細線
 48
50.0
100
AcDbLine
 10
8166.476632623821
 20
1951.977305398877
 30
0.0
 11
8178.696056323916
 21
1964.196729098972
 31
0.0
  0
ARC
  5
240D3
330
747D
100
AcDbEntity
  8
部品1
100
AcDbCircle
 10
8175.476632623821
 20
1976.456729098973
 30
0.0
 40
2.7
100
AcDbArc
 50
180.0
 51
270.0
  0
LINE
  5
240D4
330
747D
100
AcDbEntity
  8
部品1
100
AcDbLine
 10
8174.821786436224
 20
2041.208017552072
 30
0.0
 11
8183.576632623823
 21
2043.396729098972
 31
0.0
  0
ARC
  5
240D5
330
747D
100
AcDbEntity
  8
部品1
100
AcDbCircle
 10
8175.476632623821
 20
2038.588632801681
 30
0.0
 40
2.7
100
AcDbArc
 50
104.0362434679067
 51
180.0
  0
ARC
  5
240D6
330
747D
100
AcDbEntity
  8
部品1
100
AcDbCircle
 10
8186.276632623821
 20
2051.496729098973
 30
0.0
 40
2.7
100
AcDbArc
 50
90.0
 51
180.0
  0
LINE
  5
240D7
330
747D
100
AcDbEntity
  8
部品1
100
AcDbLine
 10
8183.576632623823
 20
2043.396729098972
 30
0.0
 11
8183.576632623823
 21
2051.496729098973
 31
0.0
  0
LINE
  5
240D8
330
747D
100
AcDbEntity
  8
部品1
 48
50.0
100
AcDbLine
 10
8166.476632623821
 20
1964.196729098972
 30
0.0
 11
8580.476632623824
 21
1964.196729098972
 31
0.0
  0
LINE
  5
240D9
330
747D
100
AcDbEntity
  8
細線
 48
50.0
100
AcDbLine
 10
8166.476632623821
 20
1898.095768672462
 30
0.0
 11
8232.577593050331
 21
1964.196729098972
 31
0.0
  0
LINE
  5
240DA
330
747D
100
AcDbEntity
  8
細線
 48
50.0
100
AcDbLine
 10
8166.476632623821
 20
1925.03653703567
 30
0.0
 11
8205.636824687129
 21
1964.196729098972
 31
0.0
  0
LINE
  5
240DB
330
747D
100
AcDbEntity
  8
部品1
100
AcDbLine
 10
8186.276632623821
 20
2054.196729098972
 30
0.0
 11
8224.076632623823
 21
2054.196729098972
 31
0.0
  0
LINE
  5
240DC
330
747D
100
AcDbEntity
  8
部品1
 48
50.0
100
AcDbLine
 10
8580.47663262382
 20
1420.196729098972
 30
0.0
 11
8708.47663262382
 21
1420.196729098972
 31
0.0
  0
LINE
  5
240DD
330
747D
100
AcDbEntity
  8
部品1
100
AcDbLine
 10
8396.876632623822
 20
1739.196729098972
 30
0.0
 11
8432.876632623822
 21
1739.196729098972
 31
0.0
  0
LINE
  5
240DE
330
747D
100
AcDbEntity
  8
部品1
100
AcDbLine
 10
8396.876632623822
 20
1721.196729098972
 30
0.0
 11
8432.876632623822
 21
1721.196729098972
 31
0.0
  0
ARC
  5
240DF
330
747D
100
AcDbEntity
  8
部品1
100
AcDbCircle
 10
8396.876632623822
 20
1739.196729098972
 30
0.0
 40
18.0
100
AcDbArc
 50
180.0
 51
270.0
  0
LINE
  5
240E0
330
747D
100
AcDbEntity
  8
部品1
100
AcDbLine
 10
8432.876632623822
 20
1721.196729098972
 30
0.0
 11
8432.876632623822
 21
1739.196729098972
 31
0.0
  0
LINE
  5
240E1
330
747D
100
AcDbEntity
  8
部品1
100
AcDbLine
 10
8450.876632623822
 20
1640.19672909897
 30
0.0
 11
8324.876632623816
 21
1640.19672909897
 31
0.0
  0
LINE
  5
240E2
330
747D
100
AcDbEntity
  8
細線
 48
50.0
100
AcDbLine
 10
8744.854457816156
 20
1156.19672909897
 30
0.0
 11
8738.423677197811
 21
1180.19672909897
 31
0.0
  0
LINE
  5
240E3
330
747D
100
AcDbEntity
  8
細線
 48
50.0
100
AcDbLine
 10
8665.966412868911
 20
1156.19672909897
 30
0.0
 11
8659.535632250564
 21
1180.19672909897
 31
0.0
  0
LINE
  5
240E4
330
747D
100
AcDbEntity
  8
細線
 48
50.0
100
AcDbLine
 10
8587.078367921654
 20
1156.196729098972
 30
0.0
 11
8580.647587303307
 21
1180.196729098972
 31
0.0
  0
LINE
  5
240E5
330
747D
100
AcDbEntity
  8
細線
 48
50.0
100
AcDbLine
 10
8723.418522421667
 20
1076.19672909897
 30
0.0
 11
8729.849303040015
 21
1052.19672909897
 31
0.0
  0
LINE
  5
240E6
330
747D
100
AcDbEntity
  8
細線
 48
50.0
100
AcDbLine
 10
8644.530477474422
 20
1076.19672909897
 30
0.0
 11
8650.961258092769
 21
1052.19672909897
 31
0.0
  0
LINE
  5
240E7
330
747D
100
AcDbEntity
  8
細線
 48
50.0
100
AcDbLine
 10
8565.642432527173
 20
1076.196729098972
 30
0.0
 11
8572.073213145529
 21
1052.196729098972
 31
0.0
  0
LINE
  5
240E8
330
747D
100
AcDbEntity
  8
細線
 48
50.0
100
AcDbLine
 10
8638.099696856071
 20
1052.196729098969
 30
0.0
 11
8672.397193487254
 21
1180.196729098969
 31
0.0
  0
LINE
  5
240E9
330
747D
100
AcDbEntity
  8
細線
 48
50.0
100
AcDbLine
 10
8559.211651908823
 20
1052.19672909897
 30
0.0
 11
8593.509148539999
 21
1180.196729098972
 31
0.0
  0
LINE
  5
240EA
330
747D
100
AcDbEntity
  8
細線
 48
50.0
100
AcDbLine
 10
8716.987741803315
 20
1052.19672909897
 30
0.0
 11
8751.285238434503
 21
1180.196729098969
 31
0.0
  0
LINE
  5
240EB
330
747D
100
AcDbEntity
  8
部品1
 48
50.0
100
AcDbLine
 10
8788.476632623824
 20
1180.196729098972
 30
0.0
 11
8788.476632623824
 21
1052.196729098972
 31
0.0
  0
LINE
  5
240EC
330
747D
100
AcDbEntity
  8
細線
 48
50.0
100
AcDbLine
 10
8508.190322974417
 20
1156.196729098972
 30
0.0
 11
8501.759542356071
 21
1180.196729098972
 31
0.0
  0
LINE
  5
240ED
330
747D
100
AcDbEntity
  8
細線
 48
50.0
100
AcDbLine
 10
8429.30227802717
 20
1156.196729098972
 30
0.0
 11
8422.871497408824
 21
1180.196729098972
 31
0.0
  0
LINE
  5
240EE
330
747D
100
AcDbEntity
  8
細線
 48
50.0
100
AcDbLine
 10
8271.526188132677
 20
1156.196729098972
 30
0.0
 11
8265.09540751433
 21
1180.196729098972
 31
0.0
  0
LINE
  5
240EF
330
747D
100
AcDbEntity
  8
細線
 48
50.0
100
AcDbLine
 10
8350.414233079924
 20
1156.196729098972
 30
0.0
 11
8343.983452461577
 21
1180.196729098972
 31
0.0
  0
LINE
  5
240F0
330
747D
100
AcDbEntity
  8
細線
 48
50.0
100
AcDbLine
 10
8407.866342632683
 20
1076.196729098972
 30
0.0
 11
8414.297123251028
 21
1052.196729098972
 31
0.0
  0
LINE
  5
240F1
330
747D
100
AcDbEntity
  8
細線
 48
50.0
100
AcDbLine
 10
8486.754387579926
 20
1076.196729098972
 30
0.0
 11
8493.185168198273
 21
1052.196729098972
 31
0.0
  0
LINE
  5
240F2
330
747D
100
AcDbEntity
  8
細線
 48
50.0
100
AcDbLine
 10
8250.090252738187
 20
1076.196729098972
 30
0.0
 11
8256.521033356536
 21
1052.196729098972
 31
0.0
  0
LINE
  5
240F3
330
747D
100
AcDbEntity
  8
細線
 48
50.0
100
AcDbLine
 10
8328.978297685436
 20
1076.196729098972
 30
0.0
 11
8335.409078303783
 21
1052.196729098972
 31
0.0
  0
LINE
  5
240F4
330
747D
100
AcDbEntity
  8
細線
 48
50.0
100
AcDbLine
 10
8480.323606961574
 20
1052.196729098972
 30
0.0
 11
8514.621103592759
 21
1180.19672909897
 31
0.0
  0
LINE
  5
240F5
330
747D
100
AcDbEntity
  8
細線
 48
50.0
100
AcDbLine
 10
8322.547517067084
 20
1052.196729098972
 30
0.0
 11
8356.845013698269
 21
1180.19672909897
 31
0.0
  0
LINE
  5
240F6
330
747D
100
AcDbEntity
  8
細線
 48
50.0
100
AcDbLine
 10
8243.659472119835
 20
1052.196729098972
 30
0.0
 11
8277.956968751018
 21
1180.196729098972
 31
0.0
  0
LINE
  5
240F7
330
747D
100
AcDbEntity
  8
細線
 48
50.0
100
AcDbLine
 10
8401.435562014333
 20
1052.19672909897
 30
0.0
 11
8435.733058645514
 21
1180.19672909897
 31
0.0
  0
LINE
  5
240F8
330
747D
100
AcDbEntity
  8
細線
 48
50.0
100
AcDbLine
 10
8526.208327578629
 20
1180.196729098972
 30
0.0
 11
8708.47663262382
 21
1362.465034144168
 31
0.0
  0
LINE
  5
240F9
330
747D
100
AcDbEntity
  8
部品1
 48
50.0
100
AcDbLine
 10
8708.47663262382
 20
1420.196729098972
 30
0.0
 11
8708.47663262382
 21
1180.196729098972
 31
0.0
  0
LINE
  5
240FA
330
747D
100
AcDbEntity
  8
細線
 48
50.0
100
AcDbLine
 10
8499.267559215427
 20
1180.196729098972
 30
0.0
 11
8708.47663262382
 21
1389.405802507365
 31
0.0
  0
LINE
  5
240FB
330
747D
100
AcDbEntity
  8
細線
 48
50.0
100
AcDbLine
 10
8472.326790852214
 20
1180.196729098972
 30
0.0
 11
8708.47663262382
 21
1416.346570870581
 31
0.0
  0
LINE
  5
240FC
330
747D
100
AcDbEntity
  8
細線
 48
50.0
100
AcDbLine
 10
8256.800643946554
 20
1180.196729098972
 30
0.0
 11
8580.47663262382
 21
1503.872717776238
 31
0.0
  0
LINE
  5
240FD
330
747D
100
AcDbEntity
  8
細線
 48
50.0
100
AcDbLine
 10
8310.682180672971
 20
1180.196729098972
 30
0.0
 11
8580.47663262382
 21
1449.99118104983
 31
0.0
  0
LINE
  5
240FE
330
747D
100
AcDbEntity
  8
細線
 48
50.0
100
AcDbLine
 10
8283.741412309765
 20
1180.196729098972
 30
0.0
 11
8580.47663262382
 21
1476.931949413025
 31
0.0
  0
LINE
  5
240FF
330
747D
100
AcDbEntity
  8
細線
 48
50.0
100
AcDbLine
 10
8038.476632623817
 20
1392.925011587558
 30
0.0
 11
8065.748350135235
 21
1420.196729098972
 31
0.0
  0
LINE
  5
24100
330
747D
100
AcDbEntity
  8
部品1
 48
50.0
100
AcDbLine
 10
8038.476632623821
 20
1420.196729098972
 30
0.0
 11
8166.476632623821
 21
1420.196729098972
 31
0.0
  0
LINE
  5
24101
330
747D
100
AcDbEntity
  8
細線
 48
50.0
100
AcDbLine
 10
8038.476632623817
 20
1365.984243224348
 30
0.0
 11
8092.689118498446
 21
1420.196729098972
 31
0.0
  0
LWPOLYLINE
  5
24102
330
747D
100
AcDbEntity
  8
部品1
 48
50.0
100
AcDbPolyline
 90
        2
 70
     0
 43
8.0
 10
7752.336730790864
 20
1724.196729098973
 10
8166.476632623821
 20
1724.196729098973
  0
LINE
  5
24103
330
747D
100
AcDbEntity
  8
細線
 48
50.0
100
AcDbLine
 10
8113.750098238176
 20
1156.196729098972
 30
0.0
 11
8107.319317619827
 21
1180.196729098972
 31
0.0
  0
LINE
  5
24104
330
747D
100
AcDbEntity
  8
細線
 48
50.0
100
AcDbLine
 10
8192.638143185426
 20
1156.196729098972
 30
0.0
 11
8186.207362567079
 21
1180.196729098972
 31
0.0
  0
LINE
  5
24105
330
747D
100
AcDbEntity
  8
細線
 48
50.0
100
AcDbLine
 10
8034.862053290922
 20
1156.196729098972
 30
0.0
 11
8028.431272672577
 21
1180.196729098972
 31
0.0
  0
LINE
  5
24106
330
747D
100
AcDbEntity
  8
細線
 48
50.0
100
AcDbLine
 10
7958.47663262382
 20
1165.536650064752
 30
0.0
 11
7962.404788962015
 21
1180.196729098972
 31
0.0
  0
LINE
  5
24107
330
747D
100
AcDbEntity
  8
細線
 48
50.0
100
AcDbLine
 10
8092.314162843686
 20
1076.196729098972
 30
0.0
 11
8098.744943462031
 21
1052.196729098972
 31
0.0
  0
LINE
  5
24108
330
747D
100
AcDbEntity
  8
細線
 48
50.0
100
AcDbLine
 10
8171.202207790937
 20
1076.196729098972
 30
0.0
 11
8177.632988409284
 21
1052.196729098972
 31
0.0
  0
LINE
  5
24109
330
747D
100
AcDbEntity
  8
細線
 48
50.0
100
AcDbLine
 10
8013.426117896434
 20
1076.196729098972
 30
0.0
 11
8019.856898514779
 21
1052.196729098972
 31
0.0
  0
LINE
  5
2410A
330
747D
100
AcDbEntity
  8
細線
 48
50.0
100
AcDbLine
 10
8164.771427172587
 20
1052.19672909897
 30
0.0
 11
8199.068923803768
 21
1180.19672909897
 31
0.0
  0
LINE
  5
2410B
330
747D
100
AcDbEntity
  8
細線
 48
50.0
100
AcDbLine
 10
8006.99533727808
 20
1052.19672909897
 30
0.0
 11
8041.292833909263
 21
1180.19672909897
 31
0.0
  0
LINE
  5
2410C
330
747D
100
AcDbEntity
  8
部品1
 48
50.0
100
AcDbLine
 10
7958.476632623824
 20
1052.196729098972
 30
0.0
 11
7958.476632623824
 21
1180.196729098972
 31
0.0
  0
LINE
  5
2410D
330
747D
100
AcDbEntity
  8
細線
 48
50.0
100
AcDbLine
 10
8085.883382225338
 20
1052.196729098972
 30
0.0
 11
8120.180878856521
 21
1180.196729098972
 31
0.0
  0
LINE
  5
2410E
330
747D
100
AcDbEntity
  8
部品1
 48
50.0
100
AcDbLine
 10
8038.476632623821
 20
1180.196729098972
 30
0.0
 11
8038.476632623821
 21
1420.196729098972
 31
0.0
  0
LINE
  5
2410F
330
747D
100
AcDbEntity
  8
細線
 48
50.0
100
AcDbLine
 10
8038.476632623817
 20
1339.043474861143
 30
0.0
 11
8119.62988686165
 21
1420.196729098972
 31
0.0
  0
LINE
  5
24110
330
747D
100
AcDbEntity
  8
部品1
 48
50.0
100
AcDbLine
 10
8788.476632623824
 20
1052.196729098972
 30
0.0
 11
7958.476632623824
 21
1052.196729098972
 31
0.0
  0
LINE
  5
24111
330
747D
100
AcDbEntity
  8
部品1
 48
50.0
100
AcDbLine
 10
8788.476632623824
 20
1180.196729098972
 30
0.0
 11
7958.476632623824
 21
1180.196729098972
 31
0.0
  0
LINE
  5
24112
330
747D
100
AcDbEntity
  8
細線
 48
50.0
100
AcDbLine
 10
8041.274497040896
 20
1180.196729098972
 30
0.0
 11
8580.47663262382
 21
1719.398864681898
 31
0.0
  0
LINE
  5
24113
330
747D
100
AcDbEntity
  8
細線
 48
50.0
100
AcDbLine
 10
8068.215265404106
 20
1180.196729098972
 30
0.0
 11
8580.476632623824
 21
1692.458096318686
 31
0.0
  0
LINE
  5
24114
330
747D
100
AcDbEntity
  8
細線
 48
50.0
100
AcDbLine
 10
8095.156033767311
 20
1180.196729098972
 30
0.0
 11
8580.47663262382
 21
1665.51732795548
 31
0.0
  0
LINE
  5
24115
330
747D
100
AcDbEntity
  8
細線
 48
50.0
100
AcDbLine
 10
8166.476632623821
 20
1520.925011587558
 30
0.0
 11
8324.876632623816
 21
1679.325011587553
 31
0.0
  0
LINE
  5
24116
330
747D
100
AcDbEntity
  8
細線
 48
50.0
100
AcDbLine
 10
8166.476632623821
 20
1467.043474861143
 30
0.0
 11
8339.629886861658
 21
1640.19672909897
 31
0.0
  0
LINE
  5
24117
330
747D
100
AcDbEntity
  8
細線
 48
50.0
100
AcDbLine
 10
8166.476632623821
 20
1493.98424322435
 30
0.0
 11
8324.876632623816
 21
1652.384243224339
 31
0.0
  0
LINE
  5
24118
330
747D
100
AcDbEntity
  8
部品1
100
AcDbLine
 10
8324.876632623816
 20
1640.196729098972
 30
0.0
 11
8324.876632623823
 21
1964.196729098972
 31
0.0
  0
LINE
  5
24119
330
747D
100
AcDbEntity
  8
部品1
100
AcDbLine
 10
8450.876632623822
 20
1640.196729098972
 30
0.0
 11
8450.876632623822
 21
1964.196729098972
 31
0.0
  0
LINE
  5
2411A
330
747D
100
AcDbEntity
  8
細線
 48
50.0
100
AcDbLine
 10
8450.876632623822
 20
1778.384243224343
 30
0.0
 11
8580.47663262382
 21
1907.98424322434
 31
0.0
  0
LINE
  5
2411B
330
747D
100
AcDbEntity
  8
細線
 48
50.0
100
AcDbLine
 10
8450.876632623822
 20
1751.443474861131
 30
0.0
 11
8580.47663262382
 21
1881.043474861122
 31
0.0
  0
LINE
  5
2411C
330
747D
100
AcDbEntity
  8
部品1
100
AcDbLine
 10
8378.876632623821
 20
1739.196729098972
 30
0.0
 11
8378.876632623819
 21
2013.356729098973
 31
0.0
  0
LINE
  5
2411D
330
747D
100
AcDbEntity
  8
部品1
100
AcDbLine
 10
8396.876632623822
 20
1739.196729098972
 30
0.0
 11
8396.876632623818
 21
2013.356729098973
 31
0.0
  0
TEXT
  5
2411E
330
747D
100
AcDbEntity
  8
部品1
 48
50.0
100
AcDbText
 10
7752.336730790864
 20
1735.435721382228
 30
0.0
 40
80.0
  1
▽G.L
  7
STYLE2
100
AcDbText
  0
LINE
  5
2411F
330
747D
100
AcDbEntity
  8
細線
 48
50.0
100
AcDbLine
 10
8166.476632623821
 20
1682.569621766803
 30
0.0
 11
8324.876632623817
 21
1840.969621766795
 31
0.0
  0
LINE
  5
24120
330
747D
100
AcDbEntity
  8
細線
 48
50.0
100
AcDbLine
 10
8166.476632623821
 20
1709.51039013001
 30
0.0
 11
8324.876632623819
 21
1867.910390130008
 31
0.0
  0
LINE
  5
24121
330
747D
100
AcDbEntity
  8
細線
 48
50.0
100
AcDbLine
 10
8166.476632623821
 20
1736.451158493218
 30
0.0
 11
8324.876632623819
 21
1894.851158493215
 31
0.0
  0
LINE
  5
24122
330
747D
100
AcDbEntity
  8
部品1
 48
50.0
100
AcDbLine
 10
8166.476632623821
 20
1420.196729098972
 30
0.0
 11
8166.476632623821
 21
1964.196729098972
 31
0.0
  0
LINE
  5
24123
330
747D
100
AcDbEntity
  8
部品1
100
AcDbLine
 10
8580.47663262382
 20
1420.196729098972
 30
0.0
 11
8580.47663262382
 21
1964.196729098972
 31
0.0
  0
LINE
  5
24124
330
747D
100
AcDbEntity
  8
細線
 48
50.0
100
AcDbLine
 10
8450.876632623822
 20
1805.325011587561
 30
0.0
 11
8580.47663262382
 21
1934.925011587559
 31
0.0
  0
LINE
  5
24125
330
747D
100
AcDbEntity
  8
細線
 48
50.0
100
AcDbLine
 10
6574.929741949097
 20
1844.943580995688
 30
0.0
 11
6658.437319446628
 21
1928.451158493218
 31
0.0
  0
LINE
  5
24126
330
747D
100
AcDbEntity
  8
細線
 48
50.0
100
AcDbLine
 10
6585.990026712614
 20
1829.063097395994
 30
0.0
 11
6658.437319446628
 21
1901.51039013001
 31
0.0
  0
LINE
  5
24127
330
747D
100
AcDbEntity
  8
細線
 48
50.0
100
AcDbLine
 10
6466.437319446628
 20
1951.977305398877
 30
0.0
 11
6478.656743146723
 21
1964.196729098972
 31
0.0
  0
LINE
  5
24128
330
747D
100
AcDbEntity
  8
細線
 48
50.0
100
AcDbLine
 10
6466.437319446628
 20
1898.095768672462
 30
0.0
 11
6532.538279873136
 21
1964.196729098972
 31
0.0
  0
LINE
  5
24129
330
747D
100
AcDbEntity
  8
細線
 48
50.0
100
AcDbLine
 10
6466.437319446628
 20
1925.03653703567
 30
0.0
 11
6505.597511509932
 21
1964.196729098972
 31
0.0
  0
LINE
  5
2412A
330
747D
100
AcDbEntity
  8
部品1
 48
50.0
100
AcDbLine
 10
6466.437319446628
 20
1964.196729098972
 30
0.0
 11
6658.437319446628
 21
1964.196729098972
 31
0.0
  0
DIMENSION
  5
2412B
330
747D
100
AcDbEntity
  8
寸法
 48
50.0
100
AcDbDimension
  2
*D45
 10
6466.437319446626
 20
2383.864537015353
 30
0.0
 11
6562.437319446627
 21
2383.864537015353
 31
0.0
 70
   160
  1
120\P200\P280
 71
     5
 42
192.0
  3
INABA_S40G
100
AcDbAlignedDimension
 13
6658.437319446626
 23
1964.196729098972
 33
0.0
 14
6466.437319446626
 24
1964.196729098972
 34
0.0
100
AcDbRotatedDimension
1001
ACAD
1000
DSTYLE
1002
{
1070
   341
1005
0
1002
}
  0
MTEXT
  5
2412C
102
{ACAD_REACTORS
330
24181
102
}
330
747D
100
AcDbEntity
  8
寸法
 62
     7
 48
50.0
100
AcDbMText
 10
6900.175775307878
 20
1002.847643366819
 30
0.0
 40
80.0
 41
0.8
 71
     4
 72
     1
  1
\A1;D10@300
  7
STYLE2
 73
     1
 44
1.0
1001
ACAD
1000
MTEXTBEGIN
1070
    73
1070
     1
1070
    44
1040
1.0
1070
    74
1070
     0
1000
MTEXTEND
  0
LINE
  5
2412D
330
747D
100
AcDbEntity
  8
細線
 48
50.0
100
AcDbLine
 10
6586.437319446634
 20
1613.984243224353
 30
0.0
 11
6658.437319446621
 21
1685.984243224347
 31
0.0
  0
LINE
  5
2412E
330
747D
100
AcDbEntity
  8
細線
 48
50.0
100
AcDbLine
 10
6586.437319446628
 20
1640.925011587558
 30
0.0
 11
6658.437319446628
 21
1712.925011587558
 31
0.0
  0
LINE
  5
2412F
330
747D
100
AcDbEntity
  8
細線
 48
50.0
100
AcDbLine
 10
6586.437319446634
 20
1371.517327955484
 30
0.0
 11
6658.437319446621
 21
1443.517327955484
 31
0.0
  0
LINE
  5
24130
330
747D
100
AcDbEntity
  8
細線
 48
50.0
100
AcDbLine
 10
6586.437319446634
 20
1425.398864681901
 30
0.0
 11
6658.437319446621
 21
1497.398864681898
 31
0.0
  0
LINE
  5
24131
330
747D
100
AcDbEntity
  8
細線
 48
50.0
100
AcDbLine
 10
6586.437319446634
 20
1398.458096318693
 30
0.0
 11
6658.437319446621
 21
1470.458096318688
 31
0.0
  0
LINE
  5
24132
330
747D
100
AcDbEntity
  8
部品1
 48
50.0
100
AcDbLine
 10
6658.437319446628
 20
1420.196729098972
 30
0.0
 11
6786.437319446628
 21
1420.196729098972
 31
0.0
  0
LINE
  5
24133
330
747D
100
AcDbEntity
  8
細線
 48
50.0
100
AcDbLine
 10
6586.437319446634
 20
1587.043474861143
 30
0.0
 11
6658.437319446621
 21
1659.043474861143
 31
0.0
  0
LINE
  5
24134
330
747D
100
AcDbEntity
  8
部品1
 48
50.0
100
AcDbLine
 10
6554.437319446627
 20
1766.323943796094
 30
0.0
 11
6554.437319446627
 21
1824.451158493218
 31
0.0
  0
LINE
  5
24135
330
747D
100
AcDbEntity
  8
細線
 48
50.0
100
AcDbLine
 10
6466.437319446628
 20
1736.451158493218
 30
0.0
 11
6538.437319446628
 21
1808.451158493218
 31
0.0
  0
LINE
  5
24136
330
747D
100
AcDbEntity
  8
部品1
 48
50.0
100
AcDbLine
 10
6538.437319446628
 20
1766.323943796098
 30
0.0
 11
6538.437319446628
 21
1824.451158493218
 31
0.0
  0
LINE
  5
24137
330
747D
100
AcDbEntity
  8
細線
 48
50.0
100
AcDbLine
 10
6466.437319446628
 20
1709.51039013001
 30
0.0
 11
6538.437319446628
 21
1781.51039013001
 31
0.0
  0
LINE
  5
24138
330
747D
100
AcDbEntity
  8
細線
 48
50.0
100
AcDbLine
 10
6466.437319446628
 20
1682.569621766803
 30
0.0
 11
6550.191641475922
 21
1766.323943796094
 31
0.0
  0
LINE
  5
24139
330
747D
100
AcDbEntity
  8
部品1
 48
50.0
100
AcDbLine
 10
6554.437319446627
 20
1766.323943796094
 30
0.0
 11
6538.437319446628
 21
1766.323943796098
 31
0.0
  0
LINE
  5
2413A
330
747D
100
AcDbEntity
  8
細線
 48
50.0
100
AcDbLine
 10
6338.437319446621
 20
1392.925011587558
 30
0.0
 11
6365.709036958042
 21
1420.196729098972
 31
0.0
  0
LINE
  5
2413B
330
747D
100
AcDbEntity
  8
細線
 48
50.0
100
AcDbLine
 10
6338.437319446621
 20
1365.984243224348
 30
0.0
 11
6392.649805321252
 21
1420.196729098972
 31
0.0
  0
LINE
  5
2413C
330
747D
100
AcDbEntity
  8
部品1
 48
50.0
100
AcDbLine
 10
6338.437319446628
 20
1420.196729098972
 30
0.0
 11
6466.437319446628
 21
1420.196729098972
 31
0.0
  0
LINE
  5
2413D
330
747D
100
AcDbEntity
  8
細線
 48
50.0
100
AcDbLine
 10
6554.437319446627
 20
1797.51039013001
 30
0.0
 11
6570.437319446629
 21
1813.51039013001
 31
0.0
  0
LINE
  5
2413E
330
747D
100
AcDbEntity
  8
細線
 48
50.0
100
AcDbLine
 10
6554.437319446627
 20
1770.569621766802
 30
0.0
 11
6570.437319446629
 21
1786.569621766803
 31
0.0
  0
LINE
  5
2413F
330
747D
100
AcDbEntity
  8
細線
 48
50.0
100
AcDbLine
 10
6466.437319446628
 20
1467.043474861143
 30
0.0
 11
6570.437319446634
 21
1571.043474861143
 31
0.0
  0
LINE
  5
24140
330
747D
100
AcDbEntity
  8
細線
 48
50.0
100
AcDbLine
 10
6466.437319446628
 20
1520.925011587558
 30
0.0
 11
6570.437319446629
 21
1624.925011587558
 31
0.0
  0
LINE
  5
24141
330
747D
100
AcDbEntity
  8
細線
 48
50.0
100
AcDbLine
 10
6466.437319446628
 20
1493.98424322435
 30
0.0
 11
6570.437319446634
 21
1597.984243224353
 31
0.0
  0
LINE
  5
24142
330
747D
100
AcDbEntity
  8
細線
 48
50.0
100
AcDbLine
 10
6729.262964849976
 20
1156.196729098972
 30
0.0
 11
6722.832184231629
 21
1180.196729098972
 31
0.0
  0
LINE
  5
24143
330
747D
100
AcDbEntity
  8
細線
 48
50.0
100
AcDbLine
 10
6772.287477675021
 20
1180.196729098972
 30
0.0
 11
6786.437319446628
 21
1194.346570870579
 31
0.0
  0
LINE
  5
24144
330
747D
100
AcDbEntity
  8
細線
 48
50.0
100
AcDbLine
 10
6808.151009797223
 20
1156.196729098972
 30
0.0
 11
6801.720229178875
 21
1180.196729098972
 31
0.0
  0
LINE
  5
24145
330
747D
100
AcDbEntity
  8
部品1
 48
50.0
100
AcDbLine
 10
6730.437319446628
 20
1292.196729098972
 30
0.0
 11
6730.437319446628
 21
1276.196729098972
 31
0.0
  0
LINE
  5
24146
330
747D
100
AcDbEntity
  8
細線
 48
50.0
100
AcDbLine
 10
6610.642867495776
 20
1180.196729098972
 30
0.0
 11
6706.643755340913
 21
1276.197616944111
 31
0.0
  0
LINE
  5
24147
330
747D
100
AcDbEntity
  8
細線
 48
50.0
100
AcDbLine
 10
6583.702099132572
 20
1180.196729098972
 30
0.0
 11
6679.702099132573
 21
1276.196729098972
 31
0.0
  0
LINE
  5
24148
330
747D
100
AcDbEntity
  8
細線
 48
50.0
100
AcDbLine
 10
6650.37491990273
 20
1156.196729098972
 30
0.0
 11
6643.944139284383
 21
1180.196729098972
 31
0.0
  0
LINE
  5
24149
330
747D
100
AcDbEntity
  8
細線
 48
50.0
100
AcDbLine
 10
6571.486874955484
 20
1156.196729098972
 30
0.0
 11
6565.056094337136
 21
1180.196729098972
 31
0.0
  0
ARC
  5
2414A
330
747D
100
AcDbEntity
  8
部品1
 48
50.0
100
AcDbCircle
 10
6562.437319446629
 20
1300.196729098972
 30
0.0
 40
24.0
100
AcDbArc
 50
340.5287793655256
 51
0.0
  0
CIRCLE
  5
2414B
330
747D
100
AcDbEntity
  8
部品1
 48
50.0
100
AcDbCircle
 10
6690.437319446627
 20
1300.196729098972
 30
0.0
 40
8.0
  0
LINE
  5
2414C
330
747D
100
AcDbEntity
  8
細線
 48
50.0
100
AcDbLine
 10
6722.642867495776
 20
1292.196729098972
 30
0.0
 11
6786.437319446628
 21
1355.991181049823
 31
0.0
  0
LINE
  5
2414D
330
747D
100
AcDbEntity
  8
細線
 48
50.0
100
AcDbLine
 10
6859.172338731631
 20
1052.19672909897
 30
0.0
 11
6866.437319446628
 21
1079.31000624336
 31
0.0
  0
LINE
  5
2414E
330
747D
100
AcDbEntity
  8
細線
 48
50.0
100
AcDbLine
 10
6865.60311934998
 20
1076.196729098972
 30
0.0
 11
6866.437319446628
 21
1073.083451954608
 31
0.0
  0
LINE
  5
2414F
330
747D
100
AcDbEntity
  8
細線
 48
50.0
100
AcDbLine
 10
6786.715074402732
 20
1076.196729098972
 30
0.0
 11
6793.14585502108
 21
1052.196729098972
 31
0.0
  0
LINE
  5
24150
330
747D
100
AcDbEntity
  8
細線
 48
50.0
100
AcDbLine
 10
6628.938984508241
 20
1076.196729098972
 30
0.0
 11
6635.369765126586
 21
1052.196729098972
 31
0.0
  0
LINE
  5
24151
330
747D
100
AcDbEntity
  8
細線
 48
50.0
100
AcDbLine
 10
6707.827029455486
 20
1076.196729098972
 30
0.0
 11
6714.257810073833
 21
1052.196729098972
 31
0.0
  0
LINE
  5
24152
330
747D
100
AcDbEntity
  8
細線
 48
50.0
100
AcDbLine
 10
6701.396248837136
 20
1052.19672909897
 30
0.0
 11
6735.693745468322
 21
1180.19672909897
 31
0.0
  0
LINE
  5
24153
330
747D
100
AcDbEntity
  8
細線
 48
50.0
100
AcDbLine
 10
6622.508203889887
 20
1052.196729098972
 30
0.0
 11
6656.805700521075
 21
1180.19672909897
 31
0.0
  0
LINE
  5
24154
330
747D
100
AcDbEntity
  8
細線
 48
50.0
100
AcDbLine
 10
6780.284293784382
 20
1052.196729098972
 30
0.0
 11
6814.581790415566
 21
1180.19672909897
 31
0.0
  0
LINE
  5
24155
330
747D
100
AcDbEntity
  8
部品1
 48
50.0
100
AcDbLine
 10
6866.437319446632
 20
1180.196729098972
 30
0.0
 11
6866.437319446632
 21
1052.196729098972
 31
0.0
  0
LINE
  5
24156
330
747D
100
AcDbEntity
  8
部品1
 48
50.0
100
AcDbLine
 10
6554.437319446627
 20
1358.323943796095
 30
0.0
 11
6554.437319446627
 21
1300.196729098972
 31
0.0
  0
LINE
  5
24157
330
747D
100
AcDbEntity
  8
細線
 48
50.0
100
AcDbLine
 10
6480.175952226911
 20
1292.196729098972
 30
0.0
 11
6538.437319446628
 21
1350.458096318691
 31
0.0
  0
LINE
  5
24158
330
747D
100
AcDbEntity
  8
部品1
 48
50.0
100
AcDbLine
 10
6538.437319446628
 20
1358.323943796095
 30
0.0
 11
6538.437319446628
 21
1300.196729098972
 31
0.0
  0
LINE
  5
24159
330
747D
100
AcDbEntity
  8
細線
 48
50.0
100
AcDbLine
 10
6395.116720590117
 20
1180.196729098972
 30
0.0
 11
6491.116720590117
 21
1276.196729098972
 31
0.0
  0
LINE
  5
2415A
330
747D
100
AcDbEntity
  8
細線
 48
50.0
100
AcDbLine
 10
6492.598830008232
 20
1156.196729098972
 30
0.0
 11
6486.168049389886
 21
1180.196729098972
 31
0.0
  0
LINE
  5
2415B
330
747D
100
AcDbEntity
  8
細線
 48
50.0
100
AcDbLine
 10
6413.710785060979
 20
1156.196729098972
 30
0.0
 11
6407.280004442633
 21
1180.196729098972
 31
0.0
  0
ARC
  5
2415C
330
747D
100
AcDbEntity
  8
部品1
 48
50.0
100
AcDbCircle
 10
6562.437319446629
 20
1300.196729098972
 30
0.0
 40
24.0
100
AcDbArc
 50
180.0
 51
199.4712206344743
  0
LINE
  5
2415D
330
747D
100
AcDbEntity
  8
細線
 48
50.0
100
AcDbLine
 10
6507.116720590116
 20
1292.196729098972
 30
0.0
 11
6538.437319446628
 21
1323.517327955484
 31
0.0
  0
CIRCLE
  5
2415E
330
747D
100
AcDbEntity
  8
部品1
 48
50.0
100
AcDbCircle
 10
6434.437319446629
 20
1300.196729098972
 30
0.0
 40
8.0
  0
LINE
  5
2415F
330
747D
100
AcDbEntity
  8
部品1
 48
50.0
100
AcDbLine
 10
6554.437319446627
 20
1358.323943796095
 30
0.0
 11
6538.437319446628
 21
1358.323943796095
 31
0.0
  0
LINE
  5
24160
330
747D
100
AcDbEntity
  8
細線
 48
50.0
100
AcDbLine
 10
6258.437319446628
 20
1165.536650064752
 30
0.0
 11
6262.365475784823
 21
1180.196729098972
 31
0.0
  0
LINE
  5
24161
330
747D
100
AcDbEntity
  8
細線
 48
50.0
100
AcDbLine
 10
6334.822740113729
 20
1156.196729098972
 30
0.0
 11
6328.39195949538
 21
1180.196729098972
 31
0.0
  0
LINE
  5
24162
330
747D
100
AcDbEntity
  8
部品1
 48
50.0
100
AcDbLine
 10
6394.437319446628
 20
1292.196729098972
 30
0.0
 11
6394.437319446628
 21
1276.196729098972
 31
0.0
  0
LINE
  5
24163
330
747D
100
AcDbEntity
  8
細線
 48
50.0
100
AcDbLine
 10
6341.235183863701
 20
1180.196729098972
 30
0.0
 11
6437.2351838637
 21
1276.196729098972
 31
0.0
  0
LINE
  5
24164
330
747D
100
AcDbEntity
  8
細線
 48
50.0
100
AcDbLine
 10
6368.175952226911
 20
1180.196729098972
 30
0.0
 11
6464.175952226911
 21
1276.196729098972
 31
0.0
  0
LINE
  5
24165
330
747D
100
AcDbEntity
  8
細線
 48
50.0
100
AcDbLine
 10
6471.162894613742
 20
1076.196729098972
 30
0.0
 11
6477.593675232089
 21
1052.196729098972
 31
0.0
  0
LINE
  5
24166
330
747D
100
AcDbEntity
  8
細線
 48
50.0
100
AcDbLine
 10
6550.050939560995
 20
1076.196729098972
 30
0.0
 11
6556.481720179341
 21
1052.196729098972
 31
0.0
  0
LINE
  5
24167
330
747D
100
AcDbEntity
  8
細線
 48
50.0
100
AcDbLine
 10
6313.38680471924
 20
1076.196729098972
 30
0.0
 11
6319.817585337585
 21
1052.196729098972
 31
0.0
  0
LINE
  5
24168
330
747D
100
AcDbEntity
  8
細線
 48
50.0
100
AcDbLine
 10
6392.27484966649
 20
1076.196729098972
 30
0.0
 11
6398.705630284838
 21
1052.196729098972
 31
0.0
  0
LINE
  5
24169
330
747D
100
AcDbEntity
  8
部品1
 48
50.0
100
AcDbLine
 10
6258.43731944663
 20
1052.196729098972
 30
0.0
 11
6258.43731944663
 21
1180.196729098972
 31
0.0
  0
LINE
  5
2416A
330
747D
100
AcDbEntity
  8
細線
 48
50.0
100
AcDbLine
 10
6306.956024100886
 20
1052.19672909897
 30
0.0
 11
6341.253520732069
 21
1180.19672909897
 31
0.0
  0
LINE
  5
2416B
330
747D
100
AcDbEntity
  8
細線
 48
50.0
100
AcDbLine
 10
6464.732113995388
 20
1052.19672909897
 30
0.0
 11
6499.029610626573
 21
1180.19672909897
 31
0.0
  0
LINE
  5
2416C
330
747D
100
AcDbEntity
  8
細線
 48
50.0
100
AcDbLine
 10
6385.844069048143
 20
1052.196729098972
 30
0.0
 11
6420.141565679327
 21
1180.196729098972
 31
0.0
  0
LINE
  5
2416D
330
747D
100
AcDbEntity
  8
細線
 48
50.0
100
AcDbLine
 10
6556.761330769361
 20
1180.196729098972
 30
0.0
 11
6652.761330769362
 21
1276.196729098972
 31
0.0
  0
CIRCLE
  5
2416E
330
747D
100
AcDbEntity
  8
部品1
 48
50.0
100
AcDbCircle
 10
6562.437319446629
 20
1300.196729098972
 30
0.0
 40
8.0
  0
LINE
  5
2416F
330
747D
100
AcDbEntity
  8
部品1
 48
50.0
100
AcDbLine
 10
6866.437319446632
 20
1180.196729098972
 30
0.0
 11
6258.43731944663
 21
1180.196729098972
 31
0.0
  0
LINE
  5
24170
330
747D
100
AcDbEntity
  8
部品1
 48
50.0
100
AcDbLine
 10
6394.437319446628
 20
1292.196729098972
 30
0.0
 11
6730.437319446628
 21
1292.196729098972
 31
0.0
  0
LINE
  5
24171
330
747D
100
AcDbEntity
  8
部品1
 48
50.0
100
AcDbLine
 10
6394.437319446628
 20
1276.196729098972
 30
0.0
 11
6730.437319446628
 21
1276.196729098972
 31
0.0
  0
LINE
  5
24172
330
747D
100
AcDbEntity
  8
部品1
 48
50.0
100
AcDbLine
 10
6866.437319446632
 20
1052.196729098972
 30
0.0
 11
6258.43731944663
 21
1052.196729098972
 31
0.0
  0
LINE
  5
24173
330
747D
100
AcDbEntity
  8
細線
 48
50.0
100
AcDbLine
 10
6543.620158942641
 20
1052.196729098972
 30
0.0
 11
6577.917655573824
 21
1180.196729098972
 31
0.0
  0
LINE
  5
24174
330
747D
100
AcDbEntity
  8
細線
 48
50.0
100
AcDbLine
 10
6554.437319446627
 20
1339.517327955484
 30
0.0
 11
6570.437319446634
 21
1355.517327955484
 31
0.0
  0
LINE
  5
24175
330
747D
100
AcDbEntity
  8
部品1
 48
50.0
100
AcDbLine
 10
6570.437319446634
 20
1300.196729098972
 30
0.0
 11
6570.437319446622
 21
1824.451158493218
 31
0.0
  0
LINE
  5
24176
330
747D
100
AcDbEntity
  8
部品1
 48
50.0
100
AcDbLine
 10
6586.437319446634
 20
1300.196729098972
 30
0.0
 11
6586.437319446628
 21
1824.451158493218
 31
0.0
  0
LINE
  5
24177
330
747D
100
AcDbEntity
  8
部品1
 48
50.0
100
AcDbLine
 10
6786.437319446628
 20
1420.196729098972
 30
0.0
 11
6786.437319446628
 21
1180.196729098972
 31
0.0
  0
LINE
  5
24178
330
747D
100
AcDbEntity
  8
細線
 48
50.0
100
AcDbLine
 10
6668.761330769355
 20
1292.196729098972
 30
0.0
 11
6786.437319446628
 21
1409.872717776238
 31
0.0
  0
LINE
  5
24179
330
747D
100
AcDbEntity
  8
細線
 48
50.0
100
AcDbLine
 10
6695.702099132572
 20
1292.196729098972
 30
0.0
 11
6786.437319446628
 21
1382.931949413031
 31
0.0
  0
LINE
  5
2417A
330
747D
100
AcDbEntity
  8
部品1
 48
50.0
100
AcDbLine
 10
6338.437319446628
 20
1180.196729098972
 30
0.0
 11
6338.437319446628
 21
1420.196729098972
 31
0.0
  0
LINE
  5
2417B
330
747D
100
AcDbEntity
  8
細線
 48
50.0
100
AcDbLine
 10
6453.235183863701
 20
1292.196729098972
 30
0.0
 11
6570.437319446629
 21
1409.398864681898
 31
0.0
  0
LINE
  5
2417C
330
747D
100
AcDbEntity
  8
細線
 48
50.0
100
AcDbLine
 10
6546.303166924032
 20
1358.323943796095
 30
0.0
 11
6570.437319446634
 21
1382.458096318693
 31
0.0
  0
LINE
  5
2417D
330
747D
100
AcDbEntity
  8
細線
 48
50.0
100
AcDbLine
 10
6338.437319446621
 20
1339.043474861143
 30
0.0
 11
6419.590573684456
 21
1420.196729098972
 31
0.0
  0
LEADER
  5
2417E
330
747D
100
AcDbEntity
  8
寸法
 48
50.0
100
AcDbLeader
  3
INABA_S50G
 71
     0
 73
     0
 74
     0
 75
     1
 40
100.0
 41
222.7272727272727
 76
     3
 10
6562.437319446627
 20
1824.451158493218
 30
0.0
 10
6616.323256474022
 20
1923.686731346392
 30
0.0
 10
6741.323256474022
 20
1923.686731346392
 30
0.0
1001
ACAD
1000
DSTYLE
1002
{
1070
    40
1040
1.0
1070
   272
1070
     1
1070
   279
1070
     1
1070
   341
1005
0
1002
}
  0
LWPOLYLINE
  5
2417F
330
747D
100
AcDbEntity
  8
部品1
 48
50.0
100
AcDbPolyline
 90
        2
 70
     0
 43
8.0
 10
6658.437319446626
 20
1724.196729098973
 10
7072.577221279584
 20
1724.196729098973
  0
MTEXT
  5
24180
102
{ACAD_REACTORS
330
24182
102
}
330
747D
100
AcDbEntity
  8
寸法
 62
     7
 48
50.0
100
AcDbMText
 10
6889.764979253311
 20
1264.799660156
 30
0.0
 40
80.0
 41
0.8
 71
     4
 72
     1
  1
D10
  7
STYLE2
 73
     1
 44
1.0
1001
ACAD
1000
MTEXTBEGIN
1070
    73
1070
     1
1070
    44
1040
1.0
1070
    74
1070
     0
1000
MTEXTEND
  0
LEADER
  5
24181
330
747D
100
AcDbEntity
  8
寸法
 48
50.0
100
AcDbLeader
  3
INABA_S50G
 71
     0
 73
     0
 74
     0
 75
     1
 40
100.0
 41
540.3409090909091
 76
     3
 10
6636.382488459801
 20
1283.456198685447
 30
0.0
 10
6755.175775307879
 20
941.8253806905495
 30
0.0
 10
6880.175775307879
 20
941.8253806905495
 30
0.0
213
0.0
223
-1.022262676269383
233
0.0
1001
ACAD
1000
DSTYLE
1002
{
1070
    40
1040
1.0
1070
   272
1070
     1
1070
   279
1070
     1
1070
   341
1005
0
1002
}
  0
LEADER
  5
24182
330
747D
100
AcDbEntity
  8
寸法
 48
50.0
100
AcDbLeader
  3
INABA_S50G
 71
     0
 73
     0
 74
     0
 75
     1
 40
100.0
 41
225.0
 76
     3
 10
6690.34027179877
 20
1300.196729098972
 30
0.0
 10
6744.764979253313
 20
1204.799660156
 30
0.0
 10
6869.764979253313
 20
1204.799660156
 30
0.0
1001
ACAD
1000
DSTYLE
1002
{
1070
    40
1040
1.0
1070
   272
1070
     1
1070
   279
1070
     1
1070
   341
1005
0
1002
}
  0
MTEXT
  5
24183
102
{ACAD_REACTORS
330
2417E
102
}
330
747D
100
AcDbEntity
  8
寸法
 62
     7
 48
50.0
100
AcDbMText
 10
6741.323256474022
 20
1986.752628391783
 30
0.0
 40
80.0
 41
0.8
 71
     4
 72
     1
  1
D13
  7
STYLE2
 73
     1
 44
1.0
1001
ACAD
1000
MTEXTBEGIN
1070
    73
1070
     1
1070
    44
1040
1.0
1070
    74
1070
     0
1000
MTEXTEND
  0
LINE
  5
24184
330
747D
100
AcDbEntity
  8
部品1
 48
50.0
100
AcDbLine
 10
6658.437319446628
 20
1964.196729098972
 30
0.0
 11
6658.437319446628
 21
1420.196729098972
 31
0.0
  0
LINE
  5
24185
330
747D
100
AcDbEntity
  8
部品1
 48
50.0
100
AcDbLine
 10
6466.437319446628
 20
1420.196729098972
 30
0.0
 11
6466.437319446628
 21
1964.196729098972
 31
0.0
  0
CIRCLE
  5
24186
330
747D
100
AcDbEntity
  8
部品1
 48
50.0
100
AcDbCircle
 10
6562.437319446629
 20
1824.451158493218
 30
0.0
 40
8.0
  0
ARC
  5
24187
330
747D
100
AcDbEntity
  8
部品1
 48
50.0
100
AcDbCircle
 10
6562.437319446629
 20
1824.451158493218
 30
0.0
 40
24.0
100
AcDbArc
 50
0.0
 51
180.0
  0
LINE
  5
24188
330
747D
100
AcDbEntity
  8
細線
 48
50.0
100
AcDbLine
 10
6586.437319446628
 20
1802.569621766803
 30
0.0
 11
6658.437319446628
 21
1874.569621766803
 31
0.0
  0
LEADER
  5
24189
330
747D
100
AcDbEntity
  8
寸法
 48
50.0
100
AcDbLeader
  3
INABA_S50G
 73
     0
 75
     1
 40
106.3636363636363
 41
893.1818181818181
 76
     3
 10
8297.876632623822
 20
2033.756729098973
 30
0.0
 10
8249.45256027888
 20
2407.816303815306
 30
0.0
 10
8124.45256027888
 20
2407.816303815306
 30
0.0
340
2418A
1001
ACAD
1000
DSTYLE
1002
{
1070
   341
1005
0
1070
    40
1040
1.0
1070
   343
1005
0
1070
   344
1005
0
1002
}
  0
MTEXT
  5
2418A
102
{ACAD_REACTORS
330
24189
102
}
330
747D
100
AcDbEntity
  8
寸法
 62
     7
 48
50.0
100
AcDbMText
 10
8099.452560278882
 20
2485.998121997124
 30
0.0
 40
80.0
 41
0.8
 71
     6
 72
     1
  1
\A1;アンカープレート L
  7
STYLE2
 73
     1
 44
1.0
1001
ACAD
1000
MTEXTBEGIN
1070
    73
1070
     1
1070
    44
1040
1.0
1070
    74
1070
     0
1000
MTEXTEND
  0
DIMENSION
  5
2418B
330
747D
100
AcDbEntity
  8
寸法
 48
50.0
100
AcDbDimension
  2
*D40
 10
6786.437319446626
 20
641.7670910938122
 30
0.0
 11
6542.340560768403
 21
641.7670910938122
 31
0.0
 70
   160
  1
300
 71
     5
 42
448.0
  3
INABA_S40G
100
AcDbAlignedDimension
 13
6338.437319446627
 23
1052.196729098972
 33
0.0
 14
6786.437319446626
 24
1052.196729098972
 34
0.0
100
AcDbRotatedDimension
1001
ACAD
1000
DSTYLE
1002
{
1070
   341
1005
0
1002
}
  0
MTEXT
  5
2418C
102
{ACAD_REACTORS
330
24194
102
}
330
747D
100
AcDbEntity
  8
寸法
 62
     7
 48
50.0
100
AcDbMText
 10
6167.502293251433
 20
1096.674035480536
 30
0.0
 40
80.0
 41
0.8
 71
     6
 72
     1
  1
D10
  7
STYLE2
 73
     1
 44
1.0
1001
ACAD
1000
MTEXTBEGIN
1070
    73
1070
     1
1070
    44
1040
1.0
1070
    74
1070
     0
1000
MTEXTEND
  0
MTEXT
  5
2418D
102
{ACAD_REACTORS
330
24193
102
}
330
747D
100
AcDbEntity
  8
寸法
 62
     7
 48
50.0
100
AcDbMText
 10
6195.625020808868
 20
916.3578829410926
 30
0.0
 40
80.0
 41
0.8
 71
     6
 72
     1
  1
D13
  7
STYLE2
 73
     1
 44
1.0
1001
ACAD
1000
MTEXTBEGIN
1070
    73
1070
     1
1070
    44
1040
1.0
1070
    74
1070
     0
1000
MTEXTEND
  0
DIMENSION
  5
2418E
330
747D
100
AcDbEntity
  8
寸法
 48
50.0
100
AcDbDimension
  2
*D41
 10
5731.400080884887
 20
1180.196729098972
 30
0.0
 11
5731.400080884887
 21
1551.736878754973
 31
0.0
 70
   160
  1
540
 71
     5
 42
784.0
  3
INABA_S40G
100
AcDbAlignedDimension
 13
6466.437319446626
 23
1964.196729098972
 33
0.0
 14
6258.437319446631
 24
1180.196729098972
 34
0.0
 50
90.0
100
AcDbRotatedDimension
1001
ACAD
1000
DSTYLE
1002
{
1070
   341
1005
0
1002
}
  0
MTEXT
  5
2418F
102
{ACAD_REACTORS
330
24190
102
}
330
747D
100
AcDbEntity
  8
寸法
 62
     7
 48
50.0
100
AcDbMText
 10
6246.338839963354
 20
2176.712949101014
 30
0.0
 40
80.0
 41
0.8
 71
     6
 72
     1
  1
\A1;金コテ押エ
  7
STYLE2
 73
     1
 44
1.0
1001
ACAD
1000
MTEXTBEGIN
1070
    73
1070
     1
1070
    44
1040
1.0
1070
    74
1070
     0
1000
MTEXTEND
  0
LEADER
  5
24190
330
747D
100
AcDbEntity
  8
寸法
 48
50.0
100
AcDbLeader
  3
INABA_S50G
 71
     0
 73
     0
 75
     1
 40
130.1136363636363
 41
651.1363636363636
 76
     3
 10
6546.437319446628
 20
1964.196729098972
 30
0.0
 10
6434.012739282611
 20
2104.667494555561
 30
0.0
 10
6309.012739282611
 20
2104.667494555561
 30
0.0
1001
ACAD
1000
DSTYLE
1002
{
1070
    40
1040
1.0
1070
   272
1070
     1
1070
   279
1070
     1
1070
   341
1005
0
1002
}
  0
LEADER
  5
24191
330
747D
100
AcDbEntity
  8
寸法
 48
50.0
100
AcDbLeader
  3
INABA_S50G
 71
     0
 73
     0
 75
     1
 40
100.0
 41
540.3409090909091
 76
     3
 10
6570.437319446627
 20
1722.323943796095
 30
0.0
 10
6512.455082917928
 20
1500.85361525529
 30
0.0
 10
6387.455082917929
 20
1500.85361525529
 30
0.0
213
-9.732182305893367
223
-4.643716661138569
233
0.0
1001
ACAD
1000
DSTYLE
1002
{
1070
    40
1040
1.0
1070
   272
1070
     1
1070
   279
1070
     1
1070
   341
1005
0
1002
}
  0
MTEXT
  5
24192
102
{ACAD_REACTORS
330
24191
102
}
330
747D
100
AcDbEntity
  8
寸法
 62
     7
 48
50.0
100
AcDbMText
 10
6377.187265223823
 20
1565.497331916429
 30
0.0
 40
80.0
 41
0.8
 71
     6
 72
     1
  1
\A1;D10@300
  7
STYLE2
 73
     1
 44
1.0
1001
ACAD
1000
MTEXTBEGIN
1070
    73
1070
     1
1070
    44
1040
1.0
1070
    74
1070
     0
1000
MTEXTEND
  0
LEADER
  5
24193
330
747D
100
AcDbEntity
  8
寸法
 48
50.0
100
AcDbLeader
  3
INABA_S50G
 71
     0
 73
     0
 75
     1
 40
100.0
 41
222.7272727272727
 76
     3
 10
6562.437319446627
 20
1300.196729098972
 30
0.0
 10
6340.625020808868
 20
856.3578829410927
 30
0.0
 10
6215.625020808868
 20
856.3578829410927
 30
0.0
1001
ACAD
1000
DSTYLE
1002
{
1070
    40
1040
1.0
1070
   272
1070
     1
1070
   279
1070
     1
1070
   341
1005
0
1002
}
  0
LEADER
  5
24194
330
747D
100
AcDbEntity
  8
寸法
 48
50.0
100
AcDbLeader
  3
INABA_S50G
 71
     0
 73
     0
 75
     1
 40
100.0
 41
225.0
 76
     3
 10
6434.34027179877
 20
1300.196729098972
 30
0.0
 10
6312.502293251434
 20
1036.674035480536
 30
0.0
 10
6187.502293251434
 20
1036.674035480536
 30
0.0
1001
ACAD
1000
DSTYLE
1002
{
1070
    40
1040
1.0
1070
   272
1070
     1
1070
   279
1070
     1
1070
   341
1005
0
1002
}
  0
DIMENSION
  5
24195
330
747D
100
AcDbEntity
  8
寸法
 48
50.0
100
AcDbDimension
  2
*D42
 10
6196.017005714168
 20
1180.196729098972
 30
0.0
 11
6196.017005714168
 21
1300.196729098973
 31
0.0
 70
   160
  1
150
 71
     5
 42
240.0
  3
INABA_S40G
100
AcDbAlignedDimension
 13
6338.437319446627
 23
1420.196729098972
 33
0.0
 14
6258.437319446631
 24
1180.196729098972
 34
0.0
 50
90.0
100
AcDbRotatedDimension
1001
ACAD
1000
DSTYLE
1002
{
1070
   341
1005
0
1002
}
  0
TEXT
  5
24196
330
747D
100
AcDbEntity
  8
部品1
 48
50.0
100
AcDbText
 10
6052.297417613671
 20
1735.435721382228
 30
0.0
 40
80.0
  1
▽G.L
  7
STYLE2
100
AcDbText
  0
LWPOLYLINE
  5
24197
330
747D
100
AcDbEntity
  8
部品1
 48
50.0
100
AcDbPolyline
 90
        2
 70
     0
 43
8.0
 10
6052.297417613671
 20
1724.196729098973
 10
6466.437319446626
 20
1724.196729098973
  0
MTEXT
  5
24198
102
{ACAD_REACTORS
330
24199
102
}
330
747D
100
AcDbEntity
  8
寸法
 62
     7
 48
50.0
100
AcDbMText
 10
8072.809554070524
 20
2846.682393904638
 30
0.0
 40
80.0
 41
0.8
 71
     6
 72
     1
  1
\A1;φ70スリーブ
  7
STYLE2
 73
     1
 44
1.0
1001
ACAD
1000
MTEXTBEGIN
1070
    73
1070
     1
1070
    44
1040
1.0
1070
    74
1070
     0
1000
MTEXTEND
  0
LEADER
  5
24199
330
747D
100
AcDbEntity
  8
寸法
 48
50.0
100
AcDbLeader
  3
INABA_S50G
 73
     0
 75
     1
 40
113.1818181818182
 41
608.6363636363635
 76
     3
 10
8356.613382761873
 20
1913.712402457251
 30
0.0
 10
8222.809554070524
 20
2765.091484813729
 30
0.0
 10
8097.809554070524
 20
2765.091484813729
 30
0.0
340
24198
1001
ACAD
1000
DSTYLE
1002
{
1070
   341
1005
0
1070
    40
1040
1.0
1070
   343
1005
0
1070
   344
1005
0
1002
}
  0
LINE
  5
2419A
330
747D
100
AcDbEntity
  8
部品1
100
AcDbLine
 10
5395.768880637365
 20
3363.535396299558
 30
0.0
 11
5395.768880637366
 21
399.2284267149107
 31
0.0
  0
LEADER
  5
2419B
330
747D
100
AcDbEntity
  8
寸法
 48
50.0
100
AcDbLeader
  3
INABA_S50G
 73
     0
 74
     0
 75
     1
 40
80.0
 41
435.0
 76
     3
 10
8396.876632623822
 20
2013.356729098973
 30
0.0
 10
8439.421095043142
 20
2163.580055252202
 30
0.0
 10
8564.421095043142
 20
2163.580055252202
 30
0.0
340
2419C
1001
ACAD
1000
DSTYLE
1002
{
1070
   341
1005
0
1070
    40
1040
1.0
1070
   343
1005
0
1070
   344
1005
0
1002
}
  0
MTEXT
  5
2419C
102
{ACAD_REACTORS
330
2419B
102
}
330
747D
100
AcDbEntity
  8
部品1
 62
     7
 48
50.0
100
AcDbMText
 10
8589.421095043141
 20
2228.580055252202
 30
0.0
 40
80.0
 41
0.8
 71
     4
 72
     1
  1
M10X160
  7
STYLE2
 73
     1
 44
1.0
1001
ACAD
1000
MTEXTBEGIN
1070
    73
1070
     1
1070
    44
1040
1.0
1070
    74
1070
     0
1000
MTEXTEND
  0
DIMENSION
  5
2419D
330
747D
100
AcDbEntity
  8
寸法
 48
50.0
100
AcDbDimension
  2
*D43
 10
9358.399898511692
 20
1964.196729098972
 30
0.0
 11
9358.399898511692
 21
1498.18782567749
 31
0.0
 70
   160
  1
20～25
 71
     5
 42
52.76000000000113
  3
INABA_S40G
100
AcDbAlignedDimension
 13
8393.276632623821
 23
2016.956729098974
 33
0.0
 14
8580.47663262382
 24
1964.196729098972
 34
0.0
 50
90.0
100
AcDbRotatedDimension
1001
ACAD
1000
DSTYLE
1002
{
1070
   341
1005
0
1002
}
  0
DIMENSION
  5
2419E
330
747D
100
AcDbEntity
  8
寸法
 48
50.0
100
AcDbDimension
  2
*D44
 10
9082.345232392665
 20
1640.196729098971
 30
0.0
 11
8982.345232392665
 21
1802.196729098973
 31
0.0
 70
    32
  1
180
 71
     5
 42
324.0000000000009
  3
INABA_S40G
100
AcDbAlignedDimension
 13
8580.47663262382
 23
1964.196729098972
 33
0.0
 14
8580.47663262382
 24
1640.196729098971
 34
0.0
 50
90.0
100
AcDbRotatedDimension
1001
ACAD
1000
DSTYLE
1002
{
1070
   341
1005
0
1002
}
  0
TEXT
  5
2419F
330
747D
100
AcDbEntity
  8
部品1
 48
50.0
100
AcDbText
 10
8584.830216908249
 20
2320.075409861173
 30
0.0
 40
80.0
  1
基礎ボルト(市販品)
  7
STYLE2
100
AcDbText
  0
LWPOLYLINE
  5
241A0
330
747D
100
AcDbEntity
  8
部品1
 48
50.0
100
AcDbPolyline
 90
        2
 70
     0
 43
8.0
 10
8580.47663262382
 20
1724.196729098973
 10
8874.179096023205
 20
1724.196729098973
  0
MTEXT
  5
241A1
102
{ACAD_REACTORS
330
241A2
102
}
330
747D
100
AcDbEntity
  8
部品1
 62
     7
 48
50.0
100
AcDbMText
 10
8619.74822299266
 20
2664.692102186233
 30
0.0
 40
80.0
 41
0.8
 71
     4
 72
     1
  1
\A1;ワッシャー(市販品)
  7
STYLE2
 73
     1
 44
1.0
1001
ACAD
1000
MTEXTBEGIN
1070
    73
1070
     1
1070
    44
1040
1.0
1070
    74
1070
     0
1000
MTEXTEND
  0
LEADER
  5
241A2
330
747D
100
AcDbEntity
  8
寸法
 48
50.0
100
AcDbLeader
  3
INABA_S50G
 73
     0
 74
     0
 75
     1
 40
102.2727272727273
 41
906.8181818181818
 76
     3
 10
8427.876632623823
 20
2233.320017543252
 30
0.0
 10
8469.748222992661
 20
2588.555738549869
 30
0.0
 10
8594.748222992661
 20
2588.555738549869
 30
0.0
340
241A1
1001
ACAD
1000
DSTYLE
1002
{
1070
   341
1005
0
1070
    40
1040
1.0
1070
   343
1005
0
1070
   344
1005
0
1002
}
  0
MTEXT
  5
241A3
102
{ACAD_REACTORS
330
241A4
102
}
330
747D
100
AcDbEntity
  8
部品1
 62
     7
 48
50.0
100
AcDbMText
 10
8588.230603737178
 20
2849.66118495102
 30
0.0
 40
80.0
 41
0.8
 71
     4
 72
     1
  1
\A1;ナット(市販品)
  7
STYLE2
 73
     1
 44
1.0
1001
ACAD
1000
MTEXTBEGIN
1070
    73
1070
     1
1070
    44
1040
1.0
1070
    74
1070
     0
1000
MTEXTEND
  0
LEADER
  5
241A4
330
747D
100
AcDbEntity
  8
寸法
 48
50.0
100
AcDbLeader
  3
INABA_S50G
 73
     0
 74
     0
 75
     1
 40
102.2727272727273
 41
680.0000000000001
 76
     3
 10
8403.876632623822
 20
2363.072010208115
 30
0.0
 10
8438.230603737178
 20
2773.524821314656
 30
0.0
 10
8563.230603737178
 20
2773.524821314656
 30
0.0
340
241A3
1001
ACAD
1000
DSTYLE
1002
{
1070
   341
1005
0
1070
    40
1040
1.0
1070
   343
1005
0
1070
   344
1005
0
1002
}
  0
LINE
  5
241A5
330
747D
100
AcDbEntity
  8
部品1
100
AcDbLine
 10
5395.768880637368
 20
399.2284267149107
 30
0.0
 11
11466.75406602361
 21
399.2284267149107
 31
0.0
  0
LINE
  5
241A6
330
747D
100
AcDbEntity
  8
部品1
100
AcDbLine
 10
11466.75406602361
 20
3123.535396299556
 30
0.0
 11
5395.768880637366
 21
3123.535396299556
 31
0.0
  0
LINE
  5
241A7
330
747D
100
AcDbEntity
  8
部品1
100
AcDbLine
 10
11466.75406602362
 20
3363.535396299558
 30
0.0
 11
5395.768880637362
 21
3363.535396299558
 31
0.0
  0
ENDSEC
  0
SECTION
  2
OBJECTS
  0
DICTIONARY
  5
7471
330
0
100
AcDbDictionary
281
     1
  3
ACAD_COLOR
350
173D2
  3
ACAD_GROUP
350
7472
  3
ACAD_LAYOUT
350
173D3
  3
ACAD_MATERIAL
350
173D1
  3
ACAD_MLINESTYLE
350
7473
  3
ACAD_PLOTSETTINGS
350
173D4
  3
ACAD_PLOTSTYLENAME
350
173CF
  3
ACDBHEADERROUNDTRIPXREC
350
2423E
  3
AcDbVariableDictionary
350
23DC2
  3
CONTENTDICTIONARY
350
E71C
  3
DRAWINGVARIABLESDICT
350
F3B9
  0
DICTIONARY
  5
1758F
330
7467
100
AcDbDictionary
280
     1
281
     1
  3
ACAD_LAYERSTATES
360
17590
  0
DICTIONARY
  5
173D2
102
{ACAD_REACTORS
330
7471
102
}
330
7471
100
AcDbDictionary
281
     1
  0
DICTIONARY
  5
7472
102
{ACAD_REACTORS
330
7471
102
}
330
7471
100
AcDbDictionary
281
     1
  3
*A1
350
1D2A9
  0
DICTIONARY
  5
173D3
102
{ACAD_REACTORS
330
7471
102
}
330
7471
100
AcDbDictionary
281
     1
  3
Model
350
173D5
  3
レイアウト1
350
173D6
  0
DICTIONARY
  5
173D1
102
{ACAD_REACTORS
330
7471
102
}
330
7471
100
AcDbDictionary
281
     1
  0
DICTIONARY
  5
7473
102
{ACAD_REACTORS
330
7471
102
}
330
7471
100
AcDbDictionary
281
     1
  3
STANDARD
350
7480
  0
DICTIONARY
  5
173D4
102
{ACAD_REACTORS
330
7471
102
}
330
7471
100
AcDbDictionary
281
     1
  0
ACDBDICTIONARYWDFLT
  5
173CF
102
{ACAD_REACTORS
330
7471
102
}
330
7471
100
AcDbDictionary
281
     1
  3
Normal
350
173D0
100
AcDbDictionaryWithDefault
340
173D0
  0
DICTIONARY
  5
2423E
102
{ACAD_REACTORS
330
7471
102
}
330
7471
100
AcDbDictionary
281
     1
  3
COLORDICT
350
24240
  3
MATERIALDICT
350
2423F
  0
DICTIONARY
  5
23DC2
102
{ACAD_REACTORS
330
7471
102
}
330
7471
100
AcDbDictionary
281
     1
  3
DIMASSOC
350
23DC3
  3
PROJECTNAME
350
23DC4
  0
DICTIONARY
  5
E71C
102
{ACAD_REACTORS
330
7471
102
}
330
7471
100
AcDbDictionary
281
     1
  0
DICTIONARY
  5
F3B9
102
{ACAD_REACTORS
330
7471
102
}
330
7471
100
AcDbDictionary
281
     1
1001
DRAWINGVARIABLESXDATA
1000
POLARMODE
1000
1
  0
DICTIONARY
  5
17590
102
{ACAD_REACTORS
330
1758F
102
}
330
1758F
100
AcDbDictionary
281
     1
  0
GROUP
  5
1D2A9
102
{ACAD_REACTORS
330
7472
102
}
330
7472
100
AcDbGroup
300

 70
     1
 71
     1
  0
LAYOUT
  5
173D5
102
{ACAD_XDICTIONARY
360
24241
102
}
102
{ACAD_REACTORS
330
173D3
102
}
330
173D3
100
AcDbPlotSettings
  1

  2
クセロPDFよこ.pc3
  4
A3
  6

 40
3.174999952316284
 41
3.174999952316284
 42
3.17498779296875
 43
3.17498779296875
 44
419.9466552734374
 45
296.9259948730469
 46
0.0
 47
0.0
 48
0.0
 49
0.0
140
0.0
141
0.0
142
1.0
143
40.0
 70
 11952
 72
     1
 73
     0
 74
     2
  7
ACA3.ctb
 75
    24
147
0.025
148
0.0
149
0.0
100
AcDbLayout
  1
Model
 70
     1
 71
     0
 10
0.0
 20
0.0
 11
12.0
 21
9.0
 12
0.0
 22
0.0
 32
0.0
 14
0.0
 24
0.0
 34
0.0
 15
0.0
 25
0.0
 35
0.0
146
0.0
 13
0.0
 23
0.0
 33
0.0
 16
1.0
 26
0.0
 36
0.0
 17
0.0
 27
1.0
 37
0.0
 76
     0
330
747D
  0
LAYOUT
  5
173D6
102
{ACAD_XDICTIONARY
360
24243
102
}
102
{ACAD_REACTORS
330
173D3
102
}
330
173D3
100
AcDbPlotSettings
  1

  2
Microsoft Office Document Image Writer
  4

  6

 40
0.0
 41
0.0
 42
0.0
 43
0.0
 44
0.0
 45
0.0
 46
0.0
 47
0.0
 48
0.0
 49
0.0
140
0.0
141
0.0
142
1.0
143
1.0
 70
   688
 72
     0
 73
     0
 74
     5
  7
ACA3.ctb
 75
    16
147
1.0
148
0.0
149
0.0
100
AcDbLayout
  1
レイアウト1
 70
     0
 71
     1
 10
0.0
 20
0.0
 11
420.0
 21
297.0
 12
0.0
 22
0.0
 32
0.0
 14
1.000000000000000E+20
 24
1.000000000000000E+20
 34
1.000000000000000E+20
 15
-1.000000000000000E+20
 25
-1.000000000000000E+20
 35
-1.000000000000000E+20
146
0.0
 13
0.0
 23
0.0
 33
0.0
 16
1.0
 26
0.0
 36
0.0
 17
0.0
 27
1.0
 37
0.0
 76
     0
330
747A
  0
MLINESTYLE
  5
7480
102
{ACAD_REACTORS
330
7473
102
}
330
7473
100
AcDbMlineStyle
  2
STANDARD
 70
     0
  3

 62
     0
 51
90.0
 52
90.0
 71
     2
 49
0.5
 62
   256
  6
BYLAYER
 49
-0.5
 62
   256
  6
BYLAYER
  0
ACDBPLACEHOLDER
  5
173D0
102
{ACAD_REACTORS
330
173CF
102
}
330
173CF
  0
XRECORD
  5
24240
102
{ACAD_REACTORS
330
2423E
102
}
330
2423E
100
AcDbXrecord
280
     1
340
173D2
  0
XRECORD
  5
2423F
102
{ACAD_REACTORS
330
2423E
102
}
330
2423E
100
AcDbXrecord
280
     1
340
173D1
  0
DICTIONARYVAR
  5
23DC3
102
{ACAD_REACTORS
330
23DC2
102
}
330
23DC2
100
DictionaryVariables
280
     0
  1
1
  0
DICTIONARYVAR
  5
23DC4
102
{ACAD_REACTORS
330
23DC2
102
}
330
23DC2
100
DictionaryVariables
280
     0
  1

  0
DICTIONARY
  5
24241
330
173D5
100
AcDbDictionary
280
     1
281
     1
  3
ACAD_XREC_ROUNDTRIP
360
24242
  0
DICTIONARY
  5
24243
330
173D6
100
AcDbDictionary
280
     1
281
     1
  3
ACAD_XREC_ROUNDTRIP
360
24244
  0
XRECORD
  5
24242
102
{ACAD_REACTORS
330
24241
102
}
330
24241
100
AcDbXrecord
280
     1
102
SHADEPLOT
 70
     0
102
SHADEPLOTRESLEVEL
 70
     2
102
SHADEPLOTCUSTOMDPI
 70
   150
  0
XRECORD
  5
24244
102
{ACAD_REACTORS
330
24243
102
}
330
24243
100
AcDbXrecord
280
     1
102
SHADEPLOT
 70
     0
102
SHADEPLOTRESLEVEL
 70
     2
102
SHADEPLOTCUSTOMDPI
 70
   300
  0
ENDSEC
  0
EOF
