  0
SECTION
  2
HEADER
  9
$ACADVER
  1
AC1015
  9
$ACADMAINTVER
 70
    20
  9
$DWGCODEPAGE
  3
ANSI_932
  9
$INSBASE
 10
0.0
 20
0.0
 30
0.0
  9
$EXTMIN
 10
139.9999999999995
 20
-0.0000000000000909
 30
0.0
  9
$EXTMAX
 10
16307.2
 20
11409.6
 30
0.0
  9
$LIMMIN
 10
0.0
 20
0.0
  9
$LIMMAX
 10
16800.0
 20
11880.0
  9
$ORTHOMODE
 70
     0
  9
$REGENMODE
 70
     1
  9
$FILLMODE
 70
     1
  9
$QTEXTMODE
 70
     0
  9
$MIRRTEXT
 70
     1
  9
$LTSCALE
 40
20.0
  9
$ATTMODE
 70
     1
  9
$TEXTSIZE
 40
4.0
  9
$TRACEWID
 40
1.0
  9
$TEXTSTYLE
  7
STYLE1
  9
$CLAYER
  8
寸法
  9
$CELTYPE
  6
BYLAYER
  9
$CECOLOR
 62
   256
  9
$CELTSCALE
 40
50.0
  9
$DISPSILH
 70
     0
  9
$DIMSCALE
 40
40.0
  9
$DIMASZ
 40
2.5
  9
$DIMEXO
 40
0.5
  9
$DIMDLI
 40
7.0
  9
$DIMRND
 40
0.0
  9
$DIMDLE
 40
0.0
  9
$DIMEXE
 40
1.5
  9
$DIMTP
 40
0.0
  9
$DIMTM
 40
0.0
  9
$DIMTXT
 40
3.0
  9
$DIMCEN
 40
0.0
  9
$DIMTSZ
 40
0.0
  9
$DIMTOL
 70
     0
  9
$DIMLIM
 70
     0
  9
$DIMTIH
 70
     0
  9
$DIMTOH
 70
     0
  9
$DIMSE1
 70
     0
  9
$DIMSE2
 70
     0
  9
$DIMTAD
 70
     3
  9
$DIMZIN
 70
     8
  9
$DIMBLK
  1

  9
$DIMASO
 70
     1
  9
$DIMSHO
 70
     1
  9
$DIMPOST
  1

  9
$DIMAPOST
  1

  9
$DIMALT
 70
     0
  9
$DIMALTD
 70
     2
  9
$DIMALTF
 40
0.0394
  9
$DIMLFAC
 40
1.0
  9
$DIMTOFL
 70
     1
  9
$DIMTVP
 40
0.0
  9
$DIMTIX
 70
     1
  9
$DIMSOXD
 70
     0
  9
$DIMSAH
 70
     1
  9
$DIMBLK1
  1
DOTSMALL
  9
$DIMBLK2
  1
DOTSMALL
  9
$DIMSTYLE
  2
INABA_S40G
  9
$DIMCLRD
 70
     0
  9
$DIMCLRE
 70
     0
  9
$DIMCLRT
 70
     7
  9
$DIMTFAC
 40
1.0
  9
$DIMGAP
 40
1.0
  9
$DIMJUST
 70
     0
  9
$DIMSD1
 70
     0
  9
$DIMSD2
 70
     0
  9
$DIMTOLJ
 70
     1
  9
$DIMTZIN
 70
     0
  9
$DIMALTZ
 70
     0
  9
$DIMALTTZ
 70
     0
  9
$DIMUPT
 70
     0
  9
$DIMDEC
 70
     1
  9
$DIMTDEC
 70
     4
  9
$DIMALTU
 70
     2
  9
$DIMALTTD
 70
     2
  9
$DIMTXSTY
  7
STYLE1
  9
$DIMAUNIT
 70
     0
  9
$DIMADEC
 70
     0
  9
$DIMALTRND
 40
0.0
  9
$DIMAZIN
 70
     0
  9
$DIMDSEP
 70
    46
  9
$DIMATFIT
 70
     3
  9
$DIMFRAC
 70
     0
  9
$DIMLDRBLK
  1

  9
$DIMLUNIT
 70
     2
  9
$DIMLWD
 70
    -2
  9
$DIMLWE
 70
    -2
  9
$DIMTMOVE
 70
     0
  9
$LUNITS
 70
     2
  9
$LUPREC
 70
     1
  9
$SKETCHINC
 40
1.0
  9
$FILLETRAD
 40
3.0
  9
$AUNITS
 70
     0
  9
$AUPREC
 70
     0
  9
$MENU
  1
acad
  9
$ELEVATION
 40
0.0
  9
$PELEVATION
 40
0.0
  9
$THICKNESS
 40
0.0
  9
$LIMCHECK
 70
     0
  9
$CHAMFERA
 40
0.0
  9
$CHAMFERB
 40
0.0
  9
$CHAMFERC
 40
0.0
  9
$CHAMFERD
 40
0.0
  9
$SKPOLY
 70
     0
  9
$TDCREATE
 40
2451368.612993866
  9
$TDUCREATE
 40
2451368.237993866
  9
$TDUPDATE
 40
2455826.606266991
  9
$TDUUPDATE
 40
2455826.231266991
  9
$TDINDWG
 40
0.7649358333
  9
$TDUSRTIMER
 40
0.7649358333
  9
$USRTIMER
 70
     1
  9
$ANGBASE
 50
0.0
  9
$ANGDIR
 70
     0
  9
$PDMODE
 70
     3
  9
$PDSIZE
 40
2.0
  9
$PLINEWID
 40
0.0
  9
$SPLFRAME
 70
     0
  9
$SPLINETYPE
 70
     6
  9
$SPLINESEGS
 70
     8
  9
$HANDSEED
  5
23C4A
  9
$SURFTAB1
 70
     6
  9
$SURFTAB2
 70
     6
  9
$SURFTYPE
 70
     6
  9
$SURFU
 70
     6
  9
$SURFV
 70
     6
  9
$UCSBASE
  2

  9
$UCSNAME
  2

  9
$UCSORG
 10
0.0
 20
0.0
 30
0.0
  9
$UCSXDIR
 10
1.0
 20
0.0
 30
0.0
  9
$UCSYDIR
 10
0.0
 20
1.0
 30
0.0
  9
$UCSORTHOREF
  2

  9
$UCSORTHOVIEW
 70
     0
  9
$UCSORGTOP
 10
0.0
 20
0.0
 30
0.0
  9
$UCSORGBOTTOM
 10
0.0
 20
0.0
 30
0.0
  9
$UCSORGLEFT
 10
0.0
 20
0.0
 30
0.0
  9
$UCSORGRIGHT
 10
0.0
 20
0.0
 30
0.0
  9
$UCSORGFRONT
 10
0.0
 20
0.0
 30
0.0
  9
$UCSORGBACK
 10
0.0
 20
0.0
 30
0.0
  9
$PUCSBASE
  2

  9
$PUCSNAME
  2

  9
$PUCSORG
 10
0.0
 20
0.0
 30
0.0
  9
$PUCSXDIR
 10
1.0
 20
0.0
 30
0.0
  9
$PUCSYDIR
 10
0.0
 20
1.0
 30
0.0
  9
$PUCSORTHOREF
  2

  9
$PUCSORTHOVIEW
 70
     0
  9
$PUCSORGTOP
 10
0.0
 20
0.0
 30
0.0
  9
$PUCSORGBOTTOM
 10
0.0
 20
0.0
 30
0.0
  9
$PUCSORGLEFT
 10
0.0
 20
0.0
 30
0.0
  9
$PUCSORGRIGHT
 10
0.0
 20
0.0
 30
0.0
  9
$PUCSORGFRONT
 10
0.0
 20
0.0
 30
0.0
  9
$PUCSORGBACK
 10
0.0
 20
0.0
 30
0.0
  9
$USERI1
 70
     0
  9
$USERI2
 70
     0
  9
$USERI3
 70
     0
  9
$USERI4
 70
     0
  9
$USERI5
 70
     0
  9
$USERR1
 40
0.0
  9
$USERR2
 40
0.0
  9
$USERR3
 40
0.0
  9
$USERR4
 40
0.0
  9
$USERR5
 40
0.0
  9
$WORLDVIEW
 70
     1
  9
$SHADEDGE
 70
     3
  9
$SHADEDIF
 70
    70
  9
$TILEMODE
 70
     1
  9
$MAXACTVP
 70
    16
  9
$PINSBASE
 10
0.0
 20
0.0
 30
0.0
  9
$PLIMCHECK
 70
     0
  9
$PEXTMIN
 10
1.000000000000000E+20
 20
1.000000000000000E+20
 30
1.000000000000000E+20
  9
$PEXTMAX
 10
-1.000000000000000E+20
 20
-1.000000000000000E+20
 30
-1.000000000000000E+20
  9
$PLIMMIN
 10
0.0
 20
0.0
  9
$PLIMMAX
 10
420.0
 20
297.0
  9
$UNITMODE
 70
     0
  9
$VISRETAIN
 70
     0
  9
$PLINEGEN
 70
     0
  9
$PSLTSCALE
 70
     0
  9
$TREEDEPTH
 70
  3020
  9
$CMLSTYLE
  2
STANDARD
  9
$CMLJUST
 70
     0
  9
$CMLSCALE
 40
1.0
  9
$PROXYGRAPHICS
 70
     1
  9
$MEASUREMENT
 70
     1
  9
$CELWEIGHT
370
    -1
  9
$ENDCAPS
280
     0
  9
$JOINSTYLE
280
     0
  9
$LWDISPLAY
290
     0
  9
$INSUNITS
 70
     0
  9
$HYPERLINKBASE
  1

  9
$STYLESHEET
  1

  9
$XEDIT
290
     1
  9
$CEPSNTYPE
380
     0
  9
$PSTYLEMODE
290
     1
  9
$FINGERPRINTGUID
  2
{5EAC461A-2277-4BF8-9AB0-99C43BB394F0}
  9
$VERSIONGUID
  2
{AB9966B2-D1E5-4C15-BF9C-9011D8C04E2E}
  9
$EXTNAMES
290
     1
  9
$PSVPSCALE
 40
0.0
  9
$OLESTARTUP
290
     0
  0
ENDSEC
  0
SECTION
  2
CLASSES
  0
CLASS
  1
ACDBDICTIONARYWDFLT
  2
AcDbDictionaryWithDefault
  3
ObjectDBX Classes
 90
        0
280
     0
281
     0
  0
CLASS
  1
DICTIONARYVAR
  2
AcDbDictionaryVar
  3
ObjectDBX Classes
 90
        0
280
     0
281
     0
  0
CLASS
  1
ACDBPLACEHOLDER
  2
AcDbPlaceHolder
  3
ObjectDBX Classes
 90
        0
280
     0
281
     0
  0
CLASS
  1
LAYOUT
  2
AcDbLayout
  3
ObjectDBX Classes
 90
        0
280
     0
281
     0
  0
ENDSEC
  0
SECTION
  2
TABLES
  0
TABLE
  2
VPORT
  5
746D
330
0
100
AcDbSymbolTable
 70
     2
  0
VPORT
  5
23C42
330
746D
100
AcDbSymbolTableRecord
100
AcDbViewportTableRecord
  2
*Active
 70
     0
 10
0.0
 20
0.0
 11
1.0
 21
1.0
 12
8400.0
 22
6532.223175279203
 13
0.0
 23
0.0
 14
10.0
 24
10.0
 15
10.0
 25
10.0
 16
0.0
 26
0.0
 36
1.0
 17
0.0
 27
0.0
 37
0.0
 40
13160.56358925593
 41
1.522222222222222
 42
50.0
 43
0.0
 44
0.0
 50
0.0
 51
0.0
 71
     0
 72
     0
 73
     1
 74
     0
 75
     0
 76
     0
 77
     0
 78
     0
281
     0
 65
     1
110
0.0
120
0.0
130
0.0
111
1.0
121
0.0
131
0.0
112
0.0
122
1.0
132
0.0
 79
     0
146
0.0
  0
ENDTAB
  0
TABLE
  2
LTYPE
  5
746A
330
0
100
AcDbSymbolTable
 70
     5
  0
LTYPE
  5
7477
330
746A
100
AcDbSymbolTableRecord
100
AcDbLinetypeTableRecord
  2
BYBLOCK
 70
     0
  3

 72
    65
 73
     0
 40
0.0
  0
LTYPE
  5
7478
330
746A
100
AcDbSymbolTableRecord
100
AcDbLinetypeTableRecord
  2
BYLAYER
 70
     0
  3

 72
    65
 73
     0
 40
0.0
  0
LTYPE
  5
7479
330
746A
100
AcDbSymbolTableRecord
100
AcDbLinetypeTableRecord
  2
CONTINUOUS
 70
     0
  3
Solid line
 72
    65
 73
     0
 40
0.0
  0
LTYPE
  5
7816
330
746A
100
AcDbSymbolTableRecord
100
AcDbLinetypeTableRecord
  2
CENTER
 70
     0
  3
____ _ ____ _ ____ _ ____ _ ____ _ ____ _ ____ 
 72
    65
 73
     4
 40
2.0
 49
1.25
 74
     0
 49
-0.25
 74
     0
 49
0.25
 74
     0
 49
-0.25
 74
     0
  0
LTYPE
  5
781A
330
746A
100
AcDbSymbolTableRecord
100
AcDbLinetypeTableRecord
  2
HIDDEN
 70
     0
  3
__ __ __ __ __ __ __ __ __ __ __ __ __ __ __ __
 72
    65
 73
     2
 40
0.375
 49
0.25
 74
     0
 49
-0.125
 74
     0
  0
LTYPE
  5
781B
330
746A
100
AcDbSymbolTableRecord
100
AcDbLinetypeTableRecord
  2
PHANTOM
 70
     0
  3
______  __  __  ______  __  __  ______  __  __ 
 72
    65
 73
     6
 40
2.5
 49
1.25
 74
     0
 49
-0.25
 74
     0
 49
0.25
 74
     0
 49
-0.25
 74
     0
 49
0.25
 74
     0
 49
-0.25
 74
     0
  0
LTYPE
  5
12CC3
330
746A
100
AcDbSymbolTableRecord
100
AcDbLinetypeTableRecord
  2
HIDDENX2
 70
     0
  3
Hidden (2x) ____ ____ ____ ____ ____ ____ ____
 72
    65
 73
     2
 40
19.05
 49
12.7
 74
     0
 49
-6.349999999999999
 74
     0
  0
ENDTAB
  0
TABLE
  2
LAYER
  5
7467
102
{ACAD_XDICTIONARY
360
1758F
102
}
330
0
100
AcDbSymbolTable
 70
    12
  0
LAYER
  5
7474
330
7467
100
AcDbSymbolTableRecord
100
AcDbLayerTableRecord
  2
0
 70
     0
 62
     7
  6
CONTINUOUS
370
    -3
390
173D0
  0
LAYER
  5
DEB2
330
7467
100
AcDbSymbolTableRecord
100
AcDbLayerTableRecord
  2
センター
 70
     0
 62
     3
  6
CENTER
370
    -3
390
173D0
  0
LAYER
  5
DEB3
330
7467
100
AcDbSymbolTableRecord
100
AcDbLayerTableRecord
  2
寸法
 70
     0
 62
     4
  6
CONTINUOUS
370
    -3
390
173D0
  0
LAYER
  5
DEB4
330
7467
100
AcDbSymbolTableRecord
100
AcDbLayerTableRecord
  2
部品1
 70
     0
 62
     7
  6
CONTINUOUS
370
    -3
390
173D0
  0
LAYER
  5
DEB5
330
7467
100
AcDbSymbolTableRecord
100
AcDbLayerTableRecord
  2
補助
 70
     0
 62
    -1
  6
CONTINUOUS
370
    -3
390
173D0
  0
LAYER
  5
DEB6
330
7467
100
AcDbSymbolTableRecord
100
AcDbLayerTableRecord
  2
文字
 70
     0
 62
     7
  6
CONTINUOUS
370
    -3
390
173D0
  0
LAYER
  5
F255
330
7467
100
AcDbSymbolTableRecord
100
AcDbLayerTableRecord
  2
DEFPOINTS
 70
     0
 62
     7
  6
CONTINUOUS
290
     0
370
    -3
390
173D0
  0
LAYER
  5
10B54
330
7467
100
AcDbSymbolTableRecord
100
AcDbLayerTableRecord
  2
仕様書枠
 70
     0
 62
   230
  6
CONTINUOUS
370
    -3
390
173D0
  0
LAYER
  5
11729
330
7467
100
AcDbSymbolTableRecord
100
AcDbLayerTableRecord
  2
Ｇ．Ｌ
 70
     0
 62
    30
  6
CONTINUOUS
370
    -3
390
173D0
  0
LAYER
  5
1173F
330
7467
100
AcDbSymbolTableRecord
100
AcDbLayerTableRecord
  2
細線
 70
     0
 62
     5
  6
CONTINUOUS
370
    -3
390
173D0
  0
LAYER
  5
12CC4
330
7467
100
AcDbSymbolTableRecord
100
AcDbLayerTableRecord
  2
想像線
 70
     0
 62
     6
  6
PHANTOM
370
    -3
390
173D0
  0
LAYER
  5
142E2
330
7467
100
AcDbSymbolTableRecord
100
AcDbLayerTableRecord
  2
破線
 70
     0
 62
     2
  6
HIDDEN
370
    -3
390
173D0
  0
ENDTAB
  0
TABLE
  2
STYLE
  5
7468
330
0
100
AcDbSymbolTable
 70
     7
  0
STYLE
  5
7475
330
7468
100
AcDbSymbolTableRecord
100
AcDbTextStyleTableRecord
  2
STANDARD
 70
     0
 40
0.0
 41
1.0
 50
0.0
 71
     0
 42
4.0
  3
txt
  4
C:\AutoCAD LT\bigfont.shx
  0
STYLE
  5
763C
330
7468
100
AcDbSymbolTableRecord
100
AcDbTextStyleTableRecord
  2
MSMINCHO
 70
     0
 40
0.0
 41
1.0
 50
0.0
 71
     0
 42
1.199999999999999
  3
C:\AutoCAD LT\msminch2.TTF
  4

  0
STYLE
  5
F706
330
7468
100
AcDbSymbolTableRecord
100
AcDbTextStyleTableRecord
  2
STYLE1
 70
     0
 40
0.0
 41
1.0
 50
0.0
 71
     0
 42
4.0
  3
isocp.shx
  4
bigfont.shx
  0
STYLE
  5
103BF
330
7468
100
AcDbSymbolTableRecord
100
AcDbTextStyleTableRecord
  2
STYLE2
 70
     0
 40
0.0
 41
1.0
 50
0.0
 71
     0
 42
100.0
  3
MS PGothic.ttf
  4

1001
ACAD
1000
MS PGothic
1071
    32818
  0
STYLE
  5
10BAA
330
7468
100
AcDbSymbolTableRecord
100
AcDbTextStyleTableRecord
  2
STYLE3
 70
     0
 40
0.0
 41
1.0
 50
0.0
 71
     0
 42
100.0
  3

  4

1001
ACAD
1000
DFPGothic-EB
1071
    32818
  0
STYLE
  5
11A15
330
7468
100
AcDbSymbolTableRecord
100
AcDbTextStyleTableRecord
  2
MSGOTHIC
 70
     0
 40
0.0
 41
1.0
 50
0.0
 71
     0
 42
3.5
  3
msgothi2.ttf
  4

  0
STYLE
  5
13E96
330
7468
100
AcDbSymbolTableRecord
100
AcDbTextStyleTableRecord
  2
MSPゴシック
 70
     0
 40
0.0
 41
1.0
 50
0.0
 71
     0
 42
4.0
  3
MS PGothic.ttf
  4

1001
ACAD
1000
MS PGothic
1071
    32818
  0
ENDTAB
  0
TABLE
  2
VIEW
  5
746B
330
0
100
AcDbSymbolTable
 70
     0
  0
ENDTAB
  0
TABLE
  2
UCS
  5
746C
330
0
100
AcDbSymbolTable
 70
     0
  0
ENDTAB
  0
TABLE
  2
APPID
  5
746E
330
0
100
AcDbSymbolTable
 70
     6
  0
APPID
  5
7476
330
746E
100
AcDbSymbolTableRecord
100
AcDbRegAppTableRecord
  2
ACAD
 70
     0
  0
APPID
  5
DEA9
330
746E
100
AcDbSymbolTableRecord
100
AcDbRegAppTableRecord
  2
CONTENTBLOCKICON
 70
     0
  0
APPID
  5
DEAA
330
746E
100
AcDbSymbolTableRecord
100
AcDbRegAppTableRecord
  2
CONTENTBLOCKDESCRIPTION
 70
     0
  0
APPID
  5
E71D
330
746E
100
AcDbSymbolTableRecord
100
AcDbRegAppTableRecord
  2
CONTENTTABDATA
 70
     0
  0
APPID
  5
E71E
330
746E
100
AcDbSymbolTableRecord
100
AcDbRegAppTableRecord
  2
CONTENTCURRENTTAB
 70
     0
  0
APPID
  5
F3BA
330
746E
100
AcDbSymbolTableRecord
100
AcDbRegAppTableRecord
  2
DRAWINGVARIABLESXDATA
 70
     0
  0
ENDTAB
  0
TABLE
  2
DIMSTYLE
  5
746F
330
0
100
AcDbSymbolTable
 70
     6
100
AcDbDimStyleTable
 71
     1
340
F71F
  0
DIMSTYLE
105
7484
330
746F
100
AcDbSymbolTableRecord
100
AcDbDimStyleTableRecord
  2
JIS
 70
     0
 41
2.5
 42
1.0
 43
7.0
 44
1.0
 73
     0
 74
     0
 77
     1
 78
     8
140
2.5
141
0.0
143
0.0394
147
0.0
172
     1
174
     1
175
     1
340
7475
  0
DIMSTYLE
105
F236
330
746F
100
AcDbSymbolTableRecord
100
AcDbDimStyleTableRecord
  2
INABA_S40
 70
     0
 40
40.0
 41
2.5
 42
0.5
 43
7.0
 44
1.5
 73
     0
 74
     0
 77
     3
 78
     8
140
3.0
141
0.0
143
0.0394
147
1.0
172
     1
173
     1
174
     1
175
     1
178
     7
289
     0
340
7475
341
DEAC
343
DEAC
344
DEAC
  0
DIMSTYLE
105
F71F
102
{ACAD_REACTORS
330
20DE1
330
20DFB
330
22741
330
2275B
330
23292
330
231EC
330
231EB
330
23168
330
23167
330
2314E
330
2314D
330
23149
330
23148
330
23165
330
23163
330
231C5
330
231C9
330
231C8
330
2314A
330
23294
330
23AEB
330
23B4B
330
23B4E
330
23B55
330
23B5D
330
23B5E
102
}
330
746F
100
AcDbSymbolTableRecord
100
AcDbDimStyleTableRecord
  2
INABA_S40G
 70
     0
 40
40.0
 41
2.5
 42
0.5
 43
7.0
 44
1.5
 73
     0
 74
     0
 77
     3
 78
     8
140
3.0
141
0.0
143
0.0394
147
1.0
172
     1
173
     1
174
     1
178
     7
271
     1
340
F706
341
F770
343
F770
344
F770
  0
DIMSTYLE
105
142E3
330
746F
100
AcDbSymbolTableRecord
100
AcDbDimStyleTableRecord
  2
INABA_S1
 70
     0
 40
0.0
 41
2.5
 42
0.5
 43
7.0
 44
1.5
 73
     0
 74
     0
 77
     3
 78
     8
140
3.0
141
0.0
143
0.0394
146
0.5
147
0.5
172
     1
173
     1
176
   256
177
   256
178
     7
271
     2
272
     2
284
     8
288
     1
340
7475
341
DEAC
343
DEAC
344
DEAC
  0
DIMSTYLE
105
14463
330
746F
100
AcDbSymbolTableRecord
100
AcDbDimStyleTableRecord
  2
INABA_S30G
 70
     0
 40
30.0
 41
2.5
 42
0.5
 43
7.0
 44
1.5
 73
     0
 74
     0
 77
     3
 78
     8
140
3.0
141
0.0
143
0.0394
147
1.0
172
     1
173
     1
174
     1
175
     1
178
     7
271
     1
340
F706
341
F770
343
F770
344
F770
  0
DIMSTYLE
105
1758E
330
746F
100
AcDbSymbolTableRecord
100
AcDbDimStyleTableRecord
  2
INABA_S50G
 70
     0
 41
125.0
 42
25.0
 43
7.0
 44
75.0
 73
     0
 74
     0
 77
     3
 78
     8
140
150.0
141
0.0
143
0.0394
147
25.0
172
     1
173
     1
174
     1
175
     1
178
     7
271
     1
340
F706
341
F770
343
F770
344
F770
  0
ENDTAB
  0
TABLE
  2
BLOCK_RECORD
  5
7466
330
0
100
AcDbSymbolTable
 70
    55
  0
BLOCK_RECORD
  5
747D
330
7466
100
AcDbSymbolTableRecord
100
AcDbBlockTableRecord
  2
*MODEL_SPACE
340
173D5
  0
BLOCK_RECORD
  5
747A
330
7466
100
AcDbSymbolTableRecord
100
AcDbBlockTableRecord
  2
*PAPER_SPACE
340
173D6
  0
BLOCK_RECORD
  5
DEAC
330
7466
100
AcDbSymbolTableRecord
100
AcDbBlockTableRecord
  2
_OPEN
340
0
  0
BLOCK_RECORD
  5
F770
330
7466
100
AcDbSymbolTableRecord
100
AcDbBlockTableRecord
  2
_DOTSMALL
340
0
102
{BLKREFS
331
18C65
331
18C66
331
18C59
331
18C5A
331
18C4D
331
18C4E
331
18C41
331
18C42
331
18C35
331
18C36
331
18C29
331
18C2A
331
18C1D
331
18C1E
331
18C0F
331
18C10
331
18C03
331
18C04
331
18BF5
331
18BF6
331
18BE7
331
18BE8
331
18BD9
331
18BDA
331
18BCD
331
18BCE
331
21316
331
21317
331
21321
331
21322
331
2132A
331
2132B
331
23737
331
23738
331
23741
331
23742
331
2374B
331
2374C
331
23754
331
23755
331
2378D
331
2378E
331
23796
331
23797
331
2379F
331
237A0
331
237BC
331
237BD
331
237C7
331
237C8
331
237D2
331
237D3
331
237DD
331
237DE
331
237E8
331
237E9
331
2380C
331
2380D
331
23815
331
23816
331
2382A
331
2382B
331
23834
331
23835
331
23848
331
23849
331
23851
331
23852
331
23897
331
23898
331
238A1
331
238A2
331
238F3
331
238F4
331
238E7
331
238E8
331
238DB
331
238DC
331
238CF
331
238D0
331
238C3
331
238C4
331
238B5
331
238B6
331
23BED
331
23BEE
331
23BF8
331
23BF9
331
23C01
331
23C02
331
23C0A
331
23C0B
331
23C13
331
23C14
331
23C1C
331
23C1D
331
23C32
331
23C33
102
}
  0
BLOCK_RECORD
  5
164B4
330
7466
100
AcDbSymbolTableRecord
100
AcDbBlockTableRecord
  2
_DOT
340
0
102
{BLKREFS
331
18C73
331
18C74
102
}
  0
BLOCK_RECORD
  5
18BC8
330
7466
100
AcDbSymbolTableRecord
100
AcDbBlockTableRecord
  2
*D3
340
0
  0
BLOCK_RECORD
  5
18BD4
330
7466
100
AcDbSymbolTableRecord
100
AcDbBlockTableRecord
  2
*D4
340
0
  0
BLOCK_RECORD
  5
18BE0
330
7466
100
AcDbSymbolTableRecord
100
AcDbBlockTableRecord
  2
*D5
340
0
  0
BLOCK_RECORD
  5
18BEE
330
7466
100
AcDbSymbolTableRecord
100
AcDbBlockTableRecord
  2
*D6
340
0
  0
BLOCK_RECORD
  5
18BFC
330
7466
100
AcDbSymbolTableRecord
100
AcDbBlockTableRecord
  2
*D7
340
0
  0
BLOCK_RECORD
  5
18C0A
330
7466
100
AcDbSymbolTableRecord
100
AcDbBlockTableRecord
  2
*D8
340
0
  0
BLOCK_RECORD
  5
18C16
330
7466
100
AcDbSymbolTableRecord
100
AcDbBlockTableRecord
  2
*D9
340
0
  0
BLOCK_RECORD
  5
18C24
330
7466
100
AcDbSymbolTableRecord
100
AcDbBlockTableRecord
  2
*D10
340
0
  0
BLOCK_RECORD
  5
18C30
330
7466
100
AcDbSymbolTableRecord
100
AcDbBlockTableRecord
  2
*D11
340
0
  0
BLOCK_RECORD
  5
18C3C
330
7466
100
AcDbSymbolTableRecord
100
AcDbBlockTableRecord
  2
*D12
340
0
  0
BLOCK_RECORD
  5
18C48
330
7466
100
AcDbSymbolTableRecord
100
AcDbBlockTableRecord
  2
*D13
340
0
  0
BLOCK_RECORD
  5
18C54
330
7466
100
AcDbSymbolTableRecord
100
AcDbBlockTableRecord
  2
*D14
340
0
  0
BLOCK_RECORD
  5
18C60
330
7466
100
AcDbSymbolTableRecord
100
AcDbBlockTableRecord
  2
*D15
340
0
  0
BLOCK_RECORD
  5
18C6C
330
7466
100
AcDbSymbolTableRecord
100
AcDbBlockTableRecord
  2
*D16
340
0
  0
BLOCK_RECORD
  5
18C7A
330
7466
100
AcDbSymbolTableRecord
100
AcDbBlockTableRecord
  2
A$C3B1A506B
340
0
  0
BLOCK_RECORD
  5
1C4CA
330
7466
100
AcDbSymbolTableRecord
100
AcDbBlockTableRecord
  2
_NONE
340
0
  0
BLOCK_RECORD
  5
20DE2
330
7466
100
AcDbSymbolTableRecord
100
AcDbBlockTableRecord
  2
*D19
340
0
  0
BLOCK_RECORD
  5
20DFC
330
7466
100
AcDbSymbolTableRecord
100
AcDbBlockTableRecord
  2
*D20
340
0
  0
BLOCK_RECORD
  5
22742
330
7466
100
AcDbSymbolTableRecord
100
AcDbBlockTableRecord
  2
*D25
340
0
  0
BLOCK_RECORD
  5
2275C
330
7466
100
AcDbSymbolTableRecord
100
AcDbBlockTableRecord
  2
*D26
340
0
  0
BLOCK_RECORD
  5
232A3
330
7466
100
AcDbSymbolTableRecord
100
AcDbBlockTableRecord
  2
*D27
340
0
  0
BLOCK_RECORD
  5
232AF
330
7466
100
AcDbSymbolTableRecord
100
AcDbBlockTableRecord
  2
*D28
340
0
  0
BLOCK_RECORD
  5
232BB
330
7466
100
AcDbSymbolTableRecord
100
AcDbBlockTableRecord
  2
*D29
340
0
  0
BLOCK_RECORD
  5
232C8
330
7466
100
AcDbSymbolTableRecord
100
AcDbBlockTableRecord
  2
*D30
340
0
  0
BLOCK_RECORD
  5
232EA
330
7466
100
AcDbSymbolTableRecord
100
AcDbBlockTableRecord
  2
*D31
340
0
  0
BLOCK_RECORD
  5
23303
330
7466
100
AcDbSymbolTableRecord
100
AcDbBlockTableRecord
  2
*D32
340
0
  0
BLOCK_RECORD
  5
23310
330
7466
100
AcDbSymbolTableRecord
100
AcDbBlockTableRecord
  2
*D33
340
0
  0
BLOCK_RECORD
  5
23326
330
7466
100
AcDbSymbolTableRecord
100
AcDbBlockTableRecord
  2
*D34
340
0
  0
BLOCK_RECORD
  5
23333
330
7466
100
AcDbSymbolTableRecord
100
AcDbBlockTableRecord
  2
*D35
340
0
  0
BLOCK_RECORD
  5
23366
330
7466
100
AcDbSymbolTableRecord
100
AcDbBlockTableRecord
  2
*D36
340
0
  0
BLOCK_RECORD
  5
23380
330
7466
100
AcDbSymbolTableRecord
100
AcDbBlockTableRecord
  2
*D37
340
0
  0
BLOCK_RECORD
  5
2338D
330
7466
100
AcDbSymbolTableRecord
100
AcDbBlockTableRecord
  2
*D38
340
0
  0
BLOCK_RECORD
  5
2339A
330
7466
100
AcDbSymbolTableRecord
100
AcDbBlockTableRecord
  2
*D39
340
0
  0
BLOCK_RECORD
  5
233A6
330
7466
100
AcDbSymbolTableRecord
100
AcDbBlockTableRecord
  2
*D40
340
0
  0
BLOCK_RECORD
  5
233B3
330
7466
100
AcDbSymbolTableRecord
100
AcDbBlockTableRecord
  2
*D41
340
0
  0
BLOCK_RECORD
  5
233BF
330
7466
100
AcDbSymbolTableRecord
100
AcDbBlockTableRecord
  2
*D42
340
0
  0
BLOCK_RECORD
  5
23B68
330
7466
100
AcDbSymbolTableRecord
100
AcDbBlockTableRecord
  2
*D49
340
0
  0
BLOCK_RECORD
  5
23B74
330
7466
100
AcDbSymbolTableRecord
100
AcDbBlockTableRecord
  2
*D50
340
0
  0
BLOCK_RECORD
  5
23B80
330
7466
100
AcDbSymbolTableRecord
100
AcDbBlockTableRecord
  2
*D51
340
0
  0
BLOCK_RECORD
  5
23B8C
330
7466
100
AcDbSymbolTableRecord
100
AcDbBlockTableRecord
  2
*D52
340
0
  0
BLOCK_RECORD
  5
23B98
330
7466
100
AcDbSymbolTableRecord
100
AcDbBlockTableRecord
  2
*D53
340
0
  0
BLOCK_RECORD
  5
23BA6
330
7466
100
AcDbSymbolTableRecord
100
AcDbBlockTableRecord
  2
*D54
340
0
  0
ENDTAB
  0
ENDSEC
  0
SECTION
  2
BLOCKS
  0
BLOCK
  5
7489
330
747D
100
AcDbEntity
  8
0
100
AcDbBlockBegin
  2
*MODEL_SPACE
 70
     0
 10
0.0
 20
0.0
 30
0.0
  3
*MODEL_SPACE
  1

  0
ENDBLK
  5
748A
330
747D
100
AcDbEntity
  8
0
100
AcDbBlockEnd
  0
BLOCK
  5
7487
330
747A
100
AcDbEntity
 67
     1
  8
0
100
AcDbBlockBegin
  2
*PAPER_SPACE
 70
     0
 10
0.0
 20
0.0
 30
0.0
  3
*PAPER_SPACE
  1

  0
ENDBLK
  5
7488
330
747A
100
AcDbEntity
 67
     1
  8
0
100
AcDbBlockEnd
  0
BLOCK
  5
DEAD
330
DEAC
100
AcDbEntity
  8
0
100
AcDbBlockBegin
  2
_OPEN
 70
     0
 10
0.0
 20
0.0
 30
0.0
  3
_OPEN
  1

  0
LINE
  5
DEAE
330
DEAC
100
AcDbEntity
  8
0
  6
ByBlock
 62
     0
100
AcDbLine
 10
-1.0
 20
0.1666666666666666
 30
0.0
 11
0.0
 21
0.0
 31
0.0
  0
LINE
  5
DEAF
330
DEAC
100
AcDbEntity
  8
0
  6
ByBlock
 62
     0
100
AcDbLine
 10
0.0
 20
0.0
 30
0.0
 11
-1.0
 21
-0.1666666666666666
 31
0.0
  0
LINE
  5
DEB0
330
DEAC
100
AcDbEntity
  8
0
  6
ByBlock
 62
     0
100
AcDbLine
 10
0.0
 20
0.0
 30
0.0
 11
-1.0
 21
0.0
 31
0.0
  0
ENDBLK
  5
DEB1
330
DEAC
100
AcDbEntity
  8
0
100
AcDbBlockEnd
  0
BLOCK
  5
F771
330
F770
100
AcDbEntity
  8
0
 48
50.0
100
AcDbBlockBegin
  2
_DOTSMALL
 70
     0
 10
0.0
 20
0.0
 30
0.0
  3
_DOTSMALL
  1

  0
LWPOLYLINE
  5
F772
330
F770
100
AcDbEntity
  8
0
  6
ByBlock
 62
     0
 48
50.0
100
AcDbPolyline
 90
        2
 70
     1
 43
0.5
 10
-0.0625
 20
0.0
 42
1.0
 10
0.0625
 20
0.0
 42
1.0
  0
ENDBLK
  5
F776
330
F770
100
AcDbEntity
  8
0
 48
50.0
100
AcDbBlockEnd
  0
BLOCK
  5
164BA
330
164B4
100
AcDbEntity
  8
0
 48
50.0
100
AcDbBlockBegin
  2
_DOT
 70
     0
 10
0.0
 20
0.0
 30
0.0
  3
_DOT
  1

  0
LWPOLYLINE
  5
164B5
330
164B4
100
AcDbEntity
  8
0
  6
ByBlock
 62
     0
 48
50.0
100
AcDbPolyline
 90
        2
 70
     1
 43
0.5
 10
-0.25
 20
0.0
 42
1.0
 10
0.25
 20
0.0
 42
1.0
  0
LINE
  5
164B9
330
164B4
100
AcDbEntity
  8
0
  6
ByBlock
 62
     0
 48
50.0
100
AcDbLine
 10
-0.5
 20
0.0
 30
0.0
 11
-1.0
 21
0.0
 31
0.0
  0
ENDBLK
  5
164BB
330
164B4
100
AcDbEntity
  8
0
 48
50.0
100
AcDbBlockEnd
  0
BLOCK
  5
18BC9
330
18BC8
100
AcDbEntity
  8
0
 48
50.0
100
AcDbBlockBegin
  2
*D3
 70
     1
 10
0.0
 20
0.0
 30
0.0
  3
*D3
  1

  0
LINE
  5
18BCA
330
18BC8
100
AcDbEntity
  8
寸法
 62
     0
 48
50.0
370
    -2
100
AcDbLine
 10
7649.896575106999
 20
9636.123139034717
 30
0.0
 11
8702.429862581047
 21
9636.123139034717
 31
0.0
  0
LINE
  5
18BCB
330
18BC8
100
AcDbEntity
  8
寸法
 62
     0
 48
50.0
370
    -2
100
AcDbLine
 10
7649.896575106973
 20
7846.123139034709
 30
0.0
 11
8702.429862581047
 21
7846.123139034709
 31
0.0
  0
LINE
  5
18BCC
330
18BC8
100
AcDbEntity
  8
寸法
 62
     0
 48
50.0
370
    -2
100
AcDbLine
 10
8642.429862581046
 20
9636.123139034717
 30
0.0
 11
8642.429862581046
 21
7846.123139034709
 31
0.0
  0
INSERT
  5
18BCD
330
18BC8
100
AcDbEntity
  8
寸法
 62
     0
 48
50.0
370
    -2
100
AcDbBlockReference
  2
_DOTSMALL
 10
8642.429862581046
 20
9636.123139034717
 30
0.0
 41
100.0
 42
100.0
 43
100.0
 50
90.0
  0
INSERT
  5
18BCE
330
18BC8
100
AcDbEntity
  8
寸法
 62
     0
 48
50.0
370
    -2
100
AcDbBlockReference
  2
_DOTSMALL
 10
8642.429862581046
 20
7846.123139034709
 30
0.0
 41
100.0
 42
100.0
 43
100.0
 50
270.0
  0
MTEXT
  5
18BCF
330
18BC8
100
AcDbEntity
  8
寸法
 62
     7
 48
50.0
100
AcDbMText
 10
8542.429862581045
 20
8741.123139034712
 30
0.0
 40
120.0
 41
0.0
 71
     5
 72
     1
  1
\A1;1790
  7
STYLE1
 11
0.0000000000000001
 21
1.0
 31
0.0
 73
     1
 44
1.0
1001
ACAD
1000
MTEXTBEGIN
1070
    73
1070
     1
1070
    44
1040
1.0
1070
    74
1070
     0
1000
MTEXTEND
  0
POINT
  5
18BD0
330
18BC8
100
AcDbEntity
  8
DEFPOINTS
 62
     0
 48
50.0
100
AcDbPoint
 10
7629.896575106998
 20
9636.123139034717
 30
0.0
  0
POINT
  5
18BD1
330
18BC8
100
AcDbEntity
  8
DEFPOINTS
 62
     0
 48
50.0
100
AcDbPoint
 10
7629.896575106974
 20
7846.123139034709
 30
0.0
  0
POINT
  5
18BD2
330
18BC8
100
AcDbEntity
  8
DEFPOINTS
 62
     0
 48
50.0
100
AcDbPoint
 10
8642.429862581046
 20
7846.123139034709
 30
0.0
  0
ENDBLK
  5
18BD3
330
18BC8
100
AcDbEntity
  8
0
 48
50.0
100
AcDbBlockEnd
  0
BLOCK
  5
18BD5
330
18BD4
100
AcDbEntity
  8
0
 48
50.0
100
AcDbBlockBegin
  2
*D4
 70
     1
 10
0.0
 20
0.0
 30
0.0
  3
*D4
  1

  0
LINE
  5
18BD6
330
18BD4
100
AcDbEntity
  8
寸法
 62
     0
 48
50.0
370
    -2
100
AcDbLine
 10
4214.896575106998
 20
9656.123139034622
 30
0.0
 11
4214.896575106998
 21
10211.93135865972
 31
0.0
  0
LINE
  5
18BD7
330
18BD4
100
AcDbEntity
  8
寸法
 62
     0
 48
50.0
370
    -2
100
AcDbLine
 10
7574.896575106999
 20
9656.123139034718
 30
0.0
 11
7574.896575106999
 21
10211.93135865972
 31
0.0
  0
LINE
  5
18BD8
330
18BD4
100
AcDbEntity
  8
寸法
 62
     0
 48
50.0
370
    -2
100
AcDbLine
 10
4214.896575106998
 20
10151.93135865972
 30
0.0
 11
7574.896575106999
 21
10151.93135865972
 31
0.0
  0
INSERT
  5
18BD9
330
18BD4
100
AcDbEntity
  8
寸法
 62
     0
 48
50.0
370
    -2
100
AcDbBlockReference
  2
_DOTSMALL
 10
4214.896575106998
 20
10151.93135865972
 30
0.0
 41
100.0
 42
100.0
 43
100.0
 50
180.0
  0
INSERT
  5
18BDA
330
18BD4
100
AcDbEntity
  8
寸法
 62
     0
 48
50.0
370
    -2
100
AcDbBlockReference
  2
_DOTSMALL
 10
7574.896575106999
 20
10151.93135865972
 30
0.0
 41
100.0
 42
100.0
 43
100.0
  0
MTEXT
  5
18BDB
330
18BD4
100
AcDbEntity
  8
寸法
 62
     7
 48
50.0
100
AcDbMText
 10
5894.896575106997
 20
10251.94316968334
 30
0.0
 40
120.0
 41
0.0
 71
     5
 72
     1
  1
\A1;8X420=3360
  7
STYLE1
 73
     1
 44
1.0
1001
ACAD
1000
MTEXTBEGIN
1070
    73
1070
     1
1070
    44
1040
1.0
1070
    74
1070
     0
1000
MTEXTEND
  0
POINT
  5
18BDC
330
18BD4
100
AcDbEntity
  8
DEFPOINTS
 62
     0
 48
50.0
100
AcDbPoint
 10
4214.896575106998
 20
9636.123139034623
 30
0.0
  0
POINT
  5
18BDD
330
18BD4
100
AcDbEntity
  8
DEFPOINTS
 62
     0
 48
50.0
100
AcDbPoint
 10
7574.896575106999
 20
9636.123139034717
 30
0.0
  0
POINT
  5
18BDE
330
18BD4
100
AcDbEntity
  8
DEFPOINTS
 62
     0
 48
50.0
100
AcDbPoint
 10
7574.896575106999
 20
10151.93135865972
 30
0.0
  0
ENDBLK
  5
18BDF
330
18BD4
100
AcDbEntity
  8
0
 48
50.0
100
AcDbBlockEnd
  0
BLOCK
  5
18BE1
330
18BE0
100
AcDbEntity
  8
0
 48
50.0
100
AcDbBlockBegin
  2
*D5
 70
     1
 10
0.0
 20
0.0
 30
0.0
  3
*D5
  1

  0
LINE
  5
18BE2
330
18BE0
100
AcDbEntity
  8
寸法
 62
     0
 48
50.0
370
    -2
100
AcDbLine
 10
7574.896575106999
 20
9656.123139034718
 30
0.0
 11
7574.896575106999
 21
10211.9313586597
 31
0.0
  0
LINE
  5
18BE3
330
18BE0
100
AcDbEntity
  8
寸法
 62
     0
 48
50.0
370
    -2
100
AcDbLine
 10
7629.896575106998
 20
9656.123139034718
 30
0.0
 11
7629.896575106998
 21
10211.9313586597
 31
0.0
  0
LINE
  5
18BE4
330
18BE0
100
AcDbEntity
  8
寸法
 62
     0
 48
50.0
370
    -2
100
AcDbLine
 10
7574.896575106999
 20
10151.9313586597
 30
0.0
 11
7474.896575106999
 21
10151.9313586597
 31
0.0
  0
LINE
  5
18BE5
330
18BE0
100
AcDbEntity
  8
寸法
 62
     0
 48
50.0
370
    -2
100
AcDbLine
 10
7629.896575106998
 20
10151.9313586597
 30
0.0
 11
8046.867137855477
 21
10151.9313586597
 31
0.0
  0
LINE
  5
18BE6
330
18BE0
100
AcDbEntity
  8
寸法
 62
     0
 48
50.0
370
    -2
100
AcDbLine
 10
7574.896575106999
 20
10151.9313586597
 30
0.0
 11
7629.896575106998
 21
10151.9313586597
 31
0.0
  0
INSERT
  5
18BE7
330
18BE0
100
AcDbEntity
  8
寸法
 62
     0
 48
50.0
370
    -2
100
AcDbBlockReference
  2
_DOTSMALL
 10
7574.896575106999
 20
10151.9313586597
 30
0.0
 41
100.0
 42
100.0
 43
100.0
  0
INSERT
  5
18BE8
330
18BE0
100
AcDbEntity
  8
寸法
 62
     0
 48
50.0
370
    -2
100
AcDbBlockReference
  2
_DOTSMALL
 10
7629.896575106998
 20
10151.9313586597
 30
0.0
 41
100.0
 42
100.0
 43
100.0
 50
180.0
  0
MTEXT
  5
18BE9
330
18BE0
100
AcDbEntity
  8
寸法
 62
     7
 48
50.0
100
AcDbMText
 10
7938.381856481237
 20
10251.9313586597
 30
0.0
 40
120.0
 41
0.0
 71
     5
 72
     1
  1
\A1;55
  7
STYLE1
 73
     1
 44
1.0
1001
ACAD
1000
MTEXTBEGIN
1070
    73
1070
     1
1070
    44
1040
1.0
1070
    74
1070
     0
1000
MTEXTEND
  0
POINT
  5
18BEA
330
18BE0
100
AcDbEntity
  8
DEFPOINTS
 62
     0
 48
50.0
100
AcDbPoint
 10
7574.896575106999
 20
9636.123139034717
 30
0.0
  0
POINT
  5
18BEB
330
18BE0
100
AcDbEntity
  8
DEFPOINTS
 62
     0
 48
50.0
100
AcDbPoint
 10
7629.896575106998
 20
9636.123139034717
 30
0.0
  0
POINT
  5
18BEC
330
18BE0
100
AcDbEntity
  8
DEFPOINTS
 62
     0
 48
50.0
100
AcDbPoint
 10
7629.896575106998
 20
10151.9313586597
 30
0.0
  0
ENDBLK
  5
18BED
330
18BE0
100
AcDbEntity
  8
0
 48
50.0
100
AcDbBlockEnd
  0
BLOCK
  5
18BEF
330
18BEE
100
AcDbEntity
  8
0
 48
50.0
100
AcDbBlockBegin
  2
*D6
 70
     1
 10
0.0
 20
0.0
 30
0.0
  3
*D6
  1

  0
LINE
  5
18BF0
330
18BEE
100
AcDbEntity
  8
寸法
 62
     0
 48
50.0
370
    -2
100
AcDbLine
 10
7649.896575106999
 20
9636.123139034717
 30
0.0
 11
8337.32292084141
 21
9636.123139034717
 31
0.0
  0
LINE
  5
18BF1
330
18BEE
100
AcDbEntity
  8
寸法
 62
     0
 48
50.0
370
    -2
100
AcDbLine
 10
7649.896575106999
 20
9581.123139034721
 30
0.0
 11
8337.32292084141
 21
9581.123139034721
 31
0.0
  0
LINE
  5
18BF2
330
18BEE
100
AcDbEntity
  8
寸法
 62
     0
 48
50.0
370
    -2
100
AcDbLine
 10
8277.322920841411
 20
9581.123139034721
 30
0.0
 11
8277.322920841411
 21
9481.123139034719
 31
0.0
  0
LINE
  5
18BF3
330
18BEE
100
AcDbEntity
  8
寸法
 62
     0
 48
50.0
370
    -2
100
AcDbLine
 10
8277.322920841411
 20
9636.123139034717
 30
0.0
 11
8277.322920841411
 21
10053.09370178319
 31
0.0
  0
LINE
  5
18BF4
330
18BEE
100
AcDbEntity
  8
寸法
 62
     0
 48
50.0
370
    -2
100
AcDbLine
 10
8277.322920841411
 20
9581.123139034721
 30
0.0
 11
8277.322920841411
 21
9636.123139034717
 31
0.0
  0
INSERT
  5
18BF5
330
18BEE
100
AcDbEntity
  8
寸法
 62
     0
 48
50.0
370
    -2
100
AcDbBlockReference
  2
_DOTSMALL
 10
8277.322920841411
 20
9581.123139034721
 30
0.0
 41
100.0
 42
100.0
 43
100.0
 50
90.0
  0
INSERT
  5
18BF6
330
18BEE
100
AcDbEntity
  8
寸法
 62
     0
 48
50.0
370
    -2
100
AcDbBlockReference
  2
_DOTSMALL
 10
8277.322920841411
 20
9636.123139034717
 30
0.0
 41
100.0
 42
100.0
 43
100.0
 50
270.0
  0
MTEXT
  5
18BF7
330
18BEE
100
AcDbEntity
  8
寸法
 62
     7
 48
50.0
100
AcDbMText
 10
8177.32292084141
 20
9944.608420408957
 30
0.0
 40
120.0
 41
0.0
 71
     5
 72
     1
  1
\A1;55
  7
STYLE1
 11
0.0000000000000001
 21
1.0
 31
0.0
 73
     1
 44
1.0
1001
ACAD
1000
MTEXTBEGIN
1070
    73
1070
     1
1070
    44
1040
1.0
1070
    74
1070
     0
1000
MTEXTEND
  0
POINT
  5
18BF8
330
18BEE
100
AcDbEntity
  8
DEFPOINTS
 62
     0
 48
50.0
100
AcDbPoint
 10
7629.896575106998
 20
9636.123139034717
 30
0.0
  0
POINT
  5
18BF9
330
18BEE
100
AcDbEntity
  8
DEFPOINTS
 62
     0
 48
50.0
100
AcDbPoint
 10
7629.896575106998
 20
9581.123139034721
 30
0.0
  0
POINT
  5
18BFA
330
18BEE
100
AcDbEntity
  8
DEFPOINTS
 62
     0
 48
50.0
100
AcDbPoint
 10
8277.322920841411
 20
9581.123139034721
 30
0.0
  0
ENDBLK
  5
18BFB
330
18BEE
100
AcDbEntity
  8
0
 48
50.0
100
AcDbBlockEnd
  0
BLOCK
  5
18BFD
330
18BFC
100
AcDbEntity
  8
0
 48
50.0
100
AcDbBlockBegin
  2
*D7
 70
     1
 10
0.0
 20
0.0
 30
0.0
  3
*D7
  1

  0
LINE
  5
18BFE
330
18BFC
100
AcDbEntity
  8
寸法
 62
     0
 48
50.0
370
    -2
100
AcDbLine
 10
4159.896575106963
 20
9656.123139034622
 30
0.0
 11
4159.896575106963
 21
10211.9313586596
 31
0.0
  0
LINE
  5
18BFF
330
18BFC
100
AcDbEntity
  8
寸法
 62
     0
 48
50.0
370
    -2
100
AcDbLine
 10
4214.896575106998
 20
9656.123139034622
 30
0.0
 11
4214.896575106998
 21
10211.9313586596
 31
0.0
  0
LINE
  5
18C00
330
18BFC
100
AcDbEntity
  8
寸法
 62
     0
 48
50.0
370
    -2
100
AcDbLine
 10
4214.896575106998
 20
10151.9313586596
 30
0.0
 11
4314.896575106998
 21
10151.9313586596
 31
0.0
  0
LINE
  5
18C01
330
18BFC
100
AcDbEntity
  8
寸法
 62
     0
 48
50.0
370
    -2
100
AcDbLine
 10
4159.896575106963
 20
10151.9313586596
 30
0.0
 11
3742.926012358486
 21
10151.9313586596
 31
0.0
  0
LINE
  5
18C02
330
18BFC
100
AcDbEntity
  8
寸法
 62
     0
 48
50.0
370
    -2
100
AcDbLine
 10
4214.896575106998
 20
10151.9313586596
 30
0.0
 11
4159.896575106963
 21
10151.9313586596
 31
0.0
  0
INSERT
  5
18C03
330
18BFC
100
AcDbEntity
  8
寸法
 62
     0
 48
50.0
370
    -2
100
AcDbBlockReference
  2
_DOTSMALL
 10
4214.896575106998
 20
10151.9313586596
 30
0.0
 41
100.0
 42
100.0
 43
100.0
 50
180.0
  0
INSERT
  5
18C04
330
18BFC
100
AcDbEntity
  8
寸法
 62
     0
 48
50.0
370
    -2
100
AcDbBlockReference
  2
_DOTSMALL
 10
4159.896575106963
 20
10151.9313586596
 30
0.0
 41
100.0
 42
100.0
 43
100.0
  0
MTEXT
  5
18C05
330
18BFC
100
AcDbEntity
  8
寸法
 62
     7
 48
50.0
100
AcDbMText
 10
3851.411293732725
 20
10251.9313586596
 30
0.0
 40
120.0
 41
0.0
 71
     5
 72
     1
  1
\A1;55
  7
STYLE1
 73
     1
 44
1.0
1001
ACAD
1000
MTEXTBEGIN
1070
    73
1070
     1
1070
    44
1040
1.0
1070
    74
1070
     0
1000
MTEXTEND
  0
POINT
  5
18C06
330
18BFC
100
AcDbEntity
  8
DEFPOINTS
 62
     0
 48
50.0
100
AcDbPoint
 10
4159.896575106963
 20
9636.123139034623
 30
0.0
  0
POINT
  5
18C07
330
18BFC
100
AcDbEntity
  8
DEFPOINTS
 62
     0
 48
50.0
100
AcDbPoint
 10
4214.896575106998
 20
9636.123139034623
 30
0.0
  0
POINT
  5
18C08
330
18BFC
100
AcDbEntity
  8
DEFPOINTS
 62
     0
 48
50.0
100
AcDbPoint
 10
4214.896575106998
 20
10151.9313586596
 30
0.0
  0
ENDBLK
  5
18C09
330
18BFC
100
AcDbEntity
  8
0
 48
50.0
100
AcDbBlockEnd
  0
BLOCK
  5
18C0B
330
18C0A
100
AcDbEntity
  8
0
 48
50.0
100
AcDbBlockBegin
  2
*D8
 70
     1
 10
0.0
 20
0.0
 30
0.0
  3
*D8
  1

  0
LINE
  5
18C0C
330
18C0A
100
AcDbEntity
  8
寸法
 62
     0
 48
50.0
370
    -2
100
AcDbLine
 10
4159.896575106992
 20
7826.123139034546
 30
0.0
 11
4159.896575106992
 21
6804.372203245664
 31
0.0
  0
LINE
  5
18C0D
330
18C0A
100
AcDbEntity
  8
寸法
 62
     0
 48
50.0
370
    -2
100
AcDbLine
 10
7629.896575106974
 20
7826.123139034674
 30
0.0
 11
7629.896575106974
 21
6804.372203245664
 31
0.0
  0
LINE
  5
18C0E
330
18C0A
100
AcDbEntity
  8
寸法
 62
     0
 48
50.0
370
    -2
100
AcDbLine
 10
4159.896575106992
 20
6864.372203245665
 30
0.0
 11
7629.896575106974
 21
6864.372203245665
 31
0.0
  0
INSERT
  5
18C0F
330
18C0A
100
AcDbEntity
  8
寸法
 62
     0
 48
50.0
370
    -2
100
AcDbBlockReference
  2
_DOTSMALL
 10
4159.896575106992
 20
6864.372203245665
 30
0.0
 41
100.0
 42
100.0
 43
100.0
 50
180.0
  0
INSERT
  5
18C10
330
18C0A
100
AcDbEntity
  8
寸法
 62
     0
 48
50.0
370
    -2
100
AcDbBlockReference
  2
_DOTSMALL
 10
7629.896575106974
 20
6864.372203245665
 30
0.0
 41
100.0
 42
100.0
 43
100.0
  0
MTEXT
  5
18C11
330
18C0A
100
AcDbEntity
  8
寸法
 62
     7
 48
50.0
100
AcDbMText
 10
5911.12376113973
 20
6964.372203245665
 30
0.0
 40
120.0
 41
0.0
 71
     5
 72
     1
  1
\A1;3470
  7
STYLE1
 73
     1
 44
1.0
1001
ACAD
1000
MTEXTBEGIN
1070
    73
1070
     1
1070
    44
1040
1.0
1070
    74
1070
     0
1000
MTEXTEND
  0
POINT
  5
18C12
330
18C0A
100
AcDbEntity
  8
DEFPOINTS
 62
     0
 48
50.0
100
AcDbPoint
 10
4159.896575106992
 20
7846.123139034546
 30
0.0
  0
POINT
  5
18C13
330
18C0A
100
AcDbEntity
  8
DEFPOINTS
 62
     0
 48
50.0
100
AcDbPoint
 10
7629.896575106974
 20
7846.123139034673
 30
0.0
  0
POINT
  5
18C14
330
18C0A
100
AcDbEntity
  8
DEFPOINTS
 62
     0
 48
50.0
100
AcDbPoint
 10
7629.896575106974
 20
6864.372203245665
 30
0.0
  0
ENDBLK
  5
18C15
330
18C0A
100
AcDbEntity
  8
0
 48
50.0
100
AcDbBlockEnd
  0
BLOCK
  5
18C17
330
18C16
100
AcDbEntity
  8
0
 48
50.0
100
AcDbBlockBegin
  2
*D9
 70
     1
 10
0.0
 20
0.0
 30
0.0
  3
*D9
  1

  0
LINE
  5
18C18
330
18C16
100
AcDbEntity
  8
寸法
 62
     0
 48
50.0
370
    -2
100
AcDbLine
 10
7649.896575106973
 20
7901.123139034706
 30
0.0
 11
8337.322920841385
 21
7901.123139034706
 31
0.0
  0
LINE
  5
18C19
330
18C16
100
AcDbEntity
  8
寸法
 62
     0
 48
50.0
370
    -2
100
AcDbLine
 10
7649.896575106973
 20
7846.123139034709
 30
0.0
 11
8337.322920841385
 21
7846.123139034709
 31
0.0
  0
LINE
  5
18C1A
330
18C16
100
AcDbEntity
  8
寸法
 62
     0
 48
50.0
370
    -2
100
AcDbLine
 10
8277.322920841385
 20
7901.123139034706
 30
0.0
 11
8277.322920841385
 21
8001.123139034707
 31
0.0
  0
LINE
  5
18C1B
330
18C16
100
AcDbEntity
  8
寸法
 62
     0
 48
50.0
370
    -2
100
AcDbLine
 10
8277.322920841385
 20
7846.123139034709
 30
0.0
 11
8277.322920841385
 21
7429.152576286229
 31
0.0
  0
LINE
  5
18C1C
330
18C16
100
AcDbEntity
  8
寸法
 62
     0
 48
50.0
370
    -2
100
AcDbLine
 10
8277.322920841385
 20
7901.123139034706
 30
0.0
 11
8277.322920841385
 21
7846.123139034709
 31
0.0
  0
INSERT
  5
18C1D
330
18C16
100
AcDbEntity
  8
寸法
 62
     0
 48
50.0
370
    -2
100
AcDbBlockReference
  2
_DOTSMALL
 10
8277.322920841385
 20
7901.123139034706
 30
0.0
 41
100.0
 42
100.0
 43
100.0
 50
270.0
  0
INSERT
  5
18C1E
330
18C16
100
AcDbEntity
  8
寸法
 62
     0
 48
50.0
370
    -2
100
AcDbBlockReference
  2
_DOTSMALL
 10
8277.322920841385
 20
7846.123139034709
 30
0.0
 41
100.0
 42
100.0
 43
100.0
 50
90.0
  0
MTEXT
  5
18C1F
330
18C16
100
AcDbEntity
  8
寸法
 62
     7
 48
50.0
100
AcDbMText
 10
8177.322920841383
 20
7537.637857660469
 30
0.0
 40
120.0
 41
0.0
 71
     5
 72
     1
  1
\A1;55
  7
STYLE1
 11
0.0000000000000001
 21
1.0
 31
0.0
 73
     1
 44
1.0
1001
ACAD
1000
MTEXTBEGIN
1070
    73
1070
     1
1070
    44
1040
1.0
1070
    74
1070
     0
1000
MTEXTEND
  0
POINT
  5
18C20
330
18C16
100
AcDbEntity
  8
DEFPOINTS
 62
     0
 48
50.0
100
AcDbPoint
 10
7629.896575106974
 20
7901.123139034706
 30
0.0
  0
POINT
  5
18C21
330
18C16
100
AcDbEntity
  8
DEFPOINTS
 62
     0
 48
50.0
100
AcDbPoint
 10
7629.896575106974
 20
7846.123139034709
 30
0.0
  0
POINT
  5
18C22
330
18C16
100
AcDbEntity
  8
DEFPOINTS
 62
     0
 48
50.0
100
AcDbPoint
 10
8277.322920841385
 20
7846.123139034709
 30
0.0
  0
ENDBLK
  5
18C23
330
18C16
100
AcDbEntity
  8
0
 48
50.0
100
AcDbBlockEnd
  0
BLOCK
  5
18C25
330
18C24
100
AcDbEntity
  8
0
 48
50.0
100
AcDbBlockBegin
  2
*D10
 70
     1
 10
0.0
 20
0.0
 30
0.0
  3
*D10
  1

  0
LINE
  5
18C26
330
18C24
100
AcDbEntity
  8
寸法
 62
     0
 48
50.0
370
    -2
100
AcDbLine
 10
6533.037591258376
 20
9136.123139034728
 30
0.0
 11
6465.083950562664
 21
8882.516699399049
 31
0.0
  0
LINE
  5
18C27
330
18C24
100
AcDbEntity
  8
寸法
 62
     0
 48
50.0
370
    -2
100
AcDbLine
 10
7596.037591258388
 20
9136.123139034721
 30
0.0
 11
7528.083950562677
 21
8882.516699399049
 31
0.0
  0
LINE
  5
18C28
330
18C24
100
AcDbEntity
  8
寸法
 62
     0
 48
50.0
370
    -2
100
AcDbLine
 10
6481.160902108531
 20
8942.51669939905
 30
0.0
 11
7544.160902108544
 21
8942.51669939905
 31
0.0
  0
INSERT
  5
18C29
330
18C24
100
AcDbEntity
  8
寸法
 62
     0
 48
50.0
370
    -2
100
AcDbBlockReference
  2
_DOTSMALL
 10
6481.160902108531
 20
8942.51669939905
 30
0.0
 41
100.0
 42
100.0
 43
100.0
 50
180.0
  0
INSERT
  5
18C2A
330
18C24
100
AcDbEntity
  8
寸法
 62
     0
 48
50.0
370
    -2
100
AcDbBlockReference
  2
_DOTSMALL
 10
7544.160902108544
 20
8942.51669939905
 30
0.0
 41
100.0
 42
100.0
 43
100.0
  0
MTEXT
  5
18C2B
330
18C24
100
AcDbEntity
  8
寸法
 62
     7
 48
50.0
100
AcDbMText
 10
7061.28653022935
 20
9042.516699399049
 30
0.0
 40
120.0
 41
0.0
 71
     5
 72
     1
  1
\A1;1063
  7
STYLE1
 73
     1
 44
1.0
1001
ACAD
1000
MTEXTBEGIN
1070
    73
1070
     1
1070
    44
1040
1.0
1070
    74
1070
     0
1000
MTEXTEND
  0
POINT
  5
18C2C
330
18C24
100
AcDbEntity
  8
DEFPOINTS
 62
     0
 48
50.0
100
AcDbPoint
 10
6538.396575106998
 20
9156.123139034727
 30
0.0
  0
POINT
  5
18C2D
330
18C24
100
AcDbEntity
  8
DEFPOINTS
 62
     0
 48
50.0
100
AcDbPoint
 10
7601.39657510701
 20
9156.12313903472
 30
0.0
  0
POINT
  5
18C2E
330
18C24
100
AcDbEntity
  8
DEFPOINTS
 62
     0
 48
50.0
100
AcDbPoint
 10
7544.160902108544
 20
8942.51669939905
 30
0.0
  0
ENDBLK
  5
18C2F
330
18C24
100
AcDbEntity
  8
0
 48
50.0
100
AcDbBlockEnd
  0
BLOCK
  5
18C31
330
18C30
100
AcDbEntity
  8
0
 48
50.0
100
AcDbBlockBegin
  2
*D11
 70
     1
 10
0.0
 20
0.0
 30
0.0
  3
*D11
  1

  0
LINE
  5
18C32
330
18C30
100
AcDbEntity
  8
寸法
 62
     0
 48
50.0
370
    -2
100
AcDbLine
 10
7621.396575106999
 20
9600.764155186094
 30
0.0
 11
8016.754300969024
 21
9494.828371819961
 31
0.0
  0
LINE
  5
18C33
330
18C30
100
AcDbEntity
  8
寸法
 62
     0
 48
50.0
370
    -2
100
AcDbLine
 10
7621.396575106999
 20
9150.764155186099
 30
0.0
 11
8016.754300969024
 21
9044.828371819964
 31
0.0
  0
LINE
  5
18C34
330
18C30
100
AcDbEntity
  8
寸法
 62
     0
 48
50.0
370
    -2
100
AcDbLine
 10
7956.754300969024
 20
9510.905323365827
 30
0.0
 11
7956.754300969024
 21
9060.90532336583
 31
0.0
  0
INSERT
  5
18C35
330
18C30
100
AcDbEntity
  8
寸法
 62
     0
 48
50.0
370
    -2
100
AcDbBlockReference
  2
_DOTSMALL
 10
7956.754300969024
 20
9510.905323365827
 30
0.0
 41
100.0
 42
100.0
 43
100.0
 50
90.0
  0
INSERT
  5
18C36
330
18C30
100
AcDbEntity
  8
寸法
 62
     0
 48
50.0
370
    -2
100
AcDbBlockReference
  2
_DOTSMALL
 10
7956.754300969024
 20
9060.90532336583
 30
0.0
 41
100.0
 42
100.0
 43
100.0
 50
270.0
  0
MTEXT
  5
18C37
330
18C30
100
AcDbEntity
  8
寸法
 62
     7
 48
50.0
100
AcDbMText
 10
7856.754300969022
 20
9285.905323365829
 30
0.0
 40
120.0
 41
0.0
 71
     5
 72
     1
  1
\A1;450
  7
STYLE1
 11
0.0000000000000001
 21
1.0
 31
0.0
 73
     1
 44
1.0
1001
ACAD
1000
MTEXTBEGIN
1070
    73
1070
     1
1070
    44
1040
1.0
1070
    74
1070
     0
1000
MTEXTEND
  0
POINT
  5
18C38
330
18C30
100
AcDbEntity
  8
DEFPOINTS
 62
     0
 48
50.0
100
AcDbPoint
 10
7601.396575106999
 20
9606.123139034718
 30
0.0
  0
POINT
  5
18C39
330
18C30
100
AcDbEntity
  8
DEFPOINTS
 62
     0
 48
50.0
100
AcDbPoint
 10
7601.396575106999
 20
9156.12313903472
 30
0.0
  0
POINT
  5
18C3A
330
18C30
100
AcDbEntity
  8
DEFPOINTS
 62
     0
 48
50.0
100
AcDbPoint
 10
7956.754300969024
 20
9060.90532336583
 30
0.0
  0
ENDBLK
  5
18C3B
330
18C30
100
AcDbEntity
  8
0
 48
50.0
100
AcDbBlockEnd
  0
BLOCK
  5
18C3D
330
18C3C
100
AcDbEntity
  8
0
 48
50.0
100
AcDbBlockBegin
  2
*D12
 70
     1
 10
0.0
 20
0.0
 30
0.0
  3
*D12
  1

  0
LINE
  5
18C3E
330
18C3C
100
AcDbEntity
  8
寸法
 62
     0
 48
50.0
370
    -2
100
AcDbLine
 10
7649.896575106999
 20
9581.123139034721
 30
0.0
 11
8337.32292084141
 21
9581.123139034721
 31
0.0
  0
LINE
  5
18C3F
330
18C3C
100
AcDbEntity
  8
寸法
 62
     0
 48
50.0
370
    -2
100
AcDbLine
 10
7649.896575106973
 20
7901.123139034706
 30
0.0
 11
8337.32292084141
 21
7901.123139034706
 31
0.0
  0
LINE
  5
18C40
330
18C3C
100
AcDbEntity
  8
寸法
 62
     0
 48
50.0
370
    -2
100
AcDbLine
 10
8277.322920841411
 20
9581.123139034721
 30
0.0
 11
8277.322920841411
 21
7901.123139034706
 31
0.0
  0
INSERT
  5
18C41
330
18C3C
100
AcDbEntity
  8
寸法
 62
     0
 48
50.0
370
    -2
100
AcDbBlockReference
  2
_DOTSMALL
 10
8277.322920841411
 20
9581.123139034721
 30
0.0
 41
100.0
 42
100.0
 43
100.0
 50
90.0
  0
INSERT
  5
18C42
330
18C3C
100
AcDbEntity
  8
寸法
 62
     0
 48
50.0
370
    -2
100
AcDbBlockReference
  2
_DOTSMALL
 10
8277.322920841411
 20
7901.123139034706
 30
0.0
 41
100.0
 42
100.0
 43
100.0
 50
270.0
  0
MTEXT
  5
18C43
330
18C3C
100
AcDbEntity
  8
寸法
 62
     7
 48
50.0
100
AcDbMText
 10
8177.311109817788
 20
8741.123139034712
 30
0.0
 40
120.0
 41
0.0
 71
     5
 72
     1
  1
\A1;4X420=1680
  7
STYLE1
 11
0.0000000000000001
 21
1.0
 31
0.0
 73
     1
 44
1.0
1001
ACAD
1000
MTEXTBEGIN
1070
    73
1070
     1
1070
    44
1040
1.0
1070
    74
1070
     0
1000
MTEXTEND
  0
POINT
  5
18C44
330
18C3C
100
AcDbEntity
  8
DEFPOINTS
 62
     0
 48
50.0
100
AcDbPoint
 10
7629.896575106998
 20
9581.123139034721
 30
0.0
  0
POINT
  5
18C45
330
18C3C
100
AcDbEntity
  8
DEFPOINTS
 62
     0
 48
50.0
100
AcDbPoint
 10
7629.896575106974
 20
7901.123139034706
 30
0.0
  0
POINT
  5
18C46
330
18C3C
100
AcDbEntity
  8
DEFPOINTS
 62
     0
 48
50.0
100
AcDbPoint
 10
8277.322920841411
 20
7901.123139034706
 30
0.0
  0
ENDBLK
  5
18C47
330
18C3C
100
AcDbEntity
  8
0
 48
50.0
100
AcDbBlockEnd
  0
BLOCK
  5
18C49
330
18C48
100
AcDbEntity
  8
0
 48
50.0
100
AcDbBlockBegin
  2
*D13
 70
     1
 10
0.0
 20
0.0
 30
0.0
  3
*D13
  1

  0
LINE
  5
18C4A
330
18C48
100
AcDbEntity
  8
寸法
 62
     0
 48
50.0
370
    -2
100
AcDbLine
 10
4183.037591258377
 20
9136.123139034619
 30
0.0
 11
4115.083950562663
 21
8882.516699398941
 31
0.0
  0
LINE
  5
18C4B
330
18C48
100
AcDbEntity
  8
寸法
 62
     0
 48
50.0
370
    -2
100
AcDbLine
 10
5246.037591258307
 20
9136.123139034671
 30
0.0
 11
5178.08395056258
 21
8882.516699398941
 31
0.0
  0
LINE
  5
18C4C
330
18C48
100
AcDbEntity
  8
寸法
 62
     0
 48
50.0
370
    -2
100
AcDbLine
 10
4131.160902108532
 20
8942.516699398941
 30
0.0
 11
5194.160902108448
 21
8942.516699398941
 31
0.0
  0
INSERT
  5
18C4D
330
18C48
100
AcDbEntity
  8
寸法
 62
     0
 48
50.0
370
    -2
100
AcDbBlockReference
  2
_DOTSMALL
 10
4131.160902108532
 20
8942.516699398941
 30
0.0
 41
100.0
 42
100.0
 43
100.0
 50
180.0
  0
INSERT
  5
18C4E
330
18C48
100
AcDbEntity
  8
寸法
 62
     0
 48
50.0
370
    -2
100
AcDbBlockReference
  2
_DOTSMALL
 10
5194.160902108448
 20
8942.516699398941
 30
0.0
 41
100.0
 42
100.0
 43
100.0
  0
MTEXT
  5
18C4F
330
18C48
100
AcDbEntity
  8
寸法
 62
     7
 48
50.0
100
AcDbMText
 10
4658.986452655306
 20
9042.516699398941
 30
0.0
 40
120.0
 41
0.0
 71
     5
 72
     1
  1
\A1;1063
  7
STYLE1
 73
     1
 44
1.0
1001
ACAD
1000
MTEXTBEGIN
1070
    73
1070
     1
1070
    44
1040
1.0
1070
    74
1070
     0
1000
MTEXTEND
  0
POINT
  5
18C50
330
18C48
100
AcDbEntity
  8
DEFPOINTS
 62
     0
 48
50.0
100
AcDbPoint
 10
4188.396575106999
 20
9156.123139034617
 30
0.0
  0
POINT
  5
18C51
330
18C48
100
AcDbEntity
  8
DEFPOINTS
 62
     0
 48
50.0
100
AcDbPoint
 10
5251.396575106929
 20
9156.123139034672
 30
0.0
  0
POINT
  5
18C52
330
18C48
100
AcDbEntity
  8
DEFPOINTS
 62
     0
 48
50.0
100
AcDbPoint
 10
5194.160902108448
 20
8942.516699398941
 30
0.0
  0
ENDBLK
  5
18C53
330
18C48
100
AcDbEntity
  8
0
 48
50.0
100
AcDbBlockEnd
  0
BLOCK
  5
18C55
330
18C54
100
AcDbEntity
  8
0
 48
50.0
100
AcDbBlockBegin
  2
*D14
 70
     1
 10
0.0
 20
0.0
 30
0.0
  3
*D14
  1

  0
LINE
  5
18C56
330
18C54
100
AcDbEntity
  8
寸法
 62
     0
 48
50.0
370
    -2
100
AcDbLine
 10
5274.037591258307
 20
9136.123139034669
 30
0.0
 11
5206.08395056258
 21
8882.516699398941
 31
0.0
  0
LINE
  5
18C57
330
18C54
100
AcDbEntity
  8
寸法
 62
     0
 48
50.0
370
    -2
100
AcDbLine
 10
6505.037591258377
 20
9136.123139034662
 30
0.0
 11
6437.083950562653
 21
8882.516699398941
 31
0.0
  0
LINE
  5
18C58
330
18C54
100
AcDbEntity
  8
寸法
 62
     0
 48
50.0
370
    -2
100
AcDbLine
 10
5222.160902108448
 20
8942.516699398941
 30
0.0
 11
6453.16090210852
 21
8942.516699398941
 31
0.0
  0
INSERT
  5
18C59
330
18C54
100
AcDbEntity
  8
寸法
 62
     0
 48
50.0
370
    -2
100
AcDbBlockReference
  2
_DOTSMALL
 10
5222.160902108448
 20
8942.516699398941
 30
0.0
 41
100.0
 42
100.0
 43
100.0
 50
180.0
  0
INSERT
  5
18C5A
330
18C54
100
AcDbEntity
  8
寸法
 62
     0
 48
50.0
370
    -2
100
AcDbBlockReference
  2
_DOTSMALL
 10
6453.16090210852
 20
8942.516699398941
 30
0.0
 41
100.0
 42
100.0
 43
100.0
  0
MTEXT
  5
18C5B
330
18C54
100
AcDbEntity
  8
寸法
 62
     7
 48
50.0
100
AcDbMText
 10
6081.244808320626
 20
9042.528510422561
 30
0.0
 40
120.0
 41
0.0
 71
     5
 72
     1
  1
\A1;1231
  7
STYLE1
 73
     1
 44
1.0
1001
ACAD
1000
MTEXTBEGIN
1070
    73
1070
     1
1070
    44
1040
1.0
1070
    74
1070
     0
1000
MTEXTEND
  0
POINT
  5
18C5C
330
18C54
100
AcDbEntity
  8
DEFPOINTS
 62
     0
 48
50.0
100
AcDbPoint
 10
5279.396575106929
 20
9156.123139034669
 30
0.0
  0
POINT
  5
18C5D
330
18C54
100
AcDbEntity
  8
DEFPOINTS
 62
     0
 48
50.0
100
AcDbPoint
 10
6510.396575106999
 20
9156.123139034662
 30
0.0
  0
POINT
  5
18C5E
330
18C54
100
AcDbEntity
  8
DEFPOINTS
 62
     0
 48
50.0
100
AcDbPoint
 10
6453.16090210852
 20
8942.516699398941
 30
0.0
  0
ENDBLK
  5
18C5F
330
18C54
100
AcDbEntity
  8
0
 48
50.0
100
AcDbBlockEnd
  0
BLOCK
  5
18C61
330
18C60
100
AcDbEntity
  8
0
 48
50.0
100
AcDbBlockBegin
  2
*D15
 70
     1
 10
0.0
 20
0.0
 30
0.0
  3
*D15
  1

  0
LINE
  5
18C62
330
18C60
100
AcDbEntity
  8
寸法
 62
     0
 48
50.0
370
    -2
100
AcDbLine
 10
5065.896575106966
 20
7749.123139034579
 30
0.0
 11
5065.896575106966
 21
7099.952920982538
 31
0.0
  0
LINE
  5
18C63
330
18C60
100
AcDbEntity
  8
寸法
 62
     0
 48
50.0
370
    -2
100
AcDbLine
 10
6331.896575106966
 20
7749.123139034579
 30
0.0
 11
6331.896575106966
 21
7099.952920982538
 31
0.0
  0
LINE
  5
18C64
330
18C60
100
AcDbEntity
  8
寸法
 62
     0
 48
50.0
370
    -2
100
AcDbLine
 10
5065.896575106966
 20
7159.952920982537
 30
0.0
 11
6331.896575106966
 21
7159.952920982537
 31
0.0
  0
INSERT
  5
18C65
330
18C60
100
AcDbEntity
  8
寸法
 62
     0
 48
50.0
370
    -2
100
AcDbBlockReference
  2
_DOTSMALL
 10
5065.896575106966
 20
7159.952920982537
 30
0.0
 41
100.0
 42
100.0
 43
100.0
 50
180.0
  0
INSERT
  5
18C66
330
18C60
100
AcDbEntity
  8
寸法
 62
     0
 48
50.0
370
    -2
100
AcDbBlockReference
  2
_DOTSMALL
 10
6331.896575106966
 20
7159.952920982537
 30
0.0
 41
100.0
 42
100.0
 43
100.0
  0
MTEXT
  5
18C67
330
18C60
100
AcDbEntity
  8
寸法
 62
     7
 48
50.0
100
AcDbMText
 10
5711.986008735934
 20
7359.964732006159
 30
0.0
 40
120.0
 41
0.0
 71
     5
 72
     1
  1
\A1;有効開口部間口\P1266
  7
STYLE1
 73
     1
 44
1.0
1001
ACAD
1000
MTEXTBEGIN
1070
    73
1070
     1
1070
    44
1040
1.0
1070
    74
1070
     0
1000
MTEXTEND
  0
POINT
  5
18C68
330
18C60
100
AcDbEntity
  8
DEFPOINTS
 62
     0
 48
50.0
100
AcDbPoint
 10
5065.896575106966
 20
7769.123139034579
 30
0.0
  0
POINT
  5
18C69
330
18C60
100
AcDbEntity
  8
DEFPOINTS
 62
     0
 48
50.0
100
AcDbPoint
 10
6331.896575106966
 20
7769.123139034579
 30
0.0
  0
POINT
  5
18C6A
330
18C60
100
AcDbEntity
  8
DEFPOINTS
 62
     0
 48
50.0
100
AcDbPoint
 10
6331.896575106966
 20
7159.952920982537
 30
0.0
  0
ENDBLK
  5
18C6B
330
18C60
100
AcDbEntity
  8
0
 48
50.0
100
AcDbBlockEnd
  0
BLOCK
  5
18C6D
330
18C6C
100
AcDbEntity
  8
0
 48
50.0
100
AcDbBlockBegin
  2
*D16
 70
     1
 10
0.0
 20
0.0
 30
0.0
  3
*D16
  1

  0
LINE
  5
18C6E
330
18C6C
100
AcDbEntity
  8
寸法
 62
     0
 48
50.0
370
    -2
100
AcDbLine
 10
7200.896575106966
 20
7846.123139034578
 30
0.0
 11
7457.192158500191
 21
7846.123139034578
 31
0.0
  0
LINE
  5
18C6F
330
18C6C
100
AcDbEntity
  8
寸法
 62
     0
 48
50.0
370
    -2
100
AcDbLine
 10
7199.896575106966
 20
7769.123139034579
 30
0.0
 11
7457.192158500191
 21
7769.123139034579
 31
0.0
  0
LINE
  5
18C70
330
18C6C
100
AcDbEntity
  8
寸法
 62
     0
 48
50.0
370
    -2
100
AcDbLine
 10
7417.192158500192
 20
7866.123139034579
 30
0.0
 11
7417.192158500192
 21
7886.123139034578
 31
0.0
  0
LINE
  5
18C71
330
18C6C
100
AcDbEntity
  8
寸法
 62
     0
 48
50.0
370
    -2
100
AcDbLine
 10
7417.192158500192
 20
7749.123139034579
 30
0.0
 11
7417.192158500192
 21
7533.123139034573
 31
0.0
  0
LINE
  5
18C72
330
18C6C
100
AcDbEntity
  8
寸法
 62
     0
 48
50.0
370
    -2
100
AcDbLine
 10
7417.192158500192
 20
7846.123139034578
 30
0.0
 11
7417.192158500192
 21
7769.123139034579
 31
0.0
  0
INSERT
  5
18C73
330
18C6C
100
AcDbEntity
  8
寸法
 62
     0
 48
50.0
370
    -2
100
AcDbBlockReference
  2
_DOT
 10
7417.192158500192
 20
7846.123139034578
 30
0.0
 41
20.0
 42
20.0
 43
20.0
 50
270.0
  0
INSERT
  5
18C74
330
18C6C
100
AcDbEntity
  8
寸法
 62
     0
 48
50.0
370
    -2
100
AcDbBlockReference
  2
_DOT
 10
7417.192158500192
 20
7769.123139034579
 30
0.0
 41
20.0
 42
20.0
 43
20.0
 50
90.0
  0
MTEXT
  5
18C75
330
18C6C
100
AcDbEntity
  8
寸法
 62
     7
 48
50.0
100
AcDbMText
 10
7325.192158500191
 20
7631.123139034575
 30
0.0
 40
120.0
 41
0.0
 71
     5
 72
     1
  1
\A1;77
  7
STYLE1
 11
0.0000000000000001
 21
1.0
 31
0.0
 73
     1
 44
1.0
1001
ACAD
1000
MTEXTBEGIN
1070
    73
1070
     1
1070
    44
1040
1.0
1070
    74
1070
     0
1000
MTEXTEND
  0
POINT
  5
18C76
330
18C6C
100
AcDbEntity
  8
DEFPOINTS
 62
     0
 48
50.0
100
AcDbPoint
 10
7180.896575106967
 20
7846.123139034578
 30
0.0
  0
POINT
  5
18C77
330
18C6C
100
AcDbEntity
  8
DEFPOINTS
 62
     0
 48
50.0
100
AcDbPoint
 10
7179.896575106965
 20
7769.123139034579
 30
0.0
  0
POINT
  5
18C78
330
18C6C
100
AcDbEntity
  8
DEFPOINTS
 62
     0
 48
50.0
100
AcDbPoint
 10
7417.192158500192
 20
7769.123139034579
 30
0.0
  0
ENDBLK
  5
18C79
330
18C6C
100
AcDbEntity
  8
0
 48
50.0
100
AcDbBlockEnd
  0
BLOCK
  5
18DA0
330
18C7A
100
AcDbEntity
  8
0
 48
50.0
100
AcDbBlockBegin
  2
A$C3B1A506B
 70
     0
 10
0.0
 20
0.0
 30
0.0
  3
A$C3B1A506B
  1

  0
MTEXT
  5
18C7B
330
18C7A
100
AcDbEntity
  8
寸法
 62
     7
 48
50.0
100
AcDbMText
 10
3342.250386887194
 20
2778.329429134012
 30
0.0
 40
96.0
 41
0.0
 71
     5
 72
     1
  1
棚 2段
  7
STYLE1
 73
     1
 44
1.0
1001
ACAD
1000
MTEXTBEGIN
1070
    73
1070
     1
1070
    44
1040
1.0
1070
    74
1070
     0
1000
MTEXTEND
  0
MTEXT
  5
18C7C
330
18C7A
100
AcDbEntity
  8
寸法
 62
     7
 48
50.0
100
AcDbMText
 10
2167.25038688716
 20
2778.329429133986
 30
0.0
 40
96.0
 41
0.0
 71
     5
 72
     1
  1
棚 2段
  7
STYLE1
 73
     1
 44
1.0
1001
ACAD
1000
MTEXTBEGIN
1070
    73
1070
     1
1070
    44
1040
1.0
1070
    74
1070
     0
1000
MTEXTEND
  0
MTEXT
  5
18C7D
330
18C7A
100
AcDbEntity
  8
寸法
 62
     7
 48
50.0
100
AcDbMText
 10
992.2503868871608
 20
2778.329429133935
 30
0.0
 40
96.0
 41
0.0
 71
     5
 72
     1
  1
棚 2段
  7
STYLE1
 73
     1
 44
1.0
1001
ACAD
1000
MTEXTBEGIN
1070
    73
1070
     1
1070
    44
1040
1.0
1070
    74
1070
     0
1000
MTEXTEND
  0
LINE
  5
18C7E
330
18C7A
100
AcDbEntity
  8
細線
 48
50.0
100
AcDbLine
 10
2771.970589276527
 20
1368.994384123192
 30
0.0
 11
3398.970589276523
 21
1368.994384123192
 31
0.0
  0
LINE
  5
18C7F
330
18C7A
100
AcDbEntity
  8
細線
 48
50.0
100
AcDbLine
 10
2117.970593930113
 20
1335.285615569113
 30
0.0
 11
3398.970589276523
 21
1335.285615569113
 31
0.0
  0
LINE
  5
18C80
330
18C7A
100
AcDbEntity
  8
細線
 48
50.0
100
AcDbLine
 10
2076.970593930115
 20
1364.690523565368
 30
0.0
 11
1322.970589276523
 21
1364.690523565367
 31
0.0
  0
LINE
  5
18C81
330
18C7A
100
AcDbEntity
  8
細線
100
AcDbLine
 10
3170.720579860066
 20
1388.494284088199
 30
0.0
 11
3173.052119381877
 21
1393.494286728162
 31
0.0
  0
LINE
  5
18C82
330
18C7A
100
AcDbEntity
  8
細線
100
AcDbLine
 10
3240.720589276525
 20
1388.494269174465
 30
0.0
 11
3238.389042800336
 21
1393.494286728144
 31
0.0
  0
LINE
  5
18C83
330
18C7A
100
AcDbEntity
  8
細線
100
AcDbLine
 10
3238.389042800336
 20
1393.494286728144
 30
0.0
 11
3173.052119381862
 21
1393.494286728133
 31
0.0
  0
LINE
  5
18C84
330
18C7A
100
AcDbEntity
  8
細線
100
AcDbLine
 10
3098.389042800336
 20
1393.494286728144
 30
0.0
 11
3033.052119381862
 21
1393.494286728133
 31
0.0
  0
LINE
  5
18C85
330
18C7A
100
AcDbEntity
  8
細線
100
AcDbLine
 10
3100.720589276523
 20
1388.494269174465
 30
0.0
 11
3098.389042800336
 21
1393.494286728144
 31
0.0
  0
LINE
  5
18C86
330
18C7A
100
AcDbEntity
  8
細線
100
AcDbLine
 10
3030.720579860066
 20
1388.494284088199
 30
0.0
 11
3033.052119381875
 21
1393.494286728162
 31
0.0
  0
LINE
  5
18C87
330
18C7A
100
AcDbEntity
  8
細線
100
AcDbLine
 10
2890.720589276525
 20
1388.494269174465
 30
0.0
 11
2893.052128798336
 21
1393.494271814428
 31
0.0
  0
LINE
  5
18C88
330
18C7A
100
AcDbEntity
  8
細線
100
AcDbLine
 10
2960.720598692984
 20
1388.494254260731
 30
0.0
 11
2958.389052216793
 21
1393.49427181441
 31
0.0
  0
LINE
  5
18C89
330
18C7A
100
AcDbEntity
  8
細線
100
AcDbLine
 10
2958.389052216795
 20
1393.49427181441
 30
0.0
 11
2893.052128798321
 21
1393.494271814399
 31
0.0
  0
LINE
  5
18C8A
330
18C7A
100
AcDbEntity
  8
細線
100
AcDbLine
 10
2667.139038146739
 20
1359.494298590735
 30
0.0
 11
2601.802114728263
 21
1359.494298590724
 31
0.0
  0
LINE
  5
18C8B
330
18C7A
100
AcDbEntity
  8
細線
100
AcDbLine
 10
2669.470584622926
 20
1354.494281037055
 30
0.0
 11
2667.139038146737
 21
1359.494298590735
 31
0.0
  0
LINE
  5
18C8C
330
18C7A
100
AcDbEntity
  8
細線
100
AcDbLine
 10
2599.470575206469
 20
1354.49429595079
 30
0.0
 11
2601.802114728278
 21
1359.494298590752
 31
0.0
  0
LINE
  5
18C8D
330
18C7A
100
AcDbEntity
  8
細線
 48
50.0
100
AcDbLine
 10
2440.853968524536
 20
1372.765132327548
 30
0.0
 11
2446.609486107205
 21
1354.494281037057
 31
0.0
  0
LINE
  5
18C8E
330
18C7A
100
AcDbEntity
  8
細線
 48
50.0
100
AcDbLine
 10
2429.925520044106
 20
1372.765132327546
 30
0.0
 11
2440.853968524536
 21
1372.765132327548
 31
0.0
  0
ARC
  5
18C8F
330
18C7A
100
AcDbEntity
  8
細線
 48
50.0
100
AcDbCircle
 10
2424.471163986787
 20
1374.265132327546
 30
0.0
 40
5.0
100
AcDbArc
 50
204.6243183520723
 51
335.3756816479278
  0
ARC
  5
18C90
330
18C7A
100
AcDbEntity
  8
細線
 48
50.0
100
AcDbCircle
 10
2429.925520044106
 20
1371.765132327546
 30
0.0
 40
1.0
100
AcDbArc
 50
90.0
 51
155.3756816479277
  0
ARC
  5
18C91
330
18C7A
100
AcDbEntity
  8
細線
 48
50.0
100
AcDbCircle
 10
2419.016807929469
 20
1371.765132327546
 30
0.0
 40
1.0
100
AcDbArc
 50
24.62431835207225
 51
90.0
  0
LINE
  5
18C92
330
18C7A
100
AcDbEntity
  8
細線
 48
50.0
100
AcDbLine
 10
2408.088359449037
 20
1372.765132327548
 30
0.0
 11
2419.016807929469
 21
1372.765132327546
 31
0.0
  0
LINE
  5
18C93
330
18C7A
100
AcDbEntity
  8
細線
 48
50.0
100
AcDbLine
 10
2402.33284186637
 20
1354.494281037054
 30
0.0
 11
2408.088359449037
 21
1372.765132327548
 31
0.0
  0
LINE
  5
18C94
330
18C7A
100
AcDbEntity
  8
細線
100
AcDbLine
 10
2458.070304175992
 20
1354.494278397076
 30
0.0
 11
2460.401843697802
 21
1359.494281037039
 31
0.0
  0
LINE
  5
18C95
330
18C7A
100
AcDbEntity
  8
細線
100
AcDbLine
 10
2528.070313592451
 20
1354.494263483342
 30
0.0
 11
2525.738767116262
 21
1359.494281037021
 31
0.0
  0
LINE
  5
18C96
330
18C7A
100
AcDbEntity
  8
細線
100
AcDbLine
 10
2525.738767116262
 20
1359.494281037021
 30
0.0
 11
2460.40184369779
 21
1359.49428103701
 31
0.0
  0
LINE
  5
18C97
330
18C7A
100
AcDbEntity
  8
細線
100
AcDbLine
 10
2387.139046332155
 20
1359.494281037021
 30
0.0
 11
2321.80212291368
 21
1359.49428103701
 31
0.0
  0
LINE
  5
18C98
330
18C7A
100
AcDbEntity
  8
細線
100
AcDbLine
 10
2389.470592808342
 20
1354.494263483342
 30
0.0
 11
2387.139046332153
 21
1359.494281037021
 31
0.0
  0
LINE
  5
18C99
330
18C7A
100
AcDbEntity
  8
細線
100
AcDbLine
 10
2319.470584622926
 20
1354.494281037054
 30
0.0
 11
2321.802122913694
 21
1359.494281037039
 31
0.0
  0
LINE
  5
18C9A
330
18C7A
100
AcDbEntity
  8
細線
100
AcDbLine
 10
2179.47061994182
 20
1354.494289224422
 30
0.0
 11
2181.802158232587
 21
1359.494289224407
 31
0.0
  0
LINE
  5
18C9B
330
18C7A
100
AcDbEntity
  8
細線
100
AcDbLine
 10
2249.470628127236
 20
1354.49427167071
 30
0.0
 11
2247.139081651047
 21
1359.494289224389
 31
0.0
  0
LINE
  5
18C9C
330
18C7A
100
AcDbEntity
  8
細線
100
AcDbLine
 10
2247.139081651047
 20
1359.494289224389
 30
0.0
 11
2181.802158232573
 21
1359.494289224378
 31
0.0
  0
LINE
  5
18C9D
330
18C7A
100
AcDbEntity
  8
細線
100
AcDbLine
 10
1807.970585744697
 20
1320.494460905133
 30
0.0
 11
1810.302124035464
 21
1325.494460905118
 31
0.0
  0
LINE
  5
18C9E
330
18C7A
100
AcDbEntity
  8
細線
100
AcDbLine
 10
1877.970593930113
 20
1320.494443351421
 30
0.0
 11
1875.639047453926
 21
1325.4944609051
 31
0.0
  0
LINE
  5
18C9F
330
18C7A
100
AcDbEntity
  8
細線
100
AcDbLine
 10
1875.639047453926
 20
1325.4944609051
 30
0.0
 11
1810.302124035452
 21
1325.494460905089
 31
0.0
  0
LINE
  5
18CA0
330
18C7A
100
AcDbEntity
  8
細線
100
AcDbLine
 10
2015.639047453926
 20
1325.4944609051
 30
0.0
 11
1950.302124035452
 21
1325.494460905089
 31
0.0
  0
LINE
  5
18CA1
330
18C7A
100
AcDbEntity
  8
細線
100
AcDbLine
 10
2017.970593930113
 20
1320.494443351421
 30
0.0
 11
2015.639047453924
 21
1325.4944609051
 31
0.0
  0
LINE
  5
18CA2
330
18C7A
100
AcDbEntity
  8
細線
100
AcDbLine
 10
1947.970585744697
 20
1320.494460905133
 30
0.0
 11
1950.302124035465
 21
1325.494460905118
 31
0.0
  0
LINE
  5
18CA3
330
18C7A
100
AcDbEntity
  8
細線
100
AcDbLine
 10
1735.639047453926
 20
1325.494460905098
 30
0.0
 11
1670.302124035454
 21
1325.494460905087
 31
0.0
  0
LINE
  5
18CA4
330
18C7A
100
AcDbEntity
  8
細線
100
AcDbLine
 10
1737.970593930113
 20
1320.494443351419
 30
0.0
 11
1735.639047453926
 21
1325.494460905098
 31
0.0
  0
LINE
  5
18CA5
330
18C7A
100
AcDbEntity
  8
細線
100
AcDbLine
 10
1667.970585744697
 20
1320.494460905131
 30
0.0
 11
1670.302124035465
 21
1325.494460905116
 31
0.0
  0
LINE
  5
18CA6
330
18C7A
100
AcDbEntity
  8
細線
100
AcDbLine
 10
1527.970593930113
 20
1320.494460905133
 30
0.0
 11
1530.302132220881
 21
1325.494460905118
 31
0.0
  0
LINE
  5
18CA7
330
18C7A
100
AcDbEntity
  8
細線
100
AcDbLine
 10
1597.970602115529
 20
1320.494443351421
 30
0.0
 11
1595.639055639342
 21
1325.4944609051
 31
0.0
  0
LINE
  5
18CA8
330
18C7A
100
AcDbEntity
  8
細線
100
AcDbLine
 10
1595.639055639342
 20
1325.4944609051
 30
0.0
 11
1530.302132220869
 21
1325.494460905089
 31
0.0
  0
ARC
  5
18CA9
330
18C7A
100
AcDbEntity
  8
部品1
 48
0.01
100
AcDbCircle
 10
1483.470482677778
 20
1319.493338720063
 30
0.0
 40
0.5
100
AcDbArc
 50
270.0
 51
0.0
  0
LINE
  5
18CAA
330
18C7A
100
AcDbEntity
  8
部品1
 48
0.01
100
AcDbLine
 10
1483.970482677778
 20
1320.493338720063
 30
0.0
 11
1483.970482677778
 21
1319.493338720063
 31
0.0
  0
LINE
  5
18CAB
330
18C7A
100
AcDbEntity
  8
部品1
 48
0.01
100
AcDbLine
 10
1483.970482677778
 20
1320.493338720063
 30
0.0
 11
1483.970482677778
 21
1319.493338720063
 31
0.0
  0
LINE
  5
18CAC
330
18C7A
100
AcDbEntity
  8
部品1
 48
0.01
100
AcDbLine
 10
1483.470482677778
 20
1318.993338720063
 30
0.0
 11
1476.857977247713
 21
1318.993338720062
 31
0.0
  0
ARC
  5
18CAD
330
18C7A
100
AcDbEntity
  8
部品1
100
AcDbCircle
 10
1476.926326800494
 20
1319.993338720062
 30
0.0
 40
1.0
100
AcDbArc
 50
160.5287793655865
 51
270.0
  0
ARC
  5
18CAE
330
18C7A
100
AcDbEntity
  8
部品1
100
AcDbCircle
 10
1451.470482677778
 20
1328.993338720062
 30
0.0
 40
26.0
100
AcDbArc
 50
340.5287793655865
 51
0.0
  0
LINE
  5
18CAF
330
18C7A
100
AcDbEntity
  8
部品1
100
AcDbLine
 10
1477.470482677778
 20
1328.993338720062
 30
0.0
 11
1477.470482677778
 21
1333.993338720061
 31
0.0
  0
ARC
  5
18CB0
330
18C7A
100
AcDbEntity
  8
部品1
 48
0.01
100
AcDbCircle
 10
1475.470482677778
 20
1333.993338720061
 30
0.0
 40
2.0
100
AcDbArc
 50
0.0
 51
90.0
  0
ARC
  5
18CB1
330
18C7A
100
AcDbEntity
  8
部品1
100
AcDbCircle
 10
1473.862091052968
 20
1332.993338720062
 30
0.0
 40
3.0
100
AcDbArc
 50
90.0
 51
141.6069559808035
  0
LINE
  5
18CB2
330
18C7A
100
AcDbEntity
  8
部品1
 48
0.01
100
AcDbLine
 10
1475.470482677778
 20
1335.993338720062
 30
0.0
 11
1473.862091052968
 21
1335.993338720062
 31
0.0
  0
ARC
  5
18CB3
330
18C7A
100
AcDbEntity
  8
部品1
100
AcDbCircle
 10
1455.399768463507
 20
1332.293338720065
 30
0.0
 40
3.0
100
AcDbArc
 50
254.0576313943215
 51
270.0
  0
ARC
  5
18CB4
330
18C7A
100
AcDbEntity
  8
部品1
100
AcDbCircle
 10
1462.541196892049
 20
1332.293338720065
 30
0.0
 40
3.0
100
AcDbArc
 50
270.0
 51
285.9423686056786
  0
LINE
  5
18CB5
330
18C7A
100
AcDbEntity
  8
部品1
100
AcDbLine
 10
1462.541196892049
 20
1329.293338720064
 30
0.0
 11
1455.399768463507
 21
1329.293338720064
 31
0.0
  0
ARC
  5
18CB6
330
18C7A
100
AcDbEntity
  8
部品1
100
AcDbCircle
 10
1458.970482677778
 20
1344.793338720065
 30
0.0
 40
16.0
100
AcDbArc
 50
285.9423686056786
 51
321.6069559808035
  0
LINE
  5
18CB7
330
18C7A
100
AcDbEntity
  8
部品1
 48
0.01
100
AcDbLine
 10
1442.470482677778
 20
1335.993338720062
 30
0.0
 11
1444.078874302588
 21
1335.993338720062
 31
0.0
  0
ARC
  5
18CB8
330
18C7A
100
AcDbEntity
  8
部品1
100
AcDbCircle
 10
1444.078874302588
 20
1332.993338720062
 30
0.0
 40
3.0
100
AcDbArc
 50
38.39304401919648
 51
90.0
  0
ARC
  5
18CB9
330
18C7A
100
AcDbEntity
  8
部品1
100
AcDbCircle
 10
1458.970482677778
 20
1344.793338720065
 30
0.0
 40
16.0
100
AcDbArc
 50
218.3930440191965
 51
254.0576313943215
  0
LINE
  5
18CBA
330
18C7A
100
AcDbEntity
  8
部品1
100
AcDbLine
 10
1440.470482677778
 20
1328.993338720062
 30
0.0
 11
1440.470482677778
 21
1333.993338720061
 31
0.0
  0
ARC
  5
18CBB
330
18C7A
100
AcDbEntity
  8
部品1
 48
0.01
100
AcDbCircle
 10
1442.470482677778
 20
1333.993338720061
 30
0.0
 40
2.0
100
AcDbArc
 50
90.0
 51
180.0
  0
ARC
  5
18CBC
330
18C7A
100
AcDbEntity
  8
部品1
100
AcDbCircle
 10
1466.470482677778
 20
1328.993338720062
 30
0.0
 40
26.0
100
AcDbArc
 50
180.0
 51
199.4712206344134
  0
ARC
  5
18CBD
330
18C7A
100
AcDbEntity
  8
部品1
 48
0.01
100
AcDbCircle
 10
1434.470482677778
 20
1319.493338720063
 30
0.0
 40
0.5
100
AcDbArc
 50
180.0
 51
270.0
  0
LINE
  5
18CBE
330
18C7A
100
AcDbEntity
  8
部品1
 48
0.01
100
AcDbLine
 10
1434.470482677778
 20
1318.993338720063
 30
0.0
 11
1441.014638555061
 21
1318.993338720062
 31
0.0
  0
LINE
  5
18CBF
330
18C7A
100
AcDbEntity
  8
部品1
 48
0.01
100
AcDbLine
 10
1433.970482677778
 20
1320.493338720063
 30
0.0
 11
1433.970482677778
 21
1319.493338720063
 31
0.0
  0
ARC
  5
18CC0
330
18C7A
100
AcDbEntity
  8
部品1
100
AcDbCircle
 10
1441.014638555061
 20
1319.993338720062
 30
0.0
 40
1.0
100
AcDbArc
 50
270.0
 51
19.47122063441346
  0
LINE
  5
18CC1
330
18C7A
100
AcDbEntity
  8
細線
100
AcDbLine
 10
1479.470482677785
 20
1338.493338720065
 30
0.0
 11
1438.470482677785
 21
1338.493338720058
 31
0.0
  0
LINE
  5
18CC2
330
18C7A
100
AcDbEntity
  8
細線
100
AcDbLine
 10
1438.470482677785
 20
1338.493338720058
 30
0.0
 11
1438.470482677785
 21
1320.49333872004
 31
0.0
  0
LINE
  5
18CC3
330
18C7A
100
AcDbEntity
  8
細線
100
AcDbLine
 10
1479.470482677785
 20
1338.493338720065
 30
0.0
 11
1479.470482677785
 21
1320.49333872004
 31
0.0
  0
LINE
  5
18CC4
330
18C7A
100
AcDbEntity
  8
細線
100
AcDbLine
 10
1322.970589276523
 20
1324.494269174465
 30
0.0
 11
1322.970589276523
 21
1320.494269174513
 31
0.0
  0
LINE
  5
18CC5
330
18C7A
100
AcDbEntity
  8
寸法
 48
50.0
100
AcDbLine
 10
1746.17359555837
 20
1170.531020743327
 30
0.0
 11
1694.767587648266
 21
1170.531020743327
 31
0.0
  0
LINE
  5
18CC6
330
18C7A
100
AcDbEntity
  8
寸法
 48
50.0
100
AcDbLine
 10
1694.767587648266
 20
1170.531020743327
 30
0.0
 11
1694.767587648266
 21
1201.841179395494
 31
0.0
  0
LINE
  5
18CC7
330
18C7A
100
AcDbEntity
  8
寸法
 48
50.0
100
AcDbLine
 10
1694.767587648266
 20
1201.841179395494
 30
0.0
 11
1665.006255656843
 21
1201.841179395494
 31
0.0
  0
LINE
  5
18CC8
330
18C7A
100
AcDbEntity
  8
寸法
 48
50.0
100
AcDbLine
 10
1665.006255656843
 20
1201.841179395494
 30
0.0
 11
1720.470591603318
 21
1239.420630324105
 31
0.0
  0
LINE
  5
18CC9
330
18C7A
100
AcDbEntity
  8
寸法
 48
50.0
100
AcDbLine
 10
1775.934927549793
 20
1201.841179395494
 30
0.0
 11
1720.470591603318
 21
1239.420630324105
 31
0.0
  0
LINE
  5
18CCA
330
18C7A
100
AcDbEntity
  8
寸法
 48
50.0
100
AcDbLine
 10
1746.17359555837
 20
1201.841179395494
 30
0.0
 11
1775.934927549793
 21
1201.841179395494
 31
0.0
  0
LINE
  5
18CCB
330
18C7A
100
AcDbEntity
  8
寸法
 48
50.0
100
AcDbLine
 10
1746.17359555837
 20
1170.531020743327
 30
0.0
 11
1746.17359555837
 21
1201.841179395494
 31
0.0
  0
LINE
  5
18CCC
330
18C7A
100
AcDbEntity
  8
寸法
 48
50.0
100
AcDbLine
 10
1694.767587648266
 20
1170.531020743327
 30
0.0
 11
1746.17359555837
 21
1170.531020743327
 31
0.0
  0
LINE
  5
18CCD
330
18C7A
100
AcDbEntity
  8
寸法
 48
50.0
100
AcDbLine
 10
2025.339129835225
 20
1227.676611498152
 30
0.0
 11
2025.339129835225
 21
1174.01297691636
 31
0.0
  0
LINE
  5
18CCE
330
18C7A
100
AcDbEntity
  8
寸法
 48
50.0
100
AcDbLine
 10
2114.623348430647
 20
1203.752977228664
 30
0.0
 11
2025.339129835225
 21
1227.676611498152
 31
0.0
  0
LINE
  5
18CCF
330
18C7A
100
AcDbEntity
  8
寸法
 48
50.0
100
AcDbLine
 10
1895.471408254923
 20
1203.752977228664
 30
0.0
 11
2114.623348430647
 21
1203.752977228664
 31
0.0
  0
DIMENSION
  5
18CD0
330
18C7A
100
AcDbEntity
  8
寸法
 48
50.0
100
AcDbDimension
  2
*D15
 10
2588.970589276523
 20
706.3240511224249
 30
0.0
 11
1969.060022905491
 21
706.3240511224249
 31
0.0
 12
-3742.925985830444
 22
-6453.628869860112
 32
0.0
 70
   128
  1
有効開口部間口\P<>
 71
     5
 42
1266.0
  3
INABA_S40G
100
AcDbAlignedDimension
 13
1322.970589276523
 23
1315.494269174465
 33
0.0
 14
2588.970589276523
 24
1315.494269174465
 34
0.0
100
AcDbRotatedDimension
1001
ACAD
1000
DSTYLE
1002
{
1070
   341
1005
0
1002
}
  0
LINE
  5
18CD1
330
18C7A
100
AcDbEntity
  8
部品1
100
AcDbLine
 10
3409.970589276524
 20
1392.494269174465
 30
0.0
 11
3437.970589276523
 21
1392.494269174465
 31
0.0
  0
DIMENSION
  5
18CD2
330
18C7A
100
AcDbEntity
  8
寸法
100
AcDbDimension
  2
*D16
 10
3674.266172669749
 20
1315.494269174465
 30
0.0
 11
3674.266172669748
 21
1177.494269174462
 31
0.0
 12
-3742.925985830444
 22
-6453.628869860112
 32
0.0
 70
   128
 71
     5
 42
77.0
  3
INABA_S40
100
AcDbAlignedDimension
 13
3437.970589276523
 23
1392.494269174465
 33
0.0
 14
3436.970589276523
 24
1315.494269174465
 34
0.0
 50
90.0
100
AcDbRotatedDimension
1001
ACAD
1000
DSTYLE
1002
{
1070
    41
1040
0.5
1070
    44
1040
1.0
1070
   147
1040
0.8
1070
   271
1070
     2
1070
   272
1070
     2
1070
   289
1070
     3
1070
   340
1005
F706
1070
   343
1005
164B4
1070
   344
1005
164B4
1002
}
  0
LINE
  5
18CD3
330
18C7A
100
AcDbEntity
  8
部品1
100
AcDbLine
 10
3437.970589276523
 20
1315.494269174465
 30
0.0
 11
3437.970589276523
 21
1392.494269174465
 31
0.0
  0
LINE
  5
18CD4
330
18C7A
100
AcDbEntity
  8
部品1
100
AcDbLine
 10
3398.970589276523
 20
1388.494269174465
 30
0.0
 11
3409.970589276524
 21
1388.494269174465
 31
0.0
  0
LINE
  5
18CD5
330
18C7A
100
AcDbEntity
  8
部品1
100
AcDbLine
 10
3407.970589276523
 20
1324.494269174465
 30
0.0
 11
3407.970589276523
 21
1315.494269174465
 31
0.0
  0
LINE
  5
18CD6
330
18C7A
100
AcDbEntity
  8
部品1
100
AcDbLine
 10
3398.970589276523
 20
1324.494269174465
 30
0.0
 11
3407.970589276523
 21
1324.494269174465
 31
0.0
  0
LINE
  5
18CD7
330
18C7A
100
AcDbEntity
  8
部品1
100
AcDbLine
 10
3398.970589276523
 20
1388.494269174465
 30
0.0
 11
3398.970589276523
 21
1324.494269174465
 31
0.0
  0
LINE
  5
18CD8
330
18C7A
100
AcDbEntity
  8
部品1
100
AcDbLine
 10
3409.970589276524
 20
1419.494269174465
 30
0.0
 11
3409.970589276524
 21
1388.494269174465
 31
0.0
  0
LINE
  5
18CD9
330
18C7A
100
AcDbEntity
  8
部品1
100
AcDbLine
 10
1322.970589276523
 20
1388.494269174465
 30
0.0
 11
1311.970589276523
 21
1388.494269174465
 31
0.0
  0
LINE
  5
18CDA
330
18C7A
100
AcDbEntity
  8
部品1
100
AcDbLine
 10
1283.970589276523
 20
1392.494269174465
 30
0.0
 11
1311.970589276523
 21
1392.494269174465
 31
0.0
  0
LINE
  5
18CDB
330
18C7A
100
AcDbEntity
  8
部品1
100
AcDbLine
 10
1313.970589276523
 20
1324.494269174465
 30
0.0
 11
1313.970589276523
 21
1315.494269174465
 31
0.0
  0
LINE
  5
18CDC
330
18C7A
100
AcDbEntity
  8
部品1
100
AcDbLine
 10
1322.970589276523
 20
1324.494269174465
 30
0.0
 11
1313.970589276523
 21
1324.494269174465
 31
0.0
  0
LINE
  5
18CDD
330
18C7A
100
AcDbEntity
  8
部品1
100
AcDbLine
 10
1313.970589276523
 20
1315.494269174465
 30
0.0
 11
1283.970589276523
 21
1315.494269174465
 31
0.0
  0
LINE
  5
18CDE
330
18C7A
100
AcDbEntity
  8
部品1
100
AcDbLine
 10
1283.970589276523
 20
1315.494269174465
 30
0.0
 11
1283.970589276523
 21
1392.494269174465
 31
0.0
  0
LINE
  5
18CDF
330
18C7A
100
AcDbEntity
  8
部品1
100
AcDbLine
 10
1322.970589276523
 20
1388.494269174465
 30
0.0
 11
1322.970589276523
 21
1324.494269174465
 31
0.0
  0
LINE
  5
18CE0
330
18C7A
100
AcDbEntity
  8
部品1
100
AcDbLine
 10
1311.970589276523
 20
1419.494269174462
 30
0.0
 11
1311.970589276523
 21
1388.494269174465
 31
0.0
  0
LINE
  5
18CE1
330
18C7A
100
AcDbEntity
  8
部品1
100
AcDbLine
 10
1311.970589276523
 20
1419.494269174462
 30
0.0
 11
3409.970589276524
 21
1419.494269174465
 31
0.0
  0
LINE
  5
18CE2
330
18C7A
100
AcDbEntity
  8
部品1
100
AcDbLine
 10
3407.970589276523
 20
1315.494269174465
 30
0.0
 11
3437.970589276523
 21
1315.494269174465
 31
0.0
  0
LINE
  5
18CE3
330
18C7A
100
AcDbEntity
  8
部品1
100
AcDbLine
 10
1313.970589276523
 20
1315.494269174465
 30
0.0
 11
3410.970589276523
 21
1315.494269174465
 31
0.0
  0
LINE
  5
18CE4
330
18C7A
100
AcDbEntity
  8
細線
  6
Continuous
 62
     5
100
AcDbLine
 10
2689.970589276527
 20
1354.494269174462
 30
0.0
 11
2689.970589276527
 21
1354.494269174462
 31
0.0
  0
LINE
  5
18CE5
330
18C7A
100
AcDbEntity
  8
細線
  6
Continuous
 62
     5
100
AcDbLine
 10
2682.470589276527
 20
1354.494269174462
 30
0.0
 11
2682.470589276527
 21
1354.494269174462
 31
0.0
  0
LINE
  5
18CE6
330
18C7A
100
AcDbEntity
  8
細線
  6
Continuous
 62
     5
100
AcDbLine
 10
2676.470589276527
 20
1354.494269174462
 30
0.0
 11
2676.470589276527
 21
1354.494269174462
 31
0.0
  0
LINE
  5
18CE7
330
18C7A
100
AcDbEntity
  8
細線
  6
Continuous
 62
     5
100
AcDbLine
 10
2743.970589276527
 20
1373.494269174462
 30
0.0
 11
2743.970589276527
 21
1373.494269174462
 31
0.0
  0
LINE
  5
18CE8
330
18C7A
100
AcDbEntity
  8
細線
 48
50.0
100
AcDbLine
 10
1336.970593930116
 20
1341.094443351418
 30
0.0
 11
1336.970593930113
 21
1349.490593759059
 31
0.0
  0
LINE
  5
18CE9
330
18C7A
100
AcDbEntity
  8
細線
 48
50.0
100
AcDbLine
 10
1336.970593930113
 20
1349.490593759059
 30
0.0
 11
1322.970589276523
 21
1349.490593759057
 31
0.0
  0
LINE
  5
18CEA
330
18C7A
100
AcDbEntity
  8
細線
 48
50.0
100
AcDbLine
 10
2087.970593930113
 20
1337.644443351419
 30
0.0
 11
2087.970593930113
 21
1342.494443351421
 31
0.0
  0
LINE
  5
18CEB
330
18C7A
100
AcDbEntity
  8
細線
 48
50.0
100
AcDbLine
 10
2087.970593930113
 20
1342.494443351421
 30
0.0
 11
2102.970593930113
 21
1342.494443351421
 31
0.0
  0
LINE
  5
18CEC
330
18C7A
100
AcDbEntity
  8
細線
 48
50.0
100
AcDbLine
 10
2102.970593930113
 20
1342.494443351421
 30
0.0
 11
2102.970593930115
 21
1349.494443351419
 31
0.0
  0
LINE
  5
18CED
330
18C7A
100
AcDbEntity
  8
細線
 48
50.0
100
AcDbLine
 10
2102.970593930115
 20
1349.494443351419
 30
0.0
 11
2117.970593930113
 21
1349.494443351419
 31
0.0
  0
LINE
  5
18CEE
330
18C7A
100
AcDbEntity
  8
細線
 48
50.0
100
AcDbLine
 10
2117.970593930113
 20
1349.494443351419
 30
0.0
 11
2117.970593930113
 21
1320.494443351421
 31
0.0
  0
LINE
  5
18CEF
330
18C7A
100
AcDbEntity
  8
細線
 48
50.0
100
AcDbLine
 10
1313.970589276523
 20
1320.491777694889
 30
0.0
 11
1527.970593930113
 21
1320.494460905133
 31
0.0
  0
LINE
  5
18CF0
330
18C7A
100
AcDbEntity
  8
細線
 48
50.0
100
AcDbLine
 10
2017.970593930113
 20
1320.494443351421
 30
0.0
 11
2117.970593930113
 21
1320.494443351421
 31
0.0
  0
LINE
  5
18CF1
330
18C7A
100
AcDbEntity
  8
細線
 48
50.0
100
AcDbLine
 10
1737.970593930113
 20
1320.494443351419
 30
0.0
 11
1807.970593930113
 21
1320.494443351423
 31
0.0
  0
LINE
  5
18CF2
330
18C7A
100
AcDbEntity
  8
細線
 48
50.0
100
AcDbLine
 10
1750.832558942642
 20
1320.494443351419
 30
0.0
 11
1756.588076525309
 21
1338.765294641913
 31
0.0
  0
LINE
  5
18CF3
330
18C7A
100
AcDbEntity
  8
細線
 48
50.0
100
AcDbLine
 10
1756.588076525309
 20
1338.765294641913
 30
0.0
 11
1767.516525005743
 21
1338.765294641911
 31
0.0
  0
ARC
  5
18CF4
330
18C7A
100
AcDbEntity
  8
細線
 48
50.0
100
AcDbCircle
 10
1767.516525005743
 20
1337.765294641911
 30
0.0
 40
1.0
100
AcDbArc
 50
24.62431835207225
 51
90.0
  0
ARC
  5
18CF5
330
18C7A
100
AcDbEntity
  8
細線
 48
50.0
100
AcDbCircle
 10
1778.425237120377
 20
1337.765294641911
 30
0.0
 40
1.0
100
AcDbArc
 50
90.0
 51
155.3756816479277
  0
ARC
  5
18CF6
330
18C7A
100
AcDbEntity
  8
細線
 48
50.0
100
AcDbCircle
 10
1772.970881063058
 20
1340.265294641911
 30
0.0
 40
5.0
100
AcDbArc
 50
204.6243183520723
 51
335.3756816479278
  0
LINE
  5
18CF7
330
18C7A
100
AcDbEntity
  8
細線
 48
50.0
100
AcDbLine
 10
1778.425237120377
 20
1338.765294641911
 30
0.0
 11
1789.35368560081
 21
1338.765294641913
 31
0.0
  0
LINE
  5
18CF8
330
18C7A
100
AcDbEntity
  8
細線
 48
50.0
100
AcDbLine
 10
1789.35368560081
 20
1338.765294641913
 30
0.0
 11
1795.109203183478
 21
1320.494443351423
 31
0.0
  0
LINE
  5
18CF9
330
18C7A
100
AcDbEntity
  8
細線
 48
50.0
100
AcDbLine
 10
2087.970593930113
 20
1341.094443351419
 30
0.0
 11
1336.970593930116
 21
1341.094443351418
 31
0.0
  0
LINE
  5
18CFA
330
18C7A
100
AcDbEntity
  8
細線
 48
50.0
100
AcDbLine
 10
1947.970593930113
 20
1320.494443351421
 30
0.0
 11
1877.970593930113
 21
1320.494443351421
 31
0.0
  0
LINE
  5
18CFB
330
18C7A
100
AcDbEntity
  8
細線
100
AcDbLine
 10
1667.970593930113
 20
1320.494443351421
 30
0.0
 11
1597.970602115529
 21
1320.494443351421
 31
0.0
  0
LINE
  5
18CFC
330
18C7A
100
AcDbEntity
  8
細線
 48
50.0
100
AcDbLine
 10
2741.970584622936
 20
1375.094487209288
 30
0.0
 11
2106.970593930113
 21
1375.094487209284
 31
0.0
  0
LINE
  5
18CFD
330
18C7A
100
AcDbEntity
  8
細線
 48
50.0
100
AcDbLine
 10
2106.970593930113
 20
1371.990637616925
 30
0.0
 11
2106.970593930113
 21
1376.490637616925
 31
0.0
  0
LINE
  5
18CFE
330
18C7A
100
AcDbEntity
  8
細線
 48
50.0
100
AcDbLine
 10
2106.970593930113
 20
1376.490637616925
 30
0.0
 11
2091.970593930113
 21
1376.490637616925
 31
0.0
  0
LINE
  5
18CFF
330
18C7A
100
AcDbEntity
  8
細線
 48
50.0
100
AcDbLine
 10
2091.970593930113
 20
1376.490637616925
 30
0.0
 11
2091.970593930113
 21
1383.490637616927
 31
0.0
  0
LINE
  5
18D00
330
18C7A
100
AcDbEntity
  8
細線
 48
50.0
100
AcDbLine
 10
2091.970593930113
 20
1383.490637616927
 30
0.0
 11
2076.970593930115
 21
1383.490637616924
 31
0.0
  0
LINE
  5
18D01
330
18C7A
100
AcDbEntity
  8
細線
 48
50.0
100
AcDbLine
 10
2076.970593930115
 20
1383.490637616924
 30
0.0
 11
2076.970593930115
 21
1345.890409513813
 31
0.0
  0
LINE
  5
18D02
330
18C7A
100
AcDbEntity
  8
細線
 48
50.0
100
AcDbLine
 10
2076.970593930115
 20
1345.890409513813
 30
0.0
 11
2096.970601231289
 21
1345.890451063353
 31
0.0
  0
LINE
  5
18D03
330
18C7A
100
AcDbEntity
  8
細線
 48
50.0
100
AcDbLine
 10
2096.970556362348
 20
1354.493912699161
 30
0.0
 11
2096.970601231289
 21
1345.890451063353
 31
0.0
  0
LINE
  5
18D04
330
18C7A
100
AcDbEntity
  8
細線
 48
50.0
100
AcDbLine
 10
2741.970584622936
 20
1371.644487209287
 30
0.0
 11
2741.970584622936
 21
1376.494487209284
 31
0.0
  0
LINE
  5
18D05
330
18C7A
100
AcDbEntity
  8
細線
 48
50.0
100
AcDbLine
 10
2741.970584622936
 20
1376.494487209284
 30
0.0
 11
2756.970584622934
 21
1376.494487209285
 31
0.0
  0
LINE
  5
18D06
330
18C7A
100
AcDbEntity
  8
細線
 48
50.0
100
AcDbLine
 10
2756.970584622934
 20
1376.494487209285
 30
0.0
 11
2756.970596256909
 21
1383.494487209331
 31
0.0
  0
LINE
  5
18D07
330
18C7A
100
AcDbEntity
  8
細線
 48
50.0
100
AcDbLine
 10
2756.970596256909
 20
1383.494487209331
 30
0.0
 11
2771.970594427439
 21
1383.494487209329
 31
0.0
  0
LINE
  5
18D08
330
18C7A
100
AcDbEntity
  8
細線
 48
50.0
100
AcDbLine
 10
2771.970594427439
 20
1383.494487209329
 30
0.0
 11
2771.970584125617
 21
1354.494281037055
 31
0.0
  0
LINE
  5
18D09
330
18C7A
100
AcDbEntity
  8
細線
 48
50.0
100
AcDbLine
 10
2458.070304175992
 20
1354.494278397076
 30
0.0
 11
2389.470863838818
 21
1354.494283787084
 31
0.0
  0
LINE
  5
18D0A
330
18C7A
100
AcDbEntity
  8
細線
 48
50.0
100
AcDbLine
 10
2096.970556362348
 20
1354.493912699161
 30
0.0
 11
2108.203245717057
 21
1354.494095652309
 31
0.0
  0
ARC
  5
18D0B
330
18C7A
100
AcDbEntity
  8
細線
 48
50.0
100
AcDbCircle
 10
2114.785538024393
 20
1353.294259565922
 30
0.0
 40
1.8
100
AcDbArc
 50
270.0006665777295
 51
345.000555481349
  0
LINE
  5
18D0C
330
18C7A
100
AcDbEntity
  8
細線
 48
50.0
100
AcDbLine
 10
2116.771971470473
 20
1353.753100023201
 30
0.0
 11
2116.524209028273
 21
1352.828402141094
 31
0.0
  0
LINE
  5
18D0D
330
18C7A
100
AcDbEntity
  8
細線
 48
50.0
100
AcDbLine
 10
2114.785558965548
 20
1351.494259566043
 30
0.0
 11
2111.155631546781
 21
1351.494217335563
 31
0.0
  0
ARC
  5
18D0E
330
18C7A
100
AcDbEntity
  8
細線
 48
50.0
100
AcDbCircle
 10
2111.155610605627
 20
1353.29421733544
 30
0.0
 40
1.8
100
AcDbArc
 50
195.0010443049965
 51
270.0006665777295
  0
LINE
  5
18D0F
330
18C7A
100
AcDbEntity
  8
細線
 48
50.0
100
AcDbLine
 10
2109.169183113368
 20
1353.752932303007
 30
0.0
 11
2109.416952609882
 21
1352.828311364425
 31
0.0
  0
ARC
  5
18D10
330
18C7A
100
AcDbEntity
  8
細線
 48
50.0
100
AcDbCircle
 10
2108.203262004622
 20
1353.494095652444
 30
0.0
 40
1.0
100
AcDbArc
 50
15.00104430499651
 51
90.00093320877969
  0
LINE
  5
18D11
330
18C7A
100
AcDbEntity
  8
細線
 48
50.0
100
AcDbLine
 10
2117.737892825577
 20
1354.494290342714
 30
0.0
 11
2118.679652976481
 21
1354.494296916564
 31
0.0
  0
ARC
  5
18D12
330
18C7A
100
AcDbEntity
  8
細線
 48
50.0
100
AcDbCircle
 10
2117.737899805961
 20
1353.49429034274
 30
0.0
 40
1.0
100
AcDbArc
 50
90.0003999466794
 51
165.000555481349
  0
LINE
  5
18D13
330
18C7A
100
AcDbEntity
  8
細線
 48
50.0
100
AcDbLine
 10
2669.470584622926
 20
1354.494281037055
 30
0.0
 11
2771.970584125617
 21
1354.494281037055
 31
0.0
  0
LINE
  5
18D14
330
18C7A
100
AcDbEntity
  8
細線
 48
50.0
100
AcDbLine
 10
2179.47061994182
 20
1354.494289224422
 30
0.0
 11
2118.370558714898
 21
1354.494296916564
 31
0.0
  0
LINE
  5
18D15
330
18C7A
100
AcDbEntity
  8
細線
 48
50.0
100
AcDbLine
 10
2599.470584622926
 20
1354.494281037057
 30
0.0
 11
2529.470584622926
 21
1354.494281037055
 31
0.0
  0
LINE
  5
18D16
330
18C7A
100
AcDbEntity
  8
細線
 48
50.0
100
AcDbLine
 10
2319.470584622926
 20
1354.494281037054
 30
0.0
 11
2249.470567335051
 21
1354.494281037057
 31
0.0
  0
ARC
  5
18D17
330
18C7A
100
AcDbEntity
  8
細線
 48
50.0
100
AcDbCircle
 10
2756.170589276533
 20
1387.694269174466
 30
0.0
 40
0.8
100
AcDbArc
 50
359.9997333689499
 51
89.99986668437072
  0
ARC
  5
18D18
330
18C7A
100
AcDbEntity
  8
細線
 48
50.0
100
AcDbCircle
 10
2763.770596101631
 20
1387.694280343081
 30
0.0
 40
0.8
100
AcDbArc
 50
90.00014387753465
 51
179.9997333689498
  0
LINE
  5
18D19
330
18C7A
100
AcDbEntity
  8
細線
 48
50.0
100
AcDbLine
 10
2756.170591137969
 20
1388.494269174465
 30
0.0
 11
2750.970589276525
 21
1388.494269174465
 31
0.0
  0
ARC
  5
18D1A
330
18C7A
100
AcDbEntity
  8
細線
 48
50.0
100
AcDbCircle
 10
2757.670589276524
 20
1386.194269174464
 30
0.0
 40
0.7
100
AcDbArc
 50
180.0
 51
270.0
  0
ARC
  5
18D1B
330
18C7A
100
AcDbEntity
  8
細線
 48
50.0
100
AcDbCircle
 10
2762.270589276524
 20
1386.194269174464
 30
0.0
 40
0.7
100
AcDbArc
 50
270.0
 51
0.0
  0
LINE
  5
18D1C
330
18C7A
100
AcDbEntity
  8
細線
 48
50.0
100
AcDbLine
 10
2762.970589276525
 20
1386.194269174464
 30
0.0
 11
2762.970596101639
 21
1387.694284065954
 31
0.0
  0
LINE
  5
18D1D
330
18C7A
100
AcDbEntity
  8
細線
 48
50.0
100
AcDbLine
 10
2757.670589276524
 20
1385.494269174465
 30
0.0
 11
2762.270589276524
 21
1385.494269174465
 31
0.0
  0
LINE
  5
18D1E
330
18C7A
100
AcDbEntity
  8
細線
 48
50.0
100
AcDbLine
 10
2756.970589276525
 20
1387.694269174466
 30
0.0
 11
2756.970589276525
 21
1386.194269174464
 31
0.0
  0
LINE
  5
18D1F
330
18C7A
100
AcDbEntity
  8
細線
 48
50.0
100
AcDbLine
 10
3382.570589276527
 20
1418.494269174465
 30
0.0
 11
2745.970589276525
 21
1418.494269174463
 31
0.0
  0
LINE
  5
18D20
330
18C7A
100
AcDbEntity
  8
細線
 48
50.0
100
AcDbLine
 10
3408.470589276525
 20
1413.494269174467
 30
0.0
 11
3392.570589276527
 21
1413.494269174465
 31
0.0
  0
LINE
  5
18D21
330
18C7A
100
AcDbEntity
  8
細線
 48
50.0
100
AcDbLine
 10
3392.570589276526
 20
1413.494269174465
 30
0.0
 11
3382.570589276527
 21
1418.494269174465
 31
0.0
  0
LINE
  5
18D22
330
18C7A
100
AcDbEntity
  8
細線
100
AcDbLine
 10
2993.470589276525
 20
1388.494269174465
 30
0.0
 11
2993.470589276525
 21
1417.794269174464
 31
0.0
  0
LINE
  5
18D23
330
18C7A
100
AcDbEntity
  8
細線
100
AcDbLine
 10
2993.470589276525
 20
1417.794269174464
 30
0.0
 11
3013.470589276525
 21
1417.794269174464
 31
0.0
  0
LINE
  5
18D24
330
18C7A
100
AcDbEntity
  8
細線
100
AcDbLine
 10
3013.470589276525
 20
1388.494269174465
 30
0.0
 11
3013.470589276525
 21
1417.794269174464
 31
0.0
  0
LINE
  5
18D25
330
18C7A
100
AcDbEntity
  8
細線
100
AcDbLine
 10
3170.720589276524
 20
1388.494269174465
 30
0.0
 11
3100.720589276523
 21
1388.494269174465
 31
0.0
  0
LINE
  5
18D26
330
18C7A
100
AcDbEntity
  8
細線
 48
50.0
100
AcDbLine
 10
2890.720589276525
 20
1388.494269174465
 30
0.0
 11
2763.766368849365
 21
1388.494269174465
 31
0.0
  0
LINE
  5
18D27
330
18C7A
100
AcDbEntity
  8
細線
100
AcDbLine
 10
3030.720589276525
 20
1388.494269174465
 30
0.0
 11
2960.720589276525
 21
1388.494269174465
 31
0.0
  0
LINE
  5
18D28
330
18C7A
100
AcDbEntity
  8
細線
 48
50.0
100
AcDbLine
 10
2750.970589276525
 20
1380.494269174465
 30
0.0
 11
2750.970589276525
 21
1388.494269174465
 31
0.0
  0
LINE
  5
18D29
330
18C7A
100
AcDbEntity
  8
細線
 48
50.0
100
AcDbLine
 10
2730.970589276524
 20
1380.494269174467
 30
0.0
 11
2750.970589276525
 21
1380.494269174465
 31
0.0
  0
LINE
  5
18D2A
330
18C7A
100
AcDbEntity
  8
細線
 48
50.0
100
AcDbLine
 10
2745.970589276525
 20
1418.494269174465
 30
0.0
 11
2745.970589276525
 21
1413.494269174465
 31
0.0
  0
LINE
  5
18D2B
330
18C7A
100
AcDbEntity
  8
細線
 48
50.0
100
AcDbLine
 10
2730.970589276525
 20
1418.494269174463
 30
0.0
 11
2745.970589276525
 21
1418.494269174465
 31
0.0
  0
LINE
  5
18D2C
330
18C7A
100
AcDbEntity
  8
細線
 48
50.0
100
AcDbLine
 10
2730.970589276524
 20
1380.494269174467
 30
0.0
 11
2730.970589276525
 21
1418.494269174463
 31
0.0
  0
LINE
  5
18D2D
330
18C7A
100
AcDbEntity
  8
細線
100
AcDbLine
 10
3398.970589276523
 20
1388.494269174465
 30
0.0
 11
3240.720589276525
 21
1388.494269174465
 31
0.0
  0
LINE
  5
18D2E
330
18C7A
100
AcDbEntity
  8
細線
 48
50.0
100
AcDbLine
 10
3408.470589276525
 20
1413.494269174467
 30
0.0
 11
3408.470589276524
 21
1388.494269174465
 31
0.0
  0
TEXT
  5
18D2F
330
18C7A
100
AcDbEntity
  8
部品1
100
AcDbText
 10
1860.154865991392
 20
46.99880823813145
 30
0.0
 40
135.0
  1
平面図
  7
STYLE2
100
AcDbText
  0
LWPOLYLINE
  5
18D30
330
18C7A
100
AcDbEntity
  8
部品1
100
AcDbPolyline
 90
        4
 70
     1
 43
0.0
 10
1770.23525616235
 20
239.8923374566548
 10
1770.23525616235
 20
0.0000159111223184
 10
2533.705922390791
 20
0.0000159111223184
 10
2533.705922390791
 20
239.8923374566548
  0
LINE
  5
18D31
330
18C7A
100
AcDbEntity
  8
部品1
100
AcDbLine
 10
1534.470589276487
 20
3154.494269174626
 30
0.0
 11
2769.470589276552
 21
3154.494269174626
 31
0.0
  0
LINE
  5
18D32
330
18C7A
100
AcDbEntity
  8
部品1
 48
50.0
100
AcDbLine
 10
1311.970589276523
 20
1420.494269174462
 30
0.0
 11
3411.970589276523
 21
1420.494269174465
 31
0.0
  0
LINE
  5
18D33
330
18C7A
100
AcDbEntity
  8
部品1
 48
50.0
100
AcDbLine
 10
471.9705892765232
 20
1392.494269174465
 30
0.0
 11
1311.970589276523
 21
1392.494269174465
 31
0.0
  0
DIMENSION
  5
18D34
330
18C7A
100
AcDbEntity
  8
寸法
100
AcDbDimension
  2
*D14
 10
2710.234916278077
 20
2488.887829538828
 30
0.0
 11
2338.318822490183
 21
2488.887829538828
 31
0.0
 12
-3742.925985830444
 22
-6453.628869860112
 32
0.0
 70
   128
 71
     5
 42
1231.00000000007
  3
INABA_S40G
100
AcDbAlignedDimension
 13
1536.470589276486
 23
2702.494269174557
 33
0.0
 14
2767.470589276556
 24
2702.494269174549
 34
0.0
100
AcDbRotatedDimension
1001
ACAD
1000
DSTYLE
1002
{
1002
}
  0
LINE
  5
18D35
330
18C7A
100
AcDbEntity
  8
部品1
100
AcDbLine
 10
1536.470589276487
 20
2702.494269174557
 30
0.0
 11
2767.470589276554
 21
2702.494269174615
 31
0.0
  0
LINE
  5
18D36
330
18C7A
100
AcDbEntity
  8
部品1
100
AcDbLine
 10
1536.470589276487
 20
3152.494269174557
 30
0.0
 11
2767.470589276556
 21
3152.494269174615
 31
0.0
  0
LINE
  5
18D37
330
18C7A
100
AcDbEntity
  8
細線
 48
50.0
100
AcDbLine
 10
1508.470589276487
 20
3152.494269174558
 30
0.0
 11
445.4705892765559
 21
2702.494269174509
 31
0.0
  0
LINE
  5
18D38
330
18C7A
100
AcDbEntity
  8
細線
 48
50.0
100
AcDbLine
 10
1508.470589276487
 20
2702.494269174558
 30
0.0
 11
445.4705892765542
 21
3152.494269174509
 31
0.0
  0
LINE
  5
18D39
330
18C7A
100
AcDbEntity
  8
部品1
100
AcDbLine
 10
1556.970589276487
 20
3172.494269174611
 30
0.0
 11
1556.970589276487
 21
3154.494269174611
 31
0.0
  0
LINE
  5
18D3A
330
18C7A
100
AcDbEntity
  8
部品1
100
AcDbLine
 10
1556.970589276487
 20
3172.494269174611
 30
0.0
 11
1550.970589276487
 21
3172.494269174611
 31
0.0
  0
LINE
  5
18D3B
330
18C7A
100
AcDbEntity
  8
部品1
100
AcDbLine
 10
1534.470589276487
 20
3146.494269174608
 30
0.0
 11
1509.470589276487
 21
3146.494269174611
 31
0.0
  0
LINE
  5
18D3C
330
18C7A
100
AcDbEntity
  8
部品1
100
AcDbLine
 10
1486.970589276487
 20
3172.494269174611
 30
0.0
 11
1486.970589276487
 21
3154.494269174611
 31
0.0
  0
LINE
  5
18D3D
330
18C7A
100
AcDbEntity
  8
部品1
100
AcDbLine
 10
1492.970589276487
 20
3172.494269174611
 30
0.0
 11
1486.970589276487
 21
3172.494269174611
 31
0.0
  0
LINE
  5
18D3E
330
18C7A
100
AcDbEntity
  8
部品1
100
AcDbLine
 10
1534.470589276487
 20
2702.494269174615
 30
0.0
 11
1509.470589276487
 21
2702.494269174615
 31
0.0
  0
LINE
  5
18D3F
330
18C7A
100
AcDbEntity
  8
部品1
 48
50.0
100
AcDbLine
 10
1536.470589276487
 20
3152.494269174611
 30
0.0
 11
1536.470589276487
 21
2702.494269174615
 31
0.0
  0
LINE
  5
18D40
330
18C7A
100
AcDbEntity
  8
部品1
 48
50.0
100
AcDbLine
 10
1508.470589276487
 20
3152.494269174607
 30
0.0
 11
1508.470589276487
 21
2702.494269174615
 31
0.0
  0
LINE
  5
18D41
330
18C7A
100
AcDbEntity
  8
部品1
 48
50.0
100
AcDbLine
 10
1534.470589276487
 20
3154.494269174618
 30
0.0
 11
1534.470589276487
 21
2702.494269174615
 31
0.0
  0
LINE
  5
18D42
330
18C7A
100
AcDbEntity
  8
部品1
 48
50.0
100
AcDbLine
 10
1509.470589276487
 20
3154.494269174615
 30
0.0
 11
1509.470589276487
 21
2702.494269174615
 31
0.0
  0
LINE
  5
18D43
330
18C7A
100
AcDbEntity
  8
部品1
100
AcDbLine
 10
3411.970589276556
 20
1392.494269174582
 30
0.0
 11
3411.970589276556
 21
1420.494269174596
 31
0.0
  0
LINE
  5
18D44
330
18C7A
100
AcDbEntity
  8
部品1
100
AcDbLine
 10
1311.970589276523
 20
1392.494269174596
 30
0.0
 11
1311.970589276523
 21
1420.494269174596
 31
0.0
  0
LINE
  5
18D45
330
18C7A
100
AcDbEntity
  8
部品1
100
AcDbLine
 10
891.9705892765232
 20
1392.494269174596
 30
0.0
 11
891.9705892765232
 21
1420.494269174596
 31
0.0
  0
LINE
  5
18D46
330
18C7A
100
AcDbEntity
  8
部品1
100
AcDbLine
 10
3411.97058927652
 20
3182.494269174477
 30
0.0
 11
3411.970589276523
 21
3154.494269174477
 31
0.0
  0
LINE
  5
18D47
330
18C7A
100
AcDbEntity
  8
部品1
100
AcDbLine
 10
2571.97058927652
 20
3182.494269174477
 30
0.0
 11
2571.970589276523
 21
3154.494269174477
 31
0.0
  0
LINE
  5
18D48
330
18C7A
100
AcDbEntity
  8
部品1
100
AcDbLine
 10
2991.97058927652
 20
3182.494269174477
 30
0.0
 11
2991.970589276523
 21
3154.494269174477
 31
0.0
  0
LINE
  5
18D49
330
18C7A
100
AcDbEntity
  8
部品1
100
AcDbLine
 10
2151.970589276519
 20
3182.494269174477
 30
0.0
 11
2151.970589276523
 21
3154.494269174477
 31
0.0
  0
LINE
  5
18D4A
330
18C7A
100
AcDbEntity
  8
部品1
100
AcDbLine
 10
1731.970589276519
 20
3182.494269174477
 30
0.0
 11
1731.970589276523
 21
3154.494269174477
 31
0.0
  0
LINE
  5
18D4B
330
18C7A
100
AcDbEntity
  8
部品1
100
AcDbLine
 10
1311.970589276519
 20
3182.494269174477
 30
0.0
 11
1311.970589276523
 21
3154.494269174477
 31
0.0
  0
LINE
  5
18D4C
330
18C7A
100
AcDbEntity
  8
部品1
100
AcDbLine
 10
891.9705892765195
 20
3182.494269174477
 30
0.0
 11
891.9705892765232
 21
3154.494269174477
 31
0.0
  0
LINE
  5
18D4D
330
18C7A
100
AcDbEntity
  8
部品1
100
AcDbLine
 10
471.9705892765232
 20
1392.494269174596
 30
0.0
 11
471.9705892765232
 21
1420.494269174596
 31
0.0
  0
LINE
  5
18D4E
330
18C7A
100
AcDbEntity
  8
部品1
100
AcDbLine
 10
444.9705892765305
 20
1420.494269174558
 30
0.0
 11
3858.970589276556
 21
1420.494269174596
 31
0.0
  0
LINE
  5
18D4F
330
18C7A
100
AcDbEntity
  8
部品1
100
AcDbLine
 10
3831.970589276556
 20
1392.494269174596
 30
0.0
 11
3831.970589276556
 21
1420.494269174596
 31
0.0
  0
LINE
  5
18D50
330
18C7A
100
AcDbEntity
  8
部品1
100
AcDbLine
 10
3858.970589276556
 20
1447.494269174593
 30
0.0
 11
3886.970589276556
 21
1447.494269174593
 31
0.0
  0
LINE
  5
18D51
330
18C7A
100
AcDbEntity
  8
部品1
100
AcDbLine
 10
3858.970589276556
 20
1867.494269174607
 30
0.0
 11
3886.970589276556
 21
1867.494269174607
 31
0.0
  0
LINE
  5
18D52
330
18C7A
100
AcDbEntity
  8
部品1
100
AcDbLine
 10
444.9705892765305
 20
1867.49426917448
 30
0.0
 11
416.9705892765305
 21
1867.49426917448
 31
0.0
  0
LINE
  5
18D53
330
18C7A
100
AcDbEntity
  8
部品1
100
AcDbLine
 10
3830.470589276541
 20
1867.49426917458
 30
0.0
 11
473.4705892765396
 21
1867.49426917448
 31
0.0
  0
LINE
  5
18D54
330
18C7A
100
AcDbEntity
  8
部品1
100
AcDbLine
 10
3830.470589276541
 20
2287.49426917458
 30
0.0
 11
473.4705892765396
 21
2287.49426917448
 31
0.0
  0
LINE
  5
18D55
330
18C7A
100
AcDbEntity
  8
部品1
100
AcDbLine
 10
444.9705892765305
 20
2287.49426917448
 30
0.0
 11
416.9705892765305
 21
2287.49426917448
 31
0.0
  0
LINE
  5
18D56
330
18C7A
100
AcDbEntity
  8
部品1
100
AcDbLine
 10
3858.970589276556
 20
2287.494269174608
 30
0.0
 11
3886.970589276556
 21
2287.494269174608
 31
0.0
  0
LINE
  5
18D57
330
18C7A
100
AcDbEntity
  8
部品1
 48
50.0
100
AcDbLine
 10
2151.970589276551
 20
2702.494269174586
 30
0.0
 11
2151.970589276581
 21
1448.994269174494
 31
0.0
  0
LINE
  5
18D58
330
18C7A
100
AcDbEntity
  8
破線
 48
10.0
100
AcDbLine
 10
2959.470589276535
 20
1472.494269174522
 30
0.0
 11
2176.970589276532
 21
1472.494269174505
 31
0.0
  0
LINE
  5
18D59
330
18C7A
100
AcDbEntity
  8
破線
 48
10.0
100
AcDbLine
 10
3009.47058927653
 20
1448.994269174509
 30
0.0
 11
3009.47058927653
 21
2702.494269174615
 31
0.0
  0
LINE
  5
18D5A
330
18C7A
100
AcDbEntity
  8
破線
 48
10.0
100
AcDbLine
 10
2959.470589276535
 20
1448.994269174505
 30
0.0
 11
2959.470589276531
 21
2702.494269174615
 31
0.0
  0
LINE
  5
18D5B
330
18C7A
100
AcDbEntity
  8
破線
 48
10.0
100
AcDbLine
 10
1344.47058927653
 20
1448.994269174509
 30
0.0
 11
1344.47058927653
 21
2702.494269174615
 31
0.0
  0
LINE
  5
18D5C
330
18C7A
100
AcDbEntity
  8
破線
 48
10.0
100
AcDbLine
 10
1294.470589276534
 20
1448.994269174505
 30
0.0
 11
1294.47058927653
 21
2702.494269174615
 31
0.0
  0
DIMENSION
  5
18D5D
330
18C7A
100
AcDbEntity
  8
寸法
100
AcDbDimension
  2
*D13
 10
1451.234916278005
 20
2488.887829538828
 30
0.0
 11
916.0604668248634
 21
2488.887829538828
 31
0.0
 12
-3742.925985830444
 22
-6453.628869860112
 32
0.0
 70
   128
 71
     5
 42
1062.99999999993
  3
INABA_S40G
100
AcDbAlignedDimension
 13
445.4705892765559
 23
2702.494269174505
 33
0.0
 14
1508.470589276486
 24
2702.494269174558
 34
0.0
100
AcDbRotatedDimension
1001
ACAD
1000
DSTYLE
1002
{
1002
}
  0
LINE
  5
18D5E
330
18C7A
100
AcDbEntity
  8
破線
 48
10.0
100
AcDbLine
 10
1294.470589276534
 20
1472.494269174469
 30
0.0
 11
496.9705892765414
 21
1472.494269174476
 31
0.0
  0
LINE
  5
18D5F
330
18C7A
100
AcDbEntity
  8
部品1
100
AcDbLine
 10
3831.970589276556
 20
3182.494269174604
 30
0.0
 11
3831.970589276556
 21
3154.494269174604
 31
0.0
  0
LINE
  5
18D60
330
18C7A
100
AcDbEntity
  8
部品1
100
AcDbLine
 10
3831.970589276556
 20
3182.494269174626
 30
0.0
 11
3831.970589276556
 21
3154.494269174626
 31
0.0
  0
LINE
  5
18D61
330
18C7A
100
AcDbEntity
  8
部品1
100
AcDbLine
 10
3858.970589276556
 20
3127.494269174607
 30
0.0
 11
3886.970589276556
 21
3127.494269174607
 31
0.0
  0
LINE
  5
18D62
330
18C7A
100
AcDbEntity
  8
部品1
100
AcDbLine
 10
3858.970589276556
 20
2707.494269174608
 30
0.0
 11
3886.970589276556
 21
2707.494269174608
 31
0.0
  0
LINE
  5
18D63
330
18C7A
100
AcDbEntity
  8
部品1
100
AcDbLine
 10
3858.470589276556
 20
3152.494269174604
 30
0.0
 11
3858.470589276556
 21
2702.494269174608
 31
0.0
  0
LINE
  5
18D64
330
18C7A
100
AcDbEntity
  8
部品1
100
AcDbLine
 10
3886.970589276533
 20
1447.494269174593
 30
0.0
 11
3886.970589276531
 21
1392.494269174596
 31
0.0
  0
LINE
  5
18D65
330
18C7A
100
AcDbEntity
  8
部品1
 48
50.0
100
AcDbLine
 10
3830.470589276556
 20
1448.994269174596
 30
0.0
 11
3858.970589276554
 21
1420.494269174596
 31
0.0
  0
LINE
  5
18D66
330
18C7A
100
AcDbEntity
  8
部品1
100
AcDbLine
 10
3886.970589276531
 20
1392.494269174596
 30
0.0
 11
3835.970589276531
 21
1392.494269174596
 31
0.0
  0
LINE
  5
18D67
330
18C7A
100
AcDbEntity
  8
部品1
100
AcDbLine
 10
3858.970589276533
 20
1447.494269174593
 30
0.0
 11
3886.970589276531
 21
1447.494269174593
 31
0.0
  0
LINE
  5
18D68
330
18C7A
100
AcDbEntity
  8
部品1
100
AcDbLine
 10
3886.970589276556
 20
3182.494269174604
 30
0.0
 11
3886.970589276531
 21
1392.494269174596
 31
0.0
  0
DIMENSION
  5
18D69
330
18C7A
100
AcDbEntity
  8
寸法
100
AcDbDimension
  2
*D12
 10
4534.396935010967
 20
1447.494269174593
 30
0.0
 11
4534.396935010965
 21
2287.4942691746
 31
0.0
 12
-3742.925985830444
 22
-6453.628869860112
 32
0.0
 70
   128
  1
4X420=<>
 71
     5
 42
1680.000000000014
  3
INABA_S40G
100
AcDbAlignedDimension
 13
3886.970589276556
 23
3127.494269174607
 33
0.0
 14
3886.970589276531
 24
1447.494269174593
 34
0.0
 50
90.0
100
AcDbRotatedDimension
1001
ACAD
1000
DSTYLE
1002
{
1002
}
  0
LINE
  5
18D6A
330
18C7A
100
AcDbEntity
  8
部品1
100
AcDbLine
 10
3858.970589276556
 20
3154.494269174604
 30
0.0
 11
3858.970589276534
 21
1420.494269174596
 31
0.0
  0
DIMENSION
  5
18D6B
330
18C7A
100
AcDbEntity
  8
寸法
100
AcDbDimension
  2
*D11
 10
4213.82831513858
 20
2607.276453505718
 30
0.0
 11
4113.828315138579
 21
2832.276453505718
 31
0.0
 12
-3742.925985830444
 22
-6453.628869860112
 32
0.0
 71
     5
 42
449.9999999999963
  3
INABA_S40G
100
AcDbAlignedDimension
 13
3858.470589276556
 23
3152.494269174604
 33
0.0
 14
3858.470589276556
 24
2702.494269174608
 34
0.0
 50
90.0
100
AcDbRotatedDimension
1001
ACAD
1000
DSTYLE
1002
{
1002
}
  0
LINE
  5
18D6C
330
18C7A
100
AcDbEntity
  8
部品1
100
AcDbLine
 10
3830.470589276547
 20
2702.494269174608
 30
0.0
 11
3830.470589276556
 21
1448.994269174596
 31
0.0
  0
LINE
  5
18D6D
330
18C7A
100
AcDbEntity
  8
破線
 48
10.0
100
AcDbLine
 10
3806.970589276549
 20
2702.494269174608
 30
0.0
 11
3806.970589276558
 21
1472.494269174593
 31
0.0
  0
LINE
  5
18D6E
330
18C7A
100
AcDbEntity
  8
部品1
100
AcDbLine
 10
2769.470589276556
 20
3146.494269174608
 30
0.0
 11
2794.470589276556
 21
3146.494269174611
 31
0.0
  0
LINE
  5
18D6F
330
18C7A
100
AcDbEntity
  8
部品1
100
AcDbLine
 10
2810.970589276556
 20
3172.494269174611
 30
0.0
 11
2816.970589276556
 21
3172.494269174611
 31
0.0
  0
LINE
  5
18D70
330
18C7A
100
AcDbEntity
  8
部品1
100
AcDbLine
 10
2816.970589276556
 20
3172.494269174611
 30
0.0
 11
2816.970589276556
 21
3154.494269174611
 31
0.0
  0
LINE
  5
18D71
330
18C7A
100
AcDbEntity
  8
部品1
100
AcDbLine
 10
2746.970589276556
 20
3172.494269174611
 30
0.0
 11
2752.970589276556
 21
3172.494269174611
 31
0.0
  0
LINE
  5
18D72
330
18C7A
100
AcDbEntity
  8
部品1
100
AcDbLine
 10
2746.970589276556
 20
3172.494269174611
 30
0.0
 11
2746.970589276556
 21
3154.494269174611
 31
0.0
  0
LINE
  5
18D73
330
18C7A
100
AcDbEntity
  8
部品1
100
AcDbLine
 10
2769.470589276556
 20
2702.494269174615
 30
0.0
 11
2794.470589276556
 21
2702.494269174615
 31
0.0
  0
LINE
  5
18D74
330
18C7A
100
AcDbEntity
  8
部品1
 48
50.0
100
AcDbLine
 10
2794.470589276556
 20
3154.494269174615
 30
0.0
 11
2794.470589276556
 21
2702.494269174615
 31
0.0
  0
LINE
  5
18D75
330
18C7A
100
AcDbEntity
  8
部品1
 48
50.0
100
AcDbLine
 10
2769.470589276554
 20
3154.494269174618
 30
0.0
 11
2769.470589276556
 21
2702.494269174615
 31
0.0
  0
LINE
  5
18D76
330
18C7A
100
AcDbEntity
  8
部品1
 48
50.0
100
AcDbLine
 10
2795.470589276556
 20
3152.494269174607
 30
0.0
 11
2795.470589276556
 21
2702.494269174615
 31
0.0
  0
LINE
  5
18D77
330
18C7A
100
AcDbEntity
  8
部品1
 48
50.0
100
AcDbLine
 10
2767.470589276556
 20
3152.494269174611
 30
0.0
 11
2767.470589276556
 21
2702.494269174615
 31
0.0
  0
LINE
  5
18D78
330
18C7A
100
AcDbEntity
  8
破線
 48
10.0
100
AcDbLine
 10
2176.97058927653
 20
1448.994269174509
 30
0.0
 11
2176.97058927653
 21
2702.494269174588
 31
0.0
  0
LINE
  5
18D79
330
18C7A
100
AcDbEntity
  8
破線
 48
10.0
100
AcDbLine
 10
2126.970589276534
 20
1448.994269174505
 30
0.0
 11
2126.970589276531
 21
2702.494269174586
 31
0.0
  0
LINE
  5
18D7A
330
18C7A
100
AcDbEntity
  8
部品1
100
AcDbLine
 10
2794.470589276556
 20
3154.494269174622
 30
0.0
 11
3858.970589276556
 21
3154.494269174604
 31
0.0
  0
LINE
  5
18D7B
330
18C7A
100
AcDbEntity
  8
細線
 48
50.0
100
AcDbLine
 10
3858.470589276556
 20
2702.494269174608
 30
0.0
 11
2795.470589276556
 21
3152.494269174607
 31
0.0
  0
LINE
  5
18D7C
330
18C7A
100
AcDbEntity
  8
部品1
100
AcDbLine
 10
2795.470589276555
 20
2702.494269174615
 30
0.0
 11
3858.470589276556
 21
2702.494269174608
 31
0.0
  0
LINE
  5
18D7D
330
18C7A
100
AcDbEntity
  8
部品1
100
AcDbLine
 10
2795.470589276556
 20
3152.494269174611
 30
0.0
 11
3858.470589276556
 21
3152.494269174604
 31
0.0
  0
LINE
  5
18D7E
330
18C7A
100
AcDbEntity
  8
細線
 48
50.0
100
AcDbLine
 10
3858.470589276556
 20
3152.494269174604
 30
0.0
 11
2795.470589276555
 21
2702.494269174615
 31
0.0
  0
DIMENSION
  5
18D7F
330
18C7A
100
AcDbEntity
  8
寸法
100
AcDbDimension
  2
*D10
 10
3801.234916278101
 20
2488.887829538937
 30
0.0
 11
3318.360544398907
 21
2488.887829538937
 31
0.0
 12
-3742.925985830444
 22
-6453.628869860112
 32
0.0
 70
   128
 71
     5
 42
1063.000000000012
  3
INABA_S40G
100
AcDbAlignedDimension
 13
2795.470589276555
 23
2702.494269174615
 33
0.0
 14
3858.470589276567
 24
2702.494269174608
 34
0.0
100
AcDbRotatedDimension
1001
ACAD
1000
DSTYLE
1002
{
1002
}
  0
LINE
  5
18D80
330
18C7A
100
AcDbEntity
  8
破線
 48
10.0
100
AcDbLine
 10
3806.970589276556
 20
1472.494269174594
 30
0.0
 11
3009.47058927653
 21
1472.494269174523
 31
0.0
  0
DIMENSION
  5
18D81
330
18C7A
100
AcDbEntity
  8
寸法
100
AcDbDimension
  2
*D9
 10
4534.396935010941
 20
1392.494269174596
 30
0.0
 11
4534.39693501094
 21
1084.008987800356
 31
0.0
 12
-3742.925985830444
 22
-6453.628869860112
 32
0.0
 70
   128
 71
     5
 42
54.99999999999636
  3
INABA_S40G
100
AcDbAlignedDimension
 13
3886.970589276531
 23
1447.494269174593
 33
0.0
 14
3886.970589276531
 24
1392.494269174596
 34
0.0
 50
90.0
100
AcDbRotatedDimension
1001
ACAD
1000
DSTYLE
1002
{
1002
}
  0
LINE
  5
18D82
330
18C7A
100
AcDbEntity
  8
部品1
100
AcDbLine
 10
471.9705892765196
 20
3182.494269174477
 30
0.0
 11
471.9705892765232
 21
3154.494269174477
 31
0.0
  0
LINE
  5
18D83
330
18C7A
100
AcDbEntity
  8
部品1
100
AcDbLine
 10
471.9705892765559
 20
3182.494269174509
 30
0.0
 11
471.9705892765559
 21
3154.494269174509
 31
0.0
  0
LINE
  5
18D84
330
18C7A
100
AcDbEntity
  8
部品1
100
AcDbLine
 10
444.9705892765232
 20
3127.49426917448
 30
0.0
 11
416.9705892765232
 21
3127.49426917448
 31
0.0
  0
LINE
  5
18D85
330
18C7A
100
AcDbEntity
  8
部品1
100
AcDbLine
 10
444.9705892765305
 20
2707.49426917448
 30
0.0
 11
416.9705892765305
 21
2707.49426917448
 31
0.0
  0
LINE
  5
18D86
330
18C7A
100
AcDbEntity
  8
部品1
 48
50.0
100
AcDbLine
 10
445.4705892765542
 20
3152.494269174506
 30
0.0
 11
445.4705892765559
 21
2702.494269174505
 31
0.0
  0
LINE
  5
18D87
330
18C7A
100
AcDbEntity
  8
部品1
 48
50.0
100
AcDbLine
 10
473.470589276545
 20
1448.994269174573
 30
0.0
 11
444.970589276545
 21
1420.494269174574
 31
0.0
  0
LINE
  5
18D88
330
18C7A
100
AcDbEntity
  8
部品1
100
AcDbLine
 10
471.9705892765232
 20
1392.494269174465
 30
0.0
 11
416.9705892765486
 21
1392.494269174465
 31
0.0
  0
LINE
  5
18D89
330
18C7A
100
AcDbEntity
  8
部品1
100
AcDbLine
 10
444.9705892765305
 20
1447.494269174429
 30
0.0
 11
416.9705892765469
 21
1447.494269174429
 31
0.0
  0
LINE
  5
18D8A
330
18C7A
100
AcDbEntity
  8
部品1
100
AcDbLine
 10
444.9705892765305
 20
1447.494269174465
 30
0.0
 11
416.9705892765469
 21
1447.494269174465
 31
0.0
  0
LINE
  5
18D8B
330
18C7A
100
AcDbEntity
  8
部品1
100
AcDbLine
 10
444.9705892765469
 20
1447.49426917448
 30
0.0
 11
416.9705892765469
 21
1447.49426917448
 31
0.0
  0
LINE
  5
18D8C
330
18C7A
100
AcDbEntity
  8
部品1
100
AcDbLine
 10
416.9705892765469
 20
1447.494269174429
 30
0.0
 11
416.9705892765486
 21
1392.494269174433
 31
0.0
  0
LINE
  5
18D8D
330
18C7A
100
AcDbEntity
  8
部品1
100
AcDbLine
 10
416.9705892765196
 20
3182.494269174477
 30
0.0
 11
416.9705892765486
 21
1392.494269174465
 31
0.0
  0
LINE
  5
18D8E
330
18C7A
100
AcDbEntity
  8
部品1
100
AcDbLine
 10
444.9705892765305
 20
1420.494269174556
 30
0.0
 11
444.9705892765559
 21
3154.494269174509
 31
0.0
  0
LINE
  5
18D8F
330
18C7A
100
AcDbEntity
  8
部品1
100
AcDbLine
 10
473.4705892765323
 20
2702.494269174608
 30
0.0
 11
473.470589276545
 21
1448.994269174571
 31
0.0
  0
LINE
  5
18D90
330
18C7A
100
AcDbEntity
  8
破線
 48
10.0
100
AcDbLine
 10
496.9705892765305
 20
2702.494269174608
 30
0.0
 11
496.9705892765451
 21
1472.494269174476
 31
0.0
  0
DIMENSION
  5
18D91
330
18C7A
100
AcDbEntity
  8
寸法
100
AcDbDimension
  2
*D8
 10
3886.970589276531
 20
410.7433333855515
 30
0.0
 11
2168.197775309287
 21
410.7433333855515
 31
0.0
 12
-3742.925985830444
 22
-6453.628869860112
 32
0.0
 70
   128
 71
     5
 42
3469.999999999982
  3
INABA_S40G
100
AcDbAlignedDimension
 13
416.9705892765486
 23
1392.494269174433
 33
0.0
 14
3886.970589276531
 24
1392.49426917456
 34
0.0
100
AcDbRotatedDimension
1001
ACAD
1000
DSTYLE
1002
{
1070
   341
1005
0
1002
}
  0
LINE
  5
18D92
330
18C7A
100
AcDbEntity
  8
部品1
100
AcDbLine
 10
444.9705892765559
 20
3154.494269174624
 30
0.0
 11
1509.470589276487
 21
3154.494269174626
 31
0.0
  0
LINE
  5
18D93
330
18C7A
100
AcDbEntity
  8
部品1
100
AcDbLine
 10
3886.970589276531
 20
1392.494269174596
 30
0.0
 11
3411.970589276556
 21
1392.494269174582
 31
0.0
  0
LINE
  5
18D94
330
18C7A
100
AcDbEntity
  8
部品1
100
AcDbLine
 10
416.9705892765559
 20
3182.494269174509
 30
0.0
 11
3886.970589276556
 21
3182.494269174604
 31
0.0
  0
LINE
  5
18D95
330
18C7A
100
AcDbEntity
  8
部品1
100
AcDbLine
 10
445.4705892765559
 20
2702.494269174509
 30
0.0
 11
1508.470589276487
 21
2702.494269174558
 31
0.0
  0
LINE
  5
18D96
330
18C7A
100
AcDbEntity
  8
細線
 48
50.0
100
AcDbLine
 10
2767.470589276556
 20
3152.494269174611
 30
0.0
 11
1536.470589276487
 21
2702.494269174558
 31
0.0
  0
LINE
  5
18D97
330
18C7A
100
AcDbEntity
  8
部品1
100
AcDbLine
 10
445.4705892765542
 20
3152.494269174509
 30
0.0
 11
1508.470589276485
 21
3152.494269174558
 31
0.0
  0
LINE
  5
18D98
330
18C7A
100
AcDbEntity
  8
細線
 48
50.0
100
AcDbLine
 10
2767.470589276554
 20
2702.494269174615
 30
0.0
 11
1536.470589276485
 21
3152.494269174558
 31
0.0
  0
LINE
  5
18D99
330
18C7A
100
AcDbEntity
  8
破線
 48
10.0
100
AcDbLine
 10
2126.970589276534
 20
1472.494269174502
 30
0.0
 11
1344.47058927653
 21
1472.494269174473
 31
0.0
  0
LINE
  5
18D9A
330
18C7A
100
AcDbEntity
  8
部品1
100
AcDbLine
 10
3830.470589276556
 20
1448.994269174596
 30
0.0
 11
473.4705892764487
 21
1448.994269174476
 31
0.0
  0
DIMENSION
  5
18D9B
330
18C7A
100
AcDbEntity
  8
寸法
100
AcDbDimension
  2
*D7
 10
471.970589276555
 20
3698.302488799491
 30
0.0
 11
108.4853079022819
 21
3698.302488799491
 31
0.0
 12
-3742.925985830444
 22
-6453.628869860112
 32
0.0
 70
   128
 71
     5
 42
55.00000000003456
  3
INABA_S40G
100
AcDbAlignedDimension
 13
416.9705892765205
 23
3182.494269174509
 33
0.0
 14
471.970589276555
 24
3182.494269174509
 34
0.0
100
AcDbRotatedDimension
1001
ACAD
1000
DSTYLE
1002
{
1002
}
  0
DIMENSION
  5
18D9C
330
18C7A
100
AcDbEntity
  8
寸法
100
AcDbDimension
  2
*D6
 10
4534.396935010967
 20
3127.494269174607
 30
0.0
 11
4534.396935010965
 21
3490.979550548844
 31
0.0
 12
-3742.925985830444
 22
-6453.628869860112
 32
0.0
 70
   128
 71
     5
 42
54.99999999999636
  3
INABA_S40G
100
AcDbAlignedDimension
 13
3886.970589276556
 23
3182.494269174604
 33
0.0
 14
3886.970589276556
 24
3127.494269174607
 34
0.0
 50
90.0
100
AcDbRotatedDimension
1001
ACAD
1000
DSTYLE
1002
{
1002
}
  0
DIMENSION
  5
18D9D
330
18C7A
100
AcDbEntity
  8
寸法
100
AcDbDimension
  2
*D5
 10
3886.970589276556
 20
3698.302488799589
 30
0.0
 11
4195.455870650794
 21
3698.302488799589
 31
0.0
 12
-3742.925985830444
 22
-6453.628869860112
 32
0.0
 70
   128
 71
     5
 42
55.0
  3
INABA_S40G
100
AcDbAlignedDimension
 13
3831.970589276556
 23
3182.494269174604
 33
0.0
 14
3886.970589276556
 24
3182.494269174604
 34
0.0
100
AcDbRotatedDimension
1001
ACAD
1000
DSTYLE
1002
{
1002
}
  0
DIMENSION
  5
18D9E
330
18C7A
100
AcDbEntity
  8
寸法
100
AcDbDimension
  2
*D4
 10
3831.970589276556
 20
3698.302488799607
 30
0.0
 11
2151.970589276555
 21
3698.302488799607
 31
0.0
 12
-3742.925985830444
 22
-6453.628869860112
 32
0.0
 70
   128
  1
8X420=<>
 71
     5
 42
3360.000000000001
  3
INABA_S40G
100
AcDbAlignedDimension
 13
471.970589276555
 23
3182.494269174509
 33
0.0
 14
3831.970589276556
 24
3182.494269174604
 34
0.0
100
AcDbRotatedDimension
1001
ACAD
1000
DSTYLE
1002
{
1002
}
  0
DIMENSION
  5
18D9F
330
18C7A
100
AcDbEntity
  8
寸法
100
AcDbDimension
  2
*D3
 10
4899.503876750603
 20
1392.494269174596
 30
0.0
 11
4899.503876750601
 21
2287.4942691746
 31
0.0
 12
-3742.925985830444
 22
-6453.628869860112
 32
0.0
 70
   128
 71
     5
 42
1790.000000000007
  3
INABA_S40G
100
AcDbAlignedDimension
 13
3886.970589276556
 23
3182.494269174604
 33
0.0
 14
3886.970589276531
 24
1392.494269174596
 34
0.0
 50
90.0
100
AcDbRotatedDimension
1001
ACAD
1000
DSTYLE
1002
{
1002
}
  0
ENDBLK
  5
18DA1
330
18C7A
100
AcDbEntity
  8
0
 48
50.0
100
AcDbBlockEnd
  0
BLOCK
  5
1C4CB
330
1C4CA
100
AcDbEntity
  8
0
 48
50.0
100
AcDbBlockBegin
  2
_NONE
 70
     0
 10
0.0
 20
0.0
 30
0.0
  3
_NONE
  1

  0
CIRCLE
  5
1C4CC
330
1C4CA
100
AcDbEntity
  8
0
  6
ByBlock
 62
     0
 48
50.0
100
AcDbCircle
 10
0.0
 20
0.0
 30
0.0
 40
0.25
  0
ENDBLK
  5
1C4CD
330
1C4CA
100
AcDbEntity
  8
0
 48
50.0
100
AcDbBlockEnd
  0
BLOCK
  5
20DEE
330
20DE2
100
AcDbEntity
  8
0
 48
50.0
100
AcDbBlockBegin
  2
*D19
 70
     1
 10
0.0
 20
0.0
 30
0.0
  3
*D19
  1

  0
LINE
  5
237E3
330
20DE2
100
AcDbEntity
  8
寸法
 62
     0
 48
50.0
370
    -2
100
AcDbLine
 10
9048.6
 20
7743.596167288939
 30
0.0
 11
9048.6
 21
8741.81648934786
 31
0.0
  0
LINE
  5
237E4
330
20DE2
100
AcDbEntity
  8
寸法
 62
     0
 48
50.0
370
    -2
100
AcDbLine
 10
9093.6
 20
8469.86262538285
 30
0.0
 11
9093.6
 21
8741.81648934786
 31
0.0
  0
LINE
  5
237E5
330
20DE2
100
AcDbEntity
  8
寸法
 62
     0
 48
50.0
370
    -2
100
AcDbLine
 10
9048.6
 20
8681.816489347861
 30
0.0
 11
8948.6
 21
8681.816489347861
 31
0.0
  0
LINE
  5
237E6
330
20DE2
100
AcDbEntity
  8
寸法
 62
     0
 48
50.0
370
    -2
100
AcDbLine
 10
9093.6
 20
8681.816489347861
 30
0.0
 11
9430.949242404919
 21
8681.816489347861
 31
0.0
  0
LINE
  5
237E7
330
20DE2
100
AcDbEntity
  8
寸法
 62
     0
 48
50.0
370
    -2
100
AcDbLine
 10
9048.6
 20
8681.816489347861
 30
0.0
 11
9093.6
 21
8681.816489347861
 31
0.0
  0
INSERT
  5
237E8
330
20DE2
100
AcDbEntity
  8
寸法
 62
     0
 48
50.0
370
    -2
100
AcDbBlockReference
  2
_DOTSMALL
 10
9048.6
 20
8681.816489347861
 30
0.0
 41
100.0
 42
100.0
 43
100.0
  0
INSERT
  5
237E9
330
20DE2
100
AcDbEntity
  8
寸法
 62
     0
 48
50.0
370
    -2
100
AcDbBlockReference
  2
_DOTSMALL
 10
9093.6
 20
8681.816489347861
 30
0.0
 41
100.0
 42
100.0
 43
100.0
 50
180.0
  0
MTEXT
  5
237EA
330
20DE2
100
AcDbEntity
  8
寸法
 62
     7
 48
50.0
100
AcDbMText
 10
9364.77462120246
 20
8781.81648934786
 30
0.0
 40
120.0
 41
0.0
 71
     5
 72
     1
  1
\A1;a
  7
STYLE1
 73
     1
 44
1.0
1001
ACAD
1000
MTEXTBEGIN
1070
    73
1070
     1
1070
    44
1040
1.0
1070
    74
1070
     0
1000
MTEXTEND
  0
POINT
  5
237EB
330
20DE2
100
AcDbEntity
  8
DEFPOINTS
 62
     0
 48
50.0
100
AcDbPoint
 10
9048.6
 20
7723.596167288938
 30
0.0
  0
POINT
  5
237EC
330
20DE2
100
AcDbEntity
  8
DEFPOINTS
 62
     0
 48
50.0
100
AcDbPoint
 10
9093.6
 20
8449.86262538285
 30
0.0
  0
POINT
  5
237ED
330
20DE2
100
AcDbEntity
  8
DEFPOINTS
 62
     0
 48
50.0
100
AcDbPoint
 10
9093.6
 20
8681.816489347861
 30
0.0
  0
ENDBLK
  5
20DEF
330
20DE2
100
AcDbEntity
  8
0
 48
50.0
100
AcDbBlockEnd
  0
BLOCK
  5
20E08
330
20DFC
100
AcDbEntity
  8
0
 48
50.0
100
AcDbBlockBegin
  2
*D20
 70
     1
 10
0.0
 20
0.0
 30
0.0
  3
*D20
  1

  0
LINE
  5
237D8
330
20DFC
100
AcDbEntity
  8
寸法
 62
     0
 48
50.0
370
    -2
100
AcDbLine
 10
7353.600000000004
 20
8469.86262538285
 30
0.0
 11
7353.600000000004
 21
8741.81648934786
 31
0.0
  0
LINE
  5
237D9
330
20DFC
100
AcDbEntity
  8
寸法
 62
     0
 48
50.0
370
    -2
100
AcDbLine
 10
7398.6
 20
7743.596167288938
 30
0.0
 11
7398.6
 21
8741.81648934786
 31
0.0
  0
LINE
  5
237DA
330
20DFC
100
AcDbEntity
  8
寸法
 62
     0
 48
50.0
370
    -2
100
AcDbLine
 10
7398.6
 20
8681.816489347859
 30
0.0
 11
7498.6
 21
8681.816489347859
 31
0.0
  0
LINE
  5
237DB
330
20DFC
100
AcDbEntity
  8
寸法
 62
     0
 48
50.0
370
    -2
100
AcDbLine
 10
7353.600000000004
 20
8681.816489347859
 30
0.0
 11
7016.250757595082
 21
8681.816489347859
 31
0.0
  0
LINE
  5
237DC
330
20DFC
100
AcDbEntity
  8
寸法
 62
     0
 48
50.0
370
    -2
100
AcDbLine
 10
7398.6
 20
8681.816489347859
 30
0.0
 11
7353.600000000004
 21
8681.816489347859
 31
0.0
  0
INSERT
  5
237DD
330
20DFC
100
AcDbEntity
  8
寸法
 62
     0
 48
50.0
370
    -2
100
AcDbBlockReference
  2
_DOTSMALL
 10
7398.6
 20
8681.816489347859
 30
0.0
 41
100.0
 42
100.0
 43
100.0
 50
180.0
  0
INSERT
  5
237DE
330
20DFC
100
AcDbEntity
  8
寸法
 62
     0
 48
50.0
370
    -2
100
AcDbBlockReference
  2
_DOTSMALL
 10
7353.600000000004
 20
8681.816489347859
 30
0.0
 41
100.0
 42
100.0
 43
100.0
  0
MTEXT
  5
237DF
330
20DFC
100
AcDbEntity
  8
寸法
 62
     7
 48
50.0
100
AcDbMText
 10
7082.425378797541
 20
8781.816489347859
 30
0.0
 40
120.0
 41
0.0
 71
     5
 72
     1
  1
\A1;a
  7
STYLE1
 73
     1
 44
1.0
1001
ACAD
1000
MTEXTBEGIN
1070
    73
1070
     1
1070
    44
1040
1.0
1070
    74
1070
     0
1000
MTEXTEND
  0
POINT
  5
237E0
330
20DFC
100
AcDbEntity
  8
DEFPOINTS
 62
     0
 48
50.0
100
AcDbPoint
 10
7353.600000000004
 20
8449.86262538285
 30
0.0
  0
POINT
  5
237E1
330
20DFC
100
AcDbEntity
  8
DEFPOINTS
 62
     0
 48
50.0
100
AcDbPoint
 10
7398.6
 20
7723.596167288937
 30
0.0
  0
POINT
  5
237E2
330
20DFC
100
AcDbEntity
  8
DEFPOINTS
 62
     0
 48
50.0
100
AcDbPoint
 10
7398.6
 20
8681.816489347859
 30
0.0
  0
ENDBLK
  5
20E09
330
20DFC
100
AcDbEntity
  8
0
 48
50.0
100
AcDbBlockEnd
  0
BLOCK
  5
2274E
330
22742
100
AcDbEntity
  8
0
 48
50.0
100
AcDbBlockBegin
  2
*D25
 70
     1
 10
0.0
 20
0.0
 30
0.0
  3
*D25
  1

  0
LINE
  5
237CD
330
22742
100
AcDbEntity
  8
寸法
 62
     0
 48
50.0
370
    -2
100
AcDbLine
 10
6755.665006330071
 20
7798.596167288943
 30
0.0
 11
6463.721909610673
 21
7798.596167288943
 31
0.0
  0
LINE
  5
237CE
330
22742
100
AcDbEntity
  8
寸法
 62
     0
 48
50.0
370
    -2
100
AcDbLine
 10
7378.6
 20
7723.596167288937
 30
0.0
 11
6463.721909610673
 21
7723.596167288937
 31
0.0
  0
LINE
  5
237CF
330
22742
100
AcDbEntity
  8
寸法
 62
     0
 48
50.0
370
    -2
100
AcDbLine
 10
6523.721909610674
 20
7798.596167288943
 30
0.0
 11
6523.721909610674
 21
7898.596167288943
 31
0.0
  0
LINE
  5
237D0
330
22742
100
AcDbEntity
  8
寸法
 62
     0
 48
50.0
370
    -2
100
AcDbLine
 10
6523.721909610674
 20
7723.596167288937
 30
0.0
 11
6523.721909610674
 21
7623.596167288937
 31
0.0
  0
LINE
  5
237D1
330
22742
100
AcDbEntity
  8
寸法
 62
     0
 48
50.0
370
    -2
100
AcDbLine
 10
6523.721909610674
 20
7798.596167288943
 30
0.0
 11
6523.721909610674
 21
7723.596167288937
 31
0.0
  0
INSERT
  5
237D2
330
22742
100
AcDbEntity
  8
寸法
 62
     0
 48
50.0
370
    -2
100
AcDbBlockReference
  2
_DOTSMALL
 10
6523.721909610674
 20
7798.596167288943
 30
0.0
 41
100.0
 42
100.0
 43
100.0
 50
270.0
  0
INSERT
  5
237D3
330
22742
100
AcDbEntity
  8
寸法
 62
     0
 48
50.0
370
    -2
100
AcDbBlockReference
  2
_DOTSMALL
 10
6523.721909610674
 20
7723.596167288937
 30
0.0
 41
100.0
 42
100.0
 43
100.0
 50
90.0
  0
MTEXT
  5
237D4
330
22742
100
AcDbEntity
  8
寸法
 62
     7
 48
50.0
100
AcDbMText
 10
6423.721909610673
 20
7761.096167288943
 30
0.0
 40
120.0
 41
0.0
 71
     5
 72
     1
  1
\A1;c
  7
STYLE1
 11
0.0000000000000001
 21
1.0
 31
0.0
 73
     1
 44
1.0
1001
ACAD
1000
MTEXTBEGIN
1070
    73
1070
     1
1070
    44
1040
1.0
1070
    74
1070
     0
1000
MTEXTEND
  0
POINT
  5
237D5
330
22742
100
AcDbEntity
  8
DEFPOINTS
 62
     0
 48
50.0
100
AcDbPoint
 10
6775.665006330071
 20
7798.596167288943
 30
0.0
  0
POINT
  5
237D6
330
22742
100
AcDbEntity
  8
DEFPOINTS
 62
     0
 48
50.0
100
AcDbPoint
 10
7398.6
 20
7723.596167288937
 30
0.0
  0
POINT
  5
237D7
330
22742
100
AcDbEntity
  8
DEFPOINTS
 62
     0
 48
50.0
100
AcDbPoint
 10
6523.721909610674
 20
7723.596167288937
 30
0.0
  0
ENDBLK
  5
2274F
330
22742
100
AcDbEntity
  8
0
 48
50.0
100
AcDbBlockEnd
  0
BLOCK
  5
22768
330
2275C
100
AcDbEntity
  8
0
 48
50.0
100
AcDbBlockBegin
  2
*D26
 70
     1
 10
0.0
 20
0.0
 30
0.0
  3
*D26
  1

  0
LINE
  5
237C2
330
2275C
100
AcDbEntity
  8
寸法
 62
     0
 48
50.0
370
    -2
100
AcDbLine
 10
7378.6
 20
6183.596167288936
 30
0.0
 11
6463.721909610675
 21
6183.596167288936
 31
0.0
  0
LINE
  5
237C3
330
2275C
100
AcDbEntity
  8
寸法
 62
     0
 48
50.0
370
    -2
100
AcDbLine
 10
6755.665006330072
 20
6128.596167288962
 30
0.0
 11
6463.721909610673
 21
6128.596167288962
 31
0.0
  0
LINE
  5
237C4
330
2275C
100
AcDbEntity
  8
寸法
 62
     0
 48
50.0
370
    -2
100
AcDbLine
 10
6523.721909610674
 20
6183.596167288936
 30
0.0
 11
6523.721909610674
 21
6283.596167288936
 31
0.0
  0
LINE
  5
237C5
330
2275C
100
AcDbEntity
  8
寸法
 62
     0
 48
50.0
370
    -2
100
AcDbLine
 10
6523.721909610674
 20
6128.596167288962
 30
0.0
 11
6523.721909610674
 21
6028.596167288962
 31
0.0
  0
LINE
  5
237C6
330
2275C
100
AcDbEntity
  8
寸法
 62
     0
 48
50.0
370
    -2
100
AcDbLine
 10
6523.721909610674
 20
6183.596167288936
 30
0.0
 11
6523.721909610674
 21
6128.596167288962
 31
0.0
  0
INSERT
  5
237C7
330
2275C
100
AcDbEntity
  8
寸法
 62
     0
 48
50.0
370
    -2
100
AcDbBlockReference
  2
_DOTSMALL
 10
6523.721909610674
 20
6183.596167288936
 30
0.0
 41
100.0
 42
100.0
 43
100.0
 50
270.0
  0
INSERT
  5
237C8
330
2275C
100
AcDbEntity
  8
寸法
 62
     0
 48
50.0
370
    -2
100
AcDbBlockReference
  2
_DOTSMALL
 10
6523.721909610674
 20
6128.596167288962
 30
0.0
 41
100.0
 42
100.0
 43
100.0
 50
90.0
  0
MTEXT
  5
237C9
330
2275C
100
AcDbEntity
  8
寸法
 62
     7
 48
50.0
100
AcDbMText
 10
6423.721909610673
 20
6156.096167288951
 30
0.0
 40
120.0
 41
0.0
 71
     5
 72
     1
  1
\A1;b
  7
STYLE1
 11
0.0000000000000001
 21
1.0
 31
0.0
 73
     1
 44
1.0
1001
ACAD
1000
MTEXTBEGIN
1070
    73
1070
     1
1070
    44
1040
1.0
1070
    74
1070
     0
1000
MTEXTEND
  0
POINT
  5
237CA
330
2275C
100
AcDbEntity
  8
DEFPOINTS
 62
     0
 48
50.0
100
AcDbPoint
 10
7398.6
 20
6183.596167288936
 30
0.0
  0
POINT
  5
237CB
330
2275C
100
AcDbEntity
  8
DEFPOINTS
 62
     0
 48
50.0
100
AcDbPoint
 10
6775.665006330072
 20
6128.596167288962
 30
0.0
  0
POINT
  5
237CC
330
2275C
100
AcDbEntity
  8
DEFPOINTS
 62
     0
 48
50.0
100
AcDbPoint
 10
6523.721909610674
 20
6128.596167288962
 30
0.0
  0
ENDBLK
  5
22769
330
2275C
100
AcDbEntity
  8
0
 48
50.0
100
AcDbBlockEnd
  0
BLOCK
  5
232AD
330
232A3
100
AcDbEntity
  8
0
 48
50.0
100
AcDbBlockBegin
  2
*D27
 70
     1
 10
0.0
 20
0.0
 30
0.0
  3
*D27
  1

  0
LINE
  5
2378A
330
232A3
100
AcDbEntity
  8
寸法
 62
     0
 48
50.0
370
    -2
100
AcDbLine
 10
7378.6
 20
7723.59616728894
 30
0.0
 11
6463.721909610675
 21
7723.59616728894
 31
0.0
  0
LINE
  5
2378B
330
232A3
100
AcDbEntity
  8
寸法
 62
     0
 48
50.0
370
    -2
100
AcDbLine
 10
7378.6
 20
6183.596167288939
 30
0.0
 11
6463.721909610675
 21
6183.596167288939
 31
0.0
  0
LINE
  5
2378C
330
232A3
100
AcDbEntity
  8
寸法
 62
     0
 48
50.0
370
    -2
100
AcDbLine
 10
6523.721909610674
 20
7723.59616728894
 30
0.0
 11
6523.721909610674
 21
6183.596167288939
 31
0.0
  0
INSERT
  5
2378D
330
232A3
100
AcDbEntity
  8
寸法
 62
     0
 48
50.0
370
    -2
100
AcDbBlockReference
  2
_DOTSMALL
 10
6523.721909610674
 20
7723.59616728894
 30
0.0
 41
100.0
 42
100.0
 43
100.0
 50
90.0
  0
INSERT
  5
2378E
330
232A3
100
AcDbEntity
  8
寸法
 62
     0
 48
50.0
370
    -2
100
AcDbBlockReference
  2
_DOTSMALL
 10
6523.721909610674
 20
6183.596167288939
 30
0.0
 41
100.0
 42
100.0
 43
100.0
 50
270.0
  0
MTEXT
  5
2378F
330
232A3
100
AcDbEntity
  8
寸法
 62
     7
 48
50.0
100
AcDbMText
 10
6423.721909610673
 20
6991.09616728894
 30
0.0
 40
120.0
 41
0.0
 71
     5
 72
     1
  1
\A1;1540
  7
STYLE1
 11
0.0000000000000001
 21
1.0
 31
0.0
 73
     1
 44
1.0
1001
ACAD
1000
MTEXTBEGIN
1070
    73
1070
     1
1070
    44
1040
1.0
1070
    74
1070
     0
1000
MTEXTEND
  0
POINT
  5
23790
330
232A3
100
AcDbEntity
  8
DEFPOINTS
 62
     0
 48
50.0
100
AcDbPoint
 10
7398.6
 20
7723.59616728894
 30
0.0
  0
POINT
  5
23791
330
232A3
100
AcDbEntity
  8
DEFPOINTS
 62
     0
 48
50.0
100
AcDbPoint
 10
7398.6
 20
6183.596167288939
 30
0.0
  0
POINT
  5
23792
330
232A3
100
AcDbEntity
  8
DEFPOINTS
 62
     0
 48
50.0
100
AcDbPoint
 10
6523.721909610674
 20
6183.596167288939
 30
0.0
  0
ENDBLK
  5
232AE
330
232A3
100
AcDbEntity
  8
0
 48
50.0
100
AcDbBlockEnd
  0
BLOCK
  5
232B9
330
232AF
100
AcDbEntity
  8
0
 48
50.0
100
AcDbBlockBegin
  2
*D28
 70
     1
 10
0.0
 20
0.0
 30
0.0
  3
*D28
  1

  0
LINE
  5
23812
330
232AF
100
AcDbEntity
  8
寸法
 62
     0
 48
50.0
370
    -2
100
AcDbLine
 10
7451.6
 20
7600.59616728894
 30
0.0
 11
6715.665006330073
 21
7600.59616728894
 31
0.0
  0
LINE
  5
23813
330
232AF
100
AcDbEntity
  8
寸法
 62
     0
 48
50.0
370
    -2
100
AcDbLine
 10
7451.600000000007
 20
6381.596167288943
 30
0.0
 11
6715.665006330073
 21
6381.596167288943
 31
0.0
  0
LINE
  5
23814
330
232AF
100
AcDbEntity
  8
寸法
 62
     0
 48
50.0
370
    -2
100
AcDbLine
 10
6775.665006330072
 20
7600.59616728894
 30
0.0
 11
6775.665006330072
 21
6381.596167288943
 31
0.0
  0
INSERT
  5
23815
330
232AF
100
AcDbEntity
  8
寸法
 62
     0
 48
50.0
370
    -2
100
AcDbBlockReference
  2
_DOTSMALL
 10
6775.665006330072
 20
7600.59616728894
 30
0.0
 41
100.0
 42
100.0
 43
100.0
 50
90.0
  0
INSERT
  5
23816
330
232AF
100
AcDbEntity
  8
寸法
 62
     0
 48
50.0
370
    -2
100
AcDbBlockReference
  2
_DOTSMALL
 10
6775.665006330072
 20
6381.596167288943
 30
0.0
 41
100.0
 42
100.0
 43
100.0
 50
270.0
  0
MTEXT
  5
23817
330
232AF
100
AcDbEntity
  8
寸法
 62
     7
 48
50.0
100
AcDbMText
 10
6675.653195306449
 20
6991.09616728894
 30
0.0
 40
120.0
 41
0.0
 71
     5
 72
     1
  1
\A1;1219
  7
STYLE1
 11
0.0000000000000001
 21
1.0
 31
0.0
 73
     1
 44
1.0
1001
ACAD
1000
MTEXTBEGIN
1070
    73
1070
     1
1070
    44
1040
1.0
1070
    74
1070
     0
1000
MTEXTEND
  0
POINT
  5
23818
330
232AF
100
AcDbEntity
  8
DEFPOINTS
 62
     0
 48
50.0
100
AcDbPoint
 10
7471.600000000001
 20
7600.59616728894
 30
0.0
  0
POINT
  5
23819
330
232AF
100
AcDbEntity
  8
DEFPOINTS
 62
     0
 48
50.0
100
AcDbPoint
 10
7471.600000000008
 20
6381.596167288943
 30
0.0
  0
POINT
  5
2381A
330
232AF
100
AcDbEntity
  8
DEFPOINTS
 62
     0
 48
50.0
100
AcDbPoint
 10
6775.665006330072
 20
6381.596167288943
 30
0.0
  0
ENDBLK
  5
232BA
330
232AF
100
AcDbEntity
  8
0
 48
50.0
100
AcDbBlockEnd
  0
BLOCK
  5
232C6
330
232BB
100
AcDbEntity
  8
0
 48
50.0
100
AcDbBlockBegin
  2
*D29
 70
     1
 10
0.0
 20
0.0
 30
0.0
  3
*D29
  1

  0
LINE
  5
23830
330
232BB
100
AcDbEntity
  8
寸法
 62
     0
 48
50.0
370
    -2
100
AcDbLine
 10
8153.600000000007
 20
6990.59616728894
 30
0.0
 11
7691.285990614301
 21
6990.59616728894
 31
0.0
  0
LINE
  5
23831
330
232BB
100
AcDbEntity
  8
寸法
 62
     0
 48
50.0
370
    -2
100
AcDbLine
 10
7822.765475140901
 20
7723.59616728894
 30
0.0
 11
7691.285990614301
 21
7723.59616728894
 31
0.0
  0
LINE
  5
23832
330
232BB
100
AcDbEntity
  8
寸法
 62
     0
 48
50.0
370
    -2
100
AcDbLine
 10
7751.285990614302
 20
6990.59616728894
 30
0.0
 11
7751.285990614302
 21
7723.59616728894
 31
0.0
  0
LINE
  5
23833
330
232BB
100
AcDbEntity
  8
寸法
 62
     0
 48
50.0
370
    -2
100
AcDbLine
 10
7751.285990614302
 20
7723.59616728894
 30
0.0
 11
7751.285990614302
 21
8162.188050380976
 31
0.0
  0
INSERT
  5
23834
330
232BB
100
AcDbEntity
  8
寸法
 62
     0
 48
50.0
370
    -2
100
AcDbBlockReference
  2
_DOTSMALL
 10
7751.285990614302
 20
6990.59616728894
 30
0.0
 41
100.0
 42
100.0
 43
100.0
 50
270.0
  0
INSERT
  5
23835
330
232BB
100
AcDbEntity
  8
寸法
 62
     0
 48
50.0
370
    -2
100
AcDbBlockReference
  2
_DOTSMALL
 10
7751.285990614302
 20
7723.59616728894
 30
0.0
 41
100.0
 42
100.0
 43
100.0
 50
90.0
  0
MTEXT
  5
23836
330
232BB
100
AcDbEntity
  8
寸法
 62
     7
 48
50.0
100
AcDbMText
 10
7651.285990614301
 20
8011.702769006738
 30
0.0
 40
120.0
 41
0.0
 71
     5
 72
     1
  1
\A1;733
  7
STYLE1
 11
0.0000000000000001
 21
1.0
 31
0.0
 73
     1
 44
1.0
1001
ACAD
1000
MTEXTBEGIN
1070
    73
1070
     1
1070
    44
1040
1.0
1070
    74
1070
     0
1000
MTEXTEND
  0
POINT
  5
23837
330
232BB
100
AcDbEntity
  8
DEFPOINTS
 62
     0
 48
50.0
100
AcDbPoint
 10
8173.600000000007
 20
6990.59616728894
 30
0.0
  0
POINT
  5
23838
330
232BB
100
AcDbEntity
  8
DEFPOINTS
 62
     0
 48
50.0
100
AcDbPoint
 10
7842.7654751409
 20
7723.59616728894
 30
0.0
  0
POINT
  5
23839
330
232BB
100
AcDbEntity
  8
DEFPOINTS
 62
     0
 48
50.0
100
AcDbPoint
 10
7751.285990614302
 20
7723.59616728894
 30
0.0
  0
ENDBLK
  5
232C7
330
232BB
100
AcDbEntity
  8
0
 48
50.0
100
AcDbBlockEnd
  0
BLOCK
  5
232D2
330
232C8
100
AcDbEntity
  8
0
 48
50.0
100
AcDbBlockBegin
  2
*D30
 70
     1
 10
0.0
 20
0.0
 30
0.0
  3
*D30
  1

  0
LINE
  5
23845
330
232C8
100
AcDbEntity
  8
寸法
 62
     0
 48
50.0
370
    -2
100
AcDbLine
 10
8223.600000000008
 20
7060.596167288939
 30
0.0
 11
8223.600000000008
 21
8266.204983959186
 31
0.0
  0
LINE
  5
23846
330
232C8
100
AcDbEntity
  8
寸法
 62
     0
 48
50.0
370
    -2
100
AcDbLine
 10
7398.6
 20
7743.596167288941
 30
0.0
 11
7398.6
 21
8266.204983959186
 31
0.0
  0
LINE
  5
23847
330
232C8
100
AcDbEntity
  8
寸法
 62
     0
 48
50.0
370
    -2
100
AcDbLine
 10
8223.600000000008
 20
8206.204983959185
 30
0.0
 11
7398.6
 21
8206.204983959185
 31
0.0
  0
INSERT
  5
23848
330
232C8
100
AcDbEntity
  8
寸法
 62
     0
 48
50.0
370
    -2
100
AcDbBlockReference
  2
_DOTSMALL
 10
8223.600000000008
 20
8206.204983959185
 30
0.0
 41
100.0
 42
100.0
 43
100.0
  0
INSERT
  5
23849
330
232C8
100
AcDbEntity
  8
寸法
 62
     0
 48
50.0
370
    -2
100
AcDbBlockReference
  2
_DOTSMALL
 10
7398.6
 20
8206.204983959185
 30
0.0
 41
100.0
 42
100.0
 43
100.0
 50
180.0
  0
MTEXT
  5
2384A
330
232C8
100
AcDbEntity
  8
寸法
 62
     7
 48
50.0
100
AcDbMText
 10
7811.100000000005
 20
8306.216794982807
 30
0.0
 40
120.0
 41
0.0
 71
     5
 72
     1
  1
\A1;825
  7
STYLE1
 73
     1
 44
1.0
1001
ACAD
1000
MTEXTBEGIN
1070
    73
1070
     1
1070
    44
1040
1.0
1070
    74
1070
     0
1000
MTEXTEND
  0
POINT
  5
2384B
330
232C8
100
AcDbEntity
  8
DEFPOINTS
 62
     0
 48
50.0
100
AcDbPoint
 10
8223.600000000008
 20
7040.59616728894
 30
0.0
  0
POINT
  5
2384C
330
232C8
100
AcDbEntity
  8
DEFPOINTS
 62
     0
 48
50.0
100
AcDbPoint
 10
7398.6
 20
7723.59616728894
 30
0.0
  0
POINT
  5
2384D
330
232C8
100
AcDbEntity
  8
DEFPOINTS
 62
     0
 48
50.0
100
AcDbPoint
 10
7398.6
 20
8206.204983959185
 30
0.0
  0
ENDBLK
  5
232D3
330
232C8
100
AcDbEntity
  8
0
 48
50.0
100
AcDbBlockEnd
  0
BLOCK
  5
232F5
330
232EA
100
AcDbEntity
  8
0
 48
50.0
100
AcDbBlockBegin
  2
*D31
 70
     1
 10
0.0
 20
0.0
 30
0.0
  3
*D31
  1

  0
LINE
  5
23808
330
232EA
100
AcDbEntity
  8
寸法
 62
     0
 48
50.0
370
    -2
100
AcDbLine
 10
7451.600000000007
 20
6381.596167288943
 30
0.0
 11
6715.665006330073
 21
6381.596167288943
 31
0.0
  0
LINE
  5
23809
330
232EA
100
AcDbEntity
  8
寸法
 62
     0
 48
50.0
370
    -2
100
AcDbLine
 10
7378.6
 20
6183.596167288939
 30
0.0
 11
6715.665006330073
 21
6183.596167288939
 31
0.0
  0
LINE
  5
2380A
330
232EA
100
AcDbEntity
  8
寸法
 62
     0
 48
50.0
370
    -2
100
AcDbLine
 10
6775.665006330072
 20
6381.596167288943
 30
0.0
 11
6775.665006330072
 21
6183.596167288939
 31
0.0
  0
LINE
  5
2380B
330
232EA
100
AcDbEntity
  8
寸法
 62
     0
 48
50.0
370
    -2
100
AcDbLine
 10
6775.665006330072
 20
6183.596167288939
 30
0.0
 11
6775.665006330072
 21
5711.85555861669
 31
0.0
  0
INSERT
  5
2380C
330
232EA
100
AcDbEntity
  8
寸法
 62
     0
 48
50.0
370
    -2
100
AcDbBlockReference
  2
_DOTSMALL
 10
6775.665006330072
 20
6381.596167288943
 30
0.0
 41
100.0
 42
100.0
 43
100.0
 50
90.0
  0
INSERT
  5
2380D
330
232EA
100
AcDbEntity
  8
寸法
 62
     0
 48
50.0
370
    -2
100
AcDbBlockReference
  2
_DOTSMALL
 10
6775.665006330072
 20
6183.596167288939
 30
0.0
 41
100.0
 42
100.0
 43
100.0
 50
270.0
  0
MTEXT
  5
2380E
330
232EA
100
AcDbEntity
  8
寸法
 62
     7
 48
50.0
100
AcDbMText
 10
6675.665006330071
 20
5848.065218446348
 30
0.0
 40
120.0
 41
0.0
 71
     5
 72
     1
  1
\A1;198
  7
STYLE1
 11
0.0000000000000001
 21
1.0
 31
0.0
 73
     1
 44
1.0
1001
ACAD
1000
MTEXTBEGIN
1070
    73
1070
     1
1070
    44
1040
1.0
1070
    74
1070
     0
1000
MTEXTEND
  0
POINT
  5
2380F
330
232EA
100
AcDbEntity
  8
DEFPOINTS
 62
     0
 48
50.0
100
AcDbPoint
 10
7471.600000000008
 20
6381.596167288943
 30
0.0
  0
POINT
  5
23810
330
232EA
100
AcDbEntity
  8
DEFPOINTS
 62
     0
 48
50.0
100
AcDbPoint
 10
7398.6
 20
6183.596167288939
 30
0.0
  0
POINT
  5
23811
330
232EA
100
AcDbEntity
  8
DEFPOINTS
 62
     0
 48
50.0
100
AcDbPoint
 10
6775.665006330072
 20
6183.596167288939
 30
0.0
  0
ENDBLK
  5
232F6
330
232EA
100
AcDbEntity
  8
0
 48
50.0
100
AcDbBlockEnd
  0
BLOCK
  5
2330E
330
23303
100
AcDbEntity
  8
0
 48
50.0
100
AcDbBlockBegin
  2
*D32
 70
     1
 10
0.0
 20
0.0
 30
0.0
  3
*D32
  1

  0
LINE
  5
23826
330
23303
100
AcDbEntity
  8
寸法
 62
     0
 48
50.0
370
    -2
100
AcDbLine
 10
7822.765475140901
 20
6183.596167288951
 30
0.0
 11
7691.285990614303
 21
6183.596167288951
 31
0.0
  0
LINE
  5
23827
330
23303
100
AcDbEntity
  8
寸法
 62
     0
 48
50.0
370
    -2
100
AcDbLine
 10
8153.600000000007
 20
6990.59616728894
 30
0.0
 11
7691.285990614303
 21
6990.59616728894
 31
0.0
  0
LINE
  5
23828
330
23303
100
AcDbEntity
  8
寸法
 62
     0
 48
50.0
370
    -2
100
AcDbLine
 10
7751.285990614302
 20
6990.59616728894
 30
0.0
 11
7751.285990614302
 21
6183.596167288951
 31
0.0
  0
LINE
  5
23829
330
23303
100
AcDbEntity
  8
寸法
 62
     0
 48
50.0
370
    -2
100
AcDbLine
 10
7751.285990614302
 20
6183.596167288951
 30
0.0
 11
7751.285990614302
 21
5750.275037383767
 31
0.0
  0
INSERT
  5
2382A
330
23303
100
AcDbEntity
  8
寸法
 62
     0
 48
50.0
370
    -2
100
AcDbBlockReference
  2
_DOTSMALL
 10
7751.285990614302
 20
6990.59616728894
 30
0.0
 41
100.0
 42
100.0
 43
100.0
 50
90.0
  0
INSERT
  5
2382B
330
23303
100
AcDbEntity
  8
寸法
 62
     0
 48
50.0
370
    -2
100
AcDbBlockReference
  2
_DOTSMALL
 10
7751.285990614302
 20
6183.596167288951
 30
0.0
 41
100.0
 42
100.0
 43
100.0
 50
270.0
  0
MTEXT
  5
2382C
330
23303
100
AcDbEntity
  8
寸法
 62
     7
 48
50.0
100
AcDbMText
 10
7651.285990614301
 20
5898.275037383768
 30
0.0
 40
120.0
 41
0.0
 71
     5
 72
     1
  1
\A1;807
  7
STYLE1
 11
0.0000000000000001
 21
1.0
 31
0.0
 73
     1
 44
1.0
1001
ACAD
1000
MTEXTBEGIN
1070
    73
1070
     1
1070
    44
1040
1.0
1070
    74
1070
     0
1000
MTEXTEND
  0
POINT
  5
2382D
330
23303
100
AcDbEntity
  8
DEFPOINTS
 62
     0
 48
50.0
100
AcDbPoint
 10
7842.7654751409
 20
6183.596167288951
 30
0.0
  0
POINT
  5
2382E
330
23303
100
AcDbEntity
  8
DEFPOINTS
 62
     0
 48
50.0
100
AcDbPoint
 10
8173.600000000007
 20
6990.59616728894
 30
0.0
  0
POINT
  5
2382F
330
23303
100
AcDbEntity
  8
DEFPOINTS
 62
     0
 48
50.0
100
AcDbPoint
 10
7751.285990614302
 20
6990.59616728894
 30
0.0
  0
ENDBLK
  5
2330F
330
23303
100
AcDbEntity
  8
0
 48
50.0
100
AcDbBlockEnd
  0
BLOCK
  5
2331A
330
23310
100
AcDbEntity
  8
0
 48
50.0
100
AcDbBlockBegin
  2
*D33
 70
     1
 10
0.0
 20
0.0
 30
0.0
  3
*D33
  1

  0
LINE
  5
23751
330
23310
100
AcDbEntity
  8
寸法
 62
     0
 48
50.0
370
    -2
100
AcDbLine
 10
7378.6
 20
6183.596167288936
 30
0.0
 11
7225.512673767878
 21
6183.596167288936
 31
0.0
  0
LINE
  5
23752
330
23310
100
AcDbEntity
  8
寸法
 62
     0
 48
50.0
370
    -2
100
AcDbLine
 10
7734.325326928805
 20
5463.596167288937
 30
0.0
 11
7225.512673767878
 21
5463.596167288937
 31
0.0
  0
LINE
  5
23753
330
23310
100
AcDbEntity
  8
寸法
 62
     0
 48
50.0
370
    -2
100
AcDbLine
 10
7285.512673767879
 20
6183.596167288936
 30
0.0
 11
7285.512673767877
 21
5463.596167288937
 31
0.0
  0
INSERT
  5
23754
330
23310
100
AcDbEntity
  8
寸法
 62
     0
 48
50.0
370
    -2
100
AcDbBlockReference
  2
_DOTSMALL
 10
7285.512673767879
 20
6183.596167288936
 30
0.0
 41
100.0
 42
100.0
 43
100.0
 50
90.0
  0
INSERT
  5
23755
330
23310
100
AcDbEntity
  8
寸法
 62
     0
 48
50.0
370
    -2
100
AcDbBlockReference
  2
_DOTSMALL
 10
7285.512673767877
 20
5463.596167288937
 30
0.0
 41
100.0
 42
100.0
 43
100.0
 50
270.0
  0
MTEXT
  5
23756
330
23310
100
AcDbEntity
  8
寸法
 62
     7
 48
50.0
100
AcDbMText
 10
7185.500862744254
 20
5823.596167288938
 30
0.0
 40
120.0
 41
0.0
 71
     5
 72
     1
  1
\A1;扉の出720
  7
STYLE1
 11
0.0000000000000001
 21
1.0
 31
0.0
 73
     1
 44
1.0
1001
ACAD
1000
MTEXTBEGIN
1070
    73
1070
     1
1070
    44
1040
1.0
1070
    74
1070
     0
1000
MTEXTEND
  0
POINT
  5
23757
330
23310
100
AcDbEntity
  8
DEFPOINTS
 62
     0
 48
50.0
100
AcDbPoint
 10
7398.6
 20
6183.596167288936
 30
0.0
  0
POINT
  5
23758
330
23310
100
AcDbEntity
  8
DEFPOINTS
 62
     0
 48
50.0
100
AcDbPoint
 10
7754.325326928806
 20
5463.596167288937
 30
0.0
  0
POINT
  5
23759
330
23310
100
AcDbEntity
  8
DEFPOINTS
 62
     0
 48
50.0
100
AcDbPoint
 10
7285.512673767877
 20
5463.596167288937
 30
0.0
  0
ENDBLK
  5
2331B
330
23310
100
AcDbEntity
  8
0
 48
50.0
100
AcDbBlockEnd
  0
BLOCK
  5
23331
330
23326
100
AcDbEntity
  8
0
 48
50.0
100
AcDbBlockBegin
  2
*D34
 70
     1
 10
0.0
 20
0.0
 30
0.0
  3
*D34
  1

  0
LINE
  5
23747
330
23326
100
AcDbEntity
  8
寸法
 62
     0
 48
50.0
370
    -2
100
AcDbLine
 10
7378.6
 20
7723.59616728894
 30
0.0
 11
6715.665006330072
 21
7723.59616728894
 31
0.0
  0
LINE
  5
23748
330
23326
100
AcDbEntity
  8
寸法
 62
     0
 48
50.0
370
    -2
100
AcDbLine
 10
7451.6
 20
7600.59616728894
 30
0.0
 11
6715.665006330072
 21
7600.59616728894
 31
0.0
  0
LINE
  5
23749
330
23326
100
AcDbEntity
  8
寸法
 62
     0
 48
50.0
370
    -2
100
AcDbLine
 10
6775.665006330072
 20
7600.59616728894
 30
0.0
 11
6775.665006330072
 21
7723.59616728894
 31
0.0
  0
LINE
  5
2374A
330
23326
100
AcDbEntity
  8
寸法
 62
     0
 48
50.0
370
    -2
100
AcDbLine
 10
6775.665006330072
 20
7723.59616728894
 30
0.0
 11
6775.665006330072
 21
8135.188050380977
 31
0.0
  0
INSERT
  5
2374B
330
23326
100
AcDbEntity
  8
寸法
 62
     0
 48
50.0
370
    -2
100
AcDbBlockReference
  2
_DOTSMALL
 10
6775.665006330072
 20
7600.59616728894
 30
0.0
 41
100.0
 42
100.0
 43
100.0
 50
270.0
  0
INSERT
  5
2374C
330
23326
100
AcDbEntity
  8
寸法
 62
     0
 48
50.0
370
    -2
100
AcDbBlockReference
  2
_DOTSMALL
 10
6775.665006330072
 20
7723.59616728894
 30
0.0
 41
100.0
 42
100.0
 43
100.0
 50
90.0
  0
MTEXT
  5
2374D
330
23326
100
AcDbEntity
  8
寸法
 62
     7
 48
50.0
100
AcDbMText
 10
6675.653195306449
 20
7996.70276900674
 30
0.0
 40
120.0
 41
0.0
 71
     5
 72
     1
  1
\A1;123
  7
STYLE1
 11
0.0000000000000001
 21
1.0
 31
0.0
 73
     1
 44
1.0
1001
ACAD
1000
MTEXTBEGIN
1070
    73
1070
     1
1070
    44
1040
1.0
1070
    74
1070
     0
1000
MTEXTEND
  0
POINT
  5
2374E
330
23326
100
AcDbEntity
  8
DEFPOINTS
 62
     0
 48
50.0
100
AcDbPoint
 10
7398.6
 20
7723.59616728894
 30
0.0
  0
POINT
  5
2374F
330
23326
100
AcDbEntity
  8
DEFPOINTS
 62
     0
 48
50.0
100
AcDbPoint
 10
7471.600000000001
 20
7600.59616728894
 30
0.0
  0
POINT
  5
23750
330
23326
100
AcDbEntity
  8
DEFPOINTS
 62
     0
 48
50.0
100
AcDbPoint
 10
6775.665006330072
 20
7600.59616728894
 30
0.0
  0
ENDBLK
  5
23332
330
23326
100
AcDbEntity
  8
0
 48
50.0
100
AcDbBlockEnd
  0
BLOCK
  5
2333E
330
23333
100
AcDbEntity
  8
0
 48
50.0
100
AcDbBlockBegin
  2
*D35
 70
     1
 10
0.0
 20
0.0
 30
0.0
  3
*D35
  1

  0
LINE
  5
2373D
330
23333
100
AcDbEntity
  8
寸法
 62
     0
 48
50.0
370
    -2
100
AcDbLine
 10
7521.600000000001
 20
7670.59616728894
 30
0.0
 11
7521.600000000001
 21
8509.862625382849
 31
0.0
  0
LINE
  5
2373E
330
23333
100
AcDbEntity
  8
寸法
 62
     0
 48
50.0
370
    -2
100
AcDbLine
 10
7398.6
 20
7743.596167288941
 30
0.0
 11
7398.6
 21
8509.862625382849
 31
0.0
  0
LINE
  5
2373F
330
23333
100
AcDbEntity
  8
寸法
 62
     0
 48
50.0
370
    -2
100
AcDbLine
 10
7521.600000000001
 20
8449.862625382847
 30
0.0
 11
7398.6
 21
8449.862625382847
 31
0.0
  0
LINE
  5
23740
330
23333
100
AcDbEntity
  8
寸法
 62
     0
 48
50.0
370
    -2
100
AcDbLine
 10
7398.6
 20
8449.862625382847
 30
0.0
 11
6987.008116907962
 21
8449.862625382847
 31
0.0
  0
INSERT
  5
23741
330
23333
100
AcDbEntity
  8
寸法
 62
     0
 48
50.0
370
    -2
100
AcDbBlockReference
  2
_DOTSMALL
 10
7521.600000000001
 20
8449.862625382847
 30
0.0
 41
100.0
 42
100.0
 43
100.0
  0
INSERT
  5
23742
330
23333
100
AcDbEntity
  8
寸法
 62
     0
 48
50.0
370
    -2
100
AcDbBlockReference
  2
_DOTSMALL
 10
7398.6
 20
8449.862625382847
 30
0.0
 41
100.0
 42
100.0
 43
100.0
 50
180.0
  0
MTEXT
  5
23743
330
23333
100
AcDbEntity
  8
寸法
 62
     7
 48
50.0
100
AcDbMText
 10
7125.493398282202
 20
8549.874436406469
 30
0.0
 40
120.0
 41
0.0
 71
     5
 72
     1
  1
\A1;123
  7
STYLE1
 73
     1
 44
1.0
1001
ACAD
1000
MTEXTBEGIN
1070
    73
1070
     1
1070
    44
1040
1.0
1070
    74
1070
     0
1000
MTEXTEND
  0
POINT
  5
23744
330
23333
100
AcDbEntity
  8
DEFPOINTS
 62
     0
 48
50.0
100
AcDbPoint
 10
7521.600000000001
 20
7650.59616728894
 30
0.0
  0
POINT
  5
23745
330
23333
100
AcDbEntity
  8
DEFPOINTS
 62
     0
 48
50.0
100
AcDbPoint
 10
7398.6
 20
7723.59616728894
 30
0.0
  0
POINT
  5
23746
330
23333
100
AcDbEntity
  8
DEFPOINTS
 62
     0
 48
50.0
100
AcDbPoint
 10
7398.6
 20
8449.862625382847
 30
0.0
  0
ENDBLK
  5
2333F
330
23333
100
AcDbEntity
  8
0
 48
50.0
100
AcDbBlockEnd
  0
BLOCK
  5
23371
330
23366
100
AcDbEntity
  8
0
 48
50.0
100
AcDbBlockBegin
  2
*D36
 70
     1
 10
0.0
 20
0.0
 30
0.0
  3
*D36
  1

  0
LINE
  5
23733
330
23366
100
AcDbEntity
  8
寸法
 62
     0
 48
50.0
370
    -2
100
AcDbLine
 10
9048.6
 20
7743.596167288941
 30
0.0
 11
9048.6
 21
8509.862625382849
 31
0.0
  0
LINE
  5
23734
330
23366
100
AcDbEntity
  8
寸法
 62
     0
 48
50.0
370
    -2
100
AcDbLine
 10
8925.600000000001
 20
7670.59616728894
 30
0.0
 11
8925.600000000001
 21
8509.862625382849
 31
0.0
  0
LINE
  5
23735
330
23366
100
AcDbEntity
  8
寸法
 62
     0
 48
50.0
370
    -2
100
AcDbLine
 10
8925.600000000001
 20
8449.862625382847
 30
0.0
 11
9048.6
 21
8449.862625382847
 31
0.0
  0
LINE
  5
23736
330
23366
100
AcDbEntity
  8
寸法
 62
     0
 48
50.0
370
    -2
100
AcDbLine
 10
9048.6
 20
8449.862625382847
 30
0.0
 11
9460.191883092036
 21
8449.862625382847
 31
0.0
  0
INSERT
  5
23737
330
23366
100
AcDbEntity
  8
寸法
 62
     0
 48
50.0
370
    -2
100
AcDbBlockReference
  2
_DOTSMALL
 10
8925.600000000001
 20
8449.862625382847
 30
0.0
 41
100.0
 42
100.0
 43
100.0
 50
180.0
  0
INSERT
  5
23738
330
23366
100
AcDbEntity
  8
寸法
 62
     0
 48
50.0
370
    -2
100
AcDbBlockReference
  2
_DOTSMALL
 10
9048.6
 20
8449.862625382847
 30
0.0
 41
100.0
 42
100.0
 43
100.0
  0
MTEXT
  5
23739
330
23366
100
AcDbEntity
  8
寸法
 62
     7
 48
50.0
100
AcDbMText
 10
9321.706601717798
 20
8549.874436406469
 30
0.0
 40
120.0
 41
0.0
 71
     5
 72
     1
  1
\A1;123
  7
STYLE1
 73
     1
 44
1.0
1001
ACAD
1000
MTEXTBEGIN
1070
    73
1070
     1
1070
    44
1040
1.0
1070
    74
1070
     0
1000
MTEXTEND
  0
POINT
  5
2373A
330
23366
100
AcDbEntity
  8
DEFPOINTS
 62
     0
 48
50.0
100
AcDbPoint
 10
9048.6
 20
7723.59616728894
 30
0.0
  0
POINT
  5
2373B
330
23366
100
AcDbEntity
  8
DEFPOINTS
 62
     0
 48
50.0
100
AcDbPoint
 10
8925.600000000001
 20
7650.59616728894
 30
0.0
  0
POINT
  5
2373C
330
23366
100
AcDbEntity
  8
DEFPOINTS
 62
     0
 48
50.0
100
AcDbPoint
 10
8925.600000000001
 20
8449.862625382847
 30
0.0
  0
ENDBLK
  5
23372
330
23366
100
AcDbEntity
  8
0
 48
50.0
100
AcDbBlockEnd
  0
BLOCK
  5
2338B
330
23380
100
AcDbEntity
  8
0
 48
50.0
100
AcDbBlockBegin
  2
*D37
 70
     1
 10
0.0
 20
0.0
 30
0.0
  3
*D37
  1

  0
LINE
  5
23C2E
330
23380
100
AcDbEntity
  8
寸法
 62
     0
 48
50.0
370
    -2
100
AcDbLine
 10
9048.6
 20
7224.962224358515
 30
0.0
 11
9048.6
 21
7167.968960319683
 31
0.0
  0
LINE
  5
23C2F
330
23380
100
AcDbEntity
  8
寸法
 62
     0
 48
50.0
370
    -2
100
AcDbLine
 10
8928.600000000001
 20
7247.968960319683
 30
0.0
 11
8928.600000000001
 21
7287.968960319684
 31
0.0
  0
LINE
  5
23C30
330
23380
100
AcDbEntity
  8
寸法
 62
     0
 48
50.0
370
    -2
100
AcDbLine
 10
8928.600000000001
 20
7227.968960319683
 30
0.0
 11
9048.6
 21
7227.968960319683
 31
0.0
  0
LINE
  5
23C31
330
23380
100
AcDbEntity
  8
寸法
 62
     0
 48
50.0
370
    -2
100
AcDbLine
 10
9048.6
 20
7227.968960319683
 30
0.0
 11
9454.706299212601
 21
7227.968960319683
 31
0.0
  0
INSERT
  5
23C32
330
23380
100
AcDbEntity
  8
寸法
 62
     0
 48
50.0
370
    -2
100
AcDbBlockReference
  2
_DOTSMALL
 10
8928.600000000001
 20
7227.968960319683
 30
0.0
 41
100.0
 42
100.0
 43
100.0
 50
180.0
  0
INSERT
  5
23C33
330
23380
100
AcDbEntity
  8
寸法
 62
     0
 48
50.0
370
    -2
100
AcDbBlockReference
  2
_DOTSMALL
 10
9048.6
 20
7227.968960319683
 30
0.0
 41
100.0
 42
100.0
 43
100.0
  0
MTEXT
  5
23C34
330
23380
100
AcDbEntity
  8
寸法
 62
     7
 48
50.0
100
AcDbMText
 10
9318.659055118111
 20
7327.980771343304
 30
0.0
 40
120.0
 41
0.0
 71
     5
 72
     1
  1
\A1;120
  7
STYLE1
 73
     1
 44
1.0
1001
ACAD
1000
MTEXTBEGIN
1070
    73
1070
     1
1070
    44
1040
1.0
1070
    74
1070
     0
1000
MTEXTEND
  0
POINT
  5
23C35
330
23380
100
AcDbEntity
  8
DEFPOINTS
 62
     0
 48
50.0
100
AcDbPoint
 10
9048.6
 20
7244.962224358515
 30
0.0
  0
POINT
  5
23C36
330
23380
100
AcDbEntity
  8
DEFPOINTS
 62
     0
 48
50.0
100
AcDbPoint
 10
8928.600000000001
 20
7227.968960319683
 30
0.0
  0
POINT
  5
23C37
330
23380
100
AcDbEntity
  8
DEFPOINTS
 62
     0
 48
50.0
100
AcDbPoint
 10
8928.600000000001
 20
7227.968960319683
 30
0.0
  0
ENDBLK
  5
2338C
330
23380
100
AcDbEntity
  8
0
 48
50.0
100
AcDbBlockEnd
  0
BLOCK
  5
23398
330
2338D
100
AcDbEntity
  8
0
 48
50.0
100
AcDbBlockBegin
  2
*D38
 70
     1
 10
0.0
 20
0.0
 30
0.0
  3
*D38
  1

  0
LINE
  5
237B8
330
2338D
100
AcDbEntity
  8
寸法
 62
     0
 48
50.0
370
    -2
100
AcDbLine
 10
8703.854682011641
 20
7723.596167288929
 30
0.0
 11
8539.819725318583
 21
7723.596167288929
 31
0.0
  0
LINE
  5
237B9
330
2338D
100
AcDbEntity
  8
寸法
 62
     0
 48
50.0
370
    -2
100
AcDbLine
 10
8703.854682011641
 20
7523.596167288928
 30
0.0
 11
8539.819725318583
 21
7523.596167288928
 31
0.0
  0
LINE
  5
237BA
330
2338D
100
AcDbEntity
  8
寸法
 62
     0
 48
50.0
370
    -2
100
AcDbLine
 10
8599.819725318582
 20
7523.596167288928
 30
0.0
 11
8599.819725318582
 21
7723.596167288929
 31
0.0
  0
LINE
  5
237BB
330
2338D
100
AcDbEntity
  8
寸法
 62
     0
 48
50.0
370
    -2
100
AcDbLine
 10
8599.819725318582
 20
7723.596167288929
 30
0.0
 11
8599.819725318582
 21
8160.130616107828
 31
0.0
  0
INSERT
  5
237BC
330
2338D
100
AcDbEntity
  8
寸法
 62
     0
 48
50.0
370
    -2
100
AcDbBlockReference
  2
_DOTSMALL
 10
8599.819725318582
 20
7523.596167288928
 30
0.0
 41
100.0
 42
100.0
 43
100.0
 50
270.0
  0
INSERT
  5
237BD
330
2338D
100
AcDbEntity
  8
寸法
 62
     0
 48
50.0
370
    -2
100
AcDbBlockReference
  2
_DOTSMALL
 10
8599.819725318582
 20
7723.596167288929
 30
0.0
 41
100.0
 42
100.0
 43
100.0
 50
90.0
  0
MTEXT
  5
237BE
330
2338D
100
AcDbEntity
  8
寸法
 62
     7
 48
50.0
100
AcDbMText
 10
8499.80791429496
 20
8010.559749966096
 30
0.0
 40
120.0
 41
0.0
 71
     5
 72
     1
  1
\A1;200
  7
STYLE1
 11
0.0000000000000001
 21
1.0
 31
0.0
 73
     1
 44
1.0
1001
ACAD
1000
MTEXTBEGIN
1070
    73
1070
     1
1070
    44
1040
1.0
1070
    74
1070
     0
1000
MTEXTEND
  0
POINT
  5
237BF
330
2338D
100
AcDbEntity
  8
DEFPOINTS
 62
     0
 48
50.0
100
AcDbPoint
 10
8723.854682011641
 20
7723.596167288929
 30
0.0
  0
POINT
  5
237C0
330
2338D
100
AcDbEntity
  8
DEFPOINTS
 62
     0
 48
50.0
100
AcDbPoint
 10
8723.854682011641
 20
7523.596167288928
 30
0.0
  0
POINT
  5
237C1
330
2338D
100
AcDbEntity
  8
DEFPOINTS
 62
     0
 48
50.0
100
AcDbPoint
 10
8599.819725318582
 20
7523.596167288928
 30
0.0
  0
ENDBLK
  5
23399
330
2338D
100
AcDbEntity
  8
0
 48
50.0
100
AcDbBlockEnd
  0
BLOCK
  5
233A4
330
2339A
100
AcDbEntity
  8
0
 48
50.0
100
AcDbBlockBegin
  2
*D39
 70
     1
 10
0.0
 20
0.0
 30
0.0
  3
*D39
  1

  0
LINE
  5
2384E
330
2339A
100
AcDbEntity
  8
寸法
 62
     0
 48
50.0
370
    -2
100
AcDbLine
 10
9048.6
 20
7743.596167288941
 30
0.0
 11
9048.6
 21
8266.204983959186
 31
0.0
  0
LINE
  5
2384F
330
2339A
100
AcDbEntity
  8
寸法
 62
     0
 48
50.0
370
    -2
100
AcDbLine
 10
8223.600000000008
 20
7060.596167288939
 30
0.0
 11
8223.600000000008
 21
8266.204983959186
 31
0.0
  0
LINE
  5
23850
330
2339A
100
AcDbEntity
  8
寸法
 62
     0
 48
50.0
370
    -2
100
AcDbLine
 10
9048.6
 20
8206.204983959185
 30
0.0
 11
8223.600000000008
 21
8206.204983959185
 31
0.0
  0
INSERT
  5
23851
330
2339A
100
AcDbEntity
  8
寸法
 62
     0
 48
50.0
370
    -2
100
AcDbBlockReference
  2
_DOTSMALL
 10
9048.6
 20
8206.204983959185
 30
0.0
 41
100.0
 42
100.0
 43
100.0
  0
INSERT
  5
23852
330
2339A
100
AcDbEntity
  8
寸法
 62
     0
 48
50.0
370
    -2
100
AcDbBlockReference
  2
_DOTSMALL
 10
8223.600000000008
 20
8206.204983959185
 30
0.0
 41
100.0
 42
100.0
 43
100.0
 50
180.0
  0
MTEXT
  5
23853
330
2339A
100
AcDbEntity
  8
寸法
 62
     7
 48
50.0
100
AcDbMText
 10
8636.100000000004
 20
8306.216794982807
 30
0.0
 40
120.0
 41
0.0
 71
     5
 72
     1
  1
\A1;825
  7
STYLE1
 73
     1
 44
1.0
1001
ACAD
1000
MTEXTBEGIN
1070
    73
1070
     1
1070
    44
1040
1.0
1070
    74
1070
     0
1000
MTEXTEND
  0
POINT
  5
23854
330
2339A
100
AcDbEntity
  8
DEFPOINTS
 62
     0
 48
50.0
100
AcDbPoint
 10
9048.6
 20
7723.59616728894
 30
0.0
  0
POINT
  5
23855
330
2339A
100
AcDbEntity
  8
DEFPOINTS
 62
     0
 48
50.0
100
AcDbPoint
 10
8223.600000000008
 20
7040.59616728894
 30
0.0
  0
POINT
  5
23856
330
2339A
100
AcDbEntity
  8
DEFPOINTS
 62
     0
 48
50.0
100
AcDbPoint
 10
8223.600000000008
 20
8206.204983959185
 30
0.0
  0
ENDBLK
  5
233A5
330
2339A
100
AcDbEntity
  8
0
 48
50.0
100
AcDbBlockEnd
  0
BLOCK
  5
233B1
330
233A6
100
AcDbEntity
  8
0
 48
50.0
100
AcDbBlockBegin
  2
*D40
 70
     1
 10
0.0
 20
0.0
 30
0.0
  3
*D40
  1

  0
LINE
  5
23893
330
233A6
100
AcDbEntity
  8
寸法
 62
     0
 48
50.0
370
    -2
100
AcDbLine
 10
8632.433553104473
 20
6463.596167288954
 30
0.0
 11
8539.819725318583
 21
6463.596167288954
 31
0.0
  0
LINE
  5
23894
330
233A6
100
AcDbEntity
  8
寸法
 62
     0
 48
50.0
370
    -2
100
AcDbLine
 10
8441.419106515956
 20
6183.596167288951
 30
0.0
 11
8659.819725318582
 21
6183.596167288951
 31
0.0
  0
LINE
  5
23895
330
233A6
100
AcDbEntity
  8
寸法
 62
     0
 48
50.0
370
    -2
100
AcDbLine
 10
8599.819725318582
 20
6463.596167288954
 30
0.0
 11
8599.819725318582
 21
6183.596167288951
 31
0.0
  0
LINE
  5
23896
330
233A6
100
AcDbEntity
  8
寸法
 62
     0
 48
50.0
370
    -2
100
AcDbLine
 10
8599.819725318582
 20
6183.596167288951
 30
0.0
 11
8599.819725318582
 21
5777.061718470053
 31
0.0
  0
INSERT
  5
23897
330
233A6
100
AcDbEntity
  8
寸法
 62
     0
 48
50.0
370
    -2
100
AcDbBlockReference
  2
_DOTSMALL
 10
8599.819725318582
 20
6463.596167288954
 30
0.0
 41
100.0
 42
100.0
 43
100.0
 50
90.0
  0
INSERT
  5
23898
330
233A6
100
AcDbEntity
  8
寸法
 62
     0
 48
50.0
370
    -2
100
AcDbBlockReference
  2
_DOTSMALL
 10
8599.819725318582
 20
6183.596167288951
 30
0.0
 41
100.0
 42
100.0
 43
100.0
 50
270.0
  0
MTEXT
  5
23899
330
233A6
100
AcDbEntity
  8
寸法
 62
     7
 48
50.0
100
AcDbMText
 10
8499.80791429496
 20
5926.632584611787
 30
0.0
 40
120.0
 41
0.0
 71
     5
 72
     1
  1
\A1;280
  7
STYLE1
 11
0.0000000000000001
 21
1.0
 31
0.0
 73
     1
 44
1.0
1001
ACAD
1000
MTEXTBEGIN
1070
    73
1070
     1
1070
    44
1040
1.0
1070
    74
1070
     0
1000
MTEXTEND
  0
POINT
  5
2389A
330
233A6
100
AcDbEntity
  8
DEFPOINTS
 62
     0
 48
50.0
100
AcDbPoint
 10
8652.433553104472
 20
6463.596167288954
 30
0.0
  0
POINT
  5
2389B
330
233A6
100
AcDbEntity
  8
DEFPOINTS
 62
     0
 48
50.0
100
AcDbPoint
 10
8421.419106515955
 20
6183.596167288951
 30
0.0
  0
POINT
  5
2389C
330
233A6
100
AcDbEntity
  8
DEFPOINTS
 62
     0
 48
50.0
100
AcDbPoint
 10
8599.819725318582
 20
6183.596167288951
 30
0.0
  0
ENDBLK
  5
233B2
330
233A6
100
AcDbEntity
  8
0
 48
50.0
100
AcDbBlockEnd
  0
BLOCK
  5
233BD
330
233B3
100
AcDbEntity
  8
0
 48
50.0
100
AcDbBlockBegin
  2
*D41
 70
     1
 10
0.0
 20
0.0
 30
0.0
  3
*D41
  1

  0
LINE
  5
2379C
330
233B3
100
AcDbEntity
  8
寸法
 62
     0
 48
50.0
370
    -2
100
AcDbLine
 10
7398.6
 20
7743.596167288941
 30
0.0
 11
7398.6
 21
8741.81648934786
 31
0.0
  0
LINE
  5
2379D
330
233B3
100
AcDbEntity
  8
寸法
 62
     0
 48
50.0
370
    -2
100
AcDbLine
 10
9048.6
 20
7743.596167288941
 30
0.0
 11
9048.6
 21
8741.81648934786
 31
0.0
  0
LINE
  5
2379E
330
233B3
100
AcDbEntity
  8
寸法
 62
     0
 48
50.0
370
    -2
100
AcDbLine
 10
7398.6
 20
8681.816489347859
 30
0.0
 11
9048.6
 21
8681.816489347859
 31
0.0
  0
INSERT
  5
2379F
330
233B3
100
AcDbEntity
  8
寸法
 62
     0
 48
50.0
370
    -2
100
AcDbBlockReference
  2
_DOTSMALL
 10
7398.6
 20
8681.816489347859
 30
0.0
 41
100.0
 42
100.0
 43
100.0
 50
180.0
  0
INSERT
  5
237A0
330
233B3
100
AcDbEntity
  8
寸法
 62
     0
 48
50.0
370
    -2
100
AcDbBlockReference
  2
_DOTSMALL
 10
9048.6
 20
8681.816489347859
 30
0.0
 41
100.0
 42
100.0
 43
100.0
  0
MTEXT
  5
237A1
330
233B3
100
AcDbEntity
  8
寸法
 62
     7
 48
50.0
100
AcDbMText
 10
8223.600000000001
 20
8781.816489347859
 30
0.0
 40
120.0
 41
0.0
 71
     5
 72
     1
  1
\A1;1650
  7
STYLE1
 73
     1
 44
1.0
1001
ACAD
1000
MTEXTBEGIN
1070
    73
1070
     1
1070
    44
1040
1.0
1070
    74
1070
     0
1000
MTEXTEND
  0
POINT
  5
237A2
330
233B3
100
AcDbEntity
  8
DEFPOINTS
 62
     0
 48
50.0
100
AcDbPoint
 10
7398.6
 20
7723.59616728894
 30
0.0
  0
POINT
  5
237A3
330
233B3
100
AcDbEntity
  8
DEFPOINTS
 62
     0
 48
50.0
100
AcDbPoint
 10
9048.6
 20
7723.59616728894
 30
0.0
  0
POINT
  5
237A4
330
233B3
100
AcDbEntity
  8
DEFPOINTS
 62
     0
 48
50.0
100
AcDbPoint
 10
9048.6
 20
8681.816489347859
 30
0.0
  0
ENDBLK
  5
233BE
330
233B3
100
AcDbEntity
  8
0
 48
50.0
100
AcDbBlockEnd
  0
BLOCK
  5
233C8
330
233BF
100
AcDbEntity
  8
0
 48
50.0
100
AcDbBlockBegin
  2
*D42
 70
     1
 10
0.0
 20
0.0
 30
0.0
  3
*D42
  1

  0
LINE
  5
23793
330
233BF
100
AcDbEntity
  8
寸法
 62
     0
 48
50.0
370
    -2
100
AcDbLine
 10
8925.600000000001
 20
7670.59616728894
 30
0.0
 11
8925.600000000001
 21
8509.862625382849
 31
0.0
  0
LINE
  5
23794
330
233BF
100
AcDbEntity
  8
寸法
 62
     0
 48
50.0
370
    -2
100
AcDbLine
 10
7521.600000000001
 20
7670.59616728894
 30
0.0
 11
7521.600000000001
 21
8509.862625382849
 31
0.0
  0
LINE
  5
23795
330
233BF
100
AcDbEntity
  8
寸法
 62
     0
 48
50.0
370
    -2
100
AcDbLine
 10
8925.600000000001
 20
8449.862625382847
 30
0.0
 11
7521.600000000001
 21
8449.862625382847
 31
0.0
  0
INSERT
  5
23796
330
233BF
100
AcDbEntity
  8
寸法
 62
     0
 48
50.0
370
    -2
100
AcDbBlockReference
  2
_DOTSMALL
 10
8925.600000000001
 20
8449.862625382847
 30
0.0
 41
100.0
 42
100.0
 43
100.0
  0
INSERT
  5
23797
330
233BF
100
AcDbEntity
  8
寸法
 62
     0
 48
50.0
370
    -2
100
AcDbBlockReference
  2
_DOTSMALL
 10
7521.600000000001
 20
8449.862625382847
 30
0.0
 41
100.0
 42
100.0
 43
100.0
 50
180.0
  0
MTEXT
  5
23798
330
233BF
100
AcDbEntity
  8
寸法
 62
     7
 48
50.0
100
AcDbMText
 10
8223.600000000001
 20
8549.862625382848
 30
0.0
 40
120.0
 41
0.0
 71
     5
 72
     1
  1
\A1;1404
  7
STYLE1
 73
     1
 44
1.0
1001
ACAD
1000
MTEXTBEGIN
1070
    73
1070
     1
1070
    44
1040
1.0
1070
    74
1070
     0
1000
MTEXTEND
  0
POINT
  5
23799
330
233BF
100
AcDbEntity
  8
DEFPOINTS
 62
     0
 48
50.0
100
AcDbPoint
 10
8925.600000000001
 20
7650.59616728894
 30
0.0
  0
POINT
  5
2379A
330
233BF
100
AcDbEntity
  8
DEFPOINTS
 62
     0
 48
50.0
100
AcDbPoint
 10
7521.600000000001
 20
7650.59616728894
 30
0.0
  0
POINT
  5
2379B
330
233BF
100
AcDbEntity
  8
DEFPOINTS
 62
     0
 48
50.0
100
AcDbPoint
 10
7521.600000000001
 20
8449.862625382847
 30
0.0
  0
ENDBLK
  5
233C9
330
233BF
100
AcDbEntity
  8
0
 48
50.0
100
AcDbBlockEnd
  0
BLOCK
  5
23B72
330
23B68
100
AcDbEntity
  8
0
 48
50.0
100
AcDbBlockBegin
  2
*D49
 70
     1
 10
0.0
 20
0.0
 30
0.0
  3
*D49
  1

  0
LINE
  5
23C19
330
23B68
100
AcDbEntity
  8
寸法
 62
     0
 48
50.0
370
    -2
100
AcDbLine
 10
6561.532939906276
 20
2006.22938441803
 30
0.0
 11
6561.532939906276
 21
2465.89719233441
 31
0.0
  0
LINE
  5
23C1A
330
23B68
100
AcDbEntity
  8
寸法
 62
     0
 48
50.0
370
    -2
100
AcDbLine
 10
6369.532939906275
 20
2006.22938441803
 30
0.0
 11
6369.532939906275
 21
2465.89719233441
 31
0.0
  0
LINE
  5
23C1B
330
23B68
100
AcDbEntity
  8
寸法
 62
     0
 48
50.0
370
    -2
100
AcDbLine
 10
6561.532939906276
 20
2405.89719233441
 30
0.0
 11
6369.532939906275
 21
2405.89719233441
 31
0.0
  0
INSERT
  5
23C1C
330
23B68
100
AcDbEntity
  8
寸法
 62
     0
 48
50.0
370
    -2
100
AcDbBlockReference
  2
_DOTSMALL
 10
6561.532939906276
 20
2405.89719233441
 30
0.0
 41
100.0
 42
100.0
 43
100.0
  0
INSERT
  5
23C1D
330
23B68
100
AcDbEntity
  8
寸法
 62
     0
 48
50.0
370
    -2
100
AcDbBlockReference
  2
_DOTSMALL
 10
6369.532939906275
 20
2405.89719233441
 30
0.0
 41
100.0
 42
100.0
 43
100.0
 50
180.0
  0
MTEXT
  5
23C1E
330
23B68
100
AcDbEntity
  8
寸法
 62
     7
 48
50.0
100
AcDbMText
 10
6465.532939906276
 20
2705.932625405276
 30
0.0
 40
120.0
 41
0.0
 71
     5
 72
     1
  1
\A1;120\P200\P280
  7
STYLE1
 73
     1
 44
1.0
1001
ACAD
1000
MTEXTBEGIN
1070
    73
1070
     1
1070
    44
1040
1.0
1070
    74
1070
     0
1000
MTEXTEND
  0
POINT
  5
23C1F
330
23B68
100
AcDbEntity
  8
DEFPOINTS
 62
     0
 48
50.0
100
AcDbPoint
 10
6561.532939906276
 20
1986.229384418029
 30
0.0
  0
POINT
  5
23C20
330
23B68
100
AcDbEntity
  8
DEFPOINTS
 62
     0
 48
50.0
100
AcDbPoint
 10
6369.532939906275
 20
1986.229384418029
 30
0.0
  0
POINT
  5
23C21
330
23B68
100
AcDbEntity
  8
DEFPOINTS
 62
     0
 48
50.0
100
AcDbPoint
 10
6369.532939906275
 20
2405.89719233441
 30
0.0
  0
ENDBLK
  5
23B73
330
23B68
100
AcDbEntity
  8
0
 48
50.0
100
AcDbBlockEnd
  0
BLOCK
  5
23B7E
330
23B74
100
AcDbEntity
  8
0
 48
50.0
100
AcDbBlockBegin
  2
*D50
 70
     1
 10
0.0
 20
0.0
 30
0.0
  3
*D50
  1

  0
LINE
  5
23C10
330
23B74
100
AcDbEntity
  8
寸法
 62
     0
 48
50.0
370
    -2
100
AcDbLine
 10
6241.532939906275
 20
1054.229384418029
 30
0.0
 11
6241.532939906275
 21
603.7997464128693
 31
0.0
  0
LINE
  5
23C11
330
23B74
100
AcDbEntity
  8
寸法
 62
     0
 48
50.0
370
    -2
100
AcDbLine
 10
6689.532939906276
 20
1054.229384418029
 30
0.0
 11
6689.532939906276
 21
603.7997464128693
 31
0.0
  0
LINE
  5
23C12
330
23B74
100
AcDbEntity
  8
寸法
 62
     0
 48
50.0
370
    -2
100
AcDbLine
 10
6241.532939906275
 20
663.7997464128694
 30
0.0
 11
6689.532939906276
 21
663.7997464128694
 31
0.0
  0
INSERT
  5
23C13
330
23B74
100
AcDbEntity
  8
寸法
 62
     0
 48
50.0
370
    -2
100
AcDbBlockReference
  2
_DOTSMALL
 10
6241.532939906275
 20
663.7997464128694
 30
0.0
 41
100.0
 42
100.0
 43
100.0
 50
180.0
  0
INSERT
  5
23C14
330
23B74
100
AcDbEntity
  8
寸法
 62
     0
 48
50.0
370
    -2
100
AcDbBlockReference
  2
_DOTSMALL
 10
6689.532939906276
 20
663.7997464128694
 30
0.0
 41
100.0
 42
100.0
 43
100.0
  0
MTEXT
  5
23C15
330
23B74
100
AcDbEntity
  8
寸法
 62
     7
 48
50.0
100
AcDbMText
 10
6445.436181228052
 20
763.7997464128694
 30
0.0
 40
120.0
 41
0.0
 71
     5
 72
     1
  1
\A1;300
  7
STYLE1
 73
     1
 44
1.0
1001
ACAD
1000
MTEXTBEGIN
1070
    73
1070
     1
1070
    44
1040
1.0
1070
    74
1070
     0
1000
MTEXTEND
  0
POINT
  5
23C16
330
23B74
100
AcDbEntity
  8
DEFPOINTS
 62
     0
 48
50.0
100
AcDbPoint
 10
6241.532939906275
 20
1074.229384418029
 30
0.0
  0
POINT
  5
23C17
330
23B74
100
AcDbEntity
  8
DEFPOINTS
 62
     0
 48
50.0
100
AcDbPoint
 10
6689.532939906276
 20
1074.229384418029
 30
0.0
  0
POINT
  5
23C18
330
23B74
100
AcDbEntity
  8
DEFPOINTS
 62
     0
 48
50.0
100
AcDbPoint
 10
6689.532939906276
 20
663.7997464128694
 30
0.0
  0
ENDBLK
  5
23B7F
330
23B74
100
AcDbEntity
  8
0
 48
50.0
100
AcDbBlockEnd
  0
BLOCK
  5
23B8A
330
23B80
100
AcDbEntity
  8
0
 48
50.0
100
AcDbBlockBegin
  2
*D51
 70
     1
 10
0.0
 20
0.0
 30
0.0
  3
*D51
  1

  0
LINE
  5
23C07
330
23B80
100
AcDbEntity
  8
寸法
 62
     0
 48
50.0
370
    -2
100
AcDbLine
 10
6349.532939906276
 20
1986.229384418029
 30
0.0
 11
5574.495701344535
 21
1986.229384418029
 31
0.0
  0
LINE
  5
23C08
330
23B80
100
AcDbEntity
  8
寸法
 62
     0
 48
50.0
370
    -2
100
AcDbLine
 10
6141.532939906279
 20
1202.229384418029
 30
0.0
 11
5574.495701344535
 21
1202.22938441803
 31
0.0
  0
LINE
  5
23C09
330
23B80
100
AcDbEntity
  8
寸法
 62
     0
 48
50.0
370
    -2
100
AcDbLine
 10
5634.495701344536
 20
1986.229384418029
 30
0.0
 11
5634.495701344536
 21
1202.229384418029
 31
0.0
  0
INSERT
  5
23C0A
330
23B80
100
AcDbEntity
  8
寸法
 62
     0
 48
50.0
370
    -2
100
AcDbBlockReference
  2
_DOTSMALL
 10
5634.495701344536
 20
1986.229384418029
 30
0.0
 41
100.0
 42
100.0
 43
100.0
 50
90.0
  0
INSERT
  5
23C0B
330
23B80
100
AcDbEntity
  8
寸法
 62
     0
 48
50.0
370
    -2
100
AcDbBlockReference
  2
_DOTSMALL
 10
5634.495701344536
 20
1202.229384418029
 30
0.0
 41
100.0
 42
100.0
 43
100.0
 50
270.0
  0
MTEXT
  5
23C0C
330
23B80
100
AcDbEntity
  8
寸法
 62
     7
 48
50.0
100
AcDbMText
 10
5534.495701344535
 20
1573.76953407403
 30
0.0
 40
120.0
 41
0.0
 71
     5
 72
     1
  1
\A1;540
  7
STYLE1
 11
0.0000000000000001
 21
1.0
 31
0.0
 73
     1
 44
1.0
1001
ACAD
1000
MTEXTBEGIN
1070
    73
1070
     1
1070
    44
1040
1.0
1070
    74
1070
     0
1000
MTEXTEND
  0
POINT
  5
23C0D
330
23B80
100
AcDbEntity
  8
DEFPOINTS
 62
     0
 48
50.0
100
AcDbPoint
 10
6369.532939906275
 20
1986.229384418029
 30
0.0
  0
POINT
  5
23C0E
330
23B80
100
AcDbEntity
  8
DEFPOINTS
 62
     0
 48
50.0
100
AcDbPoint
 10
6161.53293990628
 20
1202.229384418029
 30
0.0
  0
POINT
  5
23C0F
330
23B80
100
AcDbEntity
  8
DEFPOINTS
 62
     0
 48
50.0
100
AcDbPoint
 10
5634.495701344536
 20
1202.229384418029
 30
0.0
  0
ENDBLK
  5
23B8B
330
23B80
100
AcDbEntity
  8
0
 48
50.0
100
AcDbBlockEnd
  0
BLOCK
  5
23B96
330
23B8C
100
AcDbEntity
  8
0
 48
50.0
100
AcDbBlockBegin
  2
*D52
 70
     1
 10
0.0
 20
0.0
 30
0.0
  3
*D52
  1

  0
LINE
  5
23BFE
330
23B8C
100
AcDbEntity
  8
寸法
 62
     0
 48
50.0
370
    -2
100
AcDbLine
 10
6221.532939906276
 20
1442.229384418029
 30
0.0
 11
6039.112626173817
 21
1442.229384418029
 31
0.0
  0
LINE
  5
23BFF
330
23B8C
100
AcDbEntity
  8
寸法
 62
     0
 48
50.0
370
    -2
100
AcDbLine
 10
6141.532939906279
 20
1202.229384418029
 30
0.0
 11
6039.112626173817
 21
1202.229384418029
 31
0.0
  0
LINE
  5
23C00
330
23B8C
100
AcDbEntity
  8
寸法
 62
     0
 48
50.0
370
    -2
100
AcDbLine
 10
6099.112626173816
 20
1442.229384418029
 30
0.0
 11
6099.112626173816
 21
1202.229384418029
 31
0.0
  0
INSERT
  5
23C01
330
23B8C
100
AcDbEntity
  8
寸法
 62
     0
 48
50.0
370
    -2
100
AcDbBlockReference
  2
_DOTSMALL
 10
6099.112626173816
 20
1442.229384418029
 30
0.0
 41
100.0
 42
100.0
 43
100.0
 50
90.0
  0
INSERT
  5
23C02
330
23B8C
100
AcDbEntity
  8
寸法
 62
     0
 48
50.0
370
    -2
100
AcDbBlockReference
  2
_DOTSMALL
 10
6099.112626173816
 20
1202.229384418029
 30
0.0
 41
100.0
 42
100.0
 43
100.0
 50
270.0
  0
MTEXT
  5
23C03
330
23B8C
100
AcDbEntity
  8
寸法
 62
     7
 48
50.0
100
AcDbMText
 10
5999.112626173817
 20
1322.22938441803
 30
0.0
 40
120.0
 41
0.0
 71
     5
 72
     1
  1
\A1;150
  7
STYLE1
 11
0.0000000000000001
 21
1.0
 31
0.0
 73
     1
 44
1.0
1001
ACAD
1000
MTEXTBEGIN
1070
    73
1070
     1
1070
    44
1040
1.0
1070
    74
1070
     0
1000
MTEXTEND
  0
POINT
  5
23C04
330
23B8C
100
AcDbEntity
  8
DEFPOINTS
 62
     0
 48
50.0
100
AcDbPoint
 10
6241.532939906275
 20
1442.229384418029
 30
0.0
  0
POINT
  5
23C05
330
23B8C
100
AcDbEntity
  8
DEFPOINTS
 62
     0
 48
50.0
100
AcDbPoint
 10
6161.53293990628
 20
1202.229384418029
 30
0.0
  0
POINT
  5
23C06
330
23B8C
100
AcDbEntity
  8
DEFPOINTS
 62
     0
 48
50.0
100
AcDbPoint
 10
6099.112626173816
 20
1202.229384418029
 30
0.0
  0
ENDBLK
  5
23B97
330
23B8C
100
AcDbEntity
  8
0
 48
50.0
100
AcDbBlockEnd
  0
BLOCK
  5
23BA4
330
23B98
100
AcDbEntity
  8
0
 48
50.0
100
AcDbBlockBegin
  2
*D53
 70
     1
 10
0.0
 20
0.0
 30
0.0
  3
*D53
  1

  0
LINE
  5
23BF3
330
23B98
100
AcDbEntity
  8
寸法
 62
     0
 48
50.0
370
    -2
100
AcDbLine
 10
8316.372253083471
 20
2038.989384418031
 30
0.0
 11
9321.495518971341
 21
2038.98938441803
 31
0.0
  0
LINE
  5
23BF4
330
23B98
100
AcDbEntity
  8
寸法
 62
     0
 48
50.0
370
    -2
100
AcDbLine
 10
8503.572253083468
 20
1986.229384418029
 30
0.0
 11
9321.495518971341
 21
1986.229384418029
 31
0.0
  0
LINE
  5
23BF5
330
23B98
100
AcDbEntity
  8
寸法
 62
     0
 48
50.0
370
    -2
100
AcDbLine
 10
9261.49551897134
 20
2038.98938441803
 30
0.0
 11
9261.49551897134
 21
2138.98938441803
 31
0.0
  0
LINE
  5
23BF6
330
23B98
100
AcDbEntity
  8
寸法
 62
     0
 48
50.0
370
    -2
100
AcDbLine
 10
9261.49551897134
 20
1986.229384418029
 30
0.0
 11
9261.49551897134
 21
1254.211577575063
 31
0.0
  0
LINE
  5
23BF7
330
23B98
100
AcDbEntity
  8
寸法
 62
     0
 48
50.0
370
    -2
100
AcDbLine
 10
9261.49551897134
 20
2038.98938441803
 30
0.0
 11
9261.49551897134
 21
1986.229384418029
 31
0.0
  0
INSERT
  5
23BF8
330
23B98
100
AcDbEntity
  8
寸法
 62
     0
 48
50.0
370
    -2
100
AcDbBlockReference
  2
_DOTSMALL
 10
9261.49551897134
 20
2038.98938441803
 30
0.0
 41
100.0
 42
100.0
 43
100.0
 50
270.0
  0
INSERT
  5
23BF9
330
23B98
100
AcDbEntity
  8
寸法
 62
     0
 48
50.0
370
    -2
100
AcDbBlockReference
  2
_DOTSMALL
 10
9261.49551897134
 20
1986.229384418029
 30
0.0
 41
100.0
 42
100.0
 43
100.0
 50
90.0
  0
MTEXT
  5
23BFA
330
23B98
100
AcDbEntity
  8
寸法
 62
     7
 48
50.0
100
AcDbMText
 10
9161.483707947718
 20
1520.220480996547
 30
0.0
 40
120.0
 41
0.0
 71
     5
 72
     1
  1
\A1;20～25
  7
STYLE1
 11
0.0000000000000001
 21
1.0
 31
0.0
 73
     1
 44
1.0
1001
ACAD
1000
MTEXTBEGIN
1070
    73
1070
     1
1070
    44
1040
1.0
1070
    74
1070
     0
1000
MTEXTEND
  0
POINT
  5
23BFB
330
23B98
100
AcDbEntity
  8
DEFPOINTS
 62
     0
 48
50.0
100
AcDbPoint
 10
8296.372253083472
 20
2038.989384418031
 30
0.0
  0
POINT
  5
23BFC
330
23B98
100
AcDbEntity
  8
DEFPOINTS
 62
     0
 48
50.0
100
AcDbPoint
 10
8483.572253083469
 20
1986.229384418029
 30
0.0
  0
POINT
  5
23BFD
330
23B98
100
AcDbEntity
  8
DEFPOINTS
 62
     0
 48
50.0
100
AcDbPoint
 10
9261.49551897134
 20
1986.229384418029
 30
0.0
  0
ENDBLK
  5
23BA5
330
23B98
100
AcDbEntity
  8
0
 48
50.0
100
AcDbBlockEnd
  0
BLOCK
  5
23BB0
330
23BA6
100
AcDbEntity
  8
0
 48
50.0
100
AcDbBlockBegin
  2
*D54
 70
     1
 10
0.0
 20
0.0
 30
0.0
  3
*D54
  1

  0
LINE
  5
23BEA
330
23BA6
100
AcDbEntity
  8
寸法
 62
     0
 48
50.0
370
    -2
100
AcDbLine
 10
8503.572253083468
 20
1986.229384418029
 30
0.0
 11
9045.440852852314
 21
1986.229384418029
 31
0.0
  0
LINE
  5
23BEB
330
23BA6
100
AcDbEntity
  8
寸法
 62
     0
 48
50.0
370
    -2
100
AcDbLine
 10
8503.572253083468
 20
1662.229384418028
 30
0.0
 11
9045.440852852314
 21
1662.229384418028
 31
0.0
  0
LINE
  5
23BEC
330
23BA6
100
AcDbEntity
  8
寸法
 62
     0
 48
50.0
370
    -2
100
AcDbLine
 10
8985.440852852311
 20
1986.229384418029
 30
0.0
 11
8985.440852852311
 21
1662.229384418028
 31
0.0
  0
INSERT
  5
23BED
330
23BA6
100
AcDbEntity
  8
寸法
 62
     0
 48
50.0
370
    -2
100
AcDbBlockReference
  2
_DOTSMALL
 10
8985.440852852311
 20
1986.229384418029
 30
0.0
 41
100.0
 42
100.0
 43
100.0
 50
90.0
  0
INSERT
  5
23BEE
330
23BA6
100
AcDbEntity
  8
寸法
 62
     0
 48
50.0
370
    -2
100
AcDbBlockReference
  2
_DOTSMALL
 10
8985.440852852311
 20
1662.229384418028
 30
0.0
 41
100.0
 42
100.0
 43
100.0
 50
270.0
  0
MTEXT
  5
23BEF
330
23BA6
100
AcDbEntity
  8
寸法
 62
     7
 48
50.0
100
AcDbMText
 10
8885.440852852312
 20
1824.22938441803
 30
0.0
 40
120.0
 41
0.0
 71
     5
 72
     1
  1
\A1;180
  7
STYLE1
 11
0.0000000000000001
 21
1.0
 31
0.0
 73
     1
 44
1.0
1001
ACAD
1000
MTEXTBEGIN
1070
    73
1070
     1
1070
    44
1040
1.0
1070
    74
1070
     0
1000
MTEXTEND
  0
POINT
  5
23BF0
330
23BA6
100
AcDbEntity
  8
DEFPOINTS
 62
     0
 48
50.0
100
AcDbPoint
 10
8483.572253083469
 20
1986.229384418029
 30
0.0
  0
POINT
  5
23BF1
330
23BA6
100
AcDbEntity
  8
DEFPOINTS
 62
     0
 48
50.0
100
AcDbPoint
 10
8483.572253083469
 20
1662.229384418028
 30
0.0
  0
POINT
  5
23BF2
330
23BA6
100
AcDbEntity
  8
DEFPOINTS
 62
     0
 48
50.0
100
AcDbPoint
 10
8985.440852852311
 20
1662.229384418028
 30
0.0
  0
ENDBLK
  5
23BB1
330
23BA6
100
AcDbEntity
  8
0
 48
50.0
100
AcDbBlockEnd
  0
ENDSEC
  0
SECTION
  2
ENTITIES
  0
MTEXT
  5
763F
330
747D
100
AcDbEntity
  8
0
100
AcDbMText
 10
302.846345836809
 20
280.1983726409901
 30
0.0
 40
3.5
 41
5.323721266742722
 71
     1
 72
     5
  1

  7
MSMINCHO
 73
     1
 44
1.0
1001
ACAD
1000
MTEXTBEGIN
1070
    73
1070
     1
1070
    44
1040
1.0
1070
    74
1070
     0
1000
MTEXTEND
  0
LINE
  5
10B57
330
747D
100
AcDbEntity
  8
補助
  6
PHANTOM
 62
   230
 48
50.0
100
AcDbLine
 10
139.9999999999995
 20
11409.6
 30
0.0
 11
16307.2
 21
11409.6
 31
0.0
  0
LINE
  5
10B59
330
747D
100
AcDbEntity
  8
仕様書枠
  6
Continuous
 48
50.0
100
AcDbLine
 10
13107.2
 20
1200.0
 30
0.0
 11
13107.2
 21
-0.0000000000000729
 31
0.0
  0
LINE
  5
10B5D
330
747D
100
AcDbEntity
  8
仕様書枠
 48
50.0
100
AcDbLine
 10
140.0
 20
0.0
 30
0.0
 11
16307.2
 21
-0.0000000000000909
 31
0.0
  0
LINE
  5
10B5E
330
747D
100
AcDbEntity
  8
補助
  6
PHANTOM
 62
   230
 48
50.0
100
AcDbLine
 10
16307.2
 20
11409.6
 30
0.0
 11
16307.2
 21
1200.0
 31
0.0
  0
LINE
  5
10B6C
330
747D
100
AcDbEntity
  8
仕様書枠
 48
50.0
100
AcDbLine
 10
13107.2
 20
1200.0
 30
0.0
 11
16307.2
 21
1200.0
 31
0.0
  0
TEXT
  5
10B73
330
747D
100
AcDbEntity
  8
文字
 62
     7
 48
50.0
100
AcDbText
 10
13162.9790565769
 20
895.0906074299405
 30
0.0
 40
200.0
  1
基 礎 図
  7
STYLE2
100
AcDbText
  0
LINE
  5
10B7B
330
747D
100
AcDbEntity
  8
仕様書枠
 48
50.0
100
AcDbLine
 10
13107.2
 20
800.0
 30
0.0
 11
14251.2
 21
800.0
 31
0.0
  0
LINE
  5
10B88
330
747D
100
AcDbEntity
  8
仕様書枠
  6
Continuous
 48
50.0
100
AcDbLine
 10
14251.2
 20
1200.0
 30
0.0
 11
14251.2
 21
800.0
 31
0.0
  0
LINE
  5
16462
330
747D
100
AcDbEntity
  8
仕様書枠
 48
50.0
100
AcDbLine
 10
16307.2
 20
1200.0
 30
0.0
 11
16307.2
 21
-0.0000000000000909
 31
0.0
  0
LINE
  5
1903B
330
747D
100
AcDbEntity
  8
補助
  6
PHANTOM
 62
   230
 48
50.0
100
AcDbLine
 10
140.0
 20
0.0
 30
0.0
 11
139.9999999999995
 21
11409.6
 31
0.0
  0
LEADER
  5
1AC27
330
747D
100
AcDbEntity
  8
寸法
 48
50.0
100
AcDbLeader
  3
INABA_S50G
 73
     0
 74
     0
 75
     1
 40
120.0
 41
720.0000000000001
 76
     3
 10
9048.695499614996
 20
6984.326937348749
 30
0.0
 10
9205.469074001284
 20
6723.313023780916
 30
0.0
 10
9330.469074001284
 20
6723.313023780916
 30
0.0
340
1AC28
1001
ACAD
1000
DSTYLE
1002
{
1070
   341
1005
0
1070
    40
1040
1.0
1070
   343
1005
0
1070
   344
1005
0
1002
}
  0
MTEXT
  5
1AC28
102
{ACAD_REACTORS
330
1AC27
102
}
330
747D
100
AcDbEntity
  8
部品1
 62
     7
 48
50.0
100
AcDbMText
 10
10075.46907400128
 20
6808.313023780917
 30
0.0
 40
120.0
 41
0.0
 71
     6
 72
     1
  1
\A1;床下換気口
  7
STYLE1
 73
     1
 44
1.0
1001
ACAD
1000
MTEXTBEGIN
1070
    73
1070
     1
1070
    44
1040
1.0
1070
    74
1070
     0
1000
MTEXTEND
  0
TEXT
  5
1AC29
330
747D
100
AcDbEntity
  8
部品1
 48
50.0
100
AcDbText
 10
9397.430138461178
 20
5973.48956010197
 30
0.0
 40
80.0
  1
(a=45,b=55,c=75)
  7
STYLE1
100
AcDbText
  0
TEXT
  5
1AC2A
330
747D
100
AcDbEntity
  8
部品1
 48
50.0
100
AcDbText
 10
9238.851129706878
 20
6080.334780970724
 30
0.0
 40
80.0
  1
※a,b,cは屋根の出幅です。
  7
STYLE1
100
AcDbText
  0
MTEXT
  5
1AC2B
102
{ACAD_REACTORS
330
1AC2C
102
}
330
747D
100
AcDbEntity
  8
部品1
 62
     7
 48
50.0
100
AcDbMText
 10
10036.63832569548
 20
6259.645467903799
 30
0.0
 40
120.0
 41
0.0
 71
     6
 72
     1
  1
\A1;屋根の外寸
  7
STYLE1
 73
     1
 44
1.0
1001
ACAD
1000
MTEXTBEGIN
1070
    73
1070
     1
1070
    44
1040
1.0
1070
    74
1070
     0
1000
MTEXTEND
  0
LEADER
  5
1AC2C
330
747D
100
AcDbEntity
  8
寸法
 48
50.0
100
AcDbLeader
  3
INABA_S50G
 73
     0
 74
     0
 75
     1
 40
120.0
 41
672.0
 76
     3
 10
9098.69831350344
 20
6433.534811367374
 30
0.0
 10
9214.638325695482
 20
6174.645467903799
 30
0.0
 10
9339.638325695482
 20
6174.645467903799
 30
0.0
340
1AC2B
1001
ACAD
1000
DSTYLE
1002
{
1070
   341
1005
0
1070
    40
1040
1.0
1070
   343
1005
0
1070
   344
1005
0
1002
}
  0
TEXT
  5
1C7A1
330
747D
100
AcDbEntity
  8
文字
 62
     7
 48
50.0
100
AcDbText
 10
13188.16259899338
 20
79.80631269190417
 30
0.0
 40
80.0
  1
※布基礎には換気口を設けてください。
  7
STYLE2
100
AcDbText
  0
TEXT
  5
1C7E7
330
747D
100
AcDbEntity
  8
文字
 62
     7
 48
50.0
100
AcDbText
 10
13188.16259899338
 20
246.7109242801889
 30
0.0
 40
80.0
  1
※寒冷地等は地域の実情に合わせた基礎にして下さい。
  7
STYLE2
100
AcDbText
  0
TEXT
  5
1C7E8
330
747D
100
AcDbEntity
  8
文字
 62
     7
 48
50.0
100
AcDbText
 10
14325.79230300687
 20
499.5983841039506
 30
0.0
 40
160.0
  1
ＮＸＮ－１２ＤＬ－２
  7
STYLE2
100
AcDbText
  0
TEXT
  5
1C7EC
330
747D
100
AcDbEntity
  8
文字
 62
     7
 48
50.0
100
AcDbText
 10
14524.131837222
 20
1031.557706291229
 30
0.0
 40
100.0
  1
<縮尺> S=1/40
  7
STYLE2
100
AcDbText
  0
TEXT
  5
1C7ED
330
747D
100
AcDbEntity
  8
文字
 62
     7
 48
50.0
100
AcDbText
 10
13201.43669998441
 20
477.2740661031257
 30
0.0
 40
160.0
  1
機種名
  7
STYLE2
100
AcDbText
  0
LINE
  5
1C7EF
330
747D
100
AcDbEntity
  8
文字
 62
     7
 48
50.0
100
AcDbLine
 10
13187.2
 20
400.0
 30
0.0
 11
16227.2
 21
400.0
 31
0.0
  0
MTEXT
  5
1D2D5
102
{ACAD_REACTORS
330
1D2D6
102
}
330
747D
100
AcDbEntity
  8
部品1
 62
     7
 48
50.0
100
AcDbMText
 10
10243.99523070988
 20
8039.208911531448
 30
0.0
 40
120.0
 41
0.0
 71
     6
 72
     1
  1
アンカーボルト
  7
STYLE1
 73
     1
 44
1.0
1001
ACAD
1000
MTEXTBEGIN
1070
    73
1070
     1
1070
    44
1040
1.0
1070
    74
1070
     0
1000
MTEXTEND
  0
LEADER
  5
1D2D6
330
747D
100
AcDbEntity
  8
寸法
 48
50.0
100
AcDbLeader
  3
INABA_S50G
 73
     0
 74
     0
 75
     1
 40
120.0
 41
994.3492424049171
 76
     3
 10
8925.680085756999
 20
7600.80401164765
 30
0.0
 10
9099.645988304965
 20
7954.208911531448
 30
0.0
 10
9224.645988304965
 20
7954.208911531448
 30
0.0
340
1D2D5
1001
ACAD
1000
DSTYLE
1002
{
1070
   341
1005
0
1070
    40
1040
1.0
1070
   343
1005
0
1070
   344
1005
0
1002
}
  0
MTEXT
  5
1D332
102
{ACAD_REACTORS
330
1D333
102
}
330
747D
100
AcDbEntity
  8
部品1
 62
     7
 48
50.0
100
AcDbMText
 10
8738.828697015694
 20
6845.231870801249
 30
0.0
 40
120.0
 41
0.0
 71
     6
 72
     1
  1
CB
  7
STYLE1
 73
     1
 44
1.0
1001
ACAD
1000
MTEXTBEGIN
1070
    73
1070
     1
1070
    44
1040
1.0
1070
    74
1070
     0
1000
MTEXTEND
  0
LEADER
  5
1D333
330
747D
100
AcDbEntity
  8
寸法
 48
50.0
100
AcDbLeader
  3
INABA_S50G
 73
     0
 74
     0
 75
     1
 40
120.0
 41
149.591883092037
 76
     3
 10
8311.954011061013
 20
6982.950184356076
 30
0.0
 10
8439.236813923656
 20
6760.23187080125
 30
0.0
 10
8564.236813923656
 20
6760.23187080125
 30
0.0
340
1D332
1001
ACAD
1000
DSTYLE
1002
{
1070
   341
1005
0
1070
    40
1040
1.0
1070
   343
1005
0
1070
   344
1005
0
1002
}
  0
DIMENSION
  5
20DE1
330
747D
100
AcDbEntity
  8
寸法
 48
50.0
100
AcDbDimension
  2
*D19
 10
9093.6
 20
8681.816489347861
 30
0.0
 11
9364.77462120246
 21
8681.816489347861
 31
0.0
 70
   160
  1
a
 71
     5
 42
45.0
  3
INABA_S40G
100
AcDbAlignedDimension
 13
9048.6
 23
7723.596167288938
 33
0.0
 14
9093.6
 24
8449.86262538285
 34
0.0
100
AcDbRotatedDimension
1001
ACAD
1000
DSTYLE
1002
{
1070
   341
1005
0
1002
}
  0
DIMENSION
  5
20DFB
330
747D
100
AcDbEntity
  8
寸法
 48
50.0
100
AcDbDimension
  2
*D20
 10
7398.6
 20
8681.816489347859
 30
0.0
 11
7082.425378797541
 21
8681.816489347859
 31
0.0
 70
   160
  1
a
 71
     5
 42
44.99999999999636
  3
INABA_S40G
100
AcDbAlignedDimension
 13
7353.600000000004
 23
8449.86262538285
 33
0.0
 14
7398.6
 24
7723.596167288937
 34
0.0
100
AcDbRotatedDimension
1001
ACAD
1000
DSTYLE
1002
{
1070
   341
1005
0
1002
}
  0
LINE
  5
22711
330
747D
100
AcDbEntity
  8
想像線
 48
10.0
100
AcDbLine
 10
9093.6
 20
7798.596167288941
 30
0.0
 11
7353.6
 21
7798.596167288945
 31
0.0
  0
LINE
  5
22712
330
747D
100
AcDbEntity
  8
想像線
 48
10.0
100
AcDbLine
 10
7353.599999999997
 20
6128.596167288953
 30
0.0
 11
7353.6
 21
7798.596167288945
 31
0.0
  0
LINE
  5
22713
330
747D
100
AcDbEntity
  8
想像線
 48
10.0
100
AcDbLine
 10
9093.6
 20
6128.596167288956
 30
0.0
 11
9093.6
 21
7798.596167288941
 31
0.0
  0
LINE
  5
22714
330
747D
100
AcDbEntity
  8
想像線
 48
10.0
100
AcDbLine
 10
9093.6
 20
6128.596167288956
 30
0.0
 11
7353.599999999999
 21
6128.596167288954
 31
0.0
  0
DIMENSION
  5
22741
330
747D
100
AcDbEntity
  8
寸法
 48
50.0
100
AcDbDimension
  2
*D25
 10
6523.721909610674
 20
7723.596167288937
 30
0.0
 11
6423.721909610673
 21
7761.096167288943
 31
0.0
 70
    32
  1
c
 71
     5
 42
75.00000000000636
  3
INABA_S40G
100
AcDbAlignedDimension
 13
6775.665006330071
 23
7798.596167288943
 33
0.0
 14
7398.6
 24
7723.596167288937
 34
0.0
 50
90.0
100
AcDbRotatedDimension
1001
ACAD
1000
DSTYLE
1002
{
1070
   341
1005
0
1002
}
  0
DIMENSION
  5
2275B
330
747D
100
AcDbEntity
  8
寸法
 48
50.0
100
AcDbDimension
  2
*D26
 10
6523.721909610674
 20
6128.596167288962
 30
0.0
 11
6423.721909610673
 21
6156.096167288951
 31
0.0
 70
    32
  1
b
 71
     5
 42
54.99999999997453
  3
INABA_S40G
100
AcDbAlignedDimension
 13
7398.6
 23
6183.596167288936
 33
0.0
 14
6775.665006330072
 24
6128.596167288962
 34
0.0
 50
90.0
100
AcDbRotatedDimension
1001
ACAD
1000
DSTYLE
1002
{
1070
   341
1005
0
1002
}
  0
LINE
  5
23147
330
747D
100
AcDbEntity
  8
部品1
 48
50.0
100
AcDbLine
 10
8928.600000000002
 20
7523.596167288939
 30
0.0
 11
7518.599999999998
 21
7523.596167288943
 31
0.0
  0
DIMENSION
  5
23148
330
747D
100
AcDbEntity
  8
寸法
 48
50.0
100
AcDbDimension
  2
*D38
 10
8599.819725318582
 20
7523.596167288928
 30
0.0
 11
8599.81972531858
 21
8010.559749966096
 31
0.0
 70
   160
 71
     5
 42
200.0
  3
INABA_S40G
100
AcDbAlignedDimension
 13
8723.854682011641
 23
7723.596167288929
 33
0.0
 14
8723.854682011641
 24
7523.596167288928
 34
0.0
 50
90.0
100
AcDbRotatedDimension
1001
ACAD
1000
DSTYLE
1002
{
1070
   341
1005
0
1002
}
  0
DIMENSION
  5
23149
330
747D
100
AcDbEntity
  8
寸法
 48
50.0
100
AcDbDimension
  2
*D39
 10
8223.600000000008
 20
8206.204983959185
 30
0.0
 11
8636.100000000004
 21
8306.216794982807
 31
0.0
 70
    32
 71
     5
 42
824.9999999999927
  3
INABA_S40G
100
AcDbAlignedDimension
 13
9048.6
 23
7723.59616728894
 33
0.0
 14
8223.600000000008
 24
7040.59616728894
 34
0.0
100
AcDbRotatedDimension
1001
ACAD
1000
DSTYLE
1002
{
1070
   341
1005
0
1002
}
  0
DIMENSION
  5
2314A
330
747D
100
AcDbEntity
  8
寸法
 48
50.0
100
AcDbDimension
  2
*D40
 10
8599.819725318582
 20
6183.596167288951
 30
0.0
 11
8599.81972531858
 21
5926.632584611787
 31
0.0
 70
   160
 71
     5
 42
280.0000000000027
  3
INABA_S40G
100
AcDbAlignedDimension
 13
8652.433553104472
 23
6463.596167288954
 33
0.0
 14
8421.419106515955
 24
6183.596167288951
 34
0.0
 50
90.0
100
AcDbRotatedDimension
1001
ACAD
1000
DSTYLE
1002
{
1070
   341
1005
0
1002
}
  0
LINE
  5
2314B
330
747D
100
AcDbEntity
  8
部品1
 48
50.0
100
AcDbLine
 10
9048.6
 20
6183.596167288958
 30
0.0
 11
7398.599999999998
 21
6183.596167288936
 31
0.0
  0
LINE
  5
2314C
330
747D
100
AcDbEntity
  8
部品1
 48
50.0
100
AcDbLine
 10
9048.6
 20
7723.59616728894
 30
0.0
 11
7398.6
 21
7723.59616728894
 31
0.0
  0
DIMENSION
  5
2314D
330
747D
100
AcDbEntity
  8
寸法
 48
50.0
100
AcDbDimension
  2
*D41
 10
9048.6
 20
8681.816489347859
 30
0.0
 11
8223.600000000001
 21
8781.816489347859
 31
0.0
 70
    32
 71
     5
 42
1650.0
  3
INABA_S40G
100
AcDbAlignedDimension
 13
7398.6
 23
7723.59616728894
 33
0.0
 14
9048.6
 24
7723.59616728894
 34
0.0
100
AcDbRotatedDimension
1001
ACAD
1000
DSTYLE
1002
{
1070
   341
1005
0
1002
}
  0
DIMENSION
  5
2314E
330
747D
100
AcDbEntity
  8
寸法
 48
50.0
100
AcDbDimension
  2
*D42
 10
7521.600000000001
 20
8449.862625382847
 30
0.0
 11
8223.600000000001
 21
8549.862625382848
 31
0.0
 70
    32
 71
     5
 42
1404.0
  3
INABA_S40G
100
AcDbAlignedDimension
 13
8925.600000000001
 23
7650.59616728894
 33
0.0
 14
7521.600000000001
 24
7650.59616728894
 34
0.0
100
AcDbRotatedDimension
1001
ACAD
1000
DSTYLE
1002
{
1070
   341
1005
0
1002
}
  0
DIMENSION
  5
23163
330
747D
100
AcDbEntity
  8
寸法
 48
50.0
100
AcDbDimension
  2
*D27
 10
6523.721909610674
 20
6183.596167288939
 30
0.0
 11
6523.721909610673
 21
6991.09616728894
 31
0.0
 70
   160
 71
     5
 42
1540.0
  3
INABA_S40G
100
AcDbAlignedDimension
 13
7398.6
 23
7723.59616728894
 33
0.0
 14
7398.6
 24
6183.596167288939
 34
0.0
 50
90.0
100
AcDbRotatedDimension
1001
ACAD
1000
DSTYLE
1002
{
1070
   341
1005
0
1002
}
  0
LINE
  5
23164
330
747D
100
AcDbEntity
  8
部品1
 48
50.0
100
AcDbLine
 10
7398.6
 20
6183.596167288939
 30
0.0
 11
7398.6
 21
7723.59616728894
 31
0.0
  0
DIMENSION
  5
23165
330
747D
100
AcDbEntity
  8
寸法
 48
50.0
100
AcDbDimension
  2
*D28
 10
6775.665006330072
 20
6381.596167288943
 30
0.0
 11
6775.665006330071
 21
6991.09616728894
 31
0.0
 70
   160
 71
     5
 42
1218.999999999996
  3
INABA_S40G
100
AcDbAlignedDimension
 13
7471.600000000001
 23
7600.59616728894
 33
0.0
 14
7471.600000000008
 24
6381.596167288943
 34
0.0
 50
90.0
100
AcDbRotatedDimension
1001
ACAD
1000
DSTYLE
1002
{
1070
   341
1005
0
1002
}
  0
DIMENSION
  5
23167
330
747D
100
AcDbEntity
  8
寸法
 48
50.0
100
AcDbDimension
  2
*D29
 10
7751.285990614302
 20
7723.59616728894
 30
0.0
 11
7751.285990614301
 21
8011.702769006738
 31
0.0
 70
   160
 71
     5
 42
733.0
  3
INABA_S40G
100
AcDbAlignedDimension
 13
8173.600000000007
 23
6990.59616728894
 33
0.0
 14
7842.7654751409
 24
7723.59616728894
 34
0.0
 50
90.0
100
AcDbRotatedDimension
1001
ACAD
1000
DSTYLE
1002
{
1070
   341
1005
0
1002
}
  0
DIMENSION
  5
23168
330
747D
100
AcDbEntity
  8
寸法
 48
50.0
100
AcDbDimension
  2
*D30
 10
7398.6
 20
8206.204983959185
 30
0.0
 11
7811.100000000005
 21
8306.216794982807
 31
0.0
 70
    32
 71
     5
 42
825.0000000000072
  3
INABA_S40G
100
AcDbAlignedDimension
 13
8223.600000000008
 23
7040.59616728894
 33
0.0
 14
7398.6
 24
7723.59616728894
 34
0.0
100
AcDbRotatedDimension
1001
ACAD
1000
DSTYLE
1002
{
1070
   341
1005
0
1002
}
  0
DIMENSION
  5
231C5
330
747D
100
AcDbEntity
  8
寸法
 48
50.0
100
AcDbDimension
  2
*D31
 10
6775.665006330072
 20
6183.596167288939
 30
0.0
 11
6775.665006330071
 21
5848.065218446348
 31
0.0
 70
   160
 71
     5
 42
198.0000000000036
  3
INABA_S40G
100
AcDbAlignedDimension
 13
7471.600000000008
 23
6381.596167288943
 33
0.0
 14
7398.6
 24
6183.596167288939
 34
0.0
 50
90.0
100
AcDbRotatedDimension
1001
ACAD
1000
DSTYLE
1002
{
1070
   341
1005
0
1002
}
  0
LINE
  5
231C7
330
747D
100
AcDbEntity
  8
想像線
 48
5.0
100
AcDbLine
 10
8168.600000000001
 20
6183.596167288954
 30
0.0
 11
8168.600000000001
 21
5463.596167288944
 31
0.0
  0
DIMENSION
  5
231C8
330
747D
100
AcDbEntity
  8
寸法
 48
50.0
100
AcDbDimension
  2
*D32
 10
7751.285990614302
 20
6990.59616728894
 30
0.0
 11
7751.285990614301
 21
5898.275037383768
 31
0.0
 70
   160
 71
     5
 42
806.999999999989
  3
INABA_S40G
100
AcDbAlignedDimension
 13
7842.7654751409
 23
6183.596167288951
 33
0.0
 14
8173.600000000007
 24
6990.59616728894
 34
0.0
 50
90.0
100
AcDbRotatedDimension
1001
ACAD
1000
DSTYLE
1002
{
1070
   341
1005
0
1002
}
  0
DIMENSION
  5
231C9
330
747D
100
AcDbEntity
  8
寸法
 48
50.0
100
AcDbDimension
  2
*D33
 10
7285.512673767877
 20
5463.596167288937
 30
0.0
 11
7285.512673767877
 21
5823.596167288938
 31
0.0
 70
   160
  1
扉の出<>
 71
     5
 42
720.0
  3
INABA_S40G
100
AcDbAlignedDimension
 13
7398.6
 23
6183.596167288936
 33
0.0
 14
7754.325326928806
 24
5463.596167288937
 34
0.0
 50
90.0
100
AcDbRotatedDimension
1001
ACAD
1000
DSTYLE
1002
{
1070
   341
1005
0
1002
}
  0
ARC
  5
231CA
330
747D
100
AcDbEntity
  8
想像線
 48
5.0
100
AcDbCircle
 10
8168.600000000001
 20
6183.596167288943
 30
0.0
 40
720.0
100
AcDbArc
 50
180.0
 51
270.0
  0
LINE
  5
231CB
330
747D
100
AcDbEntity
  8
センター
 48
2.0
100
AcDbLine
 10
7521.600000000008
 20
6431.596167288943
 30
0.0
 11
7521.600000000008
 21
6331.596167288943
 31
0.0
  0
LINE
  5
231CC
330
747D
100
AcDbEntity
  8
センター
 48
2.0
100
AcDbLine
 10
7471.600000000008
 20
6381.596167288943
 30
0.0
 11
7571.600000000008
 21
6381.596167288943
 31
0.0
  0
CIRCLE
  5
231CD
330
747D
100
AcDbEntity
  8
部品1
 48
50.0
100
AcDbCircle
 10
7521.599999999994
 20
6381.596167288943
 30
0.0
 40
35.0
  0
LINE
  5
231CE
330
747D
100
AcDbEntity
  8
細線
 48
50.0
100
AcDbLine
 10
7401.28003344756
 20
6878.596167288946
 30
0.0
 11
7518.599999999999
 21
6995.916133841385
 31
0.0
  0
LINE
  5
231CF
330
747D
100
AcDbEntity
  8
細線
 48
50.0
100
AcDbLine
 10
7398.6
 20
6920.817414446728
 30
0.0
 11
7518.599999999999
 21
7040.817414446731
 31
0.0
  0
LINE
  5
231D0
330
747D
100
AcDbEntity
  8
細線
 48
50.0
100
AcDbLine
 10
7398.599999999999
 20
6965.718695052075
 30
0.0
 11
7511.477472236873
 21
7078.596167288946
 31
0.0
  0
LINE
  5
231D1
330
747D
100
AcDbEntity
  8
細線
 48
50.0
100
AcDbLine
 10
7398.6
 20
7010.619975657421
 30
0.0
 11
7466.576191631522
 21
7078.596167288944
 31
0.0
  0
LINE
  5
231D2
330
747D
100
AcDbEntity
  8
細線
 48
50.0
100
AcDbLine
 10
7398.6
 20
7055.521256262764
 30
0.0
 11
7421.674911026179
 21
7078.596167288946
 31
0.0
  0
LINE
  5
231D3
330
747D
100
AcDbEntity
  8
部品1
 48
50.0
100
AcDbLine
 10
7518.599999999999
 20
7078.596167288946
 30
0.0
 11
7398.599999999999
 21
7078.596167288946
 31
0.0
  0
LINE
  5
231D4
330
747D
100
AcDbEntity
  8
部品1
 48
50.0
100
AcDbLine
 10
7518.599999999999
 20
6878.596167288946
 30
0.0
 11
7398.599999999999
 21
6878.596167288946
 31
0.0
  0
LINE
  5
231D5
330
747D
100
AcDbEntity
  8
細線
 48
50.0
100
AcDbLine
 10
7491.082594658251
 20
6878.596167288944
 30
0.0
 11
7518.599999999999
 21
6906.113572630693
 31
0.0
  0
LINE
  5
231D6
330
747D
100
AcDbEntity
  8
細線
 48
50.0
100
AcDbLine
 10
7446.181314052907
 20
6878.596167288946
 30
0.0
 11
7518.599999999999
 21
6951.014853236033
 31
0.0
  0
LINE
  5
231D7
330
747D
100
AcDbEntity
  8
細線
 48
50.0
100
AcDbLine
 10
7849.404364949137
 20
6183.596167288954
 30
0.0
 11
7913.600000000023
 21
6247.791802339842
 31
0.0
  0
LINE
  5
231D8
330
747D
100
AcDbEntity
  8
細線
 48
50.0
100
AcDbLine
 10
7804.503084343791
 20
6183.596167288953
 30
0.0
 11
7913.600000000022
 21
6292.693082945186
 31
0.0
  0
LINE
  5
231D9
330
747D
100
AcDbEntity
  8
細線
 48
50.0
100
AcDbLine
 10
7759.601803738442
 20
6183.596167288953
 30
0.0
 11
7913.600000000022
 21
6337.594363550534
 31
0.0
  0
LINE
  5
231DA
330
747D
100
AcDbEntity
  8
細線
 48
50.0
100
AcDbLine
 10
7714.700523133096
 20
6183.596167288951
 30
0.0
 11
7913.600000000022
 21
6382.495644155878
 31
0.0
  0
LINE
  5
231DB
330
747D
100
AcDbEntity
  8
細線
 48
50.0
100
AcDbLine
 10
7713.600000000024
 20
6227.396924761225
 30
0.0
 11
7913.600000000018
 21
6427.396924761217
 31
0.0
  0
LINE
  5
231DC
330
747D
100
AcDbEntity
  8
部品1
 48
50.0
100
AcDbLine
 10
7713.600000000018
 20
6463.596167288942
 30
0.0
 11
7713.600000000027
 21
6183.596167288951
 31
0.0
  0
LINE
  5
231DD
330
747D
100
AcDbEntity
  8
部品1
 48
50.0
100
AcDbLine
 10
7913.600000000018
 20
6463.596167288944
 30
0.0
 11
7913.600000000027
 21
6183.596167288954
 31
0.0
  0
LINE
  5
231DE
330
747D
100
AcDbEntity
  8
細線
 48
50.0
100
AcDbLine
 10
7894.305645554483
 20
6183.596167288956
 30
0.0
 11
7913.600000000027
 21
6202.890521734498
 31
0.0
  0
LINE
  5
231DF
330
747D
100
AcDbEntity
  8
細線
 48
50.0
100
AcDbLine
 10
7713.600000000022
 20
6272.298205366571
 30
0.0
 11
7904.897961922397
 21
6463.596167288945
 31
0.0
  0
LINE
  5
231E0
330
747D
100
AcDbEntity
  8
細線
 48
50.0
100
AcDbLine
 10
7713.600000000022
 20
6317.199485971913
 30
0.0
 11
7859.996681317035
 21
6463.596167288945
 31
0.0
  0
LINE
  5
231E1
330
747D
100
AcDbEntity
  8
細線
 48
50.0
100
AcDbLine
 10
7713.600000000018
 20
6407.002047182615
 30
0.0
 11
7770.194120106343
 21
6463.596167288942
 31
0.0
  0
LINE
  5
231E2
330
747D
100
AcDbEntity
  8
細線
 48
50.0
100
AcDbLine
 10
7713.60000000002
 20
6362.100766577268
 30
0.0
 11
7815.095400711697
 21
6463.596167288942
 31
0.0
  0
TEXT
  5
231E3
330
747D
100
AcDbEntity
  8
寸法
 48
50.0
100
AcDbText
 10
8092.708034017926
 20
6202.277458081677
 30
0.0
 40
120.0
  1
扉面
  7
STYLE1
100
AcDbText
  0
LINE
  5
231E4
330
747D
100
AcDbEntity
  8
センター
 48
2.0
100
AcDbLine
 10
8173.600000000007
 20
6990.59616728894
 30
0.0
 11
8273.600000000007
 21
6990.59616728894
 31
0.0
  0
LINE
  5
231E5
330
747D
100
AcDbEntity
  8
部品1
 48
50.0
100
AcDbLine
 10
8323.600000000007
 20
6890.59616728894
 30
0.0
 11
8123.600000000008
 21
6890.59616728894
 31
0.0
  0
LINE
  5
231E6
330
747D
100
AcDbEntity
  8
部品1
 48
50.0
100
AcDbLine
 10
8323.600000000007
 20
7090.59616728894
 30
0.0
 11
8123.600000000008
 21
7090.59616728894
 31
0.0
  0
LINE
  5
231E7
330
747D
100
AcDbEntity
  8
部品1
 48
50.0
100
AcDbLine
 10
8123.600000000008
 20
6890.59616728894
 30
0.0
 11
8123.600000000008
 21
7090.59616728894
 31
0.0
  0
LINE
  5
231E8
330
747D
100
AcDbEntity
  8
センター
 48
2.0
100
AcDbLine
 10
8223.600000000008
 20
7040.59616728894
 30
0.0
 11
8223.600000000008
 21
6940.596167288941
 31
0.0
  0
LINE
  5
231E9
330
747D
100
AcDbEntity
  8
部品1
 48
50.0
100
AcDbLine
 10
8323.600000000007
 20
6890.59616728894
 30
0.0
 11
8323.600000000007
 21
7090.59616728894
 31
0.0
  0
DIMENSION
  5
231EB
330
747D
100
AcDbEntity
  8
寸法
 48
50.0
100
AcDbDimension
  2
*D34
 10
6775.665006330072
 20
7600.59616728894
 30
0.0
 11
6775.665006330071
 21
7996.70276900674
 31
0.0
 70
   160
 71
     5
 42
123.0
  3
INABA_S40G
100
AcDbAlignedDimension
 13
7398.6
 23
7723.59616728894
 33
0.0
 14
7471.600000000001
 24
7600.59616728894
 34
0.0
 50
90.0
100
AcDbRotatedDimension
1001
ACAD
1000
DSTYLE
1002
{
1070
   341
1005
0
1002
}
  0
DIMENSION
  5
231EC
330
747D
100
AcDbEntity
  8
寸法
 48
50.0
100
AcDbDimension
  2
*D35
 10
7398.6
 20
8449.862625382847
 30
0.0
 11
7125.493398282202
 21
8449.862625382847
 31
0.0
 70
   160
 71
     5
 42
123.0
  3
INABA_S40G
100
AcDbAlignedDimension
 13
7521.600000000001
 23
7650.59616728894
 33
0.0
 14
7398.6
 24
7723.59616728894
 34
0.0
100
AcDbRotatedDimension
1001
ACAD
1000
DSTYLE
1002
{
1070
   341
1005
0
1002
}
  0
CIRCLE
  5
231EE
330
747D
100
AcDbEntity
  8
部品1
 48
50.0
100
AcDbCircle
 10
7521.600000000001
 20
7600.59616728894
 30
0.0
 40
35.0
  0
LINE
  5
231EF
330
747D
100
AcDbEntity
  8
センター
 48
2.0
100
AcDbLine
 10
7471.600000000001
 20
7600.59616728894
 30
0.0
 11
7571.6
 21
7600.59616728894
 31
0.0
  0
LINE
  5
231F0
330
747D
100
AcDbEntity
  8
センター
 48
2.0
100
AcDbLine
 10
7521.600000000001
 20
7650.59616728894
 30
0.0
 11
7521.600000000001
 21
7550.59616728894
 31
0.0
  0
LINE
  5
231F1
330
747D
100
AcDbEntity
  8
細線
 48
50.0
100
AcDbLine
 10
7713.600000000011
 20
7525.817414446748
 30
0.0
 11
7911.378752842202
 21
7723.59616728894
 31
0.0
  0
LINE
  5
231F2
330
747D
100
AcDbEntity
  8
細線
 48
50.0
100
AcDbLine
 10
7713.600000000008
 20
7570.718695052097
 30
0.0
 11
7866.477472236856
 21
7723.59616728894
 31
0.0
  0
LINE
  5
231F3
330
747D
100
AcDbEntity
  8
細線
 48
50.0
100
AcDbLine
 10
7713.600000000008
 20
7615.619975657434
 30
0.0
 11
7821.576191631511
 21
7723.59616728894
 31
0.0
  0
LINE
  5
231F4
330
747D
100
AcDbEntity
  8
細線
 48
50.0
100
AcDbLine
 10
7713.600000000008
 20
7660.521256262781
 30
0.0
 11
7776.674911026169
 21
7723.596167288942
 31
0.0
  0
LINE
  5
231F5
330
747D
100
AcDbEntity
  8
部品1
 48
50.0
100
AcDbLine
 10
7713.600000000006
 20
7723.59616728894
 30
0.0
 11
7713.600000000011
 21
7523.596167288946
 31
0.0
  0
LINE
  5
231F6
330
747D
100
AcDbEntity
  8
部品1
 48
50.0
100
AcDbLine
 10
7913.600000000006
 20
7723.59616728894
 30
0.0
 11
7913.600000000011
 21
7523.596167288943
 31
0.0
  0
LINE
  5
231F7
330
747D
100
AcDbEntity
  8
細線
 48
50.0
100
AcDbLine
 10
7801.181314052914
 20
7523.596167288942
 30
0.0
 11
7913.600000000006
 21
7636.014853236052
 31
0.0
  0
LINE
  5
231F8
330
747D
100
AcDbEntity
  8
細線
 48
50.0
100
AcDbLine
 10
7756.280033447549
 20
7523.596167288946
 30
0.0
 11
7913.600000000006
 21
7680.916133841397
 31
0.0
  0
LINE
  5
231F9
330
747D
100
AcDbEntity
  8
細線
 48
50.0
100
AcDbLine
 10
7890.983875263607
 20
7523.596167288943
 30
0.0
 11
7913.600000000009
 21
7546.212292025346
 31
0.0
  0
LINE
  5
231FA
330
747D
100
AcDbEntity
  8
細線
 48
50.0
100
AcDbLine
 10
7846.08259465825
 20
7523.596167288943
 30
0.0
 11
7913.600000000008
 21
7591.113572630701
 31
0.0
  0
LINE
  5
231FB
330
747D
100
AcDbEntity
  8
細線
 48
50.0
100
AcDbLine
 10
7713.600000000006
 20
7705.422536868126
 30
0.0
 11
7731.773630420821
 21
7723.59616728894
 31
0.0
  0
LINE
  5
231FD
330
747D
100
AcDbEntity
  8
部品1
 48
50.0
100
AcDbLine
 10
9048.6
 20
6183.596167288958
 30
0.0
 11
9048.6
 21
7723.59616728894
 31
0.0
  0
LINE
  5
23276
330
747D
100
AcDbEntity
  8
細線
 48
50.0
100
AcDbLine
 10
8624.503084343791
 20
6183.596167288953
 30
0.0
 11
8733.600000000022
 21
6292.693082945186
 31
0.0
  0
LINE
  5
23277
330
747D
100
AcDbEntity
  8
細線
 48
50.0
100
AcDbLine
 10
8669.404364949137
 20
6183.596167288954
 30
0.0
 11
8733.600000000024
 21
6247.791802339842
 31
0.0
  0
LINE
  5
23278
330
747D
100
AcDbEntity
  8
細線
 48
50.0
100
AcDbLine
 10
8579.601803738443
 20
6183.596167288953
 30
0.0
 11
8733.600000000022
 21
6337.594363550534
 31
0.0
  0
LINE
  5
23279
330
747D
100
AcDbEntity
  8
部品1
 48
50.0
100
AcDbLine
 10
8533.600000000019
 20
6463.596167288954
 30
0.0
 11
8533.600000000026
 21
6183.596167288951
 31
0.0
  0
LINE
  5
2327A
330
747D
100
AcDbEntity
  8
部品1
 48
50.0
100
AcDbLine
 10
8733.600000000018
 20
6463.596167288955
 30
0.0
 11
8733.600000000025
 21
6183.596167288954
 31
0.0
  0
LINE
  5
2327B
330
747D
100
AcDbEntity
  8
細線
 48
50.0
100
AcDbLine
 10
8533.600000000024
 20
6227.396924761225
 30
0.0
 11
8733.600000000018
 21
6427.396924761217
 31
0.0
  0
LINE
  5
2327C
330
747D
100
AcDbEntity
  8
細線
 48
50.0
100
AcDbLine
 10
8534.700523133096
 20
6183.596167288951
 30
0.0
 11
8733.600000000022
 21
6382.495644155878
 31
0.0
  0
LINE
  5
2327D
330
747D
100
AcDbEntity
  8
細線
 48
50.0
100
AcDbLine
 10
8714.305645554484
 20
6183.596167288956
 30
0.0
 11
8733.600000000025
 21
6202.890521734498
 31
0.0
  0
LINE
  5
2327E
330
747D
100
AcDbEntity
  8
細線
 48
50.0
100
AcDbLine
 10
8533.600000000022
 20
6317.199485971913
 30
0.0
 11
8679.996681317048
 21
6463.596167288955
 31
0.0
  0
LINE
  5
2327F
330
747D
100
AcDbEntity
  8
細線
 48
50.0
100
AcDbLine
 10
8533.600000000022
 20
6272.298205366571
 30
0.0
 11
8724.897961922406
 21
6463.596167288955
 31
0.0
  0
LINE
  5
23280
330
747D
100
AcDbEntity
  8
細線
 48
50.0
100
AcDbLine
 10
8533.600000000019
 20
6407.002047182615
 30
0.0
 11
8590.194120106355
 21
6463.596167288954
 31
0.0
  0
LINE
  5
23281
330
747D
100
AcDbEntity
  8
細線
 48
50.0
100
AcDbLine
 10
8533.600000000021
 20
6362.100766577268
 30
0.0
 11
8635.09540071171
 21
6463.596167288952
 31
0.0
  0
LINE
  5
23282
330
747D
100
AcDbEntity
  8
センター
 48
2.0
100
AcDbLine
 10
8925.600000000008
 20
6431.596167288943
 30
0.0
 11
8925.600000000008
 21
6331.596167288943
 31
0.0
  0
LINE
  5
23283
330
747D
100
AcDbEntity
  8
センター
 48
2.0
100
AcDbLine
 10
8875.600000000007
 20
6381.596167288943
 30
0.0
 11
8975.600000000007
 21
6381.596167288943
 31
0.0
  0
CIRCLE
  5
23284
330
747D
100
AcDbEntity
  8
部品1
 48
50.0
100
AcDbCircle
 10
8925.600000000008
 20
6381.596167288943
 30
0.0
 40
35.0
  0
LINE
  5
23285
330
747D
100
AcDbEntity
  8
細線
 48
50.0
100
AcDbLine
 10
9041.082594658254
 20
6878.596167288948
 30
0.0
 11
9048.6
 21
6886.113572630698
 31
0.0
  0
LINE
  5
23286
330
747D
100
AcDbEntity
  8
細線
 48
50.0
100
AcDbLine
 10
8996.181314052909
 20
6878.596167288951
 30
0.0
 11
9048.6
 21
6931.014853236042
 31
0.0
  0
LINE
  5
23287
330
747D
100
AcDbEntity
  8
細線
 48
50.0
100
AcDbLine
 10
8951.280033447563
 20
6878.596167288951
 30
0.0
 11
9048.6
 21
6975.916133841387
 31
0.0
  0
LINE
  5
23288
330
747D
100
AcDbEntity
  8
細線
 48
50.0
100
AcDbLine
 10
8928.600000000001
 20
6900.817414446734
 30
0.0
 11
9048.6
 21
7020.817414446735
 31
0.0
  0
LINE
  5
23289
330
747D
100
AcDbEntity
  8
細線
 48
50.0
100
AcDbLine
 10
8928.600000000001
 20
6945.718695052081
 30
0.0
 11
9048.6
 21
7065.71869505208
 31
0.0
  0
LINE
  5
2328A
330
747D
100
AcDbEntity
  8
細線
 48
50.0
100
AcDbLine
 10
8928.599999999999
 20
6990.61997565743
 30
0.0
 11
9016.576191631527
 21
7078.596167288951
 31
0.0
  0
LINE
  5
2328B
330
747D
100
AcDbEntity
  8
細線
 48
50.0
100
AcDbLine
 10
8928.600000000001
 20
7035.521256262772
 30
0.0
 11
8971.674911026182
 21
7078.596167288953
 31
0.0
  0
LINE
  5
2328C
330
747D
100
AcDbEntity
  8
部品1
 48
50.0
100
AcDbLine
 10
9048.6
 20
7078.596167288951
 30
0.0
 11
8928.600000000001
 21
7078.596167288951
 31
0.0
  0
LINE
  5
2328D
330
747D
100
AcDbEntity
  8
部品1
 48
50.0
100
AcDbLine
 10
9048.6
 20
6878.596167288951
 30
0.0
 11
8928.600000000001
 21
6878.59616728895
 31
0.0
  0
DIMENSION
  5
23292
330
747D
100
AcDbEntity
  8
寸法
 48
50.0
100
AcDbDimension
  2
*D36
 10
8925.600000000001
 20
8449.862625382847
 30
0.0
 11
9321.706601717798
 21
8449.862625382847
 31
0.0
 70
   160
 71
     5
 42
123.0
  3
INABA_S40G
100
AcDbAlignedDimension
 13
9048.6
 23
7723.59616728894
 33
0.0
 14
8925.600000000001
 24
7650.59616728894
 34
0.0
100
AcDbRotatedDimension
1001
ACAD
1000
DSTYLE
1002
{
1070
   341
1005
0
1002
}
  0
DIMENSION
  5
23294
330
747D
100
AcDbEntity
  8
寸法
 48
50.0
100
AcDbDimension
  2
*D37
 10
8928.600000000001
 20
7227.968960319683
 30
0.0
 11
9318.659055118111
 21
7227.968960319683
 31
0.0
 70
   160
 71
     5
 42
120.0
  3
INABA_S40G
100
AcDbAlignedDimension
 13
9048.6
 23
7244.962224358515
 33
0.0
 14
8928.600000000001
 24
7227.968960319683
 34
0.0
100
AcDbRotatedDimension
1001
ACAD
1000
DSTYLE
1002
{
1070
   341
1005
0
1002
}
  0
LINE
  5
23295
330
747D
100
AcDbEntity
  8
部品1
 48
50.0
100
AcDbLine
 10
8733.600000000006
 20
7723.59616728894
 30
0.0
 11
8733.600000000011
 21
7523.596167288943
 31
0.0
  0
LINE
  5
23296
330
747D
100
AcDbEntity
  8
部品1
 48
50.0
100
AcDbLine
 10
8533.600000000005
 20
7723.59616728894
 30
0.0
 11
8533.600000000012
 21
7523.596167288946
 31
0.0
  0
LINE
  5
23297
330
747D
100
AcDbEntity
  8
細線
 48
50.0
100
AcDbLine
 10
8533.600000000008
 20
7660.521256262781
 30
0.0
 11
8596.674911026168
 21
7723.596167288942
 31
0.0
  0
LINE
  5
23298
330
747D
100
AcDbEntity
  8
細線
 48
50.0
100
AcDbLine
 10
8533.600000000012
 20
7525.817414446748
 30
0.0
 11
8731.378752842202
 21
7723.59616728894
 31
0.0
  0
LINE
  5
23299
330
747D
100
AcDbEntity
  8
細線
 48
50.0
100
AcDbLine
 10
8533.600000000008
 20
7570.718695052097
 30
0.0
 11
8686.477472236857
 21
7723.59616728894
 31
0.0
  0
LINE
  5
2329A
330
747D
100
AcDbEntity
  8
細線
 48
50.0
100
AcDbLine
 10
8533.600000000008
 20
7615.619975657434
 30
0.0
 11
8641.576191631513
 21
7723.59616728894
 31
0.0
  0
LINE
  5
2329B
330
747D
100
AcDbEntity
  8
細線
 48
50.0
100
AcDbLine
 10
8621.181314052915
 20
7523.596167288942
 30
0.0
 11
8733.600000000006
 21
7636.014853236052
 31
0.0
  0
LINE
  5
2329C
330
747D
100
AcDbEntity
  8
細線
 48
50.0
100
AcDbLine
 10
8576.280033447549
 20
7523.596167288946
 30
0.0
 11
8733.600000000006
 21
7680.916133841397
 31
0.0
  0
LINE
  5
2329D
330
747D
100
AcDbEntity
  8
細線
 48
50.0
100
AcDbLine
 10
8710.983875263607
 20
7523.596167288943
 30
0.0
 11
8733.600000000009
 21
7546.212292025346
 31
0.0
  0
LINE
  5
2329E
330
747D
100
AcDbEntity
  8
細線
 48
50.0
100
AcDbLine
 10
8666.08259465825
 20
7523.596167288943
 30
0.0
 11
8733.600000000008
 21
7591.113572630701
 31
0.0
  0
LINE
  5
2329F
330
747D
100
AcDbEntity
  8
センター
 48
2.0
100
AcDbLine
 10
8925.600000000001
 20
7650.59616728894
 30
0.0
 11
8925.600000000001
 21
7550.59616728894
 31
0.0
  0
CIRCLE
  5
232A0
330
747D
100
AcDbEntity
  8
部品1
 48
50.0
100
AcDbCircle
 10
8925.600000000001
 20
7600.59616728894
 30
0.0
 40
35.0
  0
LINE
  5
232A1
330
747D
100
AcDbEntity
  8
センター
 48
2.0
100
AcDbLine
 10
8875.6
 20
7600.59616728894
 30
0.0
 11
8975.6
 21
7600.59616728894
 31
0.0
  0
LINE
  5
232A2
330
747D
100
AcDbEntity
  8
細線
 48
50.0
100
AcDbLine
 10
8533.600000000005
 20
7705.422536868126
 30
0.0
 11
8551.773630420822
 21
7723.59616728894
 31
0.0
  0
TEXT
  5
23868
330
747D
100
AcDbEntity
  8
文字
 62
     7
 48
50.0
100
AcDbText
 10
14251.2
 20
838.2527270729188
 30
0.0
 40
100.0
  1
～一般型・多雪地型・豪雪地型～
  7
STYLE2
100
AcDbText
  0
LINE
  5
23888
330
747D
100
AcDbEntity
  8
部品1
 48
50.0
100
AcDbLine
 10
8928.600000000001
 20
6463.596167288958
 30
0.0
 11
7518.600000000001
 21
6463.596167288939
 31
0.0
  0
MTEXT
  5
23A33
102
{ACAD_REACTORS
330
23A34
102
}
330
747D
100
AcDbEntity
  8
寸法
 62
     7
 48
50.0
100
AcDbMText
 10
10776.97080363579
 20
2243.375705099167
 30
0.0
 40
120.0
 41
0.8
 71
     4
 72
     1
  1
\A1;C.B
  7
STYLE1
 73
     1
 44
1.0
1001
ACAD
1000
MTEXTBEGIN
1070
    73
1070
     1
1070
    44
1040
1.0
1070
    74
1070
     0
1000
MTEXTEND
  0
LEADER
  5
23A34
330
747D
100
AcDbEntity
  8
寸法
 48
50.0
100
AcDbLeader
  3
INABA_S50G
 73
     0
 74
     0
 75
     1
 40
120.0
 41
185.591883092037
 76
     3
 10
10593.83259700215
 20
1986.229384418029
 30
0.0
 10
10626.97080363579
 20
2158.375705099167
 30
0.0
 10
10751.97080363579
 20
2158.375705099167
 30
0.0
340
23A33
1001
ACAD
1000
DSTYLE
1002
{
1070
    40
1040
1.0
1002
}
  0
LINE
  5
23A35
330
747D
100
AcDbEntity
  8
細線
 48
50.0
100
AcDbLine
 10
10739.48601057856
 20
1630.530468764678
 30
0.0
 11
10733.05522996021
 21
1654.530468764678
 31
0.0
  0
LINE
  5
23A36
330
747D
100
AcDbEntity
  8
細線
 48
50.0
100
AcDbLine
 10
10718.05007518407
 20
1550.530468764678
 30
0.0
 11
10724.48085580242
 21
1526.530468764678
 31
0.0
  0
LINE
  5
23A37
330
747D
100
AcDbEntity
  8
部品1
100
AcDbLine
 10
10783.10818538622
 20
1746.229384418029
 30
0.0
 11
10783.10818538623
 21
1526.530468764679
 31
0.0
  0
LINE
  5
23A38
330
747D
100
AcDbEntity
  8
細線
 48
50.0
100
AcDbLine
 10
10711.61929456572
 20
1526.530468764678
 30
0.0
 11
10745.9167911969
 21
1654.530468764676
 31
0.0
  0
LINE
  5
23A39
330
747D
100
AcDbEntity
  8
細線
 48
50.0
100
AcDbLine
 10
10660.59796563131
 20
1630.530468764678
 30
0.0
 11
10654.16718501297
 21
1654.530468764678
 31
0.0
  0
LINE
  5
23A3A
330
747D
100
AcDbEntity
  8
細線
100
AcDbLine
 10
10536.14457988556
 20
1654.530468764681
 30
0.0
 11
10627.8434955389
 21
1746.229384418029
 31
0.0
  0
LINE
  5
23A3B
330
747D
100
AcDbEntity
  8
細線
 48
50.0
100
AcDbLine
 10
10581.70992068405
 20
1630.530468764679
 30
0.0
 11
10575.27914006571
 21
1654.530468764679
 31
0.0
  0
LINE
  5
23A3C
330
747D
100
AcDbEntity
  8
細線
100
AcDbLine
 10
10570.08570538251
 20
1654.530468764681
 30
0.0
 11
10661.78462103586
 21
1746.229384418029
 31
0.0
  0
LINE
  5
23A3D
330
747D
100
AcDbEntity
  8
細線
 48
50.0
100
AcDbLine
 10
10345.04578584232
 20
1630.530468764679
 30
0.0
 11
10338.61500522398
 21
1654.530468764679
 31
0.0
  0
LINE
  5
23A3E
330
747D
100
AcDbEntity
  8
細線
 48
50.0
100
AcDbLine
 10
10423.93383078957
 20
1630.530468764679
 30
0.0
 11
10417.50305017123
 21
1654.530468764679
 31
0.0
  0
LINE
  5
23A3F
330
747D
100
AcDbEntity
  8
細線
 48
50.0
100
AcDbLine
 10
10502.82187573682
 20
1630.530468764679
 30
0.0
 11
10496.39109511847
 21
1654.530468764679
 31
0.0
  0
LINE
  5
23A40
330
747D
100
AcDbEntity
  8
細線
 48
50.0
100
AcDbLine
 10
10639.16203023682
 20
1550.530468764678
 30
0.0
 11
10645.59281085517
 21
1526.530468764678
 31
0.0
  0
LINE
  5
23A41
330
747D
100
AcDbEntity
  8
細線
 48
50.0
100
AcDbLine
 10
10560.27398528957
 20
1550.530468764679
 30
0.0
 11
10566.70476590793
 21
1526.530468764679
 31
0.0
  0
LINE
  5
23A42
330
747D
100
AcDbEntity
  8
細線
 48
50.0
100
AcDbLine
 10
10402.49789539508
 20
1550.530468764679
 30
0.0
 11
10408.92867601343
 21
1526.530468764679
 31
0.0
  0
LINE
  5
23A43
330
747D
100
AcDbEntity
  8
細線
 48
50.0
100
AcDbLine
 10
10481.38594034233
 20
1550.530468764679
 30
0.0
 11
10487.81672096067
 21
1526.530468764679
 31
0.0
  0
LINE
  5
23A44
330
747D
100
AcDbEntity
  8
細線
 48
50.0
100
AcDbLine
 10
10474.95515972397
 20
1526.530468764679
 30
0.0
 11
10509.25265635516
 21
1654.530468764678
 31
0.0
  0
LINE
  5
23A45
330
747D
100
AcDbEntity
  8
細線
 48
50.0
100
AcDbLine
 10
10396.06711477673
 20
1526.530468764678
 30
0.0
 11
10430.36461140791
 21
1654.530468764678
 31
0.0
  0
LINE
  5
23A46
330
747D
100
AcDbEntity
  8
細線
 48
50.0
100
AcDbLine
 10
10553.84320467122
 20
1526.530468764678
 30
0.0
 11
10588.1407013024
 21
1654.530468764679
 31
0.0
  0
LINE
  5
23A47
330
747D
100
AcDbEntity
  8
細線
100
AcDbLine
 10
10604.02683087947
 20
1654.530468764681
 30
0.0
 11
10695.72574653281
 21
1746.229384418029
 31
0.0
  0
LINE
  5
23A48
330
747D
100
AcDbEntity
  8
細線
 48
50.0
100
AcDbLine
 10
10632.73124961847
 20
1526.530468764677
 30
0.0
 11
10667.02874624966
 21
1654.530468764676
 31
0.0
  0
LINE
  5
23A49
330
747D
100
AcDbEntity
  8
部品1
100
AcDbLine
 10
10663.10818538622
 20
1986.229384418029
 30
0.0
 11
10663.10818538622
 21
1746.229384418029
 31
0.0
  0
LINE
  5
23A4A
330
747D
100
AcDbEntity
  8
細線
100
AcDbLine
 10
10649.27052303864
 20
1746.229384418031
 30
0.0
 11
10409.27052303865
 21
1986.229384418029
 31
0.0
  0
LINE
  5
23A4B
330
747D
100
AcDbEntity
  8
細線
100
AcDbLine
 10
10598.35883479322
 20
1746.229384418029
 30
0.0
 11
10358.35883479321
 21
1986.229384418029
 31
0.0
  0
LINE
  5
23A4C
330
747D
100
AcDbEntity
  8
細線
100
AcDbLine
 10
10210.08570538251
 20
1654.530468764679
 30
0.0
 11
10301.78462103586
 21
1746.229384418029
 31
0.0
  0
LINE
  5
23A4D
330
747D
100
AcDbEntity
  8
細線
100
AcDbLine
 10
10176.14457988555
 20
1654.530468764679
 30
0.0
 11
10267.8434955389
 21
1746.229384418029
 31
0.0
  0
LINE
  5
23A4E
330
747D
100
AcDbEntity
  8
細線
 48
50.0
100
AcDbLine
 10
10187.26969594782
 20
1630.530468764679
 30
0.0
 11
10180.83891532948
 21
1654.530468764679
 31
0.0
  0
LINE
  5
23A4F
330
747D
100
AcDbEntity
  8
細線
 48
50.0
100
AcDbLine
 10
10266.15774089508
 20
1630.530468764679
 30
0.0
 11
10259.72696027673
 21
1654.530468764679
 31
0.0
  0
LINE
  5
23A50
330
747D
100
AcDbEntity
  8
細線
 48
50.0
100
AcDbLine
 10
10108.38165100057
 20
1630.530468764679
 30
0.0
 11
10101.95087038223
 21
1654.530468764679
 31
0.0
  0
LINE
  5
23A51
330
747D
100
AcDbEntity
  8
細線
 48
50.0
100
AcDbLine
 10
10323.60985044783
 20
1550.530468764679
 30
0.0
 11
10330.04063106618
 21
1526.530468764679
 31
0.0
  0
LINE
  5
23A52
330
747D
100
AcDbEntity
  8
細線
 48
50.0
100
AcDbLine
 10
10244.72180550059
 20
1550.530468764679
 30
0.0
 11
10251.15258611893
 21
1526.530468764679
 31
0.0
  0
LINE
  5
23A53
330
747D
100
AcDbEntity
  8
細線
 48
50.0
100
AcDbLine
 10
10086.94571560609
 20
1550.530468764679
 30
0.0
 11
10093.37649622443
 21
1526.530468764679
 31
0.0
  0
LINE
  5
23A54
330
747D
100
AcDbEntity
  8
細線
 48
50.0
100
AcDbLine
 10
10165.83376055333
 20
1550.530468764679
 30
0.0
 11
10172.26454117168
 21
1526.530468764679
 31
0.0
  0
LINE
  5
23A55
330
747D
100
AcDbEntity
  8
部品1
100
AcDbLine
 10
10063.10818538622
 20
1526.530468764676
 30
0.0
 11
10063.10818538622
 21
1746.229384418029
 31
0.0
  0
LINE
  5
23A56
330
747D
100
AcDbEntity
  8
細線
 48
50.0
100
AcDbLine
 10
10080.51493498774
 20
1526.530468764679
 30
0.0
 11
10114.81243161892
 21
1654.530468764679
 31
0.0
  0
LINE
  5
23A57
330
747D
100
AcDbEntity
  8
細線
 48
50.0
100
AcDbLine
 10
10238.29102488224
 20
1526.530468764679
 30
0.0
 11
10272.58852151342
 21
1654.530468764679
 31
0.0
  0
LINE
  5
23A58
330
747D
100
AcDbEntity
  8
細線
 48
50.0
100
AcDbLine
 10
10159.40297993499
 20
1526.530468764678
 30
0.0
 11
10193.70047656617
 21
1654.530468764678
 31
0.0
  0
LINE
  5
23A59
330
747D
100
AcDbEntity
  8
部品1
100
AcDbLine
 10
10183.10818538622
 20
1746.229384418029
 30
0.0
 11
10183.10818538622
 21
1986.229384418029
 31
0.0
  0
TEXT
  5
23A5A
330
747D
100
AcDbEntity
  8
部品1
 48
50.0
100
AcDbText
 10
9418.990098627725
 20
1479.429643780721
 30
0.0
 40
80.0
  1
ボルトの出
 50
90.0
  7
STYLE2
100
AcDbText
  0
LINE
  5
23A5B
330
747D
100
AcDbEntity
  8
細線
100
AcDbLine
 10
10326.82983081758
 20
1746.229384418029
 30
0.0
 11
10183.10818538622
 21
1889.951029849382
 31
0.0
  0
LWPOLYLINE
  5
23A5C
330
747D
100
AcDbEntity
  8
部品1
 48
50.0
100
AcDbPolyline
 90
        2
 70
     0
 43
12.0
 10
9798.496923285838
 20
1746.229384418029
 10
10999.58922641746
 20
1746.229384418029
  0
LINE
  5
23A5D
330
747D
100
AcDbEntity
  8
細線
100
AcDbLine
 10
10244.02683087947
 20
1654.530468764679
 30
0.0
 11
10335.72574653281
 21
1746.229384418029
 31
0.0
  0
LINE
  5
23A5E
330
747D
100
AcDbEntity
  8
部品1
100
AcDbLine
 10
10063.10818538622
 20
1654.530468764679
 30
0.0
 11
10783.10818538622
 21
1654.530468764682
 31
0.0
  0
LINE
  5
23A5F
330
747D
100
AcDbEntity
  8
部品1
100
AcDbLine
 10
10063.10818538622
 20
1526.530468764676
 30
0.0
 11
10783.10818538622
 21
1526.530468764679
 31
0.0
  0
LINE
  5
23A60
330
747D
100
AcDbEntity
  8
細線
 48
50.0
100
AcDbLine
 10
10317.17906982948
 20
1526.530468764679
 30
0.0
 11
10351.47656646067
 21
1654.530468764678
 31
0.0
  0
LINE
  5
23A61
330
747D
100
AcDbEntity
  8
部品1
100
AcDbLine
 10
10183.10818538622
 20
1986.229384418029
 30
0.0
 11
10663.10818538622
 21
1986.229384418029
 31
0.0
  0
LINE
  5
23A62
330
747D
100
AcDbEntity
  8
細線
100
AcDbLine
 10
10377.74151906301
 20
1746.229384418029
 30
0.0
 11
10183.10818538622
 21
1940.862718094812
 31
0.0
  0
LINE
  5
23A63
330
747D
100
AcDbEntity
  8
部品1
100
AcDbLine
 10
11369.84968648326
 20
421.2610820339677
 30
0.0
 11
11369.84968648326
 21
3385.568051618615
 31
0.0
  0
TEXT
  5
23A64
330
747D
100
AcDbEntity
  8
部品1
100
AcDbText
 10
7991.744502275401
 20
3206.016119667187
 30
0.0
 40
120.0
  1
基礎詳細
  7
STYLE2
100
AcDbText
  0
LINE
  5
23A65
330
747D
100
AcDbEntity
  8
部品1
 48
50.0
100
AcDbLine
 10
8306.97225308347
 20
2385.104665527172
 30
0.0
 11
8322.972253083468
 21
2377.104665527172
 31
0.0
  0
LINE
  5
23A66
330
747D
100
AcDbEntity
  8
細線
 48
50.0
100
AcDbLine
 10
8274.97225308347
 20
2337.104665527172
 30
0.0
 11
8274.97225308347
 21
2369.104665527172
 31
0.0
  0
LINE
  5
23A67
330
747D
100
AcDbEntity
  8
部品1
 48
50.0
100
AcDbLine
 10
8322.972253083468
 20
2345.104665527172
 30
0.0
 11
8322.972253083468
 21
2377.104665527172
 31
0.0
  0
LINE
  5
23A68
330
747D
100
AcDbEntity
  8
細線
 48
50.0
100
AcDbLine
 10
8306.97225308347
 20
2337.104665527172
 30
0.0
 11
8306.97225308347
 21
2369.104665527172
 31
0.0
  0
LINE
  5
23A69
330
747D
100
AcDbEntity
  8
部品1
 48
50.0
100
AcDbLine
 10
8306.97225308347
 20
2369.104665527172
 30
0.0
 11
8322.972253083468
 21
2377.104665527172
 31
0.0
  0
LINE
  5
23A6A
330
747D
100
AcDbEntity
  8
部品1
 48
50.0
100
AcDbLine
 10
8274.97225308347
 20
2369.104665527172
 30
0.0
 11
8306.97225308347
 21
2369.104665527172
 31
0.0
  0
LINE
  5
23A6B
330
747D
100
AcDbEntity
  8
部品1
 48
50.0
100
AcDbLine
 10
8306.97225308347
 20
2337.104665527172
 30
0.0
 11
8322.972253083468
 21
2345.104665527172
 31
0.0
  0
LINE
  5
23A6C
330
747D
100
AcDbEntity
  8
部品1
 48
50.0
100
AcDbLine
 10
8274.97225308347
 20
2337.104665527172
 30
0.0
 11
8306.97225308347
 21
2337.104665527172
 31
0.0
  0
ELLIPSE
  5
23A6D
330
747D
100
AcDbEntity
  8
細線
 48
50.0
100
AcDbEllipse
 10
8290.97225308347
 20
2377.104665527172
 30
0.0
 11
14.76670786606846
 21
0.0
 31
0.0
210
0.0
220
0.0
230
1.0
 40
0.2071254069489396
 41
0.0
 42
6.283185307179586
  0
LINE
  5
23A6E
330
747D
100
AcDbEntity
  8
部品1
 48
50.0
100
AcDbLine
 10
8274.97225308347
 20
2385.104665527172
 30
0.0
 11
8306.97225308347
 21
2385.104665527172
 31
0.0
  0
LINE
  5
23A6F
330
747D
100
AcDbEntity
  8
部品1
 48
50.0
100
AcDbLine
 10
8258.972253083468
 20
2345.104665527172
 30
0.0
 11
8258.972253083468
 21
2377.104665527172
 31
0.0
  0
LINE
  5
23A70
330
747D
100
AcDbEntity
  8
部品1
 48
50.0
100
AcDbLine
 10
8258.972253083468
 20
2377.104665527172
 30
0.0
 11
8274.97225308347
 21
2385.104665527172
 31
0.0
  0
LINE
  5
23A71
330
747D
100
AcDbEntity
  8
部品1
 48
50.0
100
AcDbLine
 10
8258.972253083468
 20
2345.104665527172
 30
0.0
 11
8274.97225308347
 21
2337.104665527172
 31
0.0
  0
LINE
  5
23A72
330
747D
100
AcDbEntity
  8
部品1
 48
50.0
100
AcDbLine
 10
8258.972253083468
 20
2377.104665527172
 30
0.0
 11
8274.97225308347
 21
2369.104665527172
 31
0.0
  0
LINE
  5
23A73
330
747D
100
AcDbEntity
  8
部品1
 48
50.0
100
AcDbLine
 10
8330.972253083471
 20
2245.752672862302
 30
0.0
 11
8330.972253083471
 21
2255.352672862302
 31
0.0
  0
ELLIPSE
  5
23A74
330
747D
100
AcDbEntity
  8
部品1
 48
50.0
100
AcDbEllipse
 10
8290.97225308347
 20
2255.352672862302
 30
0.0
 11
18.4
 21
0.0
 31
0.0
210
0.0
220
0.0
230
1.0
 40
0.3478260869565217
 41
0.0
 42
6.283185307179586
  0
ARC
  5
23A75
330
747D
100
AcDbEntity
  8
部品1
100
AcDbCircle
 10
8129.872253083471
 20
2084.32938441803
 30
0.0
 40
2.7
100
AcDbArc
 50
90.0
 51
180.0
  0
LINE
  5
23A76
330
747D
100
AcDbEntity
  8
部品1
100
AcDbLine
 10
8132.57225308347
 20
2097.82938441803
 30
0.0
 11
8174.872253083469
 21
2097.829384418026
 31
0.0
  0
LINE
  5
23A77
330
747D
100
AcDbEntity
  8
部品1
100
AcDbLine
 10
8129.872253083471
 20
2087.02938441803
 30
0.0
 11
8129.872253083471
 21
2095.129384418029
 31
0.0
  0
LINE
  5
23A78
330
747D
100
AcDbEntity
  8
部品1
100
AcDbLine
 10
8129.872253083471
 20
2087.02938441803
 30
0.0
 11
8129.872253083471
 21
2087.02938441803
 31
0.0
  0
ARC
  5
23A79
330
747D
100
AcDbEntity
  8
部品1
100
AcDbCircle
 10
8132.57225308347
 20
2095.129384418029
 30
0.0
 40
2.7
100
AcDbArc
 50
90.0
 51
180.0
  0
ARC
  5
23A7A
330
747D
100
AcDbEntity
  8
部品1
100
AcDbCircle
 10
8174.872253083469
 20
2095.129384418026
 30
0.0
 40
2.7
100
AcDbArc
 50
0.0
 51
90.0
  0
LINE
  5
23A7B
330
747D
100
AcDbEntity
  8
部品1
 48
50.0
100
AcDbLine
 10
8250.972253083469
 20
2255.352672862302
 30
0.0
 11
8250.972253083469
 21
2245.752672862302
 31
0.0
  0
ELLIPSE
  5
23A7C
330
747D
100
AcDbEntity
  8
部品1
 48
50.0
100
AcDbEllipse
 10
8290.97225308347
 20
2245.752672862303
 30
0.0
 11
40.0
 21
0.0
 31
0.0
210
0.0
220
0.0
230
1.0
 40
0.4
 41
3.141592653589793
 42
6.283185307179586
  0
ELLIPSE
  5
23A7D
330
747D
100
AcDbEntity
  8
部品1
 48
50.0
100
AcDbEllipse
 10
8290.97225308347
 20
2255.352672862302
 30
0.0
 11
40.0
 21
0.0
 31
0.0
210
0.0
220
0.0
230
1.0
 40
0.4
 41
0.0
 42
6.283185307179586
  0
LINE
  5
23A7E
330
747D
100
AcDbEntity
  8
部品1
100
AcDbLine
 10
8285.572253083469
 20
2038.98938441803
 30
0.0
 11
8296.372253083472
 21
2038.98938441803
 31
0.0
  0
LINE
  5
23A7F
330
747D
100
AcDbEntity
  8
部品1
100
AcDbLine
 10
8281.97225308347
 20
2035.38938441803
 30
0.0
 11
8299.97225308347
 21
2035.38938441803
 31
0.0
  0
LINE
  5
23A80
330
747D
100
AcDbEntity
  8
細線
100
AcDbLine
 10
8285.572253083472
 20
1995.78938441803
 30
0.0
 11
8285.572253083469
 21
2038.98938441803
 31
0.0
  0
LINE
  5
23A81
330
747D
100
AcDbEntity
  8
細線
100
AcDbLine
 10
8296.372253083472
 20
1995.78938441803
 30
0.0
 11
8296.372253083472
 21
2038.98938441803
 31
0.0
  0
LINE
  5
23A82
330
747D
100
AcDbEntity
  8
部品1
100
AcDbLine
 10
8198.272253083469
 20
2053.08938441803
 30
0.0
 11
8198.272253083469
 21
2035.98938441803
 31
0.0
  0
LINE
  5
23A83
330
747D
100
AcDbEntity
  8
部品1
100
AcDbLine
 10
8231.832253083471
 20
2053.08938441803
 30
0.0
 11
8231.832253083466
 21
1998.48938441803
 31
0.0
  0
ARC
  5
23A84
330
747D
100
AcDbEntity
  8
部品1
100
AcDbCircle
 10
8217.17225308347
 20
2041.129384418029
 30
0.0
 40
2.7
100
AcDbArc
 50
0.0
 51
90.0
  0
LINE
  5
23A85
330
747D
100
AcDbEntity
  8
部品1
100
AcDbLine
 10
8177.57225308347
 20
2043.82938441803
 30
0.0
 11
8217.17225308347
 21
2043.82938441803
 31
0.0
  0
ARC
  5
23A86
330
747D
100
AcDbEntity
  8
部品1
100
AcDbCircle
 10
8217.17225308347
 20
1998.48938441803
 30
0.0
 40
2.7
100
AcDbArc
 50
270.0
 51
0.0
  0
ARC
  5
23A87
330
747D
100
AcDbEntity
  8
部品1
100
AcDbCircle
 10
8234.532253083463
 20
1998.48938441803
 30
0.0
 40
2.7
100
AcDbArc
 50
180.0
 51
270.0
  0
LINE
  5
23A88
330
747D
100
AcDbEntity
  8
部品1
100
AcDbLine
 10
8205.472253083469
 20
1995.78938441803
 30
0.0
 11
8217.17225308347
 21
1995.78938441803
 31
0.0
  0
LINE
  5
23A89
330
747D
100
AcDbEntity
  8
部品1
100
AcDbLine
 10
8219.872253083471
 20
2041.129384418029
 30
0.0
 11
8219.872253083471
 21
1998.48938441803
 31
0.0
  0
ARC
  5
23A8A
330
747D
100
AcDbEntity
  8
部品1
100
AcDbCircle
 10
8229.132253083468
 20
2053.08938441803
 30
0.0
 40
2.7
100
AcDbArc
 50
0.0
 51
90.0
  0
ARC
  5
23A8B
330
747D
100
AcDbEntity
  8
部品1
100
AcDbCircle
 10
8200.972253083468
 20
2053.08938441803
 30
0.0
 40
2.7
100
AcDbArc
 50
90.0
 51
180.0
  0
LINE
  5
23A8C
330
747D
100
AcDbEntity
  8
部品1
100
AcDbLine
 10
8200.972253083468
 20
2055.78938441803
 30
0.0
 11
8229.132253083468
 21
2055.78938441803
 31
0.0
  0
LINE
  5
23A8D
330
747D
100
AcDbEntity
  8
部品1
100
AcDbLine
 10
8177.57225308347
 20
2095.129384418026
 30
0.0
 11
8177.57225308347
 21
2043.82938441803
 31
0.0
  0
LINE
  5
23A8E
330
747D
100
AcDbEntity
  8
部品1
100
AcDbLine
 10
8127.17225308347
 20
2076.229384418029
 30
0.0
 11
8127.17225308347
 21
2084.32938441803
 31
0.0
  0
LINE
  5
23A8F
330
747D
100
AcDbEntity
  8
部品1
100
AcDbLine
 10
8234.532253083463
 20
1995.78938441803
 30
0.0
 11
8435.872253083465
 21
1995.78938441803
 31
0.0
  0
LINE
  5
23A90
330
747D
100
AcDbEntity
  8
部品1
100
AcDbLine
 10
8075.872253083471
 20
1998.48938441803
 30
0.0
 11
8075.872253083471
 21
2060.621288120738
 31
0.0
  0
LINE
  5
23A91
330
747D
100
AcDbEntity
  8
部品1
100
AcDbLine
 10
8078.57225308347
 20
1995.78938441803
 30
0.0
 11
8090.272253083465
 21
1995.78938441803
 31
0.0
  0
LINE
  5
23A92
330
747D
100
AcDbEntity
  8
細線
 48
50.0
100
AcDbLine
 10
8069.572253083469
 20
1974.009960717934
 30
0.0
 11
8081.791676783565
 21
1986.229384418029
 31
0.0
  0
ARC
  5
23A93
330
747D
100
AcDbEntity
  8
部品1
100
AcDbCircle
 10
8078.57225308347
 20
1998.48938441803
 30
0.0
 40
2.7
100
AcDbArc
 50
180.0
 51
270.0
  0
LINE
  5
23A94
330
747D
100
AcDbEntity
  8
部品1
100
AcDbLine
 10
8077.917406895872
 20
2063.240672871129
 30
0.0
 11
8086.672253083472
 21
2065.429384418029
 31
0.0
  0
ARC
  5
23A95
330
747D
100
AcDbEntity
  8
部品1
100
AcDbCircle
 10
8078.57225308347
 20
2060.621288120738
 30
0.0
 40
2.7
100
AcDbArc
 50
104.0362434679075
 51
180.0
  0
ARC
  5
23A96
330
747D
100
AcDbEntity
  8
部品1
100
AcDbCircle
 10
8089.372253083471
 20
2073.52938441803
 30
0.0
 40
2.7
100
AcDbArc
 50
90.0
 51
180.0
  0
LINE
  5
23A97
330
747D
100
AcDbEntity
  8
部品1
100
AcDbLine
 10
8086.672253083472
 20
2065.429384418029
 30
0.0
 11
8086.672253083472
 21
2073.52938441803
 31
0.0
  0
LINE
  5
23A98
330
747D
100
AcDbEntity
  8
部品1
 48
50.0
100
AcDbLine
 10
8069.572253083469
 20
1986.229384418029
 30
0.0
 11
8483.572253083471
 21
1986.229384418029
 31
0.0
  0
LINE
  5
23A99
330
747D
100
AcDbEntity
  8
細線
 48
50.0
100
AcDbLine
 10
8069.572253083469
 20
1920.128423991519
 30
0.0
 11
8135.67321350998
 21
1986.229384418029
 31
0.0
  0
LINE
  5
23A9A
330
747D
100
AcDbEntity
  8
細線
 48
50.0
100
AcDbLine
 10
8069.572253083469
 20
1947.069192354727
 30
0.0
 11
8108.732445146776
 21
1986.229384418029
 31
0.0
  0
LINE
  5
23A9B
330
747D
100
AcDbEntity
  8
部品1
100
AcDbLine
 10
8089.372253083471
 20
2076.229384418029
 30
0.0
 11
8127.17225308347
 21
2076.229384418029
 31
0.0
  0
LINE
  5
23A9C
330
747D
100
AcDbEntity
  8
部品1
 48
50.0
100
AcDbLine
 10
8483.572253083469
 20
1442.229384418029
 30
0.0
 11
8611.572253083469
 21
1442.229384418029
 31
0.0
  0
LINE
  5
23A9D
330
747D
100
AcDbEntity
  8
部品1
100
AcDbLine
 10
8299.97225308347
 20
1761.22938441803
 30
0.0
 11
8335.97225308347
 21
1761.22938441803
 31
0.0
  0
LINE
  5
23A9E
330
747D
100
AcDbEntity
  8
部品1
100
AcDbLine
 10
8299.97225308347
 20
1743.229384418029
 30
0.0
 11
8335.97225308347
 21
1743.229384418029
 31
0.0
  0
ARC
  5
23A9F
330
747D
100
AcDbEntity
  8
部品1
100
AcDbCircle
 10
8299.97225308347
 20
1761.22938441803
 30
0.0
 40
18.0
100
AcDbArc
 50
180.0
 51
270.0
  0
LINE
  5
23AA0
330
747D
100
AcDbEntity
  8
部品1
100
AcDbLine
 10
8335.97225308347
 20
1743.229384418029
 30
0.0
 11
8335.97225308347
 21
1761.22938441803
 31
0.0
  0
LINE
  5
23AA1
330
747D
100
AcDbEntity
  8
部品1
100
AcDbLine
 10
8353.972253083469
 20
1662.229384418028
 30
0.0
 11
8227.972253083462
 21
1662.229384418028
 31
0.0
  0
LINE
  5
23AA2
330
747D
100
AcDbEntity
  8
細線
 48
50.0
100
AcDbLine
 10
8647.950078275803
 20
1178.229384418028
 30
0.0
 11
8641.519297657458
 21
1202.229384418028
 31
0.0
  0
LINE
  5
23AA3
330
747D
100
AcDbEntity
  8
細線
 48
50.0
100
AcDbLine
 10
8569.06203332856
 20
1178.229384418028
 30
0.0
 11
8562.631252710213
 21
1202.229384418028
 31
0.0
  0
LINE
  5
23AA4
330
747D
100
AcDbEntity
  8
細線
 48
50.0
100
AcDbLine
 10
8490.173988381302
 20
1178.229384418029
 30
0.0
 11
8483.743207762957
 21
1202.229384418029
 31
0.0
  0
LINE
  5
23AA5
330
747D
100
AcDbEntity
  8
細線
 48
50.0
100
AcDbLine
 10
8626.514142881315
 20
1098.229384418027
 30
0.0
 11
8632.944923499664
 21
1074.229384418027
 31
0.0
  0
LINE
  5
23AA6
330
747D
100
AcDbEntity
  8
細線
 48
50.0
100
AcDbLine
 10
8547.626097934069
 20
1098.229384418027
 30
0.0
 11
8554.056878552415
 21
1074.229384418027
 31
0.0
  0
LINE
  5
23AA7
330
747D
100
AcDbEntity
  8
細線
 48
50.0
100
AcDbLine
 10
8468.73805298682
 20
1098.229384418029
 30
0.0
 11
8475.168833605177
 21
1074.229384418029
 31
0.0
  0
LINE
  5
23AA8
330
747D
100
AcDbEntity
  8
細線
 48
50.0
100
AcDbLine
 10
8541.19531731572
 20
1074.229384418027
 30
0.0
 11
8575.492813946905
 21
1202.229384418027
 31
0.0
  0
LINE
  5
23AA9
330
747D
100
AcDbEntity
  8
細線
 48
50.0
100
AcDbLine
 10
8462.307272368471
 20
1074.229384418027
 30
0.0
 11
8496.604768999644
 21
1202.229384418029
 31
0.0
  0
LINE
  5
23AAA
330
747D
100
AcDbEntity
  8
細線
 48
50.0
100
AcDbLine
 10
8620.083362262965
 20
1074.229384418027
 30
0.0
 11
8654.38085889415
 21
1202.229384418027
 31
0.0
  0
LINE
  5
23AAB
330
747D
100
AcDbEntity
  8
部品1
 48
50.0
100
AcDbLine
 10
8691.572253083471
 20
1202.229384418029
 30
0.0
 11
8691.572253083471
 21
1074.229384418029
 31
0.0
  0
LINE
  5
23AAC
330
747D
100
AcDbEntity
  8
細線
 48
50.0
100
AcDbLine
 10
8411.285943434064
 20
1178.229384418029
 30
0.0
 11
8404.855162815719
 21
1202.229384418029
 31
0.0
  0
LINE
  5
23AAD
330
747D
100
AcDbEntity
  8
細線
 48
50.0
100
AcDbLine
 10
8332.397898486819
 20
1178.229384418029
 30
0.0
 11
8325.967117868472
 21
1202.229384418029
 31
0.0
  0
LINE
  5
23AAE
330
747D
100
AcDbEntity
  8
細線
 48
50.0
100
AcDbLine
 10
8174.621808592325
 20
1178.229384418029
 30
0.0
 11
8168.19102797398
 21
1202.229384418029
 31
0.0
  0
LINE
  5
23AAF
330
747D
100
AcDbEntity
  8
細線
 48
50.0
100
AcDbLine
 10
8253.509853539574
 20
1178.229384418029
 30
0.0
 11
8247.079072921223
 21
1202.229384418029
 31
0.0
  0
LINE
  5
23AB0
330
747D
100
AcDbEntity
  8
細線
 48
50.0
100
AcDbLine
 10
8310.96196309233
 20
1098.229384418029
 30
0.0
 11
8317.392743710675
 21
1074.229384418029
 31
0.0
  0
LINE
  5
23AB1
330
747D
100
AcDbEntity
  8
細線
 48
50.0
100
AcDbLine
 10
8389.850008039575
 20
1098.229384418029
 30
0.0
 11
8396.280788657922
 21
1074.229384418029
 31
0.0
  0
LINE
  5
23AB2
330
747D
100
AcDbEntity
  8
細線
 48
50.0
100
AcDbLine
 10
8153.185873197836
 20
1098.229384418029
 30
0.0
 11
8159.616653816184
 21
1074.229384418029
 31
0.0
  0
LINE
  5
23AB3
330
747D
100
AcDbEntity
  8
細線
 48
50.0
100
AcDbLine
 10
8232.073918145085
 20
1098.229384418029
 30
0.0
 11
8238.504698763431
 21
1074.229384418029
 31
0.0
  0
LINE
  5
23AB4
330
747D
100
AcDbEntity
  8
細線
 48
50.0
100
AcDbLine
 10
8383.419227421221
 20
1074.229384418029
 30
0.0
 11
8417.716724052407
 21
1202.229384418028
 31
0.0
  0
LINE
  5
23AB5
330
747D
100
AcDbEntity
  8
細線
 48
50.0
100
AcDbLine
 10
8225.643137526731
 20
1074.229384418029
 30
0.0
 11
8259.940634157917
 21
1202.229384418028
 31
0.0
  0
LINE
  5
23AB6
330
747D
100
AcDbEntity
  8
細線
 48
50.0
100
AcDbLine
 10
8146.755092579486
 20
1074.229384418029
 30
0.0
 11
8181.052589210668
 21
1202.229384418029
 31
0.0
  0
LINE
  5
23AB7
330
747D
100
AcDbEntity
  8
細線
 48
50.0
100
AcDbLine
 10
8304.531182473979
 20
1074.229384418027
 30
0.0
 11
8338.82867910516
 21
1202.229384418028
 31
0.0
  0
LINE
  5
23AB8
330
747D
100
AcDbEntity
  8
細線
 48
50.0
100
AcDbLine
 10
8429.303948038279
 20
1202.229384418029
 30
0.0
 11
8611.572253083469
 21
1384.497689463225
 31
0.0
  0
LINE
  5
23AB9
330
747D
100
AcDbEntity
  8
部品1
 48
50.0
100
AcDbLine
 10
8611.572253083469
 20
1442.229384418029
 30
0.0
 11
8611.572253083469
 21
1202.229384418029
 31
0.0
  0
LINE
  5
23ABA
330
747D
100
AcDbEntity
  8
細線
 48
50.0
100
AcDbLine
 10
8402.363179675075
 20
1202.229384418029
 30
0.0
 11
8611.572253083469
 21
1411.438457826422
 31
0.0
  0
LINE
  5
23ABB
330
747D
100
AcDbEntity
  8
細線
 48
50.0
100
AcDbLine
 10
8375.422411311863
 20
1202.229384418029
 30
0.0
 11
8611.572253083469
 21
1438.379226189638
 31
0.0
  0
LINE
  5
23ABC
330
747D
100
AcDbEntity
  8
細線
 48
50.0
100
AcDbLine
 10
8159.896264406205
 20
1202.229384418029
 30
0.0
 11
8483.572253083469
 21
1525.905373095296
 31
0.0
  0
LINE
  5
23ABD
330
747D
100
AcDbEntity
  8
細線
 48
50.0
100
AcDbLine
 10
8213.77780113262
 20
1202.229384418029
 30
0.0
 11
8483.572253083469
 21
1472.023836368887
 31
0.0
  0
LINE
  5
23ABE
330
747D
100
AcDbEntity
  8
細線
 48
50.0
100
AcDbLine
 10
8186.837032769416
 20
1202.229384418029
 30
0.0
 11
8483.572253083469
 21
1498.964604732082
 31
0.0
  0
LINE
  5
23ABF
330
747D
100
AcDbEntity
  8
細線
 48
50.0
100
AcDbLine
 10
7941.572253083466
 20
1414.957666906615
 30
0.0
 11
7968.843970594885
 21
1442.229384418029
 31
0.0
  0
LINE
  5
23AC0
330
747D
100
AcDbEntity
  8
部品1
 48
50.0
100
AcDbLine
 10
7941.57225308347
 20
1442.229384418029
 30
0.0
 11
8069.572253083469
 21
1442.229384418029
 31
0.0
  0
LINE
  5
23AC1
330
747D
100
AcDbEntity
  8
細線
 48
50.0
100
AcDbLine
 10
7941.572253083466
 20
1388.016898543405
 30
0.0
 11
7995.784738958093
 21
1442.229384418029
 31
0.0
  0
LWPOLYLINE
  5
23AC2
330
747D
100
AcDbEntity
  8
部品1
 48
50.0
100
AcDbPolyline
 90
        2
 70
     0
 43
8.0
 10
7655.432351250514
 20
1746.22938441803
 10
8069.572253083469
 20
1746.22938441803
  0
LINE
  5
23AC3
330
747D
100
AcDbEntity
  8
細線
 48
50.0
100
AcDbLine
 10
8016.845718697824
 20
1178.229384418029
 30
0.0
 11
8010.414938079476
 21
1202.229384418029
 31
0.0
  0
LINE
  5
23AC4
330
747D
100
AcDbEntity
  8
細線
 48
50.0
100
AcDbLine
 10
8095.733763645075
 20
1178.229384418029
 30
0.0
 11
8089.302983026726
 21
1202.229384418029
 31
0.0
  0
LINE
  5
23AC5
330
747D
100
AcDbEntity
  8
細線
 48
50.0
100
AcDbLine
 10
7937.957673750571
 20
1178.229384418029
 30
0.0
 11
7931.526893132225
 21
1202.229384418029
 31
0.0
  0
LINE
  5
23AC6
330
747D
100
AcDbEntity
  8
細線
 48
50.0
100
AcDbLine
 10
7861.572253083469
 20
1187.569305383809
 30
0.0
 11
7865.500409421665
 21
1202.229384418029
 31
0.0
  0
LINE
  5
23AC7
330
747D
100
AcDbEntity
  8
細線
 48
50.0
100
AcDbLine
 10
7995.409783303334
 20
1098.229384418029
 30
0.0
 11
8001.84056392168
 21
1074.229384418029
 31
0.0
  0
LINE
  5
23AC8
330
747D
100
AcDbEntity
  8
細線
 48
50.0
100
AcDbLine
 10
8074.297828250585
 20
1098.229384418029
 30
0.0
 11
8080.728608868934
 21
1074.229384418029
 31
0.0
  0
LINE
  5
23AC9
330
747D
100
AcDbEntity
  8
細線
 48
50.0
100
AcDbLine
 10
7916.521738356083
 20
1098.229384418029
 30
0.0
 11
7922.952518974428
 21
1074.229384418029
 31
0.0
  0
LINE
  5
23ACA
330
747D
100
AcDbEntity
  8
細線
 48
50.0
100
AcDbLine
 10
8067.867047632233
 20
1074.229384418027
 30
0.0
 11
8102.164544263414
 21
1202.229384418028
 31
0.0
  0
LINE
  5
23ACB
330
747D
100
AcDbEntity
  8
細線
 48
50.0
100
AcDbLine
 10
7910.090957737729
 20
1074.229384418027
 30
0.0
 11
7944.388454368912
 21
1202.229384418028
 31
0.0
  0
LINE
  5
23ACC
330
747D
100
AcDbEntity
  8
部品1
 48
50.0
100
AcDbLine
 10
7861.572253083473
 20
1074.229384418029
 30
0.0
 11
7861.572253083473
 21
1202.229384418029
 31
0.0
  0
LINE
  5
23ACD
330
747D
100
AcDbEntity
  8
細線
 48
50.0
100
AcDbLine
 10
7988.979002684986
 20
1074.229384418029
 30
0.0
 11
8023.276499316169
 21
1202.229384418029
 31
0.0
  0
LINE
  5
23ACE
330
747D
100
AcDbEntity
  8
部品1
 48
50.0
100
AcDbLine
 10
7941.57225308347
 20
1202.229384418029
 30
0.0
 11
7941.57225308347
 21
1442.229384418029
 31
0.0
  0
LINE
  5
23ACF
330
747D
100
AcDbEntity
  8
細線
 48
50.0
100
AcDbLine
 10
7941.572253083466
 20
1361.0761301802
 30
0.0
 11
8022.725507321299
 21
1442.229384418029
 31
0.0
  0
LINE
  5
23AD0
330
747D
100
AcDbEntity
  8
部品1
 48
50.0
100
AcDbLine
 10
8691.572253083471
 20
1074.229384418029
 30
0.0
 11
7861.572253083473
 21
1074.229384418029
 31
0.0
  0
LINE
  5
23AD1
330
747D
100
AcDbEntity
  8
部品1
 48
50.0
100
AcDbLine
 10
8691.572253083471
 20
1202.229384418029
 30
0.0
 11
7861.572253083473
 21
1202.229384418029
 31
0.0
  0
LINE
  5
23AD2
330
747D
100
AcDbEntity
  8
細線
 48
50.0
100
AcDbLine
 10
7944.370117500546
 20
1202.229384418029
 30
0.0
 11
8483.572253083469
 21
1741.431520000955
 31
0.0
  0
LINE
  5
23AD3
330
747D
100
AcDbEntity
  8
細線
 48
50.0
100
AcDbLine
 10
7971.310885863754
 20
1202.229384418029
 30
0.0
 11
8483.572253083471
 21
1714.490751637743
 31
0.0
  0
LINE
  5
23AD4
330
747D
100
AcDbEntity
  8
細線
 48
50.0
100
AcDbLine
 10
7998.251654226959
 20
1202.229384418029
 30
0.0
 11
8483.572253083469
 21
1687.549983274537
 31
0.0
  0
LINE
  5
23AD5
330
747D
100
AcDbEntity
  8
細線
 48
50.0
100
AcDbLine
 10
8069.572253083469
 20
1542.957666906615
 30
0.0
 11
8227.972253083462
 21
1701.35766690661
 31
0.0
  0
LINE
  5
23AD6
330
747D
100
AcDbEntity
  8
細線
 48
50.0
100
AcDbLine
 10
8069.572253083469
 20
1489.0761301802
 30
0.0
 11
8242.725507321306
 21
1662.229384418028
 31
0.0
  0
LINE
  5
23AD7
330
747D
100
AcDbEntity
  8
細線
 48
50.0
100
AcDbLine
 10
8069.572253083469
 20
1516.016898543407
 30
0.0
 11
8227.972253083462
 21
1674.416898543396
 31
0.0
  0
LINE
  5
23AD8
330
747D
100
AcDbEntity
  8
部品1
100
AcDbLine
 10
8227.972253083462
 20
1662.229384418029
 30
0.0
 11
8227.97225308347
 21
1986.229384418029
 31
0.0
  0
LINE
  5
23AD9
330
747D
100
AcDbEntity
  8
部品1
100
AcDbLine
 10
8353.972253083469
 20
1662.229384418029
 30
0.0
 11
8353.972253083469
 21
1986.229384418029
 31
0.0
  0
LINE
  5
23ADA
330
747D
100
AcDbEntity
  8
細線
 48
50.0
100
AcDbLine
 10
8353.972253083469
 20
1800.4168985434
 30
0.0
 11
8483.572253083469
 21
1930.016898543397
 31
0.0
  0
LINE
  5
23ADB
330
747D
100
AcDbEntity
  8
細線
 48
50.0
100
AcDbLine
 10
8353.972253083469
 20
1773.476130180188
 30
0.0
 11
8483.572253083469
 21
1903.076130180179
 31
0.0
  0
LINE
  5
23ADC
330
747D
100
AcDbEntity
  8
部品1
100
AcDbLine
 10
8281.97225308347
 20
1761.22938441803
 30
0.0
 11
8281.972253083466
 21
2035.38938441803
 31
0.0
  0
LINE
  5
23ADD
330
747D
100
AcDbEntity
  8
部品1
100
AcDbLine
 10
8299.97225308347
 20
1761.22938441803
 30
0.0
 11
8299.972253083465
 21
2035.38938441803
 31
0.0
  0
TEXT
  5
23ADE
330
747D
100
AcDbEntity
  8
部品1
 48
50.0
100
AcDbText
 10
7655.432351250514
 20
1757.468376701285
 30
0.0
 40
80.0
  1
▽G.L
  7
STYLE2
100
AcDbText
  0
LINE
  5
23ADF
330
747D
100
AcDbEntity
  8
細線
 48
50.0
100
AcDbLine
 10
8069.572253083469
 20
1704.60227708586
 30
0.0
 11
8227.972253083466
 21
1863.002277085852
 31
0.0
  0
LINE
  5
23AE0
330
747D
100
AcDbEntity
  8
細線
 48
50.0
100
AcDbLine
 10
8069.572253083469
 20
1731.543045449067
 30
0.0
 11
8227.97225308347
 21
1889.943045449065
 31
0.0
  0
LINE
  5
23AE1
330
747D
100
AcDbEntity
  8
細線
 48
50.0
100
AcDbLine
 10
8069.572253083469
 20
1758.483813812275
 30
0.0
 11
8227.97225308347
 21
1916.883813812272
 31
0.0
  0
LINE
  5
23AE2
330
747D
100
AcDbEntity
  8
部品1
 48
50.0
100
AcDbLine
 10
8069.572253083469
 20
1442.229384418029
 30
0.0
 11
8069.572253083469
 21
1986.229384418029
 31
0.0
  0
LINE
  5
23AE3
330
747D
100
AcDbEntity
  8
部品1
100
AcDbLine
 10
8483.572253083469
 20
1442.229384418029
 30
0.0
 11
8483.572253083469
 21
1986.229384418029
 31
0.0
  0
LINE
  5
23AE4
330
747D
100
AcDbEntity
  8
細線
 48
50.0
100
AcDbLine
 10
8353.972253083469
 20
1827.357666906618
 30
0.0
 11
8483.572253083469
 21
1956.957666906616
 31
0.0
  0
LINE
  5
23AE5
330
747D
100
AcDbEntity
  8
細線
 48
50.0
100
AcDbLine
 10
6478.025362408747
 20
1866.976236314745
 30
0.0
 11
6561.532939906277
 21
1950.483813812275
 31
0.0
  0
LINE
  5
23AE6
330
747D
100
AcDbEntity
  8
細線
 48
50.0
100
AcDbLine
 10
6489.085647172263
 20
1851.095752715051
 30
0.0
 11
6561.532939906277
 21
1923.543045449067
 31
0.0
  0
LINE
  5
23AE7
330
747D
100
AcDbEntity
  8
細線
 48
50.0
100
AcDbLine
 10
6369.532939906276
 20
1974.009960717934
 30
0.0
 11
6381.752363606372
 21
1986.229384418029
 31
0.0
  0
LINE
  5
23AE8
330
747D
100
AcDbEntity
  8
細線
 48
50.0
100
AcDbLine
 10
6369.532939906276
 20
1920.128423991519
 30
0.0
 11
6435.633900332786
 21
1986.229384418029
 31
0.0
  0
LINE
  5
23AE9
330
747D
100
AcDbEntity
  8
細線
 48
50.0
100
AcDbLine
 10
6369.532939906276
 20
1947.069192354727
 30
0.0
 11
6408.693131969581
 21
1986.229384418029
 31
0.0
  0
LINE
  5
23AEA
330
747D
100
AcDbEntity
  8
部品1
 48
50.0
100
AcDbLine
 10
6369.532939906276
 20
1986.229384418029
 30
0.0
 11
6561.532939906277
 21
1986.229384418029
 31
0.0
  0
DIMENSION
  5
23AEB
330
747D
100
AcDbEntity
  8
寸法
 48
50.0
100
AcDbDimension
  2
*D49
 10
6369.532939906275
 20
2405.89719233441
 30
0.0
 11
6465.532939906276
 21
2405.89719233441
 31
0.0
 70
   160
  1
120\P200\P280
 71
     5
 42
192.0
  3
INABA_S40G
100
AcDbAlignedDimension
 13
6561.532939906276
 23
1986.229384418029
 33
0.0
 14
6369.532939906275
 24
1986.229384418029
 34
0.0
100
AcDbRotatedDimension
1001
ACAD
1000
DSTYLE
1002
{
1070
   341
1005
0
1002
}
  0
MTEXT
  5
23AEC
102
{ACAD_REACTORS
330
23B41
102
}
330
747D
100
AcDbEntity
  8
寸法
 62
     7
 48
50.0
100
AcDbMText
 10
6803.271395767527
 20
1024.880298685876
 30
0.0
 40
80.0
 41
0.8
 71
     4
 72
     1
  1
\A1;D10@300
  7
STYLE2
 73
     1
 44
1.0
1001
ACAD
1000
MTEXTBEGIN
1070
    73
1070
     1
1070
    44
1040
1.0
1070
    74
1070
     0
1000
MTEXTEND
  0
LINE
  5
23AED
330
747D
100
AcDbEntity
  8
細線
 48
50.0
100
AcDbLine
 10
6489.532939906282
 20
1636.01689854341
 30
0.0
 11
6561.532939906268
 21
1708.016898543405
 31
0.0
  0
LINE
  5
23AEE
330
747D
100
AcDbEntity
  8
細線
 48
50.0
100
AcDbLine
 10
6489.532939906277
 20
1662.957666906615
 30
0.0
 11
6561.532939906277
 21
1734.957666906615
 31
0.0
  0
LINE
  5
23AEF
330
747D
100
AcDbEntity
  8
細線
 48
50.0
100
AcDbLine
 10
6489.532939906282
 20
1393.549983274541
 30
0.0
 11
6561.532939906268
 21
1465.549983274541
 31
0.0
  0
LINE
  5
23AF0
330
747D
100
AcDbEntity
  8
細線
 48
50.0
100
AcDbLine
 10
6489.532939906282
 20
1447.431520000958
 30
0.0
 11
6561.532939906268
 21
1519.431520000955
 31
0.0
  0
LINE
  5
23AF1
330
747D
100
AcDbEntity
  8
細線
 48
50.0
100
AcDbLine
 10
6489.532939906282
 20
1420.490751637751
 30
0.0
 11
6561.532939906268
 21
1492.490751637745
 31
0.0
  0
LINE
  5
23AF2
330
747D
100
AcDbEntity
  8
部品1
 48
50.0
100
AcDbLine
 10
6561.532939906277
 20
1442.229384418029
 30
0.0
 11
6689.532939906277
 21
1442.229384418029
 31
0.0
  0
LINE
  5
23AF3
330
747D
100
AcDbEntity
  8
細線
 48
50.0
100
AcDbLine
 10
6489.532939906282
 20
1609.0761301802
 30
0.0
 11
6561.532939906268
 21
1681.0761301802
 31
0.0
  0
LINE
  5
23AF4
330
747D
100
AcDbEntity
  8
部品1
 48
50.0
100
AcDbLine
 10
6457.532939906276
 20
1788.356599115151
 30
0.0
 11
6457.532939906276
 21
1846.483813812275
 31
0.0
  0
LINE
  5
23AF5
330
747D
100
AcDbEntity
  8
細線
 48
50.0
100
AcDbLine
 10
6369.532939906276
 20
1758.483813812275
 30
0.0
 11
6441.532939906277
 21
1830.483813812275
 31
0.0
  0
LINE
  5
23AF6
330
747D
100
AcDbEntity
  8
部品1
 48
50.0
100
AcDbLine
 10
6441.532939906277
 20
1788.356599115155
 30
0.0
 11
6441.532939906277
 21
1846.483813812275
 31
0.0
  0
LINE
  5
23AF7
330
747D
100
AcDbEntity
  8
細線
 48
50.0
100
AcDbLine
 10
6369.532939906276
 20
1731.543045449067
 30
0.0
 11
6441.532939906277
 21
1803.543045449067
 31
0.0
  0
LINE
  5
23AF8
330
747D
100
AcDbEntity
  8
細線
 48
50.0
100
AcDbLine
 10
6369.532939906276
 20
1704.60227708586
 30
0.0
 11
6453.28726193557
 21
1788.356599115151
 31
0.0
  0
LINE
  5
23AF9
330
747D
100
AcDbEntity
  8
部品1
 48
50.0
100
AcDbLine
 10
6457.532939906276
 20
1788.356599115151
 30
0.0
 11
6441.532939906277
 21
1788.356599115155
 31
0.0
  0
LINE
  5
23AFA
330
747D
100
AcDbEntity
  8
細線
 48
50.0
100
AcDbLine
 10
6241.532939906269
 20
1414.957666906615
 30
0.0
 11
6268.804657417691
 21
1442.229384418029
 31
0.0
  0
LINE
  5
23AFB
330
747D
100
AcDbEntity
  8
細線
 48
50.0
100
AcDbLine
 10
6241.532939906269
 20
1388.016898543405
 30
0.0
 11
6295.745425780901
 21
1442.229384418029
 31
0.0
  0
LINE
  5
23AFC
330
747D
100
AcDbEntity
  8
部品1
 48
50.0
100
AcDbLine
 10
6241.532939906277
 20
1442.229384418029
 30
0.0
 11
6369.532939906276
 21
1442.229384418029
 31
0.0
  0
LINE
  5
23AFD
330
747D
100
AcDbEntity
  8
細線
 48
50.0
100
AcDbLine
 10
6457.532939906276
 20
1819.543045449067
 30
0.0
 11
6473.532939906276
 21
1835.543045449067
 31
0.0
  0
LINE
  5
23AFE
330
747D
100
AcDbEntity
  8
細線
 48
50.0
100
AcDbLine
 10
6457.532939906276
 20
1792.60227708586
 30
0.0
 11
6473.532939906276
 21
1808.60227708586
 31
0.0
  0
LINE
  5
23AFF
330
747D
100
AcDbEntity
  8
細線
 48
50.0
100
AcDbLine
 10
6369.532939906276
 20
1489.0761301802
 30
0.0
 11
6473.532939906282
 21
1593.0761301802
 31
0.0
  0
LINE
  5
23B00
330
747D
100
AcDbEntity
  8
細線
 48
50.0
100
AcDbLine
 10
6369.532939906276
 20
1542.957666906615
 30
0.0
 11
6473.532939906276
 21
1646.957666906615
 31
0.0
  0
LINE
  5
23B01
330
747D
100
AcDbEntity
  8
細線
 48
50.0
100
AcDbLine
 10
6369.532939906276
 20
1516.016898543407
 30
0.0
 11
6473.532939906282
 21
1620.01689854341
 31
0.0
  0
LINE
  5
23B02
330
747D
100
AcDbEntity
  8
細線
 48
50.0
100
AcDbLine
 10
6632.358585309623
 20
1178.229384418029
 30
0.0
 11
6625.927804691278
 21
1202.229384418029
 31
0.0
  0
LINE
  5
23B03
330
747D
100
AcDbEntity
  8
細線
 48
50.0
100
AcDbLine
 10
6675.38309813467
 20
1202.229384418029
 30
0.0
 11
6689.532939906277
 21
1216.379226189636
 31
0.0
  0
LINE
  5
23B04
330
747D
100
AcDbEntity
  8
細線
 48
50.0
100
AcDbLine
 10
6711.24663025687
 20
1178.229384418029
 30
0.0
 11
6704.815849638523
 21
1202.229384418029
 31
0.0
  0
LINE
  5
23B05
330
747D
100
AcDbEntity
  8
部品1
 48
50.0
100
AcDbLine
 10
6633.532939906277
 20
1314.229384418029
 30
0.0
 11
6633.532939906277
 21
1298.229384418029
 31
0.0
  0
LINE
  5
23B06
330
747D
100
AcDbEntity
  8
細線
 48
50.0
100
AcDbLine
 10
6513.738487955423
 20
1202.229384418029
 30
0.0
 11
6609.739375800561
 21
1298.230272263168
 31
0.0
  0
LINE
  5
23B07
330
747D
100
AcDbEntity
  8
細線
 48
50.0
100
AcDbLine
 10
6486.797719592221
 20
1202.229384418029
 30
0.0
 11
6582.79771959222
 21
1298.229384418029
 31
0.0
  0
LINE
  5
23B08
330
747D
100
AcDbEntity
  8
細線
 48
50.0
100
AcDbLine
 10
6553.470540362379
 20
1178.229384418029
 30
0.0
 11
6547.039759744032
 21
1202.229384418029
 31
0.0
  0
LINE
  5
23B09
330
747D
100
AcDbEntity
  8
細線
 48
50.0
100
AcDbLine
 10
6474.582495415133
 20
1178.229384418029
 30
0.0
 11
6468.151714796785
 21
1202.229384418029
 31
0.0
  0
ARC
  5
23B0A
330
747D
100
AcDbEntity
  8
部品1
 48
50.0
100
AcDbCircle
 10
6465.532939906276
 20
1322.229384418029
 30
0.0
 40
24.0
100
AcDbArc
 50
340.5287793655287
 51
0.0
  0
CIRCLE
  5
23B0B
330
747D
100
AcDbEntity
  8
部品1
 48
50.0
100
AcDbCircle
 10
6593.532939906276
 20
1322.229384418029
 30
0.0
 40
8.0
  0
LINE
  5
23B0C
330
747D
100
AcDbEntity
  8
細線
 48
50.0
100
AcDbLine
 10
6625.738487955423
 20
1314.229384418029
 30
0.0
 11
6689.532939906277
 21
1378.02383636888
 31
0.0
  0
LINE
  5
23B0D
330
747D
100
AcDbEntity
  8
細線
 48
50.0
100
AcDbLine
 10
6762.26795919128
 20
1074.229384418027
 30
0.0
 11
6769.532939906277
 21
1101.342661562418
 31
0.0
  0
LINE
  5
23B0E
330
747D
100
AcDbEntity
  8
細線
 48
50.0
100
AcDbLine
 10
6768.698739809629
 20
1098.229384418029
 30
0.0
 11
6769.532939906277
 21
1095.116107273665
 31
0.0
  0
LINE
  5
23B0F
330
747D
100
AcDbEntity
  8
細線
 48
50.0
100
AcDbLine
 10
6689.810694862382
 20
1098.229384418029
 30
0.0
 11
6696.24147548073
 21
1074.229384418029
 31
0.0
  0
LINE
  5
23B10
330
747D
100
AcDbEntity
  8
細線
 48
50.0
100
AcDbLine
 10
6532.034604967889
 20
1098.229384418029
 30
0.0
 11
6538.465385586235
 21
1074.229384418029
 31
0.0
  0
LINE
  5
23B11
330
747D
100
AcDbEntity
  8
細線
 48
50.0
100
AcDbLine
 10
6610.922649915135
 20
1098.229384418029
 30
0.0
 11
6617.353430533483
 21
1074.229384418029
 31
0.0
  0
LINE
  5
23B12
330
747D
100
AcDbEntity
  8
細線
 48
50.0
100
AcDbLine
 10
6604.491869296785
 20
1074.229384418027
 30
0.0
 11
6638.789365927969
 21
1202.229384418028
 31
0.0
  0
LINE
  5
23B13
330
747D
100
AcDbEntity
  8
細線
 48
50.0
100
AcDbLine
 10
6525.603824349535
 20
1074.229384418029
 30
0.0
 11
6559.901320980722
 21
1202.229384418028
 31
0.0
  0
LINE
  5
23B14
330
747D
100
AcDbEntity
  8
細線
 48
50.0
100
AcDbLine
 10
6683.37991424403
 20
1074.229384418029
 30
0.0
 11
6717.677410875215
 21
1202.229384418028
 31
0.0
  0
LINE
  5
23B15
330
747D
100
AcDbEntity
  8
部品1
 48
50.0
100
AcDbLine
 10
6769.53293990628
 20
1202.229384418029
 30
0.0
 11
6769.53293990628
 21
1074.229384418029
 31
0.0
  0
LINE
  5
23B16
330
747D
100
AcDbEntity
  8
部品1
 48
50.0
100
AcDbLine
 10
6457.532939906276
 20
1380.356599115152
 30
0.0
 11
6457.532939906276
 21
1322.229384418029
 31
0.0
  0
LINE
  5
23B17
330
747D
100
AcDbEntity
  8
細線
 48
50.0
100
AcDbLine
 10
6383.27157268656
 20
1314.229384418029
 30
0.0
 11
6441.532939906277
 21
1372.490751637748
 31
0.0
  0
LINE
  5
23B18
330
747D
100
AcDbEntity
  8
部品1
 48
50.0
100
AcDbLine
 10
6441.532939906277
 20
1380.356599115152
 30
0.0
 11
6441.532939906277
 21
1322.229384418029
 31
0.0
  0
LINE
  5
23B19
330
747D
100
AcDbEntity
  8
細線
 48
50.0
100
AcDbLine
 10
6298.212341049765
 20
1202.229384418029
 30
0.0
 11
6394.212341049765
 21
1298.229384418029
 31
0.0
  0
LINE
  5
23B1A
330
747D
100
AcDbEntity
  8
細線
 48
50.0
100
AcDbLine
 10
6395.694450467881
 20
1178.229384418029
 30
0.0
 11
6389.263669849534
 21
1202.229384418029
 31
0.0
  0
LINE
  5
23B1B
330
747D
100
AcDbEntity
  8
細線
 48
50.0
100
AcDbLine
 10
6316.806405520628
 20
1178.229384418029
 30
0.0
 11
6310.375624902281
 21
1202.229384418029
 31
0.0
  0
ARC
  5
23B1C
330
747D
100
AcDbEntity
  8
部品1
 48
50.0
100
AcDbCircle
 10
6465.532939906276
 20
1322.229384418029
 30
0.0
 40
24.0
100
AcDbArc
 50
180.0
 51
199.4712206344713
  0
LINE
  5
23B1D
330
747D
100
AcDbEntity
  8
細線
 48
50.0
100
AcDbLine
 10
6410.212341049765
 20
1314.229384418029
 30
0.0
 11
6441.532939906277
 21
1345.549983274541
 31
0.0
  0
CIRCLE
  5
23B1E
330
747D
100
AcDbEntity
  8
部品1
 48
50.0
100
AcDbCircle
 10
6337.532939906277
 20
1322.229384418029
 30
0.0
 40
8.0
  0
LINE
  5
23B1F
330
747D
100
AcDbEntity
  8
部品1
 48
50.0
100
AcDbLine
 10
6457.532939906276
 20
1380.356599115152
 30
0.0
 11
6441.532939906277
 21
1380.356599115152
 31
0.0
  0
LINE
  5
23B20
330
747D
100
AcDbEntity
  8
細線
 48
50.0
100
AcDbLine
 10
6161.532939906276
 20
1187.569305383809
 30
0.0
 11
6165.461096244472
 21
1202.229384418029
 31
0.0
  0
LINE
  5
23B21
330
747D
100
AcDbEntity
  8
細線
 48
50.0
100
AcDbLine
 10
6237.918360573377
 20
1178.229384418029
 30
0.0
 11
6231.487579955029
 21
1202.229384418029
 31
0.0
  0
LINE
  5
23B22
330
747D
100
AcDbEntity
  8
部品1
 48
50.0
100
AcDbLine
 10
6297.532939906276
 20
1314.229384418029
 30
0.0
 11
6297.532939906276
 21
1298.229384418029
 31
0.0
  0
LINE
  5
23B23
330
747D
100
AcDbEntity
  8
細線
 48
50.0
100
AcDbLine
 10
6244.330804323349
 20
1202.229384418029
 30
0.0
 11
6340.330804323349
 21
1298.229384418029
 31
0.0
  0
LINE
  5
23B24
330
747D
100
AcDbEntity
  8
細線
 48
50.0
100
AcDbLine
 10
6271.27157268656
 20
1202.229384418029
 30
0.0
 11
6367.27157268656
 21
1298.229384418029
 31
0.0
  0
LINE
  5
23B25
330
747D
100
AcDbEntity
  8
細線
 48
50.0
100
AcDbLine
 10
6374.258515073392
 20
1098.229384418029
 30
0.0
 11
6380.689295691738
 21
1074.229384418029
 31
0.0
  0
LINE
  5
23B26
330
747D
100
AcDbEntity
  8
細線
 48
50.0
100
AcDbLine
 10
6453.146560020645
 20
1098.229384418029
 30
0.0
 11
6459.57734063899
 21
1074.229384418029
 31
0.0
  0
LINE
  5
23B27
330
747D
100
AcDbEntity
  8
細線
 48
50.0
100
AcDbLine
 10
6216.482425178888
 20
1098.229384418029
 30
0.0
 11
6222.913205797233
 21
1074.229384418029
 31
0.0
  0
LINE
  5
23B28
330
747D
100
AcDbEntity
  8
細線
 48
50.0
100
AcDbLine
 10
6295.370470126139
 20
1098.229384418029
 30
0.0
 11
6301.801250744486
 21
1074.229384418029
 31
0.0
  0
LINE
  5
23B29
330
747D
100
AcDbEntity
  8
部品1
 48
50.0
100
AcDbLine
 10
6161.532939906279
 20
1074.229384418029
 30
0.0
 11
6161.532939906279
 21
1202.229384418029
 31
0.0
  0
LINE
  5
23B2A
330
747D
100
AcDbEntity
  8
細線
 48
50.0
100
AcDbLine
 10
6210.051644560534
 20
1074.229384418027
 30
0.0
 11
6244.349141191718
 21
1202.229384418028
 31
0.0
  0
LINE
  5
23B2B
330
747D
100
AcDbEntity
  8
細線
 48
50.0
100
AcDbLine
 10
6367.827734455038
 20
1074.229384418027
 30
0.0
 11
6402.125231086221
 21
1202.229384418028
 31
0.0
  0
LINE
  5
23B2C
330
747D
100
AcDbEntity
  8
細線
 48
50.0
100
AcDbLine
 10
6288.939689507793
 20
1074.229384418029
 30
0.0
 11
6323.237186138976
 21
1202.229384418029
 31
0.0
  0
LINE
  5
23B2D
330
747D
100
AcDbEntity
  8
細線
 48
50.0
100
AcDbLine
 10
6459.85695122901
 20
1202.229384418029
 30
0.0
 11
6555.856951229009
 21
1298.229384418029
 31
0.0
  0
CIRCLE
  5
23B2E
330
747D
100
AcDbEntity
  8
部品1
 48
50.0
100
AcDbCircle
 10
6465.532939906276
 20
1322.229384418029
 30
0.0
 40
8.0
  0
LINE
  5
23B2F
330
747D
100
AcDbEntity
  8
部品1
 48
50.0
100
AcDbLine
 10
6769.53293990628
 20
1202.229384418029
 30
0.0
 11
6161.532939906279
 21
1202.229384418029
 31
0.0
  0
LINE
  5
23B30
330
747D
100
AcDbEntity
  8
部品1
 48
50.0
100
AcDbLine
 10
6297.532939906276
 20
1314.229384418029
 30
0.0
 11
6633.532939906277
 21
1314.229384418029
 31
0.0
  0
LINE
  5
23B31
330
747D
100
AcDbEntity
  8
部品1
 48
50.0
100
AcDbLine
 10
6297.532939906276
 20
1298.229384418029
 30
0.0
 11
6633.532939906277
 21
1298.229384418029
 31
0.0
  0
LINE
  5
23B32
330
747D
100
AcDbEntity
  8
部品1
 48
50.0
100
AcDbLine
 10
6769.53293990628
 20
1074.229384418029
 30
0.0
 11
6161.532939906279
 21
1074.229384418029
 31
0.0
  0
LINE
  5
23B33
330
747D
100
AcDbEntity
  8
細線
 48
50.0
100
AcDbLine
 10
6446.715779402291
 20
1074.229384418029
 30
0.0
 11
6481.013276033474
 21
1202.229384418029
 31
0.0
  0
LINE
  5
23B34
330
747D
100
AcDbEntity
  8
細線
 48
50.0
100
AcDbLine
 10
6457.532939906276
 20
1361.549983274541
 30
0.0
 11
6473.532939906282
 21
1377.549983274541
 31
0.0
  0
LINE
  5
23B35
330
747D
100
AcDbEntity
  8
部品1
 48
50.0
100
AcDbLine
 10
6473.532939906282
 20
1322.229384418029
 30
0.0
 11
6473.532939906269
 21
1846.483813812275
 31
0.0
  0
LINE
  5
23B36
330
747D
100
AcDbEntity
  8
部品1
 48
50.0
100
AcDbLine
 10
6489.532939906282
 20
1322.229384418029
 30
0.0
 11
6489.532939906277
 21
1846.483813812275
 31
0.0
  0
LINE
  5
23B37
330
747D
100
AcDbEntity
  8
部品1
 48
50.0
100
AcDbLine
 10
6689.532939906277
 20
1442.229384418029
 30
0.0
 11
6689.532939906277
 21
1202.229384418029
 31
0.0
  0
LINE
  5
23B38
330
747D
100
AcDbEntity
  8
細線
 48
50.0
100
AcDbLine
 10
6571.856951229005
 20
1314.229384418029
 30
0.0
 11
6689.532939906277
 21
1431.905373095295
 31
0.0
  0
LINE
  5
23B39
330
747D
100
AcDbEntity
  8
細線
 48
50.0
100
AcDbLine
 10
6598.797719592219
 20
1314.229384418029
 30
0.0
 11
6689.532939906277
 21
1404.964604732088
 31
0.0
  0
LINE
  5
23B3A
330
747D
100
AcDbEntity
  8
部品1
 48
50.0
100
AcDbLine
 10
6241.532939906277
 20
1202.229384418029
 30
0.0
 11
6241.532939906277
 21
1442.229384418029
 31
0.0
  0
LINE
  5
23B3B
330
747D
100
AcDbEntity
  8
細線
 48
50.0
100
AcDbLine
 10
6356.330804323349
 20
1314.229384418029
 30
0.0
 11
6473.532939906276
 21
1431.431520000955
 31
0.0
  0
LINE
  5
23B3C
330
747D
100
AcDbEntity
  8
細線
 48
50.0
100
AcDbLine
 10
6449.39878738368
 20
1380.356599115152
 30
0.0
 11
6473.532939906282
 21
1404.49075163775
 31
0.0
  0
LINE
  5
23B3D
330
747D
100
AcDbEntity
  8
細線
 48
50.0
100
AcDbLine
 10
6241.532939906269
 20
1361.0761301802
 30
0.0
 11
6322.686194144105
 21
1442.229384418029
 31
0.0
  0
LEADER
  5
23B3E
330
747D
100
AcDbEntity
  8
寸法
 48
50.0
100
AcDbLeader
  3
INABA_S50G
 71
     0
 73
     0
 74
     0
 75
     1
 40
100.0
 41
222.7272727272727
 76
     3
 10
6465.532939906276
 20
1846.483813812275
 30
0.0
 10
6519.41887693367
 20
1945.719386665449
 30
0.0
 10
6644.41887693367
 20
1945.719386665449
 30
0.0
1001
ACAD
1000
DSTYLE
1002
{
1070
    40
1040
1.0
1070
   272
1070
     1
1070
   279
1070
     1
1070
   341
1005
0
1002
}
  0
LWPOLYLINE
  5
23B3F
330
747D
100
AcDbEntity
  8
部品1
 48
50.0
100
AcDbPolyline
 90
        2
 70
     0
 43
8.0
 10
6561.532939906276
 20
1746.22938441803
 10
6975.672841739234
 20
1746.22938441803
  0
MTEXT
  5
23B40
102
{ACAD_REACTORS
330
23B42
102
}
330
747D
100
AcDbEntity
  8
寸法
 62
     7
 48
50.0
100
AcDbMText
 10
6792.860599712961
 20
1286.832315475057
 30
0.0
 40
80.0
 41
0.8
 71
     4
 72
     1
  1
D10
  7
STYLE2
 73
     1
 44
1.0
1001
ACAD
1000
MTEXTBEGIN
1070
    73
1070
     1
1070
    44
1040
1.0
1070
    74
1070
     0
1000
MTEXTEND
  0
LEADER
  5
23B41
330
747D
100
AcDbEntity
  8
寸法
 48
50.0
100
AcDbLeader
  3
INABA_S50G
 71
     0
 73
     0
 74
     0
 75
     1
 40
100.0
 41
540.3409090909091
 76
     3
 10
6539.478108919451
 20
1305.488854004504
 30
0.0
 10
6658.271395767527
 20
963.8580360096066
 30
0.0
 10
6783.271395767527
 20
963.8580360096066
 30
0.0
213
0.0
223
-1.022262676269383
233
0.0
1001
ACAD
1000
DSTYLE
1002
{
1070
    40
1040
1.0
1070
   272
1070
     1
1070
   279
1070
     1
1070
   341
1005
0
1002
}
  0
LEADER
  5
23B42
330
747D
100
AcDbEntity
  8
寸法
 48
50.0
100
AcDbLeader
  3
INABA_S50G
 71
     0
 73
     0
 74
     0
 75
     1
 40
100.0
 41
225.0
 76
     3
 10
6593.435892258419
 20
1322.229384418029
 30
0.0
 10
6647.86059971296
 20
1226.832315475057
 30
0.0
 10
6772.86059971296
 20
1226.832315475057
 30
0.0
1001
ACAD
1000
DSTYLE
1002
{
1070
    40
1040
1.0
1070
   272
1070
     1
1070
   279
1070
     1
1070
   341
1005
0
1002
}
  0
MTEXT
  5
23B43
102
{ACAD_REACTORS
330
23B3E
102
}
330
747D
100
AcDbEntity
  8
寸法
 62
     7
 48
50.0
100
AcDbMText
 10
6644.41887693367
 20
2008.785283710841
 30
0.0
 40
80.0
 41
0.8
 71
     4
 72
     1
  1
D13
  7
STYLE2
 73
     1
 44
1.0
1001
ACAD
1000
MTEXTBEGIN
1070
    73
1070
     1
1070
    44
1040
1.0
1070
    74
1070
     0
1000
MTEXTEND
  0
LINE
  5
23B44
330
747D
100
AcDbEntity
  8
部品1
 48
50.0
100
AcDbLine
 10
6561.532939906277
 20
1986.229384418029
 30
0.0
 11
6561.532939906277
 21
1442.229384418029
 31
0.0
  0
LINE
  5
23B45
330
747D
100
AcDbEntity
  8
部品1
 48
50.0
100
AcDbLine
 10
6369.532939906276
 20
1442.229384418029
 30
0.0
 11
6369.532939906276
 21
1986.229384418029
 31
0.0
  0
CIRCLE
  5
23B46
330
747D
100
AcDbEntity
  8
部品1
 48
50.0
100
AcDbCircle
 10
6465.532939906276
 20
1846.483813812275
 30
0.0
 40
8.0
  0
ARC
  5
23B47
330
747D
100
AcDbEntity
  8
部品1
 48
50.0
100
AcDbCircle
 10
6465.532939906276
 20
1846.483813812275
 30
0.0
 40
24.0
100
AcDbArc
 50
0.0
 51
180.0
  0
LINE
  5
23B48
330
747D
100
AcDbEntity
  8
細線
 48
50.0
100
AcDbLine
 10
6489.532939906277
 20
1824.60227708586
 30
0.0
 11
6561.532939906277
 21
1896.60227708586
 31
0.0
  0
LEADER
  5
23B49
330
747D
100
AcDbEntity
  8
寸法
 48
50.0
100
AcDbLeader
  3
INABA_S50G
 73
     0
 75
     1
 40
106.3636363636363
 41
893.1818181818181
 76
     3
 10
8200.972253083468
 20
2055.789384418031
 30
0.0
 10
8152.548180738531
 20
2429.848959134363
 30
0.0
 10
8027.548180738531
 20
2429.848959134363
 30
0.0
340
23B4A
1001
ACAD
1000
DSTYLE
1002
{
1070
   341
1005
0
1070
    40
1040
1.0
1070
   343
1005
0
1070
   344
1005
0
1002
}
  0
MTEXT
  5
23B4A
102
{ACAD_REACTORS
330
23B49
102
}
330
747D
100
AcDbEntity
  8
寸法
 62
     7
 48
50.0
100
AcDbMText
 10
8002.54818073853
 20
2508.030777316181
 30
0.0
 40
80.0
 41
0.8
 71
     6
 72
     1
  1
\A1;アンカープレート L
  7
STYLE2
 73
     1
 44
1.0
1001
ACAD
1000
MTEXTBEGIN
1070
    73
1070
     1
1070
    44
1040
1.0
1070
    74
1070
     0
1000
MTEXTEND
  0
DIMENSION
  5
23B4B
330
747D
100
AcDbEntity
  8
寸法
 48
50.0
100
AcDbDimension
  2
*D50
 10
6689.532939906276
 20
663.7997464128694
 30
0.0
 11
6445.436181228052
 21
663.7997464128694
 31
0.0
 70
   160
  1
300
 71
     5
 42
448.0
  3
INABA_S40G
100
AcDbAlignedDimension
 13
6241.532939906275
 23
1074.229384418029
 33
0.0
 14
6689.532939906276
 24
1074.229384418029
 34
0.0
100
AcDbRotatedDimension
1001
ACAD
1000
DSTYLE
1002
{
1070
   341
1005
0
1002
}
  0
MTEXT
  5
23B4C
102
{ACAD_REACTORS
330
23B54
102
}
330
747D
100
AcDbEntity
  8
寸法
 62
     7
 48
50.0
100
AcDbMText
 10
6070.597913711082
 20
1118.706690799593
 30
0.0
 40
80.0
 41
0.8
 71
     6
 72
     1
  1
D10
  7
STYLE2
 73
     1
 44
1.0
1001
ACAD
1000
MTEXTBEGIN
1070
    73
1070
     1
1070
    44
1040
1.0
1070
    74
1070
     0
1000
MTEXTEND
  0
MTEXT
  5
23B4D
102
{ACAD_REACTORS
330
23B53
102
}
330
747D
100
AcDbEntity
  8
寸法
 62
     7
 48
50.0
100
AcDbMText
 10
6098.720641268517
 20
938.3905382601497
 30
0.0
 40
80.0
 41
0.8
 71
     6
 72
     1
  1
D13
  7
STYLE2
 73
     1
 44
1.0
1001
ACAD
1000
MTEXTBEGIN
1070
    73
1070
     1
1070
    44
1040
1.0
1070
    74
1070
     0
1000
MTEXTEND
  0
DIMENSION
  5
23B4E
330
747D
100
AcDbEntity
  8
寸法
 48
50.0
100
AcDbDimension
  2
*D51
 10
5634.495701344536
 20
1202.229384418029
 30
0.0
 11
5634.495701344536
 21
1573.76953407403
 31
0.0
 70
   160
  1
540
 71
     5
 42
784.0
  3
INABA_S40G
100
AcDbAlignedDimension
 13
6369.532939906275
 23
1986.229384418029
 33
0.0
 14
6161.53293990628
 24
1202.229384418029
 34
0.0
 50
90.0
100
AcDbRotatedDimension
1001
ACAD
1000
DSTYLE
1002
{
1070
   341
1005
0
1002
}
  0
MTEXT
  5
23B4F
102
{ACAD_REACTORS
330
23B50
102
}
330
747D
100
AcDbEntity
  8
寸法
 62
     7
 48
50.0
100
AcDbMText
 10
6149.434460423003
 20
2198.745604420071
 30
0.0
 40
80.0
 41
0.8
 71
     6
 72
     1
  1
\A1;金コテ押エ
  7
STYLE2
 73
     1
 44
1.0
1001
ACAD
1000
MTEXTBEGIN
1070
    73
1070
     1
1070
    44
1040
1.0
1070
    74
1070
     0
1000
MTEXTEND
  0
LEADER
  5
23B50
330
747D
100
AcDbEntity
  8
寸法
 48
50.0
100
AcDbLeader
  3
INABA_S50G
 71
     0
 73
     0
 75
     1
 40
130.1136363636363
 41
651.1363636363636
 76
     3
 10
6449.532939906275
 20
1986.229384418029
 30
0.0
 10
6337.108359742259
 20
2126.700149874618
 30
0.0
 10
6212.108359742259
 20
2126.700149874618
 30
0.0
1001
ACAD
1000
DSTYLE
1002
{
1070
    40
1040
1.0
1070
   272
1070
     1
1070
   279
1070
     1
1070
   341
1005
0
1002
}
  0
LEADER
  5
23B51
330
747D
100
AcDbEntity
  8
寸法
 48
50.0
100
AcDbLeader
  3
INABA_S50G
 71
     0
 73
     0
 75
     1
 40
100.0
 41
540.3409090909091
 76
     3
 10
6473.532939906276
 20
1744.356599115153
 30
0.0
 10
6415.550703377578
 20
1522.886270574347
 30
0.0
 10
6290.550703377578
 20
1522.886270574347
 30
0.0
213
-9.732182305893367
223
-4.643716661138569
233
0.0
1001
ACAD
1000
DSTYLE
1002
{
1070
    40
1040
1.0
1070
   272
1070
     1
1070
   279
1070
     1
1070
   341
1005
0
1002
}
  0
MTEXT
  5
23B52
102
{ACAD_REACTORS
330
23B51
102
}
330
747D
100
AcDbEntity
  8
寸法
 62
     7
 48
50.0
100
AcDbMText
 10
6280.282885683472
 20
1587.529987235486
 30
0.0
 40
80.0
 41
0.8
 71
     6
 72
     1
  1
\A1;D10@300
  7
STYLE2
 73
     1
 44
1.0
1001
ACAD
1000
MTEXTBEGIN
1070
    73
1070
     1
1070
    44
1040
1.0
1070
    74
1070
     0
1000
MTEXTEND
  0
LEADER
  5
23B53
330
747D
100
AcDbEntity
  8
寸法
 48
50.0
100
AcDbLeader
  3
INABA_S50G
 71
     0
 73
     0
 75
     1
 40
100.0
 41
222.7272727272727
 76
     3
 10
6465.532939906276
 20
1322.229384418029
 30
0.0
 10
6243.720641268517
 20
878.3905382601497
 30
0.0
 10
6118.720641268517
 20
878.3905382601497
 30
0.0
1001
ACAD
1000
DSTYLE
1002
{
1070
    40
1040
1.0
1070
   272
1070
     1
1070
   279
1070
     1
1070
   341
1005
0
1002
}
  0
LEADER
  5
23B54
330
747D
100
AcDbEntity
  8
寸法
 48
50.0
100
AcDbLeader
  3
INABA_S50G
 71
     0
 73
     0
 75
     1
 40
100.0
 41
225.0
 76
     3
 10
6337.435892258419
 20
1322.229384418029
 30
0.0
 10
6215.597913711082
 20
1058.706690799593
 30
0.0
 10
6090.597913711082
 20
1058.706690799593
 30
0.0
1001
ACAD
1000
DSTYLE
1002
{
1070
    40
1040
1.0
1070
   272
1070
     1
1070
   279
1070
     1
1070
   341
1005
0
1002
}
  0
DIMENSION
  5
23B55
330
747D
100
AcDbEntity
  8
寸法
 48
50.0
100
AcDbDimension
  2
*D52
 10
6099.112626173816
 20
1202.229384418029
 30
0.0
 11
6099.112626173816
 21
1322.22938441803
 31
0.0
 70
   160
  1
150
 71
     5
 42
240.0
  3
INABA_S40G
100
AcDbAlignedDimension
 13
6241.532939906275
 23
1442.229384418029
 33
0.0
 14
6161.53293990628
 24
1202.229384418029
 34
0.0
 50
90.0
100
AcDbRotatedDimension
1001
ACAD
1000
DSTYLE
1002
{
1070
   341
1005
0
1002
}
  0
TEXT
  5
23B56
330
747D
100
AcDbEntity
  8
部品1
 48
50.0
100
AcDbText
 10
5955.393038073319
 20
1757.468376701285
 30
0.0
 40
80.0
  1
▽G.L
  7
STYLE2
100
AcDbText
  0
LWPOLYLINE
  5
23B57
330
747D
100
AcDbEntity
  8
部品1
 48
50.0
100
AcDbPolyline
 90
        2
 70
     0
 43
8.0
 10
5955.393038073319
 20
1746.22938441803
 10
6369.532939906275
 20
1746.22938441803
  0
MTEXT
  5
23B58
102
{ACAD_REACTORS
330
23B59
102
}
330
747D
100
AcDbEntity
  8
寸法
 62
     7
 48
50.0
100
AcDbMText
 10
7975.905174530172
 20
2868.715049223695
 30
0.0
 40
80.0
 41
0.8
 71
     6
 72
     1
  1
\A1;φ70スリーブ
  7
STYLE2
 73
     1
 44
1.0
1001
ACAD
1000
MTEXTBEGIN
1070
    73
1070
     1
1070
    44
1040
1.0
1070
    74
1070
     0
1000
MTEXTEND
  0
LEADER
  5
23B59
330
747D
100
AcDbEntity
  8
寸法
 48
50.0
100
AcDbLeader
  3
INABA_S50G
 73
     0
 75
     1
 40
113.1818181818182
 41
608.6363636363635
 76
     3
 10
8259.709003221521
 20
1935.745057776308
 30
0.0
 10
8125.905174530172
 20
2787.124140132786
 30
0.0
 10
8000.905174530172
 20
2787.124140132786
 30
0.0
340
23B58
1001
ACAD
1000
DSTYLE
1002
{
1070
   341
1005
0
1070
    40
1040
1.0
1070
   343
1005
0
1070
   344
1005
0
1002
}
  0
LINE
  5
23B5A
330
747D
100
AcDbEntity
  8
部品1
100
AcDbLine
 10
5298.864501097013
 20
3385.568051618615
 30
0.0
 11
5298.864501097015
 21
421.2610820339677
 31
0.0
  0
LEADER
  5
23B5B
330
747D
100
AcDbEntity
  8
寸法
 48
50.0
100
AcDbLeader
  3
INABA_S50G
 73
     0
 74
     0
 75
     1
 40
80.0
 41
435.0
 76
     3
 10
8299.97225308347
 20
2035.38938441803
 30
0.0
 10
8342.516715502789
 20
2185.612710571259
 30
0.0
 10
8467.516715502789
 20
2185.612710571259
 30
0.0
340
23B5C
1001
ACAD
1000
DSTYLE
1002
{
1070
   341
1005
0
1070
    40
1040
1.0
1070
   343
1005
0
1070
   344
1005
0
1002
}
  0
MTEXT
  5
23B5C
102
{ACAD_REACTORS
330
23B5B
102
}
330
747D
100
AcDbEntity
  8
部品1
 62
     7
 48
50.0
100
AcDbMText
 10
8492.516715502789
 20
2250.612710571259
 30
0.0
 40
80.0
 41
0.8
 71
     4
 72
     1
  1
M10X160
  7
STYLE2
 73
     1
 44
1.0
1001
ACAD
1000
MTEXTBEGIN
1070
    73
1070
     1
1070
    44
1040
1.0
1070
    74
1070
     0
1000
MTEXTEND
  0
DIMENSION
  5
23B5D
330
747D
100
AcDbEntity
  8
寸法
 48
50.0
100
AcDbDimension
  2
*D53
 10
9261.49551897134
 20
1986.229384418029
 30
0.0
 11
9261.49551897134
 21
1520.220480996547
 31
0.0
 70
   160
  1
20～25
 71
     5
 42
52.76000000000113
  3
INABA_S40G
100
AcDbAlignedDimension
 13
8296.372253083472
 23
2038.989384418031
 33
0.0
 14
8483.572253083469
 24
1986.229384418029
 34
0.0
 50
90.0
100
AcDbRotatedDimension
1001
ACAD
1000
DSTYLE
1002
{
1070
   341
1005
0
1002
}
  0
DIMENSION
  5
23B5E
330
747D
100
AcDbEntity
  8
寸法
 48
50.0
100
AcDbDimension
  2
*D54
 10
8985.440852852311
 20
1662.229384418028
 30
0.0
 11
8885.440852852312
 21
1824.22938441803
 31
0.0
 70
    32
  1
180
 71
     5
 42
324.0000000000009
  3
INABA_S40G
100
AcDbAlignedDimension
 13
8483.572253083469
 23
1986.229384418029
 33
0.0
 14
8483.572253083469
 24
1662.229384418028
 34
0.0
 50
90.0
100
AcDbRotatedDimension
1001
ACAD
1000
DSTYLE
1002
{
1070
   341
1005
0
1002
}
  0
TEXT
  5
23B5F
330
747D
100
AcDbEntity
  8
部品1
 48
50.0
100
AcDbText
 10
8487.925837367896
 20
2342.10806518023
 30
0.0
 40
80.0
  1
基礎ボルト(市販品)
  7
STYLE2
100
AcDbText
  0
LWPOLYLINE
  5
23B60
330
747D
100
AcDbEntity
  8
部品1
 48
50.0
100
AcDbPolyline
 90
        2
 70
     0
 43
8.0
 10
8483.572253083469
 20
1746.22938441803
 10
8777.274716482855
 20
1746.22938441803
  0
MTEXT
  5
23B61
102
{ACAD_REACTORS
330
23B62
102
}
330
747D
100
AcDbEntity
  8
部品1
 62
     7
 48
50.0
100
AcDbMText
 10
8522.843843452308
 20
2686.72475750529
 30
0.0
 40
80.0
 41
0.8
 71
     4
 72
     1
  1
\A1;ワッシャー(市販品)
  7
STYLE2
 73
     1
 44
1.0
1001
ACAD
1000
MTEXTBEGIN
1070
    73
1070
     1
1070
    44
1040
1.0
1070
    74
1070
     0
1000
MTEXTEND
  0
LEADER
  5
23B62
330
747D
100
AcDbEntity
  8
寸法
 48
50.0
100
AcDbLeader
  3
INABA_S50G
 73
     0
 74
     0
 75
     1
 40
102.2727272727273
 41
906.8181818181818
 76
     3
 10
8330.972253083471
 20
2255.35267286231
 30
0.0
 10
8372.843843452308
 20
2610.588393868926
 30
0.0
 10
8497.843843452308
 20
2610.588393868926
 30
0.0
340
23B61
1001
ACAD
1000
DSTYLE
1002
{
1070
   341
1005
0
1070
    40
1040
1.0
1070
   343
1005
0
1070
   344
1005
0
1002
}
  0
MTEXT
  5
23B63
102
{ACAD_REACTORS
330
23B64
102
}
330
747D
100
AcDbEntity
  8
部品1
 62
     7
 48
50.0
100
AcDbMText
 10
8491.326224196825
 20
2871.693840270078
 30
0.0
 40
80.0
 41
0.8
 71
     4
 72
     1
  1
\A1;ナット(市販品)
  7
STYLE2
 73
     1
 44
1.0
1001
ACAD
1000
MTEXTBEGIN
1070
    73
1070
     1
1070
    44
1040
1.0
1070
    74
1070
     0
1000
MTEXTEND
  0
LEADER
  5
23B64
330
747D
100
AcDbEntity
  8
寸法
 48
50.0
100
AcDbLeader
  3
INABA_S50G
 73
     0
 74
     0
 75
     1
 40
102.2727272727273
 41
680.0000000000001
 76
     3
 10
8306.97225308347
 20
2385.104665527172
 30
0.0
 10
8341.326224196825
 20
2795.557476633713
 30
0.0
 10
8466.326224196825
 20
2795.557476633713
 30
0.0
340
23B63
1001
ACAD
1000
DSTYLE
1002
{
1070
   341
1005
0
1070
    40
1040
1.0
1070
   343
1005
0
1070
   344
1005
0
1002
}
  0
LINE
  5
23B65
330
747D
100
AcDbEntity
  8
部品1
100
AcDbLine
 10
5298.864501097017
 20
421.2610820339677
 30
0.0
 11
11369.84968648326
 21
421.2610820339677
 31
0.0
  0
LINE
  5
23B66
330
747D
100
AcDbEntity
  8
部品1
100
AcDbLine
 10
11369.84968648326
 20
3145.568051618613
 30
0.0
 11
5298.864501097015
 21
3145.568051618613
 31
0.0
  0
LINE
  5
23B67
330
747D
100
AcDbEntity
  8
部品1
100
AcDbLine
 10
11369.84968648326
 20
3385.568051618615
 30
0.0
 11
5298.864501097011
 21
3385.568051618615
 31
0.0
  0
LINE
  5
23C22
330
747D
100
AcDbEntity
  8
部品1
 48
50.0
100
AcDbLine
 10
8928.600000000001
 20
6463.596167288958
 30
0.0
 11
8928.600000000001
 21
7523.596167288942
 31
0.0
  0
LINE
  5
23C23
330
747D
100
AcDbEntity
  8
部品1
 48
50.0
100
AcDbLine
 10
7518.600000000001
 20
6463.596167288939
 30
0.0
 11
7518.599999999996
 21
7523.59616728894
 31
0.0
  0
ENDSEC
  0
SECTION
  2
OBJECTS
  0
DICTIONARY
  5
7471
330
0
100
AcDbDictionary
281
     1
  3
ACAD_COLOR
350
173D2
  3
ACAD_GROUP
350
7472
  3
ACAD_LAYOUT
350
173D3
  3
ACAD_MATERIAL
350
173D1
  3
ACAD_MLINESTYLE
350
7473
  3
ACAD_PLOTSETTINGS
350
173D4
  3
ACAD_PLOTSTYLENAME
350
173CF
  3
ACDBHEADERROUNDTRIPXREC
350
23C43
  3
AcDbVariableDictionary
350
237FC
  3
CONTENTDICTIONARY
350
E71C
  3
DRAWINGVARIABLESDICT
350
F3B9
  0
DICTIONARY
  5
1758F
330
7467
100
AcDbDictionary
280
     1
281
     1
  3
ACAD_LAYERSTATES
360
17590
  0
DICTIONARY
  5
173D2
102
{ACAD_REACTORS
330
7471
102
}
330
7471
100
AcDbDictionary
281
     1
  0
DICTIONARY
  5
7472
102
{ACAD_REACTORS
330
7471
102
}
330
7471
100
AcDbDictionary
281
     1
  3
*A1
350
1D2A9
  0
DICTIONARY
  5
173D3
102
{ACAD_REACTORS
330
7471
102
}
330
7471
100
AcDbDictionary
281
     1
  3
Model
350
173D5
  3
レイアウト1
350
173D6
  0
DICTIONARY
  5
173D1
102
{ACAD_REACTORS
330
7471
102
}
330
7471
100
AcDbDictionary
281
     1
  0
DICTIONARY
  5
7473
102
{ACAD_REACTORS
330
7471
102
}
330
7471
100
AcDbDictionary
281
     1
  3
STANDARD
350
7480
  0
DICTIONARY
  5
173D4
102
{ACAD_REACTORS
330
7471
102
}
330
7471
100
AcDbDictionary
281
     1
  0
ACDBDICTIONARYWDFLT
  5
173CF
102
{ACAD_REACTORS
330
7471
102
}
330
7471
100
AcDbDictionary
281
     1
  3
Normal
350
173D0
100
AcDbDictionaryWithDefault
340
173D0
  0
DICTIONARY
  5
23C43
102
{ACAD_REACTORS
330
7471
102
}
330
7471
100
AcDbDictionary
281
     1
  3
COLORDICT
350
23C45
  3
MATERIALDICT
350
23C44
  0
DICTIONARY
  5
237FC
102
{ACAD_REACTORS
330
7471
102
}
330
7471
100
AcDbDictionary
281
     1
  3
DIMASSOC
350
237FD
  3
PROJECTNAME
350
237FE
  0
DICTIONARY
  5
E71C
102
{ACAD_REACTORS
330
7471
102
}
330
7471
100
AcDbDictionary
281
     1
  0
DICTIONARY
  5
F3B9
102
{ACAD_REACTORS
330
7471
102
}
330
7471
100
AcDbDictionary
281
     1
1001
DRAWINGVARIABLESXDATA
1000
POLARMODE
1000
1
  0
DICTIONARY
  5
17590
102
{ACAD_REACTORS
330
1758F
102
}
330
1758F
100
AcDbDictionary
281
     1
  0
GROUP
  5
1D2A9
102
{ACAD_REACTORS
330
7472
102
}
330
7472
100
AcDbGroup
300

 70
     1
 71
     1
  0
LAYOUT
  5
173D5
102
{ACAD_XDICTIONARY
360
23C46
102
}
102
{ACAD_REACTORS
330
173D3
102
}
330
173D3
100
AcDbPlotSettings
  1

  2
Microsoft Office Document Image Writer
  4

  6

 40
0.0
 41
0.0
 42
0.0
 43
0.0
 44
0.0
 45
0.0
 46
0.0
 47
0.0
 48
0.0
 49
0.0
140
0.0
141
0.0
142
1.0
143
1.0
 70
  1712
 72
     0
 73
     0
 74
     0
  7

 75
     0
147
1.0
148
0.0
149
0.0
100
AcDbLayout
  1
Model
 70
     1
 71
     0
 10
0.0
 20
0.0
 11
12.0
 21
9.0
 12
0.0
 22
0.0
 32
0.0
 14
0.0
 24
0.0
 34
0.0
 15
0.0
 25
0.0
 35
0.0
146
0.0
 13
0.0
 23
0.0
 33
0.0
 16
1.0
 26
0.0
 36
0.0
 17
0.0
 27
1.0
 37
0.0
 76
     0
330
747D
  0
LAYOUT
  5
173D6
102
{ACAD_XDICTIONARY
360
23C48
102
}
102
{ACAD_REACTORS
330
173D3
102
}
330
173D3
100
AcDbPlotSettings
  1

  2
Microsoft Office Document Image Writer
  4

  6

 40
0.0
 41
0.0
 42
0.0
 43
0.0
 44
0.0
 45
0.0
 46
0.0
 47
0.0
 48
0.0
 49
0.0
140
0.0
141
0.0
142
1.0
143
1.0
 70
   688
 72
     0
 73
     0
 74
     5
  7

 75
    16
147
1.0
148
0.0
149
0.0
100
AcDbLayout
  1
レイアウト1
 70
     0
 71
     1
 10
0.0
 20
0.0
 11
420.0
 21
297.0
 12
0.0
 22
0.0
 32
0.0
 14
1.000000000000000E+20
 24
1.000000000000000E+20
 34
1.000000000000000E+20
 15
-1.000000000000000E+20
 25
-1.000000000000000E+20
 35
-1.000000000000000E+20
146
0.0
 13
0.0
 23
0.0
 33
0.0
 16
1.0
 26
0.0
 36
0.0
 17
0.0
 27
1.0
 37
0.0
 76
     0
330
747A
  0
MLINESTYLE
  5
7480
102
{ACAD_REACTORS
330
7473
102
}
330
7473
100
AcDbMlineStyle
  2
STANDARD
 70
     0
  3

 62
     0
 51
90.0
 52
90.0
 71
     2
 49
0.5
 62
   256
  6
BYLAYER
 49
-0.5
 62
   256
  6
BYLAYER
  0
ACDBPLACEHOLDER
  5
173D0
102
{ACAD_REACTORS
330
173CF
102
}
330
173CF
  0
XRECORD
  5
23C45
102
{ACAD_REACTORS
330
23C43
102
}
330
23C43
100
AcDbXrecord
280
     1
340
173D2
  0
XRECORD
  5
23C44
102
{ACAD_REACTORS
330
23C43
102
}
330
23C43
100
AcDbXrecord
280
     1
340
173D1
  0
DICTIONARYVAR
  5
237FD
102
{ACAD_REACTORS
330
237FC
102
}
330
237FC
100
DictionaryVariables
280
     0
  1
1
  0
DICTIONARYVAR
  5
237FE
102
{ACAD_REACTORS
330
237FC
102
}
330
237FC
100
DictionaryVariables
280
     0
  1

  0
DICTIONARY
  5
23C46
330
173D5
100
AcDbDictionary
280
     1
281
     1
  3
ACAD_XREC_ROUNDTRIP
360
23C47
  0
DICTIONARY
  5
23C48
330
173D6
100
AcDbDictionary
280
     1
281
     1
  3
ACAD_XREC_ROUNDTRIP
360
23C49
  0
XRECORD
  5
23C47
102
{ACAD_REACTORS
330
23C46
102
}
330
23C46
100
AcDbXrecord
280
     1
102
SHADEPLOT
 70
     0
102
SHADEPLOTRESLEVEL
 70
     2
102
SHADEPLOTCUSTOMDPI
 70
   300
  0
XRECORD
  5
23C49
102
{ACAD_REACTORS
330
23C48
102
}
330
23C48
100
AcDbXrecord
280
     1
102
SHADEPLOT
 70
     0
102
SHADEPLOTRESLEVEL
 70
     2
102
SHADEPLOTCUSTOMDPI
 70
   300
  0
ENDSEC
  0
EOF
