  0
SECTION
  2
HEADER
  9
$ACADVER
  1
AC1015
  9
$ACADMAINTVER
 70
    20
  9
$DWGCODEPAGE
  3
ANSI_932
  9
$INSBASE
 10
0.0
 20
0.0
 30
0.0
  9
$EXTMIN
 10
139.9999999999995
 20
-0.0000000000000909
 30
0.0
  9
$EXTMAX
 10
16307.2
 20
11409.6
 30
0.0
  9
$LIMMIN
 10
0.0
 20
0.0
  9
$LIMMAX
 10
16800.0
 20
11880.0
  9
$ORTHOMODE
 70
     0
  9
$REGENMODE
 70
     1
  9
$FILLMODE
 70
     1
  9
$QTEXTMODE
 70
     0
  9
$MIRRTEXT
 70
     1
  9
$LTSCALE
 40
20.0
  9
$ATTMODE
 70
     1
  9
$TEXTSIZE
 40
4.0
  9
$TRACEWID
 40
1.0
  9
$TEXTSTYLE
  7
STYLE1
  9
$CLAYER
  8
細線
  9
$CELTYPE
  6
BYLAYER
  9
$CECOLOR
 62
   256
  9
$CELTSCALE
 40
50.0
  9
$DISPSILH
 70
     0
  9
$DIMSCALE
 40
40.0
  9
$DIMASZ
 40
2.5
  9
$DIMEXO
 40
0.5
  9
$DIMDLI
 40
7.0
  9
$DIMRND
 40
0.0
  9
$DIMDLE
 40
0.0
  9
$DIMEXE
 40
1.5
  9
$DIMTP
 40
0.0
  9
$DIMTM
 40
0.0
  9
$DIMTXT
 40
3.0
  9
$DIMCEN
 40
0.0
  9
$DIMTSZ
 40
0.0
  9
$DIMTOL
 70
     0
  9
$DIMLIM
 70
     0
  9
$DIMTIH
 70
     0
  9
$DIMTOH
 70
     0
  9
$DIMSE1
 70
     0
  9
$DIMSE2
 70
     0
  9
$DIMTAD
 70
     3
  9
$DIMZIN
 70
     8
  9
$DIMBLK
  1

  9
$DIMASO
 70
     1
  9
$DIMSHO
 70
     1
  9
$DIMPOST
  1

  9
$DIMAPOST
  1

  9
$DIMALT
 70
     0
  9
$DIMALTD
 70
     2
  9
$DIMALTF
 40
0.0394
  9
$DIMLFAC
 40
1.0
  9
$DIMTOFL
 70
     1
  9
$DIMTVP
 40
0.0
  9
$DIMTIX
 70
     1
  9
$DIMSOXD
 70
     0
  9
$DIMSAH
 70
     1
  9
$DIMBLK1
  1
DOTSMALL
  9
$DIMBLK2
  1
DOTSMALL
  9
$DIMSTYLE
  2
INABA_S40G
  9
$DIMCLRD
 70
     0
  9
$DIMCLRE
 70
     0
  9
$DIMCLRT
 70
     7
  9
$DIMTFAC
 40
1.0
  9
$DIMGAP
 40
1.0
  9
$DIMJUST
 70
     0
  9
$DIMSD1
 70
     0
  9
$DIMSD2
 70
     0
  9
$DIMTOLJ
 70
     1
  9
$DIMTZIN
 70
     0
  9
$DIMALTZ
 70
     0
  9
$DIMALTTZ
 70
     0
  9
$DIMUPT
 70
     0
  9
$DIMDEC
 70
     1
  9
$DIMTDEC
 70
     4
  9
$DIMALTU
 70
     2
  9
$DIMALTTD
 70
     2
  9
$DIMTXSTY
  7
STYLE1
  9
$DIMAUNIT
 70
     0
  9
$DIMADEC
 70
     0
  9
$DIMALTRND
 40
0.0
  9
$DIMAZIN
 70
     0
  9
$DIMDSEP
 70
    46
  9
$DIMATFIT
 70
     3
  9
$DIMFRAC
 70
     0
  9
$DIMLDRBLK
  1

  9
$DIMLUNIT
 70
     2
  9
$DIMLWD
 70
    -2
  9
$DIMLWE
 70
    -2
  9
$DIMTMOVE
 70
     0
  9
$LUNITS
 70
     2
  9
$LUPREC
 70
     1
  9
$SKETCHINC
 40
1.0
  9
$FILLETRAD
 40
3.0
  9
$AUNITS
 70
     0
  9
$AUPREC
 70
     0
  9
$MENU
  1
acad
  9
$ELEVATION
 40
0.0
  9
$PELEVATION
 40
0.0
  9
$THICKNESS
 40
0.0
  9
$LIMCHECK
 70
     0
  9
$CHAMFERA
 40
0.0
  9
$CHAMFERB
 40
0.0
  9
$CHAMFERC
 40
0.0
  9
$CHAMFERD
 40
0.0
  9
$SKPOLY
 70
     0
  9
$TDCREATE
 40
2451368.612993866
  9
$TDUCREATE
 40
2451368.237993866
  9
$TDUPDATE
 40
2455826.606204607
  9
$TDUUPDATE
 40
2455826.231204607
  9
$TDINDWG
 40
0.8048154167
  9
$TDUSRTIMER
 40
0.8048154167
  9
$USRTIMER
 70
     1
  9
$ANGBASE
 50
0.0
  9
$ANGDIR
 70
     0
  9
$PDMODE
 70
     3
  9
$PDSIZE
 40
2.0
  9
$PLINEWID
 40
0.0
  9
$SPLFRAME
 70
     0
  9
$SPLINETYPE
 70
     6
  9
$SPLINESEGS
 70
     8
  9
$HANDSEED
  5
2B97B
  9
$SURFTAB1
 70
     6
  9
$SURFTAB2
 70
     6
  9
$SURFTYPE
 70
     6
  9
$SURFU
 70
     6
  9
$SURFV
 70
     6
  9
$UCSBASE
  2

  9
$UCSNAME
  2

  9
$UCSORG
 10
0.0
 20
0.0
 30
0.0
  9
$UCSXDIR
 10
1.0
 20
0.0
 30
0.0
  9
$UCSYDIR
 10
0.0
 20
1.0
 30
0.0
  9
$UCSORTHOREF
  2

  9
$UCSORTHOVIEW
 70
     0
  9
$UCSORGTOP
 10
0.0
 20
0.0
 30
0.0
  9
$UCSORGBOTTOM
 10
0.0
 20
0.0
 30
0.0
  9
$UCSORGLEFT
 10
0.0
 20
0.0
 30
0.0
  9
$UCSORGRIGHT
 10
0.0
 20
0.0
 30
0.0
  9
$UCSORGFRONT
 10
0.0
 20
0.0
 30
0.0
  9
$UCSORGBACK
 10
0.0
 20
0.0
 30
0.0
  9
$PUCSBASE
  2

  9
$PUCSNAME
  2

  9
$PUCSORG
 10
0.0
 20
0.0
 30
0.0
  9
$PUCSXDIR
 10
1.0
 20
0.0
 30
0.0
  9
$PUCSYDIR
 10
0.0
 20
1.0
 30
0.0
  9
$PUCSORTHOREF
  2

  9
$PUCSORTHOVIEW
 70
     0
  9
$PUCSORGTOP
 10
0.0
 20
0.0
 30
0.0
  9
$PUCSORGBOTTOM
 10
0.0
 20
0.0
 30
0.0
  9
$PUCSORGLEFT
 10
0.0
 20
0.0
 30
0.0
  9
$PUCSORGRIGHT
 10
0.0
 20
0.0
 30
0.0
  9
$PUCSORGFRONT
 10
0.0
 20
0.0
 30
0.0
  9
$PUCSORGBACK
 10
0.0
 20
0.0
 30
0.0
  9
$USERI1
 70
     0
  9
$USERI2
 70
     0
  9
$USERI3
 70
     0
  9
$USERI4
 70
     0
  9
$USERI5
 70
     0
  9
$USERR1
 40
0.0
  9
$USERR2
 40
0.0
  9
$USERR3
 40
0.0
  9
$USERR4
 40
0.0
  9
$USERR5
 40
0.0
  9
$WORLDVIEW
 70
     1
  9
$SHADEDGE
 70
     3
  9
$SHADEDIF
 70
    70
  9
$TILEMODE
 70
     1
  9
$MAXACTVP
 70
    16
  9
$PINSBASE
 10
0.0
 20
0.0
 30
0.0
  9
$PLIMCHECK
 70
     0
  9
$PEXTMIN
 10
1.000000000000000E+20
 20
1.000000000000000E+20
 30
1.000000000000000E+20
  9
$PEXTMAX
 10
-1.000000000000000E+20
 20
-1.000000000000000E+20
 30
-1.000000000000000E+20
  9
$PLIMMIN
 10
0.0
 20
0.0
  9
$PLIMMAX
 10
420.0
 20
297.0
  9
$UNITMODE
 70
     0
  9
$VISRETAIN
 70
     0
  9
$PLINEGEN
 70
     0
  9
$PSLTSCALE
 70
     0
  9
$TREEDEPTH
 70
  3020
  9
$CMLSTYLE
  2
STANDARD
  9
$CMLJUST
 70
     0
  9
$CMLSCALE
 40
1.0
  9
$PROXYGRAPHICS
 70
     1
  9
$MEASUREMENT
 70
     1
  9
$CELWEIGHT
370
    -1
  9
$ENDCAPS
280
     0
  9
$JOINSTYLE
280
     0
  9
$LWDISPLAY
290
     0
  9
$INSUNITS
 70
     0
  9
$HYPERLINKBASE
  1

  9
$STYLESHEET
  1

  9
$XEDIT
290
     1
  9
$CEPSNTYPE
380
     0
  9
$PSTYLEMODE
290
     1
  9
$FINGERPRINTGUID
  2
{5EAC461A-2277-4BF8-9AB0-99C43BB394F0}
  9
$VERSIONGUID
  2
{793F608A-CE5C-4EAA-94DA-9D5D20CF4D66}
  9
$EXTNAMES
290
     1
  9
$PSVPSCALE
 40
0.0
  9
$OLESTARTUP
290
     0
  0
ENDSEC
  0
SECTION
  2
CLASSES
  0
CLASS
  1
ACDBDICTIONARYWDFLT
  2
AcDbDictionaryWithDefault
  3
ObjectDBX Classes
 90
        0
280
     0
281
     0
  0
CLASS
  1
DICTIONARYVAR
  2
AcDbDictionaryVar
  3
ObjectDBX Classes
 90
        0
280
     0
281
     0
  0
CLASS
  1
ACDBPLACEHOLDER
  2
AcDbPlaceHolder
  3
ObjectDBX Classes
 90
        0
280
     0
281
     0
  0
CLASS
  1
LAYOUT
  2
AcDbLayout
  3
ObjectDBX Classes
 90
        0
280
     0
281
     0
  0
ENDSEC
  0
SECTION
  2
TABLES
  0
TABLE
  2
VPORT
  5
746D
330
0
100
AcDbSymbolTable
 70
     2
  0
VPORT
  5
2B973
330
746D
100
AcDbSymbolTableRecord
100
AcDbViewportTableRecord
  2
*Active
 70
     0
 10
0.0
 20
0.0
 11
1.0
 21
1.0
 12
8400.000000000002
 22
6532.467989526317
 13
0.0
 23
0.0
 14
10.0
 24
10.0
 15
10.0
 25
10.0
 16
0.0
 26
0.0
 36
1.0
 17
0.0
 27
0.0
 37
0.0
 40
13159.96111582214
 41
1.522222222222222
 42
50.0
 43
0.0
 44
0.0
 50
0.0
 51
0.0
 71
     0
 72
     0
 73
     1
 74
     0
 75
     0
 76
     0
 77
     0
 78
     0
281
     0
 65
     1
110
0.0
120
0.0
130
0.0
111
1.0
121
0.0
131
0.0
112
0.0
122
1.0
132
0.0
 79
     0
146
0.0
  0
ENDTAB
  0
TABLE
  2
LTYPE
  5
746A
330
0
100
AcDbSymbolTable
 70
     5
  0
LTYPE
  5
7477
330
746A
100
AcDbSymbolTableRecord
100
AcDbLinetypeTableRecord
  2
BYBLOCK
 70
     0
  3

 72
    65
 73
     0
 40
0.0
  0
LTYPE
  5
7478
330
746A
100
AcDbSymbolTableRecord
100
AcDbLinetypeTableRecord
  2
BYLAYER
 70
     0
  3

 72
    65
 73
     0
 40
0.0
  0
LTYPE
  5
7479
330
746A
100
AcDbSymbolTableRecord
100
AcDbLinetypeTableRecord
  2
CONTINUOUS
 70
     0
  3
Solid line
 72
    65
 73
     0
 40
0.0
  0
LTYPE
  5
7816
330
746A
100
AcDbSymbolTableRecord
100
AcDbLinetypeTableRecord
  2
CENTER
 70
     0
  3
____ _ ____ _ ____ _ ____ _ ____ _ ____ _ ____ 
 72
    65
 73
     4
 40
2.0
 49
1.25
 74
     0
 49
-0.25
 74
     0
 49
0.25
 74
     0
 49
-0.25
 74
     0
  0
LTYPE
  5
781A
330
746A
100
AcDbSymbolTableRecord
100
AcDbLinetypeTableRecord
  2
HIDDEN
 70
     0
  3
__ __ __ __ __ __ __ __ __ __ __ __ __ __ __ __
 72
    65
 73
     2
 40
0.375
 49
0.25
 74
     0
 49
-0.125
 74
     0
  0
LTYPE
  5
781B
330
746A
100
AcDbSymbolTableRecord
100
AcDbLinetypeTableRecord
  2
PHANTOM
 70
     0
  3
______  __  __  ______  __  __  ______  __  __ 
 72
    65
 73
     6
 40
2.5
 49
1.25
 74
     0
 49
-0.25
 74
     0
 49
0.25
 74
     0
 49
-0.25
 74
     0
 49
0.25
 74
     0
 49
-0.25
 74
     0
  0
LTYPE
  5
12CC3
330
746A
100
AcDbSymbolTableRecord
100
AcDbLinetypeTableRecord
  2
HIDDENX2
 70
     0
  3
Hidden (2x) ____ ____ ____ ____ ____ ____ ____
 72
    65
 73
     2
 40
19.05
 49
12.7
 74
     0
 49
-6.349999999999999
 74
     0
  0
ENDTAB
  0
TABLE
  2
LAYER
  5
7467
102
{ACAD_XDICTIONARY
360
1758F
102
}
330
0
100
AcDbSymbolTable
 70
    12
  0
LAYER
  5
7474
330
7467
100
AcDbSymbolTableRecord
100
AcDbLayerTableRecord
  2
0
 70
     0
 62
     7
  6
CONTINUOUS
370
    -3
390
173D0
  0
LAYER
  5
DEB2
330
7467
100
AcDbSymbolTableRecord
100
AcDbLayerTableRecord
  2
センター
 70
     0
 62
     3
  6
CENTER
370
    -3
390
173D0
  0
LAYER
  5
DEB3
330
7467
100
AcDbSymbolTableRecord
100
AcDbLayerTableRecord
  2
寸法
 70
     0
 62
     4
  6
CONTINUOUS
370
    -3
390
173D0
  0
LAYER
  5
DEB4
330
7467
100
AcDbSymbolTableRecord
100
AcDbLayerTableRecord
  2
部品1
 70
     0
 62
     7
  6
CONTINUOUS
370
    -3
390
173D0
  0
LAYER
  5
DEB5
330
7467
100
AcDbSymbolTableRecord
100
AcDbLayerTableRecord
  2
補助
 70
     0
 62
    -1
  6
CONTINUOUS
370
    -3
390
173D0
  0
LAYER
  5
DEB6
330
7467
100
AcDbSymbolTableRecord
100
AcDbLayerTableRecord
  2
文字
 70
     0
 62
     7
  6
CONTINUOUS
370
    -3
390
173D0
  0
LAYER
  5
F255
330
7467
100
AcDbSymbolTableRecord
100
AcDbLayerTableRecord
  2
DEFPOINTS
 70
     0
 62
     7
  6
CONTINUOUS
290
     0
370
    -3
390
173D0
  0
LAYER
  5
10B54
330
7467
100
AcDbSymbolTableRecord
100
AcDbLayerTableRecord
  2
仕様書枠
 70
     0
 62
   230
  6
CONTINUOUS
370
    -3
390
173D0
  0
LAYER
  5
11729
330
7467
100
AcDbSymbolTableRecord
100
AcDbLayerTableRecord
  2
Ｇ．Ｌ
 70
     0
 62
    30
  6
CONTINUOUS
370
    -3
390
173D0
  0
LAYER
  5
1173F
330
7467
100
AcDbSymbolTableRecord
100
AcDbLayerTableRecord
  2
細線
 70
     0
 62
     5
  6
CONTINUOUS
370
    -3
390
173D0
  0
LAYER
  5
12CC4
330
7467
100
AcDbSymbolTableRecord
100
AcDbLayerTableRecord
  2
想像線
 70
     0
 62
     6
  6
PHANTOM
370
    -3
390
173D0
  0
LAYER
  5
142E2
330
7467
100
AcDbSymbolTableRecord
100
AcDbLayerTableRecord
  2
破線
 70
     0
 62
     2
  6
HIDDEN
370
    -3
390
173D0
  0
ENDTAB
  0
TABLE
  2
STYLE
  5
7468
330
0
100
AcDbSymbolTable
 70
     7
  0
STYLE
  5
7475
330
7468
100
AcDbSymbolTableRecord
100
AcDbTextStyleTableRecord
  2
STANDARD
 70
     0
 40
0.0
 41
1.0
 50
0.0
 71
     0
 42
4.0
  3
txt
  4
C:\AutoCAD LT\bigfont.shx
  0
STYLE
  5
763C
330
7468
100
AcDbSymbolTableRecord
100
AcDbTextStyleTableRecord
  2
MSMINCHO
 70
     0
 40
0.0
 41
1.0
 50
0.0
 71
     0
 42
1.199999999999999
  3
C:\AutoCAD LT\msminch2.TTF
  4

  0
STYLE
  5
F706
330
7468
100
AcDbSymbolTableRecord
100
AcDbTextStyleTableRecord
  2
STYLE1
 70
     0
 40
0.0
 41
1.0
 50
0.0
 71
     0
 42
4.0
  3
isocp.shx
  4
bigfont.shx
  0
STYLE
  5
103BF
330
7468
100
AcDbSymbolTableRecord
100
AcDbTextStyleTableRecord
  2
STYLE2
 70
     0
 40
0.0
 41
1.0
 50
0.0
 71
     0
 42
100.0
  3
MS PGothic.ttf
  4

1001
ACAD
1000
MS PGothic
1071
    32818
  0
STYLE
  5
10BAA
330
7468
100
AcDbSymbolTableRecord
100
AcDbTextStyleTableRecord
  2
STYLE3
 70
     0
 40
0.0
 41
1.0
 50
0.0
 71
     0
 42
100.0
  3

  4

1001
ACAD
1000
DFPGothic-EB
1071
    32818
  0
STYLE
  5
11A15
330
7468
100
AcDbSymbolTableRecord
100
AcDbTextStyleTableRecord
  2
MSGOTHIC
 70
     0
 40
0.0
 41
1.0
 50
0.0
 71
     0
 42
3.5
  3
msgothi2.ttf
  4

  0
STYLE
  5
13E96
330
7468
100
AcDbSymbolTableRecord
100
AcDbTextStyleTableRecord
  2
MSPゴシック
 70
     0
 40
0.0
 41
1.0
 50
0.0
 71
     0
 42
4.0
  3
MS PGothic.ttf
  4

1001
ACAD
1000
MS PGothic
1071
    32818
  0
ENDTAB
  0
TABLE
  2
VIEW
  5
746B
330
0
100
AcDbSymbolTable
 70
     0
  0
ENDTAB
  0
TABLE
  2
UCS
  5
746C
330
0
100
AcDbSymbolTable
 70
     0
  0
ENDTAB
  0
TABLE
  2
APPID
  5
746E
330
0
100
AcDbSymbolTable
 70
     6
  0
APPID
  5
7476
330
746E
100
AcDbSymbolTableRecord
100
AcDbRegAppTableRecord
  2
ACAD
 70
     0
  0
APPID
  5
DEA9
330
746E
100
AcDbSymbolTableRecord
100
AcDbRegAppTableRecord
  2
CONTENTBLOCKICON
 70
     0
  0
APPID
  5
DEAA
330
746E
100
AcDbSymbolTableRecord
100
AcDbRegAppTableRecord
  2
CONTENTBLOCKDESCRIPTION
 70
     0
  0
APPID
  5
E71D
330
746E
100
AcDbSymbolTableRecord
100
AcDbRegAppTableRecord
  2
CONTENTTABDATA
 70
     0
  0
APPID
  5
E71E
330
746E
100
AcDbSymbolTableRecord
100
AcDbRegAppTableRecord
  2
CONTENTCURRENTTAB
 70
     0
  0
APPID
  5
F3BA
330
746E
100
AcDbSymbolTableRecord
100
AcDbRegAppTableRecord
  2
DRAWINGVARIABLESXDATA
 70
     0
  0
ENDTAB
  0
TABLE
  2
DIMSTYLE
  5
746F
330
0
100
AcDbSymbolTable
 70
     6
100
AcDbDimStyleTable
 71
     1
340
F71F
  0
DIMSTYLE
105
7484
330
746F
100
AcDbSymbolTableRecord
100
AcDbDimStyleTableRecord
  2
JIS
 70
     0
 41
2.5
 42
1.0
 43
7.0
 44
1.0
 73
     0
 74
     0
 77
     1
 78
     8
140
2.5
141
0.0
143
0.0394
147
0.0
172
     1
174
     1
175
     1
340
7475
  0
DIMSTYLE
105
F236
330
746F
100
AcDbSymbolTableRecord
100
AcDbDimStyleTableRecord
  2
INABA_S40
 70
     0
 40
40.0
 41
2.5
 42
0.5
 43
7.0
 44
1.5
 73
     0
 74
     0
 77
     3
 78
     8
140
3.0
141
0.0
143
0.0394
147
1.0
172
     1
173
     1
174
     1
175
     1
178
     7
289
     0
340
7475
341
DEAC
343
DEAC
344
DEAC
  0
DIMSTYLE
105
F71F
102
{ACAD_REACTORS
330
2A8EC
330
2A8ED
330
2A8F2
330
2A8F3
330
2A263
330
2A228
330
2A1AA
330
2A1A7
330
2A1A6
330
2A1A5
330
2A174
330
2A16D
330
2A152
330
2A14F
330
2A0CA
330
2A0C9
330
2A0C8
330
2A0C6
330
2A0C5
330
2A0C3
330
2A0BF
330
2A0D1
330
2A151
330
2A0D3
330
2A0CE
330
2A0CB
330
2A0D6
330
2A0C7
330
2A0D0
330
2A26F
330
2B84C
330
2B8AC
330
2B8AF
330
2B8B6
330
2B8BE
330
2B8BF
102
}
330
746F
100
AcDbSymbolTableRecord
100
AcDbDimStyleTableRecord
  2
INABA_S40G
 70
     0
 40
40.0
 41
2.5
 42
0.5
 43
7.0
 44
1.5
 73
     0
 74
     0
 77
     3
 78
     8
140
3.0
141
0.0
143
0.0394
147
1.0
172
     1
173
     1
174
     1
178
     7
271
     1
340
F706
341
F770
343
F770
344
F770
  0
DIMSTYLE
105
142E3
330
746F
100
AcDbSymbolTableRecord
100
AcDbDimStyleTableRecord
  2
INABA_S1
 70
     0
 40
0.0
 41
2.5
 42
0.5
 43
7.0
 44
1.5
 73
     0
 74
     0
 77
     3
 78
     8
140
3.0
141
0.0
143
0.0394
146
0.5
147
0.5
172
     1
173
     1
176
   256
177
   256
178
     7
271
     2
272
     2
284
     8
288
     1
340
7475
341
DEAC
343
DEAC
344
DEAC
  0
DIMSTYLE
105
14463
330
746F
100
AcDbSymbolTableRecord
100
AcDbDimStyleTableRecord
  2
INABA_S30G
 70
     0
 40
30.0
 41
2.5
 42
0.5
 43
7.0
 44
1.5
 73
     0
 74
     0
 77
     3
 78
     8
140
3.0
141
0.0
143
0.0394
147
1.0
172
     1
173
     1
174
     1
175
     1
178
     7
271
     1
340
F706
341
F770
343
F770
344
F770
  0
DIMSTYLE
105
1758E
330
746F
100
AcDbSymbolTableRecord
100
AcDbDimStyleTableRecord
  2
INABA_S50G
 70
     0
 41
125.0
 42
25.0
 43
7.0
 44
75.0
 73
     0
 74
     0
 77
     3
 78
     8
140
150.0
141
0.0
143
0.0394
147
25.0
172
     1
173
     1
174
     1
175
     1
178
     7
271
     1
340
F706
341
F770
343
F770
344
F770
  0
ENDTAB
  0
TABLE
  2
BLOCK_RECORD
  5
7466
330
0
100
AcDbSymbolTable
 70
    55
  0
BLOCK_RECORD
  5
747D
330
7466
100
AcDbSymbolTableRecord
100
AcDbBlockTableRecord
  2
*MODEL_SPACE
340
173D5
  0
BLOCK_RECORD
  5
747A
330
7466
100
AcDbSymbolTableRecord
100
AcDbBlockTableRecord
  2
*PAPER_SPACE
340
173D6
  0
BLOCK_RECORD
  5
DEAC
330
7466
100
AcDbSymbolTableRecord
100
AcDbBlockTableRecord
  2
_OPEN
340
0
  0
BLOCK_RECORD
  5
F770
330
7466
100
AcDbSymbolTableRecord
100
AcDbBlockTableRecord
  2
_DOTSMALL
340
0
102
{BLKREFS
331
18C65
331
18C66
331
18C59
331
18C5A
331
18C4D
331
18C4E
331
18C41
331
18C42
331
18C35
331
18C36
331
18C29
331
18C2A
331
18C1D
331
18C1E
331
18C0F
331
18C10
331
18C03
331
18C04
331
18BF5
331
18BF6
331
18BE7
331
18BE8
331
18BD9
331
18BDA
331
18BCD
331
18BCE
331
2B314
331
2B315
331
2B31D
331
2B31E
331
2B34B
331
2B34C
331
2B354
331
2B355
331
2B35E
331
2B35F
331
2B372
331
2B373
331
2B3A8
331
2B3A9
331
2B3BA
331
2B3BB
331
2B3C4
331
2B3C5
331
2B3D7
331
2B3D8
331
2B411
331
2B412
331
2B41C
331
2B41D
331
2B427
331
2B428
331
2B432
331
2B433
331
2B458
331
2B459
331
2B461
331
2B462
331
2B48F
331
2B490
331
2B4A1
331
2B4A2
331
2B4B3
331
2B4B4
331
2B4BC
331
2B4BD
331
2B4D7
331
2B4D8
331
2B4E9
331
2B4EA
331
2B4FB
331
2B4FC
331
2B50D
331
2B50E
331
2B516
331
2B517
331
2B51F
331
2B520
331
2B528
331
2B529
331
2B531
331
2B532
331
2B5CD
331
2B5CE
331
2B60B
331
2B60C
331
2B916
331
2B917
331
2B91F
331
2B920
331
2B928
331
2B929
331
2B931
331
2B932
331
2B93C
331
2B93D
331
2B945
331
2B946
102
}
  0
BLOCK_RECORD
  5
164B4
330
7466
100
AcDbSymbolTableRecord
100
AcDbBlockTableRecord
  2
_DOT
340
0
102
{BLKREFS
331
18C73
331
18C74
102
}
  0
BLOCK_RECORD
  5
18BC8
330
7466
100
AcDbSymbolTableRecord
100
AcDbBlockTableRecord
  2
*D3
340
0
  0
BLOCK_RECORD
  5
18BD4
330
7466
100
AcDbSymbolTableRecord
100
AcDbBlockTableRecord
  2
*D4
340
0
  0
BLOCK_RECORD
  5
18BE0
330
7466
100
AcDbSymbolTableRecord
100
AcDbBlockTableRecord
  2
*D5
340
0
  0
BLOCK_RECORD
  5
18BEE
330
7466
100
AcDbSymbolTableRecord
100
AcDbBlockTableRecord
  2
*D6
340
0
  0
BLOCK_RECORD
  5
18BFC
330
7466
100
AcDbSymbolTableRecord
100
AcDbBlockTableRecord
  2
*D7
340
0
  0
BLOCK_RECORD
  5
18C0A
330
7466
100
AcDbSymbolTableRecord
100
AcDbBlockTableRecord
  2
*D8
340
0
  0
BLOCK_RECORD
  5
18C16
330
7466
100
AcDbSymbolTableRecord
100
AcDbBlockTableRecord
  2
*D9
340
0
  0
BLOCK_RECORD
  5
18C24
330
7466
100
AcDbSymbolTableRecord
100
AcDbBlockTableRecord
  2
*D10
340
0
  0
BLOCK_RECORD
  5
18C30
330
7466
100
AcDbSymbolTableRecord
100
AcDbBlockTableRecord
  2
*D11
340
0
  0
BLOCK_RECORD
  5
18C3C
330
7466
100
AcDbSymbolTableRecord
100
AcDbBlockTableRecord
  2
*D12
340
0
  0
BLOCK_RECORD
  5
18C48
330
7466
100
AcDbSymbolTableRecord
100
AcDbBlockTableRecord
  2
*D13
340
0
  0
BLOCK_RECORD
  5
18C54
330
7466
100
AcDbSymbolTableRecord
100
AcDbBlockTableRecord
  2
*D14
340
0
  0
BLOCK_RECORD
  5
18C60
330
7466
100
AcDbSymbolTableRecord
100
AcDbBlockTableRecord
  2
*D15
340
0
  0
BLOCK_RECORD
  5
18C6C
330
7466
100
AcDbSymbolTableRecord
100
AcDbBlockTableRecord
  2
*D16
340
0
  0
BLOCK_RECORD
  5
18C7A
330
7466
100
AcDbSymbolTableRecord
100
AcDbBlockTableRecord
  2
A$C3B1A506B
340
0
  0
BLOCK_RECORD
  5
1C4CA
330
7466
100
AcDbSymbolTableRecord
100
AcDbBlockTableRecord
  2
_NONE
340
0
  0
BLOCK_RECORD
  5
2A273
330
7466
100
AcDbSymbolTableRecord
100
AcDbBlockTableRecord
  2
*D19
340
0
  0
BLOCK_RECORD
  5
2A28B
330
7466
100
AcDbSymbolTableRecord
100
AcDbBlockTableRecord
  2
*D20
340
0
  0
BLOCK_RECORD
  5
2A298
330
7466
100
AcDbSymbolTableRecord
100
AcDbBlockTableRecord
  2
*D21
340
0
  0
BLOCK_RECORD
  5
2A2AF
330
7466
100
AcDbSymbolTableRecord
100
AcDbBlockTableRecord
  2
*D22
340
0
  0
BLOCK_RECORD
  5
2A2BB
330
7466
100
AcDbSymbolTableRecord
100
AcDbBlockTableRecord
  2
*D23
340
0
  0
BLOCK_RECORD
  5
2A2C8
330
7466
100
AcDbSymbolTableRecord
100
AcDbBlockTableRecord
  2
*D24
340
0
  0
BLOCK_RECORD
  5
2A2D4
330
7466
100
AcDbSymbolTableRecord
100
AcDbBlockTableRecord
  2
*D25
340
0
  0
BLOCK_RECORD
  5
2A2E0
330
7466
100
AcDbSymbolTableRecord
100
AcDbBlockTableRecord
  2
*D26
340
0
  0
BLOCK_RECORD
  5
2A2EC
330
7466
100
AcDbSymbolTableRecord
100
AcDbBlockTableRecord
  2
*D27
340
0
  0
BLOCK_RECORD
  5
2A2F8
330
7466
100
AcDbSymbolTableRecord
100
AcDbBlockTableRecord
  2
*D28
340
0
  0
BLOCK_RECORD
  5
2A311
330
7466
100
AcDbSymbolTableRecord
100
AcDbBlockTableRecord
  2
*D29
340
0
  0
BLOCK_RECORD
  5
2A31E
330
7466
100
AcDbSymbolTableRecord
100
AcDbBlockTableRecord
  2
*D30
340
0
  0
BLOCK_RECORD
  5
2A32B
330
7466
100
AcDbSymbolTableRecord
100
AcDbBlockTableRecord
  2
*D31
340
0
  0
BLOCK_RECORD
  5
2A337
330
7466
100
AcDbSymbolTableRecord
100
AcDbBlockTableRecord
  2
*D32
340
0
  0
BLOCK_RECORD
  5
2A343
330
7466
100
AcDbSymbolTableRecord
100
AcDbBlockTableRecord
  2
*D33
340
0
  0
BLOCK_RECORD
  5
2A34F
330
7466
100
AcDbSymbolTableRecord
100
AcDbBlockTableRecord
  2
*D34
340
0
  0
BLOCK_RECORD
  5
2A35A
330
7466
100
AcDbSymbolTableRecord
100
AcDbBlockTableRecord
  2
*D35
340
0
  0
BLOCK_RECORD
  5
2A366
330
7466
100
AcDbSymbolTableRecord
100
AcDbBlockTableRecord
  2
*D36
340
0
  0
BLOCK_RECORD
  5
2A372
330
7466
100
AcDbSymbolTableRecord
100
AcDbBlockTableRecord
  2
*D37
340
0
  0
BLOCK_RECORD
  5
2A37D
330
7466
100
AcDbSymbolTableRecord
100
AcDbBlockTableRecord
  2
*D38
340
0
  0
BLOCK_RECORD
  5
2A389
330
7466
100
AcDbSymbolTableRecord
100
AcDbBlockTableRecord
  2
*D39
340
0
  0
BLOCK_RECORD
  5
2A395
330
7466
100
AcDbSymbolTableRecord
100
AcDbBlockTableRecord
  2
*D40
340
0
  0
BLOCK_RECORD
  5
2A3A1
330
7466
100
AcDbSymbolTableRecord
100
AcDbBlockTableRecord
  2
*D41
340
0
  0
BLOCK_RECORD
  5
2A3AE
330
7466
100
AcDbSymbolTableRecord
100
AcDbBlockTableRecord
  2
*D42
340
0
  0
BLOCK_RECORD
  5
2A3C6
330
7466
100
AcDbSymbolTableRecord
100
AcDbBlockTableRecord
  2
*D43
340
0
  0
BLOCK_RECORD
  5
2A3D3
330
7466
100
AcDbSymbolTableRecord
100
AcDbBlockTableRecord
  2
*D44
340
0
  0
BLOCK_RECORD
  5
2AAAC
330
7466
100
AcDbSymbolTableRecord
100
AcDbBlockTableRecord
  2
*D45
340
0
  0
BLOCK_RECORD
  5
2AABA
330
7466
100
AcDbSymbolTableRecord
100
AcDbBlockTableRecord
  2
*D46
340
0
  0
BLOCK_RECORD
  5
2AAC8
330
7466
100
AcDbSymbolTableRecord
100
AcDbBlockTableRecord
  2
*D47
340
0
  0
BLOCK_RECORD
  5
2AAD6
330
7466
100
AcDbSymbolTableRecord
100
AcDbBlockTableRecord
  2
*D48
340
0
  0
BLOCK_RECORD
  5
2B8C9
330
7466
100
AcDbSymbolTableRecord
100
AcDbBlockTableRecord
  2
*D49
340
0
  0
BLOCK_RECORD
  5
2B8D5
330
7466
100
AcDbSymbolTableRecord
100
AcDbBlockTableRecord
  2
*D50
340
0
  0
BLOCK_RECORD
  5
2B8E1
330
7466
100
AcDbSymbolTableRecord
100
AcDbBlockTableRecord
  2
*D51
340
0
  0
BLOCK_RECORD
  5
2B8ED
330
7466
100
AcDbSymbolTableRecord
100
AcDbBlockTableRecord
  2
*D52
340
0
  0
BLOCK_RECORD
  5
2B8F9
330
7466
100
AcDbSymbolTableRecord
100
AcDbBlockTableRecord
  2
*D53
340
0
  0
BLOCK_RECORD
  5
2B907
330
7466
100
AcDbSymbolTableRecord
100
AcDbBlockTableRecord
  2
*D54
340
0
  0
ENDTAB
  0
ENDSEC
  0
SECTION
  2
BLOCKS
  0
BLOCK
  5
7489
330
747D
100
AcDbEntity
  8
0
100
AcDbBlockBegin
  2
*MODEL_SPACE
 70
     0
 10
0.0
 20
0.0
 30
0.0
  3
*MODEL_SPACE
  1

  0
ENDBLK
  5
748A
330
747D
100
AcDbEntity
  8
0
100
AcDbBlockEnd
  0
BLOCK
  5
7487
330
747A
100
AcDbEntity
 67
     1
  8
0
100
AcDbBlockBegin
  2
*PAPER_SPACE
 70
     0
 10
0.0
 20
0.0
 30
0.0
  3
*PAPER_SPACE
  1

  0
ENDBLK
  5
7488
330
747A
100
AcDbEntity
 67
     1
  8
0
100
AcDbBlockEnd
  0
BLOCK
  5
DEAD
330
DEAC
100
AcDbEntity
  8
0
100
AcDbBlockBegin
  2
_OPEN
 70
     0
 10
0.0
 20
0.0
 30
0.0
  3
_OPEN
  1

  0
LINE
  5
DEAE
330
DEAC
100
AcDbEntity
  8
0
  6
ByBlock
 62
     0
100
AcDbLine
 10
-1.0
 20
0.1666666666666666
 30
0.0
 11
0.0
 21
0.0
 31
0.0
  0
LINE
  5
DEAF
330
DEAC
100
AcDbEntity
  8
0
  6
ByBlock
 62
     0
100
AcDbLine
 10
0.0
 20
0.0
 30
0.0
 11
-1.0
 21
-0.1666666666666666
 31
0.0
  0
LINE
  5
DEB0
330
DEAC
100
AcDbEntity
  8
0
  6
ByBlock
 62
     0
100
AcDbLine
 10
0.0
 20
0.0
 30
0.0
 11
-1.0
 21
0.0
 31
0.0
  0
ENDBLK
  5
DEB1
330
DEAC
100
AcDbEntity
  8
0
100
AcDbBlockEnd
  0
BLOCK
  5
F771
330
F770
100
AcDbEntity
  8
0
 48
50.0
100
AcDbBlockBegin
  2
_DOTSMALL
 70
     0
 10
0.0
 20
0.0
 30
0.0
  3
_DOTSMALL
  1

  0
LWPOLYLINE
  5
F772
330
F770
100
AcDbEntity
  8
0
  6
ByBlock
 62
     0
 48
50.0
100
AcDbPolyline
 90
        2
 70
     1
 43
0.5
 10
-0.0625
 20
0.0
 42
1.0
 10
0.0625
 20
0.0
 42
1.0
  0
ENDBLK
  5
F776
330
F770
100
AcDbEntity
  8
0
 48
50.0
100
AcDbBlockEnd
  0
BLOCK
  5
164BA
330
164B4
100
AcDbEntity
  8
0
 48
50.0
100
AcDbBlockBegin
  2
_DOT
 70
     0
 10
0.0
 20
0.0
 30
0.0
  3
_DOT
  1

  0
LWPOLYLINE
  5
164B5
330
164B4
100
AcDbEntity
  8
0
  6
ByBlock
 62
     0
 48
50.0
100
AcDbPolyline
 90
        2
 70
     1
 43
0.5
 10
-0.25
 20
0.0
 42
1.0
 10
0.25
 20
0.0
 42
1.0
  0
LINE
  5
164B9
330
164B4
100
AcDbEntity
  8
0
  6
ByBlock
 62
     0
 48
50.0
100
AcDbLine
 10
-0.5
 20
0.0
 30
0.0
 11
-1.0
 21
0.0
 31
0.0
  0
ENDBLK
  5
164BB
330
164B4
100
AcDbEntity
  8
0
 48
50.0
100
AcDbBlockEnd
  0
BLOCK
  5
18BC9
330
18BC8
100
AcDbEntity
  8
0
 48
50.0
100
AcDbBlockBegin
  2
*D3
 70
     1
 10
0.0
 20
0.0
 30
0.0
  3
*D3
  1

  0
LINE
  5
18BCA
330
18BC8
100
AcDbEntity
  8
寸法
 62
     0
 48
50.0
370
    -2
100
AcDbLine
 10
7649.896575106999
 20
9636.123139034717
 30
0.0
 11
8702.429862581047
 21
9636.123139034717
 31
0.0
  0
LINE
  5
18BCB
330
18BC8
100
AcDbEntity
  8
寸法
 62
     0
 48
50.0
370
    -2
100
AcDbLine
 10
7649.896575106973
 20
7846.123139034709
 30
0.0
 11
8702.429862581047
 21
7846.123139034709
 31
0.0
  0
LINE
  5
18BCC
330
18BC8
100
AcDbEntity
  8
寸法
 62
     0
 48
50.0
370
    -2
100
AcDbLine
 10
8642.429862581046
 20
9636.123139034717
 30
0.0
 11
8642.429862581046
 21
7846.123139034709
 31
0.0
  0
INSERT
  5
18BCD
330
18BC8
100
AcDbEntity
  8
寸法
 62
     0
 48
50.0
370
    -2
100
AcDbBlockReference
  2
_DOTSMALL
 10
8642.429862581046
 20
9636.123139034717
 30
0.0
 41
100.0
 42
100.0
 43
100.0
 50
90.0
  0
INSERT
  5
18BCE
330
18BC8
100
AcDbEntity
  8
寸法
 62
     0
 48
50.0
370
    -2
100
AcDbBlockReference
  2
_DOTSMALL
 10
8642.429862581046
 20
7846.123139034709
 30
0.0
 41
100.0
 42
100.0
 43
100.0
 50
270.0
  0
MTEXT
  5
18BCF
330
18BC8
100
AcDbEntity
  8
寸法
 62
     7
 48
50.0
100
AcDbMText
 10
8542.429862581045
 20
8741.123139034712
 30
0.0
 40
120.0
 41
0.0
 71
     5
 72
     1
  1
\A1;1790
  7
STYLE1
 11
0.0000000000000001
 21
1.0
 31
0.0
 73
     1
 44
1.0
1001
ACAD
1000
MTEXTBEGIN
1070
    73
1070
     1
1070
    44
1040
1.0
1070
    74
1070
     0
1000
MTEXTEND
  0
POINT
  5
18BD0
330
18BC8
100
AcDbEntity
  8
DEFPOINTS
 62
     0
 48
50.0
100
AcDbPoint
 10
7629.896575106998
 20
9636.123139034717
 30
0.0
  0
POINT
  5
18BD1
330
18BC8
100
AcDbEntity
  8
DEFPOINTS
 62
     0
 48
50.0
100
AcDbPoint
 10
7629.896575106974
 20
7846.123139034709
 30
0.0
  0
POINT
  5
18BD2
330
18BC8
100
AcDbEntity
  8
DEFPOINTS
 62
     0
 48
50.0
100
AcDbPoint
 10
8642.429862581046
 20
7846.123139034709
 30
0.0
  0
ENDBLK
  5
18BD3
330
18BC8
100
AcDbEntity
  8
0
 48
50.0
100
AcDbBlockEnd
  0
BLOCK
  5
18BD5
330
18BD4
100
AcDbEntity
  8
0
 48
50.0
100
AcDbBlockBegin
  2
*D4
 70
     1
 10
0.0
 20
0.0
 30
0.0
  3
*D4
  1

  0
LINE
  5
18BD6
330
18BD4
100
AcDbEntity
  8
寸法
 62
     0
 48
50.0
370
    -2
100
AcDbLine
 10
4214.896575106998
 20
9656.123139034622
 30
0.0
 11
4214.896575106998
 21
10211.93135865972
 31
0.0
  0
LINE
  5
18BD7
330
18BD4
100
AcDbEntity
  8
寸法
 62
     0
 48
50.0
370
    -2
100
AcDbLine
 10
7574.896575106999
 20
9656.123139034718
 30
0.0
 11
7574.896575106999
 21
10211.93135865972
 31
0.0
  0
LINE
  5
18BD8
330
18BD4
100
AcDbEntity
  8
寸法
 62
     0
 48
50.0
370
    -2
100
AcDbLine
 10
4214.896575106998
 20
10151.93135865972
 30
0.0
 11
7574.896575106999
 21
10151.93135865972
 31
0.0
  0
INSERT
  5
18BD9
330
18BD4
100
AcDbEntity
  8
寸法
 62
     0
 48
50.0
370
    -2
100
AcDbBlockReference
  2
_DOTSMALL
 10
4214.896575106998
 20
10151.93135865972
 30
0.0
 41
100.0
 42
100.0
 43
100.0
 50
180.0
  0
INSERT
  5
18BDA
330
18BD4
100
AcDbEntity
  8
寸法
 62
     0
 48
50.0
370
    -2
100
AcDbBlockReference
  2
_DOTSMALL
 10
7574.896575106999
 20
10151.93135865972
 30
0.0
 41
100.0
 42
100.0
 43
100.0
  0
MTEXT
  5
18BDB
330
18BD4
100
AcDbEntity
  8
寸法
 62
     7
 48
50.0
100
AcDbMText
 10
5894.896575106997
 20
10251.94316968334
 30
0.0
 40
120.0
 41
0.0
 71
     5
 72
     1
  1
\A1;8X420=3360
  7
STYLE1
 73
     1
 44
1.0
1001
ACAD
1000
MTEXTBEGIN
1070
    73
1070
     1
1070
    44
1040
1.0
1070
    74
1070
     0
1000
MTEXTEND
  0
POINT
  5
18BDC
330
18BD4
100
AcDbEntity
  8
DEFPOINTS
 62
     0
 48
50.0
100
AcDbPoint
 10
4214.896575106998
 20
9636.123139034623
 30
0.0
  0
POINT
  5
18BDD
330
18BD4
100
AcDbEntity
  8
DEFPOINTS
 62
     0
 48
50.0
100
AcDbPoint
 10
7574.896575106999
 20
9636.123139034717
 30
0.0
  0
POINT
  5
18BDE
330
18BD4
100
AcDbEntity
  8
DEFPOINTS
 62
     0
 48
50.0
100
AcDbPoint
 10
7574.896575106999
 20
10151.93135865972
 30
0.0
  0
ENDBLK
  5
18BDF
330
18BD4
100
AcDbEntity
  8
0
 48
50.0
100
AcDbBlockEnd
  0
BLOCK
  5
18BE1
330
18BE0
100
AcDbEntity
  8
0
 48
50.0
100
AcDbBlockBegin
  2
*D5
 70
     1
 10
0.0
 20
0.0
 30
0.0
  3
*D5
  1

  0
LINE
  5
18BE2
330
18BE0
100
AcDbEntity
  8
寸法
 62
     0
 48
50.0
370
    -2
100
AcDbLine
 10
7574.896575106999
 20
9656.123139034718
 30
0.0
 11
7574.896575106999
 21
10211.9313586597
 31
0.0
  0
LINE
  5
18BE3
330
18BE0
100
AcDbEntity
  8
寸法
 62
     0
 48
50.0
370
    -2
100
AcDbLine
 10
7629.896575106998
 20
9656.123139034718
 30
0.0
 11
7629.896575106998
 21
10211.9313586597
 31
0.0
  0
LINE
  5
18BE4
330
18BE0
100
AcDbEntity
  8
寸法
 62
     0
 48
50.0
370
    -2
100
AcDbLine
 10
7574.896575106999
 20
10151.9313586597
 30
0.0
 11
7474.896575106999
 21
10151.9313586597
 31
0.0
  0
LINE
  5
18BE5
330
18BE0
100
AcDbEntity
  8
寸法
 62
     0
 48
50.0
370
    -2
100
AcDbLine
 10
7629.896575106998
 20
10151.9313586597
 30
0.0
 11
8046.867137855477
 21
10151.9313586597
 31
0.0
  0
LINE
  5
18BE6
330
18BE0
100
AcDbEntity
  8
寸法
 62
     0
 48
50.0
370
    -2
100
AcDbLine
 10
7574.896575106999
 20
10151.9313586597
 30
0.0
 11
7629.896575106998
 21
10151.9313586597
 31
0.0
  0
INSERT
  5
18BE7
330
18BE0
100
AcDbEntity
  8
寸法
 62
     0
 48
50.0
370
    -2
100
AcDbBlockReference
  2
_DOTSMALL
 10
7574.896575106999
 20
10151.9313586597
 30
0.0
 41
100.0
 42
100.0
 43
100.0
  0
INSERT
  5
18BE8
330
18BE0
100
AcDbEntity
  8
寸法
 62
     0
 48
50.0
370
    -2
100
AcDbBlockReference
  2
_DOTSMALL
 10
7629.896575106998
 20
10151.9313586597
 30
0.0
 41
100.0
 42
100.0
 43
100.0
 50
180.0
  0
MTEXT
  5
18BE9
330
18BE0
100
AcDbEntity
  8
寸法
 62
     7
 48
50.0
100
AcDbMText
 10
7938.381856481237
 20
10251.9313586597
 30
0.0
 40
120.0
 41
0.0
 71
     5
 72
     1
  1
\A1;55
  7
STYLE1
 73
     1
 44
1.0
1001
ACAD
1000
MTEXTBEGIN
1070
    73
1070
     1
1070
    44
1040
1.0
1070
    74
1070
     0
1000
MTEXTEND
  0
POINT
  5
18BEA
330
18BE0
100
AcDbEntity
  8
DEFPOINTS
 62
     0
 48
50.0
100
AcDbPoint
 10
7574.896575106999
 20
9636.123139034717
 30
0.0
  0
POINT
  5
18BEB
330
18BE0
100
AcDbEntity
  8
DEFPOINTS
 62
     0
 48
50.0
100
AcDbPoint
 10
7629.896575106998
 20
9636.123139034717
 30
0.0
  0
POINT
  5
18BEC
330
18BE0
100
AcDbEntity
  8
DEFPOINTS
 62
     0
 48
50.0
100
AcDbPoint
 10
7629.896575106998
 20
10151.9313586597
 30
0.0
  0
ENDBLK
  5
18BED
330
18BE0
100
AcDbEntity
  8
0
 48
50.0
100
AcDbBlockEnd
  0
BLOCK
  5
18BEF
330
18BEE
100
AcDbEntity
  8
0
 48
50.0
100
AcDbBlockBegin
  2
*D6
 70
     1
 10
0.0
 20
0.0
 30
0.0
  3
*D6
  1

  0
LINE
  5
18BF0
330
18BEE
100
AcDbEntity
  8
寸法
 62
     0
 48
50.0
370
    -2
100
AcDbLine
 10
7649.896575106999
 20
9636.123139034717
 30
0.0
 11
8337.32292084141
 21
9636.123139034717
 31
0.0
  0
LINE
  5
18BF1
330
18BEE
100
AcDbEntity
  8
寸法
 62
     0
 48
50.0
370
    -2
100
AcDbLine
 10
7649.896575106999
 20
9581.123139034721
 30
0.0
 11
8337.32292084141
 21
9581.123139034721
 31
0.0
  0
LINE
  5
18BF2
330
18BEE
100
AcDbEntity
  8
寸法
 62
     0
 48
50.0
370
    -2
100
AcDbLine
 10
8277.322920841411
 20
9581.123139034721
 30
0.0
 11
8277.322920841411
 21
9481.123139034719
 31
0.0
  0
LINE
  5
18BF3
330
18BEE
100
AcDbEntity
  8
寸法
 62
     0
 48
50.0
370
    -2
100
AcDbLine
 10
8277.322920841411
 20
9636.123139034717
 30
0.0
 11
8277.322920841411
 21
10053.09370178319
 31
0.0
  0
LINE
  5
18BF4
330
18BEE
100
AcDbEntity
  8
寸法
 62
     0
 48
50.0
370
    -2
100
AcDbLine
 10
8277.322920841411
 20
9581.123139034721
 30
0.0
 11
8277.322920841411
 21
9636.123139034717
 31
0.0
  0
INSERT
  5
18BF5
330
18BEE
100
AcDbEntity
  8
寸法
 62
     0
 48
50.0
370
    -2
100
AcDbBlockReference
  2
_DOTSMALL
 10
8277.322920841411
 20
9581.123139034721
 30
0.0
 41
100.0
 42
100.0
 43
100.0
 50
90.0
  0
INSERT
  5
18BF6
330
18BEE
100
AcDbEntity
  8
寸法
 62
     0
 48
50.0
370
    -2
100
AcDbBlockReference
  2
_DOTSMALL
 10
8277.322920841411
 20
9636.123139034717
 30
0.0
 41
100.0
 42
100.0
 43
100.0
 50
270.0
  0
MTEXT
  5
18BF7
330
18BEE
100
AcDbEntity
  8
寸法
 62
     7
 48
50.0
100
AcDbMText
 10
8177.32292084141
 20
9944.608420408957
 30
0.0
 40
120.0
 41
0.0
 71
     5
 72
     1
  1
\A1;55
  7
STYLE1
 11
0.0000000000000001
 21
1.0
 31
0.0
 73
     1
 44
1.0
1001
ACAD
1000
MTEXTBEGIN
1070
    73
1070
     1
1070
    44
1040
1.0
1070
    74
1070
     0
1000
MTEXTEND
  0
POINT
  5
18BF8
330
18BEE
100
AcDbEntity
  8
DEFPOINTS
 62
     0
 48
50.0
100
AcDbPoint
 10
7629.896575106998
 20
9636.123139034717
 30
0.0
  0
POINT
  5
18BF9
330
18BEE
100
AcDbEntity
  8
DEFPOINTS
 62
     0
 48
50.0
100
AcDbPoint
 10
7629.896575106998
 20
9581.123139034721
 30
0.0
  0
POINT
  5
18BFA
330
18BEE
100
AcDbEntity
  8
DEFPOINTS
 62
     0
 48
50.0
100
AcDbPoint
 10
8277.322920841411
 20
9581.123139034721
 30
0.0
  0
ENDBLK
  5
18BFB
330
18BEE
100
AcDbEntity
  8
0
 48
50.0
100
AcDbBlockEnd
  0
BLOCK
  5
18BFD
330
18BFC
100
AcDbEntity
  8
0
 48
50.0
100
AcDbBlockBegin
  2
*D7
 70
     1
 10
0.0
 20
0.0
 30
0.0
  3
*D7
  1

  0
LINE
  5
18BFE
330
18BFC
100
AcDbEntity
  8
寸法
 62
     0
 48
50.0
370
    -2
100
AcDbLine
 10
4159.896575106963
 20
9656.123139034622
 30
0.0
 11
4159.896575106963
 21
10211.9313586596
 31
0.0
  0
LINE
  5
18BFF
330
18BFC
100
AcDbEntity
  8
寸法
 62
     0
 48
50.0
370
    -2
100
AcDbLine
 10
4214.896575106998
 20
9656.123139034622
 30
0.0
 11
4214.896575106998
 21
10211.9313586596
 31
0.0
  0
LINE
  5
18C00
330
18BFC
100
AcDbEntity
  8
寸法
 62
     0
 48
50.0
370
    -2
100
AcDbLine
 10
4214.896575106998
 20
10151.9313586596
 30
0.0
 11
4314.896575106998
 21
10151.9313586596
 31
0.0
  0
LINE
  5
18C01
330
18BFC
100
AcDbEntity
  8
寸法
 62
     0
 48
50.0
370
    -2
100
AcDbLine
 10
4159.896575106963
 20
10151.9313586596
 30
0.0
 11
3742.926012358486
 21
10151.9313586596
 31
0.0
  0
LINE
  5
18C02
330
18BFC
100
AcDbEntity
  8
寸法
 62
     0
 48
50.0
370
    -2
100
AcDbLine
 10
4214.896575106998
 20
10151.9313586596
 30
0.0
 11
4159.896575106963
 21
10151.9313586596
 31
0.0
  0
INSERT
  5
18C03
330
18BFC
100
AcDbEntity
  8
寸法
 62
     0
 48
50.0
370
    -2
100
AcDbBlockReference
  2
_DOTSMALL
 10
4214.896575106998
 20
10151.9313586596
 30
0.0
 41
100.0
 42
100.0
 43
100.0
 50
180.0
  0
INSERT
  5
18C04
330
18BFC
100
AcDbEntity
  8
寸法
 62
     0
 48
50.0
370
    -2
100
AcDbBlockReference
  2
_DOTSMALL
 10
4159.896575106963
 20
10151.9313586596
 30
0.0
 41
100.0
 42
100.0
 43
100.0
  0
MTEXT
  5
18C05
330
18BFC
100
AcDbEntity
  8
寸法
 62
     7
 48
50.0
100
AcDbMText
 10
3851.411293732725
 20
10251.9313586596
 30
0.0
 40
120.0
 41
0.0
 71
     5
 72
     1
  1
\A1;55
  7
STYLE1
 73
     1
 44
1.0
1001
ACAD
1000
MTEXTBEGIN
1070
    73
1070
     1
1070
    44
1040
1.0
1070
    74
1070
     0
1000
MTEXTEND
  0
POINT
  5
18C06
330
18BFC
100
AcDbEntity
  8
DEFPOINTS
 62
     0
 48
50.0
100
AcDbPoint
 10
4159.896575106963
 20
9636.123139034623
 30
0.0
  0
POINT
  5
18C07
330
18BFC
100
AcDbEntity
  8
DEFPOINTS
 62
     0
 48
50.0
100
AcDbPoint
 10
4214.896575106998
 20
9636.123139034623
 30
0.0
  0
POINT
  5
18C08
330
18BFC
100
AcDbEntity
  8
DEFPOINTS
 62
     0
 48
50.0
100
AcDbPoint
 10
4214.896575106998
 20
10151.9313586596
 30
0.0
  0
ENDBLK
  5
18C09
330
18BFC
100
AcDbEntity
  8
0
 48
50.0
100
AcDbBlockEnd
  0
BLOCK
  5
18C0B
330
18C0A
100
AcDbEntity
  8
0
 48
50.0
100
AcDbBlockBegin
  2
*D8
 70
     1
 10
0.0
 20
0.0
 30
0.0
  3
*D8
  1

  0
LINE
  5
18C0C
330
18C0A
100
AcDbEntity
  8
寸法
 62
     0
 48
50.0
370
    -2
100
AcDbLine
 10
4159.896575106992
 20
7826.123139034546
 30
0.0
 11
4159.896575106992
 21
6804.372203245664
 31
0.0
  0
LINE
  5
18C0D
330
18C0A
100
AcDbEntity
  8
寸法
 62
     0
 48
50.0
370
    -2
100
AcDbLine
 10
7629.896575106974
 20
7826.123139034674
 30
0.0
 11
7629.896575106974
 21
6804.372203245664
 31
0.0
  0
LINE
  5
18C0E
330
18C0A
100
AcDbEntity
  8
寸法
 62
     0
 48
50.0
370
    -2
100
AcDbLine
 10
4159.896575106992
 20
6864.372203245665
 30
0.0
 11
7629.896575106974
 21
6864.372203245665
 31
0.0
  0
INSERT
  5
18C0F
330
18C0A
100
AcDbEntity
  8
寸法
 62
     0
 48
50.0
370
    -2
100
AcDbBlockReference
  2
_DOTSMALL
 10
4159.896575106992
 20
6864.372203245665
 30
0.0
 41
100.0
 42
100.0
 43
100.0
 50
180.0
  0
INSERT
  5
18C10
330
18C0A
100
AcDbEntity
  8
寸法
 62
     0
 48
50.0
370
    -2
100
AcDbBlockReference
  2
_DOTSMALL
 10
7629.896575106974
 20
6864.372203245665
 30
0.0
 41
100.0
 42
100.0
 43
100.0
  0
MTEXT
  5
18C11
330
18C0A
100
AcDbEntity
  8
寸法
 62
     7
 48
50.0
100
AcDbMText
 10
5911.12376113973
 20
6964.372203245665
 30
0.0
 40
120.0
 41
0.0
 71
     5
 72
     1
  1
\A1;3470
  7
STYLE1
 73
     1
 44
1.0
1001
ACAD
1000
MTEXTBEGIN
1070
    73
1070
     1
1070
    44
1040
1.0
1070
    74
1070
     0
1000
MTEXTEND
  0
POINT
  5
18C12
330
18C0A
100
AcDbEntity
  8
DEFPOINTS
 62
     0
 48
50.0
100
AcDbPoint
 10
4159.896575106992
 20
7846.123139034546
 30
0.0
  0
POINT
  5
18C13
330
18C0A
100
AcDbEntity
  8
DEFPOINTS
 62
     0
 48
50.0
100
AcDbPoint
 10
7629.896575106974
 20
7846.123139034673
 30
0.0
  0
POINT
  5
18C14
330
18C0A
100
AcDbEntity
  8
DEFPOINTS
 62
     0
 48
50.0
100
AcDbPoint
 10
7629.896575106974
 20
6864.372203245665
 30
0.0
  0
ENDBLK
  5
18C15
330
18C0A
100
AcDbEntity
  8
0
 48
50.0
100
AcDbBlockEnd
  0
BLOCK
  5
18C17
330
18C16
100
AcDbEntity
  8
0
 48
50.0
100
AcDbBlockBegin
  2
*D9
 70
     1
 10
0.0
 20
0.0
 30
0.0
  3
*D9
  1

  0
LINE
  5
18C18
330
18C16
100
AcDbEntity
  8
寸法
 62
     0
 48
50.0
370
    -2
100
AcDbLine
 10
7649.896575106973
 20
7901.123139034706
 30
0.0
 11
8337.322920841385
 21
7901.123139034706
 31
0.0
  0
LINE
  5
18C19
330
18C16
100
AcDbEntity
  8
寸法
 62
     0
 48
50.0
370
    -2
100
AcDbLine
 10
7649.896575106973
 20
7846.123139034709
 30
0.0
 11
8337.322920841385
 21
7846.123139034709
 31
0.0
  0
LINE
  5
18C1A
330
18C16
100
AcDbEntity
  8
寸法
 62
     0
 48
50.0
370
    -2
100
AcDbLine
 10
8277.322920841385
 20
7901.123139034706
 30
0.0
 11
8277.322920841385
 21
8001.123139034707
 31
0.0
  0
LINE
  5
18C1B
330
18C16
100
AcDbEntity
  8
寸法
 62
     0
 48
50.0
370
    -2
100
AcDbLine
 10
8277.322920841385
 20
7846.123139034709
 30
0.0
 11
8277.322920841385
 21
7429.152576286229
 31
0.0
  0
LINE
  5
18C1C
330
18C16
100
AcDbEntity
  8
寸法
 62
     0
 48
50.0
370
    -2
100
AcDbLine
 10
8277.322920841385
 20
7901.123139034706
 30
0.0
 11
8277.322920841385
 21
7846.123139034709
 31
0.0
  0
INSERT
  5
18C1D
330
18C16
100
AcDbEntity
  8
寸法
 62
     0
 48
50.0
370
    -2
100
AcDbBlockReference
  2
_DOTSMALL
 10
8277.322920841385
 20
7901.123139034706
 30
0.0
 41
100.0
 42
100.0
 43
100.0
 50
270.0
  0
INSERT
  5
18C1E
330
18C16
100
AcDbEntity
  8
寸法
 62
     0
 48
50.0
370
    -2
100
AcDbBlockReference
  2
_DOTSMALL
 10
8277.322920841385
 20
7846.123139034709
 30
0.0
 41
100.0
 42
100.0
 43
100.0
 50
90.0
  0
MTEXT
  5
18C1F
330
18C16
100
AcDbEntity
  8
寸法
 62
     7
 48
50.0
100
AcDbMText
 10
8177.322920841383
 20
7537.637857660469
 30
0.0
 40
120.0
 41
0.0
 71
     5
 72
     1
  1
\A1;55
  7
STYLE1
 11
0.0000000000000001
 21
1.0
 31
0.0
 73
     1
 44
1.0
1001
ACAD
1000
MTEXTBEGIN
1070
    73
1070
     1
1070
    44
1040
1.0
1070
    74
1070
     0
1000
MTEXTEND
  0
POINT
  5
18C20
330
18C16
100
AcDbEntity
  8
DEFPOINTS
 62
     0
 48
50.0
100
AcDbPoint
 10
7629.896575106974
 20
7901.123139034706
 30
0.0
  0
POINT
  5
18C21
330
18C16
100
AcDbEntity
  8
DEFPOINTS
 62
     0
 48
50.0
100
AcDbPoint
 10
7629.896575106974
 20
7846.123139034709
 30
0.0
  0
POINT
  5
18C22
330
18C16
100
AcDbEntity
  8
DEFPOINTS
 62
     0
 48
50.0
100
AcDbPoint
 10
8277.322920841385
 20
7846.123139034709
 30
0.0
  0
ENDBLK
  5
18C23
330
18C16
100
AcDbEntity
  8
0
 48
50.0
100
AcDbBlockEnd
  0
BLOCK
  5
18C25
330
18C24
100
AcDbEntity
  8
0
 48
50.0
100
AcDbBlockBegin
  2
*D10
 70
     1
 10
0.0
 20
0.0
 30
0.0
  3
*D10
  1

  0
LINE
  5
18C26
330
18C24
100
AcDbEntity
  8
寸法
 62
     0
 48
50.0
370
    -2
100
AcDbLine
 10
6533.037591258376
 20
9136.123139034728
 30
0.0
 11
6465.083950562664
 21
8882.516699399049
 31
0.0
  0
LINE
  5
18C27
330
18C24
100
AcDbEntity
  8
寸法
 62
     0
 48
50.0
370
    -2
100
AcDbLine
 10
7596.037591258388
 20
9136.123139034721
 30
0.0
 11
7528.083950562677
 21
8882.516699399049
 31
0.0
  0
LINE
  5
18C28
330
18C24
100
AcDbEntity
  8
寸法
 62
     0
 48
50.0
370
    -2
100
AcDbLine
 10
6481.160902108531
 20
8942.51669939905
 30
0.0
 11
7544.160902108544
 21
8942.51669939905
 31
0.0
  0
INSERT
  5
18C29
330
18C24
100
AcDbEntity
  8
寸法
 62
     0
 48
50.0
370
    -2
100
AcDbBlockReference
  2
_DOTSMALL
 10
6481.160902108531
 20
8942.51669939905
 30
0.0
 41
100.0
 42
100.0
 43
100.0
 50
180.0
  0
INSERT
  5
18C2A
330
18C24
100
AcDbEntity
  8
寸法
 62
     0
 48
50.0
370
    -2
100
AcDbBlockReference
  2
_DOTSMALL
 10
7544.160902108544
 20
8942.51669939905
 30
0.0
 41
100.0
 42
100.0
 43
100.0
  0
MTEXT
  5
18C2B
330
18C24
100
AcDbEntity
  8
寸法
 62
     7
 48
50.0
100
AcDbMText
 10
7061.28653022935
 20
9042.516699399049
 30
0.0
 40
120.0
 41
0.0
 71
     5
 72
     1
  1
\A1;1063
  7
STYLE1
 73
     1
 44
1.0
1001
ACAD
1000
MTEXTBEGIN
1070
    73
1070
     1
1070
    44
1040
1.0
1070
    74
1070
     0
1000
MTEXTEND
  0
POINT
  5
18C2C
330
18C24
100
AcDbEntity
  8
DEFPOINTS
 62
     0
 48
50.0
100
AcDbPoint
 10
6538.396575106998
 20
9156.123139034727
 30
0.0
  0
POINT
  5
18C2D
330
18C24
100
AcDbEntity
  8
DEFPOINTS
 62
     0
 48
50.0
100
AcDbPoint
 10
7601.39657510701
 20
9156.12313903472
 30
0.0
  0
POINT
  5
18C2E
330
18C24
100
AcDbEntity
  8
DEFPOINTS
 62
     0
 48
50.0
100
AcDbPoint
 10
7544.160902108544
 20
8942.51669939905
 30
0.0
  0
ENDBLK
  5
18C2F
330
18C24
100
AcDbEntity
  8
0
 48
50.0
100
AcDbBlockEnd
  0
BLOCK
  5
18C31
330
18C30
100
AcDbEntity
  8
0
 48
50.0
100
AcDbBlockBegin
  2
*D11
 70
     1
 10
0.0
 20
0.0
 30
0.0
  3
*D11
  1

  0
LINE
  5
18C32
330
18C30
100
AcDbEntity
  8
寸法
 62
     0
 48
50.0
370
    -2
100
AcDbLine
 10
7621.396575106999
 20
9600.764155186094
 30
0.0
 11
8016.754300969024
 21
9494.828371819961
 31
0.0
  0
LINE
  5
18C33
330
18C30
100
AcDbEntity
  8
寸法
 62
     0
 48
50.0
370
    -2
100
AcDbLine
 10
7621.396575106999
 20
9150.764155186099
 30
0.0
 11
8016.754300969024
 21
9044.828371819964
 31
0.0
  0
LINE
  5
18C34
330
18C30
100
AcDbEntity
  8
寸法
 62
     0
 48
50.0
370
    -2
100
AcDbLine
 10
7956.754300969024
 20
9510.905323365827
 30
0.0
 11
7956.754300969024
 21
9060.90532336583
 31
0.0
  0
INSERT
  5
18C35
330
18C30
100
AcDbEntity
  8
寸法
 62
     0
 48
50.0
370
    -2
100
AcDbBlockReference
  2
_DOTSMALL
 10
7956.754300969024
 20
9510.905323365827
 30
0.0
 41
100.0
 42
100.0
 43
100.0
 50
90.0
  0
INSERT
  5
18C36
330
18C30
100
AcDbEntity
  8
寸法
 62
     0
 48
50.0
370
    -2
100
AcDbBlockReference
  2
_DOTSMALL
 10
7956.754300969024
 20
9060.90532336583
 30
0.0
 41
100.0
 42
100.0
 43
100.0
 50
270.0
  0
MTEXT
  5
18C37
330
18C30
100
AcDbEntity
  8
寸法
 62
     7
 48
50.0
100
AcDbMText
 10
7856.754300969022
 20
9285.905323365829
 30
0.0
 40
120.0
 41
0.0
 71
     5
 72
     1
  1
\A1;450
  7
STYLE1
 11
0.0000000000000001
 21
1.0
 31
0.0
 73
     1
 44
1.0
1001
ACAD
1000
MTEXTBEGIN
1070
    73
1070
     1
1070
    44
1040
1.0
1070
    74
1070
     0
1000
MTEXTEND
  0
POINT
  5
18C38
330
18C30
100
AcDbEntity
  8
DEFPOINTS
 62
     0
 48
50.0
100
AcDbPoint
 10
7601.396575106999
 20
9606.123139034718
 30
0.0
  0
POINT
  5
18C39
330
18C30
100
AcDbEntity
  8
DEFPOINTS
 62
     0
 48
50.0
100
AcDbPoint
 10
7601.396575106999
 20
9156.12313903472
 30
0.0
  0
POINT
  5
18C3A
330
18C30
100
AcDbEntity
  8
DEFPOINTS
 62
     0
 48
50.0
100
AcDbPoint
 10
7956.754300969024
 20
9060.90532336583
 30
0.0
  0
ENDBLK
  5
18C3B
330
18C30
100
AcDbEntity
  8
0
 48
50.0
100
AcDbBlockEnd
  0
BLOCK
  5
18C3D
330
18C3C
100
AcDbEntity
  8
0
 48
50.0
100
AcDbBlockBegin
  2
*D12
 70
     1
 10
0.0
 20
0.0
 30
0.0
  3
*D12
  1

  0
LINE
  5
18C3E
330
18C3C
100
AcDbEntity
  8
寸法
 62
     0
 48
50.0
370
    -2
100
AcDbLine
 10
7649.896575106999
 20
9581.123139034721
 30
0.0
 11
8337.32292084141
 21
9581.123139034721
 31
0.0
  0
LINE
  5
18C3F
330
18C3C
100
AcDbEntity
  8
寸法
 62
     0
 48
50.0
370
    -2
100
AcDbLine
 10
7649.896575106973
 20
7901.123139034706
 30
0.0
 11
8337.32292084141
 21
7901.123139034706
 31
0.0
  0
LINE
  5
18C40
330
18C3C
100
AcDbEntity
  8
寸法
 62
     0
 48
50.0
370
    -2
100
AcDbLine
 10
8277.322920841411
 20
9581.123139034721
 30
0.0
 11
8277.322920841411
 21
7901.123139034706
 31
0.0
  0
INSERT
  5
18C41
330
18C3C
100
AcDbEntity
  8
寸法
 62
     0
 48
50.0
370
    -2
100
AcDbBlockReference
  2
_DOTSMALL
 10
8277.322920841411
 20
9581.123139034721
 30
0.0
 41
100.0
 42
100.0
 43
100.0
 50
90.0
  0
INSERT
  5
18C42
330
18C3C
100
AcDbEntity
  8
寸法
 62
     0
 48
50.0
370
    -2
100
AcDbBlockReference
  2
_DOTSMALL
 10
8277.322920841411
 20
7901.123139034706
 30
0.0
 41
100.0
 42
100.0
 43
100.0
 50
270.0
  0
MTEXT
  5
18C43
330
18C3C
100
AcDbEntity
  8
寸法
 62
     7
 48
50.0
100
AcDbMText
 10
8177.311109817788
 20
8741.123139034712
 30
0.0
 40
120.0
 41
0.0
 71
     5
 72
     1
  1
\A1;4X420=1680
  7
STYLE1
 11
0.0000000000000001
 21
1.0
 31
0.0
 73
     1
 44
1.0
1001
ACAD
1000
MTEXTBEGIN
1070
    73
1070
     1
1070
    44
1040
1.0
1070
    74
1070
     0
1000
MTEXTEND
  0
POINT
  5
18C44
330
18C3C
100
AcDbEntity
  8
DEFPOINTS
 62
     0
 48
50.0
100
AcDbPoint
 10
7629.896575106998
 20
9581.123139034721
 30
0.0
  0
POINT
  5
18C45
330
18C3C
100
AcDbEntity
  8
DEFPOINTS
 62
     0
 48
50.0
100
AcDbPoint
 10
7629.896575106974
 20
7901.123139034706
 30
0.0
  0
POINT
  5
18C46
330
18C3C
100
AcDbEntity
  8
DEFPOINTS
 62
     0
 48
50.0
100
AcDbPoint
 10
8277.322920841411
 20
7901.123139034706
 30
0.0
  0
ENDBLK
  5
18C47
330
18C3C
100
AcDbEntity
  8
0
 48
50.0
100
AcDbBlockEnd
  0
BLOCK
  5
18C49
330
18C48
100
AcDbEntity
  8
0
 48
50.0
100
AcDbBlockBegin
  2
*D13
 70
     1
 10
0.0
 20
0.0
 30
0.0
  3
*D13
  1

  0
LINE
  5
18C4A
330
18C48
100
AcDbEntity
  8
寸法
 62
     0
 48
50.0
370
    -2
100
AcDbLine
 10
4183.037591258377
 20
9136.123139034619
 30
0.0
 11
4115.083950562663
 21
8882.516699398941
 31
0.0
  0
LINE
  5
18C4B
330
18C48
100
AcDbEntity
  8
寸法
 62
     0
 48
50.0
370
    -2
100
AcDbLine
 10
5246.037591258307
 20
9136.123139034671
 30
0.0
 11
5178.08395056258
 21
8882.516699398941
 31
0.0
  0
LINE
  5
18C4C
330
18C48
100
AcDbEntity
  8
寸法
 62
     0
 48
50.0
370
    -2
100
AcDbLine
 10
4131.160902108532
 20
8942.516699398941
 30
0.0
 11
5194.160902108448
 21
8942.516699398941
 31
0.0
  0
INSERT
  5
18C4D
330
18C48
100
AcDbEntity
  8
寸法
 62
     0
 48
50.0
370
    -2
100
AcDbBlockReference
  2
_DOTSMALL
 10
4131.160902108532
 20
8942.516699398941
 30
0.0
 41
100.0
 42
100.0
 43
100.0
 50
180.0
  0
INSERT
  5
18C4E
330
18C48
100
AcDbEntity
  8
寸法
 62
     0
 48
50.0
370
    -2
100
AcDbBlockReference
  2
_DOTSMALL
 10
5194.160902108448
 20
8942.516699398941
 30
0.0
 41
100.0
 42
100.0
 43
100.0
  0
MTEXT
  5
18C4F
330
18C48
100
AcDbEntity
  8
寸法
 62
     7
 48
50.0
100
AcDbMText
 10
4658.986452655306
 20
9042.516699398941
 30
0.0
 40
120.0
 41
0.0
 71
     5
 72
     1
  1
\A1;1063
  7
STYLE1
 73
     1
 44
1.0
1001
ACAD
1000
MTEXTBEGIN
1070
    73
1070
     1
1070
    44
1040
1.0
1070
    74
1070
     0
1000
MTEXTEND
  0
POINT
  5
18C50
330
18C48
100
AcDbEntity
  8
DEFPOINTS
 62
     0
 48
50.0
100
AcDbPoint
 10
4188.396575106999
 20
9156.123139034617
 30
0.0
  0
POINT
  5
18C51
330
18C48
100
AcDbEntity
  8
DEFPOINTS
 62
     0
 48
50.0
100
AcDbPoint
 10
5251.396575106929
 20
9156.123139034672
 30
0.0
  0
POINT
  5
18C52
330
18C48
100
AcDbEntity
  8
DEFPOINTS
 62
     0
 48
50.0
100
AcDbPoint
 10
5194.160902108448
 20
8942.516699398941
 30
0.0
  0
ENDBLK
  5
18C53
330
18C48
100
AcDbEntity
  8
0
 48
50.0
100
AcDbBlockEnd
  0
BLOCK
  5
18C55
330
18C54
100
AcDbEntity
  8
0
 48
50.0
100
AcDbBlockBegin
  2
*D14
 70
     1
 10
0.0
 20
0.0
 30
0.0
  3
*D14
  1

  0
LINE
  5
18C56
330
18C54
100
AcDbEntity
  8
寸法
 62
     0
 48
50.0
370
    -2
100
AcDbLine
 10
5274.037591258307
 20
9136.123139034669
 30
0.0
 11
5206.08395056258
 21
8882.516699398941
 31
0.0
  0
LINE
  5
18C57
330
18C54
100
AcDbEntity
  8
寸法
 62
     0
 48
50.0
370
    -2
100
AcDbLine
 10
6505.037591258377
 20
9136.123139034662
 30
0.0
 11
6437.083950562653
 21
8882.516699398941
 31
0.0
  0
LINE
  5
18C58
330
18C54
100
AcDbEntity
  8
寸法
 62
     0
 48
50.0
370
    -2
100
AcDbLine
 10
5222.160902108448
 20
8942.516699398941
 30
0.0
 11
6453.16090210852
 21
8942.516699398941
 31
0.0
  0
INSERT
  5
18C59
330
18C54
100
AcDbEntity
  8
寸法
 62
     0
 48
50.0
370
    -2
100
AcDbBlockReference
  2
_DOTSMALL
 10
5222.160902108448
 20
8942.516699398941
 30
0.0
 41
100.0
 42
100.0
 43
100.0
 50
180.0
  0
INSERT
  5
18C5A
330
18C54
100
AcDbEntity
  8
寸法
 62
     0
 48
50.0
370
    -2
100
AcDbBlockReference
  2
_DOTSMALL
 10
6453.16090210852
 20
8942.516699398941
 30
0.0
 41
100.0
 42
100.0
 43
100.0
  0
MTEXT
  5
18C5B
330
18C54
100
AcDbEntity
  8
寸法
 62
     7
 48
50.0
100
AcDbMText
 10
6081.244808320626
 20
9042.528510422561
 30
0.0
 40
120.0
 41
0.0
 71
     5
 72
     1
  1
\A1;1231
  7
STYLE1
 73
     1
 44
1.0
1001
ACAD
1000
MTEXTBEGIN
1070
    73
1070
     1
1070
    44
1040
1.0
1070
    74
1070
     0
1000
MTEXTEND
  0
POINT
  5
18C5C
330
18C54
100
AcDbEntity
  8
DEFPOINTS
 62
     0
 48
50.0
100
AcDbPoint
 10
5279.396575106929
 20
9156.123139034669
 30
0.0
  0
POINT
  5
18C5D
330
18C54
100
AcDbEntity
  8
DEFPOINTS
 62
     0
 48
50.0
100
AcDbPoint
 10
6510.396575106999
 20
9156.123139034662
 30
0.0
  0
POINT
  5
18C5E
330
18C54
100
AcDbEntity
  8
DEFPOINTS
 62
     0
 48
50.0
100
AcDbPoint
 10
6453.16090210852
 20
8942.516699398941
 30
0.0
  0
ENDBLK
  5
18C5F
330
18C54
100
AcDbEntity
  8
0
 48
50.0
100
AcDbBlockEnd
  0
BLOCK
  5
18C61
330
18C60
100
AcDbEntity
  8
0
 48
50.0
100
AcDbBlockBegin
  2
*D15
 70
     1
 10
0.0
 20
0.0
 30
0.0
  3
*D15
  1

  0
LINE
  5
18C62
330
18C60
100
AcDbEntity
  8
寸法
 62
     0
 48
50.0
370
    -2
100
AcDbLine
 10
5065.896575106966
 20
7749.123139034579
 30
0.0
 11
5065.896575106966
 21
7099.952920982538
 31
0.0
  0
LINE
  5
18C63
330
18C60
100
AcDbEntity
  8
寸法
 62
     0
 48
50.0
370
    -2
100
AcDbLine
 10
6331.896575106966
 20
7749.123139034579
 30
0.0
 11
6331.896575106966
 21
7099.952920982538
 31
0.0
  0
LINE
  5
18C64
330
18C60
100
AcDbEntity
  8
寸法
 62
     0
 48
50.0
370
    -2
100
AcDbLine
 10
5065.896575106966
 20
7159.952920982537
 30
0.0
 11
6331.896575106966
 21
7159.952920982537
 31
0.0
  0
INSERT
  5
18C65
330
18C60
100
AcDbEntity
  8
寸法
 62
     0
 48
50.0
370
    -2
100
AcDbBlockReference
  2
_DOTSMALL
 10
5065.896575106966
 20
7159.952920982537
 30
0.0
 41
100.0
 42
100.0
 43
100.0
 50
180.0
  0
INSERT
  5
18C66
330
18C60
100
AcDbEntity
  8
寸法
 62
     0
 48
50.0
370
    -2
100
AcDbBlockReference
  2
_DOTSMALL
 10
6331.896575106966
 20
7159.952920982537
 30
0.0
 41
100.0
 42
100.0
 43
100.0
  0
MTEXT
  5
18C67
330
18C60
100
AcDbEntity
  8
寸法
 62
     7
 48
50.0
100
AcDbMText
 10
5711.986008735934
 20
7359.964732006159
 30
0.0
 40
120.0
 41
0.0
 71
     5
 72
     1
  1
\A1;有効開口部間口\P1266
  7
STYLE1
 73
     1
 44
1.0
1001
ACAD
1000
MTEXTBEGIN
1070
    73
1070
     1
1070
    44
1040
1.0
1070
    74
1070
     0
1000
MTEXTEND
  0
POINT
  5
18C68
330
18C60
100
AcDbEntity
  8
DEFPOINTS
 62
     0
 48
50.0
100
AcDbPoint
 10
5065.896575106966
 20
7769.123139034579
 30
0.0
  0
POINT
  5
18C69
330
18C60
100
AcDbEntity
  8
DEFPOINTS
 62
     0
 48
50.0
100
AcDbPoint
 10
6331.896575106966
 20
7769.123139034579
 30
0.0
  0
POINT
  5
18C6A
330
18C60
100
AcDbEntity
  8
DEFPOINTS
 62
     0
 48
50.0
100
AcDbPoint
 10
6331.896575106966
 20
7159.952920982537
 30
0.0
  0
ENDBLK
  5
18C6B
330
18C60
100
AcDbEntity
  8
0
 48
50.0
100
AcDbBlockEnd
  0
BLOCK
  5
18C6D
330
18C6C
100
AcDbEntity
  8
0
 48
50.0
100
AcDbBlockBegin
  2
*D16
 70
     1
 10
0.0
 20
0.0
 30
0.0
  3
*D16
  1

  0
LINE
  5
18C6E
330
18C6C
100
AcDbEntity
  8
寸法
 62
     0
 48
50.0
370
    -2
100
AcDbLine
 10
7200.896575106966
 20
7846.123139034578
 30
0.0
 11
7457.192158500191
 21
7846.123139034578
 31
0.0
  0
LINE
  5
18C6F
330
18C6C
100
AcDbEntity
  8
寸法
 62
     0
 48
50.0
370
    -2
100
AcDbLine
 10
7199.896575106966
 20
7769.123139034579
 30
0.0
 11
7457.192158500191
 21
7769.123139034579
 31
0.0
  0
LINE
  5
18C70
330
18C6C
100
AcDbEntity
  8
寸法
 62
     0
 48
50.0
370
    -2
100
AcDbLine
 10
7417.192158500192
 20
7866.123139034579
 30
0.0
 11
7417.192158500192
 21
7886.123139034578
 31
0.0
  0
LINE
  5
18C71
330
18C6C
100
AcDbEntity
  8
寸法
 62
     0
 48
50.0
370
    -2
100
AcDbLine
 10
7417.192158500192
 20
7749.123139034579
 30
0.0
 11
7417.192158500192
 21
7533.123139034573
 31
0.0
  0
LINE
  5
18C72
330
18C6C
100
AcDbEntity
  8
寸法
 62
     0
 48
50.0
370
    -2
100
AcDbLine
 10
7417.192158500192
 20
7846.123139034578
 30
0.0
 11
7417.192158500192
 21
7769.123139034579
 31
0.0
  0
INSERT
  5
18C73
330
18C6C
100
AcDbEntity
  8
寸法
 62
     0
 48
50.0
370
    -2
100
AcDbBlockReference
  2
_DOT
 10
7417.192158500192
 20
7846.123139034578
 30
0.0
 41
20.0
 42
20.0
 43
20.0
 50
270.0
  0
INSERT
  5
18C74
330
18C6C
100
AcDbEntity
  8
寸法
 62
     0
 48
50.0
370
    -2
100
AcDbBlockReference
  2
_DOT
 10
7417.192158500192
 20
7769.123139034579
 30
0.0
 41
20.0
 42
20.0
 43
20.0
 50
90.0
  0
MTEXT
  5
18C75
330
18C6C
100
AcDbEntity
  8
寸法
 62
     7
 48
50.0
100
AcDbMText
 10
7325.192158500191
 20
7631.123139034575
 30
0.0
 40
120.0
 41
0.0
 71
     5
 72
     1
  1
\A1;77
  7
STYLE1
 11
0.0000000000000001
 21
1.0
 31
0.0
 73
     1
 44
1.0
1001
ACAD
1000
MTEXTBEGIN
1070
    73
1070
     1
1070
    44
1040
1.0
1070
    74
1070
     0
1000
MTEXTEND
  0
POINT
  5
18C76
330
18C6C
100
AcDbEntity
  8
DEFPOINTS
 62
     0
 48
50.0
100
AcDbPoint
 10
7180.896575106967
 20
7846.123139034578
 30
0.0
  0
POINT
  5
18C77
330
18C6C
100
AcDbEntity
  8
DEFPOINTS
 62
     0
 48
50.0
100
AcDbPoint
 10
7179.896575106965
 20
7769.123139034579
 30
0.0
  0
POINT
  5
18C78
330
18C6C
100
AcDbEntity
  8
DEFPOINTS
 62
     0
 48
50.0
100
AcDbPoint
 10
7417.192158500192
 20
7769.123139034579
 30
0.0
  0
ENDBLK
  5
18C79
330
18C6C
100
AcDbEntity
  8
0
 48
50.0
100
AcDbBlockEnd
  0
BLOCK
  5
18DA0
330
18C7A
100
AcDbEntity
  8
0
 48
50.0
100
AcDbBlockBegin
  2
A$C3B1A506B
 70
     0
 10
0.0
 20
0.0
 30
0.0
  3
A$C3B1A506B
  1

  0
MTEXT
  5
18C7B
330
18C7A
100
AcDbEntity
  8
寸法
 62
     7
 48
50.0
100
AcDbMText
 10
3342.250386887194
 20
2778.329429134012
 30
0.0
 40
96.0
 41
0.0
 71
     5
 72
     1
  1
棚 2段
  7
STYLE1
 73
     1
 44
1.0
1001
ACAD
1000
MTEXTBEGIN
1070
    73
1070
     1
1070
    44
1040
1.0
1070
    74
1070
     0
1000
MTEXTEND
  0
MTEXT
  5
18C7C
330
18C7A
100
AcDbEntity
  8
寸法
 62
     7
 48
50.0
100
AcDbMText
 10
2167.25038688716
 20
2778.329429133986
 30
0.0
 40
96.0
 41
0.0
 71
     5
 72
     1
  1
棚 2段
  7
STYLE1
 73
     1
 44
1.0
1001
ACAD
1000
MTEXTBEGIN
1070
    73
1070
     1
1070
    44
1040
1.0
1070
    74
1070
     0
1000
MTEXTEND
  0
MTEXT
  5
18C7D
330
18C7A
100
AcDbEntity
  8
寸法
 62
     7
 48
50.0
100
AcDbMText
 10
992.2503868871608
 20
2778.329429133935
 30
0.0
 40
96.0
 41
0.0
 71
     5
 72
     1
  1
棚 2段
  7
STYLE1
 73
     1
 44
1.0
1001
ACAD
1000
MTEXTBEGIN
1070
    73
1070
     1
1070
    44
1040
1.0
1070
    74
1070
     0
1000
MTEXTEND
  0
LINE
  5
18C7E
330
18C7A
100
AcDbEntity
  8
細線
 48
50.0
100
AcDbLine
 10
2771.970589276527
 20
1368.994384123192
 30
0.0
 11
3398.970589276523
 21
1368.994384123192
 31
0.0
  0
LINE
  5
18C7F
330
18C7A
100
AcDbEntity
  8
細線
 48
50.0
100
AcDbLine
 10
2117.970593930113
 20
1335.285615569113
 30
0.0
 11
3398.970589276523
 21
1335.285615569113
 31
0.0
  0
LINE
  5
18C80
330
18C7A
100
AcDbEntity
  8
細線
 48
50.0
100
AcDbLine
 10
2076.970593930115
 20
1364.690523565368
 30
0.0
 11
1322.970589276523
 21
1364.690523565367
 31
0.0
  0
LINE
  5
18C81
330
18C7A
100
AcDbEntity
  8
細線
100
AcDbLine
 10
3170.720579860066
 20
1388.494284088199
 30
0.0
 11
3173.052119381877
 21
1393.494286728162
 31
0.0
  0
LINE
  5
18C82
330
18C7A
100
AcDbEntity
  8
細線
100
AcDbLine
 10
3240.720589276525
 20
1388.494269174465
 30
0.0
 11
3238.389042800336
 21
1393.494286728144
 31
0.0
  0
LINE
  5
18C83
330
18C7A
100
AcDbEntity
  8
細線
100
AcDbLine
 10
3238.389042800336
 20
1393.494286728144
 30
0.0
 11
3173.052119381862
 21
1393.494286728133
 31
0.0
  0
LINE
  5
18C84
330
18C7A
100
AcDbEntity
  8
細線
100
AcDbLine
 10
3098.389042800336
 20
1393.494286728144
 30
0.0
 11
3033.052119381862
 21
1393.494286728133
 31
0.0
  0
LINE
  5
18C85
330
18C7A
100
AcDbEntity
  8
細線
100
AcDbLine
 10
3100.720589276523
 20
1388.494269174465
 30
0.0
 11
3098.389042800336
 21
1393.494286728144
 31
0.0
  0
LINE
  5
18C86
330
18C7A
100
AcDbEntity
  8
細線
100
AcDbLine
 10
3030.720579860066
 20
1388.494284088199
 30
0.0
 11
3033.052119381875
 21
1393.494286728162
 31
0.0
  0
LINE
  5
18C87
330
18C7A
100
AcDbEntity
  8
細線
100
AcDbLine
 10
2890.720589276525
 20
1388.494269174465
 30
0.0
 11
2893.052128798336
 21
1393.494271814428
 31
0.0
  0
LINE
  5
18C88
330
18C7A
100
AcDbEntity
  8
細線
100
AcDbLine
 10
2960.720598692984
 20
1388.494254260731
 30
0.0
 11
2958.389052216793
 21
1393.49427181441
 31
0.0
  0
LINE
  5
18C89
330
18C7A
100
AcDbEntity
  8
細線
100
AcDbLine
 10
2958.389052216795
 20
1393.49427181441
 30
0.0
 11
2893.052128798321
 21
1393.494271814399
 31
0.0
  0
LINE
  5
18C8A
330
18C7A
100
AcDbEntity
  8
細線
100
AcDbLine
 10
2667.139038146739
 20
1359.494298590735
 30
0.0
 11
2601.802114728263
 21
1359.494298590724
 31
0.0
  0
LINE
  5
18C8B
330
18C7A
100
AcDbEntity
  8
細線
100
AcDbLine
 10
2669.470584622926
 20
1354.494281037055
 30
0.0
 11
2667.139038146737
 21
1359.494298590735
 31
0.0
  0
LINE
  5
18C8C
330
18C7A
100
AcDbEntity
  8
細線
100
AcDbLine
 10
2599.470575206469
 20
1354.49429595079
 30
0.0
 11
2601.802114728278
 21
1359.494298590752
 31
0.0
  0
LINE
  5
18C8D
330
18C7A
100
AcDbEntity
  8
細線
 48
50.0
100
AcDbLine
 10
2440.853968524536
 20
1372.765132327548
 30
0.0
 11
2446.609486107205
 21
1354.494281037057
 31
0.0
  0
LINE
  5
18C8E
330
18C7A
100
AcDbEntity
  8
細線
 48
50.0
100
AcDbLine
 10
2429.925520044106
 20
1372.765132327546
 30
0.0
 11
2440.853968524536
 21
1372.765132327548
 31
0.0
  0
ARC
  5
18C8F
330
18C7A
100
AcDbEntity
  8
細線
 48
50.0
100
AcDbCircle
 10
2424.471163986787
 20
1374.265132327546
 30
0.0
 40
5.0
100
AcDbArc
 50
204.6243183520723
 51
335.3756816479278
  0
ARC
  5
18C90
330
18C7A
100
AcDbEntity
  8
細線
 48
50.0
100
AcDbCircle
 10
2429.925520044106
 20
1371.765132327546
 30
0.0
 40
1.0
100
AcDbArc
 50
90.0
 51
155.3756816479277
  0
ARC
  5
18C91
330
18C7A
100
AcDbEntity
  8
細線
 48
50.0
100
AcDbCircle
 10
2419.016807929469
 20
1371.765132327546
 30
0.0
 40
1.0
100
AcDbArc
 50
24.62431835207225
 51
90.0
  0
LINE
  5
18C92
330
18C7A
100
AcDbEntity
  8
細線
 48
50.0
100
AcDbLine
 10
2408.088359449037
 20
1372.765132327548
 30
0.0
 11
2419.016807929469
 21
1372.765132327546
 31
0.0
  0
LINE
  5
18C93
330
18C7A
100
AcDbEntity
  8
細線
 48
50.0
100
AcDbLine
 10
2402.33284186637
 20
1354.494281037054
 30
0.0
 11
2408.088359449037
 21
1372.765132327548
 31
0.0
  0
LINE
  5
18C94
330
18C7A
100
AcDbEntity
  8
細線
100
AcDbLine
 10
2458.070304175992
 20
1354.494278397076
 30
0.0
 11
2460.401843697802
 21
1359.494281037039
 31
0.0
  0
LINE
  5
18C95
330
18C7A
100
AcDbEntity
  8
細線
100
AcDbLine
 10
2528.070313592451
 20
1354.494263483342
 30
0.0
 11
2525.738767116262
 21
1359.494281037021
 31
0.0
  0
LINE
  5
18C96
330
18C7A
100
AcDbEntity
  8
細線
100
AcDbLine
 10
2525.738767116262
 20
1359.494281037021
 30
0.0
 11
2460.40184369779
 21
1359.49428103701
 31
0.0
  0
LINE
  5
18C97
330
18C7A
100
AcDbEntity
  8
細線
100
AcDbLine
 10
2387.139046332155
 20
1359.494281037021
 30
0.0
 11
2321.80212291368
 21
1359.49428103701
 31
0.0
  0
LINE
  5
18C98
330
18C7A
100
AcDbEntity
  8
細線
100
AcDbLine
 10
2389.470592808342
 20
1354.494263483342
 30
0.0
 11
2387.139046332153
 21
1359.494281037021
 31
0.0
  0
LINE
  5
18C99
330
18C7A
100
AcDbEntity
  8
細線
100
AcDbLine
 10
2319.470584622926
 20
1354.494281037054
 30
0.0
 11
2321.802122913694
 21
1359.494281037039
 31
0.0
  0
LINE
  5
18C9A
330
18C7A
100
AcDbEntity
  8
細線
100
AcDbLine
 10
2179.47061994182
 20
1354.494289224422
 30
0.0
 11
2181.802158232587
 21
1359.494289224407
 31
0.0
  0
LINE
  5
18C9B
330
18C7A
100
AcDbEntity
  8
細線
100
AcDbLine
 10
2249.470628127236
 20
1354.49427167071
 30
0.0
 11
2247.139081651047
 21
1359.494289224389
 31
0.0
  0
LINE
  5
18C9C
330
18C7A
100
AcDbEntity
  8
細線
100
AcDbLine
 10
2247.139081651047
 20
1359.494289224389
 30
0.0
 11
2181.802158232573
 21
1359.494289224378
 31
0.0
  0
LINE
  5
18C9D
330
18C7A
100
AcDbEntity
  8
細線
100
AcDbLine
 10
1807.970585744697
 20
1320.494460905133
 30
0.0
 11
1810.302124035464
 21
1325.494460905118
 31
0.0
  0
LINE
  5
18C9E
330
18C7A
100
AcDbEntity
  8
細線
100
AcDbLine
 10
1877.970593930113
 20
1320.494443351421
 30
0.0
 11
1875.639047453926
 21
1325.4944609051
 31
0.0
  0
LINE
  5
18C9F
330
18C7A
100
AcDbEntity
  8
細線
100
AcDbLine
 10
1875.639047453926
 20
1325.4944609051
 30
0.0
 11
1810.302124035452
 21
1325.494460905089
 31
0.0
  0
LINE
  5
18CA0
330
18C7A
100
AcDbEntity
  8
細線
100
AcDbLine
 10
2015.639047453926
 20
1325.4944609051
 30
0.0
 11
1950.302124035452
 21
1325.494460905089
 31
0.0
  0
LINE
  5
18CA1
330
18C7A
100
AcDbEntity
  8
細線
100
AcDbLine
 10
2017.970593930113
 20
1320.494443351421
 30
0.0
 11
2015.639047453924
 21
1325.4944609051
 31
0.0
  0
LINE
  5
18CA2
330
18C7A
100
AcDbEntity
  8
細線
100
AcDbLine
 10
1947.970585744697
 20
1320.494460905133
 30
0.0
 11
1950.302124035465
 21
1325.494460905118
 31
0.0
  0
LINE
  5
18CA3
330
18C7A
100
AcDbEntity
  8
細線
100
AcDbLine
 10
1735.639047453926
 20
1325.494460905098
 30
0.0
 11
1670.302124035454
 21
1325.494460905087
 31
0.0
  0
LINE
  5
18CA4
330
18C7A
100
AcDbEntity
  8
細線
100
AcDbLine
 10
1737.970593930113
 20
1320.494443351419
 30
0.0
 11
1735.639047453926
 21
1325.494460905098
 31
0.0
  0
LINE
  5
18CA5
330
18C7A
100
AcDbEntity
  8
細線
100
AcDbLine
 10
1667.970585744697
 20
1320.494460905131
 30
0.0
 11
1670.302124035465
 21
1325.494460905116
 31
0.0
  0
LINE
  5
18CA6
330
18C7A
100
AcDbEntity
  8
細線
100
AcDbLine
 10
1527.970593930113
 20
1320.494460905133
 30
0.0
 11
1530.302132220881
 21
1325.494460905118
 31
0.0
  0
LINE
  5
18CA7
330
18C7A
100
AcDbEntity
  8
細線
100
AcDbLine
 10
1597.970602115529
 20
1320.494443351421
 30
0.0
 11
1595.639055639342
 21
1325.4944609051
 31
0.0
  0
LINE
  5
18CA8
330
18C7A
100
AcDbEntity
  8
細線
100
AcDbLine
 10
1595.639055639342
 20
1325.4944609051
 30
0.0
 11
1530.302132220869
 21
1325.494460905089
 31
0.0
  0
ARC
  5
18CA9
330
18C7A
100
AcDbEntity
  8
部品1
 48
0.01
100
AcDbCircle
 10
1483.470482677778
 20
1319.493338720063
 30
0.0
 40
0.5
100
AcDbArc
 50
270.0
 51
0.0
  0
LINE
  5
18CAA
330
18C7A
100
AcDbEntity
  8
部品1
 48
0.01
100
AcDbLine
 10
1483.970482677778
 20
1320.493338720063
 30
0.0
 11
1483.970482677778
 21
1319.493338720063
 31
0.0
  0
LINE
  5
18CAB
330
18C7A
100
AcDbEntity
  8
部品1
 48
0.01
100
AcDbLine
 10
1483.970482677778
 20
1320.493338720063
 30
0.0
 11
1483.970482677778
 21
1319.493338720063
 31
0.0
  0
LINE
  5
18CAC
330
18C7A
100
AcDbEntity
  8
部品1
 48
0.01
100
AcDbLine
 10
1483.470482677778
 20
1318.993338720063
 30
0.0
 11
1476.857977247713
 21
1318.993338720062
 31
0.0
  0
ARC
  5
18CAD
330
18C7A
100
AcDbEntity
  8
部品1
100
AcDbCircle
 10
1476.926326800494
 20
1319.993338720062
 30
0.0
 40
1.0
100
AcDbArc
 50
160.5287793655865
 51
270.0
  0
ARC
  5
18CAE
330
18C7A
100
AcDbEntity
  8
部品1
100
AcDbCircle
 10
1451.470482677778
 20
1328.993338720062
 30
0.0
 40
26.0
100
AcDbArc
 50
340.5287793655865
 51
0.0
  0
LINE
  5
18CAF
330
18C7A
100
AcDbEntity
  8
部品1
100
AcDbLine
 10
1477.470482677778
 20
1328.993338720062
 30
0.0
 11
1477.470482677778
 21
1333.993338720061
 31
0.0
  0
ARC
  5
18CB0
330
18C7A
100
AcDbEntity
  8
部品1
 48
0.01
100
AcDbCircle
 10
1475.470482677778
 20
1333.993338720061
 30
0.0
 40
2.0
100
AcDbArc
 50
0.0
 51
90.0
  0
ARC
  5
18CB1
330
18C7A
100
AcDbEntity
  8
部品1
100
AcDbCircle
 10
1473.862091052968
 20
1332.993338720062
 30
0.0
 40
3.0
100
AcDbArc
 50
90.0
 51
141.6069559808035
  0
LINE
  5
18CB2
330
18C7A
100
AcDbEntity
  8
部品1
 48
0.01
100
AcDbLine
 10
1475.470482677778
 20
1335.993338720062
 30
0.0
 11
1473.862091052968
 21
1335.993338720062
 31
0.0
  0
ARC
  5
18CB3
330
18C7A
100
AcDbEntity
  8
部品1
100
AcDbCircle
 10
1455.399768463507
 20
1332.293338720065
 30
0.0
 40
3.0
100
AcDbArc
 50
254.0576313943215
 51
270.0
  0
ARC
  5
18CB4
330
18C7A
100
AcDbEntity
  8
部品1
100
AcDbCircle
 10
1462.541196892049
 20
1332.293338720065
 30
0.0
 40
3.0
100
AcDbArc
 50
270.0
 51
285.9423686056786
  0
LINE
  5
18CB5
330
18C7A
100
AcDbEntity
  8
部品1
100
AcDbLine
 10
1462.541196892049
 20
1329.293338720064
 30
0.0
 11
1455.399768463507
 21
1329.293338720064
 31
0.0
  0
ARC
  5
18CB6
330
18C7A
100
AcDbEntity
  8
部品1
100
AcDbCircle
 10
1458.970482677778
 20
1344.793338720065
 30
0.0
 40
16.0
100
AcDbArc
 50
285.9423686056786
 51
321.6069559808035
  0
LINE
  5
18CB7
330
18C7A
100
AcDbEntity
  8
部品1
 48
0.01
100
AcDbLine
 10
1442.470482677778
 20
1335.993338720062
 30
0.0
 11
1444.078874302588
 21
1335.993338720062
 31
0.0
  0
ARC
  5
18CB8
330
18C7A
100
AcDbEntity
  8
部品1
100
AcDbCircle
 10
1444.078874302588
 20
1332.993338720062
 30
0.0
 40
3.0
100
AcDbArc
 50
38.39304401919648
 51
90.0
  0
ARC
  5
18CB9
330
18C7A
100
AcDbEntity
  8
部品1
100
AcDbCircle
 10
1458.970482677778
 20
1344.793338720065
 30
0.0
 40
16.0
100
AcDbArc
 50
218.3930440191965
 51
254.0576313943215
  0
LINE
  5
18CBA
330
18C7A
100
AcDbEntity
  8
部品1
100
AcDbLine
 10
1440.470482677778
 20
1328.993338720062
 30
0.0
 11
1440.470482677778
 21
1333.993338720061
 31
0.0
  0
ARC
  5
18CBB
330
18C7A
100
AcDbEntity
  8
部品1
 48
0.01
100
AcDbCircle
 10
1442.470482677778
 20
1333.993338720061
 30
0.0
 40
2.0
100
AcDbArc
 50
90.0
 51
180.0
  0
ARC
  5
18CBC
330
18C7A
100
AcDbEntity
  8
部品1
100
AcDbCircle
 10
1466.470482677778
 20
1328.993338720062
 30
0.0
 40
26.0
100
AcDbArc
 50
180.0
 51
199.4712206344134
  0
ARC
  5
18CBD
330
18C7A
100
AcDbEntity
  8
部品1
 48
0.01
100
AcDbCircle
 10
1434.470482677778
 20
1319.493338720063
 30
0.0
 40
0.5
100
AcDbArc
 50
180.0
 51
270.0
  0
LINE
  5
18CBE
330
18C7A
100
AcDbEntity
  8
部品1
 48
0.01
100
AcDbLine
 10
1434.470482677778
 20
1318.993338720063
 30
0.0
 11
1441.014638555061
 21
1318.993338720062
 31
0.0
  0
LINE
  5
18CBF
330
18C7A
100
AcDbEntity
  8
部品1
 48
0.01
100
AcDbLine
 10
1433.970482677778
 20
1320.493338720063
 30
0.0
 11
1433.970482677778
 21
1319.493338720063
 31
0.0
  0
ARC
  5
18CC0
330
18C7A
100
AcDbEntity
  8
部品1
100
AcDbCircle
 10
1441.014638555061
 20
1319.993338720062
 30
0.0
 40
1.0
100
AcDbArc
 50
270.0
 51
19.47122063441346
  0
LINE
  5
18CC1
330
18C7A
100
AcDbEntity
  8
細線
100
AcDbLine
 10
1479.470482677785
 20
1338.493338720065
 30
0.0
 11
1438.470482677785
 21
1338.493338720058
 31
0.0
  0
LINE
  5
18CC2
330
18C7A
100
AcDbEntity
  8
細線
100
AcDbLine
 10
1438.470482677785
 20
1338.493338720058
 30
0.0
 11
1438.470482677785
 21
1320.49333872004
 31
0.0
  0
LINE
  5
18CC3
330
18C7A
100
AcDbEntity
  8
細線
100
AcDbLine
 10
1479.470482677785
 20
1338.493338720065
 30
0.0
 11
1479.470482677785
 21
1320.49333872004
 31
0.0
  0
LINE
  5
18CC4
330
18C7A
100
AcDbEntity
  8
細線
100
AcDbLine
 10
1322.970589276523
 20
1324.494269174465
 30
0.0
 11
1322.970589276523
 21
1320.494269174513
 31
0.0
  0
LINE
  5
18CC5
330
18C7A
100
AcDbEntity
  8
寸法
 48
50.0
100
AcDbLine
 10
1746.17359555837
 20
1170.531020743327
 30
0.0
 11
1694.767587648266
 21
1170.531020743327
 31
0.0
  0
LINE
  5
18CC6
330
18C7A
100
AcDbEntity
  8
寸法
 48
50.0
100
AcDbLine
 10
1694.767587648266
 20
1170.531020743327
 30
0.0
 11
1694.767587648266
 21
1201.841179395494
 31
0.0
  0
LINE
  5
18CC7
330
18C7A
100
AcDbEntity
  8
寸法
 48
50.0
100
AcDbLine
 10
1694.767587648266
 20
1201.841179395494
 30
0.0
 11
1665.006255656843
 21
1201.841179395494
 31
0.0
  0
LINE
  5
18CC8
330
18C7A
100
AcDbEntity
  8
寸法
 48
50.0
100
AcDbLine
 10
1665.006255656843
 20
1201.841179395494
 30
0.0
 11
1720.470591603318
 21
1239.420630324105
 31
0.0
  0
LINE
  5
18CC9
330
18C7A
100
AcDbEntity
  8
寸法
 48
50.0
100
AcDbLine
 10
1775.934927549793
 20
1201.841179395494
 30
0.0
 11
1720.470591603318
 21
1239.420630324105
 31
0.0
  0
LINE
  5
18CCA
330
18C7A
100
AcDbEntity
  8
寸法
 48
50.0
100
AcDbLine
 10
1746.17359555837
 20
1201.841179395494
 30
0.0
 11
1775.934927549793
 21
1201.841179395494
 31
0.0
  0
LINE
  5
18CCB
330
18C7A
100
AcDbEntity
  8
寸法
 48
50.0
100
AcDbLine
 10
1746.17359555837
 20
1170.531020743327
 30
0.0
 11
1746.17359555837
 21
1201.841179395494
 31
0.0
  0
LINE
  5
18CCC
330
18C7A
100
AcDbEntity
  8
寸法
 48
50.0
100
AcDbLine
 10
1694.767587648266
 20
1170.531020743327
 30
0.0
 11
1746.17359555837
 21
1170.531020743327
 31
0.0
  0
LINE
  5
18CCD
330
18C7A
100
AcDbEntity
  8
寸法
 48
50.0
100
AcDbLine
 10
2025.339129835225
 20
1227.676611498152
 30
0.0
 11
2025.339129835225
 21
1174.01297691636
 31
0.0
  0
LINE
  5
18CCE
330
18C7A
100
AcDbEntity
  8
寸法
 48
50.0
100
AcDbLine
 10
2114.623348430647
 20
1203.752977228664
 30
0.0
 11
2025.339129835225
 21
1227.676611498152
 31
0.0
  0
LINE
  5
18CCF
330
18C7A
100
AcDbEntity
  8
寸法
 48
50.0
100
AcDbLine
 10
1895.471408254923
 20
1203.752977228664
 30
0.0
 11
2114.623348430647
 21
1203.752977228664
 31
0.0
  0
DIMENSION
  5
18CD0
330
18C7A
100
AcDbEntity
  8
寸法
 48
50.0
100
AcDbDimension
  2
*D15
 10
2588.970589276523
 20
706.3240511224249
 30
0.0
 11
1969.060022905491
 21
706.3240511224249
 31
0.0
 12
-3742.925985830444
 22
-6453.628869860112
 32
0.0
 70
   128
  1
有効開口部間口\P<>
 71
     5
 42
1266.0
  3
INABA_S40G
100
AcDbAlignedDimension
 13
1322.970589276523
 23
1315.494269174465
 33
0.0
 14
2588.970589276523
 24
1315.494269174465
 34
0.0
100
AcDbRotatedDimension
1001
ACAD
1000
DSTYLE
1002
{
1070
   341
1005
0
1002
}
  0
LINE
  5
18CD1
330
18C7A
100
AcDbEntity
  8
部品1
100
AcDbLine
 10
3409.970589276524
 20
1392.494269174465
 30
0.0
 11
3437.970589276523
 21
1392.494269174465
 31
0.0
  0
DIMENSION
  5
18CD2
330
18C7A
100
AcDbEntity
  8
寸法
100
AcDbDimension
  2
*D16
 10
3674.266172669749
 20
1315.494269174465
 30
0.0
 11
3674.266172669748
 21
1177.494269174462
 31
0.0
 12
-3742.925985830444
 22
-6453.628869860112
 32
0.0
 70
   128
 71
     5
 42
77.0
  3
INABA_S40
100
AcDbAlignedDimension
 13
3437.970589276523
 23
1392.494269174465
 33
0.0
 14
3436.970589276523
 24
1315.494269174465
 34
0.0
 50
90.0
100
AcDbRotatedDimension
1001
ACAD
1000
DSTYLE
1002
{
1070
    41
1040
0.5
1070
    44
1040
1.0
1070
   147
1040
0.8
1070
   271
1070
     2
1070
   272
1070
     2
1070
   289
1070
     3
1070
   340
1005
F706
1070
   343
1005
164B4
1070
   344
1005
164B4
1002
}
  0
LINE
  5
18CD3
330
18C7A
100
AcDbEntity
  8
部品1
100
AcDbLine
 10
3437.970589276523
 20
1315.494269174465
 30
0.0
 11
3437.970589276523
 21
1392.494269174465
 31
0.0
  0
LINE
  5
18CD4
330
18C7A
100
AcDbEntity
  8
部品1
100
AcDbLine
 10
3398.970589276523
 20
1388.494269174465
 30
0.0
 11
3409.970589276524
 21
1388.494269174465
 31
0.0
  0
LINE
  5
18CD5
330
18C7A
100
AcDbEntity
  8
部品1
100
AcDbLine
 10
3407.970589276523
 20
1324.494269174465
 30
0.0
 11
3407.970589276523
 21
1315.494269174465
 31
0.0
  0
LINE
  5
18CD6
330
18C7A
100
AcDbEntity
  8
部品1
100
AcDbLine
 10
3398.970589276523
 20
1324.494269174465
 30
0.0
 11
3407.970589276523
 21
1324.494269174465
 31
0.0
  0
LINE
  5
18CD7
330
18C7A
100
AcDbEntity
  8
部品1
100
AcDbLine
 10
3398.970589276523
 20
1388.494269174465
 30
0.0
 11
3398.970589276523
 21
1324.494269174465
 31
0.0
  0
LINE
  5
18CD8
330
18C7A
100
AcDbEntity
  8
部品1
100
AcDbLine
 10
3409.970589276524
 20
1419.494269174465
 30
0.0
 11
3409.970589276524
 21
1388.494269174465
 31
0.0
  0
LINE
  5
18CD9
330
18C7A
100
AcDbEntity
  8
部品1
100
AcDbLine
 10
1322.970589276523
 20
1388.494269174465
 30
0.0
 11
1311.970589276523
 21
1388.494269174465
 31
0.0
  0
LINE
  5
18CDA
330
18C7A
100
AcDbEntity
  8
部品1
100
AcDbLine
 10
1283.970589276523
 20
1392.494269174465
 30
0.0
 11
1311.970589276523
 21
1392.494269174465
 31
0.0
  0
LINE
  5
18CDB
330
18C7A
100
AcDbEntity
  8
部品1
100
AcDbLine
 10
1313.970589276523
 20
1324.494269174465
 30
0.0
 11
1313.970589276523
 21
1315.494269174465
 31
0.0
  0
LINE
  5
18CDC
330
18C7A
100
AcDbEntity
  8
部品1
100
AcDbLine
 10
1322.970589276523
 20
1324.494269174465
 30
0.0
 11
1313.970589276523
 21
1324.494269174465
 31
0.0
  0
LINE
  5
18CDD
330
18C7A
100
AcDbEntity
  8
部品1
100
AcDbLine
 10
1313.970589276523
 20
1315.494269174465
 30
0.0
 11
1283.970589276523
 21
1315.494269174465
 31
0.0
  0
LINE
  5
18CDE
330
18C7A
100
AcDbEntity
  8
部品1
100
AcDbLine
 10
1283.970589276523
 20
1315.494269174465
 30
0.0
 11
1283.970589276523
 21
1392.494269174465
 31
0.0
  0
LINE
  5
18CDF
330
18C7A
100
AcDbEntity
  8
部品1
100
AcDbLine
 10
1322.970589276523
 20
1388.494269174465
 30
0.0
 11
1322.970589276523
 21
1324.494269174465
 31
0.0
  0
LINE
  5
18CE0
330
18C7A
100
AcDbEntity
  8
部品1
100
AcDbLine
 10
1311.970589276523
 20
1419.494269174462
 30
0.0
 11
1311.970589276523
 21
1388.494269174465
 31
0.0
  0
LINE
  5
18CE1
330
18C7A
100
AcDbEntity
  8
部品1
100
AcDbLine
 10
1311.970589276523
 20
1419.494269174462
 30
0.0
 11
3409.970589276524
 21
1419.494269174465
 31
0.0
  0
LINE
  5
18CE2
330
18C7A
100
AcDbEntity
  8
部品1
100
AcDbLine
 10
3407.970589276523
 20
1315.494269174465
 30
0.0
 11
3437.970589276523
 21
1315.494269174465
 31
0.0
  0
LINE
  5
18CE3
330
18C7A
100
AcDbEntity
  8
部品1
100
AcDbLine
 10
1313.970589276523
 20
1315.494269174465
 30
0.0
 11
3410.970589276523
 21
1315.494269174465
 31
0.0
  0
LINE
  5
18CE4
330
18C7A
100
AcDbEntity
  8
細線
  6
Continuous
 62
     5
100
AcDbLine
 10
2689.970589276527
 20
1354.494269174462
 30
0.0
 11
2689.970589276527
 21
1354.494269174462
 31
0.0
  0
LINE
  5
18CE5
330
18C7A
100
AcDbEntity
  8
細線
  6
Continuous
 62
     5
100
AcDbLine
 10
2682.470589276527
 20
1354.494269174462
 30
0.0
 11
2682.470589276527
 21
1354.494269174462
 31
0.0
  0
LINE
  5
18CE6
330
18C7A
100
AcDbEntity
  8
細線
  6
Continuous
 62
     5
100
AcDbLine
 10
2676.470589276527
 20
1354.494269174462
 30
0.0
 11
2676.470589276527
 21
1354.494269174462
 31
0.0
  0
LINE
  5
18CE7
330
18C7A
100
AcDbEntity
  8
細線
  6
Continuous
 62
     5
100
AcDbLine
 10
2743.970589276527
 20
1373.494269174462
 30
0.0
 11
2743.970589276527
 21
1373.494269174462
 31
0.0
  0
LINE
  5
18CE8
330
18C7A
100
AcDbEntity
  8
細線
 48
50.0
100
AcDbLine
 10
1336.970593930116
 20
1341.094443351418
 30
0.0
 11
1336.970593930113
 21
1349.490593759059
 31
0.0
  0
LINE
  5
18CE9
330
18C7A
100
AcDbEntity
  8
細線
 48
50.0
100
AcDbLine
 10
1336.970593930113
 20
1349.490593759059
 30
0.0
 11
1322.970589276523
 21
1349.490593759057
 31
0.0
  0
LINE
  5
18CEA
330
18C7A
100
AcDbEntity
  8
細線
 48
50.0
100
AcDbLine
 10
2087.970593930113
 20
1337.644443351419
 30
0.0
 11
2087.970593930113
 21
1342.494443351421
 31
0.0
  0
LINE
  5
18CEB
330
18C7A
100
AcDbEntity
  8
細線
 48
50.0
100
AcDbLine
 10
2087.970593930113
 20
1342.494443351421
 30
0.0
 11
2102.970593930113
 21
1342.494443351421
 31
0.0
  0
LINE
  5
18CEC
330
18C7A
100
AcDbEntity
  8
細線
 48
50.0
100
AcDbLine
 10
2102.970593930113
 20
1342.494443351421
 30
0.0
 11
2102.970593930115
 21
1349.494443351419
 31
0.0
  0
LINE
  5
18CED
330
18C7A
100
AcDbEntity
  8
細線
 48
50.0
100
AcDbLine
 10
2102.970593930115
 20
1349.494443351419
 30
0.0
 11
2117.970593930113
 21
1349.494443351419
 31
0.0
  0
LINE
  5
18CEE
330
18C7A
100
AcDbEntity
  8
細線
 48
50.0
100
AcDbLine
 10
2117.970593930113
 20
1349.494443351419
 30
0.0
 11
2117.970593930113
 21
1320.494443351421
 31
0.0
  0
LINE
  5
18CEF
330
18C7A
100
AcDbEntity
  8
細線
 48
50.0
100
AcDbLine
 10
1313.970589276523
 20
1320.491777694889
 30
0.0
 11
1527.970593930113
 21
1320.494460905133
 31
0.0
  0
LINE
  5
18CF0
330
18C7A
100
AcDbEntity
  8
細線
 48
50.0
100
AcDbLine
 10
2017.970593930113
 20
1320.494443351421
 30
0.0
 11
2117.970593930113
 21
1320.494443351421
 31
0.0
  0
LINE
  5
18CF1
330
18C7A
100
AcDbEntity
  8
細線
 48
50.0
100
AcDbLine
 10
1737.970593930113
 20
1320.494443351419
 30
0.0
 11
1807.970593930113
 21
1320.494443351423
 31
0.0
  0
LINE
  5
18CF2
330
18C7A
100
AcDbEntity
  8
細線
 48
50.0
100
AcDbLine
 10
1750.832558942642
 20
1320.494443351419
 30
0.0
 11
1756.588076525309
 21
1338.765294641913
 31
0.0
  0
LINE
  5
18CF3
330
18C7A
100
AcDbEntity
  8
細線
 48
50.0
100
AcDbLine
 10
1756.588076525309
 20
1338.765294641913
 30
0.0
 11
1767.516525005743
 21
1338.765294641911
 31
0.0
  0
ARC
  5
18CF4
330
18C7A
100
AcDbEntity
  8
細線
 48
50.0
100
AcDbCircle
 10
1767.516525005743
 20
1337.765294641911
 30
0.0
 40
1.0
100
AcDbArc
 50
24.62431835207225
 51
90.0
  0
ARC
  5
18CF5
330
18C7A
100
AcDbEntity
  8
細線
 48
50.0
100
AcDbCircle
 10
1778.425237120377
 20
1337.765294641911
 30
0.0
 40
1.0
100
AcDbArc
 50
90.0
 51
155.3756816479277
  0
ARC
  5
18CF6
330
18C7A
100
AcDbEntity
  8
細線
 48
50.0
100
AcDbCircle
 10
1772.970881063058
 20
1340.265294641911
 30
0.0
 40
5.0
100
AcDbArc
 50
204.6243183520723
 51
335.3756816479278
  0
LINE
  5
18CF7
330
18C7A
100
AcDbEntity
  8
細線
 48
50.0
100
AcDbLine
 10
1778.425237120377
 20
1338.765294641911
 30
0.0
 11
1789.35368560081
 21
1338.765294641913
 31
0.0
  0
LINE
  5
18CF8
330
18C7A
100
AcDbEntity
  8
細線
 48
50.0
100
AcDbLine
 10
1789.35368560081
 20
1338.765294641913
 30
0.0
 11
1795.109203183478
 21
1320.494443351423
 31
0.0
  0
LINE
  5
18CF9
330
18C7A
100
AcDbEntity
  8
細線
 48
50.0
100
AcDbLine
 10
2087.970593930113
 20
1341.094443351419
 30
0.0
 11
1336.970593930116
 21
1341.094443351418
 31
0.0
  0
LINE
  5
18CFA
330
18C7A
100
AcDbEntity
  8
細線
 48
50.0
100
AcDbLine
 10
1947.970593930113
 20
1320.494443351421
 30
0.0
 11
1877.970593930113
 21
1320.494443351421
 31
0.0
  0
LINE
  5
18CFB
330
18C7A
100
AcDbEntity
  8
細線
100
AcDbLine
 10
1667.970593930113
 20
1320.494443351421
 30
0.0
 11
1597.970602115529
 21
1320.494443351421
 31
0.0
  0
LINE
  5
18CFC
330
18C7A
100
AcDbEntity
  8
細線
 48
50.0
100
AcDbLine
 10
2741.970584622936
 20
1375.094487209288
 30
0.0
 11
2106.970593930113
 21
1375.094487209284
 31
0.0
  0
LINE
  5
18CFD
330
18C7A
100
AcDbEntity
  8
細線
 48
50.0
100
AcDbLine
 10
2106.970593930113
 20
1371.990637616925
 30
0.0
 11
2106.970593930113
 21
1376.490637616925
 31
0.0
  0
LINE
  5
18CFE
330
18C7A
100
AcDbEntity
  8
細線
 48
50.0
100
AcDbLine
 10
2106.970593930113
 20
1376.490637616925
 30
0.0
 11
2091.970593930113
 21
1376.490637616925
 31
0.0
  0
LINE
  5
18CFF
330
18C7A
100
AcDbEntity
  8
細線
 48
50.0
100
AcDbLine
 10
2091.970593930113
 20
1376.490637616925
 30
0.0
 11
2091.970593930113
 21
1383.490637616927
 31
0.0
  0
LINE
  5
18D00
330
18C7A
100
AcDbEntity
  8
細線
 48
50.0
100
AcDbLine
 10
2091.970593930113
 20
1383.490637616927
 30
0.0
 11
2076.970593930115
 21
1383.490637616924
 31
0.0
  0
LINE
  5
18D01
330
18C7A
100
AcDbEntity
  8
細線
 48
50.0
100
AcDbLine
 10
2076.970593930115
 20
1383.490637616924
 30
0.0
 11
2076.970593930115
 21
1345.890409513813
 31
0.0
  0
LINE
  5
18D02
330
18C7A
100
AcDbEntity
  8
細線
 48
50.0
100
AcDbLine
 10
2076.970593930115
 20
1345.890409513813
 30
0.0
 11
2096.970601231289
 21
1345.890451063353
 31
0.0
  0
LINE
  5
18D03
330
18C7A
100
AcDbEntity
  8
細線
 48
50.0
100
AcDbLine
 10
2096.970556362348
 20
1354.493912699161
 30
0.0
 11
2096.970601231289
 21
1345.890451063353
 31
0.0
  0
LINE
  5
18D04
330
18C7A
100
AcDbEntity
  8
細線
 48
50.0
100
AcDbLine
 10
2741.970584622936
 20
1371.644487209287
 30
0.0
 11
2741.970584622936
 21
1376.494487209284
 31
0.0
  0
LINE
  5
18D05
330
18C7A
100
AcDbEntity
  8
細線
 48
50.0
100
AcDbLine
 10
2741.970584622936
 20
1376.494487209284
 30
0.0
 11
2756.970584622934
 21
1376.494487209285
 31
0.0
  0
LINE
  5
18D06
330
18C7A
100
AcDbEntity
  8
細線
 48
50.0
100
AcDbLine
 10
2756.970584622934
 20
1376.494487209285
 30
0.0
 11
2756.970596256909
 21
1383.494487209331
 31
0.0
  0
LINE
  5
18D07
330
18C7A
100
AcDbEntity
  8
細線
 48
50.0
100
AcDbLine
 10
2756.970596256909
 20
1383.494487209331
 30
0.0
 11
2771.970594427439
 21
1383.494487209329
 31
0.0
  0
LINE
  5
18D08
330
18C7A
100
AcDbEntity
  8
細線
 48
50.0
100
AcDbLine
 10
2771.970594427439
 20
1383.494487209329
 30
0.0
 11
2771.970584125617
 21
1354.494281037055
 31
0.0
  0
LINE
  5
18D09
330
18C7A
100
AcDbEntity
  8
細線
 48
50.0
100
AcDbLine
 10
2458.070304175992
 20
1354.494278397076
 30
0.0
 11
2389.470863838818
 21
1354.494283787084
 31
0.0
  0
LINE
  5
18D0A
330
18C7A
100
AcDbEntity
  8
細線
 48
50.0
100
AcDbLine
 10
2096.970556362348
 20
1354.493912699161
 30
0.0
 11
2108.203245717057
 21
1354.494095652309
 31
0.0
  0
ARC
  5
18D0B
330
18C7A
100
AcDbEntity
  8
細線
 48
50.0
100
AcDbCircle
 10
2114.785538024393
 20
1353.294259565922
 30
0.0
 40
1.8
100
AcDbArc
 50
270.0006665777295
 51
345.000555481349
  0
LINE
  5
18D0C
330
18C7A
100
AcDbEntity
  8
細線
 48
50.0
100
AcDbLine
 10
2116.771971470473
 20
1353.753100023201
 30
0.0
 11
2116.524209028273
 21
1352.828402141094
 31
0.0
  0
LINE
  5
18D0D
330
18C7A
100
AcDbEntity
  8
細線
 48
50.0
100
AcDbLine
 10
2114.785558965548
 20
1351.494259566043
 30
0.0
 11
2111.155631546781
 21
1351.494217335563
 31
0.0
  0
ARC
  5
18D0E
330
18C7A
100
AcDbEntity
  8
細線
 48
50.0
100
AcDbCircle
 10
2111.155610605627
 20
1353.29421733544
 30
0.0
 40
1.8
100
AcDbArc
 50
195.0010443049965
 51
270.0006665777295
  0
LINE
  5
18D0F
330
18C7A
100
AcDbEntity
  8
細線
 48
50.0
100
AcDbLine
 10
2109.169183113368
 20
1353.752932303007
 30
0.0
 11
2109.416952609882
 21
1352.828311364425
 31
0.0
  0
ARC
  5
18D10
330
18C7A
100
AcDbEntity
  8
細線
 48
50.0
100
AcDbCircle
 10
2108.203262004622
 20
1353.494095652444
 30
0.0
 40
1.0
100
AcDbArc
 50
15.00104430499651
 51
90.00093320877969
  0
LINE
  5
18D11
330
18C7A
100
AcDbEntity
  8
細線
 48
50.0
100
AcDbLine
 10
2117.737892825577
 20
1354.494290342714
 30
0.0
 11
2118.679652976481
 21
1354.494296916564
 31
0.0
  0
ARC
  5
18D12
330
18C7A
100
AcDbEntity
  8
細線
 48
50.0
100
AcDbCircle
 10
2117.737899805961
 20
1353.49429034274
 30
0.0
 40
1.0
100
AcDbArc
 50
90.0003999466794
 51
165.000555481349
  0
LINE
  5
18D13
330
18C7A
100
AcDbEntity
  8
細線
 48
50.0
100
AcDbLine
 10
2669.470584622926
 20
1354.494281037055
 30
0.0
 11
2771.970584125617
 21
1354.494281037055
 31
0.0
  0
LINE
  5
18D14
330
18C7A
100
AcDbEntity
  8
細線
 48
50.0
100
AcDbLine
 10
2179.47061994182
 20
1354.494289224422
 30
0.0
 11
2118.370558714898
 21
1354.494296916564
 31
0.0
  0
LINE
  5
18D15
330
18C7A
100
AcDbEntity
  8
細線
 48
50.0
100
AcDbLine
 10
2599.470584622926
 20
1354.494281037057
 30
0.0
 11
2529.470584622926
 21
1354.494281037055
 31
0.0
  0
LINE
  5
18D16
330
18C7A
100
AcDbEntity
  8
細線
 48
50.0
100
AcDbLine
 10
2319.470584622926
 20
1354.494281037054
 30
0.0
 11
2249.470567335051
 21
1354.494281037057
 31
0.0
  0
ARC
  5
18D17
330
18C7A
100
AcDbEntity
  8
細線
 48
50.0
100
AcDbCircle
 10
2756.170589276533
 20
1387.694269174466
 30
0.0
 40
0.8
100
AcDbArc
 50
359.9997333689499
 51
89.99986668437072
  0
ARC
  5
18D18
330
18C7A
100
AcDbEntity
  8
細線
 48
50.0
100
AcDbCircle
 10
2763.770596101631
 20
1387.694280343081
 30
0.0
 40
0.8
100
AcDbArc
 50
90.00014387753465
 51
179.9997333689498
  0
LINE
  5
18D19
330
18C7A
100
AcDbEntity
  8
細線
 48
50.0
100
AcDbLine
 10
2756.170591137969
 20
1388.494269174465
 30
0.0
 11
2750.970589276525
 21
1388.494269174465
 31
0.0
  0
ARC
  5
18D1A
330
18C7A
100
AcDbEntity
  8
細線
 48
50.0
100
AcDbCircle
 10
2757.670589276524
 20
1386.194269174464
 30
0.0
 40
0.7
100
AcDbArc
 50
180.0
 51
270.0
  0
ARC
  5
18D1B
330
18C7A
100
AcDbEntity
  8
細線
 48
50.0
100
AcDbCircle
 10
2762.270589276524
 20
1386.194269174464
 30
0.0
 40
0.7
100
AcDbArc
 50
270.0
 51
0.0
  0
LINE
  5
18D1C
330
18C7A
100
AcDbEntity
  8
細線
 48
50.0
100
AcDbLine
 10
2762.970589276525
 20
1386.194269174464
 30
0.0
 11
2762.970596101639
 21
1387.694284065954
 31
0.0
  0
LINE
  5
18D1D
330
18C7A
100
AcDbEntity
  8
細線
 48
50.0
100
AcDbLine
 10
2757.670589276524
 20
1385.494269174465
 30
0.0
 11
2762.270589276524
 21
1385.494269174465
 31
0.0
  0
LINE
  5
18D1E
330
18C7A
100
AcDbEntity
  8
細線
 48
50.0
100
AcDbLine
 10
2756.970589276525
 20
1387.694269174466
 30
0.0
 11
2756.970589276525
 21
1386.194269174464
 31
0.0
  0
LINE
  5
18D1F
330
18C7A
100
AcDbEntity
  8
細線
 48
50.0
100
AcDbLine
 10
3382.570589276527
 20
1418.494269174465
 30
0.0
 11
2745.970589276525
 21
1418.494269174463
 31
0.0
  0
LINE
  5
18D20
330
18C7A
100
AcDbEntity
  8
細線
 48
50.0
100
AcDbLine
 10
3408.470589276525
 20
1413.494269174467
 30
0.0
 11
3392.570589276527
 21
1413.494269174465
 31
0.0
  0
LINE
  5
18D21
330
18C7A
100
AcDbEntity
  8
細線
 48
50.0
100
AcDbLine
 10
3392.570589276526
 20
1413.494269174465
 30
0.0
 11
3382.570589276527
 21
1418.494269174465
 31
0.0
  0
LINE
  5
18D22
330
18C7A
100
AcDbEntity
  8
細線
100
AcDbLine
 10
2993.470589276525
 20
1388.494269174465
 30
0.0
 11
2993.470589276525
 21
1417.794269174464
 31
0.0
  0
LINE
  5
18D23
330
18C7A
100
AcDbEntity
  8
細線
100
AcDbLine
 10
2993.470589276525
 20
1417.794269174464
 30
0.0
 11
3013.470589276525
 21
1417.794269174464
 31
0.0
  0
LINE
  5
18D24
330
18C7A
100
AcDbEntity
  8
細線
100
AcDbLine
 10
3013.470589276525
 20
1388.494269174465
 30
0.0
 11
3013.470589276525
 21
1417.794269174464
 31
0.0
  0
LINE
  5
18D25
330
18C7A
100
AcDbEntity
  8
細線
100
AcDbLine
 10
3170.720589276524
 20
1388.494269174465
 30
0.0
 11
3100.720589276523
 21
1388.494269174465
 31
0.0
  0
LINE
  5
18D26
330
18C7A
100
AcDbEntity
  8
細線
 48
50.0
100
AcDbLine
 10
2890.720589276525
 20
1388.494269174465
 30
0.0
 11
2763.766368849365
 21
1388.494269174465
 31
0.0
  0
LINE
  5
18D27
330
18C7A
100
AcDbEntity
  8
細線
100
AcDbLine
 10
3030.720589276525
 20
1388.494269174465
 30
0.0
 11
2960.720589276525
 21
1388.494269174465
 31
0.0
  0
LINE
  5
18D28
330
18C7A
100
AcDbEntity
  8
細線
 48
50.0
100
AcDbLine
 10
2750.970589276525
 20
1380.494269174465
 30
0.0
 11
2750.970589276525
 21
1388.494269174465
 31
0.0
  0
LINE
  5
18D29
330
18C7A
100
AcDbEntity
  8
細線
 48
50.0
100
AcDbLine
 10
2730.970589276524
 20
1380.494269174467
 30
0.0
 11
2750.970589276525
 21
1380.494269174465
 31
0.0
  0
LINE
  5
18D2A
330
18C7A
100
AcDbEntity
  8
細線
 48
50.0
100
AcDbLine
 10
2745.970589276525
 20
1418.494269174465
 30
0.0
 11
2745.970589276525
 21
1413.494269174465
 31
0.0
  0
LINE
  5
18D2B
330
18C7A
100
AcDbEntity
  8
細線
 48
50.0
100
AcDbLine
 10
2730.970589276525
 20
1418.494269174463
 30
0.0
 11
2745.970589276525
 21
1418.494269174465
 31
0.0
  0
LINE
  5
18D2C
330
18C7A
100
AcDbEntity
  8
細線
 48
50.0
100
AcDbLine
 10
2730.970589276524
 20
1380.494269174467
 30
0.0
 11
2730.970589276525
 21
1418.494269174463
 31
0.0
  0
LINE
  5
18D2D
330
18C7A
100
AcDbEntity
  8
細線
100
AcDbLine
 10
3398.970589276523
 20
1388.494269174465
 30
0.0
 11
3240.720589276525
 21
1388.494269174465
 31
0.0
  0
LINE
  5
18D2E
330
18C7A
100
AcDbEntity
  8
細線
 48
50.0
100
AcDbLine
 10
3408.470589276525
 20
1413.494269174467
 30
0.0
 11
3408.470589276524
 21
1388.494269174465
 31
0.0
  0
TEXT
  5
18D2F
330
18C7A
100
AcDbEntity
  8
部品1
100
AcDbText
 10
1860.154865991392
 20
46.99880823813145
 30
0.0
 40
135.0
  1
平面図
  7
STYLE2
100
AcDbText
  0
LWPOLYLINE
  5
18D30
330
18C7A
100
AcDbEntity
  8
部品1
100
AcDbPolyline
 90
        4
 70
     1
 43
0.0
 10
1770.23525616235
 20
239.8923374566548
 10
1770.23525616235
 20
0.0000159111223184
 10
2533.705922390791
 20
0.0000159111223184
 10
2533.705922390791
 20
239.8923374566548
  0
LINE
  5
18D31
330
18C7A
100
AcDbEntity
  8
部品1
100
AcDbLine
 10
1534.470589276487
 20
3154.494269174626
 30
0.0
 11
2769.470589276552
 21
3154.494269174626
 31
0.0
  0
LINE
  5
18D32
330
18C7A
100
AcDbEntity
  8
部品1
 48
50.0
100
AcDbLine
 10
1311.970589276523
 20
1420.494269174462
 30
0.0
 11
3411.970589276523
 21
1420.494269174465
 31
0.0
  0
LINE
  5
18D33
330
18C7A
100
AcDbEntity
  8
部品1
 48
50.0
100
AcDbLine
 10
471.9705892765232
 20
1392.494269174465
 30
0.0
 11
1311.970589276523
 21
1392.494269174465
 31
0.0
  0
DIMENSION
  5
18D34
330
18C7A
100
AcDbEntity
  8
寸法
100
AcDbDimension
  2
*D14
 10
2710.234916278077
 20
2488.887829538828
 30
0.0
 11
2338.318822490183
 21
2488.887829538828
 31
0.0
 12
-3742.925985830444
 22
-6453.628869860112
 32
0.0
 70
   128
 71
     5
 42
1231.00000000007
  3
INABA_S40G
100
AcDbAlignedDimension
 13
1536.470589276486
 23
2702.494269174557
 33
0.0
 14
2767.470589276556
 24
2702.494269174549
 34
0.0
100
AcDbRotatedDimension
1001
ACAD
1000
DSTYLE
1002
{
1002
}
  0
LINE
  5
18D35
330
18C7A
100
AcDbEntity
  8
部品1
100
AcDbLine
 10
1536.470589276487
 20
2702.494269174557
 30
0.0
 11
2767.470589276554
 21
2702.494269174615
 31
0.0
  0
LINE
  5
18D36
330
18C7A
100
AcDbEntity
  8
部品1
100
AcDbLine
 10
1536.470589276487
 20
3152.494269174557
 30
0.0
 11
2767.470589276556
 21
3152.494269174615
 31
0.0
  0
LINE
  5
18D37
330
18C7A
100
AcDbEntity
  8
細線
 48
50.0
100
AcDbLine
 10
1508.470589276487
 20
3152.494269174558
 30
0.0
 11
445.4705892765559
 21
2702.494269174509
 31
0.0
  0
LINE
  5
18D38
330
18C7A
100
AcDbEntity
  8
細線
 48
50.0
100
AcDbLine
 10
1508.470589276487
 20
2702.494269174558
 30
0.0
 11
445.4705892765542
 21
3152.494269174509
 31
0.0
  0
LINE
  5
18D39
330
18C7A
100
AcDbEntity
  8
部品1
100
AcDbLine
 10
1556.970589276487
 20
3172.494269174611
 30
0.0
 11
1556.970589276487
 21
3154.494269174611
 31
0.0
  0
LINE
  5
18D3A
330
18C7A
100
AcDbEntity
  8
部品1
100
AcDbLine
 10
1556.970589276487
 20
3172.494269174611
 30
0.0
 11
1550.970589276487
 21
3172.494269174611
 31
0.0
  0
LINE
  5
18D3B
330
18C7A
100
AcDbEntity
  8
部品1
100
AcDbLine
 10
1534.470589276487
 20
3146.494269174608
 30
0.0
 11
1509.470589276487
 21
3146.494269174611
 31
0.0
  0
LINE
  5
18D3C
330
18C7A
100
AcDbEntity
  8
部品1
100
AcDbLine
 10
1486.970589276487
 20
3172.494269174611
 30
0.0
 11
1486.970589276487
 21
3154.494269174611
 31
0.0
  0
LINE
  5
18D3D
330
18C7A
100
AcDbEntity
  8
部品1
100
AcDbLine
 10
1492.970589276487
 20
3172.494269174611
 30
0.0
 11
1486.970589276487
 21
3172.494269174611
 31
0.0
  0
LINE
  5
18D3E
330
18C7A
100
AcDbEntity
  8
部品1
100
AcDbLine
 10
1534.470589276487
 20
2702.494269174615
 30
0.0
 11
1509.470589276487
 21
2702.494269174615
 31
0.0
  0
LINE
  5
18D3F
330
18C7A
100
AcDbEntity
  8
部品1
 48
50.0
100
AcDbLine
 10
1536.470589276487
 20
3152.494269174611
 30
0.0
 11
1536.470589276487
 21
2702.494269174615
 31
0.0
  0
LINE
  5
18D40
330
18C7A
100
AcDbEntity
  8
部品1
 48
50.0
100
AcDbLine
 10
1508.470589276487
 20
3152.494269174607
 30
0.0
 11
1508.470589276487
 21
2702.494269174615
 31
0.0
  0
LINE
  5
18D41
330
18C7A
100
AcDbEntity
  8
部品1
 48
50.0
100
AcDbLine
 10
1534.470589276487
 20
3154.494269174618
 30
0.0
 11
1534.470589276487
 21
2702.494269174615
 31
0.0
  0
LINE
  5
18D42
330
18C7A
100
AcDbEntity
  8
部品1
 48
50.0
100
AcDbLine
 10
1509.470589276487
 20
3154.494269174615
 30
0.0
 11
1509.470589276487
 21
2702.494269174615
 31
0.0
  0
LINE
  5
18D43
330
18C7A
100
AcDbEntity
  8
部品1
100
AcDbLine
 10
3411.970589276556
 20
1392.494269174582
 30
0.0
 11
3411.970589276556
 21
1420.494269174596
 31
0.0
  0
LINE
  5
18D44
330
18C7A
100
AcDbEntity
  8
部品1
100
AcDbLine
 10
1311.970589276523
 20
1392.494269174596
 30
0.0
 11
1311.970589276523
 21
1420.494269174596
 31
0.0
  0
LINE
  5
18D45
330
18C7A
100
AcDbEntity
  8
部品1
100
AcDbLine
 10
891.9705892765232
 20
1392.494269174596
 30
0.0
 11
891.9705892765232
 21
1420.494269174596
 31
0.0
  0
LINE
  5
18D46
330
18C7A
100
AcDbEntity
  8
部品1
100
AcDbLine
 10
3411.97058927652
 20
3182.494269174477
 30
0.0
 11
3411.970589276523
 21
3154.494269174477
 31
0.0
  0
LINE
  5
18D47
330
18C7A
100
AcDbEntity
  8
部品1
100
AcDbLine
 10
2571.97058927652
 20
3182.494269174477
 30
0.0
 11
2571.970589276523
 21
3154.494269174477
 31
0.0
  0
LINE
  5
18D48
330
18C7A
100
AcDbEntity
  8
部品1
100
AcDbLine
 10
2991.97058927652
 20
3182.494269174477
 30
0.0
 11
2991.970589276523
 21
3154.494269174477
 31
0.0
  0
LINE
  5
18D49
330
18C7A
100
AcDbEntity
  8
部品1
100
AcDbLine
 10
2151.970589276519
 20
3182.494269174477
 30
0.0
 11
2151.970589276523
 21
3154.494269174477
 31
0.0
  0
LINE
  5
18D4A
330
18C7A
100
AcDbEntity
  8
部品1
100
AcDbLine
 10
1731.970589276519
 20
3182.494269174477
 30
0.0
 11
1731.970589276523
 21
3154.494269174477
 31
0.0
  0
LINE
  5
18D4B
330
18C7A
100
AcDbEntity
  8
部品1
100
AcDbLine
 10
1311.970589276519
 20
3182.494269174477
 30
0.0
 11
1311.970589276523
 21
3154.494269174477
 31
0.0
  0
LINE
  5
18D4C
330
18C7A
100
AcDbEntity
  8
部品1
100
AcDbLine
 10
891.9705892765195
 20
3182.494269174477
 30
0.0
 11
891.9705892765232
 21
3154.494269174477
 31
0.0
  0
LINE
  5
18D4D
330
18C7A
100
AcDbEntity
  8
部品1
100
AcDbLine
 10
471.9705892765232
 20
1392.494269174596
 30
0.0
 11
471.9705892765232
 21
1420.494269174596
 31
0.0
  0
LINE
  5
18D4E
330
18C7A
100
AcDbEntity
  8
部品1
100
AcDbLine
 10
444.9705892765305
 20
1420.494269174558
 30
0.0
 11
3858.970589276556
 21
1420.494269174596
 31
0.0
  0
LINE
  5
18D4F
330
18C7A
100
AcDbEntity
  8
部品1
100
AcDbLine
 10
3831.970589276556
 20
1392.494269174596
 30
0.0
 11
3831.970589276556
 21
1420.494269174596
 31
0.0
  0
LINE
  5
18D50
330
18C7A
100
AcDbEntity
  8
部品1
100
AcDbLine
 10
3858.970589276556
 20
1447.494269174593
 30
0.0
 11
3886.970589276556
 21
1447.494269174593
 31
0.0
  0
LINE
  5
18D51
330
18C7A
100
AcDbEntity
  8
部品1
100
AcDbLine
 10
3858.970589276556
 20
1867.494269174607
 30
0.0
 11
3886.970589276556
 21
1867.494269174607
 31
0.0
  0
LINE
  5
18D52
330
18C7A
100
AcDbEntity
  8
部品1
100
AcDbLine
 10
444.9705892765305
 20
1867.49426917448
 30
0.0
 11
416.9705892765305
 21
1867.49426917448
 31
0.0
  0
LINE
  5
18D53
330
18C7A
100
AcDbEntity
  8
部品1
100
AcDbLine
 10
3830.470589276541
 20
1867.49426917458
 30
0.0
 11
473.4705892765396
 21
1867.49426917448
 31
0.0
  0
LINE
  5
18D54
330
18C7A
100
AcDbEntity
  8
部品1
100
AcDbLine
 10
3830.470589276541
 20
2287.49426917458
 30
0.0
 11
473.4705892765396
 21
2287.49426917448
 31
0.0
  0
LINE
  5
18D55
330
18C7A
100
AcDbEntity
  8
部品1
100
AcDbLine
 10
444.9705892765305
 20
2287.49426917448
 30
0.0
 11
416.9705892765305
 21
2287.49426917448
 31
0.0
  0
LINE
  5
18D56
330
18C7A
100
AcDbEntity
  8
部品1
100
AcDbLine
 10
3858.970589276556
 20
2287.494269174608
 30
0.0
 11
3886.970589276556
 21
2287.494269174608
 31
0.0
  0
LINE
  5
18D57
330
18C7A
100
AcDbEntity
  8
部品1
 48
50.0
100
AcDbLine
 10
2151.970589276551
 20
2702.494269174586
 30
0.0
 11
2151.970589276581
 21
1448.994269174494
 31
0.0
  0
LINE
  5
18D58
330
18C7A
100
AcDbEntity
  8
破線
 48
10.0
100
AcDbLine
 10
2959.470589276535
 20
1472.494269174522
 30
0.0
 11
2176.970589276532
 21
1472.494269174505
 31
0.0
  0
LINE
  5
18D59
330
18C7A
100
AcDbEntity
  8
破線
 48
10.0
100
AcDbLine
 10
3009.47058927653
 20
1448.994269174509
 30
0.0
 11
3009.47058927653
 21
2702.494269174615
 31
0.0
  0
LINE
  5
18D5A
330
18C7A
100
AcDbEntity
  8
破線
 48
10.0
100
AcDbLine
 10
2959.470589276535
 20
1448.994269174505
 30
0.0
 11
2959.470589276531
 21
2702.494269174615
 31
0.0
  0
LINE
  5
18D5B
330
18C7A
100
AcDbEntity
  8
破線
 48
10.0
100
AcDbLine
 10
1344.47058927653
 20
1448.994269174509
 30
0.0
 11
1344.47058927653
 21
2702.494269174615
 31
0.0
  0
LINE
  5
18D5C
330
18C7A
100
AcDbEntity
  8
破線
 48
10.0
100
AcDbLine
 10
1294.470589276534
 20
1448.994269174505
 30
0.0
 11
1294.47058927653
 21
2702.494269174615
 31
0.0
  0
DIMENSION
  5
18D5D
330
18C7A
100
AcDbEntity
  8
寸法
100
AcDbDimension
  2
*D13
 10
1451.234916278005
 20
2488.887829538828
 30
0.0
 11
916.0604668248634
 21
2488.887829538828
 31
0.0
 12
-3742.925985830444
 22
-6453.628869860112
 32
0.0
 70
   128
 71
     5
 42
1062.99999999993
  3
INABA_S40G
100
AcDbAlignedDimension
 13
445.4705892765559
 23
2702.494269174505
 33
0.0
 14
1508.470589276486
 24
2702.494269174558
 34
0.0
100
AcDbRotatedDimension
1001
ACAD
1000
DSTYLE
1002
{
1002
}
  0
LINE
  5
18D5E
330
18C7A
100
AcDbEntity
  8
破線
 48
10.0
100
AcDbLine
 10
1294.470589276534
 20
1472.494269174469
 30
0.0
 11
496.9705892765414
 21
1472.494269174476
 31
0.0
  0
LINE
  5
18D5F
330
18C7A
100
AcDbEntity
  8
部品1
100
AcDbLine
 10
3831.970589276556
 20
3182.494269174604
 30
0.0
 11
3831.970589276556
 21
3154.494269174604
 31
0.0
  0
LINE
  5
18D60
330
18C7A
100
AcDbEntity
  8
部品1
100
AcDbLine
 10
3831.970589276556
 20
3182.494269174626
 30
0.0
 11
3831.970589276556
 21
3154.494269174626
 31
0.0
  0
LINE
  5
18D61
330
18C7A
100
AcDbEntity
  8
部品1
100
AcDbLine
 10
3858.970589276556
 20
3127.494269174607
 30
0.0
 11
3886.970589276556
 21
3127.494269174607
 31
0.0
  0
LINE
  5
18D62
330
18C7A
100
AcDbEntity
  8
部品1
100
AcDbLine
 10
3858.970589276556
 20
2707.494269174608
 30
0.0
 11
3886.970589276556
 21
2707.494269174608
 31
0.0
  0
LINE
  5
18D63
330
18C7A
100
AcDbEntity
  8
部品1
100
AcDbLine
 10
3858.470589276556
 20
3152.494269174604
 30
0.0
 11
3858.470589276556
 21
2702.494269174608
 31
0.0
  0
LINE
  5
18D64
330
18C7A
100
AcDbEntity
  8
部品1
100
AcDbLine
 10
3886.970589276533
 20
1447.494269174593
 30
0.0
 11
3886.970589276531
 21
1392.494269174596
 31
0.0
  0
LINE
  5
18D65
330
18C7A
100
AcDbEntity
  8
部品1
 48
50.0
100
AcDbLine
 10
3830.470589276556
 20
1448.994269174596
 30
0.0
 11
3858.970589276554
 21
1420.494269174596
 31
0.0
  0
LINE
  5
18D66
330
18C7A
100
AcDbEntity
  8
部品1
100
AcDbLine
 10
3886.970589276531
 20
1392.494269174596
 30
0.0
 11
3835.970589276531
 21
1392.494269174596
 31
0.0
  0
LINE
  5
18D67
330
18C7A
100
AcDbEntity
  8
部品1
100
AcDbLine
 10
3858.970589276533
 20
1447.494269174593
 30
0.0
 11
3886.970589276531
 21
1447.494269174593
 31
0.0
  0
LINE
  5
18D68
330
18C7A
100
AcDbEntity
  8
部品1
100
AcDbLine
 10
3886.970589276556
 20
3182.494269174604
 30
0.0
 11
3886.970589276531
 21
1392.494269174596
 31
0.0
  0
DIMENSION
  5
18D69
330
18C7A
100
AcDbEntity
  8
寸法
100
AcDbDimension
  2
*D12
 10
4534.396935010967
 20
1447.494269174593
 30
0.0
 11
4534.396935010965
 21
2287.4942691746
 31
0.0
 12
-3742.925985830444
 22
-6453.628869860112
 32
0.0
 70
   128
  1
4X420=<>
 71
     5
 42
1680.000000000014
  3
INABA_S40G
100
AcDbAlignedDimension
 13
3886.970589276556
 23
3127.494269174607
 33
0.0
 14
3886.970589276531
 24
1447.494269174593
 34
0.0
 50
90.0
100
AcDbRotatedDimension
1001
ACAD
1000
DSTYLE
1002
{
1002
}
  0
LINE
  5
18D6A
330
18C7A
100
AcDbEntity
  8
部品1
100
AcDbLine
 10
3858.970589276556
 20
3154.494269174604
 30
0.0
 11
3858.970589276534
 21
1420.494269174596
 31
0.0
  0
DIMENSION
  5
18D6B
330
18C7A
100
AcDbEntity
  8
寸法
100
AcDbDimension
  2
*D11
 10
4213.82831513858
 20
2607.276453505718
 30
0.0
 11
4113.828315138579
 21
2832.276453505718
 31
0.0
 12
-3742.925985830444
 22
-6453.628869860112
 32
0.0
 71
     5
 42
449.9999999999963
  3
INABA_S40G
100
AcDbAlignedDimension
 13
3858.470589276556
 23
3152.494269174604
 33
0.0
 14
3858.470589276556
 24
2702.494269174608
 34
0.0
 50
90.0
100
AcDbRotatedDimension
1001
ACAD
1000
DSTYLE
1002
{
1002
}
  0
LINE
  5
18D6C
330
18C7A
100
AcDbEntity
  8
部品1
100
AcDbLine
 10
3830.470589276547
 20
2702.494269174608
 30
0.0
 11
3830.470589276556
 21
1448.994269174596
 31
0.0
  0
LINE
  5
18D6D
330
18C7A
100
AcDbEntity
  8
破線
 48
10.0
100
AcDbLine
 10
3806.970589276549
 20
2702.494269174608
 30
0.0
 11
3806.970589276558
 21
1472.494269174593
 31
0.0
  0
LINE
  5
18D6E
330
18C7A
100
AcDbEntity
  8
部品1
100
AcDbLine
 10
2769.470589276556
 20
3146.494269174608
 30
0.0
 11
2794.470589276556
 21
3146.494269174611
 31
0.0
  0
LINE
  5
18D6F
330
18C7A
100
AcDbEntity
  8
部品1
100
AcDbLine
 10
2810.970589276556
 20
3172.494269174611
 30
0.0
 11
2816.970589276556
 21
3172.494269174611
 31
0.0
  0
LINE
  5
18D70
330
18C7A
100
AcDbEntity
  8
部品1
100
AcDbLine
 10
2816.970589276556
 20
3172.494269174611
 30
0.0
 11
2816.970589276556
 21
3154.494269174611
 31
0.0
  0
LINE
  5
18D71
330
18C7A
100
AcDbEntity
  8
部品1
100
AcDbLine
 10
2746.970589276556
 20
3172.494269174611
 30
0.0
 11
2752.970589276556
 21
3172.494269174611
 31
0.0
  0
LINE
  5
18D72
330
18C7A
100
AcDbEntity
  8
部品1
100
AcDbLine
 10
2746.970589276556
 20
3172.494269174611
 30
0.0
 11
2746.970589276556
 21
3154.494269174611
 31
0.0
  0
LINE
  5
18D73
330
18C7A
100
AcDbEntity
  8
部品1
100
AcDbLine
 10
2769.470589276556
 20
2702.494269174615
 30
0.0
 11
2794.470589276556
 21
2702.494269174615
 31
0.0
  0
LINE
  5
18D74
330
18C7A
100
AcDbEntity
  8
部品1
 48
50.0
100
AcDbLine
 10
2794.470589276556
 20
3154.494269174615
 30
0.0
 11
2794.470589276556
 21
2702.494269174615
 31
0.0
  0
LINE
  5
18D75
330
18C7A
100
AcDbEntity
  8
部品1
 48
50.0
100
AcDbLine
 10
2769.470589276554
 20
3154.494269174618
 30
0.0
 11
2769.470589276556
 21
2702.494269174615
 31
0.0
  0
LINE
  5
18D76
330
18C7A
100
AcDbEntity
  8
部品1
 48
50.0
100
AcDbLine
 10
2795.470589276556
 20
3152.494269174607
 30
0.0
 11
2795.470589276556
 21
2702.494269174615
 31
0.0
  0
LINE
  5
18D77
330
18C7A
100
AcDbEntity
  8
部品1
 48
50.0
100
AcDbLine
 10
2767.470589276556
 20
3152.494269174611
 30
0.0
 11
2767.470589276556
 21
2702.494269174615
 31
0.0
  0
LINE
  5
18D78
330
18C7A
100
AcDbEntity
  8
破線
 48
10.0
100
AcDbLine
 10
2176.97058927653
 20
1448.994269174509
 30
0.0
 11
2176.97058927653
 21
2702.494269174588
 31
0.0
  0
LINE
  5
18D79
330
18C7A
100
AcDbEntity
  8
破線
 48
10.0
100
AcDbLine
 10
2126.970589276534
 20
1448.994269174505
 30
0.0
 11
2126.970589276531
 21
2702.494269174586
 31
0.0
  0
LINE
  5
18D7A
330
18C7A
100
AcDbEntity
  8
部品1
100
AcDbLine
 10
2794.470589276556
 20
3154.494269174622
 30
0.0
 11
3858.970589276556
 21
3154.494269174604
 31
0.0
  0
LINE
  5
18D7B
330
18C7A
100
AcDbEntity
  8
細線
 48
50.0
100
AcDbLine
 10
3858.470589276556
 20
2702.494269174608
 30
0.0
 11
2795.470589276556
 21
3152.494269174607
 31
0.0
  0
LINE
  5
18D7C
330
18C7A
100
AcDbEntity
  8
部品1
100
AcDbLine
 10
2795.470589276555
 20
2702.494269174615
 30
0.0
 11
3858.470589276556
 21
2702.494269174608
 31
0.0
  0
LINE
  5
18D7D
330
18C7A
100
AcDbEntity
  8
部品1
100
AcDbLine
 10
2795.470589276556
 20
3152.494269174611
 30
0.0
 11
3858.470589276556
 21
3152.494269174604
 31
0.0
  0
LINE
  5
18D7E
330
18C7A
100
AcDbEntity
  8
細線
 48
50.0
100
AcDbLine
 10
3858.470589276556
 20
3152.494269174604
 30
0.0
 11
2795.470589276555
 21
2702.494269174615
 31
0.0
  0
DIMENSION
  5
18D7F
330
18C7A
100
AcDbEntity
  8
寸法
100
AcDbDimension
  2
*D10
 10
3801.234916278101
 20
2488.887829538937
 30
0.0
 11
3318.360544398907
 21
2488.887829538937
 31
0.0
 12
-3742.925985830444
 22
-6453.628869860112
 32
0.0
 70
   128
 71
     5
 42
1063.000000000012
  3
INABA_S40G
100
AcDbAlignedDimension
 13
2795.470589276555
 23
2702.494269174615
 33
0.0
 14
3858.470589276567
 24
2702.494269174608
 34
0.0
100
AcDbRotatedDimension
1001
ACAD
1000
DSTYLE
1002
{
1002
}
  0
LINE
  5
18D80
330
18C7A
100
AcDbEntity
  8
破線
 48
10.0
100
AcDbLine
 10
3806.970589276556
 20
1472.494269174594
 30
0.0
 11
3009.47058927653
 21
1472.494269174523
 31
0.0
  0
DIMENSION
  5
18D81
330
18C7A
100
AcDbEntity
  8
寸法
100
AcDbDimension
  2
*D9
 10
4534.396935010941
 20
1392.494269174596
 30
0.0
 11
4534.39693501094
 21
1084.008987800356
 31
0.0
 12
-3742.925985830444
 22
-6453.628869860112
 32
0.0
 70
   128
 71
     5
 42
54.99999999999636
  3
INABA_S40G
100
AcDbAlignedDimension
 13
3886.970589276531
 23
1447.494269174593
 33
0.0
 14
3886.970589276531
 24
1392.494269174596
 34
0.0
 50
90.0
100
AcDbRotatedDimension
1001
ACAD
1000
DSTYLE
1002
{
1002
}
  0
LINE
  5
18D82
330
18C7A
100
AcDbEntity
  8
部品1
100
AcDbLine
 10
471.9705892765196
 20
3182.494269174477
 30
0.0
 11
471.9705892765232
 21
3154.494269174477
 31
0.0
  0
LINE
  5
18D83
330
18C7A
100
AcDbEntity
  8
部品1
100
AcDbLine
 10
471.9705892765559
 20
3182.494269174509
 30
0.0
 11
471.9705892765559
 21
3154.494269174509
 31
0.0
  0
LINE
  5
18D84
330
18C7A
100
AcDbEntity
  8
部品1
100
AcDbLine
 10
444.9705892765232
 20
3127.49426917448
 30
0.0
 11
416.9705892765232
 21
3127.49426917448
 31
0.0
  0
LINE
  5
18D85
330
18C7A
100
AcDbEntity
  8
部品1
100
AcDbLine
 10
444.9705892765305
 20
2707.49426917448
 30
0.0
 11
416.9705892765305
 21
2707.49426917448
 31
0.0
  0
LINE
  5
18D86
330
18C7A
100
AcDbEntity
  8
部品1
 48
50.0
100
AcDbLine
 10
445.4705892765542
 20
3152.494269174506
 30
0.0
 11
445.4705892765559
 21
2702.494269174505
 31
0.0
  0
LINE
  5
18D87
330
18C7A
100
AcDbEntity
  8
部品1
 48
50.0
100
AcDbLine
 10
473.470589276545
 20
1448.994269174573
 30
0.0
 11
444.970589276545
 21
1420.494269174574
 31
0.0
  0
LINE
  5
18D88
330
18C7A
100
AcDbEntity
  8
部品1
100
AcDbLine
 10
471.9705892765232
 20
1392.494269174465
 30
0.0
 11
416.9705892765486
 21
1392.494269174465
 31
0.0
  0
LINE
  5
18D89
330
18C7A
100
AcDbEntity
  8
部品1
100
AcDbLine
 10
444.9705892765305
 20
1447.494269174429
 30
0.0
 11
416.9705892765469
 21
1447.494269174429
 31
0.0
  0
LINE
  5
18D8A
330
18C7A
100
AcDbEntity
  8
部品1
100
AcDbLine
 10
444.9705892765305
 20
1447.494269174465
 30
0.0
 11
416.9705892765469
 21
1447.494269174465
 31
0.0
  0
LINE
  5
18D8B
330
18C7A
100
AcDbEntity
  8
部品1
100
AcDbLine
 10
444.9705892765469
 20
1447.49426917448
 30
0.0
 11
416.9705892765469
 21
1447.49426917448
 31
0.0
  0
LINE
  5
18D8C
330
18C7A
100
AcDbEntity
  8
部品1
100
AcDbLine
 10
416.9705892765469
 20
1447.494269174429
 30
0.0
 11
416.9705892765486
 21
1392.494269174433
 31
0.0
  0
LINE
  5
18D8D
330
18C7A
100
AcDbEntity
  8
部品1
100
AcDbLine
 10
416.9705892765196
 20
3182.494269174477
 30
0.0
 11
416.9705892765486
 21
1392.494269174465
 31
0.0
  0
LINE
  5
18D8E
330
18C7A
100
AcDbEntity
  8
部品1
100
AcDbLine
 10
444.9705892765305
 20
1420.494269174556
 30
0.0
 11
444.9705892765559
 21
3154.494269174509
 31
0.0
  0
LINE
  5
18D8F
330
18C7A
100
AcDbEntity
  8
部品1
100
AcDbLine
 10
473.4705892765323
 20
2702.494269174608
 30
0.0
 11
473.470589276545
 21
1448.994269174571
 31
0.0
  0
LINE
  5
18D90
330
18C7A
100
AcDbEntity
  8
破線
 48
10.0
100
AcDbLine
 10
496.9705892765305
 20
2702.494269174608
 30
0.0
 11
496.9705892765451
 21
1472.494269174476
 31
0.0
  0
DIMENSION
  5
18D91
330
18C7A
100
AcDbEntity
  8
寸法
100
AcDbDimension
  2
*D8
 10
3886.970589276531
 20
410.7433333855515
 30
0.0
 11
2168.197775309287
 21
410.7433333855515
 31
0.0
 12
-3742.925985830444
 22
-6453.628869860112
 32
0.0
 70
   128
 71
     5
 42
3469.999999999982
  3
INABA_S40G
100
AcDbAlignedDimension
 13
416.9705892765486
 23
1392.494269174433
 33
0.0
 14
3886.970589276531
 24
1392.49426917456
 34
0.0
100
AcDbRotatedDimension
1001
ACAD
1000
DSTYLE
1002
{
1070
   341
1005
0
1002
}
  0
LINE
  5
18D92
330
18C7A
100
AcDbEntity
  8
部品1
100
AcDbLine
 10
444.9705892765559
 20
3154.494269174624
 30
0.0
 11
1509.470589276487
 21
3154.494269174626
 31
0.0
  0
LINE
  5
18D93
330
18C7A
100
AcDbEntity
  8
部品1
100
AcDbLine
 10
3886.970589276531
 20
1392.494269174596
 30
0.0
 11
3411.970589276556
 21
1392.494269174582
 31
0.0
  0
LINE
  5
18D94
330
18C7A
100
AcDbEntity
  8
部品1
100
AcDbLine
 10
416.9705892765559
 20
3182.494269174509
 30
0.0
 11
3886.970589276556
 21
3182.494269174604
 31
0.0
  0
LINE
  5
18D95
330
18C7A
100
AcDbEntity
  8
部品1
100
AcDbLine
 10
445.4705892765559
 20
2702.494269174509
 30
0.0
 11
1508.470589276487
 21
2702.494269174558
 31
0.0
  0
LINE
  5
18D96
330
18C7A
100
AcDbEntity
  8
細線
 48
50.0
100
AcDbLine
 10
2767.470589276556
 20
3152.494269174611
 30
0.0
 11
1536.470589276487
 21
2702.494269174558
 31
0.0
  0
LINE
  5
18D97
330
18C7A
100
AcDbEntity
  8
部品1
100
AcDbLine
 10
445.4705892765542
 20
3152.494269174509
 30
0.0
 11
1508.470589276485
 21
3152.494269174558
 31
0.0
  0
LINE
  5
18D98
330
18C7A
100
AcDbEntity
  8
細線
 48
50.0
100
AcDbLine
 10
2767.470589276554
 20
2702.494269174615
 30
0.0
 11
1536.470589276485
 21
3152.494269174558
 31
0.0
  0
LINE
  5
18D99
330
18C7A
100
AcDbEntity
  8
破線
 48
10.0
100
AcDbLine
 10
2126.970589276534
 20
1472.494269174502
 30
0.0
 11
1344.47058927653
 21
1472.494269174473
 31
0.0
  0
LINE
  5
18D9A
330
18C7A
100
AcDbEntity
  8
部品1
100
AcDbLine
 10
3830.470589276556
 20
1448.994269174596
 30
0.0
 11
473.4705892764487
 21
1448.994269174476
 31
0.0
  0
DIMENSION
  5
18D9B
330
18C7A
100
AcDbEntity
  8
寸法
100
AcDbDimension
  2
*D7
 10
471.970589276555
 20
3698.302488799491
 30
0.0
 11
108.4853079022819
 21
3698.302488799491
 31
0.0
 12
-3742.925985830444
 22
-6453.628869860112
 32
0.0
 70
   128
 71
     5
 42
55.00000000003456
  3
INABA_S40G
100
AcDbAlignedDimension
 13
416.9705892765205
 23
3182.494269174509
 33
0.0
 14
471.970589276555
 24
3182.494269174509
 34
0.0
100
AcDbRotatedDimension
1001
ACAD
1000
DSTYLE
1002
{
1002
}
  0
DIMENSION
  5
18D9C
330
18C7A
100
AcDbEntity
  8
寸法
100
AcDbDimension
  2
*D6
 10
4534.396935010967
 20
3127.494269174607
 30
0.0
 11
4534.396935010965
 21
3490.979550548844
 31
0.0
 12
-3742.925985830444
 22
-6453.628869860112
 32
0.0
 70
   128
 71
     5
 42
54.99999999999636
  3
INABA_S40G
100
AcDbAlignedDimension
 13
3886.970589276556
 23
3182.494269174604
 33
0.0
 14
3886.970589276556
 24
3127.494269174607
 34
0.0
 50
90.0
100
AcDbRotatedDimension
1001
ACAD
1000
DSTYLE
1002
{
1002
}
  0
DIMENSION
  5
18D9D
330
18C7A
100
AcDbEntity
  8
寸法
100
AcDbDimension
  2
*D5
 10
3886.970589276556
 20
3698.302488799589
 30
0.0
 11
4195.455870650794
 21
3698.302488799589
 31
0.0
 12
-3742.925985830444
 22
-6453.628869860112
 32
0.0
 70
   128
 71
     5
 42
55.0
  3
INABA_S40G
100
AcDbAlignedDimension
 13
3831.970589276556
 23
3182.494269174604
 33
0.0
 14
3886.970589276556
 24
3182.494269174604
 34
0.0
100
AcDbRotatedDimension
1001
ACAD
1000
DSTYLE
1002
{
1002
}
  0
DIMENSION
  5
18D9E
330
18C7A
100
AcDbEntity
  8
寸法
100
AcDbDimension
  2
*D4
 10
3831.970589276556
 20
3698.302488799607
 30
0.0
 11
2151.970589276555
 21
3698.302488799607
 31
0.0
 12
-3742.925985830444
 22
-6453.628869860112
 32
0.0
 70
   128
  1
8X420=<>
 71
     5
 42
3360.000000000001
  3
INABA_S40G
100
AcDbAlignedDimension
 13
471.970589276555
 23
3182.494269174509
 33
0.0
 14
3831.970589276556
 24
3182.494269174604
 34
0.0
100
AcDbRotatedDimension
1001
ACAD
1000
DSTYLE
1002
{
1002
}
  0
DIMENSION
  5
18D9F
330
18C7A
100
AcDbEntity
  8
寸法
100
AcDbDimension
  2
*D3
 10
4899.503876750603
 20
1392.494269174596
 30
0.0
 11
4899.503876750601
 21
2287.4942691746
 31
0.0
 12
-3742.925985830444
 22
-6453.628869860112
 32
0.0
 70
   128
 71
     5
 42
1790.000000000007
  3
INABA_S40G
100
AcDbAlignedDimension
 13
3886.970589276556
 23
3182.494269174604
 33
0.0
 14
3886.970589276531
 24
1392.494269174596
 34
0.0
 50
90.0
100
AcDbRotatedDimension
1001
ACAD
1000
DSTYLE
1002
{
1002
}
  0
ENDBLK
  5
18DA1
330
18C7A
100
AcDbEntity
  8
0
 48
50.0
100
AcDbBlockEnd
  0
BLOCK
  5
1C4CB
330
1C4CA
100
AcDbEntity
  8
0
 48
50.0
100
AcDbBlockBegin
  2
_NONE
 70
     0
 10
0.0
 20
0.0
 30
0.0
  3
_NONE
  1

  0
CIRCLE
  5
1C4CC
330
1C4CA
100
AcDbEntity
  8
0
  6
ByBlock
 62
     0
 48
50.0
100
AcDbCircle
 10
0.0
 20
0.0
 30
0.0
 40
0.25
  0
ENDBLK
  5
1C4CD
330
1C4CA
100
AcDbEntity
  8
0
 48
50.0
100
AcDbBlockEnd
  0
BLOCK
  5
2A27C
330
2A273
100
AcDbEntity
  8
0
 48
50.0
100
AcDbBlockBegin
  2
*D19
 70
     1
 10
0.0
 20
0.0
 30
0.0
  3
*D19
  1

  0
LINE
  5
2B36F
330
2A273
100
AcDbEntity
  8
寸法
 62
     0
 48
50.0
370
    -2
100
AcDbLine
 10
6055.600000000003
 20
7559.48349291625
 30
0.0
 11
6055.600000000003
 21
8398.749951010161
 31
0.0
  0
LINE
  5
2B370
330
2A273
100
AcDbEntity
  8
寸法
 62
     0
 48
50.0
370
    -2
100
AcDbLine
 10
3831.600000000003
 20
7559.48349291625
 30
0.0
 11
3831.600000000003
 21
8398.749951010161
 31
0.0
  0
LINE
  5
2B371
330
2A273
100
AcDbEntity
  8
寸法
 62
     0
 48
50.0
370
    -2
100
AcDbLine
 10
6055.600000000003
 20
8338.749951010161
 30
0.0
 11
3831.600000000003
 21
8338.749951010161
 31
0.0
  0
INSERT
  5
2B372
330
2A273
100
AcDbEntity
  8
寸法
 62
     0
 48
50.0
370
    -2
100
AcDbBlockReference
  2
_DOTSMALL
 10
6055.600000000003
 20
8338.749951010161
 30
0.0
 41
100.0
 42
100.0
 43
100.0
  0
INSERT
  5
2B373
330
2A273
100
AcDbEntity
  8
寸法
 62
     0
 48
50.0
370
    -2
100
AcDbBlockReference
  2
_DOTSMALL
 10
3831.600000000003
 20
8338.749951010161
 30
0.0
 41
100.0
 42
100.0
 43
100.0
 50
180.0
  0
MTEXT
  5
2B374
330
2A273
100
AcDbEntity
  8
寸法
 62
     7
 48
50.0
100
AcDbMText
 10
4943.600000000002
 20
8438.761762033783
 30
0.0
 40
120.0
 41
0.0
 71
     5
 72
     1
  1
\A1;2224
  7
STYLE1
 73
     1
 44
1.0
1001
ACAD
1000
MTEXTBEGIN
1070
    73
1070
     1
1070
    44
1040
1.0
1070
    74
1070
     0
1000
MTEXTEND
  0
POINT
  5
2B375
330
2A273
100
AcDbEntity
  8
DEFPOINTS
 62
     0
 48
50.0
100
AcDbPoint
 10
6055.600000000003
 20
7539.48349291625
 30
0.0
  0
POINT
  5
2B376
330
2A273
100
AcDbEntity
  8
DEFPOINTS
 62
     0
 48
50.0
100
AcDbPoint
 10
3831.600000000003
 20
7539.48349291625
 30
0.0
  0
POINT
  5
2B377
330
2A273
100
AcDbEntity
  8
DEFPOINTS
 62
     0
 48
50.0
100
AcDbPoint
 10
3831.600000000003
 20
8338.749951010161
 30
0.0
  0
ENDBLK
  5
2A27D
330
2A273
100
AcDbEntity
  8
0
 48
50.0
100
AcDbBlockEnd
  0
BLOCK
  5
2A296
330
2A28B
100
AcDbEntity
  8
0
 48
50.0
100
AcDbBlockBegin
  2
*D20
 70
     1
 10
0.0
 20
0.0
 30
0.0
  3
*D20
  1

  0
LINE
  5
2B3C0
330
2A28B
100
AcDbEntity
  8
寸法
 62
     0
 48
50.0
370
    -2
100
AcDbLine
 10
3688.600000000003
 20
7612.483492916251
 30
0.0
 11
3025.665006330075
 21
7612.483492916251
 31
0.0
  0
LINE
  5
2B3C1
330
2A28B
100
AcDbEntity
  8
寸法
 62
     0
 48
50.0
370
    -2
100
AcDbLine
 10
3761.600000000002
 20
7489.483492916249
 30
0.0
 11
3025.665006330075
 21
7489.483492916249
 31
0.0
  0
LINE
  5
2B3C2
330
2A28B
100
AcDbEntity
  8
寸法
 62
     0
 48
50.0
370
    -2
100
AcDbLine
 10
3085.665006330075
 20
7489.483492916249
 30
0.0
 11
3085.665006330075
 21
7612.483492916251
 31
0.0
  0
LINE
  5
2B3C3
330
2A28B
100
AcDbEntity
  8
寸法
 62
     0
 48
50.0
370
    -2
100
AcDbLine
 10
3085.665006330075
 20
7612.483492916251
 30
0.0
 11
3085.665006330075
 21
8024.075376008287
 31
0.0
  0
INSERT
  5
2B3C4
330
2A28B
100
AcDbEntity
  8
寸法
 62
     0
 48
50.0
370
    -2
100
AcDbBlockReference
  2
_DOTSMALL
 10
3085.665006330075
 20
7489.483492916249
 30
0.0
 41
100.0
 42
100.0
 43
100.0
 50
270.0
  0
INSERT
  5
2B3C5
330
2A28B
100
AcDbEntity
  8
寸法
 62
     0
 48
50.0
370
    -2
100
AcDbBlockReference
  2
_DOTSMALL
 10
3085.665006330075
 20
7612.483492916251
 30
0.0
 41
100.0
 42
100.0
 43
100.0
 50
90.0
  0
MTEXT
  5
2B3C6
330
2A28B
100
AcDbEntity
  8
寸法
 62
     7
 48
50.0
100
AcDbMText
 10
2985.653195306451
 20
7885.59009463405
 30
0.0
 40
120.0
 41
0.0
 71
     5
 72
     1
  1
\A1;123
  7
STYLE1
 11
0.0000000000000001
 21
1.0
 31
0.0
 73
     1
 44
1.0
1001
ACAD
1000
MTEXTBEGIN
1070
    73
1070
     1
1070
    44
1040
1.0
1070
    74
1070
     0
1000
MTEXTEND
  0
POINT
  5
2B3C7
330
2A28B
100
AcDbEntity
  8
DEFPOINTS
 62
     0
 48
50.0
100
AcDbPoint
 10
3708.600000000002
 20
7612.483492916251
 30
0.0
  0
POINT
  5
2B3C8
330
2A28B
100
AcDbEntity
  8
DEFPOINTS
 62
     0
 48
50.0
100
AcDbPoint
 10
3781.600000000003
 20
7489.483492916249
 30
0.0
  0
POINT
  5
2B3C9
330
2A28B
100
AcDbEntity
  8
DEFPOINTS
 62
     0
 48
50.0
100
AcDbPoint
 10
3085.665006330075
 20
7489.483492916249
 30
0.0
  0
ENDBLK
  5
2A297
330
2A28B
100
AcDbEntity
  8
0
 48
50.0
100
AcDbBlockEnd
  0
BLOCK
  5
2A2A3
330
2A298
100
AcDbEntity
  8
0
 48
50.0
100
AcDbBlockBegin
  2
*D21
 70
     1
 10
0.0
 20
0.0
 30
0.0
  3
*D21
  1

  0
LINE
  5
2B35A
330
2A298
100
AcDbEntity
  8
寸法
 62
     0
 48
50.0
370
    -2
100
AcDbLine
 10
3831.600000000003
 20
7559.48349291625
 30
0.0
 11
3831.600000000003
 21
8398.749951010161
 31
0.0
  0
LINE
  5
2B35B
330
2A298
100
AcDbEntity
  8
寸法
 62
     0
 48
50.0
370
    -2
100
AcDbLine
 10
3708.600000000002
 20
7632.48349291625
 30
0.0
 11
3708.600000000002
 21
8398.749951010161
 31
0.0
  0
LINE
  5
2B35C
330
2A298
100
AcDbEntity
  8
寸法
 62
     0
 48
50.0
370
    -2
100
AcDbLine
 10
3831.600000000003
 20
8338.749951010161
 30
0.0
 11
3708.600000000002
 21
8338.749951010161
 31
0.0
  0
LINE
  5
2B35D
330
2A298
100
AcDbEntity
  8
寸法
 62
     0
 48
50.0
370
    -2
100
AcDbLine
 10
3708.600000000002
 20
8338.749951010161
 30
0.0
 11
3297.008116907962
 21
8338.749951010161
 31
0.0
  0
INSERT
  5
2B35E
330
2A298
100
AcDbEntity
  8
寸法
 62
     0
 48
50.0
370
    -2
100
AcDbBlockReference
  2
_DOTSMALL
 10
3831.600000000003
 20
8338.749951010161
 30
0.0
 41
100.0
 42
100.0
 43
100.0
  0
INSERT
  5
2B35F
330
2A298
100
AcDbEntity
  8
寸法
 62
     0
 48
50.0
370
    -2
100
AcDbBlockReference
  2
_DOTSMALL
 10
3708.600000000002
 20
8338.749951010161
 30
0.0
 41
100.0
 42
100.0
 43
100.0
 50
180.0
  0
MTEXT
  5
2B360
330
2A298
100
AcDbEntity
  8
寸法
 62
     7
 48
50.0
100
AcDbMText
 10
3435.493398282201
 20
8438.761762033783
 30
0.0
 40
120.0
 41
0.0
 71
     5
 72
     1
  1
\A1;123
  7
STYLE1
 73
     1
 44
1.0
1001
ACAD
1000
MTEXTBEGIN
1070
    73
1070
     1
1070
    44
1040
1.0
1070
    74
1070
     0
1000
MTEXTEND
  0
POINT
  5
2B361
330
2A298
100
AcDbEntity
  8
DEFPOINTS
 62
     0
 48
50.0
100
AcDbPoint
 10
3831.600000000003
 20
7539.48349291625
 30
0.0
  0
POINT
  5
2B362
330
2A298
100
AcDbEntity
  8
DEFPOINTS
 62
     0
 48
50.0
100
AcDbPoint
 10
3708.600000000002
 20
7612.483492916251
 30
0.0
  0
POINT
  5
2B363
330
2A298
100
AcDbEntity
  8
DEFPOINTS
 62
     0
 48
50.0
100
AcDbPoint
 10
3708.600000000002
 20
8338.749951010161
 30
0.0
  0
ENDBLK
  5
2A2A4
330
2A298
100
AcDbEntity
  8
0
 48
50.0
100
AcDbBlockEnd
  0
BLOCK
  5
2A2B9
330
2A2AF
100
AcDbEntity
  8
0
 48
50.0
100
AcDbBlockBegin
  2
*D22
 70
     1
 10
0.0
 20
0.0
 30
0.0
  3
*D22
  1

  0
LINE
  5
2B351
330
2A2AF
100
AcDbEntity
  8
寸法
 62
     0
 48
50.0
370
    -2
100
AcDbLine
 10
7695.600000000003
 20
7559.48349291625
 30
0.0
 11
7695.600000000003
 21
8398.749951010161
 31
0.0
  0
LINE
  5
2B352
330
2A2AF
100
AcDbEntity
  8
寸法
 62
     0
 48
50.0
370
    -2
100
AcDbLine
 10
6055.600000000003
 20
7559.48349291625
 30
0.0
 11
6055.600000000003
 21
8398.749951010161
 31
0.0
  0
LINE
  5
2B353
330
2A2AF
100
AcDbEntity
  8
寸法
 62
     0
 48
50.0
370
    -2
100
AcDbLine
 10
7695.600000000003
 20
8338.749951010161
 30
0.0
 11
6055.600000000003
 21
8338.749951010161
 31
0.0
  0
INSERT
  5
2B354
330
2A2AF
100
AcDbEntity
  8
寸法
 62
     0
 48
50.0
370
    -2
100
AcDbBlockReference
  2
_DOTSMALL
 10
7695.600000000003
 20
8338.749951010161
 30
0.0
 41
100.0
 42
100.0
 43
100.0
  0
INSERT
  5
2B355
330
2A2AF
100
AcDbEntity
  8
寸法
 62
     0
 48
50.0
370
    -2
100
AcDbBlockReference
  2
_DOTSMALL
 10
6055.600000000003
 20
8338.749951010161
 30
0.0
 41
100.0
 42
100.0
 43
100.0
 50
180.0
  0
MTEXT
  5
2B356
330
2A2AF
100
AcDbEntity
  8
寸法
 62
     7
 48
50.0
100
AcDbMText
 10
6875.600000000003
 20
8438.74995101016
 30
0.0
 40
120.0
 41
0.0
 71
     5
 72
     1
  1
\A1;1640
  7
STYLE1
 73
     1
 44
1.0
1001
ACAD
1000
MTEXTBEGIN
1070
    73
1070
     1
1070
    44
1040
1.0
1070
    74
1070
     0
1000
MTEXTEND
  0
POINT
  5
2B357
330
2A2AF
100
AcDbEntity
  8
DEFPOINTS
 62
     0
 48
50.0
100
AcDbPoint
 10
7695.600000000003
 20
7539.48349291625
 30
0.0
  0
POINT
  5
2B358
330
2A2AF
100
AcDbEntity
  8
DEFPOINTS
 62
     0
 48
50.0
100
AcDbPoint
 10
6055.600000000003
 20
7539.48349291625
 30
0.0
  0
POINT
  5
2B359
330
2A2AF
100
AcDbEntity
  8
DEFPOINTS
 62
     0
 48
50.0
100
AcDbPoint
 10
6055.600000000003
 20
8338.749951010161
 30
0.0
  0
ENDBLK
  5
2A2BA
330
2A2AF
100
AcDbEntity
  8
0
 48
50.0
100
AcDbBlockEnd
  0
BLOCK
  5
2A2C6
330
2A2BB
100
AcDbEntity
  8
0
 48
50.0
100
AcDbBlockBegin
  2
*D23
 70
     1
 10
0.0
 20
0.0
 30
0.0
  3
*D23
  1

  0
LINE
  5
2B347
330
2A2BB
100
AcDbEntity
  8
寸法
 62
     0
 48
50.0
370
    -2
100
AcDbLine
 10
5720.854682011651
 20
7612.483492916219
 30
0.0
 11
5786.819725318592
 21
7612.483492916219
 31
0.0
  0
LINE
  5
2B348
330
2A2BB
100
AcDbEntity
  8
寸法
 62
     0
 48
50.0
370
    -2
100
AcDbLine
 10
5720.85468201165
 20
7412.483492916248
 30
0.0
 11
5786.819725318592
 21
7412.483492916248
 31
0.0
  0
LINE
  5
2B349
330
2A2BB
100
AcDbEntity
  8
寸法
 62
     0
 48
50.0
370
    -2
100
AcDbLine
 10
5726.819725318591
 20
7412.483492916248
 30
0.0
 11
5726.819725318591
 21
7612.483492916219
 31
0.0
  0
LINE
  5
2B34A
330
2A2BB
100
AcDbEntity
  8
寸法
 62
     0
 48
50.0
370
    -2
100
AcDbLine
 10
5726.819725318591
 20
7612.483492916219
 30
0.0
 11
5726.819725318591
 21
8049.017941735117
 31
0.0
  0
INSERT
  5
2B34B
330
2A2BB
100
AcDbEntity
  8
寸法
 62
     0
 48
50.0
370
    -2
100
AcDbBlockReference
  2
_DOTSMALL
 10
5726.819725318591
 20
7412.483492916248
 30
0.0
 41
100.0
 42
100.0
 43
100.0
 50
270.0
  0
INSERT
  5
2B34C
330
2A2BB
100
AcDbEntity
  8
寸法
 62
     0
 48
50.0
370
    -2
100
AcDbBlockReference
  2
_DOTSMALL
 10
5726.819725318591
 20
7612.483492916219
 30
0.0
 41
100.0
 42
100.0
 43
100.0
 50
90.0
  0
MTEXT
  5
2B34D
330
2A2BB
100
AcDbEntity
  8
寸法
 62
     7
 48
50.0
100
AcDbMText
 10
5626.807914294969
 20
7899.447075593386
 30
0.0
 40
120.0
 41
0.0
 71
     5
 72
     1
  1
\A1;200
  7
STYLE1
 11
0.0000000000000001
 21
1.0
 31
0.0
 73
     1
 44
1.0
1001
ACAD
1000
MTEXTBEGIN
1070
    73
1070
     1
1070
    44
1040
1.0
1070
    74
1070
     0
1000
MTEXTEND
  0
POINT
  5
2B34E
330
2A2BB
100
AcDbEntity
  8
DEFPOINTS
 62
     0
 48
50.0
100
AcDbPoint
 10
5700.854682011651
 20
7612.483492916219
 30
0.0
  0
POINT
  5
2B34F
330
2A2BB
100
AcDbEntity
  8
DEFPOINTS
 62
     0
 48
50.0
100
AcDbPoint
 10
5700.85468201165
 20
7412.483492916248
 30
0.0
  0
POINT
  5
2B350
330
2A2BB
100
AcDbEntity
  8
DEFPOINTS
 62
     0
 48
50.0
100
AcDbPoint
 10
5726.819725318591
 20
7412.483492916248
 30
0.0
  0
ENDBLK
  5
2A2C7
330
2A2BB
100
AcDbEntity
  8
0
 48
50.0
100
AcDbBlockEnd
  0
BLOCK
  5
2A2D2
330
2A2C8
100
AcDbEntity
  8
0
 48
50.0
100
AcDbBlockBegin
  2
*D24
 70
     1
 10
0.0
 20
0.0
 30
0.0
  3
*D24
  1

  0
LINE
  5
2B48C
330
2A2C8
100
AcDbEntity
  8
寸法
 62
     0
 48
50.0
370
    -2
100
AcDbLine
 10
12738.6
 20
7632.48349291625
 30
0.0
 11
12738.6
 21
8155.092309586498
 31
0.0
  0
LINE
  5
2B48D
330
2A2C8
100
AcDbEntity
  8
寸法
 62
     0
 48
50.0
370
    -2
100
AcDbLine
 10
11913.6
 20
6949.483492916249
 30
0.0
 11
11913.6
 21
8155.092309586498
 31
0.0
  0
LINE
  5
2B48E
330
2A2C8
100
AcDbEntity
  8
寸法
 62
     0
 48
50.0
370
    -2
100
AcDbLine
 10
12738.6
 20
8095.092309586497
 30
0.0
 11
11913.6
 21
8095.092309586497
 31
0.0
  0
INSERT
  5
2B48F
330
2A2C8
100
AcDbEntity
  8
寸法
 62
     0
 48
50.0
370
    -2
100
AcDbBlockReference
  2
_DOTSMALL
 10
12738.6
 20
8095.092309586497
 30
0.0
 41
100.0
 42
100.0
 43
100.0
  0
INSERT
  5
2B490
330
2A2C8
100
AcDbEntity
  8
寸法
 62
     0
 48
50.0
370
    -2
100
AcDbBlockReference
  2
_DOTSMALL
 10
11913.6
 20
8095.092309586497
 30
0.0
 41
100.0
 42
100.0
 43
100.0
 50
180.0
  0
MTEXT
  5
2B491
330
2A2C8
100
AcDbEntity
  8
寸法
 62
     7
 48
50.0
100
AcDbMText
 10
12326.1
 20
8195.104120610119
 30
0.0
 40
120.0
 41
0.0
 71
     5
 72
     1
  1
\A1;825
  7
STYLE1
 73
     1
 44
1.0
1001
ACAD
1000
MTEXTBEGIN
1070
    73
1070
     1
1070
    44
1040
1.0
1070
    74
1070
     0
1000
MTEXTEND
  0
POINT
  5
2B492
330
2A2C8
100
AcDbEntity
  8
DEFPOINTS
 62
     0
 48
50.0
100
AcDbPoint
 10
12738.6
 20
7612.483492916251
 30
0.0
  0
POINT
  5
2B493
330
2A2C8
100
AcDbEntity
  8
DEFPOINTS
 62
     0
 48
50.0
100
AcDbPoint
 10
11913.6
 20
6929.483492916251
 30
0.0
  0
POINT
  5
2B494
330
2A2C8
100
AcDbEntity
  8
DEFPOINTS
 62
     0
 48
50.0
100
AcDbPoint
 10
11913.6
 20
8095.092309586497
 30
0.0
  0
ENDBLK
  5
2A2D3
330
2A2C8
100
AcDbEntity
  8
0
 48
50.0
100
AcDbBlockEnd
  0
BLOCK
  5
2A2DE
330
2A2D4
100
AcDbEntity
  8
0
 48
50.0
100
AcDbBlockBegin
  2
*D25
 70
     1
 10
0.0
 20
0.0
 30
0.0
  3
*D25
  1

  0
LINE
  5
2B4B0
330
2A2D4
100
AcDbEntity
  8
寸法
 62
     0
 48
50.0
370
    -2
100
AcDbLine
 10
11093.6
 20
6949.483492916249
 30
0.0
 11
11093.6
 21
8155.092309586498
 31
0.0
  0
LINE
  5
2B4B1
330
2A2D4
100
AcDbEntity
  8
寸法
 62
     0
 48
50.0
370
    -2
100
AcDbLine
 10
10273.6
 20
6949.483492916249
 30
0.0
 11
10273.6
 21
8155.092309586498
 31
0.0
  0
LINE
  5
2B4B2
330
2A2D4
100
AcDbEntity
  8
寸法
 62
     0
 48
50.0
370
    -2
100
AcDbLine
 10
11093.6
 20
8095.092309586497
 30
0.0
 11
10273.6
 21
8095.092309586497
 31
0.0
  0
INSERT
  5
2B4B3
330
2A2D4
100
AcDbEntity
  8
寸法
 62
     0
 48
50.0
370
    -2
100
AcDbBlockReference
  2
_DOTSMALL
 10
11093.6
 20
8095.092309586497
 30
0.0
 41
100.0
 42
100.0
 43
100.0
  0
INSERT
  5
2B4B4
330
2A2D4
100
AcDbEntity
  8
寸法
 62
     0
 48
50.0
370
    -2
100
AcDbBlockReference
  2
_DOTSMALL
 10
10273.6
 20
8095.092309586497
 30
0.0
 41
100.0
 42
100.0
 43
100.0
 50
180.0
  0
MTEXT
  5
2B4B5
330
2A2D4
100
AcDbEntity
  8
寸法
 62
     7
 48
50.0
100
AcDbMText
 10
10683.6
 20
8195.104120610119
 30
0.0
 40
120.0
 41
0.0
 71
     5
 72
     1
  1
\A1;820
  7
STYLE1
 73
     1
 44
1.0
1001
ACAD
1000
MTEXTBEGIN
1070
    73
1070
     1
1070
    44
1040
1.0
1070
    74
1070
     0
1000
MTEXTEND
  0
POINT
  5
2B4B6
330
2A2D4
100
AcDbEntity
  8
DEFPOINTS
 62
     0
 48
50.0
100
AcDbPoint
 10
11093.6
 20
6929.483492916251
 30
0.0
  0
POINT
  5
2B4B7
330
2A2D4
100
AcDbEntity
  8
DEFPOINTS
 62
     0
 48
50.0
100
AcDbPoint
 10
10273.6
 20
6929.483492916251
 30
0.0
  0
POINT
  5
2B4B8
330
2A2D4
100
AcDbEntity
  8
DEFPOINTS
 62
     0
 48
50.0
100
AcDbPoint
 10
10273.6
 20
8095.092309586497
 30
0.0
  0
ENDBLK
  5
2A2DF
330
2A2D4
100
AcDbEntity
  8
0
 48
50.0
100
AcDbBlockEnd
  0
BLOCK
  5
2A2EA
330
2A2E0
100
AcDbEntity
  8
0
 48
50.0
100
AcDbBlockBegin
  2
*D26
 70
     1
 10
0.0
 20
0.0
 30
0.0
  3
*D26
  1

  0
LINE
  5
2B49E
330
2A2E0
100
AcDbEntity
  8
寸法
 62
     0
 48
50.0
370
    -2
100
AcDbLine
 10
11913.6
 20
6949.483492916249
 30
0.0
 11
11913.6
 21
8155.092309586498
 31
0.0
  0
LINE
  5
2B49F
330
2A2E0
100
AcDbEntity
  8
寸法
 62
     0
 48
50.0
370
    -2
100
AcDbLine
 10
11093.6
 20
6949.483492916249
 30
0.0
 11
11093.6
 21
8155.092309586498
 31
0.0
  0
LINE
  5
2B4A0
330
2A2E0
100
AcDbEntity
  8
寸法
 62
     0
 48
50.0
370
    -2
100
AcDbLine
 10
11913.6
 20
8095.092309586497
 30
0.0
 11
11093.6
 21
8095.092309586497
 31
0.0
  0
INSERT
  5
2B4A1
330
2A2E0
100
AcDbEntity
  8
寸法
 62
     0
 48
50.0
370
    -2
100
AcDbBlockReference
  2
_DOTSMALL
 10
11913.6
 20
8095.092309586497
 30
0.0
 41
100.0
 42
100.0
 43
100.0
  0
INSERT
  5
2B4A2
330
2A2E0
100
AcDbEntity
  8
寸法
 62
     0
 48
50.0
370
    -2
100
AcDbBlockReference
  2
_DOTSMALL
 10
11093.6
 20
8095.092309586497
 30
0.0
 41
100.0
 42
100.0
 43
100.0
 50
180.0
  0
MTEXT
  5
2B4A3
330
2A2E0
100
AcDbEntity
  8
寸法
 62
     7
 48
50.0
100
AcDbMText
 10
11503.6
 20
8195.104120610119
 30
0.0
 40
120.0
 41
0.0
 71
     5
 72
     1
  1
\A1;820
  7
STYLE1
 73
     1
 44
1.0
1001
ACAD
1000
MTEXTBEGIN
1070
    73
1070
     1
1070
    44
1040
1.0
1070
    74
1070
     0
1000
MTEXTEND
  0
POINT
  5
2B4A4
330
2A2E0
100
AcDbEntity
  8
DEFPOINTS
 62
     0
 48
50.0
100
AcDbPoint
 10
11913.6
 20
6929.483492916251
 30
0.0
  0
POINT
  5
2B4A5
330
2A2E0
100
AcDbEntity
  8
DEFPOINTS
 62
     0
 48
50.0
100
AcDbPoint
 10
11093.6
 20
6929.483492916251
 30
0.0
  0
POINT
  5
2B4A6
330
2A2E0
100
AcDbEntity
  8
DEFPOINTS
 62
     0
 48
50.0
100
AcDbPoint
 10
11093.6
 20
8095.092309586497
 30
0.0
  0
ENDBLK
  5
2A2EB
330
2A2E0
100
AcDbEntity
  8
0
 48
50.0
100
AcDbBlockEnd
  0
BLOCK
  5
2A2F6
330
2A2EC
100
AcDbEntity
  8
0
 48
50.0
100
AcDbBlockBegin
  2
*D27
 70
     1
 10
0.0
 20
0.0
 30
0.0
  3
*D27
  1

  0
LINE
  5
2B4B9
330
2A2EC
100
AcDbEntity
  8
寸法
 62
     0
 48
50.0
370
    -2
100
AcDbLine
 10
10273.6
 20
6949.483492916249
 30
0.0
 11
10273.6
 21
8155.092309586498
 31
0.0
  0
LINE
  5
2B4BA
330
2A2EC
100
AcDbEntity
  8
寸法
 62
     0
 48
50.0
370
    -2
100
AcDbLine
 10
9453.60000000001
 20
6949.483492916249
 30
0.0
 11
9453.60000000001
 21
8155.092309586498
 31
0.0
  0
LINE
  5
2B4BB
330
2A2EC
100
AcDbEntity
  8
寸法
 62
     0
 48
50.0
370
    -2
100
AcDbLine
 10
10273.6
 20
8095.092309586497
 30
0.0
 11
9453.60000000001
 21
8095.092309586497
 31
0.0
  0
INSERT
  5
2B4BC
330
2A2EC
100
AcDbEntity
  8
寸法
 62
     0
 48
50.0
370
    -2
100
AcDbBlockReference
  2
_DOTSMALL
 10
10273.6
 20
8095.092309586497
 30
0.0
 41
100.0
 42
100.0
 43
100.0
  0
INSERT
  5
2B4BD
330
2A2EC
100
AcDbEntity
  8
寸法
 62
     0
 48
50.0
370
    -2
100
AcDbBlockReference
  2
_DOTSMALL
 10
9453.60000000001
 20
8095.092309586497
 30
0.0
 41
100.0
 42
100.0
 43
100.0
 50
180.0
  0
MTEXT
  5
2B4BE
330
2A2EC
100
AcDbEntity
  8
寸法
 62
     7
 48
50.0
100
AcDbMText
 10
9863.600000000007
 20
8195.104120610119
 30
0.0
 40
120.0
 41
0.0
 71
     5
 72
     1
  1
\A1;820
  7
STYLE1
 73
     1
 44
1.0
1001
ACAD
1000
MTEXTBEGIN
1070
    73
1070
     1
1070
    44
1040
1.0
1070
    74
1070
     0
1000
MTEXTEND
  0
POINT
  5
2B4BF
330
2A2EC
100
AcDbEntity
  8
DEFPOINTS
 62
     0
 48
50.0
100
AcDbPoint
 10
10273.6
 20
6929.483492916251
 30
0.0
  0
POINT
  5
2B4C0
330
2A2EC
100
AcDbEntity
  8
DEFPOINTS
 62
     0
 48
50.0
100
AcDbPoint
 10
9453.60000000001
 20
6929.483492916251
 30
0.0
  0
POINT
  5
2B4C1
330
2A2EC
100
AcDbEntity
  8
DEFPOINTS
 62
     0
 48
50.0
100
AcDbPoint
 10
9453.60000000001
 20
8095.092309586497
 30
0.0
  0
ENDBLK
  5
2A2F7
330
2A2EC
100
AcDbEntity
  8
0
 48
50.0
100
AcDbBlockEnd
  0
BLOCK
  5
2A302
330
2A2F8
100
AcDbEntity
  8
0
 48
50.0
100
AcDbBlockBegin
  2
*D28
 70
     1
 10
0.0
 20
0.0
 30
0.0
  3
*D28
  1

  0
LINE
  5
2B31A
330
2A2F8
100
AcDbEntity
  8
寸法
 62
     0
 48
50.0
370
    -2
100
AcDbLine
 10
12615.6
 20
7559.48349291625
 30
0.0
 11
12615.6
 21
8398.749951010161
 31
0.0
  0
LINE
  5
2B31B
330
2A2F8
100
AcDbEntity
  8
寸法
 62
     0
 48
50.0
370
    -2
100
AcDbLine
 10
10155.6
 20
7559.48349291625
 30
0.0
 11
10155.6
 21
8398.749951010161
 31
0.0
  0
LINE
  5
2B31C
330
2A2F8
100
AcDbEntity
  8
寸法
 62
     0
 48
50.0
370
    -2
100
AcDbLine
 10
12615.6
 20
8338.749951010161
 30
0.0
 11
10155.6
 21
8338.749951010161
 31
0.0
  0
INSERT
  5
2B31D
330
2A2F8
100
AcDbEntity
  8
寸法
 62
     0
 48
50.0
370
    -2
100
AcDbBlockReference
  2
_DOTSMALL
 10
12615.6
 20
8338.749951010161
 30
0.0
 41
100.0
 42
100.0
 43
100.0
  0
INSERT
  5
2B31E
330
2A2F8
100
AcDbEntity
  8
寸法
 62
     0
 48
50.0
370
    -2
100
AcDbBlockReference
  2
_DOTSMALL
 10
10155.6
 20
8338.749951010161
 30
0.0
 41
100.0
 42
100.0
 43
100.0
 50
180.0
  0
MTEXT
  5
2B31F
330
2A2F8
100
AcDbEntity
  8
寸法
 62
     7
 48
50.0
100
AcDbMText
 10
11385.6
 20
8438.761762033783
 30
0.0
 40
120.0
 41
0.0
 71
     5
 72
     1
  1
\A1;2460
  7
STYLE1
 73
     1
 44
1.0
1001
ACAD
1000
MTEXTBEGIN
1070
    73
1070
     1
1070
    44
1040
1.0
1070
    74
1070
     0
1000
MTEXTEND
  0
POINT
  5
2B320
330
2A2F8
100
AcDbEntity
  8
DEFPOINTS
 62
     0
 48
50.0
100
AcDbPoint
 10
12615.6
 20
7539.48349291625
 30
0.0
  0
POINT
  5
2B321
330
2A2F8
100
AcDbEntity
  8
DEFPOINTS
 62
     0
 48
50.0
100
AcDbPoint
 10
10155.6
 20
7539.48349291625
 30
0.0
  0
POINT
  5
2B322
330
2A2F8
100
AcDbEntity
  8
DEFPOINTS
 62
     0
 48
50.0
100
AcDbPoint
 10
10155.6
 20
8338.749951010161
 30
0.0
  0
ENDBLK
  5
2A303
330
2A2F8
100
AcDbEntity
  8
0
 48
50.0
100
AcDbBlockEnd
  0
BLOCK
  5
2A31C
330
2A311
100
AcDbEntity
  8
0
 48
50.0
100
AcDbBlockBegin
  2
*D29
 70
     1
 10
0.0
 20
0.0
 30
0.0
  3
*D29
  1

  0
LINE
  5
2B310
330
2A311
100
AcDbEntity
  8
寸法
 62
     0
 48
50.0
370
    -2
100
AcDbLine
 10
12738.6
 20
7632.48349291625
 30
0.0
 11
12738.6
 21
8398.749951010161
 31
0.0
  0
LINE
  5
2B311
330
2A311
100
AcDbEntity
  8
寸法
 62
     0
 48
50.0
370
    -2
100
AcDbLine
 10
12615.6
 20
7559.48349291625
 30
0.0
 11
12615.6
 21
8398.749951010161
 31
0.0
  0
LINE
  5
2B312
330
2A311
100
AcDbEntity
  8
寸法
 62
     0
 48
50.0
370
    -2
100
AcDbLine
 10
12615.6
 20
8338.749951010161
 30
0.0
 11
12738.6
 21
8338.749951010161
 31
0.0
  0
LINE
  5
2B313
330
2A311
100
AcDbEntity
  8
寸法
 62
     0
 48
50.0
370
    -2
100
AcDbLine
 10
12738.6
 20
8338.749951010161
 30
0.0
 11
13150.19188309204
 21
8338.749951010161
 31
0.0
  0
INSERT
  5
2B314
330
2A311
100
AcDbEntity
  8
寸法
 62
     0
 48
50.0
370
    -2
100
AcDbBlockReference
  2
_DOTSMALL
 10
12615.6
 20
8338.749951010161
 30
0.0
 41
100.0
 42
100.0
 43
100.0
 50
180.0
  0
INSERT
  5
2B315
330
2A311
100
AcDbEntity
  8
寸法
 62
     0
 48
50.0
370
    -2
100
AcDbBlockReference
  2
_DOTSMALL
 10
12738.6
 20
8338.749951010161
 30
0.0
 41
100.0
 42
100.0
 43
100.0
  0
MTEXT
  5
2B316
330
2A311
100
AcDbEntity
  8
寸法
 62
     7
 48
50.0
100
AcDbMText
 10
13011.7066017178
 20
8438.761762033783
 30
0.0
 40
120.0
 41
0.0
 71
     5
 72
     1
  1
\A1;123
  7
STYLE1
 73
     1
 44
1.0
1001
ACAD
1000
MTEXTBEGIN
1070
    73
1070
     1
1070
    44
1040
1.0
1070
    74
1070
     0
1000
MTEXTEND
  0
POINT
  5
2B317
330
2A311
100
AcDbEntity
  8
DEFPOINTS
 62
     0
 48
50.0
100
AcDbPoint
 10
12738.6
 20
7612.483492916251
 30
0.0
  0
POINT
  5
2B318
330
2A311
100
AcDbEntity
  8
DEFPOINTS
 62
     0
 48
50.0
100
AcDbPoint
 10
12615.6
 20
7539.48349291625
 30
0.0
  0
POINT
  5
2B319
330
2A311
100
AcDbEntity
  8
DEFPOINTS
 62
     0
 48
50.0
100
AcDbPoint
 10
12615.6
 20
8338.749951010161
 30
0.0
  0
ENDBLK
  5
2A31D
330
2A311
100
AcDbEntity
  8
0
 48
50.0
100
AcDbBlockEnd
  0
BLOCK
  5
2A329
330
2A31E
100
AcDbEntity
  8
0
 48
50.0
100
AcDbBlockBegin
  2
*D30
 70
     1
 10
0.0
 20
0.0
 30
0.0
  3
*D30
  1

  0
LINE
  5
2B607
330
2A31E
100
AcDbEntity
  8
寸法
 62
     0
 48
50.0
370
    -2
100
AcDbLine
 10
12738.6
 20
7113.849549985825
 30
0.0
 11
12738.6
 21
7056.856285946993
 31
0.0
  0
LINE
  5
2B608
330
2A31E
100
AcDbEntity
  8
寸法
 62
     0
 48
50.0
370
    -2
100
AcDbLine
 10
12618.6
 20
7136.856285946993
 30
0.0
 11
12618.6
 21
7176.856285946993
 31
0.0
  0
LINE
  5
2B609
330
2A31E
100
AcDbEntity
  8
寸法
 62
     0
 48
50.0
370
    -2
100
AcDbLine
 10
12618.6
 20
7116.856285946993
 30
0.0
 11
12738.6
 21
7116.856285946993
 31
0.0
  0
LINE
  5
2B60A
330
2A31E
100
AcDbEntity
  8
寸法
 62
     0
 48
50.0
370
    -2
100
AcDbLine
 10
12738.6
 20
7116.856285946993
 30
0.0
 11
13144.7062992126
 21
7116.856285946993
 31
0.0
  0
INSERT
  5
2B60B
330
2A31E
100
AcDbEntity
  8
寸法
 62
     0
 48
50.0
370
    -2
100
AcDbBlockReference
  2
_DOTSMALL
 10
12618.6
 20
7116.856285946993
 30
0.0
 41
100.0
 42
100.0
 43
100.0
 50
180.0
  0
INSERT
  5
2B60C
330
2A31E
100
AcDbEntity
  8
寸法
 62
     0
 48
50.0
370
    -2
100
AcDbBlockReference
  2
_DOTSMALL
 10
12738.6
 20
7116.856285946993
 30
0.0
 41
100.0
 42
100.0
 43
100.0
  0
MTEXT
  5
2B60D
330
2A31E
100
AcDbEntity
  8
寸法
 62
     7
 48
50.0
100
AcDbMText
 10
13008.65905511811
 20
7216.868096970614
 30
0.0
 40
120.0
 41
0.0
 71
     5
 72
     1
  1
\A1;120
  7
STYLE1
 73
     1
 44
1.0
1001
ACAD
1000
MTEXTBEGIN
1070
    73
1070
     1
1070
    44
1040
1.0
1070
    74
1070
     0
1000
MTEXTEND
  0
POINT
  5
2B60E
330
2A31E
100
AcDbEntity
  8
DEFPOINTS
 62
     0
 48
50.0
100
AcDbPoint
 10
12738.6
 20
7133.849549985825
 30
0.0
  0
POINT
  5
2B60F
330
2A31E
100
AcDbEntity
  8
DEFPOINTS
 62
     0
 48
50.0
100
AcDbPoint
 10
12618.6
 20
7116.856285946993
 30
0.0
  0
POINT
  5
2B610
330
2A31E
100
AcDbEntity
  8
DEFPOINTS
 62
     0
 48
50.0
100
AcDbPoint
 10
12618.6
 20
7116.856285946993
 30
0.0
  0
ENDBLK
  5
2A32A
330
2A31E
100
AcDbEntity
  8
0
 48
50.0
100
AcDbBlockEnd
  0
BLOCK
  5
2A335
330
2A32B
100
AcDbEntity
  8
0
 48
50.0
100
AcDbBlockBegin
  2
*D31
 70
     1
 10
0.0
 20
0.0
 30
0.0
  3
*D31
  1

  0
LINE
  5
2B4D4
330
2A32B
100
AcDbEntity
  8
寸法
 62
     0
 48
50.0
370
    -2
100
AcDbLine
 10
8633.60000000001
 20
6949.483492916249
 30
0.0
 11
8633.60000000001
 21
8155.092309586498
 31
0.0
  0
LINE
  5
2B4D5
330
2A32B
100
AcDbEntity
  8
寸法
 62
     0
 48
50.0
370
    -2
100
AcDbLine
 10
7813.600000000018
 20
6949.483492916249
 30
0.0
 11
7813.600000000018
 21
8155.092309586498
 31
0.0
  0
LINE
  5
2B4D6
330
2A32B
100
AcDbEntity
  8
寸法
 62
     0
 48
50.0
370
    -2
100
AcDbLine
 10
8633.60000000001
 20
8095.092309586497
 30
0.0
 11
7813.600000000018
 21
8095.092309586497
 31
0.0
  0
INSERT
  5
2B4D7
330
2A32B
100
AcDbEntity
  8
寸法
 62
     0
 48
50.0
370
    -2
100
AcDbBlockReference
  2
_DOTSMALL
 10
8633.60000000001
 20
8095.092309586497
 30
0.0
 41
100.0
 42
100.0
 43
100.0
  0
INSERT
  5
2B4D8
330
2A32B
100
AcDbEntity
  8
寸法
 62
     0
 48
50.0
370
    -2
100
AcDbBlockReference
  2
_DOTSMALL
 10
7813.600000000018
 20
8095.092309586497
 30
0.0
 41
100.0
 42
100.0
 43
100.0
 50
180.0
  0
MTEXT
  5
2B4D9
330
2A32B
100
AcDbEntity
  8
寸法
 62
     7
 48
50.0
100
AcDbMText
 10
8223.600000000013
 20
8195.104120610119
 30
0.0
 40
120.0
 41
0.0
 71
     5
 72
     1
  1
\A1;820
  7
STYLE1
 73
     1
 44
1.0
1001
ACAD
1000
MTEXTBEGIN
1070
    73
1070
     1
1070
    44
1040
1.0
1070
    74
1070
     0
1000
MTEXTEND
  0
POINT
  5
2B4DA
330
2A32B
100
AcDbEntity
  8
DEFPOINTS
 62
     0
 48
50.0
100
AcDbPoint
 10
8633.60000000001
 20
6929.483492916251
 30
0.0
  0
POINT
  5
2B4DB
330
2A32B
100
AcDbEntity
  8
DEFPOINTS
 62
     0
 48
50.0
100
AcDbPoint
 10
7813.600000000018
 20
6929.483492916251
 30
0.0
  0
POINT
  5
2B4DC
330
2A32B
100
AcDbEntity
  8
DEFPOINTS
 62
     0
 48
50.0
100
AcDbPoint
 10
7813.600000000018
 20
8095.092309586497
 30
0.0
  0
ENDBLK
  5
2A336
330
2A32B
100
AcDbEntity
  8
0
 48
50.0
100
AcDbBlockEnd
  0
BLOCK
  5
2A341
330
2A337
100
AcDbEntity
  8
0
 48
50.0
100
AcDbBlockBegin
  2
*D32
 70
     1
 10
0.0
 20
0.0
 30
0.0
  3
*D32
  1

  0
LINE
  5
2B3A5
330
2A337
100
AcDbEntity
  8
寸法
 62
     0
 48
50.0
370
    -2
100
AcDbLine
 10
3708.600000000002
 20
7632.48349291625
 30
0.0
 11
3708.600000000002
 21
8630.703814975168
 31
0.0
  0
LINE
  5
2B3A6
330
2A337
100
AcDbEntity
  8
寸法
 62
     0
 48
50.0
370
    -2
100
AcDbLine
 10
12738.6
 20
7632.48349291625
 30
0.0
 11
12738.6
 21
8630.703814975168
 31
0.0
  0
LINE
  5
2B3A7
330
2A337
100
AcDbEntity
  8
寸法
 62
     0
 48
50.0
370
    -2
100
AcDbLine
 10
3708.600000000002
 20
8570.703814975168
 30
0.0
 11
12738.6
 21
8570.703814975168
 31
0.0
  0
INSERT
  5
2B3A8
330
2A337
100
AcDbEntity
  8
寸法
 62
     0
 48
50.0
370
    -2
100
AcDbBlockReference
  2
_DOTSMALL
 10
3708.600000000002
 20
8570.703814975168
 30
0.0
 41
100.0
 42
100.0
 43
100.0
 50
180.0
  0
INSERT
  5
2B3A9
330
2A337
100
AcDbEntity
  8
寸法
 62
     0
 48
50.0
370
    -2
100
AcDbBlockReference
  2
_DOTSMALL
 10
12738.6
 20
8570.703814975168
 30
0.0
 41
100.0
 42
100.0
 43
100.0
  0
MTEXT
  5
2B3AA
330
2A337
100
AcDbEntity
  8
寸法
 62
     7
 48
50.0
100
AcDbMText
 10
8223.600000000001
 20
8670.71562599879
 30
0.0
 40
120.0
 41
0.0
 71
     5
 72
     1
  1
\A1;N X 820+10
  7
STYLE1
 73
     1
 44
1.0
1001
ACAD
1000
MTEXTBEGIN
1070
    73
1070
     1
1070
    44
1040
1.0
1070
    74
1070
     0
1000
MTEXTEND
  0
POINT
  5
2B3AB
330
2A337
100
AcDbEntity
  8
DEFPOINTS
 62
     0
 48
50.0
100
AcDbPoint
 10
3708.600000000002
 20
7612.483492916251
 30
0.0
  0
POINT
  5
2B3AC
330
2A337
100
AcDbEntity
  8
DEFPOINTS
 62
     0
 48
50.0
100
AcDbPoint
 10
12738.6
 20
7612.483492916251
 30
0.0
  0
POINT
  5
2B3AD
330
2A337
100
AcDbEntity
  8
DEFPOINTS
 62
     0
 48
50.0
100
AcDbPoint
 10
12738.6
 20
8570.703814975168
 30
0.0
  0
ENDBLK
  5
2A342
330
2A337
100
AcDbEntity
  8
0
 48
50.0
100
AcDbBlockEnd
  0
BLOCK
  5
2A34D
330
2A343
100
AcDbEntity
  8
0
 48
50.0
100
AcDbBlockBegin
  2
*D33
 70
     1
 10
0.0
 20
0.0
 30
0.0
  3
*D33
  1

  0
LINE
  5
2B4E6
330
2A343
100
AcDbEntity
  8
寸法
 62
     0
 48
50.0
370
    -2
100
AcDbLine
 10
7813.600000000011
 20
6949.483492916249
 30
0.0
 11
7813.600000000011
 21
8155.092309586498
 31
0.0
  0
LINE
  5
2B4E7
330
2A343
100
AcDbEntity
  8
寸法
 62
     0
 48
50.0
370
    -2
100
AcDbLine
 10
6993.600000000018
 20
6949.483492916249
 30
0.0
 11
6993.600000000018
 21
8155.092309586498
 31
0.0
  0
LINE
  5
2B4E8
330
2A343
100
AcDbEntity
  8
寸法
 62
     0
 48
50.0
370
    -2
100
AcDbLine
 10
7813.600000000011
 20
8095.092309586497
 30
0.0
 11
6993.600000000018
 21
8095.092309586497
 31
0.0
  0
INSERT
  5
2B4E9
330
2A343
100
AcDbEntity
  8
寸法
 62
     0
 48
50.0
370
    -2
100
AcDbBlockReference
  2
_DOTSMALL
 10
7813.600000000011
 20
8095.092309586497
 30
0.0
 41
100.0
 42
100.0
 43
100.0
  0
INSERT
  5
2B4EA
330
2A343
100
AcDbEntity
  8
寸法
 62
     0
 48
50.0
370
    -2
100
AcDbBlockReference
  2
_DOTSMALL
 10
6993.600000000018
 20
8095.092309586497
 30
0.0
 41
100.0
 42
100.0
 43
100.0
 50
180.0
  0
MTEXT
  5
2B4EB
330
2A343
100
AcDbEntity
  8
寸法
 62
     7
 48
50.0
100
AcDbMText
 10
7403.600000000015
 20
8195.104120610119
 30
0.0
 40
120.0
 41
0.0
 71
     5
 72
     1
  1
\A1;820
  7
STYLE1
 73
     1
 44
1.0
1001
ACAD
1000
MTEXTBEGIN
1070
    73
1070
     1
1070
    44
1040
1.0
1070
    74
1070
     0
1000
MTEXTEND
  0
POINT
  5
2B4EC
330
2A343
100
AcDbEntity
  8
DEFPOINTS
 62
     0
 48
50.0
100
AcDbPoint
 10
7813.600000000011
 20
6929.483492916251
 30
0.0
  0
POINT
  5
2B4ED
330
2A343
100
AcDbEntity
  8
DEFPOINTS
 62
     0
 48
50.0
100
AcDbPoint
 10
6993.600000000018
 20
6929.483492916251
 30
0.0
  0
POINT
  5
2B4EE
330
2A343
100
AcDbEntity
  8
DEFPOINTS
 62
     0
 48
50.0
100
AcDbPoint
 10
6993.600000000018
 20
8095.092309586497
 30
0.0
  0
ENDBLK
  5
2A34E
330
2A343
100
AcDbEntity
  8
0
 48
50.0
100
AcDbBlockEnd
  0
BLOCK
  5
2A358
330
2A34F
100
AcDbEntity
  8
0
 48
50.0
100
AcDbBlockBegin
  2
*D34
 70
     1
 10
0.0
 20
0.0
 30
0.0
  3
*D34
  1

  0
LINE
  5
2B50A
330
2A34F
100
AcDbEntity
  8
寸法
 62
     0
 48
50.0
370
    -2
100
AcDbLine
 10
6173.60000000001
 20
6949.483492916249
 30
0.0
 11
6173.60000000001
 21
8155.092309586498
 31
0.0
  0
LINE
  5
2B50B
330
2A34F
100
AcDbEntity
  8
寸法
 62
     0
 48
50.0
370
    -2
100
AcDbLine
 10
5353.600000000009
 20
6949.483492916249
 30
0.0
 11
5353.600000000009
 21
8155.092309586498
 31
0.0
  0
LINE
  5
2B50C
330
2A34F
100
AcDbEntity
  8
寸法
 62
     0
 48
50.0
370
    -2
100
AcDbLine
 10
6173.60000000001
 20
8095.092309586497
 30
0.0
 11
5353.600000000009
 21
8095.092309586497
 31
0.0
  0
INSERT
  5
2B50D
330
2A34F
100
AcDbEntity
  8
寸法
 62
     0
 48
50.0
370
    -2
100
AcDbBlockReference
  2
_DOTSMALL
 10
6173.60000000001
 20
8095.092309586497
 30
0.0
 41
100.0
 42
100.0
 43
100.0
  0
INSERT
  5
2B50E
330
2A34F
100
AcDbEntity
  8
寸法
 62
     0
 48
50.0
370
    -2
100
AcDbBlockReference
  2
_DOTSMALL
 10
5353.600000000009
 20
8095.092309586497
 30
0.0
 41
100.0
 42
100.0
 43
100.0
 50
180.0
  0
MTEXT
  5
2B50F
330
2A34F
100
AcDbEntity
  8
寸法
 62
     7
 48
50.0
100
AcDbMText
 10
5763.60000000001
 20
8195.104120610119
 30
0.0
 40
120.0
 41
0.0
 71
     5
 72
     1
  1
\A1;820
  7
STYLE1
 73
     1
 44
1.0
1001
ACAD
1000
MTEXTBEGIN
1070
    73
1070
     1
1070
    44
1040
1.0
1070
    74
1070
     0
1000
MTEXTEND
  0
POINT
  5
2B510
330
2A34F
100
AcDbEntity
  8
DEFPOINTS
 62
     0
 48
50.0
100
AcDbPoint
 10
6173.60000000001
 20
6929.483492916251
 30
0.0
  0
POINT
  5
2B511
330
2A34F
100
AcDbEntity
  8
DEFPOINTS
 62
     0
 48
50.0
100
AcDbPoint
 10
5353.600000000009
 20
6929.483492916251
 30
0.0
  0
POINT
  5
2B512
330
2A34F
100
AcDbEntity
  8
DEFPOINTS
 62
     0
 48
50.0
100
AcDbPoint
 10
5353.600000000009
 20
8095.092309586497
 30
0.0
  0
ENDBLK
  5
2A359
330
2A34F
100
AcDbEntity
  8
0
 48
50.0
100
AcDbBlockEnd
  0
BLOCK
  5
2A364
330
2A35A
100
AcDbEntity
  8
0
 48
50.0
100
AcDbBlockBegin
  2
*D35
 70
     1
 10
0.0
 20
0.0
 30
0.0
  3
*D35
  1

  0
LINE
  5
2B52E
330
2A35A
100
AcDbEntity
  8
寸法
 62
     0
 48
50.0
370
    -2
100
AcDbLine
 10
4463.600000000009
 20
6879.48349291625
 30
0.0
 11
4162.442995307158
 21
6879.48349291625
 31
0.0
  0
LINE
  5
2B52F
330
2A35A
100
AcDbEntity
  8
寸法
 62
     0
 48
50.0
370
    -2
100
AcDbLine
 10
4172.765475140902
 20
7612.483492916251
 30
0.0
 11
4282.442995307158
 21
7612.483492916251
 31
0.0
  0
LINE
  5
2B530
330
2A35A
100
AcDbEntity
  8
寸法
 62
     0
 48
50.0
370
    -2
100
AcDbLine
 10
4222.442995307157
 20
6879.48349291625
 30
0.0
 11
4222.442995307157
 21
7612.483492916251
 31
0.0
  0
INSERT
  5
2B531
330
2A35A
100
AcDbEntity
  8
寸法
 62
     0
 48
50.0
370
    -2
100
AcDbBlockReference
  2
_DOTSMALL
 10
4222.442995307157
 20
6879.48349291625
 30
0.0
 41
100.0
 42
100.0
 43
100.0
 50
270.0
  0
INSERT
  5
2B532
330
2A35A
100
AcDbEntity
  8
寸法
 62
     0
 48
50.0
370
    -2
100
AcDbBlockReference
  2
_DOTSMALL
 10
4222.442995307157
 20
7612.483492916251
 30
0.0
 41
100.0
 42
100.0
 43
100.0
 50
90.0
  0
MTEXT
  5
2B533
330
2A35A
100
AcDbEntity
  8
寸法
 62
     7
 48
50.0
100
AcDbMText
 10
4122.442995307156
 20
7172.078283610426
 30
0.0
 40
120.0
 41
0.0
 71
     5
 72
     1
  1
\A1;733
  7
STYLE1
 11
0.0000000000000001
 21
1.0
 31
0.0
 73
     1
 44
1.0
1001
ACAD
1000
MTEXTBEGIN
1070
    73
1070
     1
1070
    44
1040
1.0
1070
    74
1070
     0
1000
MTEXTEND
  0
POINT
  5
2B534
330
2A35A
100
AcDbEntity
  8
DEFPOINTS
 62
     0
 48
50.0
100
AcDbPoint
 10
4483.600000000009
 20
6879.48349291625
 30
0.0
  0
POINT
  5
2B535
330
2A35A
100
AcDbEntity
  8
DEFPOINTS
 62
     0
 48
50.0
100
AcDbPoint
 10
4152.765475140903
 20
7612.483492916251
 30
0.0
  0
POINT
  5
2B536
330
2A35A
100
AcDbEntity
  8
DEFPOINTS
 62
     0
 48
50.0
100
AcDbPoint
 10
4222.442995307157
 20
7612.483492916251
 30
0.0
  0
ENDBLK
  5
2A365
330
2A35A
100
AcDbEntity
  8
0
 48
50.0
100
AcDbBlockEnd
  0
BLOCK
  5
2A370
330
2A366
100
AcDbEntity
  8
0
 48
50.0
100
AcDbBlockBegin
  2
*D36
 70
     1
 10
0.0
 20
0.0
 30
0.0
  3
*D36
  1

  0
LINE
  5
2B513
330
2A366
100
AcDbEntity
  8
寸法
 62
     0
 48
50.0
370
    -2
100
AcDbLine
 10
4533.600000000009
 20
6949.483492916249
 30
0.0
 11
4533.600000000009
 21
8155.092309586498
 31
0.0
  0
LINE
  5
2B514
330
2A366
100
AcDbEntity
  8
寸法
 62
     0
 48
50.0
370
    -2
100
AcDbLine
 10
3708.600000000002
 20
7632.48349291625
 30
0.0
 11
3708.600000000002
 21
8155.092309586498
 31
0.0
  0
LINE
  5
2B515
330
2A366
100
AcDbEntity
  8
寸法
 62
     0
 48
50.0
370
    -2
100
AcDbLine
 10
4533.600000000009
 20
8095.092309586497
 30
0.0
 11
3708.600000000002
 21
8095.092309586497
 31
0.0
  0
INSERT
  5
2B516
330
2A366
100
AcDbEntity
  8
寸法
 62
     0
 48
50.0
370
    -2
100
AcDbBlockReference
  2
_DOTSMALL
 10
4533.600000000009
 20
8095.092309586497
 30
0.0
 41
100.0
 42
100.0
 43
100.0
  0
INSERT
  5
2B517
330
2A366
100
AcDbEntity
  8
寸法
 62
     0
 48
50.0
370
    -2
100
AcDbBlockReference
  2
_DOTSMALL
 10
3708.600000000002
 20
8095.092309586497
 30
0.0
 41
100.0
 42
100.0
 43
100.0
 50
180.0
  0
MTEXT
  5
2B518
330
2A366
100
AcDbEntity
  8
寸法
 62
     7
 48
50.0
100
AcDbMText
 10
4121.100000000006
 20
8195.104120610119
 30
0.0
 40
120.0
 41
0.0
 71
     5
 72
     1
  1
\A1;825
  7
STYLE1
 73
     1
 44
1.0
1001
ACAD
1000
MTEXTBEGIN
1070
    73
1070
     1
1070
    44
1040
1.0
1070
    74
1070
     0
1000
MTEXTEND
  0
POINT
  5
2B519
330
2A366
100
AcDbEntity
  8
DEFPOINTS
 62
     0
 48
50.0
100
AcDbPoint
 10
4533.600000000009
 20
6929.483492916251
 30
0.0
  0
POINT
  5
2B51A
330
2A366
100
AcDbEntity
  8
DEFPOINTS
 62
     0
 48
50.0
100
AcDbPoint
 10
3708.600000000002
 20
7612.483492916251
 30
0.0
  0
POINT
  5
2B51B
330
2A366
100
AcDbEntity
  8
DEFPOINTS
 62
     0
 48
50.0
100
AcDbPoint
 10
3708.600000000002
 20
8095.092309586497
 30
0.0
  0
ENDBLK
  5
2A371
330
2A366
100
AcDbEntity
  8
0
 48
50.0
100
AcDbBlockEnd
  0
BLOCK
  5
2A37B
330
2A372
100
AcDbEntity
  8
0
 48
50.0
100
AcDbBlockBegin
  2
*D37
 70
     1
 10
0.0
 20
0.0
 30
0.0
  3
*D37
  1

  0
LINE
  5
2B51C
330
2A372
100
AcDbEntity
  8
寸法
 62
     0
 48
50.0
370
    -2
100
AcDbLine
 10
5353.600000000009
 20
6949.483492916249
 30
0.0
 11
5353.600000000009
 21
8155.092309586498
 31
0.0
  0
LINE
  5
2B51D
330
2A372
100
AcDbEntity
  8
寸法
 62
     0
 48
50.0
370
    -2
100
AcDbLine
 10
4533.600000000009
 20
6949.483492916249
 30
0.0
 11
4533.600000000009
 21
8155.092309586498
 31
0.0
  0
LINE
  5
2B51E
330
2A372
100
AcDbEntity
  8
寸法
 62
     0
 48
50.0
370
    -2
100
AcDbLine
 10
5353.600000000009
 20
8095.092309586497
 30
0.0
 11
4533.600000000009
 21
8095.092309586497
 31
0.0
  0
INSERT
  5
2B51F
330
2A372
100
AcDbEntity
  8
寸法
 62
     0
 48
50.0
370
    -2
100
AcDbBlockReference
  2
_DOTSMALL
 10
5353.600000000009
 20
8095.092309586497
 30
0.0
 41
100.0
 42
100.0
 43
100.0
  0
INSERT
  5
2B520
330
2A372
100
AcDbEntity
  8
寸法
 62
     0
 48
50.0
370
    -2
100
AcDbBlockReference
  2
_DOTSMALL
 10
4533.600000000009
 20
8095.092309586497
 30
0.0
 41
100.0
 42
100.0
 43
100.0
 50
180.0
  0
MTEXT
  5
2B521
330
2A372
100
AcDbEntity
  8
寸法
 62
     7
 48
50.0
100
AcDbMText
 10
4943.600000000009
 20
8195.104120610119
 30
0.0
 40
120.0
 41
0.0
 71
     5
 72
     1
  1
\A1;820
  7
STYLE1
 73
     1
 44
1.0
1001
ACAD
1000
MTEXTBEGIN
1070
    73
1070
     1
1070
    44
1040
1.0
1070
    74
1070
     0
1000
MTEXTEND
  0
POINT
  5
2B522
330
2A372
100
AcDbEntity
  8
DEFPOINTS
 62
     0
 48
50.0
100
AcDbPoint
 10
5353.600000000009
 20
6929.483492916251
 30
0.0
  0
POINT
  5
2B523
330
2A372
100
AcDbEntity
  8
DEFPOINTS
 62
     0
 48
50.0
100
AcDbPoint
 10
4533.600000000009
 20
6929.483492916251
 30
0.0
  0
POINT
  5
2B524
330
2A372
100
AcDbEntity
  8
DEFPOINTS
 62
     0
 48
50.0
100
AcDbPoint
 10
4533.600000000009
 20
8095.092309586497
 30
0.0
  0
ENDBLK
  5
2A37C
330
2A372
100
AcDbEntity
  8
0
 48
50.0
100
AcDbBlockEnd
  0
BLOCK
  5
2A387
330
2A37D
100
AcDbEntity
  8
0
 48
50.0
100
AcDbBlockBegin
  2
*D38
 70
     1
 10
0.0
 20
0.0
 30
0.0
  3
*D38
  1

  0
LINE
  5
2B4F8
330
2A37D
100
AcDbEntity
  8
寸法
 62
     0
 48
50.0
370
    -2
100
AcDbLine
 10
6993.600000000011
 20
6949.483492916249
 30
0.0
 11
6993.600000000011
 21
8155.092309586498
 31
0.0
  0
LINE
  5
2B4F9
330
2A37D
100
AcDbEntity
  8
寸法
 62
     0
 48
50.0
370
    -2
100
AcDbLine
 10
6173.60000000001
 20
6949.483492916249
 30
0.0
 11
6173.60000000001
 21
8155.092309586498
 31
0.0
  0
LINE
  5
2B4FA
330
2A37D
100
AcDbEntity
  8
寸法
 62
     0
 48
50.0
370
    -2
100
AcDbLine
 10
6993.600000000011
 20
8095.092309586497
 30
0.0
 11
6173.60000000001
 21
8095.092309586497
 31
0.0
  0
INSERT
  5
2B4FB
330
2A37D
100
AcDbEntity
  8
寸法
 62
     0
 48
50.0
370
    -2
100
AcDbBlockReference
  2
_DOTSMALL
 10
6993.600000000011
 20
8095.092309586497
 30
0.0
 41
100.0
 42
100.0
 43
100.0
  0
INSERT
  5
2B4FC
330
2A37D
100
AcDbEntity
  8
寸法
 62
     0
 48
50.0
370
    -2
100
AcDbBlockReference
  2
_DOTSMALL
 10
6173.60000000001
 20
8095.092309586497
 30
0.0
 41
100.0
 42
100.0
 43
100.0
 50
180.0
  0
MTEXT
  5
2B4FD
330
2A37D
100
AcDbEntity
  8
寸法
 62
     7
 48
50.0
100
AcDbMText
 10
6583.60000000001
 20
8195.104120610119
 30
0.0
 40
120.0
 41
0.0
 71
     5
 72
     1
  1
\A1;820
  7
STYLE1
 73
     1
 44
1.0
1001
ACAD
1000
MTEXTBEGIN
1070
    73
1070
     1
1070
    44
1040
1.0
1070
    74
1070
     0
1000
MTEXTEND
  0
POINT
  5
2B4FE
330
2A37D
100
AcDbEntity
  8
DEFPOINTS
 62
     0
 48
50.0
100
AcDbPoint
 10
6993.600000000011
 20
6929.483492916251
 30
0.0
  0
POINT
  5
2B4FF
330
2A37D
100
AcDbEntity
  8
DEFPOINTS
 62
     0
 48
50.0
100
AcDbPoint
 10
6173.60000000001
 20
6929.483492916251
 30
0.0
  0
POINT
  5
2B500
330
2A37D
100
AcDbEntity
  8
DEFPOINTS
 62
     0
 48
50.0
100
AcDbPoint
 10
6173.60000000001
 20
8095.092309586497
 30
0.0
  0
ENDBLK
  5
2A388
330
2A37D
100
AcDbEntity
  8
0
 48
50.0
100
AcDbBlockEnd
  0
BLOCK
  5
2A393
330
2A389
100
AcDbEntity
  8
0
 48
50.0
100
AcDbBlockBegin
  2
*D39
 70
     1
 10
0.0
 20
0.0
 30
0.0
  3
*D39
  1

  0
LINE
  5
2B45E
330
2A389
100
AcDbEntity
  8
寸法
 62
     0
 48
50.0
370
    -2
100
AcDbLine
 10
3761.600000000002
 20
7489.483492916249
 30
0.0
 11
3025.665006330075
 21
7489.483492916249
 31
0.0
  0
LINE
  5
2B45F
330
2A389
100
AcDbEntity
  8
寸法
 62
     0
 48
50.0
370
    -2
100
AcDbLine
 10
3761.600000000009
 20
6270.483492916254
 30
0.0
 11
3025.665006330074
 21
6270.483492916254
 31
0.0
  0
LINE
  5
2B460
330
2A389
100
AcDbEntity
  8
寸法
 62
     0
 48
50.0
370
    -2
100
AcDbLine
 10
3085.665006330075
 20
7489.483492916249
 30
0.0
 11
3085.665006330074
 21
6270.483492916254
 31
0.0
  0
INSERT
  5
2B461
330
2A389
100
AcDbEntity
  8
寸法
 62
     0
 48
50.0
370
    -2
100
AcDbBlockReference
  2
_DOTSMALL
 10
3085.665006330075
 20
7489.483492916249
 30
0.0
 41
100.0
 42
100.0
 43
100.0
 50
90.0
  0
INSERT
  5
2B462
330
2A389
100
AcDbEntity
  8
寸法
 62
     0
 48
50.0
370
    -2
100
AcDbBlockReference
  2
_DOTSMALL
 10
3085.665006330074
 20
6270.483492916254
 30
0.0
 41
100.0
 42
100.0
 43
100.0
 50
270.0
  0
MTEXT
  5
2B463
330
2A389
100
AcDbEntity
  8
寸法
 62
     7
 48
50.0
100
AcDbMText
 10
2985.653195306451
 20
6879.98349291625
 30
0.0
 40
120.0
 41
0.0
 71
     5
 72
     1
  1
\A1;1219
  7
STYLE1
 11
0.0000000000000001
 21
1.0
 31
0.0
 73
     1
 44
1.0
1001
ACAD
1000
MTEXTBEGIN
1070
    73
1070
     1
1070
    44
1040
1.0
1070
    74
1070
     0
1000
MTEXTEND
  0
POINT
  5
2B464
330
2A389
100
AcDbEntity
  8
DEFPOINTS
 62
     0
 48
50.0
100
AcDbPoint
 10
3781.600000000003
 20
7489.483492916249
 30
0.0
  0
POINT
  5
2B465
330
2A389
100
AcDbEntity
  8
DEFPOINTS
 62
     0
 48
50.0
100
AcDbPoint
 10
3781.60000000001
 20
6270.483492916254
 30
0.0
  0
POINT
  5
2B466
330
2A389
100
AcDbEntity
  8
DEFPOINTS
 62
     0
 48
50.0
100
AcDbPoint
 10
3085.665006330074
 20
6270.483492916254
 30
0.0
  0
ENDBLK
  5
2A394
330
2A389
100
AcDbEntity
  8
0
 48
50.0
100
AcDbBlockEnd
  0
BLOCK
  5
2A39F
330
2A395
100
AcDbEntity
  8
0
 48
50.0
100
AcDbBlockBegin
  2
*D40
 70
     1
 10
0.0
 20
0.0
 30
0.0
  3
*D40
  1

  0
LINE
  5
2B3D4
330
2A395
100
AcDbEntity
  8
寸法
 62
     0
 48
50.0
370
    -2
100
AcDbLine
 10
3688.600000000003
 20
7612.483492916251
 30
0.0
 11
2773.721909610676
 21
7612.483492916251
 31
0.0
  0
LINE
  5
2B3D5
330
2A395
100
AcDbEntity
  8
寸法
 62
     0
 48
50.0
370
    -2
100
AcDbLine
 10
3688.600000000003
 20
6072.48349291625
 30
0.0
 11
2773.721909610676
 21
6072.48349291625
 31
0.0
  0
LINE
  5
2B3D6
330
2A395
100
AcDbEntity
  8
寸法
 62
     0
 48
50.0
370
    -2
100
AcDbLine
 10
2833.721909610676
 20
7612.483492916251
 30
0.0
 11
2833.721909610676
 21
6072.48349291625
 31
0.0
  0
INSERT
  5
2B3D7
330
2A395
100
AcDbEntity
  8
寸法
 62
     0
 48
50.0
370
    -2
100
AcDbBlockReference
  2
_DOTSMALL
 10
2833.721909610676
 20
7612.483492916251
 30
0.0
 41
100.0
 42
100.0
 43
100.0
 50
90.0
  0
INSERT
  5
2B3D8
330
2A395
100
AcDbEntity
  8
寸法
 62
     0
 48
50.0
370
    -2
100
AcDbBlockReference
  2
_DOTSMALL
 10
2833.721909610676
 20
6072.48349291625
 30
0.0
 41
100.0
 42
100.0
 43
100.0
 50
270.0
  0
MTEXT
  5
2B3D9
330
2A395
100
AcDbEntity
  8
寸法
 62
     7
 48
50.0
100
AcDbMText
 10
2733.721909610675
 20
6879.98349291625
 30
0.0
 40
120.0
 41
0.0
 71
     5
 72
     1
  1
\A1;1540
  7
STYLE1
 11
0.0000000000000001
 21
1.0
 31
0.0
 73
     1
 44
1.0
1001
ACAD
1000
MTEXTBEGIN
1070
    73
1070
     1
1070
    44
1040
1.0
1070
    74
1070
     0
1000
MTEXTEND
  0
POINT
  5
2B3DA
330
2A395
100
AcDbEntity
  8
DEFPOINTS
 62
     0
 48
50.0
100
AcDbPoint
 10
3708.600000000002
 20
7612.483492916251
 30
0.0
  0
POINT
  5
2B3DB
330
2A395
100
AcDbEntity
  8
DEFPOINTS
 62
     0
 48
50.0
100
AcDbPoint
 10
3708.600000000002
 20
6072.48349291625
 30
0.0
  0
POINT
  5
2B3DC
330
2A395
100
AcDbEntity
  8
DEFPOINTS
 62
     0
 48
50.0
100
AcDbPoint
 10
2833.721909610676
 20
6072.48349291625
 30
0.0
  0
ENDBLK
  5
2A3A0
330
2A395
100
AcDbEntity
  8
0
 48
50.0
100
AcDbBlockEnd
  0
BLOCK
  5
2A3AC
330
2A3A1
100
AcDbEntity
  8
0
 48
50.0
100
AcDbBlockBegin
  2
*D41
 70
     1
 10
0.0
 20
0.0
 30
0.0
  3
*D41
  1

  0
LINE
  5
2B5C9
330
2A3A1
100
AcDbEntity
  8
寸法
 62
     0
 48
50.0
370
    -2
100
AcDbLine
 10
5861.108524801148
 20
6352.483492916255
 30
0.0
 11
5666.819725318593
 21
6352.483492916255
 31
0.0
  0
LINE
  5
2B5CA
330
2A3A1
100
AcDbEntity
  8
寸法
 62
     0
 48
50.0
370
    -2
100
AcDbLine
 10
5843.788016725466
 20
6072.483492916248
 30
0.0
 11
5666.819725318592
 21
6072.483492916248
 31
0.0
  0
LINE
  5
2B5CB
330
2A3A1
100
AcDbEntity
  8
寸法
 62
     0
 48
50.0
370
    -2
100
AcDbLine
 10
5726.819725318592
 20
6352.483492916255
 30
0.0
 11
5726.819725318591
 21
6072.483492916248
 31
0.0
  0
LINE
  5
2B5CC
330
2A3A1
100
AcDbEntity
  8
寸法
 62
     0
 48
50.0
370
    -2
100
AcDbLine
 10
5726.819725318591
 20
6072.483492916248
 30
0.0
 11
5726.819725318591
 21
5635.94904409734
 31
0.0
  0
INSERT
  5
2B5CD
330
2A3A1
100
AcDbEntity
  8
寸法
 62
     0
 48
50.0
370
    -2
100
AcDbBlockReference
  2
_DOTSMALL
 10
5726.819725318592
 20
6352.483492916255
 30
0.0
 41
100.0
 42
100.0
 43
100.0
 50
90.0
  0
INSERT
  5
2B5CE
330
2A3A1
100
AcDbEntity
  8
寸法
 62
     0
 48
50.0
370
    -2
100
AcDbBlockReference
  2
_DOTSMALL
 10
5726.819725318591
 20
6072.483492916248
 30
0.0
 41
100.0
 42
100.0
 43
100.0
 50
270.0
  0
MTEXT
  5
2B5CF
330
2A3A1
100
AcDbEntity
  8
寸法
 62
     7
 48
50.0
100
AcDbMText
 10
5626.807914294969
 20
5785.519910239074
 30
0.0
 40
120.0
 41
0.0
 71
     5
 72
     1
  1
\A1;280
  7
STYLE1
 11
0.0000000000000001
 21
1.0
 31
0.0
 73
     1
 44
1.0
1001
ACAD
1000
MTEXTBEGIN
1070
    73
1070
     1
1070
    44
1040
1.0
1070
    74
1070
     0
1000
MTEXTEND
  0
POINT
  5
2B5D0
330
2A3A1
100
AcDbEntity
  8
DEFPOINTS
 62
     0
 48
50.0
100
AcDbPoint
 10
5881.108524801148
 20
6352.483492916255
 30
0.0
  0
POINT
  5
2B5D1
330
2A3A1
100
AcDbEntity
  8
DEFPOINTS
 62
     0
 48
50.0
100
AcDbPoint
 10
5863.788016725466
 20
6072.483492916248
 30
0.0
  0
POINT
  5
2B5D2
330
2A3A1
100
AcDbEntity
  8
DEFPOINTS
 62
     0
 48
50.0
100
AcDbPoint
 10
5726.819725318591
 20
6072.483492916248
 30
0.0
  0
ENDBLK
  5
2A3AD
330
2A3A1
100
AcDbEntity
  8
0
 48
50.0
100
AcDbBlockEnd
  0
BLOCK
  5
2A3B8
330
2A3AE
100
AcDbEntity
  8
0
 48
50.0
100
AcDbBlockBegin
  2
*D42
 70
     1
 10
0.0
 20
0.0
 30
0.0
  3
*D42
  1

  0
LINE
  5
2B3B7
330
2A3AE
100
AcDbEntity
  8
寸法
 62
     0
 48
50.0
370
    -2
100
AcDbLine
 10
3688.600000000003
 20
6072.483492916246
 30
0.0
 11
3535.512673767881
 21
6072.483492916246
 31
0.0
  0
LINE
  5
2B3B8
330
2A3AE
100
AcDbEntity
  8
寸法
 62
     0
 48
50.0
370
    -2
100
AcDbLine
 10
4044.325326928807
 20
5352.483492916246
 30
0.0
 11
3535.512673767881
 21
5352.483492916246
 31
0.0
  0
LINE
  5
2B3B9
330
2A3AE
100
AcDbEntity
  8
寸法
 62
     0
 48
50.0
370
    -2
100
AcDbLine
 10
3595.512673767881
 20
6072.483492916246
 30
0.0
 11
3595.512673767881
 21
5352.483492916246
 31
0.0
  0
INSERT
  5
2B3BA
330
2A3AE
100
AcDbEntity
  8
寸法
 62
     0
 48
50.0
370
    -2
100
AcDbBlockReference
  2
_DOTSMALL
 10
3595.512673767881
 20
6072.483492916246
 30
0.0
 41
100.0
 42
100.0
 43
100.0
 50
90.0
  0
INSERT
  5
2B3BB
330
2A3AE
100
AcDbEntity
  8
寸法
 62
     0
 48
50.0
370
    -2
100
AcDbBlockReference
  2
_DOTSMALL
 10
3595.512673767881
 20
5352.483492916246
 30
0.0
 41
100.0
 42
100.0
 43
100.0
 50
270.0
  0
MTEXT
  5
2B3BC
330
2A3AE
100
AcDbEntity
  8
寸法
 62
     7
 48
50.0
100
AcDbMText
 10
3495.500862744258
 20
5712.483492916248
 30
0.0
 40
120.0
 41
0.0
 71
     5
 72
     1
  1
\A1;扉の出720
  7
STYLE1
 11
0.0000000000000001
 21
1.0
 31
0.0
 73
     1
 44
1.0
1001
ACAD
1000
MTEXTBEGIN
1070
    73
1070
     1
1070
    44
1040
1.0
1070
    74
1070
     0
1000
MTEXTEND
  0
POINT
  5
2B3BD
330
2A3AE
100
AcDbEntity
  8
DEFPOINTS
 62
     0
 48
50.0
100
AcDbPoint
 10
3708.600000000002
 20
6072.483492916246
 30
0.0
  0
POINT
  5
2B3BE
330
2A3AE
100
AcDbEntity
  8
DEFPOINTS
 62
     0
 48
50.0
100
AcDbPoint
 10
4064.325326928807
 20
5352.483492916246
 30
0.0
  0
POINT
  5
2B3BF
330
2A3AE
100
AcDbEntity
  8
DEFPOINTS
 62
     0
 48
50.0
100
AcDbPoint
 10
3595.512673767881
 20
5352.483492916246
 30
0.0
  0
ENDBLK
  5
2A3B9
330
2A3AE
100
AcDbEntity
  8
0
 48
50.0
100
AcDbBlockEnd
  0
BLOCK
  5
2A3D1
330
2A3C6
100
AcDbEntity
  8
0
 48
50.0
100
AcDbBlockBegin
  2
*D43
 70
     1
 10
0.0
 20
0.0
 30
0.0
  3
*D43
  1

  0
LINE
  5
2B454
330
2A3C6
100
AcDbEntity
  8
寸法
 62
     0
 48
50.0
370
    -2
100
AcDbLine
 10
3761.600000000009
 20
6270.483492916254
 30
0.0
 11
3025.665006330074
 21
6270.483492916254
 31
0.0
  0
LINE
  5
2B455
330
2A3C6
100
AcDbEntity
  8
寸法
 62
     0
 48
50.0
370
    -2
100
AcDbLine
 10
3688.600000000003
 20
6072.48349291625
 30
0.0
 11
3025.665006330074
 21
6072.48349291625
 31
0.0
  0
LINE
  5
2B456
330
2A3C6
100
AcDbEntity
  8
寸法
 62
     0
 48
50.0
370
    -2
100
AcDbLine
 10
3085.665006330074
 20
6270.483492916254
 30
0.0
 11
3085.665006330074
 21
6072.48349291625
 31
0.0
  0
LINE
  5
2B457
330
2A3C6
100
AcDbEntity
  8
寸法
 62
     0
 48
50.0
370
    -2
100
AcDbLine
 10
3085.665006330074
 20
6072.48349291625
 30
0.0
 11
3085.665006330074
 21
5600.742884244001
 31
0.0
  0
INSERT
  5
2B458
330
2A3C6
100
AcDbEntity
  8
寸法
 62
     0
 48
50.0
370
    -2
100
AcDbBlockReference
  2
_DOTSMALL
 10
3085.665006330074
 20
6270.483492916254
 30
0.0
 41
100.0
 42
100.0
 43
100.0
 50
90.0
  0
INSERT
  5
2B459
330
2A3C6
100
AcDbEntity
  8
寸法
 62
     0
 48
50.0
370
    -2
100
AcDbBlockReference
  2
_DOTSMALL
 10
3085.665006330074
 20
6072.48349291625
 30
0.0
 41
100.0
 42
100.0
 43
100.0
 50
270.0
  0
MTEXT
  5
2B45A
330
2A3C6
100
AcDbEntity
  8
寸法
 62
     7
 48
50.0
100
AcDbMText
 10
2985.665006330073
 20
5736.952544073658
 30
0.0
 40
120.0
 41
0.0
 71
     5
 72
     1
  1
\A1;198
  7
STYLE1
 11
0.0000000000000001
 21
1.0
 31
0.0
 73
     1
 44
1.0
1001
ACAD
1000
MTEXTBEGIN
1070
    73
1070
     1
1070
    44
1040
1.0
1070
    74
1070
     0
1000
MTEXTEND
  0
POINT
  5
2B45B
330
2A3C6
100
AcDbEntity
  8
DEFPOINTS
 62
     0
 48
50.0
100
AcDbPoint
 10
3781.60000000001
 20
6270.483492916254
 30
0.0
  0
POINT
  5
2B45C
330
2A3C6
100
AcDbEntity
  8
DEFPOINTS
 62
     0
 48
50.0
100
AcDbPoint
 10
3708.600000000002
 20
6072.48349291625
 30
0.0
  0
POINT
  5
2B45D
330
2A3C6
100
AcDbEntity
  8
DEFPOINTS
 62
     0
 48
50.0
100
AcDbPoint
 10
3085.665006330074
 20
6072.48349291625
 30
0.0
  0
ENDBLK
  5
2A3D2
330
2A3C6
100
AcDbEntity
  8
0
 48
50.0
100
AcDbBlockEnd
  0
BLOCK
  5
2A3DD
330
2A3D3
100
AcDbEntity
  8
0
 48
50.0
100
AcDbBlockBegin
  2
*D44
 70
     1
 10
0.0
 20
0.0
 30
0.0
  3
*D44
  1

  0
LINE
  5
2B525
330
2A3D3
100
AcDbEntity
  8
寸法
 62
     0
 48
50.0
370
    -2
100
AcDbLine
 10
4172.765475140902
 20
6072.483492916261
 30
0.0
 11
4282.442995307156
 21
6072.483492916261
 31
0.0
  0
LINE
  5
2B526
330
2A3D3
100
AcDbEntity
  8
寸法
 62
     0
 48
50.0
370
    -2
100
AcDbLine
 10
4463.600000000009
 20
6879.48349291625
 30
0.0
 11
4162.442995307158
 21
6879.48349291625
 31
0.0
  0
LINE
  5
2B527
330
2A3D3
100
AcDbEntity
  8
寸法
 62
     0
 48
50.0
370
    -2
100
AcDbLine
 10
4222.442995307157
 20
6072.483492916261
 30
0.0
 11
4222.442995307157
 21
6879.48349291625
 31
0.0
  0
INSERT
  5
2B528
330
2A3D3
100
AcDbEntity
  8
寸法
 62
     0
 48
50.0
370
    -2
100
AcDbBlockReference
  2
_DOTSMALL
 10
4222.442995307157
 20
6072.483492916261
 30
0.0
 41
100.0
 42
100.0
 43
100.0
 50
270.0
  0
INSERT
  5
2B529
330
2A3D3
100
AcDbEntity
  8
寸法
 62
     0
 48
50.0
370
    -2
100
AcDbBlockReference
  2
_DOTSMALL
 10
4222.442995307157
 20
6879.48349291625
 30
0.0
 41
100.0
 42
100.0
 43
100.0
 50
90.0
  0
MTEXT
  5
2B52A
330
2A3D3
100
AcDbEntity
  8
寸法
 62
     7
 48
50.0
100
AcDbMText
 10
4122.442995307156
 20
6557.483492916251
 30
0.0
 40
120.0
 41
0.0
 71
     5
 72
     1
  1
\A1;807
  7
STYLE1
 11
0.0000000000000001
 21
1.0
 31
0.0
 73
     1
 44
1.0
1001
ACAD
1000
MTEXTBEGIN
1070
    73
1070
     1
1070
    44
1040
1.0
1070
    74
1070
     0
1000
MTEXTEND
  0
POINT
  5
2B52B
330
2A3D3
100
AcDbEntity
  8
DEFPOINTS
 62
     0
 48
50.0
100
AcDbPoint
 10
4152.765475140903
 20
6072.483492916261
 30
0.0
  0
POINT
  5
2B52C
330
2A3D3
100
AcDbEntity
  8
DEFPOINTS
 62
     0
 48
50.0
100
AcDbPoint
 10
4483.600000000009
 20
6879.48349291625
 30
0.0
  0
POINT
  5
2B52D
330
2A3D3
100
AcDbEntity
  8
DEFPOINTS
 62
     0
 48
50.0
100
AcDbPoint
 10
4222.442995307157
 20
6879.48349291625
 30
0.0
  0
ENDBLK
  5
2A3DE
330
2A3D3
100
AcDbEntity
  8
0
 48
50.0
100
AcDbBlockEnd
  0
BLOCK
  5
2AAB8
330
2AAAC
100
AcDbEntity
  8
0
 48
50.0
100
AcDbBlockBegin
  2
*D45
 70
     1
 10
0.0
 20
0.0
 30
0.0
  3
*D45
  1

  0
LINE
  5
2B40C
330
2AAAC
100
AcDbEntity
  8
寸法
 62
     0
 48
50.0
370
    -2
100
AcDbLine
 10
12738.6
 20
7632.483492916261
 30
0.0
 11
12738.6
 21
8630.703814975184
 31
0.0
  0
LINE
  5
2B40D
330
2AAAC
100
AcDbEntity
  8
寸法
 62
     0
 48
50.0
370
    -2
100
AcDbLine
 10
12783.6
 20
8358.749951010173
 30
0.0
 11
12783.6
 21
8630.703814975184
 31
0.0
  0
LINE
  5
2B40E
330
2AAAC
100
AcDbEntity
  8
寸法
 62
     0
 48
50.0
370
    -2
100
AcDbLine
 10
12738.6
 20
8570.703814975184
 30
0.0
 11
12638.6
 21
8570.703814975184
 31
0.0
  0
LINE
  5
2B40F
330
2AAAC
100
AcDbEntity
  8
寸法
 62
     0
 48
50.0
370
    -2
100
AcDbLine
 10
12783.6
 20
8570.703814975184
 30
0.0
 11
13120.94924240492
 21
8570.703814975184
 31
0.0
  0
LINE
  5
2B410
330
2AAAC
100
AcDbEntity
  8
寸法
 62
     0
 48
50.0
370
    -2
100
AcDbLine
 10
12738.6
 20
8570.703814975184
 30
0.0
 11
12783.6
 21
8570.703814975184
 31
0.0
  0
INSERT
  5
2B411
330
2AAAC
100
AcDbEntity
  8
寸法
 62
     0
 48
50.0
370
    -2
100
AcDbBlockReference
  2
_DOTSMALL
 10
12738.6
 20
8570.703814975184
 30
0.0
 41
100.0
 42
100.0
 43
100.0
  0
INSERT
  5
2B412
330
2AAAC
100
AcDbEntity
  8
寸法
 62
     0
 48
50.0
370
    -2
100
AcDbBlockReference
  2
_DOTSMALL
 10
12783.6
 20
8570.703814975184
 30
0.0
 41
100.0
 42
100.0
 43
100.0
 50
180.0
  0
MTEXT
  5
2B413
330
2AAAC
100
AcDbEntity
  8
寸法
 62
     7
 48
50.0
100
AcDbMText
 10
13054.77462120246
 20
8670.703814975183
 30
0.0
 40
120.0
 41
0.0
 71
     5
 72
     1
  1
\A1;a
  7
STYLE1
 73
     1
 44
1.0
1001
ACAD
1000
MTEXTBEGIN
1070
    73
1070
     1
1070
    44
1040
1.0
1070
    74
1070
     0
1000
MTEXTEND
  0
POINT
  5
2B414
330
2AAAC
100
AcDbEntity
  8
DEFPOINTS
 62
     0
 48
50.0
100
AcDbPoint
 10
12738.6
 20
7612.48349291626
 30
0.0
  0
POINT
  5
2B415
330
2AAAC
100
AcDbEntity
  8
DEFPOINTS
 62
     0
 48
50.0
100
AcDbPoint
 10
12783.6
 20
8338.749951010171
 30
0.0
  0
POINT
  5
2B416
330
2AAAC
100
AcDbEntity
  8
DEFPOINTS
 62
     0
 48
50.0
100
AcDbPoint
 10
12783.6
 20
8570.703814975184
 30
0.0
  0
ENDBLK
  5
2AAB9
330
2AAAC
100
AcDbEntity
  8
0
 48
50.0
100
AcDbBlockEnd
  0
BLOCK
  5
2AAC6
330
2AABA
100
AcDbEntity
  8
0
 48
50.0
100
AcDbBlockBegin
  2
*D46
 70
     1
 10
0.0
 20
0.0
 30
0.0
  3
*D46
  1

  0
LINE
  5
2B417
330
2AABA
100
AcDbEntity
  8
寸法
 62
     0
 48
50.0
370
    -2
100
AcDbLine
 10
3663.600000000002
 20
8358.749951010155
 30
0.0
 11
3663.600000000002
 21
8630.703814975165
 31
0.0
  0
LINE
  5
2B418
330
2AABA
100
AcDbEntity
  8
寸法
 62
     0
 48
50.0
370
    -2
100
AcDbLine
 10
3708.600000000002
 20
7632.483492916242
 30
0.0
 11
3708.600000000002
 21
8630.703814975165
 31
0.0
  0
LINE
  5
2B419
330
2AABA
100
AcDbEntity
  8
寸法
 62
     0
 48
50.0
370
    -2
100
AcDbLine
 10
3708.600000000002
 20
8570.703814975164
 30
0.0
 11
3808.600000000002
 21
8570.703814975164
 31
0.0
  0
LINE
  5
2B41A
330
2AABA
100
AcDbEntity
  8
寸法
 62
     0
 48
50.0
370
    -2
100
AcDbLine
 10
3663.600000000002
 20
8570.703814975164
 30
0.0
 11
3326.250757595081
 21
8570.703814975164
 31
0.0
  0
LINE
  5
2B41B
330
2AABA
100
AcDbEntity
  8
寸法
 62
     0
 48
50.0
370
    -2
100
AcDbLine
 10
3708.600000000002
 20
8570.703814975164
 30
0.0
 11
3663.600000000002
 21
8570.703814975164
 31
0.0
  0
INSERT
  5
2B41C
330
2AABA
100
AcDbEntity
  8
寸法
 62
     0
 48
50.0
370
    -2
100
AcDbBlockReference
  2
_DOTSMALL
 10
3708.600000000002
 20
8570.703814975164
 30
0.0
 41
100.0
 42
100.0
 43
100.0
 50
180.0
  0
INSERT
  5
2B41D
330
2AABA
100
AcDbEntity
  8
寸法
 62
     0
 48
50.0
370
    -2
100
AcDbBlockReference
  2
_DOTSMALL
 10
3663.600000000002
 20
8570.703814975164
 30
0.0
 41
100.0
 42
100.0
 43
100.0
  0
MTEXT
  5
2B41E
330
2AABA
100
AcDbEntity
  8
寸法
 62
     7
 48
50.0
100
AcDbMText
 10
3392.42537879754
 20
8670.703814975164
 30
0.0
 40
120.0
 41
0.0
 71
     5
 72
     1
  1
\A1;a
  7
STYLE1
 73
     1
 44
1.0
1001
ACAD
1000
MTEXTBEGIN
1070
    73
1070
     1
1070
    44
1040
1.0
1070
    74
1070
     0
1000
MTEXTEND
  0
POINT
  5
2B41F
330
2AABA
100
AcDbEntity
  8
DEFPOINTS
 62
     0
 48
50.0
100
AcDbPoint
 10
3663.600000000002
 20
8338.749951010155
 30
0.0
  0
POINT
  5
2B420
330
2AABA
100
AcDbEntity
  8
DEFPOINTS
 62
     0
 48
50.0
100
AcDbPoint
 10
3708.600000000002
 20
7612.483492916243
 30
0.0
  0
POINT
  5
2B421
330
2AABA
100
AcDbEntity
  8
DEFPOINTS
 62
     0
 48
50.0
100
AcDbPoint
 10
3708.600000000002
 20
8570.703814975164
 30
0.0
  0
ENDBLK
  5
2AAC7
330
2AABA
100
AcDbEntity
  8
0
 48
50.0
100
AcDbBlockEnd
  0
BLOCK
  5
2AAD4
330
2AAC8
100
AcDbEntity
  8
0
 48
50.0
100
AcDbBlockBegin
  2
*D47
 70
     1
 10
0.0
 20
0.0
 30
0.0
  3
*D47
  1

  0
LINE
  5
2B422
330
2AAC8
100
AcDbEntity
  8
寸法
 62
     0
 48
50.0
370
    -2
100
AcDbLine
 10
3065.665006330062
 20
7687.48349291625
 30
0.0
 11
2773.721909610671
 21
7687.48349291625
 31
0.0
  0
LINE
  5
2B423
330
2AAC8
100
AcDbEntity
  8
寸法
 62
     0
 48
50.0
370
    -2
100
AcDbLine
 10
3688.600000000003
 20
7612.483492916243
 30
0.0
 11
2773.721909610671
 21
7612.483492916243
 31
0.0
  0
LINE
  5
2B424
330
2AAC8
100
AcDbEntity
  8
寸法
 62
     0
 48
50.0
370
    -2
100
AcDbLine
 10
2833.721909610671
 20
7687.48349291625
 30
0.0
 11
2833.721909610671
 21
7787.48349291625
 31
0.0
  0
LINE
  5
2B425
330
2AAC8
100
AcDbEntity
  8
寸法
 62
     0
 48
50.0
370
    -2
100
AcDbLine
 10
2833.721909610671
 20
7612.483492916243
 30
0.0
 11
2833.721909610671
 21
7512.483492916243
 31
0.0
  0
LINE
  5
2B426
330
2AAC8
100
AcDbEntity
  8
寸法
 62
     0
 48
50.0
370
    -2
100
AcDbLine
 10
2833.721909610671
 20
7687.48349291625
 30
0.0
 11
2833.721909610671
 21
7612.483492916243
 31
0.0
  0
INSERT
  5
2B427
330
2AAC8
100
AcDbEntity
  8
寸法
 62
     0
 48
50.0
370
    -2
100
AcDbBlockReference
  2
_DOTSMALL
 10
2833.721909610671
 20
7687.48349291625
 30
0.0
 41
100.0
 42
100.0
 43
100.0
 50
270.0
  0
INSERT
  5
2B428
330
2AAC8
100
AcDbEntity
  8
寸法
 62
     0
 48
50.0
370
    -2
100
AcDbBlockReference
  2
_DOTSMALL
 10
2833.721909610671
 20
7612.483492916243
 30
0.0
 41
100.0
 42
100.0
 43
100.0
 50
90.0
  0
MTEXT
  5
2B429
330
2AAC8
100
AcDbEntity
  8
寸法
 62
     7
 48
50.0
100
AcDbMText
 10
2733.72190961067
 20
7649.983492916248
 30
0.0
 40
120.0
 41
0.0
 71
     5
 72
     1
  1
\A1;c
  7
STYLE1
 11
0.0000000000000001
 21
1.0
 31
0.0
 73
     1
 44
1.0
1001
ACAD
1000
MTEXTBEGIN
1070
    73
1070
     1
1070
    44
1040
1.0
1070
    74
1070
     0
1000
MTEXTEND
  0
POINT
  5
2B42A
330
2AAC8
100
AcDbEntity
  8
DEFPOINTS
 62
     0
 48
50.0
100
AcDbPoint
 10
3085.665006330062
 20
7687.48349291625
 30
0.0
  0
POINT
  5
2B42B
330
2AAC8
100
AcDbEntity
  8
DEFPOINTS
 62
     0
 48
50.0
100
AcDbPoint
 10
3708.600000000002
 20
7612.483492916243
 30
0.0
  0
POINT
  5
2B42C
330
2AAC8
100
AcDbEntity
  8
DEFPOINTS
 62
     0
 48
50.0
100
AcDbPoint
 10
2833.721909610671
 20
7612.483492916243
 30
0.0
  0
ENDBLK
  5
2AAD5
330
2AAC8
100
AcDbEntity
  8
0
 48
50.0
100
AcDbBlockEnd
  0
BLOCK
  5
2AAE2
330
2AAD6
100
AcDbEntity
  8
0
 48
50.0
100
AcDbBlockBegin
  2
*D48
 70
     1
 10
0.0
 20
0.0
 30
0.0
  3
*D48
  1

  0
LINE
  5
2B42D
330
2AAD6
100
AcDbEntity
  8
寸法
 62
     0
 48
50.0
370
    -2
100
AcDbLine
 10
3688.600000000003
 20
6072.483492916243
 30
0.0
 11
2773.721909610671
 21
6072.483492916243
 31
0.0
  0
LINE
  5
2B42E
330
2AAD6
100
AcDbEntity
  8
寸法
 62
     0
 48
50.0
370
    -2
100
AcDbLine
 10
3065.66500633007
 20
6017.483492916268
 30
0.0
 11
2773.721909610671
 21
6017.483492916268
 31
0.0
  0
LINE
  5
2B42F
330
2AAD6
100
AcDbEntity
  8
寸法
 62
     0
 48
50.0
370
    -2
100
AcDbLine
 10
2833.721909610671
 20
6072.483492916243
 30
0.0
 11
2833.721909610671
 21
6172.483492916242
 31
0.0
  0
LINE
  5
2B430
330
2AAD6
100
AcDbEntity
  8
寸法
 62
     0
 48
50.0
370
    -2
100
AcDbLine
 10
2833.721909610671
 20
6017.483492916268
 30
0.0
 11
2833.721909610671
 21
5917.483492916268
 31
0.0
  0
LINE
  5
2B431
330
2AAD6
100
AcDbEntity
  8
寸法
 62
     0
 48
50.0
370
    -2
100
AcDbLine
 10
2833.721909610671
 20
6072.483492916243
 30
0.0
 11
2833.721909610671
 21
6017.483492916268
 31
0.0
  0
INSERT
  5
2B432
330
2AAD6
100
AcDbEntity
  8
寸法
 62
     0
 48
50.0
370
    -2
100
AcDbBlockReference
  2
_DOTSMALL
 10
2833.721909610671
 20
6072.483492916243
 30
0.0
 41
100.0
 42
100.0
 43
100.0
 50
270.0
  0
INSERT
  5
2B433
330
2AAD6
100
AcDbEntity
  8
寸法
 62
     0
 48
50.0
370
    -2
100
AcDbBlockReference
  2
_DOTSMALL
 10
2833.721909610671
 20
6017.483492916268
 30
0.0
 41
100.0
 42
100.0
 43
100.0
 50
90.0
  0
MTEXT
  5
2B434
330
2AAD6
100
AcDbEntity
  8
寸法
 62
     7
 48
50.0
100
AcDbMText
 10
2733.72190961067
 20
6044.983492916256
 30
0.0
 40
120.0
 41
0.0
 71
     5
 72
     1
  1
\A1;b
  7
STYLE1
 11
0.0000000000000001
 21
1.0
 31
0.0
 73
     1
 44
1.0
1001
ACAD
1000
MTEXTBEGIN
1070
    73
1070
     1
1070
    44
1040
1.0
1070
    74
1070
     0
1000
MTEXTEND
  0
POINT
  5
2B435
330
2AAD6
100
AcDbEntity
  8
DEFPOINTS
 62
     0
 48
50.0
100
AcDbPoint
 10
3708.600000000002
 20
6072.483492916243
 30
0.0
  0
POINT
  5
2B436
330
2AAD6
100
AcDbEntity
  8
DEFPOINTS
 62
     0
 48
50.0
100
AcDbPoint
 10
3085.665006330069
 20
6017.483492916268
 30
0.0
  0
POINT
  5
2B437
330
2AAD6
100
AcDbEntity
  8
DEFPOINTS
 62
     0
 48
50.0
100
AcDbPoint
 10
2833.721909610671
 20
6017.483492916268
 30
0.0
  0
ENDBLK
  5
2AAE3
330
2AAD6
100
AcDbEntity
  8
0
 48
50.0
100
AcDbBlockEnd
  0
BLOCK
  5
2B8D3
330
2B8C9
100
AcDbEntity
  8
0
 48
50.0
100
AcDbBlockBegin
  2
*D49
 70
     1
 10
0.0
 20
0.0
 30
0.0
  3
*D49
  1

  0
LINE
  5
2B913
330
2B8C9
100
AcDbEntity
  8
寸法
 62
     0
 48
50.0
370
    -2
100
AcDbLine
 10
6287.313382389434
 20
1816.182988659255
 30
0.0
 11
6287.313382389434
 21
2275.850796575635
 31
0.0
  0
LINE
  5
2B914
330
2B8C9
100
AcDbEntity
  8
寸法
 62
     0
 48
50.0
370
    -2
100
AcDbLine
 10
6095.313382389434
 20
1816.182988659255
 30
0.0
 11
6095.313382389434
 21
2275.850796575635
 31
0.0
  0
LINE
  5
2B915
330
2B8C9
100
AcDbEntity
  8
寸法
 62
     0
 48
50.0
370
    -2
100
AcDbLine
 10
6287.313382389434
 20
2215.850796575635
 30
0.0
 11
6095.313382389434
 21
2215.850796575635
 31
0.0
  0
INSERT
  5
2B916
330
2B8C9
100
AcDbEntity
  8
寸法
 62
     0
 48
50.0
370
    -2
100
AcDbBlockReference
  2
_DOTSMALL
 10
6287.313382389434
 20
2215.850796575635
 30
0.0
 41
100.0
 42
100.0
 43
100.0
  0
INSERT
  5
2B917
330
2B8C9
100
AcDbEntity
  8
寸法
 62
     0
 48
50.0
370
    -2
100
AcDbBlockReference
  2
_DOTSMALL
 10
6095.313382389434
 20
2215.850796575635
 30
0.0
 41
100.0
 42
100.0
 43
100.0
 50
180.0
  0
MTEXT
  5
2B918
330
2B8C9
100
AcDbEntity
  8
寸法
 62
     7
 48
50.0
100
AcDbMText
 10
6191.313382389434
 20
2515.886229646501
 30
0.0
 40
120.0
 41
0.0
 71
     5
 72
     1
  1
\A1;120\P200\P280
  7
STYLE1
 73
     1
 44
1.0
1001
ACAD
1000
MTEXTBEGIN
1070
    73
1070
     1
1070
    44
1040
1.0
1070
    74
1070
     0
1000
MTEXTEND
  0
POINT
  5
2B919
330
2B8C9
100
AcDbEntity
  8
DEFPOINTS
 62
     0
 48
50.0
100
AcDbPoint
 10
6287.313382389434
 20
1796.182988659255
 30
0.0
  0
POINT
  5
2B91A
330
2B8C9
100
AcDbEntity
  8
DEFPOINTS
 62
     0
 48
50.0
100
AcDbPoint
 10
6095.313382389434
 20
1796.182988659255
 30
0.0
  0
POINT
  5
2B91B
330
2B8C9
100
AcDbEntity
  8
DEFPOINTS
 62
     0
 48
50.0
100
AcDbPoint
 10
6095.313382389434
 20
2215.850796575635
 30
0.0
  0
ENDBLK
  5
2B8D4
330
2B8C9
100
AcDbEntity
  8
0
 48
50.0
100
AcDbBlockEnd
  0
BLOCK
  5
2B8DF
330
2B8D5
100
AcDbEntity
  8
0
 48
50.0
100
AcDbBlockBegin
  2
*D50
 70
     1
 10
0.0
 20
0.0
 30
0.0
  3
*D50
  1

  0
LINE
  5
2B91C
330
2B8D5
100
AcDbEntity
  8
寸法
 62
     0
 48
50.0
370
    -2
100
AcDbLine
 10
5967.313382389434
 20
864.182988659255
 30
0.0
 11
5967.313382389434
 21
413.7533506540949
 31
0.0
  0
LINE
  5
2B91D
330
2B8D5
100
AcDbEntity
  8
寸法
 62
     0
 48
50.0
370
    -2
100
AcDbLine
 10
6415.313382389434
 20
864.182988659255
 30
0.0
 11
6415.313382389434
 21
413.7533506540949
 31
0.0
  0
LINE
  5
2B91E
330
2B8D5
100
AcDbEntity
  8
寸法
 62
     0
 48
50.0
370
    -2
100
AcDbLine
 10
5967.313382389434
 20
473.7533506540948
 30
0.0
 11
6415.313382389434
 21
473.7533506540948
 31
0.0
  0
INSERT
  5
2B91F
330
2B8D5
100
AcDbEntity
  8
寸法
 62
     0
 48
50.0
370
    -2
100
AcDbBlockReference
  2
_DOTSMALL
 10
5967.313382389434
 20
473.7533506540948
 30
0.0
 41
100.0
 42
100.0
 43
100.0
 50
180.0
  0
INSERT
  5
2B920
330
2B8D5
100
AcDbEntity
  8
寸法
 62
     0
 48
50.0
370
    -2
100
AcDbBlockReference
  2
_DOTSMALL
 10
6415.313382389434
 20
473.7533506540948
 30
0.0
 41
100.0
 42
100.0
 43
100.0
  0
MTEXT
  5
2B921
330
2B8D5
100
AcDbEntity
  8
寸法
 62
     7
 48
50.0
100
AcDbMText
 10
6171.21662371121
 20
573.7533506540948
 30
0.0
 40
120.0
 41
0.0
 71
     5
 72
     1
  1
\A1;300
  7
STYLE1
 73
     1
 44
1.0
1001
ACAD
1000
MTEXTBEGIN
1070
    73
1070
     1
1070
    44
1040
1.0
1070
    74
1070
     0
1000
MTEXTEND
  0
POINT
  5
2B922
330
2B8D5
100
AcDbEntity
  8
DEFPOINTS
 62
     0
 48
50.0
100
AcDbPoint
 10
5967.313382389434
 20
884.1829886592549
 30
0.0
  0
POINT
  5
2B923
330
2B8D5
100
AcDbEntity
  8
DEFPOINTS
 62
     0
 48
50.0
100
AcDbPoint
 10
6415.313382389434
 20
884.1829886592549
 30
0.0
  0
POINT
  5
2B924
330
2B8D5
100
AcDbEntity
  8
DEFPOINTS
 62
     0
 48
50.0
100
AcDbPoint
 10
6415.313382389434
 20
473.7533506540948
 30
0.0
  0
ENDBLK
  5
2B8E0
330
2B8D5
100
AcDbEntity
  8
0
 48
50.0
100
AcDbBlockEnd
  0
BLOCK
  5
2B8EB
330
2B8E1
100
AcDbEntity
  8
0
 48
50.0
100
AcDbBlockBegin
  2
*D51
 70
     1
 10
0.0
 20
0.0
 30
0.0
  3
*D51
  1

  0
LINE
  5
2B925
330
2B8E1
100
AcDbEntity
  8
寸法
 62
     0
 48
50.0
370
    -2
100
AcDbLine
 10
6075.313382389435
 20
1796.182988659255
 30
0.0
 11
5300.276143827694
 21
1796.182988659255
 31
0.0
  0
LINE
  5
2B926
330
2B8E1
100
AcDbEntity
  8
寸法
 62
     0
 48
50.0
370
    -2
100
AcDbLine
 10
5867.313382389437
 20
1012.182988659255
 30
0.0
 11
5300.276143827694
 21
1012.182988659255
 31
0.0
  0
LINE
  5
2B927
330
2B8E1
100
AcDbEntity
  8
寸法
 62
     0
 48
50.0
370
    -2
100
AcDbLine
 10
5360.276143827694
 20
1796.182988659255
 30
0.0
 11
5360.276143827694
 21
1012.182988659255
 31
0.0
  0
INSERT
  5
2B928
330
2B8E1
100
AcDbEntity
  8
寸法
 62
     0
 48
50.0
370
    -2
100
AcDbBlockReference
  2
_DOTSMALL
 10
5360.276143827694
 20
1796.182988659255
 30
0.0
 41
100.0
 42
100.0
 43
100.0
 50
90.0
  0
INSERT
  5
2B929
330
2B8E1
100
AcDbEntity
  8
寸法
 62
     0
 48
50.0
370
    -2
100
AcDbBlockReference
  2
_DOTSMALL
 10
5360.276143827694
 20
1012.182988659255
 30
0.0
 41
100.0
 42
100.0
 43
100.0
 50
270.0
  0
MTEXT
  5
2B92A
330
2B8E1
100
AcDbEntity
  8
寸法
 62
     7
 48
50.0
100
AcDbMText
 10
5260.276143827694
 20
1383.723138315256
 30
0.0
 40
120.0
 41
0.0
 71
     5
 72
     1
  1
\A1;540
  7
STYLE1
 11
0.0000000000000001
 21
1.0
 31
0.0
 73
     1
 44
1.0
1001
ACAD
1000
MTEXTBEGIN
1070
    73
1070
     1
1070
    44
1040
1.0
1070
    74
1070
     0
1000
MTEXTEND
  0
POINT
  5
2B92B
330
2B8E1
100
AcDbEntity
  8
DEFPOINTS
 62
     0
 48
50.0
100
AcDbPoint
 10
6095.313382389434
 20
1796.182988659255
 30
0.0
  0
POINT
  5
2B92C
330
2B8E1
100
AcDbEntity
  8
DEFPOINTS
 62
     0
 48
50.0
100
AcDbPoint
 10
5887.313382389438
 20
1012.182988659255
 30
0.0
  0
POINT
  5
2B92D
330
2B8E1
100
AcDbEntity
  8
DEFPOINTS
 62
     0
 48
50.0
100
AcDbPoint
 10
5360.276143827694
 20
1012.182988659255
 30
0.0
  0
ENDBLK
  5
2B8EC
330
2B8E1
100
AcDbEntity
  8
0
 48
50.0
100
AcDbBlockEnd
  0
BLOCK
  5
2B8F7
330
2B8ED
100
AcDbEntity
  8
0
 48
50.0
100
AcDbBlockBegin
  2
*D52
 70
     1
 10
0.0
 20
0.0
 30
0.0
  3
*D52
  1

  0
LINE
  5
2B92E
330
2B8ED
100
AcDbEntity
  8
寸法
 62
     0
 48
50.0
370
    -2
100
AcDbLine
 10
5947.313382389435
 20
1252.182988659255
 30
0.0
 11
5764.893068656975
 21
1252.182988659255
 31
0.0
  0
LINE
  5
2B92F
330
2B8ED
100
AcDbEntity
  8
寸法
 62
     0
 48
50.0
370
    -2
100
AcDbLine
 10
5867.313382389437
 20
1012.182988659255
 30
0.0
 11
5764.893068656975
 21
1012.182988659255
 31
0.0
  0
LINE
  5
2B930
330
2B8ED
100
AcDbEntity
  8
寸法
 62
     0
 48
50.0
370
    -2
100
AcDbLine
 10
5824.893068656975
 20
1252.182988659255
 30
0.0
 11
5824.893068656975
 21
1012.182988659255
 31
0.0
  0
INSERT
  5
2B931
330
2B8ED
100
AcDbEntity
  8
寸法
 62
     0
 48
50.0
370
    -2
100
AcDbBlockReference
  2
_DOTSMALL
 10
5824.893068656975
 20
1252.182988659255
 30
0.0
 41
100.0
 42
100.0
 43
100.0
 50
90.0
  0
INSERT
  5
2B932
330
2B8ED
100
AcDbEntity
  8
寸法
 62
     0
 48
50.0
370
    -2
100
AcDbBlockReference
  2
_DOTSMALL
 10
5824.893068656975
 20
1012.182988659255
 30
0.0
 41
100.0
 42
100.0
 43
100.0
 50
270.0
  0
MTEXT
  5
2B933
330
2B8ED
100
AcDbEntity
  8
寸法
 62
     7
 48
50.0
100
AcDbMText
 10
5724.893068656975
 20
1132.182988659256
 30
0.0
 40
120.0
 41
0.0
 71
     5
 72
     1
  1
\A1;150
  7
STYLE1
 11
0.0000000000000001
 21
1.0
 31
0.0
 73
     1
 44
1.0
1001
ACAD
1000
MTEXTBEGIN
1070
    73
1070
     1
1070
    44
1040
1.0
1070
    74
1070
     0
1000
MTEXTEND
  0
POINT
  5
2B934
330
2B8ED
100
AcDbEntity
  8
DEFPOINTS
 62
     0
 48
50.0
100
AcDbPoint
 10
5967.313382389434
 20
1252.182988659255
 30
0.0
  0
POINT
  5
2B935
330
2B8ED
100
AcDbEntity
  8
DEFPOINTS
 62
     0
 48
50.0
100
AcDbPoint
 10
5887.313382389438
 20
1012.182988659255
 30
0.0
  0
POINT
  5
2B936
330
2B8ED
100
AcDbEntity
  8
DEFPOINTS
 62
     0
 48
50.0
100
AcDbPoint
 10
5824.893068656975
 20
1012.182988659255
 30
0.0
  0
ENDBLK
  5
2B8F8
330
2B8ED
100
AcDbEntity
  8
0
 48
50.0
100
AcDbBlockEnd
  0
BLOCK
  5
2B905
330
2B8F9
100
AcDbEntity
  8
0
 48
50.0
100
AcDbBlockBegin
  2
*D53
 70
     1
 10
0.0
 20
0.0
 30
0.0
  3
*D53
  1

  0
LINE
  5
2B937
330
2B8F9
100
AcDbEntity
  8
寸法
 62
     0
 48
50.0
370
    -2
100
AcDbLine
 10
8042.152695566629
 20
1848.942988659256
 30
0.0
 11
9047.2759614545
 21
1848.942988659256
 31
0.0
  0
LINE
  5
2B938
330
2B8F9
100
AcDbEntity
  8
寸法
 62
     0
 48
50.0
370
    -2
100
AcDbLine
 10
8229.352695566628
 20
1796.182988659255
 30
0.0
 11
9047.2759614545
 21
1796.182988659255
 31
0.0
  0
LINE
  5
2B939
330
2B8F9
100
AcDbEntity
  8
寸法
 62
     0
 48
50.0
370
    -2
100
AcDbLine
 10
8987.275961454498
 20
1848.942988659256
 30
0.0
 11
8987.275961454498
 21
1948.942988659256
 31
0.0
  0
LINE
  5
2B93A
330
2B8F9
100
AcDbEntity
  8
寸法
 62
     0
 48
50.0
370
    -2
100
AcDbLine
 10
8987.275961454498
 20
1796.182988659255
 30
0.0
 11
8987.275961454498
 21
1064.165181816288
 31
0.0
  0
LINE
  5
2B93B
330
2B8F9
100
AcDbEntity
  8
寸法
 62
     0
 48
50.0
370
    -2
100
AcDbLine
 10
8987.275961454498
 20
1848.942988659256
 30
0.0
 11
8987.275961454498
 21
1796.182988659255
 31
0.0
  0
INSERT
  5
2B93C
330
2B8F9
100
AcDbEntity
  8
寸法
 62
     0
 48
50.0
370
    -2
100
AcDbBlockReference
  2
_DOTSMALL
 10
8987.275961454498
 20
1848.942988659256
 30
0.0
 41
100.0
 42
100.0
 43
100.0
 50
270.0
  0
INSERT
  5
2B93D
330
2B8F9
100
AcDbEntity
  8
寸法
 62
     0
 48
50.0
370
    -2
100
AcDbBlockReference
  2
_DOTSMALL
 10
8987.275961454498
 20
1796.182988659255
 30
0.0
 41
100.0
 42
100.0
 43
100.0
 50
90.0
  0
MTEXT
  5
2B93E
330
2B8F9
100
AcDbEntity
  8
寸法
 62
     7
 48
50.0
100
AcDbMText
 10
8887.264150430878
 20
1330.174085237772
 30
0.0
 40
120.0
 41
0.0
 71
     5
 72
     1
  1
\A1;20～25
  7
STYLE1
 11
0.0000000000000001
 21
1.0
 31
0.0
 73
     1
 44
1.0
1001
ACAD
1000
MTEXTBEGIN
1070
    73
1070
     1
1070
    44
1040
1.0
1070
    74
1070
     0
1000
MTEXTEND
  0
POINT
  5
2B93F
330
2B8F9
100
AcDbEntity
  8
DEFPOINTS
 62
     0
 48
50.0
100
AcDbPoint
 10
8022.15269556663
 20
1848.942988659256
 30
0.0
  0
POINT
  5
2B940
330
2B8F9
100
AcDbEntity
  8
DEFPOINTS
 62
     0
 48
50.0
100
AcDbPoint
 10
8209.352695566627
 20
1796.182988659255
 30
0.0
  0
POINT
  5
2B941
330
2B8F9
100
AcDbEntity
  8
DEFPOINTS
 62
     0
 48
50.0
100
AcDbPoint
 10
8987.275961454498
 20
1796.182988659255
 30
0.0
  0
ENDBLK
  5
2B906
330
2B8F9
100
AcDbEntity
  8
0
 48
50.0
100
AcDbBlockEnd
  0
BLOCK
  5
2B911
330
2B907
100
AcDbEntity
  8
0
 48
50.0
100
AcDbBlockBegin
  2
*D54
 70
     1
 10
0.0
 20
0.0
 30
0.0
  3
*D54
  1

  0
LINE
  5
2B942
330
2B907
100
AcDbEntity
  8
寸法
 62
     0
 48
50.0
370
    -2
100
AcDbLine
 10
8229.352695566628
 20
1796.182988659255
 30
0.0
 11
8771.221295335472
 21
1796.182988659255
 31
0.0
  0
LINE
  5
2B943
330
2B907
100
AcDbEntity
  8
寸法
 62
     0
 48
50.0
370
    -2
100
AcDbLine
 10
8229.352695566628
 20
1472.182988659254
 30
0.0
 11
8771.221295335472
 21
1472.182988659254
 31
0.0
  0
LINE
  5
2B944
330
2B907
100
AcDbEntity
  8
寸法
 62
     0
 48
50.0
370
    -2
100
AcDbLine
 10
8711.221295335473
 20
1796.182988659255
 30
0.0
 11
8711.221295335473
 21
1472.182988659254
 31
0.0
  0
INSERT
  5
2B945
330
2B907
100
AcDbEntity
  8
寸法
 62
     0
 48
50.0
370
    -2
100
AcDbBlockReference
  2
_DOTSMALL
 10
8711.221295335473
 20
1796.182988659255
 30
0.0
 41
100.0
 42
100.0
 43
100.0
 50
90.0
  0
INSERT
  5
2B946
330
2B907
100
AcDbEntity
  8
寸法
 62
     0
 48
50.0
370
    -2
100
AcDbBlockReference
  2
_DOTSMALL
 10
8711.221295335473
 20
1472.182988659254
 30
0.0
 41
100.0
 42
100.0
 43
100.0
 50
270.0
  0
MTEXT
  5
2B947
330
2B907
100
AcDbEntity
  8
寸法
 62
     7
 48
50.0
100
AcDbMText
 10
8611.221295335473
 20
1634.182988659256
 30
0.0
 40
120.0
 41
0.0
 71
     5
 72
     1
  1
\A1;180
  7
STYLE1
 11
0.0000000000000001
 21
1.0
 31
0.0
 73
     1
 44
1.0
1001
ACAD
1000
MTEXTBEGIN
1070
    73
1070
     1
1070
    44
1040
1.0
1070
    74
1070
     0
1000
MTEXTEND
  0
POINT
  5
2B948
330
2B907
100
AcDbEntity
  8
DEFPOINTS
 62
     0
 48
50.0
100
AcDbPoint
 10
8209.352695566627
 20
1796.182988659255
 30
0.0
  0
POINT
  5
2B949
330
2B907
100
AcDbEntity
  8
DEFPOINTS
 62
     0
 48
50.0
100
AcDbPoint
 10
8209.352695566627
 20
1472.182988659254
 30
0.0
  0
POINT
  5
2B94A
330
2B907
100
AcDbEntity
  8
DEFPOINTS
 62
     0
 48
50.0
100
AcDbPoint
 10
8711.221295335473
 20
1472.182988659254
 30
0.0
  0
ENDBLK
  5
2B912
330
2B907
100
AcDbEntity
  8
0
 48
50.0
100
AcDbBlockEnd
  0
ENDSEC
  0
SECTION
  2
ENTITIES
  0
MTEXT
  5
763F
330
747D
100
AcDbEntity
  8
0
100
AcDbMText
 10
302.846345836809
 20
280.1983726409901
 30
0.0
 40
3.5
 41
5.323721266742722
 71
     1
 72
     5
  1

  7
MSMINCHO
 73
     1
 44
1.0
1001
ACAD
1000
MTEXTBEGIN
1070
    73
1070
     1
1070
    44
1040
1.0
1070
    74
1070
     0
1000
MTEXTEND
  0
LINE
  5
10B57
330
747D
100
AcDbEntity
  8
補助
  6
PHANTOM
 62
   230
 48
50.0
100
AcDbLine
 10
139.9999999999995
 20
11409.6
 30
0.0
 11
16307.2
 21
11409.6
 31
0.0
  0
LINE
  5
10B59
330
747D
100
AcDbEntity
  8
仕様書枠
  6
Continuous
 48
50.0
100
AcDbLine
 10
13107.2
 20
1200.0
 30
0.0
 11
13107.2
 21
-0.0000000000000729
 31
0.0
  0
LINE
  5
10B5D
330
747D
100
AcDbEntity
  8
仕様書枠
 48
50.0
100
AcDbLine
 10
140.0
 20
0.0
 30
0.0
 11
16307.2
 21
-0.0000000000000909
 31
0.0
  0
LINE
  5
10B5E
330
747D
100
AcDbEntity
  8
補助
  6
PHANTOM
 62
   230
 48
50.0
100
AcDbLine
 10
16307.2
 20
11409.6
 30
0.0
 11
16307.2
 21
1200.0
 31
0.0
  0
LINE
  5
10B6C
330
747D
100
AcDbEntity
  8
仕様書枠
 48
50.0
100
AcDbLine
 10
13107.2
 20
1200.0
 30
0.0
 11
16307.2
 21
1200.0
 31
0.0
  0
TEXT
  5
10B73
330
747D
100
AcDbEntity
  8
文字
 62
     7
 48
50.0
100
AcDbText
 10
13162.9790565769
 20
895.0906074299405
 30
0.0
 40
200.0
  1
基 礎 図
  7
STYLE2
100
AcDbText
  0
LINE
  5
10B7B
330
747D
100
AcDbEntity
  8
仕様書枠
 48
50.0
100
AcDbLine
 10
13107.2
 20
800.0
 30
0.0
 11
14251.2
 21
800.0
 31
0.0
  0
LINE
  5
10B88
330
747D
100
AcDbEntity
  8
仕様書枠
  6
Continuous
 48
50.0
100
AcDbLine
 10
14251.2
 20
1200.0
 30
0.0
 11
14251.2
 21
800.0
 31
0.0
  0
LINE
  5
16462
330
747D
100
AcDbEntity
  8
仕様書枠
 48
50.0
100
AcDbLine
 10
16307.2
 20
1200.0
 30
0.0
 11
16307.2
 21
-0.0000000000000909
 31
0.0
  0
LINE
  5
1903B
330
747D
100
AcDbEntity
  8
補助
  6
PHANTOM
 62
   230
 48
50.0
100
AcDbLine
 10
140.0
 20
0.0
 30
0.0
 11
139.9999999999995
 21
11409.6
 31
0.0
  0
TEXT
  5
1C7A1
330
747D
100
AcDbEntity
  8
文字
 62
     7
 48
50.0
100
AcDbText
 10
13188.16259899338
 20
79.80631269190417
 30
0.0
 40
80.0
  1
※布基礎には換気口を設けてください。
  7
STYLE2
100
AcDbText
  0
TEXT
  5
1C7E7
330
747D
100
AcDbEntity
  8
文字
 62
     7
 48
50.0
100
AcDbText
 10
13188.16259899338
 20
246.7109242801889
 30
0.0
 40
80.0
  1
※寒冷地等は地域の実情に合わせた基礎にして下さい。
  7
STYLE2
100
AcDbText
  0
TEXT
  5
1C7EC
330
747D
100
AcDbEntity
  8
文字
 62
     7
 48
50.0
100
AcDbText
 10
14524.131837222
 20
1031.557706291229
 30
0.0
 40
100.0
  1
<縮尺> S=1/40
  7
STYLE2
100
AcDbText
  0
TEXT
  5
1C7ED
330
747D
100
AcDbEntity
  8
文字
 62
     7
 48
50.0
100
AcDbText
 10
13201.43669998441
 20
477.2740661031257
 30
0.0
 40
160.0
  1
機種名
  7
STYLE2
100
AcDbText
  0
LINE
  5
1C7EF
330
747D
100
AcDbEntity
  8
文字
 62
     7
 48
50.0
100
AcDbLine
 10
13187.2
 20
400.0
 30
0.0
 11
16227.2
 21
400.0
 31
0.0
  0
TEXT
  5
271E7
330
747D
100
AcDbEntity
  8
部品1
100
AcDbText
 10
6896.551502705768
 20
5273.072859500072
 30
0.0
 40
135.0
  1
11連棟・14連棟・17連棟・20連棟
  7
STYLE2
100
AcDbText
  0
TEXT
  5
27754
330
747D
100
AcDbEntity
  8
文字
 62
     7
 48
50.0
100
AcDbText
 10
14271.39351435261
 20
483.8967129911416
 30
0.0
 40
160.0
  1
ＮＸＮ－１２ＤＬ-Ｎ
  7
STYLE2
100
AcDbText
  0
LINE
  5
2A0BA
330
747D
100
AcDbEntity
  8
部品1
 48
50.0
100
AcDbLine
 10
12618.59999999999
 20
7412.483492916246
 30
0.0
 11
3828.599999999995
 21
7412.483492916249
 31
0.0
  0
LINE
  5
2A0BC
102
{ACAD_REACTORS
330
2B960
102
}
330
747D
100
AcDbEntity
  8
部品1
 48
50.0
100
AcDbLine
 10
12738.59999999999
 20
6072.483492916284
 30
0.0
 11
3708.599999999995
 21
6072.483492916246
 31
0.0
  0
LINE
  5
2A0BE
330
747D
100
AcDbEntity
  8
部品1
 48
50.0
100
AcDbLine
 10
12738.6
 20
7612.483492916249
 30
0.0
 11
3708.600000000002
 21
7612.483492916251
 31
0.0
  0
DIMENSION
  5
2A0BF
330
747D
100
AcDbEntity
  8
寸法
 48
50.0
100
AcDbDimension
  2
*D31
 10
7813.600000000018
 20
8095.092309586497
 30
0.0
 11
8223.600000000013
 21
8195.104120610119
 31
0.0
 70
    32
 71
     5
 42
819.9999999999917
  3
INABA_S40G
100
AcDbAlignedDimension
 13
8633.60000000001
 23
6929.483492916251
 33
0.0
 14
7813.600000000018
 24
6929.483492916251
 34
0.0
100
AcDbRotatedDimension
1001
ACAD
1000
DSTYLE
1002
{
1070
   341
1005
0
1002
}
  0
TEXT
  5
2A0C2
330
747D
100
AcDbEntity
  8
寸法
 48
50.0
100
AcDbText
 10
8491.049130332932
 20
6091.164783708988
 30
0.0
 40
120.0
  1
扉面
  7
STYLE1
100
AcDbText
  0
DIMENSION
  5
2A0C3
330
747D
100
AcDbEntity
  8
寸法
 48
50.0
100
AcDbDimension
  2
*D32
 10
12738.6
 20
8570.703814975168
 30
0.0
 11
8223.600000000001
 21
8670.71562599879
 31
0.0
 70
    32
  1
N X 820+10
 71
     5
 42
9029.999999999997
  3
INABA_S40G
100
AcDbAlignedDimension
 13
3708.600000000002
 23
7612.483492916251
 33
0.0
 14
12738.6
 24
7612.483492916251
 34
0.0
100
AcDbRotatedDimension
1001
ACAD
1000
DSTYLE
1002
{
1070
   341
1005
0
1002
}
  0
DIMENSION
  5
2A0C5
330
747D
100
AcDbEntity
  8
寸法
 48
50.0
100
AcDbDimension
  2
*D33
 10
6993.600000000018
 20
8095.092309586497
 30
0.0
 11
7403.600000000015
 21
8195.104120610119
 31
0.0
 70
    32
 71
     5
 42
819.9999999999928
  3
INABA_S40G
100
AcDbAlignedDimension
 13
7813.600000000011
 23
6929.483492916251
 33
0.0
 14
6993.600000000018
 24
6929.483492916251
 34
0.0
100
AcDbRotatedDimension
1001
ACAD
1000
DSTYLE
1002
{
1070
   341
1005
0
1002
}
  0
DIMENSION
  5
2A0C6
330
747D
100
AcDbEntity
  8
寸法
 48
50.0
100
AcDbDimension
  2
*D34
 10
5353.600000000009
 20
8095.092309586497
 30
0.0
 11
5763.60000000001
 21
8195.104120610119
 31
0.0
 70
    32
 71
     5
 42
820.0
  3
INABA_S40G
100
AcDbAlignedDimension
 13
6173.60000000001
 23
6929.483492916251
 33
0.0
 14
5353.600000000009
 24
6929.483492916251
 34
0.0
100
AcDbRotatedDimension
1001
ACAD
1000
DSTYLE
1002
{
1070
   341
1005
0
1002
}
  0
DIMENSION
  5
2A0C7
330
747D
100
AcDbEntity
  8
寸法
 48
50.0
100
AcDbDimension
  2
*D35
 10
4222.442995307157
 20
7612.483492916251
 30
0.0
 11
4222.442995307155
 21
7172.078283610426
 31
0.0
 70
   160
 71
     5
 42
733.0
  3
INABA_S40G
100
AcDbAlignedDimension
 13
4483.600000000009
 23
6879.48349291625
 33
0.0
 14
4152.765475140903
 24
7612.483492916251
 34
0.0
 50
90.0
100
AcDbRotatedDimension
1001
ACAD
1000
DSTYLE
1002
{
1070
   341
1005
0
1002
}
  0
DIMENSION
  5
2A0C8
330
747D
100
AcDbEntity
  8
寸法
 48
50.0
100
AcDbDimension
  2
*D36
 10
3708.600000000002
 20
8095.092309586497
 30
0.0
 11
4121.100000000006
 21
8195.104120610119
 31
0.0
 70
    32
 71
     5
 42
825.0000000000072
  3
INABA_S40G
100
AcDbAlignedDimension
 13
4533.600000000009
 23
6929.483492916251
 33
0.0
 14
3708.600000000002
 24
7612.483492916251
 34
0.0
100
AcDbRotatedDimension
1001
ACAD
1000
DSTYLE
1002
{
1070
   341
1005
0
1002
}
  0
DIMENSION
  5
2A0C9
330
747D
100
AcDbEntity
  8
寸法
 48
50.0
100
AcDbDimension
  2
*D37
 10
4533.600000000009
 20
8095.092309586497
 30
0.0
 11
4943.600000000009
 21
8195.104120610119
 31
0.0
 70
    32
 71
     5
 42
820.0
  3
INABA_S40G
100
AcDbAlignedDimension
 13
5353.600000000009
 23
6929.483492916251
 33
0.0
 14
4533.600000000009
 24
6929.483492916251
 34
0.0
100
AcDbRotatedDimension
1001
ACAD
1000
DSTYLE
1002
{
1070
   341
1005
0
1002
}
  0
DIMENSION
  5
2A0CA
330
747D
100
AcDbEntity
  8
寸法
 48
50.0
100
AcDbDimension
  2
*D38
 10
6173.60000000001
 20
8095.092309586497
 30
0.0
 11
6583.60000000001
 21
8195.104120610119
 31
0.0
 70
    32
 71
     5
 42
820.0000000000009
  3
INABA_S40G
100
AcDbAlignedDimension
 13
6993.600000000011
 23
6929.483492916251
 33
0.0
 14
6173.60000000001
 24
6929.483492916251
 34
0.0
100
AcDbRotatedDimension
1001
ACAD
1000
DSTYLE
1002
{
1070
   341
1005
0
1002
}
  0
DIMENSION
  5
2A0CB
330
747D
100
AcDbEntity
  8
寸法
 48
50.0
100
AcDbDimension
  2
*D39
 10
3085.665006330074
 20
6270.483492916254
 30
0.0
 11
3085.665006330073
 21
6879.98349291625
 31
0.0
 70
   160
 71
     5
 42
1218.999999999996
  3
INABA_S40G
100
AcDbAlignedDimension
 13
3781.600000000003
 23
7489.483492916249
 33
0.0
 14
3781.60000000001
 24
6270.483492916254
 34
0.0
 50
90.0
100
AcDbRotatedDimension
1001
ACAD
1000
DSTYLE
1002
{
1070
   341
1005
0
1002
}
  0
LINE
  5
2A0CD
330
747D
100
AcDbEntity
  8
部品1
 48
50.0
100
AcDbLine
 10
3708.600000000002
 20
6072.48349291625
 30
0.0
 11
3708.600000000002
 21
7612.483492916251
 31
0.0
  0
DIMENSION
  5
2A0CE
330
747D
100
AcDbEntity
  8
寸法
 48
50.0
100
AcDbDimension
  2
*D40
 10
2833.721909610676
 20
6072.48349291625
 30
0.0
 11
2833.721909610675
 21
6879.98349291625
 31
0.0
 70
   160
 71
     5
 42
1540.0
  3
INABA_S40G
100
AcDbAlignedDimension
 13
3708.600000000002
 23
7612.483492916251
 33
0.0
 14
3708.600000000002
 24
6072.48349291625
 34
0.0
 50
90.0
100
AcDbRotatedDimension
1001
ACAD
1000
DSTYLE
1002
{
1070
   341
1005
0
1002
}
  0
DIMENSION
  5
2A0D0
330
747D
100
AcDbEntity
  8
寸法
 48
50.0
100
AcDbDimension
  2
*D41
 10
5726.819725318591
 20
6072.483492916248
 30
0.0
 11
5726.819725318591
 21
5785.519910239074
 31
0.0
 70
   160
 71
     5
 42
280.0000000000073
  3
INABA_S40G
100
AcDbAlignedDimension
 13
5881.108524801148
 23
6352.483492916255
 33
0.0
 14
5863.788016725466
 24
6072.483492916248
 34
0.0
 50
90.0
100
AcDbRotatedDimension
1001
ACAD
1000
DSTYLE
1002
{
1070
   341
1005
0
1002
}
  0
DIMENSION
  5
2A0D1
330
747D
100
AcDbEntity
  8
寸法
 48
50.0
100
AcDbDimension
  2
*D42
 10
3595.512673767881
 20
5352.483492916246
 30
0.0
 11
3595.51267376788
 21
5712.483492916248
 31
0.0
 70
   160
  1
扉の出<>
 71
     5
 42
720.0
  3
INABA_S40G
100
AcDbAlignedDimension
 13
3708.600000000002
 23
6072.483492916246
 33
0.0
 14
4064.325326928807
 24
5352.483492916246
 34
0.0
 50
90.0
100
AcDbRotatedDimension
1001
ACAD
1000
DSTYLE
1002
{
1070
   341
1005
0
1002
}
  0
DIMENSION
  5
2A0D3
330
747D
100
AcDbEntity
  8
寸法
 48
50.0
100
AcDbDimension
  2
*D43
 10
3085.665006330074
 20
6072.48349291625
 30
0.0
 11
3085.665006330073
 21
5736.952544073658
 31
0.0
 70
   160
 71
     5
 42
198.0000000000036
  3
INABA_S40G
100
AcDbAlignedDimension
 13
3781.60000000001
 23
6270.483492916254
 33
0.0
 14
3708.600000000002
 24
6072.48349291625
 34
0.0
 50
90.0
100
AcDbRotatedDimension
1001
ACAD
1000
DSTYLE
1002
{
1070
   341
1005
0
1002
}
  0
LINE
  5
2A0D4
330
747D
100
AcDbEntity
  8
想像線
 48
5.0
100
AcDbLine
 10
4478.600000000002
 20
6072.483492916265
 30
0.0
 11
4478.600000000002
 21
5352.483492916253
 31
0.0
  0
ARC
  5
2A0D5
330
747D
100
AcDbEntity
  8
想像線
 48
5.0
100
AcDbCircle
 10
4478.600000000002
 20
6072.483492916253
 30
0.0
 40
720.0
100
AcDbArc
 50
180.0
 51
270.0
  0
DIMENSION
  5
2A0D6
330
747D
100
AcDbEntity
  8
寸法
 48
50.0
100
AcDbDimension
  2
*D44
 10
4222.442995307157
 20
6879.48349291625
 30
0.0
 11
4222.442995307155
 21
6557.483492916251
 31
0.0
 70
   160
 71
     5
 42
806.999999999989
  3
INABA_S40G
100
AcDbAlignedDimension
 13
4152.765475140903
 23
6072.483492916261
 33
0.0
 14
4483.600000000009
 24
6879.48349291625
 34
0.0
 50
90.0
100
AcDbRotatedDimension
1001
ACAD
1000
DSTYLE
1002
{
1070
   341
1005
0
1002
}
  0
LINE
  5
2A0D7
330
747D
100
AcDbEntity
  8
センター
 48
2.0
100
AcDbLine
 10
3831.60000000001
 20
6320.483492916253
 30
0.0
 11
3831.60000000001
 21
6220.483492916254
 31
0.0
  0
LINE
  5
2A0D8
330
747D
100
AcDbEntity
  8
センター
 48
2.0
100
AcDbLine
 10
3781.60000000001
 20
6270.483492916254
 30
0.0
 11
3881.600000000009
 21
6270.483492916254
 31
0.0
  0
CIRCLE
  5
2A0D9
330
747D
100
AcDbEntity
  8
部品1
 48
50.0
100
AcDbCircle
 10
3831.599999999995
 20
6270.483492916254
 30
0.0
 40
35.0
  0
LINE
  5
2A0DA
330
747D
100
AcDbEntity
  8
細線
 48
50.0
100
AcDbLine
 10
4023.788016725466
 20
6116.284250388519
 30
0.0
 11
4223.788016725462
 21
6316.284250388513
 31
0.0
  0
LINE
  5
2A0DB
330
747D
100
AcDbEntity
  8
部品1
 48
50.0
100
AcDbLine
 10
4023.788016725462
 20
6352.483492916247
 30
0.0
 11
4023.788016725466
 21
6072.483492916244
 31
0.0
  0
LINE
  5
2A0DC
330
747D
100
AcDbEntity
  8
部品1
 48
50.0
100
AcDbLine
 10
4223.788016725459
 20
6352.483492916247
 30
0.0
 11
4223.788016725467
 21
6072.483492916248
 31
0.0
  0
LINE
  5
2A0DD
330
747D
100
AcDbEntity
  8
細線
 48
50.0
100
AcDbLine
 10
4114.691101069231
 20
6072.483492916246
 30
0.0
 11
4223.788016725462
 21
6181.580408572479
 31
0.0
  0
LINE
  5
2A0DE
330
747D
100
AcDbEntity
  8
細線
 48
50.0
100
AcDbLine
 10
4159.592381674578
 20
6072.483492916248
 30
0.0
 11
4223.788016725467
 21
6136.679127967134
 31
0.0
  0
LINE
  5
2A0DF
330
747D
100
AcDbEntity
  8
細線
 48
50.0
100
AcDbLine
 10
4069.789820463884
 20
6072.483492916246
 30
0.0
 11
4223.788016725462
 21
6226.481689177823
 31
0.0
  0
LINE
  5
2A0E0
330
747D
100
AcDbEntity
  8
細線
 48
50.0
100
AcDbLine
 10
4024.888539858537
 20
6072.483492916246
 30
0.0
 11
4223.788016725462
 21
6271.38296978317
 31
0.0
  0
LINE
  5
2A0E1
330
747D
100
AcDbEntity
  8
細線
 48
50.0
100
AcDbLine
 10
4204.493662279925
 20
6072.48349291625
 30
0.0
 11
4223.788016725467
 21
6091.77784736179
 31
0.0
  0
LINE
  5
2A0E2
330
747D
100
AcDbEntity
  8
細線
 48
50.0
100
AcDbLine
 10
4023.788016725462
 20
6206.086811599207
 30
0.0
 11
4170.184698042501
 21
6352.483492916248
 31
0.0
  0
LINE
  5
2A0E3
330
747D
100
AcDbEntity
  8
細線
 48
50.0
100
AcDbLine
 10
4023.788016725462
 20
6161.185530993861
 30
0.0
 11
4215.085978647848
 21
6352.483492916246
 31
0.0
  0
LINE
  5
2A0E4
330
747D
100
AcDbEntity
  8
細線
 48
50.0
100
AcDbLine
 10
4023.788016725462
 20
6295.889372809898
 30
0.0
 11
4080.382136831809
 21
6352.483492916248
 31
0.0
  0
LINE
  5
2A0E5
330
747D
100
AcDbEntity
  8
細線
 48
50.0
100
AcDbLine
 10
4023.788016725462
 20
6250.988092204552
 30
0.0
 11
4125.283417437151
 21
6352.483492916248
 31
0.0
  0
LINE
  5
2A0E6
330
747D
100
AcDbEntity
  8
細線
 48
50.0
100
AcDbLine
 10
3711.280033447558
 20
6767.483492916259
 30
0.0
 11
3828.599999999998
 21
6884.803459468702
 31
0.0
  0
LINE
  5
2A0E7
330
747D
100
AcDbEntity
  8
細線
 48
50.0
100
AcDbLine
 10
3708.599999999995
 20
6809.704740074045
 30
0.0
 11
3828.599999999998
 21
6929.704740074043
 31
0.0
  0
LINE
  5
2A0E8
330
747D
100
AcDbEntity
  8
細線
 48
50.0
100
AcDbLine
 10
3708.599999999999
 20
6854.606020679392
 30
0.0
 11
3821.477472236862
 21
6967.483492916258
 31
0.0
  0
LINE
  5
2A0E9
330
747D
100
AcDbEntity
  8
細線
 48
50.0
100
AcDbLine
 10
3708.599999999995
 20
6899.507301284737
 30
0.0
 11
3776.576191631517
 21
6967.483492916257
 31
0.0
  0
LINE
  5
2A0EA
330
747D
100
AcDbEntity
  8
細線
 48
50.0
100
AcDbLine
 10
3708.599999999995
 20
6944.408581890082
 30
0.0
 11
3731.674911026174
 21
6967.483492916258
 31
0.0
  0
LINE
  5
2A0EB
330
747D
100
AcDbEntity
  8
部品1
 48
50.0
100
AcDbLine
 10
3828.599999999998
 20
6967.483492916258
 30
0.0
 11
3708.599999999995
 21
6967.483492916258
 31
0.0
  0
LINE
  5
2A0EC
330
747D
100
AcDbEntity
  8
部品1
 48
50.0
100
AcDbLine
 10
3828.6
 20
6767.483492916259
 30
0.0
 11
3708.599999999995
 21
6767.483492916259
 31
0.0
  0
LINE
  5
2A0ED
330
747D
100
AcDbEntity
  8
細線
 48
50.0
100
AcDbLine
 10
3801.082594658245
 20
6767.483492916257
 30
0.0
 11
3828.6
 21
6795.000898257999
 31
0.0
  0
LINE
  5
2A0EE
330
747D
100
AcDbEntity
  8
細線
 48
50.0
100
AcDbLine
 10
3756.181314052901
 20
6767.483492916259
 30
0.0
 11
3828.599999999999
 21
6839.902178863359
 31
0.0
  0
LINE
  5
2A0FB
330
747D
100
AcDbEntity
  8
センター
 48
2.0
100
AcDbLine
 10
4483.600000000009
 20
6879.48349291625
 30
0.0
 11
4583.60000000001
 21
6879.48349291625
 31
0.0
  0
LINE
  5
2A0FC
330
747D
100
AcDbEntity
  8
部品1
 48
50.0
100
AcDbLine
 10
4633.60000000001
 20
6979.483492916251
 30
0.0
 11
4433.600000000009
 21
6979.483492916251
 31
0.0
  0
LINE
  5
2A0FD
330
747D
100
AcDbEntity
  8
部品1
 48
50.0
100
AcDbLine
 10
4633.60000000001
 20
6779.48349291625
 30
0.0
 11
4433.600000000009
 21
6779.48349291625
 31
0.0
  0
LINE
  5
2A0FE
330
747D
100
AcDbEntity
  8
センター
 48
2.0
100
AcDbLine
 10
4533.600000000009
 20
6929.483492916251
 30
0.0
 11
4533.600000000009
 21
6829.48349291625
 31
0.0
  0
LINE
  5
2A0FF
330
747D
100
AcDbEntity
  8
部品1
 48
50.0
100
AcDbLine
 10
4433.600000000009
 20
6779.48349291625
 30
0.0
 11
4433.600000000009
 21
6979.483492916251
 31
0.0
  0
LINE
  5
2A100
330
747D
100
AcDbEntity
  8
部品1
 48
50.0
100
AcDbLine
 10
4633.60000000001
 20
6779.48349291625
 30
0.0
 11
4633.60000000001
 21
6979.483492916251
 31
0.0
  0
LINE
  5
2A10D
330
747D
100
AcDbEntity
  8
センター
 48
2.0
100
AcDbLine
 10
5303.60000000001
 20
6879.48349291625
 30
0.0
 11
5403.600000000009
 21
6879.48349291625
 31
0.0
  0
LINE
  5
2A10E
330
747D
100
AcDbEntity
  8
部品1
 48
50.0
100
AcDbLine
 10
5453.600000000009
 20
6979.483492916251
 30
0.0
 11
5253.600000000009
 21
6979.483492916251
 31
0.0
  0
LINE
  5
2A10F
330
747D
100
AcDbEntity
  8
部品1
 48
50.0
100
AcDbLine
 10
5453.600000000009
 20
6779.48349291625
 30
0.0
 11
5253.600000000009
 21
6779.48349291625
 31
0.0
  0
LINE
  5
2A110
330
747D
100
AcDbEntity
  8
センター
 48
2.0
100
AcDbLine
 10
5353.600000000009
 20
6929.483492916251
 30
0.0
 11
5353.600000000009
 21
6829.48349291625
 31
0.0
  0
LINE
  5
2A111
330
747D
100
AcDbEntity
  8
部品1
 48
50.0
100
AcDbLine
 10
5253.600000000009
 20
6779.48349291625
 30
0.0
 11
5253.600000000009
 21
6979.483492916251
 31
0.0
  0
LINE
  5
2A112
330
747D
100
AcDbEntity
  8
部品1
 48
50.0
100
AcDbLine
 10
5453.600000000009
 20
6779.48349291625
 30
0.0
 11
5453.600000000009
 21
6979.483492916251
 31
0.0
  0
LINE
  5
2A113
330
747D
100
AcDbEntity
  8
センター
 48
2.0
100
AcDbLine
 10
6055.600000000009
 20
6320.483492916253
 30
0.0
 11
6055.600000000009
 21
6220.483492916254
 31
0.0
  0
LINE
  5
2A114
330
747D
100
AcDbEntity
  8
センター
 48
2.0
100
AcDbLine
 10
6005.60000000001
 20
6270.483492916254
 30
0.0
 11
6105.600000000009
 21
6270.483492916254
 31
0.0
  0
CIRCLE
  5
2A115
330
747D
100
AcDbEntity
  8
部品1
 48
50.0
100
AcDbCircle
 10
6055.600000000009
 20
6270.483492916254
 30
0.0
 40
35.0
  0
LINE
  5
2A122
330
747D
100
AcDbEntity
  8
部品1
 48
50.0
100
AcDbLine
 10
6273.600000000009
 20
6979.483492916251
 30
0.0
 11
6073.600000000009
 21
6979.483492916251
 31
0.0
  0
LINE
  5
2A123
330
747D
100
AcDbEntity
  8
センター
 48
2.0
100
AcDbLine
 10
6123.60000000001
 20
6879.48349291625
 30
0.0
 11
6223.60000000001
 21
6879.48349291625
 31
0.0
  0
LINE
  5
2A124
330
747D
100
AcDbEntity
  8
部品1
 48
50.0
100
AcDbLine
 10
6273.600000000009
 20
6779.48349291625
 30
0.0
 11
6073.600000000009
 21
6779.48349291625
 31
0.0
  0
LINE
  5
2A125
330
747D
100
AcDbEntity
  8
センター
 48
2.0
100
AcDbLine
 10
6173.60000000001
 20
6929.483492916251
 30
0.0
 11
6173.60000000001
 21
6829.48349291625
 31
0.0
  0
LINE
  5
2A126
330
747D
100
AcDbEntity
  8
部品1
 48
50.0
100
AcDbLine
 10
6073.600000000009
 20
6779.48349291625
 30
0.0
 11
6073.600000000009
 21
6979.483492916251
 31
0.0
  0
LINE
  5
2A127
330
747D
100
AcDbEntity
  8
部品1
 48
50.0
100
AcDbLine
 10
6273.600000000009
 20
6779.48349291625
 30
0.0
 11
6273.600000000009
 21
6979.483492916251
 31
0.0
  0
LINE
  5
2A134
330
747D
100
AcDbEntity
  8
センター
 48
2.0
100
AcDbLine
 10
6943.60000000001
 20
6879.48349291625
 30
0.0
 11
7043.600000000011
 21
6879.48349291625
 31
0.0
  0
LINE
  5
2A135
330
747D
100
AcDbEntity
  8
部品1
 48
50.0
100
AcDbLine
 10
7093.600000000011
 20
6979.483492916251
 30
0.0
 11
6893.60000000001
 21
6979.483492916251
 31
0.0
  0
LINE
  5
2A136
330
747D
100
AcDbEntity
  8
部品1
 48
50.0
100
AcDbLine
 10
7093.600000000011
 20
6779.48349291625
 30
0.0
 11
6893.60000000001
 21
6779.48349291625
 31
0.0
  0
LINE
  5
2A137
330
747D
100
AcDbEntity
  8
センター
 48
2.0
100
AcDbLine
 10
6993.600000000011
 20
6929.483492916251
 30
0.0
 11
6993.600000000011
 21
6829.48349291625
 31
0.0
  0
LINE
  5
2A138
330
747D
100
AcDbEntity
  8
部品1
 48
50.0
100
AcDbLine
 10
6893.60000000001
 20
6779.48349291625
 30
0.0
 11
6893.60000000001
 21
6979.483492916251
 31
0.0
  0
LINE
  5
2A139
330
747D
100
AcDbEntity
  8
部品1
 48
50.0
100
AcDbLine
 10
7093.600000000011
 20
6779.48349291625
 30
0.0
 11
7093.600000000011
 21
6979.483492916251
 31
0.0
  0
CIRCLE
  5
2A13A
330
747D
100
AcDbEntity
  8
部品1
 48
50.0
100
AcDbCircle
 10
7695.600000000003
 20
6270.483492916254
 30
0.0
 40
35.0
  0
LINE
  5
2A13B
330
747D
100
AcDbEntity
  8
センター
 48
2.0
100
AcDbLine
 10
7645.600000000003
 20
6270.483492916254
 30
0.0
 11
7745.600000000003
 21
6270.483492916254
 31
0.0
  0
LINE
  5
2A13C
330
747D
100
AcDbEntity
  8
センター
 48
2.0
100
AcDbLine
 10
7695.600000000003
 20
6320.483492916253
 30
0.0
 11
7695.600000000003
 21
6220.483492916254
 31
0.0
  0
LINE
  5
2A149
330
747D
100
AcDbEntity
  8
部品1
 48
50.0
100
AcDbLine
 10
7913.600000000011
 20
6979.483492916251
 30
0.0
 11
7713.600000000011
 21
6979.483492916251
 31
0.0
  0
LINE
  5
2A14A
330
747D
100
AcDbEntity
  8
センター
 48
2.0
100
AcDbLine
 10
7763.60000000001
 20
6879.48349291625
 30
0.0
 11
7863.600000000011
 21
6879.48349291625
 31
0.0
  0
LINE
  5
2A14B
330
747D
100
AcDbEntity
  8
部品1
 48
50.0
100
AcDbLine
 10
7913.600000000011
 20
6779.48349291625
 30
0.0
 11
7713.600000000011
 21
6779.48349291625
 31
0.0
  0
LINE
  5
2A14C
330
747D
100
AcDbEntity
  8
センター
 48
2.0
100
AcDbLine
 10
7813.600000000011
 20
6929.483492916251
 30
0.0
 11
7813.600000000011
 21
6829.48349291625
 31
0.0
  0
LINE
  5
2A14D
330
747D
100
AcDbEntity
  8
部品1
 48
50.0
100
AcDbLine
 10
7713.600000000011
 20
6779.48349291625
 30
0.0
 11
7713.600000000011
 21
6979.483492916251
 31
0.0
  0
LINE
  5
2A14E
330
747D
100
AcDbEntity
  8
部品1
 48
50.0
100
AcDbLine
 10
7913.600000000011
 20
6779.48349291625
 30
0.0
 11
7913.600000000011
 21
6979.483492916251
 31
0.0
  0
DIMENSION
  5
2A14F
330
747D
100
AcDbEntity
  8
寸法
 48
50.0
100
AcDbDimension
  2
*D19
 10
3831.600000000003
 20
8338.749951010161
 30
0.0
 11
4943.600000000002
 21
8438.761762033783
 31
0.0
 70
    32
 71
     5
 42
2224.000000000001
  3
INABA_S40G
100
AcDbAlignedDimension
 13
6055.600000000003
 23
7539.48349291625
 33
0.0
 14
3831.600000000003
 24
7539.48349291625
 34
0.0
100
AcDbRotatedDimension
1001
ACAD
1000
DSTYLE
1002
{
1070
   341
1005
0
1002
}
  0
DIMENSION
  5
2A151
330
747D
100
AcDbEntity
  8
寸法
 48
50.0
100
AcDbDimension
  2
*D20
 10
3085.665006330075
 20
7489.483492916249
 30
0.0
 11
3085.665006330073
 21
7885.59009463405
 31
0.0
 70
   160
 71
     5
 42
123.0
  3
INABA_S40G
100
AcDbAlignedDimension
 13
3708.600000000002
 23
7612.483492916251
 33
0.0
 14
3781.600000000003
 24
7489.483492916249
 34
0.0
 50
90.0
100
AcDbRotatedDimension
1001
ACAD
1000
DSTYLE
1002
{
1070
   341
1005
0
1002
}
  0
DIMENSION
  5
2A152
330
747D
100
AcDbEntity
  8
寸法
 48
50.0
100
AcDbDimension
  2
*D21
 10
3708.600000000002
 20
8338.749951010161
 30
0.0
 11
3435.493398282201
 21
8338.749951010161
 31
0.0
 70
   160
 71
     5
 42
123.0
  3
INABA_S40G
100
AcDbAlignedDimension
 13
3831.600000000003
 23
7539.48349291625
 33
0.0
 14
3708.600000000002
 24
7612.483492916251
 34
0.0
100
AcDbRotatedDimension
1001
ACAD
1000
DSTYLE
1002
{
1070
   341
1005
0
1002
}
  0
LINE
  5
2A154
330
747D
100
AcDbEntity
  8
細線
 48
50.0
100
AcDbLine
 10
4023.600000000002
 20
7549.408581890091
 30
0.0
 11
4086.674911026158
 21
7612.483492916251
 31
0.0
  0
LINE
  5
2A155
330
747D
100
AcDbEntity
  8
部品1
 48
50.0
100
AcDbLine
 10
4223.599999999998
 20
7612.483492916251
 30
0.0
 11
4223.600000000006
 21
7412.48349291625
 31
0.0
  0
LINE
  5
2A156
330
747D
100
AcDbEntity
  8
部品1
 48
50.0
100
AcDbLine
 10
4023.599999999998
 20
7612.483492916251
 30
0.0
 11
4023.600000000006
 21
7412.48349291625
 31
0.0
  0
LINE
  5
2A157
330
747D
100
AcDbEntity
  8
細線
 48
50.0
100
AcDbLine
 10
4023.600000000002
 20
7414.704740074057
 30
0.0
 11
4221.378752842196
 21
7612.483492916247
 31
0.0
  0
LINE
  5
2A158
330
747D
100
AcDbEntity
  8
細線
 48
50.0
100
AcDbLine
 10
4023.600000000002
 20
7459.606020679399
 30
0.0
 11
4176.477472236849
 21
7612.483492916251
 31
0.0
  0
LINE
  5
2A159
330
747D
100
AcDbEntity
  8
細線
 48
50.0
100
AcDbLine
 10
4023.600000000002
 20
7504.507301284748
 30
0.0
 11
4131.576191631506
 21
7612.483492916251
 31
0.0
  0
LINE
  5
2A15A
330
747D
100
AcDbEntity
  8
センター
 48
2.0
100
AcDbLine
 10
3831.600000000003
 20
7539.48349291625
 30
0.0
 11
3831.600000000003
 21
7439.48349291625
 31
0.0
  0
LINE
  5
2A15B
330
747D
100
AcDbEntity
  8
センター
 48
2.0
100
AcDbLine
 10
3781.600000000003
 20
7489.483492916249
 30
0.0
 11
3881.600000000002
 21
7489.483492916249
 31
0.0
  0
CIRCLE
  5
2A15C
330
747D
100
AcDbEntity
  8
部品1
 48
50.0
100
AcDbCircle
 10
3831.600000000003
 20
7489.483492916249
 30
0.0
 40
35.0
  0
LINE
  5
2A15D
330
747D
100
AcDbEntity
  8
細線
 48
50.0
100
AcDbLine
 10
4111.181314052887
 20
7412.483492916248
 30
0.0
 11
4223.599999999998
 21
7524.902178863361
 31
0.0
  0
LINE
  5
2A15E
330
747D
100
AcDbEntity
  8
細線
 48
50.0
100
AcDbLine
 10
4066.280033447543
 20
7412.483492916248
 30
0.0
 11
4223.599999999998
 21
7569.803459468707
 31
0.0
  0
LINE
  5
2A15F
330
747D
100
AcDbEntity
  8
細線
 48
50.0
100
AcDbLine
 10
4200.98387526358
 20
7412.48349291625
 30
0.0
 11
4223.600000000006
 21
7435.099617652674
 31
0.0
  0
LINE
  5
2A160
330
747D
100
AcDbEntity
  8
細線
 48
50.0
100
AcDbLine
 10
4156.082594658237
 20
7412.483492916248
 30
0.0
 11
4223.600000000002
 21
7480.000898258015
 31
0.0
  0
LINE
  5
2A161
330
747D
100
AcDbEntity
  8
細線
 48
50.0
100
AcDbLine
 10
4023.599999999998
 20
7594.309862495435
 30
0.0
 11
4041.773630420816
 21
7612.483492916251
 31
0.0
  0
LINE
  5
2A162
330
747D
100
AcDbEntity
  8
細線
 48
50.0
100
AcDbLine
 10
4843.600000000002
 20
7549.408581890091
 30
0.0
 11
4906.674911026159
 21
7612.483492916251
 31
0.0
  0
LINE
  5
2A163
330
747D
100
AcDbEntity
  8
細線
 48
50.0
100
AcDbLine
 10
4843.600000000002
 20
7504.507301284748
 30
0.0
 11
4951.576191631506
 21
7612.483492916251
 31
0.0
  0
LINE
  5
2A164
330
747D
100
AcDbEntity
  8
細線
 48
50.0
100
AcDbLine
 10
4843.600000000002
 20
7459.606020679399
 30
0.0
 11
4996.47747223685
 21
7612.483492916251
 31
0.0
  0
LINE
  5
2A165
330
747D
100
AcDbEntity
  8
細線
 48
50.0
100
AcDbLine
 10
4843.600000000002
 20
7414.704740074057
 30
0.0
 11
5041.378752842192
 21
7612.483492916247
 31
0.0
  0
LINE
  5
2A166
330
747D
100
AcDbEntity
  8
部品1
 48
50.0
100
AcDbLine
 10
4843.599999999998
 20
7612.483492916251
 30
0.0
 11
4843.600000000005
 21
7412.48349291625
 31
0.0
  0
LINE
  5
2A167
330
747D
100
AcDbEntity
  8
部品1
 48
50.0
100
AcDbLine
 10
5043.599999999998
 20
7612.483492916251
 30
0.0
 11
5043.600000000002
 21
7412.48349291625
 31
0.0
  0
LINE
  5
2A168
330
747D
100
AcDbEntity
  8
細線
 48
50.0
100
AcDbLine
 10
4931.181314052885
 20
7412.483492916248
 30
0.0
 11
5043.599999999998
 21
7524.902178863361
 31
0.0
  0
LINE
  5
2A169
330
747D
100
AcDbEntity
  8
細線
 48
50.0
100
AcDbLine
 10
4886.280033447543
 20
7412.483492916248
 30
0.0
 11
5043.599999999998
 21
7569.803459468707
 31
0.0
  0
LINE
  5
2A16A
330
747D
100
AcDbEntity
  8
細線
 48
50.0
100
AcDbLine
 10
5020.98387526358
 20
7412.48349291625
 30
0.0
 11
5043.600000000002
 21
7435.099617652674
 31
0.0
  0
LINE
  5
2A16B
330
747D
100
AcDbEntity
  8
細線
 48
50.0
100
AcDbLine
 10
4976.082594658237
 20
7412.483492916248
 30
0.0
 11
5043.600000000002
 21
7480.000898258015
 31
0.0
  0
LINE
  5
2A16C
330
747D
100
AcDbEntity
  8
細線
 48
50.0
100
AcDbLine
 10
4843.599999999998
 20
7594.309862495435
 30
0.0
 11
4861.773630420816
 21
7612.483492916251
 31
0.0
  0
DIMENSION
  5
2A16D
330
747D
100
AcDbEntity
  8
寸法
 48
50.0
100
AcDbDimension
  2
*D22
 10
6055.600000000003
 20
8338.749951010161
 30
0.0
 11
6875.600000000003
 21
8438.74995101016
 31
0.0
 70
    32
 71
     5
 42
1640.0
  3
INABA_S40G
100
AcDbAlignedDimension
 13
7695.600000000003
 23
7539.48349291625
 33
0.0
 14
6055.600000000003
 24
7539.48349291625
 34
0.0
100
AcDbRotatedDimension
1001
ACAD
1000
DSTYLE
1002
{
1070
   341
1005
0
1002
}
  0
LINE
  5
2A16E
330
747D
100
AcDbEntity
  8
細線
 48
50.0
100
AcDbLine
 10
5663.599999999998
 20
7549.408581890091
 30
0.0
 11
5726.674911026159
 21
7612.483492916251
 31
0.0
  0
LINE
  5
2A16F
330
747D
100
AcDbEntity
  8
細線
 48
50.0
100
AcDbLine
 10
5663.600000000002
 20
7504.507301284748
 30
0.0
 11
5771.576191631506
 21
7612.483492916251
 31
0.0
  0
LINE
  5
2A170
330
747D
100
AcDbEntity
  8
細線
 48
50.0
100
AcDbLine
 10
5663.600000000002
 20
7459.606020679399
 30
0.0
 11
5816.477472236849
 21
7612.483492916251
 31
0.0
  0
LINE
  5
2A171
330
747D
100
AcDbEntity
  8
細線
 48
50.0
100
AcDbLine
 10
5663.600000000002
 20
7414.704740074057
 30
0.0
 11
5861.378752842193
 21
7612.483492916247
 31
0.0
  0
LINE
  5
2A172
330
747D
100
AcDbEntity
  8
部品1
 48
50.0
100
AcDbLine
 10
5663.599999999998
 20
7612.483492916251
 30
0.0
 11
5663.600000000002
 21
7412.48349291625
 31
0.0
  0
LINE
  5
2A173
330
747D
100
AcDbEntity
  8
部品1
 48
50.0
100
AcDbLine
 10
5863.599999999999
 20
7612.483492916251
 30
0.0
 11
5863.600000000002
 21
7412.48349291625
 31
0.0
  0
DIMENSION
  5
2A174
330
747D
100
AcDbEntity
  8
寸法
 48
50.0
100
AcDbDimension
  2
*D23
 10
5726.819725318591
 20
7412.483492916248
 30
0.0
 11
5726.819725318591
 21
7899.447075593386
 31
0.0
 70
   160
 71
     5
 42
199.9999999999709
  3
INABA_S40G
100
AcDbAlignedDimension
 13
5700.854682011651
 23
7612.483492916219
 33
0.0
 14
5700.85468201165
 24
7412.483492916248
 34
0.0
 50
90.0
100
AcDbRotatedDimension
1001
ACAD
1000
DSTYLE
1002
{
1070
   341
1005
0
1002
}
  0
LINE
  5
2A175
330
747D
100
AcDbEntity
  8
細線
 48
50.0
100
AcDbLine
 10
5751.181314052883
 20
7412.483492916248
 30
0.0
 11
5863.599999999999
 21
7524.902178863361
 31
0.0
  0
LINE
  5
2A176
330
747D
100
AcDbEntity
  8
細線
 48
50.0
100
AcDbLine
 10
5706.28003344754
 20
7412.483492916248
 30
0.0
 11
5863.599999999999
 21
7569.803459468707
 31
0.0
  0
LINE
  5
2A177
330
747D
100
AcDbEntity
  8
細線
 48
50.0
100
AcDbLine
 10
5840.983875263581
 20
7412.48349291625
 30
0.0
 11
5863.600000000002
 21
7435.099617652674
 31
0.0
  0
LINE
  5
2A178
330
747D
100
AcDbEntity
  8
細線
 48
50.0
100
AcDbLine
 10
5796.082594658237
 20
7412.483492916248
 30
0.0
 11
5863.600000000002
 21
7480.000898258015
 31
0.0
  0
LINE
  5
2A179
330
747D
100
AcDbEntity
  8
細線
 48
50.0
100
AcDbLine
 10
5663.599999999998
 20
7594.309862495435
 30
0.0
 11
5681.773630420815
 21
7612.483492916251
 31
0.0
  0
LINE
  5
2A17A
330
747D
100
AcDbEntity
  8
細線
 48
50.0
100
AcDbLine
 10
6483.599999999999
 20
7549.408581890091
 30
0.0
 11
6546.674911026158
 21
7612.483492916251
 31
0.0
  0
LINE
  5
2A17B
330
747D
100
AcDbEntity
  8
部品1
 48
50.0
100
AcDbLine
 10
6683.599999999998
 20
7612.483492916251
 30
0.0
 11
6683.600000000002
 21
7412.48349291625
 31
0.0
  0
LINE
  5
2A17C
330
747D
100
AcDbEntity
  8
部品1
 48
50.0
100
AcDbLine
 10
6483.599999999999
 20
7612.483492916251
 30
0.0
 11
6483.600000000002
 21
7412.48349291625
 31
0.0
  0
LINE
  5
2A17D
330
747D
100
AcDbEntity
  8
細線
 48
50.0
100
AcDbLine
 10
6483.600000000002
 20
7414.704740074057
 30
0.0
 11
6681.378752842192
 21
7612.483492916247
 31
0.0
  0
LINE
  5
2A17E
330
747D
100
AcDbEntity
  8
細線
 48
50.0
100
AcDbLine
 10
6483.600000000002
 20
7459.606020679399
 30
0.0
 11
6636.477472236849
 21
7612.483492916251
 31
0.0
  0
LINE
  5
2A17F
330
747D
100
AcDbEntity
  8
細線
 48
50.0
100
AcDbLine
 10
6483.600000000002
 20
7504.507301284748
 30
0.0
 11
6591.576191631506
 21
7612.483492916251
 31
0.0
  0
LINE
  5
2A180
330
747D
100
AcDbEntity
  8
センター
 48
2.0
100
AcDbLine
 10
6055.600000000002
 20
7539.48349291625
 30
0.0
 11
6055.600000000002
 21
7439.48349291625
 31
0.0
  0
CIRCLE
  5
2A181
330
747D
100
AcDbEntity
  8
部品1
 48
50.0
100
AcDbCircle
 10
6055.600000000002
 20
7489.483492916249
 30
0.0
 40
35.0
  0
LINE
  5
2A182
330
747D
100
AcDbEntity
  8
センター
 48
2.0
100
AcDbLine
 10
6005.600000000002
 20
7489.483492916249
 30
0.0
 11
6105.600000000002
 21
7489.483492916249
 31
0.0
  0
LINE
  5
2A183
330
747D
100
AcDbEntity
  8
細線
 48
50.0
100
AcDbLine
 10
6571.181314052883
 20
7412.483492916248
 30
0.0
 11
6683.599999999998
 21
7524.902178863361
 31
0.0
  0
LINE
  5
2A184
330
747D
100
AcDbEntity
  8
細線
 48
50.0
100
AcDbLine
 10
6526.28003344754
 20
7412.483492916248
 30
0.0
 11
6683.599999999998
 21
7569.803459468707
 31
0.0
  0
LINE
  5
2A185
330
747D
100
AcDbEntity
  8
細線
 48
50.0
100
AcDbLine
 10
6660.983875263581
 20
7412.48349291625
 30
0.0
 11
6683.600000000002
 21
7435.099617652674
 31
0.0
  0
LINE
  5
2A186
330
747D
100
AcDbEntity
  8
細線
 48
50.0
100
AcDbLine
 10
6616.082594658237
 20
7412.483492916248
 30
0.0
 11
6683.600000000002
 21
7480.000898258015
 31
0.0
  0
LINE
  5
2A187
330
747D
100
AcDbEntity
  8
細線
 48
50.0
100
AcDbLine
 10
6483.599999999999
 20
7594.309862495435
 30
0.0
 11
6501.773630420816
 21
7612.483492916251
 31
0.0
  0
LINE
  5
2A188
330
747D
100
AcDbEntity
  8
細線
 48
50.0
100
AcDbLine
 10
7303.6
 20
7549.408581890091
 30
0.0
 11
7366.67491102616
 21
7612.483492916251
 31
0.0
  0
LINE
  5
2A189
330
747D
100
AcDbEntity
  8
細線
 48
50.0
100
AcDbLine
 10
7303.600000000002
 20
7504.507301284748
 30
0.0
 11
7411.576191631505
 21
7612.483492916251
 31
0.0
  0
LINE
  5
2A18A
330
747D
100
AcDbEntity
  8
細線
 48
50.0
100
AcDbLine
 10
7303.600000000002
 20
7459.606020679399
 30
0.0
 11
7456.47747223685
 21
7612.483492916251
 31
0.0
  0
LINE
  5
2A18B
330
747D
100
AcDbEntity
  8
細線
 48
50.0
100
AcDbLine
 10
7303.600000000002
 20
7414.704740074057
 30
0.0
 11
7501.378752842194
 21
7612.483492916247
 31
0.0
  0
LINE
  5
2A18C
330
747D
100
AcDbEntity
  8
部品1
 48
50.0
100
AcDbLine
 10
7303.6
 20
7612.483492916251
 30
0.0
 11
7303.600000000002
 21
7412.48349291625
 31
0.0
  0
LINE
  5
2A18D
330
747D
100
AcDbEntity
  8
部品1
 48
50.0
100
AcDbLine
 10
7503.6
 20
7612.483492916251
 30
0.0
 11
7503.600000000003
 21
7412.48349291625
 31
0.0
  0
LINE
  5
2A18E
330
747D
100
AcDbEntity
  8
細線
 48
50.0
100
AcDbLine
 10
7391.181314052883
 20
7412.483492916248
 30
0.0
 11
7503.6
 21
7524.902178863361
 31
0.0
  0
LINE
  5
2A18F
330
747D
100
AcDbEntity
  8
細線
 48
50.0
100
AcDbLine
 10
7346.28003344754
 20
7412.483492916248
 30
0.0
 11
7503.6
 21
7569.803459468707
 31
0.0
  0
LINE
  5
2A190
330
747D
100
AcDbEntity
  8
細線
 48
50.0
100
AcDbLine
 10
7480.983875263579
 20
7412.48349291625
 30
0.0
 11
7503.600000000003
 21
7435.099617652674
 31
0.0
  0
LINE
  5
2A191
330
747D
100
AcDbEntity
  8
細線
 48
50.0
100
AcDbLine
 10
7436.082594658237
 20
7412.483492916248
 30
0.0
 11
7503.600000000003
 21
7480.000898258015
 31
0.0
  0
LINE
  5
2A192
330
747D
100
AcDbEntity
  8
細線
 48
50.0
100
AcDbLine
 10
7303.6
 20
7594.309862495435
 30
0.0
 11
7321.773630420814
 21
7612.483492916251
 31
0.0
  0
LINE
  5
2A193
330
747D
100
AcDbEntity
  8
細線
 48
50.0
100
AcDbLine
 10
8123.599999999999
 20
7549.408581890091
 30
0.0
 11
8186.674911026159
 21
7612.483492916251
 31
0.0
  0
LINE
  5
2A194
330
747D
100
AcDbEntity
  8
細線
 48
50.0
100
AcDbLine
 10
8123.600000000003
 20
7504.507301284748
 30
0.0
 11
8231.576191631505
 21
7612.483492916251
 31
0.0
  0
LINE
  5
2A195
330
747D
100
AcDbEntity
  8
細線
 48
50.0
100
AcDbLine
 10
8123.600000000001
 20
7459.606020679399
 30
0.0
 11
8276.47747223685
 21
7612.483492916251
 31
0.0
  0
LINE
  5
2A196
330
747D
100
AcDbEntity
  8
細線
 48
50.0
100
AcDbLine
 10
8123.600000000003
 20
7414.704740074057
 30
0.0
 11
8321.378752842193
 21
7612.483492916247
 31
0.0
  0
LINE
  5
2A197
330
747D
100
AcDbEntity
  8
部品1
 48
50.0
100
AcDbLine
 10
8123.599999999999
 20
7612.483492916251
 30
0.0
 11
8123.600000000003
 21
7412.48349291625
 31
0.0
  0
LINE
  5
2A198
330
747D
100
AcDbEntity
  8
部品1
 48
50.0
100
AcDbLine
 10
8323.599999999998
 20
7612.483492916251
 30
0.0
 11
8323.600000000002
 21
7412.48349291625
 31
0.0
  0
LINE
  5
2A199
330
747D
100
AcDbEntity
  8
センター
 48
2.0
100
AcDbLine
 10
7695.600000000003
 20
7539.48349291625
 30
0.0
 11
7695.600000000003
 21
7439.48349291625
 31
0.0
  0
CIRCLE
  5
2A19A
330
747D
100
AcDbEntity
  8
部品1
 48
50.0
100
AcDbCircle
 10
7695.600000000003
 20
7489.483492916249
 30
0.0
 40
35.0
  0
LINE
  5
2A19B
330
747D
100
AcDbEntity
  8
センター
 48
2.0
100
AcDbLine
 10
7645.600000000003
 20
7489.483492916249
 30
0.0
 11
7745.600000000003
 21
7489.483492916249
 31
0.0
  0
LINE
  5
2A19C
330
747D
100
AcDbEntity
  8
細線
 48
50.0
100
AcDbLine
 10
8211.181314052884
 20
7412.483492916248
 30
0.0
 11
8323.599999999998
 21
7524.902178863361
 31
0.0
  0
LINE
  5
2A19D
330
747D
100
AcDbEntity
  8
細線
 48
50.0
100
AcDbLine
 10
8166.28003344754
 20
7412.483492916248
 30
0.0
 11
8323.599999999998
 21
7569.803459468707
 31
0.0
  0
LINE
  5
2A19E
330
747D
100
AcDbEntity
  8
細線
 48
50.0
100
AcDbLine
 10
8300.983875263581
 20
7412.48349291625
 30
0.0
 11
8323.600000000002
 21
7435.099617652674
 31
0.0
  0
LINE
  5
2A19F
330
747D
100
AcDbEntity
  8
細線
 48
50.0
100
AcDbLine
 10
8256.082594658236
 20
7412.483492916248
 30
0.0
 11
8323.600000000002
 21
7480.000898258015
 31
0.0
  0
LINE
  5
2A1A0
330
747D
100
AcDbEntity
  8
細線
 48
50.0
100
AcDbLine
 10
8123.599999999999
 20
7594.309862495435
 30
0.0
 11
8141.773630420814
 21
7612.483492916251
 31
0.0
  0
LINE
  5
2A1A1
330
747D
100
AcDbEntity
  8
寸法
 48
50.0
100
AcDbLine
 10
7695.600000000007
 20
8338.749951010161
 30
0.0
 11
8395.644554822077
 21
8338.749951010161
 31
0.0
  0
DIMENSION
  5
2A1A5
330
747D
100
AcDbEntity
  8
寸法
 48
50.0
100
AcDbDimension
  2
*D24
 10
11913.6
 20
8095.092309586497
 30
0.0
 11
12326.1
 21
8195.104120610119
 31
0.0
 70
    32
 71
     5
 42
824.9999999999964
  3
INABA_S40G
100
AcDbAlignedDimension
 13
12738.6
 23
7612.483492916251
 33
0.0
 14
11913.6
 24
6929.483492916251
 34
0.0
100
AcDbRotatedDimension
1001
ACAD
1000
DSTYLE
1002
{
1070
   341
1005
0
1002
}
  0
DIMENSION
  5
2A1A6
330
747D
100
AcDbEntity
  8
寸法
 48
50.0
100
AcDbDimension
  2
*D25
 10
10273.6
 20
8095.092309586497
 30
0.0
 11
10683.6
 21
8195.104120610119
 31
0.0
 70
    32
 71
     5
 42
820.0
  3
INABA_S40G
100
AcDbAlignedDimension
 13
11093.6
 23
6929.483492916251
 33
0.0
 14
10273.6
 24
6929.483492916251
 34
0.0
100
AcDbRotatedDimension
1001
ACAD
1000
DSTYLE
1002
{
1070
   341
1005
0
1002
}
  0
DIMENSION
  5
2A1A7
330
747D
100
AcDbEntity
  8
寸法
 48
50.0
100
AcDbDimension
  2
*D26
 10
11093.6
 20
8095.092309586497
 30
0.0
 11
11503.6
 21
8195.104120610119
 31
0.0
 70
    32
 71
     5
 42
820.0
  3
INABA_S40G
100
AcDbAlignedDimension
 13
11913.6
 23
6929.483492916251
 33
0.0
 14
11093.6
 24
6929.483492916251
 34
0.0
100
AcDbRotatedDimension
1001
ACAD
1000
DSTYLE
1002
{
1070
   341
1005
0
1002
}
  0
LINE
  5
2A1A8
330
747D
100
AcDbEntity
  8
部品1
 48
50.0
100
AcDbLine
 10
12738.6
 20
6072.483492916268
 30
0.0
 11
12738.6
 21
7612.483492916251
 31
0.0
  0
DIMENSION
  5
2A1AA
330
747D
100
AcDbEntity
  8
寸法
 48
50.0
100
AcDbDimension
  2
*D27
 10
9453.60000000001
 20
8095.092309586497
 30
0.0
 11
9863.600000000007
 21
8195.104120610119
 31
0.0
 70
    32
 71
     5
 42
819.9999999999928
  3
INABA_S40G
100
AcDbAlignedDimension
 13
10273.6
 23
6929.483492916251
 33
0.0
 14
9453.60000000001
 24
6929.483492916251
 34
0.0
100
AcDbRotatedDimension
1001
ACAD
1000
DSTYLE
1002
{
1070
   341
1005
0
1002
}
  0
LINE
  5
2A1B2
102
{ACAD_REACTORS
330
2B960
102
}
330
747D
100
AcDbEntity
  8
部品1
 48
50.0
100
AcDbLine
 10
9143.788016725457
 20
6352.483492916268
 30
0.0
 11
9143.788016725466
 21
6072.483492916248
 31
0.0
  0
LINE
  5
2A1B7
102
{ACAD_REACTORS
330
2B960
102
}
330
747D
100
AcDbEntity
  8
部品1
 48
50.0
100
AcDbLine
 10
8943.788016725466
 20
6352.48349291627
 30
0.0
 11
8943.788016725466
 21
6072.483492916244
 31
0.0
  0
LINE
  5
2A1BE
330
747D
100
AcDbEntity
  8
センター
 48
2.0
100
AcDbLine
 10
8583.600000000009
 20
6879.48349291625
 30
0.0
 11
8683.60000000001
 21
6879.48349291625
 31
0.0
  0
LINE
  5
2A1BF
330
747D
100
AcDbEntity
  8
部品1
 48
50.0
100
AcDbLine
 10
8733.600000000009
 20
6979.483492916251
 30
0.0
 11
8533.60000000001
 21
6979.483492916251
 31
0.0
  0
LINE
  5
2A1C0
330
747D
100
AcDbEntity
  8
部品1
 48
50.0
100
AcDbLine
 10
8733.600000000009
 20
6779.48349291625
 30
0.0
 11
8533.60000000001
 21
6779.48349291625
 31
0.0
  0
LINE
  5
2A1C1
330
747D
100
AcDbEntity
  8
センター
 48
2.0
100
AcDbLine
 10
8633.60000000001
 20
6929.483492916251
 30
0.0
 11
8633.60000000001
 21
6829.48349291625
 31
0.0
  0
LINE
  5
2A1C2
330
747D
100
AcDbEntity
  8
部品1
 48
50.0
100
AcDbLine
 10
8533.60000000001
 20
6779.48349291625
 30
0.0
 11
8533.60000000001
 21
6979.483492916251
 31
0.0
  0
LINE
  5
2A1C3
330
747D
100
AcDbEntity
  8
部品1
 48
50.0
100
AcDbLine
 10
8733.600000000009
 20
6779.48349291625
 30
0.0
 11
8733.600000000009
 21
6979.483492916251
 31
0.0
  0
LINE
  5
2A1C9
330
747D
100
AcDbEntity
  8
細線
 48
50.0
100
AcDbLine
 10
9763.788016725467
 20
6116.284250388519
 30
0.0
 11
9963.788016725459
 21
6316.284250388513
 31
0.0
  0
LINE
  5
2A1CA
330
747D
100
AcDbEntity
  8
部品1
 48
50.0
100
AcDbLine
 10
9763.788016725458
 20
6352.483492916271
 30
0.0
 11
9763.788016725467
 21
6072.483492916244
 31
0.0
  0
LINE
  5
2A1CB
330
747D
100
AcDbEntity
  8
部品1
 48
50.0
100
AcDbLine
 10
9963.788016725459
 20
6352.48349291627
 30
0.0
 11
9963.788016725466
 21
6072.483492916248
 31
0.0
  0
LINE
  5
2A1CC
330
747D
100
AcDbEntity
  8
細線
 48
50.0
100
AcDbLine
 10
9854.691101069231
 20
6072.483492916246
 30
0.0
 11
9963.788016725462
 21
6181.580408572479
 31
0.0
  0
LINE
  5
2A1CD
330
747D
100
AcDbEntity
  8
細線
 48
50.0
100
AcDbLine
 10
9899.59238167458
 20
6072.483492916248
 30
0.0
 11
9963.788016725466
 21
6136.679127967134
 31
0.0
  0
LINE
  5
2A1CE
330
747D
100
AcDbEntity
  8
細線
 48
50.0
100
AcDbLine
 10
9809.789820463883
 20
6072.483492916246
 30
0.0
 11
9963.788016725462
 21
6226.481689177823
 31
0.0
  0
LINE
  5
2A1CF
330
747D
100
AcDbEntity
  8
細線
 48
50.0
100
AcDbLine
 10
9764.888539858539
 20
6072.483492916246
 30
0.0
 11
9963.788016725462
 21
6271.38296978317
 31
0.0
  0
LINE
  5
2A1D0
330
747D
100
AcDbEntity
  8
細線
 48
50.0
100
AcDbLine
 10
9944.493662279924
 20
6072.48349291625
 30
0.0
 11
9963.788016725466
 21
6091.77784736179
 31
0.0
  0
LINE
  5
2A1D1
330
747D
100
AcDbEntity
  8
細線
 48
50.0
100
AcDbLine
 10
9763.788016725463
 20
6206.086811599207
 30
0.0
 11
9910.184698042524
 21
6352.48349291627
 31
0.0
  0
LINE
  5
2A1D2
330
747D
100
AcDbEntity
  8
細線
 48
50.0
100
AcDbLine
 10
9763.788016725463
 20
6161.185530993861
 30
0.0
 11
9955.085978647872
 21
6352.48349291627
 31
0.0
  0
LINE
  5
2A1D3
330
747D
100
AcDbEntity
  8
細線
 48
50.0
100
AcDbLine
 10
9763.78801672546
 20
6295.889372809898
 30
0.0
 11
9820.382136831836
 21
6352.48349291627
 31
0.0
  0
LINE
  5
2A1D4
330
747D
100
AcDbEntity
  8
細線
 48
50.0
100
AcDbLine
 10
9763.788016725463
 20
6250.988092204552
 30
0.0
 11
9865.283417437176
 21
6352.483492916271
 31
0.0
  0
LINE
  5
2A1D5
330
747D
100
AcDbEntity
  8
部品1
 48
50.0
100
AcDbLine
 10
9553.60000000001
 20
6979.483492916251
 30
0.0
 11
9353.60000000001
 21
6979.483492916251
 31
0.0
  0
LINE
  5
2A1D6
330
747D
100
AcDbEntity
  8
センター
 48
2.0
100
AcDbLine
 10
9403.600000000009
 20
6879.48349291625
 30
0.0
 11
9503.600000000011
 21
6879.48349291625
 31
0.0
  0
LINE
  5
2A1D7
330
747D
100
AcDbEntity
  8
部品1
 48
50.0
100
AcDbLine
 10
9553.60000000001
 20
6779.48349291625
 30
0.0
 11
9353.60000000001
 21
6779.48349291625
 31
0.0
  0
LINE
  5
2A1D8
330
747D
100
AcDbEntity
  8
センター
 48
2.0
100
AcDbLine
 10
9453.60000000001
 20
6929.483492916251
 30
0.0
 11
9453.60000000001
 21
6829.48349291625
 31
0.0
  0
LINE
  5
2A1D9
330
747D
100
AcDbEntity
  8
部品1
 48
50.0
100
AcDbLine
 10
9353.60000000001
 20
6779.48349291625
 30
0.0
 11
9353.60000000001
 21
6979.483492916251
 31
0.0
  0
LINE
  5
2A1DA
330
747D
100
AcDbEntity
  8
部品1
 48
50.0
100
AcDbLine
 10
9553.60000000001
 20
6779.48349291625
 30
0.0
 11
9553.60000000001
 21
6979.483492916251
 31
0.0
  0
LINE
  5
2A1DB
330
747D
100
AcDbEntity
  8
センター
 48
2.0
100
AcDbLine
 10
10155.6
 20
6320.483492916253
 30
0.0
 11
10155.6
 21
6220.483492916254
 31
0.0
  0
LINE
  5
2A1DC
330
747D
100
AcDbEntity
  8
センター
 48
2.0
100
AcDbLine
 10
10105.6
 20
6270.483492916254
 30
0.0
 11
10205.6
 21
6270.483492916254
 31
0.0
  0
CIRCLE
  5
2A1DD
330
747D
100
AcDbEntity
  8
部品1
 48
50.0
100
AcDbCircle
 10
10155.6
 20
6270.483492916254
 30
0.0
 40
35.0
  0
LINE
  5
2A1EA
330
747D
100
AcDbEntity
  8
部品1
 48
50.0
100
AcDbLine
 10
10373.6
 20
6979.483492916251
 30
0.0
 11
10173.6
 21
6979.483492916251
 31
0.0
  0
LINE
  5
2A1EB
330
747D
100
AcDbEntity
  8
センター
 48
2.0
100
AcDbLine
 10
10223.6
 20
6879.48349291625
 30
0.0
 11
10323.6
 21
6879.48349291625
 31
0.0
  0
LINE
  5
2A1EC
330
747D
100
AcDbEntity
  8
部品1
 48
50.0
100
AcDbLine
 10
10373.6
 20
6779.48349291625
 30
0.0
 11
10173.6
 21
6779.48349291625
 31
0.0
  0
LINE
  5
2A1ED
330
747D
100
AcDbEntity
  8
センター
 48
2.0
100
AcDbLine
 10
10273.6
 20
6929.483492916251
 30
0.0
 11
10273.6
 21
6829.48349291625
 31
0.0
  0
LINE
  5
2A1EE
330
747D
100
AcDbEntity
  8
部品1
 48
50.0
100
AcDbLine
 10
10173.6
 20
6779.48349291625
 30
0.0
 11
10173.6
 21
6979.483492916251
 31
0.0
  0
LINE
  5
2A1EF
330
747D
100
AcDbEntity
  8
部品1
 48
50.0
100
AcDbLine
 10
10373.6
 20
6779.48349291625
 30
0.0
 11
10373.6
 21
6979.483492916251
 31
0.0
  0
LINE
  5
2A1FC
330
747D
100
AcDbEntity
  8
センター
 48
2.0
100
AcDbLine
 10
11043.6
 20
6879.48349291625
 30
0.0
 11
11143.6
 21
6879.48349291625
 31
0.0
  0
LINE
  5
2A1FD
330
747D
100
AcDbEntity
  8
部品1
 48
50.0
100
AcDbLine
 10
11193.6
 20
6979.483492916251
 30
0.0
 11
10993.6
 21
6979.483492916251
 31
0.0
  0
LINE
  5
2A1FE
330
747D
100
AcDbEntity
  8
部品1
 48
50.0
100
AcDbLine
 10
11193.6
 20
6779.48349291625
 30
0.0
 11
10993.6
 21
6779.48349291625
 31
0.0
  0
LINE
  5
2A1FF
330
747D
100
AcDbEntity
  8
センター
 48
2.0
100
AcDbLine
 10
11093.6
 20
6929.483492916251
 30
0.0
 11
11093.6
 21
6829.48349291625
 31
0.0
  0
LINE
  5
2A200
330
747D
100
AcDbEntity
  8
部品1
 48
50.0
100
AcDbLine
 10
10993.6
 20
6779.48349291625
 30
0.0
 11
10993.6
 21
6979.483492916251
 31
0.0
  0
LINE
  5
2A201
330
747D
100
AcDbEntity
  8
部品1
 48
50.0
100
AcDbLine
 10
11193.6
 20
6779.48349291625
 30
0.0
 11
11193.6
 21
6979.483492916251
 31
0.0
  0
LINE
  5
2A214
330
747D
100
AcDbEntity
  8
部品1
 48
50.0
100
AcDbLine
 10
12013.6
 20
6979.483492916251
 30
0.0
 11
11813.6
 21
6979.483492916251
 31
0.0
  0
LINE
  5
2A215
330
747D
100
AcDbEntity
  8
センター
 48
2.0
100
AcDbLine
 10
11863.6
 20
6879.48349291625
 30
0.0
 11
11963.6
 21
6879.48349291625
 31
0.0
  0
LINE
  5
2A216
330
747D
100
AcDbEntity
  8
部品1
 48
50.0
100
AcDbLine
 10
12013.6
 20
6779.48349291625
 30
0.0
 11
11813.6
 21
6779.48349291625
 31
0.0
  0
LINE
  5
2A217
330
747D
100
AcDbEntity
  8
センター
 48
2.0
100
AcDbLine
 10
11913.6
 20
6929.483492916251
 30
0.0
 11
11913.6
 21
6829.48349291625
 31
0.0
  0
LINE
  5
2A218
330
747D
100
AcDbEntity
  8
部品1
 48
50.0
100
AcDbLine
 10
11813.6
 20
6779.48349291625
 30
0.0
 11
11813.6
 21
6979.483492916251
 31
0.0
  0
LINE
  5
2A219
330
747D
100
AcDbEntity
  8
部品1
 48
50.0
100
AcDbLine
 10
12013.6
 20
6779.48349291625
 30
0.0
 11
12013.6
 21
6979.483492916251
 31
0.0
  0
LINE
  5
2A21A
330
747D
100
AcDbEntity
  8
センター
 48
2.0
100
AcDbLine
 10
12615.6
 20
6320.483492916253
 30
0.0
 11
12615.6
 21
6220.483492916254
 31
0.0
  0
CIRCLE
  5
2A21B
330
747D
100
AcDbEntity
  8
部品1
 48
50.0
100
AcDbCircle
 10
12615.6
 20
6270.483492916254
 30
0.0
 40
35.0
  0
LINE
  5
2A21C
330
747D
100
AcDbEntity
  8
センター
 48
2.0
100
AcDbLine
 10
12565.6
 20
6270.483492916254
 30
0.0
 11
12665.6
 21
6270.483492916254
 31
0.0
  0
LINE
  5
2A21D
330
747D
100
AcDbEntity
  8
細線
 48
50.0
100
AcDbLine
 10
12731.08259465825
 20
6767.483492916261
 30
0.0
 11
12738.6
 21
6775.000898258011
 31
0.0
  0
LINE
  5
2A21E
330
747D
100
AcDbEntity
  8
細線
 48
50.0
100
AcDbLine
 10
12686.1813140529
 20
6767.483492916262
 30
0.0
 11
12738.6
 21
6819.902178863358
 31
0.0
  0
LINE
  5
2A21F
330
747D
100
AcDbEntity
  8
細線
 48
50.0
100
AcDbLine
 10
12641.28003344756
 20
6767.483492916262
 30
0.0
 11
12738.6
 21
6864.803459468703
 31
0.0
  0
LINE
  5
2A220
330
747D
100
AcDbEntity
  8
細線
 48
50.0
100
AcDbLine
 10
12618.59999999999
 20
6789.704740074049
 30
0.0
 11
12738.6
 21
6909.704740074049
 31
0.0
  0
LINE
  5
2A221
330
747D
100
AcDbEntity
  8
細線
 48
50.0
100
AcDbLine
 10
12618.59999999999
 20
6834.606020679391
 30
0.0
 11
12738.6
 21
6954.606020679396
 31
0.0
  0
LINE
  5
2A222
330
747D
100
AcDbEntity
  8
細線
 48
50.0
100
AcDbLine
 10
12618.6
 20
6879.507301284739
 30
0.0
 11
12706.57619163152
 21
6967.483492916263
 31
0.0
  0
LINE
  5
2A223
330
747D
100
AcDbEntity
  8
細線
 48
50.0
100
AcDbLine
 10
12618.6
 20
6924.408581890087
 30
0.0
 11
12661.67491102617
 21
6967.483492916264
 31
0.0
  0
LINE
  5
2A224
330
747D
100
AcDbEntity
  8
部品1
 48
50.0
100
AcDbLine
 10
12738.6
 20
6967.483492916263
 30
0.0
 11
12618.6
 21
6967.483492916264
 31
0.0
  0
LINE
  5
2A225
330
747D
100
AcDbEntity
  8
部品1
 48
50.0
100
AcDbLine
 10
12738.6
 20
6767.483492916262
 30
0.0
 11
12618.6
 21
6767.483492916262
 31
0.0
  0
DIMENSION
  5
2A228
330
747D
100
AcDbEntity
  8
寸法
 48
50.0
100
AcDbDimension
  2
*D28
 10
10155.6
 20
8338.749951010161
 30
0.0
 11
11385.6
 21
8438.761762033783
 31
0.0
 70
    32
 71
     5
 42
2459.999999999997
  3
INABA_S40G
100
AcDbAlignedDimension
 13
12615.6
 23
7539.48349291625
 33
0.0
 14
10155.6
 24
7539.48349291625
 34
0.0
100
AcDbRotatedDimension
1001
ACAD
1000
DSTYLE
1002
{
1070
   341
1005
0
1002
}
  0
LINE
  5
2A22A
330
747D
100
AcDbEntity
  8
寸法
 48
50.0
100
AcDbLine
 10
9455.555445177935
 20
8338.749951010274
 30
0.0
 11
10155.6
 21
8338.749951010274
 31
0.0
  0
LINE
  5
2A22D
330
747D
100
AcDbEntity
  8
寸法
 48
50.0
100
AcDbLine
 10
9173.600000000012
 20
8095.092309586611
 30
0.0
 11
9453.600000000013
 21
8095.092309586611
 31
0.0
  0
LINE
  5
2A22E
330
747D
100
AcDbEntity
  8
細線
 48
50.0
100
AcDbLine
 10
8943.599999999999
 20
7549.408581890091
 30
0.0
 11
9006.674911026159
 21
7612.483492916251
 31
0.0
  0
LINE
  5
2A22F
330
747D
100
AcDbEntity
  8
部品1
 48
50.0
100
AcDbLine
 10
9143.599999999999
 20
7612.483492916251
 30
0.0
 11
9143.600000000002
 21
7412.48349291625
 31
0.0
  0
LINE
  5
2A230
330
747D
100
AcDbEntity
  8
部品1
 48
50.0
100
AcDbLine
 10
8943.599999999999
 20
7612.483492916251
 30
0.0
 11
8943.600000000001
 21
7412.48349291625
 31
0.0
  0
LINE
  5
2A231
330
747D
100
AcDbEntity
  8
細線
 48
50.0
100
AcDbLine
 10
8943.600000000001
 20
7459.606020679399
 30
0.0
 11
9096.477472236848
 21
7612.483492916251
 31
0.0
  0
LINE
  5
2A232
330
747D
100
AcDbEntity
  8
細線
 48
50.0
100
AcDbLine
 10
8943.600000000001
 20
7504.507301284748
 30
0.0
 11
9051.576191631506
 21
7612.483492916251
 31
0.0
  0
LINE
  5
2A233
330
747D
100
AcDbEntity
  8
細線
 48
50.0
100
AcDbLine
 10
9031.181314052883
 20
7412.483492916248
 30
0.0
 11
9143.600000000001
 21
7524.902178863356
 31
0.0
  0
LINE
  5
2A234
330
747D
100
AcDbEntity
  8
細線
 48
50.0
100
AcDbLine
 10
8986.28003344754
 20
7412.483492916248
 30
0.0
 11
9143.599999999999
 21
7569.803459468703
 31
0.0
  0
LINE
  5
2A235
330
747D
100
AcDbEntity
  8
細線
 48
50.0
100
AcDbLine
 10
8943.600000000001
 20
7414.704740074057
 30
0.0
 11
9141.378752842191
 21
7612.483492916249
 31
0.0
  0
LINE
  5
2A238
330
747D
100
AcDbEntity
  8
細線
 48
50.0
100
AcDbLine
 10
9120.983875263581
 20
7412.48349291625
 30
0.0
 11
9143.600000000002
 21
7435.099617652674
 31
0.0
  0
LINE
  5
2A239
330
747D
100
AcDbEntity
  8
細線
 48
50.0
100
AcDbLine
 10
9076.082594658229
 20
7412.483492916248
 30
0.0
 11
9143.600000000002
 21
7480.000898258015
 31
0.0
  0
LINE
  5
2A23A
330
747D
100
AcDbEntity
  8
寸法
 48
50.0
100
AcDbLine
 10
8633.600000000013
 20
8095.092309586496
 30
0.0
 11
8913.600000000014
 21
8095.092309586496
 31
0.0
  0
LINE
  5
2A23B
330
747D
100
AcDbEntity
  8
細線
 48
50.0
100
AcDbLine
 10
8943.599999999999
 20
7594.309862495435
 30
0.0
 11
8961.773630420815
 21
7612.483492916251
 31
0.0
  0
LINE
  5
2A23C
330
747D
100
AcDbEntity
  8
細線
 48
50.0
100
AcDbLine
 10
9139.42961759035
 20
7610.534357664403
 30
0.0
 11
9141.378752842193
 21
7612.483492916247
 31
0.0
  0
LINE
  5
2A23D
330
747D
100
AcDbEntity
  8
細線
 48
50.0
100
AcDbLine
 10
9763.599999999998
 20
7549.408581890091
 30
0.0
 11
9826.674911026159
 21
7612.483492916251
 31
0.0
  0
LINE
  5
2A23E
330
747D
100
AcDbEntity
  8
部品1
 48
50.0
100
AcDbLine
 10
9963.599999999999
 20
7612.483492916251
 30
0.0
 11
9963.600000000003
 21
7412.48349291625
 31
0.0
  0
LINE
  5
2A23F
330
747D
100
AcDbEntity
  8
部品1
 48
50.0
100
AcDbLine
 10
9763.599999999998
 20
7612.483492916251
 30
0.0
 11
9763.600000000003
 21
7412.48349291625
 31
0.0
  0
LINE
  5
2A240
330
747D
100
AcDbEntity
  8
細線
 48
50.0
100
AcDbLine
 10
9763.600000000003
 20
7414.704740074057
 30
0.0
 11
9961.378752842193
 21
7612.483492916247
 31
0.0
  0
LINE
  5
2A241
330
747D
100
AcDbEntity
  8
細線
 48
50.0
100
AcDbLine
 10
9763.600000000003
 20
7459.606020679399
 30
0.0
 11
9916.477472236849
 21
7612.483492916251
 31
0.0
  0
LINE
  5
2A242
330
747D
100
AcDbEntity
  8
細線
 48
50.0
100
AcDbLine
 10
9763.600000000003
 20
7504.507301284748
 30
0.0
 11
9871.576191631506
 21
7612.483492916251
 31
0.0
  0
LINE
  5
2A243
330
747D
100
AcDbEntity
  8
細線
 48
50.0
100
AcDbLine
 10
9851.181314052883
 20
7412.483492916248
 30
0.0
 11
9963.599999999999
 21
7524.902178863361
 31
0.0
  0
LINE
  5
2A244
330
747D
100
AcDbEntity
  8
細線
 48
50.0
100
AcDbLine
 10
9806.28003344754
 20
7412.483492916248
 30
0.0
 11
9963.599999999999
 21
7569.803459468707
 31
0.0
  0
LINE
  5
2A245
330
747D
100
AcDbEntity
  8
細線
 48
50.0
100
AcDbLine
 10
9940.983875263581
 20
7412.48349291625
 30
0.0
 11
9963.600000000003
 21
7435.099617652674
 31
0.0
  0
LINE
  5
2A246
330
747D
100
AcDbEntity
  8
細線
 48
50.0
100
AcDbLine
 10
9896.082594658238
 20
7412.483492916248
 30
0.0
 11
9963.600000000003
 21
7480.000898258015
 31
0.0
  0
LINE
  5
2A247
330
747D
100
AcDbEntity
  8
細線
 48
50.0
100
AcDbLine
 10
9763.599999999998
 20
7594.309862495435
 30
0.0
 11
9781.773630420815
 21
7612.483492916251
 31
0.0
  0
LINE
  5
2A249
330
747D
100
AcDbEntity
  8
細線
 48
50.0
100
AcDbLine
 10
10583.6
 20
7549.408581890091
 30
0.0
 11
10646.67491102616
 21
7612.483492916251
 31
0.0
  0
LINE
  5
2A24A
330
747D
100
AcDbEntity
  8
細線
 48
50.0
100
AcDbLine
 10
10583.6
 20
7504.507301284748
 30
0.0
 11
10691.5761916315
 21
7612.483492916251
 31
0.0
  0
LINE
  5
2A24B
330
747D
100
AcDbEntity
  8
細線
 48
50.0
100
AcDbLine
 10
10583.6
 20
7459.606020679399
 30
0.0
 11
10736.47747223685
 21
7612.483492916251
 31
0.0
  0
LINE
  5
2A24C
330
747D
100
AcDbEntity
  8
細線
 48
50.0
100
AcDbLine
 10
10583.6
 20
7414.704740074057
 30
0.0
 11
10781.37875284219
 21
7612.483492916247
 31
0.0
  0
LINE
  5
2A24D
330
747D
100
AcDbEntity
  8
部品1
 48
50.0
100
AcDbLine
 10
10583.6
 20
7612.483492916251
 30
0.0
 11
10583.6
 21
7412.48349291625
 31
0.0
  0
LINE
  5
2A24E
330
747D
100
AcDbEntity
  8
部品1
 48
50.0
100
AcDbLine
 10
10783.6
 20
7612.483492916251
 30
0.0
 11
10783.6
 21
7412.48349291625
 31
0.0
  0
LINE
  5
2A24F
330
747D
100
AcDbEntity
  8
センター
 48
2.0
100
AcDbLine
 10
10155.6
 20
7539.48349291625
 30
0.0
 11
10155.6
 21
7439.48349291625
 31
0.0
  0
LINE
  5
2A250
330
747D
100
AcDbEntity
  8
センター
 48
2.0
100
AcDbLine
 10
10105.6
 20
7489.483492916249
 30
0.0
 11
10205.6
 21
7489.483492916249
 31
0.0
  0
CIRCLE
  5
2A251
330
747D
100
AcDbEntity
  8
部品1
 48
50.0
100
AcDbCircle
 10
10155.6
 20
7489.483492916249
 30
0.0
 40
35.0
  0
LINE
  5
2A252
330
747D
100
AcDbEntity
  8
細線
 48
50.0
100
AcDbLine
 10
10671.18131405288
 20
7412.483492916248
 30
0.0
 11
10783.6
 21
7524.902178863361
 31
0.0
  0
LINE
  5
2A253
330
747D
100
AcDbEntity
  8
細線
 48
50.0
100
AcDbLine
 10
10626.28003344754
 20
7412.483492916248
 30
0.0
 11
10783.6
 21
7569.803459468707
 31
0.0
  0
LINE
  5
2A254
330
747D
100
AcDbEntity
  8
細線
 48
50.0
100
AcDbLine
 10
10760.98387526358
 20
7412.48349291625
 30
0.0
 11
10783.6
 21
7435.099617652674
 31
0.0
  0
LINE
  5
2A255
330
747D
100
AcDbEntity
  8
細線
 48
50.0
100
AcDbLine
 10
10716.08259465824
 20
7412.483492916248
 30
0.0
 11
10783.6
 21
7480.000898258015
 31
0.0
  0
LINE
  5
2A256
330
747D
100
AcDbEntity
  8
細線
 48
50.0
100
AcDbLine
 10
10583.6
 20
7594.309862495435
 30
0.0
 11
10601.77363042081
 21
7612.483492916251
 31
0.0
  0
LINE
  5
2A257
330
747D
100
AcDbEntity
  8
部品1
 48
50.0
100
AcDbLine
 10
11603.6
 20
7612.483492916251
 30
0.0
 11
11603.6
 21
7412.48349291625
 31
0.0
  0
LINE
  5
2A258
330
747D
100
AcDbEntity
  8
細線
 48
50.0
100
AcDbLine
 10
11403.6
 20
7504.507301284748
 30
0.0
 11
11511.5761916315
 21
7612.483492916251
 31
0.0
  0
LINE
  5
2A259
330
747D
100
AcDbEntity
  8
細線
 48
50.0
100
AcDbLine
 10
11403.6
 20
7459.606020679399
 30
0.0
 11
11556.47747223685
 21
7612.483492916251
 31
0.0
  0
LINE
  5
2A25A
330
747D
100
AcDbEntity
  8
部品1
 48
50.0
100
AcDbLine
 10
11403.6
 20
7612.483492916251
 30
0.0
 11
11403.6
 21
7412.48349291625
 31
0.0
  0
LINE
  5
2A25B
330
747D
100
AcDbEntity
  8
細線
 48
50.0
100
AcDbLine
 10
11403.6
 20
7549.408581890091
 30
0.0
 11
11466.67491102616
 21
7612.483492916251
 31
0.0
  0
LINE
  5
2A25C
330
747D
100
AcDbEntity
  8
細線
 48
50.0
100
AcDbLine
 10
11403.6
 20
7414.704740074057
 30
0.0
 11
11601.37875284219
 21
7612.483492916247
 31
0.0
  0
LINE
  5
2A25D
330
747D
100
AcDbEntity
  8
細線
 48
50.0
100
AcDbLine
 10
11446.28003344754
 20
7412.483492916248
 30
0.0
 11
11603.6
 21
7569.803459468707
 31
0.0
  0
LINE
  5
2A25E
330
747D
100
AcDbEntity
  8
細線
 48
50.0
100
AcDbLine
 10
11491.18131405288
 20
7412.483492916248
 30
0.0
 11
11603.6
 21
7524.902178863361
 31
0.0
  0
LINE
  5
2A25F
330
747D
100
AcDbEntity
  8
細線
 48
50.0
100
AcDbLine
 10
11580.98387526358
 20
7412.48349291625
 30
0.0
 11
11603.6
 21
7435.099617652674
 31
0.0
  0
LINE
  5
2A260
330
747D
100
AcDbEntity
  8
細線
 48
50.0
100
AcDbLine
 10
11536.08259465823
 20
7412.483492916248
 30
0.0
 11
11603.6
 21
7480.000898258015
 31
0.0
  0
LINE
  5
2A261
330
747D
100
AcDbEntity
  8
細線
 48
50.0
100
AcDbLine
 10
11403.6
 20
7594.309862495435
 30
0.0
 11
11421.77363042081
 21
7612.483492916251
 31
0.0
  0
DIMENSION
  5
2A263
330
747D
100
AcDbEntity
  8
寸法
 48
50.0
100
AcDbDimension
  2
*D29
 10
12615.6
 20
8338.749951010161
 30
0.0
 11
13011.7066017178
 21
8338.749951010161
 31
0.0
 70
   160
 71
     5
 42
123.0
  3
INABA_S40G
100
AcDbAlignedDimension
 13
12738.6
 23
7612.483492916251
 33
0.0
 14
12615.6
 24
7539.48349291625
 34
0.0
100
AcDbRotatedDimension
1001
ACAD
1000
DSTYLE
1002
{
1070
   341
1005
0
1002
}
  0
LINE
  5
2A264
330
747D
100
AcDbEntity
  8
部品1
 48
50.0
100
AcDbLine
 10
12423.6
 20
7612.483492916251
 30
0.0
 11
12423.6
 21
7412.48349291625
 31
0.0
  0
LINE
  5
2A265
330
747D
100
AcDbEntity
  8
部品1
 48
50.0
100
AcDbLine
 10
12223.6
 20
7612.483492916251
 30
0.0
 11
12223.6
 21
7412.48349291625
 31
0.0
  0
LINE
  5
2A266
330
747D
100
AcDbEntity
  8
細線
 48
50.0
100
AcDbLine
 10
12223.6
 20
7459.606020679399
 30
0.0
 11
12376.47747223685
 21
7612.483492916251
 31
0.0
  0
LINE
  5
2A267
330
747D
100
AcDbEntity
  8
細線
 48
50.0
100
AcDbLine
 10
12223.6
 20
7504.507301284748
 30
0.0
 11
12331.5761916315
 21
7612.483492916251
 31
0.0
  0
LINE
  5
2A268
330
747D
100
AcDbEntity
  8
細線
 48
50.0
100
AcDbLine
 10
12223.6
 20
7549.408581890091
 30
0.0
 11
12286.67491102616
 21
7612.483492916251
 31
0.0
  0
LINE
  5
2A269
330
747D
100
AcDbEntity
  8
細線
 48
50.0
100
AcDbLine
 10
12223.6
 20
7414.704740074057
 30
0.0
 11
12421.37875284219
 21
7612.483492916247
 31
0.0
  0
LINE
  5
2A26A
330
747D
100
AcDbEntity
  8
細線
 48
50.0
100
AcDbLine
 10
12266.28003344754
 20
7412.483492916248
 30
0.0
 11
12423.6
 21
7569.803459468707
 31
0.0
  0
LINE
  5
2A26B
330
747D
100
AcDbEntity
  8
細線
 48
50.0
100
AcDbLine
 10
12311.18131405288
 20
7412.483492916248
 30
0.0
 11
12423.6
 21
7524.902178863361
 31
0.0
  0
LINE
  5
2A26C
330
747D
100
AcDbEntity
  8
細線
 48
50.0
100
AcDbLine
 10
12400.98387526358
 20
7412.48349291625
 30
0.0
 11
12423.6
 21
7435.099617652674
 31
0.0
  0
LINE
  5
2A26D
330
747D
100
AcDbEntity
  8
細線
 48
50.0
100
AcDbLine
 10
12356.08259465823
 20
7412.483492916248
 30
0.0
 11
12423.6
 21
7480.000898258015
 31
0.0
  0
LINE
  5
2A26E
330
747D
100
AcDbEntity
  8
細線
 48
50.0
100
AcDbLine
 10
12223.6
 20
7594.309862495435
 30
0.0
 11
12241.77363042081
 21
7612.483492916251
 31
0.0
  0
DIMENSION
  5
2A26F
330
747D
100
AcDbEntity
  8
寸法
 48
50.0
100
AcDbDimension
  2
*D30
 10
12618.6
 20
7116.856285946993
 30
0.0
 11
13008.65905511811
 21
7116.856285946993
 31
0.0
 70
   160
 71
     5
 42
120.0
  3
INABA_S40G
100
AcDbAlignedDimension
 13
12738.6
 23
7133.849549985825
 33
0.0
 14
12618.6
 24
7116.856285946993
 34
0.0
100
AcDbRotatedDimension
1001
ACAD
1000
DSTYLE
1002
{
1070
   341
1005
0
1002
}
  0
LINE
  5
2A270
330
747D
100
AcDbEntity
  8
センター
 48
2.0
100
AcDbLine
 10
12615.6
 20
7539.48349291625
 30
0.0
 11
12615.6
 21
7439.48349291625
 31
0.0
  0
CIRCLE
  5
2A271
330
747D
100
AcDbEntity
  8
部品1
 48
50.0
100
AcDbCircle
 10
12615.6
 20
7489.483492916249
 30
0.0
 40
35.0
  0
LINE
  5
2A272
330
747D
100
AcDbEntity
  8
センター
 48
2.0
100
AcDbLine
 10
12565.6
 20
7489.483492916249
 30
0.0
 11
12665.6
 21
7489.483492916249
 31
0.0
  0
LEADER
  5
2A8E2
330
747D
100
AcDbEntity
  8
寸法
 48
50.0
100
AcDbLeader
  3
INABA_S50G
 73
     0
 74
     0
 75
     1
 40
120.0
 41
720.0000000000001
 76
     3
 10
12738.69549961499
 20
6873.214262976074
 30
0.0
 10
12895.46907400128
 20
6612.200349408242
 30
0.0
 10
13020.46907400128
 20
6612.200349408242
 30
0.0
340
2A8E3
1001
ACAD
1000
DSTYLE
1002
{
1070
   341
1005
0
1070
    40
1040
1.0
1070
   343
1005
0
1070
   344
1005
0
1002
}
  0
MTEXT
  5
2A8E3
102
{ACAD_REACTORS
330
2A8E2
102
}
330
747D
100
AcDbEntity
  8
部品1
 62
     7
 48
50.0
100
AcDbMText
 10
13765.46907400128
 20
6697.200349408241
 30
0.0
 40
120.0
 41
0.0
 71
     6
 72
     1
  1
\A1;床下換気口
  7
STYLE1
 73
     1
 44
1.0
1001
ACAD
1000
MTEXTBEGIN
1070
    73
1070
     1
1070
    44
1040
1.0
1070
    74
1070
     0
1000
MTEXTEND
  0
TEXT
  5
2A8E4
330
747D
100
AcDbEntity
  8
部品1
 48
50.0
100
AcDbText
 10
13087.43013846117
 20
5862.376885729297
 30
0.0
 40
80.0
  1
(a=45,b=55,c=75)
  7
STYLE1
100
AcDbText
  0
TEXT
  5
2A8E5
330
747D
100
AcDbEntity
  8
部品1
 48
50.0
100
AcDbText
 10
12928.85112970687
 20
5969.22210659805
 30
0.0
 40
80.0
  1
※a,b,cは屋根の出幅です。
  7
STYLE1
100
AcDbText
  0
MTEXT
  5
2A8E6
102
{ACAD_REACTORS
330
2A8E7
102
}
330
747D
100
AcDbEntity
  8
部品1
 62
     7
 48
50.0
100
AcDbMText
 10
13726.63832569548
 20
6148.532793531125
 30
0.0
 40
120.0
 41
0.0
 71
     6
 72
     1
  1
\A1;屋根の外寸
  7
STYLE1
 73
     1
 44
1.0
1001
ACAD
1000
MTEXTBEGIN
1070
    73
1070
     1
1070
    44
1040
1.0
1070
    74
1070
     0
1000
MTEXTEND
  0
LEADER
  5
2A8E7
330
747D
100
AcDbEntity
  8
寸法
 48
50.0
100
AcDbLeader
  3
INABA_S50G
 73
     0
 74
     0
 75
     1
 40
120.0
 41
672.0
 76
     3
 10
12788.69831350344
 20
6322.422136994701
 30
0.0
 10
12904.63832569548
 20
6063.532793531125
 30
0.0
 10
13029.63832569548
 20
6063.532793531125
 30
0.0
340
2A8E6
1001
ACAD
1000
DSTYLE
1002
{
1070
   341
1005
0
1070
    40
1040
1.0
1070
   343
1005
0
1070
   344
1005
0
1002
}
  0
MTEXT
  5
2A8E8
102
{ACAD_REACTORS
330
2A8E9
102
}
330
747D
100
AcDbEntity
  8
部品1
 62
     7
 48
50.0
100
AcDbMText
 10
13933.99523070988
 20
7928.096237158773
 30
0.0
 40
120.0
 41
0.0
 71
     6
 72
     1
  1
アンカーボルト
  7
STYLE1
 73
     1
 44
1.0
1001
ACAD
1000
MTEXTBEGIN
1070
    73
1070
     1
1070
    44
1040
1.0
1070
    74
1070
     0
1000
MTEXTEND
  0
LEADER
  5
2A8E9
330
747D
100
AcDbEntity
  8
寸法
 48
50.0
100
AcDbLeader
  3
INABA_S50G
 73
     0
 74
     0
 75
     1
 40
120.0
 41
994.3492424049171
 76
     3
 10
12615.680085757
 20
7489.691337274976
 30
0.0
 10
12789.64598830496
 20
7843.096237158774
 30
0.0
 10
12914.64598830496
 20
7843.096237158774
 30
0.0
340
2A8E8
1001
ACAD
1000
DSTYLE
1002
{
1070
   341
1005
0
1070
    40
1040
1.0
1070
   343
1005
0
1070
   344
1005
0
1002
}
  0
MTEXT
  5
2A8EA
102
{ACAD_REACTORS
330
2A8EB
102
}
330
747D
100
AcDbEntity
  8
部品1
 62
     7
 48
50.0
100
AcDbMText
 10
12428.82869701569
 20
6734.119196428576
 30
0.0
 40
120.0
 41
0.0
 71
     6
 72
     1
  1
CB
  7
STYLE1
 73
     1
 44
1.0
1001
ACAD
1000
MTEXTBEGIN
1070
    73
1070
     1
1070
    44
1040
1.0
1070
    74
1070
     0
1000
MTEXTEND
  0
LEADER
  5
2A8EB
330
747D
100
AcDbEntity
  8
寸法
 48
50.0
100
AcDbLeader
  3
INABA_S50G
 73
     0
 74
     0
 75
     1
 40
120.0
 41
149.591883092037
 76
     3
 10
12001.95401106101
 20
6871.8375099834
 30
0.0
 10
12129.23681392365
 20
6649.119196428576
 30
0.0
 10
12254.23681392365
 20
6649.119196428576
 30
0.0
340
2A8EA
1001
ACAD
1000
DSTYLE
1002
{
1070
   341
1005
0
1070
    40
1040
1.0
1070
   343
1005
0
1070
   344
1005
0
1002
}
  0
DIMENSION
  5
2A8EC
330
747D
100
AcDbEntity
  8
寸法
 48
50.0
100
AcDbDimension
  2
*D45
 10
12783.6
 20
8570.703814975184
 30
0.0
 11
13054.77462120246
 21
8570.703814975184
 31
0.0
 70
   160
  1
a
 71
     5
 42
45.0
  3
INABA_S40G
100
AcDbAlignedDimension
 13
12738.6
 23
7612.48349291626
 33
0.0
 14
12783.6
 24
8338.749951010171
 34
0.0
100
AcDbRotatedDimension
1001
ACAD
1000
DSTYLE
1002
{
1070
   341
1005
0
1002
}
  0
DIMENSION
  5
2A8ED
330
747D
100
AcDbEntity
  8
寸法
 48
50.0
100
AcDbDimension
  2
*D46
 10
3708.600000000002
 20
8570.703814975164
 30
0.0
 11
3392.42537879754
 21
8570.703814975164
 31
0.0
 70
   160
  1
a
 71
     5
 42
45.0
  3
INABA_S40G
100
AcDbAlignedDimension
 13
3663.600000000002
 23
8338.749951010155
 33
0.0
 14
3708.600000000002
 24
7612.483492916243
 34
0.0
100
AcDbRotatedDimension
1001
ACAD
1000
DSTYLE
1002
{
1070
   341
1005
0
1002
}
  0
LINE
  5
2A8EF
330
747D
100
AcDbEntity
  8
想像線
 48
10.0
100
AcDbLine
 10
3663.599999999995
 20
6017.483492916259
 30
0.0
 11
3663.600000000002
 21
7687.48349291625
 31
0.0
  0
LINE
  5
2A8F0
330
747D
100
AcDbEntity
  8
想像線
 48
10.0
100
AcDbLine
 10
12783.6
 20
6017.483492916283
 30
0.0
 11
12783.6
 21
7687.483492916268
 31
0.0
  0
DIMENSION
  5
2A8F2
330
747D
100
AcDbEntity
  8
寸法
 48
50.0
100
AcDbDimension
  2
*D47
 10
2833.721909610671
 20
7612.483492916243
 30
0.0
 11
2733.72190961067
 21
7649.983492916248
 31
0.0
 70
    32
  1
c
 71
     5
 42
75.00000000000728
  3
INABA_S40G
100
AcDbAlignedDimension
 13
3085.665006330062
 23
7687.48349291625
 33
0.0
 14
3708.600000000002
 24
7612.483492916243
 34
0.0
 50
90.0
100
AcDbRotatedDimension
1001
ACAD
1000
DSTYLE
1002
{
1070
   341
1005
0
1002
}
  0
DIMENSION
  5
2A8F3
330
747D
100
AcDbEntity
  8
寸法
 48
50.0
100
AcDbDimension
  2
*D48
 10
2833.721909610671
 20
6017.483492916268
 30
0.0
 11
2733.72190961067
 21
6044.983492916256
 31
0.0
 70
    32
  1
b
 71
     5
 42
54.99999999997453
  3
INABA_S40G
100
AcDbAlignedDimension
 13
3708.600000000002
 23
6072.483492916243
 33
0.0
 14
3085.665006330069
 24
6017.483492916268
 34
0.0
 50
90.0
100
AcDbRotatedDimension
1001
ACAD
1000
DSTYLE
1002
{
1070
   341
1005
0
1002
}
  0
MTEXT
  5
2AA54
330
747D
100
AcDbEntity
  8
寸法
 62
     7
 48
50.0
100
AcDbMText
 10
9820.799137359482
 20
8426.227340139632
 30
0.0
 40
120.0
 41
0.0
 71
     5
 72
     1
  1
\A1;2460
  7
STYLE1
 73
     1
 44
1.0
1001
ACAD
1000
MTEXTBEGIN
1070
    73
1070
     1
1070
    44
1040
1.0
1070
    74
1070
     0
1000
MTEXTEND
  0
MTEXT
  5
2AA55
330
747D
100
AcDbEntity
  8
寸法
 62
     7
 48
50.0
100
AcDbMText
 10
9300.386216567465
 20
8191.920781193346
 30
0.0
 40
120.0
 41
0.0
 71
     5
 72
     1
  1
\A1;820
  7
STYLE1
 73
     1
 44
1.0
1001
ACAD
1000
MTEXTBEGIN
1070
    73
1070
     1
1070
    44
1040
1.0
1070
    74
1070
     0
1000
MTEXTEND
  0
MTEXT
  5
2AA56
330
747D
100
AcDbEntity
  8
寸法
 62
     7
 48
50.0
100
AcDbMText
 10
8085.036898755101
 20
8426.227340139632
 30
0.0
 40
120.0
 41
0.0
 71
     5
 72
     1
  1
\A1;2460
  7
STYLE1
 73
     1
 44
1.0
1001
ACAD
1000
MTEXTBEGIN
1070
    73
1070
     1
1070
    44
1040
1.0
1070
    74
1070
     0
1000
MTEXTEND
  0
MTEXT
  5
2AA57
330
747D
100
AcDbEntity
  8
寸法
 62
     7
 48
50.0
100
AcDbMText
 10
8796.984919384907
 20
8191.920781193346
 30
0.0
 40
120.0
 41
0.0
 71
     5
 72
     1
  1
\A1;820
  7
STYLE1
 73
     1
 44
1.0
1001
ACAD
1000
MTEXTBEGIN
1070
    73
1070
     1
1070
    44
1040
1.0
1070
    74
1070
     0
1000
MTEXTEND
  0
LINE
  5
2B438
330
747D
100
AcDbEntity
  8
想像線
 48
10.0
100
AcDbLine
 10
12783.6
 20
7687.483492916268
 30
0.0
 11
3663.600000000002
 21
7687.483492916282
 31
0.0
  0
LINE
  5
2B439
330
747D
100
AcDbEntity
  8
想像線
 48
10.0
100
AcDbLine
 10
12783.6
 20
6017.483492916283
 30
0.0
 11
3663.599999999995
 21
6017.483492916269
 31
0.0
  0
TEXT
  5
2B477
330
747D
100
AcDbEntity
  8
文字
 62
     7
 48
50.0
100
AcDbText
 10
7502.565498162531
 20
4405.192671756926
 30
0.0
 40
200.0
  1
〈参 考 図〉
  7
STYLE2
100
AcDbText
  0
TEXT
  5
2B547
330
747D
100
AcDbEntity
  8
文字
 62
     7
 48
50.0
100
AcDbText
 10
14251.2
 20
838.2527270729188
 30
0.0
 40
100.0
  1
～一般型・多雪地型・豪雪地型～
  7
STYLE2
100
AcDbText
  0
LINE
  5
2B567
102
{ACAD_REACTORS
330
2B960
102
}
330
747D
100
AcDbEntity
  8
部品1
 48
50.0
100
AcDbLine
 10
12618.59999999999
 20
6352.483492916285
 30
0.0
 11
3828.600000000001
 21
6352.483492916246
 31
0.0
  0
LINE
  5
2B569
330
747D
100
AcDbEntity
  8
細線
 48
50.0
100
AcDbLine
 10
4843.788016725462
 20
6250.988092204552
 30
0.0
 11
4945.283417437152
 21
6352.483492916248
 31
0.0
  0
LINE
  5
2B56A
330
747D
100
AcDbEntity
  8
細線
 48
50.0
100
AcDbLine
 10
4843.788016725462
 20
6295.889372809898
 30
0.0
 11
4900.382136831809
 21
6352.483492916248
 31
0.0
  0
LINE
  5
2B56B
330
747D
100
AcDbEntity
  8
細線
 48
50.0
100
AcDbLine
 10
4843.788016725462
 20
6161.185530993861
 30
0.0
 11
5035.085978647848
 21
6352.483492916246
 31
0.0
  0
LINE
  5
2B56C
330
747D
100
AcDbEntity
  8
細線
 48
50.0
100
AcDbLine
 10
4843.788016725462
 20
6206.086811599207
 30
0.0
 11
4990.184698042501
 21
6352.483492916248
 31
0.0
  0
LINE
  5
2B56D
330
747D
100
AcDbEntity
  8
細線
 48
50.0
100
AcDbLine
 10
5024.493662279925
 20
6072.48349291625
 30
0.0
 11
5043.788016725466
 21
6091.77784736179
 31
0.0
  0
LINE
  5
2B56E
330
747D
100
AcDbEntity
  8
細線
 48
50.0
100
AcDbLine
 10
4844.888539858537
 20
6072.483492916246
 30
0.0
 11
5043.788016725462
 21
6271.38296978317
 31
0.0
  0
LINE
  5
2B56F
330
747D
100
AcDbEntity
  8
細線
 48
50.0
100
AcDbLine
 10
4889.789820463884
 20
6072.483492916246
 30
0.0
 11
5043.788016725462
 21
6226.481689177823
 31
0.0
  0
LINE
  5
2B570
330
747D
100
AcDbEntity
  8
細線
 48
50.0
100
AcDbLine
 10
4979.592381674578
 20
6072.483492916248
 30
0.0
 11
5043.788016725466
 21
6136.679127967134
 31
0.0
  0
LINE
  5
2B571
330
747D
100
AcDbEntity
  8
細線
 48
50.0
100
AcDbLine
 10
4934.691101069231
 20
6072.483492916246
 30
0.0
 11
5043.788016725462
 21
6181.580408572479
 31
0.0
  0
LINE
  5
2B572
330
747D
100
AcDbEntity
  8
部品1
 48
50.0
100
AcDbLine
 10
5043.788016725459
 20
6352.483492916247
 30
0.0
 11
5043.788016725466
 21
6072.483492916248
 31
0.0
  0
LINE
  5
2B573
330
747D
100
AcDbEntity
  8
部品1
 48
50.0
100
AcDbLine
 10
4843.788016725462
 20
6352.483492916247
 30
0.0
 11
4843.788016725466
 21
6072.483492916244
 31
0.0
  0
LINE
  5
2B574
330
747D
100
AcDbEntity
  8
細線
 48
50.0
100
AcDbLine
 10
4843.788016725466
 20
6116.284250388519
 30
0.0
 11
5043.788016725462
 21
6316.284250388513
 31
0.0
  0
LINE
  5
2B575
330
747D
100
AcDbEntity
  8
細線
 48
50.0
100
AcDbLine
 10
5663.788016725463
 20
6250.988092204552
 30
0.0
 11
5765.283417437152
 21
6352.483492916248
 31
0.0
  0
LINE
  5
2B576
330
747D
100
AcDbEntity
  8
細線
 48
50.0
100
AcDbLine
 10
5663.788016725463
 20
6295.889372809898
 30
0.0
 11
5720.382136831809
 21
6352.483492916248
 31
0.0
  0
LINE
  5
2B577
330
747D
100
AcDbEntity
  8
細線
 48
50.0
100
AcDbLine
 10
5663.788016725463
 20
6161.185530993861
 30
0.0
 11
5855.085978647847
 21
6352.483492916246
 31
0.0
  0
LINE
  5
2B578
330
747D
100
AcDbEntity
  8
細線
 48
50.0
100
AcDbLine
 10
5663.788016725463
 20
6206.086811599207
 30
0.0
 11
5810.184698042501
 21
6352.483492916248
 31
0.0
  0
LINE
  5
2B579
330
747D
100
AcDbEntity
  8
細線
 48
50.0
100
AcDbLine
 10
5844.493662279925
 20
6072.48349291625
 30
0.0
 11
5863.788016725466
 21
6091.77784736179
 31
0.0
  0
LINE
  5
2B57A
330
747D
100
AcDbEntity
  8
細線
 48
50.0
100
AcDbLine
 10
5664.888539858537
 20
6072.483492916246
 30
0.0
 11
5863.788016725463
 21
6271.38296978317
 31
0.0
  0
LINE
  5
2B57B
330
747D
100
AcDbEntity
  8
細線
 48
50.0
100
AcDbLine
 10
5709.789820463885
 20
6072.483492916246
 30
0.0
 11
5863.788016725463
 21
6226.481689177823
 31
0.0
  0
LINE
  5
2B57C
330
747D
100
AcDbEntity
  8
細線
 48
50.0
100
AcDbLine
 10
5799.592381674578
 20
6072.483492916248
 30
0.0
 11
5863.788016725466
 21
6136.679127967134
 31
0.0
  0
LINE
  5
2B57D
330
747D
100
AcDbEntity
  8
細線
 48
50.0
100
AcDbLine
 10
5754.691101069231
 20
6072.483492916246
 30
0.0
 11
5863.788016725463
 21
6181.580408572479
 31
0.0
  0
LINE
  5
2B57E
330
747D
100
AcDbEntity
  8
部品1
 48
50.0
100
AcDbLine
 10
5863.788016725459
 20
6352.483492916247
 30
0.0
 11
5863.788016725466
 21
6072.483492916248
 31
0.0
  0
LINE
  5
2B57F
330
747D
100
AcDbEntity
  8
部品1
 48
50.0
100
AcDbLine
 10
5663.788016725463
 20
6352.483492916247
 30
0.0
 11
5663.788016725466
 21
6072.483492916244
 31
0.0
  0
LINE
  5
2B580
330
747D
100
AcDbEntity
  8
細線
 48
50.0
100
AcDbLine
 10
5663.788016725466
 20
6116.284250388519
 30
0.0
 11
5863.788016725463
 21
6316.284250388513
 31
0.0
  0
LINE
  5
2B581
330
747D
100
AcDbEntity
  8
細線
 48
50.0
100
AcDbLine
 10
6483.788016725462
 20
6250.988092204552
 30
0.0
 11
6585.283417437152
 21
6352.483492916248
 31
0.0
  0
LINE
  5
2B582
330
747D
100
AcDbEntity
  8
細線
 48
50.0
100
AcDbLine
 10
6483.788016725462
 20
6295.889372809898
 30
0.0
 11
6540.382136831809
 21
6352.483492916248
 31
0.0
  0
LINE
  5
2B583
330
747D
100
AcDbEntity
  8
細線
 48
50.0
100
AcDbLine
 10
6483.788016725462
 20
6161.185530993861
 30
0.0
 11
6675.085978647847
 21
6352.483492916246
 31
0.0
  0
LINE
  5
2B584
330
747D
100
AcDbEntity
  8
細線
 48
50.0
100
AcDbLine
 10
6483.788016725462
 20
6206.086811599207
 30
0.0
 11
6630.184698042501
 21
6352.483492916248
 31
0.0
  0
LINE
  5
2B585
330
747D
100
AcDbEntity
  8
細線
 48
50.0
100
AcDbLine
 10
6664.493662279925
 20
6072.48349291625
 30
0.0
 11
6683.788016725467
 21
6091.77784736179
 31
0.0
  0
LINE
  5
2B586
330
747D
100
AcDbEntity
  8
細線
 48
50.0
100
AcDbLine
 10
6484.888539858537
 20
6072.483492916246
 30
0.0
 11
6683.788016725462
 21
6271.38296978317
 31
0.0
  0
LINE
  5
2B587
330
747D
100
AcDbEntity
  8
細線
 48
50.0
100
AcDbLine
 10
6529.789820463884
 20
6072.483492916246
 30
0.0
 11
6683.788016725462
 21
6226.481689177823
 31
0.0
  0
LINE
  5
2B588
330
747D
100
AcDbEntity
  8
細線
 48
50.0
100
AcDbLine
 10
6619.592381674578
 20
6072.483492916248
 30
0.0
 11
6683.788016725467
 21
6136.679127967134
 31
0.0
  0
LINE
  5
2B589
330
747D
100
AcDbEntity
  8
細線
 48
50.0
100
AcDbLine
 10
6574.691101069231
 20
6072.483492916246
 30
0.0
 11
6683.788016725462
 21
6181.580408572479
 31
0.0
  0
LINE
  5
2B58A
330
747D
100
AcDbEntity
  8
部品1
 48
50.0
100
AcDbLine
 10
6683.788016725459
 20
6352.483492916247
 30
0.0
 11
6683.788016725467
 21
6072.483492916248
 31
0.0
  0
LINE
  5
2B58B
330
747D
100
AcDbEntity
  8
部品1
 48
50.0
100
AcDbLine
 10
6483.788016725462
 20
6352.483492916247
 30
0.0
 11
6483.788016725466
 21
6072.483492916244
 31
0.0
  0
LINE
  5
2B58C
330
747D
100
AcDbEntity
  8
細線
 48
50.0
100
AcDbLine
 10
6483.788016725466
 20
6116.284250388519
 30
0.0
 11
6683.788016725462
 21
6316.284250388513
 31
0.0
  0
LINE
  5
2B58D
330
747D
100
AcDbEntity
  8
細線
 48
50.0
100
AcDbLine
 10
7303.788016725462
 20
6250.988092204552
 30
0.0
 11
7405.283417437153
 21
6352.483492916248
 31
0.0
  0
LINE
  5
2B58E
330
747D
100
AcDbEntity
  8
細線
 48
50.0
100
AcDbLine
 10
7303.788016725462
 20
6295.889372809898
 30
0.0
 11
7360.382136831809
 21
6352.483492916248
 31
0.0
  0
LINE
  5
2B58F
330
747D
100
AcDbEntity
  8
細線
 48
50.0
100
AcDbLine
 10
7303.788016725462
 20
6161.185530993861
 30
0.0
 11
7495.085978647847
 21
6352.483492916246
 31
0.0
  0
LINE
  5
2B590
330
747D
100
AcDbEntity
  8
細線
 48
50.0
100
AcDbLine
 10
7303.788016725462
 20
6206.086811599207
 30
0.0
 11
7450.184698042502
 21
6352.483492916248
 31
0.0
  0
LINE
  5
2B591
330
747D
100
AcDbEntity
  8
細線
 48
50.0
100
AcDbLine
 10
7484.493662279925
 20
6072.48349291625
 30
0.0
 11
7503.788016725467
 21
6091.77784736179
 31
0.0
  0
LINE
  5
2B592
330
747D
100
AcDbEntity
  8
細線
 48
50.0
100
AcDbLine
 10
7304.888539858537
 20
6072.483492916246
 30
0.0
 11
7503.788016725462
 21
6271.38296978317
 31
0.0
  0
LINE
  5
2B593
330
747D
100
AcDbEntity
  8
細線
 48
50.0
100
AcDbLine
 10
7349.789820463884
 20
6072.483492916246
 30
0.0
 11
7503.788016725462
 21
6226.481689177823
 31
0.0
  0
LINE
  5
2B594
330
747D
100
AcDbEntity
  8
細線
 48
50.0
100
AcDbLine
 10
7439.592381674578
 20
6072.483492916248
 30
0.0
 11
7503.788016725467
 21
6136.679127967134
 31
0.0
  0
LINE
  5
2B595
330
747D
100
AcDbEntity
  8
細線
 48
50.0
100
AcDbLine
 10
7394.691101069231
 20
6072.483492916246
 30
0.0
 11
7503.788016725462
 21
6181.580408572479
 31
0.0
  0
LINE
  5
2B596
330
747D
100
AcDbEntity
  8
部品1
 48
50.0
100
AcDbLine
 10
7503.788016725458
 20
6352.483492916247
 30
0.0
 11
7503.788016725467
 21
6072.483492916248
 31
0.0
  0
LINE
  5
2B597
330
747D
100
AcDbEntity
  8
部品1
 48
50.0
100
AcDbLine
 10
7303.788016725462
 20
6352.483492916247
 30
0.0
 11
7303.788016725467
 21
6072.483492916244
 31
0.0
  0
LINE
  5
2B598
330
747D
100
AcDbEntity
  8
細線
 48
50.0
100
AcDbLine
 10
7303.788016725467
 20
6116.284250388519
 30
0.0
 11
7503.788016725462
 21
6316.284250388513
 31
0.0
  0
LINE
  5
2B599
330
747D
100
AcDbEntity
  8
細線
 48
50.0
100
AcDbLine
 10
8123.788016725463
 20
6250.988092204552
 30
0.0
 11
8225.283417437152
 21
6352.483492916248
 31
0.0
  0
LINE
  5
2B59A
330
747D
100
AcDbEntity
  8
細線
 48
50.0
100
AcDbLine
 10
8123.788016725463
 20
6295.889372809898
 30
0.0
 11
8180.382136831809
 21
6352.483492916248
 31
0.0
  0
LINE
  5
2B59B
330
747D
100
AcDbEntity
  8
細線
 48
50.0
100
AcDbLine
 10
8123.788016725463
 20
6161.185530993861
 30
0.0
 11
8315.085978647847
 21
6352.483492916246
 31
0.0
  0
LINE
  5
2B59C
330
747D
100
AcDbEntity
  8
細線
 48
50.0
100
AcDbLine
 10
8123.788016725463
 20
6206.086811599207
 30
0.0
 11
8270.1846980425
 21
6352.483492916248
 31
0.0
  0
LINE
  5
2B59D
330
747D
100
AcDbEntity
  8
細線
 48
50.0
100
AcDbLine
 10
8304.493662279925
 20
6072.48349291625
 30
0.0
 11
8323.788016725465
 21
6091.77784736179
 31
0.0
  0
LINE
  5
2B59E
330
747D
100
AcDbEntity
  8
細線
 48
50.0
100
AcDbLine
 10
8124.888539858536
 20
6072.483492916246
 30
0.0
 11
8323.788016725464
 21
6271.38296978317
 31
0.0
  0
LINE
  5
2B59F
330
747D
100
AcDbEntity
  8
細線
 48
50.0
100
AcDbLine
 10
8169.789820463885
 20
6072.483492916246
 30
0.0
 11
8323.788016725464
 21
6226.481689177823
 31
0.0
  0
LINE
  5
2B5A0
330
747D
100
AcDbEntity
  8
細線
 48
50.0
100
AcDbLine
 10
8259.592381674577
 20
6072.483492916248
 30
0.0
 11
8323.788016725465
 21
6136.679127967134
 31
0.0
  0
LINE
  5
2B5A1
330
747D
100
AcDbEntity
  8
細線
 48
50.0
100
AcDbLine
 10
8214.691101069231
 20
6072.483492916246
 30
0.0
 11
8323.788016725464
 21
6181.580408572479
 31
0.0
  0
LINE
  5
2B5A2
330
747D
100
AcDbEntity
  8
部品1
 48
50.0
100
AcDbLine
 10
8323.788016725458
 20
6352.483492916247
 30
0.0
 11
8323.788016725465
 21
6072.483492916248
 31
0.0
  0
LINE
  5
2B5A3
330
747D
100
AcDbEntity
  8
部品1
 48
50.0
100
AcDbLine
 10
8123.788016725463
 20
6352.483492916247
 30
0.0
 11
8123.788016725466
 21
6072.483492916244
 31
0.0
  0
LINE
  5
2B5A4
330
747D
100
AcDbEntity
  8
細線
 48
50.0
100
AcDbLine
 10
8123.788016725466
 20
6116.284250388519
 30
0.0
 11
8323.788016725464
 21
6316.284250388513
 31
0.0
  0
LINE
  5
2B5A5
330
747D
100
AcDbEntity
  8
細線
 48
50.0
100
AcDbLine
 10
10583.78801672546
 20
6250.988092204552
 30
0.0
 11
10685.28341743717
 21
6352.483492916271
 31
0.0
  0
LINE
  5
2B5A6
330
747D
100
AcDbEntity
  8
細線
 48
50.0
100
AcDbLine
 10
10583.78801672546
 20
6295.889372809898
 30
0.0
 11
10640.38213683183
 21
6352.48349291627
 31
0.0
  0
LINE
  5
2B5A7
330
747D
100
AcDbEntity
  8
細線
 48
50.0
100
AcDbLine
 10
10583.78801672546
 20
6161.185530993861
 30
0.0
 11
10775.08597864787
 21
6352.48349291627
 31
0.0
  0
LINE
  5
2B5A8
330
747D
100
AcDbEntity
  8
細線
 48
50.0
100
AcDbLine
 10
10583.78801672546
 20
6206.086811599207
 30
0.0
 11
10730.18469804252
 21
6352.48349291627
 31
0.0
  0
LINE
  5
2B5A9
330
747D
100
AcDbEntity
  8
細線
 48
50.0
100
AcDbLine
 10
10764.49366227992
 20
6072.48349291625
 30
0.0
 11
10783.78801672546
 21
6091.77784736179
 31
0.0
  0
LINE
  5
2B5AA
330
747D
100
AcDbEntity
  8
細線
 48
50.0
100
AcDbLine
 10
10584.88853985853
 20
6072.483492916246
 30
0.0
 11
10783.78801672546
 21
6271.38296978317
 31
0.0
  0
LINE
  5
2B5AB
330
747D
100
AcDbEntity
  8
細線
 48
50.0
100
AcDbLine
 10
10629.78982046388
 20
6072.483492916246
 30
0.0
 11
10783.78801672546
 21
6226.481689177823
 31
0.0
  0
LINE
  5
2B5AC
330
747D
100
AcDbEntity
  8
細線
 48
50.0
100
AcDbLine
 10
10719.59238167458
 20
6072.483492916248
 30
0.0
 11
10783.78801672546
 21
6136.679127967134
 31
0.0
  0
LINE
  5
2B5AD
330
747D
100
AcDbEntity
  8
細線
 48
50.0
100
AcDbLine
 10
10674.69110106923
 20
6072.483492916246
 30
0.0
 11
10783.78801672546
 21
6181.580408572479
 31
0.0
  0
LINE
  5
2B5AE
330
747D
100
AcDbEntity
  8
部品1
 48
50.0
100
AcDbLine
 10
10783.78801672546
 20
6352.48349291627
 30
0.0
 11
10783.78801672546
 21
6072.483492916248
 31
0.0
  0
LINE
  5
2B5AF
330
747D
100
AcDbEntity
  8
部品1
 48
50.0
100
AcDbLine
 10
10583.78801672545
 20
6352.483492916271
 30
0.0
 11
10583.78801672546
 21
6072.483492916244
 31
0.0
  0
LINE
  5
2B5B0
330
747D
100
AcDbEntity
  8
細線
 48
50.0
100
AcDbLine
 10
10583.78801672546
 20
6116.284250388519
 30
0.0
 11
10783.78801672546
 21
6316.284250388513
 31
0.0
  0
LINE
  5
2B5B1
330
747D
100
AcDbEntity
  8
細線
 48
50.0
100
AcDbLine
 10
11403.78801672546
 20
6250.988092204552
 30
0.0
 11
11505.28341743717
 21
6352.483492916271
 31
0.0
  0
LINE
  5
2B5B2
330
747D
100
AcDbEntity
  8
細線
 48
50.0
100
AcDbLine
 10
11403.78801672546
 20
6295.889372809898
 30
0.0
 11
11460.38213683183
 21
6352.48349291627
 31
0.0
  0
LINE
  5
2B5B3
330
747D
100
AcDbEntity
  8
細線
 48
50.0
100
AcDbLine
 10
11403.78801672546
 20
6161.185530993861
 30
0.0
 11
11595.08597864787
 21
6352.48349291627
 31
0.0
  0
LINE
  5
2B5B4
330
747D
100
AcDbEntity
  8
細線
 48
50.0
100
AcDbLine
 10
11403.78801672546
 20
6206.086811599207
 30
0.0
 11
11550.18469804252
 21
6352.48349291627
 31
0.0
  0
LINE
  5
2B5B5
330
747D
100
AcDbEntity
  8
細線
 48
50.0
100
AcDbLine
 10
11584.49366227992
 20
6072.48349291625
 30
0.0
 11
11603.78801672546
 21
6091.77784736179
 31
0.0
  0
LINE
  5
2B5B6
330
747D
100
AcDbEntity
  8
細線
 48
50.0
100
AcDbLine
 10
11404.88853985853
 20
6072.483492916246
 30
0.0
 11
11603.78801672546
 21
6271.38296978317
 31
0.0
  0
LINE
  5
2B5B7
330
747D
100
AcDbEntity
  8
細線
 48
50.0
100
AcDbLine
 10
11449.78982046388
 20
6072.483492916246
 30
0.0
 11
11603.78801672546
 21
6226.481689177823
 31
0.0
  0
LINE
  5
2B5B8
330
747D
100
AcDbEntity
  8
細線
 48
50.0
100
AcDbLine
 10
11539.59238167458
 20
6072.483492916248
 30
0.0
 11
11603.78801672546
 21
6136.679127967134
 31
0.0
  0
LINE
  5
2B5B9
330
747D
100
AcDbEntity
  8
細線
 48
50.0
100
AcDbLine
 10
11494.69110106923
 20
6072.483492916246
 30
0.0
 11
11603.78801672546
 21
6181.580408572479
 31
0.0
  0
LINE
  5
2B5BA
330
747D
100
AcDbEntity
  8
部品1
 48
50.0
100
AcDbLine
 10
11603.78801672546
 20
6352.48349291627
 30
0.0
 11
11603.78801672546
 21
6072.483492916248
 31
0.0
  0
LINE
  5
2B5BB
330
747D
100
AcDbEntity
  8
部品1
 48
50.0
100
AcDbLine
 10
11403.78801672546
 20
6352.483492916271
 30
0.0
 11
11403.78801672546
 21
6072.483492916244
 31
0.0
  0
LINE
  5
2B5BC
330
747D
100
AcDbEntity
  8
細線
 48
50.0
100
AcDbLine
 10
11403.78801672546
 20
6116.284250388519
 30
0.0
 11
11603.78801672546
 21
6316.284250388513
 31
0.0
  0
LINE
  5
2B5BD
330
747D
100
AcDbEntity
  8
細線
 48
50.0
100
AcDbLine
 10
12223.78801672546
 20
6250.988092204552
 30
0.0
 11
12325.28341743717
 21
6352.483492916271
 31
0.0
  0
LINE
  5
2B5BE
330
747D
100
AcDbEntity
  8
細線
 48
50.0
100
AcDbLine
 10
12223.78801672546
 20
6295.889372809898
 30
0.0
 11
12280.38213683183
 21
6352.48349291627
 31
0.0
  0
LINE
  5
2B5BF
330
747D
100
AcDbEntity
  8
細線
 48
50.0
100
AcDbLine
 10
12223.78801672546
 20
6161.185530993861
 30
0.0
 11
12415.08597864787
 21
6352.48349291627
 31
0.0
  0
LINE
  5
2B5C0
330
747D
100
AcDbEntity
  8
細線
 48
50.0
100
AcDbLine
 10
12223.78801672546
 20
6206.086811599207
 30
0.0
 11
12370.18469804252
 21
6352.48349291627
 31
0.0
  0
LINE
  5
2B5C1
330
747D
100
AcDbEntity
  8
細線
 48
50.0
100
AcDbLine
 10
12404.49366227992
 20
6072.48349291625
 30
0.0
 11
12423.78801672546
 21
6091.77784736179
 31
0.0
  0
LINE
  5
2B5C2
330
747D
100
AcDbEntity
  8
細線
 48
50.0
100
AcDbLine
 10
12224.88853985854
 20
6072.483492916246
 30
0.0
 11
12423.78801672546
 21
6271.38296978317
 31
0.0
  0
LINE
  5
2B5C3
330
747D
100
AcDbEntity
  8
細線
 48
50.0
100
AcDbLine
 10
12269.78982046388
 20
6072.483492916246
 30
0.0
 11
12423.78801672546
 21
6226.481689177823
 31
0.0
  0
LINE
  5
2B5C4
330
747D
100
AcDbEntity
  8
細線
 48
50.0
100
AcDbLine
 10
12359.59238167458
 20
6072.483492916248
 30
0.0
 11
12423.78801672546
 21
6136.679127967134
 31
0.0
  0
LINE
  5
2B5C5
330
747D
100
AcDbEntity
  8
細線
 48
50.0
100
AcDbLine
 10
12314.69110106923
 20
6072.483492916246
 30
0.0
 11
12423.78801672546
 21
6181.580408572479
 31
0.0
  0
LINE
  5
2B5C6
330
747D
100
AcDbEntity
  8
部品1
 48
50.0
100
AcDbLine
 10
12423.78801672546
 20
6352.48349291627
 30
0.0
 11
12423.78801672546
 21
6072.483492916248
 31
0.0
  0
LINE
  5
2B5C7
330
747D
100
AcDbEntity
  8
部品1
 48
50.0
100
AcDbLine
 10
12223.78801672546
 20
6352.483492916271
 30
0.0
 11
12223.78801672546
 21
6072.483492916244
 31
0.0
  0
LINE
  5
2B5C8
330
747D
100
AcDbEntity
  8
細線
 48
50.0
100
AcDbLine
 10
12223.78801672546
 20
6116.284250388519
 30
0.0
 11
12423.78801672546
 21
6316.284250388513
 31
0.0
  0
LINE
  5
2B5E7
330
747D
100
AcDbEntity
  8
部品1
 48
50.0
100
AcDbLine
 10
12618.6
 20
6352.483492916283
 30
0.0
 11
12618.6
 21
7412.48349291625
 31
0.0
  0
LINE
  5
2B5E8
330
747D
100
AcDbEntity
  8
部品1
 48
50.0
100
AcDbLine
 10
3828.600000000001
 20
6352.483492916244
 30
0.0
 11
3828.599999999995
 21
7412.48349291625
 31
0.0
  0
MTEXT
  5
2B794
102
{ACAD_REACTORS
330
2B795
102
}
330
747D
100
AcDbEntity
  8
寸法
 62
     7
 48
50.0
100
AcDbMText
 10
10502.75124611895
 20
2053.329309340393
 30
0.0
 40
120.0
 41
0.8
 71
     4
 72
     1
  1
\A1;C.B
  7
STYLE1
 73
     1
 44
1.0
1001
ACAD
1000
MTEXTBEGIN
1070
    73
1070
     1
1070
    44
1040
1.0
1070
    74
1070
     0
1000
MTEXTEND
  0
LEADER
  5
2B795
330
747D
100
AcDbEntity
  8
寸法
 48
50.0
100
AcDbLeader
  3
INABA_S50G
 73
     0
 74
     0
 75
     1
 40
120.0
 41
185.591883092037
 76
     3
 10
10319.61303948531
 20
1796.182988659255
 30
0.0
 10
10352.75124611895
 20
1968.329309340393
 30
0.0
 10
10477.75124611895
 20
1968.329309340393
 30
0.0
340
2B794
1001
ACAD
1000
DSTYLE
1002
{
1070
    40
1040
1.0
1002
}
  0
LINE
  5
2B796
330
747D
100
AcDbEntity
  8
細線
 48
50.0
100
AcDbLine
 10
10465.26645306172
 20
1440.484073005904
 30
0.0
 11
10458.83567244337
 21
1464.484073005904
 31
0.0
  0
LINE
  5
2B797
330
747D
100
AcDbEntity
  8
細線
 48
50.0
100
AcDbLine
 10
10443.83051766723
 20
1360.484073005904
 30
0.0
 11
10450.26129828557
 21
1336.484073005904
 31
0.0
  0
LINE
  5
2B798
330
747D
100
AcDbEntity
  8
部品1
100
AcDbLine
 10
10508.88862786938
 20
1556.182988659255
 30
0.0
 11
10508.88862786939
 21
1336.484073005905
 31
0.0
  0
LINE
  5
2B799
330
747D
100
AcDbEntity
  8
細線
 48
50.0
100
AcDbLine
 10
10437.39973704888
 20
1336.484073005904
 30
0.0
 11
10471.69723368006
 21
1464.484073005902
 31
0.0
  0
LINE
  5
2B79A
330
747D
100
AcDbEntity
  8
細線
 48
50.0
100
AcDbLine
 10
10386.37840811447
 20
1440.484073005904
 30
0.0
 11
10379.94762749612
 21
1464.484073005904
 31
0.0
  0
LINE
  5
2B79B
330
747D
100
AcDbEntity
  8
細線
100
AcDbLine
 10
10261.92502236872
 20
1464.484073005906
 30
0.0
 11
10353.62393802206
 21
1556.182988659255
 31
0.0
  0
LINE
  5
2B79C
330
747D
100
AcDbEntity
  8
細線
 48
50.0
100
AcDbLine
 10
10307.49036316721
 20
1440.484073005905
 30
0.0
 11
10301.05958254887
 21
1464.484073005905
 31
0.0
  0
LINE
  5
2B79D
330
747D
100
AcDbEntity
  8
細線
100
AcDbLine
 10
10295.86614786567
 20
1464.484073005906
 30
0.0
 11
10387.56506351901
 21
1556.182988659255
 31
0.0
  0
LINE
  5
2B79E
330
747D
100
AcDbEntity
  8
細線
 48
50.0
100
AcDbLine
 10
10070.82622832548
 20
1440.484073005905
 30
0.0
 11
10064.39544770714
 21
1464.484073005905
 31
0.0
  0
LINE
  5
2B79F
330
747D
100
AcDbEntity
  8
細線
 48
50.0
100
AcDbLine
 10
10149.71427327273
 20
1440.484073005905
 30
0.0
 11
10143.28349265438
 21
1464.484073005905
 31
0.0
  0
LINE
  5
2B7A0
330
747D
100
AcDbEntity
  8
細線
 48
50.0
100
AcDbLine
 10
10228.60231821997
 20
1440.484073005905
 30
0.0
 11
10222.17153760163
 21
1464.484073005905
 31
0.0
  0
LINE
  5
2B7A1
330
747D
100
AcDbEntity
  8
細線
 48
50.0
100
AcDbLine
 10
10364.94247271998
 20
1360.484073005904
 30
0.0
 11
10371.37325333833
 21
1336.484073005904
 31
0.0
  0
LINE
  5
2B7A2
330
747D
100
AcDbEntity
  8
細線
 48
50.0
100
AcDbLine
 10
10286.05442777273
 20
1360.484073005905
 30
0.0
 11
10292.48520839109
 21
1336.484073005905
 31
0.0
  0
LINE
  5
2B7A3
330
747D
100
AcDbEntity
  8
細線
 48
50.0
100
AcDbLine
 10
10128.27833787824
 20
1360.484073005905
 30
0.0
 11
10134.70911849659
 21
1336.484073005905
 31
0.0
  0
LINE
  5
2B7A4
330
747D
100
AcDbEntity
  8
細線
 48
50.0
100
AcDbLine
 10
10207.16638282548
 20
1360.484073005905
 30
0.0
 11
10213.59716344383
 21
1336.484073005905
 31
0.0
  0
LINE
  5
2B7A5
330
747D
100
AcDbEntity
  8
細線
 48
50.0
100
AcDbLine
 10
10200.73560220713
 20
1336.484073005905
 30
0.0
 11
10235.03309883832
 21
1464.484073005904
 31
0.0
  0
LINE
  5
2B7A6
330
747D
100
AcDbEntity
  8
細線
 48
50.0
100
AcDbLine
 10
10121.84755725989
 20
1336.484073005904
 30
0.0
 11
10156.14505389107
 21
1464.484073005904
 31
0.0
  0
LINE
  5
2B7A7
330
747D
100
AcDbEntity
  8
細線
 48
50.0
100
AcDbLine
 10
10279.62364715438
 20
1336.484073005904
 30
0.0
 11
10313.92114378556
 21
1464.484073005905
 31
0.0
  0
LINE
  5
2B7A8
330
747D
100
AcDbEntity
  8
細線
100
AcDbLine
 10
10329.80727336263
 20
1464.484073005906
 30
0.0
 11
10421.50618901597
 21
1556.182988659255
 31
0.0
  0
LINE
  5
2B7A9
330
747D
100
AcDbEntity
  8
細線
 48
50.0
100
AcDbLine
 10
10358.51169210163
 20
1336.484073005902
 30
0.0
 11
10392.80918873282
 21
1464.484073005902
 31
0.0
  0
LINE
  5
2B7AA
330
747D
100
AcDbEntity
  8
部品1
100
AcDbLine
 10
10388.88862786938
 20
1796.182988659255
 30
0.0
 11
10388.88862786938
 21
1556.182988659255
 31
0.0
  0
LINE
  5
2B7AB
330
747D
100
AcDbEntity
  8
細線
100
AcDbLine
 10
10375.0509655218
 20
1556.182988659257
 30
0.0
 11
10135.05096552181
 21
1796.182988659255
 31
0.0
  0
LINE
  5
2B7AC
330
747D
100
AcDbEntity
  8
細線
100
AcDbLine
 10
10324.13927727637
 20
1556.182988659255
 30
0.0
 11
10084.13927727637
 21
1796.182988659255
 31
0.0
  0
LINE
  5
2B7AD
330
747D
100
AcDbEntity
  8
細線
100
AcDbLine
 10
9935.866147865674
 20
1464.484073005905
 30
0.0
 11
10027.56506351901
 21
1556.182988659255
 31
0.0
  0
LINE
  5
2B7AE
330
747D
100
AcDbEntity
  8
細線
100
AcDbLine
 10
9901.925022368715
 20
1464.484073005905
 30
0.0
 11
9993.623938022066
 21
1556.182988659255
 31
0.0
  0
LINE
  5
2B7AF
330
747D
100
AcDbEntity
  8
細線
 48
50.0
100
AcDbLine
 10
9913.050138430987
 20
1440.484073005905
 30
0.0
 11
9906.61935781264
 21
1464.484073005905
 31
0.0
  0
LINE
  5
2B7B0
330
747D
100
AcDbEntity
  8
細線
 48
50.0
100
AcDbLine
 10
9991.938183378239
 20
1440.484073005905
 30
0.0
 11
9985.507402759893
 21
1464.484073005905
 31
0.0
  0
LINE
  5
2B7B1
330
747D
100
AcDbEntity
  8
細線
 48
50.0
100
AcDbLine
 10
9834.162093483735
 20
1440.484073005905
 30
0.0
 11
9827.731312865388
 21
1464.484073005905
 31
0.0
  0
LINE
  5
2B7B2
330
747D
100
AcDbEntity
  8
細線
 48
50.0
100
AcDbLine
 10
10049.39029293099
 20
1360.484073005905
 30
0.0
 11
10055.82107354934
 21
1336.484073005905
 31
0.0
  0
LINE
  5
2B7B3
330
747D
100
AcDbEntity
  8
細線
 48
50.0
100
AcDbLine
 10
9970.50224798375
 20
1360.484073005905
 30
0.0
 11
9976.933028602097
 21
1336.484073005905
 31
0.0
  0
LINE
  5
2B7B4
330
747D
100
AcDbEntity
  8
細線
 48
50.0
100
AcDbLine
 10
9812.726158089247
 20
1360.484073005905
 30
0.0
 11
9819.156938707594
 21
1336.484073005905
 31
0.0
  0
LINE
  5
2B7B5
330
747D
100
AcDbEntity
  8
細線
 48
50.0
100
AcDbLine
 10
9891.614203036498
 20
1360.484073005905
 30
0.0
 11
9898.044983654846
 21
1336.484073005905
 31
0.0
  0
LINE
  5
2B7B6
330
747D
100
AcDbEntity
  8
部品1
100
AcDbLine
 10
9788.888627869386
 20
1336.484073005901
 30
0.0
 11
9788.888627869386
 21
1556.182988659255
 31
0.0
  0
LINE
  5
2B7B7
330
747D
100
AcDbEntity
  8
細線
 48
50.0
100
AcDbLine
 10
9806.295377470899
 20
1336.484073005905
 30
0.0
 11
9840.592874102084
 21
1464.484073005905
 31
0.0
  0
LINE
  5
2B7B8
330
747D
100
AcDbEntity
  8
細線
 48
50.0
100
AcDbLine
 10
9964.071467365398
 20
1336.484073005905
 30
0.0
 11
9998.368963996583
 21
1464.484073005905
 31
0.0
  0
LINE
  5
2B7B9
330
747D
100
AcDbEntity
  8
細線
 48
50.0
100
AcDbLine
 10
9885.183422418146
 20
1336.484073005904
 30
0.0
 11
9919.480919049329
 21
1464.484073005904
 31
0.0
  0
LINE
  5
2B7BA
330
747D
100
AcDbEntity
  8
部品1
100
AcDbLine
 10
9908.888627869387
 20
1556.182988659255
 30
0.0
 11
9908.888627869387
 21
1796.182988659255
 31
0.0
  0
TEXT
  5
2B7BB
330
747D
100
AcDbEntity
  8
部品1
 48
50.0
100
AcDbText
 10
9144.770541110885
 20
1289.383248021946
 30
0.0
 40
80.0
  1
ボルトの出
 50
90.0
  7
STYLE2
100
AcDbText
  0
LINE
  5
2B7BC
330
747D
100
AcDbEntity
  8
細線
100
AcDbLine
 10
10052.61027330074
 20
1556.182988659255
 30
0.0
 11
9908.888627869387
 21
1699.904634090608
 31
0.0
  0
LWPOLYLINE
  5
2B7BD
330
747D
100
AcDbEntity
  8
部品1
 48
50.0
100
AcDbPolyline
 90
        2
 70
     0
 43
12.0
 10
9524.277365768998
 20
1556.182988659255
 10
10725.36966890062
 20
1556.182988659255
  0
LINE
  5
2B7BE
330
747D
100
AcDbEntity
  8
細線
100
AcDbLine
 10
9969.807273362629
 20
1464.484073005905
 30
0.0
 11
10061.50618901597
 21
1556.182988659255
 31
0.0
  0
LINE
  5
2B7BF
330
747D
100
AcDbEntity
  8
部品1
100
AcDbLine
 10
9788.888627869386
 20
1464.484073005905
 30
0.0
 11
10508.88862786938
 21
1464.484073005907
 31
0.0
  0
LINE
  5
2B7C0
330
747D
100
AcDbEntity
  8
部品1
100
AcDbLine
 10
9788.888627869386
 20
1336.484073005901
 30
0.0
 11
10508.88862786938
 21
1336.484073005905
 31
0.0
  0
LINE
  5
2B7C1
330
747D
100
AcDbEntity
  8
細線
 48
50.0
100
AcDbLine
 10
10042.95951231264
 20
1336.484073005905
 30
0.0
 11
10077.25700894383
 21
1464.484073005904
 31
0.0
  0
LINE
  5
2B7C2
330
747D
100
AcDbEntity
  8
部品1
100
AcDbLine
 10
9908.888627869387
 20
1796.182988659255
 30
0.0
 11
10388.88862786938
 21
1796.182988659255
 31
0.0
  0
LINE
  5
2B7C3
330
747D
100
AcDbEntity
  8
細線
100
AcDbLine
 10
10103.52196154617
 20
1556.182988659255
 30
0.0
 11
9908.888627869387
 21
1750.816322336038
 31
0.0
  0
LINE
  5
2B7C4
330
747D
100
AcDbEntity
  8
部品1
100
AcDbLine
 10
11095.63012896642
 20
231.2146862751934
 30
0.0
 11
11095.63012896642
 21
3195.52165585984
 31
0.0
  0
TEXT
  5
2B7C5
330
747D
100
AcDbEntity
  8
部品1
100
AcDbText
 10
7717.52494475856
 20
3015.969723908412
 30
0.0
 40
120.0
  1
基礎詳細
  7
STYLE2
100
AcDbText
  0
LINE
  5
2B7C6
330
747D
100
AcDbEntity
  8
部品1
 48
50.0
100
AcDbLine
 10
8032.752695566628
 20
2195.058269768398
 30
0.0
 11
8048.75269556663
 21
2187.058269768398
 31
0.0
  0
LINE
  5
2B7C7
330
747D
100
AcDbEntity
  8
細線
 48
50.0
100
AcDbLine
 10
8000.75269556663
 20
2147.058269768398
 30
0.0
 11
8000.75269556663
 21
2179.058269768398
 31
0.0
  0
LINE
  5
2B7C8
330
747D
100
AcDbEntity
  8
部品1
 48
50.0
100
AcDbLine
 10
8048.75269556663
 20
2155.058269768398
 30
0.0
 11
8048.75269556663
 21
2187.058269768398
 31
0.0
  0
LINE
  5
2B7C9
330
747D
100
AcDbEntity
  8
細線
 48
50.0
100
AcDbLine
 10
8032.752695566628
 20
2147.058269768398
 30
0.0
 11
8032.752695566628
 21
2179.058269768398
 31
0.0
  0
LINE
  5
2B7CA
330
747D
100
AcDbEntity
  8
部品1
 48
50.0
100
AcDbLine
 10
8032.752695566628
 20
2179.058269768398
 30
0.0
 11
8048.75269556663
 21
2187.058269768398
 31
0.0
  0
LINE
  5
2B7CB
330
747D
100
AcDbEntity
  8
部品1
 48
50.0
100
AcDbLine
 10
8000.75269556663
 20
2179.058269768398
 30
0.0
 11
8032.752695566628
 21
2179.058269768398
 31
0.0
  0
LINE
  5
2B7CC
330
747D
100
AcDbEntity
  8
部品1
 48
50.0
100
AcDbLine
 10
8032.752695566628
 20
2147.058269768398
 30
0.0
 11
8048.75269556663
 21
2155.058269768398
 31
0.0
  0
LINE
  5
2B7CD
330
747D
100
AcDbEntity
  8
部品1
 48
50.0
100
AcDbLine
 10
8000.75269556663
 20
2147.058269768398
 30
0.0
 11
8032.752695566628
 21
2147.058269768398
 31
0.0
  0
ELLIPSE
  5
2B7CE
330
747D
100
AcDbEntity
  8
細線
 48
50.0
100
AcDbEllipse
 10
8016.752695566628
 20
2187.058269768398
 30
0.0
 11
14.76670786606846
 21
0.0
 31
0.0
210
0.0
220
0.0
230
1.0
 40
0.2071254069489396
 41
0.0
 42
6.283185307179586
  0
LINE
  5
2B7CF
330
747D
100
AcDbEntity
  8
部品1
 48
50.0
100
AcDbLine
 10
8000.75269556663
 20
2195.058269768398
 30
0.0
 11
8032.752695566628
 21
2195.058269768398
 31
0.0
  0
LINE
  5
2B7D0
330
747D
100
AcDbEntity
  8
部品1
 48
50.0
100
AcDbLine
 10
7984.75269556663
 20
2155.058269768398
 30
0.0
 11
7984.75269556663
 21
2187.058269768398
 31
0.0
  0
LINE
  5
2B7D1
330
747D
100
AcDbEntity
  8
部品1
 48
50.0
100
AcDbLine
 10
7984.75269556663
 20
2187.058269768398
 30
0.0
 11
8000.75269556663
 21
2195.058269768398
 31
0.0
  0
LINE
  5
2B7D2
330
747D
100
AcDbEntity
  8
部品1
 48
50.0
100
AcDbLine
 10
7984.75269556663
 20
2155.058269768398
 30
0.0
 11
8000.75269556663
 21
2147.058269768398
 31
0.0
  0
LINE
  5
2B7D3
330
747D
100
AcDbEntity
  8
部品1
 48
50.0
100
AcDbLine
 10
7984.75269556663
 20
2187.058269768398
 30
0.0
 11
8000.75269556663
 21
2179.058269768398
 31
0.0
  0
LINE
  5
2B7D4
330
747D
100
AcDbEntity
  8
部品1
 48
50.0
100
AcDbLine
 10
8056.752695566629
 20
2055.706277103527
 30
0.0
 11
8056.752695566629
 21
2065.306277103528
 31
0.0
  0
ELLIPSE
  5
2B7D5
330
747D
100
AcDbEntity
  8
部品1
 48
50.0
100
AcDbEllipse
 10
8016.752695566628
 20
2065.306277103528
 30
0.0
 11
18.4
 21
0.0
 31
0.0
210
0.0
220
0.0
230
1.0
 40
0.3478260869565217
 41
0.0
 42
6.283185307179586
  0
ARC
  5
2B7D6
330
747D
100
AcDbEntity
  8
部品1
100
AcDbCircle
 10
7855.652695566629
 20
1894.282988659255
 30
0.0
 40
2.7
100
AcDbArc
 50
90.0
 51
180.0
  0
LINE
  5
2B7D7
330
747D
100
AcDbEntity
  8
部品1
100
AcDbLine
 10
7858.352695566627
 20
1907.782988659255
 30
0.0
 11
7900.652695566629
 21
1907.782988659252
 31
0.0
  0
LINE
  5
2B7D8
330
747D
100
AcDbEntity
  8
部品1
100
AcDbLine
 10
7855.652695566629
 20
1896.982988659255
 30
0.0
 11
7855.652695566629
 21
1905.082988659254
 31
0.0
  0
LINE
  5
2B7D9
330
747D
100
AcDbEntity
  8
部品1
100
AcDbLine
 10
7855.652695566629
 20
1896.982988659255
 30
0.0
 11
7855.652695566629
 21
1896.982988659255
 31
0.0
  0
ARC
  5
2B7DA
330
747D
100
AcDbEntity
  8
部品1
100
AcDbCircle
 10
7858.352695566627
 20
1905.082988659254
 30
0.0
 40
2.7
100
AcDbArc
 50
90.0
 51
180.0
  0
ARC
  5
2B7DB
330
747D
100
AcDbEntity
  8
部品1
100
AcDbCircle
 10
7900.652695566629
 20
1905.082988659252
 30
0.0
 40
2.7
100
AcDbArc
 50
0.0
 51
90.0
  0
LINE
  5
2B7DC
330
747D
100
AcDbEntity
  8
部品1
 48
50.0
100
AcDbLine
 10
7976.75269556663
 20
2065.306277103528
 30
0.0
 11
7976.75269556663
 21
2055.706277103527
 31
0.0
  0
ELLIPSE
  5
2B7DD
330
747D
100
AcDbEntity
  8
部品1
 48
50.0
100
AcDbEllipse
 10
8016.752695566628
 20
2055.706277103528
 30
0.0
 11
40.0
 21
0.0
 31
0.0
210
0.0
220
0.0
230
1.0
 40
0.4
 41
3.141592653589793
 42
6.283185307179586
  0
ELLIPSE
  5
2B7DE
330
747D
100
AcDbEntity
  8
部品1
 48
50.0
100
AcDbEllipse
 10
8016.752695566628
 20
2065.306277103528
 30
0.0
 11
40.0
 21
0.0
 31
0.0
210
0.0
220
0.0
230
1.0
 40
0.4
 41
0.0
 42
6.283185307179586
  0
LINE
  5
2B7DF
330
747D
100
AcDbEntity
  8
部品1
100
AcDbLine
 10
8011.352695566626
 20
1848.942988659255
 30
0.0
 11
8022.15269556663
 21
1848.942988659255
 31
0.0
  0
LINE
  5
2B7E0
330
747D
100
AcDbEntity
  8
部品1
100
AcDbLine
 10
8007.752695566628
 20
1845.342988659256
 30
0.0
 11
8025.752695566628
 21
1845.342988659256
 31
0.0
  0
LINE
  5
2B7E1
330
747D
100
AcDbEntity
  8
細線
100
AcDbLine
 10
8011.352695566632
 20
1805.742988659255
 30
0.0
 11
8011.352695566626
 21
1848.942988659255
 31
0.0
  0
LINE
  5
2B7E2
330
747D
100
AcDbEntity
  8
細線
100
AcDbLine
 10
8022.15269556663
 20
1805.742988659255
 30
0.0
 11
8022.15269556663
 21
1848.942988659255
 31
0.0
  0
LINE
  5
2B7E3
330
747D
100
AcDbEntity
  8
部品1
100
AcDbLine
 10
7924.052695566628
 20
1863.042988659255
 30
0.0
 11
7924.052695566628
 21
1845.942988659255
 31
0.0
  0
LINE
  5
2B7E4
330
747D
100
AcDbEntity
  8
部品1
100
AcDbLine
 10
7957.61269556663
 20
1863.042988659255
 30
0.0
 11
7957.612695566625
 21
1808.442988659255
 31
0.0
  0
ARC
  5
2B7E5
330
747D
100
AcDbEntity
  8
部品1
100
AcDbCircle
 10
7942.95269556663
 20
1851.082988659254
 30
0.0
 40
2.7
100
AcDbArc
 50
0.0
 51
90.0
  0
LINE
  5
2B7E6
330
747D
100
AcDbEntity
  8
部品1
100
AcDbLine
 10
7903.352695566628
 20
1853.782988659255
 30
0.0
 11
7942.95269556663
 21
1853.782988659255
 31
0.0
  0
ARC
  5
2B7E7
330
747D
100
AcDbEntity
  8
部品1
100
AcDbCircle
 10
7942.95269556663
 20
1808.442988659255
 30
0.0
 40
2.7
100
AcDbArc
 50
270.0
 51
0.0
  0
ARC
  5
2B7E8
330
747D
100
AcDbEntity
  8
部品1
100
AcDbCircle
 10
7960.312695566623
 20
1808.442988659255
 30
0.0
 40
2.7
100
AcDbArc
 50
180.0
 51
270.0
  0
LINE
  5
2B7E9
330
747D
100
AcDbEntity
  8
部品1
100
AcDbLine
 10
7931.252695566628
 20
1805.742988659255
 30
0.0
 11
7942.95269556663
 21
1805.742988659255
 31
0.0
  0
LINE
  5
2B7EA
330
747D
100
AcDbEntity
  8
部品1
100
AcDbLine
 10
7945.652695566629
 20
1851.082988659254
 30
0.0
 11
7945.652695566629
 21
1808.442988659255
 31
0.0
  0
ARC
  5
2B7EB
330
747D
100
AcDbEntity
  8
部品1
100
AcDbCircle
 10
7954.91269556663
 20
1863.042988659255
 30
0.0
 40
2.7
100
AcDbArc
 50
0.0
 51
90.0
  0
ARC
  5
2B7EC
330
747D
100
AcDbEntity
  8
部品1
100
AcDbCircle
 10
7926.75269556663
 20
1863.042988659255
 30
0.0
 40
2.7
100
AcDbArc
 50
90.0
 51
180.0
  0
LINE
  5
2B7ED
330
747D
100
AcDbEntity
  8
部品1
100
AcDbLine
 10
7926.75269556663
 20
1865.742988659255
 30
0.0
 11
7954.91269556663
 21
1865.742988659255
 31
0.0
  0
LINE
  5
2B7EE
330
747D
100
AcDbEntity
  8
部品1
100
AcDbLine
 10
7903.352695566628
 20
1905.082988659252
 30
0.0
 11
7903.352695566628
 21
1853.782988659255
 31
0.0
  0
LINE
  5
2B7EF
330
747D
100
AcDbEntity
  8
部品1
100
AcDbLine
 10
7852.95269556663
 20
1886.182988659255
 30
0.0
 11
7852.95269556663
 21
1894.282988659255
 31
0.0
  0
LINE
  5
2B7F0
330
747D
100
AcDbEntity
  8
部品1
100
AcDbLine
 10
7960.312695566623
 20
1805.742988659255
 30
0.0
 11
8161.652695566623
 21
1805.742988659255
 31
0.0
  0
LINE
  5
2B7F1
330
747D
100
AcDbEntity
  8
部品1
100
AcDbLine
 10
7801.652695566629
 20
1808.442988659255
 30
0.0
 11
7801.652695566629
 21
1870.574892361963
 31
0.0
  0
LINE
  5
2B7F2
330
747D
100
AcDbEntity
  8
部品1
100
AcDbLine
 10
7804.352695566628
 20
1805.742988659255
 30
0.0
 11
7816.052695566622
 21
1805.742988659255
 31
0.0
  0
LINE
  5
2B7F3
330
747D
100
AcDbEntity
  8
細線
 48
50.0
100
AcDbLine
 10
7795.352695566627
 20
1783.96356495916
 30
0.0
 11
7807.572119266723
 21
1796.182988659255
 31
0.0
  0
ARC
  5
2B7F4
330
747D
100
AcDbEntity
  8
部品1
100
AcDbCircle
 10
7804.352695566628
 20
1808.442988659255
 30
0.0
 40
2.7
100
AcDbArc
 50
180.0
 51
270.0
  0
LINE
  5
2B7F5
330
747D
100
AcDbEntity
  8
部品1
100
AcDbLine
 10
7803.69784937903
 20
1873.194277112355
 30
0.0
 11
7812.45269556663
 21
1875.382988659255
 31
0.0
  0
ARC
  5
2B7F6
330
747D
100
AcDbEntity
  8
部品1
100
AcDbCircle
 10
7804.352695566628
 20
1870.574892361963
 30
0.0
 40
2.7
100
AcDbArc
 50
104.0362434679067
 51
180.0
  0
ARC
  5
2B7F7
330
747D
100
AcDbEntity
  8
部品1
100
AcDbCircle
 10
7815.152695566628
 20
1883.482988659255
 30
0.0
 40
2.7
100
AcDbArc
 50
90.0
 51
180.0
  0
LINE
  5
2B7F8
330
747D
100
AcDbEntity
  8
部品1
100
AcDbLine
 10
7812.45269556663
 20
1875.382988659255
 30
0.0
 11
7812.45269556663
 21
1883.482988659255
 31
0.0
  0
LINE
  5
2B7F9
330
747D
100
AcDbEntity
  8
部品1
 48
50.0
100
AcDbLine
 10
7795.352695566627
 20
1796.182988659255
 30
0.0
 11
8209.352695566632
 21
1796.182988659255
 31
0.0
  0
LINE
  5
2B7FA
330
747D
100
AcDbEntity
  8
細線
 48
50.0
100
AcDbLine
 10
7795.352695566627
 20
1730.082028232745
 30
0.0
 11
7861.453655993138
 21
1796.182988659255
 31
0.0
  0
LINE
  5
2B7FB
330
747D
100
AcDbEntity
  8
細線
 48
50.0
100
AcDbLine
 10
7795.352695566627
 20
1757.022796595953
 30
0.0
 11
7834.512887629935
 21
1796.182988659255
 31
0.0
  0
LINE
  5
2B7FC
330
747D
100
AcDbEntity
  8
部品1
100
AcDbLine
 10
7815.152695566628
 20
1886.182988659255
 30
0.0
 11
7852.95269556663
 21
1886.182988659255
 31
0.0
  0
LINE
  5
2B7FD
330
747D
100
AcDbEntity
  8
部品1
 48
50.0
100
AcDbLine
 10
8209.352695566627
 20
1252.182988659255
 30
0.0
 11
8337.352695566627
 21
1252.182988659255
 31
0.0
  0
LINE
  5
2B7FE
330
747D
100
AcDbEntity
  8
部品1
100
AcDbLine
 10
8025.752695566628
 20
1571.182988659255
 30
0.0
 11
8061.75269556663
 21
1571.182988659255
 31
0.0
  0
LINE
  5
2B7FF
330
747D
100
AcDbEntity
  8
部品1
100
AcDbLine
 10
8025.752695566628
 20
1553.182988659255
 30
0.0
 11
8061.75269556663
 21
1553.182988659255
 31
0.0
  0
ARC
  5
2B800
330
747D
100
AcDbEntity
  8
部品1
100
AcDbCircle
 10
8025.752695566628
 20
1571.182988659255
 30
0.0
 40
18.0
100
AcDbArc
 50
180.0
 51
270.0
  0
LINE
  5
2B801
330
747D
100
AcDbEntity
  8
部品1
100
AcDbLine
 10
8061.75269556663
 20
1553.182988659255
 30
0.0
 11
8061.75269556663
 21
1571.182988659255
 31
0.0
  0
LINE
  5
2B802
330
747D
100
AcDbEntity
  8
部品1
100
AcDbLine
 10
8079.752695566629
 20
1472.182988659253
 30
0.0
 11
7953.752695566622
 21
1472.182988659253
 31
0.0
  0
LINE
  5
2B803
330
747D
100
AcDbEntity
  8
細線
 48
50.0
100
AcDbLine
 10
8373.730520758964
 20
988.1829886592532
 30
0.0
 11
8367.299740140618
 21
1012.182988659253
 31
0.0
  0
LINE
  5
2B804
330
747D
100
AcDbEntity
  8
細線
 48
50.0
100
AcDbLine
 10
8294.842475811718
 20
988.1829886592532
 30
0.0
 11
8288.411695193373
 21
1012.182988659253
 31
0.0
  0
LINE
  5
2B805
330
747D
100
AcDbEntity
  8
細線
 48
50.0
100
AcDbLine
 10
8215.954430864462
 20
988.182988659255
 30
0.0
 11
8209.523650246113
 21
1012.182988659255
 31
0.0
  0
LINE
  5
2B806
330
747D
100
AcDbEntity
  8
細線
 48
50.0
100
AcDbLine
 10
8352.294585364473
 20
908.1829886592531
 30
0.0
 11
8358.725365982822
 21
884.1829886592531
 31
0.0
  0
LINE
  5
2B807
330
747D
100
AcDbEntity
  8
細線
 48
50.0
100
AcDbLine
 10
8273.406540417228
 20
908.1829886592531
 30
0.0
 11
8279.837321035575
 21
884.1829886592531
 31
0.0
  0
LINE
  5
2B808
330
747D
100
AcDbEntity
  8
細線
 48
50.0
100
AcDbLine
 10
8194.51849546998
 20
908.1829886592549
 30
0.0
 11
8200.949276088337
 21
884.1829886592549
 31
0.0
  0
LINE
  5
2B809
330
747D
100
AcDbEntity
  8
細線
 48
50.0
100
AcDbLine
 10
8266.97575979888
 20
884.1829886592522
 30
0.0
 11
8301.273256430063
 21
1012.182988659252
 31
0.0
  0
LINE
  5
2B80A
330
747D
100
AcDbEntity
  8
細線
 48
50.0
100
AcDbLine
 10
8188.087714851631
 20
884.1829886592531
 30
0.0
 11
8222.385211482805
 21
1012.182988659255
 31
0.0
  0
LINE
  5
2B80B
330
747D
100
AcDbEntity
  8
細線
 48
50.0
100
AcDbLine
 10
8345.863804746123
 20
884.1829886592531
 30
0.0
 11
8380.161301377309
 21
1012.182988659252
 31
0.0
  0
LINE
  5
2B80C
330
747D
100
AcDbEntity
  8
部品1
 48
50.0
100
AcDbLine
 10
8417.352695566632
 20
1012.182988659255
 30
0.0
 11
8417.352695566632
 21
884.1829886592549
 31
0.0
  0
LINE
  5
2B80D
330
747D
100
AcDbEntity
  8
細線
 48
50.0
100
AcDbLine
 10
8137.066385917224
 20
988.182988659255
 30
0.0
 11
8130.635605298877
 21
1012.182988659255
 31
0.0
  0
LINE
  5
2B80E
330
747D
100
AcDbEntity
  8
細線
 48
50.0
100
AcDbLine
 10
8058.178340969979
 20
988.182988659255
 30
0.0
 11
8051.74756035163
 21
1012.182988659255
 31
0.0
  0
LINE
  5
2B80F
330
747D
100
AcDbEntity
  8
細線
 48
50.0
100
AcDbLine
 10
7900.402251075483
 20
988.182988659255
 30
0.0
 11
7893.971470457138
 21
1012.182988659255
 31
0.0
  0
LINE
  5
2B810
330
747D
100
AcDbEntity
  8
細線
 48
50.0
100
AcDbLine
 10
7979.290296022731
 20
988.182988659255
 30
0.0
 11
7972.859515404383
 21
1012.182988659255
 31
0.0
  0
LINE
  5
2B811
330
747D
100
AcDbEntity
  8
細線
 48
50.0
100
AcDbLine
 10
8036.742405575489
 20
908.1829886592549
 30
0.0
 11
8043.173186193836
 21
884.1829886592549
 31
0.0
  0
LINE
  5
2B812
330
747D
100
AcDbEntity
  8
細線
 48
50.0
100
AcDbLine
 10
8115.630450522735
 20
908.1829886592549
 30
0.0
 11
8122.06123114108
 21
884.1829886592549
 31
0.0
  0
LINE
  5
2B813
330
747D
100
AcDbEntity
  8
細線
 48
50.0
100
AcDbLine
 10
7878.966315680995
 20
908.1829886592549
 30
0.0
 11
7885.397096299342
 21
884.1829886592549
 31
0.0
  0
LINE
  5
2B814
330
747D
100
AcDbEntity
  8
細線
 48
50.0
100
AcDbLine
 10
7957.854360628243
 20
908.1829886592549
 30
0.0
 11
7964.28514124659
 21
884.1829886592549
 31
0.0
  0
LINE
  5
2B815
330
747D
100
AcDbEntity
  8
細線
 48
50.0
100
AcDbLine
 10
8109.199669904382
 20
884.1829886592549
 30
0.0
 11
8143.497166535565
 21
1012.182988659253
 31
0.0
  0
LINE
  5
2B816
330
747D
100
AcDbEntity
  8
細線
 48
50.0
100
AcDbLine
 10
7951.42358000989
 20
884.1829886592549
 30
0.0
 11
7985.721076641076
 21
1012.182988659253
 31
0.0
  0
LINE
  5
2B817
330
747D
100
AcDbEntity
  8
細線
 48
50.0
100
AcDbLine
 10
7872.535535062643
 20
884.1829886592549
 30
0.0
 11
7906.833031693826
 21
1012.182988659255
 31
0.0
  0
LINE
  5
2B818
330
747D
100
AcDbEntity
  8
細線
 48
50.0
100
AcDbLine
 10
8030.311624957141
 20
884.1829886592531
 30
0.0
 11
8064.60912158832
 21
1012.182988659253
 31
0.0
  0
LINE
  5
2B819
330
747D
100
AcDbEntity
  8
細線
 48
50.0
100
AcDbLine
 10
8155.084390521436
 20
1012.182988659255
 30
0.0
 11
8337.352695566627
 21
1194.451293704451
 31
0.0
  0
LINE
  5
2B81A
330
747D
100
AcDbEntity
  8
部品1
 48
50.0
100
AcDbLine
 10
8337.352695566627
 20
1252.182988659255
 30
0.0
 11
8337.352695566627
 21
1012.182988659255
 31
0.0
  0
LINE
  5
2B81B
330
747D
100
AcDbEntity
  8
細線
 48
50.0
100
AcDbLine
 10
8128.143622158233
 20
1012.182988659255
 30
0.0
 11
8337.352695566627
 21
1221.392062067648
 31
0.0
  0
LINE
  5
2B81C
330
747D
100
AcDbEntity
  8
細線
 48
50.0
100
AcDbLine
 10
8101.202853795021
 20
1012.182988659255
 30
0.0
 11
8337.352695566627
 21
1248.332830430863
 31
0.0
  0
LINE
  5
2B81D
330
747D
100
AcDbEntity
  8
細線
 48
50.0
100
AcDbLine
 10
7885.676706889363
 20
1012.182988659255
 30
0.0
 11
8209.352695566627
 21
1335.858977336521
 31
0.0
  0
LINE
  5
2B81E
330
747D
100
AcDbEntity
  8
細線
 48
50.0
100
AcDbLine
 10
7939.558243615778
 20
1012.182988659255
 30
0.0
 11
8209.352695566627
 21
1281.977440610112
 31
0.0
  0
LINE
  5
2B81F
330
747D
100
AcDbEntity
  8
細線
 48
50.0
100
AcDbLine
 10
7912.617475252573
 20
1012.182988659255
 30
0.0
 11
8209.352695566627
 21
1308.918208973308
 31
0.0
  0
LINE
  5
2B820
330
747D
100
AcDbEntity
  8
細線
 48
50.0
100
AcDbLine
 10
7667.352695566624
 20
1224.911271147841
 30
0.0
 11
7694.624413078043
 21
1252.182988659255
 31
0.0
  0
LINE
  5
2B821
330
747D
100
AcDbEntity
  8
部品1
 48
50.0
100
AcDbLine
 10
7667.352695566627
 20
1252.182988659255
 30
0.0
 11
7795.352695566627
 21
1252.182988659255
 31
0.0
  0
LINE
  5
2B822
330
747D
100
AcDbEntity
  8
細線
 48
50.0
100
AcDbLine
 10
7667.352695566624
 20
1197.97050278463
 30
0.0
 11
7721.565181441253
 21
1252.182988659255
 31
0.0
  0
LWPOLYLINE
  5
2B823
330
747D
100
AcDbEntity
  8
部品1
 48
50.0
100
AcDbPolyline
 90
        2
 70
     0
 43
8.0
 10
7381.212793733673
 20
1556.182988659256
 10
7795.352695566627
 20
1556.182988659256
  0
LINE
  5
2B824
330
747D
100
AcDbEntity
  8
細線
 48
50.0
100
AcDbLine
 10
7742.626161180982
 20
988.182988659255
 30
0.0
 11
7736.195380562634
 21
1012.182988659255
 31
0.0
  0
LINE
  5
2B825
330
747D
100
AcDbEntity
  8
細線
 48
50.0
100
AcDbLine
 10
7821.514206128234
 20
988.182988659255
 30
0.0
 11
7815.083425509886
 21
1012.182988659255
 31
0.0
  0
LINE
  5
2B826
330
747D
100
AcDbEntity
  8
細線
 48
50.0
100
AcDbLine
 10
7663.738116233729
 20
988.182988659255
 30
0.0
 11
7657.307335615384
 21
1012.182988659255
 31
0.0
  0
LINE
  5
2B827
330
747D
100
AcDbEntity
  8
細線
 48
50.0
100
AcDbLine
 10
7587.352695566628
 20
997.522909625035
 30
0.0
 11
7591.280851904823
 21
1012.182988659255
 31
0.0
  0
LINE
  5
2B828
330
747D
100
AcDbEntity
  8
細線
 48
50.0
100
AcDbLine
 10
7721.190225786493
 20
908.1829886592549
 30
0.0
 11
7727.62100640484
 21
884.1829886592549
 31
0.0
  0
LINE
  5
2B829
330
747D
100
AcDbEntity
  8
細線
 48
50.0
100
AcDbLine
 10
7800.078270733743
 20
908.1829886592549
 30
0.0
 11
7806.509051352091
 21
884.1829886592549
 31
0.0
  0
LINE
  5
2B82A
330
747D
100
AcDbEntity
  8
細線
 48
50.0
100
AcDbLine
 10
7642.302180839241
 20
908.1829886592549
 30
0.0
 11
7648.732961457587
 21
884.1829886592549
 31
0.0
  0
LINE
  5
2B82B
330
747D
100
AcDbEntity
  8
細線
 48
50.0
100
AcDbLine
 10
7793.647490115393
 20
884.1829886592531
 30
0.0
 11
7827.944986746574
 21
1012.182988659253
 31
0.0
  0
LINE
  5
2B82C
330
747D
100
AcDbEntity
  8
細線
 48
50.0
100
AcDbLine
 10
7635.871400220887
 20
884.1829886592531
 30
0.0
 11
7670.16889685207
 21
1012.182988659253
 31
0.0
  0
LINE
  5
2B82D
330
747D
100
AcDbEntity
  8
部品1
 48
50.0
100
AcDbLine
 10
7587.352695566631
 20
884.1829886592549
 30
0.0
 11
7587.352695566631
 21
1012.182988659255
 31
0.0
  0
LINE
  5
2B82E
330
747D
100
AcDbEntity
  8
細線
 48
50.0
100
AcDbLine
 10
7714.759445168145
 20
884.1829886592549
 30
0.0
 11
7749.056941799328
 21
1012.182988659255
 31
0.0
  0
LINE
  5
2B82F
330
747D
100
AcDbEntity
  8
部品1
 48
50.0
100
AcDbLine
 10
7667.352695566627
 20
1012.182988659255
 30
0.0
 11
7667.352695566627
 21
1252.182988659255
 31
0.0
  0
LINE
  5
2B830
330
747D
100
AcDbEntity
  8
細線
 48
50.0
100
AcDbLine
 10
7667.352695566624
 20
1171.029734421426
 30
0.0
 11
7748.505949804457
 21
1252.182988659255
 31
0.0
  0
LINE
  5
2B831
330
747D
100
AcDbEntity
  8
部品1
 48
50.0
100
AcDbLine
 10
8417.352695566632
 20
884.1829886592549
 30
0.0
 11
7587.352695566631
 21
884.1829886592549
 31
0.0
  0
LINE
  5
2B832
330
747D
100
AcDbEntity
  8
部品1
 48
50.0
100
AcDbLine
 10
8417.352695566632
 20
1012.182988659255
 30
0.0
 11
7587.352695566631
 21
1012.182988659255
 31
0.0
  0
LINE
  5
2B833
330
747D
100
AcDbEntity
  8
細線
 48
50.0
100
AcDbLine
 10
7670.150559983703
 20
1012.182988659255
 30
0.0
 11
8209.352695566627
 21
1551.38512424218
 31
0.0
  0
LINE
  5
2B834
330
747D
100
AcDbEntity
  8
細線
 48
50.0
100
AcDbLine
 10
7697.091328346913
 20
1012.182988659255
 30
0.0
 11
8209.352695566632
 21
1524.444355878969
 31
0.0
  0
LINE
  5
2B835
330
747D
100
AcDbEntity
  8
細線
 48
50.0
100
AcDbLine
 10
7724.032096710118
 20
1012.182988659255
 30
0.0
 11
8209.352695566627
 21
1497.503587515763
 31
0.0
  0
LINE
  5
2B836
330
747D
100
AcDbEntity
  8
細線
 48
50.0
100
AcDbLine
 10
7795.352695566627
 20
1352.911271147841
 30
0.0
 11
7953.752695566622
 21
1511.311271147836
 31
0.0
  0
LINE
  5
2B837
330
747D
100
AcDbEntity
  8
細線
 48
50.0
100
AcDbLine
 10
7795.352695566627
 20
1299.029734421426
 30
0.0
 11
7968.505949804465
 21
1472.182988659253
 31
0.0
  0
LINE
  5
2B838
330
747D
100
AcDbEntity
  8
細線
 48
50.0
100
AcDbLine
 10
7795.352695566627
 20
1325.970502784633
 30
0.0
 11
7953.752695566622
 21
1484.370502784622
 31
0.0
  0
LINE
  5
2B839
330
747D
100
AcDbEntity
  8
部品1
100
AcDbLine
 10
7953.752695566622
 20
1472.182988659255
 30
0.0
 11
7953.752695566629
 21
1796.182988659255
 31
0.0
  0
LINE
  5
2B83A
330
747D
100
AcDbEntity
  8
部品1
100
AcDbLine
 10
8079.752695566629
 20
1472.182988659255
 30
0.0
 11
8079.752695566629
 21
1796.182988659255
 31
0.0
  0
LINE
  5
2B83B
330
747D
100
AcDbEntity
  8
細線
 48
50.0
100
AcDbLine
 10
8079.752695566629
 20
1610.370502784626
 30
0.0
 11
8209.352695566627
 21
1739.970502784623
 31
0.0
  0
LINE
  5
2B83C
330
747D
100
AcDbEntity
  8
細線
 48
50.0
100
AcDbLine
 10
8079.752695566629
 20
1583.429734421414
 30
0.0
 11
8209.352695566627
 21
1713.029734421405
 31
0.0
  0
LINE
  5
2B83D
330
747D
100
AcDbEntity
  8
部品1
100
AcDbLine
 10
8007.752695566628
 20
1571.182988659255
 30
0.0
 11
8007.752695566626
 21
1845.342988659256
 31
0.0
  0
LINE
  5
2B83E
330
747D
100
AcDbEntity
  8
部品1
100
AcDbLine
 10
8025.752695566628
 20
1571.182988659255
 30
0.0
 11
8025.752695566625
 21
1845.342988659256
 31
0.0
  0
TEXT
  5
2B83F
330
747D
100
AcDbEntity
  8
部品1
 48
50.0
100
AcDbText
 10
7381.212793733673
 20
1567.42198094251
 30
0.0
 40
80.0
  1
▽G.L
  7
STYLE2
100
AcDbText
  0
LINE
  5
2B840
330
747D
100
AcDbEntity
  8
細線
 48
50.0
100
AcDbLine
 10
7795.352695566627
 20
1514.555881327085
 30
0.0
 11
7953.752695566625
 21
1672.955881327078
 31
0.0
  0
LINE
  5
2B841
330
747D
100
AcDbEntity
  8
細線
 48
50.0
100
AcDbLine
 10
7795.352695566627
 20
1541.496649690292
 30
0.0
 11
7953.752695566628
 21
1699.89664969029
 31
0.0
  0
LINE
  5
2B842
330
747D
100
AcDbEntity
  8
細線
 48
50.0
100
AcDbLine
 10
7795.352695566627
 20
1568.4374180535
 30
0.0
 11
7953.752695566628
 21
1726.837418053497
 31
0.0
  0
LINE
  5
2B843
330
747D
100
AcDbEntity
  8
部品1
 48
50.0
100
AcDbLine
 10
7795.352695566627
 20
1252.182988659255
 30
0.0
 11
7795.352695566627
 21
1796.182988659255
 31
0.0
  0
LINE
  5
2B844
330
747D
100
AcDbEntity
  8
部品1
100
AcDbLine
 10
8209.352695566627
 20
1252.182988659255
 30
0.0
 11
8209.352695566627
 21
1796.182988659255
 31
0.0
  0
LINE
  5
2B845
330
747D
100
AcDbEntity
  8
細線
 48
50.0
100
AcDbLine
 10
8079.752695566629
 20
1637.311271147843
 30
0.0
 11
8209.352695566627
 21
1766.911271147842
 31
0.0
  0
LINE
  5
2B846
330
747D
100
AcDbEntity
  8
細線
 48
50.0
100
AcDbLine
 10
6203.805804891905
 20
1676.929840555971
 30
0.0
 11
6287.313382389434
 21
1760.4374180535
 31
0.0
  0
LINE
  5
2B847
330
747D
100
AcDbEntity
  8
細線
 48
50.0
100
AcDbLine
 10
6214.866089655421
 20
1661.049356956277
 30
0.0
 11
6287.313382389434
 21
1733.496649690292
 31
0.0
  0
LINE
  5
2B848
330
747D
100
AcDbEntity
  8
細線
 48
50.0
100
AcDbLine
 10
6095.313382389434
 20
1783.96356495916
 30
0.0
 11
6107.53280608953
 21
1796.182988659255
 31
0.0
  0
LINE
  5
2B849
330
747D
100
AcDbEntity
  8
細線
 48
50.0
100
AcDbLine
 10
6095.313382389434
 20
1730.082028232745
 30
0.0
 11
6161.414342815945
 21
1796.182988659255
 31
0.0
  0
LINE
  5
2B84A
330
747D
100
AcDbEntity
  8
細線
 48
50.0
100
AcDbLine
 10
6095.313382389434
 20
1757.022796595953
 30
0.0
 11
6134.473574452739
 21
1796.182988659255
 31
0.0
  0
LINE
  5
2B84B
330
747D
100
AcDbEntity
  8
部品1
 48
50.0
100
AcDbLine
 10
6095.313382389434
 20
1796.182988659255
 30
0.0
 11
6287.313382389434
 21
1796.182988659255
 31
0.0
  0
DIMENSION
  5
2B84C
330
747D
100
AcDbEntity
  8
寸法
 48
50.0
100
AcDbDimension
  2
*D49
 10
6095.313382389434
 20
2215.850796575635
 30
0.0
 11
6191.313382389434
 21
2215.850796575635
 31
0.0
 70
   160
  1
120\P200\P280
 71
     5
 42
192.0
  3
INABA_S40G
100
AcDbAlignedDimension
 13
6287.313382389434
 23
1796.182988659255
 33
0.0
 14
6095.313382389434
 24
1796.182988659255
 34
0.0
100
AcDbRotatedDimension
1001
ACAD
1000
DSTYLE
1002
{
1070
   341
1005
0
1002
}
  0
MTEXT
  5
2B84D
102
{ACAD_REACTORS
330
2B8A2
102
}
330
747D
100
AcDbEntity
  8
寸法
 62
     7
 48
50.0
100
AcDbMText
 10
6529.051838250686
 20
834.8339029271018
 30
0.0
 40
80.0
 41
0.8
 71
     4
 72
     1
  1
\A1;D10@300
  7
STYLE2
 73
     1
 44
1.0
1001
ACAD
1000
MTEXTBEGIN
1070
    73
1070
     1
1070
    44
1040
1.0
1070
    74
1070
     0
1000
MTEXTEND
  0
LINE
  5
2B84E
330
747D
100
AcDbEntity
  8
細線
 48
50.0
100
AcDbLine
 10
6215.313382389441
 20
1445.970502784636
 30
0.0
 11
6287.313382389427
 21
1517.97050278463
 31
0.0
  0
LINE
  5
2B84F
330
747D
100
AcDbEntity
  8
細線
 48
50.0
100
AcDbLine
 10
6215.313382389435
 20
1472.911271147841
 30
0.0
 11
6287.313382389434
 21
1544.911271147841
 31
0.0
  0
LINE
  5
2B850
330
747D
100
AcDbEntity
  8
細線
 48
50.0
100
AcDbLine
 10
6215.313382389441
 20
1203.503587515766
 30
0.0
 11
6287.313382389427
 21
1275.503587515766
 31
0.0
  0
LINE
  5
2B851
330
747D
100
AcDbEntity
  8
細線
 48
50.0
100
AcDbLine
 10
6215.313382389441
 20
1257.385124242184
 30
0.0
 11
6287.313382389427
 21
1329.385124242181
 31
0.0
  0
LINE
  5
2B852
330
747D
100
AcDbEntity
  8
細線
 48
50.0
100
AcDbLine
 10
6215.313382389441
 20
1230.444355878976
 30
0.0
 11
6287.313382389427
 21
1302.444355878971
 31
0.0
  0
LINE
  5
2B853
330
747D
100
AcDbEntity
  8
部品1
 48
50.0
100
AcDbLine
 10
6287.313382389434
 20
1252.182988659255
 30
0.0
 11
6415.313382389435
 21
1252.182988659255
 31
0.0
  0
LINE
  5
2B854
330
747D
100
AcDbEntity
  8
細線
 48
50.0
100
AcDbLine
 10
6215.313382389441
 20
1419.029734421426
 30
0.0
 11
6287.313382389427
 21
1491.029734421426
 31
0.0
  0
LINE
  5
2B855
330
747D
100
AcDbEntity
  8
部品1
 48
50.0
100
AcDbLine
 10
6183.313382389435
 20
1598.310203356377
 30
0.0
 11
6183.313382389435
 21
1656.4374180535
 31
0.0
  0
LINE
  5
2B856
330
747D
100
AcDbEntity
  8
細線
 48
50.0
100
AcDbLine
 10
6095.313382389434
 20
1568.4374180535
 30
0.0
 11
6167.313382389435
 21
1640.4374180535
 31
0.0
  0
LINE
  5
2B857
330
747D
100
AcDbEntity
  8
部品1
 48
50.0
100
AcDbLine
 10
6167.313382389435
 20
1598.310203356381
 30
0.0
 11
6167.313382389435
 21
1656.4374180535
 31
0.0
  0
LINE
  5
2B858
330
747D
100
AcDbEntity
  8
細線
 48
50.0
100
AcDbLine
 10
6095.313382389434
 20
1541.496649690292
 30
0.0
 11
6167.313382389435
 21
1613.496649690292
 31
0.0
  0
LINE
  5
2B859
330
747D
100
AcDbEntity
  8
細線
 48
50.0
100
AcDbLine
 10
6095.313382389434
 20
1514.555881327085
 30
0.0
 11
6179.067704418729
 21
1598.310203356377
 31
0.0
  0
LINE
  5
2B85A
330
747D
100
AcDbEntity
  8
部品1
 48
50.0
100
AcDbLine
 10
6183.313382389435
 20
1598.310203356377
 30
0.0
 11
6167.313382389435
 21
1598.310203356381
 31
0.0
  0
LINE
  5
2B85B
330
747D
100
AcDbEntity
  8
細線
 48
50.0
100
AcDbLine
 10
5967.313382389427
 20
1224.911271147841
 30
0.0
 11
5994.585099900849
 21
1252.182988659255
 31
0.0
  0
LINE
  5
2B85C
330
747D
100
AcDbEntity
  8
細線
 48
50.0
100
AcDbLine
 10
5967.313382389427
 20
1197.97050278463
 30
0.0
 11
6021.52586826406
 21
1252.182988659255
 31
0.0
  0
LINE
  5
2B85D
330
747D
100
AcDbEntity
  8
部品1
 48
50.0
100
AcDbLine
 10
5967.313382389435
 20
1252.182988659255
 30
0.0
 11
6095.313382389434
 21
1252.182988659255
 31
0.0
  0
LINE
  5
2B85E
330
747D
100
AcDbEntity
  8
細線
 48
50.0
100
AcDbLine
 10
6183.313382389435
 20
1629.496649690292
 30
0.0
 11
6199.313382389435
 21
1645.496649690293
 31
0.0
  0
LINE
  5
2B85F
330
747D
100
AcDbEntity
  8
細線
 48
50.0
100
AcDbLine
 10
6183.313382389435
 20
1602.555881327085
 30
0.0
 11
6199.313382389435
 21
1618.555881327085
 31
0.0
  0
LINE
  5
2B860
330
747D
100
AcDbEntity
  8
細線
 48
50.0
100
AcDbLine
 10
6095.313382389434
 20
1299.029734421426
 30
0.0
 11
6199.313382389441
 21
1403.029734421426
 31
0.0
  0
LINE
  5
2B861
330
747D
100
AcDbEntity
  8
細線
 48
50.0
100
AcDbLine
 10
6095.313382389434
 20
1352.911271147841
 30
0.0
 11
6199.313382389435
 21
1456.911271147841
 31
0.0
  0
LINE
  5
2B862
330
747D
100
AcDbEntity
  8
細線
 48
50.0
100
AcDbLine
 10
6095.313382389434
 20
1325.970502784633
 30
0.0
 11
6199.313382389441
 21
1429.970502784636
 31
0.0
  0
LINE
  5
2B863
330
747D
100
AcDbEntity
  8
細線
 48
50.0
100
AcDbLine
 10
6358.139027792782
 20
988.182988659255
 30
0.0
 11
6351.708247174435
 21
1012.182988659255
 31
0.0
  0
LINE
  5
2B864
330
747D
100
AcDbEntity
  8
細線
 48
50.0
100
AcDbLine
 10
6401.163540617829
 20
1012.182988659255
 30
0.0
 11
6415.313382389435
 21
1026.332830430861
 31
0.0
  0
LINE
  5
2B865
330
747D
100
AcDbEntity
  8
細線
 48
50.0
100
AcDbLine
 10
6437.027072740029
 20
988.182988659255
 30
0.0
 11
6430.596292121681
 21
1012.182988659255
 31
0.0
  0
LINE
  5
2B866
330
747D
100
AcDbEntity
  8
部品1
 48
50.0
100
AcDbLine
 10
6359.313382389434
 20
1124.182988659255
 30
0.0
 11
6359.313382389434
 21
1108.182988659255
 31
0.0
  0
LINE
  5
2B867
330
747D
100
AcDbEntity
  8
細線
 48
50.0
100
AcDbLine
 10
6239.518930438582
 20
1012.182988659255
 30
0.0
 11
6335.519818283719
 21
1108.183876504394
 31
0.0
  0
LINE
  5
2B868
330
747D
100
AcDbEntity
  8
細線
 48
50.0
100
AcDbLine
 10
6212.578162075379
 20
1012.182988659255
 30
0.0
 11
6308.578162075378
 21
1108.182988659255
 31
0.0
  0
LINE
  5
2B869
330
747D
100
AcDbEntity
  8
細線
 48
50.0
100
AcDbLine
 10
6279.250982845537
 20
988.182988659255
 30
0.0
 11
6272.82020222719
 21
1012.182988659255
 31
0.0
  0
LINE
  5
2B86A
330
747D
100
AcDbEntity
  8
細線
 48
50.0
100
AcDbLine
 10
6200.362937898291
 20
988.182988659255
 30
0.0
 11
6193.932157279943
 21
1012.182988659255
 31
0.0
  0
ARC
  5
2B86B
330
747D
100
AcDbEntity
  8
部品1
 48
50.0
100
AcDbCircle
 10
6191.313382389434
 20
1132.182988659255
 30
0.0
 40
24.0
100
AcDbArc
 50
340.5287793655272
 51
0.0
  0
CIRCLE
  5
2B86C
330
747D
100
AcDbEntity
  8
部品1
 48
50.0
100
AcDbCircle
 10
6319.313382389434
 20
1132.182988659255
 30
0.0
 40
8.0
  0
LINE
  5
2B86D
330
747D
100
AcDbEntity
  8
細線
 48
50.0
100
AcDbLine
 10
6351.518930438582
 20
1124.182988659255
 30
0.0
 11
6415.313382389435
 21
1187.977440610106
 31
0.0
  0
LINE
  5
2B86E
330
747D
100
AcDbEntity
  8
細線
 48
50.0
100
AcDbLine
 10
6488.048401674437
 20
884.1829886592531
 30
0.0
 11
6495.313382389435
 21
911.2962658036432
 31
0.0
  0
LINE
  5
2B86F
330
747D
100
AcDbEntity
  8
細線
 48
50.0
100
AcDbLine
 10
6494.479182292787
 20
908.1829886592549
 30
0.0
 11
6495.313382389435
 21
905.0697115148905
 31
0.0
  0
LINE
  5
2B870
330
747D
100
AcDbEntity
  8
細線
 48
50.0
100
AcDbLine
 10
6415.59113734554
 20
908.1829886592549
 30
0.0
 11
6422.021917963887
 21
884.1829886592549
 31
0.0
  0
LINE
  5
2B871
330
747D
100
AcDbEntity
  8
細線
 48
50.0
100
AcDbLine
 10
6257.815047451048
 20
908.1829886592549
 30
0.0
 11
6264.245828069394
 21
884.1829886592549
 31
0.0
  0
LINE
  5
2B872
330
747D
100
AcDbEntity
  8
細線
 48
50.0
100
AcDbLine
 10
6336.703092398293
 20
908.1829886592549
 30
0.0
 11
6343.133873016641
 21
884.1829886592549
 31
0.0
  0
LINE
  5
2B873
330
747D
100
AcDbEntity
  8
細線
 48
50.0
100
AcDbLine
 10
6330.272311779943
 20
884.1829886592531
 30
0.0
 11
6364.569808411128
 21
1012.182988659253
 31
0.0
  0
LINE
  5
2B874
330
747D
100
AcDbEntity
  8
細線
 48
50.0
100
AcDbLine
 10
6251.384266832694
 20
884.1829886592549
 30
0.0
 11
6285.68176346388
 21
1012.182988659253
 31
0.0
  0
LINE
  5
2B875
330
747D
100
AcDbEntity
  8
細線
 48
50.0
100
AcDbLine
 10
6409.160356727189
 20
884.1829886592549
 30
0.0
 11
6443.457853358373
 21
1012.182988659253
 31
0.0
  0
LINE
  5
2B876
330
747D
100
AcDbEntity
  8
部品1
 48
50.0
100
AcDbLine
 10
6495.313382389439
 20
1012.182988659255
 30
0.0
 11
6495.313382389439
 21
884.1829886592549
 31
0.0
  0
LINE
  5
2B877
330
747D
100
AcDbEntity
  8
部品1
 48
50.0
100
AcDbLine
 10
6183.313382389435
 20
1190.310203356377
 30
0.0
 11
6183.313382389435
 21
1132.182988659255
 31
0.0
  0
LINE
  5
2B878
330
747D
100
AcDbEntity
  8
細線
 48
50.0
100
AcDbLine
 10
6109.052015169718
 20
1124.182988659255
 30
0.0
 11
6167.313382389435
 21
1182.444355878973
 31
0.0
  0
LINE
  5
2B879
330
747D
100
AcDbEntity
  8
部品1
 48
50.0
100
AcDbLine
 10
6167.313382389435
 20
1190.310203356377
 30
0.0
 11
6167.313382389435
 21
1132.182988659255
 31
0.0
  0
LINE
  5
2B87A
330
747D
100
AcDbEntity
  8
細線
 48
50.0
100
AcDbLine
 10
6023.992783532924
 20
1012.182988659255
 30
0.0
 11
6119.992783532923
 21
1108.182988659255
 31
0.0
  0
LINE
  5
2B87B
330
747D
100
AcDbEntity
  8
細線
 48
50.0
100
AcDbLine
 10
6121.474892951039
 20
988.182988659255
 30
0.0
 11
6115.044112332693
 21
1012.182988659255
 31
0.0
  0
LINE
  5
2B87C
330
747D
100
AcDbEntity
  8
細線
 48
50.0
100
AcDbLine
 10
6042.586848003786
 20
988.182988659255
 30
0.0
 11
6036.15606738544
 21
1012.182988659255
 31
0.0
  0
ARC
  5
2B87D
330
747D
100
AcDbEntity
  8
部品1
 48
50.0
100
AcDbCircle
 10
6191.313382389434
 20
1132.182988659255
 30
0.0
 40
24.0
100
AcDbArc
 50
180.0
 51
199.4712206344728
  0
LINE
  5
2B87E
330
747D
100
AcDbEntity
  8
細線
 48
50.0
100
AcDbLine
 10
6135.992783532923
 20
1124.182988659255
 30
0.0
 11
6167.313382389435
 21
1155.503587515766
 31
0.0
  0
CIRCLE
  5
2B87F
330
747D
100
AcDbEntity
  8
部品1
 48
50.0
100
AcDbCircle
 10
6063.313382389435
 20
1132.182988659255
 30
0.0
 40
8.0
  0
LINE
  5
2B880
330
747D
100
AcDbEntity
  8
部品1
 48
50.0
100
AcDbLine
 10
6183.313382389435
 20
1190.310203356377
 30
0.0
 11
6167.313382389435
 21
1190.310203356377
 31
0.0
  0
LINE
  5
2B881
330
747D
100
AcDbEntity
  8
細線
 48
50.0
100
AcDbLine
 10
5887.313382389435
 20
997.522909625035
 30
0.0
 11
5891.24153872763
 21
1012.182988659255
 31
0.0
  0
LINE
  5
2B882
330
747D
100
AcDbEntity
  8
細線
 48
50.0
100
AcDbLine
 10
5963.698803056535
 20
988.182988659255
 30
0.0
 11
5957.268022438188
 21
1012.182988659255
 31
0.0
  0
LINE
  5
2B883
330
747D
100
AcDbEntity
  8
部品1
 48
50.0
100
AcDbLine
 10
6023.313382389435
 20
1124.182988659255
 30
0.0
 11
6023.313382389435
 21
1108.182988659255
 31
0.0
  0
LINE
  5
2B884
330
747D
100
AcDbEntity
  8
細線
 48
50.0
100
AcDbLine
 10
5970.111246806507
 20
1012.182988659255
 30
0.0
 11
6066.111246806507
 21
1108.182988659255
 31
0.0
  0
LINE
  5
2B885
330
747D
100
AcDbEntity
  8
細線
 48
50.0
100
AcDbLine
 10
5997.052015169718
 20
1012.182988659255
 30
0.0
 11
6093.052015169718
 21
1108.182988659255
 31
0.0
  0
LINE
  5
2B886
330
747D
100
AcDbEntity
  8
細線
 48
50.0
100
AcDbLine
 10
6100.03895755655
 20
908.1829886592549
 30
0.0
 11
6106.469738174896
 21
884.1829886592549
 31
0.0
  0
LINE
  5
2B887
330
747D
100
AcDbEntity
  8
細線
 48
50.0
100
AcDbLine
 10
6178.927002503802
 20
908.1829886592549
 30
0.0
 11
6185.357783122149
 21
884.1829886592549
 31
0.0
  0
LINE
  5
2B888
330
747D
100
AcDbEntity
  8
細線
 48
50.0
100
AcDbLine
 10
5942.262867662046
 20
908.1829886592549
 30
0.0
 11
5948.693648280392
 21
884.1829886592549
 31
0.0
  0
LINE
  5
2B889
330
747D
100
AcDbEntity
  8
細線
 48
50.0
100
AcDbLine
 10
6021.150912609297
 20
908.1829886592549
 30
0.0
 11
6027.581693227645
 21
884.1829886592549
 31
0.0
  0
LINE
  5
2B88A
330
747D
100
AcDbEntity
  8
部品1
 48
50.0
100
AcDbLine
 10
5887.313382389437
 20
884.1829886592549
 30
0.0
 11
5887.313382389437
 21
1012.182988659255
 31
0.0
  0
LINE
  5
2B88B
330
747D
100
AcDbEntity
  8
細線
 48
50.0
100
AcDbLine
 10
5935.832087043692
 20
884.1829886592531
 30
0.0
 11
5970.129583674876
 21
1012.182988659253
 31
0.0
  0
LINE
  5
2B88C
330
747D
100
AcDbEntity
  8
細線
 48
50.0
100
AcDbLine
 10
6093.608176938197
 20
884.1829886592531
 30
0.0
 11
6127.905673569379
 21
1012.182988659253
 31
0.0
  0
LINE
  5
2B88D
330
747D
100
AcDbEntity
  8
細線
 48
50.0
100
AcDbLine
 10
6014.720131990952
 20
884.1829886592549
 30
0.0
 11
6049.017628622134
 21
1012.182988659255
 31
0.0
  0
LINE
  5
2B88E
330
747D
100
AcDbEntity
  8
細線
 48
50.0
100
AcDbLine
 10
6185.637393712168
 20
1012.182988659255
 30
0.0
 11
6281.637393712168
 21
1108.182988659255
 31
0.0
  0
CIRCLE
  5
2B88F
330
747D
100
AcDbEntity
  8
部品1
 48
50.0
100
AcDbCircle
 10
6191.313382389434
 20
1132.182988659255
 30
0.0
 40
8.0
  0
LINE
  5
2B890
330
747D
100
AcDbEntity
  8
部品1
 48
50.0
100
AcDbLine
 10
6495.313382389439
 20
1012.182988659255
 30
0.0
 11
5887.313382389437
 21
1012.182988659255
 31
0.0
  0
LINE
  5
2B891
330
747D
100
AcDbEntity
  8
部品1
 48
50.0
100
AcDbLine
 10
6023.313382389435
 20
1124.182988659255
 30
0.0
 11
6359.313382389434
 21
1124.182988659255
 31
0.0
  0
LINE
  5
2B892
330
747D
100
AcDbEntity
  8
部品1
 48
50.0
100
AcDbLine
 10
6023.313382389435
 20
1108.182988659255
 30
0.0
 11
6359.313382389434
 21
1108.182988659255
 31
0.0
  0
LINE
  5
2B893
330
747D
100
AcDbEntity
  8
部品1
 48
50.0
100
AcDbLine
 10
6495.313382389439
 20
884.1829886592549
 30
0.0
 11
5887.313382389437
 21
884.1829886592549
 31
0.0
  0
LINE
  5
2B894
330
747D
100
AcDbEntity
  8
細線
 48
50.0
100
AcDbLine
 10
6172.496221885449
 20
884.1829886592549
 30
0.0
 11
6206.793718516632
 21
1012.182988659255
 31
0.0
  0
LINE
  5
2B895
330
747D
100
AcDbEntity
  8
細線
 48
50.0
100
AcDbLine
 10
6183.313382389435
 20
1171.503587515766
 30
0.0
 11
6199.313382389441
 21
1187.503587515766
 31
0.0
  0
LINE
  5
2B896
330
747D
100
AcDbEntity
  8
部品1
 48
50.0
100
AcDbLine
 10
6199.313382389441
 20
1132.182988659255
 30
0.0
 11
6199.313382389427
 21
1656.4374180535
 31
0.0
  0
LINE
  5
2B897
330
747D
100
AcDbEntity
  8
部品1
 48
50.0
100
AcDbLine
 10
6215.313382389441
 20
1132.182988659255
 30
0.0
 11
6215.313382389435
 21
1656.4374180535
 31
0.0
  0
LINE
  5
2B898
330
747D
100
AcDbEntity
  8
部品1
 48
50.0
100
AcDbLine
 10
6415.313382389435
 20
1252.182988659255
 30
0.0
 11
6415.313382389435
 21
1012.182988659255
 31
0.0
  0
LINE
  5
2B899
330
747D
100
AcDbEntity
  8
細線
 48
50.0
100
AcDbLine
 10
6297.637393712163
 20
1124.182988659255
 30
0.0
 11
6415.313382389435
 21
1241.858977336521
 31
0.0
  0
LINE
  5
2B89A
330
747D
100
AcDbEntity
  8
細線
 48
50.0
100
AcDbLine
 10
6324.578162075379
 20
1124.182988659255
 30
0.0
 11
6415.313382389435
 21
1214.918208973314
 31
0.0
  0
LINE
  5
2B89B
330
747D
100
AcDbEntity
  8
部品1
 48
50.0
100
AcDbLine
 10
5967.313382389435
 20
1012.182988659255
 30
0.0
 11
5967.313382389435
 21
1252.182988659255
 31
0.0
  0
LINE
  5
2B89C
330
747D
100
AcDbEntity
  8
細線
 48
50.0
100
AcDbLine
 10
6082.111246806507
 20
1124.182988659255
 30
0.0
 11
6199.313382389435
 21
1241.38512424218
 31
0.0
  0
LINE
  5
2B89D
330
747D
100
AcDbEntity
  8
細線
 48
50.0
100
AcDbLine
 10
6175.179229866839
 20
1190.310203356377
 30
0.0
 11
6199.313382389441
 21
1214.444355878976
 31
0.0
  0
LINE
  5
2B89E
330
747D
100
AcDbEntity
  8
細線
 48
50.0
100
AcDbLine
 10
5967.313382389427
 20
1171.029734421426
 30
0.0
 11
6048.466636627264
 21
1252.182988659255
 31
0.0
  0
LEADER
  5
2B89F
330
747D
100
AcDbEntity
  8
寸法
 48
50.0
100
AcDbLeader
  3
INABA_S50G
 71
     0
 73
     0
 74
     0
 75
     1
 40
100.0
 41
222.7272727272727
 76
     3
 10
6191.313382389434
 20
1656.4374180535
 30
0.0
 10
6245.199319416829
 20
1755.672990906674
 30
0.0
 10
6370.199319416829
 20
1755.672990906674
 30
0.0
1001
ACAD
1000
DSTYLE
1002
{
1070
    40
1040
1.0
1070
   272
1070
     1
1070
   279
1070
     1
1070
   341
1005
0
1002
}
  0
LWPOLYLINE
  5
2B8A0
330
747D
100
AcDbEntity
  8
部品1
 48
50.0
100
AcDbPolyline
 90
        2
 70
     0
 43
8.0
 10
6287.313382389434
 20
1556.182988659256
 10
6701.453284222392
 20
1556.182988659256
  0
MTEXT
  5
2B8A1
102
{ACAD_REACTORS
330
2B8A3
102
}
330
747D
100
AcDbEntity
  8
寸法
 62
     7
 48
50.0
100
AcDbMText
 10
6518.64104219612
 20
1096.785919716282
 30
0.0
 40
80.0
 41
0.8
 71
     4
 72
     1
  1
D10
  7
STYLE2
 73
     1
 44
1.0
1001
ACAD
1000
MTEXTBEGIN
1070
    73
1070
     1
1070
    44
1040
1.0
1070
    74
1070
     0
1000
MTEXTEND
  0
LEADER
  5
2B8A2
330
747D
100
AcDbEntity
  8
寸法
 48
50.0
100
AcDbLeader
  3
INABA_S50G
 71
     0
 73
     0
 74
     0
 75
     1
 40
100.0
 41
540.3409090909091
 76
     3
 10
6265.258551402609
 20
1115.442458245729
 30
0.0
 10
6384.051838250685
 20
773.8116402508321
 30
0.0
 10
6509.051838250686
 20
773.8116402508321
 30
0.0
213
0.0
223
-1.022262676269383
233
0.0
1001
ACAD
1000
DSTYLE
1002
{
1070
    40
1040
1.0
1070
   272
1070
     1
1070
   279
1070
     1
1070
   341
1005
0
1002
}
  0
LEADER
  5
2B8A3
330
747D
100
AcDbEntity
  8
寸法
 48
50.0
100
AcDbLeader
  3
INABA_S50G
 71
     0
 73
     0
 74
     0
 75
     1
 40
100.0
 41
225.0
 76
     3
 10
6319.216334741577
 20
1132.182988659255
 30
0.0
 10
6373.641042196119
 20
1036.785919716282
 30
0.0
 10
6498.641042196119
 20
1036.785919716282
 30
0.0
1001
ACAD
1000
DSTYLE
1002
{
1070
    40
1040
1.0
1070
   272
1070
     1
1070
   279
1070
     1
1070
   341
1005
0
1002
}
  0
MTEXT
  5
2B8A4
102
{ACAD_REACTORS
330
2B89F
102
}
330
747D
100
AcDbEntity
  8
寸法
 62
     7
 48
50.0
100
AcDbMText
 10
6370.199319416829
 20
1818.738887952066
 30
0.0
 40
80.0
 41
0.8
 71
     4
 72
     1
  1
D13
  7
STYLE2
 73
     1
 44
1.0
1001
ACAD
1000
MTEXTBEGIN
1070
    73
1070
     1
1070
    44
1040
1.0
1070
    74
1070
     0
1000
MTEXTEND
  0
LINE
  5
2B8A5
330
747D
100
AcDbEntity
  8
部品1
 48
50.0
100
AcDbLine
 10
6287.313382389434
 20
1796.182988659255
 30
0.0
 11
6287.313382389434
 21
1252.182988659255
 31
0.0
  0
LINE
  5
2B8A6
330
747D
100
AcDbEntity
  8
部品1
 48
50.0
100
AcDbLine
 10
6095.313382389434
 20
1252.182988659255
 30
0.0
 11
6095.313382389434
 21
1796.182988659255
 31
0.0
  0
CIRCLE
  5
2B8A7
330
747D
100
AcDbEntity
  8
部品1
 48
50.0
100
AcDbCircle
 10
6191.313382389434
 20
1656.4374180535
 30
0.0
 40
8.0
  0
ARC
  5
2B8A8
330
747D
100
AcDbEntity
  8
部品1
 48
50.0
100
AcDbCircle
 10
6191.313382389434
 20
1656.4374180535
 30
0.0
 40
24.0
100
AcDbArc
 50
0.0
 51
180.0
  0
LINE
  5
2B8A9
330
747D
100
AcDbEntity
  8
細線
 48
50.0
100
AcDbLine
 10
6215.313382389435
 20
1634.555881327085
 30
0.0
 11
6287.313382389434
 21
1706.555881327085
 31
0.0
  0
LEADER
  5
2B8AA
330
747D
100
AcDbEntity
  8
寸法
 48
50.0
100
AcDbLeader
  3
INABA_S50G
 73
     0
 75
     1
 40
106.3636363636363
 41
893.1818181818181
 76
     3
 10
7926.75269556663
 20
1865.742988659256
 30
0.0
 10
7878.32862322169
 20
2239.802563375588
 30
0.0
 10
7753.32862322169
 20
2239.802563375588
 30
0.0
340
2B8AB
1001
ACAD
1000
DSTYLE
1002
{
1070
   341
1005
0
1070
    40
1040
1.0
1070
   343
1005
0
1070
   344
1005
0
1002
}
  0
MTEXT
  5
2B8AB
102
{ACAD_REACTORS
330
2B8AA
102
}
330
747D
100
AcDbEntity
  8
寸法
 62
     7
 48
50.0
100
AcDbMText
 10
7728.328623221689
 20
2317.984381557407
 30
0.0
 40
80.0
 41
0.8
 71
     6
 72
     1
  1
\A1;アンカープレート L
  7
STYLE2
 73
     1
 44
1.0
1001
ACAD
1000
MTEXTBEGIN
1070
    73
1070
     1
1070
    44
1040
1.0
1070
    74
1070
     0
1000
MTEXTEND
  0
DIMENSION
  5
2B8AC
330
747D
100
AcDbEntity
  8
寸法
 48
50.0
100
AcDbDimension
  2
*D50
 10
6415.313382389434
 20
473.7533506540948
 30
0.0
 11
6171.21662371121
 21
473.7533506540948
 31
0.0
 70
   160
  1
300
 71
     5
 42
448.0
  3
INABA_S40G
100
AcDbAlignedDimension
 13
5967.313382389434
 23
884.1829886592549
 33
0.0
 14
6415.313382389434
 24
884.1829886592549
 34
0.0
100
AcDbRotatedDimension
1001
ACAD
1000
DSTYLE
1002
{
1070
   341
1005
0
1002
}
  0
MTEXT
  5
2B8AD
102
{ACAD_REACTORS
330
2B8B5
102
}
330
747D
100
AcDbEntity
  8
寸法
 62
     7
 48
50.0
100
AcDbMText
 10
5796.37835619424
 20
928.6602950408187
 30
0.0
 40
80.0
 41
0.8
 71
     6
 72
     1
  1
D10
  7
STYLE2
 73
     1
 44
1.0
1001
ACAD
1000
MTEXTBEGIN
1070
    73
1070
     1
1070
    44
1040
1.0
1070
    74
1070
     0
1000
MTEXTEND
  0
MTEXT
  5
2B8AE
102
{ACAD_REACTORS
330
2B8B4
102
}
330
747D
100
AcDbEntity
  8
寸法
 62
     7
 48
50.0
100
AcDbMText
 10
5824.501083751675
 20
748.3441425013752
 30
0.0
 40
80.0
 41
0.8
 71
     6
 72
     1
  1
D13
  7
STYLE2
 73
     1
 44
1.0
1001
ACAD
1000
MTEXTBEGIN
1070
    73
1070
     1
1070
    44
1040
1.0
1070
    74
1070
     0
1000
MTEXTEND
  0
DIMENSION
  5
2B8AF
330
747D
100
AcDbEntity
  8
寸法
 48
50.0
100
AcDbDimension
  2
*D51
 10
5360.276143827694
 20
1012.182988659255
 30
0.0
 11
5360.276143827694
 21
1383.723138315256
 31
0.0
 70
   160
  1
540
 71
     5
 42
784.0000000000001
  3
INABA_S40G
100
AcDbAlignedDimension
 13
6095.313382389434
 23
1796.182988659255
 33
0.0
 14
5887.313382389438
 24
1012.182988659255
 34
0.0
 50
90.0
100
AcDbRotatedDimension
1001
ACAD
1000
DSTYLE
1002
{
1070
   341
1005
0
1002
}
  0
MTEXT
  5
2B8B0
102
{ACAD_REACTORS
330
2B8B1
102
}
330
747D
100
AcDbEntity
  8
寸法
 62
     7
 48
50.0
100
AcDbMText
 10
5875.214902906161
 20
2008.699208661298
 30
0.0
 40
80.0
 41
0.8
 71
     6
 72
     1
  1
\A1;金コテ押エ
  7
STYLE2
 73
     1
 44
1.0
1001
ACAD
1000
MTEXTBEGIN
1070
    73
1070
     1
1070
    44
1040
1.0
1070
    74
1070
     0
1000
MTEXTEND
  0
LEADER
  5
2B8B1
330
747D
100
AcDbEntity
  8
寸法
 48
50.0
100
AcDbLeader
  3
INABA_S50G
 71
     0
 73
     0
 75
     1
 40
130.1136363636363
 41
651.1363636363636
 76
     3
 10
6175.313382389434
 20
1796.182988659255
 30
0.0
 10
6062.888802225418
 20
1936.653754115843
 30
0.0
 10
5937.888802225418
 20
1936.653754115843
 30
0.0
1001
ACAD
1000
DSTYLE
1002
{
1070
    40
1040
1.0
1070
   272
1070
     1
1070
   279
1070
     1
1070
   341
1005
0
1002
}
  0
LEADER
  5
2B8B2
330
747D
100
AcDbEntity
  8
寸法
 48
50.0
100
AcDbLeader
  3
INABA_S50G
 71
     0
 73
     0
 75
     1
 40
100.0
 41
540.3409090909091
 76
     3
 10
6199.313382389433
 20
1554.310203356378
 30
0.0
 10
6141.331145860736
 20
1332.839874815573
 30
0.0
 10
6016.331145860736
 20
1332.839874815573
 30
0.0
213
-9.732182305893367
223
-4.643716661138569
233
0.0
1001
ACAD
1000
DSTYLE
1002
{
1070
    40
1040
1.0
1070
   272
1070
     1
1070
   279
1070
     1
1070
   341
1005
0
1002
}
  0
MTEXT
  5
2B8B3
102
{ACAD_REACTORS
330
2B8B2
102
}
330
747D
100
AcDbEntity
  8
寸法
 62
     7
 48
50.0
100
AcDbMText
 10
6006.06332816663
 20
1397.483591476712
 30
0.0
 40
80.0
 41
0.8
 71
     6
 72
     1
  1
\A1;D10@300
  7
STYLE2
 73
     1
 44
1.0
1001
ACAD
1000
MTEXTBEGIN
1070
    73
1070
     1
1070
    44
1040
1.0
1070
    74
1070
     0
1000
MTEXTEND
  0
LEADER
  5
2B8B4
330
747D
100
AcDbEntity
  8
寸法
 48
50.0
100
AcDbLeader
  3
INABA_S50G
 71
     0
 73
     0
 75
     1
 40
100.0
 41
222.7272727272727
 76
     3
 10
6191.313382389434
 20
1132.182988659255
 30
0.0
 10
5969.501083751675
 20
688.3441425013752
 30
0.0
 10
5844.501083751675
 20
688.3441425013752
 30
0.0
1001
ACAD
1000
DSTYLE
1002
{
1070
    40
1040
1.0
1070
   272
1070
     1
1070
   279
1070
     1
1070
   341
1005
0
1002
}
  0
LEADER
  5
2B8B5
330
747D
100
AcDbEntity
  8
寸法
 48
50.0
100
AcDbLeader
  3
INABA_S50G
 71
     0
 73
     0
 75
     1
 40
100.0
 41
225.0
 76
     3
 10
6063.216334741577
 20
1132.182988659255
 30
0.0
 10
5941.37835619424
 20
868.6602950408186
 30
0.0
 10
5816.37835619424
 20
868.6602950408186
 30
0.0
1001
ACAD
1000
DSTYLE
1002
{
1070
    40
1040
1.0
1070
   272
1070
     1
1070
   279
1070
     1
1070
   341
1005
0
1002
}
  0
DIMENSION
  5
2B8B6
330
747D
100
AcDbEntity
  8
寸法
 48
50.0
100
AcDbDimension
  2
*D52
 10
5824.893068656975
 20
1012.182988659255
 30
0.0
 11
5824.893068656975
 21
1132.182988659256
 31
0.0
 70
   160
  1
150
 71
     5
 42
240.0000000000001
  3
INABA_S40G
100
AcDbAlignedDimension
 13
5967.313382389434
 23
1252.182988659255
 33
0.0
 14
5887.313382389438
 24
1012.182988659255
 34
0.0
 50
90.0
100
AcDbRotatedDimension
1001
ACAD
1000
DSTYLE
1002
{
1070
   341
1005
0
1002
}
  0
TEXT
  5
2B8B7
330
747D
100
AcDbEntity
  8
部品1
 48
50.0
100
AcDbText
 10
5681.173480556477
 20
1567.42198094251
 30
0.0
 40
80.0
  1
▽G.L
  7
STYLE2
100
AcDbText
  0
LWPOLYLINE
  5
2B8B8
330
747D
100
AcDbEntity
  8
部品1
 48
50.0
100
AcDbPolyline
 90
        2
 70
     0
 43
8.0
 10
5681.173480556477
 20
1556.182988659256
 10
6095.313382389434
 20
1556.182988659256
  0
MTEXT
  5
2B8B9
102
{ACAD_REACTORS
330
2B8BA
102
}
330
747D
100
AcDbEntity
  8
寸法
 62
     7
 48
50.0
100
AcDbMText
 10
7701.685617013331
 20
2678.668653464921
 30
0.0
 40
80.0
 41
0.8
 71
     6
 72
     1
  1
\A1;φ70スリーブ
  7
STYLE2
 73
     1
 44
1.0
1001
ACAD
1000
MTEXTBEGIN
1070
    73
1070
     1
1070
    44
1040
1.0
1070
    74
1070
     0
1000
MTEXTEND
  0
LEADER
  5
2B8BA
330
747D
100
AcDbEntity
  8
寸法
 48
50.0
100
AcDbLeader
  3
INABA_S50G
 73
     0
 75
     1
 40
113.1818181818182
 41
608.6363636363635
 76
     3
 10
7985.489445704679
 20
1745.698662017534
 30
0.0
 10
7851.68561701333
 20
2597.077744374012
 30
0.0
 10
7726.68561701333
 20
2597.077744374012
 30
0.0
340
2B8B9
1001
ACAD
1000
DSTYLE
1002
{
1070
   341
1005
0
1070
    40
1040
1.0
1070
   343
1005
0
1070
   344
1005
0
1002
}
  0
LINE
  5
2B8BB
330
747D
100
AcDbEntity
  8
部品1
100
AcDbLine
 10
5024.644943580171
 20
3195.52165585984
 30
0.0
 11
5024.644943580174
 21
231.2146862751934
 31
0.0
  0
LEADER
  5
2B8BC
330
747D
100
AcDbEntity
  8
寸法
 48
50.0
100
AcDbLeader
  3
INABA_S50G
 73
     0
 74
     0
 75
     1
 40
80.0
 41
435.0
 76
     3
 10
8025.752695566628
 20
1845.342988659256
 30
0.0
 10
8068.297157985949
 20
1995.566314812485
 30
0.0
 10
8193.297157985949
 20
1995.566314812485
 30
0.0
340
2B8BD
1001
ACAD
1000
DSTYLE
1002
{
1070
   341
1005
0
1070
    40
1040
1.0
1070
   343
1005
0
1070
   344
1005
0
1002
}
  0
MTEXT
  5
2B8BD
102
{ACAD_REACTORS
330
2B8BC
102
}
330
747D
100
AcDbEntity
  8
部品1
 62
     7
 48
50.0
100
AcDbMText
 10
8218.297157985949
 20
2060.566314812485
 30
0.0
 40
80.0
 41
0.8
 71
     4
 72
     1
  1
M10X160
  7
STYLE2
 73
     1
 44
1.0
1001
ACAD
1000
MTEXTBEGIN
1070
    73
1070
     1
1070
    44
1040
1.0
1070
    74
1070
     0
1000
MTEXTEND
  0
DIMENSION
  5
2B8BE
330
747D
100
AcDbEntity
  8
寸法
 48
50.0
100
AcDbDimension
  2
*D53
 10
8987.275961454498
 20
1796.182988659255
 30
0.0
 11
8987.275961454498
 21
1330.174085237772
 31
0.0
 70
   160
  1
20～25
 71
     5
 42
52.76000000000113
  3
INABA_S40G
100
AcDbAlignedDimension
 13
8022.15269556663
 23
1848.942988659256
 33
0.0
 14
8209.352695566627
 24
1796.182988659255
 34
0.0
 50
90.0
100
AcDbRotatedDimension
1001
ACAD
1000
DSTYLE
1002
{
1070
   341
1005
0
1002
}
  0
DIMENSION
  5
2B8BF
330
747D
100
AcDbEntity
  8
寸法
 48
50.0
100
AcDbDimension
  2
*D54
 10
8711.221295335473
 20
1472.182988659254
 30
0.0
 11
8611.221295335473
 21
1634.182988659256
 31
0.0
 70
    32
  1
180
 71
     5
 42
324.0000000000009
  3
INABA_S40G
100
AcDbAlignedDimension
 13
8209.352695566627
 23
1796.182988659255
 33
0.0
 14
8209.352695566627
 24
1472.182988659254
 34
0.0
 50
90.0
100
AcDbRotatedDimension
1001
ACAD
1000
DSTYLE
1002
{
1070
   341
1005
0
1002
}
  0
TEXT
  5
2B8C0
330
747D
100
AcDbEntity
  8
部品1
 48
50.0
100
AcDbText
 10
8213.706279851056
 20
2152.061669421455
 30
0.0
 40
80.0
  1
基礎ボルト(市販品)
  7
STYLE2
100
AcDbText
  0
LWPOLYLINE
  5
2B8C1
330
747D
100
AcDbEntity
  8
部品1
 48
50.0
100
AcDbPolyline
 90
        2
 70
     0
 43
8.0
 10
8209.352695566627
 20
1556.182988659256
 10
8503.055158966011
 20
1556.182988659256
  0
MTEXT
  5
2B8C2
102
{ACAD_REACTORS
330
2B8C3
102
}
330
747D
100
AcDbEntity
  8
部品1
 62
     7
 48
50.0
100
AcDbMText
 10
8248.624285935468
 20
2496.678361746516
 30
0.0
 40
80.0
 41
0.8
 71
     4
 72
     1
  1
\A1;ワッシャー(市販品)
  7
STYLE2
 73
     1
 44
1.0
1001
ACAD
1000
MTEXTBEGIN
1070
    73
1070
     1
1070
    44
1040
1.0
1070
    74
1070
     0
1000
MTEXTEND
  0
LEADER
  5
2B8C3
330
747D
100
AcDbEntity
  8
寸法
 48
50.0
100
AcDbLeader
  3
INABA_S50G
 73
     0
 74
     0
 75
     1
 40
102.2727272727273
 41
906.8181818181818
 76
     3
 10
8056.752695566629
 20
2065.306277103535
 30
0.0
 10
8098.624285935468
 20
2420.541998110151
 30
0.0
 10
8223.624285935468
 20
2420.541998110151
 30
0.0
340
2B8C2
1001
ACAD
1000
DSTYLE
1002
{
1070
   341
1005
0
1070
    40
1040
1.0
1070
   343
1005
0
1070
   344
1005
0
1002
}
  0
MTEXT
  5
2B8C4
102
{ACAD_REACTORS
330
2B8C5
102
}
330
747D
100
AcDbEntity
  8
部品1
 62
     7
 48
50.0
100
AcDbMText
 10
8217.106666679987
 20
2681.647444511303
 30
0.0
 40
80.0
 41
0.8
 71
     4
 72
     1
  1
\A1;ナット(市販品)
  7
STYLE2
 73
     1
 44
1.0
1001
ACAD
1000
MTEXTBEGIN
1070
    73
1070
     1
1070
    44
1040
1.0
1070
    74
1070
     0
1000
MTEXTEND
  0
LEADER
  5
2B8C5
330
747D
100
AcDbEntity
  8
寸法
 48
50.0
100
AcDbLeader
  3
INABA_S50G
 73
     0
 74
     0
 75
     1
 40
102.2727272727273
 41
680.0000000000001
 76
     3
 10
8032.752695566628
 20
2195.058269768398
 30
0.0
 10
8067.106666679986
 20
2605.511080874939
 30
0.0
 10
8192.106666679986
 20
2605.511080874939
 30
0.0
340
2B8C4
1001
ACAD
1000
DSTYLE
1002
{
1070
   341
1005
0
1070
    40
1040
1.0
1070
   343
1005
0
1070
   344
1005
0
1002
}
  0
LINE
  5
2B8C6
330
747D
100
AcDbEntity
  8
部品1
100
AcDbLine
 10
5024.644943580175
 20
231.2146862751934
 30
0.0
 11
11095.63012896642
 21
231.2146862751934
 31
0.0
  0
LINE
  5
2B8C7
330
747D
100
AcDbEntity
  8
部品1
100
AcDbLine
 10
11095.63012896642
 20
2955.521655859838
 30
0.0
 11
5024.644943580174
 21
2955.521655859838
 31
0.0
  0
LINE
  5
2B8C8
330
747D
100
AcDbEntity
  8
部品1
100
AcDbLine
 10
11095.63012896642
 20
3195.52165585984
 30
0.0
 11
5024.64494358017
 21
3195.52165585984
 31
0.0
  0
HATCH
  5
2B960
330
747D
100
AcDbEntity
  8
細線
 48
50.0
100
AcDbHatch
 10
0.0
 20
0.0
 30
0.0
210
0.0
220
0.0
230
1.0
  2
LINE
 70
     0
 71
     1
 91
        1
 92
        7
 72
     0
 73
     1
 93
        4
 10
9143.788016725455
 20
6352.48349291627
 10
8943.788016725466
 20
6352.48349291627
 10
8943.788016725466
 20
6072.483492916268
 10
9143.788016725466
 20
6072.483492916269
 97
        4
330
2B567
330
2A1B7
330
2A0BC
330
2A1B2
 75
     0
 76
     1
 52
45.0
 41
10.0
 77
     0
 78
     1
 53
45.0
 43
0.0
 44
0.0
 45
-22.45064030267288
 46
22.45064030267288
 79
     0
 47
0.5170413890670679
 98
        1
 10
9042.978213277377
 20
6231.054420595316
  0
SPLINE
  5
2B967
330
747D
100
AcDbEntity
  8
細線
 48
50.0
100
AcDbSpline
210
0.0
220
0.0
230
1.0
 70
     8
 71
     3
 72
    10
 73
     6
 74
     4
 42
0.0000000001
 43
0.0000000001
 44
0.0000000001
 40
0.0
 40
0.0
 40
0.0
 40
0.0
 40
192.2397835813012
 40
392.3518421163208
 40
606.4563990014053
 40
606.4563990014053
 40
606.4563990014053
 40
606.4563990014053
 10
8998.784913201504
 20
6984.66906273901
 30
0.0
 10
8898.838725958219
 20
6973.093298983821
 30
0.0
 10
8694.853526085056
 20
6949.46774058669
 30
0.0
 10
9114.510959012696
 20
6816.190980555544
 30
0.0
 10
8893.715553442511
 20
6791.96536522968
 30
0.0
 10
8779.588546673549
 20
6779.44337928918
 30
0.0
 11
8998.784913201504
 21
6984.66906273901
 31
0.0
 11
8813.095541400103
 21
6934.913745521782
 31
0.0
 11
8986.39766769503
 21
6834.857716254274
 31
0.0
 11
8779.588546673549
 21
6779.44337928918
 31
0.0
  0
LINE
  5
2B968
330
747D
100
AcDbEntity
  8
細線
 48
50.0
100
AcDbLine
 10
9068.519503201214
 20
8038.744624064539
 30
0.0
 11
8739.236584716129
 21
5716.957511201321
 31
0.0
  0
ENDSEC
  0
SECTION
  2
OBJECTS
  0
DICTIONARY
  5
7471
330
0
100
AcDbDictionary
281
     1
  3
ACAD_COLOR
350
173D2
  3
ACAD_GROUP
350
7472
  3
ACAD_LAYOUT
350
173D3
  3
ACAD_MATERIAL
350
173D1
  3
ACAD_MLINESTYLE
350
7473
  3
ACAD_PLOTSETTINGS
350
173D4
  3
ACAD_PLOTSTYLENAME
350
173CF
  3
ACDBHEADERROUNDTRIPXREC
350
2B974
  3
AcDbVariableDictionary
350
2B448
  3
CONTENTDICTIONARY
350
E71C
  3
DRAWINGVARIABLESDICT
350
F3B9
  0
DICTIONARY
  5
1758F
330
7467
100
AcDbDictionary
280
     1
281
     1
  3
ACAD_LAYERSTATES
360
17590
  0
DICTIONARY
  5
173D2
102
{ACAD_REACTORS
330
7471
102
}
330
7471
100
AcDbDictionary
281
     1
  0
DICTIONARY
  5
7472
102
{ACAD_REACTORS
330
7471
102
}
330
7471
100
AcDbDictionary
281
     1
  3
*A1
350
1D2A9
  0
DICTIONARY
  5
173D3
102
{ACAD_REACTORS
330
7471
102
}
330
7471
100
AcDbDictionary
281
     1
  3
Model
350
173D5
  3
レイアウト1
350
173D6
  0
DICTIONARY
  5
173D1
102
{ACAD_REACTORS
330
7471
102
}
330
7471
100
AcDbDictionary
281
     1
  0
DICTIONARY
  5
7473
102
{ACAD_REACTORS
330
7471
102
}
330
7471
100
AcDbDictionary
281
     1
  3
STANDARD
350
7480
  0
DICTIONARY
  5
173D4
102
{ACAD_REACTORS
330
7471
102
}
330
7471
100
AcDbDictionary
281
     1
  0
ACDBDICTIONARYWDFLT
  5
173CF
102
{ACAD_REACTORS
330
7471
102
}
330
7471
100
AcDbDictionary
281
     1
  3
Normal
350
173D0
100
AcDbDictionaryWithDefault
340
173D0
  0
DICTIONARY
  5
2B974
102
{ACAD_REACTORS
330
7471
102
}
330
7471
100
AcDbDictionary
281
     1
  3
COLORDICT
350
2B976
  3
MATERIALDICT
350
2B975
  0
DICTIONARY
  5
2B448
102
{ACAD_REACTORS
330
7471
102
}
330
7471
100
AcDbDictionary
281
     1
  3
DIMASSOC
350
2B449
  3
PROJECTNAME
350
2B44A
  0
DICTIONARY
  5
E71C
102
{ACAD_REACTORS
330
7471
102
}
330
7471
100
AcDbDictionary
281
     1
  0
DICTIONARY
  5
F3B9
102
{ACAD_REACTORS
330
7471
102
}
330
7471
100
AcDbDictionary
281
     1
1001
DRAWINGVARIABLESXDATA
1000
POLARMODE
1000
1
  0
DICTIONARY
  5
17590
102
{ACAD_REACTORS
330
1758F
102
}
330
1758F
100
AcDbDictionary
281
     1
  0
GROUP
  5
1D2A9
102
{ACAD_REACTORS
330
7472
102
}
330
7472
100
AcDbGroup
300

 70
     1
 71
     1
  0
LAYOUT
  5
173D5
102
{ACAD_XDICTIONARY
360
2B977
102
}
102
{ACAD_REACTORS
330
173D3
102
}
330
173D3
100
AcDbPlotSettings
  1

  2
Microsoft Office Document Image Writer
  4

  6

 40
0.0
 41
0.0
 42
0.0
 43
0.0
 44
0.0
 45
0.0
 46
0.0
 47
0.0
 48
0.0
 49
0.0
140
0.0
141
0.0
142
1.0
143
1.0
 70
  1712
 72
     0
 73
     0
 74
     0
  7

 75
     0
147
1.0
148
0.0
149
0.0
100
AcDbLayout
  1
Model
 70
     1
 71
     0
 10
0.0
 20
0.0
 11
12.0
 21
9.0
 12
0.0
 22
0.0
 32
0.0
 14
0.0
 24
0.0
 34
0.0
 15
0.0
 25
0.0
 35
0.0
146
0.0
 13
0.0
 23
0.0
 33
0.0
 16
1.0
 26
0.0
 36
0.0
 17
0.0
 27
1.0
 37
0.0
 76
     0
330
747D
  0
LAYOUT
  5
173D6
102
{ACAD_XDICTIONARY
360
2B979
102
}
102
{ACAD_REACTORS
330
173D3
102
}
330
173D3
100
AcDbPlotSettings
  1

  2
Microsoft Office Document Image Writer
  4

  6

 40
0.0
 41
0.0
 42
0.0
 43
0.0
 44
0.0
 45
0.0
 46
0.0
 47
0.0
 48
0.0
 49
0.0
140
0.0
141
0.0
142
1.0
143
1.0
 70
   688
 72
     0
 73
     0
 74
     5
  7

 75
    16
147
1.0
148
0.0
149
0.0
100
AcDbLayout
  1
レイアウト1
 70
     0
 71
     1
 10
0.0
 20
0.0
 11
420.0
 21
297.0
 12
0.0
 22
0.0
 32
0.0
 14
1.000000000000000E+20
 24
1.000000000000000E+20
 34
1.000000000000000E+20
 15
-1.000000000000000E+20
 25
-1.000000000000000E+20
 35
-1.000000000000000E+20
146
0.0
 13
0.0
 23
0.0
 33
0.0
 16
1.0
 26
0.0
 36
0.0
 17
0.0
 27
1.0
 37
0.0
 76
     0
330
747A
  0
MLINESTYLE
  5
7480
102
{ACAD_REACTORS
330
7473
102
}
330
7473
100
AcDbMlineStyle
  2
STANDARD
 70
     0
  3

 62
     0
 51
90.0
 52
90.0
 71
     2
 49
0.5
 62
   256
  6
BYLAYER
 49
-0.5
 62
   256
  6
BYLAYER
  0
ACDBPLACEHOLDER
  5
173D0
102
{ACAD_REACTORS
330
173CF
102
}
330
173CF
  0
XRECORD
  5
2B976
102
{ACAD_REACTORS
330
2B974
102
}
330
2B974
100
AcDbXrecord
280
     1
340
173D2
  0
XRECORD
  5
2B975
102
{ACAD_REACTORS
330
2B974
102
}
330
2B974
100
AcDbXrecord
280
     1
340
173D1
  0
DICTIONARYVAR
  5
2B449
102
{ACAD_REACTORS
330
2B448
102
}
330
2B448
100
DictionaryVariables
280
     0
  1
1
  0
DICTIONARYVAR
  5
2B44A
102
{ACAD_REACTORS
330
2B448
102
}
330
2B448
100
DictionaryVariables
280
     0
  1

  0
DICTIONARY
  5
2B977
330
173D5
100
AcDbDictionary
280
     1
281
     1
  3
ACAD_XREC_ROUNDTRIP
360
2B978
  0
DICTIONARY
  5
2B979
330
173D6
100
AcDbDictionary
280
     1
281
     1
  3
ACAD_XREC_ROUNDTRIP
360
2B97A
  0
XRECORD
  5
2B978
102
{ACAD_REACTORS
330
2B977
102
}
330
2B977
100
AcDbXrecord
280
     1
102
SHADEPLOT
 70
     0
102
SHADEPLOTRESLEVEL
 70
     2
102
SHADEPLOTCUSTOMDPI
 70
   300
  0
XRECORD
  5
2B97A
102
{ACAD_REACTORS
330
2B979
102
}
330
2B979
100
AcDbXrecord
280
     1
102
SHADEPLOT
 70
     0
102
SHADEPLOTRESLEVEL
 70
     2
102
SHADEPLOTCUSTOMDPI
 70
   300
  0
ENDSEC
  0
EOF
