  0
SECTION
  2
HEADER
  9
$ACADVER
  1
AC1015
  9
$ACADMAINTVER
 70
    20
  9
$DWGCODEPAGE
  3
ANSI_932
  9
$INSBASE
 10
0.0
 20
0.0
 30
0.0
  9
$EXTMIN
 10
139.9999999999995
 20
-0.0000000000000909
 30
0.0
  9
$EXTMAX
 10
16307.2
 20
11409.6
 30
0.0
  9
$LIMMIN
 10
0.0
 20
0.0
  9
$LIMMAX
 10
16800.0
 20
11880.0
  9
$ORTHOMODE
 70
     0
  9
$REGENMODE
 70
     1
  9
$FILLMODE
 70
     1
  9
$QTEXTMODE
 70
     0
  9
$MIRRTEXT
 70
     1
  9
$LTSCALE
 40
20.0
  9
$ATTMODE
 70
     1
  9
$TEXTSIZE
 40
4.0
  9
$TRACEWID
 40
1.0
  9
$TEXTSTYLE
  7
STYLE1
  9
$CLAYER
  8
寸法
  9
$CELTYPE
  6
BYLAYER
  9
$CECOLOR
 62
   256
  9
$CELTSCALE
 40
50.0
  9
$DISPSILH
 70
     0
  9
$DIMSCALE
 40
40.0
  9
$DIMASZ
 40
2.5
  9
$DIMEXO
 40
0.5
  9
$DIMDLI
 40
7.0
  9
$DIMRND
 40
0.0
  9
$DIMDLE
 40
0.0
  9
$DIMEXE
 40
1.5
  9
$DIMTP
 40
0.0
  9
$DIMTM
 40
0.0
  9
$DIMTXT
 40
3.0
  9
$DIMCEN
 40
0.0
  9
$DIMTSZ
 40
0.0
  9
$DIMTOL
 70
     0
  9
$DIMLIM
 70
     0
  9
$DIMTIH
 70
     0
  9
$DIMTOH
 70
     0
  9
$DIMSE1
 70
     0
  9
$DIMSE2
 70
     0
  9
$DIMTAD
 70
     3
  9
$DIMZIN
 70
     8
  9
$DIMBLK
  1

  9
$DIMASO
 70
     1
  9
$DIMSHO
 70
     1
  9
$DIMPOST
  1

  9
$DIMAPOST
  1

  9
$DIMALT
 70
     0
  9
$DIMALTD
 70
     2
  9
$DIMALTF
 40
0.0394
  9
$DIMLFAC
 40
1.0
  9
$DIMTOFL
 70
     1
  9
$DIMTVP
 40
0.0
  9
$DIMTIX
 70
     1
  9
$DIMSOXD
 70
     0
  9
$DIMSAH
 70
     1
  9
$DIMBLK1
  1
DOTSMALL
  9
$DIMBLK2
  1
DOTSMALL
  9
$DIMSTYLE
  2
INABA_S40G
  9
$DIMCLRD
 70
     0
  9
$DIMCLRE
 70
     0
  9
$DIMCLRT
 70
     7
  9
$DIMTFAC
 40
1.0
  9
$DIMGAP
 40
1.0
  9
$DIMJUST
 70
     0
  9
$DIMSD1
 70
     0
  9
$DIMSD2
 70
     0
  9
$DIMTOLJ
 70
     1
  9
$DIMTZIN
 70
     0
  9
$DIMALTZ
 70
     0
  9
$DIMALTTZ
 70
     0
  9
$DIMUPT
 70
     0
  9
$DIMDEC
 70
     1
  9
$DIMTDEC
 70
     4
  9
$DIMALTU
 70
     2
  9
$DIMALTTD
 70
     2
  9
$DIMTXSTY
  7
STYLE1
  9
$DIMAUNIT
 70
     0
  9
$DIMADEC
 70
     0
  9
$DIMALTRND
 40
0.0
  9
$DIMAZIN
 70
     0
  9
$DIMDSEP
 70
    46
  9
$DIMATFIT
 70
     3
  9
$DIMFRAC
 70
     0
  9
$DIMLDRBLK
  1

  9
$DIMLUNIT
 70
     2
  9
$DIMLWD
 70
    -2
  9
$DIMLWE
 70
    -2
  9
$DIMTMOVE
 70
     0
  9
$LUNITS
 70
     2
  9
$LUPREC
 70
     1
  9
$SKETCHINC
 40
1.0
  9
$FILLETRAD
 40
3.0
  9
$AUNITS
 70
     0
  9
$AUPREC
 70
     0
  9
$MENU
  1
acad
  9
$ELEVATION
 40
0.0
  9
$PELEVATION
 40
0.0
  9
$THICKNESS
 40
0.0
  9
$LIMCHECK
 70
     0
  9
$CHAMFERA
 40
0.0
  9
$CHAMFERB
 40
0.0
  9
$CHAMFERC
 40
0.0
  9
$CHAMFERD
 40
0.0
  9
$SKPOLY
 70
     0
  9
$TDCREATE
 40
2451368.612993866
  9
$TDUCREATE
 40
2451368.237993866
  9
$TDUPDATE
 40
2455826.606173495
  9
$TDUUPDATE
 40
2455826.231173495
  9
$TDINDWG
 40
0.7970012500
  9
$TDUSRTIMER
 40
0.7970012500
  9
$USRTIMER
 70
     1
  9
$ANGBASE
 50
0.0
  9
$ANGDIR
 70
     0
  9
$PDMODE
 70
     3
  9
$PDSIZE
 40
2.0
  9
$PLINEWID
 40
0.0
  9
$SPLFRAME
 70
     0
  9
$SPLINETYPE
 70
     6
  9
$SPLINESEGS
 70
     8
  9
$HANDSEED
  5
280AE
  9
$SURFTAB1
 70
     6
  9
$SURFTAB2
 70
     6
  9
$SURFTYPE
 70
     6
  9
$SURFU
 70
     6
  9
$SURFV
 70
     6
  9
$UCSBASE
  2

  9
$UCSNAME
  2

  9
$UCSORG
 10
0.0
 20
0.0
 30
0.0
  9
$UCSXDIR
 10
1.0
 20
0.0
 30
0.0
  9
$UCSYDIR
 10
0.0
 20
1.0
 30
0.0
  9
$UCSORTHOREF
  2

  9
$UCSORTHOVIEW
 70
     0
  9
$UCSORGTOP
 10
0.0
 20
0.0
 30
0.0
  9
$UCSORGBOTTOM
 10
0.0
 20
0.0
 30
0.0
  9
$UCSORGLEFT
 10
0.0
 20
0.0
 30
0.0
  9
$UCSORGRIGHT
 10
0.0
 20
0.0
 30
0.0
  9
$UCSORGFRONT
 10
0.0
 20
0.0
 30
0.0
  9
$UCSORGBACK
 10
0.0
 20
0.0
 30
0.0
  9
$PUCSBASE
  2

  9
$PUCSNAME
  2

  9
$PUCSORG
 10
0.0
 20
0.0
 30
0.0
  9
$PUCSXDIR
 10
1.0
 20
0.0
 30
0.0
  9
$PUCSYDIR
 10
0.0
 20
1.0
 30
0.0
  9
$PUCSORTHOREF
  2

  9
$PUCSORTHOVIEW
 70
     0
  9
$PUCSORGTOP
 10
0.0
 20
0.0
 30
0.0
  9
$PUCSORGBOTTOM
 10
0.0
 20
0.0
 30
0.0
  9
$PUCSORGLEFT
 10
0.0
 20
0.0
 30
0.0
  9
$PUCSORGRIGHT
 10
0.0
 20
0.0
 30
0.0
  9
$PUCSORGFRONT
 10
0.0
 20
0.0
 30
0.0
  9
$PUCSORGBACK
 10
0.0
 20
0.0
 30
0.0
  9
$USERI1
 70
     0
  9
$USERI2
 70
     0
  9
$USERI3
 70
     0
  9
$USERI4
 70
     0
  9
$USERI5
 70
     0
  9
$USERR1
 40
0.0
  9
$USERR2
 40
0.0
  9
$USERR3
 40
0.0
  9
$USERR4
 40
0.0
  9
$USERR5
 40
0.0
  9
$WORLDVIEW
 70
     1
  9
$SHADEDGE
 70
     3
  9
$SHADEDIF
 70
    70
  9
$TILEMODE
 70
     1
  9
$MAXACTVP
 70
    16
  9
$PINSBASE
 10
0.0
 20
0.0
 30
0.0
  9
$PLIMCHECK
 70
     0
  9
$PEXTMIN
 10
1.000000000000000E+20
 20
1.000000000000000E+20
 30
1.000000000000000E+20
  9
$PEXTMAX
 10
-1.000000000000000E+20
 20
-1.000000000000000E+20
 30
-1.000000000000000E+20
  9
$PLIMMIN
 10
0.0
 20
0.0
  9
$PLIMMAX
 10
420.0
 20
297.0
  9
$UNITMODE
 70
     0
  9
$VISRETAIN
 70
     0
  9
$PLINEGEN
 70
     0
  9
$PSLTSCALE
 70
     0
  9
$TREEDEPTH
 70
  3020
  9
$CMLSTYLE
  2
STANDARD
  9
$CMLJUST
 70
     0
  9
$CMLSCALE
 40
1.0
  9
$PROXYGRAPHICS
 70
     1
  9
$MEASUREMENT
 70
     1
  9
$CELWEIGHT
370
    -1
  9
$ENDCAPS
280
     0
  9
$JOINSTYLE
280
     0
  9
$LWDISPLAY
290
     0
  9
$INSUNITS
 70
     0
  9
$HYPERLINKBASE
  1

  9
$STYLESHEET
  1

  9
$XEDIT
290
     1
  9
$CEPSNTYPE
380
     0
  9
$PSTYLEMODE
290
     1
  9
$FINGERPRINTGUID
  2
{5EAC461A-2277-4BF8-9AB0-99C43BB394F0}
  9
$VERSIONGUID
  2
{ACCCFC2E-FBFC-4D78-8FF2-D8226BD4790C}
  9
$EXTNAMES
290
     1
  9
$PSVPSCALE
 40
0.0
  9
$OLESTARTUP
290
     0
  0
ENDSEC
  0
SECTION
  2
CLASSES
  0
CLASS
  1
ACDBDICTIONARYWDFLT
  2
AcDbDictionaryWithDefault
  3
ObjectDBX Classes
 90
        0
280
     0
281
     0
  0
CLASS
  1
DICTIONARYVAR
  2
AcDbDictionaryVar
  3
ObjectDBX Classes
 90
        0
280
     0
281
     0
  0
CLASS
  1
ACDBPLACEHOLDER
  2
AcDbPlaceHolder
  3
ObjectDBX Classes
 90
        0
280
     0
281
     0
  0
CLASS
  1
LAYOUT
  2
AcDbLayout
  3
ObjectDBX Classes
 90
        0
280
     0
281
     0
  0
ENDSEC
  0
SECTION
  2
TABLES
  0
TABLE
  2
VPORT
  5
746D
330
0
100
AcDbSymbolTable
 70
     2
  0
VPORT
  5
280A6
330
746D
100
AcDbSymbolTableRecord
100
AcDbViewportTableRecord
  2
*Active
 70
     0
 10
0.0
 20
0.0
 11
1.0
 21
1.0
 12
8400.0
 22
6532.223175279203
 13
0.0
 23
0.0
 14
10.0
 24
10.0
 15
10.0
 25
10.0
 16
0.0
 26
0.0
 36
1.0
 17
0.0
 27
0.0
 37
0.0
 40
13160.56358925593
 41
1.522222222222222
 42
50.0
 43
0.0
 44
0.0
 50
0.0
 51
0.0
 71
     0
 72
     0
 73
     1
 74
     0
 75
     0
 76
     0
 77
     0
 78
     0
281
     0
 65
     1
110
0.0
120
0.0
130
0.0
111
1.0
121
0.0
131
0.0
112
0.0
122
1.0
132
0.0
 79
     0
146
0.0
  0
ENDTAB
  0
TABLE
  2
LTYPE
  5
746A
330
0
100
AcDbSymbolTable
 70
     5
  0
LTYPE
  5
7477
330
746A
100
AcDbSymbolTableRecord
100
AcDbLinetypeTableRecord
  2
BYBLOCK
 70
     0
  3

 72
    65
 73
     0
 40
0.0
  0
LTYPE
  5
7478
330
746A
100
AcDbSymbolTableRecord
100
AcDbLinetypeTableRecord
  2
BYLAYER
 70
     0
  3

 72
    65
 73
     0
 40
0.0
  0
LTYPE
  5
7479
330
746A
100
AcDbSymbolTableRecord
100
AcDbLinetypeTableRecord
  2
CONTINUOUS
 70
     0
  3
Solid line
 72
    65
 73
     0
 40
0.0
  0
LTYPE
  5
7816
330
746A
100
AcDbSymbolTableRecord
100
AcDbLinetypeTableRecord
  2
CENTER
 70
     0
  3
____ _ ____ _ ____ _ ____ _ ____ _ ____ _ ____ 
 72
    65
 73
     4
 40
2.0
 49
1.25
 74
     0
 49
-0.25
 74
     0
 49
0.25
 74
     0
 49
-0.25
 74
     0
  0
LTYPE
  5
781A
330
746A
100
AcDbSymbolTableRecord
100
AcDbLinetypeTableRecord
  2
HIDDEN
 70
     0
  3
__ __ __ __ __ __ __ __ __ __ __ __ __ __ __ __
 72
    65
 73
     2
 40
0.375
 49
0.25
 74
     0
 49
-0.125
 74
     0
  0
LTYPE
  5
781B
330
746A
100
AcDbSymbolTableRecord
100
AcDbLinetypeTableRecord
  2
PHANTOM
 70
     0
  3
______  __  __  ______  __  __  ______  __  __ 
 72
    65
 73
     6
 40
2.5
 49
1.25
 74
     0
 49
-0.25
 74
     0
 49
0.25
 74
     0
 49
-0.25
 74
     0
 49
0.25
 74
     0
 49
-0.25
 74
     0
  0
LTYPE
  5
12CC3
330
746A
100
AcDbSymbolTableRecord
100
AcDbLinetypeTableRecord
  2
HIDDENX2
 70
     0
  3
Hidden (2x) ____ ____ ____ ____ ____ ____ ____
 72
    65
 73
     2
 40
19.05
 49
12.7
 74
     0
 49
-6.349999999999999
 74
     0
  0
ENDTAB
  0
TABLE
  2
LAYER
  5
7467
102
{ACAD_XDICTIONARY
360
1758F
102
}
330
0
100
AcDbSymbolTable
 70
    12
  0
LAYER
  5
7474
330
7467
100
AcDbSymbolTableRecord
100
AcDbLayerTableRecord
  2
0
 70
     0
 62
     7
  6
CONTINUOUS
370
    -3
390
173D0
  0
LAYER
  5
DEB2
330
7467
100
AcDbSymbolTableRecord
100
AcDbLayerTableRecord
  2
センター
 70
     0
 62
     3
  6
CENTER
370
    -3
390
173D0
  0
LAYER
  5
DEB3
330
7467
100
AcDbSymbolTableRecord
100
AcDbLayerTableRecord
  2
寸法
 70
     0
 62
     4
  6
CONTINUOUS
370
    -3
390
173D0
  0
LAYER
  5
DEB4
330
7467
100
AcDbSymbolTableRecord
100
AcDbLayerTableRecord
  2
部品1
 70
     0
 62
     7
  6
CONTINUOUS
370
    -3
390
173D0
  0
LAYER
  5
DEB5
330
7467
100
AcDbSymbolTableRecord
100
AcDbLayerTableRecord
  2
補助
 70
     0
 62
    -1
  6
CONTINUOUS
370
    -3
390
173D0
  0
LAYER
  5
DEB6
330
7467
100
AcDbSymbolTableRecord
100
AcDbLayerTableRecord
  2
文字
 70
     0
 62
     7
  6
CONTINUOUS
370
    -3
390
173D0
  0
LAYER
  5
F255
330
7467
100
AcDbSymbolTableRecord
100
AcDbLayerTableRecord
  2
DEFPOINTS
 70
     0
 62
     7
  6
CONTINUOUS
290
     0
370
    -3
390
173D0
  0
LAYER
  5
10B54
330
7467
100
AcDbSymbolTableRecord
100
AcDbLayerTableRecord
  2
仕様書枠
 70
     0
 62
   230
  6
CONTINUOUS
370
    -3
390
173D0
  0
LAYER
  5
11729
330
7467
100
AcDbSymbolTableRecord
100
AcDbLayerTableRecord
  2
Ｇ．Ｌ
 70
     0
 62
    30
  6
CONTINUOUS
370
    -3
390
173D0
  0
LAYER
  5
1173F
330
7467
100
AcDbSymbolTableRecord
100
AcDbLayerTableRecord
  2
細線
 70
     0
 62
     5
  6
CONTINUOUS
370
    -3
390
173D0
  0
LAYER
  5
12CC4
330
7467
100
AcDbSymbolTableRecord
100
AcDbLayerTableRecord
  2
想像線
 70
     0
 62
     6
  6
PHANTOM
370
    -3
390
173D0
  0
LAYER
  5
142E2
330
7467
100
AcDbSymbolTableRecord
100
AcDbLayerTableRecord
  2
破線
 70
     0
 62
     2
  6
HIDDEN
370
    -3
390
173D0
  0
ENDTAB
  0
TABLE
  2
STYLE
  5
7468
330
0
100
AcDbSymbolTable
 70
     7
  0
STYLE
  5
7475
330
7468
100
AcDbSymbolTableRecord
100
AcDbTextStyleTableRecord
  2
STANDARD
 70
     0
 40
0.0
 41
1.0
 50
0.0
 71
     0
 42
4.0
  3
txt
  4
C:\AutoCAD LT\bigfont.shx
  0
STYLE
  5
763C
330
7468
100
AcDbSymbolTableRecord
100
AcDbTextStyleTableRecord
  2
MSMINCHO
 70
     0
 40
0.0
 41
1.0
 50
0.0
 71
     0
 42
1.199999999999999
  3
C:\AutoCAD LT\msminch2.TTF
  4

  0
STYLE
  5
F706
330
7468
100
AcDbSymbolTableRecord
100
AcDbTextStyleTableRecord
  2
STYLE1
 70
     0
 40
0.0
 41
1.0
 50
0.0
 71
     0
 42
4.0
  3
isocp.shx
  4
bigfont.shx
  0
STYLE
  5
103BF
330
7468
100
AcDbSymbolTableRecord
100
AcDbTextStyleTableRecord
  2
STYLE2
 70
     0
 40
0.0
 41
1.0
 50
0.0
 71
     0
 42
100.0
  3
MS PGothic.ttf
  4

1001
ACAD
1000
MS PGothic
1071
    32818
  0
STYLE
  5
10BAA
330
7468
100
AcDbSymbolTableRecord
100
AcDbTextStyleTableRecord
  2
STYLE3
 70
     0
 40
0.0
 41
1.0
 50
0.0
 71
     0
 42
100.0
  3

  4

1001
ACAD
1000
DFPGothic-EB
1071
    32818
  0
STYLE
  5
11A15
330
7468
100
AcDbSymbolTableRecord
100
AcDbTextStyleTableRecord
  2
MSGOTHIC
 70
     0
 40
0.0
 41
1.0
 50
0.0
 71
     0
 42
3.5
  3
msgothi2.ttf
  4

  0
STYLE
  5
13E96
330
7468
100
AcDbSymbolTableRecord
100
AcDbTextStyleTableRecord
  2
MSPゴシック
 70
     0
 40
0.0
 41
1.0
 50
0.0
 71
     0
 42
4.0
  3
MS PGothic.ttf
  4

1001
ACAD
1000
MS PGothic
1071
    32818
  0
ENDTAB
  0
TABLE
  2
VIEW
  5
746B
330
0
100
AcDbSymbolTable
 70
     0
  0
ENDTAB
  0
TABLE
  2
UCS
  5
746C
330
0
100
AcDbSymbolTable
 70
     0
  0
ENDTAB
  0
TABLE
  2
APPID
  5
746E
330
0
100
AcDbSymbolTable
 70
     6
  0
APPID
  5
7476
330
746E
100
AcDbSymbolTableRecord
100
AcDbRegAppTableRecord
  2
ACAD
 70
     0
  0
APPID
  5
DEA9
330
746E
100
AcDbSymbolTableRecord
100
AcDbRegAppTableRecord
  2
CONTENTBLOCKICON
 70
     0
  0
APPID
  5
DEAA
330
746E
100
AcDbSymbolTableRecord
100
AcDbRegAppTableRecord
  2
CONTENTBLOCKDESCRIPTION
 70
     0
  0
APPID
  5
E71D
330
746E
100
AcDbSymbolTableRecord
100
AcDbRegAppTableRecord
  2
CONTENTTABDATA
 70
     0
  0
APPID
  5
E71E
330
746E
100
AcDbSymbolTableRecord
100
AcDbRegAppTableRecord
  2
CONTENTCURRENTTAB
 70
     0
  0
APPID
  5
F3BA
330
746E
100
AcDbSymbolTableRecord
100
AcDbRegAppTableRecord
  2
DRAWINGVARIABLESXDATA
 70
     0
  0
ENDTAB
  0
TABLE
  2
DIMSTYLE
  5
746F
330
0
100
AcDbSymbolTable
 70
     6
100
AcDbDimStyleTable
 71
     1
340
F71F
  0
DIMSTYLE
105
7484
330
746F
100
AcDbSymbolTableRecord
100
AcDbDimStyleTableRecord
  2
JIS
 70
     0
 41
2.5
 42
1.0
 43
7.0
 44
1.0
 73
     0
 74
     0
 77
     1
 78
     8
140
2.5
141
0.0
143
0.0394
147
0.0
172
     1
174
     1
175
     1
340
7475
  0
DIMSTYLE
105
F236
330
746F
100
AcDbSymbolTableRecord
100
AcDbDimStyleTableRecord
  2
INABA_S40
 70
     0
 40
40.0
 41
2.5
 42
0.5
 43
7.0
 44
1.5
 73
     0
 74
     0
 77
     3
 78
     8
140
3.0
141
0.0
143
0.0394
147
1.0
172
     1
173
     1
174
     1
175
     1
178
     7
289
     0
340
7475
341
DEAC
343
DEAC
344
DEAC
  0
DIMSTYLE
105
F71F
102
{ACAD_REACTORS
330
20DE1
330
20DFB
330
22741
330
2275B
330
27480
330
27450
330
273E3
330
273E0
330
273DF
330
273DE
330
273AB
330
273AA
330
2739A
330
27399
330
27397
330
27322
330
2731C
330
2731A
330
27319
330
27318
330
27317
330
27312
330
27311
330
27324
330
27321
330
2731E
330
27327
330
27335
330
2731B
330
27323
330
27482
330
27FFD
330
28000
330
28007
330
2800F
330
28010
330
27F9D
102
}
330
746F
100
AcDbSymbolTableRecord
100
AcDbDimStyleTableRecord
  2
INABA_S40G
 70
     0
 40
40.0
 41
2.5
 42
0.5
 43
7.0
 44
1.5
 73
     0
 74
     0
 77
     3
 78
     8
140
3.0
141
0.0
143
0.0394
147
1.0
172
     1
173
     1
174
     1
178
     7
271
     1
340
F706
341
F770
343
F770
344
F770
  0
DIMSTYLE
105
142E3
330
746F
100
AcDbSymbolTableRecord
100
AcDbDimStyleTableRecord
  2
INABA_S1
 70
     0
 40
0.0
 41
2.5
 42
0.5
 43
7.0
 44
1.5
 73
     0
 74
     0
 77
     3
 78
     8
140
3.0
141
0.0
143
0.0394
146
0.5
147
0.5
172
     1
173
     1
176
   256
177
   256
178
     7
271
     2
272
     2
284
     8
288
     1
340
7475
341
DEAC
343
DEAC
344
DEAC
  0
DIMSTYLE
105
14463
330
746F
100
AcDbSymbolTableRecord
100
AcDbDimStyleTableRecord
  2
INABA_S30G
 70
     0
 40
30.0
 41
2.5
 42
0.5
 43
7.0
 44
1.5
 73
     0
 74
     0
 77
     3
 78
     8
140
3.0
141
0.0
143
0.0394
147
1.0
172
     1
173
     1
174
     1
175
     1
178
     7
271
     1
340
F706
341
F770
343
F770
344
F770
  0
DIMSTYLE
105
1758E
330
746F
100
AcDbSymbolTableRecord
100
AcDbDimStyleTableRecord
  2
INABA_S50G
 70
     0
 41
125.0
 42
25.0
 43
7.0
 44
75.0
 73
     0
 74
     0
 77
     3
 78
     8
140
150.0
141
0.0
143
0.0394
147
25.0
172
     1
173
     1
174
     1
175
     1
178
     7
271
     1
340
F706
341
F770
343
F770
344
F770
  0
ENDTAB
  0
TABLE
  2
BLOCK_RECORD
  5
7466
330
0
100
AcDbSymbolTable
 70
    66
  0
BLOCK_RECORD
  5
747D
330
7466
100
AcDbSymbolTableRecord
100
AcDbBlockTableRecord
  2
*MODEL_SPACE
340
173D5
  0
BLOCK_RECORD
  5
747A
330
7466
100
AcDbSymbolTableRecord
100
AcDbBlockTableRecord
  2
*PAPER_SPACE
340
173D6
  0
BLOCK_RECORD
  5
DEAC
330
7466
100
AcDbSymbolTableRecord
100
AcDbBlockTableRecord
  2
_OPEN
340
0
  0
BLOCK_RECORD
  5
F770
330
7466
100
AcDbSymbolTableRecord
100
AcDbBlockTableRecord
  2
_DOTSMALL
340
0
102
{BLKREFS
331
18C65
331
18C66
331
18C59
331
18C5A
331
18C4D
331
18C4E
331
18C41
331
18C42
331
18C35
331
18C36
331
18C29
331
18C2A
331
18C1D
331
18C1E
331
18C0F
331
18C10
331
18C03
331
18C04
331
18BF5
331
18BF6
331
18BE7
331
18BE8
331
18BD9
331
18BDA
331
18BCD
331
18BCE
331
21316
331
21317
331
21321
331
21322
331
2132A
331
2132B
331
27A5F
331
27A60
331
27A68
331
27A69
331
27A96
331
27A97
331
27A9F
331
27AA0
331
27AA9
331
27AAA
331
27AB3
331
27AB4
331
27ABC
331
27ABD
331
27AF2
331
27AF3
331
27B04
331
27B05
331
27B20
331
27B21
331
27B29
331
27B2A
331
27B6E
331
27B6F
331
27B79
331
27B7A
331
27B84
331
27B85
331
27B8F
331
27B90
331
27BB3
331
27BB4
331
27BBC
331
27BBD
331
27BEA
331
27BEB
331
27BFC
331
27BFD
331
27C0E
331
27C0F
331
27C20
331
27C21
331
27C32
331
27C33
331
27C44
331
27C45
331
27C56
331
27C57
331
27C68
331
27C69
331
27C71
331
27C72
331
27C7A
331
27C7B
331
27C83
331
27C84
331
27C8C
331
27C8D
331
27D33
331
27D34
331
27D3C
331
27D3D
331
27D5C
331
27D5D
331
27DA5
331
27DA6
331
27D99
331
27D9A
331
27D8D
331
27D8E
331
27D81
331
27D82
331
27D75
331
27D76
331
27D67
331
27D68
331
28067
331
28068
331
28070
331
28071
331
28079
331
2807A
331
28084
331
28085
331
2808D
331
2808E
331
28096
331
28097
102
}
  0
BLOCK_RECORD
  5
164B4
330
7466
100
AcDbSymbolTableRecord
100
AcDbBlockTableRecord
  2
_DOT
340
0
102
{BLKREFS
331
18C73
331
18C74
102
}
  0
BLOCK_RECORD
  5
18BC8
330
7466
100
AcDbSymbolTableRecord
100
AcDbBlockTableRecord
  2
*D3
340
0
  0
BLOCK_RECORD
  5
18BD4
330
7466
100
AcDbSymbolTableRecord
100
AcDbBlockTableRecord
  2
*D4
340
0
  0
BLOCK_RECORD
  5
18BE0
330
7466
100
AcDbSymbolTableRecord
100
AcDbBlockTableRecord
  2
*D5
340
0
  0
BLOCK_RECORD
  5
18BEE
330
7466
100
AcDbSymbolTableRecord
100
AcDbBlockTableRecord
  2
*D6
340
0
  0
BLOCK_RECORD
  5
18BFC
330
7466
100
AcDbSymbolTableRecord
100
AcDbBlockTableRecord
  2
*D7
340
0
  0
BLOCK_RECORD
  5
18C0A
330
7466
100
AcDbSymbolTableRecord
100
AcDbBlockTableRecord
  2
*D8
340
0
  0
BLOCK_RECORD
  5
18C16
330
7466
100
AcDbSymbolTableRecord
100
AcDbBlockTableRecord
  2
*D9
340
0
  0
BLOCK_RECORD
  5
18C24
330
7466
100
AcDbSymbolTableRecord
100
AcDbBlockTableRecord
  2
*D10
340
0
  0
BLOCK_RECORD
  5
18C30
330
7466
100
AcDbSymbolTableRecord
100
AcDbBlockTableRecord
  2
*D11
340
0
  0
BLOCK_RECORD
  5
18C3C
330
7466
100
AcDbSymbolTableRecord
100
AcDbBlockTableRecord
  2
*D12
340
0
  0
BLOCK_RECORD
  5
18C48
330
7466
100
AcDbSymbolTableRecord
100
AcDbBlockTableRecord
  2
*D13
340
0
  0
BLOCK_RECORD
  5
18C54
330
7466
100
AcDbSymbolTableRecord
100
AcDbBlockTableRecord
  2
*D14
340
0
  0
BLOCK_RECORD
  5
18C60
330
7466
100
AcDbSymbolTableRecord
100
AcDbBlockTableRecord
  2
*D15
340
0
  0
BLOCK_RECORD
  5
18C6C
330
7466
100
AcDbSymbolTableRecord
100
AcDbBlockTableRecord
  2
*D16
340
0
  0
BLOCK_RECORD
  5
18C7A
330
7466
100
AcDbSymbolTableRecord
100
AcDbBlockTableRecord
  2
A$C3B1A506B
340
0
  0
BLOCK_RECORD
  5
1C4CA
330
7466
100
AcDbSymbolTableRecord
100
AcDbBlockTableRecord
  2
_NONE
340
0
  0
BLOCK_RECORD
  5
20DE2
330
7466
100
AcDbSymbolTableRecord
100
AcDbBlockTableRecord
  2
*D19
340
0
  0
BLOCK_RECORD
  5
20DFC
330
7466
100
AcDbSymbolTableRecord
100
AcDbBlockTableRecord
  2
*D20
340
0
  0
BLOCK_RECORD
  5
22742
330
7466
100
AcDbSymbolTableRecord
100
AcDbBlockTableRecord
  2
*D25
340
0
  0
BLOCK_RECORD
  5
2275C
330
7466
100
AcDbSymbolTableRecord
100
AcDbBlockTableRecord
  2
*D26
340
0
  0
BLOCK_RECORD
  5
27491
330
7466
100
AcDbSymbolTableRecord
100
AcDbBlockTableRecord
  2
*D27
340
0
  0
BLOCK_RECORD
  5
2749D
330
7466
100
AcDbSymbolTableRecord
100
AcDbBlockTableRecord
  2
*D28
340
0
  0
BLOCK_RECORD
  5
274B7
330
7466
100
AcDbSymbolTableRecord
100
AcDbBlockTableRecord
  2
*D29
340
0
  0
BLOCK_RECORD
  5
274C4
330
7466
100
AcDbSymbolTableRecord
100
AcDbBlockTableRecord
  2
*D30
340
0
  0
BLOCK_RECORD
  5
274D0
330
7466
100
AcDbSymbolTableRecord
100
AcDbBlockTableRecord
  2
*D31
340
0
  0
BLOCK_RECORD
  5
274DC
330
7466
100
AcDbSymbolTableRecord
100
AcDbBlockTableRecord
  2
*D32
340
0
  0
BLOCK_RECORD
  5
274E8
330
7466
100
AcDbSymbolTableRecord
100
AcDbBlockTableRecord
  2
*D33
340
0
  0
BLOCK_RECORD
  5
274F4
330
7466
100
AcDbSymbolTableRecord
100
AcDbBlockTableRecord
  2
*D34
340
0
  0
BLOCK_RECORD
  5
27500
330
7466
100
AcDbSymbolTableRecord
100
AcDbBlockTableRecord
  2
*D35
340
0
  0
BLOCK_RECORD
  5
2750B
330
7466
100
AcDbSymbolTableRecord
100
AcDbBlockTableRecord
  2
*D36
340
0
  0
BLOCK_RECORD
  5
27517
330
7466
100
AcDbSymbolTableRecord
100
AcDbBlockTableRecord
  2
*D37
340
0
  0
BLOCK_RECORD
  5
27523
330
7466
100
AcDbSymbolTableRecord
100
AcDbBlockTableRecord
  2
*D38
340
0
  0
BLOCK_RECORD
  5
2752F
330
7466
100
AcDbSymbolTableRecord
100
AcDbBlockTableRecord
  2
*D39
340
0
  0
BLOCK_RECORD
  5
2753B
330
7466
100
AcDbSymbolTableRecord
100
AcDbBlockTableRecord
  2
*D40
340
0
  0
BLOCK_RECORD
  5
27546
330
7466
100
AcDbSymbolTableRecord
100
AcDbBlockTableRecord
  2
*D41
340
0
  0
BLOCK_RECORD
  5
27553
330
7466
100
AcDbSymbolTableRecord
100
AcDbBlockTableRecord
  2
*D42
340
0
  0
BLOCK_RECORD
  5
2756C
330
7466
100
AcDbSymbolTableRecord
100
AcDbBlockTableRecord
  2
*D43
340
0
  0
BLOCK_RECORD
  5
27578
330
7466
100
AcDbSymbolTableRecord
100
AcDbBlockTableRecord
  2
*D44
340
0
  0
BLOCK_RECORD
  5
27584
330
7466
100
AcDbSymbolTableRecord
100
AcDbBlockTableRecord
  2
*D45
340
0
  0
BLOCK_RECORD
  5
27599
330
7466
100
AcDbSymbolTableRecord
100
AcDbBlockTableRecord
  2
*D46
340
0
  0
BLOCK_RECORD
  5
275A6
330
7466
100
AcDbSymbolTableRecord
100
AcDbBlockTableRecord
  2
*D47
340
0
  0
BLOCK_RECORD
  5
275C0
330
7466
100
AcDbSymbolTableRecord
100
AcDbBlockTableRecord
  2
*D48
340
0
  0
BLOCK_RECORD
  5
275CC
330
7466
100
AcDbSymbolTableRecord
100
AcDbBlockTableRecord
  2
*D49
340
0
  0
BLOCK_RECORD
  5
275D9
330
7466
100
AcDbSymbolTableRecord
100
AcDbBlockTableRecord
  2
*D50
340
0
  0
BLOCK_RECORD
  5
275E5
330
7466
100
AcDbSymbolTableRecord
100
AcDbBlockTableRecord
  2
*D51
340
0
  0
BLOCK_RECORD
  5
275F1
330
7466
100
AcDbSymbolTableRecord
100
AcDbBlockTableRecord
  2
*D52
340
0
  0
BLOCK_RECORD
  5
275FD
330
7466
100
AcDbSymbolTableRecord
100
AcDbBlockTableRecord
  2
*D53
340
0
  0
BLOCK_RECORD
  5
2801A
330
7466
100
AcDbSymbolTableRecord
100
AcDbBlockTableRecord
  2
*D60
340
0
  0
BLOCK_RECORD
  5
28026
330
7466
100
AcDbSymbolTableRecord
100
AcDbBlockTableRecord
  2
*D61
340
0
  0
BLOCK_RECORD
  5
28032
330
7466
100
AcDbSymbolTableRecord
100
AcDbBlockTableRecord
  2
*D62
340
0
  0
BLOCK_RECORD
  5
2803E
330
7466
100
AcDbSymbolTableRecord
100
AcDbBlockTableRecord
  2
*D63
340
0
  0
BLOCK_RECORD
  5
2804C
330
7466
100
AcDbSymbolTableRecord
100
AcDbBlockTableRecord
  2
*D64
340
0
  0
BLOCK_RECORD
  5
28058
330
7466
100
AcDbSymbolTableRecord
100
AcDbBlockTableRecord
  2
*D65
340
0
  0
ENDTAB
  0
ENDSEC
  0
SECTION
  2
BLOCKS
  0
BLOCK
  5
7489
330
747D
100
AcDbEntity
  8
0
100
AcDbBlockBegin
  2
*MODEL_SPACE
 70
     0
 10
0.0
 20
0.0
 30
0.0
  3
*MODEL_SPACE
  1

  0
ENDBLK
  5
748A
330
747D
100
AcDbEntity
  8
0
100
AcDbBlockEnd
  0
BLOCK
  5
7487
330
747A
100
AcDbEntity
 67
     1
  8
0
100
AcDbBlockBegin
  2
*PAPER_SPACE
 70
     0
 10
0.0
 20
0.0
 30
0.0
  3
*PAPER_SPACE
  1

  0
ENDBLK
  5
7488
330
747A
100
AcDbEntity
 67
     1
  8
0
100
AcDbBlockEnd
  0
BLOCK
  5
DEAD
330
DEAC
100
AcDbEntity
  8
0
100
AcDbBlockBegin
  2
_OPEN
 70
     0
 10
0.0
 20
0.0
 30
0.0
  3
_OPEN
  1

  0
LINE
  5
DEAE
330
DEAC
100
AcDbEntity
  8
0
  6
ByBlock
 62
     0
100
AcDbLine
 10
-1.0
 20
0.1666666666666666
 30
0.0
 11
0.0
 21
0.0
 31
0.0
  0
LINE
  5
DEAF
330
DEAC
100
AcDbEntity
  8
0
  6
ByBlock
 62
     0
100
AcDbLine
 10
0.0
 20
0.0
 30
0.0
 11
-1.0
 21
-0.1666666666666666
 31
0.0
  0
LINE
  5
DEB0
330
DEAC
100
AcDbEntity
  8
0
  6
ByBlock
 62
     0
100
AcDbLine
 10
0.0
 20
0.0
 30
0.0
 11
-1.0
 21
0.0
 31
0.0
  0
ENDBLK
  5
DEB1
330
DEAC
100
AcDbEntity
  8
0
100
AcDbBlockEnd
  0
BLOCK
  5
F771
330
F770
100
AcDbEntity
  8
0
 48
50.0
100
AcDbBlockBegin
  2
_DOTSMALL
 70
     0
 10
0.0
 20
0.0
 30
0.0
  3
_DOTSMALL
  1

  0
LWPOLYLINE
  5
F772
330
F770
100
AcDbEntity
  8
0
  6
ByBlock
 62
     0
 48
50.0
100
AcDbPolyline
 90
        2
 70
     1
 43
0.5
 10
-0.0625
 20
0.0
 42
1.0
 10
0.0625
 20
0.0
 42
1.0
  0
ENDBLK
  5
F776
330
F770
100
AcDbEntity
  8
0
 48
50.0
100
AcDbBlockEnd
  0
BLOCK
  5
164BA
330
164B4
100
AcDbEntity
  8
0
 48
50.0
100
AcDbBlockBegin
  2
_DOT
 70
     0
 10
0.0
 20
0.0
 30
0.0
  3
_DOT
  1

  0
LWPOLYLINE
  5
164B5
330
164B4
100
AcDbEntity
  8
0
  6
ByBlock
 62
     0
 48
50.0
100
AcDbPolyline
 90
        2
 70
     1
 43
0.5
 10
-0.25
 20
0.0
 42
1.0
 10
0.25
 20
0.0
 42
1.0
  0
LINE
  5
164B9
330
164B4
100
AcDbEntity
  8
0
  6
ByBlock
 62
     0
 48
50.0
100
AcDbLine
 10
-0.5
 20
0.0
 30
0.0
 11
-1.0
 21
0.0
 31
0.0
  0
ENDBLK
  5
164BB
330
164B4
100
AcDbEntity
  8
0
 48
50.0
100
AcDbBlockEnd
  0
BLOCK
  5
18BC9
330
18BC8
100
AcDbEntity
  8
0
 48
50.0
100
AcDbBlockBegin
  2
*D3
 70
     1
 10
0.0
 20
0.0
 30
0.0
  3
*D3
  1

  0
LINE
  5
18BCA
330
18BC8
100
AcDbEntity
  8
寸法
 62
     0
 48
50.0
370
    -2
100
AcDbLine
 10
7649.896575106999
 20
9636.123139034717
 30
0.0
 11
8702.429862581047
 21
9636.123139034717
 31
0.0
  0
LINE
  5
18BCB
330
18BC8
100
AcDbEntity
  8
寸法
 62
     0
 48
50.0
370
    -2
100
AcDbLine
 10
7649.896575106973
 20
7846.123139034709
 30
0.0
 11
8702.429862581047
 21
7846.123139034709
 31
0.0
  0
LINE
  5
18BCC
330
18BC8
100
AcDbEntity
  8
寸法
 62
     0
 48
50.0
370
    -2
100
AcDbLine
 10
8642.429862581046
 20
9636.123139034717
 30
0.0
 11
8642.429862581046
 21
7846.123139034709
 31
0.0
  0
INSERT
  5
18BCD
330
18BC8
100
AcDbEntity
  8
寸法
 62
     0
 48
50.0
370
    -2
100
AcDbBlockReference
  2
_DOTSMALL
 10
8642.429862581046
 20
9636.123139034717
 30
0.0
 41
100.0
 42
100.0
 43
100.0
 50
90.0
  0
INSERT
  5
18BCE
330
18BC8
100
AcDbEntity
  8
寸法
 62
     0
 48
50.0
370
    -2
100
AcDbBlockReference
  2
_DOTSMALL
 10
8642.429862581046
 20
7846.123139034709
 30
0.0
 41
100.0
 42
100.0
 43
100.0
 50
270.0
  0
MTEXT
  5
18BCF
330
18BC8
100
AcDbEntity
  8
寸法
 62
     7
 48
50.0
100
AcDbMText
 10
8542.429862581045
 20
8741.123139034712
 30
0.0
 40
120.0
 41
0.0
 71
     5
 72
     1
  1
\A1;1790
  7
STYLE1
 11
0.0000000000000001
 21
1.0
 31
0.0
 73
     1
 44
1.0
1001
ACAD
1000
MTEXTBEGIN
1070
    73
1070
     1
1070
    44
1040
1.0
1070
    74
1070
     0
1000
MTEXTEND
  0
POINT
  5
18BD0
330
18BC8
100
AcDbEntity
  8
DEFPOINTS
 62
     0
 48
50.0
100
AcDbPoint
 10
7629.896575106998
 20
9636.123139034717
 30
0.0
  0
POINT
  5
18BD1
330
18BC8
100
AcDbEntity
  8
DEFPOINTS
 62
     0
 48
50.0
100
AcDbPoint
 10
7629.896575106974
 20
7846.123139034709
 30
0.0
  0
POINT
  5
18BD2
330
18BC8
100
AcDbEntity
  8
DEFPOINTS
 62
     0
 48
50.0
100
AcDbPoint
 10
8642.429862581046
 20
7846.123139034709
 30
0.0
  0
ENDBLK
  5
18BD3
330
18BC8
100
AcDbEntity
  8
0
 48
50.0
100
AcDbBlockEnd
  0
BLOCK
  5
18BD5
330
18BD4
100
AcDbEntity
  8
0
 48
50.0
100
AcDbBlockBegin
  2
*D4
 70
     1
 10
0.0
 20
0.0
 30
0.0
  3
*D4
  1

  0
LINE
  5
18BD6
330
18BD4
100
AcDbEntity
  8
寸法
 62
     0
 48
50.0
370
    -2
100
AcDbLine
 10
4214.896575106998
 20
9656.123139034622
 30
0.0
 11
4214.896575106998
 21
10211.93135865972
 31
0.0
  0
LINE
  5
18BD7
330
18BD4
100
AcDbEntity
  8
寸法
 62
     0
 48
50.0
370
    -2
100
AcDbLine
 10
7574.896575106999
 20
9656.123139034718
 30
0.0
 11
7574.896575106999
 21
10211.93135865972
 31
0.0
  0
LINE
  5
18BD8
330
18BD4
100
AcDbEntity
  8
寸法
 62
     0
 48
50.0
370
    -2
100
AcDbLine
 10
4214.896575106998
 20
10151.93135865972
 30
0.0
 11
7574.896575106999
 21
10151.93135865972
 31
0.0
  0
INSERT
  5
18BD9
330
18BD4
100
AcDbEntity
  8
寸法
 62
     0
 48
50.0
370
    -2
100
AcDbBlockReference
  2
_DOTSMALL
 10
4214.896575106998
 20
10151.93135865972
 30
0.0
 41
100.0
 42
100.0
 43
100.0
 50
180.0
  0
INSERT
  5
18BDA
330
18BD4
100
AcDbEntity
  8
寸法
 62
     0
 48
50.0
370
    -2
100
AcDbBlockReference
  2
_DOTSMALL
 10
7574.896575106999
 20
10151.93135865972
 30
0.0
 41
100.0
 42
100.0
 43
100.0
  0
MTEXT
  5
18BDB
330
18BD4
100
AcDbEntity
  8
寸法
 62
     7
 48
50.0
100
AcDbMText
 10
5894.896575106997
 20
10251.94316968334
 30
0.0
 40
120.0
 41
0.0
 71
     5
 72
     1
  1
\A1;8X420=3360
  7
STYLE1
 73
     1
 44
1.0
1001
ACAD
1000
MTEXTBEGIN
1070
    73
1070
     1
1070
    44
1040
1.0
1070
    74
1070
     0
1000
MTEXTEND
  0
POINT
  5
18BDC
330
18BD4
100
AcDbEntity
  8
DEFPOINTS
 62
     0
 48
50.0
100
AcDbPoint
 10
4214.896575106998
 20
9636.123139034623
 30
0.0
  0
POINT
  5
18BDD
330
18BD4
100
AcDbEntity
  8
DEFPOINTS
 62
     0
 48
50.0
100
AcDbPoint
 10
7574.896575106999
 20
9636.123139034717
 30
0.0
  0
POINT
  5
18BDE
330
18BD4
100
AcDbEntity
  8
DEFPOINTS
 62
     0
 48
50.0
100
AcDbPoint
 10
7574.896575106999
 20
10151.93135865972
 30
0.0
  0
ENDBLK
  5
18BDF
330
18BD4
100
AcDbEntity
  8
0
 48
50.0
100
AcDbBlockEnd
  0
BLOCK
  5
18BE1
330
18BE0
100
AcDbEntity
  8
0
 48
50.0
100
AcDbBlockBegin
  2
*D5
 70
     1
 10
0.0
 20
0.0
 30
0.0
  3
*D5
  1

  0
LINE
  5
18BE2
330
18BE0
100
AcDbEntity
  8
寸法
 62
     0
 48
50.0
370
    -2
100
AcDbLine
 10
7574.896575106999
 20
9656.123139034718
 30
0.0
 11
7574.896575106999
 21
10211.9313586597
 31
0.0
  0
LINE
  5
18BE3
330
18BE0
100
AcDbEntity
  8
寸法
 62
     0
 48
50.0
370
    -2
100
AcDbLine
 10
7629.896575106998
 20
9656.123139034718
 30
0.0
 11
7629.896575106998
 21
10211.9313586597
 31
0.0
  0
LINE
  5
18BE4
330
18BE0
100
AcDbEntity
  8
寸法
 62
     0
 48
50.0
370
    -2
100
AcDbLine
 10
7574.896575106999
 20
10151.9313586597
 30
0.0
 11
7474.896575106999
 21
10151.9313586597
 31
0.0
  0
LINE
  5
18BE5
330
18BE0
100
AcDbEntity
  8
寸法
 62
     0
 48
50.0
370
    -2
100
AcDbLine
 10
7629.896575106998
 20
10151.9313586597
 30
0.0
 11
8046.867137855477
 21
10151.9313586597
 31
0.0
  0
LINE
  5
18BE6
330
18BE0
100
AcDbEntity
  8
寸法
 62
     0
 48
50.0
370
    -2
100
AcDbLine
 10
7574.896575106999
 20
10151.9313586597
 30
0.0
 11
7629.896575106998
 21
10151.9313586597
 31
0.0
  0
INSERT
  5
18BE7
330
18BE0
100
AcDbEntity
  8
寸法
 62
     0
 48
50.0
370
    -2
100
AcDbBlockReference
  2
_DOTSMALL
 10
7574.896575106999
 20
10151.9313586597
 30
0.0
 41
100.0
 42
100.0
 43
100.0
  0
INSERT
  5
18BE8
330
18BE0
100
AcDbEntity
  8
寸法
 62
     0
 48
50.0
370
    -2
100
AcDbBlockReference
  2
_DOTSMALL
 10
7629.896575106998
 20
10151.9313586597
 30
0.0
 41
100.0
 42
100.0
 43
100.0
 50
180.0
  0
MTEXT
  5
18BE9
330
18BE0
100
AcDbEntity
  8
寸法
 62
     7
 48
50.0
100
AcDbMText
 10
7938.381856481237
 20
10251.9313586597
 30
0.0
 40
120.0
 41
0.0
 71
     5
 72
     1
  1
\A1;55
  7
STYLE1
 73
     1
 44
1.0
1001
ACAD
1000
MTEXTBEGIN
1070
    73
1070
     1
1070
    44
1040
1.0
1070
    74
1070
     0
1000
MTEXTEND
  0
POINT
  5
18BEA
330
18BE0
100
AcDbEntity
  8
DEFPOINTS
 62
     0
 48
50.0
100
AcDbPoint
 10
7574.896575106999
 20
9636.123139034717
 30
0.0
  0
POINT
  5
18BEB
330
18BE0
100
AcDbEntity
  8
DEFPOINTS
 62
     0
 48
50.0
100
AcDbPoint
 10
7629.896575106998
 20
9636.123139034717
 30
0.0
  0
POINT
  5
18BEC
330
18BE0
100
AcDbEntity
  8
DEFPOINTS
 62
     0
 48
50.0
100
AcDbPoint
 10
7629.896575106998
 20
10151.9313586597
 30
0.0
  0
ENDBLK
  5
18BED
330
18BE0
100
AcDbEntity
  8
0
 48
50.0
100
AcDbBlockEnd
  0
BLOCK
  5
18BEF
330
18BEE
100
AcDbEntity
  8
0
 48
50.0
100
AcDbBlockBegin
  2
*D6
 70
     1
 10
0.0
 20
0.0
 30
0.0
  3
*D6
  1

  0
LINE
  5
18BF0
330
18BEE
100
AcDbEntity
  8
寸法
 62
     0
 48
50.0
370
    -2
100
AcDbLine
 10
7649.896575106999
 20
9636.123139034717
 30
0.0
 11
8337.32292084141
 21
9636.123139034717
 31
0.0
  0
LINE
  5
18BF1
330
18BEE
100
AcDbEntity
  8
寸法
 62
     0
 48
50.0
370
    -2
100
AcDbLine
 10
7649.896575106999
 20
9581.123139034721
 30
0.0
 11
8337.32292084141
 21
9581.123139034721
 31
0.0
  0
LINE
  5
18BF2
330
18BEE
100
AcDbEntity
  8
寸法
 62
     0
 48
50.0
370
    -2
100
AcDbLine
 10
8277.322920841411
 20
9581.123139034721
 30
0.0
 11
8277.322920841411
 21
9481.123139034719
 31
0.0
  0
LINE
  5
18BF3
330
18BEE
100
AcDbEntity
  8
寸法
 62
     0
 48
50.0
370
    -2
100
AcDbLine
 10
8277.322920841411
 20
9636.123139034717
 30
0.0
 11
8277.322920841411
 21
10053.09370178319
 31
0.0
  0
LINE
  5
18BF4
330
18BEE
100
AcDbEntity
  8
寸法
 62
     0
 48
50.0
370
    -2
100
AcDbLine
 10
8277.322920841411
 20
9581.123139034721
 30
0.0
 11
8277.322920841411
 21
9636.123139034717
 31
0.0
  0
INSERT
  5
18BF5
330
18BEE
100
AcDbEntity
  8
寸法
 62
     0
 48
50.0
370
    -2
100
AcDbBlockReference
  2
_DOTSMALL
 10
8277.322920841411
 20
9581.123139034721
 30
0.0
 41
100.0
 42
100.0
 43
100.0
 50
90.0
  0
INSERT
  5
18BF6
330
18BEE
100
AcDbEntity
  8
寸法
 62
     0
 48
50.0
370
    -2
100
AcDbBlockReference
  2
_DOTSMALL
 10
8277.322920841411
 20
9636.123139034717
 30
0.0
 41
100.0
 42
100.0
 43
100.0
 50
270.0
  0
MTEXT
  5
18BF7
330
18BEE
100
AcDbEntity
  8
寸法
 62
     7
 48
50.0
100
AcDbMText
 10
8177.32292084141
 20
9944.608420408957
 30
0.0
 40
120.0
 41
0.0
 71
     5
 72
     1
  1
\A1;55
  7
STYLE1
 11
0.0000000000000001
 21
1.0
 31
0.0
 73
     1
 44
1.0
1001
ACAD
1000
MTEXTBEGIN
1070
    73
1070
     1
1070
    44
1040
1.0
1070
    74
1070
     0
1000
MTEXTEND
  0
POINT
  5
18BF8
330
18BEE
100
AcDbEntity
  8
DEFPOINTS
 62
     0
 48
50.0
100
AcDbPoint
 10
7629.896575106998
 20
9636.123139034717
 30
0.0
  0
POINT
  5
18BF9
330
18BEE
100
AcDbEntity
  8
DEFPOINTS
 62
     0
 48
50.0
100
AcDbPoint
 10
7629.896575106998
 20
9581.123139034721
 30
0.0
  0
POINT
  5
18BFA
330
18BEE
100
AcDbEntity
  8
DEFPOINTS
 62
     0
 48
50.0
100
AcDbPoint
 10
8277.322920841411
 20
9581.123139034721
 30
0.0
  0
ENDBLK
  5
18BFB
330
18BEE
100
AcDbEntity
  8
0
 48
50.0
100
AcDbBlockEnd
  0
BLOCK
  5
18BFD
330
18BFC
100
AcDbEntity
  8
0
 48
50.0
100
AcDbBlockBegin
  2
*D7
 70
     1
 10
0.0
 20
0.0
 30
0.0
  3
*D7
  1

  0
LINE
  5
18BFE
330
18BFC
100
AcDbEntity
  8
寸法
 62
     0
 48
50.0
370
    -2
100
AcDbLine
 10
4159.896575106963
 20
9656.123139034622
 30
0.0
 11
4159.896575106963
 21
10211.9313586596
 31
0.0
  0
LINE
  5
18BFF
330
18BFC
100
AcDbEntity
  8
寸法
 62
     0
 48
50.0
370
    -2
100
AcDbLine
 10
4214.896575106998
 20
9656.123139034622
 30
0.0
 11
4214.896575106998
 21
10211.9313586596
 31
0.0
  0
LINE
  5
18C00
330
18BFC
100
AcDbEntity
  8
寸法
 62
     0
 48
50.0
370
    -2
100
AcDbLine
 10
4214.896575106998
 20
10151.9313586596
 30
0.0
 11
4314.896575106998
 21
10151.9313586596
 31
0.0
  0
LINE
  5
18C01
330
18BFC
100
AcDbEntity
  8
寸法
 62
     0
 48
50.0
370
    -2
100
AcDbLine
 10
4159.896575106963
 20
10151.9313586596
 30
0.0
 11
3742.926012358486
 21
10151.9313586596
 31
0.0
  0
LINE
  5
18C02
330
18BFC
100
AcDbEntity
  8
寸法
 62
     0
 48
50.0
370
    -2
100
AcDbLine
 10
4214.896575106998
 20
10151.9313586596
 30
0.0
 11
4159.896575106963
 21
10151.9313586596
 31
0.0
  0
INSERT
  5
18C03
330
18BFC
100
AcDbEntity
  8
寸法
 62
     0
 48
50.0
370
    -2
100
AcDbBlockReference
  2
_DOTSMALL
 10
4214.896575106998
 20
10151.9313586596
 30
0.0
 41
100.0
 42
100.0
 43
100.0
 50
180.0
  0
INSERT
  5
18C04
330
18BFC
100
AcDbEntity
  8
寸法
 62
     0
 48
50.0
370
    -2
100
AcDbBlockReference
  2
_DOTSMALL
 10
4159.896575106963
 20
10151.9313586596
 30
0.0
 41
100.0
 42
100.0
 43
100.0
  0
MTEXT
  5
18C05
330
18BFC
100
AcDbEntity
  8
寸法
 62
     7
 48
50.0
100
AcDbMText
 10
3851.411293732725
 20
10251.9313586596
 30
0.0
 40
120.0
 41
0.0
 71
     5
 72
     1
  1
\A1;55
  7
STYLE1
 73
     1
 44
1.0
1001
ACAD
1000
MTEXTBEGIN
1070
    73
1070
     1
1070
    44
1040
1.0
1070
    74
1070
     0
1000
MTEXTEND
  0
POINT
  5
18C06
330
18BFC
100
AcDbEntity
  8
DEFPOINTS
 62
     0
 48
50.0
100
AcDbPoint
 10
4159.896575106963
 20
9636.123139034623
 30
0.0
  0
POINT
  5
18C07
330
18BFC
100
AcDbEntity
  8
DEFPOINTS
 62
     0
 48
50.0
100
AcDbPoint
 10
4214.896575106998
 20
9636.123139034623
 30
0.0
  0
POINT
  5
18C08
330
18BFC
100
AcDbEntity
  8
DEFPOINTS
 62
     0
 48
50.0
100
AcDbPoint
 10
4214.896575106998
 20
10151.9313586596
 30
0.0
  0
ENDBLK
  5
18C09
330
18BFC
100
AcDbEntity
  8
0
 48
50.0
100
AcDbBlockEnd
  0
BLOCK
  5
18C0B
330
18C0A
100
AcDbEntity
  8
0
 48
50.0
100
AcDbBlockBegin
  2
*D8
 70
     1
 10
0.0
 20
0.0
 30
0.0
  3
*D8
  1

  0
LINE
  5
18C0C
330
18C0A
100
AcDbEntity
  8
寸法
 62
     0
 48
50.0
370
    -2
100
AcDbLine
 10
4159.896575106992
 20
7826.123139034546
 30
0.0
 11
4159.896575106992
 21
6804.372203245664
 31
0.0
  0
LINE
  5
18C0D
330
18C0A
100
AcDbEntity
  8
寸法
 62
     0
 48
50.0
370
    -2
100
AcDbLine
 10
7629.896575106974
 20
7826.123139034674
 30
0.0
 11
7629.896575106974
 21
6804.372203245664
 31
0.0
  0
LINE
  5
18C0E
330
18C0A
100
AcDbEntity
  8
寸法
 62
     0
 48
50.0
370
    -2
100
AcDbLine
 10
4159.896575106992
 20
6864.372203245665
 30
0.0
 11
7629.896575106974
 21
6864.372203245665
 31
0.0
  0
INSERT
  5
18C0F
330
18C0A
100
AcDbEntity
  8
寸法
 62
     0
 48
50.0
370
    -2
100
AcDbBlockReference
  2
_DOTSMALL
 10
4159.896575106992
 20
6864.372203245665
 30
0.0
 41
100.0
 42
100.0
 43
100.0
 50
180.0
  0
INSERT
  5
18C10
330
18C0A
100
AcDbEntity
  8
寸法
 62
     0
 48
50.0
370
    -2
100
AcDbBlockReference
  2
_DOTSMALL
 10
7629.896575106974
 20
6864.372203245665
 30
0.0
 41
100.0
 42
100.0
 43
100.0
  0
MTEXT
  5
18C11
330
18C0A
100
AcDbEntity
  8
寸法
 62
     7
 48
50.0
100
AcDbMText
 10
5911.12376113973
 20
6964.372203245665
 30
0.0
 40
120.0
 41
0.0
 71
     5
 72
     1
  1
\A1;3470
  7
STYLE1
 73
     1
 44
1.0
1001
ACAD
1000
MTEXTBEGIN
1070
    73
1070
     1
1070
    44
1040
1.0
1070
    74
1070
     0
1000
MTEXTEND
  0
POINT
  5
18C12
330
18C0A
100
AcDbEntity
  8
DEFPOINTS
 62
     0
 48
50.0
100
AcDbPoint
 10
4159.896575106992
 20
7846.123139034546
 30
0.0
  0
POINT
  5
18C13
330
18C0A
100
AcDbEntity
  8
DEFPOINTS
 62
     0
 48
50.0
100
AcDbPoint
 10
7629.896575106974
 20
7846.123139034673
 30
0.0
  0
POINT
  5
18C14
330
18C0A
100
AcDbEntity
  8
DEFPOINTS
 62
     0
 48
50.0
100
AcDbPoint
 10
7629.896575106974
 20
6864.372203245665
 30
0.0
  0
ENDBLK
  5
18C15
330
18C0A
100
AcDbEntity
  8
0
 48
50.0
100
AcDbBlockEnd
  0
BLOCK
  5
18C17
330
18C16
100
AcDbEntity
  8
0
 48
50.0
100
AcDbBlockBegin
  2
*D9
 70
     1
 10
0.0
 20
0.0
 30
0.0
  3
*D9
  1

  0
LINE
  5
18C18
330
18C16
100
AcDbEntity
  8
寸法
 62
     0
 48
50.0
370
    -2
100
AcDbLine
 10
7649.896575106973
 20
7901.123139034706
 30
0.0
 11
8337.322920841385
 21
7901.123139034706
 31
0.0
  0
LINE
  5
18C19
330
18C16
100
AcDbEntity
  8
寸法
 62
     0
 48
50.0
370
    -2
100
AcDbLine
 10
7649.896575106973
 20
7846.123139034709
 30
0.0
 11
8337.322920841385
 21
7846.123139034709
 31
0.0
  0
LINE
  5
18C1A
330
18C16
100
AcDbEntity
  8
寸法
 62
     0
 48
50.0
370
    -2
100
AcDbLine
 10
8277.322920841385
 20
7901.123139034706
 30
0.0
 11
8277.322920841385
 21
8001.123139034707
 31
0.0
  0
LINE
  5
18C1B
330
18C16
100
AcDbEntity
  8
寸法
 62
     0
 48
50.0
370
    -2
100
AcDbLine
 10
8277.322920841385
 20
7846.123139034709
 30
0.0
 11
8277.322920841385
 21
7429.152576286229
 31
0.0
  0
LINE
  5
18C1C
330
18C16
100
AcDbEntity
  8
寸法
 62
     0
 48
50.0
370
    -2
100
AcDbLine
 10
8277.322920841385
 20
7901.123139034706
 30
0.0
 11
8277.322920841385
 21
7846.123139034709
 31
0.0
  0
INSERT
  5
18C1D
330
18C16
100
AcDbEntity
  8
寸法
 62
     0
 48
50.0
370
    -2
100
AcDbBlockReference
  2
_DOTSMALL
 10
8277.322920841385
 20
7901.123139034706
 30
0.0
 41
100.0
 42
100.0
 43
100.0
 50
270.0
  0
INSERT
  5
18C1E
330
18C16
100
AcDbEntity
  8
寸法
 62
     0
 48
50.0
370
    -2
100
AcDbBlockReference
  2
_DOTSMALL
 10
8277.322920841385
 20
7846.123139034709
 30
0.0
 41
100.0
 42
100.0
 43
100.0
 50
90.0
  0
MTEXT
  5
18C1F
330
18C16
100
AcDbEntity
  8
寸法
 62
     7
 48
50.0
100
AcDbMText
 10
8177.322920841383
 20
7537.637857660469
 30
0.0
 40
120.0
 41
0.0
 71
     5
 72
     1
  1
\A1;55
  7
STYLE1
 11
0.0000000000000001
 21
1.0
 31
0.0
 73
     1
 44
1.0
1001
ACAD
1000
MTEXTBEGIN
1070
    73
1070
     1
1070
    44
1040
1.0
1070
    74
1070
     0
1000
MTEXTEND
  0
POINT
  5
18C20
330
18C16
100
AcDbEntity
  8
DEFPOINTS
 62
     0
 48
50.0
100
AcDbPoint
 10
7629.896575106974
 20
7901.123139034706
 30
0.0
  0
POINT
  5
18C21
330
18C16
100
AcDbEntity
  8
DEFPOINTS
 62
     0
 48
50.0
100
AcDbPoint
 10
7629.896575106974
 20
7846.123139034709
 30
0.0
  0
POINT
  5
18C22
330
18C16
100
AcDbEntity
  8
DEFPOINTS
 62
     0
 48
50.0
100
AcDbPoint
 10
8277.322920841385
 20
7846.123139034709
 30
0.0
  0
ENDBLK
  5
18C23
330
18C16
100
AcDbEntity
  8
0
 48
50.0
100
AcDbBlockEnd
  0
BLOCK
  5
18C25
330
18C24
100
AcDbEntity
  8
0
 48
50.0
100
AcDbBlockBegin
  2
*D10
 70
     1
 10
0.0
 20
0.0
 30
0.0
  3
*D10
  1

  0
LINE
  5
18C26
330
18C24
100
AcDbEntity
  8
寸法
 62
     0
 48
50.0
370
    -2
100
AcDbLine
 10
6533.037591258376
 20
9136.123139034728
 30
0.0
 11
6465.083950562664
 21
8882.516699399049
 31
0.0
  0
LINE
  5
18C27
330
18C24
100
AcDbEntity
  8
寸法
 62
     0
 48
50.0
370
    -2
100
AcDbLine
 10
7596.037591258388
 20
9136.123139034721
 30
0.0
 11
7528.083950562677
 21
8882.516699399049
 31
0.0
  0
LINE
  5
18C28
330
18C24
100
AcDbEntity
  8
寸法
 62
     0
 48
50.0
370
    -2
100
AcDbLine
 10
6481.160902108531
 20
8942.51669939905
 30
0.0
 11
7544.160902108544
 21
8942.51669939905
 31
0.0
  0
INSERT
  5
18C29
330
18C24
100
AcDbEntity
  8
寸法
 62
     0
 48
50.0
370
    -2
100
AcDbBlockReference
  2
_DOTSMALL
 10
6481.160902108531
 20
8942.51669939905
 30
0.0
 41
100.0
 42
100.0
 43
100.0
 50
180.0
  0
INSERT
  5
18C2A
330
18C24
100
AcDbEntity
  8
寸法
 62
     0
 48
50.0
370
    -2
100
AcDbBlockReference
  2
_DOTSMALL
 10
7544.160902108544
 20
8942.51669939905
 30
0.0
 41
100.0
 42
100.0
 43
100.0
  0
MTEXT
  5
18C2B
330
18C24
100
AcDbEntity
  8
寸法
 62
     7
 48
50.0
100
AcDbMText
 10
7061.28653022935
 20
9042.516699399049
 30
0.0
 40
120.0
 41
0.0
 71
     5
 72
     1
  1
\A1;1063
  7
STYLE1
 73
     1
 44
1.0
1001
ACAD
1000
MTEXTBEGIN
1070
    73
1070
     1
1070
    44
1040
1.0
1070
    74
1070
     0
1000
MTEXTEND
  0
POINT
  5
18C2C
330
18C24
100
AcDbEntity
  8
DEFPOINTS
 62
     0
 48
50.0
100
AcDbPoint
 10
6538.396575106998
 20
9156.123139034727
 30
0.0
  0
POINT
  5
18C2D
330
18C24
100
AcDbEntity
  8
DEFPOINTS
 62
     0
 48
50.0
100
AcDbPoint
 10
7601.39657510701
 20
9156.12313903472
 30
0.0
  0
POINT
  5
18C2E
330
18C24
100
AcDbEntity
  8
DEFPOINTS
 62
     0
 48
50.0
100
AcDbPoint
 10
7544.160902108544
 20
8942.51669939905
 30
0.0
  0
ENDBLK
  5
18C2F
330
18C24
100
AcDbEntity
  8
0
 48
50.0
100
AcDbBlockEnd
  0
BLOCK
  5
18C31
330
18C30
100
AcDbEntity
  8
0
 48
50.0
100
AcDbBlockBegin
  2
*D11
 70
     1
 10
0.0
 20
0.0
 30
0.0
  3
*D11
  1

  0
LINE
  5
18C32
330
18C30
100
AcDbEntity
  8
寸法
 62
     0
 48
50.0
370
    -2
100
AcDbLine
 10
7621.396575106999
 20
9600.764155186094
 30
0.0
 11
8016.754300969024
 21
9494.828371819961
 31
0.0
  0
LINE
  5
18C33
330
18C30
100
AcDbEntity
  8
寸法
 62
     0
 48
50.0
370
    -2
100
AcDbLine
 10
7621.396575106999
 20
9150.764155186099
 30
0.0
 11
8016.754300969024
 21
9044.828371819964
 31
0.0
  0
LINE
  5
18C34
330
18C30
100
AcDbEntity
  8
寸法
 62
     0
 48
50.0
370
    -2
100
AcDbLine
 10
7956.754300969024
 20
9510.905323365827
 30
0.0
 11
7956.754300969024
 21
9060.90532336583
 31
0.0
  0
INSERT
  5
18C35
330
18C30
100
AcDbEntity
  8
寸法
 62
     0
 48
50.0
370
    -2
100
AcDbBlockReference
  2
_DOTSMALL
 10
7956.754300969024
 20
9510.905323365827
 30
0.0
 41
100.0
 42
100.0
 43
100.0
 50
90.0
  0
INSERT
  5
18C36
330
18C30
100
AcDbEntity
  8
寸法
 62
     0
 48
50.0
370
    -2
100
AcDbBlockReference
  2
_DOTSMALL
 10
7956.754300969024
 20
9060.90532336583
 30
0.0
 41
100.0
 42
100.0
 43
100.0
 50
270.0
  0
MTEXT
  5
18C37
330
18C30
100
AcDbEntity
  8
寸法
 62
     7
 48
50.0
100
AcDbMText
 10
7856.754300969022
 20
9285.905323365829
 30
0.0
 40
120.0
 41
0.0
 71
     5
 72
     1
  1
\A1;450
  7
STYLE1
 11
0.0000000000000001
 21
1.0
 31
0.0
 73
     1
 44
1.0
1001
ACAD
1000
MTEXTBEGIN
1070
    73
1070
     1
1070
    44
1040
1.0
1070
    74
1070
     0
1000
MTEXTEND
  0
POINT
  5
18C38
330
18C30
100
AcDbEntity
  8
DEFPOINTS
 62
     0
 48
50.0
100
AcDbPoint
 10
7601.396575106999
 20
9606.123139034718
 30
0.0
  0
POINT
  5
18C39
330
18C30
100
AcDbEntity
  8
DEFPOINTS
 62
     0
 48
50.0
100
AcDbPoint
 10
7601.396575106999
 20
9156.12313903472
 30
0.0
  0
POINT
  5
18C3A
330
18C30
100
AcDbEntity
  8
DEFPOINTS
 62
     0
 48
50.0
100
AcDbPoint
 10
7956.754300969024
 20
9060.90532336583
 30
0.0
  0
ENDBLK
  5
18C3B
330
18C30
100
AcDbEntity
  8
0
 48
50.0
100
AcDbBlockEnd
  0
BLOCK
  5
18C3D
330
18C3C
100
AcDbEntity
  8
0
 48
50.0
100
AcDbBlockBegin
  2
*D12
 70
     1
 10
0.0
 20
0.0
 30
0.0
  3
*D12
  1

  0
LINE
  5
18C3E
330
18C3C
100
AcDbEntity
  8
寸法
 62
     0
 48
50.0
370
    -2
100
AcDbLine
 10
7649.896575106999
 20
9581.123139034721
 30
0.0
 11
8337.32292084141
 21
9581.123139034721
 31
0.0
  0
LINE
  5
18C3F
330
18C3C
100
AcDbEntity
  8
寸法
 62
     0
 48
50.0
370
    -2
100
AcDbLine
 10
7649.896575106973
 20
7901.123139034706
 30
0.0
 11
8337.32292084141
 21
7901.123139034706
 31
0.0
  0
LINE
  5
18C40
330
18C3C
100
AcDbEntity
  8
寸法
 62
     0
 48
50.0
370
    -2
100
AcDbLine
 10
8277.322920841411
 20
9581.123139034721
 30
0.0
 11
8277.322920841411
 21
7901.123139034706
 31
0.0
  0
INSERT
  5
18C41
330
18C3C
100
AcDbEntity
  8
寸法
 62
     0
 48
50.0
370
    -2
100
AcDbBlockReference
  2
_DOTSMALL
 10
8277.322920841411
 20
9581.123139034721
 30
0.0
 41
100.0
 42
100.0
 43
100.0
 50
90.0
  0
INSERT
  5
18C42
330
18C3C
100
AcDbEntity
  8
寸法
 62
     0
 48
50.0
370
    -2
100
AcDbBlockReference
  2
_DOTSMALL
 10
8277.322920841411
 20
7901.123139034706
 30
0.0
 41
100.0
 42
100.0
 43
100.0
 50
270.0
  0
MTEXT
  5
18C43
330
18C3C
100
AcDbEntity
  8
寸法
 62
     7
 48
50.0
100
AcDbMText
 10
8177.311109817788
 20
8741.123139034712
 30
0.0
 40
120.0
 41
0.0
 71
     5
 72
     1
  1
\A1;4X420=1680
  7
STYLE1
 11
0.0000000000000001
 21
1.0
 31
0.0
 73
     1
 44
1.0
1001
ACAD
1000
MTEXTBEGIN
1070
    73
1070
     1
1070
    44
1040
1.0
1070
    74
1070
     0
1000
MTEXTEND
  0
POINT
  5
18C44
330
18C3C
100
AcDbEntity
  8
DEFPOINTS
 62
     0
 48
50.0
100
AcDbPoint
 10
7629.896575106998
 20
9581.123139034721
 30
0.0
  0
POINT
  5
18C45
330
18C3C
100
AcDbEntity
  8
DEFPOINTS
 62
     0
 48
50.0
100
AcDbPoint
 10
7629.896575106974
 20
7901.123139034706
 30
0.0
  0
POINT
  5
18C46
330
18C3C
100
AcDbEntity
  8
DEFPOINTS
 62
     0
 48
50.0
100
AcDbPoint
 10
8277.322920841411
 20
7901.123139034706
 30
0.0
  0
ENDBLK
  5
18C47
330
18C3C
100
AcDbEntity
  8
0
 48
50.0
100
AcDbBlockEnd
  0
BLOCK
  5
18C49
330
18C48
100
AcDbEntity
  8
0
 48
50.0
100
AcDbBlockBegin
  2
*D13
 70
     1
 10
0.0
 20
0.0
 30
0.0
  3
*D13
  1

  0
LINE
  5
18C4A
330
18C48
100
AcDbEntity
  8
寸法
 62
     0
 48
50.0
370
    -2
100
AcDbLine
 10
4183.037591258377
 20
9136.123139034619
 30
0.0
 11
4115.083950562663
 21
8882.516699398941
 31
0.0
  0
LINE
  5
18C4B
330
18C48
100
AcDbEntity
  8
寸法
 62
     0
 48
50.0
370
    -2
100
AcDbLine
 10
5246.037591258307
 20
9136.123139034671
 30
0.0
 11
5178.08395056258
 21
8882.516699398941
 31
0.0
  0
LINE
  5
18C4C
330
18C48
100
AcDbEntity
  8
寸法
 62
     0
 48
50.0
370
    -2
100
AcDbLine
 10
4131.160902108532
 20
8942.516699398941
 30
0.0
 11
5194.160902108448
 21
8942.516699398941
 31
0.0
  0
INSERT
  5
18C4D
330
18C48
100
AcDbEntity
  8
寸法
 62
     0
 48
50.0
370
    -2
100
AcDbBlockReference
  2
_DOTSMALL
 10
4131.160902108532
 20
8942.516699398941
 30
0.0
 41
100.0
 42
100.0
 43
100.0
 50
180.0
  0
INSERT
  5
18C4E
330
18C48
100
AcDbEntity
  8
寸法
 62
     0
 48
50.0
370
    -2
100
AcDbBlockReference
  2
_DOTSMALL
 10
5194.160902108448
 20
8942.516699398941
 30
0.0
 41
100.0
 42
100.0
 43
100.0
  0
MTEXT
  5
18C4F
330
18C48
100
AcDbEntity
  8
寸法
 62
     7
 48
50.0
100
AcDbMText
 10
4658.986452655306
 20
9042.516699398941
 30
0.0
 40
120.0
 41
0.0
 71
     5
 72
     1
  1
\A1;1063
  7
STYLE1
 73
     1
 44
1.0
1001
ACAD
1000
MTEXTBEGIN
1070
    73
1070
     1
1070
    44
1040
1.0
1070
    74
1070
     0
1000
MTEXTEND
  0
POINT
  5
18C50
330
18C48
100
AcDbEntity
  8
DEFPOINTS
 62
     0
 48
50.0
100
AcDbPoint
 10
4188.396575106999
 20
9156.123139034617
 30
0.0
  0
POINT
  5
18C51
330
18C48
100
AcDbEntity
  8
DEFPOINTS
 62
     0
 48
50.0
100
AcDbPoint
 10
5251.396575106929
 20
9156.123139034672
 30
0.0
  0
POINT
  5
18C52
330
18C48
100
AcDbEntity
  8
DEFPOINTS
 62
     0
 48
50.0
100
AcDbPoint
 10
5194.160902108448
 20
8942.516699398941
 30
0.0
  0
ENDBLK
  5
18C53
330
18C48
100
AcDbEntity
  8
0
 48
50.0
100
AcDbBlockEnd
  0
BLOCK
  5
18C55
330
18C54
100
AcDbEntity
  8
0
 48
50.0
100
AcDbBlockBegin
  2
*D14
 70
     1
 10
0.0
 20
0.0
 30
0.0
  3
*D14
  1

  0
LINE
  5
18C56
330
18C54
100
AcDbEntity
  8
寸法
 62
     0
 48
50.0
370
    -2
100
AcDbLine
 10
5274.037591258307
 20
9136.123139034669
 30
0.0
 11
5206.08395056258
 21
8882.516699398941
 31
0.0
  0
LINE
  5
18C57
330
18C54
100
AcDbEntity
  8
寸法
 62
     0
 48
50.0
370
    -2
100
AcDbLine
 10
6505.037591258377
 20
9136.123139034662
 30
0.0
 11
6437.083950562653
 21
8882.516699398941
 31
0.0
  0
LINE
  5
18C58
330
18C54
100
AcDbEntity
  8
寸法
 62
     0
 48
50.0
370
    -2
100
AcDbLine
 10
5222.160902108448
 20
8942.516699398941
 30
0.0
 11
6453.16090210852
 21
8942.516699398941
 31
0.0
  0
INSERT
  5
18C59
330
18C54
100
AcDbEntity
  8
寸法
 62
     0
 48
50.0
370
    -2
100
AcDbBlockReference
  2
_DOTSMALL
 10
5222.160902108448
 20
8942.516699398941
 30
0.0
 41
100.0
 42
100.0
 43
100.0
 50
180.0
  0
INSERT
  5
18C5A
330
18C54
100
AcDbEntity
  8
寸法
 62
     0
 48
50.0
370
    -2
100
AcDbBlockReference
  2
_DOTSMALL
 10
6453.16090210852
 20
8942.516699398941
 30
0.0
 41
100.0
 42
100.0
 43
100.0
  0
MTEXT
  5
18C5B
330
18C54
100
AcDbEntity
  8
寸法
 62
     7
 48
50.0
100
AcDbMText
 10
6081.244808320626
 20
9042.528510422561
 30
0.0
 40
120.0
 41
0.0
 71
     5
 72
     1
  1
\A1;1231
  7
STYLE1
 73
     1
 44
1.0
1001
ACAD
1000
MTEXTBEGIN
1070
    73
1070
     1
1070
    44
1040
1.0
1070
    74
1070
     0
1000
MTEXTEND
  0
POINT
  5
18C5C
330
18C54
100
AcDbEntity
  8
DEFPOINTS
 62
     0
 48
50.0
100
AcDbPoint
 10
5279.396575106929
 20
9156.123139034669
 30
0.0
  0
POINT
  5
18C5D
330
18C54
100
AcDbEntity
  8
DEFPOINTS
 62
     0
 48
50.0
100
AcDbPoint
 10
6510.396575106999
 20
9156.123139034662
 30
0.0
  0
POINT
  5
18C5E
330
18C54
100
AcDbEntity
  8
DEFPOINTS
 62
     0
 48
50.0
100
AcDbPoint
 10
6453.16090210852
 20
8942.516699398941
 30
0.0
  0
ENDBLK
  5
18C5F
330
18C54
100
AcDbEntity
  8
0
 48
50.0
100
AcDbBlockEnd
  0
BLOCK
  5
18C61
330
18C60
100
AcDbEntity
  8
0
 48
50.0
100
AcDbBlockBegin
  2
*D15
 70
     1
 10
0.0
 20
0.0
 30
0.0
  3
*D15
  1

  0
LINE
  5
18C62
330
18C60
100
AcDbEntity
  8
寸法
 62
     0
 48
50.0
370
    -2
100
AcDbLine
 10
5065.896575106966
 20
7749.123139034579
 30
0.0
 11
5065.896575106966
 21
7099.952920982538
 31
0.0
  0
LINE
  5
18C63
330
18C60
100
AcDbEntity
  8
寸法
 62
     0
 48
50.0
370
    -2
100
AcDbLine
 10
6331.896575106966
 20
7749.123139034579
 30
0.0
 11
6331.896575106966
 21
7099.952920982538
 31
0.0
  0
LINE
  5
18C64
330
18C60
100
AcDbEntity
  8
寸法
 62
     0
 48
50.0
370
    -2
100
AcDbLine
 10
5065.896575106966
 20
7159.952920982537
 30
0.0
 11
6331.896575106966
 21
7159.952920982537
 31
0.0
  0
INSERT
  5
18C65
330
18C60
100
AcDbEntity
  8
寸法
 62
     0
 48
50.0
370
    -2
100
AcDbBlockReference
  2
_DOTSMALL
 10
5065.896575106966
 20
7159.952920982537
 30
0.0
 41
100.0
 42
100.0
 43
100.0
 50
180.0
  0
INSERT
  5
18C66
330
18C60
100
AcDbEntity
  8
寸法
 62
     0
 48
50.0
370
    -2
100
AcDbBlockReference
  2
_DOTSMALL
 10
6331.896575106966
 20
7159.952920982537
 30
0.0
 41
100.0
 42
100.0
 43
100.0
  0
MTEXT
  5
18C67
330
18C60
100
AcDbEntity
  8
寸法
 62
     7
 48
50.0
100
AcDbMText
 10
5711.986008735934
 20
7359.964732006159
 30
0.0
 40
120.0
 41
0.0
 71
     5
 72
     1
  1
\A1;有効開口部間口\P1266
  7
STYLE1
 73
     1
 44
1.0
1001
ACAD
1000
MTEXTBEGIN
1070
    73
1070
     1
1070
    44
1040
1.0
1070
    74
1070
     0
1000
MTEXTEND
  0
POINT
  5
18C68
330
18C60
100
AcDbEntity
  8
DEFPOINTS
 62
     0
 48
50.0
100
AcDbPoint
 10
5065.896575106966
 20
7769.123139034579
 30
0.0
  0
POINT
  5
18C69
330
18C60
100
AcDbEntity
  8
DEFPOINTS
 62
     0
 48
50.0
100
AcDbPoint
 10
6331.896575106966
 20
7769.123139034579
 30
0.0
  0
POINT
  5
18C6A
330
18C60
100
AcDbEntity
  8
DEFPOINTS
 62
     0
 48
50.0
100
AcDbPoint
 10
6331.896575106966
 20
7159.952920982537
 30
0.0
  0
ENDBLK
  5
18C6B
330
18C60
100
AcDbEntity
  8
0
 48
50.0
100
AcDbBlockEnd
  0
BLOCK
  5
18C6D
330
18C6C
100
AcDbEntity
  8
0
 48
50.0
100
AcDbBlockBegin
  2
*D16
 70
     1
 10
0.0
 20
0.0
 30
0.0
  3
*D16
  1

  0
LINE
  5
18C6E
330
18C6C
100
AcDbEntity
  8
寸法
 62
     0
 48
50.0
370
    -2
100
AcDbLine
 10
7200.896575106966
 20
7846.123139034578
 30
0.0
 11
7457.192158500191
 21
7846.123139034578
 31
0.0
  0
LINE
  5
18C6F
330
18C6C
100
AcDbEntity
  8
寸法
 62
     0
 48
50.0
370
    -2
100
AcDbLine
 10
7199.896575106966
 20
7769.123139034579
 30
0.0
 11
7457.192158500191
 21
7769.123139034579
 31
0.0
  0
LINE
  5
18C70
330
18C6C
100
AcDbEntity
  8
寸法
 62
     0
 48
50.0
370
    -2
100
AcDbLine
 10
7417.192158500192
 20
7866.123139034579
 30
0.0
 11
7417.192158500192
 21
7886.123139034578
 31
0.0
  0
LINE
  5
18C71
330
18C6C
100
AcDbEntity
  8
寸法
 62
     0
 48
50.0
370
    -2
100
AcDbLine
 10
7417.192158500192
 20
7749.123139034579
 30
0.0
 11
7417.192158500192
 21
7533.123139034573
 31
0.0
  0
LINE
  5
18C72
330
18C6C
100
AcDbEntity
  8
寸法
 62
     0
 48
50.0
370
    -2
100
AcDbLine
 10
7417.192158500192
 20
7846.123139034578
 30
0.0
 11
7417.192158500192
 21
7769.123139034579
 31
0.0
  0
INSERT
  5
18C73
330
18C6C
100
AcDbEntity
  8
寸法
 62
     0
 48
50.0
370
    -2
100
AcDbBlockReference
  2
_DOT
 10
7417.192158500192
 20
7846.123139034578
 30
0.0
 41
20.0
 42
20.0
 43
20.0
 50
270.0
  0
INSERT
  5
18C74
330
18C6C
100
AcDbEntity
  8
寸法
 62
     0
 48
50.0
370
    -2
100
AcDbBlockReference
  2
_DOT
 10
7417.192158500192
 20
7769.123139034579
 30
0.0
 41
20.0
 42
20.0
 43
20.0
 50
90.0
  0
MTEXT
  5
18C75
330
18C6C
100
AcDbEntity
  8
寸法
 62
     7
 48
50.0
100
AcDbMText
 10
7325.192158500191
 20
7631.123139034575
 30
0.0
 40
120.0
 41
0.0
 71
     5
 72
     1
  1
\A1;77
  7
STYLE1
 11
0.0000000000000001
 21
1.0
 31
0.0
 73
     1
 44
1.0
1001
ACAD
1000
MTEXTBEGIN
1070
    73
1070
     1
1070
    44
1040
1.0
1070
    74
1070
     0
1000
MTEXTEND
  0
POINT
  5
18C76
330
18C6C
100
AcDbEntity
  8
DEFPOINTS
 62
     0
 48
50.0
100
AcDbPoint
 10
7180.896575106967
 20
7846.123139034578
 30
0.0
  0
POINT
  5
18C77
330
18C6C
100
AcDbEntity
  8
DEFPOINTS
 62
     0
 48
50.0
100
AcDbPoint
 10
7179.896575106965
 20
7769.123139034579
 30
0.0
  0
POINT
  5
18C78
330
18C6C
100
AcDbEntity
  8
DEFPOINTS
 62
     0
 48
50.0
100
AcDbPoint
 10
7417.192158500192
 20
7769.123139034579
 30
0.0
  0
ENDBLK
  5
18C79
330
18C6C
100
AcDbEntity
  8
0
 48
50.0
100
AcDbBlockEnd
  0
BLOCK
  5
18DA0
330
18C7A
100
AcDbEntity
  8
0
 48
50.0
100
AcDbBlockBegin
  2
A$C3B1A506B
 70
     0
 10
0.0
 20
0.0
 30
0.0
  3
A$C3B1A506B
  1

  0
MTEXT
  5
18C7B
330
18C7A
100
AcDbEntity
  8
寸法
 62
     7
 48
50.0
100
AcDbMText
 10
3342.250386887194
 20
2778.329429134012
 30
0.0
 40
96.0
 41
0.0
 71
     5
 72
     1
  1
棚 2段
  7
STYLE1
 73
     1
 44
1.0
1001
ACAD
1000
MTEXTBEGIN
1070
    73
1070
     1
1070
    44
1040
1.0
1070
    74
1070
     0
1000
MTEXTEND
  0
MTEXT
  5
18C7C
330
18C7A
100
AcDbEntity
  8
寸法
 62
     7
 48
50.0
100
AcDbMText
 10
2167.25038688716
 20
2778.329429133986
 30
0.0
 40
96.0
 41
0.0
 71
     5
 72
     1
  1
棚 2段
  7
STYLE1
 73
     1
 44
1.0
1001
ACAD
1000
MTEXTBEGIN
1070
    73
1070
     1
1070
    44
1040
1.0
1070
    74
1070
     0
1000
MTEXTEND
  0
MTEXT
  5
18C7D
330
18C7A
100
AcDbEntity
  8
寸法
 62
     7
 48
50.0
100
AcDbMText
 10
992.2503868871608
 20
2778.329429133935
 30
0.0
 40
96.0
 41
0.0
 71
     5
 72
     1
  1
棚 2段
  7
STYLE1
 73
     1
 44
1.0
1001
ACAD
1000
MTEXTBEGIN
1070
    73
1070
     1
1070
    44
1040
1.0
1070
    74
1070
     0
1000
MTEXTEND
  0
LINE
  5
18C7E
330
18C7A
100
AcDbEntity
  8
細線
 48
50.0
100
AcDbLine
 10
2771.970589276527
 20
1368.994384123192
 30
0.0
 11
3398.970589276523
 21
1368.994384123192
 31
0.0
  0
LINE
  5
18C7F
330
18C7A
100
AcDbEntity
  8
細線
 48
50.0
100
AcDbLine
 10
2117.970593930113
 20
1335.285615569113
 30
0.0
 11
3398.970589276523
 21
1335.285615569113
 31
0.0
  0
LINE
  5
18C80
330
18C7A
100
AcDbEntity
  8
細線
 48
50.0
100
AcDbLine
 10
2076.970593930115
 20
1364.690523565368
 30
0.0
 11
1322.970589276523
 21
1364.690523565367
 31
0.0
  0
LINE
  5
18C81
330
18C7A
100
AcDbEntity
  8
細線
100
AcDbLine
 10
3170.720579860066
 20
1388.494284088199
 30
0.0
 11
3173.052119381877
 21
1393.494286728162
 31
0.0
  0
LINE
  5
18C82
330
18C7A
100
AcDbEntity
  8
細線
100
AcDbLine
 10
3240.720589276525
 20
1388.494269174465
 30
0.0
 11
3238.389042800336
 21
1393.494286728144
 31
0.0
  0
LINE
  5
18C83
330
18C7A
100
AcDbEntity
  8
細線
100
AcDbLine
 10
3238.389042800336
 20
1393.494286728144
 30
0.0
 11
3173.052119381862
 21
1393.494286728133
 31
0.0
  0
LINE
  5
18C84
330
18C7A
100
AcDbEntity
  8
細線
100
AcDbLine
 10
3098.389042800336
 20
1393.494286728144
 30
0.0
 11
3033.052119381862
 21
1393.494286728133
 31
0.0
  0
LINE
  5
18C85
330
18C7A
100
AcDbEntity
  8
細線
100
AcDbLine
 10
3100.720589276523
 20
1388.494269174465
 30
0.0
 11
3098.389042800336
 21
1393.494286728144
 31
0.0
  0
LINE
  5
18C86
330
18C7A
100
AcDbEntity
  8
細線
100
AcDbLine
 10
3030.720579860066
 20
1388.494284088199
 30
0.0
 11
3033.052119381875
 21
1393.494286728162
 31
0.0
  0
LINE
  5
18C87
330
18C7A
100
AcDbEntity
  8
細線
100
AcDbLine
 10
2890.720589276525
 20
1388.494269174465
 30
0.0
 11
2893.052128798336
 21
1393.494271814428
 31
0.0
  0
LINE
  5
18C88
330
18C7A
100
AcDbEntity
  8
細線
100
AcDbLine
 10
2960.720598692984
 20
1388.494254260731
 30
0.0
 11
2958.389052216793
 21
1393.49427181441
 31
0.0
  0
LINE
  5
18C89
330
18C7A
100
AcDbEntity
  8
細線
100
AcDbLine
 10
2958.389052216795
 20
1393.49427181441
 30
0.0
 11
2893.052128798321
 21
1393.494271814399
 31
0.0
  0
LINE
  5
18C8A
330
18C7A
100
AcDbEntity
  8
細線
100
AcDbLine
 10
2667.139038146739
 20
1359.494298590735
 30
0.0
 11
2601.802114728263
 21
1359.494298590724
 31
0.0
  0
LINE
  5
18C8B
330
18C7A
100
AcDbEntity
  8
細線
100
AcDbLine
 10
2669.470584622926
 20
1354.494281037055
 30
0.0
 11
2667.139038146737
 21
1359.494298590735
 31
0.0
  0
LINE
  5
18C8C
330
18C7A
100
AcDbEntity
  8
細線
100
AcDbLine
 10
2599.470575206469
 20
1354.49429595079
 30
0.0
 11
2601.802114728278
 21
1359.494298590752
 31
0.0
  0
LINE
  5
18C8D
330
18C7A
100
AcDbEntity
  8
細線
 48
50.0
100
AcDbLine
 10
2440.853968524536
 20
1372.765132327548
 30
0.0
 11
2446.609486107205
 21
1354.494281037057
 31
0.0
  0
LINE
  5
18C8E
330
18C7A
100
AcDbEntity
  8
細線
 48
50.0
100
AcDbLine
 10
2429.925520044106
 20
1372.765132327546
 30
0.0
 11
2440.853968524536
 21
1372.765132327548
 31
0.0
  0
ARC
  5
18C8F
330
18C7A
100
AcDbEntity
  8
細線
 48
50.0
100
AcDbCircle
 10
2424.471163986787
 20
1374.265132327546
 30
0.0
 40
5.0
100
AcDbArc
 50
204.6243183520723
 51
335.3756816479278
  0
ARC
  5
18C90
330
18C7A
100
AcDbEntity
  8
細線
 48
50.0
100
AcDbCircle
 10
2429.925520044106
 20
1371.765132327546
 30
0.0
 40
1.0
100
AcDbArc
 50
90.0
 51
155.3756816479277
  0
ARC
  5
18C91
330
18C7A
100
AcDbEntity
  8
細線
 48
50.0
100
AcDbCircle
 10
2419.016807929469
 20
1371.765132327546
 30
0.0
 40
1.0
100
AcDbArc
 50
24.62431835207225
 51
90.0
  0
LINE
  5
18C92
330
18C7A
100
AcDbEntity
  8
細線
 48
50.0
100
AcDbLine
 10
2408.088359449037
 20
1372.765132327548
 30
0.0
 11
2419.016807929469
 21
1372.765132327546
 31
0.0
  0
LINE
  5
18C93
330
18C7A
100
AcDbEntity
  8
細線
 48
50.0
100
AcDbLine
 10
2402.33284186637
 20
1354.494281037054
 30
0.0
 11
2408.088359449037
 21
1372.765132327548
 31
0.0
  0
LINE
  5
18C94
330
18C7A
100
AcDbEntity
  8
細線
100
AcDbLine
 10
2458.070304175992
 20
1354.494278397076
 30
0.0
 11
2460.401843697802
 21
1359.494281037039
 31
0.0
  0
LINE
  5
18C95
330
18C7A
100
AcDbEntity
  8
細線
100
AcDbLine
 10
2528.070313592451
 20
1354.494263483342
 30
0.0
 11
2525.738767116262
 21
1359.494281037021
 31
0.0
  0
LINE
  5
18C96
330
18C7A
100
AcDbEntity
  8
細線
100
AcDbLine
 10
2525.738767116262
 20
1359.494281037021
 30
0.0
 11
2460.40184369779
 21
1359.49428103701
 31
0.0
  0
LINE
  5
18C97
330
18C7A
100
AcDbEntity
  8
細線
100
AcDbLine
 10
2387.139046332155
 20
1359.494281037021
 30
0.0
 11
2321.80212291368
 21
1359.49428103701
 31
0.0
  0
LINE
  5
18C98
330
18C7A
100
AcDbEntity
  8
細線
100
AcDbLine
 10
2389.470592808342
 20
1354.494263483342
 30
0.0
 11
2387.139046332153
 21
1359.494281037021
 31
0.0
  0
LINE
  5
18C99
330
18C7A
100
AcDbEntity
  8
細線
100
AcDbLine
 10
2319.470584622926
 20
1354.494281037054
 30
0.0
 11
2321.802122913694
 21
1359.494281037039
 31
0.0
  0
LINE
  5
18C9A
330
18C7A
100
AcDbEntity
  8
細線
100
AcDbLine
 10
2179.47061994182
 20
1354.494289224422
 30
0.0
 11
2181.802158232587
 21
1359.494289224407
 31
0.0
  0
LINE
  5
18C9B
330
18C7A
100
AcDbEntity
  8
細線
100
AcDbLine
 10
2249.470628127236
 20
1354.49427167071
 30
0.0
 11
2247.139081651047
 21
1359.494289224389
 31
0.0
  0
LINE
  5
18C9C
330
18C7A
100
AcDbEntity
  8
細線
100
AcDbLine
 10
2247.139081651047
 20
1359.494289224389
 30
0.0
 11
2181.802158232573
 21
1359.494289224378
 31
0.0
  0
LINE
  5
18C9D
330
18C7A
100
AcDbEntity
  8
細線
100
AcDbLine
 10
1807.970585744697
 20
1320.494460905133
 30
0.0
 11
1810.302124035464
 21
1325.494460905118
 31
0.0
  0
LINE
  5
18C9E
330
18C7A
100
AcDbEntity
  8
細線
100
AcDbLine
 10
1877.970593930113
 20
1320.494443351421
 30
0.0
 11
1875.639047453926
 21
1325.4944609051
 31
0.0
  0
LINE
  5
18C9F
330
18C7A
100
AcDbEntity
  8
細線
100
AcDbLine
 10
1875.639047453926
 20
1325.4944609051
 30
0.0
 11
1810.302124035452
 21
1325.494460905089
 31
0.0
  0
LINE
  5
18CA0
330
18C7A
100
AcDbEntity
  8
細線
100
AcDbLine
 10
2015.639047453926
 20
1325.4944609051
 30
0.0
 11
1950.302124035452
 21
1325.494460905089
 31
0.0
  0
LINE
  5
18CA1
330
18C7A
100
AcDbEntity
  8
細線
100
AcDbLine
 10
2017.970593930113
 20
1320.494443351421
 30
0.0
 11
2015.639047453924
 21
1325.4944609051
 31
0.0
  0
LINE
  5
18CA2
330
18C7A
100
AcDbEntity
  8
細線
100
AcDbLine
 10
1947.970585744697
 20
1320.494460905133
 30
0.0
 11
1950.302124035465
 21
1325.494460905118
 31
0.0
  0
LINE
  5
18CA3
330
18C7A
100
AcDbEntity
  8
細線
100
AcDbLine
 10
1735.639047453926
 20
1325.494460905098
 30
0.0
 11
1670.302124035454
 21
1325.494460905087
 31
0.0
  0
LINE
  5
18CA4
330
18C7A
100
AcDbEntity
  8
細線
100
AcDbLine
 10
1737.970593930113
 20
1320.494443351419
 30
0.0
 11
1735.639047453926
 21
1325.494460905098
 31
0.0
  0
LINE
  5
18CA5
330
18C7A
100
AcDbEntity
  8
細線
100
AcDbLine
 10
1667.970585744697
 20
1320.494460905131
 30
0.0
 11
1670.302124035465
 21
1325.494460905116
 31
0.0
  0
LINE
  5
18CA6
330
18C7A
100
AcDbEntity
  8
細線
100
AcDbLine
 10
1527.970593930113
 20
1320.494460905133
 30
0.0
 11
1530.302132220881
 21
1325.494460905118
 31
0.0
  0
LINE
  5
18CA7
330
18C7A
100
AcDbEntity
  8
細線
100
AcDbLine
 10
1597.970602115529
 20
1320.494443351421
 30
0.0
 11
1595.639055639342
 21
1325.4944609051
 31
0.0
  0
LINE
  5
18CA8
330
18C7A
100
AcDbEntity
  8
細線
100
AcDbLine
 10
1595.639055639342
 20
1325.4944609051
 30
0.0
 11
1530.302132220869
 21
1325.494460905089
 31
0.0
  0
ARC
  5
18CA9
330
18C7A
100
AcDbEntity
  8
部品1
 48
0.01
100
AcDbCircle
 10
1483.470482677778
 20
1319.493338720063
 30
0.0
 40
0.5
100
AcDbArc
 50
270.0
 51
0.0
  0
LINE
  5
18CAA
330
18C7A
100
AcDbEntity
  8
部品1
 48
0.01
100
AcDbLine
 10
1483.970482677778
 20
1320.493338720063
 30
0.0
 11
1483.970482677778
 21
1319.493338720063
 31
0.0
  0
LINE
  5
18CAB
330
18C7A
100
AcDbEntity
  8
部品1
 48
0.01
100
AcDbLine
 10
1483.970482677778
 20
1320.493338720063
 30
0.0
 11
1483.970482677778
 21
1319.493338720063
 31
0.0
  0
LINE
  5
18CAC
330
18C7A
100
AcDbEntity
  8
部品1
 48
0.01
100
AcDbLine
 10
1483.470482677778
 20
1318.993338720063
 30
0.0
 11
1476.857977247713
 21
1318.993338720062
 31
0.0
  0
ARC
  5
18CAD
330
18C7A
100
AcDbEntity
  8
部品1
100
AcDbCircle
 10
1476.926326800494
 20
1319.993338720062
 30
0.0
 40
1.0
100
AcDbArc
 50
160.5287793655865
 51
270.0
  0
ARC
  5
18CAE
330
18C7A
100
AcDbEntity
  8
部品1
100
AcDbCircle
 10
1451.470482677778
 20
1328.993338720062
 30
0.0
 40
26.0
100
AcDbArc
 50
340.5287793655865
 51
0.0
  0
LINE
  5
18CAF
330
18C7A
100
AcDbEntity
  8
部品1
100
AcDbLine
 10
1477.470482677778
 20
1328.993338720062
 30
0.0
 11
1477.470482677778
 21
1333.993338720061
 31
0.0
  0
ARC
  5
18CB0
330
18C7A
100
AcDbEntity
  8
部品1
 48
0.01
100
AcDbCircle
 10
1475.470482677778
 20
1333.993338720061
 30
0.0
 40
2.0
100
AcDbArc
 50
0.0
 51
90.0
  0
ARC
  5
18CB1
330
18C7A
100
AcDbEntity
  8
部品1
100
AcDbCircle
 10
1473.862091052968
 20
1332.993338720062
 30
0.0
 40
3.0
100
AcDbArc
 50
90.0
 51
141.6069559808035
  0
LINE
  5
18CB2
330
18C7A
100
AcDbEntity
  8
部品1
 48
0.01
100
AcDbLine
 10
1475.470482677778
 20
1335.993338720062
 30
0.0
 11
1473.862091052968
 21
1335.993338720062
 31
0.0
  0
ARC
  5
18CB3
330
18C7A
100
AcDbEntity
  8
部品1
100
AcDbCircle
 10
1455.399768463507
 20
1332.293338720065
 30
0.0
 40
3.0
100
AcDbArc
 50
254.0576313943215
 51
270.0
  0
ARC
  5
18CB4
330
18C7A
100
AcDbEntity
  8
部品1
100
AcDbCircle
 10
1462.541196892049
 20
1332.293338720065
 30
0.0
 40
3.0
100
AcDbArc
 50
270.0
 51
285.9423686056786
  0
LINE
  5
18CB5
330
18C7A
100
AcDbEntity
  8
部品1
100
AcDbLine
 10
1462.541196892049
 20
1329.293338720064
 30
0.0
 11
1455.399768463507
 21
1329.293338720064
 31
0.0
  0
ARC
  5
18CB6
330
18C7A
100
AcDbEntity
  8
部品1
100
AcDbCircle
 10
1458.970482677778
 20
1344.793338720065
 30
0.0
 40
16.0
100
AcDbArc
 50
285.9423686056786
 51
321.6069559808035
  0
LINE
  5
18CB7
330
18C7A
100
AcDbEntity
  8
部品1
 48
0.01
100
AcDbLine
 10
1442.470482677778
 20
1335.993338720062
 30
0.0
 11
1444.078874302588
 21
1335.993338720062
 31
0.0
  0
ARC
  5
18CB8
330
18C7A
100
AcDbEntity
  8
部品1
100
AcDbCircle
 10
1444.078874302588
 20
1332.993338720062
 30
0.0
 40
3.0
100
AcDbArc
 50
38.39304401919648
 51
90.0
  0
ARC
  5
18CB9
330
18C7A
100
AcDbEntity
  8
部品1
100
AcDbCircle
 10
1458.970482677778
 20
1344.793338720065
 30
0.0
 40
16.0
100
AcDbArc
 50
218.3930440191965
 51
254.0576313943215
  0
LINE
  5
18CBA
330
18C7A
100
AcDbEntity
  8
部品1
100
AcDbLine
 10
1440.470482677778
 20
1328.993338720062
 30
0.0
 11
1440.470482677778
 21
1333.993338720061
 31
0.0
  0
ARC
  5
18CBB
330
18C7A
100
AcDbEntity
  8
部品1
 48
0.01
100
AcDbCircle
 10
1442.470482677778
 20
1333.993338720061
 30
0.0
 40
2.0
100
AcDbArc
 50
90.0
 51
180.0
  0
ARC
  5
18CBC
330
18C7A
100
AcDbEntity
  8
部品1
100
AcDbCircle
 10
1466.470482677778
 20
1328.993338720062
 30
0.0
 40
26.0
100
AcDbArc
 50
180.0
 51
199.4712206344134
  0
ARC
  5
18CBD
330
18C7A
100
AcDbEntity
  8
部品1
 48
0.01
100
AcDbCircle
 10
1434.470482677778
 20
1319.493338720063
 30
0.0
 40
0.5
100
AcDbArc
 50
180.0
 51
270.0
  0
LINE
  5
18CBE
330
18C7A
100
AcDbEntity
  8
部品1
 48
0.01
100
AcDbLine
 10
1434.470482677778
 20
1318.993338720063
 30
0.0
 11
1441.014638555061
 21
1318.993338720062
 31
0.0
  0
LINE
  5
18CBF
330
18C7A
100
AcDbEntity
  8
部品1
 48
0.01
100
AcDbLine
 10
1433.970482677778
 20
1320.493338720063
 30
0.0
 11
1433.970482677778
 21
1319.493338720063
 31
0.0
  0
ARC
  5
18CC0
330
18C7A
100
AcDbEntity
  8
部品1
100
AcDbCircle
 10
1441.014638555061
 20
1319.993338720062
 30
0.0
 40
1.0
100
AcDbArc
 50
270.0
 51
19.47122063441346
  0
LINE
  5
18CC1
330
18C7A
100
AcDbEntity
  8
細線
100
AcDbLine
 10
1479.470482677785
 20
1338.493338720065
 30
0.0
 11
1438.470482677785
 21
1338.493338720058
 31
0.0
  0
LINE
  5
18CC2
330
18C7A
100
AcDbEntity
  8
細線
100
AcDbLine
 10
1438.470482677785
 20
1338.493338720058
 30
0.0
 11
1438.470482677785
 21
1320.49333872004
 31
0.0
  0
LINE
  5
18CC3
330
18C7A
100
AcDbEntity
  8
細線
100
AcDbLine
 10
1479.470482677785
 20
1338.493338720065
 30
0.0
 11
1479.470482677785
 21
1320.49333872004
 31
0.0
  0
LINE
  5
18CC4
330
18C7A
100
AcDbEntity
  8
細線
100
AcDbLine
 10
1322.970589276523
 20
1324.494269174465
 30
0.0
 11
1322.970589276523
 21
1320.494269174513
 31
0.0
  0
LINE
  5
18CC5
330
18C7A
100
AcDbEntity
  8
寸法
 48
50.0
100
AcDbLine
 10
1746.17359555837
 20
1170.531020743327
 30
0.0
 11
1694.767587648266
 21
1170.531020743327
 31
0.0
  0
LINE
  5
18CC6
330
18C7A
100
AcDbEntity
  8
寸法
 48
50.0
100
AcDbLine
 10
1694.767587648266
 20
1170.531020743327
 30
0.0
 11
1694.767587648266
 21
1201.841179395494
 31
0.0
  0
LINE
  5
18CC7
330
18C7A
100
AcDbEntity
  8
寸法
 48
50.0
100
AcDbLine
 10
1694.767587648266
 20
1201.841179395494
 30
0.0
 11
1665.006255656843
 21
1201.841179395494
 31
0.0
  0
LINE
  5
18CC8
330
18C7A
100
AcDbEntity
  8
寸法
 48
50.0
100
AcDbLine
 10
1665.006255656843
 20
1201.841179395494
 30
0.0
 11
1720.470591603318
 21
1239.420630324105
 31
0.0
  0
LINE
  5
18CC9
330
18C7A
100
AcDbEntity
  8
寸法
 48
50.0
100
AcDbLine
 10
1775.934927549793
 20
1201.841179395494
 30
0.0
 11
1720.470591603318
 21
1239.420630324105
 31
0.0
  0
LINE
  5
18CCA
330
18C7A
100
AcDbEntity
  8
寸法
 48
50.0
100
AcDbLine
 10
1746.17359555837
 20
1201.841179395494
 30
0.0
 11
1775.934927549793
 21
1201.841179395494
 31
0.0
  0
LINE
  5
18CCB
330
18C7A
100
AcDbEntity
  8
寸法
 48
50.0
100
AcDbLine
 10
1746.17359555837
 20
1170.531020743327
 30
0.0
 11
1746.17359555837
 21
1201.841179395494
 31
0.0
  0
LINE
  5
18CCC
330
18C7A
100
AcDbEntity
  8
寸法
 48
50.0
100
AcDbLine
 10
1694.767587648266
 20
1170.531020743327
 30
0.0
 11
1746.17359555837
 21
1170.531020743327
 31
0.0
  0
LINE
  5
18CCD
330
18C7A
100
AcDbEntity
  8
寸法
 48
50.0
100
AcDbLine
 10
2025.339129835225
 20
1227.676611498152
 30
0.0
 11
2025.339129835225
 21
1174.01297691636
 31
0.0
  0
LINE
  5
18CCE
330
18C7A
100
AcDbEntity
  8
寸法
 48
50.0
100
AcDbLine
 10
2114.623348430647
 20
1203.752977228664
 30
0.0
 11
2025.339129835225
 21
1227.676611498152
 31
0.0
  0
LINE
  5
18CCF
330
18C7A
100
AcDbEntity
  8
寸法
 48
50.0
100
AcDbLine
 10
1895.471408254923
 20
1203.752977228664
 30
0.0
 11
2114.623348430647
 21
1203.752977228664
 31
0.0
  0
DIMENSION
  5
18CD0
330
18C7A
100
AcDbEntity
  8
寸法
 48
50.0
100
AcDbDimension
  2
*D15
 10
2588.970589276523
 20
706.3240511224249
 30
0.0
 11
1969.060022905491
 21
706.3240511224249
 31
0.0
 12
-3742.925985830444
 22
-6453.628869860112
 32
0.0
 70
   128
  1
有効開口部間口\P<>
 71
     5
 42
1266.0
  3
INABA_S40G
100
AcDbAlignedDimension
 13
1322.970589276523
 23
1315.494269174465
 33
0.0
 14
2588.970589276523
 24
1315.494269174465
 34
0.0
100
AcDbRotatedDimension
1001
ACAD
1000
DSTYLE
1002
{
1070
   341
1005
0
1002
}
  0
LINE
  5
18CD1
330
18C7A
100
AcDbEntity
  8
部品1
100
AcDbLine
 10
3409.970589276524
 20
1392.494269174465
 30
0.0
 11
3437.970589276523
 21
1392.494269174465
 31
0.0
  0
DIMENSION
  5
18CD2
330
18C7A
100
AcDbEntity
  8
寸法
100
AcDbDimension
  2
*D16
 10
3674.266172669749
 20
1315.494269174465
 30
0.0
 11
3674.266172669748
 21
1177.494269174462
 31
0.0
 12
-3742.925985830444
 22
-6453.628869860112
 32
0.0
 70
   128
 71
     5
 42
77.0
  3
INABA_S40
100
AcDbAlignedDimension
 13
3437.970589276523
 23
1392.494269174465
 33
0.0
 14
3436.970589276523
 24
1315.494269174465
 34
0.0
 50
90.0
100
AcDbRotatedDimension
1001
ACAD
1000
DSTYLE
1002
{
1070
    41
1040
0.5
1070
    44
1040
1.0
1070
   147
1040
0.8
1070
   271
1070
     2
1070
   272
1070
     2
1070
   289
1070
     3
1070
   340
1005
F706
1070
   343
1005
164B4
1070
   344
1005
164B4
1002
}
  0
LINE
  5
18CD3
330
18C7A
100
AcDbEntity
  8
部品1
100
AcDbLine
 10
3437.970589276523
 20
1315.494269174465
 30
0.0
 11
3437.970589276523
 21
1392.494269174465
 31
0.0
  0
LINE
  5
18CD4
330
18C7A
100
AcDbEntity
  8
部品1
100
AcDbLine
 10
3398.970589276523
 20
1388.494269174465
 30
0.0
 11
3409.970589276524
 21
1388.494269174465
 31
0.0
  0
LINE
  5
18CD5
330
18C7A
100
AcDbEntity
  8
部品1
100
AcDbLine
 10
3407.970589276523
 20
1324.494269174465
 30
0.0
 11
3407.970589276523
 21
1315.494269174465
 31
0.0
  0
LINE
  5
18CD6
330
18C7A
100
AcDbEntity
  8
部品1
100
AcDbLine
 10
3398.970589276523
 20
1324.494269174465
 30
0.0
 11
3407.970589276523
 21
1324.494269174465
 31
0.0
  0
LINE
  5
18CD7
330
18C7A
100
AcDbEntity
  8
部品1
100
AcDbLine
 10
3398.970589276523
 20
1388.494269174465
 30
0.0
 11
3398.970589276523
 21
1324.494269174465
 31
0.0
  0
LINE
  5
18CD8
330
18C7A
100
AcDbEntity
  8
部品1
100
AcDbLine
 10
3409.970589276524
 20
1419.494269174465
 30
0.0
 11
3409.970589276524
 21
1388.494269174465
 31
0.0
  0
LINE
  5
18CD9
330
18C7A
100
AcDbEntity
  8
部品1
100
AcDbLine
 10
1322.970589276523
 20
1388.494269174465
 30
0.0
 11
1311.970589276523
 21
1388.494269174465
 31
0.0
  0
LINE
  5
18CDA
330
18C7A
100
AcDbEntity
  8
部品1
100
AcDbLine
 10
1283.970589276523
 20
1392.494269174465
 30
0.0
 11
1311.970589276523
 21
1392.494269174465
 31
0.0
  0
LINE
  5
18CDB
330
18C7A
100
AcDbEntity
  8
部品1
100
AcDbLine
 10
1313.970589276523
 20
1324.494269174465
 30
0.0
 11
1313.970589276523
 21
1315.494269174465
 31
0.0
  0
LINE
  5
18CDC
330
18C7A
100
AcDbEntity
  8
部品1
100
AcDbLine
 10
1322.970589276523
 20
1324.494269174465
 30
0.0
 11
1313.970589276523
 21
1324.494269174465
 31
0.0
  0
LINE
  5
18CDD
330
18C7A
100
AcDbEntity
  8
部品1
100
AcDbLine
 10
1313.970589276523
 20
1315.494269174465
 30
0.0
 11
1283.970589276523
 21
1315.494269174465
 31
0.0
  0
LINE
  5
18CDE
330
18C7A
100
AcDbEntity
  8
部品1
100
AcDbLine
 10
1283.970589276523
 20
1315.494269174465
 30
0.0
 11
1283.970589276523
 21
1392.494269174465
 31
0.0
  0
LINE
  5
18CDF
330
18C7A
100
AcDbEntity
  8
部品1
100
AcDbLine
 10
1322.970589276523
 20
1388.494269174465
 30
0.0
 11
1322.970589276523
 21
1324.494269174465
 31
0.0
  0
LINE
  5
18CE0
330
18C7A
100
AcDbEntity
  8
部品1
100
AcDbLine
 10
1311.970589276523
 20
1419.494269174462
 30
0.0
 11
1311.970589276523
 21
1388.494269174465
 31
0.0
  0
LINE
  5
18CE1
330
18C7A
100
AcDbEntity
  8
部品1
100
AcDbLine
 10
1311.970589276523
 20
1419.494269174462
 30
0.0
 11
3409.970589276524
 21
1419.494269174465
 31
0.0
  0
LINE
  5
18CE2
330
18C7A
100
AcDbEntity
  8
部品1
100
AcDbLine
 10
3407.970589276523
 20
1315.494269174465
 30
0.0
 11
3437.970589276523
 21
1315.494269174465
 31
0.0
  0
LINE
  5
18CE3
330
18C7A
100
AcDbEntity
  8
部品1
100
AcDbLine
 10
1313.970589276523
 20
1315.494269174465
 30
0.0
 11
3410.970589276523
 21
1315.494269174465
 31
0.0
  0
LINE
  5
18CE4
330
18C7A
100
AcDbEntity
  8
細線
  6
Continuous
 62
     5
100
AcDbLine
 10
2689.970589276527
 20
1354.494269174462
 30
0.0
 11
2689.970589276527
 21
1354.494269174462
 31
0.0
  0
LINE
  5
18CE5
330
18C7A
100
AcDbEntity
  8
細線
  6
Continuous
 62
     5
100
AcDbLine
 10
2682.470589276527
 20
1354.494269174462
 30
0.0
 11
2682.470589276527
 21
1354.494269174462
 31
0.0
  0
LINE
  5
18CE6
330
18C7A
100
AcDbEntity
  8
細線
  6
Continuous
 62
     5
100
AcDbLine
 10
2676.470589276527
 20
1354.494269174462
 30
0.0
 11
2676.470589276527
 21
1354.494269174462
 31
0.0
  0
LINE
  5
18CE7
330
18C7A
100
AcDbEntity
  8
細線
  6
Continuous
 62
     5
100
AcDbLine
 10
2743.970589276527
 20
1373.494269174462
 30
0.0
 11
2743.970589276527
 21
1373.494269174462
 31
0.0
  0
LINE
  5
18CE8
330
18C7A
100
AcDbEntity
  8
細線
 48
50.0
100
AcDbLine
 10
1336.970593930116
 20
1341.094443351418
 30
0.0
 11
1336.970593930113
 21
1349.490593759059
 31
0.0
  0
LINE
  5
18CE9
330
18C7A
100
AcDbEntity
  8
細線
 48
50.0
100
AcDbLine
 10
1336.970593930113
 20
1349.490593759059
 30
0.0
 11
1322.970589276523
 21
1349.490593759057
 31
0.0
  0
LINE
  5
18CEA
330
18C7A
100
AcDbEntity
  8
細線
 48
50.0
100
AcDbLine
 10
2087.970593930113
 20
1337.644443351419
 30
0.0
 11
2087.970593930113
 21
1342.494443351421
 31
0.0
  0
LINE
  5
18CEB
330
18C7A
100
AcDbEntity
  8
細線
 48
50.0
100
AcDbLine
 10
2087.970593930113
 20
1342.494443351421
 30
0.0
 11
2102.970593930113
 21
1342.494443351421
 31
0.0
  0
LINE
  5
18CEC
330
18C7A
100
AcDbEntity
  8
細線
 48
50.0
100
AcDbLine
 10
2102.970593930113
 20
1342.494443351421
 30
0.0
 11
2102.970593930115
 21
1349.494443351419
 31
0.0
  0
LINE
  5
18CED
330
18C7A
100
AcDbEntity
  8
細線
 48
50.0
100
AcDbLine
 10
2102.970593930115
 20
1349.494443351419
 30
0.0
 11
2117.970593930113
 21
1349.494443351419
 31
0.0
  0
LINE
  5
18CEE
330
18C7A
100
AcDbEntity
  8
細線
 48
50.0
100
AcDbLine
 10
2117.970593930113
 20
1349.494443351419
 30
0.0
 11
2117.970593930113
 21
1320.494443351421
 31
0.0
  0
LINE
  5
18CEF
330
18C7A
100
AcDbEntity
  8
細線
 48
50.0
100
AcDbLine
 10
1313.970589276523
 20
1320.491777694889
 30
0.0
 11
1527.970593930113
 21
1320.494460905133
 31
0.0
  0
LINE
  5
18CF0
330
18C7A
100
AcDbEntity
  8
細線
 48
50.0
100
AcDbLine
 10
2017.970593930113
 20
1320.494443351421
 30
0.0
 11
2117.970593930113
 21
1320.494443351421
 31
0.0
  0
LINE
  5
18CF1
330
18C7A
100
AcDbEntity
  8
細線
 48
50.0
100
AcDbLine
 10
1737.970593930113
 20
1320.494443351419
 30
0.0
 11
1807.970593930113
 21
1320.494443351423
 31
0.0
  0
LINE
  5
18CF2
330
18C7A
100
AcDbEntity
  8
細線
 48
50.0
100
AcDbLine
 10
1750.832558942642
 20
1320.494443351419
 30
0.0
 11
1756.588076525309
 21
1338.765294641913
 31
0.0
  0
LINE
  5
18CF3
330
18C7A
100
AcDbEntity
  8
細線
 48
50.0
100
AcDbLine
 10
1756.588076525309
 20
1338.765294641913
 30
0.0
 11
1767.516525005743
 21
1338.765294641911
 31
0.0
  0
ARC
  5
18CF4
330
18C7A
100
AcDbEntity
  8
細線
 48
50.0
100
AcDbCircle
 10
1767.516525005743
 20
1337.765294641911
 30
0.0
 40
1.0
100
AcDbArc
 50
24.62431835207225
 51
90.0
  0
ARC
  5
18CF5
330
18C7A
100
AcDbEntity
  8
細線
 48
50.0
100
AcDbCircle
 10
1778.425237120377
 20
1337.765294641911
 30
0.0
 40
1.0
100
AcDbArc
 50
90.0
 51
155.3756816479277
  0
ARC
  5
18CF6
330
18C7A
100
AcDbEntity
  8
細線
 48
50.0
100
AcDbCircle
 10
1772.970881063058
 20
1340.265294641911
 30
0.0
 40
5.0
100
AcDbArc
 50
204.6243183520723
 51
335.3756816479278
  0
LINE
  5
18CF7
330
18C7A
100
AcDbEntity
  8
細線
 48
50.0
100
AcDbLine
 10
1778.425237120377
 20
1338.765294641911
 30
0.0
 11
1789.35368560081
 21
1338.765294641913
 31
0.0
  0
LINE
  5
18CF8
330
18C7A
100
AcDbEntity
  8
細線
 48
50.0
100
AcDbLine
 10
1789.35368560081
 20
1338.765294641913
 30
0.0
 11
1795.109203183478
 21
1320.494443351423
 31
0.0
  0
LINE
  5
18CF9
330
18C7A
100
AcDbEntity
  8
細線
 48
50.0
100
AcDbLine
 10
2087.970593930113
 20
1341.094443351419
 30
0.0
 11
1336.970593930116
 21
1341.094443351418
 31
0.0
  0
LINE
  5
18CFA
330
18C7A
100
AcDbEntity
  8
細線
 48
50.0
100
AcDbLine
 10
1947.970593930113
 20
1320.494443351421
 30
0.0
 11
1877.970593930113
 21
1320.494443351421
 31
0.0
  0
LINE
  5
18CFB
330
18C7A
100
AcDbEntity
  8
細線
100
AcDbLine
 10
1667.970593930113
 20
1320.494443351421
 30
0.0
 11
1597.970602115529
 21
1320.494443351421
 31
0.0
  0
LINE
  5
18CFC
330
18C7A
100
AcDbEntity
  8
細線
 48
50.0
100
AcDbLine
 10
2741.970584622936
 20
1375.094487209288
 30
0.0
 11
2106.970593930113
 21
1375.094487209284
 31
0.0
  0
LINE
  5
18CFD
330
18C7A
100
AcDbEntity
  8
細線
 48
50.0
100
AcDbLine
 10
2106.970593930113
 20
1371.990637616925
 30
0.0
 11
2106.970593930113
 21
1376.490637616925
 31
0.0
  0
LINE
  5
18CFE
330
18C7A
100
AcDbEntity
  8
細線
 48
50.0
100
AcDbLine
 10
2106.970593930113
 20
1376.490637616925
 30
0.0
 11
2091.970593930113
 21
1376.490637616925
 31
0.0
  0
LINE
  5
18CFF
330
18C7A
100
AcDbEntity
  8
細線
 48
50.0
100
AcDbLine
 10
2091.970593930113
 20
1376.490637616925
 30
0.0
 11
2091.970593930113
 21
1383.490637616927
 31
0.0
  0
LINE
  5
18D00
330
18C7A
100
AcDbEntity
  8
細線
 48
50.0
100
AcDbLine
 10
2091.970593930113
 20
1383.490637616927
 30
0.0
 11
2076.970593930115
 21
1383.490637616924
 31
0.0
  0
LINE
  5
18D01
330
18C7A
100
AcDbEntity
  8
細線
 48
50.0
100
AcDbLine
 10
2076.970593930115
 20
1383.490637616924
 30
0.0
 11
2076.970593930115
 21
1345.890409513813
 31
0.0
  0
LINE
  5
18D02
330
18C7A
100
AcDbEntity
  8
細線
 48
50.0
100
AcDbLine
 10
2076.970593930115
 20
1345.890409513813
 30
0.0
 11
2096.970601231289
 21
1345.890451063353
 31
0.0
  0
LINE
  5
18D03
330
18C7A
100
AcDbEntity
  8
細線
 48
50.0
100
AcDbLine
 10
2096.970556362348
 20
1354.493912699161
 30
0.0
 11
2096.970601231289
 21
1345.890451063353
 31
0.0
  0
LINE
  5
18D04
330
18C7A
100
AcDbEntity
  8
細線
 48
50.0
100
AcDbLine
 10
2741.970584622936
 20
1371.644487209287
 30
0.0
 11
2741.970584622936
 21
1376.494487209284
 31
0.0
  0
LINE
  5
18D05
330
18C7A
100
AcDbEntity
  8
細線
 48
50.0
100
AcDbLine
 10
2741.970584622936
 20
1376.494487209284
 30
0.0
 11
2756.970584622934
 21
1376.494487209285
 31
0.0
  0
LINE
  5
18D06
330
18C7A
100
AcDbEntity
  8
細線
 48
50.0
100
AcDbLine
 10
2756.970584622934
 20
1376.494487209285
 30
0.0
 11
2756.970596256909
 21
1383.494487209331
 31
0.0
  0
LINE
  5
18D07
330
18C7A
100
AcDbEntity
  8
細線
 48
50.0
100
AcDbLine
 10
2756.970596256909
 20
1383.494487209331
 30
0.0
 11
2771.970594427439
 21
1383.494487209329
 31
0.0
  0
LINE
  5
18D08
330
18C7A
100
AcDbEntity
  8
細線
 48
50.0
100
AcDbLine
 10
2771.970594427439
 20
1383.494487209329
 30
0.0
 11
2771.970584125617
 21
1354.494281037055
 31
0.0
  0
LINE
  5
18D09
330
18C7A
100
AcDbEntity
  8
細線
 48
50.0
100
AcDbLine
 10
2458.070304175992
 20
1354.494278397076
 30
0.0
 11
2389.470863838818
 21
1354.494283787084
 31
0.0
  0
LINE
  5
18D0A
330
18C7A
100
AcDbEntity
  8
細線
 48
50.0
100
AcDbLine
 10
2096.970556362348
 20
1354.493912699161
 30
0.0
 11
2108.203245717057
 21
1354.494095652309
 31
0.0
  0
ARC
  5
18D0B
330
18C7A
100
AcDbEntity
  8
細線
 48
50.0
100
AcDbCircle
 10
2114.785538024393
 20
1353.294259565922
 30
0.0
 40
1.8
100
AcDbArc
 50
270.0006665777295
 51
345.000555481349
  0
LINE
  5
18D0C
330
18C7A
100
AcDbEntity
  8
細線
 48
50.0
100
AcDbLine
 10
2116.771971470473
 20
1353.753100023201
 30
0.0
 11
2116.524209028273
 21
1352.828402141094
 31
0.0
  0
LINE
  5
18D0D
330
18C7A
100
AcDbEntity
  8
細線
 48
50.0
100
AcDbLine
 10
2114.785558965548
 20
1351.494259566043
 30
0.0
 11
2111.155631546781
 21
1351.494217335563
 31
0.0
  0
ARC
  5
18D0E
330
18C7A
100
AcDbEntity
  8
細線
 48
50.0
100
AcDbCircle
 10
2111.155610605627
 20
1353.29421733544
 30
0.0
 40
1.8
100
AcDbArc
 50
195.0010443049965
 51
270.0006665777295
  0
LINE
  5
18D0F
330
18C7A
100
AcDbEntity
  8
細線
 48
50.0
100
AcDbLine
 10
2109.169183113368
 20
1353.752932303007
 30
0.0
 11
2109.416952609882
 21
1352.828311364425
 31
0.0
  0
ARC
  5
18D10
330
18C7A
100
AcDbEntity
  8
細線
 48
50.0
100
AcDbCircle
 10
2108.203262004622
 20
1353.494095652444
 30
0.0
 40
1.0
100
AcDbArc
 50
15.00104430499651
 51
90.00093320877969
  0
LINE
  5
18D11
330
18C7A
100
AcDbEntity
  8
細線
 48
50.0
100
AcDbLine
 10
2117.737892825577
 20
1354.494290342714
 30
0.0
 11
2118.679652976481
 21
1354.494296916564
 31
0.0
  0
ARC
  5
18D12
330
18C7A
100
AcDbEntity
  8
細線
 48
50.0
100
AcDbCircle
 10
2117.737899805961
 20
1353.49429034274
 30
0.0
 40
1.0
100
AcDbArc
 50
90.0003999466794
 51
165.000555481349
  0
LINE
  5
18D13
330
18C7A
100
AcDbEntity
  8
細線
 48
50.0
100
AcDbLine
 10
2669.470584622926
 20
1354.494281037055
 30
0.0
 11
2771.970584125617
 21
1354.494281037055
 31
0.0
  0
LINE
  5
18D14
330
18C7A
100
AcDbEntity
  8
細線
 48
50.0
100
AcDbLine
 10
2179.47061994182
 20
1354.494289224422
 30
0.0
 11
2118.370558714898
 21
1354.494296916564
 31
0.0
  0
LINE
  5
18D15
330
18C7A
100
AcDbEntity
  8
細線
 48
50.0
100
AcDbLine
 10
2599.470584622926
 20
1354.494281037057
 30
0.0
 11
2529.470584622926
 21
1354.494281037055
 31
0.0
  0
LINE
  5
18D16
330
18C7A
100
AcDbEntity
  8
細線
 48
50.0
100
AcDbLine
 10
2319.470584622926
 20
1354.494281037054
 30
0.0
 11
2249.470567335051
 21
1354.494281037057
 31
0.0
  0
ARC
  5
18D17
330
18C7A
100
AcDbEntity
  8
細線
 48
50.0
100
AcDbCircle
 10
2756.170589276533
 20
1387.694269174466
 30
0.0
 40
0.8
100
AcDbArc
 50
359.9997333689499
 51
89.99986668437072
  0
ARC
  5
18D18
330
18C7A
100
AcDbEntity
  8
細線
 48
50.0
100
AcDbCircle
 10
2763.770596101631
 20
1387.694280343081
 30
0.0
 40
0.8
100
AcDbArc
 50
90.00014387753465
 51
179.9997333689498
  0
LINE
  5
18D19
330
18C7A
100
AcDbEntity
  8
細線
 48
50.0
100
AcDbLine
 10
2756.170591137969
 20
1388.494269174465
 30
0.0
 11
2750.970589276525
 21
1388.494269174465
 31
0.0
  0
ARC
  5
18D1A
330
18C7A
100
AcDbEntity
  8
細線
 48
50.0
100
AcDbCircle
 10
2757.670589276524
 20
1386.194269174464
 30
0.0
 40
0.7
100
AcDbArc
 50
180.0
 51
270.0
  0
ARC
  5
18D1B
330
18C7A
100
AcDbEntity
  8
細線
 48
50.0
100
AcDbCircle
 10
2762.270589276524
 20
1386.194269174464
 30
0.0
 40
0.7
100
AcDbArc
 50
270.0
 51
0.0
  0
LINE
  5
18D1C
330
18C7A
100
AcDbEntity
  8
細線
 48
50.0
100
AcDbLine
 10
2762.970589276525
 20
1386.194269174464
 30
0.0
 11
2762.970596101639
 21
1387.694284065954
 31
0.0
  0
LINE
  5
18D1D
330
18C7A
100
AcDbEntity
  8
細線
 48
50.0
100
AcDbLine
 10
2757.670589276524
 20
1385.494269174465
 30
0.0
 11
2762.270589276524
 21
1385.494269174465
 31
0.0
  0
LINE
  5
18D1E
330
18C7A
100
AcDbEntity
  8
細線
 48
50.0
100
AcDbLine
 10
2756.970589276525
 20
1387.694269174466
 30
0.0
 11
2756.970589276525
 21
1386.194269174464
 31
0.0
  0
LINE
  5
18D1F
330
18C7A
100
AcDbEntity
  8
細線
 48
50.0
100
AcDbLine
 10
3382.570589276527
 20
1418.494269174465
 30
0.0
 11
2745.970589276525
 21
1418.494269174463
 31
0.0
  0
LINE
  5
18D20
330
18C7A
100
AcDbEntity
  8
細線
 48
50.0
100
AcDbLine
 10
3408.470589276525
 20
1413.494269174467
 30
0.0
 11
3392.570589276527
 21
1413.494269174465
 31
0.0
  0
LINE
  5
18D21
330
18C7A
100
AcDbEntity
  8
細線
 48
50.0
100
AcDbLine
 10
3392.570589276526
 20
1413.494269174465
 30
0.0
 11
3382.570589276527
 21
1418.494269174465
 31
0.0
  0
LINE
  5
18D22
330
18C7A
100
AcDbEntity
  8
細線
100
AcDbLine
 10
2993.470589276525
 20
1388.494269174465
 30
0.0
 11
2993.470589276525
 21
1417.794269174464
 31
0.0
  0
LINE
  5
18D23
330
18C7A
100
AcDbEntity
  8
細線
100
AcDbLine
 10
2993.470589276525
 20
1417.794269174464
 30
0.0
 11
3013.470589276525
 21
1417.794269174464
 31
0.0
  0
LINE
  5
18D24
330
18C7A
100
AcDbEntity
  8
細線
100
AcDbLine
 10
3013.470589276525
 20
1388.494269174465
 30
0.0
 11
3013.470589276525
 21
1417.794269174464
 31
0.0
  0
LINE
  5
18D25
330
18C7A
100
AcDbEntity
  8
細線
100
AcDbLine
 10
3170.720589276524
 20
1388.494269174465
 30
0.0
 11
3100.720589276523
 21
1388.494269174465
 31
0.0
  0
LINE
  5
18D26
330
18C7A
100
AcDbEntity
  8
細線
 48
50.0
100
AcDbLine
 10
2890.720589276525
 20
1388.494269174465
 30
0.0
 11
2763.766368849365
 21
1388.494269174465
 31
0.0
  0
LINE
  5
18D27
330
18C7A
100
AcDbEntity
  8
細線
100
AcDbLine
 10
3030.720589276525
 20
1388.494269174465
 30
0.0
 11
2960.720589276525
 21
1388.494269174465
 31
0.0
  0
LINE
  5
18D28
330
18C7A
100
AcDbEntity
  8
細線
 48
50.0
100
AcDbLine
 10
2750.970589276525
 20
1380.494269174465
 30
0.0
 11
2750.970589276525
 21
1388.494269174465
 31
0.0
  0
LINE
  5
18D29
330
18C7A
100
AcDbEntity
  8
細線
 48
50.0
100
AcDbLine
 10
2730.970589276524
 20
1380.494269174467
 30
0.0
 11
2750.970589276525
 21
1380.494269174465
 31
0.0
  0
LINE
  5
18D2A
330
18C7A
100
AcDbEntity
  8
細線
 48
50.0
100
AcDbLine
 10
2745.970589276525
 20
1418.494269174465
 30
0.0
 11
2745.970589276525
 21
1413.494269174465
 31
0.0
  0
LINE
  5
18D2B
330
18C7A
100
AcDbEntity
  8
細線
 48
50.0
100
AcDbLine
 10
2730.970589276525
 20
1418.494269174463
 30
0.0
 11
2745.970589276525
 21
1418.494269174465
 31
0.0
  0
LINE
  5
18D2C
330
18C7A
100
AcDbEntity
  8
細線
 48
50.0
100
AcDbLine
 10
2730.970589276524
 20
1380.494269174467
 30
0.0
 11
2730.970589276525
 21
1418.494269174463
 31
0.0
  0
LINE
  5
18D2D
330
18C7A
100
AcDbEntity
  8
細線
100
AcDbLine
 10
3398.970589276523
 20
1388.494269174465
 30
0.0
 11
3240.720589276525
 21
1388.494269174465
 31
0.0
  0
LINE
  5
18D2E
330
18C7A
100
AcDbEntity
  8
細線
 48
50.0
100
AcDbLine
 10
3408.470589276525
 20
1413.494269174467
 30
0.0
 11
3408.470589276524
 21
1388.494269174465
 31
0.0
  0
TEXT
  5
18D2F
330
18C7A
100
AcDbEntity
  8
部品1
100
AcDbText
 10
1860.154865991392
 20
46.99880823813145
 30
0.0
 40
135.0
  1
平面図
  7
STYLE2
100
AcDbText
  0
LWPOLYLINE
  5
18D30
330
18C7A
100
AcDbEntity
  8
部品1
100
AcDbPolyline
 90
        4
 70
     1
 43
0.0
 10
1770.23525616235
 20
239.8923374566548
 10
1770.23525616235
 20
0.0000159111223184
 10
2533.705922390791
 20
0.0000159111223184
 10
2533.705922390791
 20
239.8923374566548
  0
LINE
  5
18D31
330
18C7A
100
AcDbEntity
  8
部品1
100
AcDbLine
 10
1534.470589276487
 20
3154.494269174626
 30
0.0
 11
2769.470589276552
 21
3154.494269174626
 31
0.0
  0
LINE
  5
18D32
330
18C7A
100
AcDbEntity
  8
部品1
 48
50.0
100
AcDbLine
 10
1311.970589276523
 20
1420.494269174462
 30
0.0
 11
3411.970589276523
 21
1420.494269174465
 31
0.0
  0
LINE
  5
18D33
330
18C7A
100
AcDbEntity
  8
部品1
 48
50.0
100
AcDbLine
 10
471.9705892765232
 20
1392.494269174465
 30
0.0
 11
1311.970589276523
 21
1392.494269174465
 31
0.0
  0
DIMENSION
  5
18D34
330
18C7A
100
AcDbEntity
  8
寸法
100
AcDbDimension
  2
*D14
 10
2710.234916278077
 20
2488.887829538828
 30
0.0
 11
2338.318822490183
 21
2488.887829538828
 31
0.0
 12
-3742.925985830444
 22
-6453.628869860112
 32
0.0
 70
   128
 71
     5
 42
1231.00000000007
  3
INABA_S40G
100
AcDbAlignedDimension
 13
1536.470589276486
 23
2702.494269174557
 33
0.0
 14
2767.470589276556
 24
2702.494269174549
 34
0.0
100
AcDbRotatedDimension
1001
ACAD
1000
DSTYLE
1002
{
1002
}
  0
LINE
  5
18D35
330
18C7A
100
AcDbEntity
  8
部品1
100
AcDbLine
 10
1536.470589276487
 20
2702.494269174557
 30
0.0
 11
2767.470589276554
 21
2702.494269174615
 31
0.0
  0
LINE
  5
18D36
330
18C7A
100
AcDbEntity
  8
部品1
100
AcDbLine
 10
1536.470589276487
 20
3152.494269174557
 30
0.0
 11
2767.470589276556
 21
3152.494269174615
 31
0.0
  0
LINE
  5
18D37
330
18C7A
100
AcDbEntity
  8
細線
 48
50.0
100
AcDbLine
 10
1508.470589276487
 20
3152.494269174558
 30
0.0
 11
445.4705892765559
 21
2702.494269174509
 31
0.0
  0
LINE
  5
18D38
330
18C7A
100
AcDbEntity
  8
細線
 48
50.0
100
AcDbLine
 10
1508.470589276487
 20
2702.494269174558
 30
0.0
 11
445.4705892765542
 21
3152.494269174509
 31
0.0
  0
LINE
  5
18D39
330
18C7A
100
AcDbEntity
  8
部品1
100
AcDbLine
 10
1556.970589276487
 20
3172.494269174611
 30
0.0
 11
1556.970589276487
 21
3154.494269174611
 31
0.0
  0
LINE
  5
18D3A
330
18C7A
100
AcDbEntity
  8
部品1
100
AcDbLine
 10
1556.970589276487
 20
3172.494269174611
 30
0.0
 11
1550.970589276487
 21
3172.494269174611
 31
0.0
  0
LINE
  5
18D3B
330
18C7A
100
AcDbEntity
  8
部品1
100
AcDbLine
 10
1534.470589276487
 20
3146.494269174608
 30
0.0
 11
1509.470589276487
 21
3146.494269174611
 31
0.0
  0
LINE
  5
18D3C
330
18C7A
100
AcDbEntity
  8
部品1
100
AcDbLine
 10
1486.970589276487
 20
3172.494269174611
 30
0.0
 11
1486.970589276487
 21
3154.494269174611
 31
0.0
  0
LINE
  5
18D3D
330
18C7A
100
AcDbEntity
  8
部品1
100
AcDbLine
 10
1492.970589276487
 20
3172.494269174611
 30
0.0
 11
1486.970589276487
 21
3172.494269174611
 31
0.0
  0
LINE
  5
18D3E
330
18C7A
100
AcDbEntity
  8
部品1
100
AcDbLine
 10
1534.470589276487
 20
2702.494269174615
 30
0.0
 11
1509.470589276487
 21
2702.494269174615
 31
0.0
  0
LINE
  5
18D3F
330
18C7A
100
AcDbEntity
  8
部品1
 48
50.0
100
AcDbLine
 10
1536.470589276487
 20
3152.494269174611
 30
0.0
 11
1536.470589276487
 21
2702.494269174615
 31
0.0
  0
LINE
  5
18D40
330
18C7A
100
AcDbEntity
  8
部品1
 48
50.0
100
AcDbLine
 10
1508.470589276487
 20
3152.494269174607
 30
0.0
 11
1508.470589276487
 21
2702.494269174615
 31
0.0
  0
LINE
  5
18D41
330
18C7A
100
AcDbEntity
  8
部品1
 48
50.0
100
AcDbLine
 10
1534.470589276487
 20
3154.494269174618
 30
0.0
 11
1534.470589276487
 21
2702.494269174615
 31
0.0
  0
LINE
  5
18D42
330
18C7A
100
AcDbEntity
  8
部品1
 48
50.0
100
AcDbLine
 10
1509.470589276487
 20
3154.494269174615
 30
0.0
 11
1509.470589276487
 21
2702.494269174615
 31
0.0
  0
LINE
  5
18D43
330
18C7A
100
AcDbEntity
  8
部品1
100
AcDbLine
 10
3411.970589276556
 20
1392.494269174582
 30
0.0
 11
3411.970589276556
 21
1420.494269174596
 31
0.0
  0
LINE
  5
18D44
330
18C7A
100
AcDbEntity
  8
部品1
100
AcDbLine
 10
1311.970589276523
 20
1392.494269174596
 30
0.0
 11
1311.970589276523
 21
1420.494269174596
 31
0.0
  0
LINE
  5
18D45
330
18C7A
100
AcDbEntity
  8
部品1
100
AcDbLine
 10
891.9705892765232
 20
1392.494269174596
 30
0.0
 11
891.9705892765232
 21
1420.494269174596
 31
0.0
  0
LINE
  5
18D46
330
18C7A
100
AcDbEntity
  8
部品1
100
AcDbLine
 10
3411.97058927652
 20
3182.494269174477
 30
0.0
 11
3411.970589276523
 21
3154.494269174477
 31
0.0
  0
LINE
  5
18D47
330
18C7A
100
AcDbEntity
  8
部品1
100
AcDbLine
 10
2571.97058927652
 20
3182.494269174477
 30
0.0
 11
2571.970589276523
 21
3154.494269174477
 31
0.0
  0
LINE
  5
18D48
330
18C7A
100
AcDbEntity
  8
部品1
100
AcDbLine
 10
2991.97058927652
 20
3182.494269174477
 30
0.0
 11
2991.970589276523
 21
3154.494269174477
 31
0.0
  0
LINE
  5
18D49
330
18C7A
100
AcDbEntity
  8
部品1
100
AcDbLine
 10
2151.970589276519
 20
3182.494269174477
 30
0.0
 11
2151.970589276523
 21
3154.494269174477
 31
0.0
  0
LINE
  5
18D4A
330
18C7A
100
AcDbEntity
  8
部品1
100
AcDbLine
 10
1731.970589276519
 20
3182.494269174477
 30
0.0
 11
1731.970589276523
 21
3154.494269174477
 31
0.0
  0
LINE
  5
18D4B
330
18C7A
100
AcDbEntity
  8
部品1
100
AcDbLine
 10
1311.970589276519
 20
3182.494269174477
 30
0.0
 11
1311.970589276523
 21
3154.494269174477
 31
0.0
  0
LINE
  5
18D4C
330
18C7A
100
AcDbEntity
  8
部品1
100
AcDbLine
 10
891.9705892765195
 20
3182.494269174477
 30
0.0
 11
891.9705892765232
 21
3154.494269174477
 31
0.0
  0
LINE
  5
18D4D
330
18C7A
100
AcDbEntity
  8
部品1
100
AcDbLine
 10
471.9705892765232
 20
1392.494269174596
 30
0.0
 11
471.9705892765232
 21
1420.494269174596
 31
0.0
  0
LINE
  5
18D4E
330
18C7A
100
AcDbEntity
  8
部品1
100
AcDbLine
 10
444.9705892765305
 20
1420.494269174558
 30
0.0
 11
3858.970589276556
 21
1420.494269174596
 31
0.0
  0
LINE
  5
18D4F
330
18C7A
100
AcDbEntity
  8
部品1
100
AcDbLine
 10
3831.970589276556
 20
1392.494269174596
 30
0.0
 11
3831.970589276556
 21
1420.494269174596
 31
0.0
  0
LINE
  5
18D50
330
18C7A
100
AcDbEntity
  8
部品1
100
AcDbLine
 10
3858.970589276556
 20
1447.494269174593
 30
0.0
 11
3886.970589276556
 21
1447.494269174593
 31
0.0
  0
LINE
  5
18D51
330
18C7A
100
AcDbEntity
  8
部品1
100
AcDbLine
 10
3858.970589276556
 20
1867.494269174607
 30
0.0
 11
3886.970589276556
 21
1867.494269174607
 31
0.0
  0
LINE
  5
18D52
330
18C7A
100
AcDbEntity
  8
部品1
100
AcDbLine
 10
444.9705892765305
 20
1867.49426917448
 30
0.0
 11
416.9705892765305
 21
1867.49426917448
 31
0.0
  0
LINE
  5
18D53
330
18C7A
100
AcDbEntity
  8
部品1
100
AcDbLine
 10
3830.470589276541
 20
1867.49426917458
 30
0.0
 11
473.4705892765396
 21
1867.49426917448
 31
0.0
  0
LINE
  5
18D54
330
18C7A
100
AcDbEntity
  8
部品1
100
AcDbLine
 10
3830.470589276541
 20
2287.49426917458
 30
0.0
 11
473.4705892765396
 21
2287.49426917448
 31
0.0
  0
LINE
  5
18D55
330
18C7A
100
AcDbEntity
  8
部品1
100
AcDbLine
 10
444.9705892765305
 20
2287.49426917448
 30
0.0
 11
416.9705892765305
 21
2287.49426917448
 31
0.0
  0
LINE
  5
18D56
330
18C7A
100
AcDbEntity
  8
部品1
100
AcDbLine
 10
3858.970589276556
 20
2287.494269174608
 30
0.0
 11
3886.970589276556
 21
2287.494269174608
 31
0.0
  0
LINE
  5
18D57
330
18C7A
100
AcDbEntity
  8
部品1
 48
50.0
100
AcDbLine
 10
2151.970589276551
 20
2702.494269174586
 30
0.0
 11
2151.970589276581
 21
1448.994269174494
 31
0.0
  0
LINE
  5
18D58
330
18C7A
100
AcDbEntity
  8
破線
 48
10.0
100
AcDbLine
 10
2959.470589276535
 20
1472.494269174522
 30
0.0
 11
2176.970589276532
 21
1472.494269174505
 31
0.0
  0
LINE
  5
18D59
330
18C7A
100
AcDbEntity
  8
破線
 48
10.0
100
AcDbLine
 10
3009.47058927653
 20
1448.994269174509
 30
0.0
 11
3009.47058927653
 21
2702.494269174615
 31
0.0
  0
LINE
  5
18D5A
330
18C7A
100
AcDbEntity
  8
破線
 48
10.0
100
AcDbLine
 10
2959.470589276535
 20
1448.994269174505
 30
0.0
 11
2959.470589276531
 21
2702.494269174615
 31
0.0
  0
LINE
  5
18D5B
330
18C7A
100
AcDbEntity
  8
破線
 48
10.0
100
AcDbLine
 10
1344.47058927653
 20
1448.994269174509
 30
0.0
 11
1344.47058927653
 21
2702.494269174615
 31
0.0
  0
LINE
  5
18D5C
330
18C7A
100
AcDbEntity
  8
破線
 48
10.0
100
AcDbLine
 10
1294.470589276534
 20
1448.994269174505
 30
0.0
 11
1294.47058927653
 21
2702.494269174615
 31
0.0
  0
DIMENSION
  5
18D5D
330
18C7A
100
AcDbEntity
  8
寸法
100
AcDbDimension
  2
*D13
 10
1451.234916278005
 20
2488.887829538828
 30
0.0
 11
916.0604668248634
 21
2488.887829538828
 31
0.0
 12
-3742.925985830444
 22
-6453.628869860112
 32
0.0
 70
   128
 71
     5
 42
1062.99999999993
  3
INABA_S40G
100
AcDbAlignedDimension
 13
445.4705892765559
 23
2702.494269174505
 33
0.0
 14
1508.470589276486
 24
2702.494269174558
 34
0.0
100
AcDbRotatedDimension
1001
ACAD
1000
DSTYLE
1002
{
1002
}
  0
LINE
  5
18D5E
330
18C7A
100
AcDbEntity
  8
破線
 48
10.0
100
AcDbLine
 10
1294.470589276534
 20
1472.494269174469
 30
0.0
 11
496.9705892765414
 21
1472.494269174476
 31
0.0
  0
LINE
  5
18D5F
330
18C7A
100
AcDbEntity
  8
部品1
100
AcDbLine
 10
3831.970589276556
 20
3182.494269174604
 30
0.0
 11
3831.970589276556
 21
3154.494269174604
 31
0.0
  0
LINE
  5
18D60
330
18C7A
100
AcDbEntity
  8
部品1
100
AcDbLine
 10
3831.970589276556
 20
3182.494269174626
 30
0.0
 11
3831.970589276556
 21
3154.494269174626
 31
0.0
  0
LINE
  5
18D61
330
18C7A
100
AcDbEntity
  8
部品1
100
AcDbLine
 10
3858.970589276556
 20
3127.494269174607
 30
0.0
 11
3886.970589276556
 21
3127.494269174607
 31
0.0
  0
LINE
  5
18D62
330
18C7A
100
AcDbEntity
  8
部品1
100
AcDbLine
 10
3858.970589276556
 20
2707.494269174608
 30
0.0
 11
3886.970589276556
 21
2707.494269174608
 31
0.0
  0
LINE
  5
18D63
330
18C7A
100
AcDbEntity
  8
部品1
100
AcDbLine
 10
3858.470589276556
 20
3152.494269174604
 30
0.0
 11
3858.470589276556
 21
2702.494269174608
 31
0.0
  0
LINE
  5
18D64
330
18C7A
100
AcDbEntity
  8
部品1
100
AcDbLine
 10
3886.970589276533
 20
1447.494269174593
 30
0.0
 11
3886.970589276531
 21
1392.494269174596
 31
0.0
  0
LINE
  5
18D65
330
18C7A
100
AcDbEntity
  8
部品1
 48
50.0
100
AcDbLine
 10
3830.470589276556
 20
1448.994269174596
 30
0.0
 11
3858.970589276554
 21
1420.494269174596
 31
0.0
  0
LINE
  5
18D66
330
18C7A
100
AcDbEntity
  8
部品1
100
AcDbLine
 10
3886.970589276531
 20
1392.494269174596
 30
0.0
 11
3835.970589276531
 21
1392.494269174596
 31
0.0
  0
LINE
  5
18D67
330
18C7A
100
AcDbEntity
  8
部品1
100
AcDbLine
 10
3858.970589276533
 20
1447.494269174593
 30
0.0
 11
3886.970589276531
 21
1447.494269174593
 31
0.0
  0
LINE
  5
18D68
330
18C7A
100
AcDbEntity
  8
部品1
100
AcDbLine
 10
3886.970589276556
 20
3182.494269174604
 30
0.0
 11
3886.970589276531
 21
1392.494269174596
 31
0.0
  0
DIMENSION
  5
18D69
330
18C7A
100
AcDbEntity
  8
寸法
100
AcDbDimension
  2
*D12
 10
4534.396935010967
 20
1447.494269174593
 30
0.0
 11
4534.396935010965
 21
2287.4942691746
 31
0.0
 12
-3742.925985830444
 22
-6453.628869860112
 32
0.0
 70
   128
  1
4X420=<>
 71
     5
 42
1680.000000000014
  3
INABA_S40G
100
AcDbAlignedDimension
 13
3886.970589276556
 23
3127.494269174607
 33
0.0
 14
3886.970589276531
 24
1447.494269174593
 34
0.0
 50
90.0
100
AcDbRotatedDimension
1001
ACAD
1000
DSTYLE
1002
{
1002
}
  0
LINE
  5
18D6A
330
18C7A
100
AcDbEntity
  8
部品1
100
AcDbLine
 10
3858.970589276556
 20
3154.494269174604
 30
0.0
 11
3858.970589276534
 21
1420.494269174596
 31
0.0
  0
DIMENSION
  5
18D6B
330
18C7A
100
AcDbEntity
  8
寸法
100
AcDbDimension
  2
*D11
 10
4213.82831513858
 20
2607.276453505718
 30
0.0
 11
4113.828315138579
 21
2832.276453505718
 31
0.0
 12
-3742.925985830444
 22
-6453.628869860112
 32
0.0
 71
     5
 42
449.9999999999963
  3
INABA_S40G
100
AcDbAlignedDimension
 13
3858.470589276556
 23
3152.494269174604
 33
0.0
 14
3858.470589276556
 24
2702.494269174608
 34
0.0
 50
90.0
100
AcDbRotatedDimension
1001
ACAD
1000
DSTYLE
1002
{
1002
}
  0
LINE
  5
18D6C
330
18C7A
100
AcDbEntity
  8
部品1
100
AcDbLine
 10
3830.470589276547
 20
2702.494269174608
 30
0.0
 11
3830.470589276556
 21
1448.994269174596
 31
0.0
  0
LINE
  5
18D6D
330
18C7A
100
AcDbEntity
  8
破線
 48
10.0
100
AcDbLine
 10
3806.970589276549
 20
2702.494269174608
 30
0.0
 11
3806.970589276558
 21
1472.494269174593
 31
0.0
  0
LINE
  5
18D6E
330
18C7A
100
AcDbEntity
  8
部品1
100
AcDbLine
 10
2769.470589276556
 20
3146.494269174608
 30
0.0
 11
2794.470589276556
 21
3146.494269174611
 31
0.0
  0
LINE
  5
18D6F
330
18C7A
100
AcDbEntity
  8
部品1
100
AcDbLine
 10
2810.970589276556
 20
3172.494269174611
 30
0.0
 11
2816.970589276556
 21
3172.494269174611
 31
0.0
  0
LINE
  5
18D70
330
18C7A
100
AcDbEntity
  8
部品1
100
AcDbLine
 10
2816.970589276556
 20
3172.494269174611
 30
0.0
 11
2816.970589276556
 21
3154.494269174611
 31
0.0
  0
LINE
  5
18D71
330
18C7A
100
AcDbEntity
  8
部品1
100
AcDbLine
 10
2746.970589276556
 20
3172.494269174611
 30
0.0
 11
2752.970589276556
 21
3172.494269174611
 31
0.0
  0
LINE
  5
18D72
330
18C7A
100
AcDbEntity
  8
部品1
100
AcDbLine
 10
2746.970589276556
 20
3172.494269174611
 30
0.0
 11
2746.970589276556
 21
3154.494269174611
 31
0.0
  0
LINE
  5
18D73
330
18C7A
100
AcDbEntity
  8
部品1
100
AcDbLine
 10
2769.470589276556
 20
2702.494269174615
 30
0.0
 11
2794.470589276556
 21
2702.494269174615
 31
0.0
  0
LINE
  5
18D74
330
18C7A
100
AcDbEntity
  8
部品1
 48
50.0
100
AcDbLine
 10
2794.470589276556
 20
3154.494269174615
 30
0.0
 11
2794.470589276556
 21
2702.494269174615
 31
0.0
  0
LINE
  5
18D75
330
18C7A
100
AcDbEntity
  8
部品1
 48
50.0
100
AcDbLine
 10
2769.470589276554
 20
3154.494269174618
 30
0.0
 11
2769.470589276556
 21
2702.494269174615
 31
0.0
  0
LINE
  5
18D76
330
18C7A
100
AcDbEntity
  8
部品1
 48
50.0
100
AcDbLine
 10
2795.470589276556
 20
3152.494269174607
 30
0.0
 11
2795.470589276556
 21
2702.494269174615
 31
0.0
  0
LINE
  5
18D77
330
18C7A
100
AcDbEntity
  8
部品1
 48
50.0
100
AcDbLine
 10
2767.470589276556
 20
3152.494269174611
 30
0.0
 11
2767.470589276556
 21
2702.494269174615
 31
0.0
  0
LINE
  5
18D78
330
18C7A
100
AcDbEntity
  8
破線
 48
10.0
100
AcDbLine
 10
2176.97058927653
 20
1448.994269174509
 30
0.0
 11
2176.97058927653
 21
2702.494269174588
 31
0.0
  0
LINE
  5
18D79
330
18C7A
100
AcDbEntity
  8
破線
 48
10.0
100
AcDbLine
 10
2126.970589276534
 20
1448.994269174505
 30
0.0
 11
2126.970589276531
 21
2702.494269174586
 31
0.0
  0
LINE
  5
18D7A
330
18C7A
100
AcDbEntity
  8
部品1
100
AcDbLine
 10
2794.470589276556
 20
3154.494269174622
 30
0.0
 11
3858.970589276556
 21
3154.494269174604
 31
0.0
  0
LINE
  5
18D7B
330
18C7A
100
AcDbEntity
  8
細線
 48
50.0
100
AcDbLine
 10
3858.470589276556
 20
2702.494269174608
 30
0.0
 11
2795.470589276556
 21
3152.494269174607
 31
0.0
  0
LINE
  5
18D7C
330
18C7A
100
AcDbEntity
  8
部品1
100
AcDbLine
 10
2795.470589276555
 20
2702.494269174615
 30
0.0
 11
3858.470589276556
 21
2702.494269174608
 31
0.0
  0
LINE
  5
18D7D
330
18C7A
100
AcDbEntity
  8
部品1
100
AcDbLine
 10
2795.470589276556
 20
3152.494269174611
 30
0.0
 11
3858.470589276556
 21
3152.494269174604
 31
0.0
  0
LINE
  5
18D7E
330
18C7A
100
AcDbEntity
  8
細線
 48
50.0
100
AcDbLine
 10
3858.470589276556
 20
3152.494269174604
 30
0.0
 11
2795.470589276555
 21
2702.494269174615
 31
0.0
  0
DIMENSION
  5
18D7F
330
18C7A
100
AcDbEntity
  8
寸法
100
AcDbDimension
  2
*D10
 10
3801.234916278101
 20
2488.887829538937
 30
0.0
 11
3318.360544398907
 21
2488.887829538937
 31
0.0
 12
-3742.925985830444
 22
-6453.628869860112
 32
0.0
 70
   128
 71
     5
 42
1063.000000000012
  3
INABA_S40G
100
AcDbAlignedDimension
 13
2795.470589276555
 23
2702.494269174615
 33
0.0
 14
3858.470589276567
 24
2702.494269174608
 34
0.0
100
AcDbRotatedDimension
1001
ACAD
1000
DSTYLE
1002
{
1002
}
  0
LINE
  5
18D80
330
18C7A
100
AcDbEntity
  8
破線
 48
10.0
100
AcDbLine
 10
3806.970589276556
 20
1472.494269174594
 30
0.0
 11
3009.47058927653
 21
1472.494269174523
 31
0.0
  0
DIMENSION
  5
18D81
330
18C7A
100
AcDbEntity
  8
寸法
100
AcDbDimension
  2
*D9
 10
4534.396935010941
 20
1392.494269174596
 30
0.0
 11
4534.39693501094
 21
1084.008987800356
 31
0.0
 12
-3742.925985830444
 22
-6453.628869860112
 32
0.0
 70
   128
 71
     5
 42
54.99999999999636
  3
INABA_S40G
100
AcDbAlignedDimension
 13
3886.970589276531
 23
1447.494269174593
 33
0.0
 14
3886.970589276531
 24
1392.494269174596
 34
0.0
 50
90.0
100
AcDbRotatedDimension
1001
ACAD
1000
DSTYLE
1002
{
1002
}
  0
LINE
  5
18D82
330
18C7A
100
AcDbEntity
  8
部品1
100
AcDbLine
 10
471.9705892765196
 20
3182.494269174477
 30
0.0
 11
471.9705892765232
 21
3154.494269174477
 31
0.0
  0
LINE
  5
18D83
330
18C7A
100
AcDbEntity
  8
部品1
100
AcDbLine
 10
471.9705892765559
 20
3182.494269174509
 30
0.0
 11
471.9705892765559
 21
3154.494269174509
 31
0.0
  0
LINE
  5
18D84
330
18C7A
100
AcDbEntity
  8
部品1
100
AcDbLine
 10
444.9705892765232
 20
3127.49426917448
 30
0.0
 11
416.9705892765232
 21
3127.49426917448
 31
0.0
  0
LINE
  5
18D85
330
18C7A
100
AcDbEntity
  8
部品1
100
AcDbLine
 10
444.9705892765305
 20
2707.49426917448
 30
0.0
 11
416.9705892765305
 21
2707.49426917448
 31
0.0
  0
LINE
  5
18D86
330
18C7A
100
AcDbEntity
  8
部品1
 48
50.0
100
AcDbLine
 10
445.4705892765542
 20
3152.494269174506
 30
0.0
 11
445.4705892765559
 21
2702.494269174505
 31
0.0
  0
LINE
  5
18D87
330
18C7A
100
AcDbEntity
  8
部品1
 48
50.0
100
AcDbLine
 10
473.470589276545
 20
1448.994269174573
 30
0.0
 11
444.970589276545
 21
1420.494269174574
 31
0.0
  0
LINE
  5
18D88
330
18C7A
100
AcDbEntity
  8
部品1
100
AcDbLine
 10
471.9705892765232
 20
1392.494269174465
 30
0.0
 11
416.9705892765486
 21
1392.494269174465
 31
0.0
  0
LINE
  5
18D89
330
18C7A
100
AcDbEntity
  8
部品1
100
AcDbLine
 10
444.9705892765305
 20
1447.494269174429
 30
0.0
 11
416.9705892765469
 21
1447.494269174429
 31
0.0
  0
LINE
  5
18D8A
330
18C7A
100
AcDbEntity
  8
部品1
100
AcDbLine
 10
444.9705892765305
 20
1447.494269174465
 30
0.0
 11
416.9705892765469
 21
1447.494269174465
 31
0.0
  0
LINE
  5
18D8B
330
18C7A
100
AcDbEntity
  8
部品1
100
AcDbLine
 10
444.9705892765469
 20
1447.49426917448
 30
0.0
 11
416.9705892765469
 21
1447.49426917448
 31
0.0
  0
LINE
  5
18D8C
330
18C7A
100
AcDbEntity
  8
部品1
100
AcDbLine
 10
416.9705892765469
 20
1447.494269174429
 30
0.0
 11
416.9705892765486
 21
1392.494269174433
 31
0.0
  0
LINE
  5
18D8D
330
18C7A
100
AcDbEntity
  8
部品1
100
AcDbLine
 10
416.9705892765196
 20
3182.494269174477
 30
0.0
 11
416.9705892765486
 21
1392.494269174465
 31
0.0
  0
LINE
  5
18D8E
330
18C7A
100
AcDbEntity
  8
部品1
100
AcDbLine
 10
444.9705892765305
 20
1420.494269174556
 30
0.0
 11
444.9705892765559
 21
3154.494269174509
 31
0.0
  0
LINE
  5
18D8F
330
18C7A
100
AcDbEntity
  8
部品1
100
AcDbLine
 10
473.4705892765323
 20
2702.494269174608
 30
0.0
 11
473.470589276545
 21
1448.994269174571
 31
0.0
  0
LINE
  5
18D90
330
18C7A
100
AcDbEntity
  8
破線
 48
10.0
100
AcDbLine
 10
496.9705892765305
 20
2702.494269174608
 30
0.0
 11
496.9705892765451
 21
1472.494269174476
 31
0.0
  0
DIMENSION
  5
18D91
330
18C7A
100
AcDbEntity
  8
寸法
100
AcDbDimension
  2
*D8
 10
3886.970589276531
 20
410.7433333855515
 30
0.0
 11
2168.197775309287
 21
410.7433333855515
 31
0.0
 12
-3742.925985830444
 22
-6453.628869860112
 32
0.0
 70
   128
 71
     5
 42
3469.999999999982
  3
INABA_S40G
100
AcDbAlignedDimension
 13
416.9705892765486
 23
1392.494269174433
 33
0.0
 14
3886.970589276531
 24
1392.49426917456
 34
0.0
100
AcDbRotatedDimension
1001
ACAD
1000
DSTYLE
1002
{
1070
   341
1005
0
1002
}
  0
LINE
  5
18D92
330
18C7A
100
AcDbEntity
  8
部品1
100
AcDbLine
 10
444.9705892765559
 20
3154.494269174624
 30
0.0
 11
1509.470589276487
 21
3154.494269174626
 31
0.0
  0
LINE
  5
18D93
330
18C7A
100
AcDbEntity
  8
部品1
100
AcDbLine
 10
3886.970589276531
 20
1392.494269174596
 30
0.0
 11
3411.970589276556
 21
1392.494269174582
 31
0.0
  0
LINE
  5
18D94
330
18C7A
100
AcDbEntity
  8
部品1
100
AcDbLine
 10
416.9705892765559
 20
3182.494269174509
 30
0.0
 11
3886.970589276556
 21
3182.494269174604
 31
0.0
  0
LINE
  5
18D95
330
18C7A
100
AcDbEntity
  8
部品1
100
AcDbLine
 10
445.4705892765559
 20
2702.494269174509
 30
0.0
 11
1508.470589276487
 21
2702.494269174558
 31
0.0
  0
LINE
  5
18D96
330
18C7A
100
AcDbEntity
  8
細線
 48
50.0
100
AcDbLine
 10
2767.470589276556
 20
3152.494269174611
 30
0.0
 11
1536.470589276487
 21
2702.494269174558
 31
0.0
  0
LINE
  5
18D97
330
18C7A
100
AcDbEntity
  8
部品1
100
AcDbLine
 10
445.4705892765542
 20
3152.494269174509
 30
0.0
 11
1508.470589276485
 21
3152.494269174558
 31
0.0
  0
LINE
  5
18D98
330
18C7A
100
AcDbEntity
  8
細線
 48
50.0
100
AcDbLine
 10
2767.470589276554
 20
2702.494269174615
 30
0.0
 11
1536.470589276485
 21
3152.494269174558
 31
0.0
  0
LINE
  5
18D99
330
18C7A
100
AcDbEntity
  8
破線
 48
10.0
100
AcDbLine
 10
2126.970589276534
 20
1472.494269174502
 30
0.0
 11
1344.47058927653
 21
1472.494269174473
 31
0.0
  0
LINE
  5
18D9A
330
18C7A
100
AcDbEntity
  8
部品1
100
AcDbLine
 10
3830.470589276556
 20
1448.994269174596
 30
0.0
 11
473.4705892764487
 21
1448.994269174476
 31
0.0
  0
DIMENSION
  5
18D9B
330
18C7A
100
AcDbEntity
  8
寸法
100
AcDbDimension
  2
*D7
 10
471.970589276555
 20
3698.302488799491
 30
0.0
 11
108.4853079022819
 21
3698.302488799491
 31
0.0
 12
-3742.925985830444
 22
-6453.628869860112
 32
0.0
 70
   128
 71
     5
 42
55.00000000003456
  3
INABA_S40G
100
AcDbAlignedDimension
 13
416.9705892765205
 23
3182.494269174509
 33
0.0
 14
471.970589276555
 24
3182.494269174509
 34
0.0
100
AcDbRotatedDimension
1001
ACAD
1000
DSTYLE
1002
{
1002
}
  0
DIMENSION
  5
18D9C
330
18C7A
100
AcDbEntity
  8
寸法
100
AcDbDimension
  2
*D6
 10
4534.396935010967
 20
3127.494269174607
 30
0.0
 11
4534.396935010965
 21
3490.979550548844
 31
0.0
 12
-3742.925985830444
 22
-6453.628869860112
 32
0.0
 70
   128
 71
     5
 42
54.99999999999636
  3
INABA_S40G
100
AcDbAlignedDimension
 13
3886.970589276556
 23
3182.494269174604
 33
0.0
 14
3886.970589276556
 24
3127.494269174607
 34
0.0
 50
90.0
100
AcDbRotatedDimension
1001
ACAD
1000
DSTYLE
1002
{
1002
}
  0
DIMENSION
  5
18D9D
330
18C7A
100
AcDbEntity
  8
寸法
100
AcDbDimension
  2
*D5
 10
3886.970589276556
 20
3698.302488799589
 30
0.0
 11
4195.455870650794
 21
3698.302488799589
 31
0.0
 12
-3742.925985830444
 22
-6453.628869860112
 32
0.0
 70
   128
 71
     5
 42
55.0
  3
INABA_S40G
100
AcDbAlignedDimension
 13
3831.970589276556
 23
3182.494269174604
 33
0.0
 14
3886.970589276556
 24
3182.494269174604
 34
0.0
100
AcDbRotatedDimension
1001
ACAD
1000
DSTYLE
1002
{
1002
}
  0
DIMENSION
  5
18D9E
330
18C7A
100
AcDbEntity
  8
寸法
100
AcDbDimension
  2
*D4
 10
3831.970589276556
 20
3698.302488799607
 30
0.0
 11
2151.970589276555
 21
3698.302488799607
 31
0.0
 12
-3742.925985830444
 22
-6453.628869860112
 32
0.0
 70
   128
  1
8X420=<>
 71
     5
 42
3360.000000000001
  3
INABA_S40G
100
AcDbAlignedDimension
 13
471.970589276555
 23
3182.494269174509
 33
0.0
 14
3831.970589276556
 24
3182.494269174604
 34
0.0
100
AcDbRotatedDimension
1001
ACAD
1000
DSTYLE
1002
{
1002
}
  0
DIMENSION
  5
18D9F
330
18C7A
100
AcDbEntity
  8
寸法
100
AcDbDimension
  2
*D3
 10
4899.503876750603
 20
1392.494269174596
 30
0.0
 11
4899.503876750601
 21
2287.4942691746
 31
0.0
 12
-3742.925985830444
 22
-6453.628869860112
 32
0.0
 70
   128
 71
     5
 42
1790.000000000007
  3
INABA_S40G
100
AcDbAlignedDimension
 13
3886.970589276556
 23
3182.494269174604
 33
0.0
 14
3886.970589276531
 24
1392.494269174596
 34
0.0
 50
90.0
100
AcDbRotatedDimension
1001
ACAD
1000
DSTYLE
1002
{
1002
}
  0
ENDBLK
  5
18DA1
330
18C7A
100
AcDbEntity
  8
0
 48
50.0
100
AcDbBlockEnd
  0
BLOCK
  5
1C4CB
330
1C4CA
100
AcDbEntity
  8
0
 48
50.0
100
AcDbBlockBegin
  2
_NONE
 70
     0
 10
0.0
 20
0.0
 30
0.0
  3
_NONE
  1

  0
CIRCLE
  5
1C4CC
330
1C4CA
100
AcDbEntity
  8
0
  6
ByBlock
 62
     0
 48
50.0
100
AcDbCircle
 10
0.0
 20
0.0
 30
0.0
 40
0.25
  0
ENDBLK
  5
1C4CD
330
1C4CA
100
AcDbEntity
  8
0
 48
50.0
100
AcDbBlockEnd
  0
BLOCK
  5
20DEE
330
20DE2
100
AcDbEntity
  8
0
 48
50.0
100
AcDbBlockBegin
  2
*D19
 70
     1
 10
0.0
 20
0.0
 30
0.0
  3
*D19
  1

  0
LINE
  5
27B69
330
20DE2
100
AcDbEntity
  8
寸法
 62
     0
 48
50.0
370
    -2
100
AcDbLine
 10
12328.6
 20
7454.346831367056
 30
0.0
 11
12328.6
 21
8452.567153425979
 31
0.0
  0
LINE
  5
27B6A
330
20DE2
100
AcDbEntity
  8
寸法
 62
     0
 48
50.0
370
    -2
100
AcDbLine
 10
12373.6
 20
8180.613289460966
 30
0.0
 11
12373.6
 21
8452.567153425979
 31
0.0
  0
LINE
  5
27B6B
330
20DE2
100
AcDbEntity
  8
寸法
 62
     0
 48
50.0
370
    -2
100
AcDbLine
 10
12328.6
 20
8392.567153425977
 30
0.0
 11
12228.6
 21
8392.567153425977
 31
0.0
  0
LINE
  5
27B6C
330
20DE2
100
AcDbEntity
  8
寸法
 62
     0
 48
50.0
370
    -2
100
AcDbLine
 10
12373.6
 20
8392.567153425977
 30
0.0
 11
12710.94924240492
 21
8392.567153425977
 31
0.0
  0
LINE
  5
27B6D
330
20DE2
100
AcDbEntity
  8
寸法
 62
     0
 48
50.0
370
    -2
100
AcDbLine
 10
12328.6
 20
8392.567153425977
 30
0.0
 11
12373.6
 21
8392.567153425977
 31
0.0
  0
INSERT
  5
27B6E
330
20DE2
100
AcDbEntity
  8
寸法
 62
     0
 48
50.0
370
    -2
100
AcDbBlockReference
  2
_DOTSMALL
 10
12328.6
 20
8392.567153425977
 30
0.0
 41
100.0
 42
100.0
 43
100.0
  0
INSERT
  5
27B6F
330
20DE2
100
AcDbEntity
  8
寸法
 62
     0
 48
50.0
370
    -2
100
AcDbBlockReference
  2
_DOTSMALL
 10
12373.6
 20
8392.567153425977
 30
0.0
 41
100.0
 42
100.0
 43
100.0
 50
180.0
  0
MTEXT
  5
27B70
330
20DE2
100
AcDbEntity
  8
寸法
 62
     7
 48
50.0
100
AcDbMText
 10
12644.77462120246
 20
8492.567153425978
 30
0.0
 40
120.0
 41
0.0
 71
     5
 72
     1
  1
\A1;a
  7
STYLE1
 73
     1
 44
1.0
1001
ACAD
1000
MTEXTBEGIN
1070
    73
1070
     1
1070
    44
1040
1.0
1070
    74
1070
     0
1000
MTEXTEND
  0
POINT
  5
27B71
330
20DE2
100
AcDbEntity
  8
DEFPOINTS
 62
     0
 48
50.0
100
AcDbPoint
 10
12328.6
 20
7434.346831367055
 30
0.0
  0
POINT
  5
27B72
330
20DE2
100
AcDbEntity
  8
DEFPOINTS
 62
     0
 48
50.0
100
AcDbPoint
 10
12373.6
 20
8160.613289460966
 30
0.0
  0
POINT
  5
27B73
330
20DE2
100
AcDbEntity
  8
DEFPOINTS
 62
     0
 48
50.0
100
AcDbPoint
 10
12373.6
 20
8392.567153425977
 30
0.0
  0
ENDBLK
  5
20DEF
330
20DE2
100
AcDbEntity
  8
0
 48
50.0
100
AcDbBlockEnd
  0
BLOCK
  5
20E08
330
20DFC
100
AcDbEntity
  8
0
 48
50.0
100
AcDbBlockBegin
  2
*D20
 70
     1
 10
0.0
 20
0.0
 30
0.0
  3
*D20
  1

  0
LINE
  5
27B74
330
20DFC
100
AcDbEntity
  8
寸法
 62
     0
 48
50.0
370
    -2
100
AcDbLine
 10
4073.6
 20
8180.613289460955
 30
0.0
 11
4073.6
 21
8452.567153425965
 31
0.0
  0
LINE
  5
27B75
330
20DFC
100
AcDbEntity
  8
寸法
 62
     0
 48
50.0
370
    -2
100
AcDbLine
 10
4118.6
 20
7454.346831367044
 30
0.0
 11
4118.6
 21
8452.567153425965
 31
0.0
  0
LINE
  5
27B76
330
20DFC
100
AcDbEntity
  8
寸法
 62
     0
 48
50.0
370
    -2
100
AcDbLine
 10
4118.6
 20
8392.567153425964
 30
0.0
 11
4218.600000000001
 21
8392.567153425964
 31
0.0
  0
LINE
  5
27B77
330
20DFC
100
AcDbEntity
  8
寸法
 62
     0
 48
50.0
370
    -2
100
AcDbLine
 10
4073.6
 20
8392.567153425964
 30
0.0
 11
3736.250757595082
 21
8392.567153425964
 31
0.0
  0
LINE
  5
27B78
330
20DFC
100
AcDbEntity
  8
寸法
 62
     0
 48
50.0
370
    -2
100
AcDbLine
 10
4118.6
 20
8392.567153425964
 30
0.0
 11
4073.6
 21
8392.567153425964
 31
0.0
  0
INSERT
  5
27B79
330
20DFC
100
AcDbEntity
  8
寸法
 62
     0
 48
50.0
370
    -2
100
AcDbBlockReference
  2
_DOTSMALL
 10
4118.6
 20
8392.567153425964
 30
0.0
 41
100.0
 42
100.0
 43
100.0
 50
180.0
  0
INSERT
  5
27B7A
330
20DFC
100
AcDbEntity
  8
寸法
 62
     0
 48
50.0
370
    -2
100
AcDbBlockReference
  2
_DOTSMALL
 10
4073.6
 20
8392.567153425964
 30
0.0
 41
100.0
 42
100.0
 43
100.0
  0
MTEXT
  5
27B7B
330
20DFC
100
AcDbEntity
  8
寸法
 62
     7
 48
50.0
100
AcDbMText
 10
3802.425378797541
 20
8492.567153425964
 30
0.0
 40
120.0
 41
0.0
 71
     5
 72
     1
  1
\A1;a
  7
STYLE1
 73
     1
 44
1.0
1001
ACAD
1000
MTEXTBEGIN
1070
    73
1070
     1
1070
    44
1040
1.0
1070
    74
1070
     0
1000
MTEXTEND
  0
POINT
  5
27B7C
330
20DFC
100
AcDbEntity
  8
DEFPOINTS
 62
     0
 48
50.0
100
AcDbPoint
 10
4073.6
 20
8160.613289460956
 30
0.0
  0
POINT
  5
27B7D
330
20DFC
100
AcDbEntity
  8
DEFPOINTS
 62
     0
 48
50.0
100
AcDbPoint
 10
4118.6
 20
7434.346831367044
 30
0.0
  0
POINT
  5
27B7E
330
20DFC
100
AcDbEntity
  8
DEFPOINTS
 62
     0
 48
50.0
100
AcDbPoint
 10
4118.6
 20
8392.567153425964
 30
0.0
  0
ENDBLK
  5
20E09
330
20DFC
100
AcDbEntity
  8
0
 48
50.0
100
AcDbBlockEnd
  0
BLOCK
  5
2274E
330
22742
100
AcDbEntity
  8
0
 48
50.0
100
AcDbBlockBegin
  2
*D25
 70
     1
 10
0.0
 20
0.0
 30
0.0
  3
*D25
  1

  0
LINE
  5
27B7F
330
22742
100
AcDbEntity
  8
寸法
 62
     0
 48
50.0
370
    -2
100
AcDbLine
 10
3475.665006330064
 20
7509.346831367051
 30
0.0
 11
3183.721909610673
 21
7509.346831367051
 31
0.0
  0
LINE
  5
27B80
330
22742
100
AcDbEntity
  8
寸法
 62
     0
 48
50.0
370
    -2
100
AcDbLine
 10
4098.6
 20
7434.346831367044
 30
0.0
 11
3183.721909610673
 21
7434.346831367044
 31
0.0
  0
LINE
  5
27B81
330
22742
100
AcDbEntity
  8
寸法
 62
     0
 48
50.0
370
    -2
100
AcDbLine
 10
3243.721909610673
 20
7509.346831367051
 30
0.0
 11
3243.721909610673
 21
7609.346831367052
 31
0.0
  0
LINE
  5
27B82
330
22742
100
AcDbEntity
  8
寸法
 62
     0
 48
50.0
370
    -2
100
AcDbLine
 10
3243.721909610673
 20
7434.346831367044
 30
0.0
 11
3243.721909610673
 21
7334.346831367044
 31
0.0
  0
LINE
  5
27B83
330
22742
100
AcDbEntity
  8
寸法
 62
     0
 48
50.0
370
    -2
100
AcDbLine
 10
3243.721909610673
 20
7509.346831367051
 30
0.0
 11
3243.721909610673
 21
7434.346831367044
 31
0.0
  0
INSERT
  5
27B84
330
22742
100
AcDbEntity
  8
寸法
 62
     0
 48
50.0
370
    -2
100
AcDbBlockReference
  2
_DOTSMALL
 10
3243.721909610673
 20
7509.346831367051
 30
0.0
 41
100.0
 42
100.0
 43
100.0
 50
270.0
  0
INSERT
  5
27B85
330
22742
100
AcDbEntity
  8
寸法
 62
     0
 48
50.0
370
    -2
100
AcDbBlockReference
  2
_DOTSMALL
 10
3243.721909610673
 20
7434.346831367044
 30
0.0
 41
100.0
 42
100.0
 43
100.0
 50
90.0
  0
MTEXT
  5
27B86
330
22742
100
AcDbEntity
  8
寸法
 62
     7
 48
50.0
100
AcDbMText
 10
3143.721909610672
 20
7471.84683136705
 30
0.0
 40
120.0
 41
0.0
 71
     5
 72
     1
  1
\A1;c
  7
STYLE1
 11
0.0000000000000001
 21
1.0
 31
0.0
 73
     1
 44
1.0
1001
ACAD
1000
MTEXTBEGIN
1070
    73
1070
     1
1070
    44
1040
1.0
1070
    74
1070
     0
1000
MTEXTEND
  0
POINT
  5
27B87
330
22742
100
AcDbEntity
  8
DEFPOINTS
 62
     0
 48
50.0
100
AcDbPoint
 10
3495.665006330064
 20
7509.346831367051
 30
0.0
  0
POINT
  5
27B88
330
22742
100
AcDbEntity
  8
DEFPOINTS
 62
     0
 48
50.0
100
AcDbPoint
 10
4118.6
 20
7434.346831367044
 30
0.0
  0
POINT
  5
27B89
330
22742
100
AcDbEntity
  8
DEFPOINTS
 62
     0
 48
50.0
100
AcDbPoint
 10
3243.721909610673
 20
7434.346831367044
 30
0.0
  0
ENDBLK
  5
2274F
330
22742
100
AcDbEntity
  8
0
 48
50.0
100
AcDbBlockEnd
  0
BLOCK
  5
22768
330
2275C
100
AcDbEntity
  8
0
 48
50.0
100
AcDbBlockBegin
  2
*D26
 70
     1
 10
0.0
 20
0.0
 30
0.0
  3
*D26
  1

  0
LINE
  5
27B8A
330
2275C
100
AcDbEntity
  8
寸法
 62
     0
 48
50.0
370
    -2
100
AcDbLine
 10
4098.6
 20
5894.346831367044
 30
0.0
 11
3183.721909610673
 21
5894.346831367044
 31
0.0
  0
LINE
  5
27B8B
330
2275C
100
AcDbEntity
  8
寸法
 62
     0
 48
50.0
370
    -2
100
AcDbLine
 10
3475.665006330071
 20
5839.34683136707
 30
0.0
 11
3183.721909610673
 21
5839.34683136707
 31
0.0
  0
LINE
  5
27B8C
330
2275C
100
AcDbEntity
  8
寸法
 62
     0
 48
50.0
370
    -2
100
AcDbLine
 10
3243.721909610673
 20
5894.346831367044
 30
0.0
 11
3243.721909610673
 21
5994.346831367043
 31
0.0
  0
LINE
  5
27B8D
330
2275C
100
AcDbEntity
  8
寸法
 62
     0
 48
50.0
370
    -2
100
AcDbLine
 10
3243.721909610673
 20
5839.34683136707
 30
0.0
 11
3243.721909610673
 21
5739.346831367069
 31
0.0
  0
LINE
  5
27B8E
330
2275C
100
AcDbEntity
  8
寸法
 62
     0
 48
50.0
370
    -2
100
AcDbLine
 10
3243.721909610673
 20
5894.346831367044
 30
0.0
 11
3243.721909610673
 21
5839.34683136707
 31
0.0
  0
INSERT
  5
27B8F
330
2275C
100
AcDbEntity
  8
寸法
 62
     0
 48
50.0
370
    -2
100
AcDbBlockReference
  2
_DOTSMALL
 10
3243.721909610673
 20
5894.346831367044
 30
0.0
 41
100.0
 42
100.0
 43
100.0
 50
270.0
  0
INSERT
  5
27B90
330
2275C
100
AcDbEntity
  8
寸法
 62
     0
 48
50.0
370
    -2
100
AcDbBlockReference
  2
_DOTSMALL
 10
3243.721909610673
 20
5839.34683136707
 30
0.0
 41
100.0
 42
100.0
 43
100.0
 50
90.0
  0
MTEXT
  5
27B91
330
2275C
100
AcDbEntity
  8
寸法
 62
     7
 48
50.0
100
AcDbMText
 10
3143.721909610672
 20
5866.846831367057
 30
0.0
 40
120.0
 41
0.0
 71
     5
 72
     1
  1
\A1;b
  7
STYLE1
 11
0.0000000000000001
 21
1.0
 31
0.0
 73
     1
 44
1.0
1001
ACAD
1000
MTEXTBEGIN
1070
    73
1070
     1
1070
    44
1040
1.0
1070
    74
1070
     0
1000
MTEXTEND
  0
POINT
  5
27B92
330
2275C
100
AcDbEntity
  8
DEFPOINTS
 62
     0
 48
50.0
100
AcDbPoint
 10
4118.6
 20
5894.346831367044
 30
0.0
  0
POINT
  5
27B93
330
2275C
100
AcDbEntity
  8
DEFPOINTS
 62
     0
 48
50.0
100
AcDbPoint
 10
3495.665006330071
 20
5839.34683136707
 30
0.0
  0
POINT
  5
27B94
330
2275C
100
AcDbEntity
  8
DEFPOINTS
 62
     0
 48
50.0
100
AcDbPoint
 10
3243.721909610673
 20
5839.34683136707
 30
0.0
  0
ENDBLK
  5
22769
330
2275C
100
AcDbEntity
  8
0
 48
50.0
100
AcDbBlockEnd
  0
BLOCK
  5
2749B
330
27491
100
AcDbEntity
  8
0
 48
50.0
100
AcDbBlockBegin
  2
*D27
 70
     1
 10
0.0
 20
0.0
 30
0.0
  3
*D27
  1

  0
LINE
  5
27A65
330
27491
100
AcDbEntity
  8
寸法
 62
     0
 48
50.0
370
    -2
100
AcDbLine
 10
12205.6
 20
7381.346831367044
 30
0.0
 11
12205.6
 21
8220.613289460954
 31
0.0
  0
LINE
  5
27A66
330
27491
100
AcDbEntity
  8
寸法
 62
     0
 48
50.0
370
    -2
100
AcDbLine
 10
9745.600000000001
 20
7381.346831367044
 30
0.0
 11
9745.600000000001
 21
8220.613289460954
 31
0.0
  0
LINE
  5
27A67
330
27491
100
AcDbEntity
  8
寸法
 62
     0
 48
50.0
370
    -2
100
AcDbLine
 10
12205.6
 20
8160.613289460954
 30
0.0
 11
9745.600000000001
 21
8160.613289460954
 31
0.0
  0
INSERT
  5
27A68
330
27491
100
AcDbEntity
  8
寸法
 62
     0
 48
50.0
370
    -2
100
AcDbBlockReference
  2
_DOTSMALL
 10
12205.6
 20
8160.613289460954
 30
0.0
 41
100.0
 42
100.0
 43
100.0
  0
INSERT
  5
27A69
330
27491
100
AcDbEntity
  8
寸法
 62
     0
 48
50.0
370
    -2
100
AcDbBlockReference
  2
_DOTSMALL
 10
9745.600000000001
 20
8160.613289460954
 30
0.0
 41
100.0
 42
100.0
 43
100.0
 50
180.0
  0
MTEXT
  5
27A6A
330
27491
100
AcDbEntity
  8
寸法
 62
     7
 48
50.0
100
AcDbMText
 10
10975.6
 20
8260.625100484576
 30
0.0
 40
120.0
 41
0.0
 71
     5
 72
     1
  1
\A1;2460
  7
STYLE1
 73
     1
 44
1.0
1001
ACAD
1000
MTEXTBEGIN
1070
    73
1070
     1
1070
    44
1040
1.0
1070
    74
1070
     0
1000
MTEXTEND
  0
POINT
  5
27A6B
330
27491
100
AcDbEntity
  8
DEFPOINTS
 62
     0
 48
50.0
100
AcDbPoint
 10
12205.6
 20
7361.346831367043
 30
0.0
  0
POINT
  5
27A6C
330
27491
100
AcDbEntity
  8
DEFPOINTS
 62
     0
 48
50.0
100
AcDbPoint
 10
9745.600000000001
 20
7361.346831367043
 30
0.0
  0
POINT
  5
27A6D
330
27491
100
AcDbEntity
  8
DEFPOINTS
 62
     0
 48
50.0
100
AcDbPoint
 10
9745.600000000001
 20
8160.613289460954
 30
0.0
  0
ENDBLK
  5
2749C
330
27491
100
AcDbEntity
  8
0
 48
50.0
100
AcDbBlockEnd
  0
BLOCK
  5
274A8
330
2749D
100
AcDbEntity
  8
0
 48
50.0
100
AcDbBlockBegin
  2
*D28
 70
     1
 10
0.0
 20
0.0
 30
0.0
  3
*D28
  1

  0
LINE
  5
27A5B
330
2749D
100
AcDbEntity
  8
寸法
 62
     0
 48
50.0
370
    -2
100
AcDbLine
 10
12328.6
 20
7454.346831367044
 30
0.0
 11
12328.6
 21
8220.613289460954
 31
0.0
  0
LINE
  5
27A5C
330
2749D
100
AcDbEntity
  8
寸法
 62
     0
 48
50.0
370
    -2
100
AcDbLine
 10
12205.6
 20
7381.346831367044
 30
0.0
 11
12205.6
 21
8220.613289460954
 31
0.0
  0
LINE
  5
27A5D
330
2749D
100
AcDbEntity
  8
寸法
 62
     0
 48
50.0
370
    -2
100
AcDbLine
 10
12205.6
 20
8160.613289460954
 30
0.0
 11
12328.6
 21
8160.613289460954
 31
0.0
  0
LINE
  5
27A5E
330
2749D
100
AcDbEntity
  8
寸法
 62
     0
 48
50.0
370
    -2
100
AcDbLine
 10
12328.6
 20
8160.613289460954
 30
0.0
 11
12740.19188309204
 21
8160.613289460954
 31
0.0
  0
INSERT
  5
27A5F
330
2749D
100
AcDbEntity
  8
寸法
 62
     0
 48
50.0
370
    -2
100
AcDbBlockReference
  2
_DOTSMALL
 10
12205.6
 20
8160.613289460954
 30
0.0
 41
100.0
 42
100.0
 43
100.0
 50
180.0
  0
INSERT
  5
27A60
330
2749D
100
AcDbEntity
  8
寸法
 62
     0
 48
50.0
370
    -2
100
AcDbBlockReference
  2
_DOTSMALL
 10
12328.6
 20
8160.613289460954
 30
0.0
 41
100.0
 42
100.0
 43
100.0
  0
MTEXT
  5
27A61
330
2749D
100
AcDbEntity
  8
寸法
 62
     7
 48
50.0
100
AcDbMText
 10
12601.7066017178
 20
8260.625100484576
 30
0.0
 40
120.0
 41
0.0
 71
     5
 72
     1
  1
\A1;123
  7
STYLE1
 73
     1
 44
1.0
1001
ACAD
1000
MTEXTBEGIN
1070
    73
1070
     1
1070
    44
1040
1.0
1070
    74
1070
     0
1000
MTEXTEND
  0
POINT
  5
27A62
330
2749D
100
AcDbEntity
  8
DEFPOINTS
 62
     0
 48
50.0
100
AcDbPoint
 10
12328.6
 20
7434.346831367044
 30
0.0
  0
POINT
  5
27A63
330
2749D
100
AcDbEntity
  8
DEFPOINTS
 62
     0
 48
50.0
100
AcDbPoint
 10
12205.6
 20
7361.346831367043
 30
0.0
  0
POINT
  5
27A64
330
2749D
100
AcDbEntity
  8
DEFPOINTS
 62
     0
 48
50.0
100
AcDbPoint
 10
12205.6
 20
8160.613289460954
 30
0.0
  0
ENDBLK
  5
274A9
330
2749D
100
AcDbEntity
  8
0
 48
50.0
100
AcDbBlockEnd
  0
BLOCK
  5
274C2
330
274B7
100
AcDbEntity
  8
0
 48
50.0
100
AcDbBlockBegin
  2
*D29
 70
     1
 10
0.0
 20
0.0
 30
0.0
  3
*D29
  1

  0
LINE
  5
27D58
330
274B7
100
AcDbEntity
  8
寸法
 62
     0
 48
50.0
370
    -2
100
AcDbLine
 10
12328.6
 20
6935.712888436619
 30
0.0
 11
12328.6
 21
6878.719624397787
 31
0.0
  0
LINE
  5
27D59
330
274B7
100
AcDbEntity
  8
寸法
 62
     0
 48
50.0
370
    -2
100
AcDbLine
 10
12208.6
 20
6958.719624397787
 30
0.0
 11
12208.6
 21
6998.719624397788
 31
0.0
  0
LINE
  5
27D5A
330
274B7
100
AcDbEntity
  8
寸法
 62
     0
 48
50.0
370
    -2
100
AcDbLine
 10
12208.6
 20
6938.719624397787
 30
0.0
 11
12328.6
 21
6938.719624397787
 31
0.0
  0
LINE
  5
27D5B
330
274B7
100
AcDbEntity
  8
寸法
 62
     0
 48
50.0
370
    -2
100
AcDbLine
 10
12328.6
 20
6938.719624397787
 30
0.0
 11
12734.7062992126
 21
6938.719624397787
 31
0.0
  0
INSERT
  5
27D5C
330
274B7
100
AcDbEntity
  8
寸法
 62
     0
 48
50.0
370
    -2
100
AcDbBlockReference
  2
_DOTSMALL
 10
12208.6
 20
6938.719624397787
 30
0.0
 41
100.0
 42
100.0
 43
100.0
 50
180.0
  0
INSERT
  5
27D5D
330
274B7
100
AcDbEntity
  8
寸法
 62
     0
 48
50.0
370
    -2
100
AcDbBlockReference
  2
_DOTSMALL
 10
12328.6
 20
6938.719624397787
 30
0.0
 41
100.0
 42
100.0
 43
100.0
  0
MTEXT
  5
27D5E
330
274B7
100
AcDbEntity
  8
寸法
 62
     7
 48
50.0
100
AcDbMText
 10
12598.65905511811
 20
7038.731435421408
 30
0.0
 40
120.0
 41
0.0
 71
     5
 72
     1
  1
\A1;120
  7
STYLE1
 73
     1
 44
1.0
1001
ACAD
1000
MTEXTBEGIN
1070
    73
1070
     1
1070
    44
1040
1.0
1070
    74
1070
     0
1000
MTEXTEND
  0
POINT
  5
27D5F
330
274B7
100
AcDbEntity
  8
DEFPOINTS
 62
     0
 48
50.0
100
AcDbPoint
 10
12328.6
 20
6955.712888436619
 30
0.0
  0
POINT
  5
27D60
330
274B7
100
AcDbEntity
  8
DEFPOINTS
 62
     0
 48
50.0
100
AcDbPoint
 10
12208.6
 20
6938.719624397787
 30
0.0
  0
POINT
  5
27D61
330
274B7
100
AcDbEntity
  8
DEFPOINTS
 62
     0
 48
50.0
100
AcDbPoint
 10
12208.6
 20
6938.719624397787
 30
0.0
  0
ENDBLK
  5
274C3
330
274B7
100
AcDbEntity
  8
0
 48
50.0
100
AcDbBlockEnd
  0
BLOCK
  5
274CE
330
274C4
100
AcDbEntity
  8
0
 48
50.0
100
AcDbBlockBegin
  2
*D30
 70
     1
 10
0.0
 20
0.0
 30
0.0
  3
*D30
  1

  0
LINE
  5
27B01
330
274C4
100
AcDbEntity
  8
寸法
 62
     0
 48
50.0
370
    -2
100
AcDbLine
 10
9745.600000000001
 20
7381.346831367044
 30
0.0
 11
9745.600000000001
 21
8220.613289460954
 31
0.0
  0
LINE
  5
27B02
330
274C4
100
AcDbEntity
  8
寸法
 62
     0
 48
50.0
370
    -2
100
AcDbLine
 10
8105.6
 20
7381.346831367044
 30
0.0
 11
8105.6
 21
8220.613289460954
 31
0.0
  0
LINE
  5
27B03
330
274C4
100
AcDbEntity
  8
寸法
 62
     0
 48
50.0
370
    -2
100
AcDbLine
 10
9745.600000000001
 20
8160.613289460954
 30
0.0
 11
8105.6
 21
8160.613289460954
 31
0.0
  0
INSERT
  5
27B04
330
274C4
100
AcDbEntity
  8
寸法
 62
     0
 48
50.0
370
    -2
100
AcDbBlockReference
  2
_DOTSMALL
 10
9745.600000000001
 20
8160.613289460954
 30
0.0
 41
100.0
 42
100.0
 43
100.0
  0
INSERT
  5
27B05
330
274C4
100
AcDbEntity
  8
寸法
 62
     0
 48
50.0
370
    -2
100
AcDbBlockReference
  2
_DOTSMALL
 10
8105.6
 20
8160.613289460954
 30
0.0
 41
100.0
 42
100.0
 43
100.0
 50
180.0
  0
MTEXT
  5
27B06
330
274C4
100
AcDbEntity
  8
寸法
 62
     7
 48
50.0
100
AcDbMText
 10
8925.600000000001
 20
8260.613289460954
 30
0.0
 40
120.0
 41
0.0
 71
     5
 72
     1
  1
\A1;1640
  7
STYLE1
 73
     1
 44
1.0
1001
ACAD
1000
MTEXTBEGIN
1070
    73
1070
     1
1070
    44
1040
1.0
1070
    74
1070
     0
1000
MTEXTEND
  0
POINT
  5
27B07
330
274C4
100
AcDbEntity
  8
DEFPOINTS
 62
     0
 48
50.0
100
AcDbPoint
 10
9745.600000000001
 20
7361.346831367043
 30
0.0
  0
POINT
  5
27B08
330
274C4
100
AcDbEntity
  8
DEFPOINTS
 62
     0
 48
50.0
100
AcDbPoint
 10
8105.6
 20
7361.346831367043
 30
0.0
  0
POINT
  5
27B09
330
274C4
100
AcDbEntity
  8
DEFPOINTS
 62
     0
 48
50.0
100
AcDbPoint
 10
8105.6
 20
8160.613289460954
 30
0.0
  0
ENDBLK
  5
274CF
330
274C4
100
AcDbEntity
  8
0
 48
50.0
100
AcDbBlockEnd
  0
BLOCK
  5
274DA
330
274D0
100
AcDbEntity
  8
0
 48
50.0
100
AcDbBlockBegin
  2
*D31
 70
     1
 10
0.0
 20
0.0
 30
0.0
  3
*D31
  1

  0
LINE
  5
27C2F
330
274D0
100
AcDbEntity
  8
寸法
 62
     0
 48
50.0
370
    -2
100
AcDbLine
 10
9043.600000000008
 20
6771.346831367043
 30
0.0
 11
9043.600000000008
 21
7976.955648037293
 31
0.0
  0
LINE
  5
27C30
330
274D0
100
AcDbEntity
  8
寸法
 62
     0
 48
50.0
370
    -2
100
AcDbLine
 10
8223.600000000015
 20
6771.346831367043
 30
0.0
 11
8223.600000000015
 21
7976.955648037293
 31
0.0
  0
LINE
  5
27C31
330
274D0
100
AcDbEntity
  8
寸法
 62
     0
 48
50.0
370
    -2
100
AcDbLine
 10
9043.600000000008
 20
7916.955648037292
 30
0.0
 11
8223.600000000015
 21
7916.955648037292
 31
0.0
  0
INSERT
  5
27C32
330
274D0
100
AcDbEntity
  8
寸法
 62
     0
 48
50.0
370
    -2
100
AcDbBlockReference
  2
_DOTSMALL
 10
9043.600000000008
 20
7916.955648037292
 30
0.0
 41
100.0
 42
100.0
 43
100.0
  0
INSERT
  5
27C33
330
274D0
100
AcDbEntity
  8
寸法
 62
     0
 48
50.0
370
    -2
100
AcDbBlockReference
  2
_DOTSMALL
 10
8223.600000000015
 20
7916.955648037292
 30
0.0
 41
100.0
 42
100.0
 43
100.0
 50
180.0
  0
MTEXT
  5
27C34
330
274D0
100
AcDbEntity
  8
寸法
 62
     7
 48
50.0
100
AcDbMText
 10
8633.600000000011
 20
8016.967459060913
 30
0.0
 40
120.0
 41
0.0
 71
     5
 72
     1
  1
\A1;820
  7
STYLE1
 73
     1
 44
1.0
1001
ACAD
1000
MTEXTBEGIN
1070
    73
1070
     1
1070
    44
1040
1.0
1070
    74
1070
     0
1000
MTEXTEND
  0
POINT
  5
27C35
330
274D0
100
AcDbEntity
  8
DEFPOINTS
 62
     0
 48
50.0
100
AcDbPoint
 10
9043.600000000008
 20
6751.346831367044
 30
0.0
  0
POINT
  5
27C36
330
274D0
100
AcDbEntity
  8
DEFPOINTS
 62
     0
 48
50.0
100
AcDbPoint
 10
8223.600000000015
 20
6751.346831367044
 30
0.0
  0
POINT
  5
27C37
330
274D0
100
AcDbEntity
  8
DEFPOINTS
 62
     0
 48
50.0
100
AcDbPoint
 10
8223.600000000015
 20
7916.955648037292
 30
0.0
  0
ENDBLK
  5
274DB
330
274D0
100
AcDbEntity
  8
0
 48
50.0
100
AcDbBlockEnd
  0
BLOCK
  5
274E6
330
274DC
100
AcDbEntity
  8
0
 48
50.0
100
AcDbBlockBegin
  2
*D32
 70
     1
 10
0.0
 20
0.0
 30
0.0
  3
*D32
  1

  0
LINE
  5
27AEF
330
274DC
100
AcDbEntity
  8
寸法
 62
     0
 48
50.0
370
    -2
100
AcDbLine
 10
4118.6
 20
7454.346831367044
 30
0.0
 11
4118.6
 21
8452.567153425961
 31
0.0
  0
LINE
  5
27AF0
330
274DC
100
AcDbEntity
  8
寸法
 62
     0
 48
50.0
370
    -2
100
AcDbLine
 10
12328.6
 20
7454.346831367044
 30
0.0
 11
12328.6
 21
8452.567153425961
 31
0.0
  0
LINE
  5
27AF1
330
274DC
100
AcDbEntity
  8
寸法
 62
     0
 48
50.0
370
    -2
100
AcDbLine
 10
4118.6
 20
8392.567153425963
 30
0.0
 11
12328.6
 21
8392.567153425963
 31
0.0
  0
INSERT
  5
27AF2
330
274DC
100
AcDbEntity
  8
寸法
 62
     0
 48
50.0
370
    -2
100
AcDbBlockReference
  2
_DOTSMALL
 10
4118.6
 20
8392.567153425963
 30
0.0
 41
100.0
 42
100.0
 43
100.0
 50
180.0
  0
INSERT
  5
27AF3
330
274DC
100
AcDbEntity
  8
寸法
 62
     0
 48
50.0
370
    -2
100
AcDbBlockReference
  2
_DOTSMALL
 10
12328.6
 20
8392.567153425963
 30
0.0
 41
100.0
 42
100.0
 43
100.0
  0
MTEXT
  5
27AF4
330
274DC
100
AcDbEntity
  8
寸法
 62
     7
 48
50.0
100
AcDbMText
 10
8223.600000000001
 20
8492.578964449583
 30
0.0
 40
120.0
 41
0.0
 71
     5
 72
     1
  1
\A1;8210
  7
STYLE1
 73
     1
 44
1.0
1001
ACAD
1000
MTEXTBEGIN
1070
    73
1070
     1
1070
    44
1040
1.0
1070
    74
1070
     0
1000
MTEXTEND
  0
POINT
  5
27AF5
330
274DC
100
AcDbEntity
  8
DEFPOINTS
 62
     0
 48
50.0
100
AcDbPoint
 10
4118.6
 20
7434.346831367044
 30
0.0
  0
POINT
  5
27AF6
330
274DC
100
AcDbEntity
  8
DEFPOINTS
 62
     0
 48
50.0
100
AcDbPoint
 10
12328.6
 20
7434.346831367044
 30
0.0
  0
POINT
  5
27AF7
330
274DC
100
AcDbEntity
  8
DEFPOINTS
 62
     0
 48
50.0
100
AcDbPoint
 10
12328.6
 20
8392.567153425963
 30
0.0
  0
ENDBLK
  5
274E7
330
274DC
100
AcDbEntity
  8
0
 48
50.0
100
AcDbBlockEnd
  0
BLOCK
  5
274F2
330
274E8
100
AcDbEntity
  8
0
 48
50.0
100
AcDbBlockBegin
  2
*D33
 70
     1
 10
0.0
 20
0.0
 30
0.0
  3
*D33
  1

  0
LINE
  5
27C53
330
274E8
100
AcDbEntity
  8
寸法
 62
     0
 48
50.0
370
    -2
100
AcDbLine
 10
7403.6
 20
6771.346831367043
 30
0.0
 11
7403.6
 21
7976.955648037293
 31
0.0
  0
LINE
  5
27C54
330
274E8
100
AcDbEntity
  8
寸法
 62
     0
 48
50.0
370
    -2
100
AcDbLine
 10
6583.600000000008
 20
6771.346831367043
 30
0.0
 11
6583.600000000008
 21
7976.955648037293
 31
0.0
  0
LINE
  5
27C55
330
274E8
100
AcDbEntity
  8
寸法
 62
     0
 48
50.0
370
    -2
100
AcDbLine
 10
7403.6
 20
7916.955648037292
 30
0.0
 11
6583.600000000008
 21
7916.955648037292
 31
0.0
  0
INSERT
  5
27C56
330
274E8
100
AcDbEntity
  8
寸法
 62
     0
 48
50.0
370
    -2
100
AcDbBlockReference
  2
_DOTSMALL
 10
7403.6
 20
7916.955648037292
 30
0.0
 41
100.0
 42
100.0
 43
100.0
  0
INSERT
  5
27C57
330
274E8
100
AcDbEntity
  8
寸法
 62
     0
 48
50.0
370
    -2
100
AcDbBlockReference
  2
_DOTSMALL
 10
6583.600000000008
 20
7916.955648037292
 30
0.0
 41
100.0
 42
100.0
 43
100.0
 50
180.0
  0
MTEXT
  5
27C58
330
274E8
100
AcDbEntity
  8
寸法
 62
     7
 48
50.0
100
AcDbMText
 10
6993.600000000004
 20
8016.967459060913
 30
0.0
 40
120.0
 41
0.0
 71
     5
 72
     1
  1
\A1;820
  7
STYLE1
 73
     1
 44
1.0
1001
ACAD
1000
MTEXTBEGIN
1070
    73
1070
     1
1070
    44
1040
1.0
1070
    74
1070
     0
1000
MTEXTEND
  0
POINT
  5
27C59
330
274E8
100
AcDbEntity
  8
DEFPOINTS
 62
     0
 48
50.0
100
AcDbPoint
 10
7403.6
 20
6751.346831367044
 30
0.0
  0
POINT
  5
27C5A
330
274E8
100
AcDbEntity
  8
DEFPOINTS
 62
     0
 48
50.0
100
AcDbPoint
 10
6583.600000000008
 20
6751.346831367044
 30
0.0
  0
POINT
  5
27C5B
330
274E8
100
AcDbEntity
  8
DEFPOINTS
 62
     0
 48
50.0
100
AcDbPoint
 10
6583.600000000008
 20
7916.955648037292
 30
0.0
  0
ENDBLK
  5
274F3
330
274E8
100
AcDbEntity
  8
0
 48
50.0
100
AcDbBlockEnd
  0
BLOCK
  5
274FE
330
274F4
100
AcDbEntity
  8
0
 48
50.0
100
AcDbBlockBegin
  2
*D34
 70
     1
 10
0.0
 20
0.0
 30
0.0
  3
*D34
  1

  0
LINE
  5
27C41
330
274F4
100
AcDbEntity
  8
寸法
 62
     0
 48
50.0
370
    -2
100
AcDbLine
 10
8223.600000000008
 20
6771.346831367043
 30
0.0
 11
8223.600000000008
 21
7976.955648037293
 31
0.0
  0
LINE
  5
27C42
330
274F4
100
AcDbEntity
  8
寸法
 62
     0
 48
50.0
370
    -2
100
AcDbLine
 10
7403.600000000007
 20
6771.346831367043
 30
0.0
 11
7403.600000000007
 21
7976.955648037293
 31
0.0
  0
LINE
  5
27C43
330
274F4
100
AcDbEntity
  8
寸法
 62
     0
 48
50.0
370
    -2
100
AcDbLine
 10
8223.600000000008
 20
7916.955648037292
 30
0.0
 11
7403.600000000007
 21
7916.955648037292
 31
0.0
  0
INSERT
  5
27C44
330
274F4
100
AcDbEntity
  8
寸法
 62
     0
 48
50.0
370
    -2
100
AcDbBlockReference
  2
_DOTSMALL
 10
8223.600000000008
 20
7916.955648037292
 30
0.0
 41
100.0
 42
100.0
 43
100.0
  0
INSERT
  5
27C45
330
274F4
100
AcDbEntity
  8
寸法
 62
     0
 48
50.0
370
    -2
100
AcDbBlockReference
  2
_DOTSMALL
 10
7403.600000000007
 20
7916.955648037292
 30
0.0
 41
100.0
 42
100.0
 43
100.0
 50
180.0
  0
MTEXT
  5
27C46
330
274F4
100
AcDbEntity
  8
寸法
 62
     7
 48
50.0
100
AcDbMText
 10
7813.600000000008
 20
8016.967459060913
 30
0.0
 40
120.0
 41
0.0
 71
     5
 72
     1
  1
\A1;820
  7
STYLE1
 73
     1
 44
1.0
1001
ACAD
1000
MTEXTBEGIN
1070
    73
1070
     1
1070
    44
1040
1.0
1070
    74
1070
     0
1000
MTEXTEND
  0
POINT
  5
27C47
330
274F4
100
AcDbEntity
  8
DEFPOINTS
 62
     0
 48
50.0
100
AcDbPoint
 10
8223.600000000008
 20
6751.346831367044
 30
0.0
  0
POINT
  5
27C48
330
274F4
100
AcDbEntity
  8
DEFPOINTS
 62
     0
 48
50.0
100
AcDbPoint
 10
7403.600000000007
 20
6751.346831367044
 30
0.0
  0
POINT
  5
27C49
330
274F4
100
AcDbEntity
  8
DEFPOINTS
 62
     0
 48
50.0
100
AcDbPoint
 10
7403.600000000007
 20
7916.955648037292
 30
0.0
  0
ENDBLK
  5
274FF
330
274F4
100
AcDbEntity
  8
0
 48
50.0
100
AcDbBlockEnd
  0
BLOCK
  5
27509
330
27500
100
AcDbEntity
  8
0
 48
50.0
100
AcDbBlockBegin
  2
*D35
 70
     1
 10
0.0
 20
0.0
 30
0.0
  3
*D35
  1

  0
LINE
  5
27C65
330
27500
100
AcDbEntity
  8
寸法
 62
     0
 48
50.0
370
    -2
100
AcDbLine
 10
6583.600000000008
 20
6771.346831367043
 30
0.0
 11
6583.600000000008
 21
7976.955648037293
 31
0.0
  0
LINE
  5
27C66
330
27500
100
AcDbEntity
  8
寸法
 62
     0
 48
50.0
370
    -2
100
AcDbLine
 10
5763.600000000008
 20
6771.346831367043
 30
0.0
 11
5763.600000000008
 21
7976.955648037293
 31
0.0
  0
LINE
  5
27C67
330
27500
100
AcDbEntity
  8
寸法
 62
     0
 48
50.0
370
    -2
100
AcDbLine
 10
6583.600000000008
 20
7916.955648037292
 30
0.0
 11
5763.600000000008
 21
7916.955648037292
 31
0.0
  0
INSERT
  5
27C68
330
27500
100
AcDbEntity
  8
寸法
 62
     0
 48
50.0
370
    -2
100
AcDbBlockReference
  2
_DOTSMALL
 10
6583.600000000008
 20
7916.955648037292
 30
0.0
 41
100.0
 42
100.0
 43
100.0
  0
INSERT
  5
27C69
330
27500
100
AcDbEntity
  8
寸法
 62
     0
 48
50.0
370
    -2
100
AcDbBlockReference
  2
_DOTSMALL
 10
5763.600000000008
 20
7916.955648037292
 30
0.0
 41
100.0
 42
100.0
 43
100.0
 50
180.0
  0
MTEXT
  5
27C6A
330
27500
100
AcDbEntity
  8
寸法
 62
     7
 48
50.0
100
AcDbMText
 10
6173.600000000007
 20
8016.967459060913
 30
0.0
 40
120.0
 41
0.0
 71
     5
 72
     1
  1
\A1;820
  7
STYLE1
 73
     1
 44
1.0
1001
ACAD
1000
MTEXTBEGIN
1070
    73
1070
     1
1070
    44
1040
1.0
1070
    74
1070
     0
1000
MTEXTEND
  0
POINT
  5
27C6B
330
27500
100
AcDbEntity
  8
DEFPOINTS
 62
     0
 48
50.0
100
AcDbPoint
 10
6583.600000000008
 20
6751.346831367044
 30
0.0
  0
POINT
  5
27C6C
330
27500
100
AcDbEntity
  8
DEFPOINTS
 62
     0
 48
50.0
100
AcDbPoint
 10
5763.600000000008
 20
6751.346831367044
 30
0.0
  0
POINT
  5
27C6D
330
27500
100
AcDbEntity
  8
DEFPOINTS
 62
     0
 48
50.0
100
AcDbPoint
 10
5763.600000000008
 20
7916.955648037292
 30
0.0
  0
ENDBLK
  5
2750A
330
27500
100
AcDbEntity
  8
0
 48
50.0
100
AcDbBlockEnd
  0
BLOCK
  5
27515
330
2750B
100
AcDbEntity
  8
0
 48
50.0
100
AcDbBlockBegin
  2
*D36
 70
     1
 10
0.0
 20
0.0
 30
0.0
  3
*D36
  1

  0
LINE
  5
27C89
330
2750B
100
AcDbEntity
  8
寸法
 62
     0
 48
50.0
370
    -2
100
AcDbLine
 10
4873.600000000007
 20
6701.346831367044
 30
0.0
 11
4572.442995307155
 21
6701.346831367044
 31
0.0
  0
LINE
  5
27C8A
330
2750B
100
AcDbEntity
  8
寸法
 62
     0
 48
50.0
370
    -2
100
AcDbLine
 10
4582.765475140901
 20
7434.346831367044
 30
0.0
 11
4692.442995307156
 21
7434.346831367044
 31
0.0
  0
LINE
  5
27C8B
330
2750B
100
AcDbEntity
  8
寸法
 62
     0
 48
50.0
370
    -2
100
AcDbLine
 10
4632.442995307155
 20
6701.346831367044
 30
0.0
 11
4632.442995307155
 21
7434.346831367044
 31
0.0
  0
INSERT
  5
27C8C
330
2750B
100
AcDbEntity
  8
寸法
 62
     0
 48
50.0
370
    -2
100
AcDbBlockReference
  2
_DOTSMALL
 10
4632.442995307155
 20
6701.346831367044
 30
0.0
 41
100.0
 42
100.0
 43
100.0
 50
270.0
  0
INSERT
  5
27C8D
330
2750B
100
AcDbEntity
  8
寸法
 62
     0
 48
50.0
370
    -2
100
AcDbBlockReference
  2
_DOTSMALL
 10
4632.442995307155
 20
7434.346831367044
 30
0.0
 41
100.0
 42
100.0
 43
100.0
 50
90.0
  0
MTEXT
  5
27C8E
330
2750B
100
AcDbEntity
  8
寸法
 62
     7
 48
50.0
100
AcDbMText
 10
4532.442995307154
 20
6993.94162206122
 30
0.0
 40
120.0
 41
0.0
 71
     5
 72
     1
  1
\A1;733
  7
STYLE1
 11
0.0000000000000001
 21
1.0
 31
0.0
 73
     1
 44
1.0
1001
ACAD
1000
MTEXTBEGIN
1070
    73
1070
     1
1070
    44
1040
1.0
1070
    74
1070
     0
1000
MTEXTEND
  0
POINT
  5
27C8F
330
2750B
100
AcDbEntity
  8
DEFPOINTS
 62
     0
 48
50.0
100
AcDbPoint
 10
4893.600000000008
 20
6701.346831367044
 30
0.0
  0
POINT
  5
27C90
330
2750B
100
AcDbEntity
  8
DEFPOINTS
 62
     0
 48
50.0
100
AcDbPoint
 10
4562.765475140901
 20
7434.346831367044
 30
0.0
  0
POINT
  5
27C91
330
2750B
100
AcDbEntity
  8
DEFPOINTS
 62
     0
 48
50.0
100
AcDbPoint
 10
4632.442995307155
 20
7434.346831367044
 30
0.0
  0
ENDBLK
  5
27516
330
2750B
100
AcDbEntity
  8
0
 48
50.0
100
AcDbBlockEnd
  0
BLOCK
  5
27521
330
27517
100
AcDbEntity
  8
0
 48
50.0
100
AcDbBlockBegin
  2
*D37
 70
     1
 10
0.0
 20
0.0
 30
0.0
  3
*D37
  1

  0
LINE
  5
27C6E
330
27517
100
AcDbEntity
  8
寸法
 62
     0
 48
50.0
370
    -2
100
AcDbLine
 10
4943.600000000007
 20
6771.346831367043
 30
0.0
 11
4943.600000000007
 21
7976.955648037293
 31
0.0
  0
LINE
  5
27C6F
330
27517
100
AcDbEntity
  8
寸法
 62
     0
 48
50.0
370
    -2
100
AcDbLine
 10
4118.6
 20
7454.346831367044
 30
0.0
 11
4118.6
 21
7976.955648037293
 31
0.0
  0
LINE
  5
27C70
330
27517
100
AcDbEntity
  8
寸法
 62
     0
 48
50.0
370
    -2
100
AcDbLine
 10
4943.600000000007
 20
7916.955648037292
 30
0.0
 11
4118.6
 21
7916.955648037292
 31
0.0
  0
INSERT
  5
27C71
330
27517
100
AcDbEntity
  8
寸法
 62
     0
 48
50.0
370
    -2
100
AcDbBlockReference
  2
_DOTSMALL
 10
4943.600000000007
 20
7916.955648037292
 30
0.0
 41
100.0
 42
100.0
 43
100.0
  0
INSERT
  5
27C72
330
27517
100
AcDbEntity
  8
寸法
 62
     0
 48
50.0
370
    -2
100
AcDbBlockReference
  2
_DOTSMALL
 10
4118.6
 20
7916.955648037292
 30
0.0
 41
100.0
 42
100.0
 43
100.0
 50
180.0
  0
MTEXT
  5
27C73
330
27517
100
AcDbEntity
  8
寸法
 62
     7
 48
50.0
100
AcDbMText
 10
4531.100000000004
 20
8016.967459060913
 30
0.0
 40
120.0
 41
0.0
 71
     5
 72
     1
  1
\A1;825
  7
STYLE1
 73
     1
 44
1.0
1001
ACAD
1000
MTEXTBEGIN
1070
    73
1070
     1
1070
    44
1040
1.0
1070
    74
1070
     0
1000
MTEXTEND
  0
POINT
  5
27C74
330
27517
100
AcDbEntity
  8
DEFPOINTS
 62
     0
 48
50.0
100
AcDbPoint
 10
4943.600000000007
 20
6751.346831367044
 30
0.0
  0
POINT
  5
27C75
330
27517
100
AcDbEntity
  8
DEFPOINTS
 62
     0
 48
50.0
100
AcDbPoint
 10
4118.6
 20
7434.346831367044
 30
0.0
  0
POINT
  5
27C76
330
27517
100
AcDbEntity
  8
DEFPOINTS
 62
     0
 48
50.0
100
AcDbPoint
 10
4118.6
 20
7916.955648037292
 30
0.0
  0
ENDBLK
  5
27522
330
27517
100
AcDbEntity
  8
0
 48
50.0
100
AcDbBlockEnd
  0
BLOCK
  5
2752D
330
27523
100
AcDbEntity
  8
0
 48
50.0
100
AcDbBlockBegin
  2
*D38
 70
     1
 10
0.0
 20
0.0
 30
0.0
  3
*D38
  1

  0
LINE
  5
27B1D
330
27523
100
AcDbEntity
  8
寸法
 62
     0
 48
50.0
370
    -2
100
AcDbLine
 10
4098.6
 20
7434.346831367044
 30
0.0
 11
3183.721909610675
 21
7434.346831367044
 31
0.0
  0
LINE
  5
27B1E
330
27523
100
AcDbEntity
  8
寸法
 62
     0
 48
50.0
370
    -2
100
AcDbLine
 10
4098.6
 20
5894.346831367044
 30
0.0
 11
3183.721909610674
 21
5894.346831367044
 31
0.0
  0
LINE
  5
27B1F
330
27523
100
AcDbEntity
  8
寸法
 62
     0
 48
50.0
370
    -2
100
AcDbLine
 10
3243.721909610675
 20
7434.346831367044
 30
0.0
 11
3243.721909610674
 21
5894.346831367044
 31
0.0
  0
INSERT
  5
27B20
330
27523
100
AcDbEntity
  8
寸法
 62
     0
 48
50.0
370
    -2
100
AcDbBlockReference
  2
_DOTSMALL
 10
3243.721909610675
 20
7434.346831367044
 30
0.0
 41
100.0
 42
100.0
 43
100.0
 50
90.0
  0
INSERT
  5
27B21
330
27523
100
AcDbEntity
  8
寸法
 62
     0
 48
50.0
370
    -2
100
AcDbBlockReference
  2
_DOTSMALL
 10
3243.721909610674
 20
5894.346831367044
 30
0.0
 41
100.0
 42
100.0
 43
100.0
 50
270.0
  0
MTEXT
  5
27B22
330
27523
100
AcDbEntity
  8
寸法
 62
     7
 48
50.0
100
AcDbMText
 10
3143.721909610673
 20
6701.846831367044
 30
0.0
 40
120.0
 41
0.0
 71
     5
 72
     1
  1
\A1;1540
  7
STYLE1
 11
0.0000000000000001
 21
1.0
 31
0.0
 73
     1
 44
1.0
1001
ACAD
1000
MTEXTBEGIN
1070
    73
1070
     1
1070
    44
1040
1.0
1070
    74
1070
     0
1000
MTEXTEND
  0
POINT
  5
27B23
330
27523
100
AcDbEntity
  8
DEFPOINTS
 62
     0
 48
50.0
100
AcDbPoint
 10
4118.6
 20
7434.346831367044
 30
0.0
  0
POINT
  5
27B24
330
27523
100
AcDbEntity
  8
DEFPOINTS
 62
     0
 48
50.0
100
AcDbPoint
 10
4118.6
 20
5894.346831367044
 30
0.0
  0
POINT
  5
27B25
330
27523
100
AcDbEntity
  8
DEFPOINTS
 62
     0
 48
50.0
100
AcDbPoint
 10
3243.721909610674
 20
5894.346831367044
 30
0.0
  0
ENDBLK
  5
2752E
330
27523
100
AcDbEntity
  8
0
 48
50.0
100
AcDbBlockEnd
  0
BLOCK
  5
27539
330
2752F
100
AcDbEntity
  8
0
 48
50.0
100
AcDbBlockBegin
  2
*D39
 70
     1
 10
0.0
 20
0.0
 30
0.0
  3
*D39
  1

  0
LINE
  5
27BB9
330
2752F
100
AcDbEntity
  8
寸法
 62
     0
 48
50.0
370
    -2
100
AcDbLine
 10
4171.6
 20
7311.346831367043
 30
0.0
 11
3435.665006330073
 21
7311.346831367043
 31
0.0
  0
LINE
  5
27BBA
330
2752F
100
AcDbEntity
  8
寸法
 62
     0
 48
50.0
370
    -2
100
AcDbLine
 10
4171.600000000007
 20
6092.346831367048
 30
0.0
 11
3435.665006330072
 21
6092.346831367048
 31
0.0
  0
LINE
  5
27BBB
330
2752F
100
AcDbEntity
  8
寸法
 62
     0
 48
50.0
370
    -2
100
AcDbLine
 10
3495.665006330073
 20
7311.346831367043
 30
0.0
 11
3495.665006330072
 21
6092.346831367048
 31
0.0
  0
INSERT
  5
27BBC
330
2752F
100
AcDbEntity
  8
寸法
 62
     0
 48
50.0
370
    -2
100
AcDbBlockReference
  2
_DOTSMALL
 10
3495.665006330073
 20
7311.346831367043
 30
0.0
 41
100.0
 42
100.0
 43
100.0
 50
90.0
  0
INSERT
  5
27BBD
330
2752F
100
AcDbEntity
  8
寸法
 62
     0
 48
50.0
370
    -2
100
AcDbBlockReference
  2
_DOTSMALL
 10
3495.665006330072
 20
6092.346831367048
 30
0.0
 41
100.0
 42
100.0
 43
100.0
 50
270.0
  0
MTEXT
  5
27BBE
330
2752F
100
AcDbEntity
  8
寸法
 62
     7
 48
50.0
100
AcDbMText
 10
3395.653195306449
 20
6701.846831367044
 30
0.0
 40
120.0
 41
0.0
 71
     5
 72
     1
  1
\A1;1219
  7
STYLE1
 11
0.0000000000000001
 21
1.0
 31
0.0
 73
     1
 44
1.0
1001
ACAD
1000
MTEXTBEGIN
1070
    73
1070
     1
1070
    44
1040
1.0
1070
    74
1070
     0
1000
MTEXTEND
  0
POINT
  5
27BBF
330
2752F
100
AcDbEntity
  8
DEFPOINTS
 62
     0
 48
50.0
100
AcDbPoint
 10
4191.6
 20
7311.346831367043
 30
0.0
  0
POINT
  5
27BC0
330
2752F
100
AcDbEntity
  8
DEFPOINTS
 62
     0
 48
50.0
100
AcDbPoint
 10
4191.600000000007
 20
6092.346831367048
 30
0.0
  0
POINT
  5
27BC1
330
2752F
100
AcDbEntity
  8
DEFPOINTS
 62
     0
 48
50.0
100
AcDbPoint
 10
3495.665006330072
 20
6092.346831367048
 30
0.0
  0
ENDBLK
  5
2753A
330
2752F
100
AcDbEntity
  8
0
 48
50.0
100
AcDbBlockEnd
  0
BLOCK
  5
27544
330
2753B
100
AcDbEntity
  8
0
 48
50.0
100
AcDbBlockBegin
  2
*D40
 70
     1
 10
0.0
 20
0.0
 30
0.0
  3
*D40
  1

  0
LINE
  5
27C77
330
2753B
100
AcDbEntity
  8
寸法
 62
     0
 48
50.0
370
    -2
100
AcDbLine
 10
5763.600000000008
 20
6771.346831367043
 30
0.0
 11
5763.600000000008
 21
7976.955648037293
 31
0.0
  0
LINE
  5
27C78
330
2753B
100
AcDbEntity
  8
寸法
 62
     0
 48
50.0
370
    -2
100
AcDbLine
 10
4943.600000000007
 20
6771.346831367043
 30
0.0
 11
4943.600000000007
 21
7976.955648037293
 31
0.0
  0
LINE
  5
27C79
330
2753B
100
AcDbEntity
  8
寸法
 62
     0
 48
50.0
370
    -2
100
AcDbLine
 10
5763.600000000008
 20
7916.955648037292
 30
0.0
 11
4943.600000000007
 21
7916.955648037292
 31
0.0
  0
INSERT
  5
27C7A
330
2753B
100
AcDbEntity
  8
寸法
 62
     0
 48
50.0
370
    -2
100
AcDbBlockReference
  2
_DOTSMALL
 10
5763.600000000008
 20
7916.955648037292
 30
0.0
 41
100.0
 42
100.0
 43
100.0
  0
INSERT
  5
27C7B
330
2753B
100
AcDbEntity
  8
寸法
 62
     0
 48
50.0
370
    -2
100
AcDbBlockReference
  2
_DOTSMALL
 10
4943.600000000007
 20
7916.955648037292
 30
0.0
 41
100.0
 42
100.0
 43
100.0
 50
180.0
  0
MTEXT
  5
27C7C
330
2753B
100
AcDbEntity
  8
寸法
 62
     7
 48
50.0
100
AcDbMText
 10
5353.600000000008
 20
8016.967459060913
 30
0.0
 40
120.0
 41
0.0
 71
     5
 72
     1
  1
\A1;820
  7
STYLE1
 73
     1
 44
1.0
1001
ACAD
1000
MTEXTBEGIN
1070
    73
1070
     1
1070
    44
1040
1.0
1070
    74
1070
     0
1000
MTEXTEND
  0
POINT
  5
27C7D
330
2753B
100
AcDbEntity
  8
DEFPOINTS
 62
     0
 48
50.0
100
AcDbPoint
 10
5763.600000000008
 20
6751.346831367044
 30
0.0
  0
POINT
  5
27C7E
330
2753B
100
AcDbEntity
  8
DEFPOINTS
 62
     0
 48
50.0
100
AcDbPoint
 10
4943.600000000007
 20
6751.346831367044
 30
0.0
  0
POINT
  5
27C7F
330
2753B
100
AcDbEntity
  8
DEFPOINTS
 62
     0
 48
50.0
100
AcDbPoint
 10
4943.600000000007
 20
7916.955648037292
 30
0.0
  0
ENDBLK
  5
27545
330
2753B
100
AcDbEntity
  8
0
 48
50.0
100
AcDbBlockEnd
  0
BLOCK
  5
27551
330
27546
100
AcDbEntity
  8
0
 48
50.0
100
AcDbBlockBegin
  2
*D41
 70
     1
 10
0.0
 20
0.0
 30
0.0
  3
*D41
  1

  0
LINE
  5
27D38
330
27546
100
AcDbEntity
  8
寸法
 62
     0
 48
50.0
370
    -2
100
AcDbLine
 10
6253.600000000005
 20
6174.34683136705
 30
0.0
 11
6076.81972531859
 21
6174.346831367051
 31
0.0
  0
LINE
  5
27D39
330
27546
100
AcDbEntity
  8
寸法
 62
     0
 48
50.0
370
    -2
100
AcDbLine
 10
6253.600000000012
 20
5894.34683136705
 30
0.0
 11
6076.819725318589
 21
5894.346831367051
 31
0.0
  0
LINE
  5
27D3A
330
27546
100
AcDbEntity
  8
寸法
 62
     0
 48
50.0
370
    -2
100
AcDbLine
 10
6136.81972531859
 20
6174.346831367051
 30
0.0
 11
6136.819725318589
 21
5894.346831367051
 31
0.0
  0
LINE
  5
27D3B
330
27546
100
AcDbEntity
  8
寸法
 62
     0
 48
50.0
370
    -2
100
AcDbLine
 10
6136.819725318589
 20
5894.346831367051
 30
0.0
 11
6136.819725318589
 21
5457.812382548135
 31
0.0
  0
INSERT
  5
27D3C
330
27546
100
AcDbEntity
  8
寸法
 62
     0
 48
50.0
370
    -2
100
AcDbBlockReference
  2
_DOTSMALL
 10
6136.81972531859
 20
6174.346831367051
 30
0.0
 41
100.0
 42
100.0
 43
100.0
 50
90.0
  0
INSERT
  5
27D3D
330
27546
100
AcDbEntity
  8
寸法
 62
     0
 48
50.0
370
    -2
100
AcDbBlockReference
  2
_DOTSMALL
 10
6136.819725318589
 20
5894.346831367051
 30
0.0
 41
100.0
 42
100.0
 43
100.0
 50
270.0
  0
MTEXT
  5
27D3E
330
27546
100
AcDbEntity
  8
寸法
 62
     7
 48
50.0
100
AcDbMText
 10
6036.807914294967
 20
5607.383248689868
 30
0.0
 40
120.0
 41
0.0
 71
     5
 72
     1
  1
\A1;280
  7
STYLE1
 11
0.0000000000000001
 21
1.0
 31
0.0
 73
     1
 44
1.0
1001
ACAD
1000
MTEXTBEGIN
1070
    73
1070
     1
1070
    44
1040
1.0
1070
    74
1070
     0
1000
MTEXTEND
  0
POINT
  5
27D3F
330
27546
100
AcDbEntity
  8
DEFPOINTS
 62
     0
 48
50.0
100
AcDbPoint
 10
6273.600000000005
 20
6174.34683136705
 30
0.0
  0
POINT
  5
27D40
330
27546
100
AcDbEntity
  8
DEFPOINTS
 62
     0
 48
50.0
100
AcDbPoint
 10
6273.600000000013
 20
5894.34683136705
 30
0.0
  0
POINT
  5
27D41
330
27546
100
AcDbEntity
  8
DEFPOINTS
 62
     0
 48
50.0
100
AcDbPoint
 10
6136.819725318589
 20
5894.346831367051
 30
0.0
  0
ENDBLK
  5
27552
330
27546
100
AcDbEntity
  8
0
 48
50.0
100
AcDbBlockEnd
  0
BLOCK
  5
2755E
330
27553
100
AcDbEntity
  8
0
 48
50.0
100
AcDbBlockBegin
  2
*D42
 70
     1
 10
0.0
 20
0.0
 30
0.0
  3
*D42
  1

  0
LINE
  5
27BAF
330
27553
100
AcDbEntity
  8
寸法
 62
     0
 48
50.0
370
    -2
100
AcDbLine
 10
4171.600000000007
 20
6092.346831367048
 30
0.0
 11
3435.665006330072
 21
6092.346831367048
 31
0.0
  0
LINE
  5
27BB0
330
27553
100
AcDbEntity
  8
寸法
 62
     0
 48
50.0
370
    -2
100
AcDbLine
 10
4098.6
 20
5894.346831367044
 30
0.0
 11
3435.665006330072
 21
5894.346831367044
 31
0.0
  0
LINE
  5
27BB1
330
27553
100
AcDbEntity
  8
寸法
 62
     0
 48
50.0
370
    -2
100
AcDbLine
 10
3495.665006330072
 20
6092.346831367048
 30
0.0
 11
3495.665006330072
 21
5894.346831367044
 31
0.0
  0
LINE
  5
27BB2
330
27553
100
AcDbEntity
  8
寸法
 62
     0
 48
50.0
370
    -2
100
AcDbLine
 10
3495.665006330072
 20
5894.346831367044
 30
0.0
 11
3495.665006330072
 21
5422.606222694795
 31
0.0
  0
INSERT
  5
27BB3
330
27553
100
AcDbEntity
  8
寸法
 62
     0
 48
50.0
370
    -2
100
AcDbBlockReference
  2
_DOTSMALL
 10
3495.665006330072
 20
6092.346831367048
 30
0.0
 41
100.0
 42
100.0
 43
100.0
 50
90.0
  0
INSERT
  5
27BB4
330
27553
100
AcDbEntity
  8
寸法
 62
     0
 48
50.0
370
    -2
100
AcDbBlockReference
  2
_DOTSMALL
 10
3495.665006330072
 20
5894.346831367044
 30
0.0
 41
100.0
 42
100.0
 43
100.0
 50
270.0
  0
MTEXT
  5
27BB5
330
27553
100
AcDbEntity
  8
寸法
 62
     7
 48
50.0
100
AcDbMText
 10
3395.665006330072
 20
5558.815882524452
 30
0.0
 40
120.0
 41
0.0
 71
     5
 72
     1
  1
\A1;198
  7
STYLE1
 11
0.0000000000000001
 21
1.0
 31
0.0
 73
     1
 44
1.0
1001
ACAD
1000
MTEXTBEGIN
1070
    73
1070
     1
1070
    44
1040
1.0
1070
    74
1070
     0
1000
MTEXTEND
  0
POINT
  5
27BB6
330
27553
100
AcDbEntity
  8
DEFPOINTS
 62
     0
 48
50.0
100
AcDbPoint
 10
4191.600000000007
 20
6092.346831367048
 30
0.0
  0
POINT
  5
27BB7
330
27553
100
AcDbEntity
  8
DEFPOINTS
 62
     0
 48
50.0
100
AcDbPoint
 10
4118.6
 20
5894.346831367044
 30
0.0
  0
POINT
  5
27BB8
330
27553
100
AcDbEntity
  8
DEFPOINTS
 62
     0
 48
50.0
100
AcDbPoint
 10
3495.665006330072
 20
5894.346831367044
 30
0.0
  0
ENDBLK
  5
2755F
330
27553
100
AcDbEntity
  8
0
 48
50.0
100
AcDbBlockEnd
  0
BLOCK
  5
27576
330
2756C
100
AcDbEntity
  8
0
 48
50.0
100
AcDbBlockBegin
  2
*D43
 70
     1
 10
0.0
 20
0.0
 30
0.0
  3
*D43
  1

  0
LINE
  5
27B26
330
2756C
100
AcDbEntity
  8
寸法
 62
     0
 48
50.0
370
    -2
100
AcDbLine
 10
4098.6
 20
5894.34683136704
 30
0.0
 11
3945.512673767879
 21
5894.34683136704
 31
0.0
  0
LINE
  5
27B27
330
2756C
100
AcDbEntity
  8
寸法
 62
     0
 48
50.0
370
    -2
100
AcDbLine
 10
4454.325326928805
 20
5174.34683136704
 30
0.0
 11
3945.512673767879
 21
5174.34683136704
 31
0.0
  0
LINE
  5
27B28
330
2756C
100
AcDbEntity
  8
寸法
 62
     0
 48
50.0
370
    -2
100
AcDbLine
 10
4005.512673767879
 20
5894.34683136704
 30
0.0
 11
4005.512673767879
 21
5174.34683136704
 31
0.0
  0
INSERT
  5
27B29
330
2756C
100
AcDbEntity
  8
寸法
 62
     0
 48
50.0
370
    -2
100
AcDbBlockReference
  2
_DOTSMALL
 10
4005.512673767879
 20
5894.34683136704
 30
0.0
 41
100.0
 42
100.0
 43
100.0
 50
90.0
  0
INSERT
  5
27B2A
330
2756C
100
AcDbEntity
  8
寸法
 62
     0
 48
50.0
370
    -2
100
AcDbBlockReference
  2
_DOTSMALL
 10
4005.512673767879
 20
5174.34683136704
 30
0.0
 41
100.0
 42
100.0
 43
100.0
 50
270.0
  0
MTEXT
  5
27B2B
330
2756C
100
AcDbEntity
  8
寸法
 62
     7
 48
50.0
100
AcDbMText
 10
3905.500862744256
 20
5534.346831367042
 30
0.0
 40
120.0
 41
0.0
 71
     5
 72
     1
  1
\A1;扉の出720
  7
STYLE1
 11
0.0000000000000001
 21
1.0
 31
0.0
 73
     1
 44
1.0
1001
ACAD
1000
MTEXTBEGIN
1070
    73
1070
     1
1070
    44
1040
1.0
1070
    74
1070
     0
1000
MTEXTEND
  0
POINT
  5
27B2C
330
2756C
100
AcDbEntity
  8
DEFPOINTS
 62
     0
 48
50.0
100
AcDbPoint
 10
4118.6
 20
5894.34683136704
 30
0.0
  0
POINT
  5
27B2D
330
2756C
100
AcDbEntity
  8
DEFPOINTS
 62
     0
 48
50.0
100
AcDbPoint
 10
4474.325326928805
 20
5174.34683136704
 30
0.0
  0
POINT
  5
27B2E
330
2756C
100
AcDbEntity
  8
DEFPOINTS
 62
     0
 48
50.0
100
AcDbPoint
 10
4005.512673767879
 20
5174.34683136704
 30
0.0
  0
ENDBLK
  5
27577
330
2756C
100
AcDbEntity
  8
0
 48
50.0
100
AcDbBlockEnd
  0
BLOCK
  5
27582
330
27578
100
AcDbEntity
  8
0
 48
50.0
100
AcDbBlockBegin
  2
*D44
 70
     1
 10
0.0
 20
0.0
 30
0.0
  3
*D44
  1

  0
LINE
  5
27C80
330
27578
100
AcDbEntity
  8
寸法
 62
     0
 48
50.0
370
    -2
100
AcDbLine
 10
4582.765475140901
 20
5894.346831367055
 30
0.0
 11
4692.442995307155
 21
5894.346831367055
 31
0.0
  0
LINE
  5
27C81
330
27578
100
AcDbEntity
  8
寸法
 62
     0
 48
50.0
370
    -2
100
AcDbLine
 10
4873.600000000007
 20
6701.346831367044
 30
0.0
 11
4572.442995307155
 21
6701.346831367044
 31
0.0
  0
LINE
  5
27C82
330
27578
100
AcDbEntity
  8
寸法
 62
     0
 48
50.0
370
    -2
100
AcDbLine
 10
4632.442995307155
 20
5894.346831367055
 30
0.0
 11
4632.442995307155
 21
6701.346831367044
 31
0.0
  0
INSERT
  5
27C83
330
27578
100
AcDbEntity
  8
寸法
 62
     0
 48
50.0
370
    -2
100
AcDbBlockReference
  2
_DOTSMALL
 10
4632.442995307155
 20
5894.346831367055
 30
0.0
 41
100.0
 42
100.0
 43
100.0
 50
270.0
  0
INSERT
  5
27C84
330
27578
100
AcDbEntity
  8
寸法
 62
     0
 48
50.0
370
    -2
100
AcDbBlockReference
  2
_DOTSMALL
 10
4632.442995307155
 20
6701.346831367044
 30
0.0
 41
100.0
 42
100.0
 43
100.0
 50
90.0
  0
MTEXT
  5
27C85
330
27578
100
AcDbEntity
  8
寸法
 62
     7
 48
50.0
100
AcDbMText
 10
4532.442995307154
 20
6379.346831367044
 30
0.0
 40
120.0
 41
0.0
 71
     5
 72
     1
  1
\A1;807
  7
STYLE1
 11
0.0000000000000001
 21
1.0
 31
0.0
 73
     1
 44
1.0
1001
ACAD
1000
MTEXTBEGIN
1070
    73
1070
     1
1070
    44
1040
1.0
1070
    74
1070
     0
1000
MTEXTEND
  0
POINT
  5
27C86
330
27578
100
AcDbEntity
  8
DEFPOINTS
 62
     0
 48
50.0
100
AcDbPoint
 10
4562.765475140901
 20
5894.346831367055
 30
0.0
  0
POINT
  5
27C87
330
27578
100
AcDbEntity
  8
DEFPOINTS
 62
     0
 48
50.0
100
AcDbPoint
 10
4893.600000000008
 20
6701.346831367044
 30
0.0
  0
POINT
  5
27C88
330
27578
100
AcDbEntity
  8
DEFPOINTS
 62
     0
 48
50.0
100
AcDbPoint
 10
4632.442995307155
 20
6701.346831367044
 30
0.0
  0
ENDBLK
  5
27583
330
27578
100
AcDbEntity
  8
0
 48
50.0
100
AcDbBlockEnd
  0
BLOCK
  5
2758D
330
27584
100
AcDbEntity
  8
0
 48
50.0
100
AcDbBlockBegin
  2
*D45
 70
     1
 10
0.0
 20
0.0
 30
0.0
  3
*D45
  1

  0
LINE
  5
27AB9
330
27584
100
AcDbEntity
  8
寸法
 62
     0
 48
50.0
370
    -2
100
AcDbLine
 10
6465.600000000001
 20
7381.346831367044
 30
0.0
 11
6465.600000000001
 21
8220.613289460954
 31
0.0
  0
LINE
  5
27ABA
330
27584
100
AcDbEntity
  8
寸法
 62
     0
 48
50.0
370
    -2
100
AcDbLine
 10
4241.6
 20
7381.346831367044
 30
0.0
 11
4241.6
 21
8220.613289460954
 31
0.0
  0
LINE
  5
27ABB
330
27584
100
AcDbEntity
  8
寸法
 62
     0
 48
50.0
370
    -2
100
AcDbLine
 10
6465.600000000001
 20
8160.613289460954
 30
0.0
 11
4241.6
 21
8160.613289460954
 31
0.0
  0
INSERT
  5
27ABC
330
27584
100
AcDbEntity
  8
寸法
 62
     0
 48
50.0
370
    -2
100
AcDbBlockReference
  2
_DOTSMALL
 10
6465.600000000001
 20
8160.613289460954
 30
0.0
 41
100.0
 42
100.0
 43
100.0
  0
INSERT
  5
27ABD
330
27584
100
AcDbEntity
  8
寸法
 62
     0
 48
50.0
370
    -2
100
AcDbBlockReference
  2
_DOTSMALL
 10
4241.6
 20
8160.613289460954
 30
0.0
 41
100.0
 42
100.0
 43
100.0
 50
180.0
  0
MTEXT
  5
27ABE
330
27584
100
AcDbEntity
  8
寸法
 62
     7
 48
50.0
100
AcDbMText
 10
5353.6
 20
8260.625100484576
 30
0.0
 40
120.0
 41
0.0
 71
     5
 72
     1
  1
\A1;2224
  7
STYLE1
 73
     1
 44
1.0
1001
ACAD
1000
MTEXTBEGIN
1070
    73
1070
     1
1070
    44
1040
1.0
1070
    74
1070
     0
1000
MTEXTEND
  0
POINT
  5
27ABF
330
27584
100
AcDbEntity
  8
DEFPOINTS
 62
     0
 48
50.0
100
AcDbPoint
 10
6465.600000000001
 20
7361.346831367043
 30
0.0
  0
POINT
  5
27AC0
330
27584
100
AcDbEntity
  8
DEFPOINTS
 62
     0
 48
50.0
100
AcDbPoint
 10
4241.6
 20
7361.346831367043
 30
0.0
  0
POINT
  5
27AC1
330
27584
100
AcDbEntity
  8
DEFPOINTS
 62
     0
 48
50.0
100
AcDbPoint
 10
4241.6
 20
8160.613289460954
 30
0.0
  0
ENDBLK
  5
2758E
330
27584
100
AcDbEntity
  8
0
 48
50.0
100
AcDbBlockEnd
  0
BLOCK
  5
275A4
330
27599
100
AcDbEntity
  8
0
 48
50.0
100
AcDbBlockBegin
  2
*D46
 70
     1
 10
0.0
 20
0.0
 30
0.0
  3
*D46
  1

  0
LINE
  5
27AAF
330
27599
100
AcDbEntity
  8
寸法
 62
     0
 48
50.0
370
    -2
100
AcDbLine
 10
4098.6
 20
7434.346831367044
 30
0.0
 11
3435.665006330073
 21
7434.346831367044
 31
0.0
  0
LINE
  5
27AB0
330
27599
100
AcDbEntity
  8
寸法
 62
     0
 48
50.0
370
    -2
100
AcDbLine
 10
4171.6
 20
7311.346831367043
 30
0.0
 11
3435.665006330073
 21
7311.346831367043
 31
0.0
  0
LINE
  5
27AB1
330
27599
100
AcDbEntity
  8
寸法
 62
     0
 48
50.0
370
    -2
100
AcDbLine
 10
3495.665006330073
 20
7311.346831367043
 30
0.0
 11
3495.665006330073
 21
7434.346831367044
 31
0.0
  0
LINE
  5
27AB2
330
27599
100
AcDbEntity
  8
寸法
 62
     0
 48
50.0
370
    -2
100
AcDbLine
 10
3495.665006330073
 20
7434.346831367044
 30
0.0
 11
3495.665006330073
 21
7845.938714459082
 31
0.0
  0
INSERT
  5
27AB3
330
27599
100
AcDbEntity
  8
寸法
 62
     0
 48
50.0
370
    -2
100
AcDbBlockReference
  2
_DOTSMALL
 10
3495.665006330073
 20
7311.346831367043
 30
0.0
 41
100.0
 42
100.0
 43
100.0
 50
270.0
  0
INSERT
  5
27AB4
330
27599
100
AcDbEntity
  8
寸法
 62
     0
 48
50.0
370
    -2
100
AcDbBlockReference
  2
_DOTSMALL
 10
3495.665006330073
 20
7434.346831367044
 30
0.0
 41
100.0
 42
100.0
 43
100.0
 50
90.0
  0
MTEXT
  5
27AB5
330
27599
100
AcDbEntity
  8
寸法
 62
     7
 48
50.0
100
AcDbMText
 10
3395.653195306449
 20
7707.453433084843
 30
0.0
 40
120.0
 41
0.0
 71
     5
 72
     1
  1
\A1;123
  7
STYLE1
 11
0.0000000000000001
 21
1.0
 31
0.0
 73
     1
 44
1.0
1001
ACAD
1000
MTEXTBEGIN
1070
    73
1070
     1
1070
    44
1040
1.0
1070
    74
1070
     0
1000
MTEXTEND
  0
POINT
  5
27AB6
330
27599
100
AcDbEntity
  8
DEFPOINTS
 62
     0
 48
50.0
100
AcDbPoint
 10
4118.6
 20
7434.346831367044
 30
0.0
  0
POINT
  5
27AB7
330
27599
100
AcDbEntity
  8
DEFPOINTS
 62
     0
 48
50.0
100
AcDbPoint
 10
4191.6
 20
7311.346831367043
 30
0.0
  0
POINT
  5
27AB8
330
27599
100
AcDbEntity
  8
DEFPOINTS
 62
     0
 48
50.0
100
AcDbPoint
 10
3495.665006330073
 20
7311.346831367043
 30
0.0
  0
ENDBLK
  5
275A5
330
27599
100
AcDbEntity
  8
0
 48
50.0
100
AcDbBlockEnd
  0
BLOCK
  5
275B1
330
275A6
100
AcDbEntity
  8
0
 48
50.0
100
AcDbBlockBegin
  2
*D47
 70
     1
 10
0.0
 20
0.0
 30
0.0
  3
*D47
  1

  0
LINE
  5
27AA5
330
275A6
100
AcDbEntity
  8
寸法
 62
     0
 48
50.0
370
    -2
100
AcDbLine
 10
4241.6
 20
7381.346831367044
 30
0.0
 11
4241.6
 21
8220.613289460954
 31
0.0
  0
LINE
  5
27AA6
330
275A6
100
AcDbEntity
  8
寸法
 62
     0
 48
50.0
370
    -2
100
AcDbLine
 10
4118.6
 20
7454.346831367044
 30
0.0
 11
4118.6
 21
8220.613289460954
 31
0.0
  0
LINE
  5
27AA7
330
275A6
100
AcDbEntity
  8
寸法
 62
     0
 48
50.0
370
    -2
100
AcDbLine
 10
4241.6
 20
8160.613289460954
 30
0.0
 11
4118.6
 21
8160.613289460954
 31
0.0
  0
LINE
  5
27AA8
330
275A6
100
AcDbEntity
  8
寸法
 62
     0
 48
50.0
370
    -2
100
AcDbLine
 10
4118.6
 20
8160.613289460954
 30
0.0
 11
3707.00811690796
 21
8160.613289460954
 31
0.0
  0
INSERT
  5
27AA9
330
275A6
100
AcDbEntity
  8
寸法
 62
     0
 48
50.0
370
    -2
100
AcDbBlockReference
  2
_DOTSMALL
 10
4241.6
 20
8160.613289460954
 30
0.0
 41
100.0
 42
100.0
 43
100.0
  0
INSERT
  5
27AAA
330
275A6
100
AcDbEntity
  8
寸法
 62
     0
 48
50.0
370
    -2
100
AcDbBlockReference
  2
_DOTSMALL
 10
4118.6
 20
8160.613289460954
 30
0.0
 41
100.0
 42
100.0
 43
100.0
 50
180.0
  0
MTEXT
  5
27AAB
330
275A6
100
AcDbEntity
  8
寸法
 62
     7
 48
50.0
100
AcDbMText
 10
3845.493398282199
 20
8260.625100484576
 30
0.0
 40
120.0
 41
0.0
 71
     5
 72
     1
  1
\A1;123
  7
STYLE1
 73
     1
 44
1.0
1001
ACAD
1000
MTEXTBEGIN
1070
    73
1070
     1
1070
    44
1040
1.0
1070
    74
1070
     0
1000
MTEXTEND
  0
POINT
  5
27AAC
330
275A6
100
AcDbEntity
  8
DEFPOINTS
 62
     0
 48
50.0
100
AcDbPoint
 10
4241.6
 20
7361.346831367043
 30
0.0
  0
POINT
  5
27AAD
330
275A6
100
AcDbEntity
  8
DEFPOINTS
 62
     0
 48
50.0
100
AcDbPoint
 10
4118.6
 20
7434.346831367044
 30
0.0
  0
POINT
  5
27AAE
330
275A6
100
AcDbEntity
  8
DEFPOINTS
 62
     0
 48
50.0
100
AcDbPoint
 10
4118.6
 20
8160.613289460954
 30
0.0
  0
ENDBLK
  5
275B2
330
275A6
100
AcDbEntity
  8
0
 48
50.0
100
AcDbBlockEnd
  0
BLOCK
  5
275CA
330
275C0
100
AcDbEntity
  8
0
 48
50.0
100
AcDbBlockBegin
  2
*D48
 70
     1
 10
0.0
 20
0.0
 30
0.0
  3
*D48
  1

  0
LINE
  5
27A9C
330
275C0
100
AcDbEntity
  8
寸法
 62
     0
 48
50.0
370
    -2
100
AcDbLine
 10
8105.6
 20
7381.346831367044
 30
0.0
 11
8105.6
 21
8220.613289460954
 31
0.0
  0
LINE
  5
27A9D
330
275C0
100
AcDbEntity
  8
寸法
 62
     0
 48
50.0
370
    -2
100
AcDbLine
 10
6465.600000000001
 20
7381.346831367044
 30
0.0
 11
6465.600000000001
 21
8220.613289460954
 31
0.0
  0
LINE
  5
27A9E
330
275C0
100
AcDbEntity
  8
寸法
 62
     0
 48
50.0
370
    -2
100
AcDbLine
 10
8105.6
 20
8160.613289460954
 30
0.0
 11
6465.600000000001
 21
8160.613289460954
 31
0.0
  0
INSERT
  5
27A9F
330
275C0
100
AcDbEntity
  8
寸法
 62
     0
 48
50.0
370
    -2
100
AcDbBlockReference
  2
_DOTSMALL
 10
8105.6
 20
8160.613289460954
 30
0.0
 41
100.0
 42
100.0
 43
100.0
  0
INSERT
  5
27AA0
330
275C0
100
AcDbEntity
  8
寸法
 62
     0
 48
50.0
370
    -2
100
AcDbBlockReference
  2
_DOTSMALL
 10
6465.600000000001
 20
8160.613289460954
 30
0.0
 41
100.0
 42
100.0
 43
100.0
 50
180.0
  0
MTEXT
  5
27AA1
330
275C0
100
AcDbEntity
  8
寸法
 62
     7
 48
50.0
100
AcDbMText
 10
7285.600000000001
 20
8260.613289460954
 30
0.0
 40
120.0
 41
0.0
 71
     5
 72
     1
  1
\A1;1640
  7
STYLE1
 73
     1
 44
1.0
1001
ACAD
1000
MTEXTBEGIN
1070
    73
1070
     1
1070
    44
1040
1.0
1070
    74
1070
     0
1000
MTEXTEND
  0
POINT
  5
27AA2
330
275C0
100
AcDbEntity
  8
DEFPOINTS
 62
     0
 48
50.0
100
AcDbPoint
 10
8105.6
 20
7361.346831367043
 30
0.0
  0
POINT
  5
27AA3
330
275C0
100
AcDbEntity
  8
DEFPOINTS
 62
     0
 48
50.0
100
AcDbPoint
 10
6465.600000000001
 20
7361.346831367043
 30
0.0
  0
POINT
  5
27AA4
330
275C0
100
AcDbEntity
  8
DEFPOINTS
 62
     0
 48
50.0
100
AcDbPoint
 10
6465.600000000001
 20
8160.613289460954
 30
0.0
  0
ENDBLK
  5
275CB
330
275C0
100
AcDbEntity
  8
0
 48
50.0
100
AcDbBlockEnd
  0
BLOCK
  5
275D7
330
275CC
100
AcDbEntity
  8
0
 48
50.0
100
AcDbBlockBegin
  2
*D49
 70
     1
 10
0.0
 20
0.0
 30
0.0
  3
*D49
  1

  0
LINE
  5
27A92
330
275CC
100
AcDbEntity
  8
寸法
 62
     0
 48
50.0
370
    -2
100
AcDbLine
 10
6130.854682011648
 20
7434.346831367013
 30
0.0
 11
6196.819725318589
 21
7434.346831367012
 31
0.0
  0
LINE
  5
27A93
330
275CC
100
AcDbEntity
  8
寸法
 62
     0
 48
50.0
370
    -2
100
AcDbLine
 10
6130.854682011646
 20
7234.346831367044
 30
0.0
 11
6196.819725318589
 21
7234.346831367043
 31
0.0
  0
LINE
  5
27A94
330
275CC
100
AcDbEntity
  8
寸法
 62
     0
 48
50.0
370
    -2
100
AcDbLine
 10
6136.819725318589
 20
7234.346831367044
 30
0.0
 11
6136.819725318589
 21
7434.346831367013
 31
0.0
  0
LINE
  5
27A95
330
275CC
100
AcDbEntity
  8
寸法
 62
     0
 48
50.0
370
    -2
100
AcDbLine
 10
6136.819725318589
 20
7434.346831367013
 30
0.0
 11
6136.819725318589
 21
7870.881280185911
 31
0.0
  0
INSERT
  5
27A96
330
275CC
100
AcDbEntity
  8
寸法
 62
     0
 48
50.0
370
    -2
100
AcDbBlockReference
  2
_DOTSMALL
 10
6136.819725318589
 20
7234.346831367044
 30
0.0
 41
100.0
 42
100.0
 43
100.0
 50
270.0
  0
INSERT
  5
27A97
330
275CC
100
AcDbEntity
  8
寸法
 62
     0
 48
50.0
370
    -2
100
AcDbBlockReference
  2
_DOTSMALL
 10
6136.819725318589
 20
7434.346831367013
 30
0.0
 41
100.0
 42
100.0
 43
100.0
 50
90.0
  0
MTEXT
  5
27A98
330
275CC
100
AcDbEntity
  8
寸法
 62
     7
 48
50.0
100
AcDbMText
 10
6036.807914294967
 20
7721.31041404418
 30
0.0
 40
120.0
 41
0.0
 71
     5
 72
     1
  1
\A1;200
  7
STYLE1
 11
0.0000000000000001
 21
1.0
 31
0.0
 73
     1
 44
1.0
1001
ACAD
1000
MTEXTBEGIN
1070
    73
1070
     1
1070
    44
1040
1.0
1070
    74
1070
     0
1000
MTEXTEND
  0
POINT
  5
27A99
330
275CC
100
AcDbEntity
  8
DEFPOINTS
 62
     0
 48
50.0
100
AcDbPoint
 10
6110.854682011648
 20
7434.346831367013
 30
0.0
  0
POINT
  5
27A9A
330
275CC
100
AcDbEntity
  8
DEFPOINTS
 62
     0
 48
50.0
100
AcDbPoint
 10
6110.854682011646
 20
7234.346831367044
 30
0.0
  0
POINT
  5
27A9B
330
275CC
100
AcDbEntity
  8
DEFPOINTS
 62
     0
 48
50.0
100
AcDbPoint
 10
6136.819725318589
 20
7234.346831367044
 30
0.0
  0
ENDBLK
  5
275D8
330
275CC
100
AcDbEntity
  8
0
 48
50.0
100
AcDbBlockEnd
  0
BLOCK
  5
275E3
330
275D9
100
AcDbEntity
  8
0
 48
50.0
100
AcDbBlockBegin
  2
*D50
 70
     1
 10
0.0
 20
0.0
 30
0.0
  3
*D50
  1

  0
LINE
  5
27BE7
330
275D9
100
AcDbEntity
  8
寸法
 62
     0
 48
50.0
370
    -2
100
AcDbLine
 10
12328.6
 20
7454.346831367044
 30
0.0
 11
12328.6
 21
7976.955648037293
 31
0.0
  0
LINE
  5
27BE8
330
275D9
100
AcDbEntity
  8
寸法
 62
     0
 48
50.0
370
    -2
100
AcDbLine
 10
11503.6
 20
6771.346831367043
 30
0.0
 11
11503.6
 21
7976.955648037293
 31
0.0
  0
LINE
  5
27BE9
330
275D9
100
AcDbEntity
  8
寸法
 62
     0
 48
50.0
370
    -2
100
AcDbLine
 10
12328.6
 20
7916.955648037292
 30
0.0
 11
11503.6
 21
7916.955648037292
 31
0.0
  0
INSERT
  5
27BEA
330
275D9
100
AcDbEntity
  8
寸法
 62
     0
 48
50.0
370
    -2
100
AcDbBlockReference
  2
_DOTSMALL
 10
12328.6
 20
7916.955648037292
 30
0.0
 41
100.0
 42
100.0
 43
100.0
  0
INSERT
  5
27BEB
330
275D9
100
AcDbEntity
  8
寸法
 62
     0
 48
50.0
370
    -2
100
AcDbBlockReference
  2
_DOTSMALL
 10
11503.6
 20
7916.955648037292
 30
0.0
 41
100.0
 42
100.0
 43
100.0
 50
180.0
  0
MTEXT
  5
27BEC
330
275D9
100
AcDbEntity
  8
寸法
 62
     7
 48
50.0
100
AcDbMText
 10
11916.1
 20
8016.967459060913
 30
0.0
 40
120.0
 41
0.0
 71
     5
 72
     1
  1
\A1;825
  7
STYLE1
 73
     1
 44
1.0
1001
ACAD
1000
MTEXTBEGIN
1070
    73
1070
     1
1070
    44
1040
1.0
1070
    74
1070
     0
1000
MTEXTEND
  0
POINT
  5
27BED
330
275D9
100
AcDbEntity
  8
DEFPOINTS
 62
     0
 48
50.0
100
AcDbPoint
 10
12328.6
 20
7434.346831367044
 30
0.0
  0
POINT
  5
27BEE
330
275D9
100
AcDbEntity
  8
DEFPOINTS
 62
     0
 48
50.0
100
AcDbPoint
 10
11503.6
 20
6751.346831367044
 30
0.0
  0
POINT
  5
27BEF
330
275D9
100
AcDbEntity
  8
DEFPOINTS
 62
     0
 48
50.0
100
AcDbPoint
 10
11503.6
 20
7916.955648037292
 30
0.0
  0
ENDBLK
  5
275E4
330
275D9
100
AcDbEntity
  8
0
 48
50.0
100
AcDbBlockEnd
  0
BLOCK
  5
275EF
330
275E5
100
AcDbEntity
  8
0
 48
50.0
100
AcDbBlockBegin
  2
*D51
 70
     1
 10
0.0
 20
0.0
 30
0.0
  3
*D51
  1

  0
LINE
  5
27C0B
330
275E5
100
AcDbEntity
  8
寸法
 62
     0
 48
50.0
370
    -2
100
AcDbLine
 10
10683.6
 20
6771.346831367043
 30
0.0
 11
10683.6
 21
7976.955648037293
 31
0.0
  0
LINE
  5
27C0C
330
275E5
100
AcDbEntity
  8
寸法
 62
     0
 48
50.0
370
    -2
100
AcDbLine
 10
9863.600000000001
 20
6771.346831367043
 30
0.0
 11
9863.600000000001
 21
7976.955648037293
 31
0.0
  0
LINE
  5
27C0D
330
275E5
100
AcDbEntity
  8
寸法
 62
     0
 48
50.0
370
    -2
100
AcDbLine
 10
10683.6
 20
7916.955648037292
 30
0.0
 11
9863.600000000001
 21
7916.955648037292
 31
0.0
  0
INSERT
  5
27C0E
330
275E5
100
AcDbEntity
  8
寸法
 62
     0
 48
50.0
370
    -2
100
AcDbBlockReference
  2
_DOTSMALL
 10
10683.6
 20
7916.955648037292
 30
0.0
 41
100.0
 42
100.0
 43
100.0
  0
INSERT
  5
27C0F
330
275E5
100
AcDbEntity
  8
寸法
 62
     0
 48
50.0
370
    -2
100
AcDbBlockReference
  2
_DOTSMALL
 10
9863.600000000001
 20
7916.955648037292
 30
0.0
 41
100.0
 42
100.0
 43
100.0
 50
180.0
  0
MTEXT
  5
27C10
330
275E5
100
AcDbEntity
  8
寸法
 62
     7
 48
50.0
100
AcDbMText
 10
10273.6
 20
8016.967459060913
 30
0.0
 40
120.0
 41
0.0
 71
     5
 72
     1
  1
\A1;820
  7
STYLE1
 73
     1
 44
1.0
1001
ACAD
1000
MTEXTBEGIN
1070
    73
1070
     1
1070
    44
1040
1.0
1070
    74
1070
     0
1000
MTEXTEND
  0
POINT
  5
27C11
330
275E5
100
AcDbEntity
  8
DEFPOINTS
 62
     0
 48
50.0
100
AcDbPoint
 10
10683.6
 20
6751.346831367044
 30
0.0
  0
POINT
  5
27C12
330
275E5
100
AcDbEntity
  8
DEFPOINTS
 62
     0
 48
50.0
100
AcDbPoint
 10
9863.600000000001
 20
6751.346831367044
 30
0.0
  0
POINT
  5
27C13
330
275E5
100
AcDbEntity
  8
DEFPOINTS
 62
     0
 48
50.0
100
AcDbPoint
 10
9863.600000000001
 20
7916.955648037292
 30
0.0
  0
ENDBLK
  5
275F0
330
275E5
100
AcDbEntity
  8
0
 48
50.0
100
AcDbBlockEnd
  0
BLOCK
  5
275FB
330
275F1
100
AcDbEntity
  8
0
 48
50.0
100
AcDbBlockBegin
  2
*D52
 70
     1
 10
0.0
 20
0.0
 30
0.0
  3
*D52
  1

  0
LINE
  5
27BF9
330
275F1
100
AcDbEntity
  8
寸法
 62
     0
 48
50.0
370
    -2
100
AcDbLine
 10
11503.6
 20
6771.346831367043
 30
0.0
 11
11503.6
 21
7976.955648037293
 31
0.0
  0
LINE
  5
27BFA
330
275F1
100
AcDbEntity
  8
寸法
 62
     0
 48
50.0
370
    -2
100
AcDbLine
 10
10683.6
 20
6771.346831367043
 30
0.0
 11
10683.6
 21
7976.955648037293
 31
0.0
  0
LINE
  5
27BFB
330
275F1
100
AcDbEntity
  8
寸法
 62
     0
 48
50.0
370
    -2
100
AcDbLine
 10
11503.6
 20
7916.955648037292
 30
0.0
 11
10683.6
 21
7916.955648037292
 31
0.0
  0
INSERT
  5
27BFC
330
275F1
100
AcDbEntity
  8
寸法
 62
     0
 48
50.0
370
    -2
100
AcDbBlockReference
  2
_DOTSMALL
 10
11503.6
 20
7916.955648037292
 30
0.0
 41
100.0
 42
100.0
 43
100.0
  0
INSERT
  5
27BFD
330
275F1
100
AcDbEntity
  8
寸法
 62
     0
 48
50.0
370
    -2
100
AcDbBlockReference
  2
_DOTSMALL
 10
10683.6
 20
7916.955648037292
 30
0.0
 41
100.0
 42
100.0
 43
100.0
 50
180.0
  0
MTEXT
  5
27BFE
330
275F1
100
AcDbEntity
  8
寸法
 62
     7
 48
50.0
100
AcDbMText
 10
11093.6
 20
8016.967459060913
 30
0.0
 40
120.0
 41
0.0
 71
     5
 72
     1
  1
\A1;820
  7
STYLE1
 73
     1
 44
1.0
1001
ACAD
1000
MTEXTBEGIN
1070
    73
1070
     1
1070
    44
1040
1.0
1070
    74
1070
     0
1000
MTEXTEND
  0
POINT
  5
27BFF
330
275F1
100
AcDbEntity
  8
DEFPOINTS
 62
     0
 48
50.0
100
AcDbPoint
 10
11503.6
 20
6751.346831367044
 30
0.0
  0
POINT
  5
27C00
330
275F1
100
AcDbEntity
  8
DEFPOINTS
 62
     0
 48
50.0
100
AcDbPoint
 10
10683.6
 20
6751.346831367044
 30
0.0
  0
POINT
  5
27C01
330
275F1
100
AcDbEntity
  8
DEFPOINTS
 62
     0
 48
50.0
100
AcDbPoint
 10
10683.6
 20
7916.955648037292
 30
0.0
  0
ENDBLK
  5
275FC
330
275F1
100
AcDbEntity
  8
0
 48
50.0
100
AcDbBlockEnd
  0
BLOCK
  5
27607
330
275FD
100
AcDbEntity
  8
0
 48
50.0
100
AcDbBlockBegin
  2
*D53
 70
     1
 10
0.0
 20
0.0
 30
0.0
  3
*D53
  1

  0
LINE
  5
27C1D
330
275FD
100
AcDbEntity
  8
寸法
 62
     0
 48
50.0
370
    -2
100
AcDbLine
 10
9863.600000000001
 20
6771.346831367043
 30
0.0
 11
9863.600000000001
 21
7976.955648037293
 31
0.0
  0
LINE
  5
27C1E
330
275FD
100
AcDbEntity
  8
寸法
 62
     0
 48
50.0
370
    -2
100
AcDbLine
 10
9043.600000000008
 20
6771.346831367043
 30
0.0
 11
9043.600000000008
 21
7976.955648037293
 31
0.0
  0
LINE
  5
27C1F
330
275FD
100
AcDbEntity
  8
寸法
 62
     0
 48
50.0
370
    -2
100
AcDbLine
 10
9863.600000000001
 20
7916.955648037292
 30
0.0
 11
9043.600000000008
 21
7916.955648037292
 31
0.0
  0
INSERT
  5
27C20
330
275FD
100
AcDbEntity
  8
寸法
 62
     0
 48
50.0
370
    -2
100
AcDbBlockReference
  2
_DOTSMALL
 10
9863.600000000001
 20
7916.955648037292
 30
0.0
 41
100.0
 42
100.0
 43
100.0
  0
INSERT
  5
27C21
330
275FD
100
AcDbEntity
  8
寸法
 62
     0
 48
50.0
370
    -2
100
AcDbBlockReference
  2
_DOTSMALL
 10
9043.600000000008
 20
7916.955648037292
 30
0.0
 41
100.0
 42
100.0
 43
100.0
 50
180.0
  0
MTEXT
  5
27C22
330
275FD
100
AcDbEntity
  8
寸法
 62
     7
 48
50.0
100
AcDbMText
 10
9453.600000000005
 20
8016.967459060913
 30
0.0
 40
120.0
 41
0.0
 71
     5
 72
     1
  1
\A1;820
  7
STYLE1
 73
     1
 44
1.0
1001
ACAD
1000
MTEXTBEGIN
1070
    73
1070
     1
1070
    44
1040
1.0
1070
    74
1070
     0
1000
MTEXTEND
  0
POINT
  5
27C23
330
275FD
100
AcDbEntity
  8
DEFPOINTS
 62
     0
 48
50.0
100
AcDbPoint
 10
9863.600000000001
 20
6751.346831367044
 30
0.0
  0
POINT
  5
27C24
330
275FD
100
AcDbEntity
  8
DEFPOINTS
 62
     0
 48
50.0
100
AcDbPoint
 10
9043.600000000008
 20
6751.346831367044
 30
0.0
  0
POINT
  5
27C25
330
275FD
100
AcDbEntity
  8
DEFPOINTS
 62
     0
 48
50.0
100
AcDbPoint
 10
9043.600000000008
 20
7916.955648037292
 30
0.0
  0
ENDBLK
  5
27608
330
275FD
100
AcDbEntity
  8
0
 48
50.0
100
AcDbBlockEnd
  0
BLOCK
  5
28024
330
2801A
100
AcDbEntity
  8
0
 48
50.0
100
AcDbBlockBegin
  2
*D60
 70
     1
 10
0.0
 20
0.0
 30
0.0
  3
*D60
  1

  0
LINE
  5
28064
330
2801A
100
AcDbEntity
  8
寸法
 62
     0
 48
50.0
370
    -2
100
AcDbLine
 10
5917.747930878187
 20
892.2396896053488
 30
0.0
 11
5917.747930878187
 21
441.8100516001886
 31
0.0
  0
LINE
  5
28065
330
2801A
100
AcDbEntity
  8
寸法
 62
     0
 48
50.0
370
    -2
100
AcDbLine
 10
6365.747930878186
 20
892.2396896053488
 30
0.0
 11
6365.747930878186
 21
441.8100516001886
 31
0.0
  0
LINE
  5
28066
330
2801A
100
AcDbEntity
  8
寸法
 62
     0
 48
50.0
370
    -2
100
AcDbLine
 10
5917.747930878187
 20
501.8100516001887
 30
0.0
 11
6365.747930878186
 21
501.8100516001887
 31
0.0
  0
INSERT
  5
28067
330
2801A
100
AcDbEntity
  8
寸法
 62
     0
 48
50.0
370
    -2
100
AcDbBlockReference
  2
_DOTSMALL
 10
5917.747930878187
 20
501.8100516001887
 30
0.0
 41
100.0
 42
100.0
 43
100.0
 50
180.0
  0
INSERT
  5
28068
330
2801A
100
AcDbEntity
  8
寸法
 62
     0
 48
50.0
370
    -2
100
AcDbBlockReference
  2
_DOTSMALL
 10
6365.747930878186
 20
501.8100516001887
 30
0.0
 41
100.0
 42
100.0
 43
100.0
  0
MTEXT
  5
28069
330
2801A
100
AcDbEntity
  8
寸法
 62
     7
 48
50.0
100
AcDbMText
 10
6121.651172199963
 20
601.8100516001887
 30
0.0
 40
120.0
 41
0.0
 71
     5
 72
     1
  1
\A1;300
  7
STYLE1
 73
     1
 44
1.0
1001
ACAD
1000
MTEXTBEGIN
1070
    73
1070
     1
1070
    44
1040
1.0
1070
    74
1070
     0
1000
MTEXTEND
  0
POINT
  5
2806A
330
2801A
100
AcDbEntity
  8
DEFPOINTS
 62
     0
 48
50.0
100
AcDbPoint
 10
5917.747930878187
 20
912.2396896053487
 30
0.0
  0
POINT
  5
2806B
330
2801A
100
AcDbEntity
  8
DEFPOINTS
 62
     0
 48
50.0
100
AcDbPoint
 10
6365.747930878186
 20
912.2396896053487
 30
0.0
  0
POINT
  5
2806C
330
2801A
100
AcDbEntity
  8
DEFPOINTS
 62
     0
 48
50.0
100
AcDbPoint
 10
6365.747930878186
 20
501.8100516001887
 30
0.0
  0
ENDBLK
  5
28025
330
2801A
100
AcDbEntity
  8
0
 48
50.0
100
AcDbBlockEnd
  0
BLOCK
  5
28030
330
28026
100
AcDbEntity
  8
0
 48
50.0
100
AcDbBlockBegin
  2
*D61
 70
     1
 10
0.0
 20
0.0
 30
0.0
  3
*D61
  1

  0
LINE
  5
2806D
330
28026
100
AcDbEntity
  8
寸法
 62
     0
 48
50.0
370
    -2
100
AcDbLine
 10
6025.747930878186
 20
1824.239689605349
 30
0.0
 11
5250.710692316446
 21
1824.239689605349
 31
0.0
  0
LINE
  5
2806E
330
28026
100
AcDbEntity
  8
寸法
 62
     0
 48
50.0
370
    -2
100
AcDbLine
 10
5817.747930878191
 20
1040.239689605348
 30
0.0
 11
5250.710692316446
 21
1040.239689605349
 31
0.0
  0
LINE
  5
2806F
330
28026
100
AcDbEntity
  8
寸法
 62
     0
 48
50.0
370
    -2
100
AcDbLine
 10
5310.710692316447
 20
1824.239689605349
 30
0.0
 11
5310.710692316447
 21
1040.239689605349
 31
0.0
  0
INSERT
  5
28070
330
28026
100
AcDbEntity
  8
寸法
 62
     0
 48
50.0
370
    -2
100
AcDbBlockReference
  2
_DOTSMALL
 10
5310.710692316447
 20
1824.239689605349
 30
0.0
 41
100.0
 42
100.0
 43
100.0
 50
90.0
  0
INSERT
  5
28071
330
28026
100
AcDbEntity
  8
寸法
 62
     0
 48
50.0
370
    -2
100
AcDbBlockReference
  2
_DOTSMALL
 10
5310.710692316447
 20
1040.239689605349
 30
0.0
 41
100.0
 42
100.0
 43
100.0
 50
270.0
  0
MTEXT
  5
28072
330
28026
100
AcDbEntity
  8
寸法
 62
     7
 48
50.0
100
AcDbMText
 10
5210.710692316446
 20
1411.779839261349
 30
0.0
 40
120.0
 41
0.0
 71
     5
 72
     1
  1
\A1;540
  7
STYLE1
 11
0.0000000000000001
 21
1.0
 31
0.0
 73
     1
 44
1.0
1001
ACAD
1000
MTEXTBEGIN
1070
    73
1070
     1
1070
    44
1040
1.0
1070
    74
1070
     0
1000
MTEXTEND
  0
POINT
  5
28073
330
28026
100
AcDbEntity
  8
DEFPOINTS
 62
     0
 48
50.0
100
AcDbPoint
 10
6045.747930878187
 20
1824.239689605349
 30
0.0
  0
POINT
  5
28074
330
28026
100
AcDbEntity
  8
DEFPOINTS
 62
     0
 48
50.0
100
AcDbPoint
 10
5837.74793087819
 20
1040.239689605348
 30
0.0
  0
POINT
  5
28075
330
28026
100
AcDbEntity
  8
DEFPOINTS
 62
     0
 48
50.0
100
AcDbPoint
 10
5310.710692316447
 20
1040.239689605349
 30
0.0
  0
ENDBLK
  5
28031
330
28026
100
AcDbEntity
  8
0
 48
50.0
100
AcDbBlockEnd
  0
BLOCK
  5
2803C
330
28032
100
AcDbEntity
  8
0
 48
50.0
100
AcDbBlockBegin
  2
*D62
 70
     1
 10
0.0
 20
0.0
 30
0.0
  3
*D62
  1

  0
LINE
  5
28076
330
28032
100
AcDbEntity
  8
寸法
 62
     0
 48
50.0
370
    -2
100
AcDbLine
 10
5897.747930878186
 20
1280.239689605348
 30
0.0
 11
5715.327617145727
 21
1280.239689605348
 31
0.0
  0
LINE
  5
28077
330
28032
100
AcDbEntity
  8
寸法
 62
     0
 48
50.0
370
    -2
100
AcDbLine
 10
5817.747930878191
 20
1040.239689605348
 30
0.0
 11
5715.327617145727
 21
1040.239689605348
 31
0.0
  0
LINE
  5
28078
330
28032
100
AcDbEntity
  8
寸法
 62
     0
 48
50.0
370
    -2
100
AcDbLine
 10
5775.327617145727
 20
1280.239689605348
 30
0.0
 11
5775.327617145727
 21
1040.239689605348
 31
0.0
  0
INSERT
  5
28079
330
28032
100
AcDbEntity
  8
寸法
 62
     0
 48
50.0
370
    -2
100
AcDbBlockReference
  2
_DOTSMALL
 10
5775.327617145727
 20
1280.239689605348
 30
0.0
 41
100.0
 42
100.0
 43
100.0
 50
90.0
  0
INSERT
  5
2807A
330
28032
100
AcDbEntity
  8
寸法
 62
     0
 48
50.0
370
    -2
100
AcDbBlockReference
  2
_DOTSMALL
 10
5775.327617145727
 20
1040.239689605348
 30
0.0
 41
100.0
 42
100.0
 43
100.0
 50
270.0
  0
MTEXT
  5
2807B
330
28032
100
AcDbEntity
  8
寸法
 62
     7
 48
50.0
100
AcDbMText
 10
5675.327617145727
 20
1160.239689605349
 30
0.0
 40
120.0
 41
0.0
 71
     5
 72
     1
  1
\A1;150
  7
STYLE1
 11
0.0000000000000001
 21
1.0
 31
0.0
 73
     1
 44
1.0
1001
ACAD
1000
MTEXTBEGIN
1070
    73
1070
     1
1070
    44
1040
1.0
1070
    74
1070
     0
1000
MTEXTEND
  0
POINT
  5
2807C
330
28032
100
AcDbEntity
  8
DEFPOINTS
 62
     0
 48
50.0
100
AcDbPoint
 10
5917.747930878187
 20
1280.239689605348
 30
0.0
  0
POINT
  5
2807D
330
28032
100
AcDbEntity
  8
DEFPOINTS
 62
     0
 48
50.0
100
AcDbPoint
 10
5837.74793087819
 20
1040.239689605348
 30
0.0
  0
POINT
  5
2807E
330
28032
100
AcDbEntity
  8
DEFPOINTS
 62
     0
 48
50.0
100
AcDbPoint
 10
5775.327617145727
 20
1040.239689605348
 30
0.0
  0
ENDBLK
  5
2803D
330
28032
100
AcDbEntity
  8
0
 48
50.0
100
AcDbBlockEnd
  0
BLOCK
  5
2804A
330
2803E
100
AcDbEntity
  8
0
 48
50.0
100
AcDbBlockBegin
  2
*D63
 70
     1
 10
0.0
 20
0.0
 30
0.0
  3
*D63
  1

  0
LINE
  5
2807F
330
2803E
100
AcDbEntity
  8
寸法
 62
     0
 48
50.0
370
    -2
100
AcDbLine
 10
7992.587244055382
 20
1876.99968960535
 30
0.0
 11
8997.710509943251
 21
1876.999689605349
 31
0.0
  0
LINE
  5
28080
330
2803E
100
AcDbEntity
  8
寸法
 62
     0
 48
50.0
370
    -2
100
AcDbLine
 10
8179.787244055381
 20
1824.239689605349
 30
0.0
 11
8997.710509943251
 21
1824.239689605348
 31
0.0
  0
LINE
  5
28081
330
2803E
100
AcDbEntity
  8
寸法
 62
     0
 48
50.0
370
    -2
100
AcDbLine
 10
8937.710509943253
 20
1876.999689605349
 30
0.0
 11
8937.710509943253
 21
1976.999689605349
 31
0.0
  0
LINE
  5
28082
330
2803E
100
AcDbEntity
  8
寸法
 62
     0
 48
50.0
370
    -2
100
AcDbLine
 10
8937.710509943253
 20
1824.239689605348
 30
0.0
 11
8937.710509943253
 21
1092.221882762382
 31
0.0
  0
LINE
  5
28083
330
2803E
100
AcDbEntity
  8
寸法
 62
     0
 48
50.0
370
    -2
100
AcDbLine
 10
8937.710509943253
 20
1876.999689605349
 30
0.0
 11
8937.710509943253
 21
1824.239689605348
 31
0.0
  0
INSERT
  5
28084
330
2803E
100
AcDbEntity
  8
寸法
 62
     0
 48
50.0
370
    -2
100
AcDbBlockReference
  2
_DOTSMALL
 10
8937.710509943253
 20
1876.999689605349
 30
0.0
 41
100.0
 42
100.0
 43
100.0
 50
270.0
  0
INSERT
  5
28085
330
2803E
100
AcDbEntity
  8
寸法
 62
     0
 48
50.0
370
    -2
100
AcDbBlockReference
  2
_DOTSMALL
 10
8937.710509943253
 20
1824.239689605348
 30
0.0
 41
100.0
 42
100.0
 43
100.0
 50
90.0
  0
MTEXT
  5
28086
330
2803E
100
AcDbEntity
  8
寸法
 62
     7
 48
50.0
100
AcDbMText
 10
8837.698698919631
 20
1358.230786183866
 30
0.0
 40
120.0
 41
0.0
 71
     5
 72
     1
  1
\A1;20～25
  7
STYLE1
 11
0.0000000000000001
 21
1.0
 31
0.0
 73
     1
 44
1.0
1001
ACAD
1000
MTEXTBEGIN
1070
    73
1070
     1
1070
    44
1040
1.0
1070
    74
1070
     0
1000
MTEXTEND
  0
POINT
  5
28087
330
2803E
100
AcDbEntity
  8
DEFPOINTS
 62
     0
 48
50.0
100
AcDbPoint
 10
7972.587244055381
 20
1876.99968960535
 30
0.0
  0
POINT
  5
28088
330
2803E
100
AcDbEntity
  8
DEFPOINTS
 62
     0
 48
50.0
100
AcDbPoint
 10
8159.78724405538
 20
1824.239689605349
 30
0.0
  0
POINT
  5
28089
330
2803E
100
AcDbEntity
  8
DEFPOINTS
 62
     0
 48
50.0
100
AcDbPoint
 10
8937.710509943253
 20
1824.239689605348
 30
0.0
  0
ENDBLK
  5
2804B
330
2803E
100
AcDbEntity
  8
0
 48
50.0
100
AcDbBlockEnd
  0
BLOCK
  5
28056
330
2804C
100
AcDbEntity
  8
0
 48
50.0
100
AcDbBlockBegin
  2
*D64
 70
     1
 10
0.0
 20
0.0
 30
0.0
  3
*D64
  1

  0
LINE
  5
2808A
330
2804C
100
AcDbEntity
  8
寸法
 62
     0
 48
50.0
370
    -2
100
AcDbLine
 10
8179.787244055381
 20
1824.239689605349
 30
0.0
 11
8721.655843824224
 21
1824.239689605348
 31
0.0
  0
LINE
  5
2808B
330
2804C
100
AcDbEntity
  8
寸法
 62
     0
 48
50.0
370
    -2
100
AcDbLine
 10
8179.787244055381
 20
1500.239689605348
 30
0.0
 11
8721.655843824224
 21
1500.239689605347
 31
0.0
  0
LINE
  5
2808C
330
2804C
100
AcDbEntity
  8
寸法
 62
     0
 48
50.0
370
    -2
100
AcDbLine
 10
8661.655843824226
 20
1824.239689605349
 30
0.0
 11
8661.655843824226
 21
1500.239689605348
 31
0.0
  0
INSERT
  5
2808D
330
2804C
100
AcDbEntity
  8
寸法
 62
     0
 48
50.0
370
    -2
100
AcDbBlockReference
  2
_DOTSMALL
 10
8661.655843824226
 20
1824.239689605349
 30
0.0
 41
100.0
 42
100.0
 43
100.0
 50
90.0
  0
INSERT
  5
2808E
330
2804C
100
AcDbEntity
  8
寸法
 62
     0
 48
50.0
370
    -2
100
AcDbBlockReference
  2
_DOTSMALL
 10
8661.655843824226
 20
1500.239689605348
 30
0.0
 41
100.0
 42
100.0
 43
100.0
 50
270.0
  0
MTEXT
  5
2808F
330
2804C
100
AcDbEntity
  8
寸法
 62
     7
 48
50.0
100
AcDbMText
 10
8561.655843824224
 20
1662.23968960535
 30
0.0
 40
120.0
 41
0.0
 71
     5
 72
     1
  1
\A1;180
  7
STYLE1
 11
0.0000000000000001
 21
1.0
 31
0.0
 73
     1
 44
1.0
1001
ACAD
1000
MTEXTBEGIN
1070
    73
1070
     1
1070
    44
1040
1.0
1070
    74
1070
     0
1000
MTEXTEND
  0
POINT
  5
28090
330
2804C
100
AcDbEntity
  8
DEFPOINTS
 62
     0
 48
50.0
100
AcDbPoint
 10
8159.78724405538
 20
1824.239689605349
 30
0.0
  0
POINT
  5
28091
330
2804C
100
AcDbEntity
  8
DEFPOINTS
 62
     0
 48
50.0
100
AcDbPoint
 10
8159.78724405538
 20
1500.239689605348
 30
0.0
  0
POINT
  5
28092
330
2804C
100
AcDbEntity
  8
DEFPOINTS
 62
     0
 48
50.0
100
AcDbPoint
 10
8661.655843824226
 20
1500.239689605348
 30
0.0
  0
ENDBLK
  5
28057
330
2804C
100
AcDbEntity
  8
0
 48
50.0
100
AcDbBlockEnd
  0
BLOCK
  5
28062
330
28058
100
AcDbEntity
  8
0
 48
50.0
100
AcDbBlockBegin
  2
*D65
 70
     1
 10
0.0
 20
0.0
 30
0.0
  3
*D65
  1

  0
LINE
  5
28093
330
28058
100
AcDbEntity
  8
寸法
 62
     0
 48
50.0
370
    -2
100
AcDbLine
 10
6237.747930878186
 20
1844.239689605348
 30
0.0
 11
6237.747930878186
 21
2303.907497521729
 31
0.0
  0
LINE
  5
28094
330
28058
100
AcDbEntity
  8
寸法
 62
     0
 48
50.0
370
    -2
100
AcDbLine
 10
6045.747930878187
 20
1844.239689605348
 30
0.0
 11
6045.747930878187
 21
2303.907497521729
 31
0.0
  0
LINE
  5
28095
330
28058
100
AcDbEntity
  8
寸法
 62
     0
 48
50.0
370
    -2
100
AcDbLine
 10
6237.747930878186
 20
2243.907497521729
 30
0.0
 11
6045.747930878187
 21
2243.907497521729
 31
0.0
  0
INSERT
  5
28096
330
28058
100
AcDbEntity
  8
寸法
 62
     0
 48
50.0
370
    -2
100
AcDbBlockReference
  2
_DOTSMALL
 10
6237.747930878186
 20
2243.907497521729
 30
0.0
 41
100.0
 42
100.0
 43
100.0
  0
INSERT
  5
28097
330
28058
100
AcDbEntity
  8
寸法
 62
     0
 48
50.0
370
    -2
100
AcDbBlockReference
  2
_DOTSMALL
 10
6045.747930878187
 20
2243.907497521729
 30
0.0
 41
100.0
 42
100.0
 43
100.0
 50
180.0
  0
MTEXT
  5
28098
330
28058
100
AcDbEntity
  8
寸法
 62
     7
 48
50.0
100
AcDbMText
 10
6141.747930878187
 20
2543.942930592595
 30
0.0
 40
120.0
 41
0.0
 71
     5
 72
     1
  1
\A1;120\P200\P280
  7
STYLE1
 73
     1
 44
1.0
1001
ACAD
1000
MTEXTBEGIN
1070
    73
1070
     1
1070
    44
1040
1.0
1070
    74
1070
     0
1000
MTEXTEND
  0
POINT
  5
28099
330
28058
100
AcDbEntity
  8
DEFPOINTS
 62
     0
 48
50.0
100
AcDbPoint
 10
6237.747930878186
 20
1824.239689605349
 30
0.0
  0
POINT
  5
2809A
330
28058
100
AcDbEntity
  8
DEFPOINTS
 62
     0
 48
50.0
100
AcDbPoint
 10
6045.747930878187
 20
1824.239689605349
 30
0.0
  0
POINT
  5
2809B
330
28058
100
AcDbEntity
  8
DEFPOINTS
 62
     0
 48
50.0
100
AcDbPoint
 10
6045.747930878187
 20
2243.907497521729
 30
0.0
  0
ENDBLK
  5
28063
330
28058
100
AcDbEntity
  8
0
 48
50.0
100
AcDbBlockEnd
  0
ENDSEC
  0
SECTION
  2
ENTITIES
  0
MTEXT
  5
763F
330
747D
100
AcDbEntity
  8
0
100
AcDbMText
 10
302.846345836809
 20
280.1983726409901
 30
0.0
 40
3.5
 41
5.323721266742722
 71
     1
 72
     5
  1

  7
MSMINCHO
 73
     1
 44
1.0
1001
ACAD
1000
MTEXTBEGIN
1070
    73
1070
     1
1070
    44
1040
1.0
1070
    74
1070
     0
1000
MTEXTEND
  0
LINE
  5
10B57
330
747D
100
AcDbEntity
  8
補助
  6
PHANTOM
 62
   230
 48
50.0
100
AcDbLine
 10
139.9999999999995
 20
11409.6
 30
0.0
 11
16307.2
 21
11409.6
 31
0.0
  0
LINE
  5
10B59
330
747D
100
AcDbEntity
  8
仕様書枠
  6
Continuous
 48
50.0
100
AcDbLine
 10
13107.2
 20
1200.0
 30
0.0
 11
13107.2
 21
-0.0000000000000729
 31
0.0
  0
LINE
  5
10B5D
330
747D
100
AcDbEntity
  8
仕様書枠
 48
50.0
100
AcDbLine
 10
140.0
 20
0.0
 30
0.0
 11
16307.2
 21
-0.0000000000000909
 31
0.0
  0
LINE
  5
10B5E
330
747D
100
AcDbEntity
  8
補助
  6
PHANTOM
 62
   230
 48
50.0
100
AcDbLine
 10
16307.2
 20
11409.6
 30
0.0
 11
16307.2
 21
1200.0
 31
0.0
  0
LINE
  5
10B6C
330
747D
100
AcDbEntity
  8
仕様書枠
 48
50.0
100
AcDbLine
 10
13107.2
 20
1200.0
 30
0.0
 11
16307.2
 21
1200.0
 31
0.0
  0
TEXT
  5
10B73
330
747D
100
AcDbEntity
  8
文字
 62
     7
 48
50.0
100
AcDbText
 10
13162.9790565769
 20
895.0906074299405
 30
0.0
 40
200.0
  1
基 礎 図
  7
STYLE2
100
AcDbText
  0
LINE
  5
10B7B
330
747D
100
AcDbEntity
  8
仕様書枠
 48
50.0
100
AcDbLine
 10
13107.2
 20
800.0
 30
0.0
 11
14251.2
 21
800.0
 31
0.0
  0
LINE
  5
10B88
330
747D
100
AcDbEntity
  8
仕様書枠
  6
Continuous
 48
50.0
100
AcDbLine
 10
14251.2
 20
1200.0
 30
0.0
 11
14251.2
 21
800.0
 31
0.0
  0
LINE
  5
16462
330
747D
100
AcDbEntity
  8
仕様書枠
 48
50.0
100
AcDbLine
 10
16307.2
 20
1200.0
 30
0.0
 11
16307.2
 21
-0.0000000000000909
 31
0.0
  0
LINE
  5
1903B
330
747D
100
AcDbEntity
  8
補助
  6
PHANTOM
 62
   230
 48
50.0
100
AcDbLine
 10
140.0
 20
0.0
 30
0.0
 11
139.9999999999995
 21
11409.6
 31
0.0
  0
LEADER
  5
1AC27
330
747D
100
AcDbEntity
  8
寸法
 48
50.0
100
AcDbLeader
  3
INABA_S50G
 73
     0
 74
     0
 75
     1
 40
120.0
 41
720.0000000000001
 76
     3
 10
12328.69549961499
 20
6695.077601426885
 30
0.0
 10
12485.46907400128
 20
6434.063687859053
 30
0.0
 10
12610.46907400128
 20
6434.063687859053
 30
0.0
340
1AC28
1001
ACAD
1000
DSTYLE
1002
{
1070
   341
1005
0
1070
    40
1040
1.0
1070
   343
1005
0
1070
   344
1005
0
1002
}
  0
MTEXT
  5
1AC28
102
{ACAD_REACTORS
330
1AC27
102
}
330
747D
100
AcDbEntity
  8
部品1
 62
     7
 48
50.0
100
AcDbMText
 10
13355.46907400128
 20
6519.063687859054
 30
0.0
 40
120.0
 41
0.0
 71
     6
 72
     1
  1
\A1;床下換気口
  7
STYLE1
 73
     1
 44
1.0
1001
ACAD
1000
MTEXTBEGIN
1070
    73
1070
     1
1070
    44
1040
1.0
1070
    74
1070
     0
1000
MTEXTEND
  0
TEXT
  5
1AC29
330
747D
100
AcDbEntity
  8
部品1
 48
50.0
100
AcDbText
 10
12677.43013846118
 20
5684.240224180107
 30
0.0
 40
80.0
  1
(a=45,b=55,c=75)
  7
STYLE1
100
AcDbText
  0
TEXT
  5
1AC2A
330
747D
100
AcDbEntity
  8
部品1
 48
50.0
100
AcDbText
 10
12518.85112970688
 20
5791.08544504886
 30
0.0
 40
80.0
  1
※a,b,cは屋根の出幅です。
  7
STYLE1
100
AcDbText
  0
MTEXT
  5
1AC2B
102
{ACAD_REACTORS
330
1AC2C
102
}
330
747D
100
AcDbEntity
  8
部品1
 62
     7
 48
50.0
100
AcDbMText
 10
13316.63832569548
 20
5970.396131981935
 30
0.0
 40
120.0
 41
0.0
 71
     6
 72
     1
  1
\A1;屋根の外寸
  7
STYLE1
 73
     1
 44
1.0
1001
ACAD
1000
MTEXTBEGIN
1070
    73
1070
     1
1070
    44
1040
1.0
1070
    74
1070
     0
1000
MTEXTEND
  0
LEADER
  5
1AC2C
330
747D
100
AcDbEntity
  8
寸法
 48
50.0
100
AcDbLeader
  3
INABA_S50G
 73
     0
 74
     0
 75
     1
 40
120.0
 41
672.0
 76
     3
 10
12378.69831350344
 20
6144.285475445511
 30
0.0
 10
12494.63832569548
 20
5885.396131981935
 30
0.0
 10
12619.63832569548
 20
5885.396131981935
 30
0.0
340
1AC2B
1001
ACAD
1000
DSTYLE
1002
{
1070
   341
1005
0
1070
    40
1040
1.0
1070
   343
1005
0
1070
   344
1005
0
1002
}
  0
TEXT
  5
1C7A1
330
747D
100
AcDbEntity
  8
文字
 62
     7
 48
50.0
100
AcDbText
 10
13188.16259899338
 20
79.80631269190417
 30
0.0
 40
80.0
  1
※布基礎には換気口を設けてください。
  7
STYLE2
100
AcDbText
  0
TEXT
  5
1C7E7
330
747D
100
AcDbEntity
  8
文字
 62
     7
 48
50.0
100
AcDbText
 10
13188.16259899338
 20
246.7109242801889
 30
0.0
 40
80.0
  1
※寒冷地等は地域の実情に合わせた基礎にして下さい。
  7
STYLE2
100
AcDbText
  0
TEXT
  5
1C7E8
330
747D
100
AcDbEntity
  8
文字
 62
     7
 48
50.0
100
AcDbText
 10
14240.83094699829
 20
499.5983841039506
 30
0.0
 40
160.0
  1
ＮＸＮ－１２ＤＬ－１０
  7
STYLE2
100
AcDbText
  0
TEXT
  5
1C7EC
330
747D
100
AcDbEntity
  8
文字
 62
     7
 48
50.0
100
AcDbText
 10
14524.131837222
 20
1031.557706291229
 30
0.0
 40
100.0
  1
<縮尺> S=1/40
  7
STYLE2
100
AcDbText
  0
TEXT
  5
1C7ED
330
747D
100
AcDbEntity
  8
文字
 62
     7
 48
50.0
100
AcDbText
 10
13201.43669998441
 20
477.2740661031257
 30
0.0
 40
160.0
  1
機種名
  7
STYLE2
100
AcDbText
  0
LINE
  5
1C7EF
330
747D
100
AcDbEntity
  8
文字
 62
     7
 48
50.0
100
AcDbLine
 10
13187.2
 20
400.0
 30
0.0
 11
16227.2
 21
400.0
 31
0.0
  0
MTEXT
  5
1D2D5
102
{ACAD_REACTORS
330
1D2D6
102
}
330
747D
100
AcDbEntity
  8
部品1
 62
     7
 48
50.0
100
AcDbMText
 10
13523.99523070988
 20
7749.959575609584
 30
0.0
 40
120.0
 41
0.0
 71
     6
 72
     1
  1
アンカーボルト
  7
STYLE1
 73
     1
 44
1.0
1001
ACAD
1000
MTEXTBEGIN
1070
    73
1070
     1
1070
    44
1040
1.0
1070
    74
1070
     0
1000
MTEXTEND
  0
LEADER
  5
1D2D6
330
747D
100
AcDbEntity
  8
寸法
 48
50.0
100
AcDbLeader
  3
INABA_S50G
 73
     0
 74
     0
 75
     1
 40
120.0
 41
994.3492424049171
 76
     3
 10
12205.680085757
 20
7311.554675725787
 30
0.0
 10
12379.64598830496
 20
7664.959575609585
 30
0.0
 10
12504.64598830496
 20
7664.959575609585
 30
0.0
340
1D2D5
1001
ACAD
1000
DSTYLE
1002
{
1070
   341
1005
0
1070
    40
1040
1.0
1070
   343
1005
0
1070
   344
1005
0
1002
}
  0
MTEXT
  5
1D332
102
{ACAD_REACTORS
330
1D333
102
}
330
747D
100
AcDbEntity
  8
部品1
 62
     7
 48
50.0
100
AcDbMText
 10
12018.82869701569
 20
6555.982534879387
 30
0.0
 40
120.0
 41
0.0
 71
     6
 72
     1
  1
CB
  7
STYLE1
 73
     1
 44
1.0
1001
ACAD
1000
MTEXTBEGIN
1070
    73
1070
     1
1070
    44
1040
1.0
1070
    74
1070
     0
1000
MTEXTEND
  0
LEADER
  5
1D333
330
747D
100
AcDbEntity
  8
寸法
 48
50.0
100
AcDbLeader
  3
INABA_S50G
 73
     0
 74
     0
 75
     1
 40
120.0
 41
149.591883092037
 76
     3
 10
11591.95401106101
 20
6693.700848434213
 30
0.0
 10
11719.23681392365
 20
6470.982534879387
 30
0.0
 10
11844.23681392365
 20
6470.982534879387
 30
0.0
340
1D332
1001
ACAD
1000
DSTYLE
1002
{
1070
   341
1005
0
1070
    40
1040
1.0
1070
   343
1005
0
1070
   344
1005
0
1002
}
  0
DIMENSION
  5
20DE1
330
747D
100
AcDbEntity
  8
寸法
 48
50.0
100
AcDbDimension
  2
*D19
 10
12373.6
 20
8392.567153425977
 30
0.0
 11
12644.77462120246
 21
8392.567153425977
 31
0.0
 70
   160
  1
a
 71
     5
 42
45.0
  3
INABA_S40G
100
AcDbAlignedDimension
 13
12328.6
 23
7434.346831367055
 33
0.0
 14
12373.6
 24
8160.613289460966
 34
0.0
100
AcDbRotatedDimension
1001
ACAD
1000
DSTYLE
1002
{
1070
   341
1005
0
1002
}
  0
DIMENSION
  5
20DFB
330
747D
100
AcDbEntity
  8
寸法
 48
50.0
100
AcDbDimension
  2
*D20
 10
4118.6
 20
8392.567153425964
 30
0.0
 11
3802.425378797541
 21
8392.567153425964
 31
0.0
 70
   160
  1
a
 71
     5
 42
45.0
  3
INABA_S40G
100
AcDbAlignedDimension
 13
4073.6
 23
8160.613289460956
 33
0.0
 14
4118.6
 24
7434.346831367044
 34
0.0
100
AcDbRotatedDimension
1001
ACAD
1000
DSTYLE
1002
{
1070
   341
1005
0
1002
}
  0
LINE
  5
22711
330
747D
100
AcDbEntity
  8
想像線
 48
10.0
100
AcDbLine
 10
12373.6
 20
7509.346831367079
 30
0.0
 11
4073.6
 21
7509.346831367093
 31
0.0
  0
LINE
  5
22712
330
747D
100
AcDbEntity
  8
想像線
 48
10.0
100
AcDbLine
 10
4073.599999999993
 20
5839.34683136706
 30
0.0
 11
4073.6
 21
7509.346831367053
 31
0.0
  0
LINE
  5
22713
330
747D
100
AcDbEntity
  8
想像線
 48
10.0
100
AcDbLine
 10
12373.6
 20
5839.346831367093
 30
0.0
 11
12373.6
 21
7509.346831367079
 31
0.0
  0
LINE
  5
22714
330
747D
100
AcDbEntity
  8
想像線
 48
10.0
100
AcDbLine
 10
12373.6
 20
5839.346831367093
 30
0.0
 11
4073.599999999993
 21
5839.346831367078
 31
0.0
  0
DIMENSION
  5
22741
330
747D
100
AcDbEntity
  8
寸法
 48
50.0
100
AcDbDimension
  2
*D25
 10
3243.721909610673
 20
7434.346831367044
 30
0.0
 11
3143.721909610672
 21
7471.84683136705
 31
0.0
 70
    32
  1
c
 71
     5
 42
75.00000000000636
  3
INABA_S40G
100
AcDbAlignedDimension
 13
3495.665006330064
 23
7509.346831367051
 33
0.0
 14
4118.6
 24
7434.346831367044
 34
0.0
 50
90.0
100
AcDbRotatedDimension
1001
ACAD
1000
DSTYLE
1002
{
1070
   341
1005
0
1002
}
  0
DIMENSION
  5
2275B
330
747D
100
AcDbEntity
  8
寸法
 48
50.0
100
AcDbDimension
  2
*D26
 10
3243.721909610673
 20
5839.34683136707
 30
0.0
 11
3143.721909610672
 21
5866.846831367057
 31
0.0
 70
    32
  1
b
 71
     5
 42
54.99999999997453
  3
INABA_S40G
100
AcDbAlignedDimension
 13
4118.6
 23
5894.346831367044
 33
0.0
 14
3495.665006330071
 24
5839.34683136707
 34
0.0
 50
90.0
100
AcDbRotatedDimension
1001
ACAD
1000
DSTYLE
1002
{
1070
   341
1005
0
1002
}
  0
LINE
  5
27310
330
747D
100
AcDbEntity
  8
部品1
 48
50.0
100
AcDbLine
 10
12208.6
 20
7234.34683136704
 30
0.0
 11
4238.599999999993
 21
7234.346831367043
 31
0.0
  0
DIMENSION
  5
27311
330
747D
100
AcDbEntity
  8
寸法
 48
50.0
100
AcDbDimension
  2
*D30
 10
8105.6
 20
8160.613289460954
 30
0.0
 11
8925.600000000001
 21
8260.613289460954
 31
0.0
 70
    32
 71
     5
 42
1640.0
  3
INABA_S40G
100
AcDbAlignedDimension
 13
9745.600000000001
 23
7361.346831367043
 33
0.0
 14
8105.6
 24
7361.346831367043
 34
0.0
100
AcDbRotatedDimension
1001
ACAD
1000
DSTYLE
1002
{
1070
   341
1005
0
1002
}
  0
DIMENSION
  5
27312
330
747D
100
AcDbEntity
  8
寸法
 48
50.0
100
AcDbDimension
  2
*D31
 10
8223.600000000015
 20
7916.955648037292
 30
0.0
 11
8633.600000000011
 21
8016.967459060913
 31
0.0
 70
    32
 71
     5
 42
819.9999999999928
  3
INABA_S40G
100
AcDbAlignedDimension
 13
9043.600000000008
 23
6751.346831367044
 33
0.0
 14
8223.600000000015
 24
6751.346831367044
 34
0.0
100
AcDbRotatedDimension
1001
ACAD
1000
DSTYLE
1002
{
1070
   341
1005
0
1002
}
  0
LINE
  5
27314
330
747D
100
AcDbEntity
  8
部品1
 48
50.0
100
AcDbLine
 10
12328.6
 20
7434.346831367044
 30
0.0
 11
4118.6
 21
7434.346831367044
 31
0.0
  0
LINE
  5
27316
330
747D
100
AcDbEntity
  8
部品1
 48
50.0
100
AcDbLine
 10
12328.6
 20
5894.346831367078
 30
0.0
 11
4118.599999999992
 21
5894.34683136704
 31
0.0
  0
DIMENSION
  5
27317
330
747D
100
AcDbEntity
  8
寸法
 48
50.0
100
AcDbDimension
  2
*D32
 10
12328.6
 20
8392.567153425963
 30
0.0
 11
8223.600000000001
 21
8492.578964449583
 31
0.0
 70
    32
 71
     5
 42
8210.0
  3
INABA_S40G
100
AcDbAlignedDimension
 13
4118.6
 23
7434.346831367044
 33
0.0
 14
12328.6
 24
7434.346831367044
 34
0.0
100
AcDbRotatedDimension
1001
ACAD
1000
DSTYLE
1002
{
1070
   341
1005
0
1002
}
  0
DIMENSION
  5
27318
330
747D
100
AcDbEntity
  8
寸法
 48
50.0
100
AcDbDimension
  2
*D33
 10
6583.600000000008
 20
7916.955648037292
 30
0.0
 11
6993.600000000004
 21
8016.967459060913
 31
0.0
 70
    32
 71
     5
 42
819.9999999999928
  3
INABA_S40G
100
AcDbAlignedDimension
 13
7403.6
 23
6751.346831367044
 33
0.0
 14
6583.600000000008
 24
6751.346831367044
 34
0.0
100
AcDbRotatedDimension
1001
ACAD
1000
DSTYLE
1002
{
1070
   341
1005
0
1002
}
  0
DIMENSION
  5
27319
330
747D
100
AcDbEntity
  8
寸法
 48
50.0
100
AcDbDimension
  2
*D34
 10
7403.600000000007
 20
7916.955648037292
 30
0.0
 11
7813.600000000008
 21
8016.967459060913
 31
0.0
 70
    32
 71
     5
 42
820.0
  3
INABA_S40G
100
AcDbAlignedDimension
 13
8223.600000000008
 23
6751.346831367044
 33
0.0
 14
7403.600000000007
 24
6751.346831367044
 34
0.0
100
AcDbRotatedDimension
1001
ACAD
1000
DSTYLE
1002
{
1070
   341
1005
0
1002
}
  0
DIMENSION
  5
2731A
330
747D
100
AcDbEntity
  8
寸法
 48
50.0
100
AcDbDimension
  2
*D35
 10
5763.600000000008
 20
7916.955648037292
 30
0.0
 11
6173.600000000007
 21
8016.967459060913
 31
0.0
 70
    32
 71
     5
 42
820.0
  3
INABA_S40G
100
AcDbAlignedDimension
 13
6583.600000000008
 23
6751.346831367044
 33
0.0
 14
5763.600000000008
 24
6751.346831367044
 34
0.0
100
AcDbRotatedDimension
1001
ACAD
1000
DSTYLE
1002
{
1070
   341
1005
0
1002
}
  0
DIMENSION
  5
2731B
330
747D
100
AcDbEntity
  8
寸法
 48
50.0
100
AcDbDimension
  2
*D36
 10
4632.442995307155
 20
7434.346831367044
 30
0.0
 11
4632.442995307154
 21
6993.94162206122
 31
0.0
 70
   160
 71
     5
 42
733.0
  3
INABA_S40G
100
AcDbAlignedDimension
 13
4893.600000000008
 23
6701.346831367044
 33
0.0
 14
4562.765475140901
 24
7434.346831367044
 34
0.0
 50
90.0
100
AcDbRotatedDimension
1001
ACAD
1000
DSTYLE
1002
{
1070
   341
1005
0
1002
}
  0
DIMENSION
  5
2731C
330
747D
100
AcDbEntity
  8
寸法
 48
50.0
100
AcDbDimension
  2
*D37
 10
4118.6
 20
7916.955648037292
 30
0.0
 11
4531.100000000004
 21
8016.967459060913
 31
0.0
 70
    32
 71
     5
 42
825.0000000000072
  3
INABA_S40G
100
AcDbAlignedDimension
 13
4943.600000000007
 23
6751.346831367044
 33
0.0
 14
4118.6
 24
7434.346831367044
 34
0.0
100
AcDbRotatedDimension
1001
ACAD
1000
DSTYLE
1002
{
1070
   341
1005
0
1002
}
  0
DIMENSION
  5
2731E
330
747D
100
AcDbEntity
  8
寸法
 48
50.0
100
AcDbDimension
  2
*D38
 10
3243.721909610674
 20
5894.346831367044
 30
0.0
 11
3243.721909610673
 21
6701.846831367044
 31
0.0
 70
   160
 71
     5
 42
1540.0
  3
INABA_S40G
100
AcDbAlignedDimension
 13
4118.6
 23
7434.346831367044
 33
0.0
 14
4118.6
 24
5894.346831367044
 34
0.0
 50
90.0
100
AcDbRotatedDimension
1001
ACAD
1000
DSTYLE
1002
{
1070
   341
1005
0
1002
}
  0
LINE
  5
2731F
330
747D
100
AcDbEntity
  8
部品1
 48
50.0
100
AcDbLine
 10
4118.6
 20
5894.346831367044
 30
0.0
 11
4118.6
 21
7434.346831367044
 31
0.0
  0
DIMENSION
  5
27321
330
747D
100
AcDbEntity
  8
寸法
 48
50.0
100
AcDbDimension
  2
*D39
 10
3495.665006330072
 20
6092.346831367048
 30
0.0
 11
3495.665006330071
 21
6701.846831367044
 31
0.0
 70
   160
 71
     5
 42
1218.999999999996
  3
INABA_S40G
100
AcDbAlignedDimension
 13
4191.6
 23
7311.346831367043
 33
0.0
 14
4191.600000000007
 24
6092.346831367048
 34
0.0
 50
90.0
100
AcDbRotatedDimension
1001
ACAD
1000
DSTYLE
1002
{
1070
   341
1005
0
1002
}
  0
DIMENSION
  5
27322
330
747D
100
AcDbEntity
  8
寸法
 48
50.0
100
AcDbDimension
  2
*D40
 10
4943.600000000007
 20
7916.955648037292
 30
0.0
 11
5353.600000000008
 21
8016.967459060913
 31
0.0
 70
    32
 71
     5
 42
820.0
  3
INABA_S40G
100
AcDbAlignedDimension
 13
5763.600000000008
 23
6751.346831367044
 33
0.0
 14
4943.600000000007
 24
6751.346831367044
 34
0.0
100
AcDbRotatedDimension
1001
ACAD
1000
DSTYLE
1002
{
1070
   341
1005
0
1002
}
  0
DIMENSION
  5
27323
330
747D
100
AcDbEntity
  8
寸法
 48
50.0
100
AcDbDimension
  2
*D41
 10
6136.819725318589
 20
5894.346831367051
 30
0.0
 11
6136.819725318588
 21
5607.383248689868
 31
0.0
 70
   160
 71
     5
 42
280.0
  3
INABA_S40G
100
AcDbAlignedDimension
 13
6273.600000000005
 23
6174.34683136705
 33
0.0
 14
6273.600000000013
 24
5894.34683136705
 34
0.0
 50
90.0
100
AcDbRotatedDimension
1001
ACAD
1000
DSTYLE
1002
{
1070
   341
1005
0
1002
}
  0
DIMENSION
  5
27324
330
747D
100
AcDbEntity
  8
寸法
 48
50.0
100
AcDbDimension
  2
*D42
 10
3495.665006330072
 20
5894.346831367044
 30
0.0
 11
3495.665006330071
 21
5558.815882524452
 31
0.0
 70
   160
 71
     5
 42
198.0000000000036
  3
INABA_S40G
100
AcDbAlignedDimension
 13
4191.600000000007
 23
6092.346831367048
 33
0.0
 14
4118.6
 24
5894.346831367044
 34
0.0
 50
90.0
100
AcDbRotatedDimension
1001
ACAD
1000
DSTYLE
1002
{
1070
   341
1005
0
1002
}
  0
ARC
  5
27326
330
747D
100
AcDbEntity
  8
想像線
 48
5.0
100
AcDbCircle
 10
4888.6
 20
5894.346831367047
 30
0.0
 40
720.0
100
AcDbArc
 50
180.0
 51
270.0
  0
DIMENSION
  5
27327
330
747D
100
AcDbEntity
  8
寸法
 48
50.0
100
AcDbDimension
  2
*D43
 10
4005.512673767879
 20
5174.34683136704
 30
0.0
 11
4005.512673767878
 21
5534.346831367042
 31
0.0
 70
   160
  1
扉の出<>
 71
     5
 42
720.0
  3
INABA_S40G
100
AcDbAlignedDimension
 13
4118.6
 23
5894.34683136704
 33
0.0
 14
4474.325326928805
 24
5174.34683136704
 34
0.0
 50
90.0
100
AcDbRotatedDimension
1001
ACAD
1000
DSTYLE
1002
{
1070
   341
1005
0
1002
}
  0
LINE
  5
27328
330
747D
100
AcDbEntity
  8
想像線
 48
5.0
100
AcDbLine
 10
4888.6
 20
5894.346831367059
 30
0.0
 11
4888.6
 21
5174.346831367047
 31
0.0
  0
LINE
  5
27329
330
747D
100
AcDbEntity
  8
センター
 48
2.0
100
AcDbLine
 10
4241.600000000008
 20
6142.346831367047
 30
0.0
 11
4241.600000000008
 21
6042.346831367048
 31
0.0
  0
CIRCLE
  5
2732A
330
747D
100
AcDbEntity
  8
部品1
 48
50.0
100
AcDbCircle
 10
4241.599999999993
 20
6092.346831367048
 30
0.0
 40
35.0
  0
LINE
  5
2732B
330
747D
100
AcDbEntity
  8
センター
 48
2.0
100
AcDbLine
 10
4191.600000000007
 20
6092.346831367048
 30
0.0
 11
4291.600000000007
 21
6092.346831367048
 31
0.0
  0
LINE
  5
2732C
330
747D
100
AcDbEntity
  8
細線
 48
50.0
100
AcDbLine
 10
4121.280033447561
 20
6589.346831367052
 30
0.0
 11
4238.599999999996
 21
6706.666797919486
 31
0.0
  0
LINE
  5
2732D
330
747D
100
AcDbEntity
  8
細線
 48
50.0
100
AcDbLine
 10
4118.6
 20
6631.568078524837
 30
0.0
 11
4238.599999999996
 21
6751.568078524832
 31
0.0
  0
LINE
  5
2732E
330
747D
100
AcDbEntity
  8
細線
 48
50.0
100
AcDbLine
 10
4118.6
 20
6676.469359130184
 30
0.0
 11
4231.477472236874
 21
6789.346831367054
 31
0.0
  0
LINE
  5
2732F
330
747D
100
AcDbEntity
  8
細線
 48
50.0
100
AcDbLine
 10
4118.599999999998
 20
6721.370639735531
 30
0.0
 11
4186.576191631524
 21
6789.346831367057
 31
0.0
  0
LINE
  5
27330
330
747D
100
AcDbEntity
  8
細線
 48
50.0
100
AcDbLine
 10
4118.6
 20
6766.271920340874
 30
0.0
 11
4141.674911026181
 21
6789.346831367055
 31
0.0
  0
LINE
  5
27331
330
747D
100
AcDbEntity
  8
部品1
 48
50.0
100
AcDbLine
 10
4238.599999999995
 20
6789.346831367055
 30
0.0
 11
4118.6
 21
6789.346831367055
 31
0.0
  0
LINE
  5
27332
330
747D
100
AcDbEntity
  8
部品1
 48
50.0
100
AcDbLine
 10
4238.599999999997
 20
6589.346831367054
 30
0.0
 11
4118.6
 21
6589.346831367056
 31
0.0
  0
LINE
  5
27333
330
747D
100
AcDbEntity
  8
細線
 48
50.0
100
AcDbLine
 10
4211.082594658251
 20
6589.346831367052
 30
0.0
 11
4238.599999999997
 21
6616.864236708791
 31
0.0
  0
LINE
  5
27334
330
747D
100
AcDbEntity
  8
細線
 48
50.0
100
AcDbLine
 10
4166.181314052908
 20
6589.346831367056
 30
0.0
 11
4238.599999999997
 21
6661.76551731414
 31
0.0
  0
DIMENSION
  5
27335
330
747D
100
AcDbEntity
  8
寸法
 48
50.0
100
AcDbDimension
  2
*D44
 10
4632.442995307155
 20
6701.346831367044
 30
0.0
 11
4632.442995307154
 21
6379.346831367044
 31
0.0
 70
   160
 71
     5
 42
806.999999999989
  3
INABA_S40G
100
AcDbAlignedDimension
 13
4562.765475140901
 23
5894.346831367055
 33
0.0
 14
4893.600000000008
 24
6701.346831367044
 34
0.0
 50
90.0
100
AcDbRotatedDimension
1001
ACAD
1000
DSTYLE
1002
{
1070
   341
1005
0
1002
}
  0
LINE
  5
27336
330
747D
100
AcDbEntity
  8
細線
 48
50.0
100
AcDbLine
 10
4569.404364949124
 20
5894.346831367078
 30
0.0
 11
4633.600000000011
 21
5958.542466417965
 31
0.0
  0
LINE
  5
27337
330
747D
100
AcDbEntity
  8
細線
 48
50.0
100
AcDbLine
 10
4479.601803738431
 20
5894.346831367077
 30
0.0
 11
4633.60000000001
 21
6048.345027628655
 31
0.0
  0
LINE
  5
27338
330
747D
100
AcDbEntity
  8
細線
 48
50.0
100
AcDbLine
 10
4524.503084343778
 20
5894.346831367077
 30
0.0
 11
4633.60000000001
 21
6003.44374702331
 31
0.0
  0
LINE
  5
27339
330
747D
100
AcDbEntity
  8
部品1
 48
50.0
100
AcDbLine
 10
4633.600000000004
 20
6174.346831367042
 30
0.0
 11
4633.600000000013
 21
5894.346831367078
 31
0.0
  0
LINE
  5
2733A
330
747D
100
AcDbEntity
  8
部品1
 48
50.0
100
AcDbLine
 10
4433.600000000004
 20
6174.34683136704
 30
0.0
 11
4433.600000000013
 21
5894.346831367075
 31
0.0
  0
LINE
  5
2733B
330
747D
100
AcDbEntity
  8
細線
 48
50.0
100
AcDbLine
 10
4433.600000000011
 20
5938.147588839349
 30
0.0
 11
4633.600000000006
 21
6138.147588839339
 31
0.0
  0
LINE
  5
2733C
330
747D
100
AcDbEntity
  8
細線
 48
50.0
100
AcDbLine
 10
4434.700523133083
 20
5894.346831367077
 30
0.0
 11
4633.600000000007
 21
6093.246308234
 31
0.0
  0
LINE
  5
2733D
330
747D
100
AcDbEntity
  8
細線
 48
50.0
100
AcDbLine
 10
4614.305645554472
 20
5894.34683136708
 30
0.0
 11
4633.600000000013
 21
5913.641185812622
 31
0.0
  0
LINE
  5
2733E
330
747D
100
AcDbEntity
  8
細線
 48
50.0
100
AcDbLine
 10
4433.600000000009
 20
6027.950150050039
 30
0.0
 11
4579.996681317012
 21
6174.346831367041
 31
0.0
  0
LINE
  5
2733F
330
747D
100
AcDbEntity
  8
細線
 48
50.0
100
AcDbLine
 10
4433.600000000009
 20
5983.048869444692
 30
0.0
 11
4624.897961922358
 21
6174.346831367041
 31
0.0
  0
LINE
  5
27340
330
747D
100
AcDbEntity
  8
細線
 48
50.0
100
AcDbLine
 10
4433.600000000008
 20
6072.851430655385
 30
0.0
 11
4535.095400711663
 21
6174.34683136704
 31
0.0
  0
LINE
  5
27341
330
747D
100
AcDbEntity
  8
細線
 48
50.0
100
AcDbLine
 10
4433.600000000006
 20
6117.752711260729
 30
0.0
 11
4490.194120106321
 21
6174.346831367041
 31
0.0
  0
LINE
  5
27342
330
747D
100
AcDbEntity
  8
センター
 48
2.0
100
AcDbLine
 10
4893.600000000008
 20
6701.346831367044
 30
0.0
 11
4993.600000000007
 21
6701.346831367044
 31
0.0
  0
LINE
  5
27343
330
747D
100
AcDbEntity
  8
部品1
 48
50.0
100
AcDbLine
 10
5043.600000000008
 20
6801.346831367045
 30
0.0
 11
4843.600000000008
 21
6801.346831367045
 31
0.0
  0
LINE
  5
27344
330
747D
100
AcDbEntity
  8
部品1
 48
50.0
100
AcDbLine
 10
5043.600000000008
 20
6601.346831367044
 30
0.0
 11
4843.600000000008
 21
6601.346831367044
 31
0.0
  0
LINE
  5
27345
330
747D
100
AcDbEntity
  8
部品1
 48
50.0
100
AcDbLine
 10
4843.600000000008
 20
6601.346831367044
 30
0.0
 11
4843.600000000008
 21
6801.346831367045
 31
0.0
  0
LINE
  5
27346
330
747D
100
AcDbEntity
  8
センター
 48
2.0
100
AcDbLine
 10
4943.600000000007
 20
6751.346831367044
 30
0.0
 11
4943.600000000007
 21
6651.346831367044
 31
0.0
  0
LINE
  5
27347
330
747D
100
AcDbEntity
  8
部品1
 48
50.0
100
AcDbLine
 10
5043.600000000008
 20
6601.346831367044
 30
0.0
 11
5043.600000000008
 21
6801.346831367045
 31
0.0
  0
LINE
  5
27354
330
747D
100
AcDbEntity
  8
部品1
 48
50.0
100
AcDbLine
 10
5863.600000000008
 20
6601.346831367044
 30
0.0
 11
5663.600000000008
 21
6601.346831367044
 31
0.0
  0
LINE
  5
27355
330
747D
100
AcDbEntity
  8
部品1
 48
50.0
100
AcDbLine
 10
5863.600000000008
 20
6801.346831367045
 30
0.0
 11
5663.600000000008
 21
6801.346831367045
 31
0.0
  0
LINE
  5
27356
330
747D
100
AcDbEntity
  8
センター
 48
2.0
100
AcDbLine
 10
5713.600000000008
 20
6701.346831367044
 30
0.0
 11
5813.600000000008
 21
6701.346831367044
 31
0.0
  0
LINE
  5
27357
330
747D
100
AcDbEntity
  8
部品1
 48
50.0
100
AcDbLine
 10
5663.600000000008
 20
6601.346831367044
 30
0.0
 11
5663.600000000008
 21
6801.346831367045
 31
0.0
  0
LINE
  5
27358
330
747D
100
AcDbEntity
  8
センター
 48
2.0
100
AcDbLine
 10
5763.600000000008
 20
6751.346831367044
 30
0.0
 11
5763.600000000008
 21
6651.346831367044
 31
0.0
  0
LINE
  5
27359
330
747D
100
AcDbEntity
  8
部品1
 48
50.0
100
AcDbLine
 10
5863.600000000008
 20
6601.346831367044
 30
0.0
 11
5863.600000000008
 21
6801.346831367045
 31
0.0
  0
CIRCLE
  5
27366
330
747D
100
AcDbEntity
  8
部品1
 48
50.0
100
AcDbCircle
 10
6465.600000000008
 20
6092.346831367048
 30
0.0
 40
35.0
  0
LINE
  5
27367
330
747D
100
AcDbEntity
  8
センター
 48
2.0
100
AcDbLine
 10
6415.600000000008
 20
6092.346831367048
 30
0.0
 11
6515.600000000008
 21
6092.346831367048
 31
0.0
  0
LINE
  5
27368
330
747D
100
AcDbEntity
  8
センター
 48
2.0
100
AcDbLine
 10
6465.600000000008
 20
6142.346831367047
 30
0.0
 11
6465.600000000008
 21
6042.346831367048
 31
0.0
  0
LINE
  5
27369
330
747D
100
AcDbEntity
  8
センター
 48
2.0
100
AcDbLine
 10
6533.600000000008
 20
6701.346831367044
 30
0.0
 11
6633.600000000008
 21
6701.346831367044
 31
0.0
  0
LINE
  5
2736A
330
747D
100
AcDbEntity
  8
部品1
 48
50.0
100
AcDbLine
 10
6683.600000000009
 20
6601.346831367044
 30
0.0
 11
6483.600000000008
 21
6601.346831367044
 31
0.0
  0
LINE
  5
2736B
330
747D
100
AcDbEntity
  8
部品1
 48
50.0
100
AcDbLine
 10
6683.600000000009
 20
6801.346831367045
 30
0.0
 11
6483.600000000008
 21
6801.346831367045
 31
0.0
  0
LINE
  5
2736C
330
747D
100
AcDbEntity
  8
センター
 48
2.0
100
AcDbLine
 10
6583.600000000008
 20
6751.346831367044
 30
0.0
 11
6583.600000000008
 21
6651.346831367044
 31
0.0
  0
LINE
  5
2736D
330
747D
100
AcDbEntity
  8
部品1
 48
50.0
100
AcDbLine
 10
6483.600000000008
 20
6601.346831367044
 30
0.0
 11
6483.600000000008
 21
6801.346831367045
 31
0.0
  0
LINE
  5
2736E
330
747D
100
AcDbEntity
  8
部品1
 48
50.0
100
AcDbLine
 10
6683.600000000009
 20
6601.346831367044
 30
0.0
 11
6683.600000000009
 21
6801.346831367045
 31
0.0
  0
LINE
  5
2737B
330
747D
100
AcDbEntity
  8
部品1
 48
50.0
100
AcDbLine
 10
7503.600000000007
 20
6801.346831367045
 30
0.0
 11
7303.600000000007
 21
6801.346831367045
 31
0.0
  0
LINE
  5
2737C
330
747D
100
AcDbEntity
  8
部品1
 48
50.0
100
AcDbLine
 10
7503.600000000007
 20
6601.346831367044
 30
0.0
 11
7303.600000000007
 21
6601.346831367044
 31
0.0
  0
LINE
  5
2737D
330
747D
100
AcDbEntity
  8
センター
 48
2.0
100
AcDbLine
 10
7353.600000000007
 20
6701.346831367044
 30
0.0
 11
7453.600000000007
 21
6701.346831367044
 31
0.0
  0
LINE
  5
2737E
330
747D
100
AcDbEntity
  8
センター
 48
2.0
100
AcDbLine
 10
7403.600000000007
 20
6751.346831367044
 30
0.0
 11
7403.600000000007
 21
6651.346831367044
 31
0.0
  0
LINE
  5
2737F
330
747D
100
AcDbEntity
  8
部品1
 48
50.0
100
AcDbLine
 10
7303.600000000007
 20
6601.346831367044
 30
0.0
 11
7303.600000000007
 21
6801.346831367045
 31
0.0
  0
LINE
  5
27380
330
747D
100
AcDbEntity
  8
部品1
 48
50.0
100
AcDbLine
 10
7503.600000000007
 20
6601.346831367044
 30
0.0
 11
7503.600000000007
 21
6801.346831367045
 31
0.0
  0
TEXT
  5
2738D
330
747D
100
AcDbEntity
  8
寸法
 48
50.0
100
AcDbText
 10
8200.382642981955
 20
5913.028122159782
 30
0.0
 40
120.0
  1
扉面
  7
STYLE1
100
AcDbText
  0
LINE
  5
2738E
330
747D
100
AcDbEntity
  8
センター
 48
2.0
100
AcDbLine
 10
8105.6
 20
6142.346831367047
 30
0.0
 11
8105.6
 21
6042.346831367048
 31
0.0
  0
LINE
  5
2738F
330
747D
100
AcDbEntity
  8
センター
 48
2.0
100
AcDbLine
 10
8055.600000000001
 20
6092.346831367048
 30
0.0
 11
8155.600000000001
 21
6092.346831367048
 31
0.0
  0
CIRCLE
  5
27390
330
747D
100
AcDbEntity
  8
部品1
 48
50.0
100
AcDbCircle
 10
8105.6
 20
6092.346831367048
 30
0.0
 40
35.0
  0
LINE
  5
27391
330
747D
100
AcDbEntity
  8
センター
 48
2.0
100
AcDbLine
 10
8173.600000000007
 20
6701.346831367044
 30
0.0
 11
8273.600000000007
 21
6701.346831367044
 31
0.0
  0
LINE
  5
27392
330
747D
100
AcDbEntity
  8
部品1
 48
50.0
100
AcDbLine
 10
8323.600000000007
 20
6801.346831367045
 30
0.0
 11
8123.600000000008
 21
6801.346831367045
 31
0.0
  0
LINE
  5
27393
330
747D
100
AcDbEntity
  8
部品1
 48
50.0
100
AcDbLine
 10
8323.600000000007
 20
6601.346831367044
 30
0.0
 11
8123.600000000008
 21
6601.346831367044
 31
0.0
  0
LINE
  5
27394
330
747D
100
AcDbEntity
  8
センター
 48
2.0
100
AcDbLine
 10
8223.600000000008
 20
6751.346831367044
 30
0.0
 11
8223.600000000008
 21
6651.346831367044
 31
0.0
  0
LINE
  5
27395
330
747D
100
AcDbEntity
  8
部品1
 48
50.0
100
AcDbLine
 10
8123.600000000008
 20
6601.346831367044
 30
0.0
 11
8123.600000000008
 21
6801.346831367045
 31
0.0
  0
LINE
  5
27396
330
747D
100
AcDbEntity
  8
部品1
 48
50.0
100
AcDbLine
 10
8323.600000000007
 20
6601.346831367044
 30
0.0
 11
8323.600000000007
 21
6801.346831367045
 31
0.0
  0
DIMENSION
  5
27397
330
747D
100
AcDbEntity
  8
寸法
 48
50.0
100
AcDbDimension
  2
*D45
 10
4241.6
 20
8160.613289460954
 30
0.0
 11
5353.6
 21
8260.625100484576
 31
0.0
 70
    32
 71
     5
 42
2224.0
  3
INABA_S40G
100
AcDbAlignedDimension
 13
6465.600000000001
 23
7361.346831367043
 33
0.0
 14
4241.6
 24
7361.346831367043
 34
0.0
100
AcDbRotatedDimension
1001
ACAD
1000
DSTYLE
1002
{
1070
   341
1005
0
1002
}
  0
DIMENSION
  5
27399
330
747D
100
AcDbEntity
  8
寸法
 48
50.0
100
AcDbDimension
  2
*D46
 10
3495.665006330073
 20
7311.346831367043
 30
0.0
 11
3495.665006330071
 21
7707.453433084843
 31
0.0
 70
   160
 71
     5
 42
123.0
  3
INABA_S40G
100
AcDbAlignedDimension
 13
4118.6
 23
7434.346831367044
 33
0.0
 14
4191.6
 24
7311.346831367043
 34
0.0
 50
90.0
100
AcDbRotatedDimension
1001
ACAD
1000
DSTYLE
1002
{
1070
   341
1005
0
1002
}
  0
DIMENSION
  5
2739A
330
747D
100
AcDbEntity
  8
寸法
 48
50.0
100
AcDbDimension
  2
*D47
 10
4118.6
 20
8160.613289460954
 30
0.0
 11
3845.493398282199
 21
8160.613289460954
 31
0.0
 70
   160
 71
     5
 42
123.0
  3
INABA_S40G
100
AcDbAlignedDimension
 13
4241.6
 23
7361.346831367043
 33
0.0
 14
4118.6
 24
7434.346831367044
 34
0.0
100
AcDbRotatedDimension
1001
ACAD
1000
DSTYLE
1002
{
1070
   341
1005
0
1002
}
  0
LINE
  5
2739C
330
747D
100
AcDbEntity
  8
センター
 48
2.0
100
AcDbLine
 10
4241.6
 20
7361.346831367043
 30
0.0
 11
4241.6
 21
7261.346831367044
 31
0.0
  0
CIRCLE
  5
2739D
330
747D
100
AcDbEntity
  8
部品1
 48
50.0
100
AcDbCircle
 10
4241.6
 20
7311.346831367043
 30
0.0
 40
35.0
  0
LINE
  5
2739E
330
747D
100
AcDbEntity
  8
センター
 48
2.0
100
AcDbLine
 10
4191.6
 20
7311.346831367043
 30
0.0
 11
4291.6
 21
7311.346831367043
 31
0.0
  0
LINE
  5
2739F
330
747D
100
AcDbEntity
  8
細線
 48
50.0
100
AcDbLine
 10
4433.600000000015
 20
7236.568078524851
 30
0.0
 11
4631.378752842208
 21
7434.346831367044
 31
0.0
  0
LINE
  5
273A0
330
747D
100
AcDbEntity
  8
細線
 48
50.0
100
AcDbLine
 10
4433.600000000015
 20
7281.469359130195
 30
0.0
 11
4586.477472236862
 21
7434.346831367044
 31
0.0
  0
LINE
  5
273A1
330
747D
100
AcDbEntity
  8
細線
 48
50.0
100
AcDbLine
 10
4433.600000000013
 20
7326.37063973554
 30
0.0
 11
4541.576191631516
 21
7434.346831367044
 31
0.0
  0
LINE
  5
273A2
330
747D
100
AcDbEntity
  8
細線
 48
50.0
100
AcDbLine
 10
4433.600000000013
 20
7371.271920340885
 30
0.0
 11
4496.674911026174
 21
7434.346831367045
 31
0.0
  0
LINE
  5
273A3
330
747D
100
AcDbEntity
  8
部品1
 48
50.0
100
AcDbLine
 10
4633.600000000013
 20
7434.346831367044
 30
0.0
 11
4633.600000000017
 21
7234.346831367044
 31
0.0
  0
LINE
  5
273A4
330
747D
100
AcDbEntity
  8
部品1
 48
50.0
100
AcDbLine
 10
4433.600000000013
 20
7434.346831367044
 30
0.0
 11
4433.600000000017
 21
7234.346831367044
 31
0.0
  0
LINE
  5
273A5
330
747D
100
AcDbEntity
  8
細線
 48
50.0
100
AcDbLine
 10
4476.280033447557
 20
7234.346831367047
 30
0.0
 11
4633.600000000013
 21
7391.666797919501
 31
0.0
  0
LINE
  5
273A6
330
747D
100
AcDbEntity
  8
細線
 48
50.0
100
AcDbLine
 10
4521.181314052917
 20
7234.346831367044
 30
0.0
 11
4633.600000000011
 21
7346.765517314155
 31
0.0
  0
LINE
  5
273A7
330
747D
100
AcDbEntity
  8
細線
 48
50.0
100
AcDbLine
 10
4566.082594658255
 20
7234.346831367045
 30
0.0
 11
4633.600000000014
 21
7301.864236708803
 31
0.0
  0
LINE
  5
273A8
330
747D
100
AcDbEntity
  8
細線
 48
50.0
100
AcDbLine
 10
4610.98387526361
 20
7234.346831367045
 30
0.0
 11
4633.600000000014
 21
7256.962956103454
 31
0.0
  0
LINE
  5
273A9
330
747D
100
AcDbEntity
  8
細線
 48
50.0
100
AcDbLine
 10
4433.600000000011
 20
7416.17320094623
 30
0.0
 11
4451.773630420826
 21
7434.346831367044
 31
0.0
  0
DIMENSION
  5
273AA
330
747D
100
AcDbEntity
  8
寸法
 48
50.0
100
AcDbDimension
  2
*D48
 10
6465.600000000001
 20
8160.613289460954
 30
0.0
 11
7285.600000000001
 21
8260.613289460954
 31
0.0
 70
    32
 71
     5
 42
1640.0
  3
INABA_S40G
100
AcDbAlignedDimension
 13
8105.6
 23
7361.346831367043
 33
0.0
 14
6465.600000000001
 24
7361.346831367043
 34
0.0
100
AcDbRotatedDimension
1001
ACAD
1000
DSTYLE
1002
{
1070
   341
1005
0
1002
}
  0
DIMENSION
  5
273AB
330
747D
100
AcDbEntity
  8
寸法
 48
50.0
100
AcDbDimension
  2
*D49
 10
6136.819725318589
 20
7234.346831367044
 30
0.0
 11
6136.819725318588
 21
7721.31041404418
 31
0.0
 70
   160
 71
     5
 42
199.9999999999691
  3
INABA_S40G
100
AcDbAlignedDimension
 13
6110.854682011648
 23
7434.346831367013
 33
0.0
 14
6110.854682011646
 24
7234.346831367044
 34
0.0
 50
90.0
100
AcDbRotatedDimension
1001
ACAD
1000
DSTYLE
1002
{
1070
   341
1005
0
1002
}
  0
LINE
  5
273AC
330
747D
100
AcDbEntity
  8
部品1
 48
50.0
100
AcDbLine
 10
5453.600000000013
 20
7434.346831367044
 30
0.0
 11
5453.600000000017
 21
7234.346831367044
 31
0.0
  0
LINE
  5
273AD
330
747D
100
AcDbEntity
  8
部品1
 48
50.0
100
AcDbLine
 10
5253.600000000012
 20
7434.346831367044
 30
0.0
 11
5253.600000000017
 21
7234.346831367044
 31
0.0
  0
LINE
  5
273AE
330
747D
100
AcDbEntity
  8
細線
 48
50.0
100
AcDbLine
 10
5253.600000000012
 20
7371.271920340885
 30
0.0
 11
5316.674911026173
 21
7434.346831367045
 31
0.0
  0
LINE
  5
273AF
330
747D
100
AcDbEntity
  8
細線
 48
50.0
100
AcDbLine
 10
5253.600000000012
 20
7326.37063973554
 30
0.0
 11
5361.576191631517
 21
7434.346831367044
 31
0.0
  0
LINE
  5
273B0
330
747D
100
AcDbEntity
  8
細線
 48
50.0
100
AcDbLine
 10
5253.600000000015
 20
7281.469359130195
 30
0.0
 11
5406.477472236861
 21
7434.346831367044
 31
0.0
  0
LINE
  5
273B1
330
747D
100
AcDbEntity
  8
細線
 48
50.0
100
AcDbLine
 10
5253.600000000015
 20
7236.568078524851
 30
0.0
 11
5451.378752842209
 21
7434.346831367044
 31
0.0
  0
LINE
  5
273B2
330
747D
100
AcDbEntity
  8
細線
 48
50.0
100
AcDbLine
 10
5296.280033447558
 20
7234.346831367047
 30
0.0
 11
5453.600000000013
 21
7391.666797919501
 31
0.0
  0
LINE
  5
273B3
330
747D
100
AcDbEntity
  8
細線
 48
50.0
100
AcDbLine
 10
5341.181314052917
 20
7234.346831367044
 30
0.0
 11
5453.600000000012
 21
7346.765517314155
 31
0.0
  0
LINE
  5
273B4
330
747D
100
AcDbEntity
  8
細線
 48
50.0
100
AcDbLine
 10
5430.98387526361
 20
7234.346831367045
 30
0.0
 11
5453.600000000015
 21
7256.962956103454
 31
0.0
  0
LINE
  5
273B5
330
747D
100
AcDbEntity
  8
細線
 48
50.0
100
AcDbLine
 10
5386.082594658256
 20
7234.346831367045
 30
0.0
 11
5453.600000000015
 21
7301.864236708803
 31
0.0
  0
LINE
  5
273B6
330
747D
100
AcDbEntity
  8
細線
 48
50.0
100
AcDbLine
 10
5253.600000000012
 20
7416.17320094623
 30
0.0
 11
5271.773630420827
 21
7434.346831367044
 31
0.0
  0
LINE
  5
273B7
330
747D
100
AcDbEntity
  8
細線
 48
50.0
100
AcDbLine
 10
6073.600000000015
 20
7236.568078524851
 30
0.0
 11
6271.378752842209
 21
7434.346831367044
 31
0.0
  0
LINE
  5
273B8
330
747D
100
AcDbEntity
  8
細線
 48
50.0
100
AcDbLine
 10
6073.600000000015
 20
7281.469359130195
 30
0.0
 11
6226.477472236862
 21
7434.346831367044
 31
0.0
  0
LINE
  5
273B9
330
747D
100
AcDbEntity
  8
細線
 48
50.0
100
AcDbLine
 10
6073.600000000013
 20
7326.37063973554
 30
0.0
 11
6181.576191631517
 21
7434.346831367044
 31
0.0
  0
LINE
  5
273BA
330
747D
100
AcDbEntity
  8
細線
 48
50.0
100
AcDbLine
 10
6073.600000000013
 20
7371.271920340885
 30
0.0
 11
6136.674911026173
 21
7434.346831367045
 31
0.0
  0
LINE
  5
273BB
330
747D
100
AcDbEntity
  8
部品1
 48
50.0
100
AcDbLine
 10
6273.600000000013
 20
7434.346831367044
 30
0.0
 11
6273.600000000016
 21
7234.346831367044
 31
0.0
  0
LINE
  5
273BC
330
747D
100
AcDbEntity
  8
部品1
 48
50.0
100
AcDbLine
 10
6073.600000000013
 20
7434.346831367044
 30
0.0
 11
6073.600000000016
 21
7234.346831367044
 31
0.0
  0
LINE
  5
273BD
330
747D
100
AcDbEntity
  8
細線
 48
50.0
100
AcDbLine
 10
6116.280033447558
 20
7234.346831367047
 30
0.0
 11
6273.600000000013
 21
7391.666797919501
 31
0.0
  0
LINE
  5
273BE
330
747D
100
AcDbEntity
  8
細線
 48
50.0
100
AcDbLine
 10
6161.181314052917
 20
7234.346831367044
 30
0.0
 11
6273.600000000011
 21
7346.765517314155
 31
0.0
  0
LINE
  5
273BF
330
747D
100
AcDbEntity
  8
細線
 48
50.0
100
AcDbLine
 10
6206.082594658255
 20
7234.346831367045
 30
0.0
 11
6273.600000000016
 21
7301.864236708803
 31
0.0
  0
LINE
  5
273C0
330
747D
100
AcDbEntity
  8
細線
 48
50.0
100
AcDbLine
 10
6250.98387526361
 20
7234.346831367045
 30
0.0
 11
6273.600000000016
 21
7256.962956103454
 31
0.0
  0
LINE
  5
273C1
330
747D
100
AcDbEntity
  8
センター
 48
2.0
100
AcDbLine
 10
6415.600000000001
 20
7311.346831367043
 30
0.0
 11
6515.6
 21
7311.346831367043
 31
0.0
  0
CIRCLE
  5
273C2
330
747D
100
AcDbEntity
  8
部品1
 48
50.0
100
AcDbCircle
 10
6465.600000000001
 20
7311.346831367043
 30
0.0
 40
35.0
  0
LINE
  5
273C3
330
747D
100
AcDbEntity
  8
センター
 48
2.0
100
AcDbLine
 10
6465.600000000001
 20
7361.346831367043
 30
0.0
 11
6465.600000000001
 21
7261.346831367044
 31
0.0
  0
LINE
  5
273C4
330
747D
100
AcDbEntity
  8
細線
 48
50.0
100
AcDbLine
 10
6073.600000000011
 20
7416.17320094623
 30
0.0
 11
6091.773630420827
 21
7434.346831367044
 31
0.0
  0
LINE
  5
273C5
330
747D
100
AcDbEntity
  8
部品1
 48
50.0
100
AcDbLine
 10
7093.600000000013
 20
7434.346831367044
 30
0.0
 11
7093.600000000016
 21
7234.346831367044
 31
0.0
  0
LINE
  5
273C6
330
747D
100
AcDbEntity
  8
部品1
 48
50.0
100
AcDbLine
 10
6893.600000000013
 20
7434.346831367044
 30
0.0
 11
6893.600000000017
 21
7234.346831367044
 31
0.0
  0
LINE
  5
273C7
330
747D
100
AcDbEntity
  8
細線
 48
50.0
100
AcDbLine
 10
6893.600000000013
 20
7371.271920340885
 30
0.0
 11
6956.674911026174
 21
7434.346831367045
 31
0.0
  0
LINE
  5
273C8
330
747D
100
AcDbEntity
  8
細線
 48
50.0
100
AcDbLine
 10
6893.600000000013
 20
7326.37063973554
 30
0.0
 11
7001.576191631517
 21
7434.346831367044
 31
0.0
  0
LINE
  5
273C9
330
747D
100
AcDbEntity
  8
細線
 48
50.0
100
AcDbLine
 10
6893.600000000015
 20
7281.469359130195
 30
0.0
 11
7046.477472236862
 21
7434.346831367044
 31
0.0
  0
LINE
  5
273CA
330
747D
100
AcDbEntity
  8
細線
 48
50.0
100
AcDbLine
 10
6893.600000000015
 20
7236.568078524851
 30
0.0
 11
7091.378752842209
 21
7434.346831367044
 31
0.0
  0
LINE
  5
273CB
330
747D
100
AcDbEntity
  8
細線
 48
50.0
100
AcDbLine
 10
6936.280033447558
 20
7234.346831367047
 30
0.0
 11
7093.600000000013
 21
7391.666797919501
 31
0.0
  0
LINE
  5
273CC
330
747D
100
AcDbEntity
  8
細線
 48
50.0
100
AcDbLine
 10
6981.181314052918
 20
7234.346831367044
 30
0.0
 11
7093.600000000012
 21
7346.765517314155
 31
0.0
  0
LINE
  5
273CD
330
747D
100
AcDbEntity
  8
細線
 48
50.0
100
AcDbLine
 10
7070.98387526361
 20
7234.346831367045
 30
0.0
 11
7093.600000000015
 21
7256.962956103454
 31
0.0
  0
LINE
  5
273CE
330
747D
100
AcDbEntity
  8
細線
 48
50.0
100
AcDbLine
 10
7026.082594658255
 20
7234.346831367045
 30
0.0
 11
7093.600000000015
 21
7301.864236708803
 31
0.0
  0
LINE
  5
273CF
330
747D
100
AcDbEntity
  8
細線
 48
50.0
100
AcDbLine
 10
6893.600000000012
 20
7416.17320094623
 30
0.0
 11
6911.773630420826
 21
7434.346831367044
 31
0.0
  0
LINE
  5
273D0
330
747D
100
AcDbEntity
  8
細線
 48
50.0
100
AcDbLine
 10
7713.600000000015
 20
7236.568078524851
 30
0.0
 11
7911.37875284221
 21
7434.346831367044
 31
0.0
  0
LINE
  5
273D1
330
747D
100
AcDbEntity
  8
細線
 48
50.0
100
AcDbLine
 10
7713.600000000015
 20
7281.469359130195
 30
0.0
 11
7866.477472236862
 21
7434.346831367044
 31
0.0
  0
LINE
  5
273D2
330
747D
100
AcDbEntity
  8
細線
 48
50.0
100
AcDbLine
 10
7713.600000000013
 20
7326.37063973554
 30
0.0
 11
7821.576191631518
 21
7434.346831367044
 31
0.0
  0
LINE
  5
273D3
330
747D
100
AcDbEntity
  8
細線
 48
50.0
100
AcDbLine
 10
7713.600000000013
 20
7371.271920340885
 30
0.0
 11
7776.674911026174
 21
7434.346831367045
 31
0.0
  0
LINE
  5
273D4
330
747D
100
AcDbEntity
  8
部品1
 48
50.0
100
AcDbLine
 10
7913.600000000013
 20
7434.346831367044
 30
0.0
 11
7913.600000000016
 21
7234.346831367044
 31
0.0
  0
LINE
  5
273D5
330
747D
100
AcDbEntity
  8
部品1
 48
50.0
100
AcDbLine
 10
7713.600000000013
 20
7434.346831367044
 30
0.0
 11
7713.600000000017
 21
7234.346831367044
 31
0.0
  0
LINE
  5
273D6
330
747D
100
AcDbEntity
  8
細線
 48
50.0
100
AcDbLine
 10
7756.280033447558
 20
7234.346831367047
 30
0.0
 11
7913.600000000013
 21
7391.666797919501
 31
0.0
  0
LINE
  5
273D7
330
747D
100
AcDbEntity
  8
細線
 48
50.0
100
AcDbLine
 10
7801.181314052917
 20
7234.346831367044
 30
0.0
 11
7913.600000000013
 21
7346.765517314155
 31
0.0
  0
LINE
  5
273D8
330
747D
100
AcDbEntity
  8
細線
 48
50.0
100
AcDbLine
 10
7846.082594658255
 20
7234.346831367045
 30
0.0
 11
7913.600000000013
 21
7301.864236708803
 31
0.0
  0
LINE
  5
273D9
330
747D
100
AcDbEntity
  8
細線
 48
50.0
100
AcDbLine
 10
7890.983875263611
 20
7234.346831367045
 30
0.0
 11
7913.600000000013
 21
7256.962956103454
 31
0.0
  0
LINE
  5
273DA
330
747D
100
AcDbEntity
  8
センター
 48
2.0
100
AcDbLine
 10
8055.600000000001
 20
7311.346831367043
 30
0.0
 11
8155.600000000001
 21
7311.346831367043
 31
0.0
  0
CIRCLE
  5
273DB
330
747D
100
AcDbEntity
  8
部品1
 48
50.0
100
AcDbCircle
 10
8105.6
 20
7311.346831367043
 30
0.0
 40
35.0
  0
LINE
  5
273DC
330
747D
100
AcDbEntity
  8
センター
 48
2.0
100
AcDbLine
 10
8105.6
 20
7361.346831367043
 30
0.0
 11
8105.6
 21
7261.346831367044
 31
0.0
  0
LINE
  5
273DD
330
747D
100
AcDbEntity
  8
細線
 48
50.0
100
AcDbLine
 10
7713.600000000011
 20
7416.17320094623
 30
0.0
 11
7731.773630420827
 21
7434.346831367044
 31
0.0
  0
DIMENSION
  5
273DE
330
747D
100
AcDbEntity
  8
寸法
 48
50.0
100
AcDbDimension
  2
*D50
 10
11503.6
 20
7916.955648037292
 30
0.0
 11
11916.1
 21
8016.967459060913
 31
0.0
 70
    32
 71
     5
 42
825.0
  3
INABA_S40G
100
AcDbAlignedDimension
 13
12328.6
 23
7434.346831367044
 33
0.0
 14
11503.6
 24
6751.346831367044
 34
0.0
100
AcDbRotatedDimension
1001
ACAD
1000
DSTYLE
1002
{
1070
   341
1005
0
1002
}
  0
DIMENSION
  5
273DF
330
747D
100
AcDbEntity
  8
寸法
 48
50.0
100
AcDbDimension
  2
*D51
 10
9863.600000000001
 20
7916.955648037292
 30
0.0
 11
10273.6
 21
8016.967459060913
 31
0.0
 70
    32
 71
     5
 42
820.0
  3
INABA_S40G
100
AcDbAlignedDimension
 13
10683.6
 23
6751.346831367044
 33
0.0
 14
9863.600000000001
 24
6751.346831367044
 34
0.0
100
AcDbRotatedDimension
1001
ACAD
1000
DSTYLE
1002
{
1070
   341
1005
0
1002
}
  0
DIMENSION
  5
273E0
330
747D
100
AcDbEntity
  8
寸法
 48
50.0
100
AcDbDimension
  2
*D52
 10
10683.6
 20
7916.955648037292
 30
0.0
 11
11093.6
 21
8016.967459060913
 31
0.0
 70
    32
 71
     5
 42
820.0
  3
INABA_S40G
100
AcDbAlignedDimension
 13
11503.6
 23
6751.346831367044
 33
0.0
 14
10683.6
 24
6751.346831367044
 34
0.0
100
AcDbRotatedDimension
1001
ACAD
1000
DSTYLE
1002
{
1070
   341
1005
0
1002
}
  0
DIMENSION
  5
273E3
330
747D
100
AcDbEntity
  8
寸法
 48
50.0
100
AcDbDimension
  2
*D53
 10
9043.600000000008
 20
7916.955648037292
 30
0.0
 11
9453.600000000005
 21
8016.967459060913
 31
0.0
 70
    32
 71
     5
 42
819.9999999999928
  3
INABA_S40G
100
AcDbAlignedDimension
 13
9863.600000000001
 23
6751.346831367044
 33
0.0
 14
9043.600000000008
 24
6751.346831367044
 34
0.0
100
AcDbRotatedDimension
1001
ACAD
1000
DSTYLE
1002
{
1070
   341
1005
0
1002
}
  0
LINE
  5
273E5
330
747D
100
AcDbEntity
  8
部品1
 48
50.0
100
AcDbLine
 10
12328.6
 20
5894.346831367062
 30
0.0
 11
12328.6
 21
7434.346831367044
 31
0.0
  0
LINE
  5
273F3
330
747D
100
AcDbEntity
  8
センター
 48
2.0
100
AcDbLine
 10
8993.600000000007
 20
6701.346831367044
 30
0.0
 11
9093.600000000007
 21
6701.346831367044
 31
0.0
  0
LINE
  5
273F4
330
747D
100
AcDbEntity
  8
部品1
 48
50.0
100
AcDbLine
 10
9143.600000000008
 20
6601.346831367044
 30
0.0
 11
8943.600000000008
 21
6601.346831367044
 31
0.0
  0
LINE
  5
273F5
330
747D
100
AcDbEntity
  8
部品1
 48
50.0
100
AcDbLine
 10
9143.600000000008
 20
6801.346831367045
 30
0.0
 11
8943.600000000008
 21
6801.346831367045
 31
0.0
  0
LINE
  5
273F6
330
747D
100
AcDbEntity
  8
センター
 48
2.0
100
AcDbLine
 10
9043.600000000008
 20
6751.346831367044
 30
0.0
 11
9043.600000000008
 21
6651.346831367044
 31
0.0
  0
LINE
  5
273F7
330
747D
100
AcDbEntity
  8
部品1
 48
50.0
100
AcDbLine
 10
8943.600000000008
 20
6601.346831367044
 30
0.0
 11
8943.600000000008
 21
6801.346831367045
 31
0.0
  0
LINE
  5
273F8
330
747D
100
AcDbEntity
  8
部品1
 48
50.0
100
AcDbLine
 10
9143.600000000008
 20
6601.346831367044
 30
0.0
 11
9143.600000000008
 21
6801.346831367045
 31
0.0
  0
LINE
  5
27405
330
747D
100
AcDbEntity
  8
センター
 48
2.0
100
AcDbLine
 10
9745.600000000001
 20
6142.346831367047
 30
0.0
 11
9745.600000000001
 21
6042.346831367048
 31
0.0
  0
CIRCLE
  5
27406
330
747D
100
AcDbEntity
  8
部品1
 48
50.0
100
AcDbCircle
 10
9745.600000000001
 20
6092.346831367048
 30
0.0
 40
35.0
  0
LINE
  5
27407
330
747D
100
AcDbEntity
  8
センター
 48
2.0
100
AcDbLine
 10
9695.6
 20
6092.346831367048
 30
0.0
 11
9795.6
 21
6092.346831367048
 31
0.0
  0
LINE
  5
27408
330
747D
100
AcDbEntity
  8
センター
 48
2.0
100
AcDbLine
 10
9813.6
 20
6701.346831367044
 30
0.0
 11
9913.600000000002
 21
6701.346831367044
 31
0.0
  0
LINE
  5
27409
330
747D
100
AcDbEntity
  8
部品1
 48
50.0
100
AcDbLine
 10
9963.600000000001
 20
6801.346831367045
 30
0.0
 11
9763.600000000002
 21
6801.346831367045
 31
0.0
  0
LINE
  5
2740A
330
747D
100
AcDbEntity
  8
部品1
 48
50.0
100
AcDbLine
 10
9963.600000000001
 20
6601.346831367044
 30
0.0
 11
9763.600000000002
 21
6601.346831367044
 31
0.0
  0
LINE
  5
2740B
330
747D
100
AcDbEntity
  8
センター
 48
2.0
100
AcDbLine
 10
9863.600000000001
 20
6751.346831367044
 30
0.0
 11
9863.600000000001
 21
6651.346831367044
 31
0.0
  0
LINE
  5
2740C
330
747D
100
AcDbEntity
  8
部品1
 48
50.0
100
AcDbLine
 10
9763.600000000002
 20
6601.346831367044
 30
0.0
 11
9763.600000000002
 21
6801.346831367045
 31
0.0
  0
LINE
  5
2740D
330
747D
100
AcDbEntity
  8
部品1
 48
50.0
100
AcDbLine
 10
9963.600000000001
 20
6601.346831367044
 30
0.0
 11
9963.600000000001
 21
6801.346831367045
 31
0.0
  0
LINE
  5
2741A
330
747D
100
AcDbEntity
  8
部品1
 48
50.0
100
AcDbLine
 10
10783.6
 20
6801.346831367045
 30
0.0
 11
10583.6
 21
6801.346831367045
 31
0.0
  0
LINE
  5
2741B
330
747D
100
AcDbEntity
  8
センター
 48
2.0
100
AcDbLine
 10
10633.6
 20
6701.346831367044
 30
0.0
 11
10733.6
 21
6701.346831367044
 31
0.0
  0
LINE
  5
2741C
330
747D
100
AcDbEntity
  8
部品1
 48
50.0
100
AcDbLine
 10
10783.6
 20
6601.346831367044
 30
0.0
 11
10583.6
 21
6601.346831367044
 31
0.0
  0
LINE
  5
2741D
330
747D
100
AcDbEntity
  8
部品1
 48
50.0
100
AcDbLine
 10
10583.6
 20
6601.346831367044
 30
0.0
 11
10583.6
 21
6801.346831367045
 31
0.0
  0
LINE
  5
2741E
330
747D
100
AcDbEntity
  8
センター
 48
2.0
100
AcDbLine
 10
10683.6
 20
6751.346831367044
 30
0.0
 11
10683.6
 21
6651.346831367044
 31
0.0
  0
LINE
  5
2741F
330
747D
100
AcDbEntity
  8
部品1
 48
50.0
100
AcDbLine
 10
10783.6
 20
6601.346831367044
 30
0.0
 11
10783.6
 21
6801.346831367045
 31
0.0
  0
LINE
  5
2742C
330
747D
100
AcDbEntity
  8
センター
 48
2.0
100
AcDbLine
 10
11453.6
 20
6701.346831367044
 30
0.0
 11
11553.6
 21
6701.346831367044
 31
0.0
  0
LINE
  5
2742D
330
747D
100
AcDbEntity
  8
部品1
 48
50.0
100
AcDbLine
 10
11603.6
 20
6801.346831367045
 30
0.0
 11
11403.6
 21
6801.346831367045
 31
0.0
  0
LINE
  5
2742E
330
747D
100
AcDbEntity
  8
部品1
 48
50.0
100
AcDbLine
 10
11603.6
 20
6601.346831367044
 30
0.0
 11
11403.6
 21
6601.346831367044
 31
0.0
  0
LINE
  5
2742F
330
747D
100
AcDbEntity
  8
部品1
 48
50.0
100
AcDbLine
 10
11403.6
 20
6601.346831367044
 30
0.0
 11
11403.6
 21
6801.346831367045
 31
0.0
  0
LINE
  5
27430
330
747D
100
AcDbEntity
  8
センター
 48
2.0
100
AcDbLine
 10
11503.6
 20
6751.346831367044
 30
0.0
 11
11503.6
 21
6651.346831367044
 31
0.0
  0
LINE
  5
27431
330
747D
100
AcDbEntity
  8
部品1
 48
50.0
100
AcDbLine
 10
11603.6
 20
6601.346831367044
 30
0.0
 11
11603.6
 21
6801.346831367045
 31
0.0
  0
LINE
  5
27444
330
747D
100
AcDbEntity
  8
センター
 48
2.0
100
AcDbLine
 10
12155.6
 20
6092.346831367048
 30
0.0
 11
12255.6
 21
6092.346831367048
 31
0.0
  0
CIRCLE
  5
27445
330
747D
100
AcDbEntity
  8
部品1
 48
50.0
100
AcDbCircle
 10
12205.6
 20
6092.346831367048
 30
0.0
 40
35.0
  0
LINE
  5
27446
330
747D
100
AcDbEntity
  8
センター
 48
2.0
100
AcDbLine
 10
12205.6
 20
6142.346831367047
 30
0.0
 11
12205.6
 21
6042.346831367048
 31
0.0
  0
LINE
  5
27447
330
747D
100
AcDbEntity
  8
細線
 48
50.0
100
AcDbLine
 10
12321.08259465825
 20
6589.346831367052
 30
0.0
 11
12328.6
 21
6596.864236708803
 31
0.0
  0
LINE
  5
27448
330
747D
100
AcDbEntity
  8
細線
 48
50.0
100
AcDbLine
 10
12276.1813140529
 20
6589.346831367052
 30
0.0
 11
12328.6
 21
6641.765517314147
 31
0.0
  0
LINE
  5
27449
330
747D
100
AcDbEntity
  8
細線
 48
50.0
100
AcDbLine
 10
12231.28003344756
 20
6589.346831367052
 30
0.0
 11
12328.6
 21
6686.666797919494
 31
0.0
  0
LINE
  5
2744A
330
747D
100
AcDbEntity
  8
細線
 48
50.0
100
AcDbLine
 10
12208.6
 20
6611.568078524841
 30
0.0
 11
12328.6
 21
6731.568078524841
 31
0.0
  0
LINE
  5
2744B
330
747D
100
AcDbEntity
  8
細線
 48
50.0
100
AcDbLine
 10
12208.6
 20
6656.469359130186
 30
0.0
 11
12328.6
 21
6776.469359130183
 31
0.0
  0
LINE
  5
2744C
330
747D
100
AcDbEntity
  8
細線
 48
50.0
100
AcDbLine
 10
12208.6
 20
6701.370639735532
 30
0.0
 11
12296.57619163152
 21
6789.346831367052
 31
0.0
  0
LINE
  5
2744D
330
747D
100
AcDbEntity
  8
細線
 48
50.0
100
AcDbLine
 10
12208.6
 20
6746.271920340882
 30
0.0
 11
12251.67491102618
 21
6789.346831367052
 31
0.0
  0
LINE
  5
2744E
330
747D
100
AcDbEntity
  8
部品1
 48
50.0
100
AcDbLine
 10
12328.6
 20
6589.346831367056
 30
0.0
 11
12208.6
 21
6589.346831367056
 31
0.0
  0
LINE
  5
2744F
330
747D
100
AcDbEntity
  8
部品1
 48
50.0
100
AcDbLine
 10
12328.6
 20
6789.346831367055
 30
0.0
 11
12208.6
 21
6789.346831367055
 31
0.0
  0
DIMENSION
  5
27450
330
747D
100
AcDbEntity
  8
寸法
 48
50.0
100
AcDbDimension
  2
*D27
 10
9745.600000000001
 20
8160.613289460954
 30
0.0
 11
10975.6
 21
8260.625100484576
 31
0.0
 70
    32
 71
     5
 42
2460.0
  3
INABA_S40G
100
AcDbAlignedDimension
 13
12205.6
 23
7361.346831367043
 33
0.0
 14
9745.600000000001
 24
7361.346831367043
 34
0.0
100
AcDbRotatedDimension
1001
ACAD
1000
DSTYLE
1002
{
1070
   341
1005
0
1002
}
  0
LINE
  5
27451
330
747D
100
AcDbEntity
  8
部品1
 48
50.0
100
AcDbLine
 10
8733.600000000013
 20
7434.346831367044
 30
0.0
 11
8733.600000000016
 21
7234.346831367044
 31
0.0
  0
LINE
  5
27452
330
747D
100
AcDbEntity
  8
部品1
 48
50.0
100
AcDbLine
 10
8533.600000000012
 20
7434.346831367044
 30
0.0
 11
8533.600000000017
 21
7234.346831367044
 31
0.0
  0
LINE
  5
27453
330
747D
100
AcDbEntity
  8
細線
 48
50.0
100
AcDbLine
 10
8533.600000000012
 20
7371.271920340885
 30
0.0
 11
8596.674911026173
 21
7434.346831367045
 31
0.0
  0
LINE
  5
27454
330
747D
100
AcDbEntity
  8
細線
 48
50.0
100
AcDbLine
 10
8533.600000000012
 20
7326.37063973554
 30
0.0
 11
8641.576191631518
 21
7434.346831367044
 31
0.0
  0
LINE
  5
27455
330
747D
100
AcDbEntity
  8
細線
 48
50.0
100
AcDbLine
 10
8533.600000000012
 20
7281.469359130195
 30
0.0
 11
8686.477472236861
 21
7434.346831367044
 31
0.0
  0
LINE
  5
27456
330
747D
100
AcDbEntity
  8
細線
 48
50.0
100
AcDbLine
 10
8533.600000000012
 20
7236.568078524851
 30
0.0
 11
8731.378752842211
 21
7434.346831367044
 31
0.0
  0
LINE
  5
27457
330
747D
100
AcDbEntity
  8
細線
 48
50.0
100
AcDbLine
 10
8576.280033447558
 20
7234.346831367047
 30
0.0
 11
8733.600000000013
 21
7391.666797919501
 31
0.0
  0
LINE
  5
27458
330
747D
100
AcDbEntity
  8
細線
 48
50.0
100
AcDbLine
 10
8621.18131405292
 20
7234.346831367044
 30
0.0
 11
8733.600000000013
 21
7346.765517314155
 31
0.0
  0
LINE
  5
27459
330
747D
100
AcDbEntity
  8
細線
 48
50.0
100
AcDbLine
 10
8710.983875263609
 20
7234.346831367045
 30
0.0
 11
8733.600000000013
 21
7256.962956103454
 31
0.0
  0
LINE
  5
2745A
330
747D
100
AcDbEntity
  8
細線
 48
50.0
100
AcDbLine
 10
8666.082594658256
 20
7234.346831367045
 30
0.0
 11
8733.600000000013
 21
7301.864236708803
 31
0.0
  0
LINE
  5
2745B
330
747D
100
AcDbEntity
  8
細線
 48
50.0
100
AcDbLine
 10
8533.600000000012
 20
7416.17320094623
 30
0.0
 11
8551.773630420827
 21
7434.346831367044
 31
0.0
  0
LINE
  5
2745C
330
747D
100
AcDbEntity
  8
細線
 48
50.0
100
AcDbLine
 10
9353.600000000012
 20
7236.568078524851
 30
0.0
 11
9551.378752842211
 21
7434.346831367044
 31
0.0
  0
LINE
  5
2745D
330
747D
100
AcDbEntity
  8
細線
 48
50.0
100
AcDbLine
 10
9353.600000000012
 20
7281.469359130195
 30
0.0
 11
9506.477472236859
 21
7434.346831367044
 31
0.0
  0
LINE
  5
2745E
330
747D
100
AcDbEntity
  8
細線
 48
50.0
100
AcDbLine
 10
9353.600000000012
 20
7326.37063973554
 30
0.0
 11
9461.576191631516
 21
7434.346831367044
 31
0.0
  0
LINE
  5
2745F
330
747D
100
AcDbEntity
  8
細線
 48
50.0
100
AcDbLine
 10
9353.600000000012
 20
7371.271920340885
 30
0.0
 11
9416.674911026174
 21
7434.346831367045
 31
0.0
  0
LINE
  5
27460
330
747D
100
AcDbEntity
  8
部品1
 48
50.0
100
AcDbLine
 10
9553.600000000013
 20
7434.346831367044
 30
0.0
 11
9553.600000000017
 21
7234.346831367044
 31
0.0
  0
LINE
  5
27461
330
747D
100
AcDbEntity
  8
部品1
 48
50.0
100
AcDbLine
 10
9353.600000000012
 20
7434.346831367044
 30
0.0
 11
9353.600000000017
 21
7234.346831367044
 31
0.0
  0
LINE
  5
27462
330
747D
100
AcDbEntity
  8
細線
 48
50.0
100
AcDbLine
 10
9396.280033447558
 20
7234.346831367047
 30
0.0
 11
9553.600000000013
 21
7391.666797919501
 31
0.0
  0
LINE
  5
27463
330
747D
100
AcDbEntity
  8
細線
 48
50.0
100
AcDbLine
 10
9441.181314052919
 20
7234.346831367044
 30
0.0
 11
9553.600000000013
 21
7346.765517314155
 31
0.0
  0
LINE
  5
27464
330
747D
100
AcDbEntity
  8
細線
 48
50.0
100
AcDbLine
 10
9486.082594658254
 20
7234.346831367045
 30
0.0
 11
9553.600000000013
 21
7301.864236708803
 31
0.0
  0
LINE
  5
27465
330
747D
100
AcDbEntity
  8
細線
 48
50.0
100
AcDbLine
 10
9530.98387526361
 20
7234.346831367045
 30
0.0
 11
9553.600000000013
 21
7256.962956103454
 31
0.0
  0
LINE
  5
27466
330
747D
100
AcDbEntity
  8
センター
 48
2.0
100
AcDbLine
 10
9745.600000000001
 20
7361.346831367043
 30
0.0
 11
9745.600000000001
 21
7261.346831367044
 31
0.0
  0
CIRCLE
  5
27467
330
747D
100
AcDbEntity
  8
部品1
 48
50.0
100
AcDbCircle
 10
9745.600000000001
 20
7311.346831367043
 30
0.0
 40
35.0
  0
LINE
  5
27468
330
747D
100
AcDbEntity
  8
センター
 48
2.0
100
AcDbLine
 10
9695.6
 20
7311.346831367043
 30
0.0
 11
9795.6
 21
7311.346831367043
 31
0.0
  0
LINE
  5
27469
330
747D
100
AcDbEntity
  8
細線
 48
50.0
100
AcDbLine
 10
9353.600000000012
 20
7416.17320094623
 30
0.0
 11
9371.773630420827
 21
7434.346831367044
 31
0.0
  0
LINE
  5
2746A
330
747D
100
AcDbEntity
  8
部品1
 48
50.0
100
AcDbLine
 10
10373.60000000001
 20
7434.346831367044
 30
0.0
 11
10373.60000000001
 21
7234.346831367044
 31
0.0
  0
LINE
  5
2746B
330
747D
100
AcDbEntity
  8
部品1
 48
50.0
100
AcDbLine
 10
10173.60000000001
 20
7434.346831367044
 30
0.0
 11
10173.60000000002
 21
7234.346831367044
 31
0.0
  0
LINE
  5
2746C
330
747D
100
AcDbEntity
  8
細線
 48
50.0
100
AcDbLine
 10
10173.60000000001
 20
7371.271920340885
 30
0.0
 11
10236.67491102617
 21
7434.346831367045
 31
0.0
  0
LINE
  5
2746D
330
747D
100
AcDbEntity
  8
細線
 48
50.0
100
AcDbLine
 10
10173.60000000001
 20
7326.37063973554
 30
0.0
 11
10281.57619163151
 21
7434.346831367044
 31
0.0
  0
LINE
  5
2746E
330
747D
100
AcDbEntity
  8
細線
 48
50.0
100
AcDbLine
 10
10173.60000000001
 20
7281.469359130195
 30
0.0
 11
10326.47747223686
 21
7434.346831367044
 31
0.0
  0
LINE
  5
2746F
330
747D
100
AcDbEntity
  8
細線
 48
50.0
100
AcDbLine
 10
10173.60000000001
 20
7236.568078524851
 30
0.0
 11
10371.37875284221
 21
7434.346831367044
 31
0.0
  0
LINE
  5
27470
330
747D
100
AcDbEntity
  8
細線
 48
50.0
100
AcDbLine
 10
10261.18131405292
 20
7234.346831367044
 30
0.0
 11
10373.60000000001
 21
7346.765517314155
 31
0.0
  0
LINE
  5
27471
330
747D
100
AcDbEntity
  8
細線
 48
50.0
100
AcDbLine
 10
10216.28003344756
 20
7234.346831367047
 30
0.0
 11
10373.60000000001
 21
7391.666797919501
 31
0.0
  0
LINE
  5
27472
330
747D
100
AcDbEntity
  8
細線
 48
50.0
100
AcDbLine
 10
10350.98387526361
 20
7234.346831367045
 30
0.0
 11
10373.60000000001
 21
7256.962956103454
 31
0.0
  0
LINE
  5
27473
330
747D
100
AcDbEntity
  8
細線
 48
50.0
100
AcDbLine
 10
10306.08259465825
 20
7234.346831367045
 30
0.0
 11
10373.60000000001
 21
7301.864236708803
 31
0.0
  0
LINE
  5
27474
330
747D
100
AcDbEntity
  8
細線
 48
50.0
100
AcDbLine
 10
10173.60000000001
 20
7416.17320094623
 30
0.0
 11
10191.77363042082
 21
7434.346831367044
 31
0.0
  0
LINE
  5
27475
330
747D
100
AcDbEntity
  8
部品1
 48
50.0
100
AcDbLine
 10
11193.60000000001
 20
7434.346831367044
 30
0.0
 11
11193.60000000001
 21
7234.346831367044
 31
0.0
  0
LINE
  5
27476
330
747D
100
AcDbEntity
  8
部品1
 48
50.0
100
AcDbLine
 10
10993.60000000001
 20
7434.346831367044
 30
0.0
 11
10993.60000000001
 21
7234.346831367044
 31
0.0
  0
LINE
  5
27477
330
747D
100
AcDbEntity
  8
細線
 48
50.0
100
AcDbLine
 10
10993.60000000001
 20
7371.271920340885
 30
0.0
 11
11056.67491102617
 21
7434.346831367045
 31
0.0
  0
LINE
  5
27478
330
747D
100
AcDbEntity
  8
細線
 48
50.0
100
AcDbLine
 10
10993.60000000001
 20
7326.37063973554
 30
0.0
 11
11101.57619163151
 21
7434.346831367044
 31
0.0
  0
LINE
  5
27479
330
747D
100
AcDbEntity
  8
細線
 48
50.0
100
AcDbLine
 10
10993.60000000001
 20
7281.469359130195
 30
0.0
 11
11146.47747223686
 21
7434.346831367044
 31
0.0
  0
LINE
  5
2747A
330
747D
100
AcDbEntity
  8
細線
 48
50.0
100
AcDbLine
 10
10993.60000000001
 20
7236.568078524851
 30
0.0
 11
11191.37875284221
 21
7434.346831367044
 31
0.0
  0
LINE
  5
2747B
330
747D
100
AcDbEntity
  8
細線
 48
50.0
100
AcDbLine
 10
11081.18131405292
 20
7234.346831367044
 30
0.0
 11
11193.60000000001
 21
7346.765517314155
 31
0.0
  0
LINE
  5
2747C
330
747D
100
AcDbEntity
  8
細線
 48
50.0
100
AcDbLine
 10
11036.28003344756
 20
7234.346831367047
 30
0.0
 11
11193.60000000001
 21
7391.666797919501
 31
0.0
  0
LINE
  5
2747D
330
747D
100
AcDbEntity
  8
細線
 48
50.0
100
AcDbLine
 10
11170.98387526361
 20
7234.346831367045
 30
0.0
 11
11193.60000000001
 21
7256.962956103454
 31
0.0
  0
LINE
  5
2747E
330
747D
100
AcDbEntity
  8
細線
 48
50.0
100
AcDbLine
 10
11126.08259465825
 20
7234.346831367045
 30
0.0
 11
11193.60000000001
 21
7301.864236708803
 31
0.0
  0
LINE
  5
2747F
330
747D
100
AcDbEntity
  8
細線
 48
50.0
100
AcDbLine
 10
10993.60000000001
 20
7416.17320094623
 30
0.0
 11
11011.77363042082
 21
7434.346831367044
 31
0.0
  0
DIMENSION
  5
27480
330
747D
100
AcDbEntity
  8
寸法
 48
50.0
100
AcDbDimension
  2
*D28
 10
12205.6
 20
8160.613289460954
 30
0.0
 11
12601.7066017178
 21
8160.613289460954
 31
0.0
 70
   160
 71
     5
 42
123.0
  3
INABA_S40G
100
AcDbAlignedDimension
 13
12328.6
 23
7434.346831367044
 33
0.0
 14
12205.6
 24
7361.346831367043
 34
0.0
100
AcDbRotatedDimension
1001
ACAD
1000
DSTYLE
1002
{
1070
   341
1005
0
1002
}
  0
DIMENSION
  5
27482
330
747D
100
AcDbEntity
  8
寸法
 48
50.0
100
AcDbDimension
  2
*D29
 10
12208.6
 20
6938.719624397787
 30
0.0
 11
12598.65905511811
 21
6938.719624397787
 31
0.0
 70
   160
 71
     5
 42
120.0
  3
INABA_S40G
100
AcDbAlignedDimension
 13
12328.6
 23
6955.712888436619
 33
0.0
 14
12208.6
 24
6938.719624397787
 34
0.0
100
AcDbRotatedDimension
1001
ACAD
1000
DSTYLE
1002
{
1070
   341
1005
0
1002
}
  0
LINE
  5
27483
330
747D
100
AcDbEntity
  8
部品1
 48
50.0
100
AcDbLine
 10
12013.60000000001
 20
7434.346831367044
 30
0.0
 11
12013.60000000001
 21
7234.346831367044
 31
0.0
  0
LINE
  5
27484
330
747D
100
AcDbEntity
  8
部品1
 48
50.0
100
AcDbLine
 10
11813.60000000001
 20
7434.346831367044
 30
0.0
 11
11813.60000000001
 21
7234.346831367044
 31
0.0
  0
LINE
  5
27485
330
747D
100
AcDbEntity
  8
細線
 48
50.0
100
AcDbLine
 10
11813.60000000001
 20
7236.568078524851
 30
0.0
 11
12011.37875284221
 21
7434.346831367044
 31
0.0
  0
LINE
  5
27486
330
747D
100
AcDbEntity
  8
細線
 48
50.0
100
AcDbLine
 10
11813.60000000001
 20
7281.469359130195
 30
0.0
 11
11966.47747223686
 21
7434.346831367044
 31
0.0
  0
LINE
  5
27487
330
747D
100
AcDbEntity
  8
細線
 48
50.0
100
AcDbLine
 10
11813.60000000001
 20
7326.37063973554
 30
0.0
 11
11921.57619163151
 21
7434.346831367044
 31
0.0
  0
LINE
  5
27488
330
747D
100
AcDbEntity
  8
細線
 48
50.0
100
AcDbLine
 10
11813.60000000001
 20
7371.271920340885
 30
0.0
 11
11876.67491102617
 21
7434.346831367045
 31
0.0
  0
LINE
  5
27489
330
747D
100
AcDbEntity
  8
細線
 48
50.0
100
AcDbLine
 10
11856.28003344756
 20
7234.346831367047
 30
0.0
 11
12013.60000000001
 21
7391.666797919501
 31
0.0
  0
LINE
  5
2748A
330
747D
100
AcDbEntity
  8
細線
 48
50.0
100
AcDbLine
 10
11901.18131405292
 20
7234.346831367044
 30
0.0
 11
12013.60000000001
 21
7346.765517314155
 31
0.0
  0
LINE
  5
2748B
330
747D
100
AcDbEntity
  8
細線
 48
50.0
100
AcDbLine
 10
11946.08259465825
 20
7234.346831367045
 30
0.0
 11
12013.60000000001
 21
7301.864236708803
 31
0.0
  0
LINE
  5
2748C
330
747D
100
AcDbEntity
  8
細線
 48
50.0
100
AcDbLine
 10
11990.98387526361
 20
7234.346831367045
 30
0.0
 11
12013.60000000001
 21
7256.962956103454
 31
0.0
  0
LINE
  5
2748D
330
747D
100
AcDbEntity
  8
センター
 48
2.0
100
AcDbLine
 10
12155.6
 20
7311.346831367043
 30
0.0
 11
12255.6
 21
7311.346831367043
 31
0.0
  0
CIRCLE
  5
2748E
330
747D
100
AcDbEntity
  8
部品1
 48
50.0
100
AcDbCircle
 10
12205.6
 20
7311.346831367043
 30
0.0
 40
35.0
  0
LINE
  5
2748F
330
747D
100
AcDbEntity
  8
センター
 48
2.0
100
AcDbLine
 10
12205.6
 20
7361.346831367043
 30
0.0
 11
12205.6
 21
7261.346831367044
 31
0.0
  0
LINE
  5
27490
330
747D
100
AcDbEntity
  8
細線
 48
50.0
100
AcDbLine
 10
11813.60000000001
 20
7416.17320094623
 30
0.0
 11
11831.77363042082
 21
7434.346831367044
 31
0.0
  0
TEXT
  5
27BD2
330
747D
100
AcDbEntity
  8
文字
 62
     7
 48
50.0
100
AcDbText
 10
7521.510781243404
 20
4541.493417270472
 30
0.0
 40
200.0
  1
〈参 考 図〉
  7
STYLE2
100
AcDbText
  0
TEXT
  5
27CA2
330
747D
100
AcDbEntity
  8
文字
 62
     7
 48
50.0
100
AcDbText
 10
14251.2
 20
838.2527270729188
 30
0.0
 40
100.0
  1
～一般型・多雪地型・豪雪地型～
  7
STYLE2
100
AcDbText
  0
LINE
  5
27CC2
330
747D
100
AcDbEntity
  8
部品1
 48
50.0
100
AcDbLine
 10
12208.6
 20
6174.346831367079
 30
0.0
 11
4238.599999999999
 21
6174.346831367039
 31
0.0
  0
LINE
  5
27CC3
330
747D
100
AcDbEntity
  8
細線
 48
50.0
100
AcDbLine
 10
5253.600000000005
 20
6117.752711260729
 30
0.0
 11
5310.194120106321
 21
6174.346831367041
 31
0.0
  0
LINE
  5
27CC4
330
747D
100
AcDbEntity
  8
細線
 48
50.0
100
AcDbLine
 10
5253.600000000008
 20
6072.851430655385
 30
0.0
 11
5355.095400711664
 21
6174.34683136704
 31
0.0
  0
LINE
  5
27CC5
330
747D
100
AcDbEntity
  8
細線
 48
50.0
100
AcDbLine
 10
5253.600000000009
 20
5983.048869444692
 30
0.0
 11
5444.897961922358
 21
6174.346831367041
 31
0.0
  0
LINE
  5
27CC6
330
747D
100
AcDbEntity
  8
細線
 48
50.0
100
AcDbLine
 10
5253.600000000009
 20
6027.950150050039
 30
0.0
 11
5399.996681317011
 21
6174.346831367041
 31
0.0
  0
LINE
  5
27CC7
330
747D
100
AcDbEntity
  8
細線
 48
50.0
100
AcDbLine
 10
5434.305645554472
 20
5894.34683136708
 30
0.0
 11
5453.600000000013
 21
5913.641185812622
 31
0.0
  0
LINE
  5
27CC8
330
747D
100
AcDbEntity
  8
細線
 48
50.0
100
AcDbLine
 10
5254.700523133084
 20
5894.346831367077
 30
0.0
 11
5453.600000000008
 21
6093.246308234
 31
0.0
  0
LINE
  5
27CC9
330
747D
100
AcDbEntity
  8
細線
 48
50.0
100
AcDbLine
 10
5253.600000000012
 20
5938.147588839349
 30
0.0
 11
5453.600000000005
 21
6138.147588839339
 31
0.0
  0
LINE
  5
27CCA
330
747D
100
AcDbEntity
  8
部品1
 48
50.0
100
AcDbLine
 10
5253.600000000004
 20
6174.34683136704
 30
0.0
 11
5253.600000000012
 21
5894.346831367075
 31
0.0
  0
LINE
  5
27CCB
330
747D
100
AcDbEntity
  8
部品1
 48
50.0
100
AcDbLine
 10
5453.600000000005
 20
6174.346831367042
 30
0.0
 11
5453.600000000013
 21
5894.346831367078
 31
0.0
  0
LINE
  5
27CCC
330
747D
100
AcDbEntity
  8
細線
 48
50.0
100
AcDbLine
 10
5344.503084343778
 20
5894.346831367077
 30
0.0
 11
5453.600000000009
 21
6003.44374702331
 31
0.0
  0
LINE
  5
27CCD
330
747D
100
AcDbEntity
  8
細線
 48
50.0
100
AcDbLine
 10
5299.601803738431
 20
5894.346831367077
 30
0.0
 11
5453.600000000009
 21
6048.345027628655
 31
0.0
  0
LINE
  5
27CCE
330
747D
100
AcDbEntity
  8
細線
 48
50.0
100
AcDbLine
 10
5389.404364949125
 20
5894.346831367078
 30
0.0
 11
5453.600000000012
 21
5958.542466417965
 31
0.0
  0
LINE
  5
27CCF
330
747D
100
AcDbEntity
  8
細線
 48
50.0
100
AcDbLine
 10
6073.600000000006
 20
6117.752711260729
 30
0.0
 11
6130.19412010632
 21
6174.346831367041
 31
0.0
  0
LINE
  5
27CD0
330
747D
100
AcDbEntity
  8
細線
 48
50.0
100
AcDbLine
 10
6073.600000000007
 20
6072.851430655385
 30
0.0
 11
6175.095400711663
 21
6174.34683136704
 31
0.0
  0
LINE
  5
27CD1
330
747D
100
AcDbEntity
  8
細線
 48
50.0
100
AcDbLine
 10
6073.600000000009
 20
5983.048869444692
 30
0.0
 11
6264.897961922358
 21
6174.346831367041
 31
0.0
  0
LINE
  5
27CD2
330
747D
100
AcDbEntity
  8
細線
 48
50.0
100
AcDbLine
 10
6073.600000000009
 20
6027.950150050039
 30
0.0
 11
6219.996681317011
 21
6174.346831367041
 31
0.0
  0
LINE
  5
27CD3
330
747D
100
AcDbEntity
  8
細線
 48
50.0
100
AcDbLine
 10
6254.305645554472
 20
5894.34683136708
 30
0.0
 11
6273.600000000013
 21
5913.641185812622
 31
0.0
  0
LINE
  5
27CD4
330
747D
100
AcDbEntity
  8
細線
 48
50.0
100
AcDbLine
 10
6074.700523133084
 20
5894.346831367077
 30
0.0
 11
6273.600000000008
 21
6093.246308234
 31
0.0
  0
LINE
  5
27CD5
330
747D
100
AcDbEntity
  8
細線
 48
50.0
100
AcDbLine
 10
6073.600000000011
 20
5938.147588839349
 30
0.0
 11
6273.600000000006
 21
6138.147588839339
 31
0.0
  0
LINE
  5
27CD6
330
747D
100
AcDbEntity
  8
部品1
 48
50.0
100
AcDbLine
 10
6073.600000000004
 20
6174.34683136704
 30
0.0
 11
6073.600000000013
 21
5894.346831367075
 31
0.0
  0
LINE
  5
27CD7
330
747D
100
AcDbEntity
  8
部品1
 48
50.0
100
AcDbLine
 10
6273.600000000005
 20
6174.346831367042
 30
0.0
 11
6273.600000000013
 21
5894.346831367078
 31
0.0
  0
LINE
  5
27CD8
330
747D
100
AcDbEntity
  8
細線
 48
50.0
100
AcDbLine
 10
6164.503084343778
 20
5894.346831367077
 30
0.0
 11
6273.600000000009
 21
6003.44374702331
 31
0.0
  0
LINE
  5
27CD9
330
747D
100
AcDbEntity
  8
細線
 48
50.0
100
AcDbLine
 10
6119.601803738431
 20
5894.346831367077
 30
0.0
 11
6273.600000000009
 21
6048.345027628655
 31
0.0
  0
LINE
  5
27CDA
330
747D
100
AcDbEntity
  8
細線
 48
50.0
100
AcDbLine
 10
6209.404364949126
 20
5894.346831367078
 30
0.0
 11
6273.600000000011
 21
5958.542466417965
 31
0.0
  0
LINE
  5
27CDB
330
747D
100
AcDbEntity
  8
細線
 48
50.0
100
AcDbLine
 10
6893.600000000006
 20
6117.752711260729
 30
0.0
 11
6950.194120106321
 21
6174.346831367041
 31
0.0
  0
LINE
  5
27CDC
330
747D
100
AcDbEntity
  8
細線
 48
50.0
100
AcDbLine
 10
6893.600000000008
 20
6072.851430655385
 30
0.0
 11
6995.095400711663
 21
6174.34683136704
 31
0.0
  0
LINE
  5
27CDD
330
747D
100
AcDbEntity
  8
細線
 48
50.0
100
AcDbLine
 10
6893.600000000009
 20
5983.048869444692
 30
0.0
 11
7084.897961922358
 21
6174.346831367041
 31
0.0
  0
LINE
  5
27CDE
330
747D
100
AcDbEntity
  8
細線
 48
50.0
100
AcDbLine
 10
6893.600000000009
 20
6027.950150050039
 30
0.0
 11
7039.996681317011
 21
6174.346831367041
 31
0.0
  0
LINE
  5
27CDF
330
747D
100
AcDbEntity
  8
細線
 48
50.0
100
AcDbLine
 10
7074.305645554471
 20
5894.34683136708
 30
0.0
 11
7093.600000000013
 21
5913.641185812622
 31
0.0
  0
LINE
  5
27CE0
330
747D
100
AcDbEntity
  8
細線
 48
50.0
100
AcDbLine
 10
6894.700523133085
 20
5894.346831367077
 30
0.0
 11
7093.600000000008
 21
6093.246308234
 31
0.0
  0
LINE
  5
27CE1
330
747D
100
AcDbEntity
  8
細線
 48
50.0
100
AcDbLine
 10
6893.600000000012
 20
5938.147588839349
 30
0.0
 11
7093.600000000006
 21
6138.147588839339
 31
0.0
  0
LINE
  5
27CE2
330
747D
100
AcDbEntity
  8
部品1
 48
50.0
100
AcDbLine
 10
6893.600000000003
 20
6174.34683136704
 30
0.0
 11
6893.600000000013
 21
5894.346831367075
 31
0.0
  0
LINE
  5
27CE3
330
747D
100
AcDbEntity
  8
部品1
 48
50.0
100
AcDbLine
 10
7093.600000000005
 20
6174.346831367042
 30
0.0
 11
7093.600000000013
 21
5894.346831367078
 31
0.0
  0
LINE
  5
27CE4
330
747D
100
AcDbEntity
  8
細線
 48
50.0
100
AcDbLine
 10
6984.503084343778
 20
5894.346831367077
 30
0.0
 11
7093.600000000009
 21
6003.44374702331
 31
0.0
  0
LINE
  5
27CE5
330
747D
100
AcDbEntity
  8
細線
 48
50.0
100
AcDbLine
 10
6939.601803738431
 20
5894.346831367077
 30
0.0
 11
7093.600000000009
 21
6048.345027628655
 31
0.0
  0
LINE
  5
27CE6
330
747D
100
AcDbEntity
  8
細線
 48
50.0
100
AcDbLine
 10
7029.404364949126
 20
5894.346831367078
 30
0.0
 11
7093.600000000012
 21
5958.542466417965
 31
0.0
  0
LINE
  5
27CE7
330
747D
100
AcDbEntity
  8
細線
 48
50.0
100
AcDbLine
 10
7713.600000000006
 20
6117.752711260729
 30
0.0
 11
7770.194120106321
 21
6174.346831367041
 31
0.0
  0
LINE
  5
27CE8
330
747D
100
AcDbEntity
  8
細線
 48
50.0
100
AcDbLine
 10
7713.600000000008
 20
6072.851430655385
 30
0.0
 11
7815.095400711664
 21
6174.34683136704
 31
0.0
  0
LINE
  5
27CE9
330
747D
100
AcDbEntity
  8
細線
 48
50.0
100
AcDbLine
 10
7713.60000000001
 20
5983.048869444692
 30
0.0
 11
7904.897961922358
 21
6174.346831367041
 31
0.0
  0
LINE
  5
27CEA
330
747D
100
AcDbEntity
  8
細線
 48
50.0
100
AcDbLine
 10
7713.60000000001
 20
6027.950150050039
 30
0.0
 11
7859.996681317011
 21
6174.346831367041
 31
0.0
  0
LINE
  5
27CEB
330
747D
100
AcDbEntity
  8
細線
 48
50.0
100
AcDbLine
 10
7894.305645554472
 20
5894.34683136708
 30
0.0
 11
7913.600000000013
 21
5913.641185812622
 31
0.0
  0
LINE
  5
27CEC
330
747D
100
AcDbEntity
  8
細線
 48
50.0
100
AcDbLine
 10
7714.700523133084
 20
5894.346831367077
 30
0.0
 11
7913.600000000008
 21
6093.246308234
 31
0.0
  0
LINE
  5
27CED
330
747D
100
AcDbEntity
  8
細線
 48
50.0
100
AcDbLine
 10
7713.600000000011
 20
5938.147588839349
 30
0.0
 11
7913.600000000006
 21
6138.147588839339
 31
0.0
  0
LINE
  5
27CEE
330
747D
100
AcDbEntity
  8
部品1
 48
50.0
100
AcDbLine
 10
7713.600000000004
 20
6174.34683136704
 30
0.0
 11
7713.600000000013
 21
5894.346831367075
 31
0.0
  0
LINE
  5
27CEF
330
747D
100
AcDbEntity
  8
部品1
 48
50.0
100
AcDbLine
 10
7913.600000000005
 20
6174.346831367042
 30
0.0
 11
7913.600000000013
 21
5894.346831367078
 31
0.0
  0
LINE
  5
27CF0
330
747D
100
AcDbEntity
  8
細線
 48
50.0
100
AcDbLine
 10
7804.503084343778
 20
5894.346831367077
 30
0.0
 11
7913.600000000009
 21
6003.44374702331
 31
0.0
  0
LINE
  5
27CF1
330
747D
100
AcDbEntity
  8
細線
 48
50.0
100
AcDbLine
 10
7759.601803738431
 20
5894.346831367077
 30
0.0
 11
7913.600000000009
 21
6048.345027628655
 31
0.0
  0
LINE
  5
27CF2
330
747D
100
AcDbEntity
  8
細線
 48
50.0
100
AcDbLine
 10
7849.404364949124
 20
5894.346831367078
 30
0.0
 11
7913.600000000011
 21
5958.542466417965
 31
0.0
  0
LINE
  5
27CF3
330
747D
100
AcDbEntity
  8
細線
 48
50.0
100
AcDbLine
 10
8533.600000000005
 20
6117.752711260729
 30
0.0
 11
8590.194120106319
 21
6174.346831367041
 31
0.0
  0
LINE
  5
27CF4
330
747D
100
AcDbEntity
  8
細線
 48
50.0
100
AcDbLine
 10
8533.600000000008
 20
6072.851430655385
 30
0.0
 11
8635.095400711664
 21
6174.34683136704
 31
0.0
  0
LINE
  5
27CF5
330
747D
100
AcDbEntity
  8
細線
 48
50.0
100
AcDbLine
 10
8533.60000000001
 20
5983.048869444692
 30
0.0
 11
8724.897961922357
 21
6174.346831367041
 31
0.0
  0
LINE
  5
27CF6
330
747D
100
AcDbEntity
  8
細線
 48
50.0
100
AcDbLine
 10
8533.60000000001
 20
6027.950150050039
 30
0.0
 11
8679.99668131701
 21
6174.346831367041
 31
0.0
  0
LINE
  5
27CF7
330
747D
100
AcDbEntity
  8
細線
 48
50.0
100
AcDbLine
 10
8714.305645554473
 20
5894.34683136708
 30
0.0
 11
8733.600000000013
 21
5913.641185812622
 31
0.0
  0
LINE
  5
27CF8
330
747D
100
AcDbEntity
  8
細線
 48
50.0
100
AcDbLine
 10
8534.700523133084
 20
5894.346831367077
 30
0.0
 11
8733.600000000008
 21
6093.246308234
 31
0.0
  0
LINE
  5
27CF9
330
747D
100
AcDbEntity
  8
細線
 48
50.0
100
AcDbLine
 10
8533.600000000012
 20
5938.147588839349
 30
0.0
 11
8733.600000000006
 21
6138.147588839339
 31
0.0
  0
LINE
  5
27CFA
330
747D
100
AcDbEntity
  8
部品1
 48
50.0
100
AcDbLine
 10
8533.600000000005
 20
6174.34683136704
 30
0.0
 11
8533.600000000012
 21
5894.346831367075
 31
0.0
  0
LINE
  5
27CFB
330
747D
100
AcDbEntity
  8
部品1
 48
50.0
100
AcDbLine
 10
8733.600000000006
 20
6174.346831367042
 30
0.0
 11
8733.600000000013
 21
5894.346831367078
 31
0.0
  0
LINE
  5
27CFC
330
747D
100
AcDbEntity
  8
細線
 48
50.0
100
AcDbLine
 10
8624.503084343778
 20
5894.346831367077
 30
0.0
 11
8733.600000000009
 21
6003.44374702331
 31
0.0
  0
LINE
  5
27CFD
330
747D
100
AcDbEntity
  8
細線
 48
50.0
100
AcDbLine
 10
8579.601803738432
 20
5894.346831367077
 30
0.0
 11
8733.600000000009
 21
6048.345027628655
 31
0.0
  0
LINE
  5
27CFE
330
747D
100
AcDbEntity
  8
細線
 48
50.0
100
AcDbLine
 10
8669.404364949125
 20
5894.346831367078
 30
0.0
 11
8733.600000000011
 21
5958.542466417965
 31
0.0
  0
LINE
  5
27CFF
330
747D
100
AcDbEntity
  8
細線
 48
50.0
100
AcDbLine
 10
9353.600000000005
 20
6117.752711260729
 30
0.0
 11
9410.19412010632
 21
6174.346831367041
 31
0.0
  0
LINE
  5
27D00
330
747D
100
AcDbEntity
  8
細線
 48
50.0
100
AcDbLine
 10
9353.600000000007
 20
6072.851430655385
 30
0.0
 11
9455.095400711662
 21
6174.34683136704
 31
0.0
  0
LINE
  5
27D01
330
747D
100
AcDbEntity
  8
細線
 48
50.0
100
AcDbLine
 10
9353.60000000001
 20
5983.048869444692
 30
0.0
 11
9544.897961922357
 21
6174.346831367041
 31
0.0
  0
LINE
  5
27D02
330
747D
100
AcDbEntity
  8
細線
 48
50.0
100
AcDbLine
 10
9353.60000000001
 20
6027.950150050039
 30
0.0
 11
9499.996681317011
 21
6174.346831367041
 31
0.0
  0
LINE
  5
27D03
330
747D
100
AcDbEntity
  8
細線
 48
50.0
100
AcDbLine
 10
9534.305645554473
 20
5894.34683136708
 30
0.0
 11
9553.600000000013
 21
5913.641185812622
 31
0.0
  0
LINE
  5
27D04
330
747D
100
AcDbEntity
  8
細線
 48
50.0
100
AcDbLine
 10
9354.700523133084
 20
5894.346831367077
 30
0.0
 11
9553.600000000008
 21
6093.246308234
 31
0.0
  0
LINE
  5
27D05
330
747D
100
AcDbEntity
  8
細線
 48
50.0
100
AcDbLine
 10
9353.600000000012
 20
5938.147588839349
 30
0.0
 11
9553.600000000006
 21
6138.147588839339
 31
0.0
  0
LINE
  5
27D06
330
747D
100
AcDbEntity
  8
部品1
 48
50.0
100
AcDbLine
 10
9353.600000000005
 20
6174.34683136704
 30
0.0
 11
9353.600000000012
 21
5894.346831367075
 31
0.0
  0
LINE
  5
27D07
330
747D
100
AcDbEntity
  8
部品1
 48
50.0
100
AcDbLine
 10
9553.600000000006
 20
6174.346831367042
 30
0.0
 11
9553.600000000013
 21
5894.346831367078
 31
0.0
  0
LINE
  5
27D08
330
747D
100
AcDbEntity
  8
細線
 48
50.0
100
AcDbLine
 10
9444.503084343777
 20
5894.346831367077
 30
0.0
 11
9553.60000000001
 21
6003.44374702331
 31
0.0
  0
LINE
  5
27D09
330
747D
100
AcDbEntity
  8
細線
 48
50.0
100
AcDbLine
 10
9399.601803738432
 20
5894.346831367077
 30
0.0
 11
9553.60000000001
 21
6048.345027628655
 31
0.0
  0
LINE
  5
27D0A
330
747D
100
AcDbEntity
  8
細線
 48
50.0
100
AcDbLine
 10
9489.404364949125
 20
5894.346831367078
 30
0.0
 11
9553.600000000011
 21
5958.542466417965
 31
0.0
  0
LINE
  5
27D0B
330
747D
100
AcDbEntity
  8
細線
 48
50.0
100
AcDbLine
 10
10173.6
 20
6117.752711260729
 30
0.0
 11
10230.19412010632
 21
6174.346831367041
 31
0.0
  0
LINE
  5
27D0C
330
747D
100
AcDbEntity
  8
細線
 48
50.0
100
AcDbLine
 10
10173.6
 20
6072.851430655385
 30
0.0
 11
10275.09540071166
 21
6174.34683136704
 31
0.0
  0
LINE
  5
27D0D
330
747D
100
AcDbEntity
  8
細線
 48
50.0
100
AcDbLine
 10
10173.60000000001
 20
5983.048869444692
 30
0.0
 11
10364.89796192235
 21
6174.346831367041
 31
0.0
  0
LINE
  5
27D0E
330
747D
100
AcDbEntity
  8
細線
 48
50.0
100
AcDbLine
 10
10173.60000000001
 20
6027.950150050039
 30
0.0
 11
10319.99668131701
 21
6174.346831367041
 31
0.0
  0
LINE
  5
27D0F
330
747D
100
AcDbEntity
  8
細線
 48
50.0
100
AcDbLine
 10
10354.30564555447
 20
5894.34683136708
 30
0.0
 11
10373.60000000001
 21
5913.641185812622
 31
0.0
  0
LINE
  5
27D10
330
747D
100
AcDbEntity
  8
細線
 48
50.0
100
AcDbLine
 10
10174.70052313308
 20
5894.346831367077
 30
0.0
 11
10373.6
 21
6093.246308234
 31
0.0
  0
LINE
  5
27D11
330
747D
100
AcDbEntity
  8
細線
 48
50.0
100
AcDbLine
 10
10173.60000000001
 20
5938.147588839349
 30
0.0
 11
10373.6
 21
6138.147588839339
 31
0.0
  0
LINE
  5
27D12
330
747D
100
AcDbEntity
  8
部品1
 48
50.0
100
AcDbLine
 10
10173.6
 20
6174.34683136704
 30
0.0
 11
10173.60000000001
 21
5894.346831367075
 31
0.0
  0
LINE
  5
27D13
330
747D
100
AcDbEntity
  8
部品1
 48
50.0
100
AcDbLine
 10
10373.6
 20
6174.346831367042
 30
0.0
 11
10373.60000000001
 21
5894.346831367078
 31
0.0
  0
LINE
  5
27D14
330
747D
100
AcDbEntity
  8
細線
 48
50.0
100
AcDbLine
 10
10264.50308434378
 20
5894.346831367077
 30
0.0
 11
10373.60000000001
 21
6003.44374702331
 31
0.0
  0
LINE
  5
27D15
330
747D
100
AcDbEntity
  8
細線
 48
50.0
100
AcDbLine
 10
10219.60180373843
 20
5894.346831367077
 30
0.0
 11
10373.60000000001
 21
6048.345027628655
 31
0.0
  0
LINE
  5
27D16
330
747D
100
AcDbEntity
  8
細線
 48
50.0
100
AcDbLine
 10
10309.40436494912
 20
5894.346831367078
 30
0.0
 11
10373.60000000001
 21
5958.542466417965
 31
0.0
  0
LINE
  5
27D17
330
747D
100
AcDbEntity
  8
細線
 48
50.0
100
AcDbLine
 10
10993.6
 20
6117.752711260729
 30
0.0
 11
11050.19412010632
 21
6174.346831367041
 31
0.0
  0
LINE
  5
27D18
330
747D
100
AcDbEntity
  8
細線
 48
50.0
100
AcDbLine
 10
10993.6
 20
6072.851430655385
 30
0.0
 11
11095.09540071166
 21
6174.34683136704
 31
0.0
  0
LINE
  5
27D19
330
747D
100
AcDbEntity
  8
細線
 48
50.0
100
AcDbLine
 10
10993.60000000001
 20
5983.048869444692
 30
0.0
 11
11184.89796192235
 21
6174.346831367041
 31
0.0
  0
LINE
  5
27D1A
330
747D
100
AcDbEntity
  8
細線
 48
50.0
100
AcDbLine
 10
10993.60000000001
 20
6027.950150050039
 30
0.0
 11
11139.99668131701
 21
6174.346831367041
 31
0.0
  0
LINE
  5
27D1B
330
747D
100
AcDbEntity
  8
細線
 48
50.0
100
AcDbLine
 10
11174.30564555447
 20
5894.34683136708
 30
0.0
 11
11193.60000000001
 21
5913.641185812622
 31
0.0
  0
LINE
  5
27D1C
330
747D
100
AcDbEntity
  8
細線
 48
50.0
100
AcDbLine
 10
10994.70052313308
 20
5894.346831367077
 30
0.0
 11
11193.60000000001
 21
6093.246308234
 31
0.0
  0
LINE
  5
27D1D
330
747D
100
AcDbEntity
  8
細線
 48
50.0
100
AcDbLine
 10
10993.60000000001
 20
5938.147588839349
 30
0.0
 11
11193.6
 21
6138.147588839339
 31
0.0
  0
LINE
  5
27D1E
330
747D
100
AcDbEntity
  8
部品1
 48
50.0
100
AcDbLine
 10
10993.6
 20
6174.34683136704
 30
0.0
 11
10993.60000000001
 21
5894.346831367075
 31
0.0
  0
LINE
  5
27D1F
330
747D
100
AcDbEntity
  8
部品1
 48
50.0
100
AcDbLine
 10
11193.6
 20
6174.346831367042
 30
0.0
 11
11193.60000000001
 21
5894.346831367078
 31
0.0
  0
LINE
  5
27D20
330
747D
100
AcDbEntity
  8
細線
 48
50.0
100
AcDbLine
 10
11084.50308434377
 20
5894.346831367077
 30
0.0
 11
11193.60000000001
 21
6003.44374702331
 31
0.0
  0
LINE
  5
27D21
330
747D
100
AcDbEntity
  8
細線
 48
50.0
100
AcDbLine
 10
11039.60180373843
 20
5894.346831367077
 30
0.0
 11
11193.60000000001
 21
6048.345027628655
 31
0.0
  0
LINE
  5
27D22
330
747D
100
AcDbEntity
  8
細線
 48
50.0
100
AcDbLine
 10
11129.40436494912
 20
5894.346831367078
 30
0.0
 11
11193.60000000001
 21
5958.542466417965
 31
0.0
  0
LINE
  5
27D23
330
747D
100
AcDbEntity
  8
細線
 48
50.0
100
AcDbLine
 10
11813.6
 20
6117.752711260729
 30
0.0
 11
11870.19412010632
 21
6174.346831367041
 31
0.0
  0
LINE
  5
27D24
330
747D
100
AcDbEntity
  8
細線
 48
50.0
100
AcDbLine
 10
11813.60000000001
 20
6072.851430655385
 30
0.0
 11
11915.09540071166
 21
6174.34683136704
 31
0.0
  0
LINE
  5
27D25
330
747D
100
AcDbEntity
  8
細線
 48
50.0
100
AcDbLine
 10
11813.60000000001
 20
5983.048869444692
 30
0.0
 11
12004.89796192236
 21
6174.346831367041
 31
0.0
  0
LINE
  5
27D26
330
747D
100
AcDbEntity
  8
細線
 48
50.0
100
AcDbLine
 10
11813.60000000001
 20
6027.950150050039
 30
0.0
 11
11959.99668131701
 21
6174.346831367041
 31
0.0
  0
LINE
  5
27D27
330
747D
100
AcDbEntity
  8
細線
 48
50.0
100
AcDbLine
 10
11994.30564555447
 20
5894.34683136708
 30
0.0
 11
12013.60000000001
 21
5913.641185812622
 31
0.0
  0
LINE
  5
27D28
330
747D
100
AcDbEntity
  8
細線
 48
50.0
100
AcDbLine
 10
11814.70052313308
 20
5894.346831367077
 30
0.0
 11
12013.60000000001
 21
6093.246308234
 31
0.0
  0
LINE
  5
27D29
330
747D
100
AcDbEntity
  8
細線
 48
50.0
100
AcDbLine
 10
11813.60000000001
 20
5938.147588839349
 30
0.0
 11
12013.6
 21
6138.147588839339
 31
0.0
  0
LINE
  5
27D2A
330
747D
100
AcDbEntity
  8
部品1
 48
50.0
100
AcDbLine
 10
11813.6
 20
6174.34683136704
 30
0.0
 11
11813.60000000001
 21
5894.346831367075
 31
0.0
  0
LINE
  5
27D2B
330
747D
100
AcDbEntity
  8
部品1
 48
50.0
100
AcDbLine
 10
12013.6
 20
6174.346831367042
 30
0.0
 11
12013.60000000001
 21
5894.346831367078
 31
0.0
  0
LINE
  5
27D2C
330
747D
100
AcDbEntity
  8
細線
 48
50.0
100
AcDbLine
 10
11904.50308434378
 20
5894.346831367077
 30
0.0
 11
12013.60000000001
 21
6003.44374702331
 31
0.0
  0
LINE
  5
27D2D
330
747D
100
AcDbEntity
  8
細線
 48
50.0
100
AcDbLine
 10
11859.60180373843
 20
5894.346831367077
 30
0.0
 11
12013.60000000001
 21
6048.345027628655
 31
0.0
  0
LINE
  5
27D2E
330
747D
100
AcDbEntity
  8
細線
 48
50.0
100
AcDbLine
 10
11949.40436494912
 20
5894.346831367078
 30
0.0
 11
12013.60000000001
 21
5958.542466417965
 31
0.0
  0
LINE
  5
27D4C
330
747D
100
AcDbEntity
  8
部品1
 48
50.0
100
AcDbLine
 10
12208.6
 20
6174.346831367078
 30
0.0
 11
12208.6
 21
7234.346831367041
 31
0.0
  0
LINE
  5
27D4D
330
747D
100
AcDbEntity
  8
部品1
 48
50.0
100
AcDbLine
 10
4238.599999999999
 20
6174.346831367039
 30
0.0
 11
4238.599999999993
 21
7234.346831367041
 31
0.0
  0
MTEXT
  5
27EE5
102
{ACAD_REACTORS
330
27EE6
102
}
330
747D
100
AcDbEntity
  8
寸法
 62
     7
 48
50.0
100
AcDbMText
 10
10453.1857946077
 20
2081.386010286486
 30
0.0
 40
120.0
 41
0.8
 71
     4
 72
     1
  1
\A1;C.B
  7
STYLE1
 73
     1
 44
1.0
1001
ACAD
1000
MTEXTBEGIN
1070
    73
1070
     1
1070
    44
1040
1.0
1070
    74
1070
     0
1000
MTEXTEND
  0
LEADER
  5
27EE6
330
747D
100
AcDbEntity
  8
寸法
 48
50.0
100
AcDbLeader
  3
INABA_S50G
 73
     0
 74
     0
 75
     1
 40
120.0
 41
185.591883092037
 76
     3
 10
10270.04758797406
 20
1824.239689605349
 30
0.0
 10
10303.1857946077
 20
1996.386010286486
 30
0.0
 10
10428.1857946077
 20
1996.386010286486
 30
0.0
340
27EE5
1001
ACAD
1000
DSTYLE
1002
{
1070
    40
1040
1.0
1002
}
  0
LINE
  5
27EE7
330
747D
100
AcDbEntity
  8
細線
 48
50.0
100
AcDbLine
 10
10415.70100155047
 20
1468.540773951998
 30
0.0
 11
10409.27022093212
 21
1492.540773951998
 31
0.0
  0
LINE
  5
27EE8
330
747D
100
AcDbEntity
  8
細線
 48
50.0
100
AcDbLine
 10
10394.26506615598
 20
1388.540773951998
 30
0.0
 11
10400.69584677433
 21
1364.540773951998
 31
0.0
  0
LINE
  5
27EE9
330
747D
100
AcDbEntity
  8
部品1
100
AcDbLine
 10
10459.32317635814
 20
1584.239689605349
 30
0.0
 11
10459.32317635814
 21
1364.540773951999
 31
0.0
  0
LINE
  5
27EEA
330
747D
100
AcDbEntity
  8
細線
 48
50.0
100
AcDbLine
 10
10387.83428553763
 20
1364.540773951998
 30
0.0
 11
10422.13178216881
 21
1492.540773951996
 31
0.0
  0
LINE
  5
27EEB
330
747D
100
AcDbEntity
  8
細線
 48
50.0
100
AcDbLine
 10
10336.81295660322
 20
1468.540773951998
 30
0.0
 11
10330.38217598488
 21
1492.540773951998
 31
0.0
  0
LINE
  5
27EEC
330
747D
100
AcDbEntity
  8
細線
100
AcDbLine
 10
10212.35957085747
 20
1492.540773952
 30
0.0
 11
10304.05848651081
 21
1584.239689605349
 31
0.0
  0
LINE
  5
27EED
330
747D
100
AcDbEntity
  8
細線
 48
50.0
100
AcDbLine
 10
10257.92491165597
 20
1468.540773951999
 30
0.0
 11
10251.49413103762
 21
1492.540773951999
 31
0.0
  0
LINE
  5
27EEE
330
747D
100
AcDbEntity
  8
細線
100
AcDbLine
 10
10246.30069635443
 20
1492.540773952
 30
0.0
 11
10337.99961200777
 21
1584.239689605349
 31
0.0
  0
LINE
  5
27EEF
330
747D
100
AcDbEntity
  8
細線
 48
50.0
100
AcDbLine
 10
10021.26077681424
 20
1468.540773951999
 30
0.0
 11
10014.82999619589
 21
1492.540773951999
 31
0.0
  0
LINE
  5
27EF0
330
747D
100
AcDbEntity
  8
細線
 48
50.0
100
AcDbLine
 10
10100.14882176148
 20
1468.540773951999
 30
0.0
 11
10093.71804114314
 21
1492.540773951999
 31
0.0
  0
LINE
  5
27EF1
330
747D
100
AcDbEntity
  8
細線
 48
50.0
100
AcDbLine
 10
10179.03686670873
 20
1468.540773951999
 30
0.0
 11
10172.60608609038
 21
1492.540773951999
 31
0.0
  0
LINE
  5
27EF2
330
747D
100
AcDbEntity
  8
細線
 48
50.0
100
AcDbLine
 10
10315.37702120874
 20
1388.540773951998
 30
0.0
 11
10321.80780182708
 21
1364.540773951998
 31
0.0
  0
LINE
  5
27EF3
330
747D
100
AcDbEntity
  8
細線
 48
50.0
100
AcDbLine
 10
10236.48897626149
 20
1388.540773951999
 30
0.0
 11
10242.91975687984
 21
1364.540773951999
 31
0.0
  0
LINE
  5
27EF4
330
747D
100
AcDbEntity
  8
細線
 48
50.0
100
AcDbLine
 10
10078.71288636699
 20
1388.540773951999
 30
0.0
 11
10085.14366698534
 21
1364.540773951999
 31
0.0
  0
LINE
  5
27EF5
330
747D
100
AcDbEntity
  8
細線
 48
50.0
100
AcDbLine
 10
10157.60093131424
 20
1388.540773951999
 30
0.0
 11
10164.03171193259
 21
1364.540773951999
 31
0.0
  0
LINE
  5
27EF6
330
747D
100
AcDbEntity
  8
細線
 48
50.0
100
AcDbLine
 10
10151.17015069589
 20
1364.540773951999
 30
0.0
 11
10185.46764732707
 21
1492.540773951998
 31
0.0
  0
LINE
  5
27EF7
330
747D
100
AcDbEntity
  8
細線
 48
50.0
100
AcDbLine
 10
10072.28210574864
 20
1364.540773951998
 30
0.0
 11
10106.57960237983
 21
1492.540773951998
 31
0.0
  0
LINE
  5
27EF8
330
747D
100
AcDbEntity
  8
細線
 48
50.0
100
AcDbLine
 10
10230.05819564314
 20
1364.540773951998
 30
0.0
 11
10264.35569227431
 21
1492.540773951999
 31
0.0
  0
LINE
  5
27EF9
330
747D
100
AcDbEntity
  8
細線
100
AcDbLine
 10
10280.24182185138
 20
1492.540773952
 30
0.0
 11
10371.94073750472
 21
1584.239689605349
 31
0.0
  0
LINE
  5
27EFA
330
747D
100
AcDbEntity
  8
細線
 48
50.0
100
AcDbLine
 10
10308.94624059038
 20
1364.540773951996
 30
0.0
 11
10343.24373722157
 21
1492.540773951996
 31
0.0
  0
LINE
  5
27EFB
330
747D
100
AcDbEntity
  8
部品1
100
AcDbLine
 10
10339.32317635814
 20
1824.239689605349
 30
0.0
 11
10339.32317635814
 21
1584.239689605349
 31
0.0
  0
LINE
  5
27EFC
330
747D
100
AcDbEntity
  8
細線
100
AcDbLine
 10
10325.48551401055
 20
1584.23968960535
 30
0.0
 11
10085.48551401056
 21
1824.239689605349
 31
0.0
  0
LINE
  5
27EFD
330
747D
100
AcDbEntity
  8
細線
100
AcDbLine
 10
10274.57382576512
 20
1584.239689605349
 30
0.0
 11
10034.57382576513
 21
1824.239689605349
 31
0.0
  0
LINE
  5
27EFE
330
747D
100
AcDbEntity
  8
細線
100
AcDbLine
 10
9886.300696354425
 20
1492.540773951999
 30
0.0
 11
9977.999612007771
 21
1584.239689605349
 31
0.0
  0
LINE
  5
27EFF
330
747D
100
AcDbEntity
  8
細線
100
AcDbLine
 10
9852.359570857467
 20
1492.540773951999
 30
0.0
 11
9944.058486510819
 21
1584.239689605349
 31
0.0
  0
LINE
  5
27F00
330
747D
100
AcDbEntity
  8
細線
 48
50.0
100
AcDbLine
 10
9863.48468691974
 20
1468.540773951999
 30
0.0
 11
9857.053906301395
 21
1492.540773951999
 31
0.0
  0
LINE
  5
27F01
330
747D
100
AcDbEntity
  8
細線
 48
50.0
100
AcDbLine
 10
9942.372731866992
 20
1468.540773951999
 30
0.0
 11
9935.941951248645
 21
1492.540773951999
 31
0.0
  0
LINE
  5
27F02
330
747D
100
AcDbEntity
  8
細線
 48
50.0
100
AcDbLine
 10
9784.596641972489
 20
1468.540773951999
 30
0.0
 11
9778.165861354141
 21
1492.540773951999
 31
0.0
  0
LINE
  5
27F03
330
747D
100
AcDbEntity
  8
細線
 48
50.0
100
AcDbLine
 10
9999.824841419748
 20
1388.540773951999
 30
0.0
 11
10006.25562203809
 21
1364.540773951999
 31
0.0
  0
LINE
  5
27F04
330
747D
100
AcDbEntity
  8
細線
 48
50.0
100
AcDbLine
 10
9920.936796472503
 20
1388.540773951999
 30
0.0
 11
9927.367577090848
 21
1364.540773951999
 31
0.0
  0
LINE
  5
27F05
330
747D
100
AcDbEntity
  8
細線
 48
50.0
100
AcDbLine
 10
9763.160706577998
 20
1388.540773951999
 30
0.0
 11
9769.591487196347
 21
1364.540773951999
 31
0.0
  0
LINE
  5
27F06
330
747D
100
AcDbEntity
  8
細線
 48
50.0
100
AcDbLine
 10
9842.048751525251
 20
1388.540773951999
 30
0.0
 11
9848.479532143599
 21
1364.540773951999
 31
0.0
  0
LINE
  5
27F07
330
747D
100
AcDbEntity
  8
部品1
100
AcDbLine
 10
9739.323176358141
 20
1364.540773951995
 30
0.0
 11
9739.323176358141
 21
1584.239689605349
 31
0.0
  0
LINE
  5
27F08
330
747D
100
AcDbEntity
  8
細線
 48
50.0
100
AcDbLine
 10
9756.729925959652
 20
1364.540773951999
 30
0.0
 11
9791.027422590836
 21
1492.540773951999
 31
0.0
  0
LINE
  5
27F09
330
747D
100
AcDbEntity
  8
細線
 48
50.0
100
AcDbLine
 10
9914.506015854151
 20
1364.540773951999
 30
0.0
 11
9948.803512485334
 21
1492.540773951999
 31
0.0
  0
LINE
  5
27F0A
330
747D
100
AcDbEntity
  8
細線
 48
50.0
100
AcDbLine
 10
9835.617970906898
 20
1364.540773951998
 30
0.0
 11
9869.915467538081
 21
1492.540773951998
 31
0.0
  0
LINE
  5
27F0B
330
747D
100
AcDbEntity
  8
部品1
100
AcDbLine
 10
9859.323176358138
 20
1584.239689605349
 30
0.0
 11
9859.323176358138
 21
1824.239689605349
 31
0.0
  0
TEXT
  5
27F0C
330
747D
100
AcDbEntity
  8
部品1
 48
50.0
100
AcDbText
 10
9095.205089599636
 20
1317.43994896804
 30
0.0
 40
80.0
  1
ボルトの出
 50
90.0
  7
STYLE2
100
AcDbText
  0
LINE
  5
27F0D
330
747D
100
AcDbEntity
  8
細線
100
AcDbLine
 10
10003.04482178949
 20
1584.239689605349
 30
0.0
 11
9859.323176358138
 21
1727.961335036702
 31
0.0
  0
LWPOLYLINE
  5
27F0E
330
747D
100
AcDbEntity
  8
部品1
 48
50.0
100
AcDbPolyline
 90
        2
 70
     0
 43
12.0
 10
9474.711914257751
 20
1584.239689605349
 10
10675.80421738937
 20
1584.239689605349
  0
LINE
  5
27F0F
330
747D
100
AcDbEntity
  8
細線
100
AcDbLine
 10
9920.241821851382
 20
1492.540773951999
 30
0.0
 11
10011.94073750472
 21
1584.239689605349
 31
0.0
  0
LINE
  5
27F10
330
747D
100
AcDbEntity
  8
部品1
100
AcDbLine
 10
9739.323176358141
 20
1492.540773951999
 30
0.0
 11
10459.32317635814
 21
1492.540773952001
 31
0.0
  0
LINE
  5
27F11
330
747D
100
AcDbEntity
  8
部品1
100
AcDbLine
 10
9739.323176358141
 20
1364.540773951995
 30
0.0
 11
10459.32317635814
 21
1364.540773951999
 31
0.0
  0
LINE
  5
27F12
330
747D
100
AcDbEntity
  8
細線
 48
50.0
100
AcDbLine
 10
9993.394060801398
 20
1364.540773951999
 30
0.0
 11
10027.69155743258
 21
1492.540773951998
 31
0.0
  0
LINE
  5
27F13
330
747D
100
AcDbEntity
  8
部品1
100
AcDbLine
 10
9859.323176358138
 20
1824.239689605349
 30
0.0
 11
10339.32317635814
 21
1824.239689605349
 31
0.0
  0
LINE
  5
27F14
330
747D
100
AcDbEntity
  8
細線
100
AcDbLine
 10
10053.95651003492
 20
1584.239689605349
 30
0.0
 11
9859.323176358138
 21
1778.873023282132
 31
0.0
  0
LINE
  5
27F15
330
747D
100
AcDbEntity
  8
部品1
100
AcDbLine
 10
11046.06467745517
 20
259.2713872212871
 30
0.0
 11
11046.06467745518
 21
3223.578356805934
 31
0.0
  0
TEXT
  5
27F16
330
747D
100
AcDbEntity
  8
部品1
100
AcDbText
 10
7667.959493247312
 20
3044.026424854506
 30
0.0
 40
120.0
  1
基礎詳細
  7
STYLE2
100
AcDbText
  0
LINE
  5
27F17
330
747D
100
AcDbEntity
  8
部品1
 48
50.0
100
AcDbLine
 10
7983.187244055383
 20
2223.114970714492
 30
0.0
 11
7999.187244055382
 21
2215.114970714491
 31
0.0
  0
LINE
  5
27F18
330
747D
100
AcDbEntity
  8
細線
 48
50.0
100
AcDbLine
 10
7951.187244055382
 20
2175.114970714492
 30
0.0
 11
7951.187244055382
 21
2207.114970714492
 31
0.0
  0
LINE
  5
27F19
330
747D
100
AcDbEntity
  8
部品1
 48
50.0
100
AcDbLine
 10
7999.187244055382
 20
2183.114970714491
 30
0.0
 11
7999.187244055382
 21
2215.114970714491
 31
0.0
  0
LINE
  5
27F1A
330
747D
100
AcDbEntity
  8
細線
 48
50.0
100
AcDbLine
 10
7983.187244055383
 20
2175.114970714492
 30
0.0
 11
7983.187244055383
 21
2207.114970714492
 31
0.0
  0
LINE
  5
27F1B
330
747D
100
AcDbEntity
  8
部品1
 48
50.0
100
AcDbLine
 10
7983.187244055383
 20
2207.114970714492
 30
0.0
 11
7999.187244055382
 21
2215.114970714491
 31
0.0
  0
LINE
  5
27F1C
330
747D
100
AcDbEntity
  8
部品1
 48
50.0
100
AcDbLine
 10
7951.187244055382
 20
2207.114970714492
 30
0.0
 11
7983.187244055383
 21
2207.114970714492
 31
0.0
  0
LINE
  5
27F1D
330
747D
100
AcDbEntity
  8
部品1
 48
50.0
100
AcDbLine
 10
7983.187244055383
 20
2175.114970714492
 30
0.0
 11
7999.187244055382
 21
2183.114970714491
 31
0.0
  0
LINE
  5
27F1E
330
747D
100
AcDbEntity
  8
部品1
 48
50.0
100
AcDbLine
 10
7951.187244055382
 20
2175.114970714492
 30
0.0
 11
7983.187244055383
 21
2175.114970714492
 31
0.0
  0
ELLIPSE
  5
27F1F
330
747D
100
AcDbEntity
  8
細線
 48
50.0
100
AcDbEllipse
 10
7967.187244055381
 20
2215.114970714491
 30
0.0
 11
14.76670786606846
 21
0.0
 31
0.0
210
0.0
220
0.0
230
1.0
 40
0.2071254069489396
 41
0.0
 42
6.283185307179586
  0
LINE
  5
27F20
330
747D
100
AcDbEntity
  8
部品1
 48
50.0
100
AcDbLine
 10
7951.187244055382
 20
2223.114970714492
 30
0.0
 11
7983.187244055383
 21
2223.114970714492
 31
0.0
  0
LINE
  5
27F21
330
747D
100
AcDbEntity
  8
部品1
 48
50.0
100
AcDbLine
 10
7935.187244055382
 20
2183.114970714491
 30
0.0
 11
7935.187244055382
 21
2215.114970714491
 31
0.0
  0
LINE
  5
27F22
330
747D
100
AcDbEntity
  8
部品1
 48
50.0
100
AcDbLine
 10
7935.187244055382
 20
2215.114970714491
 30
0.0
 11
7951.187244055382
 21
2223.114970714492
 31
0.0
  0
LINE
  5
27F23
330
747D
100
AcDbEntity
  8
部品1
 48
50.0
100
AcDbLine
 10
7935.187244055382
 20
2183.114970714491
 30
0.0
 11
7951.187244055382
 21
2175.114970714492
 31
0.0
  0
LINE
  5
27F24
330
747D
100
AcDbEntity
  8
部品1
 48
50.0
100
AcDbLine
 10
7935.187244055382
 20
2215.114970714491
 30
0.0
 11
7951.187244055382
 21
2207.114970714492
 31
0.0
  0
LINE
  5
27F25
330
747D
100
AcDbEntity
  8
部品1
 48
50.0
100
AcDbLine
 10
8007.187244055382
 20
2083.762978049621
 30
0.0
 11
8007.187244055382
 21
2093.362978049621
 31
0.0
  0
ELLIPSE
  5
27F26
330
747D
100
AcDbEntity
  8
部品1
 48
50.0
100
AcDbEllipse
 10
7967.187244055381
 20
2093.362978049621
 30
0.0
 11
18.4
 21
0.0
 31
0.0
210
0.0
220
0.0
230
1.0
 40
0.3478260869565217
 41
0.0
 42
6.283185307179586
  0
ARC
  5
27F27
330
747D
100
AcDbEntity
  8
部品1
100
AcDbCircle
 10
7806.087244055381
 20
1922.339689605349
 30
0.0
 40
2.7
100
AcDbArc
 50
90.0
 51
180.0
  0
LINE
  5
27F28
330
747D
100
AcDbEntity
  8
部品1
100
AcDbLine
 10
7808.78724405538
 20
1935.839689605349
 30
0.0
 11
7851.087244055381
 21
1935.839689605345
 31
0.0
  0
LINE
  5
27F29
330
747D
100
AcDbEntity
  8
部品1
100
AcDbLine
 10
7806.087244055381
 20
1925.039689605349
 30
0.0
 11
7806.087244055381
 21
1933.139689605348
 31
0.0
  0
LINE
  5
27F2A
330
747D
100
AcDbEntity
  8
部品1
100
AcDbLine
 10
7806.087244055381
 20
1925.039689605349
 30
0.0
 11
7806.087244055381
 21
1925.039689605349
 31
0.0
  0
ARC
  5
27F2B
330
747D
100
AcDbEntity
  8
部品1
100
AcDbCircle
 10
7808.78724405538
 20
1933.139689605348
 30
0.0
 40
2.7
100
AcDbArc
 50
90.0
 51
180.0
  0
ARC
  5
27F2C
330
747D
100
AcDbEntity
  8
部品1
100
AcDbCircle
 10
7851.087244055381
 20
1933.139689605346
 30
0.0
 40
2.7
100
AcDbArc
 50
0.0
 51
90.0
  0
LINE
  5
27F2D
330
747D
100
AcDbEntity
  8
部品1
 48
50.0
100
AcDbLine
 10
7927.187244055382
 20
2093.362978049621
 30
0.0
 11
7927.187244055382
 21
2083.762978049621
 31
0.0
  0
ELLIPSE
  5
27F2E
330
747D
100
AcDbEntity
  8
部品1
 48
50.0
100
AcDbEllipse
 10
7967.187244055381
 20
2083.762978049622
 30
0.0
 11
40.0
 21
0.0
 31
0.0
210
0.0
220
0.0
230
1.0
 40
0.4
 41
3.141592653589793
 42
6.283185307179586
  0
ELLIPSE
  5
27F2F
330
747D
100
AcDbEntity
  8
部品1
 48
50.0
100
AcDbEllipse
 10
7967.187244055381
 20
2093.362978049621
 30
0.0
 11
40.0
 21
0.0
 31
0.0
210
0.0
220
0.0
230
1.0
 40
0.4
 41
0.0
 42
6.283185307179586
  0
LINE
  5
27F30
330
747D
100
AcDbEntity
  8
部品1
100
AcDbLine
 10
7961.787244055379
 20
1876.999689605349
 30
0.0
 11
7972.587244055381
 21
1876.999689605349
 31
0.0
  0
LINE
  5
27F31
330
747D
100
AcDbEntity
  8
部品1
100
AcDbLine
 10
7958.187244055382
 20
1873.399689605349
 30
0.0
 11
7976.187244055381
 21
1873.399689605349
 31
0.0
  0
LINE
  5
27F32
330
747D
100
AcDbEntity
  8
細線
100
AcDbLine
 10
7961.787244055384
 20
1833.799689605349
 30
0.0
 11
7961.787244055379
 21
1876.999689605349
 31
0.0
  0
LINE
  5
27F33
330
747D
100
AcDbEntity
  8
細線
100
AcDbLine
 10
7972.587244055381
 20
1833.799689605349
 30
0.0
 11
7972.587244055381
 21
1876.999689605349
 31
0.0
  0
LINE
  5
27F34
330
747D
100
AcDbEntity
  8
部品1
100
AcDbLine
 10
7874.48724405538
 20
1891.099689605349
 30
0.0
 11
7874.48724405538
 21
1873.999689605349
 31
0.0
  0
LINE
  5
27F35
330
747D
100
AcDbEntity
  8
部品1
100
AcDbLine
 10
7908.047244055381
 20
1891.099689605349
 30
0.0
 11
7908.047244055379
 21
1836.499689605349
 31
0.0
  0
ARC
  5
27F36
330
747D
100
AcDbEntity
  8
部品1
100
AcDbCircle
 10
7893.387244055382
 20
1879.139689605348
 30
0.0
 40
2.7
100
AcDbArc
 50
0.0
 51
90.0
  0
LINE
  5
27F37
330
747D
100
AcDbEntity
  8
部品1
100
AcDbLine
 10
7853.787244055379
 20
1881.839689605349
 30
0.0
 11
7893.387244055382
 21
1881.839689605349
 31
0.0
  0
ARC
  5
27F38
330
747D
100
AcDbEntity
  8
部品1
100
AcDbCircle
 10
7893.387244055382
 20
1836.499689605349
 30
0.0
 40
2.7
100
AcDbArc
 50
270.0
 51
0.0
  0
ARC
  5
27F39
330
747D
100
AcDbEntity
  8
部品1
100
AcDbCircle
 10
7910.747244055376
 20
1836.499689605349
 30
0.0
 40
2.7
100
AcDbArc
 50
180.0
 51
270.0
  0
LINE
  5
27F3A
330
747D
100
AcDbEntity
  8
部品1
100
AcDbLine
 10
7881.687244055382
 20
1833.799689605349
 30
0.0
 11
7893.387244055382
 21
1833.799689605349
 31
0.0
  0
LINE
  5
27F3B
330
747D
100
AcDbEntity
  8
部品1
100
AcDbLine
 10
7896.087244055381
 20
1879.139689605348
 30
0.0
 11
7896.087244055381
 21
1836.499689605349
 31
0.0
  0
ARC
  5
27F3C
330
747D
100
AcDbEntity
  8
部品1
100
AcDbCircle
 10
7905.347244055382
 20
1891.099689605349
 30
0.0
 40
2.7
100
AcDbArc
 50
0.0
 51
90.0
  0
ARC
  5
27F3D
330
747D
100
AcDbEntity
  8
部品1
100
AcDbCircle
 10
7877.187244055382
 20
1891.099689605349
 30
0.0
 40
2.7
100
AcDbArc
 50
90.0
 51
180.0
  0
LINE
  5
27F3E
330
747D
100
AcDbEntity
  8
部品1
100
AcDbLine
 10
7877.187244055382
 20
1893.799689605349
 30
0.0
 11
7905.347244055382
 21
1893.799689605349
 31
0.0
  0
LINE
  5
27F3F
330
747D
100
AcDbEntity
  8
部品1
100
AcDbLine
 10
7853.787244055379
 20
1933.139689605346
 30
0.0
 11
7853.787244055379
 21
1881.839689605349
 31
0.0
  0
LINE
  5
27F40
330
747D
100
AcDbEntity
  8
部品1
100
AcDbLine
 10
7803.387244055382
 20
1914.239689605349
 30
0.0
 11
7803.387244055382
 21
1922.339689605349
 31
0.0
  0
LINE
  5
27F41
330
747D
100
AcDbEntity
  8
部品1
100
AcDbLine
 10
7910.747244055376
 20
1833.799689605349
 30
0.0
 11
8112.087244055375
 21
1833.799689605349
 31
0.0
  0
LINE
  5
27F42
330
747D
100
AcDbEntity
  8
部品1
100
AcDbLine
 10
7752.087244055381
 20
1836.499689605349
 30
0.0
 11
7752.087244055381
 21
1898.631593308057
 31
0.0
  0
LINE
  5
27F43
330
747D
100
AcDbEntity
  8
部品1
100
AcDbLine
 10
7754.78724405538
 20
1833.799689605349
 30
0.0
 11
7766.487244055375
 21
1833.799689605349
 31
0.0
  0
LINE
  5
27F44
330
747D
100
AcDbEntity
  8
細線
 48
50.0
100
AcDbLine
 10
7745.78724405538
 20
1812.020265905253
 30
0.0
 11
7758.006667755475
 21
1824.239689605349
 31
0.0
  0
ARC
  5
27F45
330
747D
100
AcDbEntity
  8
部品1
100
AcDbCircle
 10
7754.78724405538
 20
1836.499689605349
 30
0.0
 40
2.7
100
AcDbArc
 50
180.0
 51
270.0
  0
LINE
  5
27F46
330
747D
100
AcDbEntity
  8
部品1
100
AcDbLine
 10
7754.132397867782
 20
1901.250978058449
 30
0.0
 11
7762.887244055382
 21
1903.439689605349
 31
0.0
  0
ARC
  5
27F47
330
747D
100
AcDbEntity
  8
部品1
100
AcDbCircle
 10
7754.78724405538
 20
1898.631593308057
 30
0.0
 40
2.7
100
AcDbArc
 50
104.0362434679067
 51
180.0
  0
ARC
  5
27F48
330
747D
100
AcDbEntity
  8
部品1
100
AcDbCircle
 10
7765.587244055381
 20
1911.539689605349
 30
0.0
 40
2.7
100
AcDbArc
 50
90.0
 51
180.0
  0
LINE
  5
27F49
330
747D
100
AcDbEntity
  8
部品1
100
AcDbLine
 10
7762.887244055382
 20
1903.439689605349
 30
0.0
 11
7762.887244055382
 21
1911.539689605349
 31
0.0
  0
LINE
  5
27F4A
330
747D
100
AcDbEntity
  8
部品1
 48
50.0
100
AcDbLine
 10
7745.78724405538
 20
1824.239689605349
 30
0.0
 11
8159.787244055385
 21
1824.239689605349
 31
0.0
  0
LINE
  5
27F4B
330
747D
100
AcDbEntity
  8
細線
 48
50.0
100
AcDbLine
 10
7745.78724405538
 20
1758.138729178839
 30
0.0
 11
7811.888204481892
 21
1824.239689605349
 31
0.0
  0
LINE
  5
27F4C
330
747D
100
AcDbEntity
  8
細線
 48
50.0
100
AcDbLine
 10
7745.78724405538
 20
1785.079497542047
 30
0.0
 11
7784.947436118688
 21
1824.239689605349
 31
0.0
  0
LINE
  5
27F4D
330
747D
100
AcDbEntity
  8
部品1
100
AcDbLine
 10
7765.587244055381
 20
1914.239689605349
 30
0.0
 11
7803.387244055382
 21
1914.239689605349
 31
0.0
  0
LINE
  5
27F4E
330
747D
100
AcDbEntity
  8
部品1
 48
50.0
100
AcDbLine
 10
8159.78724405538
 20
1280.239689605348
 30
0.0
 11
8287.78724405538
 21
1280.239689605348
 31
0.0
  0
LINE
  5
27F4F
330
747D
100
AcDbEntity
  8
部品1
100
AcDbLine
 10
7976.187244055381
 20
1599.239689605349
 30
0.0
 11
8012.187244055381
 21
1599.239689605349
 31
0.0
  0
LINE
  5
27F50
330
747D
100
AcDbEntity
  8
部品1
100
AcDbLine
 10
7976.187244055381
 20
1581.239689605349
 30
0.0
 11
8012.187244055381
 21
1581.239689605349
 31
0.0
  0
ARC
  5
27F51
330
747D
100
AcDbEntity
  8
部品1
100
AcDbCircle
 10
7976.187244055381
 20
1599.239689605349
 30
0.0
 40
18.0
100
AcDbArc
 50
180.0
 51
270.0
  0
LINE
  5
27F52
330
747D
100
AcDbEntity
  8
部品1
100
AcDbLine
 10
8012.187244055381
 20
1581.239689605349
 30
0.0
 11
8012.187244055381
 21
1599.239689605349
 31
0.0
  0
LINE
  5
27F53
330
747D
100
AcDbEntity
  8
部品1
100
AcDbLine
 10
8030.187244055381
 20
1500.239689605347
 30
0.0
 11
7904.187244055375
 21
1500.239689605347
 31
0.0
  0
LINE
  5
27F54
330
747D
100
AcDbEntity
  8
細線
 48
50.0
100
AcDbLine
 10
8324.165069247717
 20
1016.239689605347
 30
0.0
 11
8317.73428862937
 21
1040.239689605347
 31
0.0
  0
LINE
  5
27F55
330
747D
100
AcDbEntity
  8
細線
 48
50.0
100
AcDbLine
 10
8245.27702430047
 20
1016.239689605347
 30
0.0
 11
8238.846243682123
 21
1040.239689605347
 31
0.0
  0
LINE
  5
27F56
330
747D
100
AcDbEntity
  8
細線
 48
50.0
100
AcDbLine
 10
8166.388979353214
 20
1016.239689605349
 30
0.0
 11
8159.958198734868
 21
1040.239689605348
 31
0.0
  0
LINE
  5
27F57
330
747D
100
AcDbEntity
  8
細線
 48
50.0
100
AcDbLine
 10
8302.729133853226
 20
936.239689605347
 30
0.0
 11
8309.159914471575
 21
912.2396896053469
 31
0.0
  0
LINE
  5
27F58
330
747D
100
AcDbEntity
  8
細線
 48
50.0
100
AcDbLine
 10
8223.841088905983
 20
936.239689605347
 30
0.0
 11
8230.271869524328
 21
912.2396896053469
 31
0.0
  0
LINE
  5
27F59
330
747D
100
AcDbEntity
  8
細線
 48
50.0
100
AcDbLine
 10
8144.953043958732
 20
936.2396896053487
 30
0.0
 11
8151.38382457709
 21
912.2396896053487
 31
0.0
  0
LINE
  5
27F5A
330
747D
100
AcDbEntity
  8
細線
 48
50.0
100
AcDbLine
 10
8217.410308287631
 20
912.239689605346
 30
0.0
 11
8251.707804918815
 21
1040.239689605346
 31
0.0
  0
LINE
  5
27F5B
330
747D
100
AcDbEntity
  8
細線
 48
50.0
100
AcDbLine
 10
8138.522263340382
 20
912.2396896053469
 30
0.0
 11
8172.819759971558
 21
1040.239689605348
 31
0.0
  0
LINE
  5
27F5C
330
747D
100
AcDbEntity
  8
細線
 48
50.0
100
AcDbLine
 10
8296.298353234876
 20
912.2396896053469
 30
0.0
 11
8330.595849866062
 21
1040.239689605346
 31
0.0
  0
LINE
  5
27F5D
330
747D
100
AcDbEntity
  8
部品1
 48
50.0
100
AcDbLine
 10
8367.787244055383
 20
1040.239689605348
 30
0.0
 11
8367.787244055383
 21
912.2396896053487
 31
0.0
  0
LINE
  5
27F5E
330
747D
100
AcDbEntity
  8
細線
 48
50.0
100
AcDbLine
 10
8087.500934405976
 20
1016.239689605349
 30
0.0
 11
8081.07015378763
 21
1040.239689605348
 31
0.0
  0
LINE
  5
27F5F
330
747D
100
AcDbEntity
  8
細線
 48
50.0
100
AcDbLine
 10
8008.61288945873
 20
1016.239689605349
 30
0.0
 11
8002.182108840383
 21
1040.239689605348
 31
0.0
  0
LINE
  5
27F60
330
747D
100
AcDbEntity
  8
細線
 48
50.0
100
AcDbLine
 10
7850.836799564238
 20
1016.239689605349
 30
0.0
 11
7844.406018945891
 21
1040.239689605348
 31
0.0
  0
LINE
  5
27F61
330
747D
100
AcDbEntity
  8
細線
 48
50.0
100
AcDbLine
 10
7929.724844511484
 20
1016.239689605349
 30
0.0
 11
7923.294063893137
 21
1040.239689605348
 31
0.0
  0
LINE
  5
27F62
330
747D
100
AcDbEntity
  8
細線
 48
50.0
100
AcDbLine
 10
7987.176954064242
 20
936.2396896053487
 30
0.0
 11
7993.607734682588
 21
912.2396896053487
 31
0.0
  0
LINE
  5
27F63
330
747D
100
AcDbEntity
  8
細線
 48
50.0
100
AcDbLine
 10
8066.064999011487
 20
936.2396896053487
 30
0.0
 11
8072.495779629832
 21
912.2396896053487
 31
0.0
  0
LINE
  5
27F64
330
747D
100
AcDbEntity
  8
細線
 48
50.0
100
AcDbLine
 10
7829.400864169747
 20
936.2396896053487
 30
0.0
 11
7835.831644788095
 21
912.2396896053487
 31
0.0
  0
LINE
  5
27F65
330
747D
100
AcDbEntity
  8
細線
 48
50.0
100
AcDbLine
 10
7908.288909116994
 20
936.2396896053487
 30
0.0
 11
7914.719689735342
 21
912.2396896053487
 31
0.0
  0
LINE
  5
27F66
330
747D
100
AcDbEntity
  8
細線
 48
50.0
100
AcDbLine
 10
8059.634218393133
 20
912.2396896053487
 30
0.0
 11
8093.931715024318
 21
1040.239689605347
 31
0.0
  0
LINE
  5
27F67
330
747D
100
AcDbEntity
  8
細線
 48
50.0
100
AcDbLine
 10
7901.858128498644
 20
912.2396896053487
 30
0.0
 11
7936.155625129828
 21
1040.239689605347
 31
0.0
  0
LINE
  5
27F68
330
747D
100
AcDbEntity
  8
細線
 48
50.0
100
AcDbLine
 10
7822.970083551396
 20
912.2396896053487
 30
0.0
 11
7857.267580182579
 21
1040.239689605348
 31
0.0
  0
LINE
  5
27F69
330
747D
100
AcDbEntity
  8
細線
 48
50.0
100
AcDbLine
 10
7980.746173445893
 20
912.2396896053469
 30
0.0
 11
8015.043670077075
 21
1040.239689605347
 31
0.0
  0
LINE
  5
27F6A
330
747D
100
AcDbEntity
  8
細線
 48
50.0
100
AcDbLine
 10
8105.51893901019
 20
1040.239689605348
 30
0.0
 11
8287.78724405538
 21
1222.507994650545
 31
0.0
  0
LINE
  5
27F6B
330
747D
100
AcDbEntity
  8
部品1
 48
50.0
100
AcDbLine
 10
8287.78724405538
 20
1280.239689605348
 30
0.0
 11
8287.78724405538
 21
1040.239689605348
 31
0.0
  0
LINE
  5
27F6C
330
747D
100
AcDbEntity
  8
細線
 48
50.0
100
AcDbLine
 10
8078.578170646986
 20
1040.239689605348
 30
0.0
 11
8287.78724405538
 21
1249.448763013742
 31
0.0
  0
LINE
  5
27F6D
330
747D
100
AcDbEntity
  8
細線
 48
50.0
100
AcDbLine
 10
8051.637402283773
 20
1040.239689605348
 30
0.0
 11
8287.78724405538
 21
1276.389531376957
 31
0.0
  0
LINE
  5
27F6E
330
747D
100
AcDbEntity
  8
細線
 48
50.0
100
AcDbLine
 10
7836.111255378115
 20
1040.239689605348
 30
0.0
 11
8159.78724405538
 21
1363.915678282615
 31
0.0
  0
LINE
  5
27F6F
330
747D
100
AcDbEntity
  8
細線
 48
50.0
100
AcDbLine
 10
7889.992792104532
 20
1040.239689605348
 30
0.0
 11
8159.78724405538
 21
1310.034141556206
 31
0.0
  0
LINE
  5
27F70
330
747D
100
AcDbEntity
  8
細線
 48
50.0
100
AcDbLine
 10
7863.052023741326
 20
1040.239689605348
 30
0.0
 11
8159.78724405538
 21
1336.974909919401
 31
0.0
  0
LINE
  5
27F71
330
747D
100
AcDbEntity
  8
細線
 48
50.0
100
AcDbLine
 10
7617.787244055377
 20
1252.967972093935
 30
0.0
 11
7645.058961566796
 21
1280.239689605348
 31
0.0
  0
LINE
  5
27F72
330
747D
100
AcDbEntity
  8
部品1
 48
50.0
100
AcDbLine
 10
7617.78724405538
 20
1280.239689605348
 30
0.0
 11
7745.78724405538
 21
1280.239689605348
 31
0.0
  0
LINE
  5
27F73
330
747D
100
AcDbEntity
  8
細線
 48
50.0
100
AcDbLine
 10
7617.787244055377
 20
1226.027203730724
 30
0.0
 11
7671.999729930004
 21
1280.239689605348
 31
0.0
  0
LWPOLYLINE
  5
27F74
330
747D
100
AcDbEntity
  8
部品1
 48
50.0
100
AcDbPolyline
 90
        2
 70
     0
 43
8.0
 10
7331.647342222424
 20
1584.23968960535
 10
7745.78724405538
 20
1584.23968960535
  0
LINE
  5
27F75
330
747D
100
AcDbEntity
  8
細線
 48
50.0
100
AcDbLine
 10
7693.060709669736
 20
1016.239689605349
 30
0.0
 11
7686.629929051388
 21
1040.239689605348
 31
0.0
  0
LINE
  5
27F76
330
747D
100
AcDbEntity
  8
細線
 48
50.0
100
AcDbLine
 10
7771.948754616985
 20
1016.239689605349
 30
0.0
 11
7765.517973998638
 21
1040.239689605348
 31
0.0
  0
LINE
  5
27F77
330
747D
100
AcDbEntity
  8
細線
 48
50.0
100
AcDbLine
 10
7614.172664722483
 20
1016.239689605349
 30
0.0
 11
7607.741884104136
 21
1040.239689605348
 31
0.0
  0
LINE
  5
27F78
330
747D
100
AcDbEntity
  8
細線
 48
50.0
100
AcDbLine
 10
7537.78724405538
 20
1025.579610571129
 30
0.0
 11
7541.715400393576
 21
1040.239689605348
 31
0.0
  0
LINE
  5
27F79
330
747D
100
AcDbEntity
  8
細線
 48
50.0
100
AcDbLine
 10
7671.624774275246
 20
936.2396896053487
 30
0.0
 11
7678.055554893592
 21
912.2396896053487
 31
0.0
  0
LINE
  5
27F7A
330
747D
100
AcDbEntity
  8
細線
 48
50.0
100
AcDbLine
 10
7750.512819222497
 20
936.2396896053487
 30
0.0
 11
7756.943599840845
 21
912.2396896053487
 31
0.0
  0
LINE
  5
27F7B
330
747D
100
AcDbEntity
  8
細線
 48
50.0
100
AcDbLine
 10
7592.736729327993
 20
936.2396896053487
 30
0.0
 11
7599.167509946339
 21
912.2396896053487
 31
0.0
  0
LINE
  5
27F7C
330
747D
100
AcDbEntity
  8
細線
 48
50.0
100
AcDbLine
 10
7744.082038604145
 20
912.2396896053469
 30
0.0
 11
7778.379535235327
 21
1040.239689605347
 31
0.0
  0
LINE
  5
27F7D
330
747D
100
AcDbEntity
  8
細線
 48
50.0
100
AcDbLine
 10
7586.30594870964
 20
912.2396896053469
 30
0.0
 11
7620.603445340823
 21
1040.239689605347
 31
0.0
  0
LINE
  5
27F7E
330
747D
100
AcDbEntity
  8
部品1
 48
50.0
100
AcDbLine
 10
7537.787244055384
 20
912.2396896053487
 30
0.0
 11
7537.787244055384
 21
1040.239689605348
 31
0.0
  0
LINE
  5
27F7F
330
747D
100
AcDbEntity
  8
細線
 48
50.0
100
AcDbLine
 10
7665.193993656898
 20
912.2396896053487
 30
0.0
 11
7699.491490288081
 21
1040.239689605348
 31
0.0
  0
LINE
  5
27F80
330
747D
100
AcDbEntity
  8
部品1
 48
50.0
100
AcDbLine
 10
7617.78724405538
 20
1040.239689605348
 30
0.0
 11
7617.78724405538
 21
1280.239689605348
 31
0.0
  0
LINE
  5
27F81
330
747D
100
AcDbEntity
  8
細線
 48
50.0
100
AcDbLine
 10
7617.787244055377
 20
1199.08643536752
 30
0.0
 11
7698.94049829321
 21
1280.239689605348
 31
0.0
  0
LINE
  5
27F82
330
747D
100
AcDbEntity
  8
部品1
 48
50.0
100
AcDbLine
 10
8367.787244055383
 20
912.2396896053487
 30
0.0
 11
7537.787244055384
 21
912.2396896053487
 31
0.0
  0
LINE
  5
27F83
330
747D
100
AcDbEntity
  8
部品1
 48
50.0
100
AcDbLine
 10
8367.787244055383
 20
1040.239689605348
 30
0.0
 11
7537.787244055384
 21
1040.239689605348
 31
0.0
  0
LINE
  5
27F84
330
747D
100
AcDbEntity
  8
細線
 48
50.0
100
AcDbLine
 10
7620.585108472457
 20
1040.239689605348
 30
0.0
 11
8159.78724405538
 21
1579.441825188274
 31
0.0
  0
LINE
  5
27F85
330
747D
100
AcDbEntity
  8
細線
 48
50.0
100
AcDbLine
 10
7647.525876835665
 20
1040.239689605348
 30
0.0
 11
8159.787244055385
 21
1552.501056825063
 31
0.0
  0
LINE
  5
27F86
330
747D
100
AcDbEntity
  8
細線
 48
50.0
100
AcDbLine
 10
7674.466645198871
 20
1040.239689605348
 30
0.0
 11
8159.78724405538
 21
1525.560288461856
 31
0.0
  0
LINE
  5
27F87
330
747D
100
AcDbEntity
  8
細線
 48
50.0
100
AcDbLine
 10
7745.78724405538
 20
1380.967972093935
 30
0.0
 11
7904.187244055375
 21
1539.36797209393
 31
0.0
  0
LINE
  5
27F88
330
747D
100
AcDbEntity
  8
細線
 48
50.0
100
AcDbLine
 10
7745.78724405538
 20
1327.08643536752
 30
0.0
 11
7918.940498293217
 21
1500.239689605347
 31
0.0
  0
LINE
  5
27F89
330
747D
100
AcDbEntity
  8
細線
 48
50.0
100
AcDbLine
 10
7745.78724405538
 20
1354.027203730727
 30
0.0
 11
7904.187244055375
 21
1512.427203730715
 31
0.0
  0
LINE
  5
27F8A
330
747D
100
AcDbEntity
  8
部品1
100
AcDbLine
 10
7904.187244055375
 20
1500.239689605349
 30
0.0
 11
7904.187244055382
 21
1824.239689605349
 31
0.0
  0
LINE
  5
27F8B
330
747D
100
AcDbEntity
  8
部品1
100
AcDbLine
 10
8030.187244055381
 20
1500.239689605349
 30
0.0
 11
8030.187244055381
 21
1824.239689605349
 31
0.0
  0
LINE
  5
27F8C
330
747D
100
AcDbEntity
  8
細線
 48
50.0
100
AcDbLine
 10
8030.187244055381
 20
1638.42720373072
 30
0.0
 11
8159.78724405538
 21
1768.027203730717
 31
0.0
  0
LINE
  5
27F8D
330
747D
100
AcDbEntity
  8
細線
 48
50.0
100
AcDbLine
 10
8030.187244055381
 20
1611.486435367507
 30
0.0
 11
8159.78724405538
 21
1741.086435367499
 31
0.0
  0
LINE
  5
27F8E
330
747D
100
AcDbEntity
  8
部品1
100
AcDbLine
 10
7958.187244055382
 20
1599.239689605349
 30
0.0
 11
7958.187244055378
 21
1873.399689605349
 31
0.0
  0
LINE
  5
27F8F
330
747D
100
AcDbEntity
  8
部品1
100
AcDbLine
 10
7976.187244055381
 20
1599.239689605349
 30
0.0
 11
7976.187244055378
 21
1873.399689605349
 31
0.0
  0
TEXT
  5
27F90
330
747D
100
AcDbEntity
  8
部品1
 48
50.0
100
AcDbText
 10
7331.647342222424
 20
1595.478681888604
 30
0.0
 40
80.0
  1
▽G.L
  7
STYLE2
100
AcDbText
  0
LINE
  5
27F91
330
747D
100
AcDbEntity
  8
細線
 48
50.0
100
AcDbLine
 10
7745.78724405538
 20
1542.612582273179
 30
0.0
 11
7904.187244055377
 21
1701.012582273171
 31
0.0
  0
LINE
  5
27F92
330
747D
100
AcDbEntity
  8
細線
 48
50.0
100
AcDbLine
 10
7745.78724405538
 20
1569.553350636386
 30
0.0
 11
7904.18724405538
 21
1727.953350636384
 31
0.0
  0
LINE
  5
27F93
330
747D
100
AcDbEntity
  8
細線
 48
50.0
100
AcDbLine
 10
7745.78724405538
 20
1596.494118999594
 30
0.0
 11
7904.18724405538
 21
1754.894118999591
 31
0.0
  0
LINE
  5
27F94
330
747D
100
AcDbEntity
  8
部品1
 48
50.0
100
AcDbLine
 10
7745.78724405538
 20
1280.239689605348
 30
0.0
 11
7745.78724405538
 21
1824.239689605349
 31
0.0
  0
LINE
  5
27F95
330
747D
100
AcDbEntity
  8
部品1
100
AcDbLine
 10
8159.78724405538
 20
1280.239689605348
 30
0.0
 11
8159.78724405538
 21
1824.239689605349
 31
0.0
  0
LINE
  5
27F96
330
747D
100
AcDbEntity
  8
細線
 48
50.0
100
AcDbLine
 10
8030.187244055381
 20
1665.367972093937
 30
0.0
 11
8159.78724405538
 21
1794.967972093935
 31
0.0
  0
LINE
  5
27F97
330
747D
100
AcDbEntity
  8
細線
 48
50.0
100
AcDbLine
 10
6154.240353380657
 20
1704.986541502065
 30
0.0
 11
6237.747930878188
 21
1788.494118999594
 31
0.0
  0
LINE
  5
27F98
330
747D
100
AcDbEntity
  8
細線
 48
50.0
100
AcDbLine
 10
6165.300638144174
 20
1689.10605790237
 30
0.0
 11
6237.747930878188
 21
1761.553350636386
 31
0.0
  0
LINE
  5
27F99
330
747D
100
AcDbEntity
  8
細線
 48
50.0
100
AcDbLine
 10
6045.747930878188
 20
1812.020265905253
 30
0.0
 11
6057.967354578282
 21
1824.239689605349
 31
0.0
  0
LINE
  5
27F9A
330
747D
100
AcDbEntity
  8
細線
 48
50.0
100
AcDbLine
 10
6045.747930878188
 20
1758.138729178839
 30
0.0
 11
6111.848891304696
 21
1824.239689605349
 31
0.0
  0
LINE
  5
27F9B
330
747D
100
AcDbEntity
  8
細線
 48
50.0
100
AcDbLine
 10
6045.747930878188
 20
1785.079497542047
 30
0.0
 11
6084.908122941492
 21
1824.239689605349
 31
0.0
  0
LINE
  5
27F9C
330
747D
100
AcDbEntity
  8
部品1
 48
50.0
100
AcDbLine
 10
6045.747930878188
 20
1824.239689605349
 30
0.0
 11
6237.747930878188
 21
1824.239689605349
 31
0.0
  0
DIMENSION
  5
27F9D
330
747D
100
AcDbEntity
  8
寸法
 48
50.0
100
AcDbDimension
  2
*D65
 10
6045.747930878187
 20
2243.907497521729
 30
0.0
 11
6141.747930878187
 21
2243.907497521729
 31
0.0
 70
   160
  1
120\P200\P280
 71
     5
 42
192.0
  3
INABA_S40G
100
AcDbAlignedDimension
 13
6237.747930878186
 23
1824.239689605349
 33
0.0
 14
6045.747930878187
 24
1824.239689605349
 34
0.0
100
AcDbRotatedDimension
1001
ACAD
1000
DSTYLE
1002
{
1070
   341
1005
0
1002
}
  0
MTEXT
  5
27F9E
102
{ACAD_REACTORS
330
27FF3
102
}
330
747D
100
AcDbEntity
  8
寸法
 62
     7
 48
50.0
100
AcDbMText
 10
6479.486386739438
 20
862.8906038731956
 30
0.0
 40
80.0
 41
0.8
 71
     4
 72
     1
  1
\A1;D10@300
  7
STYLE2
 73
     1
 44
1.0
1001
ACAD
1000
MTEXTBEGIN
1070
    73
1070
     1
1070
    44
1040
1.0
1070
    74
1070
     0
1000
MTEXTEND
  0
LINE
  5
27F9F
330
747D
100
AcDbEntity
  8
細線
 48
50.0
100
AcDbLine
 10
6165.747930878193
 20
1474.027203730729
 30
0.0
 11
6237.747930878181
 21
1546.027203730724
 31
0.0
  0
LINE
  5
27FA0
330
747D
100
AcDbEntity
  8
細線
 48
50.0
100
AcDbLine
 10
6165.747930878188
 20
1500.967972093935
 30
0.0
 11
6237.747930878188
 21
1572.967972093935
 31
0.0
  0
LINE
  5
27FA1
330
747D
100
AcDbEntity
  8
細線
 48
50.0
100
AcDbLine
 10
6165.747930878193
 20
1231.56028846186
 30
0.0
 11
6237.747930878181
 21
1303.56028846186
 31
0.0
  0
LINE
  5
27FA2
330
747D
100
AcDbEntity
  8
細線
 48
50.0
100
AcDbLine
 10
6165.747930878193
 20
1285.441825188278
 30
0.0
 11
6237.747930878181
 21
1357.441825188274
 31
0.0
  0
LINE
  5
27FA3
330
747D
100
AcDbEntity
  8
細線
 48
50.0
100
AcDbLine
 10
6165.747930878193
 20
1258.50105682507
 30
0.0
 11
6237.747930878181
 21
1330.501056825064
 31
0.0
  0
LINE
  5
27FA4
330
747D
100
AcDbEntity
  8
部品1
 48
50.0
100
AcDbLine
 10
6237.747930878188
 20
1280.239689605348
 30
0.0
 11
6365.747930878188
 21
1280.239689605348
 31
0.0
  0
LINE
  5
27FA5
330
747D
100
AcDbEntity
  8
細線
 48
50.0
100
AcDbLine
 10
6165.747930878193
 20
1447.086435367519
 30
0.0
 11
6237.747930878181
 21
1519.086435367519
 31
0.0
  0
LINE
  5
27FA6
330
747D
100
AcDbEntity
  8
部品1
 48
50.0
100
AcDbLine
 10
6133.747930878188
 20
1626.366904302471
 30
0.0
 11
6133.747930878188
 21
1684.494118999594
 31
0.0
  0
LINE
  5
27FA7
330
747D
100
AcDbEntity
  8
細線
 48
50.0
100
AcDbLine
 10
6045.747930878188
 20
1596.494118999594
 30
0.0
 11
6117.747930878188
 21
1668.494118999594
 31
0.0
  0
LINE
  5
27FA8
330
747D
100
AcDbEntity
  8
部品1
 48
50.0
100
AcDbLine
 10
6117.747930878188
 20
1626.366904302475
 30
0.0
 11
6117.747930878188
 21
1684.494118999594
 31
0.0
  0
LINE
  5
27FA9
330
747D
100
AcDbEntity
  8
細線
 48
50.0
100
AcDbLine
 10
6045.747930878188
 20
1569.553350636386
 30
0.0
 11
6117.747930878188
 21
1641.553350636386
 31
0.0
  0
LINE
  5
27FAA
330
747D
100
AcDbEntity
  8
細線
 48
50.0
100
AcDbLine
 10
6045.747930878188
 20
1542.612582273179
 30
0.0
 11
6129.502252907482
 21
1626.366904302471
 31
0.0
  0
LINE
  5
27FAB
330
747D
100
AcDbEntity
  8
部品1
 48
50.0
100
AcDbLine
 10
6133.747930878188
 20
1626.366904302471
 30
0.0
 11
6117.747930878188
 21
1626.366904302475
 31
0.0
  0
LINE
  5
27FAC
330
747D
100
AcDbEntity
  8
細線
 48
50.0
100
AcDbLine
 10
5917.747930878181
 20
1252.967972093935
 30
0.0
 11
5945.019648389601
 21
1280.239689605348
 31
0.0
  0
LINE
  5
27FAD
330
747D
100
AcDbEntity
  8
細線
 48
50.0
100
AcDbLine
 10
5917.747930878181
 20
1226.027203730724
 30
0.0
 11
5971.960416752812
 21
1280.239689605348
 31
0.0
  0
LINE
  5
27FAE
330
747D
100
AcDbEntity
  8
部品1
 48
50.0
100
AcDbLine
 10
5917.747930878188
 20
1280.239689605348
 30
0.0
 11
6045.747930878188
 21
1280.239689605348
 31
0.0
  0
LINE
  5
27FAF
330
747D
100
AcDbEntity
  8
細線
 48
50.0
100
AcDbLine
 10
6133.747930878188
 20
1657.553350636386
 30
0.0
 11
6149.747930878188
 21
1673.553350636386
 31
0.0
  0
LINE
  5
27FB0
330
747D
100
AcDbEntity
  8
細線
 48
50.0
100
AcDbLine
 10
6133.747930878188
 20
1630.612582273179
 30
0.0
 11
6149.747930878188
 21
1646.612582273179
 31
0.0
  0
LINE
  5
27FB1
330
747D
100
AcDbEntity
  8
細線
 48
50.0
100
AcDbLine
 10
6045.747930878188
 20
1327.08643536752
 30
0.0
 11
6149.747930878193
 21
1431.08643536752
 31
0.0
  0
LINE
  5
27FB2
330
747D
100
AcDbEntity
  8
細線
 48
50.0
100
AcDbLine
 10
6045.747930878188
 20
1380.967972093935
 30
0.0
 11
6149.747930878188
 21
1484.967972093935
 31
0.0
  0
LINE
  5
27FB3
330
747D
100
AcDbEntity
  8
細線
 48
50.0
100
AcDbLine
 10
6045.747930878188
 20
1354.027203730727
 30
0.0
 11
6149.747930878193
 21
1458.027203730729
 31
0.0
  0
LINE
  5
27FB4
330
747D
100
AcDbEntity
  8
細線
 48
50.0
100
AcDbLine
 10
6308.573576281535
 20
1016.239689605349
 30
0.0
 11
6302.142795663189
 21
1040.239689605348
 31
0.0
  0
LINE
  5
27FB5
330
747D
100
AcDbEntity
  8
細線
 48
50.0
100
AcDbLine
 10
6351.59808910658
 20
1040.239689605348
 30
0.0
 11
6365.747930878188
 21
1054.389531376955
 31
0.0
  0
LINE
  5
27FB6
330
747D
100
AcDbEntity
  8
細線
 48
50.0
100
AcDbLine
 10
6387.461621228782
 20
1016.239689605349
 30
0.0
 11
6381.030840610434
 21
1040.239689605348
 31
0.0
  0
LINE
  5
27FB7
330
747D
100
AcDbEntity
  8
部品1
 48
50.0
100
AcDbLine
 10
6309.747930878188
 20
1152.239689605349
 30
0.0
 11
6309.747930878188
 21
1136.239689605349
 31
0.0
  0
LINE
  5
27FB8
330
747D
100
AcDbEntity
  8
細線
 48
50.0
100
AcDbLine
 10
6189.953478927335
 20
1040.239689605348
 30
0.0
 11
6285.954366772472
 21
1136.240577450488
 31
0.0
  0
LINE
  5
27FB9
330
747D
100
AcDbEntity
  8
細線
 48
50.0
100
AcDbLine
 10
6163.012710564132
 20
1040.239689605348
 30
0.0
 11
6259.012710564132
 21
1136.239689605349
 31
0.0
  0
LINE
  5
27FBA
330
747D
100
AcDbEntity
  8
細線
 48
50.0
100
AcDbLine
 10
6229.68553133429
 20
1016.239689605349
 30
0.0
 11
6223.254750715944
 21
1040.239689605348
 31
0.0
  0
LINE
  5
27FBB
330
747D
100
AcDbEntity
  8
細線
 48
50.0
100
AcDbLine
 10
6150.797486387045
 20
1016.239689605349
 30
0.0
 11
6144.366705768696
 21
1040.239689605348
 31
0.0
  0
ARC
  5
27FBC
330
747D
100
AcDbEntity
  8
部品1
 48
50.0
100
AcDbCircle
 10
6141.747930878188
 20
1160.239689605349
 30
0.0
 40
24.0
100
AcDbArc
 50
340.5287793655256
 51
0.0
  0
CIRCLE
  5
27FBD
330
747D
100
AcDbEntity
  8
部品1
 48
50.0
100
AcDbCircle
 10
6269.747930878188
 20
1160.239689605349
 30
0.0
 40
8.0
  0
LINE
  5
27FBE
330
747D
100
AcDbEntity
  8
細線
 48
50.0
100
AcDbLine
 10
6301.953478927335
 20
1152.239689605349
 30
0.0
 11
6365.747930878188
 21
1216.0341415562
 31
0.0
  0
LINE
  5
27FBF
330
747D
100
AcDbEntity
  8
細線
 48
50.0
100
AcDbLine
 10
6438.48295016319
 20
912.2396896053469
 30
0.0
 11
6445.747930878187
 21
939.3529667497368
 31
0.0
  0
LINE
  5
27FC0
330
747D
100
AcDbEntity
  8
細線
 48
50.0
100
AcDbLine
 10
6444.91373078154
 20
936.2396896053487
 30
0.0
 11
6445.747930878187
 21
933.1264124609843
 31
0.0
  0
LINE
  5
27FC1
330
747D
100
AcDbEntity
  8
細線
 48
50.0
100
AcDbLine
 10
6366.025685834292
 20
936.2396896053487
 30
0.0
 11
6372.45646645264
 21
912.2396896053487
 31
0.0
  0
LINE
  5
27FC2
330
747D
100
AcDbEntity
  8
細線
 48
50.0
100
AcDbLine
 10
6208.2495959398
 20
936.2396896053487
 30
0.0
 11
6214.680376558146
 21
912.2396896053487
 31
0.0
  0
LINE
  5
27FC3
330
747D
100
AcDbEntity
  8
細線
 48
50.0
100
AcDbLine
 10
6287.137640887046
 20
936.2396896053487
 30
0.0
 11
6293.568421505393
 21
912.2396896053487
 31
0.0
  0
LINE
  5
27FC4
330
747D
100
AcDbEntity
  8
細線
 48
50.0
100
AcDbLine
 10
6280.706860268696
 20
912.2396896053469
 30
0.0
 11
6315.004356899881
 21
1040.239689605347
 31
0.0
  0
LINE
  5
27FC5
330
747D
100
AcDbEntity
  8
細線
 48
50.0
100
AcDbLine
 10
6201.818815321447
 20
912.2396896053487
 30
0.0
 11
6236.116311952634
 21
1040.239689605347
 31
0.0
  0
LINE
  5
27FC6
330
747D
100
AcDbEntity
  8
細線
 48
50.0
100
AcDbLine
 10
6359.594905215941
 20
912.2396896053487
 30
0.0
 11
6393.892401847126
 21
1040.239689605347
 31
0.0
  0
LINE
  5
27FC7
330
747D
100
AcDbEntity
  8
部品1
 48
50.0
100
AcDbLine
 10
6445.747930878191
 20
1040.239689605348
 30
0.0
 11
6445.747930878191
 21
912.2396896053487
 31
0.0
  0
LINE
  5
27FC8
330
747D
100
AcDbEntity
  8
部品1
 48
50.0
100
AcDbLine
 10
6133.747930878188
 20
1218.366904302471
 30
0.0
 11
6133.747930878188
 21
1160.239689605349
 31
0.0
  0
LINE
  5
27FC9
330
747D
100
AcDbEntity
  8
細線
 48
50.0
100
AcDbLine
 10
6059.48656365847
 20
1152.239689605349
 30
0.0
 11
6117.747930878188
 21
1210.501056825067
 31
0.0
  0
LINE
  5
27FCA
330
747D
100
AcDbEntity
  8
部品1
 48
50.0
100
AcDbLine
 10
6117.747930878188
 20
1218.366904302471
 30
0.0
 11
6117.747930878188
 21
1160.239689605349
 31
0.0
  0
LINE
  5
27FCB
330
747D
100
AcDbEntity
  8
細線
 48
50.0
100
AcDbLine
 10
5974.427332021676
 20
1040.239689605348
 30
0.0
 11
6070.427332021676
 21
1136.239689605349
 31
0.0
  0
LINE
  5
27FCC
330
747D
100
AcDbEntity
  8
細線
 48
50.0
100
AcDbLine
 10
6071.909441439792
 20
1016.239689605349
 30
0.0
 11
6065.478660821446
 21
1040.239689605348
 31
0.0
  0
LINE
  5
27FCD
330
747D
100
AcDbEntity
  8
細線
 48
50.0
100
AcDbLine
 10
5993.021396492538
 20
1016.239689605349
 30
0.0
 11
5986.590615874193
 21
1040.239689605348
 31
0.0
  0
ARC
  5
27FCE
330
747D
100
AcDbEntity
  8
部品1
 48
50.0
100
AcDbCircle
 10
6141.747930878188
 20
1160.239689605349
 30
0.0
 40
24.0
100
AcDbArc
 50
180.0
 51
199.4712206344743
  0
LINE
  5
27FCF
330
747D
100
AcDbEntity
  8
細線
 48
50.0
100
AcDbLine
 10
6086.427332021676
 20
1152.239689605349
 30
0.0
 11
6117.747930878188
 21
1183.56028846186
 31
0.0
  0
CIRCLE
  5
27FD0
330
747D
100
AcDbEntity
  8
部品1
 48
50.0
100
AcDbCircle
 10
6013.747930878188
 20
1160.239689605349
 30
0.0
 40
8.0
  0
LINE
  5
27FD1
330
747D
100
AcDbEntity
  8
部品1
 48
50.0
100
AcDbLine
 10
6133.747930878188
 20
1218.366904302471
 30
0.0
 11
6117.747930878188
 21
1218.366904302471
 31
0.0
  0
LINE
  5
27FD2
330
747D
100
AcDbEntity
  8
細線
 48
50.0
100
AcDbLine
 10
5837.747930878188
 20
1025.579610571129
 30
0.0
 11
5841.676087216383
 21
1040.239689605348
 31
0.0
  0
LINE
  5
27FD3
330
747D
100
AcDbEntity
  8
細線
 48
50.0
100
AcDbLine
 10
5914.133351545288
 20
1016.239689605349
 30
0.0
 11
5907.702570926939
 21
1040.239689605348
 31
0.0
  0
LINE
  5
27FD4
330
747D
100
AcDbEntity
  8
部品1
 48
50.0
100
AcDbLine
 10
5973.747930878188
 20
1152.239689605349
 30
0.0
 11
5973.747930878188
 21
1136.239689605349
 31
0.0
  0
LINE
  5
27FD5
330
747D
100
AcDbEntity
  8
細線
 48
50.0
100
AcDbLine
 10
5920.54579529526
 20
1040.239689605348
 30
0.0
 11
6016.54579529526
 21
1136.239689605349
 31
0.0
  0
LINE
  5
27FD6
330
747D
100
AcDbEntity
  8
細線
 48
50.0
100
AcDbLine
 10
5947.486563658471
 20
1040.239689605348
 30
0.0
 11
6043.486563658471
 21
1136.239689605349
 31
0.0
  0
LINE
  5
27FD7
330
747D
100
AcDbEntity
  8
細線
 48
50.0
100
AcDbLine
 10
6050.473506045302
 20
936.2396896053487
 30
0.0
 11
6056.904286663648
 21
912.2396896053487
 31
0.0
  0
LINE
  5
27FD8
330
747D
100
AcDbEntity
  8
細線
 48
50.0
100
AcDbLine
 10
6129.361550992555
 20
936.2396896053487
 30
0.0
 11
6135.7923316109
 21
912.2396896053487
 31
0.0
  0
LINE
  5
27FD9
330
747D
100
AcDbEntity
  8
細線
 48
50.0
100
AcDbLine
 10
5892.697416150799
 20
936.2396896053487
 30
0.0
 11
5899.128196769145
 21
912.2396896053487
 31
0.0
  0
LINE
  5
27FDA
330
747D
100
AcDbEntity
  8
細線
 48
50.0
100
AcDbLine
 10
5971.58546109805
 20
936.2396896053487
 30
0.0
 11
5978.016241716398
 21
912.2396896053487
 31
0.0
  0
LINE
  5
27FDB
330
747D
100
AcDbEntity
  8
部品1
 48
50.0
100
AcDbLine
 10
5837.747930878189
 20
912.2396896053487
 30
0.0
 11
5837.747930878189
 21
1040.239689605348
 31
0.0
  0
LINE
  5
27FDC
330
747D
100
AcDbEntity
  8
細線
 48
50.0
100
AcDbLine
 10
5886.266635532446
 20
912.2396896053469
 30
0.0
 11
5920.564132163629
 21
1040.239689605347
 31
0.0
  0
LINE
  5
27FDD
330
747D
100
AcDbEntity
  8
細線
 48
50.0
100
AcDbLine
 10
6044.042725426948
 20
912.2396896053469
 30
0.0
 11
6078.340222058132
 21
1040.239689605347
 31
0.0
  0
LINE
  5
27FDE
330
747D
100
AcDbEntity
  8
細線
 48
50.0
100
AcDbLine
 10
5965.154680479703
 20
912.2396896053487
 30
0.0
 11
5999.452177110886
 21
1040.239689605348
 31
0.0
  0
LINE
  5
27FDF
330
747D
100
AcDbEntity
  8
細線
 48
50.0
100
AcDbLine
 10
6136.071942200921
 20
1040.239689605348
 30
0.0
 11
6232.071942200921
 21
1136.239689605349
 31
0.0
  0
CIRCLE
  5
27FE0
330
747D
100
AcDbEntity
  8
部品1
 48
50.0
100
AcDbCircle
 10
6141.747930878188
 20
1160.239689605349
 30
0.0
 40
8.0
  0
LINE
  5
27FE1
330
747D
100
AcDbEntity
  8
部品1
 48
50.0
100
AcDbLine
 10
6445.747930878191
 20
1040.239689605348
 30
0.0
 11
5837.747930878189
 21
1040.239689605348
 31
0.0
  0
LINE
  5
27FE2
330
747D
100
AcDbEntity
  8
部品1
 48
50.0
100
AcDbLine
 10
5973.747930878188
 20
1152.239689605349
 30
0.0
 11
6309.747930878188
 21
1152.239689605349
 31
0.0
  0
LINE
  5
27FE3
330
747D
100
AcDbEntity
  8
部品1
 48
50.0
100
AcDbLine
 10
5973.747930878188
 20
1136.239689605349
 30
0.0
 11
6309.747930878188
 21
1136.239689605349
 31
0.0
  0
LINE
  5
27FE4
330
747D
100
AcDbEntity
  8
部品1
 48
50.0
100
AcDbLine
 10
6445.747930878191
 20
912.2396896053487
 30
0.0
 11
5837.747930878189
 21
912.2396896053487
 31
0.0
  0
LINE
  5
27FE5
330
747D
100
AcDbEntity
  8
細線
 48
50.0
100
AcDbLine
 10
6122.930770374201
 20
912.2396896053487
 30
0.0
 11
6157.228267005384
 21
1040.239689605348
 31
0.0
  0
LINE
  5
27FE6
330
747D
100
AcDbEntity
  8
細線
 48
50.0
100
AcDbLine
 10
6133.747930878188
 20
1199.56028846186
 30
0.0
 11
6149.747930878193
 21
1215.56028846186
 31
0.0
  0
LINE
  5
27FE7
330
747D
100
AcDbEntity
  8
部品1
 48
50.0
100
AcDbLine
 10
6149.747930878193
 20
1160.239689605349
 30
0.0
 11
6149.747930878181
 21
1684.494118999594
 31
0.0
  0
LINE
  5
27FE8
330
747D
100
AcDbEntity
  8
部品1
 48
50.0
100
AcDbLine
 10
6165.747930878193
 20
1160.239689605349
 30
0.0
 11
6165.747930878188
 21
1684.494118999594
 31
0.0
  0
LINE
  5
27FE9
330
747D
100
AcDbEntity
  8
部品1
 48
50.0
100
AcDbLine
 10
6365.747930878188
 20
1280.239689605348
 30
0.0
 11
6365.747930878188
 21
1040.239689605348
 31
0.0
  0
LINE
  5
27FEA
330
747D
100
AcDbEntity
  8
細線
 48
50.0
100
AcDbLine
 10
6248.071942200915
 20
1152.239689605349
 30
0.0
 11
6365.747930878188
 21
1269.915678282615
 31
0.0
  0
LINE
  5
27FEB
330
747D
100
AcDbEntity
  8
細線
 48
50.0
100
AcDbLine
 10
6275.012710564131
 20
1152.239689605349
 30
0.0
 11
6365.747930878188
 21
1242.974909919408
 31
0.0
  0
LINE
  5
27FEC
330
747D
100
AcDbEntity
  8
部品1
 48
50.0
100
AcDbLine
 10
5917.747930878188
 20
1040.239689605348
 30
0.0
 11
5917.747930878188
 21
1280.239689605348
 31
0.0
  0
LINE
  5
27FED
330
747D
100
AcDbEntity
  8
細線
 48
50.0
100
AcDbLine
 10
6032.54579529526
 20
1152.239689605349
 30
0.0
 11
6149.747930878188
 21
1269.441825188274
 31
0.0
  0
LINE
  5
27FEE
330
747D
100
AcDbEntity
  8
細線
 48
50.0
100
AcDbLine
 10
6125.613778355591
 20
1218.366904302471
 30
0.0
 11
6149.747930878193
 21
1242.50105682507
 31
0.0
  0
LINE
  5
27FEF
330
747D
100
AcDbEntity
  8
細線
 48
50.0
100
AcDbLine
 10
5917.747930878181
 20
1199.08643536752
 30
0.0
 11
5998.901185116015
 21
1280.239689605348
 31
0.0
  0
LEADER
  5
27FF0
330
747D
100
AcDbEntity
  8
寸法
 48
50.0
100
AcDbLeader
  3
INABA_S50G
 71
     0
 73
     0
 74
     0
 75
     1
 40
100.0
 41
222.7272727272727
 76
     3
 10
6141.747930878187
 20
1684.494118999594
 30
0.0
 10
6195.633867905582
 20
1783.729691852768
 30
0.0
 10
6320.633867905582
 20
1783.729691852768
 30
0.0
1001
ACAD
1000
DSTYLE
1002
{
1070
    40
1040
1.0
1070
   272
1070
     1
1070
   279
1070
     1
1070
   341
1005
0
1002
}
  0
LWPOLYLINE
  5
27FF1
330
747D
100
AcDbEntity
  8
部品1
 48
50.0
100
AcDbPolyline
 90
        2
 70
     0
 43
8.0
 10
6237.747930878186
 20
1584.23968960535
 10
6651.887832711143
 20
1584.23968960535
  0
MTEXT
  5
27FF2
102
{ACAD_REACTORS
330
27FF4
102
}
330
747D
100
AcDbEntity
  8
寸法
 62
     7
 48
50.0
100
AcDbMText
 10
6469.075590684872
 20
1124.842620662376
 30
0.0
 40
80.0
 41
0.8
 71
     4
 72
     1
  1
D10
  7
STYLE2
 73
     1
 44
1.0
1001
ACAD
1000
MTEXTBEGIN
1070
    73
1070
     1
1070
    44
1040
1.0
1070
    74
1070
     0
1000
MTEXTEND
  0
LEADER
  5
27FF3
330
747D
100
AcDbEntity
  8
寸法
 48
50.0
100
AcDbLeader
  3
INABA_S50G
 71
     0
 73
     0
 74
     0
 75
     1
 40
100.0
 41
540.3409090909091
 76
     3
 10
6215.693099891361
 20
1143.499159191823
 30
0.0
 10
6334.486386739438
 20
801.8683411969259
 30
0.0
 10
6459.486386739438
 20
801.8683411969259
 30
0.0
213
0.0
223
-1.022262676269383
233
0.0
1001
ACAD
1000
DSTYLE
1002
{
1070
    40
1040
1.0
1070
   272
1070
     1
1070
   279
1070
     1
1070
   341
1005
0
1002
}
  0
LEADER
  5
27FF4
330
747D
100
AcDbEntity
  8
寸法
 48
50.0
100
AcDbLeader
  3
INABA_S50G
 71
     0
 73
     0
 74
     0
 75
     1
 40
100.0
 41
225.0
 76
     3
 10
6269.65088323033
 20
1160.239689605349
 30
0.0
 10
6324.075590684872
 20
1064.842620662376
 30
0.0
 10
6449.075590684872
 20
1064.842620662376
 30
0.0
1001
ACAD
1000
DSTYLE
1002
{
1070
    40
1040
1.0
1070
   272
1070
     1
1070
   279
1070
     1
1070
   341
1005
0
1002
}
  0
MTEXT
  5
27FF5
102
{ACAD_REACTORS
330
27FF0
102
}
330
747D
100
AcDbEntity
  8
寸法
 62
     7
 48
50.0
100
AcDbMText
 10
6320.633867905582
 20
1846.795588898159
 30
0.0
 40
80.0
 41
0.8
 71
     4
 72
     1
  1
D13
  7
STYLE2
 73
     1
 44
1.0
1001
ACAD
1000
MTEXTBEGIN
1070
    73
1070
     1
1070
    44
1040
1.0
1070
    74
1070
     0
1000
MTEXTEND
  0
LINE
  5
27FF6
330
747D
100
AcDbEntity
  8
部品1
 48
50.0
100
AcDbLine
 10
6237.747930878188
 20
1824.239689605349
 30
0.0
 11
6237.747930878188
 21
1280.239689605348
 31
0.0
  0
LINE
  5
27FF7
330
747D
100
AcDbEntity
  8
部品1
 48
50.0
100
AcDbLine
 10
6045.747930878188
 20
1280.239689605348
 30
0.0
 11
6045.747930878188
 21
1824.239689605349
 31
0.0
  0
CIRCLE
  5
27FF8
330
747D
100
AcDbEntity
  8
部品1
 48
50.0
100
AcDbCircle
 10
6141.747930878188
 20
1684.494118999594
 30
0.0
 40
8.0
  0
ARC
  5
27FF9
330
747D
100
AcDbEntity
  8
部品1
 48
50.0
100
AcDbCircle
 10
6141.747930878188
 20
1684.494118999594
 30
0.0
 40
24.0
100
AcDbArc
 50
0.0
 51
180.0
  0
LINE
  5
27FFA
330
747D
100
AcDbEntity
  8
細線
 48
50.0
100
AcDbLine
 10
6165.747930878188
 20
1662.612582273179
 30
0.0
 11
6237.747930878188
 21
1734.612582273179
 31
0.0
  0
LEADER
  5
27FFB
330
747D
100
AcDbEntity
  8
寸法
 48
50.0
100
AcDbLeader
  3
INABA_S50G
 73
     0
 75
     1
 40
106.3636363636363
 41
893.1818181818181
 76
     3
 10
7877.187244055382
 20
1893.79968960535
 30
0.0
 10
7828.763171710441
 20
2267.859264321682
 30
0.0
 10
7703.763171710441
 20
2267.859264321682
 30
0.0
340
27FFC
1001
ACAD
1000
DSTYLE
1002
{
1070
   341
1005
0
1070
    40
1040
1.0
1070
   343
1005
0
1070
   344
1005
0
1002
}
  0
MTEXT
  5
27FFC
102
{ACAD_REACTORS
330
27FFB
102
}
330
747D
100
AcDbEntity
  8
寸法
 62
     7
 48
50.0
100
AcDbMText
 10
7678.763171710442
 20
2346.0410825035
 30
0.0
 40
80.0
 41
0.8
 71
     6
 72
     1
  1
\A1;アンカープレート L
  7
STYLE2
 73
     1
 44
1.0
1001
ACAD
1000
MTEXTBEGIN
1070
    73
1070
     1
1070
    44
1040
1.0
1070
    74
1070
     0
1000
MTEXTEND
  0
DIMENSION
  5
27FFD
330
747D
100
AcDbEntity
  8
寸法
 48
50.0
100
AcDbDimension
  2
*D60
 10
6365.747930878186
 20
501.8100516001887
 30
0.0
 11
6121.651172199963
 21
501.8100516001887
 31
0.0
 70
   160
  1
300
 71
     5
 42
448.0
  3
INABA_S40G
100
AcDbAlignedDimension
 13
5917.747930878187
 23
912.2396896053487
 33
0.0
 14
6365.747930878186
 24
912.2396896053487
 34
0.0
100
AcDbRotatedDimension
1001
ACAD
1000
DSTYLE
1002
{
1070
   341
1005
0
1002
}
  0
MTEXT
  5
27FFE
102
{ACAD_REACTORS
330
28006
102
}
330
747D
100
AcDbEntity
  8
寸法
 62
     7
 48
50.0
100
AcDbMText
 10
5746.812904682993
 20
956.7169959869124
 30
0.0
 40
80.0
 41
0.8
 71
     6
 72
     1
  1
D10
  7
STYLE2
 73
     1
 44
1.0
1001
ACAD
1000
MTEXTBEGIN
1070
    73
1070
     1
1070
    44
1040
1.0
1070
    74
1070
     0
1000
MTEXTEND
  0
MTEXT
  5
27FFF
102
{ACAD_REACTORS
330
28005
102
}
330
747D
100
AcDbEntity
  8
寸法
 62
     7
 48
50.0
100
AcDbMText
 10
5774.935632240428
 20
776.400843447469
 30
0.0
 40
80.0
 41
0.8
 71
     6
 72
     1
  1
D13
  7
STYLE2
 73
     1
 44
1.0
1001
ACAD
1000
MTEXTBEGIN
1070
    73
1070
     1
1070
    44
1040
1.0
1070
    74
1070
     0
1000
MTEXTEND
  0
DIMENSION
  5
28000
330
747D
100
AcDbEntity
  8
寸法
 48
50.0
100
AcDbDimension
  2
*D61
 10
5310.710692316447
 20
1040.239689605349
 30
0.0
 11
5310.710692316447
 21
1411.779839261349
 31
0.0
 70
   160
  1
540
 71
     5
 42
784.0
  3
INABA_S40G
100
AcDbAlignedDimension
 13
6045.747930878187
 23
1824.239689605349
 33
0.0
 14
5837.74793087819
 24
1040.239689605348
 34
0.0
 50
90.0
100
AcDbRotatedDimension
1001
ACAD
1000
DSTYLE
1002
{
1070
   341
1005
0
1002
}
  0
MTEXT
  5
28001
102
{ACAD_REACTORS
330
28002
102
}
330
747D
100
AcDbEntity
  8
寸法
 62
     7
 48
50.0
100
AcDbMText
 10
5825.649451394913
 20
2036.755909607391
 30
0.0
 40
80.0
 41
0.8
 71
     6
 72
     1
  1
\A1;金コテ押エ
  7
STYLE2
 73
     1
 44
1.0
1001
ACAD
1000
MTEXTBEGIN
1070
    73
1070
     1
1070
    44
1040
1.0
1070
    74
1070
     0
1000
MTEXTEND
  0
LEADER
  5
28002
330
747D
100
AcDbEntity
  8
寸法
 48
50.0
100
AcDbLeader
  3
INABA_S50G
 71
     0
 73
     0
 75
     1
 40
130.1136363636363
 41
651.1363636363636
 76
     3
 10
6125.747930878187
 20
1824.239689605349
 30
0.0
 10
6013.32335071417
 20
1964.710455061937
 30
0.0
 10
5888.32335071417
 20
1964.710455061937
 30
0.0
1001
ACAD
1000
DSTYLE
1002
{
1070
    40
1040
1.0
1070
   272
1070
     1
1070
   279
1070
     1
1070
   341
1005
0
1002
}
  0
LEADER
  5
28003
330
747D
100
AcDbEntity
  8
寸法
 48
50.0
100
AcDbLeader
  3
INABA_S50G
 71
     0
 73
     0
 75
     1
 40
100.0
 41
540.3409090909091
 76
     3
 10
6149.747930878187
 20
1582.366904302472
 30
0.0
 10
6091.765694349488
 20
1360.896575761667
 30
0.0
 10
5966.765694349488
 20
1360.896575761667
 30
0.0
213
-9.732182305893367
223
-4.643716661138569
233
0.0
1001
ACAD
1000
DSTYLE
1002
{
1070
    40
1040
1.0
1070
   272
1070
     1
1070
   279
1070
     1
1070
   341
1005
0
1002
}
  0
MTEXT
  5
28004
102
{ACAD_REACTORS
330
28003
102
}
330
747D
100
AcDbEntity
  8
寸法
 62
     7
 48
50.0
100
AcDbMText
 10
5956.497876655382
 20
1425.540292422805
 30
0.0
 40
80.0
 41
0.8
 71
     6
 72
     1
  1
\A1;D10@300
  7
STYLE2
 73
     1
 44
1.0
1001
ACAD
1000
MTEXTBEGIN
1070
    73
1070
     1
1070
    44
1040
1.0
1070
    74
1070
     0
1000
MTEXTEND
  0
LEADER
  5
28005
330
747D
100
AcDbEntity
  8
寸法
 48
50.0
100
AcDbLeader
  3
INABA_S50G
 71
     0
 73
     0
 75
     1
 40
100.0
 41
222.7272727272727
 76
     3
 10
6141.747930878187
 20
1160.239689605349
 30
0.0
 10
5919.935632240427
 20
716.4008434474689
 30
0.0
 10
5794.935632240427
 20
716.4008434474689
 30
0.0
1001
ACAD
1000
DSTYLE
1002
{
1070
    40
1040
1.0
1070
   272
1070
     1
1070
   279
1070
     1
1070
   341
1005
0
1002
}
  0
LEADER
  5
28006
330
747D
100
AcDbEntity
  8
寸法
 48
50.0
100
AcDbLeader
  3
INABA_S50G
 71
     0
 73
     0
 75
     1
 40
100.0
 41
225.0
 76
     3
 10
6013.650883230329
 20
1160.239689605349
 30
0.0
 10
5891.812904682993
 20
896.7169959869124
 30
0.0
 10
5766.812904682993
 20
896.7169959869124
 30
0.0
1001
ACAD
1000
DSTYLE
1002
{
1070
    40
1040
1.0
1070
   272
1070
     1
1070
   279
1070
     1
1070
   341
1005
0
1002
}
  0
DIMENSION
  5
28007
330
747D
100
AcDbEntity
  8
寸法
 48
50.0
100
AcDbDimension
  2
*D62
 10
5775.327617145727
 20
1040.239689605348
 30
0.0
 11
5775.327617145727
 21
1160.239689605349
 31
0.0
 70
   160
  1
150
 71
     5
 42
240.0
  3
INABA_S40G
100
AcDbAlignedDimension
 13
5917.747930878187
 23
1280.239689605348
 33
0.0
 14
5837.74793087819
 24
1040.239689605348
 34
0.0
 50
90.0
100
AcDbRotatedDimension
1001
ACAD
1000
DSTYLE
1002
{
1070
   341
1005
0
1002
}
  0
TEXT
  5
28008
330
747D
100
AcDbEntity
  8
部品1
 48
50.0
100
AcDbText
 10
5631.608029045231
 20
1595.478681888604
 30
0.0
 40
80.0
  1
▽G.L
  7
STYLE2
100
AcDbText
  0
LWPOLYLINE
  5
28009
330
747D
100
AcDbEntity
  8
部品1
 48
50.0
100
AcDbPolyline
 90
        2
 70
     0
 43
8.0
 10
5631.608029045231
 20
1584.23968960535
 10
6045.747930878187
 20
1584.23968960535
  0
MTEXT
  5
2800A
102
{ACAD_REACTORS
330
2800B
102
}
330
747D
100
AcDbEntity
  8
寸法
 62
     7
 48
50.0
100
AcDbMText
 10
7652.120165502083
 20
2706.725354411015
 30
0.0
 40
80.0
 41
0.8
 71
     6
 72
     1
  1
\A1;φ70スリーブ
  7
STYLE2
 73
     1
 44
1.0
1001
ACAD
1000
MTEXTBEGIN
1070
    73
1070
     1
1070
    44
1040
1.0
1070
    74
1070
     0
1000
MTEXTEND
  0
LEADER
  5
2800B
330
747D
100
AcDbEntity
  8
寸法
 48
50.0
100
AcDbLeader
  3
INABA_S50G
 73
     0
 75
     1
 40
113.1818181818182
 41
608.6363636363635
 76
     3
 10
7935.923994193432
 20
1773.755362963628
 30
0.0
 10
7802.120165502083
 20
2625.134445320106
 30
0.0
 10
7677.120165502083
 20
2625.134445320106
 30
0.0
340
2800A
1001
ACAD
1000
DSTYLE
1002
{
1070
   341
1005
0
1070
    40
1040
1.0
1070
   343
1005
0
1070
   344
1005
0
1002
}
  0
LINE
  5
2800C
330
747D
100
AcDbEntity
  8
部品1
100
AcDbLine
 10
4975.079492068925
 20
3223.578356805934
 30
0.0
 11
4975.079492068926
 21
259.2713872212871
 31
0.0
  0
LEADER
  5
2800D
330
747D
100
AcDbEntity
  8
寸法
 48
50.0
100
AcDbLeader
  3
INABA_S50G
 73
     0
 74
     0
 75
     1
 40
80.0
 41
435.0
 76
     3
 10
7976.187244055381
 20
1873.399689605349
 30
0.0
 10
8018.731706474701
 20
2023.623015758579
 30
0.0
 10
8143.731706474701
 20
2023.623015758579
 30
0.0
340
2800E
1001
ACAD
1000
DSTYLE
1002
{
1070
   341
1005
0
1070
    40
1040
1.0
1070
   343
1005
0
1070
   344
1005
0
1002
}
  0
MTEXT
  5
2800E
102
{ACAD_REACTORS
330
2800D
102
}
330
747D
100
AcDbEntity
  8
部品1
 62
     7
 48
50.0
100
AcDbMText
 10
8168.7317064747
 20
2088.623015758579
 30
0.0
 40
80.0
 41
0.8
 71
     4
 72
     1
  1
M10X160
  7
STYLE2
 73
     1
 44
1.0
1001
ACAD
1000
MTEXTBEGIN
1070
    73
1070
     1
1070
    44
1040
1.0
1070
    74
1070
     0
1000
MTEXTEND
  0
DIMENSION
  5
2800F
330
747D
100
AcDbEntity
  8
寸法
 48
50.0
100
AcDbDimension
  2
*D63
 10
8937.710509943253
 20
1824.239689605348
 30
0.0
 11
8937.710509943253
 21
1358.230786183866
 31
0.0
 70
   160
  1
20～25
 71
     5
 42
52.76000000000113
  3
INABA_S40G
100
AcDbAlignedDimension
 13
7972.587244055381
 23
1876.99968960535
 33
0.0
 14
8159.78724405538
 24
1824.239689605349
 34
0.0
 50
90.0
100
AcDbRotatedDimension
1001
ACAD
1000
DSTYLE
1002
{
1070
   341
1005
0
1002
}
  0
DIMENSION
  5
28010
330
747D
100
AcDbEntity
  8
寸法
 48
50.0
100
AcDbDimension
  2
*D64
 10
8661.655843824226
 20
1500.239689605348
 30
0.0
 11
8561.655843824224
 21
1662.23968960535
 31
0.0
 70
    32
  1
180
 71
     5
 42
324.0000000000009
  3
INABA_S40G
100
AcDbAlignedDimension
 13
8159.78724405538
 23
1824.239689605349
 33
0.0
 14
8159.78724405538
 24
1500.239689605348
 34
0.0
 50
90.0
100
AcDbRotatedDimension
1001
ACAD
1000
DSTYLE
1002
{
1070
   341
1005
0
1002
}
  0
TEXT
  5
28011
330
747D
100
AcDbEntity
  8
部品1
 48
50.0
100
AcDbText
 10
8164.140828339808
 20
2180.118370367549
 30
0.0
 40
80.0
  1
基礎ボルト(市販品)
  7
STYLE2
100
AcDbText
  0
LWPOLYLINE
  5
28012
330
747D
100
AcDbEntity
  8
部品1
 48
50.0
100
AcDbPolyline
 90
        2
 70
     0
 43
8.0
 10
8159.78724405538
 20
1584.23968960535
 10
8453.489707454764
 20
1584.23968960535
  0
MTEXT
  5
28013
102
{ACAD_REACTORS
330
28014
102
}
330
747D
100
AcDbEntity
  8
部品1
 62
     7
 48
50.0
100
AcDbMText
 10
8199.058834424221
 20
2524.735062692609
 30
0.0
 40
80.0
 41
0.8
 71
     4
 72
     1
  1
\A1;ワッシャー(市販品)
  7
STYLE2
 73
     1
 44
1.0
1001
ACAD
1000
MTEXTBEGIN
1070
    73
1070
     1
1070
    44
1040
1.0
1070
    74
1070
     0
1000
MTEXTEND
  0
LEADER
  5
28014
330
747D
100
AcDbEntity
  8
寸法
 48
50.0
100
AcDbLeader
  3
INABA_S50G
 73
     0
 74
     0
 75
     1
 40
102.2727272727273
 41
906.8181818181818
 76
     3
 10
8007.187244055382
 20
2093.362978049629
 30
0.0
 10
8049.05883442422
 20
2448.598699056245
 30
0.0
 10
8174.05883442422
 20
2448.598699056245
 30
0.0
340
28013
1001
ACAD
1000
DSTYLE
1002
{
1070
   341
1005
0
1070
    40
1040
1.0
1070
   343
1005
0
1070
   344
1005
0
1002
}
  0
MTEXT
  5
28015
102
{ACAD_REACTORS
330
28016
102
}
330
747D
100
AcDbEntity
  8
部品1
 62
     7
 48
50.0
100
AcDbMText
 10
8167.541215168737
 20
2709.704145457397
 30
0.0
 40
80.0
 41
0.8
 71
     4
 72
     1
  1
\A1;ナット(市販品)
  7
STYLE2
 73
     1
 44
1.0
1001
ACAD
1000
MTEXTBEGIN
1070
    73
1070
     1
1070
    44
1040
1.0
1070
    74
1070
     0
1000
MTEXTEND
  0
LEADER
  5
28016
330
747D
100
AcDbEntity
  8
寸法
 48
50.0
100
AcDbLeader
  3
INABA_S50G
 73
     0
 74
     0
 75
     1
 40
102.2727272727273
 41
680.0000000000001
 76
     3
 10
7983.187244055383
 20
2223.114970714492
 30
0.0
 10
8017.541215168739
 20
2633.567781821033
 30
0.0
 10
8142.541215168739
 20
2633.567781821033
 30
0.0
340
28015
1001
ACAD
1000
DSTYLE
1002
{
1070
   341
1005
0
1070
    40
1040
1.0
1070
   343
1005
0
1070
   344
1005
0
1002
}
  0
LINE
  5
28017
330
747D
100
AcDbEntity
  8
部品1
100
AcDbLine
 10
4975.079492068928
 20
259.2713872212871
 30
0.0
 11
11046.06467745517
 21
259.2713872212871
 31
0.0
  0
LINE
  5
28018
330
747D
100
AcDbEntity
  8
部品1
100
AcDbLine
 10
11046.06467745517
 20
2983.578356805932
 30
0.0
 11
4975.079492068926
 21
2983.578356805932
 31
0.0
  0
LINE
  5
28019
330
747D
100
AcDbEntity
  8
部品1
100
AcDbLine
 10
11046.06467745518
 20
3223.578356805934
 30
0.0
 11
4975.079492068922
 21
3223.578356805934
 31
0.0
  0
ENDSEC
  0
SECTION
  2
OBJECTS
  0
DICTIONARY
  5
7471
330
0
100
AcDbDictionary
281
     1
  3
ACAD_COLOR
350
173D2
  3
ACAD_GROUP
350
7472
  3
ACAD_LAYOUT
350
173D3
  3
ACAD_MATERIAL
350
173D1
  3
ACAD_MLINESTYLE
350
7473
  3
ACAD_PLOTSETTINGS
350
173D4
  3
ACAD_PLOTSTYLENAME
350
173CF
  3
ACDBHEADERROUNDTRIPXREC
350
280A7
  3
AcDbVariableDictionary
350
27BA3
  3
CONTENTDICTIONARY
350
E71C
  3
DRAWINGVARIABLESDICT
350
F3B9
  0
DICTIONARY
  5
1758F
330
7467
100
AcDbDictionary
280
     1
281
     1
  3
ACAD_LAYERSTATES
360
17590
  0
DICTIONARY
  5
173D2
102
{ACAD_REACTORS
330
7471
102
}
330
7471
100
AcDbDictionary
281
     1
  0
DICTIONARY
  5
7472
102
{ACAD_REACTORS
330
7471
102
}
330
7471
100
AcDbDictionary
281
     1
  3
*A1
350
1D2A9
  0
DICTIONARY
  5
173D3
102
{ACAD_REACTORS
330
7471
102
}
330
7471
100
AcDbDictionary
281
     1
  3
Model
350
173D5
  3
レイアウト1
350
173D6
  0
DICTIONARY
  5
173D1
102
{ACAD_REACTORS
330
7471
102
}
330
7471
100
AcDbDictionary
281
     1
  0
DICTIONARY
  5
7473
102
{ACAD_REACTORS
330
7471
102
}
330
7471
100
AcDbDictionary
281
     1
  3
STANDARD
350
7480
  0
DICTIONARY
  5
173D4
102
{ACAD_REACTORS
330
7471
102
}
330
7471
100
AcDbDictionary
281
     1
  0
ACDBDICTIONARYWDFLT
  5
173CF
102
{ACAD_REACTORS
330
7471
102
}
330
7471
100
AcDbDictionary
281
     1
  3
Normal
350
173D0
100
AcDbDictionaryWithDefault
340
173D0
  0
DICTIONARY
  5
280A7
102
{ACAD_REACTORS
330
7471
102
}
330
7471
100
AcDbDictionary
281
     1
  3
COLORDICT
350
280A9
  3
MATERIALDICT
350
280A8
  0
DICTIONARY
  5
27BA3
102
{ACAD_REACTORS
330
7471
102
}
330
7471
100
AcDbDictionary
281
     1
  3
DIMASSOC
350
27BA4
  3
PROJECTNAME
350
27BA5
  0
DICTIONARY
  5
E71C
102
{ACAD_REACTORS
330
7471
102
}
330
7471
100
AcDbDictionary
281
     1
  0
DICTIONARY
  5
F3B9
102
{ACAD_REACTORS
330
7471
102
}
330
7471
100
AcDbDictionary
281
     1
1001
DRAWINGVARIABLESXDATA
1000
POLARMODE
1000
1
  0
DICTIONARY
  5
17590
102
{ACAD_REACTORS
330
1758F
102
}
330
1758F
100
AcDbDictionary
281
     1
  0
GROUP
  5
1D2A9
102
{ACAD_REACTORS
330
7472
102
}
330
7472
100
AcDbGroup
300

 70
     1
 71
     1
  0
LAYOUT
  5
173D5
102
{ACAD_XDICTIONARY
360
280AA
102
}
102
{ACAD_REACTORS
330
173D3
102
}
330
173D3
100
AcDbPlotSettings
  1

  2
Microsoft Office Document Image Writer
  4

  6

 40
0.0
 41
0.0
 42
0.0
 43
0.0
 44
0.0
 45
0.0
 46
0.0
 47
0.0
 48
0.0
 49
0.0
140
0.0
141
0.0
142
1.0
143
1.0
 70
  1712
 72
     0
 73
     0
 74
     0
  7

 75
     0
147
1.0
148
0.0
149
0.0
100
AcDbLayout
  1
Model
 70
     1
 71
     0
 10
0.0
 20
0.0
 11
12.0
 21
9.0
 12
0.0
 22
0.0
 32
0.0
 14
0.0
 24
0.0
 34
0.0
 15
0.0
 25
0.0
 35
0.0
146
0.0
 13
0.0
 23
0.0
 33
0.0
 16
1.0
 26
0.0
 36
0.0
 17
0.0
 27
1.0
 37
0.0
 76
     0
330
747D
  0
LAYOUT
  5
173D6
102
{ACAD_XDICTIONARY
360
280AC
102
}
102
{ACAD_REACTORS
330
173D3
102
}
330
173D3
100
AcDbPlotSettings
  1

  2
Microsoft Office Document Image Writer
  4

  6

 40
0.0
 41
0.0
 42
0.0
 43
0.0
 44
0.0
 45
0.0
 46
0.0
 47
0.0
 48
0.0
 49
0.0
140
0.0
141
0.0
142
1.0
143
1.0
 70
   688
 72
     0
 73
     0
 74
     5
  7

 75
    16
147
1.0
148
0.0
149
0.0
100
AcDbLayout
  1
レイアウト1
 70
     0
 71
     1
 10
0.0
 20
0.0
 11
420.0
 21
297.0
 12
0.0
 22
0.0
 32
0.0
 14
1.000000000000000E+20
 24
1.000000000000000E+20
 34
1.000000000000000E+20
 15
-1.000000000000000E+20
 25
-1.000000000000000E+20
 35
-1.000000000000000E+20
146
0.0
 13
0.0
 23
0.0
 33
0.0
 16
1.0
 26
0.0
 36
0.0
 17
0.0
 27
1.0
 37
0.0
 76
     0
330
747A
  0
MLINESTYLE
  5
7480
102
{ACAD_REACTORS
330
7473
102
}
330
7473
100
AcDbMlineStyle
  2
STANDARD
 70
     0
  3

 62
     0
 51
90.0
 52
90.0
 71
     2
 49
0.5
 62
   256
  6
BYLAYER
 49
-0.5
 62
   256
  6
BYLAYER
  0
ACDBPLACEHOLDER
  5
173D0
102
{ACAD_REACTORS
330
173CF
102
}
330
173CF
  0
XRECORD
  5
280A9
102
{ACAD_REACTORS
330
280A7
102
}
330
280A7
100
AcDbXrecord
280
     1
340
173D2
  0
XRECORD
  5
280A8
102
{ACAD_REACTORS
330
280A7
102
}
330
280A7
100
AcDbXrecord
280
     1
340
173D1
  0
DICTIONARYVAR
  5
27BA4
102
{ACAD_REACTORS
330
27BA3
102
}
330
27BA3
100
DictionaryVariables
280
     0
  1
1
  0
DICTIONARYVAR
  5
27BA5
102
{ACAD_REACTORS
330
27BA3
102
}
330
27BA3
100
DictionaryVariables
280
     0
  1

  0
DICTIONARY
  5
280AA
330
173D5
100
AcDbDictionary
280
     1
281
     1
  3
ACAD_XREC_ROUNDTRIP
360
280AB
  0
DICTIONARY
  5
280AC
330
173D6
100
AcDbDictionary
280
     1
281
     1
  3
ACAD_XREC_ROUNDTRIP
360
280AD
  0
XRECORD
  5
280AB
102
{ACAD_REACTORS
330
280AA
102
}
330
280AA
100
AcDbXrecord
280
     1
102
SHADEPLOT
 70
     0
102
SHADEPLOTRESLEVEL
 70
     2
102
SHADEPLOTCUSTOMDPI
 70
   300
  0
XRECORD
  5
280AD
102
{ACAD_REACTORS
330
280AC
102
}
330
280AC
100
AcDbXrecord
280
     1
102
SHADEPLOT
 70
     0
102
SHADEPLOTRESLEVEL
 70
     2
102
SHADEPLOTCUSTOMDPI
 70
   300
  0
ENDSEC
  0
EOF
